  0
SECTION
  2
HEADER
  9
$ACADVER
  1
AC1015
  9
$ACADMAINTVER
 70
     6
  9
$DWGCODEPAGE
  3
ANSI_1252
  9
$INSBASE
 10
0.0
 20
0.0
 30
0.0
  9
$EXTMIN
 10
0.0
 20
0.0
 30
0.0
  9
$EXTMAX
 10
297.0
 20
210.0
 30
0.0
  9
$LIMMIN
 10
0.0
 20
0.0
  9
$LIMMAX
 10
297.0
 20
210.0
  9
$ORTHOMODE
 70
     0
  9
$REGENMODE
 70
     1
  9
$FILLMODE
 70
     1
  9
$QTEXTMODE
 70
     0
  9
$MIRRTEXT
 70
     1
  9
$LTSCALE
 40
1.0
  9
$ATTMODE
 70
     1
  9
$TEXTSIZE
 40
2.0
  9
$TRACEWID
 40
1.0
  9
$TEXTSTYLE
  7
Standard
  9
$CLAYER
  8
0
  9
$CELTYPE
  6
ByLayer
  9
$CECOLOR
 62
   256
  9
$CELTSCALE
 40
1.0
  9
$DISPSILH
 70
     0
  9
$DIMSCALE
 40
1.0
  9
$DIMASZ
 40
3.0
  9
$DIMEXO
 40
0.0
  9
$DIMDLI
 40
3.75
  9
$DIMRND
 40
0.0
  9
$DIMDLE
 40
0.0
  9
$DIMEXE
 40
1.0
  9
$DIMTP
 40
0.0
  9
$DIMTM
 40
0.0
  9
$DIMTXT
 40
2.0
  9
$DIMCEN
 40
2.5
  9
$DIMTSZ
 40
0.0
  9
$DIMTOL
 70
     0
  9
$DIMLIM
 70
     0
  9
$DIMTIH
 70
     1
  9
$DIMTOH
 70
     1
  9
$DIMSE1
 70
     0
  9
$DIMSE2
 70
     0
  9
$DIMTAD
 70
     1
  9
$DIMZIN
 70
     0
  9
$DIMBLK
  1

  9
$DIMASO
 70
     1
  9
$DIMSHO
 70
     1
  9
$DIMPOST
  1

  9
$DIMAPOST
  1

  9
$DIMALT
 70
     0
  9
$DIMALTD
 70
     3
  9
$DIMALTF
 40
0.0393700787
  9
$DIMLFAC
 40
1.0
  9
$DIMTOFL
 70
     1
  9
$DIMTVP
 40
0.0
  9
$DIMTIX
 70
     0
  9
$DIMSOXD
 70
     0
  9
$DIMSAH
 70
     0
  9
$DIMBLK1
  1

  9
$DIMBLK2
  1

  9
$DIMSTYLE
  2
ISO-25
  9
$DIMCLRD
 70
     0
  9
$DIMCLRE
 70
     0
  9
$DIMCLRT
 70
     0
  9
$DIMTFAC
 40
1.0
  9
$DIMGAP
 40
1.524
  9
$DIMJUST
 70
     0
  9
$DIMSD1
 70
     0
  9
$DIMSD2
 70
     0
  9
$DIMTOLJ
 70
     0
  9
$DIMTZIN
 70
     0
  9
$DIMALTZ
 70
     0
  9
$DIMALTTZ
 70
     0
  9
$DIMUPT
 70
     0
  9
$DIMDEC
 70
     2
  9
$DIMTDEC
 70
     3
  9
$DIMALTU
 70
     2
  9
$DIMALTTD
 70
     3
  9
$DIMTXSTY
  7
Standard
  9
$DIMAUNIT
 70
     0
  9
$DIMADEC
 70
     2
  9
$DIMALTRND
 40
0.0
  9
$DIMAZIN
 70
     0
  9
$DIMDSEP
 70
    44
  9
$DIMATFIT
 70
     3
  9
$DIMFRAC
 70
     0
  9
$DIMLDRBLK
  1

  9
$DIMLUNIT
 70
     2
  9
$DIMLWD
 70
    -2
  9
$DIMLWE
 70
    -2
  9
$DIMTMOVE
 70
     0
  9
$LUNITS
 70
     2
  9
$LUPREC
 70
     2
  9
$SKETCHINC
 40
1.0
  9
$FILLETRAD
 40
10.0
  9
$AUNITS
 70
     0
  9
$AUPREC
 70
     2
  9
$MENU
  1
.
  9
$ELEVATION
 40
0.0
  9
$PELEVATION
 40
0.0
  9
$THICKNESS
 40
0.0
  9
$LIMCHECK
 70
     0
  9
$CHAMFERA
 40
10.0
  9
$CHAMFERB
 40
10.0
  9
$CHAMFERC
 40
20.0
  9
$CHAMFERD
 40
0.0
  9
$SKPOLY
 70
     0
  9
$TDCREATE
 40
2455673.498506817
  9
$TDUCREATE
 40
2455673.415173484
  9
$TDUPDATE
 40
2455673.498506829
  9
$TDUUPDATE
 40
2455673.415173495
  9
$TDINDWG
 40
0.0000000116
  9
$TDUSRTIMER
 40
0.0000000116
  9
$USRTIMER
 70
     1
  9
$ANGBASE
 50
0.0
  9
$ANGDIR
 70
     0
  9
$PDMODE
 70
     0
  9
$PDSIZE
 40
-1.0
  9
$PLINEWID
 40
0.0
  9
$SPLFRAME
 70
     0
  9
$SPLINETYPE
 70
     6
  9
$SPLINESEGS
 70
     8
  9
$HANDSEED
  5
208
  9
$SURFTAB1
 70
     6
  9
$SURFTAB2
 70
     6
  9
$SURFTYPE
 70
     6
  9
$SURFU
 70
     6
  9
$SURFV
 70
     6
  9
$UCSBASE
  2

  9
$UCSNAME
  2

  9
$UCSORG
 10
0.0
 20
0.0
 30
0.0
  9
$UCSXDIR
 10
1.0
 20
0.0
 30
0.0
  9
$UCSYDIR
 10
0.0
 20
1.0
 30
0.0
  9
$UCSORTHOREF
  2

  9
$UCSORTHOVIEW
 70
     0
  9
$UCSORGTOP
 10
0.0
 20
0.0
 30
0.0
  9
$UCSORGBOTTOM
 10
0.0
 20
0.0
 30
0.0
  9
$UCSORGLEFT
 10
0.0
 20
0.0
 30
0.0
  9
$UCSORGRIGHT
 10
0.0
 20
0.0
 30
0.0
  9
$UCSORGFRONT
 10
0.0
 20
0.0
 30
0.0
  9
$UCSORGBACK
 10
0.0
 20
0.0
 30
0.0
  9
$PUCSBASE
  2

  9
$PUCSNAME
  2

  9
$PUCSORG
 10
0.0
 20
0.0
 30
0.0
  9
$PUCSXDIR
 10
1.0
 20
0.0
 30
0.0
  9
$PUCSYDIR
 10
0.0
 20
1.0
 30
0.0
  9
$PUCSORTHOREF
  2

  9
$PUCSORTHOVIEW
 70
     0
  9
$PUCSORGTOP
 10
0.0
 20
0.0
 30
0.0
  9
$PUCSORGBOTTOM
 10
0.0
 20
0.0
 30
0.0
  9
$PUCSORGLEFT
 10
0.0
 20
0.0
 30
0.0
  9
$PUCSORGRIGHT
 10
0.0
 20
0.0
 30
0.0
  9
$PUCSORGFRONT
 10
0.0
 20
0.0
 30
0.0
  9
$PUCSORGBACK
 10
0.0
 20
0.0
 30
0.0
  9
$USERI1
 70
     0
  9
$USERI2
 70
     0
  9
$USERI3
 70
     0
  9
$USERI4
 70
     0
  9
$USERI5
 70
     0
  9
$USERR1
 40
0.0
  9
$USERR2
 40
0.0
  9
$USERR3
 40
0.0
  9
$USERR4
 40
0.0
  9
$USERR5
 40
0.0
  9
$WORLDVIEW
 70
     1
  9
$SHADEDGE
 70
     3
  9
$SHADEDIF
 70
    70
  9
$TILEMODE
 70
     1
  9
$MAXACTVP
 70
    64
  9
$PINSBASE
 10
0.0
 20
0.0
 30
0.0
  9
$PLIMCHECK
 70
     0
  9
$PEXTMIN
 10
1.0000000000E+20
 20
1.0000000000E+20
 30
1.0000000000E+20
  9
$PEXTMAX
 10
-1.0000000000E+20
 20
-1.0000000000E+20
 30
-1.0000000000E+20
  9
$PLIMMIN
 10
0.0
 20
0.0
  9
$PLIMMAX
 10
420.0
 20
297.0
  9
$UNITMODE
 70
     0
  9
$VISRETAIN
 70
     1
  9
$PLINEGEN
 70
     0
  9
$PSLTSCALE
 70
     1
  9
$TREEDEPTH
 70
  3020
  9
$CMLSTYLE
  2
Standard
  9
$CMLJUST
 70
     0
  9
$CMLSCALE
 40
20.0
  9
$PROXYGRAPHICS
 70
     1
  9
$MEASUREMENT
 70
     1
  9
$CELWEIGHT
370
    -1
  9
$ENDCAPS
280
     0
  9
$JOINSTYLE
280
     0
  9
$LWDISPLAY
290
     1
  9
$INSUNITS
 70
     4
  9
$HYPERLINKBASE
  1

  9
$STYLESHEET
  1

  9
$XEDIT
290
     1
  9
$CEPSNTYPE
380
     0
  9
$PSTYLEMODE
290
     1
  9
$FINGERPRINTGUID
  2
{B3B321A1-F479-4AC8-B492-9FC944EC4225}
  9
$VERSIONGUID
  2
{FAEB1C32-E019-11D5-929B-00C0DF256EC4}
  9
$EXTNAMES
290
     1
  9
$PSVPSCALE
 40
0.0
  9
$OLESTARTUP
290
     0
  0
ENDSEC
  0
SECTION
  2
CLASSES
  0
CLASS
  1
ACDBDICTIONARYWDFLT
  2
AcDbDictionaryWithDefault
  3
ObjectDBX Classes
 90
        0
280
     0
281
     0
  0
CLASS
  1
VISUALSTYLE
  2
AcDbVisualStyle
  3
ObjectDBX Classes
 90
     4095
280
     0
281
     0
  0
CLASS
  1
DICTIONARYVAR
  2
AcDbDictionaryVar
  3
ObjectDBX Classes
 90
        0
280
     0
281
     0
  0
CLASS
  1
ACDBPLACEHOLDER
  2
AcDbPlaceHolder
  3
ObjectDBX Classes
 90
        0
280
     0
281
     0
  0
CLASS
  1
LAYOUT
  2
AcDbLayout
  3
ObjectDBX Classes
 90
        0
280
     0
281
     0
  0
ENDSEC
  0
SECTION
  2
TABLES
  0
TABLE
  2
VPORT
  5
8
330
0
100
AcDbSymbolTable
 70
     1
  0
VPORT
  5
29
330
8
100
AcDbSymbolTableRecord
100
AcDbViewportTableRecord
  2
*Active
 70
     0
 10
0.0
 20
0.0
 11
1.0
 21
1.0
 12
148.5
 22
105.0
 13
0.0
 23
0.0
 14
10.0
 24
10.0
 15
10.0
 25
10.0
 16
0.0
 26
0.0
 36
1.0
 17
0.0
 27
0.0
 37
0.0
 40
210.0
 41
1.4142857143
 42
50.0
 43
0.0
 44
0.0
 50
0.0
 51
0.0
 71
     0
 72
  2000
 73
     1
 74
     3
 75
     0
 76
     0
 77
     0
 78
     0
281
     0
 65
     1
110
0.0
120
0.0
130
0.0
111
1.0
121
0.0
131
0.0
112
0.0
122
1.0
132
0.0
 79
     0
146
0.0
  0
ENDTAB
  0
TABLE
  2
LTYPE
  5
5
330
0
100
AcDbSymbolTable
 70
     6
  0
LTYPE
  5
14
330
5
100
AcDbSymbolTableRecord
100
AcDbLinetypeTableRecord
  2
ByBlock
 70
     0
  3

 72
    65
 73
     0
 40
0.0
  0
LTYPE
  5
15
330
5
100
AcDbSymbolTableRecord
100
AcDbLinetypeTableRecord
  2
ByLayer
 70
     0
  3

 72
    65
 73
     0
 40
0.0
  0
LTYPE
  5
16
330
5
100
AcDbSymbolTableRecord
100
AcDbLinetypeTableRecord
  2
Continuous
 70
     0
  3
Solid line
 72
    65
 73
     0
 40
0.0
  0
LTYPE
  5
3B
330
5
100
AcDbSymbolTableRecord
100
AcDbLinetypeTableRecord
  2
HIDDEN
 70
     0
  3
Hidden __ __ __ __ __ __ __ __ __ __ __ __ __ __
 72
    65
 73
     2
 40
1.905
 49
1.27
 74
     0
 49
-0.635
 74
     0
  0
LTYPE
  5
3C
330
5
100
AcDbSymbolTableRecord
100
AcDbLinetypeTableRecord
  2
PHANTOM
 70
     0
  3
Phantom ______  __  __  ______  __  __  ______
 72
    65
 73
     6
 40
12.7
 49
6.35
 74
     0
 49
-1.27
 74
     0
 49
1.27
 74
     0
 49
-1.27
 74
     0
 49
1.27
 74
     0
 49
-1.27
 74
     0
  0
LTYPE
  5
3D
330
5
100
AcDbSymbolTableRecord
100
AcDbLinetypeTableRecord
  2
CENTER
 70
     0
  3
Center ____ _ ____ _ ____ _ ____ _ ____ _ ____
 72
    65
 73
     4
 40
10.16
 49
6.35
 74
     0
 49
-1.27
 74
     0
 49
1.27
 74
     0
 49
-1.27
 74
     0
  0
LTYPE
  5
3E
330
5
100
AcDbSymbolTableRecord
100
AcDbLinetypeTableRecord
  2
CENTERX2
 70
     0
  3
Center (2x) ________  __  ________  __  _____
 72
    65
 73
     4
 40
20.32
 49
12.7
 74
     0
 49
-2.54
 74
     0
 49
2.54
 74
     0
 49
-2.54
 74
     0
  0
LTYPE
  5
3F
330
5
100
AcDbSymbolTableRecord
100
AcDbLinetypeTableRecord
  2
DOT2
 70
     0
  3
Dot (.5x) ........................................
 72
    65
 73
     2
 40
0.635
 49
0.0
 74
     0
 49
-0.635
 74
     0
  0
ENDTAB
  0
TABLE
  2
LAYER
  5
2
330
0
100
AcDbSymbolTable
 70
     5
  0
LAYER
  5
10
330
2
100
AcDbSymbolTableRecord
100
AcDbLayerTableRecord
  2
0
 70
     0
 62
     7
  6
Continuous
370
    -3
390
F
  0
LAYER
  5
40
330
2
100
AcDbSymbolTableRecord
100
AcDbLayerTableRecord
  2
FORMAT
 70
     0
 62
     7
  6
Continuous
370
    -3
390
F
  0
LAYER
  5
41
330
2
100
AcDbSymbolTableRecord
100
AcDbLayerTableRecord
  2
VERMASSUNG
 70
     0
 62
     7
  6
Continuous
370
    -3
390
F
  0
LAYER
  5
42
330
2
100
AcDbSymbolTableRecord
100
AcDbLayerTableRecord
  2
KOPF_DÜNN
 70
     0
 62
     7
  6
Continuous
370
    -3
390
F
  0
LAYER
  5
43
330
2
100
AcDbSymbolTableRecord
100
AcDbLayerTableRecord
  2
KOPF_DICK
 70
     0
 62
     7
  6
Continuous
370
    15
390
F
  0
ENDTAB
  0
TABLE
  2
STYLE
  5
3
330
0
100
AcDbSymbolTable
 70
     3
  0
STYLE
  5
11
330
3
100
AcDbSymbolTableRecord
100
AcDbTextStyleTableRecord
  2
Standard
 70
     0
 40
0.0
 41
1.0
 50
0.0
 71
     0
 42
2.5
  3
txt
  4

  0
STYLE
  5
44
330
3
100
AcDbSymbolTableRecord
100
AcDbTextStyleTableRecord
  2
SLDTEXTSTYLE0
 70
     0
 40
0.0
 41
0.7
 50
0.0
 71
     0
 42
0.2
  3
TXT
  4

  0
STYLE
  5
48
330
3
100
AcDbSymbolTableRecord
100
AcDbTextStyleTableRecord
  2
SLDTEXTSTYLE1
 70
     0
 40
0.0
 41
0.65
 50
0.0
 71
     0
 42
0.2
  3
TXT
  4

  0
ENDTAB
  0
TABLE
  2
VIEW
  5
6
330
0
100
AcDbSymbolTable
 70
     0
  0
ENDTAB
  0
TABLE
  2
UCS
  5
7
330
0
100
AcDbSymbolTable
 70
     0
  0
ENDTAB
  0
TABLE
  2
APPID
  5
9
330
0
100
AcDbSymbolTable
 70
     1
  0
APPID
  5
12
330
9
100
AcDbSymbolTableRecord
100
AcDbRegAppTableRecord
  2
ACAD
 70
     0
  0
ENDTAB
  0
TABLE
  2
DIMSTYLE
  5
A
330
0
100
AcDbSymbolTable
 70
     2
100
AcDbDimStyleTable
  0
DIMSTYLE
105
27
330
A
100
AcDbSymbolTableRecord
100
AcDbDimStyleTableRecord
  2
ISO-25
 70
     0
 41
2.5
 42
0.625
 43
3.75
 44
1.25
 73
     0
 74
     0
 77
     1
 78
     8
140
2.5
141
2.5
143
0.0393700787
147
0.625
171
     3
172
     1
271
     2
272
     2
274
     3
278
    44
283
     0
284
     8
340
11
  0
DIMSTYLE
105
1C1
102
{ACAD_REACTORS
330
1C0
330
1CD
330
1D7
330
1E1
330
1EB
330
1F6
102
}
330
A
100
AcDbSymbolTableRecord
100
AcDbDimStyleTableRecord
  2
SLDDIMSTYLE0
 70
     0
 41
3.0
 44
0.0
 45
0.000000001
 73
     0
 74
     0
 77
     1
 78
    12
140
2.0
147
0.5
173
     1
271
     2
272
     3
284
    12
340
44
  0
ENDTAB
  0
TABLE
  2
BLOCK_RECORD
  5
1
330
0
100
AcDbSymbolTable
 70
     7
  0
BLOCK_RECORD
  5
1F
330
1
100
AcDbSymbolTableRecord
100
AcDbBlockTableRecord
  2
*Model_Space
340
22
  0
BLOCK_RECORD
  5
1B
330
1
100
AcDbSymbolTableRecord
100
AcDbBlockTableRecord
  2
*Paper_Space
340
1E
  0
BLOCK_RECORD
  5
23
330
1
100
AcDbSymbolTableRecord
100
AcDbBlockTableRecord
  2
*Paper_Space0
340
26
  0
BLOCK_RECORD
  5
1C2
330
1
100
AcDbSymbolTableRecord
100
AcDbBlockTableRecord
  2
*D1
340
0
  0
BLOCK_RECORD
  5
1CE
330
1
100
AcDbSymbolTableRecord
100
AcDbBlockTableRecord
  2
*D2
340
0
  0
BLOCK_RECORD
  5
1D8
330
1
100
AcDbSymbolTableRecord
100
AcDbBlockTableRecord
  2
*D3
340
0
  0
BLOCK_RECORD
  5
1E2
330
1
100
AcDbSymbolTableRecord
100
AcDbBlockTableRecord
  2
*D4
340
0
  0
BLOCK_RECORD
  5
1EC
330
1
100
AcDbSymbolTableRecord
100
AcDbBlockTableRecord
  2
*D5
340
0
  0
BLOCK_RECORD
  5
1F7
330
1
100
AcDbSymbolTableRecord
100
AcDbBlockTableRecord
  2
*D6
340
0
  0
ENDTAB
  0
ENDSEC
  0
SECTION
  2
BLOCKS
  0
BLOCK
  5
20
330
1F
100
AcDbEntity
  8
0
100
AcDbBlockBegin
  2
*Model_Space
 70
     0
 10
0.0
 20
0.0
 30
0.0
  3
*Model_Space
  1

  0
ENDBLK
  5
21
330
1F
100
AcDbEntity
  8
0
100
AcDbBlockEnd
  0
BLOCK
  5
1C
330
1B
100
AcDbEntity
 67
     1
  8
0
100
AcDbBlockBegin
  2
*Paper_Space
 70
     0
 10
0.0
 20
0.0
 30
0.0
  3
*Paper_Space
  1

  0
ENDBLK
  5
1D
330
1B
100
AcDbEntity
 67
     1
  8
0
100
AcDbBlockEnd
  0
BLOCK
  5
24
330
23
100
AcDbEntity
  8
0
100
AcDbBlockBegin
  2
*Paper_Space0
 70
     0
 10
0.0
 20
0.0
 30
0.0
  3
*Paper_Space0
  1

  0
ENDBLK
  5
25
330
23
100
AcDbEntity
  8
0
100
AcDbBlockEnd
  0
BLOCK
  5
1C3
330
1C2
100
AcDbEntity
  8
0
100
AcDbBlockBegin
  2
*D1
 70
     1
 10
0.0
 20
0.0
 30
0.0
  3
*D1
  1

  0
SOLID
  5
1C5
330
1C2
100
AcDbEntity
  8
VERMASSUNG
100
AcDbTrace
 10
34.8265373991
 20
163.8175342713
 30
0.0
 11
34.3765373991
 21
160.8175342713
 31
0.0
 12
35.2765373991
 22
160.8175342713
 32
0.0
 13
35.2765373991
 23
160.8175342713
 33
0.0
  0
SOLID
  5
1C6
330
1C2
100
AcDbEntity
  8
VERMASSUNG
100
AcDbTrace
 10
34.8265373991
 20
63.8175342713
 30
0.0
 11
35.2765373991
 21
66.8175342713
 31
0.0
 12
34.3765373991
 22
66.8175342713
 32
0.0
 13
34.3765373991
 23
66.8175342713
 33
0.0
  0
LINE
  5
1C7
330
1C2
100
AcDbEntity
  8
VERMASSUNG
100
AcDbLine
 10
91.1487918096
 20
163.8175342713
 30
0.0
 11
33.8265373991
 21
163.8175342713
 31
0.0
  0
LINE
  5
1C8
330
1C2
100
AcDbEntity
  8
VERMASSUNG
100
AcDbLine
 10
91.1487918096
 20
63.8175342713
 30
0.0
 11
33.8265373991
 21
63.8175342713
 31
0.0
  0
LINE
  5
1C9
330
1C2
100
AcDbEntity
  8
VERMASSUNG
100
AcDbLine
 10
34.8265373991
 20
163.8175342713
 30
0.0
 11
34.8265373991
 21
63.8175342713
 31
0.0
  0
MTEXT
  5
1CA
330
1C2
100
AcDbEntity
  8
VERMASSUNG
100
AcDbMText
 10
32.0484019101
 20
104.7079106209
 30
0.0
 40
2.0
 41
0.0
 71
     1
 72
     1
  1
HSK A 
  7
SLDTEXTSTYLE0
 11
-7.044195017643634E-15
 21
1.0
 31
0.0
 73
     1
 44
1.0
  0
MTEXT
  5
1CB
330
1C2
100
AcDbEntity
  8
VERMASSUNG
100
AcDbMText
 10
32.2484019196
 20
113.7079111648
 30
0.0
 40
2.0
 41
0.0
 71
     1
 72
     1
  1
%%c
  7
SLDTEXTSTYLE0
 11
-7.044195017643634E-15
 21
1.0
 31
0.0
 73
     1
 44
1.0
  0
MTEXT
  5
1CC
330
1C2
100
AcDbEntity
  8
VERMASSUNG
100
AcDbMText
 10
32.248402036
 20
117.3162378148
 30
0.0
 40
2.0
 41
0.0
 71
     1
 72
     1
  1
100
  7
SLDTEXTSTYLE0
 11
-7.044195017643634E-15
 21
1.0
 31
0.0
 73
     1
 44
1.0
  0
ENDBLK
  5
1C4
330
1C2
100
AcDbEntity
  8
0
100
AcDbBlockEnd
  0
BLOCK
  5
1CF
330
1CE
100
AcDbEntity
  8
0
100
AcDbBlockBegin
  2
*D2
 70
     1
 10
0.0
 20
0.0
 30
0.0
  3
*D2
  1

  0
SOLID
  5
1D1
330
1CE
100
AcDbEntity
  8
VERMASSUNG
100
AcDbTrace
 10
119.5987918096
 20
168.2388949079
 30
0.0
 11
122.5987918096
 21
167.7888949079
 31
0.0
 12
122.5987918096
 22
168.6888949079
 32
0.0
 13
122.5987918096
 23
168.6888949079
 33
0.0
  0
SOLID
  5
1D2
330
1CE
100
AcDbEntity
  8
VERMASSUNG
100
AcDbTrace
 10
250.6487918096
 20
168.2388949079
 30
0.0
 11
247.6487918096
 21
168.6888949079
 31
0.0
 12
247.6487918096
 22
167.7888949079
 32
0.0
 13
247.6487918096
 23
167.7888949079
 33
0.0
  0
LINE
  5
1D3
330
1CE
100
AcDbEntity
  8
VERMASSUNG
100
AcDbLine
 10
119.5987918096
 20
161.7862740921
 30
0.0
 11
119.5987918096
 21
169.2388949079
 31
0.0
  0
LINE
  5
1D4
330
1CE
100
AcDbEntity
  8
VERMASSUNG
100
AcDbLine
 10
250.6487918096
 20
138.9891071466
 30
0.0
 11
250.6487918096
 21
169.2388949079
 31
0.0
  0
LINE
  5
1D5
330
1CE
100
AcDbEntity
  8
VERMASSUNG
100
AcDbLine
 10
119.5987918096
 20
168.2388949079
 30
0.0
 11
250.6487918096
 21
168.2388949079
 31
0.0
  0
MTEXT
  5
1D6
330
1CE
100
AcDbEntity
  8
VERMASSUNG
100
AcDbMText
 10
181.7239759916
 20
170.817030271
 30
0.0
 40
2.0
 41
0.0
 71
     1
 72
     1
  1
131.05
  7
SLDTEXTSTYLE0
 73
     1
 44
1.0
  0
ENDBLK
  5
1D0
330
1CE
100
AcDbEntity
  8
0
100
AcDbBlockEnd
  0
BLOCK
  5
1D9
330
1D8
100
AcDbEntity
  8
0
100
AcDbBlockBegin
  2
*D3
 70
     1
 10
0.0
 20
0.0
 30
0.0
  3
*D3
  1

  0
SOLID
  5
1DB
330
1D8
100
AcDbEntity
  8
VERMASSUNG
100
AcDbTrace
 10
90.6487918096
 20
174.2388949079
 30
0.0
 11
93.6487918096
 21
173.7888949079
 31
0.0
 12
93.6487918096
 22
174.6888949079
 32
0.0
 13
93.6487918096
 23
174.6888949079
 33
0.0
  0
SOLID
  5
1DC
330
1D8
100
AcDbEntity
  8
VERMASSUNG
100
AcDbTrace
 10
250.6487918096
 20
174.2388949079
 30
0.0
 11
247.6487918096
 21
174.6888949079
 31
0.0
 12
247.6487918096
 22
173.7888949079
 32
0.0
 13
247.6487918096
 23
173.7888949079
 33
0.0
  0
LINE
  5
1DD
330
1D8
100
AcDbEntity
  8
VERMASSUNG
100
AcDbLine
 10
90.6487918096
 20
163.3175342713
 30
0.0
 11
90.6487918096
 21
175.2388949079
 31
0.0
  0
LINE
  5
1DE
330
1D8
100
AcDbEntity
  8
VERMASSUNG
100
AcDbLine
 10
250.6487918096
 20
138.9891071466
 30
0.0
 11
250.6487918096
 21
175.2388949079
 31
0.0
  0
LINE
  5
1DF
330
1D8
100
AcDbEntity
  8
VERMASSUNG
100
AcDbLine
 10
90.6487918096
 20
174.2388949079
 30
0.0
 11
250.6487918096
 21
174.2388949079
 31
0.0
  0
MTEXT
  5
1E0
330
1D8
100
AcDbEntity
  8
VERMASSUNG
100
AcDbMText
 10
168.749304269
 20
176.817030271
 30
0.0
 40
2.0
 41
0.0
 71
     1
 72
     1
  1
160
  7
SLDTEXTSTYLE0
 73
     1
 44
1.0
  0
ENDBLK
  5
1DA
330
1D8
100
AcDbEntity
  8
0
100
AcDbBlockEnd
  0
BLOCK
  5
1E3
330
1E2
100
AcDbEntity
  8
0
100
AcDbBlockBegin
  2
*D4
 70
     1
 10
0.0
 20
0.0
 30
0.0
  3
*D4
  1

  0
SOLID
  5
1E5
330
1E2
100
AcDbEntity
  8
VERMASSUNG
100
AcDbTrace
 10
250.6487918096
 20
180.2388949079
 30
0.0
 11
247.6487918096
 21
180.6888949079
 31
0.0
 12
247.6487918096
 22
179.7888949079
 32
0.0
 13
247.6487918096
 23
179.7888949079
 33
0.0
  0
SOLID
  5
1E6
330
1E2
100
AcDbEntity
  8
VERMASSUNG
100
AcDbTrace
 10
40.7487918096
 20
180.2388949079
 30
0.0
 11
43.7487918096
 21
179.7888949079
 31
0.0
 12
43.7487918096
 22
180.6888949079
 32
0.0
 13
43.7487918096
 23
180.6888949079
 33
0.0
  0
LINE
  5
1E7
330
1E2
100
AcDbEntity
  8
VERMASSUNG
100
AcDbLine
 10
250.6487918096
 20
138.9891071466
 30
0.0
 11
250.6487918096
 21
181.2388949079
 31
0.0
  0
LINE
  5
1E8
330
1E2
100
AcDbEntity
  8
VERMASSUNG
100
AcDbLine
 10
40.7487918096
 20
144.3202040139
 30
0.0
 11
40.7487918096
 21
181.2388949079
 31
0.0
  0
LINE
  5
1E9
330
1E2
100
AcDbEntity
  8
VERMASSUNG
100
AcDbLine
 10
250.6487918096
 20
180.2388949079
 30
0.0
 11
40.7487918096
 21
180.2388949079
 31
0.0
  0
MTEXT
  5
1EA
330
1E2
100
AcDbEntity
  8
VERMASSUNG
100
AcDbMText
 10
142.5995057858
 20
182.817030271
 30
0.0
 40
2.0
 41
0.0
 71
     1
 72
     1
  1
209.9
  7
SLDTEXTSTYLE0
 73
     1
 44
1.0
  0
ENDBLK
  5
1E4
330
1E2
100
AcDbEntity
  8
0
100
AcDbBlockEnd
  0
BLOCK
  5
1ED
330
1EC
100
AcDbEntity
  8
0
100
AcDbBlockBegin
  2
*D5
 70
     1
 10
0.0
 20
0.0
 30
0.0
  3
*D5
  1

  0
SOLID
  5
1EF
330
1EC
100
AcDbEntity
  8
VERMASSUNG
100
AcDbTrace
 10
259.0231795902
 20
129.8175342713
 30
0.0
 11
258.5731795902
 21
126.8175342713
 31
0.0
 12
259.4731795902
 22
126.8175342713
 32
0.0
 13
259.4731795902
 23
126.8175342713
 33
0.0
  0
SOLID
  5
1F0
330
1EC
100
AcDbEntity
  8
VERMASSUNG
100
AcDbTrace
 10
259.0231795902
 20
97.8175342713
 30
0.0
 11
259.4731795902
 21
100.8175342713
 31
0.0
 12
258.5731795902
 22
100.8175342713
 32
0.0
 13
258.5731795902
 23
100.8175342713
 33
0.0
  0
LINE
  5
1F1
330
1EC
100
AcDbEntity
  8
VERMASSUNG
100
AcDbLine
 10
250.1487918096
 20
129.8175342713
 30
0.0
 11
260.0231795902
 21
129.8175342713
 31
0.0
  0
LINE
  5
1F2
330
1EC
100
AcDbEntity
  8
VERMASSUNG
100
AcDbLine
 10
250.1487918096
 20
97.8175342713
 30
0.0
 11
260.0231795902
 21
97.8175342713
 31
0.0
  0
LINE
  5
1F3
330
1EC
100
AcDbEntity
  8
VERMASSUNG
100
AcDbLine
 10
259.0231795902
 20
129.8175342713
 30
0.0
 11
259.0231795902
 21
97.8175342713
 31
0.0
  0
MTEXT
  5
1F4
330
1EC
100
AcDbEntity
  8
VERMASSUNG
100
AcDbMText
 10
256.4450441107
 20
110.6138170449
 30
0.0
 40
2.0
 41
0.0
 71
     1
 72
     1
  1
%%c
  7
SLDTEXTSTYLE0
 11
-7.044195017643634E-15
 21
1.0
 31
0.0
 73
     1
 44
1.0
  0
MTEXT
  5
1F5
330
1EC
100
AcDbEntity
  8
VERMASSUNG
100
AcDbMText
 10
256.4450442271
 20
114.2224952681
 30
0.0
 40
2.0
 41
0.0
 71
     1
 72
     1
  1
32
  7
SLDTEXTSTYLE0
 11
-7.044195017643634E-15
 21
1.0
 31
0.0
 73
     1
 44
1.0
  0
ENDBLK
  5
1EE
330
1EC
100
AcDbEntity
  8
0
100
AcDbBlockEnd
  0
BLOCK
  5
1F8
330
1F7
100
AcDbEntity
  8
0
100
AcDbBlockBegin
  2
*D6
 70
     1
 10
0.0
 20
0.0
 30
0.0
  3
*D6
  1

  0
SOLID
  5
1FA
330
1F7
100
AcDbEntity
  8
VERMASSUNG
100
AcDbTrace
 10
265.0231795902
 20
149.8175342713
 30
0.0
 11
264.5731795902
 21
146.8175342713
 31
0.0
 12
265.4731795902
 22
146.8175342713
 32
0.0
 13
265.4731795902
 23
146.8175342713
 33
0.0
  0
SOLID
  5
1FB
330
1F7
100
AcDbEntity
  8
VERMASSUNG
100
AcDbTrace
 10
265.0231795902
 20
77.8175342713
 30
0.0
 11
265.4731795902
 21
80.8175342713
 31
0.0
 12
264.5731795902
 22
80.8175342713
 32
0.0
 13
264.5731795902
 23
80.8175342713
 33
0.0
  0
LINE
  5
1FC
330
1F7
100
AcDbEntity
  8
VERMASSUNG
100
AcDbLine
 10
239.8203646848
 20
149.8175342713
 30
0.0
 11
266.0231795902
 21
149.8175342713
 31
0.0
  0
LINE
  5
1FD
330
1F7
100
AcDbEntity
  8
VERMASSUNG
100
AcDbLine
 10
239.8203646848
 20
77.8175342713
 30
0.0
 11
266.0231795902
 21
77.8175342713
 31
0.0
  0
LINE
  5
1FE
330
1F7
100
AcDbEntity
  8
VERMASSUNG
100
AcDbLine
 10
265.0231795902
 20
149.8175342713
 30
0.0
 11
265.0231795902
 21
77.8175342713
 31
0.0
  0
MTEXT
  5
1FF
330
1F7
100
AcDbEntity
  8
VERMASSUNG
100
AcDbMText
 10
262.4450441107
 20
110.6138170449
 30
0.0
 40
2.0
 41
0.0
 71
     1
 72
     1
  1
%%c
  7
SLDTEXTSTYLE0
 11
-7.044195017643634E-15
 21
1.0
 31
0.0
 73
     1
 44
1.0
  0
MTEXT
  5
200
330
1F7
100
AcDbEntity
  8
VERMASSUNG
100
AcDbMText
 10
262.4450442271
 20
114.2224952681
 30
0.0
 40
2.0
 41
0.0
 71
     1
 72
     1
  1
72
  7
SLDTEXTSTYLE0
 11
-7.044195017643634E-15
 21
1.0
 31
0.0
 73
     1
 44
1.0
  0
ENDBLK
  5
1F9
330
1F7
100
AcDbEntity
  8
0
100
AcDbBlockEnd
  0
ENDSEC
  0
SECTION
  2
ENTITIES
  0
MTEXT
  5
45
330
1F
100
AcDbEntity
  8
KOPF_DÜNN
100
AcDbMText
 10
13.8892156294
 20
23.8442973028
 30
0.0
 40
3.0
 41
0.0
 71
     1
 72
     1
  1
HA0.W32.K21.160
  7
SLDTEXTSTYLE0
 73
     1
 44
1.0
  0
MTEXT
  5
46
330
1F
100
AcDbEntity
  8
VERMASSUNG
100
AcDbMText
 10
13.9329988022
 20
28.8834360957
 30
0.0
 40
3.0
 41
0.0
 71
     1
 72
     1
  1
Flächenspannfutter_End mill adapter Weldon ø32
  7
SLDTEXTSTYLE0
 73
     1
 44
1.0
  0
MTEXT
  5
47
330
1F
100
AcDbEntity
  8
VERMASSUNG
100
AcDbMText
 10
98.8601118557
 20
13.8365368179
 30
0.0
 40
2.0
 41
0.0
 71
     1
 72
     1
  1
Datum: 09.10.2006
  7
SLDTEXTSTYLE0
 73
     1
 44
1.0
  0
MTEXT
  5
49
330
1F
100
AcDbEntity
  8
VERMASSUNG
100
AcDbMText
 10
13.933048693
 20
18.0482802738
 30
0.0
 40
2.0
 41
0.0
 71
     1
 72
     1
  1
DIN 69 893 HSK A 100
  7
SLDTEXTSTYLE1
 73
     1
 44
1.0
  0
MTEXT
  5
4A
330
1F
100
AcDbEntity
  8
VERMASSUNG
100
AcDbMText
 10
13.9808475933
 20
13.9090973692
 30
0.0
 40
2.0
 41
0.0
 71
     1
 72
     1
  1
Gewicht: 5664g
  7
SLDTEXTSTYLE0
 73
     1
 44
1.0
  0
LINE
  5
4B
330
1F
100
AcDbEntity
  8
0
  6
Continuous
 62
     7
370
    15
100
AcDbLine
 10
250.6487918096
 20
96.8489935363
 30
0.0
 11
250.7348612021
 21
97.0083728501
 31
0.0
  0
LINE
  5
4C
330
1F
100
AcDbEntity
  8
0
  6
Continuous
 62
     7
370
    15
100
AcDbLine
 10
250.6563415706
 20
130.6288771486
 30
0.0
 11
250.6487918096
 21
130.6428574462
 31
0.0
  0
LINE
  5
4D
330
1F
100
AcDbEntity
  8
0
  6
Continuous
 62
     7
370
    15
100
AcDbLine
 10
91.1487918096
 20
63.8175342713
 30
0.0
 11
95.5987918096
 21
63.8175342713
 31
0.0
  0
LINE
  5
4E
330
1F
100
AcDbEntity
  8
0
  6
Continuous
 62
     7
370
    15
100
AcDbLine
 10
95.6328646421
 20
163.8175342713
 30
0.0
 11
91.1487918096
 21
163.8175342713
 31
0.0
  0
ARC
  5
4F
330
1F
100
AcDbEntity
  8
0
  6
Continuous
 62
     7
370
    15
100
AcDbCircle
 10
91.1487918096
 20
64.3175342713
 30
0.0
 40
0.5
100
AcDbArc
 50
180.0
 51
270.0
  0
ARC
  5
50
330
1F
100
AcDbEntity
  8
0
  6
Continuous
 62
     7
370
    15
100
AcDbCircle
 10
91.1487918096
 20
163.3175342713
 30
0.0
 40
0.5
100
AcDbArc
 50
90.0
 51
180.0
  0
ARC
  5
51
330
1F
100
AcDbEntity
  8
0
  6
Continuous
 62
     7
370
    15
100
AcDbCircle
 10
122.5987918096
 20
71.1665527937
 30
0.0
 40
3.0
100
AcDbArc
 50
104.351106149
 51
180.0
  0
ARC
  5
52
330
1F
100
AcDbEntity
  8
0
  6
Continuous
 62
     7
370
    15
100
AcDbCircle
 10
122.5987918096
 20
156.4685157489
 30
0.0
 40
3.000000000000023
100
AcDbArc
 50
180.0
 51
255.648893851
  0
ARC
  5
53
330
1F
100
AcDbEntity
  8
0
  6
Continuous
 62
     7
370
    15
100
AcDbCircle
 10
151.5987918096
 20
-42.1824657287
 30
0.0
 40
120.0
100
AcDbArc
 50
90.0
 51
104.351106149
  0
ARC
  5
54
330
1F
100
AcDbEntity
  8
0
  6
Continuous
 62
     7
370
    15
100
AcDbCircle
 10
151.5987918096
 20
269.8175342713
 30
0.0
 40
120.0
100
AcDbArc
 50
255.648893851
 51
270.0
  0
ARC
  5
55
330
1F
100
AcDbEntity
  8
0
  6
Continuous
 62
     7
370
    15
100
AcDbCircle
 10
89.7518548911
 20
75.1890489469
 30
0.0
 40
0.9962338214386932
100
AcDbArc
 50
25.7988228126
 51
90.0
  0
ARC
  5
56
330
1F
100
AcDbEntity
  8
0
  6
Continuous
 62
     7
370
    15
100
AcDbCircle
 10
89.7518548911
 20
152.4460195957
 30
0.0
 40
0.9962338214386793
100
AcDbArc
 50
270.0
 51
334.2011771874
  0
LINE
  5
57
330
1F
100
AcDbEntity
  8
0
  6
Continuous
 62
     7
370
    15
100
AcDbLine
 10
88.1487918096
 20
75.9352827683
 30
0.0
 11
88.954637964
 21
76.1512085946
 31
0.0
  0
LINE
  5
58
330
1F
100
AcDbEntity
  8
0
  6
Continuous
 62
     7
370
    15
100
AcDbLine
 10
88.954637964
 20
151.483859948
 30
0.0
 11
88.1487918096
 21
151.6997857743
 31
0.0
  0
LINE
  5
59
330
1F
100
AcDbEntity
  8
0
  6
Continuous
 62
     7
370
    15
100
AcDbLine
 10
69.168112891
 20
150.7488499567
 30
0.0
 11
50.8487918096
 21
149.8310482994
 31
0.0
  0
LINE
  5
5A
330
1F
100
AcDbEntity
  8
0
  6
Continuous
 62
     7
370
    15
100
AcDbLine
 10
88.1487918096
 20
151.6997857743
 30
0.0
 11
82.0807526551
 21
151.3957757966
 31
0.0
  0
LINE
  5
5B
330
1F
100
AcDbEntity
  8
0
  6
Continuous
 62
     7
370
    15
100
AcDbLine
 10
82.0808759316
 20
76.2392865698
 30
0.0
 11
88.1487918096
 21
75.9352827683
 31
0.0
  0
LINE
  5
5C
330
1F
100
AcDbEntity
  8
0
  6
Continuous
 62
     7
370
    15
100
AcDbLine
 10
55.8487918096
 20
77.5535192412
 30
0.0
 11
69.1687429635
 21
76.8861870191
 31
0.0
  0
ARC
  5
5D
330
1F
100
AcDbEntity
  8
0
  6
Continuous
 62
     7
370
    15
100
AcDbCircle
 10
89.2134570091
 20
75.1852827683
 30
0.0
 40
1.0
100
AcDbArc
 50
90.0
 51
105.0
  0
ARC
  5
5E
330
1F
100
AcDbEntity
  8
0
  6
Continuous
 62
     7
370
    15
100
AcDbCircle
 10
89.2134570091
 20
152.4497857743
 30
0.0
 40
1.0
100
AcDbArc
 50
255.0
 51
270.0
  0
LINE
  5
5F
330
1F
100
AcDbEntity
  8
0
  6
Continuous
 62
     7
370
    15
100
AcDbLine
 10
89.2134570091
 20
76.1852827683
 30
0.0
 11
89.7518548911
 21
76.1852827683
 31
0.0
  0
LINE
  5
60
330
1F
100
AcDbEntity
  8
0
  6
Continuous
 62
     7
370
    15
100
AcDbLine
 10
89.7518548911
 20
151.4497857743
 30
0.0
 11
89.2134570091
 21
151.4497857743
 31
0.0
  0
LINE
  5
61
330
1F
100
AcDbEntity
  8
0
  6
Continuous
 62
     7
370
    15
100
AcDbLine
 10
163.063549826
 20
77.8175342713
 30
0.0
 11
239.8203646848
 21
77.8175342713
 31
0.0
  0
LINE
  5
62
330
1F
100
AcDbEntity
  8
0
  6
Continuous
 62
     7
370
    15
100
AcDbLine
 10
151.5987918096
 20
77.8175342713
 30
0.0
 11
156.1430362648
 21
77.8175342713
 31
0.0
  0
LINE
  5
63
330
1F
100
AcDbEntity
  8
0
  6
Continuous
 62
     7
370
    15
100
AcDbLine
 10
156.1112504831
 20
149.8175342713
 30
0.0
 11
151.5987918096
 21
149.8175342713
 31
0.0
  0
LINE
  5
64
330
1F
100
AcDbEntity
  8
0
  6
Continuous
 62
     7
370
    15
100
AcDbLine
 10
239.8203646848
 20
149.8175342713
 30
0.0
 11
163.0557323118
 21
149.8175342713
 31
0.0
  0
ARC
  5
65
330
1F
100
AcDbEntity
  8
0
  6
Continuous
 62
     7
370
    15
100
AcDbCircle
 10
239.8203646848
 20
79.8175342713
 30
0.0
 40
1.999999999999986
100
AcDbArc
 50
270.0
 51
315.0
  0
ARC
  5
66
330
1F
100
AcDbEntity
  8
0
  6
Continuous
 62
     7
370
    15
100
AcDbCircle
 10
239.8203646848
 20
147.8175342713
 30
0.0
 40
2.000000000000016
100
AcDbArc
 50
45.0
 51
90.0
  0
LINE
  5
67
330
1F
100
AcDbEntity
  8
0
  6
Continuous
 62
     7
370
    15
100
AcDbLine
 10
241.2345782472
 20
78.4033207089
 30
0.0
 11
250.063005372
 21
87.2317478337
 31
0.0
  0
LINE
  5
68
330
1F
100
AcDbEntity
  8
0
  6
Continuous
 62
     7
370
    15
100
AcDbLine
 10
250.063005372
 20
140.4033207089
 30
0.0
 11
241.2345782472
 21
149.2317478337
 31
0.0
  0
ARC
  5
69
330
1F
100
AcDbEntity
  8
0
  6
Continuous
 62
     7
370
    15
100
AcDbCircle
 10
248.6487918096
 20
88.645961396
 30
0.0
 40
2.0
100
AcDbArc
 50
315.0
 51
0.0
  0
ARC
  5
6A
330
1F
100
AcDbEntity
  8
0
  6
Continuous
 62
     7
370
    15
100
AcDbCircle
 10
248.6487918096
 20
138.9891071466
 30
0.0
 40
2.000000000000016
100
AcDbArc
 50
0.0
 51
45.0
  0
LINE
  5
6B
330
1F
100
AcDbEntity
  8
0
  6
Continuous
 62
     7
370
    15
100
AcDbLine
 10
42.3987918096
 20
81.5675342713
 30
0.0
 11
53.9487918096
 21
81.5675342713
 31
0.0
  0
ARC
  5
6C
330
1F
100
AcDbEntity
  8
0
  6
Continuous
 62
     7
370
    15
100
AcDbCircle
 10
53.9487918096
 20
79.6675342713
 30
0.0
 40
1.900000000000006
100
AcDbArc
 50
35.6630613694
 51
90.0
  0
ARC
  5
6D
330
1F
100
AcDbEntity
  8
0
  6
Continuous
 62
     7
370
    15
100
AcDbCircle
 10
48.9487918096
 20
147.9675342713
 30
0.0
 40
1.900000000000039
100
AcDbArc
 50
270.0
 51
310.9212832533
  0
LINE
  5
6E
330
1F
100
AcDbEntity
  8
0
  6
Continuous
 62
     7
370
    15
100
AcDbLine
 10
42.3987918096
 20
146.0675342713
 30
0.0
 11
40.7994756907
 21
144.4682181524
 31
0.0
  0
LINE
  5
6F
330
1F
100
AcDbEntity
  8
0
  6
Continuous
 62
     7
370
    15
100
AcDbLine
 10
40.8003130606
 20
83.1660130203
 30
0.0
 11
42.3987918096
 21
81.5675342713
 31
0.0
  0
LINE
  5
70
330
1F
100
AcDbEntity
  8
0
  6
Continuous
 62
     7
370
    15
100
AcDbLine
 10
48.9487918096
 20
146.0675342713
 30
0.0
 11
42.3987918096
 21
146.0675342713
 31
0.0
  0
ARC
  5
71
330
1F
100
AcDbEntity
  8
0
  6
Continuous
 62
     7
370
    15
100
AcDbCircle
 10
227.1487918096
 20
113.8175342713
 30
0.0
 40
9.000000000000036
100
AcDbArc
 50
210.1655074461
 51
295.9892763098
  0
ARC
  5
72
330
1F
100
AcDbEntity
  8
0
  6
Continuous
 62
     7
370
    15
100
AcDbCircle
 10
227.1487918096
 20
113.8175342713
 30
0.0
 40
9.000000000000036
100
AcDbArc
 50
64.4121358748
 51
210.1655074461
  0
SPLINE
  5
73
330
1F
100
AcDbEntity
  8
0
  6
Continuous
 62
     7
370
    15
100
AcDbSpline
210
0.0
220
0.0
230
1.0
 70
    24
 71
     3
 72
    11
 73
     7
 74
     0
 42
0.00000001
 43
0.00000001
 40
0.0
 40
0.0
 40
0.0
 40
0.0
 40
0.2164575325957951
 40
0.4403158827730653
 40
0.7519042103606914
 40
0.9999999999999999
 40
0.9999999999999999
 40
0.9999999999999999
 40
0.9999999999999999
 10
222.1571514726269
 20
110.9163517400372
 30
0.0
 10
222.5002295854591
 20
110.719594679558
 30
0.0
 10
223.1981158650462
 20
110.319353312405
 30
0.0
 10
224.4932004369973
 20
109.5766156561163
 30
0.0
 10
225.8823974626789
 20
108.779904024054
 30
0.0
 10
226.7713957980201
 20
108.2700589109729
 30
0.0
 10
227.1654694142008
 20
108.0440556673034
 30
0.0
  0
SPLINE
  5
74
330
1F
100
AcDbEntity
  8
0
  6
Continuous
 62
     7
370
    15
100
AcDbSpline
210
0.0
220
0.0
230
1.0
 70
    24
 71
     3
 72
    11
 73
     7
 74
     0
 42
0.00000001
 43
0.00000001
 40
0.0
 40
0.0
 40
0.0
 40
0.0
 40
0.1132237524490375
 40
0.4733197793773008
 40
0.813837672985487
 40
1.0
 40
1.0
 40
1.0
 40
1.0
 10
232.1571097511655
 20
110.945238198569
 30
0.0
 10
231.9803048554091
 20
110.842477734997
 30
0.0
 10
231.2411909111865
 20
110.4128986149402
 30
0.0
 10
229.8393672355897
 20
109.5981471334606
 30
0.0
 10
228.2852142988904
 20
108.694860629127
 30
0.0
 10
227.4578962819395
 20
108.2140165745574
 30
0.0
 10
227.1654694142008
 20
108.0440556673034
 30
0.0
  0
SPLINE
  5
75
330
1F
100
AcDbEntity
  8
0
  6
Continuous
 62
     7
370
    15
100
AcDbSpline
210
0.0
220
0.0
230
1.0
 70
    24
 71
     3
 72
    11
 73
     7
 74
     0
 42
0.00000001
 43
0.00000001
 40
0.0
 40
0.0
 40
0.0
 40
0.0
 40
0.2164575325957969
 40
0.440315882773072
 40
0.7519042103606973
 40
0.9999999999999999
 40
0.9999999999999999
 40
0.9999999999999999
 40
0.9999999999999999
 10
232.1404321465562
 20
116.7187168025683
 30
0.0
 10
232.1415745902234
 20
116.3232239111336
 30
0.0
 10
232.1438985384169
 20
115.5187159804821
 30
0.0
 10
232.1482111456992
 20
114.0257710129787
 30
0.0
 10
232.1528371456836
 20
112.4243352818455
 30
0.0
 10
232.1557974934306
 20
111.3995175829774
 30
0.0
 10
232.1571097511655
 20
110.945238198569
 30
0.0
  0
SPLINE
  5
76
330
1F
100
AcDbEntity
  8
0
  6
Continuous
 62
     7
370
    15
100
AcDbSpline
210
0.0
220
0.0
230
1.0
 70
    24
 71
     3
 72
    11
 73
     7
 74
     0
 42
0.00000001
 43
0.00000001
 40
0.0
 40
0.0
 40
0.0
 40
0.0
 40
0.2164575325957936
 40
0.440315882773069
 40
0.751904210360696
 40
1.0
 40
1.0
 40
1.0
 40
1.0
 10
232.1404321465562
 20
116.7187168025683
 30
0.0
 10
231.7973540337239
 20
116.9154738630474
 30
0.0
 10
231.0994677541369
 20
117.3157152302004
 30
0.0
 10
229.8043831821857
 20
118.0584528864893
 30
0.0
 10
228.4151861565042
 20
118.8551645185515
 30
0.0
 10
227.5261878211629
 20
119.3650096316326
 30
0.0
 10
227.1321142049823
 20
119.5910128753021
 30
0.0
  0
SPLINE
  5
77
330
1F
100
AcDbEntity
  8
0
  6
Continuous
 62
     7
370
    15
100
AcDbSpline
210
0.0
220
0.0
230
1.0
 70
    24
 71
     3
 72
    11
 73
     7
 74
     0
 42
0.00000001
 43
0.00000001
 40
0.0
 40
0.0
 40
0.0
 40
0.0
 40
0.1132237524490387
 40
0.4733197793773026
 40
0.8138376729854988
 40
1.0
 40
1.0
 40
1.0
 40
1.0
 10
227.1321142049823
 20
119.5910128753021
 30
0.0
 10
226.9553093092258
 20
119.4882524117301
 30
0.0
 10
226.2161953650032
 20
119.0586732916733
 30
0.0
 10
224.8143716894064
 20
118.2439218101936
 30
0.0
 10
223.2602187527071
 20
117.3406353058601
 30
0.0
 10
222.4329007357562
 20
116.8597912512905
 30
0.0
 10
222.1404738680176
 20
116.6898303440365
 30
0.0
  0
SPLINE
  5
78
330
1F
100
AcDbEntity
  8
0
  6
Continuous
 62
     7
370
    15
100
AcDbSpline
210
0.0
220
0.0
230
1.0
 70
    24
 71
     3
 72
    11
 73
     7
 74
     0
 42
0.00000001
 43
0.00000001
 40
0.0
 40
0.0
 40
0.0
 40
0.0
 40
0.2164575325957949
 40
0.4403158827730637
 40
0.751904210360691
 40
1.0
 40
1.0
 40
1.0
 40
1.0
 10
222.1571514726268
 20
110.9163517400372
 30
0.0
 10
222.1560090289596
 20
111.311844631472
 30
0.0
 10
222.153685080766
 20
112.1163525621235
 30
0.0
 10
222.1493724734838
 20
113.6092975296268
 30
0.0
 10
222.1447464734995
 20
115.21073326076
 30
0.0
 10
222.1417861257524
 20
116.2355509596281
 30
0.0
 10
222.1404738680176
 20
116.6898303440365
 30
0.0
  0
CIRCLE
  5
79
330
1F
100
AcDbEntity
  8
0
  6
Continuous
 62
     7
370
    15
100
AcDbCircle
 10
227.1487918096
 20
113.8175342713
 30
0.0
 40
6.499999999999989
  0
ARC
  5
7A
330
1F
100
AcDbEntity
  8
0
  6
Continuous
 62
     7
370
    15
100
AcDbCircle
 10
227.1487918096
 20
113.8175342713
 30
0.0
 40
5.00000000000004
100
AcDbArc
 50
180.1655074461
 51
240.1655074461
  0
ARC
  5
7B
330
1F
100
AcDbEntity
  8
0
  6
Continuous
 62
     7
370
    15
100
AcDbCircle
 10
227.1487918096
 20
113.8175342713
 30
0.0
 40
4.999999999999953
100
AcDbArc
 50
120.1655074461
 51
180.1655074461
  0
ARC
  5
7C
330
1F
100
AcDbEntity
  8
0
  6
Continuous
 62
     7
370
    15
100
AcDbCircle
 10
227.1487918096
 20
113.8175342713
 30
0.0
 40
4.99999999999997
100
AcDbArc
 50
60.1655074461
 51
120.1655074461
  0
ARC
  5
7D
330
1F
100
AcDbEntity
  8
0
  6
Continuous
 62
     7
370
    15
100
AcDbCircle
 10
227.1487918096
 20
113.8175342713
 30
0.0
 40
5.000000000000093
100
AcDbArc
 50
0.1655074461
 51
60.1655074461
  0
ARC
  5
7E
330
1F
100
AcDbEntity
  8
0
  6
Continuous
 62
     7
370
    15
100
AcDbCircle
 10
227.1487918096
 20
113.8175342713
 30
0.0
 40
5.000000000000093
100
AcDbArc
 50
300.1655074461
 51
0.1655074461
  0
ARC
  5
7F
330
1F
100
AcDbEntity
  8
0
  6
Continuous
 62
     7
370
    15
100
AcDbCircle
 10
227.1487918096
 20
113.8175342713
 30
0.0
 40
5.00000000000004
100
AcDbArc
 50
240.1655074461
 51
300.1655074461
  0
SPLINE
  5
80
330
1F
100
AcDbEntity
  8
0
  6
Continuous
 62
     7
370
    15
100
AcDbSpline
210
0.0
220
0.0
230
1.0
 70
    24
 71
     3
 72
    11
 73
     7
 74
     0
 42
0.00000001
 43
0.00000001
 40
0.0
 40
0.0
 40
0.0
 40
0.0
 40
0.2164575325957954
 40
0.4403158827730655
 40
0.7519042103606917
 40
1.0
 40
1.0
 40
1.0
 40
1.0
 10
194.1702002336191
 20
110.8940159708659
 30
0.0
 10
194.5141564667489
 20
110.6987980361261
 30
0.0
 10
195.2138290104098
 20
110.3016875441174
 30
0.0
 10
196.5122283961225
 20
109.5647599291129
 30
0.0
 10
197.9049811196463
 20
108.7742805480139
 30
0.0
 10
198.7962548769792
 20
108.2684236818334
 30
0.0
 10
199.1913371382123
 20
108.044188341225
 30
0.0
  0
SPLINE
  5
81
330
1F
100
AcDbEntity
  8
0
  6
Continuous
 62
     7
370
    15
100
AcDbSpline
210
0.0
220
0.0
230
1.0
 70
    24
 71
     3
 72
    11
 73
     7
 74
     0
 42
0.00000001
 43
0.00000001
 40
0.0
 40
0.0
 40
0.0
 40
0.0
 40
0.1132237524490372
 40
0.4733197793772985
 40
0.8138376729854878
 40
1.0
 40
1.0
 40
1.0
 40
1.0
 10
204.1699287141848
 20
110.9677066416618
 30
0.0
 10
203.9935860081438
 20
110.8641550406934
 30
0.0
 10
203.256404198561
 20
110.4312686554222
 30
0.0
 10
201.8582450622461
 20
109.610244524488
 30
0.0
 10
200.3081548722287
 20
108.7000037528379
 30
0.0
 10
199.4829995661983
 20
108.2154577520121
 30
0.0
 10
199.1913371382123
 20
108.044188341225
 30
0.0
  0
SPLINE
  5
82
330
1F
100
AcDbEntity
  8
0
  6
Continuous
 62
     7
370
    15
100
AcDbSpline
210
0.0
220
0.0
230
1.0
 70
    24
 71
     3
 72
    11
 73
     7
 74
     0
 42
0.00000001
 43
0.00000001
 40
0.0
 40
0.0
 40
0.0
 40
0.0
 40
0.2164575325957969
 40
0.440315882773072
 40
0.7519042103606973
 40
1.0
 40
1.0
 40
1.0
 40
1.0
 10
204.127383385564
 20
116.7410525717396
 30
0.0
 10
204.1302978113699
 20
116.3455687686892
 30
0.0
 10
204.1362263090115
 20
115.541079325544
 30
0.0
 10
204.1472279665236
 20
114.0481686657565
 30
0.0
 10
204.1590291030864
 20
112.4467697354454
 30
0.0
 10
204.1665810849615
 20
111.4219755867785
 30
0.0
 10
204.1699287141848
 20
110.9677066416618
 30
0.0
  0
SPLINE
  5
83
330
1F
100
AcDbEntity
  8
0
  6
Continuous
 62
     7
370
    15
100
AcDbSpline
210
0.0
220
0.0
230
1.0
 70
    24
 71
     3
 72
    11
 73
     7
 74
     0
 42
0.00000001
 43
0.00000001
 40
0.0
 40
0.0
 40
0.0
 40
0.0
 40
0.216457532595795
 40
0.4403158827730694
 40
0.7519042103606951
 40
1.0
 40
1.0
 40
1.0
 40
1.0
 10
204.127383385564
 20
116.7410525717396
 30
0.0
 10
203.7834271524342
 20
116.9362705064794
 30
0.0
 10
203.0837546087732
 20
117.333380998488
 30
0.0
 10
201.7853552230606
 20
118.0703086134926
 30
0.0
 10
200.3926024995367
 20
118.8607879945916
 30
0.0
 10
199.5013287422039
 20
119.3666448607721
 30
0.0
 10
199.1062464809708
 20
119.5908802013805
 30
0.0
  0
SPLINE
  5
84
330
1F
100
AcDbEntity
  8
0
  6
Continuous
 62
     7
370
    15
100
AcDbSpline
210
0.0
220
0.0
230
1.0
 70
    24
 71
     3
 72
    11
 73
     7
 74
     0
 42
0.00000001
 43
0.00000001
 40
0.0
 40
0.0
 40
0.0
 40
0.0
 40
0.1132237524490388
 40
0.4733197793773031
 40
0.813837672985499
 40
0.9999999999999999
 40
0.9999999999999999
 40
0.9999999999999999
 40
0.9999999999999999
 10
199.1062464809708
 20
119.5908802013805
 30
0.0
 10
198.9299037749298
 20
119.4873286004122
 30
0.0
 10
198.1927219653469
 20
119.054442215141
 30
0.0
 10
196.7945628290321
 20
118.2334180842067
 30
0.0
 10
195.2444726390146
 20
117.3231773125567
 30
0.0
 10
194.4193173329842
 20
116.8386313117309
 30
0.0
 10
194.1276549049983
 20
116.6673619009437
 30
0.0
  0
SPLINE
  5
85
330
1F
100
AcDbEntity
  8
0
  6
Continuous
 62
     7
370
    15
100
AcDbSpline
210
0.0
220
0.0
230
1.0
 70
    24
 71
     3
 72
    11
 73
     7
 74
     0
 42
0.00000001
 43
0.00000001
 40
0.0
 40
0.0
 40
0.0
 40
0.0
 40
0.2164575325957949
 40
0.4403158827730639
 40
0.7519042103606911
 40
1.0
 40
1.0
 40
1.0
 40
1.0
 10
194.1702002336191
 20
110.8940159708659
 30
0.0
 10
194.1672858078132
 20
111.2894997739163
 30
0.0
 10
194.1613573101714
 20
112.0939892170615
 30
0.0
 10
194.1503556526594
 20
113.586899876849
 30
0.0
 10
194.1385545160969
 20
115.1882988071602
 30
0.0
 10
194.1310025342217
 20
116.213092955827
 30
0.0
 10
194.1276549049983
 20
116.6673619009437
 30
0.0
  0
CIRCLE
  5
86
330
1F
100
AcDbEntity
  8
0
  6
Continuous
 62
     7
370
    15
100
AcDbCircle
 10
199.1487918096
 20
113.8175342713
 30
0.0
 40
6.500000000000031
  0
ARC
  5
87
330
1F
100
AcDbEntity
  8
0
  6
Continuous
 62
     7
370
    15
100
AcDbCircle
 10
199.1487918096
 20
113.8175342713
 30
0.0
 40
9.000000000000012
100
AcDbArc
 50
210.422220264
 51
295.9892763098
  0
ARC
  5
88
330
1F
100
AcDbEntity
  8
0
  6
Continuous
 62
     7
370
    15
100
AcDbCircle
 10
199.1487918096
 20
113.8175342713
 30
0.0
 40
9.0
100
AcDbArc
 50
64.4121358748
 51
210.422220264
  0
ARC
  5
89
330
1F
100
AcDbEntity
  8
0
  6
Continuous
 62
     7
370
    15
100
AcDbCircle
 10
199.1487918096
 20
113.8175342713
 30
0.0
 40
5.000000000000039
100
AcDbArc
 50
180.422220264
 51
240.422220264
  0
ARC
  5
8A
330
1F
100
AcDbEntity
  8
0
  6
Continuous
 62
     7
370
    15
100
AcDbCircle
 10
199.1487918096
 20
113.8175342713
 30
0.0
 40
4.999999999999947
100
AcDbArc
 50
120.422220264
 51
180.422220264
  0
ARC
  5
8B
330
1F
100
AcDbEntity
  8
0
  6
Continuous
 62
     7
370
    15
100
AcDbCircle
 10
199.1487918096
 20
113.8175342713
 30
0.0
 40
4.999999999999957
100
AcDbArc
 50
60.422220264
 51
120.422220264
  0
ARC
  5
8C
330
1F
100
AcDbEntity
  8
0
  6
Continuous
 62
     7
370
    15
100
AcDbCircle
 10
199.1487918096
 20
113.8175342713
 30
0.0
 40
5.000000000000117
100
AcDbArc
 50
0.422220264
 51
60.422220264
  0
ARC
  5
8D
330
1F
100
AcDbEntity
  8
0
  6
Continuous
 62
     7
370
    15
100
AcDbCircle
 10
199.1487918096
 20
113.8175342713
 30
0.0
 40
5.000000000000117
100
AcDbArc
 50
300.422220264
 51
0.422220264
  0
ARC
  5
8E
330
1F
100
AcDbEntity
  8
0
  6
Continuous
 62
     7
370
    15
100
AcDbCircle
 10
199.1487918096
 20
113.8175342713
 30
0.0
 40
5.000000000000043
100
AcDbArc
 50
240.422220264
 51
300.422220264
  0
ARC
  5
8F
330
1F
100
AcDbEntity
  8
0
  6
Continuous
 62
     7
370
    15
100
AcDbCircle
 10
225.0385951159
 20
97.92284476
 30
0.0
 40
25.71253292938083
100
AcDbArc
 50
357.9618331246
 51
5.1135683534
  0
LWPOLYLINE
  5
90
330
1F
100
AcDbEntity
  8
0
  6
Continuous
 62
     7
370
    15
100
AcDbPolyline
 90
        7
 70
   128
 43
0.0
 10
250.6487918096
 20
128.8357660808
 10
250.6542270138
 20
129.020800169
 10
250.6679288516
 20
129.6367302342
 10
250.6727402972
 20
130.1589850151
 10
250.6679288516
 20
130.5080559555
 10
250.6542270138
 20
130.630800169
 10
250.6487918096
 20
130.6201987638
  0
LINE
  5
91
330
1F
100
AcDbEntity
  8
0
  6
Continuous
 62
     7
370
    15
100
AcDbLine
 10
108.7387918096
 20
67.4461459843
 30
0.0
 11
108.7387918096
 21
145.1675342713
 31
0.0
  0
SPLINE
  5
92
330
1F
100
AcDbEntity
  8
0
  6
Continuous
 62
     7
370
    15
100
AcDbSpline
210
0.0
220
0.0
230
1.0
 70
     8
 71
     3
 72
     8
 73
     4
 74
     0
 42
0.00000001
 43
0.00000001
 40
0.0
 40
0.0
 40
0.0
 40
0.0
 40
1.0
 40
1.0
 40
1.0
 40
1.0
 10
108.7387918095916
 20
67.4461459842793
 30
0.0
 10
108.2885653453138
 20
66.64469062165453
 30
0.0
 10
107.8378675180704
 20
65.84350061009387
 30
0.0
 10
107.3867627886702
 20
65.04254067827395
 30
0.0
  0
LINE
  5
93
330
1F
100
AcDbEntity
  8
0
  6
Continuous
 62
     7
370
    15
100
AcDbLine
 10
107.3867627887
 20
65.0425406783
 30
0.0
 11
107.3867627887
 21
145.1675342713
 31
0.0
  0
SPLINE
  5
94
330
1F
100
AcDbEntity
  8
0
  6
Continuous
 62
     7
370
    15
100
AcDbSpline
210
0.0
220
0.0
230
1.0
 70
    24
 71
     3
 72
     8
 73
     4
 74
     0
 42
0.00000001
 43
0.00000001
 40
0.0
 40
0.0
 40
0.0
 40
0.0
 40
1.0
 40
1.0
 40
1.0
 40
1.0
 10
107.3867627886702
 20
145.1675342713027
 30
0.0
 10
107.8435643609985
 20
145.1675342713027
 30
0.0
 10
108.2945789272377
 20
145.1675342713027
 30
0.0
 10
108.7387918095916
 20
145.1675342713027
 30
0.0
  0
LINE
  5
95
330
1F
100
AcDbEntity
  8
0
  6
Continuous
 62
     7
370
    15
100
AcDbLine
 10
119.5987918096
 20
66.068188726
 30
0.0
 11
119.5987918096
 21
145.1675342713
 31
0.0
  0
SPLINE
  5
96
330
1F
100
AcDbEntity
  8
0
  6
Continuous
 62
     7
370
    15
100
AcDbSpline
210
0.0
220
0.0
230
1.0
 70
     8
 71
     3
 72
    14
 73
    10
 74
     0
 42
0.00000001
 43
0.00000001
 40
0.0
 40
0.0
 40
0.0
 40
0.0
 40
0.25
 40
0.25
 40
0.5
 40
0.5
 40
0.75
 40
0.75
 40
1.0
 40
1.0
 40
1.0
 40
1.0
 10
119.5987918095916
 20
66.06818872604947
 30
0.0
 10
119.5987918095916
 20
65.93476302999493
 30
0.0
 10
119.5734807096807
 20
65.80291522215056
 30
0.0
 10
119.475145945836
 20
65.55639267345647
 30
0.0
 10
119.4020019415799
 20
65.44258748521592
 30
0.0
 10
119.2185638804842
 20
65.25213030826865
 30
0.0
 10
119.1068775461456
 20
65.17449544441874
 30
0.0
 10
118.8643741158394
 20
65.07020403430627
 30
0.0
 10
118.7309996871451
 20
65.04254067827392
 30
0.0
 10
118.5987918095916
 20
65.04254067827392
 30
0.0
  0
SPLINE
  5
97
330
1F
100
AcDbEntity
  8
0
  6
Continuous
 62
     7
370
    15
100
AcDbSpline
210
0.0
220
0.0
230
1.0
 70
    24
 71
     3
 72
    12
 73
     8
 74
     0
 42
0.00000001
 43
0.00000001
 40
0.0
 40
0.0
 40
0.0
 40
0.0
 40
0.2500000000000032
 40
0.2500000000000032
 40
0.5000000000000064
 40
0.5000000000000064
 40
1.0
 40
1.0
 40
1.0
 40
1.0
 10
118.5987918095916
 20
145.1675342713027
 30
0.0
 10
118.7508820465366
 20
145.1675342713028
 30
0.0
 10
118.899341307612
 20
145.1675342713027
 30
0.0
 10
119.1567449398777
 20
145.1675342713027
 30
0.0
 10
119.2658496877196
 20
145.1675342713027
 30
0.0
 10
119.5199091641272
 20
145.1675342713028
 30
0.0
 10
119.5987918095916
 20
145.1675342713027
 30
0.0
 10
119.5987918095916
 20
145.1675342713027
 30
0.0
  0
LINE
  5
98
330
1F
100
AcDbEntity
  8
0
  6
Continuous
 62
     7
370
    15
100
AcDbLine
 10
95.5987918096
 20
145.1675342713
 30
0.0
 11
107.3867627887
 21
145.1675342713
 31
0.0
  0
LINE
  5
99
330
1F
100
AcDbEntity
  8
0
  6
Continuous
 62
     7
370
    15
100
AcDbLine
 10
107.3867627887
 20
65.0425406783
 30
0.0
 11
105.5987918096
 21
65.0425406783
 31
0.0
  0
SPLINE
  5
9A
330
1F
100
AcDbEntity
  8
0
  6
Continuous
 62
     7
370
    15
100
AcDbSpline
210
0.0
220
0.0
230
1.0
 70
     8
 71
     3
 72
    30
 73
    26
 74
     0
 42
0.00000001
 43
0.00000001
 40
0.0
 40
0.0
 40
0.0
 40
0.0
 40
0.1250000000000002
 40
0.1250000000000002
 40
0.1875000000000003
 40
0.1875000000000003
 40
0.2500000000000004
 40
0.2500000000000004
 40
0.3750000000000001
 40
0.3750000000000001
 40
0.4374999999999998
 40
0.4374999999999998
 40
0.4999999999999996
 40
0.4999999999999996
 40
0.6249999999999996
 40
0.6249999999999996
 40
0.6874999999999997
 40
0.6874999999999997
 40
0.7499999999999997
 40
0.7499999999999997
 40
0.8124999999999998
 40
0.8124999999999998
 40
0.8749999999999999
 40
0.8749999999999999
 40
1.0
 40
1.0
 40
1.0
 40
1.0
 10
105.5987918095916
 20
65.04254067827395
 30
0.0
 10
104.9360471157466
 20
65.04254067827397
 30
0.0
 10
104.2847912566309
 20
65.02770060168514
 30
0.0
 10
103.3243407183726
 20
64.98533103745552
 30
0.0
 10
103.0069492751396
 20
64.96785293467636
 30
0.0
 10
102.3777857735847
 20
64.92652464812404
 30
0.0
 10
102.065637587143
 20
64.90259937466635
 30
0.0
 10
101.1583302852948
 20
64.82379285819945
 30
0.0
 10
100.5849053276535
 20
64.76148683822296
 30
0.0
 10
99.77102845807886
 20
64.65835751798362
 30
0.0
 10
99.506222261509
 20
64.6221735989371
 30
0.0
 10
98.99931485069466
 20
64.5483788147366
 30
0.0
 10
98.75792069934118
 20
64.51090495596496
 30
0.0
 10
98.06877922720884
 20
64.39819301262523
 30
0.0
 10
97.6557244123446
 20
64.32265691515143
 30
0.0
 10
97.10756959296954
 20
64.21426365813394
 30
0.0
 10
96.93810698562396
 20
64.1791914264707
 30
0.0
 10
96.63008973760859
 20
64.11295596587082
 30
0.0
 10
96.49070971700021
 20
64.08162926911612
 30
0.0
 10
96.24092420437348
 20
64.02322049753518
 30
0.0
 10
96.13051809171957
 20
63.99613726235233
 30
0.0
 10
95.93926023808183
 20
63.94687750773875
 30
0.0
 10
95.85814071979753
 20
63.9246155279311
 30
0.0
 10
95.66399379968915
 20
63.86704862076282
 30
0.0
 10
95.5987918095916
 20
63.84078901597684
 30
0.0
 10
95.5987918095916
 20
63.82753527150281
 30
0.0
  0
LINE
  5
9B
330
1F
100
AcDbEntity
  8
0
  6
Continuous
 62
     7
370
    15
100
AcDbLine
 10
95.5987918096
 20
63.8275352715
 30
0.0
 11
95.5987918096
 21
63.8175342713
 31
0.0
  0
SPLINE
  5
9C
330
1F
100
AcDbEntity
  8
0
  6
Continuous
 62
     7
370
    15
100
AcDbSpline
210
0.0
220
0.0
230
1.0
 70
     8
 71
     3
 72
    17
 73
    13
 74
     0
 42
0.00000001
 43
0.00000001
 40
0.0
 40
0.0
 40
0.0
 40
0.0
 40
0.104384384054747
 40
0.2118345768143993
 40
0.316208200519045
 40
0.4235375806108392
 40
0.5292276236193852
 40
0.6379275864803491
 40
0.7444714844189683
 40
0.8541836219421859
 40
0.9593080534965217
 40
1.0
 40
1.0
 40
1.0
 40
1.0
 10
105.5987918095916
 20
162.8073291269663
 30
0.0
 10
105.0508533617322
 20
162.8126973307151
 30
0.0
 10
103.9388833072675
 20
162.8235914043801
 30
0.0
 10
102.3260273940526
 20
162.9087687786389
 30
0.0
 10
100.7925141770756
 20
163.0351434849315
 30
0.0
 10
99.401493327739
 20
163.1920463055083
 30
0.0
 10
98.16597681050865
 20
163.3637451350289
 30
0.0
 10
97.14262104335339
 20
163.52908141113
 30
0.0
 10
96.34227904508826
 20
163.6727948907165
 30
0.0
 10
95.8319469431747
 20
163.7709496978957
 30
0.0
 10
95.59203851435016
 20
163.8188780947656
 30
0.0
 10
95.62395729376999
 20
163.812510695526
 30
0.0
 10
95.63286464205217
 20
163.8107337904027
 30
0.0
  0
LINE
  5
9D
330
1F
100
AcDbEntity
  8
0
  6
Continuous
 62
     7
370
    15
100
AcDbLine
 10
107.3867627887
 20
162.807329127
 30
0.0
 11
105.5987918096
 21
162.807329127
 31
0.0
  0
LINE
  5
9E
330
1F
100
AcDbEntity
  8
0
  6
Continuous
 62
     7
370
    15
100
AcDbLine
 10
107.3867627887
 20
152.7684970322
 30
0.0
 11
107.3867627887
 21
162.807329127
 31
0.0
  0
LINE
  5
9F
330
1F
100
AcDbEntity
  8
0
  6
Continuous
 62
     7
370
    15
100
AcDbLine
 10
105.3067586578
 20
152.7684970322
 30
0.0
 11
107.3867627887
 21
152.7684970322
 31
0.0
  0
SPLINE
  5
A0
330
1F
100
AcDbEntity
  8
0
  6
Continuous
 62
     7
370
    15
100
AcDbSpline
210
0.0
220
0.0
230
1.0
 70
     8
 71
     3
 72
    22
 73
    18
 74
     0
 42
0.00000001
 43
0.00000001
 40
0.0
 40
0.0
 40
0.0
 40
0.0
 40
0.2500000000000002
 40
0.2500000000000002
 40
0.3750000000000003
 40
0.3750000000000003
 40
0.5000000000000004
 40
0.5000000000000004
 40
0.6250000000000004
 40
0.6250000000000004
 40
0.7500000000000004
 40
0.7500000000000004
 40
0.8750000000000004
 40
0.8750000000000004
 40
0.9375000000000002
 40
0.9375000000000002
 40
1.0
 40
1.0
 40
1.0
 40
1.0
 10
95.59879180959159
 20
145.1675342713027
 30
0.0
 10
95.80151676551068
 20
146.1867806131674
 30
0.0
 10
96.11626048730606
 20
147.1458887631067
 30
0.0
 10
96.82431595697705
 20
148.488367840616
 30
0.0
 10
97.10277858719468
 20
148.922576423356
 30
0.0
 10
97.74154599383188
 20
149.7342041388581
 30
0.0
 10
98.10195967362208
 20
150.1134844317949
 30
0.0
 10
98.91949190561137
 20
150.8164430108159
 30
0.0
 10
99.38065988889849
 20
151.1414718285165
 30
0.0
 10
100.3786501353823
 20
151.7064871519074
 30
0.0
 10
100.9184093293746
 20
151.9501907461139
 30
0.0
 10
102.0930022934059
 20
152.3543906737589
 30
0.0
 10
102.7047384793978
 20
152.5068278668044
 30
0.0
 10
103.6566477042595
 20
152.6621554144131
 30
0.0
 10
103.9798808685201
 20
152.7016601944632
 30
0.0
 10
104.6389440397954
 20
152.7549693151318
 30
0.0
 10
104.9730080503694
 20
152.7684970321897
 30
0.0
 10
105.3067586577709
 20
152.7684970321897
 30
0.0
  0
SPLINE
  5
A1
330
1F
100
AcDbEntity
  8
0
  6
Continuous
 62
     7
370
    15
100
AcDbSpline
210
0.0
220
0.0
230
1.0
 70
     8
 71
     3
 72
    80
 73
    76
 74
     0
 42
0.00000001
 43
0.00000001
 40
-0.0312499999999993
 40
-0.0312499999999993
 40
0.0
 40
0.0
 40
0.03125
 40
0.03125
 40
0.046875
 40
0.046875
 40
0.0625
 40
0.0625
 40
0.09375
 40
0.09375
 40
0.1250000000000001
 40
0.1250000000000001
 40
0.1562500000000001
 40
0.1562500000000001
 40
0.1875000000000001
 40
0.1875000000000001
 40
0.2187500000000002
 40
0.2187500000000002
 40
0.2500000000000002
 40
0.2500000000000002
 40
0.2812500000000003
 40
0.2812500000000003
 40
0.3125000000000003
 40
0.3125000000000003
 40
0.3281250000000004
 40
0.3281250000000004
 40
0.3437500000000006
 40
0.3437500000000006
 40
0.3750000000000011
 40
0.3750000000000011
 40
0.4062500000000016
 40
0.4062500000000016
 40
0.4218750000000018
 40
0.4218750000000018
 40
0.437500000000002
 40
0.437500000000002
 40
0.4687500000000023
 40
0.4687500000000023
 40
0.5000000000000027
 40
0.5000000000000027
 40
0.531250000000003
 40
0.531250000000003
 40
0.5625000000000033
 40
0.5625000000000033
 40
0.5937500000000037
 40
0.5937500000000037
 40
0.6250000000000039
 40
0.6250000000000039
 40
0.6562500000000042
 40
0.6562500000000042
 40
0.6875000000000046
 40
0.6875000000000046
 40
0.7031250000000047
 40
0.7031250000000047
 40
0.7187500000000048
 40
0.7187500000000048
 40
0.7500000000000048
 40
0.7500000000000048
 40
0.7812500000000048
 40
0.7812500000000048
 40
0.7968750000000044
 40
0.7968750000000044
 40
0.8125000000000041
 40
0.8125000000000041
 40
0.8437500000000034
 40
0.8437500000000034
 40
0.8750000000000027
 40
0.8750000000000027
 40
0.906250000000002
 40
0.906250000000002
 40
0.9375000000000013
 40
0.9375000000000013
 40
0.9687500000000007
 40
0.9687500000000007
 40
1.0
 40
1.0
 40
1.03125
 40
1.03125
 10
99.9793371223679
 20
157.232163734934
 30
0.0
 10
99.3182464968153
 20
157.232163734934
 30
0.0
 10
98.99326636756368
 20
157.2483719663162
 30
0.0
 10
98.51379295631723
 20
157.2957365983358
 30
0.0
 10
98.35531113847642
 20
157.3153908102264
 30
0.0
 10
98.04109160597216
 20
157.3625019664191
 30
0.0
 10
97.88497132229175
 20
157.3900832859138
 30
0.0
 10
97.43091729333518
 20
157.4826190727075
 30
0.0
 10
97.14381391039534
 20
157.5576895063041
 30
0.0
 10
96.60045935436834
 20
157.7329278149147
 30
0.0
 10
96.34335574316275
 20
157.8339291127529
 30
0.0
 10
95.88244948822397
 20
158.0512853112138
 30
0.0
 10
95.675551779009
 20
158.168449642986
 30
0.0
 10
95.31002646501679
 20
158.4185195672147
 30
0.0
 10
95.15482094289084
 20
158.5494656559736
 30
0.0
 10
94.90539055629112
 20
158.815200599686
 30
0.0
 10
94.80930060050596
 20
158.9519541929969
 30
0.0
 10
94.6807817513124
 20
159.2260197678359
 30
0.0
 10
94.6489708811346
 20
159.3609598583048
 30
0.0
 10
94.64861423136132
 20
159.6264314953735
 30
0.0
 10
94.6811114835584
 20
159.7582559725148
 30
0.0
 10
94.80873695727288
 20
160.0077055721352
 30
0.0
 10
94.90316535832477
 20
160.1261382640632
 30
0.0
 10
95.09102617831033
 20
160.2950074611573
 30
0.0
 10
95.16185417711353
 20
160.3500934562774
 30
0.0
 10
95.31657606907879
 20
160.4553462847659
 30
0.0
 10
95.4005525392622
 20
160.5056815135262
 30
0.0
 10
95.67187620890661
 20
160.6502573460643
 30
0.0
 10
95.87842542750896
 20
160.7381189324813
 30
0.0
 10
96.34503556769798
 20
160.8978400254808
 30
0.0
 10
96.59740113732343
 20
160.967078321948
 30
0.0
 10
97.00330247900216
 20
161.0568657111777
 30
0.0
 10
97.14320309647964
 20
161.084431673264
 30
0.0
 10
97.43242703172656
 20
161.1349224741903
 30
0.0
 10
97.58226648801585
 20
161.157885913041
 30
0.0
 10
98.03638305762664
 20
161.2185164294598
 30
0.0
 10
98.34803427636349
 20
161.2485904582557
 30
0.0
 10
98.98903074127585
 20
161.2891800455143
 30
0.0
 10
99.32055836922804
 20
161.2994922757304
 30
0.0
 10
99.97334941429952
 20
161.2995678428962
 30
0.0
 10
100.2978856193313
 20
161.2896662374284
 30
0.0
 10
100.9431550687478
 20
161.2491797069032
 30
0.0
 10
101.2588980749105
 20
161.2187184070185
 30
0.0
 10
101.8607873698942
 20
161.1385677355819
 30
0.0
 10
102.1515366007056
 20
161.0882855037747
 30
0.0
 10
102.6984483923901
 20
160.9676153210018
 30
0.0
 10
102.9502257562271
 20
160.8983914618317
 30
0.0
 10
103.4116137488482
 20
160.7409397341911
 30
0.0
 10
103.6228830284463
 20
160.6515912595173
 30
0.0
 10
103.9861873808225
 20
160.4583433888165
 30
0.0
 10
104.1399940292653
 20
160.3542153969372
 30
0.0
 10
104.3286134988627
 20
160.1855910107537
 30
0.0
 10
104.3846439850718
 20
160.1269626090788
 30
0.0
 10
104.4802177468079
 20
160.0075076942526
 30
0.0
 10
104.5199806638329
 20
159.9465879054144
 30
0.0
 10
104.6157524141451
 20
159.7601831792405
 30
0.0
 10
104.6484752532712
 20
159.6310703614455
 30
0.0
 10
104.6491038396003
 20
159.3624134384896
 30
0.0
 10
104.6169176948655
 20
159.2270426977328
 30
0.0
 10
104.5220069930099
 20
159.0234923894969
 30
0.0
 10
104.482540209611
 20
158.9555204654334
 30
0.0
 10
104.3876102108901
 20
158.8194282423025
 30
0.0
 10
104.3318533831267
 20
158.751078142093
 30
0.0
 10
104.1439132651568
 20
158.550375129051
 30
0.0
 10
103.9905517954406
 20
158.4209868552383
 30
0.0
 10
103.6282875605603
 20
158.1723214231884
 30
0.0
 10
103.4174390870944
 20
158.0525117808202
 30
0.0
 10
102.9567691167754
 20
157.8349894932475
 30
0.0
 10
102.7053947371916
 20
157.7359043934116
 30
0.0
 10
102.1594868502935
 20
157.5592319194948
 30
0.0
 10
101.8686642756423
 20
157.4831748313608
 30
0.0
 10
101.2673376608622
 20
157.3603298540078
 30
0.0
 10
100.9528190762498
 20
157.3126237289547
 30
0.0
 10
100.3062376201299
 20
157.248375193835
 30
0.0
 10
99.9793371223679
 20
157.232163734934
 30
0.0
 10
99.3182464968153
 20
157.232163734934
 30
0.0
  0
LINE
  5
A2
330
1F
100
AcDbEntity
  8
0
  6
Continuous
 62
     7
370
    15
100
AcDbLine
 10
90.6487918096
 20
64.3175342713
 30
0.0
 11
90.6487918096
 21
163.3175342686
 31
0.0
  0
LINE
  5
A3
330
1F
100
AcDbEntity
  8
0
  6
Continuous
 62
     7
370
    15
100
AcDbLine
 10
113.9108208305
 20
65.0425406783
 30
0.0
 11
113.9108208305
 21
145.1675342713
 31
0.0
  0
SPLINE
  5
A4
330
1F
100
AcDbEntity
  8
0
  6
Continuous
 62
     7
370
    15
100
AcDbSpline
210
0.0
220
0.0
230
1.0
 70
     8
 71
     3
 72
     8
 73
     4
 74
     0
 42
0.00000001
 43
0.00000001
 40
0.0
 40
0.0
 40
0.0
 40
0.0
 40
1.0
 40
1.0
 40
1.0
 40
1.0
 10
113.910820830513
 20
65.04254067827395
 30
0.0
 10
113.4597161011128
 20
65.84350061009387
 30
0.0
 10
113.0090182738694
 20
66.64469062165453
 30
0.0
 10
112.5587918095916
 20
67.4461459842793
 30
0.0
  0
LINE
  5
A5
330
1F
100
AcDbEntity
  8
0
  6
Continuous
 62
     7
370
    15
100
AcDbLine
 10
112.5587918096
 20
67.4461459843
 30
0.0
 11
112.5587918096
 21
145.1675342713
 31
0.0
  0
SPLINE
  5
A6
330
1F
100
AcDbEntity
  8
0
  6
Continuous
 62
     7
370
    15
100
AcDbSpline
210
0.0
220
0.0
230
1.0
 70
    24
 71
     3
 72
     8
 73
     4
 74
     0
 42
0.00000001
 43
0.00000001
 40
0.0
 40
0.0
 40
0.0
 40
0.0
 40
1.0
 40
1.0
 40
1.0
 40
1.0
 10
112.5587918095916
 20
145.1675342713027
 30
0.0
 10
113.0030046919455
 20
145.1675342713027
 30
0.0
 10
113.4540192581848
 20
145.1675342713027
 30
0.0
 10
113.910820830513
 20
145.1675342713027
 30
0.0
  0
LINE
  5
A7
330
1F
100
AcDbEntity
  8
0
  6
Continuous
 62
     7
370
    15
100
AcDbLine
 10
118.5987918096
 20
65.0425406783
 30
0.0
 11
113.9108208305
 21
65.0425406783
 31
0.0
  0
LINE
  5
A8
330
1F
100
AcDbEntity
  8
0
  6
Continuous
 62
     7
370
    15
100
AcDbLine
 10
113.9108208305
 20
145.1675342713
 30
0.0
 11
118.5987918096
 21
145.1675342713
 31
0.0
  0
SPLINE
  5
A9
330
1F
100
AcDbEntity
  8
0
  6
Continuous
 62
     7
370
    15
100
AcDbSpline
210
0.0
220
0.0
230
1.0
 70
     8
 71
     3
 72
    12
 73
     8
 74
     0
 42
0.00000001
 43
0.00000001
 40
0.0
 40
0.0
 40
0.0
 40
0.0
 40
0.250000000000003
 40
0.250000000000003
 40
0.500000000000006
 40
0.500000000000006
 40
1.0
 40
1.0
 40
1.0
 40
1.0
 10
109.5387918095916
 20
69.17785881325311
 30
0.0
 10
109.4330311562427
 20
69.17785881325311
 30
0.0
 10
109.3250435280597
 20
69.15531930725271
 30
0.0
 10
109.1304488627941
 20
69.07074867525739
 30
0.0
 10
109.0415769499552
 20
69.00826702249857
 30
0.0
 10
108.8223846576293
 20
68.77887807102634
 30
0.0
 10
108.7387918095915
 20
68.56629473350392
 30
0.0
 10
108.7387918095916
 20
68.35435548890773
 30
0.0
  0
SPLINE
  5
AA
330
1F
100
AcDbEntity
  8
0
  6
Continuous
 62
     7
370
    15
100
AcDbSpline
210
0.0
220
0.0
230
1.0
 70
    24
 71
     3
 72
    14
 73
    10
 74
     0
 42
0.00000001
 43
0.00000001
 40
0.0
 40
0.0
 40
0.0
 40
0.0
 40
0.25
 40
0.25
 40
0.5
 40
0.5
 40
0.75
 40
0.75
 40
1.0
 40
1.0
 40
1.0
 40
1.0
 10
108.7387918095916
 20
145.1675342713027
 30
0.0
 10
108.7387918095916
 20
145.1675342713027
 30
0.0
 10
108.7545061300575
 20
145.1675342713027
 30
0.0
 10
108.8181901085259
 20
145.1675342713027
 30
0.0
 10
108.8667933029364
 20
145.1675342713027
 30
0.0
 10
108.999476825362
 20
145.1675342713028
 30
0.0
 10
109.0845789296726
 20
145.1675342713027
 30
0.0
 10
109.2910211645827
 20
145.1675342713028
 30
0.0
 10
109.4151021062057
 20
145.1675342713027
 30
0.0
 10
109.5387918095916
 20
145.1675342713027
 30
0.0
  0
SPLINE
  5
AB
330
1F
100
AcDbEntity
  8
0
  6
Continuous
 62
     7
370
    15
100
AcDbSpline
210
0.0
220
0.0
230
1.0
 70
     8
 71
     3
 72
    14
 73
    10
 74
     0
 42
0.00000001
 43
0.00000001
 40
0.0
 40
0.0
 40
0.0
 40
0.0
 40
0.25
 40
0.25
 40
0.5
 40
0.5
 40
0.75
 40
0.75
 40
1.0
 40
1.0
 40
1.0
 40
1.0
 10
112.5587918095916
 20
68.35435548890787
 30
0.0
 10
112.5587918095916
 20
68.46139956990226
 30
0.0
 10
112.5386741224334
 20
68.56663471014471
 30
0.0
 10
112.4601829331678
 20
68.76448519699238
 30
0.0
 10
112.4020263083666
 20
68.85553696055732
 30
0.0
 10
112.2555110527486
 20
69.00870305448208
 30
0.0
 10
112.1668685041075
 20
69.07099750069149
 30
0.0
 10
111.9711451813072
 20
69.15579128622748
 30
0.0
 10
111.8659139902362
 20
69.17785881325311
 30
0.0
 10
111.7587918095916
 20
69.17785881325311
 30
0.0
  0
SPLINE
  5
AC
330
1F
100
AcDbEntity
  8
0
  6
Continuous
 62
     7
370
    15
100
AcDbSpline
210
0.0
220
0.0
230
1.0
 70
    24
 71
     3
 72
    14
 73
    10
 74
     0
 42
0.00000001
 43
0.00000001
 40
0.0
 40
0.0
 40
0.0
 40
0.0
 40
0.25
 40
0.25
 40
0.5
 40
0.5
 40
0.75
 40
0.75
 40
1.0
 40
1.0
 40
1.0
 40
1.0
 10
111.7587918095916
 20
145.1675342713027
 30
0.0
 10
111.8825615743567
 20
145.1675342713027
 30
0.0
 10
112.0069286783636
 20
145.1675342713027
 30
0.0
 10
112.2132851470897
 20
145.1675342713027
 30
0.0
 10
112.298613290508
 20
145.1675342713027
 30
0.0
 10
112.4308053492233
 20
145.1675342713028
 30
0.0
 10
112.4794505929739
 20
145.1675342713027
 30
0.0
 10
112.5429863847026
 20
145.1675342713028
 30
0.0
 10
112.5587918095916
 20
145.1675342713027
 30
0.0
 10
112.5587918095916
 20
145.1675342713027
 30
0.0
  0
LINE
  5
AD
330
1F
100
AcDbEntity
  8
0
  6
Continuous
 62
     7
370
    15
100
AcDbLine
 10
111.7587918096
 20
69.1778588133
 30
0.0
 11
109.5387918096
 21
69.1778588133
 31
0.0
  0
LINE
  5
AE
330
1F
100
AcDbEntity
  8
0
  6
Continuous
 62
     7
370
    15
100
AcDbLine
 10
109.5387918096
 20
145.1675342713
 30
0.0
 11
111.7587918096
 21
145.1675342713
 31
0.0
  0
LINE
  5
AF
330
1F
100
AcDbEntity
  8
0
  6
Continuous
 62
     7
370
    15
100
AcDbLine
 10
88.1487918096
 20
75.9352827683
 30
0.0
 11
88.1487918096
 21
151.6997857743
 31
0.0
  0
LINE
  5
B0
330
1F
100
AcDbEntity
  8
0
  6
Continuous
 62
     7
370
    15
100
AcDbLine
 10
55.8487918096
 20
77.5535192412
 30
0.0
 11
55.8487918096
 21
79.9482010059
 31
0.0
  0
SPLINE
  5
B1
330
1F
100
AcDbEntity
  8
0
  6
Continuous
 62
     7
370
    15
100
AcDbSpline
210
0.0
220
0.0
230
1.0
 70
     8
 71
     3
 72
    14
 73
    10
 74
     0
 42
0.00000001
 43
0.00000001
 40
0.0
 40
0.0
 40
0.0
 40
0.0
 40
0.25
 40
0.25
 40
0.5
 40
0.5
 40
0.75
 40
0.75
 40
1.0
 40
1.0
 40
1.0
 40
1.0
 10
54.84436933825465
 20
81.65105292755922
 30
0.0
 10
54.93313791619997
 20
81.49251879625128
 30
0.0
 10
55.05485575487888
 20
81.34007611936272
 30
0.0
 10
55.28990536473572
 20
81.0429414955338
 30
0.0
 10
55.40553555095261
 20
80.89825885191644
 30
0.0
 10
55.60594048438042
 20
80.61496964941303
 30
0.0
 10
55.69134077636475
 20
80.47641565637618
 30
0.0
 10
55.81304641008197
 20
80.20503162634266
 30
0.0
 10
55.84879180959462
 20
80.07289575770803
 30
0.0
 10
55.84879180959461
 20
79.94820100593726
 30
0.0
  0
SPLINE
  5
B2
330
1F
100
AcDbEntity
  8
0
  6
Continuous
 62
     7
370
    15
100
AcDbSpline
210
0.0
220
0.0
230
1.0
 70
     8
 71
     3
 72
    14
 73
    10
 74
     0
 42
0.00000001
 43
0.00000001
 40
0.0
 40
0.0
 40
0.0
 40
0.0
 40
0.124999999999999
 40
0.124999999999999
 40
0.249999999999998
 40
0.249999999999998
 40
0.5000000000000007
 40
0.5000000000000007
 40
1.0
 40
1.0
 40
1.0
 40
1.0
 10
53.94879180959161
 20
82.27988286665934
 30
0.0
 10
54.01637410937609
 20
82.28703875176075
 30
0.0
 10
54.088861687124
 20
82.2826142817217
 30
0.0
 10
54.22115279638995
 20
82.25290812395136
 30
0.0
 10
54.27843017578012
 20
82.22962384237314
 30
0.0
 10
54.42808060298041
 20
82.15213860252283
 30
0.0
 10
54.5017938985019
 20
82.09028677562145
 30
0.0
 10
54.68960188182814
 20
81.90560932297313
 30
0.0
 10
54.77364218818958
 20
81.77736639968191
 30
0.0
 10
54.84436933825587
 20
81.65105292755933
 30
0.0
  0
SPLINE
  5
B3
330
1F
100
AcDbEntity
  8
0
  6
Continuous
 62
     7
370
    15
100
AcDbSpline
210
0.0
220
0.0
230
1.0
 70
     8
 71
     3
 72
     8
 73
     4
 74
     0
 42
0.00000001
 43
0.00000001
 40
0.0
 40
0.0
 40
0.0
 40
0.0
 40
1.0
 40
1.0
 40
1.0
 40
1.0
 10
50.40415142151082
 20
81.86183428186754
 30
0.0
 10
51.56944973221969
 20
82.01702175375416
 30
0.0
 10
52.7540649462595
 20
82.15338039206449
 30
0.0
 10
53.94879180959158
 20
82.27988286665935
 30
0.0
  0
SPLINE
  5
B4
330
1F
100
AcDbEntity
  8
0
  6
Continuous
 62
     7
370
    15
100
AcDbSpline
210
0.0
220
0.0
230
1.0
 70
     8
 71
     3
 72
    14
 73
    10
 74
     0
 42
0.00000001
 43
0.00000001
 40
0.0
 40
0.0
 40
0.0
 40
0.0
 40
0.5000000000000012
 40
0.5000000000000012
 40
0.7500000000000018
 40
0.7500000000000018
 40
0.8750000000000009
 40
0.8750000000000009
 40
1.0
 40
1.0
 40
1.0
 40
1.0
 10
42.64871692556127
 20
81.57170210273762
 30
0.0
 10
43.95701848809527
 20
81.57871682647874
 30
0.0
 10
45.26207786275238
 20
81.59412540292323
 30
0.0
 10
47.20795391424107
 20
81.64802195838988
 30
0.0
 10
47.85465141798023
 20
81.6710535229926
 30
0.0
 10
48.81849378183478
 20
81.72199604786334
 30
0.0
 10
49.13873247376893
 20
81.74173097009654
 30
0.0
 10
49.77542770011148
 20
81.79121809856812
 30
0.0
 10
50.09214310839447
 20
81.82028287749736
 30
0.0
 10
50.40415142151086
 20
81.86183428186753
 30
0.0
  0
SPLINE
  5
B5
330
1F
100
AcDbEntity
  8
0
  6
Continuous
 62
     7
370
    15
100
AcDbSpline
210
0.0
220
0.0
230
1.0
 70
     8
 71
     3
 72
    12
 73
     8
 74
     0
 42
0.00000001
 43
0.00000001
 40
0.0
 40
0.0
 40
0.0
 40
0.0
 40
0.2500000000000001
 40
0.2500000000000001
 40
0.5000000000000001
 40
0.5000000000000001
 40
1.0
 40
1.0
 40
1.0
 40
1.0
 10
48.9487918095916
 20
145.9040571627992
 30
0.0
 10
48.43009298776342
 20
145.9365799376474
 30
0.0
 10
47.90838141455843
 20
145.9598766788179
 30
0.0
 10
46.86208939806286
 20
145.99772219324
 30
0.0
 10
46.33741777239258
 20
146.0119906677361
 30
0.0
 10
44.76057174985337
 20
146.0462001551945
 30
0.0
 10
43.70561643530649
 20
146.0576996591383
 30
0.0
 10
42.64871692556125
 20
146.0633664398679
 30
0.0
  0
SPLINE
  5
B6
330
1F
100
AcDbEntity
  8
0
  6
Continuous
 62
     7
370
    15
100
AcDbSpline
210
0.0
220
0.0
230
1.0
 70
     8
 71
     3
 72
    20
 73
    16
 74
     0
 42
0.00000001
 43
0.00000001
 40
0.0
 40
0.0
 40
0.0
 40
0.0
 40
0.2500000000000011
 40
0.2500000000000011
 40
0.5000000000000021
 40
0.5000000000000021
 40
0.7500000000000031
 40
0.7500000000000031
 40
0.8750000000000008
 40
0.8750000000000008
 40
0.9375000000000006
 40
0.9375000000000006
 40
0.9687500000000003
 40
0.9687500000000003
 40
1.0
 40
1.0
 40
1.0
 40
1.0
 10
50.8487918095916
 20
147.5621430082873
 30
0.0
 10
50.8487918095916
 20
147.4264606885405
 30
0.0
 10
50.80008002037498
 20
147.2853737024005
 30
0.0
 10
50.6309185971498
 20
146.9933019836699
 30
0.0
 10
50.50913818323146
 20
146.8416532415796
 30
0.0
 10
50.21159108848197
 20
146.5392448014264
 30
0.0
 10
50.03767848277918
 20
146.3866561653031
 30
0.0
 10
49.71826364889736
 20
146.1613854014608
 30
0.0
 10
49.60322287345011
 20
146.0866623069501
 30
0.0
 10
49.39613854943369
 20
145.9872518976931
 30
0.0
 10
49.32003071462729
 20
145.9556868053485
 30
0.0
 10
49.18863617507397
 20
145.9212434211556
 30
0.0
 10
49.1420829560725
 20
145.9121918493879
 30
0.0
 10
49.04574960499178
 20
145.9020162005495
 30
0.0
 10
48.99649018163635
 20
145.9010664418744
 30
0.0
 10
48.94879180958961
 20
145.904057162789
 30
0.0
  0
LINE
  5
B7
330
1F
100
AcDbEntity
  8
0
  6
Continuous
 62
     7
370
    15
100
AcDbLine
 10
50.8487918096
 20
147.5621430083
 30
0.0
 11
50.8487918096
 21
149.8310482994
 31
0.0
  0
SPLINE
  5
B8
330
1F
100
AcDbEntity
  8
0
  6
Continuous
 62
     7
370
    15
100
AcDbSpline
210
0.0
220
0.0
230
1.0
 70
     8
 71
     3
 72
    22
 73
    18
 74
     0
 42
0.00000001
 43
0.00000001
 40
0.0
 40
0.0
 40
0.0
 40
0.0
 40
0.0002937850458186
 40
0.0628841327416245
 40
0.1261981682954119
 40
0.2510182590426545
 40
0.3131038291609287
 40
0.3757650688901397
 40
0.4382989835656159
 40
0.5000628079113862
 40
0.5617337561138577
 40
0.6246555685552369
 40
0.7491916976530832
 40
0.8115302181310354
 40
0.8745847230190956
 40
0.937822758820794
 40
1.0
 40
1.0
 40
1.0
 40
1.0
 10
69.16874807343103
 20
76.88628901299039
 30
0.0
 10
69.1685532200208
 20
76.88626470567053
 30
0.0
 10
69.12684521654015
 20
76.88106176988369
 30
0.0
 10
69.27210831972411
 20
76.89967597777158
 30
0.0
 10
69.74225449689443
 20
76.95620192836758
 30
0.0
 10
70.7107105794785
 20
77.06242355779301
 30
0.0
 10
72.02317038903989
 20
77.14805636522443
 30
0.0
 10
73.15529409767245
 20
77.18671243132333
 30
0.0
 10
74.37748087429443
 20
77.19037373910182
 30
0.0
 10
75.6447792618238
 20
77.14798832433195
 30
0.0
 10
76.91149091605689
 20
77.05961134665661
 30
0.0
 10
78.52714891192144
 20
76.88956221803275
 30
0.0
 10
79.96711152194506
 20
76.6673804834793
 30
0.0
 10
81.03298067810896
 20
76.46438437534476
 30
0.0
 10
81.62218106154691
 20
76.34035894239543
 30
0.0
 10
82.01090057683749
 20
76.25543810195052
 30
0.0
 10
82.0576862896669
 20
76.24471138414619
 30
0.0
 10
82.08088128329418
 20
76.23939338991104
 30
0.0
  0
SPLINE
  5
B9
330
1F
100
AcDbEntity
  8
0
  6
Continuous
 62
     7
370
    15
100
AcDbSpline
210
0.0
220
0.0
230
1.0
 70
     8
 71
     3
 72
    41
 73
    37
 74
     0
 42
0.00000001
 43
0.00000001
 40
0.0
 40
0.0
 40
0.0
 40
0.0
 40
0.0619930061482746
 40
0.1254347783466151
 40
0.1886508898234768
 40
0.2510246408607227
 40
0.3131658188976554
 40
0.3756581641417402
 40
0.4382227146727798
 40
0.4998044922940677
 40
0.56151641971787
 40
0.6240683094121985
 40
0.686725723240935
 40
0.7488365305144522
 40
0.8110685944253986
 40
0.8741742884451361
 40
0.9373212787645211
 40
0.9685511709617411
 40
0.9842086872487193
 40
0.9920641182531791
 40
0.996000486125535
 40
0.9979710794120144
 40
0.9989570090489596
 40
0.9994501359395065
 40
0.9996967403802177
 40
0.9998200529090742
 40
0.9998817117580818
 40
0.999912541829664
 40
0.9999279570273361
 40
0.9999356646666602
 40
0.9999395184964466
 40
0.9999414454138695
 40
0.9999424088732151
 40
0.9999433723329806
 40
0.9999501697010513
 40
1.0
 40
1.0
 40
1.0
 40
1.0
 10
82.08075995281618
 20
151.395630134743
 30
0.0
 10
82.05718830747257
 20
151.3903206550931
 30
0.0
 10
82.00949415142752
 20
151.3795776141536
 30
0.0
 10
81.61745216200197
 20
151.2943484776981
 30
0.0
 10
81.02693811273176
 20
151.1697796990574
 30
0.0
 10
80.22290066668668
 20
151.0168327529055
 30
0.0
 10
79.24682526650516
 20
150.8550761989519
 30
0.0
 10
78.12501653122467
 20
150.7028434310197
 30
0.0
 10
76.91148561143741
 20
150.5750634898184
 30
0.0
 10
75.6466549050382
 20
150.4872149381358
 30
0.0
 10
74.37861186759548
 20
150.4448294542651
 30
0.0
 10
73.15510450989436
 20
150.4485652622368
 30
0.0
 10
72.02160596948035
 20
150.4871607326849
 30
0.0
 10
71.03550015850615
 20
150.551600103976
 30
0.0
 10
70.22687234971893
 20
150.6251099112572
 30
0.0
 10
69.63025365460973
 20
150.692423596069
 30
0.0
 10
69.31486236515167
 20
150.7303881473369
 30
0.0
 10
69.20479579635374
 20
150.7441872066688
 30
0.0
 10
69.17737640853953
 20
150.7476732805895
 30
0.0
 10
69.17045435771003
 20
150.7485525062828
 30
0.0
 10
69.1686861175266
 20
150.7487732808891
 30
0.0
 10
69.16822573835326
 20
150.7488284835999
 30
0.0
 10
69.16810157966843
 20
150.7488422233869
 30
0.0
 10
69.16806602517528
 20
150.7488456192179
 30
0.0
 10
69.16805488110518
 20
150.7488464475382
 30
0.0
 10
69.16805096790907
 20
150.748846644127
 30
0.0
 10
69.16804942570424
 20
150.7488466880571
 30
0.0
 10
69.16804875870274
 20
150.7488466963638
 30
0.0
 10
69.16804845052499
 20
150.7488466971941
 30
0.0
 10
69.16804830375892
 20
150.7488466966489
 30
0.0
 10
69.16804823080648
 20
150.748846696319
 30
0.0
 10
69.16804819641409
 20
150.7488466958818
 30
0.0
 10
69.16804817416894
 20
150.7488466959703
 30
0.0
 10
69.1680481470595
 20
150.7488466931353
 30
0.0
 10
69.16804562749815
 20
150.7488469799904
 30
0.0
 10
69.1680817174162
 20
150.7488423598897
 30
0.0
 10
69.16811347523884
 20
150.7488382943683
 30
0.0
  0
SPLINE
  5
BA
330
1F
100
AcDbEntity
  8
0
  6
Continuous
 62
     7
370
    15
100
AcDbSpline
210
0.0
220
0.0
230
1.0
 70
     8
 71
     3
 72
    24
 73
    20
 74
     0
 42
0.00000001
 43
0.00000001
 40
0.0
 40
0.0
 40
0.0
 40
0.0
 40
0.0460249755692518
 40
0.1463647148146226
 40
0.2129501829775729
 40
0.2715560105265091
 40
0.3221918738462505
 40
0.413847464589483
 40
0.4976737425230158
 40
0.5831370056226851
 40
0.6126709880982609
 40
0.6427224180797368
 40
0.6732998740926514
 40
0.7503110964848954
 40
0.8491776097404955
 40
0.90118612012384
 40
0.9478663239181276
 40
0.9892208549922321
 40
1.0
 40
1.0
 40
1.0
 40
1.0
 10
203.1252376151249
 20
105.7772668113086
 30
0.0
 10
203.4023616342298
 20
105.9118608941945
 30
0.0
 10
204.283647882031
 20
106.3398855550158
 30
0.0
 10
205.3848859896688
 20
107.2644867155015
 30
0.0
 10
206.3722831409527
 20
108.3984189632808
 30
0.0
 10
207.0091308022517
 20
109.3889681782189
 30
0.0
 10
207.5958116583059
 20
110.5999298124351
 30
0.0
 10
208.0361503904601
 20
112.0650890581835
 30
0.0
 10
208.2033836817186
 20
113.8242042394079
 30
0.0
 10
208.0743295975713
 20
115.1666034889184
 30
0.0
 10
207.856902750565
 20
116.1172860033218
 30
0.0
 10
207.6828597162013
 20
116.6974494376352
 30
0.0
 10
207.3583375073069
 20
117.5615293397477
 30
0.0
 10
206.7190702379451
 20
118.7917864534954
 30
0.0
 10
205.7613139987759
 20
119.9859152570597
 30
0.0
 10
204.7784596430407
 20
120.8639149219013
 30
0.0
 10
204.0141571049269
 20
121.4019739386911
 30
0.0
 10
203.4462339978764
 20
121.7409172660236
 30
0.0
 10
203.1286638957986
 20
121.8851944419034
 30
0.0
 10
203.0630031859141
 20
121.9150251524345
 30
0.0
  0
SPLINE
  5
BB
330
1F
100
AcDbEntity
  8
0
  6
Continuous
 62
     7
370
    15
100
AcDbSpline
210
0.0
220
0.0
230
1.0
 70
     8
 71
     3
 72
    25
 73
    21
 74
     0
 42
0.00000001
 43
0.00000001
 40
0.0
 40
0.0
 40
0.0
 40
0.0
 40
0.0499179366771482
 40
0.1483620403517086
 40
0.216777590804704
 40
0.2754584150478945
 40
0.3244109525551245
 40
0.414429000739322
 40
0.4998922681162042
 40
0.5835944048116437
 40
0.6132793721674277
 40
0.6438514172519282
 40
0.6753183791361907
 40
0.7259144950686396
 40
0.7844380229576379
 40
0.8508987106704058
 40
0.904312758794164
 40
0.9514256444882846
 40
0.9922389037676079
 40
1.0
 40
1.0
 40
1.0
 40
1.0
 10
195.2116518332844
 20
121.8767176712088
 30
0.0
 10
194.9107402216504
 20
121.7306095419251
 30
0.0
 10
194.0163951497319
 20
121.2963588173269
 30
0.0
 10
192.895627853574
 20
120.3543226725312
 30
0.0
 10
191.9096725869405
 20
119.2172986867298
 30
0.0
 10
191.2758436067128
 20
118.2224219088568
 30
0.0
 10
190.7013608002677
 20
117.0292106365377
 30
0.0
 10
190.2622792661398
 20
115.5746923221897
 30
0.0
 10
190.0942035283064
 20
113.8257649502589
 30
0.0
 10
190.2219240306007
 20
112.4826726798724
 30
0.0
 10
190.4352097615471
 20
111.5379658555379
 30
0.0
 10
190.611196505116
 20
110.9470468837269
 30
0.0
 10
190.8767149976637
 20
110.2392434081192
 30
0.0
 10
191.2873796100439
 20
109.3904413038471
 30
0.0
 10
191.9239888729632
 20
108.4019376848116
 30
0.0
 10
192.703207493476
 20
107.4986286560009
 30
0.0
 10
193.535821960841
 20
106.7567130837314
 30
0.0
 10
194.3098031181593
 20
106.2166788950668
 30
0.0
 10
194.8607019598751
 20
105.8894903657389
 30
0.0
 10
195.1566417638875
 20
105.7548440114461
 30
0.0
 10
195.2039263294518
 20
105.7333305337685
 30
0.0
  0
SPLINE
  5
BC
330
1F
100
AcDbEntity
  8
0
  6
Continuous
 62
     7
370
    15
100
AcDbSpline
210
0.0
220
0.0
230
1.0
 70
     8
 71
     3
 72
    40
 73
    36
 74
     0
 42
0.00000001
 43
0.00000001
 40
-0.0930036339113171
 40
-0.0620474547372774
 40
-0.0308732375296724
 40
0.0
 40
0.0309015844241322
 40
0.0620939485421827
 40
0.0930588603771983
 40
0.1244206753171265
 40
0.1555630231403398
 40
0.1870278543778837
 40
0.2186607762603101
 40
0.2499150785626157
 40
0.2814274177948822
 40
0.3128942008176973
 40
0.3443048109631672
 40
0.3756824627030536
 40
0.4068446952619605
 40
0.4380004212473078
 40
0.4692301721017118
 40
0.4999834690625627
 40
0.5307347927990355
 40
0.5620002943974585
 40
0.5931725556673592
 40
0.6243424509758981
 40
0.6556952032341717
 40
0.6870848148916835
 40
0.7185152475304739
 40
0.7500211275141951
 40
0.7709027451713513
 40
0.7917776157319472
 40
0.8130002254594668
 40
0.84447712617909
 40
0.8756543539011025
 40
0.906996366088683
 40
0.9379525452627226
 40
0.9691267624703276
 40
1.0
 40
1.030901584424132
 40
1.062093948542183
 40
1.093058860377198
 10
201.0801988569608
 20
103.9923387466872
 30
0.0
 10
199.1481841493658
 20
103.8025842944978
 30
0.0
 10
197.2159034050881
 20
103.9930781370452
 30
0.0
 10
195.3667275453761
 20
104.5706048568674
 30
0.0
 10
193.6620436138235
 20
105.4932683278731
 30
0.0
 10
192.1831163193257
 20
106.7361332102093
 30
0.0
 10
190.9607804796329
 20
108.2458191322211
 30
0.0
 10
190.0586975711701
 20
109.9784031838915
 30
0.0
 10
189.4848791823112
 20
111.8566420924171
 30
0.0
 10
189.2961551140612
 20
113.8185207800568
 30
0.0
 10
189.4816956097528
 20
115.7771209003249
 30
0.0
 10
190.049980199994
 20
117.6581335743099
 30
0.0
 10
190.9578194710674
 20
119.3884193228948
 30
0.0
 10
192.1807238823571
 20
120.8969817511647
 30
0.0
 10
193.6653242220671
 20
122.1407383658742
 30
0.0
 10
195.3729424394525
 20
123.0591161088005
 30
0.0
 10
197.2220244684164
 20
123.6408616949893
 30
0.0
 10
199.1496010547421
 20
123.8331982813206
 30
0.0
 10
201.077863632498
 20
123.640155002865
 30
0.0
 10
202.9276458986664
 20
123.0572288150702
 30
0.0
 10
204.6361960563026
 20
122.1379917172712
 30
0.0
 10
206.1202540302749
 20
120.8935373272014
 30
0.0
 10
207.3418445732624
 20
119.3849701024811
 30
0.0
 10
208.2484076930219
 20
117.6558898614466
 30
0.0
 10
208.8159572643705
 20
115.7762630150369
 30
0.0
 10
208.9804299581702
 20
114.0333330801817
 30
0.0
 10
208.8839954923173
 20
112.5128921747125
 30
0.0
 10
208.6285797694722
 20
111.2291541408827
 30
0.0
 10
208.1392008549703
 20
109.7854584412945
 30
0.0
 10
207.3355663282731
 20
108.2427181770435
 30
0.0
 10
206.1119416165162
 20
106.7336428855972
 30
0.0
 10
204.6322483039624
 20
105.4914444585645
 30
0.0
 10
202.9282643450605
 20
104.5696341710289
 30
0.0
 10
201.0801988569608
 20
103.9923387466872
 30
0.0
 10
199.1481841493658
 20
103.8025842944978
 30
0.0
 10
197.2159034050881
 20
103.9930781370452
 30
0.0
  0
SPLINE
  5
BD
330
1F
100
AcDbEntity
  8
0
  6
Continuous
 62
     7
370
    15
100
AcDbSpline
210
0.0
220
0.0
230
1.0
 70
     8
 71
     3
 72
    24
 73
    20
 74
     0
 42
0.00000001
 43
0.00000001
 40
0.0
 40
0.0
 40
0.0
 40
0.0
 40
0.0460249755701142
 40
0.1463647148146891
 40
0.2129501829813419
 40
0.2715560105303569
 40
0.3221918738465543
 40
0.4138474645908513
 40
0.4976737425235342
 40
0.5831370056211298
 40
0.6126709880969899
 40
0.6427224180792414
 40
0.6732998740934237
 40
0.750311096484598
 40
0.8491776097414979
 40
0.9011861201315963
 40
0.9478663239281754
 40
0.9892208550001055
 40
1.0
 40
1.0
 40
1.0
 40
1.0
 10
231.125237615127
 20
105.7772668113104
 30
0.0
 10
231.4023616342368
 20
105.9118608941989
 30
0.0
 10
232.2836478820372
 20
106.3398855550204
 30
0.0
 10
233.3848859896916
 20
107.2644867155217
 30
0.0
 10
234.372283140983
 20
108.3984189633183
 30
0.0
 10
235.0091308022741
 20
109.3889681782614
 30
0.0
 10
235.5958116583159
 20
110.5999298124642
 30
0.0
 10
236.0361503904614
 20
112.0650890581907
 30
0.0
 10
236.2033836817166
 20
113.8242042393995
 30
0.0
 10
236.0743295975744
 20
115.1666034888906
 30
0.0
 10
235.8569027505744
 20
116.117286003287
 30
0.0
 10
235.6828597162086
 20
116.6974494376152
 30
0.0
 10
235.3583375073136
 20
117.561529339733
 30
0.0
 10
234.7190702379498
 20
118.7917864534884
 30
0.0
 10
233.7613139987537
 20
119.9859152570893
 30
0.0
 10
232.7784596429613
 20
120.8639149219694
 30
0.0
 10
232.0141571048011
 20
121.4019739387711
 30
0.0
 10
231.4462339977909
 20
121.7409172660675
 30
0.0
 10
231.1286638957744
 20
121.8851944419186
 30
0.0
 10
231.0630031859378
 20
121.9150251524277
 30
0.0
  0
SPLINE
  5
BE
330
1F
100
AcDbEntity
  8
0
  6
Continuous
 62
     7
370
    15
100
AcDbSpline
210
0.0
220
0.0
230
1.0
 70
     8
 71
     3
 72
    25
 73
    21
 74
     0
 42
0.00000001
 43
0.00000001
 40
0.0
 40
0.0
 40
0.0
 40
0.0
 40
0.0499179366951711
 40
0.1483620403538037
 40
0.2167775907901603
 40
0.2754584150331934
 40
0.3244109525567828
 40
0.4144290007403484
 40
0.4998922681173928
 40
0.5835944048088559
 40
0.613279372164978
 40
0.6438514172506489
 40
0.6753183791369112
 40
0.7259144950612739
 40
0.7844380229501161
 40
0.8508987106706504
 40
0.904312758796782
 40
0.9514256444916162
 40
0.992238903769989
 40
1.0
 40
1.0
 40
1.0
 40
1.0
 10
223.2116518333321
 20
121.8767176712227
 30
0.0
 10
222.910740221589
 20
121.7306095418834
 30
0.0
 10
222.0163951496568
 20
121.2963588172705
 30
0.0
 10
220.8956278535907
 20
120.3543226725223
 30
0.0
 10
219.9096725870809
 20
119.2172986869042
 30
0.0
 10
219.2758436068159
 20
118.2224219090541
 30
0.0
 10
218.7013608003007
 20
117.0292106366463
 30
0.0
 10
218.2622792661405
 20
115.5746923221927
 30
0.0
 10
218.0942035283085
 20
113.8257649502867
 30
0.0
 10
218.2219240305952
 20
112.4826726799207
 30
0.0
 10
218.435209761531
 20
111.537965855598
 30
0.0
 10
218.6111965051034
 20
110.9470468837617
 30
0.0
 10
218.8767149976389
 20
110.2392434081816
 30
0.0
 10
219.2873796099943
 20
109.3904413039415
 30
0.0
 10
219.923988872896
 20
108.4019376848951
 30
0.0
 10
220.7032074934473
 20
107.4986286560235
 30
0.0
 10
221.5358219608713
 20
106.7567130837056
 30
0.0
 10
222.309803118207
 20
106.2166788950366
 30
0.0
 10
222.8607019599112
 20
105.8894903657204
 30
0.0
 10
223.1566417639042
 20
105.7548440114368
 30
0.0
 10
223.2039263294541
 20
105.7333305337657
 30
0.0
  0
SPLINE
  5
BF
330
1F
100
AcDbEntity
  8
0
  6
Continuous
 62
     7
370
    15
100
AcDbSpline
210
0.0
220
0.0
230
1.0
 70
     8
 71
     3
 72
    40
 73
    36
 74
     0
 42
0.00000001
 43
0.00000001
 40
-0.0930036339113171
 40
-0.0620474547372772
 40
-0.0308732375296722
 40
0.0
 40
0.0309015844236559
 40
0.0620939485421614
 40
0.0930588603767071
 40
0.1244206753171226
 40
0.1555630231401976
 40
0.1870278543778749
 40
0.2186607762601684
 40
0.2499150785626119
 40
0.2814274177960312
 40
0.3128942008177358
 40
0.344304810964334
 40
0.3756824627030487
 40
0.4068446952612906
 40
0.4380004212472753
 40
0.4692301721010644
 40
0.4999834690625583
 40
0.5307347927987149
 40
0.5620002943974406
 40
0.593172555667026
 40
0.6243424509758924
 40
0.6556952032329928
 40
0.6870848148916336
 40
0.7185152475293137
 40
0.7500211275141878
 40
0.7709027451723924
 40
0.7917776157329882
 40
0.8130002254595114
 40
0.8444771261802746
 40
0.8756543539011029
 40
0.906996366088683
 40
0.9379525452627228
 40
0.9691267624703278
 40
1.0
 40
1.030901584423656
 40
1.062093948542161
 40
1.093058860376707
 10
229.0801988569607
 20
103.9923387466879
 30
0.0
 10
227.1481841493754
 20
103.8025842944962
 30
0.0
 10
225.2159034050997
 20
103.9930781370525
 30
0.0
 10
223.3667275453943
 20
104.5706048568597
 30
0.0
 10
221.6620436138265
 20
105.4932683278601
 30
0.0
 10
220.1831163193352
 20
106.736133210201
 30
0.0
 10
218.9607804796362
 20
108.2458191322197
 30
0.0
 10
218.0586975711727
 20
109.9784031838863
 30
0.0
 10
217.4848791823076
 20
111.856642092414
 30
0.0
 10
217.2961551140651
 20
113.8185207800773
 30
0.0
 10
217.4816956097355
 20
115.7771209003525
 30
0.0
 10
218.0499802000119
 20
117.6581335743544
 30
0.0
 10
218.9578194710998
 20
119.3884193229021
 30
0.0
 10
220.1807238823602
 20
120.8969817511757
 30
0.0
 10
221.6653242220644
 20
122.1407383658552
 30
0.0
 10
223.3729424394274
 20
123.0591161087904
 30
0.0
 10
225.2220244684005
 20
123.6408616949987
 30
0.0
 10
227.1496010547229
 20
123.8331982813196
 30
0.0
 10
229.07786363249
 20
123.6401550028609
 30
0.0
 10
230.9276458986546
 20
123.0572288150754
 30
0.0
 10
232.6361960562994
 20
122.1379917172792
 30
0.0
 10
234.1202540302558
 20
120.8935373272244
 30
0.0
 10
235.3418445732309
 20
119.3849701024895
 30
0.0
 10
236.2484076930034
 20
117.6558898614908
 30
0.0
 10
236.815957264389
 20
115.7762630150647
 30
0.0
 10
236.9804299581669
 20
114.0333330801834
 30
0.0
 10
236.8839954923211
 20
112.5128921746691
 30
0.0
 10
236.6285797694825
 20
111.2291541408357
 30
0.0
 10
236.1392008549474
 20
109.7854584412551
 30
0.0
 10
235.3355663282417
 20
108.2427181770351
 30
0.0
 10
234.1119416165021
 20
106.733642885578
 30
0.0
 10
232.6322483039611
 20
105.4914444585655
 30
0.0
 10
230.9282643450608
 20
104.5696341710285
 30
0.0
 10
229.0801988569607
 20
103.9923387466879
 30
0.0
 10
227.1481841493754
 20
103.8025842944962
 30
0.0
 10
225.2159034050997
 20
103.9930781370525
 30
0.0
  0
SPLINE
  5
C0
330
1F
100
AcDbEntity
  8
0
  6
Continuous
 62
     7
370
    15
100
AcDbSpline
210
0.0
220
0.0
230
1.0
 70
     8
 71
     3
 72
    68
 73
    64
 74
     0
 42
0.00000001
 43
0.00000001
 40
-0.0312500000000007
 40
-0.0312500000000007
 40
0.0
 40
0.0
 40
0.0312499999999996
 40
0.0312499999999996
 40
0.0624999999999993
 40
0.0624999999999993
 40
0.0937499999999989
 40
0.0937499999999989
 40
0.1249999999999985
 40
0.1249999999999985
 40
0.1562499999999981
 40
0.1562499999999981
 40
0.1874999999999978
 40
0.1874999999999978
 40
0.2187499999999974
 40
0.2187499999999974
 40
0.249999999999997
 40
0.249999999999997
 40
0.2812499999999966
 40
0.2812499999999966
 40
0.3124999999999962
 40
0.3124999999999962
 40
0.3437499999999959
 40
0.3437499999999959
 40
0.3749999999999955
 40
0.3749999999999955
 40
0.4062499999999951
 40
0.4062499999999951
 40
0.4374999999999948
 40
0.4374999999999948
 40
0.4687499999999944
 40
0.4687499999999944
 40
0.499999999999994
 40
0.499999999999994
 40
0.5312499999999937
 40
0.5312499999999937
 40
0.5624999999999932
 40
0.5624999999999932
 40
0.6249999999999925
 40
0.6249999999999925
 40
0.6562499999999931
 40
0.6562499999999931
 40
0.6874999999999938
 40
0.6874999999999938
 40
0.7187499999999943
 40
0.7187499999999943
 40
0.749999999999995
 40
0.749999999999995
 40
0.7812499999999957
 40
0.7812499999999957
 40
0.8124999999999962
 40
0.8124999999999962
 40
0.8437499999999969
 40
0.8437499999999969
 40
0.8749999999999974
 40
0.8749999999999974
 40
0.9062499999999981
 40
0.9062499999999981
 40
0.9374999999999988
 40
0.9374999999999988
 40
0.9687499999999993
 40
0.9687499999999993
 40
1.0
 40
1.0
 40
1.03125
 40
1.03125
 10
157.0381638014043
 20
116.0377204209172
 30
0.0
 10
157.3741412218289
 20
116.3300077276625
 30
0.0
 10
157.5534735930097
 20
116.4575350485717
 30
0.0
 10
157.9330822988867
 20
116.6782921760383
 30
0.0
 10
158.1351926296737
 20
116.7721011703905
 30
0.0
 10
158.5522185553402
 20
116.9212734851167
 30
0.0
 10
158.7651139699375
 20
116.9763277904771
 30
0.0
 10
159.1993716949513
 20
117.0487454683479
 30
0.0
 10
159.4228561407932
 20
117.0659033144088
 30
0.0
 10
159.8640165531725
 20
117.0606578181704
 30
0.0
 10
160.0825084409723
 20
117.0387891262635
 30
0.0
 10
160.5153062982636
 20
116.9564555683887
 30
0.0
 10
160.7310776141251
 20
116.895104584811
 30
0.0
 10
161.1416841851443
 20
116.7370022848268
 30
0.0
 10
161.338415306168
 20
116.6401789259393
 30
0.0
 10
161.7141265349926
 20
116.4096614432423
 30
0.0
 10
161.8934255125232
 20
116.2750005293664
 30
0.0
 10
162.2172848270488
 20
115.9786584847216
 30
0.0
 10
162.3640849585078
 20
115.8158657360766
 30
0.0
 10
162.6253366686067
 20
115.4589509918939
 30
0.0
 10
162.7381561842651
 20
115.2660178705238
 30
0.0
 10
162.9185214989158
 20
114.8661312783649
 30
0.0
 10
162.9878481004637
 20
114.6563596546016
 30
0.0
 10
163.0798714258951
 20
114.2204452975284
 30
0.0
 10
163.1012374193137
 20
114.0013913649285
 30
0.0
 10
163.095907114341
 20
113.5611439045838
 30
0.0
 10
163.0682662209992
 20
113.3376038602206
 30
0.0
 10
162.9664281494956
 20
112.9083974235261
 30
0.0
 10
162.8927099671265
 20
112.7008152912709
 30
0.0
 10
162.6998985455789
 20
112.2996074258817
 30
0.0
 10
162.5832390586695
 20
112.1114161693056
 30
0.0
 10
162.3148792882456
 20
111.7621738822777
 30
0.0
 10
162.1609484763462
 20
111.5990387676054
 30
0.0
 10
161.8282207186905
 20
111.3088637656182
 30
0.0
 10
161.6492660468406
 20
111.1808505283902
 30
0.0
 10
161.2669306743604
 20
110.9578767771755
 30
0.0
 10
161.0642613657032
 20
110.8638631190042
 30
0.0
 10
160.4430853832145
 20
110.6409905855698
 30
0.0
 10
159.9973475193374
 20
110.566951677633
 30
0.0
 10
159.3380775823038
 20
110.5741430832671
 30
0.0
 10
159.1172546502183
 20
110.5958877156285
 30
0.0
 10
158.6808396268348
 20
110.6788636012775
 30
0.0
 10
158.4693171608814
 20
110.7391013413178
 30
0.0
 10
158.0594183307952
 20
110.8964948837759
 30
0.0
 10
157.8592969348356
 20
110.9947496466033
 30
0.0
 10
157.4819052094403
 20
111.2264205363938
 30
0.0
 10
157.3064500368717
 20
111.3582299890882
 30
0.0
 10
156.9823566511664
 20
111.6542713368838
 30
0.0
 10
156.8321659695714
 20
111.8208343926698
 30
0.0
 10
156.5716272396652
 20
112.1771547031945
 30
0.0
 10
156.4607864294263
 20
112.3663906995256
 30
0.0
 10
156.2793870582592
 20
112.7678670672196
 30
0.0
 10
156.2090275315949
 20
112.981873119713
 30
0.0
 10
156.1181976156519
 20
113.4125137670301
 30
0.0
 10
156.0962790461597
 20
113.6315052397247
 30
0.0
 10
156.1017570726194
 20
114.0771961523972
 30
0.0
 10
156.1292702971612
 20
114.2970547943036
 30
0.0
 10
156.2308928562538
 20
114.7257750425939
 30
0.0
 10
156.3063798594609
 20
114.9377201479561
 30
0.0
 10
156.4979599932827
 20
115.3356973333805
 30
0.0
 10
156.6138172906774
 20
115.5230984103034
 30
0.0
 10
156.8846817755458
 20
115.8753351647421
 30
0.0
 10
157.0381638014043
 20
116.0377204209172
 30
0.0
 10
157.3741412218289
 20
116.3300077276625
 30
0.0
  0
SPLINE
  5
C1
330
1F
100
AcDbEntity
  8
0
  6
Continuous
 62
     7
370
    15
100
AcDbSpline
210
0.0
220
0.0
230
1.0
 70
     8
 71
     3
 72
    17
 73
    13
 74
     0
 42
0.00000001
 43
0.00000001
 40
0.0
 40
0.0
 40
0.0
 40
0.0
 40
0.0548600282151733
 40
0.150075019331335
 40
0.2481291671552803
 40
0.3528114708954976
 40
0.4649322949566085
 40
0.5823457863966482
 40
0.7011795272279034
 40
0.8168986368230402
 40
0.9252758967479301
 40
1.0
 40
1.0
 40
1.0
 40
1.0
 10
156.1430362647855
 20
77.82119189882079
 30
0.0
 10
156.1367169394395
 20
77.82067947636057
 30
0.0
 10
156.1194298015303
 20
77.81927769416822
 30
0.0
 10
156.4747959423097
 20
77.84825335297496
 30
0.0
 10
157.1334655904114
 20
77.89362736905593
 30
0.0
 10
158.0820052024923
 20
77.94102535445833
 30
0.0
 10
159.2366924617232
 20
77.96865184806687
 30
0.0
 10
160.4810623101274
 20
77.96102776967223
 30
0.0
 10
161.6458310952292
 20
77.91812829742089
 30
0.0
 10
162.5324834711817
 20
77.86296262607065
 30
0.0
 10
163.0404600046268
 20
77.82247279119414
 30
0.0
 10
163.0568578330453
 20
77.82102464272708
 30
0.0
 10
163.0635498259535
 20
77.82043364988189
 30
0.0
  0
SPLINE
  5
C2
330
1F
100
AcDbEntity
  8
0
  6
Continuous
 62
     7
370
    15
100
AcDbSpline
210
0.0
220
0.0
230
1.0
 70
     8
 71
     3
 72
     9
 73
     5
 74
     0
 42
0.00000001
 43
0.00000001
 40
0.0
 40
0.0
 40
0.0
 40
0.0
 40
0.0758635491805157
 40
1.0
 40
1.0
 40
1.0
 40
1.0
 10
157.98943460197
 20
77.93208038914233
 30
0.0
 10
157.9667531505077
 20
77.93150892525996
 30
0.0
 10
157.6677762148471
 20
77.9239761392443
 30
0.0
 10
157.4278640696568
 20
77.90911928465727
 30
0.0
 10
157.2061525112922
 20
77.89538952378885
 30
0.0
  0
LINE
  5
C3
330
1F
100
AcDbEntity
  8
0
  6
Continuous
 62
     7
370
    15
100
AcDbLine
 10
157.2061525116
 20
149.7396790211
 30
0.0
 11
157.4718901227
 21
149.7276369432
 31
0.0
  0
SPLINE
  5
C4
330
1F
100
AcDbEntity
  8
0
  6
Continuous
 62
     7
370
    15
100
AcDbSpline
210
0.0
220
0.0
230
1.0
 70
     8
 71
     3
 72
    17
 73
    13
 74
     0
 42
0.00000001
 43
0.00000001
 40
0.0
 40
0.0
 40
0.0
 40
0.0
 40
0.0371802279314401
 40
0.1324429078313615
 40
0.2295804831236144
 40
0.3328458748611884
 40
0.4436404378882876
 40
0.560302440881905
 40
0.679172521071312
 40
0.7957986618991214
 40
0.9057356878754785
 40
1.0
 40
1.0
 40
1.0
 40
1.0
 10
163.0557323117987
 20
149.8139785112861
 30
0.0
 10
163.0670537309703
 20
149.8149113185539
 30
0.0
 10
163.1073827380606
 20
149.8182341520559
 30
0.0
 10
162.8113502141622
 20
149.793723974776
 30
0.0
 10
162.2119929538081
 20
149.7507691427047
 30
0.0
 10
161.309557102816
 20
149.7019307809777
 30
0.0
 10
160.1873368574078
 20
149.6692245852975
 30
0.0
 10
158.9471895944797
 20
149.669654469104
 30
0.0
 10
157.7537847528566
 20
149.7070570709938
 30
0.0
 10
156.8026992820338
 20
149.7622429228907
 30
0.0
 10
156.1995032423699
 20
149.8089525290932
 30
0.0
 10
156.1391233242404
 20
149.8141297959782
 30
0.0
 10
156.1112504831436
 20
149.8165197484934
 30
0.0
  0
LINE
  5
C5
330
1F
100
AcDbEntity
  8
0
  6
Continuous
 62
     7
370
    15
100
AcDbLine
 10
156.8594780995
 20
149.7612124185
 30
0.0
 11
157.2061525111
 21
149.7396790188
 31
0.0
  0
CIRCLE
  5
C6
330
1F
100
AcDbEntity
  8
0
  6
Continuous
 62
     7
370
    15
100
AcDbCircle
 10
159.5987918096
 20
113.8175342713
 30
0.0
 40
2.500000000000014
  0
SPLINE
  5
C7
330
1F
100
AcDbEntity
  8
0
  6
Continuous
 62
     7
370
    15
100
AcDbSpline
210
0.0
220
0.0
230
1.0
 70
     8
 71
     3
 72
    20
 73
    16
 74
     0
 42
0.00000001
 43
0.00000001
 40
0.0
 40
0.0
 40
0.0
 40
0.0
 40
0.249999999999986
 40
0.249999999999986
 40
0.3749999999999789
 40
0.3749999999999789
 40
0.4374999999999789
 40
0.4374999999999789
 40
0.4999999999999789
 40
0.4999999999999789
 40
0.6249999999999835
 40
0.6249999999999835
 40
0.7499999999999879
 40
0.7499999999999879
 40
1.0
 40
1.0
 40
1.0
 40
1.0
 10
41.03960604130761
 20
83.13905111860207
 30
0.0
 10
41.06587825852102
 20
83.15836905968452
 30
0.0
 10
41.09655840077586
 20
83.17275777078629
 30
0.0
 10
41.16802927115778
 20
83.16585340895027
 30
0.0
 10
41.19605630820211
 20
83.15868740560187
 30
0.0
 10
41.25113989769963
 20
83.12898837889827
 30
0.0
 10
41.27203122625206
 20
83.11551473633693
 30
0.0
 10
41.31723987369751
 20
83.08031647082092
 30
0.0
 10
41.34164408609309
 20
83.05840824209366
 30
0.0
 10
41.41297640414454
 20
82.98628338209812
 30
0.0
 10
41.45487318896479
 20
82.93394284114807
 30
0.0
 10
41.52644914782068
 20
82.83645944924731
 30
0.0
 10
41.55727713763799
 20
82.7897056793689
 30
0.0
 10
41.64037707047355
 20
82.65641246352978
 30
0.0
 10
41.68523197584386
 20
82.57377506561457
 30
0.0
 10
41.72534405129644
 20
82.49466817082379
 30
0.0
  0
SPLINE
  5
C8
330
1F
100
AcDbEntity
  8
0
  6
Continuous
 62
     7
370
    15
100
AcDbSpline
210
0.0
220
0.0
230
1.0
 70
     8
 71
     3
 72
     8
 73
     4
 74
     0
 42
0.00000001
 43
0.00000001
 40
0.0
 40
0.0
 40
0.0
 40
0.0
 40
1.0
 40
1.0
 40
1.0
 40
1.0
 10
40.74879180959162
 20
83.31486452873483
 30
0.0
 10
40.74879180959162
 20
83.28958447150747
 30
0.0
 10
40.75197861402585
 20
83.26598490226942
 30
0.0
 10
40.75808161097327
 20
83.2444074605774
 30
0.0
  0
SPLINE
  5
C9
330
1F
100
AcDbEntity
  8
0
  6
Continuous
 62
     7
370
    15
100
AcDbSpline
210
0.0
220
0.0
230
1.0
 70
     8
 71
     3
 72
     9
 73
     5
 74
     0
 42
0.00000001
 43
0.00000001
 40
0.0
 40
0.0
 40
0.0
 40
0.0
 40
0.7766521846938914
 40
0.9999999999999999
 40
0.9999999999999999
 40
0.9999999999999999
 40
0.9999999999999999
 10
40.83412243608535
 20
83.19982239571236
 30
0.0
 10
40.87730956237892
 20
83.14762427432666
 30
0.0
 10
40.93291634124942
 20
83.08041513951135
 30
0.0
 10
41.02012759771137
 20
83.12834589015468
 30
0.0
 10
41.03960604131227
 20
83.13905111859684
 30
0.0
  0
LINE
  5
CA
330
1F
100
AcDbEntity
  8
0
  6
Continuous
 62
     7
370
    15
100
AcDbLine
 10
40.7487918096
 20
83.3148645287
 30
0.0
 11
40.7487918096
 21
144.3202040139
 31
0.0
  0
SPLINE
  5
CB
330
1F
100
AcDbEntity
  8
0
  6
Continuous
 62
     7
370
    15
100
AcDbSpline
210
0.0
220
0.0
230
1.0
 70
     8
 71
     3
 72
     9
 73
     5
 74
     0
 42
0.00000001
 43
0.00000001
 40
0.0
 40
0.0
 40
0.0
 40
0.0
 40
0.0592950272321202
 40
1.0
 40
1.0
 40
1.0
 40
1.0
 10
41.03960604131225
 20
144.4960174240086
 30
0.0
 10
41.03472319985006
 20
144.4993102694021
 30
0.0
 10
40.95237495430372
 20
144.5548435164078
 30
0.0
 10
40.88624290382217
 20
144.4975541138953
 30
0.0
 10
40.82403215507488
 20
144.4436616880648
 30
0.0
  0
SPLINE
  5
CC
330
1F
100
AcDbEntity
  8
0
  6
Continuous
 62
     7
370
    15
100
AcDbSpline
210
0.0
220
0.0
230
1.0
 70
     8
 71
     3
 72
     8
 73
     4
 74
     0
 42
0.00000001
 43
0.00000001
 40
0.0
 40
0.0
 40
0.0
 40
0.0
 40
1.0
 40
1.0
 40
1.0
 40
1.0
 10
40.77242547852781
 20
144.4277835149404
 30
0.0
 10
40.75707643989178
 20
144.3972734599444
 30
0.0
 10
40.74879180959162
 20
144.3609619044321
 30
0.0
 10
40.74879180959162
 20
144.3202040138707
 30
0.0
  0
SPLINE
  5
CD
330
1F
100
AcDbEntity
  8
0
  6
Continuous
 62
     7
370
    15
100
AcDbSpline
210
0.0
220
0.0
230
1.0
 70
     8
 71
     3
 72
    20
 73
    16
 74
     0
 42
0.00000001
 43
0.00000001
 40
0.0
 40
0.0
 40
0.0
 40
0.0
 40
0.2500000000000037
 40
0.2500000000000037
 40
0.3750000000000055
 40
0.3750000000000055
 40
0.5000000000000073
 40
0.5000000000000073
 40
0.5625000000000057
 40
0.5625000000000057
 40
0.625000000000004
 40
0.625000000000004
 40
0.7500000000000027
 40
0.7500000000000027
 40
1.0
 40
1.0
 40
1.0
 40
1.0
 10
41.72534405129402
 20
145.1404003717809
 30
0.0
 10
41.6853478334702
 20
145.0615219652235
 30
0.0
 10
41.64023420563254
 20
144.978392318532
 30
0.0
 10
41.556979991266
 20
144.844903654181
 30
0.0
 10
41.52676066264551
 20
144.799038598299
 30
0.0
 10
41.45467242750409
 20
144.7008470458941
 30
0.0
 10
41.41275511009302
 20
144.6485372263706
 30
0.0
 10
41.34150450554154
 20
144.5765313236361
 30
0.0
 10
41.31726869316223
 20
144.5547611113345
 30
0.0
 10
41.27167050297759
 20
144.5192864530055
 30
0.0
 10
41.25086801337786
 20
144.5059162688279
 30
0.0
 10
41.19592701495875
 20
144.4763463566927
 30
0.0
 10
41.16785802687193
 20
144.4692198343907
 30
0.0
 10
41.0973551968091
 20
144.462345462908
 30
0.0
 10
41.06593110901822
 20
144.4766606219952
 30
0.0
 10
41.03960604130963
 20
144.4960174240057
 30
0.0
  0
SPLINE
  5
CE
330
1F
100
AcDbEntity
  8
0
  6
Continuous
 62
     7
370
    15
100
AcDbSpline
210
0.0
220
0.0
230
1.0
 70
     8
 71
     3
 72
    10
 73
     6
 74
     0
 42
0.00000001
 43
0.00000001
 40
0.0
 40
0.0
 40
0.0
 40
0.0
 40
0.4999999999999989
 40
0.4999999999999989
 40
1.0
 40
1.0
 40
1.0
 40
1.0
 10
42.39879180959161
 20
146.0658194731228
 30
0.0
 10
42.27390353884142
 20
145.9348231950513
 30
0.0
 10
42.15245342078097
 20
145.7911103583863
 30
0.0
 10
41.92286944582354
 20
145.4805400656971
 30
0.0
 10
41.81259447042757
 20
145.312470992634
 30
0.0
 10
41.72534405129404
 20
145.1404003717809
 30
0.0
  0
SPLINE
  5
CF
330
1F
100
AcDbEntity
  8
0
  6
Continuous
 62
     7
370
    15
100
AcDbSpline
210
0.0
220
0.0
230
1.0
 70
     8
 71
     3
 72
     8
 73
     4
 74
     0
 42
0.00000001
 43
0.00000001
 40
0.0
 40
0.0
 40
0.0
 40
0.0
 40
1.0
 40
1.0
 40
1.0
 40
1.0
 10
42.64871692555738
 20
146.0633664398674
 30
0.0
 10
42.56169889570901
 20
146.0638330046544
 30
0.0
 10
42.47874486932906
 20
146.0648730242306
 30
0.0
 10
42.39879180958931
 20
146.0658194731228
 30
0.0
  0
SPLINE
  5
D0
330
1F
100
AcDbEntity
  8
0
  6
Continuous
 62
     7
370
    15
100
AcDbSpline
210
0.0
220
0.0
230
1.0
 70
     8
 71
     3
 72
     8
 73
     4
 74
     0
 42
0.00000001
 43
0.00000001
 40
0.0
 40
0.0
 40
0.0
 40
0.0
 40
1.0
 40
1.0
 40
1.0
 40
1.0
 10
42.39879180958931
 20
81.56924906948268
 30
0.0
 10
42.47874486932906
 20
81.57019551837494
 30
0.0
 10
42.56169889570901
 20
81.57123553795107
 30
0.0
 10
42.64871692555739
 20
81.57170210273814
 30
0.0
  0
SPLINE
  5
D1
330
1F
100
AcDbEntity
  8
0
  6
Continuous
 62
     7
370
    15
100
AcDbSpline
210
0.0
220
0.0
230
1.0
 70
     8
 71
     3
 72
    10
 73
     6
 74
     0
 42
0.00000001
 43
0.00000001
 40
0.0
 40
0.0
 40
0.0
 40
0.0
 40
0.4999999999999989
 40
0.4999999999999989
 40
1.0
 40
1.0
 40
1.0
 40
1.0
 10
41.72534405129311
 20
82.49466817082636
 30
0.0
 10
41.8125944704266
 20
82.32259754997298
 30
0.0
 10
41.92286944582274
 20
82.15452847690955
 30
0.0
 10
42.15245342078058
 20
81.84395818421974
 30
0.0
 10
42.27390353884122
 20
81.70024534755446
 30
0.0
 10
42.39879180959161
 20
81.56924906948277
 30
0.0
  0
SPLINE
  5
D2
330
1F
100
AcDbEntity
  8
0
  6
Continuous
 62
     7
370
    15
100
AcDbSpline
210
0.0
220
0.0
230
1.0
 70
     8
 71
     3
 72
     8
 73
     4
 74
     0
 42
0.00000001
 43
0.00000001
 40
0.0
 40
0.0
 40
0.0
 40
0.0
 40
1.0
 40
1.0
 40
1.0
 40
1.0
 10
107.3867627886702
 20
152.7684970321897
 30
0.0
 10
107.8436891424698
 20
151.7525790625154
 30
0.0
 10
108.2948947842728
 20
150.7337832334242
 30
0.0
 10
108.7387918095916
 20
149.7129817774406
 30
0.0
  0
LINE
  5
D3
330
1F
100
AcDbEntity
  8
0
  6
Continuous
 62
     7
370
    15
100
AcDbLine
 10
108.7387918096
 20
149.7129817774
 30
0.0
 11
108.7387918096
 21
148.5317694638
 31
0.0
  0
SPLINE
  5
D4
330
1F
100
AcDbEntity
  8
0
  6
Continuous
 62
     7
370
    15
100
AcDbSpline
210
0.0
220
0.0
230
1.0
 70
     8
 71
     3
 72
    14
 73
    10
 74
     0
 42
0.00000001
 43
0.00000001
 40
0.0
 40
0.0
 40
0.0
 40
0.0
 40
0.25
 40
0.25
 40
0.5
 40
0.5
 40
0.75
 40
0.75
 40
1.0
 40
1.0
 40
1.0
 40
1.0
 10
108.7387918095916
 20
148.5317694637998
 30
0.0
 10
108.7387918095916
 20
148.4079025870106
 30
0.0
 10
108.7546509372192
 20
148.2836429101731
 30
0.0
 10
108.8180125827391
 20
148.0460345477672
 30
0.0
 10
108.8666022907884
 20
147.9292541630147
 30
0.0
 10
108.9988878955633
 20
147.7204516344057
 30
0.0
 10
109.0842126868239
 20
147.6259409308132
 30
0.0
 10
109.2911039351301
 20
147.4879841300109
 30
0.0
 10
109.4150718810201
 20
147.4460656843752
 30
0.0
 10
109.5387918095916
 20
147.4460656843752
 30
0.0
  0
LINE
  5
D5
330
1F
100
AcDbEntity
  8
0
  6
Continuous
 62
     7
370
    15
100
AcDbLine
 10
109.5387918096
 20
147.4460656844
 30
0.0
 11
111.7587918096
 21
147.4460656844
 31
0.0
  0
SPLINE
  5
D6
330
1F
100
AcDbEntity
  8
0
  6
Continuous
 62
     7
370
    15
100
AcDbSpline
210
0.0
220
0.0
230
1.0
 70
     8
 71
     3
 72
    12
 73
     8
 74
     0
 42
0.00000001
 43
0.00000001
 40
0.0
 40
0.0
 40
0.0
 40
0.0
 40
0.250000000000002
 40
0.250000000000002
 40
0.500000000000004
 40
0.500000000000004
 40
1.0
 40
1.0
 40
1.0
 40
1.0
 10
111.7587918095936
 20
147.4460656843752
 30
0.0
 10
111.8824927595735
 20
147.4460656843757
 30
0.0
 10
112.0065893718434
 20
147.4880592961085
 30
0.0
 10
112.2132445349298
 20
147.6258546227532
 30
0.0
 10
112.2982853016564
 20
147.719828221218
 30
0.0
 10
112.4977638701294
 20
148.0346164274387
 30
0.0
 10
112.5587918095916
 20
148.2848554196659
 30
0.0
 10
112.5587918095916
 20
148.5317694637998
 30
0.0
  0
LINE
  5
D7
330
1F
100
AcDbEntity
  8
0
  6
Continuous
 62
     7
370
    15
100
AcDbLine
 10
112.5587918096
 20
148.5317694638
 30
0.0
 11
112.5587918096
 21
149.7129817774
 31
0.0
  0
SPLINE
  5
D8
330
1F
100
AcDbEntity
  8
0
  6
Continuous
 62
     7
370
    15
100
AcDbSpline
210
0.0
220
0.0
230
1.0
 70
     8
 71
     3
 72
     8
 73
     4
 74
     0
 42
0.00000001
 43
0.00000001
 40
0.0
 40
0.0
 40
0.0
 40
0.0
 40
1.0
 40
1.0
 40
1.0
 40
1.0
 10
112.5587918095916
 20
149.7129817774406
 30
0.0
 10
113.0029418206171
 20
150.7343650083923
 30
0.0
 10
113.454016130875
 20
151.7528495451606
 30
0.0
 10
113.910820830513
 20
152.7684970321897
 30
0.0
  0
LINE
  5
D9
330
1F
100
AcDbEntity
  8
0
  6
Continuous
 62
     7
370
    15
100
AcDbLine
 10
113.9108208305
 20
152.7684970322
 30
0.0
 11
118.5987918096
 21
152.7684970322
 31
0.0
  0
SPLINE
  5
DA
330
1F
100
AcDbEntity
  8
0
  6
Continuous
 62
     7
370
    15
100
AcDbSpline
210
0.0
220
0.0
230
1.0
 70
     8
 71
     3
 72
    16
 73
    12
 74
     0
 42
0.00000001
 43
0.00000001
 40
0.0
 40
0.0
 40
0.0
 40
0.0
 40
0.125
 40
0.125
 40
0.25
 40
0.25
 40
0.5
 40
0.5
 40
0.75
 40
0.75
 40
1.0
 40
1.0
 40
1.0
 40
1.0
 10
118.5987918095906
 20
152.7684970321897
 30
0.0
 10
118.6744295160019
 20
152.7684970321898
 30
0.0
 10
118.7507451804201
 20
152.7571520320549
 30
0.0
 10
118.8951559183122
 20
152.7144994814165
 30
0.0
 10
118.9636023674207
 20
152.6835651567337
 30
0.0
 10
119.158533620034
 20
152.5643087849662
 30
0.0
 10
119.266374793815
 20
152.4541567713457
 30
0.0
 10
119.4350875420273
 20
152.2060206856875
 30
0.0
 10
119.4974519547509
 20
152.0656783616838
 30
0.0
 10
119.5787558792594
 20
151.777406670195
 30
0.0
 10
119.5987918095916
 20
151.6266016972151
 30
0.0
 10
119.5987918095916
 20
151.4762318058697
 30
0.0
  0
LINE
  5
DB
330
1F
100
AcDbEntity
  8
0
  6
Continuous
 62
     7
370
    15
100
AcDbLine
 10
119.5987918096
 20
151.4762318059
 30
0.0
 11
119.5987918096
 21
145.1675342713
 31
0.0
  0
SPLINE
  5
DC
330
1F
100
AcDbEntity
  8
0
  6
Continuous
 62
     7
370
    15
100
AcDbSpline
210
0.0
220
0.0
230
1.0
 70
     8
 71
     3
 72
     8
 73
     4
 74
     0
 42
0.00000001
 43
0.00000001
 40
0.0
 40
0.0
 40
0.0
 40
0.0
 40
1.0
 40
1.0
 40
1.0
 40
1.0
 10
108.7387918095916
 20
160.4148051320076
 30
0.0
 10
108.2884835739071
 20
161.2125202571213
 30
0.0
 10
107.8377897573834
 20
162.0100185567785
 30
0.0
 10
107.3867627886702
 20
162.8073291269663
 30
0.0
  0
LINE
  5
DD
330
1F
100
AcDbEntity
  8
0
  6
Continuous
 62
     7
370
    15
100
AcDbLine
 10
108.7387918096
 20
149.7129817774
 30
0.0
 11
108.7387918096
 21
160.414805132
 31
0.0
  0
SPLINE
  5
DE
330
1F
100
AcDbEntity
  8
0
  6
Continuous
 62
     7
370
    15
100
AcDbSpline
210
0.0
220
0.0
230
1.0
 70
     8
 71
     3
 72
    10
 73
     6
 74
     0
 42
0.00000001
 43
0.00000001
 40
0.0
 40
0.0
 40
0.0
 40
0.0
 40
0.5
 40
0.5
 40
1.0
 40
1.0
 40
1.0
 40
1.0
 10
109.5387918095916
 20
158.6918100314752
 30
0.0
 10
109.3262554957353
 20
158.6918100314752
 30
0.0
 10
109.1163193240812
 20
158.7832226181054
 30
0.0
 10
108.82261218307
 20
159.0879674840096
 30
0.0
 10
108.7387918095916
 20
159.3001224539182
 30
0.0
 10
108.7387918095916
 20
159.5110855121507
 30
0.0
  0
SPLINE
  5
DF
330
1F
100
AcDbEntity
  8
0
  6
Continuous
 62
     7
370
    15
100
AcDbSpline
210
0.0
220
0.0
230
1.0
 70
     8
 71
     3
 72
    14
 73
    10
 74
     0
 42
0.00000001
 43
0.00000001
 40
0.0
 40
0.0
 40
0.0
 40
0.0
 40
0.25
 40
0.25
 40
0.5
 40
0.5
 40
0.75
 40
0.75
 40
1.0
 40
1.0
 40
1.0
 40
1.0
 10
112.5587918095916
 20
159.5110855121507
 30
0.0
 10
112.5587918095916
 20
159.4047288183984
 30
0.0
 10
112.5384042534504
 20
159.2988883306383
 30
0.0
 10
112.4597699079888
 20
159.1023234171018
 30
0.0
 10
112.4010385483501
 20
159.0111526748146
 30
0.0
 10
112.2544296427475
 20
158.859241585783
 30
0.0
 10
112.165024322721
 20
158.7971727489634
 30
0.0
 10
111.9711335901206
 20
158.7139047012047
 30
0.0
 10
111.8646286002307
 20
158.6918100314751
 30
0.0
 10
111.7587918095913
 20
158.6918100314752
 30
0.0
  0
SPLINE
  5
E0
330
1F
100
AcDbEntity
  8
0
  6
Continuous
 62
     7
370
    15
100
AcDbSpline
210
0.0
220
0.0
230
1.0
 70
     8
 71
     3
 72
     8
 73
     4
 74
     0
 42
0.00000001
 43
0.00000001
 40
0.0
 40
0.0
 40
0.0
 40
0.0
 40
1.0
 40
1.0
 40
1.0
 40
1.0
 10
113.910820830513
 20
162.8073291269663
 30
0.0
 10
113.4597938617998
 20
162.0100185567785
 30
0.0
 10
113.0091000452762
 20
161.2125202571213
 30
0.0
 10
112.5587918095916
 20
160.4148051320076
 30
0.0
  0
LINE
  5
E1
330
1F
100
AcDbEntity
  8
0
  6
Continuous
 62
     7
370
    15
100
AcDbLine
 10
113.9108208305
 20
152.7684970322
 30
0.0
 11
113.9108208305
 21
162.807329127
 31
0.0
  0
LINE
  5
E2
330
1F
100
AcDbEntity
  8
0
  6
Continuous
 62
     7
370
    15
100
AcDbLine
 10
112.5587918096
 20
149.7129817774
 30
0.0
 11
112.5587918096
 21
160.414805132
 31
0.0
  0
LINE
  5
E3
330
1F
100
AcDbEntity
  8
0
  6
Continuous
 62
     7
370
    15
100
AcDbLine
 10
118.5987918096
 20
162.807329127
 30
0.0
 11
113.9108208305
 21
162.807329127
 31
0.0
  0
SPLINE
  5
E4
330
1F
100
AcDbEntity
  8
0
  6
Continuous
 62
     7
370
    15
100
AcDbSpline
210
0.0
220
0.0
230
1.0
 70
     8
 71
     3
 72
    12
 73
     8
 74
     0
 42
0.00000001
 43
0.00000001
 40
0.0
 40
0.0
 40
0.0
 40
0.0
 40
0.5
 40
0.5
 40
0.75
 40
0.75
 40
1.0
 40
1.0
 40
1.0
 40
1.0
 10
119.5987918095916
 20
161.7862740921486
 30
0.0
 10
119.5987918095916
 20
162.051543524915
 30
0.0
 10
119.4941850661051
 20
162.3140586305674
 30
0.0
 10
119.2175167143598
 20
162.5995962366047
 30
0.0
 10
119.1071514550079
 20
162.6759178534661
 30
0.0
 10
118.8630794063921
 20
162.7802600183062
 30
0.0
 10
118.7313269450604
 20
162.8073291269663
 30
0.0
 10
118.5987918095916
 20
162.8073291269663
 30
0.0
  0
LINE
  5
E5
330
1F
100
AcDbEntity
  8
0
  6
Continuous
 62
     7
370
    15
100
AcDbLine
 10
119.5987918096
 20
151.4762318059
 30
0.0
 11
119.5987918096
 21
161.7862740921
 31
0.0
  0
LINE
  5
E6
330
1F
100
AcDbEntity
  8
0
  6
Continuous
 62
     7
370
    15
100
AcDbLine
 10
111.7587918096
 20
158.6918100315
 30
0.0
 11
109.5387918096
 21
158.6918100315
 31
0.0
  0
LINE
  5
E7
330
1F
100
AcDbEntity
  8
0
  6
Continuous
 62
     7
370
    15
100
AcDbLine
 10
250.6487918096
 20
88.645961396
 30
0.0
 11
250.6487918096
 21
138.9891071466
 31
0.0
  0
ARC
  5
E8
330
1F
100
AcDbEntity
  8
0
  6
Continuous
 62
     7
370
    15
100
AcDbCircle
 10
99.6488584557
 20
146.3831047722
 30
0.0
 40
11.45027678818642
100
AcDbArc
 50
77.9103159805
 51
102.108234864
  0
LINE
  5
E9
330
1F
100
AcDbEntity
  8
0
  6
Continuous
 62
     7
370
    15
100
AcDbLine
 10
42.3987918096
 20
81.5675342713
 30
0.0
 11
42.3987918096
 21
81.5692490695
 31
0.0
  0
LINE
  5
EA
330
1F
100
AcDbEntity
  8
0
  6
Continuous
 62
     7
370
    15
100
AcDbLine
 10
42.3987918096
 20
146.0675342713
 30
0.0
 11
42.3987918096
 21
146.0658194731
 31
0.0
  0
ARC
  5
EB
330
1F
100
AcDbEntity
  8
0
  6
HIDDEN
 62
     7
370
     0
100
AcDbCircle
 10
227.1487918096
 20
113.8175342713
 30
0.0
 40
8.999999999999988
100
AcDbArc
 50
295.9892763098
 51
64.4121358748
  0
ARC
  5
EC
330
1F
100
AcDbEntity
  8
0
  6
HIDDEN
 62
     7
370
     0
100
AcDbCircle
 10
227.1487918096
 20
113.8175342713
 30
0.0
 40
10.00000000000004
100
AcDbArc
 50
210.1655074461
 51
235.3490071269
  0
LWPOLYLINE
  5
ED
330
1F
100
AcDbEntity
  8
0
  6
HIDDEN
 62
     7
370
     0
100
AcDbPolyline
 90
        3
 70
   128
 43
0.0
 10
226.8391159849
 20
103.8223303773
 10
227.9822469282
 20
103.8523271703
 10
229.0555085376
 20
104.0009956085
  0
ARC
  5
EE
330
1F
100
AcDbEntity
  8
0
  6
HIDDEN
 62
     7
370
     0
100
AcDbCircle
 10
227.1487918096
 20
113.8175342713
 30
0.0
 40
10.00000000000004
100
AcDbArc
 50
115.8151382556
 51
210.1655074461
  0
ARC
  5
EF
330
1F
100
AcDbEntity
  8
0
  6
HIDDEN
 62
     7
370
     0
100
AcDbCircle
 10
227.1487918096
 20
113.8175342713
 30
0.0
 40
5.000000000000032
100
AcDbArc
 50
210.1655074461
 51
240.1655074461
  0
ARC
  5
F0
330
1F
100
AcDbEntity
  8
0
  6
HIDDEN
 62
     7
370
     0
100
AcDbCircle
 10
227.1487918096
 20
113.8175342713
 30
0.0
 40
5.00000000000003
100
AcDbArc
 50
180.1655074461
 51
210.1655074461
  0
CIRCLE
  5
F1
330
1F
100
AcDbEntity
  8
0
  6
HIDDEN
 62
     7
370
     0
100
AcDbCircle
 10
227.1487918096
 20
113.8175342713
 30
0.0
 40
6.99999999999999
  0
ARC
  5
F2
330
1F
100
AcDbEntity
  8
0
  6
HIDDEN
 62
     7
370
     0
100
AcDbCircle
 10
199.1487918096
 20
113.8175342713
 30
0.0
 40
9.000000000000012
100
AcDbArc
 50
295.9892763098
 51
64.4121358748
  0
ARC
  5
F3
330
1F
100
AcDbEntity
  8
0
  6
HIDDEN
 62
     7
370
     0
100
AcDbCircle
 10
199.1487918096
 20
113.8175342713
 30
0.0
 40
10.00000000000002
100
AcDbArc
 50
210.422220264
 51
235.4282029097
  0
LWPOLYLINE
  5
F4
330
1F
100
AcDbEntity
  8
0
  6
HIDDEN
 62
     7
370
     0
100
AcDbPolyline
 90
        3
 70
   128
 43
0.0
 10
198.8659422957
 20
103.8215352641
 10
200.0268873632
 20
103.8561614644
 10
201.0878695455
 20
104.0073366416
  0
ARC
  5
F5
330
1F
100
AcDbEntity
  8
0
  6
HIDDEN
 62
     7
370
     0
100
AcDbCircle
 10
199.1487918096
 20
113.8175342713
 30
0.0
 40
10.00000000000002
100
AcDbArc
 50
115.8767305335
 51
210.422220264
  0
ARC
  5
F6
330
1F
100
AcDbEntity
  8
0
  6
HIDDEN
 62
     7
370
     0
100
AcDbCircle
 10
199.1487918096
 20
113.8175342713
 30
0.0
 40
5.00000000000003
100
AcDbArc
 50
210.422220264
 51
240.422220264
  0
ARC
  5
F7
330
1F
100
AcDbEntity
  8
0
  6
HIDDEN
 62
     7
370
     0
100
AcDbCircle
 10
199.1487918096
 20
113.8175342713
 30
0.0
 40
5.000000000000009
100
AcDbArc
 50
180.422220264
 51
210.422220264
  0
CIRCLE
  5
F8
330
1F
100
AcDbEntity
  8
0
  6
HIDDEN
 62
     7
370
     0
100
AcDbCircle
 10
199.1487918096
 20
113.8175342713
 30
0.0
 40
7.00000000000002
  0
LWPOLYLINE
  5
F9
330
1F
100
AcDbEntity
  8
0
  6
HIDDEN
 62
     7
370
     0
100
AcDbPolyline
 90
       18
 70
   128
 43
0.0
 10
243.4436411126
 20
97.0003492473
 10
243.4152765501
 20
97.6063269355
 10
243.3907427789
 20
98.321461357
 10
243.3733532208
 20
99.0491696457
 10
243.365456432
 20
99.6911707646
 10
243.3681189175
 20
100.1607589053
 10
243.380981094
 20
100.3945135873
 10
243.4023058532
 20
100.3608649455
 10
243.4292131682
 20
100.0643574154
 10
243.458069057
 20
99.545035982
 10
243.4849763721
 20
98.8730378825
 10
243.5063011312
 20
98.1391201839
 10
243.5191633077
 20
97.4424025382
 10
243.5218257932
 20
96.876980524
 10
243.5139290044
 20
96.5192175176
 10
243.4965394463
 20
96.4174313954
 10
243.4720056751
 20
96.5853689372
 10
243.4436411126
 20
97.0003492473
  0
LWPOLYLINE
  5
FA
330
1F
100
AcDbEntity
  8
0
  6
HIDDEN
 62
     7
370
     0
100
AcDbPolyline
 90
       17
 70
   128
 43
0.0
 10
242.6942193354
 20
97.5098586717
 10
242.6754392341
 20
97.9151270811
 10
242.659518233
 20
98.3932602959
 10
242.6488801601
 20
98.8714668682
 10
242.6451445657
 20
99.2769441826
 10
242.6488801601
 20
99.5479619934
 10
242.659518233
 20
99.6432602959
 10
242.6754392341
 20
99.5483307872
 10
242.6942193354
 20
99.2776256247
 10
242.7129994367
 20
98.8723572153
 10
242.7289204379
 20
98.3942240006
 10
242.7395585107
 20
97.9160174282
 10
242.7432941051
 20
97.5105401138
 10
242.7395585107
 20
97.239522303
 10
242.7289204379
 20
97.1442240006
 10
242.7129994367
 20
97.2391535092
 10
242.6942193354
 20
97.5098586717
  0
LWPOLYLINE
  5
FB
330
1F
100
AcDbEntity
  8
0
  6
HIDDEN
 62
     7
370
     0
100
AcDbPolyline
 90
       18
 70
   128
 43
0.0
 10
250.4630586157
 20
97.1953648179
 10
250.4346940531
 20
97.8013425061
 10
250.410160282
 20
98.5164769276
 10
250.3927707239
 20
99.2441852163
 10
250.384873935
 20
99.8861863352
 10
250.3875364206
 20
100.3557744759
 10
250.400398597
 20
100.5895291579
 10
250.4217233562
 20
100.5558805161
 10
250.4486306712
 20
100.259372986
 10
250.4774865601
 20
99.7400515526
 10
250.5043938751
 20
99.0680534531
 10
250.5257186343
 20
98.3341357545
 10
250.5385808107
 20
97.6374181088
 10
250.5412432963
 20
97.0719960947
 10
250.5333465074
 20
96.7142330883
 10
250.5159569494
 20
96.612446966
 10
250.4914231782
 20
96.7803845078
 10
250.4630586157
 20
97.1953648179
  0
LWPOLYLINE
  5
FC
330
1F
100
AcDbEntity
  8
0
  6
HIDDEN
 62
     7
370
     0
100
AcDbPolyline
 90
        8
 70
   128
 43
0.0
 10
250.6880516254
 20
97.4773872861
 10
250.6638628549
 20
97.9993729974
 10
250.6433566054
 20
98.615208578
 10
250.6296547676
 20
99.2311386432
 10
250.624843322
 20
99.7533934241
 10
250.6296547676
 20
100.1024643644
 10
250.6433566054
 20
100.225208578
 10
250.6487918096
 20
100.2146071728
  0
LWPOLYLINE
  5
FD
330
1F
100
AcDbEntity
  8
0
  6
HIDDEN
 62
     7
370
     0
100
AcDbPolyline
 90
        4
 70
   128
 43
0.0
 10
250.7348612021
 20
97.0083728501
 10
250.7327466453
 20
97.0064498296
 10
250.7122403958
 20
97.1287190367
 10
250.6880516254
 20
97.4773872861
  0
LINE
  5
FE
330
1F
100
AcDbEntity
  8
0
  6
HIDDEN
 62
     7
370
     0
100
AcDbLine
 10
248.2292388505
 20
98.2481136619
 30
0.0
 11
248.1899790347
 21
99.3629235799
 31
0.0
  0
LINE
  5
FF
330
1F
100
AcDbEntity
  8
0
  6
HIDDEN
 62
     7
370
     0
100
AcDbLine
 10
250.7273114411
 20
98.3175158668
 30
0.0
 11
250.6880516254
 21
99.4323257847
 31
0.0
  0
LINE
  5
100
330
1F
100
AcDbEntity
  8
0
  6
HIDDEN
 62
     7
370
     0
100
AcDbLine
 10
248.2292388505
 20
98.2481136619
 30
0.0
 11
250.7273114411
 21
98.3175158668
 31
0.0
  0
LINE
  5
101
330
1F
100
AcDbEntity
  8
0
  6
HIDDEN
 62
     7
370
     0
100
AcDbLine
 10
248.2292388505
 20
97.431617081
 30
0.0
 11
248.2292388505
 21
98.2481136619
 31
0.0
  0
LINE
  5
102
330
1F
100
AcDbEntity
  8
0
  6
HIDDEN
 62
     7
370
     0
100
AcDbLine
 10
250.7273114411
 20
97.5010192859
 30
0.0
 11
250.7273114411
 21
98.3175158668
 31
0.0
  0
LINE
  5
103
330
1F
100
AcDbEntity
  8
0
  6
HIDDEN
 62
     7
370
     0
100
AcDbLine
 10
248.1899790347
 20
99.3629235799
 30
0.0
 11
250.6880516254
 21
99.4323257847
 31
0.0
  0
LINE
  5
104
330
1F
100
AcDbEntity
  8
0
  6
HIDDEN
 62
     7
370
     0
100
AcDbLine
 10
248.150719219
 20
99.6612369169
 30
0.0
 11
248.1899790347
 21
99.3629235799
 31
0.0
  0
LINE
  5
105
330
1F
100
AcDbEntity
  8
0
  6
HIDDEN
 62
     7
370
     0
100
AcDbLine
 10
250.6487918096
 20
99.7306391218
 30
0.0
 11
250.6880516254
 21
99.4323257847
 31
0.0
  0
LINE
  5
106
330
1F
100
AcDbEntity
  8
0
  6
HIDDEN
 62
     7
370
     0
100
AcDbLine
 10
248.1899790347
 20
97.729930418
 30
0.0
 11
250.6880516254
 21
97.7993326229
 31
0.0
  0
LINE
  5
107
330
1F
100
AcDbEntity
  8
0
  6
HIDDEN
 62
     7
370
     0
100
AcDbLine
 10
248.2292388505
 20
97.431617081
 30
0.0
 11
250.7273114411
 21
97.5010192859
 31
0.0
  0
LINE
  5
108
330
1F
100
AcDbEntity
  8
0
  6
HIDDEN
 62
     7
370
     0
100
AcDbLine
 10
248.2292388505
 20
97.431617081
 30
0.0
 11
248.1899790347
 21
97.729930418
 31
0.0
  0
LINE
  5
109
330
1F
100
AcDbEntity
  8
0
  6
HIDDEN
 62
     7
370
     0
100
AcDbLine
 10
250.7273114411
 20
97.5010192859
 30
0.0
 11
250.6880516254
 21
97.7993326229
 31
0.0
  0
LINE
  5
10A
330
1F
100
AcDbEntity
  8
0
  6
HIDDEN
 62
     7
370
     0
100
AcDbLine
 10
248.150719219
 20
98.844740336
 30
0.0
 11
250.6487918096
 21
98.9141425408
 31
0.0
  0
LINE
  5
10B
330
1F
100
AcDbEntity
  8
0
  6
HIDDEN
 62
     7
370
     0
100
AcDbLine
 10
248.150719219
 20
99.6612369169
 30
0.0
 11
250.6487918096
 21
99.7306391218
 31
0.0
  0
LINE
  5
10C
330
1F
100
AcDbEntity
  8
0
  6
HIDDEN
 62
     7
370
     0
100
AcDbLine
 10
248.150719219
 20
98.844740336
 30
0.0
 11
248.150719219
 21
99.6612369169
 31
0.0
  0
LINE
  5
10D
330
1F
100
AcDbEntity
  8
0
  6
HIDDEN
 62
     7
370
     0
100
AcDbLine
 10
248.150719219
 20
98.844740336
 30
0.0
 11
248.1899790347
 21
97.729930418
 31
0.0
  0
LINE
  5
10E
330
1F
100
AcDbEntity
  8
0
  6
HIDDEN
 62
     7
370
     0
100
AcDbLine
 10
250.6487918096
 20
98.9141425408
 30
0.0
 11
250.6880516254
 21
97.7993326229
 31
0.0
  0
LWPOLYLINE
  5
10F
330
1F
100
AcDbEntity
  8
0
  6
HIDDEN
 62
     7
370
     0
100
AcDbPolyline
 90
        3
 70
   128
 43
0.0
 10
250.6095319938
 20
127.8829788771
 10
250.6337207643
 20
128.4049645885
 10
250.6487918096
 20
128.8357660808
  0
LWPOLYLINE
  5
110
330
1F
100
AcDbEntity
  8
0
  6
HIDDEN
 62
     7
370
     0
100
AcDbPolyline
 90
       11
 70
   128
 43
0.0
 10
250.6487918096
 20
130.6201987638
 10
250.6337207643
 20
130.5085309619
 10
250.6095319938
 20
130.1598627125
 10
250.5853432233
 20
129.6378770012
 10
250.5648369739
 20
129.0220414207
 10
250.5511351361
 20
128.4061113554
 10
250.5463236905
 20
127.8838565746
 10
250.5511351361
 20
127.5347856342
 10
250.5648369739
 20
127.4120414207
 10
250.5853432233
 20
127.5343106278
 10
250.6095319938
 20
127.8829788771
  0
LWPOLYLINE
  5
111
330
1F
100
AcDbEntity
  8
0
  6
HIDDEN
 62
     7
370
     0
100
AcDbPolyline
 90
       18
 70
   128
 43
0.0
 10
250.3845389841
 20
127.613458056
 10
250.4129035467
 20
128.2194357442
 10
250.4374373178
 20
128.9345701657
 10
250.4548268759
 20
129.6622784544
 10
250.4627236648
 20
130.3042795733
 10
250.4600611792
 20
130.773867714
 10
250.4471990028
 20
131.007622396
 10
250.4258742436
 20
130.9739737542
 10
250.3989669286
 20
130.6774662241
 10
250.3701110397
 20
130.1581447907
 10
250.3432037247
 20
129.4861466912
 10
250.3218789655
 20
128.7522289926
 10
250.3090167891
 20
128.0555113469
 10
250.3063543035
 20
127.4900893328
 10
250.3142510924
 20
127.1323263264
 10
250.3316406504
 20
127.0305402041
 10
250.3561744216
 20
127.1984777459
 10
250.3845389841
 20
127.613458056
  0
LWPOLYLINE
  5
112
330
1F
100
AcDbEntity
  8
0
  6
HIDDEN
 62
     7
370
     0
100
AcDbPolyline
 90
       18
 70
   128
 43
0.0
 10
243.3651214811
 20
127.8084736266
 10
243.3934860436
 20
128.4144513148
 10
243.4180198148
 20
129.1295857363
 10
243.4354093729
 20
129.857294025
 10
243.4433061617
 20
130.4992951439
 10
243.4406436762
 20
130.9688832847
 10
243.4277814997
 20
131.2026379666
 10
243.4064567405
 20
131.1689893248
 10
243.3795494255
 20
130.8724817947
 10
243.3506935367
 20
130.3531603613
 10
243.3237862216
 20
129.6811622618
 10
243.3024614625
 20
128.9472445632
 10
243.289599286
 20
128.2505269175
 10
243.2869368005
 20
127.6851049034
 10
243.2948335893
 20
127.327341897
 10
243.3122231474
 20
127.2255557747
 10
243.3367569186
 20
127.3934933165
 10
243.3651214811
 20
127.8084736266
  0
LWPOLYLINE
  5
113
330
1F
100
AcDbEntity
  8
0
  6
HIDDEN
 62
     7
370
     0
100
AcDbPolyline
 90
       17
 70
   128
 43
0.0
 10
242.6156997039
 20
128.359624374
 10
242.6344798052
 20
128.7648927834
 10
242.6504008063
 20
129.2430259981
 10
242.6610388792
 20
129.7212325705
 10
242.6647744736
 20
130.1267098848
 10
242.6610388792
 20
130.3977276957
 10
242.6504008063
 20
130.4930259981
 10
242.6344798052
 20
130.3980964895
 10
242.6156997039
 20
130.1273913269
 10
242.5969196026
 20
129.7221229175
 10
242.5809986015
 20
129.2439897028
 10
242.5703605286
 20
128.7657831304
 10
242.5666249342
 20
128.3603058161
 10
242.5703605286
 20
128.0892880052
 10
242.5809986015
 20
127.9939897028
 10
242.5969196026
 20
128.0889192114
 10
242.6156997039
 20
128.359624374
  0
LINE
  5
114
330
1F
100
AcDbEntity
  8
0
  6
HIDDEN
 62
     7
370
     0
100
AcDbLine
 10
250.6487918096
 20
130.1362307128
 30
0.0
 11
250.6095319938
 21
129.8379173758
 31
0.0
  0
LINE
  5
115
330
1F
100
AcDbEntity
  8
0
  6
HIDDEN
 62
     7
370
     0
100
AcDbLine
 10
250.5702721781
 20
128.7231074578
 30
0.0
 11
250.6095319938
 21
129.8379173758
 31
0.0
  0
LINE
  5
116
330
1F
100
AcDbEntity
  8
0
  6
HIDDEN
 62
     7
370
     0
100
AcDbLine
 10
250.5702721781
 20
127.9066108769
 30
0.0
 11
250.5702721781
 21
128.7231074578
 31
0.0
  0
LINE
  5
117
330
1F
100
AcDbEntity
  8
0
  6
HIDDEN
 62
     7
370
     0
100
AcDbLine
 10
250.5702721781
 20
127.9066108769
 30
0.0
 11
250.6095319938
 21
128.2049242139
 31
0.0
  0
LINE
  5
118
330
1F
100
AcDbEntity
  8
0
  6
HIDDEN
 62
     7
370
     0
100
AcDbLine
 10
250.6487918096
 20
129.3197341319
 30
0.0
 11
250.6095319938
 21
128.2049242139
 31
0.0
  0
LINE
  5
119
330
1F
100
AcDbEntity
  8
0
  6
HIDDEN
 62
     7
370
     0
100
AcDbLine
 10
248.0721995875
 20
127.9760130818
 30
0.0
 11
248.1114594032
 21
128.2743264188
 31
0.0
  0
LINE
  5
11A
330
1F
100
AcDbEntity
  8
0
  6
HIDDEN
 62
     7
370
     0
100
AcDbLine
 10
248.0721995875
 20
127.9760130818
 30
0.0
 11
248.0721995875
 21
128.7925096627
 31
0.0
  0
LINE
  5
11B
330
1F
100
AcDbEntity
  8
0
  6
HIDDEN
 62
     7
370
     0
100
AcDbLine
 10
248.150719219
 20
130.2056329177
 30
0.0
 11
248.1114594032
 21
129.9073195806
 31
0.0
  0
LINE
  5
11C
330
1F
100
AcDbEntity
  8
0
  6
HIDDEN
 62
     7
370
     0
100
AcDbLine
 10
248.150719219
 20
129.3891363367
 30
0.0
 11
248.150719219
 21
130.2056329177
 31
0.0
  0
LINE
  5
11D
330
1F
100
AcDbEntity
  8
0
  6
HIDDEN
 62
     7
370
     0
100
AcDbLine
 10
248.150719219
 20
129.3891363367
 30
0.0
 11
248.1114594032
 21
128.2743264188
 31
0.0
  0
LINE
  5
11E
330
1F
100
AcDbEntity
  8
0
  6
HIDDEN
 62
     7
370
     0
100
AcDbLine
 10
248.0721995875
 20
128.7925096627
 30
0.0
 11
248.1114594032
 21
129.9073195806
 31
0.0
  0
LINE
  5
11F
330
1F
100
AcDbEntity
  8
0
  6
HIDDEN
 62
     7
370
     0
100
AcDbLine
 10
248.0721995875
 20
128.7925096627
 30
0.0
 11
250.5702721781
 21
128.7231074578
 31
0.0
  0
LINE
  5
120
330
1F
100
AcDbEntity
  8
0
  6
HIDDEN
 62
     7
370
     0
100
AcDbLine
 10
248.1114594032
 20
129.9073195806
 30
0.0
 11
250.6095319938
 21
129.8379173758
 31
0.0
  0
LINE
  5
121
330
1F
100
AcDbEntity
  8
0
  6
HIDDEN
 62
     7
370
     0
100
AcDbLine
 10
248.1114594032
 20
128.2743264188
 30
0.0
 11
250.6095319938
 21
128.2049242139
 31
0.0
  0
LINE
  5
122
330
1F
100
AcDbEntity
  8
0
  6
HIDDEN
 62
     7
370
     0
100
AcDbLine
 10
248.0721995875
 20
127.9760130818
 30
0.0
 11
250.5702721781
 21
127.9066108769
 31
0.0
  0
LINE
  5
123
330
1F
100
AcDbEntity
  8
0
  6
HIDDEN
 62
     7
370
     0
100
AcDbLine
 10
248.150719219
 20
129.3891363367
 30
0.0
 11
250.6487918096
 21
129.3197341319
 31
0.0
  0
LINE
  5
124
330
1F
100
AcDbEntity
  8
0
  6
HIDDEN
 62
     7
370
     0
100
AcDbLine
 10
248.150719219
 20
130.2056329177
 30
0.0
 11
250.6487918096
 21
130.1362307128
 31
0.0
  0
LINE
  5
125
330
1F
100
AcDbEntity
  8
0
  6
HIDDEN
 62
     7
370
     0
100
AcDbLine
 10
107.3867627887
 20
152.7684970322
 30
0.0
 11
107.3867627887
 21
145.1675342713
 31
0.0
  0
SPLINE
  5
126
330
1F
100
AcDbEntity
  8
0
  6
HIDDEN
 62
     7
370
     0
100
AcDbSpline
210
0.0
220
0.0
230
1.0
 70
     8
 71
     3
 72
    80
 73
    76
 74
     0
 42
0.00000001
 43
0.00000001
 40
-0.0312500000000003
 40
-0.0312500000000003
 40
0.0
 40
0.0
 40
0.03125
 40
0.03125
 40
0.046875
 40
0.046875
 40
0.0624999999999999
 40
0.0624999999999999
 40
0.0937499999999998
 40
0.0937499999999998
 40
0.1249999999999996
 40
0.1249999999999996
 40
0.1562499999999995
 40
0.1562499999999995
 40
0.1874999999999994
 40
0.1874999999999994
 40
0.2187499999999993
 40
0.2187499999999993
 40
0.2499999999999992
 40
0.2499999999999992
 40
0.2812499999999991
 40
0.2812499999999991
 40
0.3124999999999989
 40
0.3124999999999989
 40
0.3281249999999988
 40
0.3281249999999988
 40
0.3437499999999986
 40
0.3437499999999986
 40
0.3749999999999983
 40
0.3749999999999983
 40
0.4062499999999981
 40
0.4062499999999981
 40
0.4218749999999979
 40
0.4218749999999979
 40
0.4374999999999978
 40
0.4374999999999978
 40
0.4687499999999977
 40
0.4687499999999977
 40
0.4999999999999975
 40
0.4999999999999975
 40
0.5312499999999972
 40
0.5312499999999972
 40
0.562499999999997
 40
0.562499999999997
 40
0.5937499999999968
 40
0.5937499999999968
 40
0.6249999999999966
 40
0.6249999999999966
 40
0.6562499999999964
 40
0.6562499999999964
 40
0.6874999999999962
 40
0.6874999999999962
 40
0.7031249999999962
 40
0.7031249999999962
 40
0.7187499999999963
 40
0.7187499999999963
 40
0.7499999999999968
 40
0.7499999999999968
 40
0.7812499999999972
 40
0.7812499999999972
 40
0.7968749999999976
 40
0.7968749999999976
 40
0.8124999999999978
 40
0.8124999999999978
 40
0.8437499999999981
 40
0.8437499999999981
 40
0.8749999999999984
 40
0.8749999999999984
 40
0.9062499999999989
 40
0.9062499999999989
 40
0.9374999999999992
 40
0.9374999999999992
 40
0.9687499999999997
 40
0.9687499999999997
 40
1.0
 40
1.0
 40
1.03125
 40
1.03125
 10
99.97933712236791
 20
162.6770835277807
 30
0.0
 10
99.3182464968153
 20
162.6770835277807
 30
0.0
 10
98.99326636756368
 20
162.6701853819539
 30
0.0
 10
98.51379295631725
 20
162.6496589539734
 30
0.0
 10
98.35531113847644
 20
162.6411027268859
 30
0.0
 10
98.04109160597216
 20
162.6203763516682
 30
0.0
 10
97.88497132229175
 20
162.6081490514619
 30
0.0
 10
97.4309172933352
 20
162.5665797576326
 30
0.0
 10
97.14381391039534
 20
162.5322354725348
 30
0.0
 10
96.60045935436834
 20
162.4489113482125
 30
0.0
 10
96.34335574316276
 20
162.3994731254381
 30
0.0
 10
95.88244948822397
 20
162.2880933956781
 30
0.0
 10
95.67555177900901
 20
162.225798882166
 30
0.0
 10
95.3100264650168
 20
162.085869239295
 30
0.0
 10
95.15482094289085
 20
162.009253341546
 30
0.0
 10
94.90539055629112
 20
161.8452947216902
 30
0.0
 10
94.80930060050596
 20
161.7567378675945
 30
0.0
 10
94.6807817513124
 20
161.5692571854887
 30
0.0
 10
94.6489708811346
 20
161.4720207240343
 30
0.0
 10
94.64861423136134
 20
161.2703880847072
 30
0.0
 10
94.68111148355841
 20
161.1648392928691
 30
0.0
 10
94.8087369572729
 20
160.9547245101806
 30
0.0
 10
94.9031653583248
 20
160.8496590022116
 30
0.0
 10
95.09102617831034
 20
160.6927812949606
 30
0.0
 10
95.16185417711354
 20
160.6403475612548
 30
0.0
 10
95.3165760690788
 20
160.5379091156251
 30
0.0
 10
95.40055253926222
 20
160.4877613869732
 30
0.0
 10
95.67187620890664
 20
160.3407454305397
 30
0.0
 10
95.87842542750897
 20
160.2472576101053
 30
0.0
 10
96.34503556769799
 20
160.0714707524909
 30
0.0
 10
96.59740113732344
 20
159.9920922774073
 30
0.0
 10
97.00330247900219
 20
159.8866098399132
 30
0.0
 10
97.14320309647965
 20
159.8537242750731
 30
0.0
 10
97.43242703172658
 20
159.7928087958444
 30
0.0
 10
97.58226648801585
 20
159.7647282242019
 30
0.0
 10
98.03638305762667
 20
159.6899261821592
 30
0.0
 10
98.3480342763635
 20
159.651888123913
 30
0.0
 10
98.98903074127587
 20
159.600276197389
 30
0.0
 10
99.32055836922804
 20
159.5869622638674
 30
0.0
 10
99.97334941429953
 20
159.5868651775394
 30
0.0
 10
100.2978856193313
 20
159.5996532627004
 30
0.0
 10
100.9431550687478
 20
159.6511434522964
 30
0.0
 10
101.2588980749105
 20
159.6896680316164
 30
0.0
 10
101.8607873698942
 20
159.7885705944745
 30
0.0
 10
102.1515366007056
 20
159.8496746923995
 30
0.0
 10
102.6984483923901
 20
159.9914841255102
 30
0.0
 10
102.9502257562271
 20
160.0708186100894
 30
0.0
 10
103.4116137488482
 20
160.2441973547509
 30
0.0
 10
103.6228830284463
 20
160.3393572995049
 30
0.0
 10
103.9861873808225
 20
160.5359298228807
 30
0.0
 10
104.1399940292652
 20
160.6376860512871
 30
0.0
 10
104.3286134988627
 20
160.7944720140726
 30
0.0
 10
104.3846439850718
 20
160.8477260478226
 30
0.0
 10
104.4802177468079
 20
160.9535306093754
 30
0.0
 10
104.5199806638329
 20
161.0061836737309
 30
0.0
 10
104.6157524141451
 20
161.1632573931901
 30
0.0
 10
104.6484752532712
 20
161.2667824285172
 30
0.0
 10
104.6491038396003
 20
161.4709971627443
 30
0.0
 10
104.6169176948655
 20
161.5685010003291
 30
0.0
 10
104.5220069930099
 20
161.7078280506808
 30
0.0
 10
104.4825402096109
 20
161.7531447821852
 30
0.0
 10
104.3876102108901
 20
161.841584603174
 30
0.0
 10
104.3318533831267
 20
161.884838853634
 30
0.0
 10
104.1439132651568
 20
162.008730328224
 30
0.0
 10
103.9905517954406
 20
162.0844326189981
 30
0.0
 10
103.6282875605603
 20
162.2236869904563
 30
0.0
 10
103.4174390870944
 20
162.287448831985
 30
0.0
 10
102.9567691167754
 20
162.3989456714528
 30
0.0
 10
102.7053947371916
 20
162.4474717437695
 30
0.0
 10
102.1594868502935
 20
162.5315257271499
 30
0.0
 10
101.8686642756423
 20
162.5663242808166
 30
0.0
 10
101.2673376608622
 20
162.6215207455804
 30
0.0
 10
100.9528190762499
 20
162.6423385943343
 30
0.0
 10
100.3062376201299
 20
162.6701859272451
 30
0.0
 10
99.97933712236791
 20
162.6770835277807
 30
0.0
 10
99.3182464968153
 20
162.6770835277807
 30
0.0
  0
SPLINE
  5
127
330
1F
100
AcDbEntity
  8
0
  6
HIDDEN
 62
     7
370
     0
100
AcDbSpline
210
0.0
220
0.0
230
1.0
 70
     8
 71
     3
 72
     9
 73
     5
 74
     0
 42
0.00000001
 43
0.00000001
 40
0.0
 40
0.0
 40
0.0
 40
0.0
 40
0.5038163044167481
 40
1.0
 40
1.0
 40
1.0
 40
1.0
 10
71.06221655901895
 20
77.08172790902863
 30
0.0
 10
70.77853737428046
 20
77.05757473492991
 30
0.0
 10
70.21547662723512
 20
77.00963429733986
 30
0.0
 10
69.85911558542591
 20
76.96832194905402
 30
0.0
 10
69.68229504673911
 20
76.94782343540832
 30
0.0
  0
SPLINE
  5
128
330
1F
100
AcDbEntity
  8
0
  6
HIDDEN
 62
     7
370
     0
100
AcDbSpline
210
0.0
220
0.0
230
1.0
 70
     8
 71
     3
 72
    12
 73
     8
 74
     0
 42
0.00000001
 43
0.00000001
 40
0.0
 40
0.0
 40
0.0
 40
0.0
 40
0.1661348616735903
 40
0.3322013257393936
 40
0.5008932044678248
 40
0.752137078264078
 40
1.0
 40
1.0
 40
1.0
 40
1.0
 10
69.16811347523884
 20
150.7488382943683
 30
0.0
 10
69.17850609934689
 20
150.7474601703069
 30
0.0
 10
69.19928706892685
 20
150.7447044895567
 30
0.0
 10
69.37258655837377
 20
150.7231011145947
 30
0.0
 10
69.6945381476175
 20
150.6852361626528
 30
0.0
 10
70.21570398353681
 20
150.6248523959367
 30
0.0
 10
70.78126192337454
 20
150.5770592587872
 30
0.0
 10
71.06212534706258
 20
150.5533245656939
 30
0.0
  0
SPLINE
  5
129
330
1F
100
AcDbEntity
  8
0
  6
HIDDEN
 62
     7
370
     0
100
AcDbSpline
210
0.0
220
0.0
230
1.0
 70
     8
 71
     3
 72
    12
 73
     8
 74
     0
 42
0.00000001
 43
0.00000001
 40
0.0
 40
0.0
 40
0.0
 40
0.0
 40
0.4149000540184795
 40
0.5592565650922205
 40
0.7066182561391214
 40
0.857028410934399
 40
1.0
 40
1.0
 40
1.0
 40
1.0
 10
199.1487918095916
 20
104.8175342713027
 30
0.0
 10
199.7228281593472
 20
104.8475243719665
 30
0.0
 10
200.4965894401498
 20
104.8879489525892
 30
0.0
 10
201.4467767981042
 20
105.1089084991476
 30
0.0
 10
202.0283889291343
 20
105.2859548771651
 30
0.0
 10
202.6016216393704
 20
105.487752527067
 30
0.0
 10
202.953674337238
 20
105.6824071777231
 30
0.0
 10
203.1252376151249
 20
105.7772668113086
 30
0.0
  0
SPLINE
  5
12A
330
1F
100
AcDbEntity
  8
0
  6
HIDDEN
 62
     7
370
     0
100
AcDbSpline
210
0.0
220
0.0
230
1.0
 70
     8
 71
     3
 72
    15
 73
    11
 74
     0
 42
0.00000001
 43
0.00000001
 40
0.0
 40
0.0
 40
0.0
 40
0.0
 40
0.0625553639013995
 40
0.2902293063417716
 40
0.4973729712356748
 40
0.70441371589666
 40
0.7780658536239592
 40
0.8540268860449801
 40
0.9323172141454085
 40
1.0
 40
1.0
 40
1.0
 40
1.0
 10
203.0630031859141
 20
121.9150251524345
 30
0.0
 10
202.9106434914954
 20
121.9879083367067
 30
0.0
 10
202.2037616884372
 20
122.326054175785
 30
0.0
 10
200.8952551731499
 20
122.7019578474751
 30
0.0
 10
199.1506125250979
 20
122.8719814963962
 30
0.0
 10
197.8210016153741
 20
122.7446876761093
 30
0.0
 10
196.8761112149348
 20
122.5337267084007
 30
0.0
 10
196.2855262081668
 20
122.3543392755733
 30
0.0
 10
195.716246149143
 20
122.1565464755699
 30
0.0
 10
195.3714992751484
 20
121.9653629791942
 30
0.0
 10
195.2116518332844
 20
121.8767176712088
 30
0.0
  0
SPLINE
  5
12B
330
1F
100
AcDbEntity
  8
0
  6
HIDDEN
 62
     7
370
     0
100
AcDbSpline
210
0.0
220
0.0
230
1.0
 70
     8
 71
     3
 72
    10
 73
     6
 74
     0
 42
0.00000001
 43
0.00000001
 40
0.0
 40
0.0
 40
0.0
 40
0.0
 40
0.1322270529479132
 40
0.5795657215610169
 40
1.0
 40
1.0
 40
1.0
 40
1.0
 10
195.2039263294518
 20
105.7333305337685
 30
0.0
 10
195.3655025181914
 20
105.6564281766249
 30
0.0
 10
196.0737087311124
 20
105.3193566839613
 30
0.0
 10
197.39112467471
 20
104.9179566864374
 30
0.0
 10
198.5751391402331
 20
104.8503092975646
 30
0.0
 10
199.1487918095916
 20
104.8175342713027
 30
0.0
  0
SPLINE
  5
12C
330
1F
100
AcDbEntity
  8
0
  6
HIDDEN
 62
     7
370
     0
100
AcDbSpline
210
0.0
220
0.0
230
1.0
 70
     8
 71
     3
 72
    12
 73
     8
 74
     0
 42
0.00000001
 43
0.00000001
 40
0.0
 40
0.0
 40
0.0
 40
0.0
 40
0.4149000540141988
 40
0.5592565650882899
 40
0.7066182561364345
 40
0.8570284109338465
 40
1.0
 40
1.0
 40
1.0
 40
1.0
 10
227.1487918095915
 20
104.8175342713027
 30
0.0
 10
227.7228281593416
 20
104.847524371966
 30
0.0
 10
228.4965894401392
 20
104.887948952588
 30
0.0
 10
229.446776798091
 20
105.108908499144
 30
0.0
 10
230.0283889291267
 20
105.2859548771624
 30
0.0
 10
230.6016216393687
 20
105.4877525270657
 30
0.0
 10
230.9536743372394
 20
105.6824071777242
 30
0.0
 10
231.125237615127
 20
105.7772668113104
 30
0.0
  0
SPLINE
  5
12D
330
1F
100
AcDbEntity
  8
0
  6
HIDDEN
 62
     7
370
     0
100
AcDbSpline
210
0.0
220
0.0
230
1.0
 70
     8
 71
     3
 72
    15
 73
    11
 74
     0
 42
0.00000001
 43
0.00000001
 40
0.0
 40
0.0
 40
0.0
 40
0.0
 40
0.0625553639045729
 40
0.2902293063619376
 40
0.4973729712401931
 40
0.7044137159044257
 40
0.7780658536316651
 40
0.8540268860520486
 40
0.9323172141512563
 40
1.0
 40
1.0
 40
1.0
 40
1.0
 10
231.0630031859378
 20
121.9150251524277
 30
0.0
 10
230.9106434915111
 20
121.9879083367021
 30
0.0
 10
230.2037616884031
 20
122.3260541757974
 30
0.0
 10
228.8952551731054
 20
122.7019578474859
 30
0.0
 10
227.1506125250464
 20
122.8719814963922
 30
0.0
 10
225.821001615361
 20
122.7446876761077
 30
0.0
 10
224.8761112149181
 20
122.5337267083965
 30
0.0
 10
224.2855262081577
 20
122.354339275569
 30
0.0
 10
223.7162461491533
 20
122.156546475577
 30
0.0
 10
223.37149927518
 20
121.9653629792036
 30
0.0
 10
223.2116518333321
 20
121.8767176712227
 30
0.0
  0
SPLINE
  5
12E
330
1F
100
AcDbEntity
  8
0
  6
HIDDEN
 62
     7
370
     0
100
AcDbSpline
210
0.0
220
0.0
230
1.0
 70
     8
 71
     3
 72
    10
 73
     6
 74
     0
 42
0.00000001
 43
0.00000001
 40
0.0
 40
0.0
 40
0.0
 40
0.0
 40
0.1322270529472169
 40
0.5795657215606829
 40
1.0
 40
1.0
 40
1.0
 40
1.0
 10
223.2039263294541
 20
105.7333305337657
 30
0.0
 10
223.3655025181929
 20
105.6564281766232
 30
0.0
 10
224.073708731114
 20
105.3193566839624
 30
0.0
 10
225.3911246747098
 20
104.9179566864369
 30
0.0
 10
226.575139140233
 20
104.8503092975645
 30
0.0
 10
227.1487918095915
 20
104.8175342713027
 30
0.0
  0
SPLINE
  5
12F
330
1F
100
AcDbEntity
  8
0
  6
HIDDEN
 62
     7
370
     0
100
AcDbSpline
210
0.0
220
0.0
230
1.0
 70
     8
 71
     3
 72
    17
 73
    13
 74
     0
 42
0.00000001
 43
0.00000001
 40
0.0
 40
0.0
 40
0.0
 40
0.0
 40
0.1063313276525055
 40
0.2126654308184109
 40
0.3189710204459557
 40
0.425278675154229
 40
0.5320764099257621
 40
0.6388675515896269
 40
0.7453028645077165
 40
0.8517276222019639
 40
0.9562187491322768
 40
1.0
 40
1.0
 40
1.0
 40
1.0
 10
202.1487918095916
 20
103.9199212868544
 30
0.0
 10
201.5894847194886
 20
103.9468033974465
 30
0.0
 10
200.4708559399696
 20
104.0005683203208
 30
0.0
 10
198.8400304132626
 20
104.4210401491608
 30
0.0
 10
197.3052990568034
 20
105.0868459215629
 30
0.0
 10
195.9024048680783
 20
105.9979839044211
 30
0.0
 10
194.6766070063862
 20
107.1356204234924
 30
0.0
 10
193.6574543619038
 20
108.4633293550719
 30
0.0
 10
192.8783190266067
 20
109.9500215778518
 30
0.0
 10
192.3743904496826
 20
111.5379338171136
 30
0.0
 10
192.1425330304702
 20
112.8684817085155
 30
0.0
 10
192.1735853621076
 20
113.6479223191311
 30
0.0
 10
192.1827543654084
 20
113.8780722999746
 30
0.0
  0
LWPOLYLINE
  5
130
330
1F
100
AcDbEntity
  8
0
  6
HIDDEN
 62
     7
370
     0
100
AcDbPolyline
 90
       30
 70
   128
 43
0.0
 10
192.1892811861
 20
114.2236757424
 10
192.2008237988
 20
114.8348717475
 10
192.4977129239
 20
116.4290289157
 10
193.0469920772
 20
117.950324248
 10
193.84217903
 20
119.36379457
 10
194.8562668617
 20
120.625150635
 10
196.0901289732
 20
121.7188609514
 10
197.4904762254
 20
122.5942994489
 10
199.0401046725
 20
123.2326547007
 10
200.6781945239
 20
123.6096145337
 10
202.3527016025
 20
123.7121909174
 10
204.0214144105
 20
123.5434039084
 10
205.6287811268
 20
123.1065233746
 10
207.1389002125
 20
122.4156967837
 10
208.5151602187
 20
121.4792276792
 10
209.7136956653
 20
120.326840145
 10
210.7014985854
 20
118.9808972562
 10
211.4497070395
 20
117.483781488
 10
211.9286325933
 20
115.8970064916
 10
212.1393776531
 20
114.2492525873
 10
212.0756731243
 20
112.6198773728
 10
211.7496567889
 20
111.0244473018
 10
211.1695886366
 20
109.5142807427
 10
210.3539297319
 20
108.122592358
 10
209.3038309575
 20
106.8696776744
 10
208.0611193839
 20
105.8077700635
 10
206.6306906809
 20
104.9533284767
 10
205.0742079169
 20
104.3449676047
 10
202.1487918096
 20
103.9199212869
 10
202.1487918096
 20
103.9199212869
  0
SPLINE
  5
131
330
1F
100
AcDbEntity
  8
0
  6
HIDDEN
 62
     7
370
     0
100
AcDbSpline
210
0.0
220
0.0
230
1.0
 70
     8
 71
     3
 72
     9
 73
     5
 74
     0
 42
0.00000001
 43
0.00000001
 40
0.0
 40
0.0
 40
0.0
 40
0.0
 40
0.6612175542180739
 40
1.0
 40
1.0
 40
1.0
 40
1.0
 10
80.90199746478265
 20
145.1838564920498
 30
0.0
 10
81.19349956986859
 20
145.2276419872618
 30
0.0
 10
81.63435614305904
 20
145.2938614863248
 30
0.0
 10
81.5829438532124
 20
145.286056263568
 30
0.0
 10
81.5655262719149
 20
145.2834119911126
 30
0.0
  0
SPLINE
  5
132
330
1F
100
AcDbEntity
  8
0
  6
HIDDEN
 62
     7
370
     0
100
AcDbSpline
210
0.0
220
0.0
230
1.0
 70
     8
 71
     3
 72
     9
 73
     5
 74
     0
 42
0.00000001
 43
0.00000001
 40
0.0
 40
0.0
 40
0.0
 40
0.0
 40
0.322475827352709
 40
1.0
 40
1.0
 40
1.0
 40
1.0
 10
81.56552609528298
 20
82.35165657492053
 30
0.0
 10
81.584167989144
 20
82.34888858772462
 30
0.0
 10
81.64197664418046
 20
82.34030503831987
 30
0.0
 10
81.20086277442914
 20
82.40641854895905
 30
0.0
 10
80.90199746478265
 20
82.4512120505557
 30
0.0
  0
SPLINE
  5
133
330
1F
100
AcDbEntity
  8
0
  6
HIDDEN
 62
     7
370
     0
100
AcDbSpline
210
0.0
220
0.0
230
1.0
 70
     8
 71
     3
 72
    15
 73
    11
 74
     0
 42
0.00000001
 43
0.00000001
 40
0.0
 40
0.0
 40
0.0
 40
0.0
 40
0.1285821516379736
 40
0.2571635483376876
 40
0.385323567199189
 40
0.5113778119466696
 40
0.6369260966772228
 40
0.7643185820319293
 40
0.8930603485208921
 40
1.0
 40
1.0
 40
1.0
 40
1.0
 10
80.90199746478265
 20
82.4512120505557
 30
0.0
 10
80.5164753435425
 20
82.51301784113963
 30
0.0
 10
79.74543336455984
 20
82.63662905943009
 30
0.0
 10
77.96687551780323
 20
82.82737764343584
 30
0.0
 10
75.97306422236358
 20
82.91502508054117
 30
0.0
 10
73.94902631512886
 20
82.86811991783874
 30
0.0
 10
72.12091774816986
 20
82.70786971009721
 30
0.0
 10
70.6894865268908
 20
82.50669035221814
 30
0.0
 10
69.78560304941524
 20
82.34414861757142
 30
0.0
 10
69.7230191116591
 20
82.3317483308711
 30
0.0
 10
69.69462186019341
 20
82.32612174244758
 30
0.0
  0
SPLINE
  5
134
330
1F
100
AcDbEntity
  8
0
  6
HIDDEN
 62
     7
370
     0
100
AcDbSpline
210
0.0
220
0.0
230
1.0
 70
     8
 71
     3
 72
    16
 73
    12
 74
     0
 42
0.00000001
 43
0.00000001
 40
0.0
 40
0.0
 40
0.0
 40
0.0
 40
0.0205567982654305
 40
0.1461296737692548
 40
0.2720439921275847
 40
0.3999539720187822
 40
0.528504097482051
 40
0.655245546444081
 40
0.7805594897978894
 40
0.9070378665747952
 40
1.0
 40
1.0
 40
1.0
 40
1.0
 10
69.69462186019341
 20
145.3089468001579
 30
0.0
 10
69.6799546479104
 20
145.3116931767626
 30
0.0
 10
69.57569157550272
 20
145.331216018409
 30
0.0
 10
70.02647158634933
 20
145.244841460652
 30
0.0
 10
71.03971071692419
 20
145.073708858718
 30
0.0
 10
72.6340390349055
 20
144.8701680737807
 30
0.0
 10
74.56053839704
 20
144.737777107806
 30
0.0
 10
76.6070301975916
 20
144.7339809291151
 30
0.0
 10
78.52018961331454
 20
144.8567575017449
 30
0.0
 10
80.00489799871377
 20
145.0385723618664
 30
0.0
 10
80.6350462018482
 20
145.1406240707813
 30
0.0
 10
80.90199746478265
 20
145.1838564920498
 30
0.0
  0
LINE
  5
135
330
1F
100
AcDbEntity
  8
0
  6
HIDDEN
 62
     7
370
     0
100
AcDbLine
 10
60.6454161366
 20
87.3175342713
 30
0.0
 11
60.6454161366
 21
140.3175342713
 31
0.0
  0
LINE
  5
136
330
1F
100
AcDbEntity
  8
0
  6
HIDDEN
 62
     7
370
     0
100
AcDbLine
 10
99.932869428
 20
87.3175342713
 30
0.0
 11
99.932869428
 21
140.3175342713
 31
0.0
  0
LINE
  5
137
330
1F
100
AcDbEntity
  8
0
  6
HIDDEN
 62
     7
370
     0
100
AcDbLine
 10
103.0987918096
 20
88.9425342713
 30
0.0
 11
103.0987918096
 21
138.6925342713
 31
0.0
  0
SPLINE
  5
138
330
1F
100
AcDbEntity
  8
0
  6
HIDDEN
 62
     7
370
     0
100
AcDbSpline
210
0.0
220
0.0
230
1.0
 70
     8
 71
     3
 72
    20
 73
    16
 74
     0
 42
0.00000001
 43
0.00000001
 40
0.0
 40
0.0
 40
0.0
 40
0.0
 40
0.2499999999999978
 40
0.2499999999999978
 40
0.3749999999999982
 40
0.3749999999999982
 40
0.4999999999999986
 40
0.4999999999999986
 40
0.6249999999999989
 40
0.6249999999999989
 40
0.7499999999999992
 40
0.7499999999999992
 40
0.8749999999999997
 40
0.8749999999999997
 40
1.0
 40
1.0
 40
1.0
 40
1.0
 10
50.8487918095916
 20
139.046047901717
 30
0.0
 10
50.84879180959162
 20
138.9668449151848
 30
0.0
 10
50.80180931437887
 20
138.8857486967819
 30
0.0
 10
50.66398772360129
 20
138.7655520050309
 30
0.0
 10
50.60770543969132
 20
138.7266253010289
 30
0.0
 10
50.47462058822409
 20
138.6514365686045
 30
0.0
 10
50.39678064599104
 20
138.6147943632625
 30
0.0
 10
50.22414828987669
 20
138.5472038304306
 30
0.0
 10
50.1297552927856
 20
138.5162456486551
 30
0.0
 10
49.92431798647046
 20
138.4607212272853
 30
0.0
 10
49.81197174648329
 20
138.4360127134521
 30
0.0
 10
49.57973088258366
 20
138.3962164863439
 30
0.0
 10
49.45902024016094
 20
138.3807966489469
 30
0.0
 10
49.2079493808919
 20
138.3597166741072
 30
0.0
 10
49.07842738447613
 20
138.3542394290862
 30
0.0
 10
48.9487918095916
 20
138.3542394290862
 30
0.0
  0
LINE
  5
139
330
1F
100
AcDbEntity
  8
0
  6
HIDDEN
 62
     7
370
     0
100
AcDbLine
 10
48.9487918096
 20
138.3542394291
 30
0.0
 11
42.3987918096
 21
138.3542394291
 31
0.0
  0
LINE
  5
13A
330
1F
100
AcDbEntity
  8
0
  6
HIDDEN
 62
     7
370
     0
100
AcDbLine
 10
42.3987918096
 20
89.2808291135
 30
0.0
 11
53.9487918096
 21
89.2808291135
 31
0.0
  0
SPLINE
  5
13B
330
1F
100
AcDbEntity
  8
0
  6
HIDDEN
 62
     7
370
     0
100
AcDbSpline
210
0.0
220
0.0
230
1.0
 70
     8
 71
     3
 72
    18
 73
    14
 74
     0
 42
0.00000001
 43
0.00000001
 40
0.0
 40
0.0
 40
0.0
 40
0.0
 40
0.1249999999999982
 40
0.1249999999999982
 40
0.2499999999999964
 40
0.2499999999999964
 40
0.4999999999999988
 40
0.4999999999999988
 40
0.7500000000000011
 40
0.7500000000000011
 40
0.8750000000000006
 40
0.8750000000000006
 40
1.0
 40
1.0
 40
1.0
 40
1.0
 10
53.94879180959161
 20
89.28082911351926
 30
0.0
 10
54.07825912254882
 20
89.28082911351925
 30
0.0
 10
54.20526987144546
 20
89.2754761149266
 30
0.0
 10
54.45463319264271
 20
89.25473814223781
 30
0.0
 10
54.57825684727115
 20
89.23906623798352
 30
0.0
 10
54.92728918420519
 20
89.17937150958144
 30
0.0
 10
55.13780094901198
 20
89.12160632990046
 30
0.0
 10
55.4817176267115
 20
88.98708448862295
 30
0.0
 10
55.6180680282293
 20
88.90941537511755
 30
0.0
 10
55.75510608479184
 20
88.79012424103023
 30
0.0
 10
55.79032510350475
 20
88.74920523189516
 30
0.0
 10
55.83694868044331
 20
88.66854923860514
 30
0.0
 10
55.84879180959162
 20
88.62858071841228
 30
0.0
 10
55.84879180959161
 20
88.58902064088846
 30
0.0
  0
LINE
  5
13C
330
1F
100
AcDbEntity
  8
0
  6
HIDDEN
 62
     7
370
     0
100
AcDbLine
 10
42.3987918096
 20
89.2808291135
 30
0.0
 11
42.3987918096
 21
138.3542394291
 31
0.0
  0
LWPOLYLINE
  5
13D
330
1F
100
AcDbEntity
  8
0
  6
HIDDEN
 62
     7
370
     0
100
AcDbPolyline
 90
       13
 70
   128
 43
0.0
 10
99.6487918096
 20
153.7612648346
 10
100.8018711633
 20
153.8160830289
 10
101.8927877106
 20
153.9775823486
 10
102.862729858
 20
154.2370563238
 10
103.6594077734
 20
154.5805166451
 10
104.239872344
 20
154.9894472778
 10
104.5728305747
 20
155.4418026657
 10
104.6403326009
 20
155.9131962126
 10
104.4387393712
 20
156.3782149705
 10
103.9789188285
 20
156.8117896577
 10
103.2856600175
 20
157.1905461506
 10
102.3963366999
 20
157.4940655887
 10
102.0470331866
 20
157.5794254396
  0
LWPOLYLINE
  5
13E
330
1F
100
AcDbEntity
  8
0
  6
HIDDEN
 62
     7
370
     0
100
AcDbPolyline
 90
       13
 70
   128
 43
0.0
 10
97.2470587807
 20
157.5786483878
 10
96.9012469192
 20
157.4940655887
 10
96.0119236017
 20
157.1905461506
 10
95.3186647907
 20
156.8117896577
 10
94.858844248
 20
156.3782149705
 10
94.6572510182
 20
155.9131962126
 10
94.7247530445
 20
155.4418026657
 10
95.0577112752
 20
154.9894472778
 10
95.6381758458
 20
154.5805166451
 10
96.4348537612
 20
154.2370563238
 10
97.4047959086
 20
153.9775823486
 10
98.4957124559
 20
153.8160830289
 10
99.6487918096
 20
153.7612648346
  0
LWPOLYLINE
  5
13F
330
1F
100
AcDbEntity
  8
0
  6
HIDDEN
 62
     7
370
     0
100
AcDbPolyline
 90
       18
 70
   128
 43
0.0
 10
190.1487918096
 20
93.6649910075
 10
189.4263084772
 20
93.7604896965
 10
188.8014005223
 20
94.0340881364
 10
188.3584652269
 20
94.4488353419
 10
188.157323457
 20
94.9487174045
 10
188.2251405232
 20
95.4662224819
 10
188.552757355
 20
95.9314586458
 10
189.0959274838
 20
96.2815931742
 10
189.781292774
 20
96.4693384589
 10
190.5162908452
 20
96.4693384589
 10
191.2016561353
 20
96.2815931742
 10
191.7448262642
 20
95.9314586458
 10
192.0724430959
 20
95.4662224819
 10
192.1402601622
 20
94.9487174045
 10
191.9391183923
 20
94.4488353419
 10
191.4961830969
 20
94.0340881364
 10
190.871275142
 20
93.7604896965
 10
190.1487918096
 20
93.6649910075
  0
SPLINE
  5
140
330
1F
100
AcDbEntity
  8
0
  6
HIDDEN
 62
     7
370
     0
100
AcDbSpline
210
0.0
220
0.0
230
1.0
 70
     8
 71
     3
 72
    58
 73
    54
 74
     0
 42
0.00000001
 43
0.00000001
 40
-0.0624999999999982
 40
-0.0624999999999982
 40
0.0
 40
0.0
 40
0.0312500000000015
 40
0.0312500000000015
 40
0.0625000000000029
 40
0.0625000000000029
 40
0.0937500000000044
 40
0.0937500000000044
 40
0.1250000000000059
 40
0.1250000000000059
 40
0.1875000000000061
 40
0.1875000000000061
 40
0.2500000000000062
 40
0.2500000000000062
 40
0.2812500000000066
 40
0.2812500000000066
 40
0.3125000000000069
 40
0.3125000000000069
 40
0.3437500000000073
 40
0.3437500000000073
 40
0.3750000000000077
 40
0.3750000000000077
 40
0.406250000000008
 40
0.406250000000008
 40
0.4375000000000084
 40
0.4375000000000084
 40
0.4687500000000087
 40
0.4687500000000087
 40
0.5000000000000091
 40
0.5000000000000091
 40
0.5625000000000098
 40
0.5625000000000098
 40
0.6250000000000105
 40
0.6250000000000105
 40
0.6562500000000097
 40
0.6562500000000097
 40
0.6875000000000088
 40
0.6875000000000088
 40
0.718750000000008
 40
0.718750000000008
 40
0.7500000000000071
 40
0.7500000000000071
 40
0.7812500000000062
 40
0.7812500000000062
 40
0.8125000000000053
 40
0.8125000000000053
 40
0.8437500000000046
 40
0.8437500000000046
 40
0.8750000000000037
 40
0.8750000000000037
 40
0.9375000000000018
 40
0.9375000000000018
 40
1.0
 40
1.0
 40
1.031250000000002
 40
1.031250000000002
 10
189.8842655709071
 20
100.9645707772282
 30
0.0
 10
190.2810549289339
 20
100.9645707772282
 30
0.0
 10
190.4110826897598
 20
100.9726103236459
 30
0.0
 10
190.6668581077628
 20
101.0042245103309
 30
0.0
 10
190.7939406529895
 20
101.0281905932904
 30
0.0
 10
191.0360806803075
 20
101.0911035536633
 30
0.0
 10
191.150904876128
 20
101.1297504597063
 30
0.0
 10
191.3682139997812
 20
101.2218472817995
 30
0.0
 10
191.4710071884705
 20
101.2757562768156
 30
0.0
 10
191.7474469858772
 20
101.4542443022703
 30
0.0
 10
191.89641876973
 20
101.6005256633862
 30
0.0
 10
192.0959917955614
 20
101.9247717968723
 30
0.0
 10
192.1486467411615
 20
102.1062720851159
 30
0.0
 10
192.1488638828446
 20
102.3832286426216
 30
0.0
 10
192.1358539060818
 20
102.4781597205049
 30
0.0
 10
192.0847839721489
 20
102.6639478800283
 30
0.0
 10
192.0469987161131
 20
102.7553296606055
 30
0.0
 10
191.9467598557544
 20
102.9347012535795
 30
0.0
 10
191.8841915899955
 20
103.0222599014791
 30
0.0
 10
191.7395076706767
 20
103.1858710192891
 30
0.0
 10
191.6568188298149
 20
103.2629893390601
 30
0.0
 10
191.4702936800432
 20
103.4064763667715
 30
0.0
 10
191.3694153570971
 20
103.4705846031624
 30
0.0
 10
191.1529769747152
 20
103.5835138032842
 30
0.0
 10
191.0360248063593
 20
103.6327370663325
 30
0.0
 10
190.7939149292671
 20
103.7118367776002
 30
0.0
 10
190.6692567115138
 20
103.7418410239582
 30
0.0
 10
190.4127612316065
 20
103.7825096355196
 30
0.0
 10
190.2801202757076
 20
103.7929589180829
 30
0.0
 10
189.8883829411707
 20
103.7930755351422
 30
0.0
 10
189.6250023541758
 20
103.751284296611
 30
0.0
 10
189.1434801466586
 20
103.5943516845067
 30
0.0
 10
188.9204768593319
 20
103.4777934077504
 30
0.0
 10
188.6436595763363
 20
103.2653974930071
 30
0.0
 10
188.559163839415
 20
103.186977200769
 30
0.0
 10
188.4139197658315
 20
103.0229793273305
 30
0.0
 10
188.3523862869811
 20
102.9370600169204
 30
0.0
 10
188.2517307401441
 20
102.7578057165341
 30
0.0
 10
188.2131203469112
 20
102.6647414989318
 30
0.0
 10
188.1620227536656
 20
102.4795943752968
 30
0.0
 10
188.1489129671631
 20
102.3865127332485
 30
0.0
 10
188.1486723074864
 20
102.1994481846046
 30
0.0
 10
188.1615441356717
 20
102.1086208745727
 30
0.0
 10
188.2121929913521
 20
101.9320265220811
 30
0.0
 10
188.2505977458221
 20
101.8453658477686
 30
0.0
 10
188.3508050758983
 20
101.6821340815729
 30
0.0
 10
188.4121421525114
 20
101.6056665391706
 30
0.0
 10
188.5571034081716
 20
101.46238085536
 30
0.0
 10
188.6413993661238
 20
101.3954033798085
 30
0.0
 10
188.9176353773899
 20
101.2167950254021
 30
0.0
 10
189.1404444825866
 20
101.1227154386962
 30
0.0
 10
189.621462049591
 20
100.9974214269643
 30
0.0
 10
189.8842655709071
 20
100.9645707772282
 30
0.0
 10
190.2810549289339
 20
100.9645707772282
 30
0.0
  0
SPLINE
  5
141
330
1F
100
AcDbEntity
  8
0
  6
HIDDEN
 62
     7
370
     0
100
AcDbSpline
210
0.0
220
0.0
230
1.0
 70
     8
 71
     3
 72
    56
 73
    52
 74
     0
 42
0.00000001
 43
0.00000001
 40
-0.062499999999999
 40
-0.062499999999999
 40
0.0
 40
0.0
 40
0.0312500000000015
 40
0.0312500000000015
 40
0.062500000000003
 40
0.062500000000003
 40
0.1250000000000048
 40
0.1250000000000048
 40
0.1562500000000057
 40
0.1562500000000057
 40
0.1875000000000066
 40
0.1875000000000066
 40
0.2500000000000076
 40
0.2500000000000076
 40
0.2812500000000072
 40
0.2812500000000072
 40
0.3125000000000068
 40
0.3125000000000068
 40
0.3437500000000064
 40
0.3437500000000064
 40
0.3750000000000061
 40
0.3750000000000061
 40
0.4062500000000057
 40
0.4062500000000057
 40
0.4375000000000053
 40
0.4375000000000053
 40
0.5000000000000044
 40
0.5000000000000044
 40
0.5625000000000037
 40
0.5625000000000037
 40
0.5937500000000042
 40
0.5937500000000042
 40
0.6250000000000049
 40
0.6250000000000049
 40
0.6562500000000048
 40
0.6562500000000048
 40
0.6875000000000048
 40
0.6875000000000048
 40
0.7500000000000046
 40
0.7500000000000046
 40
0.8125000000000043
 40
0.8125000000000043
 40
0.8437500000000034
 40
0.8437500000000034
 40
0.8750000000000027
 40
0.8750000000000027
 40
0.9062500000000018
 40
0.9062500000000018
 40
0.937500000000001
 40
0.937500000000001
 40
1.0
 40
1.0
 40
1.031250000000002
 40
1.031250000000002
 10
191.6676321294391
 20
95.32546947982793
 30
0.0
 10
191.8264907948233
 20
95.32988293910178
 30
0.0
 10
191.8765903218963
 20
95.34103601787616
 30
0.0
 10
191.9679944334422
 20
95.38362588262115
 30
0.0
 10
192.0097293623153
 20
95.41564710461981
 30
0.0
 10
192.1124038846684
 20
95.54329605035666
 30
0.0
 10
192.1512170891503
 20
95.67389585524622
 30
0.0
 10
192.1473927428737
 20
95.91962676869655
 30
0.0
 10
192.1359245093907
 20
96.01119737514304
 30
0.0
 10
192.0952463524025
 20
96.20111579795395
 30
0.0
 10
192.0657392525075
 20
96.30162560814198
 30
0.0
 10
191.9570572619617
 20
96.60726600419645
 30
0.0
 10
191.8575843889833
 20
96.8168720784069
 30
0.0
 10
191.6984796675815
 20
97.12197340419252
 30
0.0
 10
191.6430550816698
 20
97.22367535181218
 30
0.0
 10
191.5354890807933
 20
97.42243864364436
 30
0.0
 10
191.4833046739682
 20
97.51944692675296
 30
0.0
 10
191.3893791616188
 20
97.71148822993398
 30
0.0
 10
191.3470569686379
 20
97.80816600368996
 30
0.0
 10
191.2899942536696
 20
97.99244767951176
 30
0.0
 10
191.2756036214314
 20
98.08201479462402
 30
0.0
 10
191.2840465130996
 20
98.24033038386084
 30
0.0
 10
191.3065340691723
 20
98.31077334234254
 30
0.0
 10
191.3733823391522
 20
98.42744652156394
 30
0.0
 10
191.4173806546365
 20
98.4750452938161
 30
0.0
 10
191.562472271383
 20
98.58936231383628
 30
0.0
 10
191.672921401039
 20
98.6275400490048
 30
0.0
 10
191.879564787549
 20
98.6319632326045
 30
0.0
 10
191.9728082907215
 20
98.59795110816422
 30
0.0
 10
192.0766539387148
 20
98.47679518886102
 30
0.0
 10
192.1038236472085
 20
98.42586447655198
 30
0.0
 10
192.1406084723262
 20
98.30068101968904
 30
0.0
 10
192.1497355272098
 20
98.22646821391528
 30
0.0
 10
192.1476890826716
 20
98.06237194403944
 30
0.0
 10
192.1364084187275
 20
97.97005925891415
 30
0.0
 10
192.095965644951
 20
97.77753871598648
 30
0.0
 10
192.066706022239
 20
97.67588447788037
 30
0.0
 10
191.9589030343313
 20
97.3655329784317
 30
0.0
 10
191.8608559492924
 20
97.15302364909643
 30
0.0
 10
191.6541321079485
 20
96.74381141194745
 30
0.0
 10
191.5415922046935
 20
96.54168298693122
 30
0.0
 10
191.4009237511622
 20
96.25084797444136
 30
0.0
 10
191.3582446319672
 20
96.154146199661
 30
0.0
 10
191.2969351929665
 20
95.9680383395827
 30
0.0
 10
191.2786879825133
 20
95.8773785600266
 30
0.0
 10
191.2794385226953
 20
95.71458958706991
 30
0.0
 10
191.2984249110093
 20
95.64205320303402
 30
0.0
 10
191.3624570594866
 20
95.52164039572692
 30
0.0
 10
191.406206757442
 20
95.47361373015437
 30
0.0
 10
191.5540092039532
 20
95.35947464783406
 30
0.0
 10
191.6676321294391
 20
95.32546947982793
 30
0.0
 10
191.8264907948233
 20
95.32988293910178
 30
0.0
  0
LINE
  5
142
330
1F
100
AcDbEntity
  8
0
  6
HIDDEN
 62
     7
370
     0
100
AcDbLine
 10
42.3987918096
 20
86.4475342713
 30
0.0
 11
42.3987918096
 21
81.5692490695
 31
0.0
  0
LINE
  5
143
330
1F
100
AcDbEntity
  8
0
  6
HIDDEN
 62
     7
370
     0
100
AcDbLine
 10
55.8487918096
 20
86.4475342713
 30
0.0
 11
55.8487918096
 21
79.9482010059
 31
0.0
  0
LINE
  5
144
330
1F
100
AcDbEntity
  8
0
  6
HIDDEN
 62
     7
370
     0
100
AcDbLine
 10
50.8487918096
 20
141.1875342713
 30
0.0
 11
50.8487918096
 21
147.5621430083
 31
0.0
  0
LINE
  5
145
330
1F
100
AcDbEntity
  8
0
  6
HIDDEN
 62
     7
370
     0
100
AcDbLine
 10
42.3987918096
 20
141.1875342713
 30
0.0
 11
42.3987918096
 21
146.0658194731
 31
0.0
  0
LINE
  5
146
330
1F
100
AcDbEntity
  8
0
  6
HIDDEN
 62
     7
370
     0
100
AcDbLine
 10
187.6487918096
 20
97.9175342713
 30
0.0
 11
187.6487918096
 21
129.7175342563
 31
0.0
  0
SPLINE
  5
147
330
1F
100
AcDbEntity
  8
0
  6
HIDDEN
 62
     7
370
     0
100
AcDbSpline
210
0.0
220
0.0
230
1.0
 70
     8
 71
     3
 72
    58
 73
    54
 74
     0
 42
0.00000001
 43
0.00000001
 40
-0.0624999999999999
 40
-0.0624999999999999
 40
0.0
 40
0.0
 40
0.0312500000000016
 40
0.0312500000000016
 40
0.0625000000000031
 40
0.0625000000000031
 40
0.0937500000000047
 40
0.0937500000000047
 40
0.1250000000000063
 40
0.1250000000000063
 40
0.1875000000000069
 40
0.1875000000000069
 40
0.2500000000000074
 40
0.2500000000000074
 40
0.2812500000000075
 40
0.2812500000000075
 40
0.3125000000000077
 40
0.3125000000000077
 40
0.3437500000000078
 40
0.3437500000000078
 40
0.3750000000000079
 40
0.3750000000000079
 40
0.406250000000008
 40
0.406250000000008
 40
0.4375000000000082
 40
0.4375000000000082
 40
0.4687500000000083
 40
0.4687500000000083
 40
0.5000000000000084
 40
0.5000000000000084
 40
0.5625000000000087
 40
0.5625000000000087
 40
0.6250000000000089
 40
0.6250000000000089
 40
0.6562500000000079
 40
0.6562500000000079
 40
0.6875000000000068
 40
0.6875000000000068
 40
0.7187500000000057
 40
0.7187500000000057
 40
0.7500000000000046
 40
0.7500000000000046
 40
0.7812500000000034
 40
0.7812500000000034
 40
0.8125000000000023
 40
0.8125000000000023
 40
0.8437500000000012
 40
0.8437500000000012
 40
0.8750000000000001
 40
0.8750000000000001
 40
0.9375000000000001
 40
0.9375000000000001
 40
1.0
 40
1.0
 40
1.031250000000002
 40
1.031250000000002
 10
190.4133180482762
 20
123.8420706406311
 30
0.0
 10
190.0165286902493
 20
123.8420706406311
 30
0.0
 10
189.8865009294234
 20
123.8524027505419
 30
0.0
 10
189.6307255114204
 20
123.8927389633225
 30
0.0
 10
189.5036429661938
 20
123.9232377385948
 30
0.0
 10
189.2615029388756
 20
124.0023521622754
 30
0.0
 10
189.1466787430553
 20
124.0505916390635
 30
0.0
 10
188.929369619402
 20
124.1637408420296
 30
0.0
 10
188.8265764307127
 20
124.2291798527084
 30
0.0
 10
188.550136633306
 20
124.4417188068255
 30
0.0
 10
188.4011648494533
 20
124.6107134433498
 30
0.0
 10
188.2015918236218
 20
124.9669834367367
 30
0.0
 10
188.1489368780217
 20
125.1579279790722
 30
0.0
 10
188.1487197363386
 20
125.434922215678
 30
0.0
 10
188.1617297131015
 20
125.5275750358062
 30
0.0
 10
188.2127996470342
 20
125.7046693560064
 30
0.0
 10
188.25058490307
 20
125.7896826953634
 30
0.0
 10
188.3508237634288
 20
125.9529639812481
 30
0.0
 10
188.4133920291877
 20
126.0307989151067
 30
0.0
 10
188.5580759485066
 20
126.1734850026363
 30
0.0
 10
188.6407647893683
 20
126.2393038219171
 30
0.0
 10
188.82728993914
 20
126.3598088179627
 30
0.0
 10
188.9281682620861
 20
126.4126100399001
 30
0.0
 10
189.1446066444679
 20
126.5045404631479
 30
0.0
 10
189.2615588128238
 20
126.5439815061999
 30
0.0
 10
189.503668689916
 20
126.6068826321366
 30
0.0
 10
189.6283269076694
 20
126.6304602874389
 30
0.0
 10
189.8848223875767
 20
126.6623366469249
 30
0.0
 10
190.0174633434756
 20
126.6704673602925
 30
0.0
 10
190.4092006780126
 20
126.6705583145672
 30
0.0
 10
190.6725812650073
 20
126.6382464661316
 30
0.0
 10
191.1541034725246
 20
126.5134622615146
 30
0.0
 10
191.3771067598512
 20
126.4196747008028
 30
0.0
 10
191.6539240428469
 20
126.2413402720701
 30
0.0
 10
191.7384197797683
 20
126.1744389235021
 30
0.0
 10
191.8836638533517
 20
126.0314369962709
 30
0.0
 10
191.9451973322021
 20
125.9550778508504
 30
0.0
 10
192.0458528790391
 20
125.791969057151
 30
0.0
 10
192.0844632722718
 20
125.7054090554763
 30
0.0
 10
192.1355608655175
 20
125.5289591385935
 30
0.0
 10
192.14867065202
 20
125.4381727762966
 30
0.0
 10
192.1489113116968
 20
125.2511499876576
 30
0.0
 10
192.1360394835115
 20
125.1580686461464
 30
0.0
 10
192.0853906278311
 20
124.9728504202215
 30
0.0
 10
192.0469858733611
 20
124.8797168335668
 30
0.0
 10
191.9467785432849
 20
124.7003997964038
 30
0.0
 10
191.8854414666717
 20
124.614393301199
 30
0.0
 10
191.7404802110116
 20
124.4501286154438
 30
0.0
 10
191.6561842530593
 20
124.3716440602524
 30
0.0
 10
191.3799482417932
 20
124.1589871550759
 30
0.0
 10
191.1571391365966
 20
124.0420980606186
 30
0.0
 10
190.6761215695922
 20
123.8845515322852
 30
0.0
 10
190.4133180482762
 20
123.8420706406311
 30
0.0
 10
190.0165286902493
 20
123.8420706406311
 30
0.0
  0
LINE
  5
148
330
1F
100
AcDbEntity
  8
0
  6
HIDDEN
 62
     7
370
     0
100
AcDbLine
 10
193.6487918096
 20
120.9414376957
 30
0.0
 11
193.6487918096
 21
129.8175342713
 31
0.0
  0
LINE
  5
149
330
1F
100
AcDbEntity
  8
0
  6
HIDDEN
 62
     7
370
     0
100
AcDbLine
 10
193.6487918096
 20
120.911176778
 30
0.0
 11
193.6487918096
 21
106.6936308469
 31
0.0
  0
LINE
  5
14A
330
1F
100
AcDbEntity
  8
0
  6
HIDDEN
 62
     7
370
     0
100
AcDbLine
 10
193.6487918096
 20
97.8175342713
 30
0.0
 11
193.6487918096
 21
106.6936308469
 31
0.0
  0
LINE
  5
14B
330
1F
100
AcDbEntity
  8
0
  6
HIDDEN
 62
     7
370
     0
100
AcDbLine
 10
114.9487918096
 20
100.8175342713
 30
0.0
 11
114.9487918096
 21
126.8175342713
 31
0.0
  0
LINE
  5
14C
330
1F
100
AcDbEntity
  8
0
  6
HIDDEN
 62
     7
370
     0
100
AcDbLine
 10
118.9487918096
 20
100.8175342713
 30
0.0
 11
118.9487918096
 21
126.8175342713
 31
0.0
  0
LINE
  5
14D
330
1F
100
AcDbEntity
  8
0
  6
HIDDEN
 62
     7
370
     0
100
AcDbLine
 10
103.8487918096
 20
102.5675342713
 30
0.0
 11
103.8487918096
 21
125.0675342713
 31
0.0
  0
ELLIPSE
  5
14E
330
1F
100
AcDbEntity
  8
0
  6
HIDDEN
 62
     7
370
     0
100
AcDbEllipse
 10
34.4641186093
 20
113.8175342713
 30
0.0
 11
31.08108570811661
 21
-1.421085471520200E-14
 31
0.0
210
0.0
220
0.0
230
1.0
 40
0.8164965809
 41
4.915995335118103
 42
4.970536038964787
  0
ELLIPSE
  5
14F
330
1F
100
AcDbEntity
  8
0
  6
HIDDEN
 62
     7
370
     0
100
AcDbEllipse
 10
34.4641186093
 20
113.8175342713
 30
0.0
 11
31.08108570811661
 21
1.421085471520200E-14
 31
0.0
210
0.0
220
0.0
230
1.0
 40
0.8164965809
 41
1.312649268214811
 42
1.367189972061495
  0
LINE
  5
150
330
1F
100
AcDbEntity
  8
0
  6
HIDDEN
 62
     7
370
     0
100
AcDbLine
 10
119.5987918096
 20
69.9175342713
 30
0.0
 11
105.5987918096
 21
69.9175342713
 31
0.0
  0
LINE
  5
151
330
1F
100
AcDbEntity
  8
0
  6
HIDDEN
 62
     7
370
     0
100
AcDbLine
 10
95.5987918096
 20
63.8275352715
 30
0.0
 11
95.5987918096
 21
69.9175342713
 31
0.0
  0
LINE
  5
152
330
1F
100
AcDbEntity
  8
0
  6
HIDDEN
 62
     7
370
     0
100
AcDbLine
 10
105.5987918096
 20
69.9175342713
 30
0.0
 11
95.5987918096
 21
69.9175342713
 31
0.0
  0
LINE
  5
153
330
1F
100
AcDbEntity
  8
0
  6
HIDDEN
 62
     7
370
     0
100
AcDbLine
 10
55.8487918096
 20
86.4475342713
 30
0.0
 11
55.8487918096
 21
88.5890206409
 31
0.0
  0
LINE
  5
154
330
1F
100
AcDbEntity
  8
0
  6
HIDDEN
 62
     7
370
     0
100
AcDbLine
 10
42.3987918096
 20
86.4475342713
 30
0.0
 11
42.3987918096
 21
89.2808291135
 31
0.0
  0
LINE
  5
155
330
1F
100
AcDbEntity
  8
0
  6
HIDDEN
 62
     7
370
     0
100
AcDbLine
 10
50.8487918096
 20
141.1875342713
 30
0.0
 11
50.8487918096
 21
139.0460479017
 31
0.0
  0
LINE
  5
156
330
1F
100
AcDbEntity
  8
0
  6
HIDDEN
 62
     7
370
     0
100
AcDbLine
 10
42.3987918096
 20
141.1875342713
 30
0.0
 11
42.3987918096
 21
138.3542394291
 31
0.0
  0
LINE
  5
157
330
1F
100
AcDbEntity
  8
0
  6
HIDDEN
 62
     7
370
     0
100
AcDbLine
 10
119.5987918096
 20
157.7175342713
 30
0.0
 11
105.5987918096
 21
157.7175342713
 31
0.0
  0
LINE
  5
158
330
1F
100
AcDbEntity
  8
0
  6
HIDDEN
 62
     7
370
     0
100
AcDbLine
 10
105.5987918096
 20
157.7175342713
 30
0.0
 11
95.5987918096
 21
157.7175342713
 31
0.0
  0
SPLINE
  5
159
330
1F
100
AcDbEntity
  8
0
  6
HIDDEN
 62
     7
370
     0
100
AcDbSpline
210
0.0
220
0.0
230
1.0
 70
     8
 71
     3
 72
    30
 73
    26
 74
     0
 42
0.00000001
 43
0.00000001
 40
0.0
 40
0.0
 40
0.0
 40
0.0
 40
0.05316681177952
 40
0.1125460504497382
 40
0.1779415872436421
 40
0.212964728461039
 40
0.2495168718381112
 40
0.2912815942556317
 40
0.3261230057493977
 40
0.3540373940388488
 40
0.3750221119559382
 40
0.4414779880221132
 40
0.5001940073771651
 40
0.5547072432056975
 40
0.6144498376458664
 40
0.6794734252790232
 40
0.7140294954767373
 40
0.7499255040488316
 40
0.791388894763988
 40
0.8260549000198212
 40
0.8539197361044545
 40
0.8749805509938708
 40
0.9411652366907278
 40
0.9999141591664803
 40
1.0
 40
1.0
 40
1.0
 40
1.0
 10
81.64836867273304
 20
76.71759727918854
 30
0.0
 10
81.63216713988353
 20
76.72249943219323
 30
0.0
 10
81.59787096013508
 20
76.7328765441718
 30
0.0
 10
81.29652433822163
 20
76.80853781363687
 30
0.0
 10
80.85435206863453
 20
76.90482494715347
 30
0.0
 10
80.35951989794772
 20
77.00448965678103
 30
0.0
 10
79.8890440976384
 20
77.09676782965168
 30
0.0
 10
79.35812271201961
 20
77.19239985449919
 30
0.0
 10
78.81997220101394
 20
77.27805009937043
 30
0.0
 10
78.36192486844189
 20
77.34534189203845
 30
0.0
 10
77.70636054684026
 20
77.43369006111078
 30
0.0
 10
76.82305410914715
 20
77.53034814529595
 30
0.0
 10
75.69439237633867
 20
77.61712332207897
 30
0.0
 10
74.60463062661634
 20
77.65520201978704
 30
0.0
 10
73.50860234817907
 20
77.65705245455199
 30
0.0
 10
72.60321110123714
 20
77.6308909989665
 30
0.0
 10
71.9069083908218
 20
77.59428377383765
 30
0.0
 10
71.3802286625468
 20
77.55526689836057
 30
0.0
 10
70.91358254751415
 20
77.51305777088862
 30
0.0
 10
70.54236727179034
 20
77.47605368131926
 30
0.0
 10
70.28832079454827
 20
77.44735292087493
 30
0.0
 10
69.9872656418389
 20
77.41097297028504
 30
0.0
 10
69.73178184703497
 20
77.37819280329857
 30
0.0
 10
69.63256112208961
 20
77.36185491858969
 30
0.0
 10
69.64884167937221
 20
77.3644485047629
 30
0.0
 10
69.64886543295817
 20
77.36445228884541
 30
0.0
  0
SPLINE
  5
15A
330
1F
100
AcDbEntity
  8
0
  6
HIDDEN
 62
     7
370
     0
100
AcDbSpline
210
0.0
220
0.0
230
1.0
 70
     8
 71
     3
 72
    30
 73
    26
 74
     0
 42
0.00000001
 43
0.00000001
 40
0.0
 40
0.0
 40
0.0
 40
0.0
 40
0.0001123288057695
 40
0.0285431152663135
 40
0.0588466796063202
 40
0.091027196450477
 40
0.1250880910051604
 40
0.1546766141497773
 40
0.1963554560485685
 40
0.2501101496291966
 40
0.320525387238388
 40
0.3856104300246703
 40
0.445403860889207
 40
0.4999571692316274
 40
0.5283494388508946
 40
0.558634027028705
 40
0.5908185964995195
 40
0.6249094714581434
 40
0.6541844575853767
 40
0.6958630078636641
 40
0.7499307292180327
 40
0.8215905285694356
 40
0.8871422909715975
 40
0.9466378748868088
 40
1.0
 40
1.0
 40
1.0
 40
1.0
 10
69.64888714169149
 20
150.2705459803311
 30
0.0
 10
69.64885528193335
 20
150.2705529274573
 30
0.0
 10
69.64075961366248
 20
150.2723182148495
 30
0.0
 10
69.66942109133188
 20
150.2668632961246
 30
0.0
 10
69.7428079374861
 20
150.2563204487784
 30
0.0
 10
69.88646448103684
 20
150.236635241125
 30
0.0
 10
70.08750018099434
 20
150.2117959772697
 30
0.0
 10
70.37013073026338
 20
150.1775875121309
 30
0.0
 10
70.78353985583804
 20
150.1339076153709
 30
0.0
 10
71.45982735702026
 20
150.0708645478376
 30
0.0
 10
72.3982582579362
 20
150.0095673774049
 30
0.0
 10
73.5077514714321
 20
149.9782789339045
 30
0.0
 10
74.60523220212085
 20
149.9799341015011
 30
0.0
 10
75.50526344057815
 20
150.0112403035984
 30
0.0
 10
76.21660436642908
 20
150.0580734524009
 30
0.0
 10
76.78202126741984
 20
150.1052403142968
 30
0.0
 10
77.37094469024818
 20
150.1646793208468
 30
0.0
 10
77.93535434272566
 20
150.2310365274548
 30
0.0
 10
78.52955053666186
 20
150.3129559338863
 30
0.0
 10
79.19615869763234
 20
150.4146039166367
 30
0.0
 10
79.99749144333258
 20
150.5567428272371
 30
0.0
 10
80.7500014278405
 20
150.7079873980034
 30
0.0
 10
81.29528792280668
 20
150.8258382712628
 30
0.0
 10
81.59800945430553
 20
150.9020675030121
 30
0.0
 10
81.63229990491855
 20
150.9125198125066
 30
0.0
 10
81.64851334156859
 20
150.9174619423068
 30
0.0
  0
LINE
  5
15B
330
1F
100
AcDbEntity
  8
0
  6
HIDDEN
 62
     7
370
     0
100
AcDbLine
 10
162.0987918096
 20
78.3948845405
 30
0.0
 11
157.0987918096
 21
78.3948845405
 31
0.0
  0
LINE
  5
15C
330
1F
100
AcDbEntity
  8
0
  6
HIDDEN
 62
     7
370
     0
100
AcDbLine
 10
159.5987918096
 20
149.2401840021
 30
0.0
 11
162.0987918096
 21
149.2401840021
 31
0.0
  0
LINE
  5
15D
330
1F
100
AcDbEntity
  8
0
  6
HIDDEN
 62
     7
370
     0
100
AcDbLine
 10
157.0987918096
 20
149.2401840021
 30
0.0
 11
159.5987918096
 21
149.2401840021
 31
0.0
  0
LINE
  5
15E
330
1F
100
AcDbEntity
  8
0
  6
HIDDEN
 62
     7
370
     0
100
AcDbLine
 10
159.5987918096
 20
135.8175342713
 30
0.0
 11
162.0987918096
 21
135.8175342713
 31
0.0
  0
LINE
  5
15F
330
1F
100
AcDbEntity
  8
0
  6
HIDDEN
 62
     7
370
     0
100
AcDbLine
 10
157.0987918096
 20
135.8175342713
 30
0.0
 11
159.5987918096
 21
135.8175342713
 31
0.0
  0
LINE
  5
160
330
1F
100
AcDbEntity
  8
0
  6
HIDDEN
 62
     7
370
     0
100
AcDbLine
 10
162.0987918096
 20
91.8175342713
 30
0.0
 11
157.0987918096
 21
91.8175342713
 31
0.0
  0
LWPOLYLINE
  5
161
330
1F
100
AcDbEntity
  8
0
  6
HIDDEN
 62
     7
370
     0
100
AcDbPolyline
 90
       28
 70
   128
 43
0.0
 10
99.6487918096
 20
159.1302401231
 10
100.8018711633
 20
159.0885921577
 10
101.8927877106
 20
158.9658935141
 10
102.862729858
 20
158.7687589081
 10
103.6594077734
 20
158.5078159171
 10
104.239872344
 20
158.1971320454
 10
104.5728305747
 20
157.8534563409
 10
104.6403326009
 20
157.4953164499
 10
104.4387393712
 20
157.1420197865
 10
103.9789188285
 20
156.8126126653
 10
103.2856600175
 20
156.5248535095
 10
102.3963366999
 20
156.2942554896
 10
101.3588925262
 20
156.1332502046
 10
100.2292563802
 20
156.0505174912
 10
99.068327239
 20
156.0505174912
 10
97.938691093
 20
156.1332502046
 10
96.9012469192
 20
156.2942554896
 10
96.0119236017
 20
156.5248535095
 10
95.3186647907
 20
156.8126126653
 10
94.858844248
 20
157.1420197865
 10
94.6572510182
 20
157.4953164499
 10
94.7247530445
 20
157.8534563409
 10
95.0577112752
 20
158.1971320454
 10
95.6381758458
 20
158.5078159171
 10
96.4348537612
 20
158.7687589081
 10
97.4047959086
 20
158.9658935141
 10
98.4957124559
 20
159.0885921577
 10
99.6487918096
 20
159.1302401231
  0
SPLINE
  5
162
330
1F
100
AcDbEntity
  8
0
  6
HIDDEN
 62
     7
370
     0
100
AcDbSpline
210
0.0
220
0.0
230
1.0
 70
     8
 71
     3
 72
    62
 73
    58
 74
     0
 42
0.00000001
 43
0.00000001
 40
-0.0624999999999999
 40
-0.0624999999999999
 40
0.0
 40
0.0
 40
0.0624999999999996
 40
0.0624999999999996
 40
0.0937499999999997
 40
0.0937499999999997
 40
0.1249999999999999
 40
0.1249999999999999
 40
0.1562500000000001
 40
0.1562500000000001
 40
0.1875000000000002
 40
0.1875000000000002
 40
0.2187500000000004
 40
0.2187500000000004
 40
0.2500000000000006
 40
0.2500000000000006
 40
0.2812500000000008
 40
0.2812500000000008
 40
0.3125000000000009
 40
0.3125000000000009
 40
0.3437500000000011
 40
0.3437500000000011
 40
0.3750000000000013
 40
0.3750000000000013
 40
0.4062500000000012
 40
0.4062500000000012
 40
0.437500000000001
 40
0.437500000000001
 40
0.4687500000000008
 40
0.4687500000000008
 40
0.5000000000000007
 40
0.5000000000000007
 40
0.5312500000000006
 40
0.5312500000000006
 40
0.5625000000000003
 40
0.5625000000000003
 40
0.625
 40
0.625
 40
0.65625
 40
0.65625
 40
0.6875
 40
0.6875
 40
0.71875
 40
0.71875
 40
0.75
 40
0.75
 40
0.7812500000000001
 40
0.7812500000000001
 40
0.8125000000000001
 40
0.8125000000000001
 40
0.8437500000000001
 40
0.8437500000000001
 40
0.8750000000000001
 40
0.8750000000000001
 40
0.9375000000000001
 40
0.9375000000000001
 40
1.0
 40
1.0
 40
1.0625
 40
1.0625
 10
191.879733996873
 20
130.8635649304514
 30
0.0
 10
191.6673418158509
 20
130.4510214087764
 30
0.0
 10
191.5532865799979
 20
130.2531695449441
 30
0.0
 10
191.4062035257019
 20
129.9599917290633
 30
0.0
 10
191.3625383981378
 20
129.8648806765757
 30
0.0
 10
191.2982464448521
 20
129.6773292803483
 30
0.0
 10
191.2794323919516
 20
129.5881485646818
 30
0.0
 10
191.2786935137905
 20
129.422994942433
 30
0.0
 10
191.2966582078743
 20
129.3511250073236
 30
0.0
 10
191.3582818204009
 20
129.2274637213725
 30
0.0
 10
191.4001121527651
 20
129.1778416602297
 30
0.0
 10
191.4938263691017
 20
129.0969603036214
 30
0.0
 10
191.5460546834549
 20
129.0659121909555
 30
0.0
 10
191.6507987670564
 20
129.0225493618672
 30
0.0
 10
191.7038268042519
 20
129.0098468459342
 30
0.0
 10
191.8073365693728
 20
129.0026679962795
 30
0.0
 10
191.8581919243589
 20
129.0084444300163
 30
0.0
 10
191.9506350920532
 20
129.0401742079339
 30
0.0
 10
191.9926712917426
 20
129.0659391209543
 30
0.0
 10
192.0649801588704
 20
129.1407913781944
 30
0.0
 10
192.0943303313084
 20
129.1892502214702
 30
0.0
 10
192.1354081105676
 20
129.3082752157293
 30
0.0
 10
192.1471374636389
 20
129.3800911975046
 30
0.0
 10
192.1501095789365
 20
129.5394521734168
 30
0.0
 10
192.1415087066137
 20
129.6291406196272
 30
0.0
 10
192.1056598011628
 20
129.8192199716538
 30
0.0
 10
192.0788365309678
 20
129.9187660186796
 30
0.0
 10
192.0103254268618
 20
130.1251968936966
 30
0.0
 10
191.9698461907437
 20
130.2285838861176
 30
0.0
 10
191.8799845177128
 20
130.4362628947346
 30
0.0
 10
191.8300554849927
 20
130.5414818503521
 30
0.0
 10
191.7274316633942
 20
130.7471777608811
 30
0.0
 10
191.6745627260412
 20
130.8481006833447
 30
0.0
 10
191.5693867481988
 20
131.0480632082085
 30
0.0
 10
191.5165618555075
 20
131.1479340325251
 30
0.0
 10
191.3715944300951
 20
131.4407807658364
 30
0.0
 10
191.28991603712
 20
131.6327986276085
 30
0.0
 10
191.2751553614033
 20
131.8866042942394
 30
0.0
 10
191.2885690167264
 20
131.9610372704392
 30
0.0
 10
191.3450333649879
 20
132.0892027137184
 30
0.0
 10
191.38618981439
 20
132.1403842210751
 30
0.0
 10
191.4803774607573
 20
132.2222538097998
 30
0.0
 10
191.5336314731577
 20
132.2527801296953
 30
0.0
 10
191.6407897174394
 20
132.2939684208173
 30
0.0
 10
191.6953113937544
 20
132.3050495581646
 30
0.0
 10
191.8018901280175
 20
132.3082081149217
 30
0.0
 10
191.8537318566314
 20
132.3000145444044
 30
0.0
 10
191.9475355638472
 20
132.263866899618
 30
0.0
 10
191.9900977739403
 20
132.2359919762914
 30
0.0
 10
192.0632133868879
 20
132.1576792664706
 30
0.0
 10
192.0932703884537
 20
132.1071410109759
 30
0.0
 10
192.1348761656788
 20
131.986147064212
 30
0.0
 10
192.1468608650385
 20
131.9138846980635
 30
0.0
 10
192.151989328844
 20
131.674477143657
 30
0.0
 10
192.1138462008837
 20
131.4803579218325
 30
0.0
 10
191.9766818543031
 20
131.0736840376035
 30
0.0
 10
191.879733996873
 20
130.8635649304514
 30
0.0
 10
191.6673418158509
 20
130.4510214087764
 30
0.0
  0
LWPOLYLINE
  5
163
330
1F
100
AcDbEntity
  8
0
  6
HIDDEN
 62
     7
370
     0
100
AcDbPolyline
 90
       18
 70
   128
 43
0.0
 10
190.1487918096
 20
130.7880970198
 10
190.871275142
 20
130.8835957088
 10
191.4961830969
 20
131.1571941487
 10
191.9391183923
 20
131.5719413541
 10
192.1402601622
 20
132.0718234168
 10
192.0724430959
 20
132.5893284942
 10
191.7448262642
 20
133.0545646581
 10
191.2016561353
 20
133.4046991865
 10
190.5162908452
 20
133.5924444712
 10
189.781292774
 20
133.5924444712
 10
189.0959274838
 20
133.4046991865
 10
188.552757355
 20
133.0545646581
 10
188.2251405232
 20
132.5893284942
 10
188.157323457
 20
132.0718234168
 10
188.3584652269
 20
131.5719413541
 10
188.8014005223
 20
131.1571941487
 10
189.4263084772
 20
130.8835957088
 10
190.1487918096
 20
130.7880970198
  0
LINE
  5
164
330
1F
100
AcDbEntity
  8
0
  6
HIDDEN
 62
     7
370
     0
100
AcDbLine
 10
113.9108208305
 20
152.7684970322
 30
0.0
 11
113.9108208305
 21
145.1675342713
 31
0.0
  0
LINE
  5
165
330
1F
100
AcDbEntity
  8
0
  6
HIDDEN
 62
     7
370
     0
100
AcDbLine
 10
112.5587918096
 20
148.5317694638
 30
0.0
 11
112.5587918096
 21
145.1675342713
 31
0.0
  0
LINE
  5
166
330
1F
100
AcDbEntity
  8
0
  6
HIDDEN
 62
     7
370
     0
100
AcDbLine
 10
108.7387918096
 20
148.5317694638
 30
0.0
 11
108.7387918096
 21
145.1675342713
 31
0.0
  0
CIRCLE
  5
167
330
1F
100
AcDbEntity
  8
0
  6
HIDDEN
 62
     7
370
     0
100
AcDbCircle
 10
97.6487918096
 20
113.8175342713
 30
0.0
 40
5.000000000000014
  0
LINE
  5
168
330
1F
100
AcDbEntity
  8
0
  6
HIDDEN
 62
     7
370
     0
100
AcDbLine
 10
243.3865780325
 20
100.412977466
 30
0.0
 11
242.6585549104
 21
99.6427513084
 31
0.0
  0
LINE
  5
169
330
1F
100
AcDbEntity
  8
0
  6
HIDDEN
 62
     7
370
     0
100
AcDbLine
 10
242.7279570946
 20
97.1446794608
 30
0.0
 11
243.4976215273
 21
96.4160625098
 31
0.0
  0
LINE
  5
16A
330
1F
100
AcDbEntity
  8
0
  6
HIDDEN
 62
     7
370
     0
100
AcDbLine
 10
250.407515445
 20
100.6088069706
 30
0.0
 11
243.3880979419
 21
100.4137913999
 31
0.0
  0
LINE
  5
16B
330
1F
100
AcDbEntity
  8
0
  6
HIDDEN
 62
     7
370
     0
100
AcDbLine
 10
243.4991842833
 20
96.4153342194
 30
0.0
 11
250.5186017863
 21
96.61034979
 31
0.0
  0
LINE
  5
16C
330
1F
100
AcDbEntity
  8
0
  6
HIDDEN
 62
     7
370
     0
100
AcDbLine
 10
250.5212071582
 20
96.6127381893
 30
0.0
 11
250.6487918096
 21
96.8489935363
 31
0.0
  0
LINE
  5
16D
330
1F
100
AcDbEntity
  8
0
  6
HIDDEN
 62
     7
370
     0
100
AcDbLine
 10
250.6455402117
 20
100.2234049704
 30
0.0
 11
250.4102494061
 21
100.6065669102
 31
0.0
  0
LINE
  5
16E
330
1F
100
AcDbEntity
  8
0
  6
HIDDEN
 62
     7
370
     0
100
AcDbLine
 10
250.3317297746
 20
127.0306830885
 30
0.0
 11
250.5670205802
 21
127.4138450283
 31
0.0
  0
LINE
  5
16F
330
1F
100
AcDbEntity
  8
0
  6
HIDDEN
 62
     7
370
     0
100
AcDbLine
 10
250.6487918096
 20
130.6428574462
 30
0.0
 11
250.4426875267
 21
131.0245118093
 31
0.0
  0
LINE
  5
170
330
1F
100
AcDbEntity
  8
0
  6
HIDDEN
 62
     7
370
     0
100
AcDbLine
 10
250.4400821548
 20
131.0269002087
 30
0.0
 11
243.4206646517
 21
131.2219157793
 31
0.0
  0
LINE
  5
171
330
1F
100
AcDbEntity
  8
0
  6
HIDDEN
 62
     7
370
     0
100
AcDbLine
 10
243.3095783104
 20
127.2234585987
 30
0.0
 11
250.3289958135
 21
127.0284430281
 31
0.0
  0
LINE
  5
172
330
1F
100
AcDbEntity
  8
0
  6
HIDDEN
 62
     7
370
     0
100
AcDbLine
 10
243.4191018958
 20
131.2211874888
 30
0.0
 11
242.6494374631
 21
130.4925705379
 31
0.0
  0
LINE
  5
173
330
1F
100
AcDbEntity
  8
0
  6
HIDDEN
 62
     7
370
     0
100
AcDbLine
 10
242.5800352789
 20
127.9944986902
 30
0.0
 11
243.308058401
 21
127.2242725327
 31
0.0
  0
LINE
  5
174
330
1F
100
AcDbEntity
  8
0
  6
HIDDEN
 62
     7
370
     0
100
AcDbLine
 10
90.6487918096
 20
74.4128513147
 30
0.0
 11
90.7383934335
 21
75.0503999966
 31
0.0
  0
LINE
  5
175
330
1F
100
AcDbEntity
  8
0
  6
HIDDEN
 62
     7
370
     0
100
AcDbLine
 10
90.7383934335
 20
152.584668546
 30
0.0
 11
90.6487918096
 21
153.2222172279
 31
0.0
  0
ARC
  5
176
330
1F
100
AcDbEntity
  8
0
  6
HIDDEN
 62
     7
370
     0
100
AcDbCircle
 10
89.7518548911
 20
75.1890489469
 30
0.0
 40
0.996233821438679
100
AcDbArc
 50
352.0
 51
0.0
  0
ARC
  5
177
330
1F
100
AcDbEntity
  8
0
  6
HIDDEN
 62
     7
370
     0
100
AcDbCircle
 10
89.7518548911
 20
75.1890489469
 30
0.0
 40
0.9962338214386854
100
AcDbArc
 50
0.0
 51
25.7988228126
  0
ARC
  5
178
330
1F
100
AcDbEntity
  8
0
  6
HIDDEN
 62
     7
370
     0
100
AcDbCircle
 10
89.7518548911
 20
152.4460195957
 30
0.0
 40
0.9962338214386743
100
AcDbArc
 50
348.75
 51
8.0
  0
LWPOLYLINE
  5
179
330
1F
100
AcDbEntity
  8
0
  6
HIDDEN
 62
     7
370
     0
100
AcDbPolyline
 90
        3
 70
   128
 43
0.0
 10
90.728946359
 20
152.2516640187
 10
90.6722549284
 20
152.0647774175
 10
90.6487918096
 20
152.0124460826
  0
LINE
  5
17A
330
1F
100
AcDbEntity
  8
0
  6
HIDDEN
 62
     7
370
     0
100
AcDbLine
 10
90.7480887126
 20
75.1890489469
 30
0.0
 11
90.7480887126
 21
152.4460195957
 31
0.0
  0
ARC
  5
17B
330
1F
100
AcDbEntity
  8
0
  6
HIDDEN
 62
     7
370
     0
100
AcDbCircle
 10
64.1095177518
 20
83.3175342713
 30
0.0
 40
1.000000000000008
100
AcDbArc
 50
210.0
 51
270.0
  0
ARC
  5
17C
330
1F
100
AcDbEntity
  8
0
  6
HIDDEN
 62
     7
370
     0
100
AcDbCircle
 10
64.1095177518
 20
144.3175342713
 30
0.0
 40
1.000000000000008
100
AcDbArc
 50
90.0
 51
150.0
  0
ARC
  5
17D
330
1F
100
AcDbEntity
  8
0
  6
HIDDEN
 62
     7
370
     0
100
AcDbCircle
 10
80.9019974648
 20
94.3175342713
 30
0.0
 40
11.99999999999999
100
AcDbArc
 50
273.177068164
 51
324.3146652873
  0
ARC
  5
17E
330
1F
100
AcDbEntity
  8
0
  6
HIDDEN
 62
     7
370
     0
100
AcDbCircle
 10
80.9019974648
 20
133.3175342713
 30
0.0
 40
12.00000000000001
100
AcDbArc
 50
35.6853347127
 51
86.821131779
  0
LINE
  5
17F
330
1F
100
AcDbEntity
  8
0
  6
HIDDEN
 62
     7
370
     0
100
AcDbLine
 10
64.1095177518
 20
82.3175342713
 30
0.0
 11
69.6946218602
 21
82.3175342713
 31
0.0
  0
LINE
  5
180
330
1F
100
AcDbEntity
  8
0
  6
HIDDEN
 62
     7
370
     0
100
AcDbLine
 10
69.6946218602
 20
145.3175342713
 30
0.0
 11
64.1095177518
 21
145.3175342713
 31
0.0
  0
LINE
  5
181
330
1F
100
AcDbEntity
  8
0
  6
HIDDEN
 62
     7
370
     0
100
AcDbLine
 10
63.243492348
 20
144.8175342713
 30
0.0
 11
60.6454161366
 21
140.3175342713
 31
0.0
  0
LINE
  5
182
330
1F
100
AcDbEntity
  8
0
  6
HIDDEN
 62
     7
370
     0
100
AcDbLine
 10
60.6454161366
 20
87.3175342713
 30
0.0
 11
63.243492348
 21
82.8175342713
 31
0.0
  0
ARC
  5
183
330
1F
100
AcDbEntity
  8
0
  6
HIDDEN
 62
     7
370
     0
100
AcDbCircle
 10
101.0987918096
 20
88.9425342713
 30
0.0
 40
2.000000000000014
100
AcDbArc
 50
234.3409123039
 51
0.0
  0
ARC
  5
184
330
1F
100
AcDbEntity
  8
0
  6
HIDDEN
 62
     7
370
     0
100
AcDbCircle
 10
101.0987918096
 20
138.6925342713
 30
0.0
 40
2.000000000000014
100
AcDbArc
 50
0.0
 51
125.6590876961
  0
LINE
  5
185
330
1F
100
AcDbEntity
  8
0
  6
HIDDEN
 62
     7
370
     0
100
AcDbLine
 10
55.8487918096
 20
87.3175342713
 30
0.0
 11
60.6454161366
 21
87.3175342713
 31
0.0
  0
LINE
  5
186
330
1F
100
AcDbEntity
  8
0
  6
HIDDEN
 62
     7
370
     0
100
AcDbLine
 10
60.6454161366
 20
140.3175342713
 30
0.0
 11
50.8487918096
 21
140.3175342713
 31
0.0
  0
LINE
  5
187
330
1F
100
AcDbEntity
  8
0
  6
HIDDEN
 62
     7
370
     0
100
AcDbLine
 10
90.6487918096
 20
87.3175342713
 30
0.0
 11
99.932869428
 21
87.3175342713
 31
0.0
  0
LINE
  5
188
330
1F
100
AcDbEntity
  8
0
  6
HIDDEN
 62
     7
370
     0
100
AcDbLine
 10
99.932869428
 20
140.3175342713
 30
0.0
 11
90.6487918096
 21
140.3175342713
 31
0.0
  0
LINE
  5
189
330
1F
100
AcDbEntity
  8
0
  6
HIDDEN
 62
     7
370
     0
100
AcDbLine
 10
94.6487918096
 20
159.4890876504
 30
0.0
 11
94.6487918096
 21
155.79494805
 31
0.0
  0
LINE
  5
18A
330
1F
100
AcDbEntity
  8
0
  6
HIDDEN
 62
     7
370
     0
100
AcDbLine
 10
104.6487918096
 20
155.79494805
 30
0.0
 11
104.6487918096
 21
159.4945959088
 31
0.0
  0
LINE
  5
18B
330
1F
100
AcDbEntity
  8
0
  6
HIDDEN
 62
     7
370
     0
100
AcDbLine
 10
192.1487918096
 20
98.1456441336
 30
0.0
 11
192.1487918096
 21
102.2938529565
 31
0.0
  0
LINE
  5
18C
330
1F
100
AcDbEntity
  8
0
  6
HIDDEN
 62
     7
370
     0
100
AcDbLine
 10
192.1487918096
 20
95.0792045699
 30
0.0
 11
192.1487918096
 21
95.8332321181
 31
0.0
  0
LINE
  5
18D
330
1F
100
AcDbEntity
  8
0
  6
HIDDEN
 62
     7
370
     0
100
AcDbLine
 10
188.1487918096
 20
102.2917234941
 30
0.0
 11
188.1487918096
 21
95.0792045699
 31
0.0
  0
LINE
  5
18E
330
1F
100
AcDbEntity
  8
0
  6
HIDDEN
 62
     7
370
     0
100
AcDbLine
 10
191.7735379064
 20
95.328411786
 30
0.0
 11
250.6487918096
 21
96.9641018172
 31
0.0
  0
LINE
  5
18F
330
1F
100
AcDbEntity
  8
0
  6
HIDDEN
 62
     7
370
     0
100
AcDbLine
 10
250.6487918096
 20
100.2653751344
 30
0.0
 11
191.7726130789
 21
98.6296594093
 31
0.0
  0
ARC
  5
190
330
1F
100
AcDbEntity
  8
0
  6
HIDDEN
 62
     7
370
     0
100
AcDbCircle
 10
250.1487918096
 20
97.3175342713
 30
0.0
 40
0.5
100
AcDbArc
 50
0.0
 51
90.0
  0
ARC
  5
191
330
1F
100
AcDbEntity
  8
0
  6
HIDDEN
 62
     7
370
     0
100
AcDbCircle
 10
250.1487918096
 20
130.3175342713
 30
0.0
 40
0.5
100
AcDbArc
 50
270.0
 51
0.0
  0
ARC
  5
192
330
1F
100
AcDbEntity
  8
0
  6
HIDDEN
 62
     7
370
     0
100
AcDbCircle
 10
188.0487918096
 20
97.9175342713
 30
0.0
 40
0.4000000000000341
100
AcDbArc
 50
180.0
 51
270.0
  0
ARC
  5
193
330
1F
100
AcDbEntity
  8
0
  6
HIDDEN
 62
     7
370
     0
100
AcDbCircle
 10
188.0487918096
 20
129.7175342713
 30
0.0
 40
0.4000000000000341
100
AcDbArc
 50
90.0
 51
180.0
  0
LINE
  5
194
330
1F
100
AcDbEntity
  8
0
  6
HIDDEN
 62
     7
370
     0
100
AcDbLine
 10
188.0487918096
 20
97.5175342713
 30
0.0
 11
192.7540177915
 21
97.5175342713
 31
0.0
  0
LINE
  5
195
330
1F
100
AcDbEntity
  8
0
  6
HIDDEN
 62
     7
370
     0
100
AcDbLine
 10
192.7540177915
 20
130.1175342713
 30
0.0
 11
188.0487918096
 21
130.1175342713
 31
0.0
  0
LINE
  5
196
330
1F
100
AcDbEntity
  8
0
  6
HIDDEN
 62
     7
370
     0
100
AcDbLine
 10
193.6487918096
 20
97.8175342713
 30
0.0
 11
250.1487918096
 21
97.8175342713
 31
0.0
  0
LINE
  5
197
330
1F
100
AcDbEntity
  8
0
  6
HIDDEN
 62
     7
370
     0
100
AcDbLine
 10
250.1487918096
 20
129.8175342713
 30
0.0
 11
193.6487918096
 21
129.8175342713
 31
0.0
  0
ARC
  5
198
330
1F
100
AcDbEntity
  8
0
  6
HIDDEN
 62
     7
370
     0
100
AcDbCircle
 10
192.7540177915
 20
97.9175342713
 30
0.0
 40
0.4000000000000171
100
AcDbArc
 50
270.0
 51
290.0
  0
ARC
  5
199
330
1F
100
AcDbEntity
  8
0
  6
HIDDEN
 62
     7
370
     0
100
AcDbCircle
 10
192.7540177915
 20
129.7175342713
 30
0.0
 40
0.4000000000000305
100
AcDbArc
 50
70.0
 51
90.0
  0
LINE
  5
19A
330
1F
100
AcDbEntity
  8
0
  6
HIDDEN
 62
     7
370
     0
100
AcDbLine
 10
192.8908258488
 20
97.541657223
 30
0.0
 11
193.6487918096
 21
97.8175342713
 31
0.0
  0
LINE
  5
19B
330
1F
100
AcDbEntity
  8
0
  6
HIDDEN
 62
     7
370
     0
100
AcDbLine
 10
193.6487918096
 20
129.8175342713
 30
0.0
 11
192.8908258488
 21
130.0934113196
 31
0.0
  0
LINE
  5
19C
330
1F
100
AcDbEntity
  8
0
  6
HIDDEN
 62
     7
370
     0
100
AcDbLine
 10
114.9487918096
 20
100.8175342713
 30
0.0
 11
118.9487918096
 21
100.8175342713
 31
0.0
  0
LINE
  5
19D
330
1F
100
AcDbEntity
  8
0
  6
HIDDEN
 62
     7
370
     0
100
AcDbLine
 10
118.9487918096
 20
126.8175342713
 30
0.0
 11
114.9487918096
 21
126.8175342713
 31
0.0
  0
LINE
  5
19E
330
1F
100
AcDbEntity
  8
0
  6
HIDDEN
 62
     7
370
     0
100
AcDbLine
 10
103.0987918096
 20
101.8175342713
 30
0.0
 11
103.8487918096
 21
102.5675342713
 31
0.0
  0
LINE
  5
19F
330
1F
100
AcDbEntity
  8
0
  6
HIDDEN
 62
     7
370
     0
100
AcDbLine
 10
103.8487918096
 20
125.0675342713
 30
0.0
 11
103.0987918096
 21
125.8175342713
 31
0.0
  0
LINE
  5
1A0
330
1F
100
AcDbEntity
  8
0
  6
HIDDEN
 62
     7
370
     0
100
AcDbLine
 10
103.8487918096
 20
102.5675342713
 30
0.0
 11
114.9487918096
 21
102.5675342713
 31
0.0
  0
LINE
  5
1A1
330
1F
100
AcDbEntity
  8
0
  6
HIDDEN
 62
     7
370
     0
100
AcDbLine
 10
114.9487918096
 20
125.0675342713
 30
0.0
 11
103.8487918096
 21
125.0675342713
 31
0.0
  0
LINE
  5
1A2
330
1F
100
AcDbEntity
  8
0
  6
HIDDEN
 62
     7
370
     0
100
AcDbLine
 10
95.5987918096
 20
163.8175342713
 30
0.0
 11
95.5987918096
 21
157.7175342713
 31
0.0
  0
LINE
  5
1A3
330
1F
100
AcDbEntity
  8
0
  6
HIDDEN
 62
     7
370
     0
100
AcDbLine
 10
82.0815044256
 20
76.2392547007
 30
0.0
 11
81.6487951391
 21
76.7174794181
 31
0.0
  0
LINE
  5
1A4
330
1F
100
AcDbEntity
  8
0
  6
HIDDEN
 62
     7
370
     0
100
AcDbLine
 10
69.6487922676
 20
77.3644407748
 30
0.0
 11
69.1681649624
 21
76.8862160639
 31
0.0
  0
LINE
  5
1A5
330
1F
100
AcDbEntity
  8
0
  6
HIDDEN
 62
     7
370
     0
100
AcDbLine
 10
69.1680466209
 20
150.7488465625
 30
0.0
 11
69.648792085
 21
150.2705668907
 31
0.0
  0
LINE
  5
1A6
330
1F
100
AcDbEntity
  8
0
  6
HIDDEN
 62
     7
370
     0
100
AcDbLine
 10
81.6487918117
 20
150.917539278
 30
0.0
 11
82.0816134814
 21
151.3958189509
 31
0.0
  0
LINE
  5
1A7
330
1F
100
AcDbEntity
  8
0
  6
HIDDEN
 62
     7
370
     0
100
AcDbLine
 10
81.6487918096
 20
145.2834121984
 30
0.0
 11
81.6487918096
 21
151.0175431041
 31
0.0
  0
LINE
  5
1A8
330
1F
100
AcDbEntity
  8
0
  6
HIDDEN
 62
     7
370
     0
100
AcDbLine
 10
69.6487918096
 20
150.2705563914
 30
0.0
 11
69.6487918096
 21
145.3090549033
 31
0.0
  0
LINE
  5
1A9
330
1F
100
AcDbEntity
  8
0
  6
HIDDEN
 62
     7
370
     0
100
AcDbLine
 10
81.6487918096
 20
76.6173505755
 30
0.0
 11
81.6487918096
 21
82.3516563442
 31
0.0
  0
LINE
  5
1AA
330
1F
100
AcDbEntity
  8
0
  6
HIDDEN
 62
     7
370
     0
100
AcDbLine
 10
69.6487918096
 20
82.3260136393
 30
0.0
 11
69.6487918096
 21
77.3644791893
 31
0.0
  0
LINE
  5
1AB
330
1F
100
AcDbEntity
  8
0
  6
HIDDEN
 62
     7
370
     0
100
AcDbLine
 10
118.9487918096
 20
107.8175342713
 30
0.0
 11
187.6487918096
 21
107.8175342713
 31
0.0
  0
LINE
  5
1AC
330
1F
100
AcDbEntity
  8
0
  6
HIDDEN
 62
     7
370
     0
100
AcDbLine
 10
187.6487918096
 20
119.8175342713
 30
0.0
 11
118.9487918096
 21
119.8175342713
 31
0.0
  0
LINE
  5
1AD
330
1F
100
AcDbEntity
  8
0
  6
HIDDEN
 62
     7
370
     0
100
AcDbLine
 10
163.0987918096
 20
77.8175342713
 30
0.0
 11
162.0987918096
 21
78.3948845405
 31
0.0
  0
LINE
  5
1AE
330
1F
100
AcDbEntity
  8
0
  6
HIDDEN
 62
     7
370
     0
100
AcDbLine
 10
157.0987918096
 20
78.3948845405
 30
0.0
 11
156.0987918096
 21
77.8175342713
 31
0.0
  0
LINE
  5
1AF
330
1F
100
AcDbEntity
  8
0
  6
HIDDEN
 62
     7
370
     0
100
AcDbLine
 10
156.0987918096
 20
149.8175342713
 30
0.0
 11
157.0987918096
 21
149.2401840021
 31
0.0
  0
LINE
  5
1B0
330
1F
100
AcDbEntity
  8
0
  6
HIDDEN
 62
     7
370
     0
100
AcDbLine
 10
162.0987918096
 20
149.2401840021
 30
0.0
 11
163.0987918096
 21
149.8175342713
 31
0.0
  0
LINE
  5
1B1
330
1F
100
AcDbEntity
  8
0
  6
HIDDEN
 62
     7
370
     0
100
AcDbLine
 10
157.0987918096
 20
149.2401840021
 30
0.0
 11
157.0987918096
 21
135.8175342713
 31
0.0
  0
LINE
  5
1B2
330
1F
100
AcDbEntity
  8
0
  6
HIDDEN
 62
     7
370
     0
100
AcDbLine
 10
162.0987918096
 20
135.8175342713
 30
0.0
 11
162.0987918096
 21
149.2401840021
 31
0.0
  0
LINE
  5
1B3
330
1F
100
AcDbEntity
  8
0
  6
HIDDEN
 62
     7
370
     0
100
AcDbLine
 10
157.0987918096
 20
135.8175342713
 30
0.0
 11
159.5987918096
 21
134.3153827237
 31
0.0
  0
LINE
  5
1B4
330
1F
100
AcDbEntity
  8
0
  6
HIDDEN
 62
     7
370
     0
100
AcDbLine
 10
159.5987918096
 20
134.3153827237
 30
0.0
 11
162.0987918096
 21
135.8175342713
 31
0.0
  0
LINE
  5
1B5
330
1F
100
AcDbEntity
  8
0
  6
HIDDEN
 62
     7
370
     0
100
AcDbLine
 10
162.0987918096
 20
78.3948845405
 30
0.0
 11
162.0987918096
 21
91.8175342713
 31
0.0
  0
LINE
  5
1B6
330
1F
100
AcDbEntity
  8
0
  6
HIDDEN
 62
     7
370
     0
100
AcDbLine
 10
157.0987918096
 20
91.8175342713
 30
0.0
 11
157.0987918096
 21
78.3948845405
 31
0.0
  0
LINE
  5
1B7
330
1F
100
AcDbEntity
  8
0
  6
HIDDEN
 62
     7
370
     0
100
AcDbLine
 10
162.0987918096
 20
91.8175342713
 30
0.0
 11
159.5987918096
 21
93.3196858189
 31
0.0
  0
LINE
  5
1B8
330
1F
100
AcDbEntity
  8
0
  6
HIDDEN
 62
     7
370
     0
100
AcDbLine
 10
159.5987918096
 20
93.3196858189
 30
0.0
 11
157.0987918096
 21
91.8175342713
 31
0.0
  0
LINE
  5
1B9
330
1F
100
AcDbEntity
  8
0
  6
HIDDEN
 62
     7
370
     0
100
AcDbLine
 10
94.6487918096
 20
161.3644057348
 30
0.0
 11
94.6487918096
 21
159.4890876504
 31
0.0
  0
LINE
  5
1BA
330
1F
100
AcDbEntity
  8
0
  6
HIDDEN
 62
     7
370
     0
100
AcDbLine
 10
104.6487918096
 20
159.4945959088
 30
0.0
 11
104.6487918096
 21
161.3701401675
 31
0.0
  0
LINE
  5
1BB
330
1F
100
AcDbEntity
  8
0
  6
HIDDEN
 62
     7
370
     0
100
AcDbLine
 10
192.1487918096
 20
131.802850201
 30
0.0
 11
192.1487918096
 21
132.2023105822
 31
0.0
  0
LINE
  5
1BC
330
1F
100
AcDbEntity
  8
0
  6
HIDDEN
 62
     7
370
     0
100
AcDbLine
 10
192.1487918096
 20
125.3433450485
 30
0.0
 11
192.1487918096
 21
129.4894880913
 31
0.0
  0
LINE
  5
1BD
330
1F
100
AcDbEntity
  8
0
  6
HIDDEN
 62
     7
370
     0
100
AcDbLine
 10
188.1487918096
 20
132.2023105822
 30
0.0
 11
188.1487918096
 21
125.3412155861
 31
0.0
  0
LINE
  5
1BE
330
1F
100
AcDbEntity
  8
0
  6
HIDDEN
 62
     7
370
     0
100
AcDbLine
 10
191.7717126724
 20
129.0054341486
 30
0.0
 11
250.6487918096
 21
127.3696934082
 31
0.0
  0
LINE
  5
1BF
330
1F
100
AcDbEntity
  8
0
  6
HIDDEN
 62
     7
370
     0
100
AcDbLine
 10
250.6487918096
 20
130.6709667254
 30
0.0
 11
191.7731131029
 21
132.3066685586
 31
0.0
  0
DIMENSION
  5
1C0
330
1F
100
AcDbEntity
  8
VERMASSUNG
100
AcDbDimension
  2
*D1
 10
34.8265373991
 20
63.8175342713
 30
0.0
 11
34.8265373991
 21
112.9115617585
 31
0.0
 70
   160
  1
HSK A %%c<>
 71
     2
 42
-1.0
  3
SLDDIMSTYLE0
100
AcDbAlignedDimension
 13
91.1487918096
 23
163.8175342713
 33
0.0
 14
91.1487918096
 24
63.8175342713
 34
0.0
 50
90.0
100
AcDbRotatedDimension
  0
DIMENSION
  5
1CD
330
1F
100
AcDbEntity
  8
VERMASSUNG
100
AcDbDimension
  2
*D2
 10
250.6487918096
 20
168.2388949079
 30
0.0
 11
185.1237918096
 21
168.2388949079
 31
0.0
 70
   160
 71
     2
 42
-1.0
  3
SLDDIMSTYLE0
100
AcDbAlignedDimension
 13
119.5987918096
 23
161.7862740921
 33
0.0
 14
250.6487918096
 24
138.9891071466
 34
0.0
100
AcDbRotatedDimension
  0
DIMENSION
  5
1D7
330
1F
100
AcDbEntity
  8
VERMASSUNG
100
AcDbDimension
  2
*D3
 10
250.6487918096
 20
174.2388949079
 30
0.0
 11
170.6487918096
 21
174.2388949079
 31
0.0
 70
   160
 71
     2
 42
-1.0
  3
SLDDIMSTYLE0
100
AcDbAlignedDimension
 13
90.6487918096
 23
163.3175342713
 33
0.0
 14
250.6487918096
 24
138.9891071466
 34
0.0
100
AcDbRotatedDimension
  0
DIMENSION
  5
1E1
330
1F
100
AcDbEntity
  8
VERMASSUNG
100
AcDbDimension
  2
*D4
 10
40.7487918096
 20
180.2388949079
 30
0.0
 11
145.6987918096
 21
180.2388949079
 31
0.0
 70
   160
 71
     2
 42
-1.0
  3
SLDDIMSTYLE0
100
AcDbAlignedDimension
 13
250.6487918096
 23
138.9891071466
 33
0.0
 14
40.7487918096
 24
144.3202040139
 34
0.0
100
AcDbRotatedDimension
  0
DIMENSION
  5
1EB
330
1F
100
AcDbEntity
  8
VERMASSUNG
100
AcDbDimension
  2
*D5
 10
259.0231795902
 20
97.8175342713
 30
0.0
 11
259.0231795902
 21
113.8175342713
 31
0.0
 70
   160
  1
%%c<>
 71
     2
 42
-1.0
  3
SLDDIMSTYLE0
100
AcDbAlignedDimension
 13
250.1487918096
 23
129.8175342713
 33
0.0
 14
250.1487918096
 24
97.8175342713
 34
0.0
 50
90.0
100
AcDbRotatedDimension
  0
DIMENSION
  5
1F6
330
1F
100
AcDbEntity
  8
VERMASSUNG
100
AcDbDimension
  2
*D6
 10
265.0231795902
 20
77.8175342713
 30
0.0
 11
265.0231795902
 21
113.8175342713
 31
0.0
 70
   160
  1
%%c<>
 71
     2
 42
-1.0
  3
SLDDIMSTYLE0
100
AcDbAlignedDimension
 13
239.8203646848
 23
149.8175342713
 33
0.0
 14
239.8203646848
 24
77.8175342713
 34
0.0
 50
90.0
100
AcDbRotatedDimension
  0
LINE
  5
201
330
1F
100
AcDbEntity
  8
VERMASSUNG
  6
CENTERX2
 62
     7
370
     0
100
AcDbLine
 10
38.4983224486
 20
113.8175342713
 30
0.0
 11
252.8448307244
 21
113.8175342713
 31
0.0
  0
OLE2FRAME
  5
202
330
1F
100
AcDbEntity
  8
0
100
AcDbOle2Frame
 70
     2
  3
Bitmap Image
 10
13.8511154363
 20
38.264191557
 30
0.0
 11
51.6290888628
 21
31.9806341108
 31
0.0
 71
     2
 72
     0
 73
     1
 90
    12928
310
80552BED0767C5B32B40DDAF6807D121434000000000000000006FFBDDFB85D0
310
4940DDAF6807D121434000000000000000006FFBDDFB85D04940416F4BD60AFB
310
3F4000000000000000002BED0767C5B32B40416F4BD60AFB3F40000000000000
310
0000000000000100000000010000010000000100000000000100000000320000
310
D0CF11E0A1B11AE1000000000000000000000000000000003E000300FEFF0900
310
0600000000000000000000000100000001000000000000000010000002000000
310
01000000FEFFFFFF0000000000000000FFFFFFFFFFFFFFFFFFFFFFFFFFFFFFFF
310
FFFFFFFFFFFFFFFFFFFFFFFFFFFFFFFFFFFFFFFFFFFFFFFFFFFFFFFFFFFFFFFF
310
FFFFFFFFFFFFFFFFFFFFFFFFFFFFFFFFFFFFFFFFFFFFFFFFFFFFFFFFFFFFFFFF
310
FFFFFFFFFFFFFFFFFFFFFFFFFFFFFFFFFFFFFFFFFFFFFFFFFFFFFFFFFFFFFFFF
310
FFFFFFFFFFFFFFFFFFFFFFFFFFFFFFFFFFFFFFFFFFFFFFFFFFFFFFFFFFFFFFFF
310
FFFFFFFFFFFFFFFFFFFFFFFFFFFFFFFFFFFFFFFFFFFFFFFFFFFFFFFFFFFFFFFF
310
FFFFFFFFFFFFFFFFFFFFFFFFFFFFFFFFFFFFFFFFFFFFFFFFFFFFFFFFFFFFFFFF
310
FFFFFFFFFFFFFFFFFFFFFFFFFFFFFFFFFFFFFFFFFFFFFFFFFFFFFFFFFFFFFFFF
310
FFFFFFFFFFFFFFFFFFFFFFFFFFFFFFFFFFFFFFFFFFFFFFFFFFFFFFFFFFFFFFFF
310
FFFFFFFFFFFFFFFFFFFFFFFFFFFFFFFFFFFFFFFFFFFFFFFFFFFFFFFFFFFFFFFF
310
FFFFFFFFFFFFFFFFFFFFFFFFFFFFFFFFFFFFFFFFFFFFFFFFFFFFFFFFFFFFFFFF
310
FFFFFFFFFFFFFFFFFFFFFFFFFFFFFFFFFFFFFFFFFFFFFFFFFFFFFFFFFFFFFFFF
310
FFFFFFFFFFFFFFFFFFFFFFFFFFFFFFFFFFFFFFFFFFFFFFFFFFFFFFFFFFFFFFFF
310
FFFFFFFFFFFFFFFFFFFFFFFFFFFFFFFFFFFFFFFFFFFFFFFFFFFFFFFFFFFFFFFF
310
FDFFFFFFFEFFFFFFFEFFFFFFFEFFFFFF05000000060000000700000008000000
310
090000000A0000000B0000000C0000000D0000000E0000000F00000010000000
310
11000000120000001300000014000000150000001600000017000000FEFFFFFF
310
FFFFFFFFFFFFFFFFFFFFFFFFFFFFFFFFFFFFFFFFFFFFFFFFFFFFFFFFFFFFFFFF
310
FFFFFFFFFFFFFFFFFFFFFFFFFFFFFFFFFFFFFFFFFFFFFFFFFFFFFFFFFFFFFFFF
310
FFFFFFFFFFFFFFFFFFFFFFFFFFFFFFFFFFFFFFFFFFFFFFFFFFFFFFFFFFFFFFFF
310
FFFFFFFFFFFFFFFFFFFFFFFFFFFFFFFFFFFFFFFFFFFFFFFFFFFFFFFFFFFFFFFF
310
FFFFFFFFFFFFFFFFFFFFFFFFFFFFFFFFFFFFFFFFFFFFFFFFFFFFFFFFFFFFFFFF
310
FFFFFFFFFFFFFFFFFFFFFFFFFFFFFFFFFFFFFFFFFFFFFFFFFFFFFFFFFFFFFFFF
310
FFFFFFFFFFFFFFFFFFFFFFFFFFFFFFFFFFFFFFFFFFFFFFFFFFFFFFFFFFFFFFFF
310
FFFFFFFFFFFFFFFFFFFFFFFFFFFFFFFFFFFFFFFFFFFFFFFFFFFFFFFFFFFFFFFF
310
FFFFFFFFFFFFFFFFFFFFFFFFFFFFFFFFFFFFFFFFFFFFFFFFFFFFFFFFFFFFFFFF
310
FFFFFFFFFFFFFFFFFFFFFFFFFFFFFFFFFFFFFFFFFFFFFFFFFFFFFFFFFFFFFFFF
310
FFFFFFFFFFFFFFFFFFFFFFFFFFFFFFFFFFFFFFFFFFFFFFFFFFFFFFFFFFFFFFFF
310
FFFFFFFFFFFFFFFFFFFFFFFFFFFFFFFFFFFFFFFFFFFFFFFFFFFFFFFFFFFFFFFF
310
FFFFFFFFFFFFFFFFFFFFFFFFFFFFFFFFFFFFFFFFFFFFFFFFFFFFFFFFFFFFFFFF
310
52006F006F007400200045006E00740072007900000000000000000000000000
310
0000000000000000000000000000000000000000000000000000000000000000
310
16000500FFFFFFFFFFFFFFFF020000000A00030000000000C000000000000046
310
000000000000000000000000902881930A00CC0103000000C000000000000000
310
01004F006C006500000000000000000000000000000000000000000000000000
310
0000000000000000000000000000000000000000000000000000000000000000
310
0A000200FFFFFFFFFFFFFFFFFFFFFFFF00000000000000000000000000000000
310
0000000000000000000000000000000000000000000000001400000000000000
310
010043006F006D0070004F0062006A0000000000000000000000000000000000
310
0000000000000000000000000000000000000000000000000000000000000000
310
120002010100000003000000FFFFFFFF00000000000000000000000000000000
310
0000000000000000000000000000000000000000010000004D00000000000000
310
01004F006C006500310030004E00610074006900760065000000000000000000
310
0000000000000000000000000000000000000000000000000000000000000000
310
1A000200FFFFFFFFFFFFFFFFFFFFFFFF00000000000000000000000000000000
310
0000000000000000000000000000000000000000040000002426000000000000
310
FEFFFFFF02000000FEFFFFFFFFFFFFFFFFFFFFFFFFFFFFFFFFFFFFFFFFFFFFFF
310
FFFFFFFFFFFFFFFFFFFFFFFFFFFFFFFFFFFFFFFFFFFFFFFFFFFFFFFFFFFFFFFF
310
FFFFFFFFFFFFFFFFFFFFFFFFFFFFFFFFFFFFFFFFFFFFFFFFFFFFFFFFFFFFFFFF
310
FFFFFFFFFFFFFFFFFFFFFFFFFFFFFFFFFFFFFFFFFFFFFFFFFFFFFFFFFFFFFFFF
310
FFFFFFFFFFFFFFFFFFFFFFFFFFFFFFFFFFFFFFFFFFFFFFFFFFFFFFFFFFFFFFFF
310
FFFFFFFFFFFFFFFFFFFFFFFFFFFFFFFFFFFFFFFFFFFFFFFFFFFFFFFFFFFFFFFF
310
FFFFFFFFFFFFFFFFFFFFFFFFFFFFFFFFFFFFFFFFFFFFFFFFFFFFFFFFFFFFFFFF
310
FFFFFFFFFFFFFFFFFFFFFFFFFFFFFFFFFFFFFFFFFFFFFFFFFFFFFFFFFFFFFFFF
310
FFFFFFFFFFFFFFFFFFFFFFFFFFFFFFFFFFFFFFFFFFFFFFFFFFFFFFFFFFFFFFFF
310
FFFFFFFFFFFFFFFFFFFFFFFFFFFFFFFFFFFFFFFFFFFFFFFFFFFFFFFFFFFFFFFF
310
FFFFFFFFFFFFFFFFFFFFFFFFFFFFFFFFFFFFFFFFFFFFFFFFFFFFFFFFFFFFFFFF
310
FFFFFFFFFFFFFFFFFFFFFFFFFFFFFFFFFFFFFFFFFFFFFFFFFFFFFFFFFFFFFFFF
310
FFFFFFFFFFFFFFFFFFFFFFFFFFFFFFFFFFFFFFFFFFFFFFFFFFFFFFFFFFFFFFFF
310
FFFFFFFFFFFFFFFFFFFFFFFFFFFFFFFFFFFFFFFFFFFFFFFFFFFFFFFFFFFFFFFF
310
FFFFFFFFFFFFFFFFFFFFFFFFFFFFFFFFFFFFFFFFFFFFFFFFFFFFFFFFFFFFFFFF
310
FFFFFFFFFFFFFFFFFFFFFFFFFFFFFFFFFFFFFFFFFFFFFFFFFFFFFFFFFFFFFFFF
310
0100000200000000000000000000000000000000610072003D0082005C003107
310
9806250000000000604E280000000000680061007200650064005C003B004300
310
0100FEFF030A0000FFFFFFFF0A00030000000000C00000000000004607000000
310
5042727573680007000000504272757368000700000050427275736800F439B2
310
71000000000000000000000000004100540049002E004100430045005C004300
310
6F00720065002D005300740061007400690063003B0043003A005C0050007200
310
6F006700720061006D002000460069006C006500730020002800780038003600
310
29005C0043006F006D006D006F006E002000460069006C00650073005C004100
310
750074006F006400650073006B0020005300680061007200650064005C003B00
310
43003A005C00500072006F006700720061006D002000460069006C0065007300
310
5C004E006F0072006D0061006E005C004E0070006D005C00420069006E000000
310
43003A005C00500072006F006700720061006D002000460069006C0065007300
310
5C0053006F006C006900640057006F0072006B007300200043006F0072007000
310
5C0053006F006C006900640057006F0072006B00730020002800320029005C00
310
730065007400750070005C0069003300380036005C0073007700610063007400
310
770069007A002E006500780065000000220043003A005C00500072006F006700
310
20260000424D0E260000000000003E00000028000000B40200006E0000000100
310
01000000000000000000130B0000130B00000200000002000000000000FFFFFF
310
FFFFFFFFFFFFFFFFFFFFFFFFFFFFFFFFFFFFFFFFFFFFFFFFFFFFFFFFFFFFFFFF
310
FFFFFFFFFFFFFFFFFFFFFFFFFFFFFFFFFFFFFFFFFFFFFFFFFFFFFFFFFFFFFFFF
310
FFFFFFFFFFFFFFFFFFFFFFFFFFFFFFFFFFFFFFFFFFFFFFFFF000FFFFFFFFFFFF
310
FFFFFFFFFFFFFFFFFFFFFFFFFFFFFFFFFFFFFFFFFFFFFFFFFFFFFFFFFFFFFFFF
310
FFFFFFFFFFFFFFFFFFFFFFFFFFFFFFFFFFFFFFFFFFFFFFFFFFFFFFFFFFFFFFFF
310
FFFFFFFFFFFFFFFFFFFFFFFFFFFFFFFFF000FFFFFFFFFFFFFFFFFFFFFFFFFFFF
310
FFFFFFFFFFFFFFFFFFFFFFFFFFFFFFFFFFFFFFFFFFFFFFFFFFFFFFFFFFFFFFFF
310
FFFFFFFFFFFFFFFFFFFFFFFFFFFFFFFFFFFFFFFFFFFFFFFFFFFFFFFFFFFFFFFF
310
FFFFFFFFFFFFFFFFF000FFFFFFFFFFFFFFFFFFFFFFFFFFFFFFFFFFFFFFFFFFFF
310
FFFFFFFFFFFFFFFFFFFFFFFFFFFFFFFFFFFFFFFFFFFFFFFFFFFFFFFFFFFFFFFF
310
FFFFFFFFFFFFFFFFFFFFFFFFFFFFFFFFFFFFFFFFFFFFFFFFFFFFFFFFFFFFFFFF
310
F000FFFFFFFFFFFFFFFFFFFFFFFFFFFFFFFFFFFFFFFFFFFFFFFFFFFFFFFFFFFF
310
FFFFFFFFFFFFFFFFFFFFFFFFFFFFFFFFFFFFFFFFFFFFFFFFFFFFFFFFFFFFFFFF
310
FFFFFFFFFFFFFFFFFFFFFFFFFFFFFFFFFFFFFFFFFFFFFFFFF000FFFFFFFFFFFF
310
FFFFFFFFFFFFFFFFFFFFFFFFFFFFFFFFFFFFFFFFFFFFFFFFFFFFFFFFFFFFFFFF
310
FFFFFFFFFFFFFFFFFFFFFFFFFFFFFFFFFFFFFFFFFFFFFFFFFFFFFFFFFFFFFFFF
310
FFFFFFFFFFFFFFFFFFFFFFFFFFFFFFFFF000FFFFFFFFFFFFFFFFFFFFFFFFFFFF
310
FFFFFFFFFFFFFFFFFFFFFFFFFFFFFFFFFFFFFFFFFFFFFFFFFFFFFFFFFFFFFFFF
310
FFFFFFFFFFFFFFFFFFFFFFFFFFFFFFFFFFFFFFFFFFFFFFFFFFFFFFFFFFFFFFFF
310
FFFFFFFFFFFFFFFFF000FFFFFFFFFFFFFFFFFFFFFFFFFFFFFFFFFFFFFFFFFFFF
310
FFFFFFFFFFFFFFFFFFFFFFFFFFFFFFFFFFFFFFFFFFFFFFFFFFFFFFFFFFFFFFFF
310
FFFFFFFFFFFFFFFFFFFFFFFFFFFFFFFFFFFFFFFFFFFFFFFFFFFFFFFFFFFFFFFF
310
F000FFFFFFFFFFFFFFFFFFFFFFFFFFFFFFFFFFFFFFFFFFFFFFFFFFFFFFFFFFFF
310
FFFFFFFFFFFFFFFFFFFFFFFFFFFFFFFFFFFFFFFFFFFFFFFFFFFFFFFFFFFFFFFF
310
FFFFFFFFFFFFFFFFFFFFFFFFFFFFFFFFFFFFFFFFFFFFFFFFF000FFFFFFFFFFFF
310
FFFFFFFFFFFFFFFFFFFFFFFFFFFFFFFFFFFFFFFFFFFFFFFFFFFFFFFFFFFFFFFF
310
FFFFFFFFFFFFFFFFFFFFFFFFFFFFFFFFFFFFFFFFFFFFFFFFFFFFFFFFFFFFFFFF
310
FFFFFFFFFFFFFFFFFFFFFFFFFFFFFFFFF000FFFFFFFFFFFFFFFFFFFFFFFFFFFF
310
FFFFFFFFFFFFFFFFFFFFFFFFFFFFFFFFFFFFFFFFFFFFFFFFFFFFFFFFFFFFFFFF
310
FFFFFFFFFFFFFFFFFFFFFFFFFFFFFFFFFFFFFFFFFFFFFFFFFFFFFFFFFFFFFFFF
310
FFFFFFFFFFFFFFFFF000FFFFFFFFFFFFFFFFFFFFFFFFFFFFFFFFFFFFFFFFFFFF
310
FFFFFFFFFFFFFFFFFFFFFFFFFFFFFFFFFFFFFFFFFFFFFFFFFFFFFFFFFFFFFFFF
310
FFFFFFFFFFFFFFFFFFFFFFFFFFFFFFFFFFFFFFFFFFFFFFFFFFFFFFFFFFFFFFFF
310
F000FFFFFFFFFFFFFFFFFFFFFFFFFFFFFFFFFFFFFFFFFFFFFFFFFFFFFFFFFFFF
310
FFFFFFFFFFFFFFFFFFFFFFFFFFFFFFFFFFFFFFFFFFFFFFFFFFFFFFFFFFFFFFFF
310
FFFFFFFFFFFFFFFFFFFFFFFFFFFFFFFFFFFFFFFFFFFFFFFFF000FFFFFFFFFFFF
310
FFFFFFFFFFFFFFFFFFFFFFFFFFFFFFFFFFFFFFFFFFFFFFFFFFFFFFFFFFFFFFFF
310
FFFFFFFFFFFFFFFFFFFFFFFFFFFFFFFFFFFFFFFFFFFFFFFFFFFFFFFFFFFFFFFF
310
FFFFFFFFFFFFFFFFFFFFFFFFFFFFFFFFF000FFFFFFFFFFFFFFFFFFFFFFFFFFFF
310
FFFFFFFFFFFFFFFFFFFFFFFFFFFFFFFFFFFFFFFFFFFFFFFFFFFFFFFFFFFFFFFF
310
FFFFFFFFFFFFFFFFFFFFFFFFFFFFFFFFFFFFFFFFFFFFFFFFFFFFFFFFFFFFFFFF
310
FFFFFFFFFFFFFFFFF000FFFFFFFFFFFFFFFFFFFFFFFFFFFFFFFFFFFFFFFFFFFF
310
FFFFFFFFFFFFFFFFFFFFFFFFFFFFFFFFFFFFFFFFFFFFFFFFFFFFFFFFFFFFFFFF
310
FFFFFFFFFFFFFFFFFFFFFFFFFFFFFFFFFFFFFFFFFFFFFFFFFFFFFFFFFFFFFFFF
310
F000FFFFFFFFFFFFFFFFFFFFFFFFFFFFFFFFFFFFFFFFFFFFFFFFFFFFFFFFFFFF
310
FFFFFFFFFFFFFFFFFFFFFFFFFFFFFFFFFFFFFFFFFFFFFFFFFFFFFFFFFFFFFFFF
310
FFFFFFFFFFFFFFFFFFFFFFFFFFFFFFFFFFFFFFFFFFFFFFFFF000FFFFFFFFFFFF
310
FFFFFFFFFFFFFFFFFFFFFFFFFFFFFFFFFFFFFFFFFFFFFFFFFFFFFFFFFFFFFFFF
310
FFFFFFFFFFFFFFFFFFFFFFFFFFFFFFFFFFFFFFFFFFFFFFFFFFFFFFFFFFFFFFFF
310
FFFFFFFFFFFFFFFFFFFFFFFFFFFFFFFFF000FFFFFFFFFFFFFFFFFFFFFFFFFFFF
310
FFFFFFFFFFFFFFFFFFFFFFFFFFFFFFFFFFFFFFFFFFFFFFFFFFFFFFFFFFFFFFFF
310
FFFFFFFFFFFFFFFFFFFFFFFFFFFFFFFFFFFFFFFFFFFFFFFFFFFFFFFFFFFFFFFF
310
FFFFFFFFFFFFFFFFF000FFFFF80003FFFFFFFFFFFFFFFFFFFFFFFFFFFFFFFFFF
310
FFFFF00007FFFFFFFFFF00007FFFFFF800000000000000007FFFFFFFFFFFFFFF
310
FFFFFFFC001FFFFFFFFFFFFFFC001FFFFFFFFFFFFFFFFFFFFFFFFFFE0007FFFF
310
F000FFFF8000007FFFFFFFF8000FFFFFC0007FFFFF80007FFFFF0000007FFFFF
310
FFF8000007FFFFF800000000000000007FFFFFF0001FFFFFFFFFFFC00001FFFF
310
FFFFFFFFC00001FFFFFFFF000000000003FFFFE000007FFFF000FFFE0000000F
310
FFFFFFF0000FFFFF80007FFFFF80007FFFFC0000001FFFFFFFC0000001FFFFF8
310
00000000000000007FFFFFF0001FFFFFFFFFFE0000003FFFFFFFFFFE0000003F
310
FFFFFF000000000003FFFF0000000FFFF000FFF800000003FFFFFFF00007FFFF
310
80007FFFFF80007FFFF000000007FFFFFF000000003FFFF80000000000000000
310
7FFFFFF0001FFFFFFFFFF80000000FFFFFFFFFF80000000FFFFFFF0000000000
310
03FFFC00000003FFF000FFE000000000FFFFFFF00007FFFF80003FFFFF80007F
310
FFC000000001FFFFFC000000001FFFF800000000000000007FFFFFF0001FFFFF
310
FFFFE000000003FFFFFFFFE000000003FFFFFF000000000003FFF000000000FF
310
F000FF80000000007FFFFFF00007FFFF80003FFFFF80007FFF8000000000FFFF
310
F80000000007FFF800000000000000007FFFFFF0001FFFFFFFFFC000000001FF
310
FFFFFFC000000001FFFFFF000000000003FFC0000000007FF000FF0000000000
310
3FFFFFE00007FFFF00003FFFFF80007FFE00000000003FFFF00000000003FFF8
310
00000000000000007FFFFFF0001FFFFFFFFF8000000000FFFFFFFF8000000000
310
FFFFFF000000000003FF80000000003FF000FE00000000001FFFFFE00003FFFF
310
00003FFFFF80007FFC00000000001FFFE00000000001FFF8000001FFFE000000
310
7FFFFFF0001FFFFFFFFE00000000003FFFFFFE00000000003FFFFF0000000000
310
03FF00000000001FF000FC00000000000FFFFFE00003FFFF00001FFFFF80007F
310
F800000000001FFFC00000000000FFF8000001FFFE0000007FFFFFF0001FFFFF
310
FFFC00000000001FFFFFFC00000000001FFFFF000000000003FE00000000000F
310
F000F8000000000007FFFFE00003FFFF00001FFFFF80007FF800000000000FFF
310
800000000000FFF8000001FFFE0000007FFFFFF0001FFFFFFFF800000000000F
310
FFFFF800000000000FFFFF000000000003FC000000000007F000F80000000000
310
03FFFFC00003FFFE00001FFFFF80007FF0000000000007FF0000000000007FF8
310
000001FFFE0000007FFFFFF0001FFFFFFFF0000000000007FFFFF00000000000
310
07FFFF000000000003F8000000000003F000F0000000000003FFFFC00001FFFE
310
00001FFFFF80007FE0000000000007FE0000000000003FF8000001FFFE000000
310
7FFFFFF0001FFFFFFFF0000000000007FFFFF0000000000007FFFF0000000000
310
03F800001F800003F000E00001FFF00001FFFFC00001FFFE00000FFFFF80007F
310
E00001FFE00003FE00001FFF00003FF8000001FFFE0000007FFFFFF0001FFFFF
310
FFE000003E000003FFFFE000003E000003FFFF000000000003F00001FFF80001
310
F000E00007FFFC0001FFFFC00001FFFE00000FFFFF80007FC0000FFFFC0003FC
310
0000FFFFC0001FF8000001FFFE0000007FFFFFF0001FFFFFFFC00003FFE00001
310
FFFFC00003FFE00001FFFF0001FFFFFFFFF00007FFFE0001F000E0000FFFFF00
310
00FFFF800001FFFC00000FFFFF80007FC0001FFFFE0001FC0001FFFFE0001FF8
310
000001FFFE0000007FFFFFF0001FFFFFFF80000FFFF80000FFFF80000FFFF800
310
00FFFF0003FFFFFFFFE0000FFFFF8000F000C0003FFFFF8000FFFF800000FFFC
310
000007FFFF80007F80003FFFFF0001FC0003FFFFF0001FF8000001FFFE000000
310
7FFFFFF0001FFFFFFF80003FFFFE0000FFFF80003FFFFE0000FFFF0003FFFFFF
310
FFE0003FFFFF8000F000C0003FFFFF8000FFFF800000FFFC000007FFFF80007F
310
80007FFFFF8001F80007FFFFF8000FF8000001FFFE0000007FFFFFF0001FFFFF
310
FF00007FFFFF00007FFF00007FFFFF00007FFF0003FFFFFFFFE0003FFFFFC000
310
F000C0007FFFFFC000FFFF000000FFFC000007FFFF80007F8000FFFFFF8000F8
310
000FFFFFF8000FF8000001FFFE0000007FFFFFF0001FFFFFFF0000FFFFFF8000
310
7FFF0000FFFFFF80007FFF0003FFFFFFFFC0007FFFFFC00070008000FFFFFFC0
310
00FFFF000000FFF8000007FFFF80007F8000FFFFFF8000F8000FFFFFF8000FF8
310
000001FFFE0000007FFFFFF0001FFFFFFE0001FFFFFFC0003FFE0001FFFFFFC0
310
003FFF0003FFFFFFFFC0007FFFFFE00070008000FFFFFFC0007FFF0000007FF8
310
000003FFFF80007F0001FFFFFF8000F8000FFFFFF8000FF8000001FFFE000000
310
7FFFFFF0001FFFFFFE0001FFFFFFC0003FFE0001FFFFFFC0003FFF0003FFFFFF
310
FFC000FFFFFFE00070008000FFFFFFC0007FFF0000007FF8000003FFFF80007F
310
0001FFFFFF8000F8001FFFFFF8000FF8000001FFFE0000007FFFFFF0001FFFFF
310
FE0003FFFFFFE0003FFE0003FFFFFFE0003FFF0003FFFFFFFFC000FFFFFFE000
310
70008000FFFFFFC0007FFE0000007FF8000003FFFF80007F0001FFFFFF8000F0
310
001FFFFFF8000FF8000001FFFE0000007FFFFFF0001FFFFFFC0003FFFFFFE000
310
1FFC0003FFFFFFE0001FFF0003FFFFFFFFC000FFFFFFC00070008000FFFFFF80
310
007FFE0000007FF0000003FFFF80007F0001FFFFFF0000F0001FFFFFF8000FF8
310
000001FFFE0000007FFFFFF0001FFFFFFC0007FFFFFFF0001FFC0007FFFFFFF0
310
001FFF0003FFFFFFFFC000FFFFFFC00070008001FFFFFF0000FFFE0000003FF0
310
000001FFFF80007F0001FFFFFF0000F8001FFFFFF0000FF8000001FFFE000000
310
7FFFFFF0001FFFFFFC0007FFFFFFF0001FFC0007FFFFFFF0001FFF0003FFFFFF
310
FFC001FFFFFF80007000FFFFFFFFFE0000FFFE0008003FF0008001FFFF80007F
310
FFFFFFFFFC0000FFFFFFFFFFE0000FF8000001FFFE0000007FFFFFF0001FFFFF
310
F8000FFFFFFFF8000FF8000FFFFFFFF8000FFF0003FFFFFFFFFFFFFFFFFF0000
310
7000FFFFFFFFFC0000FFFC0008003FF0008001FFFF80007FFFFFFFFFF80001FF
310
FFFFFFFF80000FF8000001FFFE0000007FFFFFF0001FFFFFF8000FFFFFFFF800
310
0FF8000FFFFFFFF8000FFF0003FFFFFFFFFFFFFFFFFE0000F000FFFFFFFFE000
310
00FFFC000C003FE000C001FFFF80007FFFFFFFFFC00001FFFFFFFFFE00001FF8
310
000001FFFE0000007FFFFFF0001FFFFFF8000FFFFFFFF8000FF8000FFFFFFFF8
310
000FFF0003FFFFFFFFFFFFFFFFF00000F000FFFFFFFE000001FFFC000C001FE0
310
00C000FFFF80007FFFFFFFFE000001FFFFFFFFE000001FF80FFFFFFFFFFFFFC0
310
7FFFFFF0001FFFFFF8000FFFFFFFF8000FF8000FFFFFFFF8000FFF0003FFFFFF
310
FFFFFFFFFF800000F000FFFFFFC0000001FFFC001C001FE001C000FFFF80007F
310
FFFFFF80000003FFFFFFF80000001FF80FFFFFFFFFFFFFC07FFFFFF0001FFFFF
310
F8001FFFFFFFFC000FF8001FFFFFFFFC000FFF0003FFFFFFFFFFFFFFF0000001
310
F000FFFFF800000001FFF8001C001FE001C000FFFF80007FFFFFF800000003FF
310
FFFF800000003FF80FFFFFFFFFFFFFC07FFFFFF0001FFFFFF8001FFFFFFFFC00
310
0FF8001FFFFFFFFC000FFF0003FFFFFFFFFFFFFE00000001F000FFFFC0000000
310
03FFF8001E001FC001E000FFFF80007FFFFF8000000007FFFFFC000000003FF8
310
0FFFFFFFFFFFFFC07FFFFFF0001FFFFFF8001FFFFFFFFC000FF8001FFFFFFFFC
310
000FFF0003FFFFFFFFFFFFE000000003F000FFFE0000000007FFF8001E000FC0
310
01E0007FFF80007FFFFE0000000007FFFFE0000000007FF80FFFFFFFFFFFFFC0
310
7FFFFFF0001FFFFFF0001FFFFFFFFC0007F0001FFFFFFFFC0007FF0003FFFFFF
310
FFFFFF0000000003F000FFF80000000007FFF8001E000FC003E0007FFF80007F
310
FFF0000000000FFFFF8000000000FFF80FFFFFFFFFFFFFC07FFFFFF0001FFFFF
310
F0001FFFFFFFFC0007F0001FFFFFFFFC0007FF0003FFFFFFFFFFFC0000000007
310
F000FFE0000000000FFFF0003E000FC003E0007FFF80007FFFC0000000001FFF
310
FE0000000001FFF80FFFFFFFFFFFFFC07FFFFFF0001FFFFFF0001FFFFFFFFC00
310
07F0001FFFFFFFFC0007FF0003FFFFFFFFFFF0000000000FF000FFC000000000
310
1FFFF0003F000F8003F0003FFF80007FFF80000000003FFFF80000000003FFF8
310
0FFFFFFFFFFFFFC07FFFFFF0001FFFFFF0001FFFFFFFFC0007F0001FFFFFFFFC
310
0007FF0003FFFFFFFFFFE0000000001FF000FF00000000007FFFF0003F000780
310
03F0003FFF80007FFF00000000007FFFF00000000007FFF80FFFFFFFFFFFFFC0
310
7FFFFFF0001FFFFFF0001FFFFFFFFC0007F0001FFFFFFFFC0007FF0003FFFFFF
310
FFFF80000000007FF000FE0000000000FFFFE0003F00078007F0003FFF80007F
310
FE0000000001FFFFE0000000001FFFF80FFFFFFFFFFFFFC07FFFFFF0001FFFFF
310
F0001FFFFFFFFC0007F0001FFFFFFFFC0007FF0003FFFFFFFFFF0000000000FF
310
F000FC0000000003FFFFE0007F00078007F0003FFF80007FFC0000000007FFFF
310
C0000000007FFFF80FFFFFFFFFFFFFC07FFFFFF0001FFFFFF8001FFFFFFFFC00
310
0FF8001FFFFFFFFC000FFF0003FFFFFFFFFE0000000003FFF000FC000000000F
310
FFFFE0007F80070007F8001FFF80007FF8000000001FFFFF8000000001FFFFF8
310
0FFFFFFFFFFFFFC07FFFFFF0001FFFFFF8001FFFFFFFFC000FF8001FFFFFFFFC
310
000FFF0003FFFFFFFFFC000000000FFFF000F8000000007FFFFFE0007F800700
310
07F8001FFF80007FF000000000FFFFFF800000000FFFFFF80FFFFFFFFFFFFFC0
310
7FFFFFF0001FFFFFF8000FFFFFFFF8000FF8000FFFFFFFF8000FFF0003FFFFFF
310
FFFC000000007FFFF000F800000007FFFFFFC0007F8003000FF8001FFF80007F
310
F000000007FFFFFF000000007FFFFFF80FFFFFFFFFFFFFC07FFFFFF0001FFFFF
310
F8000FFFFFFFF8000FF8000FFFFFFFF8000FFF0003FFFFFFFFF80000000FFFFF
310
F000F0000000FFFFFFFFC000FF8003000FF8001FFF80007FE0000000FFFFFFFF
310
0000000FFFFFFFF8000001FFFE0000007FFFFFF0001FFFFFF8000FFFFFFFF800
310
0FF8000FFFFFFFF8000FFF0003FFFFFFFFF8000000FFFFFFF000F000000FFFFF
310
FFFFC000FFC002000FF8000FFF80007FE000001FFFFFFFFE000001FFFFFFFFF8
310
000001FFFE0000007FFFFFF0001FFFFFF8000FFFFFFFF8000FF8000FFFFFFFF8
310
000FFF0003FFFFFFFFF000001FFFFFFFF000E00000FFFFFFFFFFC000FFC00200
310
0FFC000FFF80007FE00001FFFFFFFFFE00001FFFFFFFFFF8000001FFFE000000
310
7FFFFFF0001FFFFFFC000FFFFFFFF8001FFC000FFFFFFFF8001FFF0003FFFFFF
310
FFF00001FFFFFFFFF000E00007FFFFFFFFFF8000FFC000001FFC000FFF80007F
310
C0000FFFFFFFFFFE0000FFFFFFFFFFF8000001FFFE0000007FFFFFF0001FFFFF
310
FC0007FFFFFFF0001FFC0007FFFFFFF0001FFF0003FFFFFFFFF00007FFFFFFFF
310
F000E0001FFFFFFFFFFF8000FFC000001FFC000FFF80007FC0003FFFFFFFFFFE
310
0001FFFFFFFFFFF8000001FFFE0000007FFFFFF0001FFFFFFC0007FFFFFFF000
310
1FFC0007FFFFFFF0001FFF0003FFFFFFFFF0001FFFFFFFFFF000E0003FFFFF00
310
03FF8001FFE000001FFC0007FF80007FC0007FFFFF0007FC0003FFFFF0003FF8
310
000001FFFE0000007FFFFFF0001FFFFFFC0003FFFFFFE0001FFC0003FFFFFFE0
310
001FFF0003FFFFFFFFF0003FFFFFFFFFF000E0003FFFFF0001FF8001FFE00000
310
1FFE0007FF80007FC0007FFFFE0003FC0007FFFFE0003FF8000001FFFE000000
310
7FFFFFF0001FFFFFFE0003FFFFFFE0003FFE0003FFFFFFE0003FFF0003FFFFFF
310
FFF0003FFFFF8001F000E0003FFFFF0001FF0001FFE000001FFE0007FF80007F
310
C0007FFFFE0003FC0007FFFFE0003FF8000001FFFE0000007FFFFFF0001FFFFF
310
FE0001FFFFFFC0003FFE0001FFFFFFC0003FFF0003FFFFFFFFF0003FFFFF0001
310
F000E0003FFFFF0003FF0001FFE000003FFE0007FF80007FC0007FFFFE0003FC
310
0007FFFFE0003FF8000001FFFE0000007FFFFFF0001FFFFFFF0001FFFFFFC000
310
7FFF0001FFFFFFC0007FFF0003FFFFFFFFF0003FFFFF0001F000E0003FFFFE00
310
03FF0003FFF000003FFE0003FF80007FC0007FFFFC0003FE0007FFFFE0003FF8
310
000001FFFE0000007FFFFFF0001FFFFFFF0000FFFFFF80007FFF0000FFFFFF80
310
007FFF0003FFFFFFFFF0003FFFFF0001F000E0003FFFFE0003FF0003FFF00000
310
3FFF0003FF80007FC0007FFFFC0007FE0007FFFFC0003FF8000001FFFE000000
310
7FFFFFF0001FFFFFFF80007FFFFF0000FFFF80007FFFFF0000FFFF0003FFFFFF
310
FFF0003FFFFF0003F000E0003FFFFC0003FE0003FFF000003FFF0003FF80007F
310
E0003FFFF80007FE0003FFFFC0007FF8000001FFFE0000007FFFFFF0001FFFFF
310
FF80003FFFFE0000FFFF80003FFFFE0000FFFF0003FFFFFFFFF0001FFFFE0003
310
F000F0001FFFF80003FE0003FFF000007FFF0001FF80007FE0003FFFF00007FE
310
0001FFFF80007FF8000001FFFE0000007FFFFFF0001FFFFFFFC0000FFFF80001
310
FFFFC0000FFFF80001FFFF0003FFFFFFFFF0001FFFFC0003F000F0000FFFF000
310
07FE0007FFF800007FFF0001FF80007FE0001FFFE00007FF0000FFFE00007FF8
310
000001FFFE0000007FFFFFF0001FFFFFFFC00003FFE00001FFFFC00003FFE000
310
01FFFF0003FFFFFFFFF8000FFFF80003F000F00003FFC00007FC0007FFF80000
310
7FFF8001FF80007FF00007FF80000FFF00007FF80000FFF8000001FFFE000000
310
7F80000000000001FFE000003E000003FFFFE000003E000003FFFF0003FFFFFF
310
FFF80003FFE00007F000F800000000000FFC0007FFF800007FFF8001FF80007F
310
F000000000000FFF000000000000FFF8000001FFFE0000007F80000000000001
310
FFF0000000000007FFFFF0000000000007FFFF0003FFFFFFFFFC00007E000007
310
F000F800000000000FFC0007FFF80000FFFF8000FF80007FF800000000001FFF
310
800000000001FFF8000001FFFE0000007F80000000000001FFF800000000000F
310
FFFFF800000000000FFFFF0003FFFFFFFFFC00000000000FF000FC0000000000
310
1FFC0007FFFC0000FFFF8000FF80007FF800000000003FFFC00000000001FFF8
310
000001FFFE0000007F80000000000001FFF800000000000FFFFFF80000000000
310
0FFFFF0003FFFFFFFFFE00000000001FF000FE00000000003FF8000FFFFC0000
310
FFFF8000FF80007FFC00000000003FFFC00000000003FFF8000001FFFE000000
310
7F80000000000001FFFC00000000001FFFFFFC00000000001FFFFF0003FFFFFF
310
FFFF00000000001FF000FF00000000003FF8000FFFFC0000FFFFC000FF80007F
310
FE00000000007FFFE00000000007FFF8000001FFFE0000007F80000000000001
310
FFFE00000000003FFFFFFE00000000003FFFFF0003FFFFFFFFFF80000000003F
310
F000FF80000000007FF8000FFFFC0001FFFFC0007F80007FFF0000000000FFFF
310
F0000000000FFFF800000000000000007F80000000000001FFFF8000000000FF
310
FFFFFF8000000000FFFFFF0003FFFFFFFFFFC0000000007FF000FFC000000000
310
FFF8000FFFFE0001FFFFC0007F80007FFF8000000001FFFFF8000000001FFFF8
310
00000000000000007F80000000000001FFFFC000000001FFFFFFFFC000000001
310
FFFFFF0003FFFFFFFFFFE000000000FFF000FFE000000003FFF0001FFFFE0001
310
FFFFC0007F80007FFFC000000007FFFFFE000000003FFFF80000000000000000
310
7F80000000000001FFFFE000000003FFFFFFFFE000000003FFFFFF0003FFFFFF
310
FFFFF000000003FFF000FFF80000000FFFF0001FFFFE0001FFFFE0007F80007F
310
FFF00000000FFFFFFF00000000FFFFF800000000000000007F80000000000001
310
FFFFF80000000FFFFFFFFFF80000000FFFFFFF0003FFFFFFFFFFFC0000000FFF
310
F000FFFE0000003FFFF0001FFFFE0003FFFFE0003F80007FFFFC0000003FFFFF
310
FFC0000003FFFFF800000000000000007F80000000000001FFFFFE0000003FFF
310
FFFFFFFE0000003FFFFFFF0003FFFFFFFFFFFF0000003FFFF000FFFF800000FF
310
FFF0001FFFFF0003FFFFE0003F80007FFFFF000001FFFFFFFFF800001FFFFFF8
310
00000000000000007F80000000000001FFFFFFC00001FFFFFFFFFFFFC00001FF
310
FFFFFF0003FFFFFFFFFFFFC00000FFFFF000FFFFF8000FFFFFFFFFFFFFFFFFFF
310
FFFFFFFFFFFFFFFFFFFFF0001FFFFFFFFFFF0000FFFFFFF80000000000000000
310
7FFFFFFFFFFFFFFFFFFFFFFC001FFFFFFFFFFFFFFC001FFFFFFFFFFFFFFFFFFF
310
FFFFFFFC001FFFFFF000FFFFFFFFFFFFFFFFFFFFFFFFFFFFFFFFFFFFFFFFFFFF
310
FFFFFFFFFFFFFFFFFFFFFFFFFFFFFFFFFFFFFFFFFFFFFFFFFFFFFFFFFFFFFFFF
310
FFFFFFFFFFFFFFFFFFFFFFFFFFFFFFFFFFFFFFFFFFFFFFFFFFFFFFFFFFFFFFFF
310
F000FFFFFFFFFFFFFFFFFFFFFFFFFFFFFFFFFFFFFFFFFFFFFFFFFFFFFFFFFFFF
310
FFFFFFFFFFFFFFFFFFFFFFFFFFFFFFFFFFFFFFFFFFFFFFFFFFFFFFFFFFFFFFFF
310
FFFFFFFFFFFFFFFFFFFFFFFFFFFFFFFFFFFFFFFFFFFFFFFFF000FFFFFFFFFFFF
310
FFFFFFFFFFFFFFFFFFFFFFFFFFFFFFFFFFFFFFFFFFFFFFFFFFFFFFFFFFFFFFFF
310
FFFFFFFFFFFFFFFFFFFFFFFFFFFFFFFFFFFFFFFFFFFFFFFFFFFFFFFFFFFFFFFF
310
FFFFFFFFFFFFFFFFFFFFFFFFFFFFFFFFF000FFFFFFFFFFFFFFFFFFFFFFFFFFFF
310
FFFFFFFFFFFFFFFFFFFFFFFFFFFFFFFFFFFFFFFFFFFFFFFFFFFFFFFFFFFFFFFF
310
FFFFFFFFFFFFFFFFFFFFFFFFFFFFFFFFFFFFFFFFFFFFFFFFFFFFFFFFFFFFFFFF
310
FFFFFFFFFFFFFFFFF000FFFFFFFFFFFFFFFFFFFFFFFFFFFFFFFFFFFFFFFFFFFF
310
FFFFFFFFFFFFFFFFFFFFFFFFFFFFFFFFFFFFFFFFFFFFFFFFFFFFFFFFFFFFFFFF
310
FFFFFFFFFFFFFFFFFFFFFFFFFFFFFFFFFFFFFFFFFFFFFFFFFFFFFFFFFFFFFFFF
310
F000FFFFFFFFFFFFFFFFFFFFFFFFFFFFFFFFFFFFFFFFFFFFFFFFFFFFFFFFFFFF
310
FFFFFFFFFFFFFFFFFFFFFFFFFFFFFFFFFFFFFFFFFFFFFFFFFFFFFFFFFFFFFFFF
310
FFFFFFFFFFFFFFFFFFFFFFFFFFFFFFFFFFFFFFFFFFFFFFFFF000FFFFFFFFFFFF
310
FFFFFFFFFFFFFFFFFFFFFFFFFFFFFFFFFFFFFFFFFFFFFFFFFFFFFFFFFFFFFFFF
310
FFFFFFFFFFFFFFFFFFFFFFFFFFFFFFFFFFFFFFFFFFFFFFFFFFFFFFFFFFFFFFFF
310
FFFFFFFFFFFFFFFFFFFFFFFFFFFFFFFFF000FFFFFFFFFFFFFFFFFFFFFFFFFFFF
310
FFFFFFFFFFFFFFFFFFFFFFFFFFFFFFFFFFFFFFFFFFFFFFFFFFFFFFFFFFFFFFFF
310
FFFFFFFFFFFFFFFFFFFFFFFFFFFFFFFFFFFFFFFFFFFFFFFFFFFFFFFFFFFFFFFF
310
FFFFFFFFFFFFFFFFF000FFFFFFFFFFFFFFFFFFFFFFFFFFFFFFFFFFFFFFFFFFFF
310
FFFFFFFFFFFFFFFFFFFFFFFFFFFFFFFFFFFFFFFFFFFFFFFFFFFFFFFFFFFFFFFF
310
FFFFFFFFFFFFFFFFFFFFFFFFFFFFFFFFFFFFFFFFFFFFFFFFFFFFFFFFFFFFFFFF
310
F000FFFFFFFFFFFFFFFFFFFFFFFFFFFFFFFFFFFFFFFFFFFFFFFFFFFFFFFFFFFF
310
FFFFFFFFFFFFFFFFFFFFFFFFFFFFFFFFFFFFFFFFFFFFFFFFFFFFFFFFFFFFFFFF
310
FFFFFFFFFFFFFFFFFFFFFFFFFFFFFFFFFFFFFFFFFFFFFFFFF000FFFFFFFFFFFF
310
FFFFFFFFFFFFFFFFFFFFFFFFFFFFFFFFFFFFFFFFFFFFFFFFFFFFFFFFFFFFFFFF
310
FFFFFFFFFFFFFFFFFFFFFFFFFFFFFFFFFFFFFFFFFFFFFFFFFFFFFFFFFFFFFFFF
310
FFFFFFFFFFFFFFFFFFFFFFFFFFFFFFFFF000FFFFFFFFFFFFFFFFFFFFFFFFFFFF
310
FFFFFFFFFFFFFFFFFFFFFFFFFFFFFFFFFFFFFFFFFFFFFFFFFFFFFFFFFFFFFFFF
310
FFFFFFFFFFFFFFFFFFFFFFFFFFFFFFFFFFFFFFFFFFFFFFFFFFFFFFFFFFFFFFFF
310
FFFFFFFFFFFFFFFFF000FFFFFFFFFFFFFFFFFFFFFFFFFFFFFFFFFFFFFFFFFFFF
310
FFFFFFFFFFFFFFFFFFFFFFFFFFFFFFFFFFFFFFFFFFFFFFFFFFFFFFFFFFFFFFFF
310
FFFFFFFFFFFFFFFFFFFFFFFFFFFFFFFFFFFFFFFFFFFFFFFFFFFFFFFFFFFFFFFF
310
F000FFFFFFFFFFFFFFFFFFFFFFFFFFFFFFFFFFFFFFFFFFFFFFFFFFFFFFFFFFFF
310
FFFFFFFFFFFFFFFFFFFFFFFFFFFFFFFFFFFFFFFFFFFFFFFFFFFFFFFFFFFFFFFF
310
FFFFFFFFFFFFFFFFFFFFFFFFFFFFFFFFFFFFFFFFFFFFFFFFF000FFFFFFFFFFFF
310
FFFFFFFFFFFFFFFFFFFFFFFFFFFFFFFFFFFFFFFFFFFFFFFFFFFFFFFFFFFFFFFF
310
FFFFFFFFFFFFFFFFFFFFFFFFFFFFFFFFFFFFFFFFFFFFFFFFFFFFFFFFFFFFFFFF
310
FFFFFFFFFFFFFFFFFFFFFFFFFFFFFFFFF000FFFFFFFFFFFFFFFFFFFFFFFFFFFF
310
FFFFFFFFFFFFFFFFFFFFFFFFFFFFFFFFFFFFFFFFFFFFFFFFFFFFFFFFFFFFFFFF
310
FFFFFFFFFFFFFFFFFFFFFFFFFFFFFFFFFFFFFFFFFFFFFFFFFFFFFFFFFFFFFFFF
310
FFFFFFFFFFFFFFFFF000FFFFFFFFFFFFFFFFFFFFFFFFFFFFFFFFFFFFFFFFFFFF
310
FFFFFFFFFFFFFFFFFFFFFFFFFFFFFFFFFFFFFFFFFFFFFFFFFFFFFFFFFFFFFFFF
310
FFFFFFFFFFFFFFFFFFFFFFFFFFFFFFFFFFFFFFFFFFFFFFFFFFFFFFFFFFFFFFFF
310
F000FFFFFFFFFFFFFFFFFFFFFFFFFFFFFFFFFFFFFFFFFFFFFFFFFFFFFFFFFFFF
310
FFFFFFFFFFFFFFFFFFFFFFFFFFFFFFFFFFFFFFFFFFFFFFFFFFFFFFFFFFFFFFFF
310
FFFFFFFFFFFFFFFFFFFFFFFFFFFFFFFFFFFFFFFFFFFFFFFFF000FFFFFFFFFFFF
310
FFFFFFFFFFFFFFFFFFFFFFFFFFFFFFFFFFFFFFFFFFFFFFFFFFFFFFFFFFFFFFFF
310
FFFFFFFFFFFFFFFFFFFFFFFFFFFFFFFFFFFFFFFFFFFFFFFFFFFFFFFFFFFFFFFF
310
FFFFFFFFFFFFFFFFFFFFFFFFFFFFFFFFF000FFFFFFFFFFFFFFFFFFFFFFFFFFFF
310
FFFFFFFFFFFFFFFFFFFFFFFFFFFFFFFFFFFFFFFFFFFFFFFFFFFFFFFFFFFFFFFF
310
FFFFFFFFFFFFFFFFFFFFFFFFFFFFFFFFFFFFFFFFFFFFFFFFFFFFFFFFFFFFFFFF
310
FFFFFFFFFFFFFFFFF000FFFFFFFFFFFFFFFFFFFFFFFFFFFFFFFFFFFFFFFFFFFF
310
FFFFFFFFFFFFFFFFFFFFFFFFFFFFFFFFFFFFFFFFFFFFFFFFFFFFFFFFFFFFFFFF
310
FFFFFFFFFFFFFFFFFFFFFFFFFFFFFFFFFFFFFFFFFFFFFFFFFFFFFFFFFFFFFFFF
310
F000FFFFFFFFFFFFFFFFFFFFFFFFFFFFFFFFFFFFFFFFFFFFFFFFFFFFFFFFFFFF
310
FFFFFFFFFFFFFFFFFFFFFFFFFFFFFFFFFFFFFFFFFFFFFFFFFFFFFFFFFFFFFFFF
310
FFFFFFFFFFFFFFFFFFFFFFFFFFFFFFFFFFFFFFFFFFFFFFFFF000FFFFFFFFFFFF
310
FFFFFFFFFFFFFFFFFFFFFFFFFFFFFFFFFFFFFFFFFFFFFFFFFFFFFFFFFFFFFFFF
310
FFFFFFFFFFFFFFFFFFFFFFFFFFFFFFFFFFFFFFFFFFFFFFFFFFFFFFFFFFFFFFFF
310
FFFFFFFFFFFFFFFFFFFFFFFFFFFFFFFFF0000000000000000000000000000000
310
00000000FF07000080E3A163FF070000309AA163FF0700000000000000000000
310
00000000010000000100000000000000B0EFA163FF0700000000000000000000
310
0000000000000000000000000000000000000000780020C7780020C700000000
310
0000000000000000000000000000000000000000000000000000000000000000
310
0000000000000000000000000000000000000000000000000000000000000000
310
0000000000000000000000000000000000000000000000000000000000000000
310
0000000000000000000000000000000000000000000000000000000000000000
310
0000000000000000000000000000000000000000000000000000000000000000
310
0000000000000000000000000000000000000000000000000000000000000000
310
0000000000000000000000000000000000000000000000000000000000000000
310
0000000000000000000000000000000000000000000000000000000000000000
310
0000000000000000E0040000C002000000000000000000000000000000000000
310
0000000000000000000000000000000050639D63FF07000040AE9D63FF070000
310
0000000000000000000000000000000000000000000000000000000000000000
310
0000000000000000000000000000000000000000000000000000000000000000
  1
OLE
  0
ENDSEC
  0
SECTION
  2
OBJECTS
  0
DICTIONARY
  5
C
330
0
100
AcDbDictionary
281
     1
  3
ACAD_GROUP
350
D
  3
ACAD_LAYOUT
350
1A
  3
ACAD_MLEADERSTYLE
350
204
  3
ACAD_MLINESTYLE
350
17
  3
ACAD_PLOTSETTINGS
350
19
  3
ACAD_PLOTSTYLENAME
350
E
  3
ACAD_TABLESTYLE
350
203
  3
ACAD_VISUALSTYLE
350
2A
  3
AcDbVariableDictionary
350
205
  0
DICTIONARY
  5
D
102
{ACAD_REACTORS
330
C
102
}
330
C
100
AcDbDictionary
281
     1
  0
DICTIONARY
  5
1A
102
{ACAD_REACTORS
330
C
102
}
330
C
100
AcDbDictionary
281
     1
  3
Layout1
350
1E
  3
Layout2
350
26
  3
Model
350
22
  0
DICTIONARY
  5
204
102
{ACAD_REACTORS
330
C
102
}
330
C
100
AcDbDictionary
281
     1
  0
DICTIONARY
  5
17
102
{ACAD_REACTORS
330
C
102
}
330
C
100
AcDbDictionary
281
     1
  3
Standard
350
18
  0
DICTIONARY
  5
19
102
{ACAD_REACTORS
330
C
102
}
330
C
100
AcDbDictionary
281
     1
  0
ACDBDICTIONARYWDFLT
  5
E
102
{ACAD_REACTORS
330
C
102
}
330
C
100
AcDbDictionary
281
     1
  3
Normal
350
F
100
AcDbDictionaryWithDefault
340
F
  0
DICTIONARY
  5
203
102
{ACAD_REACTORS
330
C
102
}
330
C
100
AcDbDictionary
281
     1
  0
DICTIONARY
  5
2A
102
{ACAD_REACTORS
330
C
102
}
330
C
100
AcDbDictionary
281
     1
  3
2dWireframe
350
2F
  3
3D Hidden
350
31
  3
3dWireframe
350
30
  3
Basic
350
32
  3
Brighten
350
36
  3
ColorChange
350
3A
  3
Conceptual
350
34
  3
Dim
350
35
  3
Facepattern
350
39
  3
Flat
350
2B
  3
FlatWithEdges
350
2C
  3
Gouraud
350
2D
  3
GouraudWithEdges
350
2E
  3
Linepattern
350
38
  3
Realistic
350
33
  3
Thicken
350
37
  0
DICTIONARY
  5
205
102
{ACAD_REACTORS
330
C
102
}
330
C
100
AcDbDictionary
281
     1
  3
PSOLHEIGHT
350
207
  3
PSOLWIDTH
350
206
  0
LAYOUT
  5
1E
102
{ACAD_REACTORS
330
1A
102
}
330
1A
100
AcDbPlotSettings
  1

  2
none_device
  4

  6

 40
0.0
 41
0.0
 42
0.0
 43
0.0
 44
0.0
 45
0.0
 46
0.0
 47
0.0
 48
0.0
 49
0.0
140
0.0
141
0.0
142
1.0
143
1.0
 70
   688
 72
     0
 73
     0
 74
     5
  7

 75
    16
147
1.0
148
0.0
149
0.0
100
AcDbLayout
  1
Layout1
 70
     1
 71
     1
 10
0.0
 20
0.0
 11
420.0
 21
297.0
 12
0.0
 22
0.0
 32
0.0
 14
1.0000000000E+20
 24
1.0000000000E+20
 34
1.0000000000E+20
 15
-1.0000000000E+20
 25
-1.0000000000E+20
 35
-1.0000000000E+20
146
0.0
 13
0.0
 23
0.0
 33
0.0
 16
1.0
 26
0.0
 36
0.0
 17
0.0
 27
1.0
 37
0.0
 76
     0
330
1B
  0
LAYOUT
  5
26
102
{ACAD_REACTORS
330
1A
102
}
330
1A
100
AcDbPlotSettings
  1

  2
none_device
  4

  6

 40
0.0
 41
0.0
 42
0.0
 43
0.0
 44
0.0
 45
0.0
 46
0.0
 47
0.0
 48
0.0
 49
0.0
140
0.0
141
0.0
142
1.0
143
1.0
 70
   688
 72
     0
 73
     0
 74
     5
  7

 75
    16
147
1.0
148
0.0
149
0.0
100
AcDbLayout
  1
Layout2
 70
     1
 71
     2
 10
0.0
 20
0.0
 11
0.0
 21
0.0
 12
0.0
 22
0.0
 32
0.0
 14
0.0
 24
0.0
 34
0.0
 15
0.0
 25
0.0
 35
0.0
146
0.0
 13
0.0
 23
0.0
 33
0.0
 16
1.0
 26
0.0
 36
0.0
 17
0.0
 27
1.0
 37
0.0
 76
     0
330
23
  0
LAYOUT
  5
22
102
{ACAD_REACTORS
330
1A
102
}
330
1A
100
AcDbPlotSettings
  1

  2
none_device
  4

  6

 40
0.0
 41
0.0
 42
0.0
 43
0.0
 44
0.0
 45
0.0
 46
0.0
 47
0.0
 48
0.0
 49
0.0
140
0.0
141
0.0
142
1.0
143
1.0
 70
  1712
 72
     0
 73
     0
 74
     0
  7

 75
     0
147
1.0
148
0.0
149
0.0
100
AcDbLayout
  1
Model
 70
     1
 71
     0
 10
0.0
 20
0.0
 11
297.0
 21
210.0
 12
0.0
 22
0.0
 32
0.0
 14
0.0
 24
0.0
 34
0.0
 15
297.0
 25
210.0
 35
0.0
146
0.0
 13
0.0
 23
0.0
 33
0.0
 16
1.0
 26
0.0
 36
0.0
 17
0.0
 27
1.0
 37
0.0
 76
     0
330
1F
331
29
  0
MLINESTYLE
  5
18
102
{ACAD_REACTORS
330
17
102
}
330
17
100
AcDbMlineStyle
  2
Standard
 70
     0
  3

 62
   256
 51
90.0
 52
90.0
 71
     2
 49
0.5
 62
   256
  6
BYLAYER
 49
-0.5
 62
   256
  6
BYLAYER
  0
ACDBPLACEHOLDER
  5
F
102
{ACAD_REACTORS
330
E
102
}
330
E
  0
VISUALSTYLE
  5
2F
102
{ACAD_REACTORS
330
2A
102
}
330
2A
100
AcDbVisualStyle
  2
2dWireframe
 70
     4
 71
     0
 72
     2
 73
     0
 90
        0
 40
-0.6
 41
-30.0
 62
     5
 63
     7
 74
     1
 91
        4
 64
     7
 65
   257
 75
     1
175
     1
 42
1.0
 92
        0
 66
   257
 43
1.0
 76
     1
 77
     6
 78
     2
 67
     7
 79
     5
170
     0
171
     0
290
     0
174
     0
 93
        1
 44
0.0
173
     0
291
     0
 45
0.0
1001
ACAD
1000
AcDbSavedByObjectVersion
1070
     0
  0
VISUALSTYLE
  5
31
102
{ACAD_REACTORS
330
2A
102
}
330
2A
100
AcDbVisualStyle
  2
3D Hidden
 70
     6
 71
     1
 72
     2
 73
     2
 90
        0
 40
-0.6
 41
-30.0
 62
     5
 63
     7
 74
     2
 91
        2
 64
     7
 65
   257
 75
     2
175
     1
 42
40.0
 92
        0
 66
   257
 43
1.0
 76
     1
 77
     6
 78
     2
 67
     7
 79
     3
170
     0
171
     0
290
     0
174
     0
 93
        1
 44
0.0
173
     0
291
     0
 45
0.0
1001
ACAD
1000
AcDbSavedByObjectVersion
1070
     0
  0
VISUALSTYLE
  5
30
102
{ACAD_REACTORS
330
2A
102
}
330
2A
100
AcDbVisualStyle
  2
3dWireframe
 70
     5
 71
     0
 72
     2
 73
     0
 90
        0
 40
-0.6
 41
-30.0
 62
     5
 63
     7
 74
     1
 91
        4
 64
     7
 65
   257
 75
     1
175
     1
 42
1.0
 92
        0
 66
   257
 43
1.0
 76
     1
 77
     6
 78
     2
 67
     7
 79
     5
170
     0
171
     0
290
     0
174
     0
 93
        1
 44
0.0
173
     0
291
     0
 45
0.0
1001
ACAD
1000
AcDbSavedByObjectVersion
1070
     0
  0
VISUALSTYLE
  5
32
102
{ACAD_REACTORS
330
2A
102
}
330
2A
100
AcDbVisualStyle
  2
Basic
 70
     7
 71
     1
 72
     0
 73
     1
 90
        0
 40
-0.6
 41
-30.0
 62
     5
 63
     7
 74
     0
 91
        4
 64
     7
 65
   257
 75
     1
175
     1
 42
1.0
 92
        8
 66
     7
 43
1.0
 76
     1
 77
     6
 78
     2
 67
     7
 79
     5
170
     0
171
     0
290
     0
174
     0
 93
        1
 44
0.0
173
     0
291
     1
 45
0.0
1001
ACAD
1000
AcDbSavedByObjectVersion
1070
     0
  0
VISUALSTYLE
  5
36
102
{ACAD_REACTORS
330
2A
102
}
330
2A
100
AcDbVisualStyle
  2
Brighten
 70
    12
 71
     2
 72
     2
 73
     0
 90
        0
 40
-0.6
 41
-30.0
 62
     5
 63
     7
 74
     1
 91
        4
 64
     7
 65
   257
 75
     1
175
     1
 42
1.0
 92
        8
 66
     7
 43
1.0
 76
     1
 77
     6
 78
     2
 67
     7
 79
     5
170
     0
171
     0
290
     0
174
     0
 93
        1
 44
50.0
173
     0
291
     1
 45
0.0
1001
ACAD
1000
AcDbSavedByObjectVersion
1070
     0
  0
VISUALSTYLE
  5
3A
102
{ACAD_REACTORS
330
2A
102
}
330
2A
100
AcDbVisualStyle
  2
ColorChange
 70
    16
 71
     2
 72
     2
 73
     3
 90
        0
 40
-0.6
 41
-30.0
 62
     5
 63
     8
 74
     1
 91
        4
 64
     7
 65
   257
 75
     1
175
     1
 42
1.0
 92
        8
 66
     8
 43
1.0
 76
     1
 77
     6
 78
     2
 67
     7
 79
     5
170
     0
171
     0
290
     0
174
     0
 93
        1
 44
0.0
173
     0
291
     1
 45
0.0
1001
ACAD
1000
AcDbSavedByObjectVersion
1070
     0
  0
VISUALSTYLE
  5
34
102
{ACAD_REACTORS
330
2A
102
}
330
2A
100
AcDbVisualStyle
  2
Conceptual
 70
     9
 71
     3
 72
     2
 73
     0
 90
        0
 40
-0.6
 41
-30.0
 62
     5
 63
     7
 74
     2
 91
        2
 64
     7
 65
   257
 75
     1
175
     1
 42
40.0
 92
        8
 66
     7
 43
1.0
 76
     1
 77
     6
 78
     2
 67
     7
 79
     3
170
     0
171
     0
290
     0
174
     0
 93
        1
 44
0.0
173
     0
291
     0
 45
0.0
1001
ACAD
1000
AcDbSavedByObjectVersion
1070
     0
  0
VISUALSTYLE
  5
35
102
{ACAD_REACTORS
330
2A
102
}
330
2A
100
AcDbVisualStyle
  2
Dim
 70
    11
 71
     2
 72
     2
 73
     0
 90
        0
 40
-0.6
 41
-30.0
 62
     5
 63
     7
 74
     1
 91
        4
 64
     7
 65
   257
 75
     1
175
     1
 42
1.0
 92
        8
 66
     7
 43
1.0
 76
     1
 77
     6
 78
     2
 67
     7
 79
     5
170
     0
171
     0
290
     0
174
     0
 93
        1
 44
-50.0
173
     0
291
     1
 45
0.0
1001
ACAD
1000
AcDbSavedByObjectVersion
1070
     0
  0
VISUALSTYLE
  5
39
102
{ACAD_REACTORS
330
2A
102
}
330
2A
100
AcDbVisualStyle
  2
Facepattern
 70
    15
 71
     2
 72
     2
 73
     0
 90
        0
 40
-0.6
 41
-30.0
 62
     5
 63
     7
 74
     1
 91
        4
 64
     7
 65
   257
 75
     1
175
     1
 42
1.0
 92
        8
 66
     7
 43
1.0
 76
     1
 77
     6
 78
     2
 67
     7
 79
     5
170
     0
171
     0
290
     0
174
     0
 93
        1
 44
0.0
173
     0
291
     1
 45
0.0
1001
ACAD
1000
AcDbSavedByObjectVersion
1070
     0
  0
VISUALSTYLE
  5
2B
102
{ACAD_REACTORS
330
2A
102
}
330
2A
100
AcDbVisualStyle
  2
Flat
 70
     0
 71
     2
 72
     1
 73
     1
 90
        2
 40
-0.6
 41
30.0
 62
     5
 63
     7
 74
     0
 91
        4
 64
     7
 65
   257
 75
     1
175
     1
 42
1.0
 92
        8
 66
     7
 43
1.0
 76
     1
 77
     6
 78
     2
 67
     7
 79
     5
170
     0
171
     0
290
     0
174
     0
 93
       13
 44
0.0
173
     0
291
     1
 45
0.0
1001
ACAD
1000
AcDbSavedByObjectVersion
1070
     0
  0
VISUALSTYLE
  5
2C
102
{ACAD_REACTORS
330
2A
102
}
330
2A
100
AcDbVisualStyle
  2
FlatWithEdges
 70
     1
 71
     2
 72
     1
 73
     1
 90
        2
 40
-0.6
 41
30.0
 62
     5
 63
     7
 74
     1
 91
        4
 64
     7
 65
   257
 75
     1
175
     1
 42
1.0
 92
        0
 66
   257
 43
1.0
 76
     1
 77
     6
 78
     2
 67
     7
 79
     5
170
     0
171
     0
290
     0
174
     0
 93
       13
 44
0.0
173
     0
291
     1
 45
0.0
1001
ACAD
1000
AcDbSavedByObjectVersion
1070
     0
  0
VISUALSTYLE
  5
2D
102
{ACAD_REACTORS
330
2A
102
}
330
2A
100
AcDbVisualStyle
  2
Gouraud
 70
     2
 71
     2
 72
     2
 73
     1
 90
        2
 40
-0.6
 41
30.0
 62
     5
 63
     7
 74
     0
 91
        4
 64
     7
 65
   257
 75
     1
175
     1
 42
1.0
 92
        0
 66
     7
 43
1.0
 76
     1
 77
     6
 78
     2
 67
     7
 79
     5
170
     0
171
     0
290
     0
174
     0
 93
       13
 44
0.0
173
     0
291
     1
 45
0.0
1001
ACAD
1000
AcDbSavedByObjectVersion
1070
     0
  0
VISUALSTYLE
  5
2E
102
{ACAD_REACTORS
330
2A
102
}
330
2A
100
AcDbVisualStyle
  2
GouraudWithEdges
 70
     3
 71
     2
 72
     2
 73
     1
 90
        2
 40
-0.6
 41
30.0
 62
     5
 63
     7
 74
     1
 91
        4
 64
     7
 65
   257
 75
     1
175
     1
 42
1.0
 92
        0
 66
   257
 43
1.0
 76
     1
 77
     6
 78
     2
 67
     7
 79
     5
170
     0
171
     0
290
     0
174
     0
 93
       13
 44
0.0
173
     0
291
     1
 45
0.0
1001
ACAD
1000
AcDbSavedByObjectVersion
1070
     0
  0
VISUALSTYLE
  5
38
102
{ACAD_REACTORS
330
2A
102
}
330
2A
100
AcDbVisualStyle
  2
Linepattern
 70
    14
 71
     2
 72
     2
 73
     0
 90
        0
 40
-0.6
 41
-30.0
 62
     5
 63
     7
 74
     1
 91
        4
 64
     7
 65
   257
 75
     7
175
     7
 42
1.0
 92
        8
 66
     7
 43
1.0
 76
     1
 77
     6
 78
     2
 67
     7
 79
     5
170
     0
171
     0
290
     0
174
     0
 93
        1
 44
0.0
173
     0
291
     1
 45
0.0
1001
ACAD
1000
AcDbSavedByObjectVersion
1070
     0
  0
VISUALSTYLE
  5
33
102
{ACAD_REACTORS
330
2A
102
}
330
2A
100
AcDbVisualStyle
  2
Realistic
 70
     8
 71
     2
 72
     2
 73
     0
 90
        0
 40
-0.6
 41
-30.0
 62
     5
 63
     7
 74
     1
 91
        0
 64
     7
 65
   257
 75
     1
175
     1
 42
1.0
 92
        8
 66
     8
 43
1.0
 76
     1
 77
     6
 78
     2
 67
     7
 79
     5
170
     0
171
     0
290
     0
174
     0
 93
       13
 44
0.0
173
     0
291
     0
 45
0.0
1001
ACAD
1000
AcDbSavedByObjectVersion
1070
     0
  0
VISUALSTYLE
  5
37
102
{ACAD_REACTORS
330
2A
102
}
330
2A
100
AcDbVisualStyle
  2
Thicken
 70
    13
 71
     2
 72
     2
 73
     0
 90
        0
 40
-0.6
 41
-30.0
 62
     5
 63
     7
 74
     1
 91
        4
 64
     7
 65
   257
 75
     1
175
     1
 42
1.0
 92
       12
 66
     7
 43
1.0
 76
     1
 77
     6
 78
     2
 67
     7
 79
     5
170
     0
171
     0
290
     0
174
     0
 93
        1
 44
0.0
173
     0
291
     1
 45
0.0
1001
ACAD
1000
AcDbSavedByObjectVersion
1070
     0
  0
DICTIONARYVAR
  5
207
102
{ACAD_REACTORS
330
205
102
}
330
205
100
DictionaryVariables
280
     0
  1
80.000000
  0
DICTIONARYVAR
  5
206
102
{ACAD_REACTORS
330
205
102
}
330
205
100
DictionaryVariables
280
     0
  1
5.000000
  0
ENDSEC
  0
EOF
