  0
SECTION
  2
HEADER
  9
$ACADVER
  1
AC1015
  9
$ACADMAINTVER
 70
     6
  9
$DWGCODEPAGE
  3
ANSI_1252
  9
$INSBASE
 10
0.0
 20
0.0
 30
0.0
  9
$EXTMIN
 10
0.0
 20
0.0
 30
0.0
  9
$EXTMAX
 10
297.0
 20
210.0
 30
0.0
  9
$LIMMIN
 10
0.0
 20
0.0
  9
$LIMMAX
 10
297.0
 20
210.0
  9
$ORTHOMODE
 70
     0
  9
$REGENMODE
 70
     1
  9
$FILLMODE
 70
     1
  9
$QTEXTMODE
 70
     0
  9
$MIRRTEXT
 70
     1
  9
$LTSCALE
 40
1.0
  9
$ATTMODE
 70
     1
  9
$TEXTSIZE
 40
2.0
  9
$TRACEWID
 40
1.0
  9
$TEXTSTYLE
  7
Standard
  9
$CLAYER
  8
0
  9
$CELTYPE
  6
ByLayer
  9
$CECOLOR
 62
   256
  9
$CELTSCALE
 40
1.0
  9
$DISPSILH
 70
     0
  9
$DIMSCALE
 40
1.0
  9
$DIMASZ
 40
3.0
  9
$DIMEXO
 40
0.0
  9
$DIMDLI
 40
3.75
  9
$DIMRND
 40
0.0
  9
$DIMDLE
 40
0.0
  9
$DIMEXE
 40
1.0
  9
$DIMTP
 40
0.0
  9
$DIMTM
 40
0.0
  9
$DIMTXT
 40
2.0
  9
$DIMCEN
 40
2.5
  9
$DIMTSZ
 40
0.0
  9
$DIMTOL
 70
     0
  9
$DIMLIM
 70
     0
  9
$DIMTIH
 70
     1
  9
$DIMTOH
 70
     1
  9
$DIMSE1
 70
     0
  9
$DIMSE2
 70
     0
  9
$DIMTAD
 70
     1
  9
$DIMZIN
 70
     0
  9
$DIMBLK
  1

  9
$DIMASO
 70
     1
  9
$DIMSHO
 70
     1
  9
$DIMPOST
  1

  9
$DIMAPOST
  1

  9
$DIMALT
 70
     0
  9
$DIMALTD
 70
     3
  9
$DIMALTF
 40
0.0393700787
  9
$DIMLFAC
 40
1.0
  9
$DIMTOFL
 70
     1
  9
$DIMTVP
 40
0.0
  9
$DIMTIX
 70
     0
  9
$DIMSOXD
 70
     0
  9
$DIMSAH
 70
     0
  9
$DIMBLK1
  1

  9
$DIMBLK2
  1

  9
$DIMSTYLE
  2
ISO-25
  9
$DIMCLRD
 70
     0
  9
$DIMCLRE
 70
     0
  9
$DIMCLRT
 70
     0
  9
$DIMTFAC
 40
1.0
  9
$DIMGAP
 40
1.524
  9
$DIMJUST
 70
     0
  9
$DIMSD1
 70
     0
  9
$DIMSD2
 70
     0
  9
$DIMTOLJ
 70
     0
  9
$DIMTZIN
 70
     0
  9
$DIMALTZ
 70
     0
  9
$DIMALTTZ
 70
     0
  9
$DIMUPT
 70
     0
  9
$DIMDEC
 70
     2
  9
$DIMTDEC
 70
     3
  9
$DIMALTU
 70
     2
  9
$DIMALTTD
 70
     3
  9
$DIMTXSTY
  7
Standard
  9
$DIMAUNIT
 70
     0
  9
$DIMADEC
 70
     2
  9
$DIMALTRND
 40
0.0
  9
$DIMAZIN
 70
     0
  9
$DIMDSEP
 70
    44
  9
$DIMATFIT
 70
     3
  9
$DIMFRAC
 70
     0
  9
$DIMLDRBLK
  1

  9
$DIMLUNIT
 70
     2
  9
$DIMLWD
 70
    -2
  9
$DIMLWE
 70
    -2
  9
$DIMTMOVE
 70
     0
  9
$LUNITS
 70
     2
  9
$LUPREC
 70
     2
  9
$SKETCHINC
 40
1.0
  9
$FILLETRAD
 40
10.0
  9
$AUNITS
 70
     0
  9
$AUPREC
 70
     2
  9
$MENU
  1
.
  9
$ELEVATION
 40
0.0
  9
$PELEVATION
 40
0.0
  9
$THICKNESS
 40
0.0
  9
$LIMCHECK
 70
     0
  9
$CHAMFERA
 40
10.0
  9
$CHAMFERB
 40
10.0
  9
$CHAMFERC
 40
20.0
  9
$CHAMFERD
 40
0.0
  9
$SKPOLY
 70
     0
  9
$TDCREATE
 40
2456097.696928692
  9
$TDUCREATE
 40
2456097.613595359
  9
$TDUPDATE
 40
2456097.696930324
  9
$TDUUPDATE
 40
2456097.613596991
  9
$TDINDWG
 40
0.0000000116
  9
$TDUSRTIMER
 40
0.0000000116
  9
$USRTIMER
 70
     1
  9
$ANGBASE
 50
0.0
  9
$ANGDIR
 70
     0
  9
$PDMODE
 70
     0
  9
$PDSIZE
 40
-1.0
  9
$PLINEWID
 40
0.0
  9
$SPLFRAME
 70
     0
  9
$SPLINETYPE
 70
     6
  9
$SPLINESEGS
 70
     8
  9
$HANDSEED
  5
2EF
  9
$SURFTAB1
 70
     6
  9
$SURFTAB2
 70
     6
  9
$SURFTYPE
 70
     6
  9
$SURFU
 70
     6
  9
$SURFV
 70
     6
  9
$UCSBASE
  2

  9
$UCSNAME
  2

  9
$UCSORG
 10
0.0
 20
0.0
 30
0.0
  9
$UCSXDIR
 10
1.0
 20
0.0
 30
0.0
  9
$UCSYDIR
 10
0.0
 20
1.0
 30
0.0
  9
$UCSORTHOREF
  2

  9
$UCSORTHOVIEW
 70
     0
  9
$UCSORGTOP
 10
0.0
 20
0.0
 30
0.0
  9
$UCSORGBOTTOM
 10
0.0
 20
0.0
 30
0.0
  9
$UCSORGLEFT
 10
0.0
 20
0.0
 30
0.0
  9
$UCSORGRIGHT
 10
0.0
 20
0.0
 30
0.0
  9
$UCSORGFRONT
 10
0.0
 20
0.0
 30
0.0
  9
$UCSORGBACK
 10
0.0
 20
0.0
 30
0.0
  9
$PUCSBASE
  2

  9
$PUCSNAME
  2

  9
$PUCSORG
 10
0.0
 20
0.0
 30
0.0
  9
$PUCSXDIR
 10
1.0
 20
0.0
 30
0.0
  9
$PUCSYDIR
 10
0.0
 20
1.0
 30
0.0
  9
$PUCSORTHOREF
  2

  9
$PUCSORTHOVIEW
 70
     0
  9
$PUCSORGTOP
 10
0.0
 20
0.0
 30
0.0
  9
$PUCSORGBOTTOM
 10
0.0
 20
0.0
 30
0.0
  9
$PUCSORGLEFT
 10
0.0
 20
0.0
 30
0.0
  9
$PUCSORGRIGHT
 10
0.0
 20
0.0
 30
0.0
  9
$PUCSORGFRONT
 10
0.0
 20
0.0
 30
0.0
  9
$PUCSORGBACK
 10
0.0
 20
0.0
 30
0.0
  9
$USERI1
 70
     0
  9
$USERI2
 70
     0
  9
$USERI3
 70
     0
  9
$USERI4
 70
     0
  9
$USERI5
 70
     0
  9
$USERR1
 40
0.0
  9
$USERR2
 40
0.0
  9
$USERR3
 40
0.0
  9
$USERR4
 40
0.0
  9
$USERR5
 40
0.0
  9
$WORLDVIEW
 70
     1
  9
$SHADEDGE
 70
     3
  9
$SHADEDIF
 70
    70
  9
$TILEMODE
 70
     1
  9
$MAXACTVP
 70
    64
  9
$PINSBASE
 10
0.0
 20
0.0
 30
0.0
  9
$PLIMCHECK
 70
     0
  9
$PEXTMIN
 10
1.0000000000E+20
 20
1.0000000000E+20
 30
1.0000000000E+20
  9
$PEXTMAX
 10
-1.0000000000E+20
 20
-1.0000000000E+20
 30
-1.0000000000E+20
  9
$PLIMMIN
 10
0.0
 20
0.0
  9
$PLIMMAX
 10
420.0
 20
297.0
  9
$UNITMODE
 70
     0
  9
$VISRETAIN
 70
     1
  9
$PLINEGEN
 70
     0
  9
$PSLTSCALE
 70
     1
  9
$TREEDEPTH
 70
  3020
  9
$CMLSTYLE
  2
Standard
  9
$CMLJUST
 70
     0
  9
$CMLSCALE
 40
20.0
  9
$PROXYGRAPHICS
 70
     1
  9
$MEASUREMENT
 70
     1
  9
$CELWEIGHT
370
    -1
  9
$ENDCAPS
280
     0
  9
$JOINSTYLE
280
     0
  9
$LWDISPLAY
290
     1
  9
$INSUNITS
 70
     4
  9
$HYPERLINKBASE
  1

  9
$STYLESHEET
  1

  9
$XEDIT
290
     1
  9
$CEPSNTYPE
380
     0
  9
$PSTYLEMODE
290
     1
  9
$FINGERPRINTGUID
  2
{2B168C0C-4D3C-4239-88BA-0D990C9A58C2}
  9
$VERSIONGUID
  2
{FAEB1C32-E019-11D5-929B-00C0DF256EC4}
  9
$EXTNAMES
290
     1
  9
$PSVPSCALE
 40
0.0
  9
$OLESTARTUP
290
     0
  0
ENDSEC
  0
SECTION
  2
CLASSES
  0
CLASS
  1
ACDBDICTIONARYWDFLT
  2
AcDbDictionaryWithDefault
  3
ObjectDBX Classes
 90
        0
280
     0
281
     0
  0
CLASS
  1
VISUALSTYLE
  2
AcDbVisualStyle
  3
ObjectDBX Classes
 90
     4095
280
     0
281
     0
  0
CLASS
  1
MATERIAL
  2
AcDbMaterial
  3
ObjectDBX Classes
 90
     1153
280
     0
281
     0
  0
CLASS
  1
ACDBPLACEHOLDER
  2
AcDbPlaceHolder
  3
ObjectDBX Classes
 90
        0
280
     0
281
     0
  0
CLASS
  1
LAYOUT
  2
AcDbLayout
  3
ObjectDBX Classes
 90
        0
280
     0
281
     0
  0
ENDSEC
  0
SECTION
  2
TABLES
  0
TABLE
  2
VPORT
  5
8
330
0
100
AcDbSymbolTable
 70
     1
  0
VPORT
  5
29
330
8
100
AcDbSymbolTableRecord
100
AcDbViewportTableRecord
  2
*Active
 70
     0
 10
0.0
 20
0.0
 11
1.0
 21
1.0
 12
148.5
 22
105.0
 13
0.0
 23
0.0
 14
10.0
 24
10.0
 15
10.0
 25
10.0
 16
0.0
 26
0.0
 36
1.0
 17
0.0
 27
0.0
 37
0.0
 40
210.0
 41
1.4142857143
 42
50.0
 43
0.0
 44
0.0
 50
0.0
 51
0.0
 71
     0
 72
  2000
 73
     1
 74
     3
 75
     0
 76
     0
 77
     0
 78
     0
281
     0
 65
     1
110
0.0
120
0.0
130
0.0
111
1.0
121
0.0
131
0.0
112
0.0
122
1.0
132
0.0
 79
     0
146
0.0
  0
ENDTAB
  0
TABLE
  2
LTYPE
  5
5
330
0
100
AcDbSymbolTable
 70
     6
  0
LTYPE
  5
14
330
5
100
AcDbSymbolTableRecord
100
AcDbLinetypeTableRecord
  2
ByBlock
 70
     0
  3

 72
    65
 73
     0
 40
0.0
  0
LTYPE
  5
15
330
5
100
AcDbSymbolTableRecord
100
AcDbLinetypeTableRecord
  2
ByLayer
 70
     0
  3

 72
    65
 73
     0
 40
0.0
  0
LTYPE
  5
16
330
5
100
AcDbSymbolTableRecord
100
AcDbLinetypeTableRecord
  2
Continuous
 70
     0
  3
Solid line
 72
    65
 73
     0
 40
0.0
  0
LTYPE
  5
3F
330
5
100
AcDbSymbolTableRecord
100
AcDbLinetypeTableRecord
  2
HIDDEN
 70
     0
  3
Hidden __ __ __ __ __ __ __ __ __ __ __ __ __ __
 72
    65
 73
     2
 40
1.905
 49
1.27
 74
     0
 49
-0.635
 74
     0
  0
LTYPE
  5
40
330
5
100
AcDbSymbolTableRecord
100
AcDbLinetypeTableRecord
  2
PHANTOM
 70
     0
  3
Phantom ______  __  __  ______  __  __  ______
 72
    65
 73
     6
 40
12.7
 49
6.35
 74
     0
 49
-1.27
 74
     0
 49
1.27
 74
     0
 49
-1.27
 74
     0
 49
1.27
 74
     0
 49
-1.27
 74
     0
  0
LTYPE
  5
41
330
5
100
AcDbSymbolTableRecord
100
AcDbLinetypeTableRecord
  2
CENTER
 70
     0
  3
Center ____ _ ____ _ ____ _ ____ _ ____ _ ____
 72
    65
 73
     4
 40
10.16
 49
6.35
 74
     0
 49
-1.27
 74
     0
 49
1.27
 74
     0
 49
-1.27
 74
     0
  0
LTYPE
  5
42
330
5
100
AcDbSymbolTableRecord
100
AcDbLinetypeTableRecord
  2
CENTERX2
 70
     0
  3
Center (2x) ________  __  ________  __  _____
 72
    65
 73
     4
 40
20.32
 49
12.7
 74
     0
 49
-2.54
 74
     0
 49
2.54
 74
     0
 49
-2.54
 74
     0
  0
LTYPE
  5
43
330
5
100
AcDbSymbolTableRecord
100
AcDbLinetypeTableRecord
  2
DOT2
 70
     0
  3
Dot (.5x) ........................................
 72
    65
 73
     2
 40
0.635
 49
0.0
 74
     0
 49
-0.635
 74
     0
  0
ENDTAB
  0
TABLE
  2
LAYER
  5
2
330
0
100
AcDbSymbolTable
 70
     5
  0
LAYER
  5
10
330
2
100
AcDbSymbolTableRecord
100
AcDbLayerTableRecord
  2
0
 70
     0
 62
     7
  6
Continuous
370
    -3
390
F
  0
LAYER
  5
44
330
2
100
AcDbSymbolTableRecord
100
AcDbLayerTableRecord
  2
FORMAT
 70
     0
 62
     7
  6
Continuous
370
    -3
390
F
  0
LAYER
  5
45
330
2
100
AcDbSymbolTableRecord
100
AcDbLayerTableRecord
  2
VERMASSUNG
 70
     0
 62
     7
  6
Continuous
370
    -3
390
F
  0
LAYER
  5
46
330
2
100
AcDbSymbolTableRecord
100
AcDbLayerTableRecord
  2
KOPF_DÜNN
 70
     0
 62
     7
  6
Continuous
370
    -3
390
F
  0
LAYER
  5
47
330
2
100
AcDbSymbolTableRecord
100
AcDbLayerTableRecord
  2
KOPF_DICK
 70
     0
 62
     7
  6
Continuous
370
    15
390
F
  0
ENDTAB
  0
TABLE
  2
STYLE
  5
3
330
0
100
AcDbSymbolTable
 70
     3
  0
STYLE
  5
11
330
3
100
AcDbSymbolTableRecord
100
AcDbTextStyleTableRecord
  2
Standard
 70
     0
 40
0.0
 41
1.0
 50
0.0
 71
     0
 42
2.0
  3
txt
  4

  0
STYLE
  5
48
330
3
100
AcDbSymbolTableRecord
100
AcDbTextStyleTableRecord
  2
SLDTEXTSTYLE0
 70
     0
 40
0.0
 41
0.7
 50
0.0
 71
     0
 42
0.2
  3
TXT
  4

  0
STYLE
  5
4C
330
3
100
AcDbSymbolTableRecord
100
AcDbTextStyleTableRecord
  2
SLDTEXTSTYLE1
 70
     0
 40
0.0
 41
0.6375
 50
0.0
 71
     0
 42
0.2
  3
TXT
  4

  0
ENDTAB
  0
TABLE
  2
VIEW
  5
6
330
0
100
AcDbSymbolTable
 70
     0
  0
ENDTAB
  0
TABLE
  2
UCS
  5
7
330
0
100
AcDbSymbolTable
 70
     0
  0
ENDTAB
  0
TABLE
  2
APPID
  5
9
330
0
100
AcDbSymbolTable
 70
     1
  0
APPID
  5
12
330
9
100
AcDbSymbolTableRecord
100
AcDbRegAppTableRecord
  2
ACAD
 70
     0
  0
ENDTAB
  0
TABLE
  2
DIMSTYLE
  5
A
330
0
100
AcDbSymbolTable
 70
     3
100
AcDbDimStyleTable
  0
DIMSTYLE
105
27
330
A
100
AcDbSymbolTableRecord
100
AcDbDimStyleTableRecord
  2
ISO-25
 70
     0
 41
2.5
 42
0.625
 43
3.75
 44
1.25
 73
     0
 74
     0
 77
     1
 78
     8
140
2.5
141
2.5
143
0.0393700787
147
0.625
171
     3
172
     1
178
     0
271
     2
272
     2
274
     3
278
    44
283
     0
284
     8
340
11
  0
DIMSTYLE
105
24A
102
{ACAD_REACTORS
330
249
330
254
330
25E
330
268
330
274
102
}
330
A
100
AcDbSymbolTableRecord
100
AcDbDimStyleTableRecord
  2
SLDDIMSTYLE0
 70
     0
 41
3.0
 44
0.0
 45
0.000000001
 73
     0
 74
     0
 77
     1
 78
    12
 79
     3
140
2.0
147
0.5
173
     1
178
     0
271
     2
272
     3
276
     2
284
    12
340
48
  0
DIMSTYLE
105
2D5
102
{ACAD_REACTORS
330
2D4
102
}
330
A
100
AcDbSymbolTableRecord
100
AcDbDimStyleTableRecord
  2
SLDDIMSTYLE1
 70
     0
 41
3.0
 44
0.0
 45
0.000000001
 73
     0
 74
     0
 77
     1
 78
    12
 79
     3
140
2.0
147
0.5
172
     1
173
     1
178
     0
271
     2
272
     3
276
     2
284
    12
289
     0
340
48
  0
ENDTAB
  0
TABLE
  2
BLOCK_RECORD
  5
1
330
0
100
AcDbSymbolTable
 70
     8
  0
BLOCK_RECORD
  5
1F
330
1
100
AcDbSymbolTableRecord
100
AcDbBlockTableRecord
  2
*Model_Space
340
22
  0
BLOCK_RECORD
  5
1B
330
1
100
AcDbSymbolTableRecord
100
AcDbBlockTableRecord
  2
*Paper_Space
340
1E
  0
BLOCK_RECORD
  5
23
330
1
100
AcDbSymbolTableRecord
100
AcDbBlockTableRecord
  2
*Paper_Space0
340
26
  0
BLOCK_RECORD
  5
24B
330
1
100
AcDbSymbolTableRecord
100
AcDbBlockTableRecord
  2
_D
340
0
  0
BLOCK_RECORD
  5
255
330
1
100
AcDbSymbolTableRecord
100
AcDbBlockTableRecord
  2
_D_1
340
0
  0
BLOCK_RECORD
  5
25F
330
1
100
AcDbSymbolTableRecord
100
AcDbBlockTableRecord
  2
_D_2
340
0
  0
BLOCK_RECORD
  5
269
330
1
100
AcDbSymbolTableRecord
100
AcDbBlockTableRecord
  2
_D_3
340
0
  0
BLOCK_RECORD
  5
275
330
1
100
AcDbSymbolTableRecord
100
AcDbBlockTableRecord
  2
_D_4
340
0
  0
BLOCK_RECORD
  5
2D6
330
1
100
AcDbSymbolTableRecord
100
AcDbBlockTableRecord
  2
_D_5
340
0
  0
BLOCK_RECORD
  5
2E2
330
1
100
AcDbSymbolTableRecord
100
AcDbBlockTableRecord
  2
SW_CENTERMARKSYMBOL_0
340
0
102
{BLKREFS
331
2ED
102
}
  0
ENDTAB
  0
ENDSEC
  0
SECTION
  2
BLOCKS
  0
BLOCK
  5
20
330
1F
100
AcDbEntity
  8
0
100
AcDbBlockBegin
  2
*Model_Space
 70
     0
 10
0.0
 20
0.0
 30
0.0
  3
*Model_Space
  1

  0
ENDBLK
  5
21
330
1F
100
AcDbEntity
  8
0
100
AcDbBlockEnd
  0
BLOCK
  5
1C
330
1B
100
AcDbEntity
 67
     1
  8
0
100
AcDbBlockBegin
  2
*Paper_Space
 70
     0
 10
0.0
 20
0.0
 30
0.0
  3
*Paper_Space
  1

  0
ENDBLK
  5
1D
330
1B
100
AcDbEntity
 67
     1
  8
0
100
AcDbBlockEnd
  0
BLOCK
  5
24
330
23
100
AcDbEntity
  8
0
100
AcDbBlockBegin
  2
*Paper_Space0
 70
     0
 10
0.0
 20
0.0
 30
0.0
  3
*Paper_Space0
  1

  0
ENDBLK
  5
25
330
23
100
AcDbEntity
  8
0
100
AcDbBlockEnd
  0
BLOCK
  5
24C
330
24B
100
AcDbEntity
  8
0
100
AcDbBlockBegin
  2
_D
 70
     0
 10
0.0
 20
0.0
 30
0.0
  3
_D
  1

  0
SOLID
  5
24E
330
24B
100
AcDbEntity
  8
VERMASSUNG
100
AcDbTrace
 10
268.3145346317
 20
104.1896061797
 30
0.0
 11
268.7645346317
 21
107.1896061797
 31
0.0
 12
267.8645346317
 22
107.1896061797
 32
0.0
 13
267.8645346317
 23
107.1896061797
 33
0.0
  0
SOLID
  5
24F
330
24B
100
AcDbEntity
  8
VERMASSUNG
100
AcDbTrace
 10
268.3145346317
 20
130.1896061797
 30
0.0
 11
267.8645346317
 21
127.1896061797
 31
0.0
 12
268.7645346317
 22
127.1896061797
 32
0.0
 13
268.7645346317
 23
127.1896061797
 33
0.0
  0
LINE
  5
250
330
24B
100
AcDbEntity
  8
VERMASSUNG
100
AcDbLine
 10
251.5145346317
 20
104.1896061797
 30
0.0
 11
269.3145346317
 21
104.1896061797
 31
0.0
  0
LINE
  5
251
330
24B
100
AcDbEntity
  8
VERMASSUNG
100
AcDbLine
 10
251.5145346317
 20
130.1896061797
 30
0.0
 11
269.3145346317
 21
130.1896061797
 31
0.0
  0
LINE
  5
252
330
24B
100
AcDbEntity
  8
VERMASSUNG
100
AcDbLine
 10
268.3145346317
 20
104.1896061797
 30
0.0
 11
268.3145346317
 21
130.1896061797
 31
0.0
  0
MTEXT
  5
253
330
24B
100
AcDbEntity
  8
VERMASSUNG
100
AcDbMText
 10
265.7363992686
 20
114.8896061287
 30
0.1
 40
2.0
 41
0.0
 71
     1
 72
     1
  1
26
  7
SLDTEXTSTYLE0
 11
6.123233995736766E-17
 21
1.0
 31
0.0
 73
     1
 44
1.0
  0
ENDBLK
  5
24D
330
24B
100
AcDbEntity
  8
0
100
AcDbBlockEnd
  0
BLOCK
  5
256
330
255
100
AcDbEntity
  8
0
100
AcDbBlockBegin
  2
_D_1
 70
     0
 10
0.0
 20
0.0
 30
0.0
  3
_D_1
  1

  0
SOLID
  5
258
330
255
100
AcDbEntity
  8
VERMASSUNG
100
AcDbTrace
 10
182.0145346317
 20
76.0183248876
 30
0.0
 11
185.0145346317
 21
75.5683248876
 31
0.0
 12
185.0145346317
 22
76.4683248876
 32
0.0
 13
185.0145346317
 23
76.4683248876
 33
0.0
  0
SOLID
  5
259
330
255
100
AcDbEntity
  8
VERMASSUNG
100
AcDbTrace
 10
251.5145346317
 20
76.0183248876
 30
0.0
 11
248.5145346317
 21
76.4683248876
 31
0.0
 12
248.5145346317
 22
75.5683248876
 32
0.0
 13
248.5145346317
 23
75.5683248876
 33
0.0
  0
LINE
  5
25A
330
255
100
AcDbEntity
  8
VERMASSUNG
100
AcDbLine
 10
182.0145346317
 20
106.3183248876
 30
0.0
 11
182.0145346317
 21
75.0183248876
 31
0.0
  0
LINE
  5
25B
330
255
100
AcDbEntity
  8
VERMASSUNG
100
AcDbLine
 10
251.5145346317
 20
104.1896061797
 30
0.0
 11
251.5145346317
 21
75.0183248876
 31
0.0
  0
LINE
  5
25C
330
255
100
AcDbEntity
  8
VERMASSUNG
100
AcDbLine
 10
182.0145346317
 20
76.0183248876
 30
0.0
 11
251.5145346317
 21
76.0183248876
 31
0.0
  0
MTEXT
  5
25D
330
255
100
AcDbEntity
  8
VERMASSUNG
100
AcDbMText
 10
213.4645344168
 20
78.5964602508
 30
0.1
 40
2.0
 41
0.0
 71
     1
 72
     1
  1
69.5
  7
SLDTEXTSTYLE0
 73
     1
 44
1.0
  0
ENDBLK
  5
257
330
255
100
AcDbEntity
  8
0
100
AcDbBlockEnd
  0
BLOCK
  5
260
330
25F
100
AcDbEntity
  8
0
100
AcDbBlockBegin
  2
_D_2
 70
     0
 10
0.0
 20
0.0
 30
0.0
  3
_D_2
  1

  0
SOLID
  5
262
330
25F
100
AcDbEntity
  8
VERMASSUNG
100
AcDbTrace
 10
182.0145346317
 20
64.0183248876
 30
0.0
 11
185.0145346317
 21
63.5683248876
 31
0.0
 12
185.0145346317
 22
64.4683248876
 32
0.0
 13
185.0145346317
 23
64.4683248876
 33
0.0
  0
SOLID
  5
263
330
25F
100
AcDbEntity
  8
VERMASSUNG
100
AcDbTrace
 10
257.0145346317
 20
64.0183248876
 30
0.0
 11
254.0145346317
 21
64.4683248876
 31
0.0
 12
254.0145346317
 22
63.5683248876
 32
0.0
 13
254.0145346317
 23
63.5683248876
 33
0.0
  0
LINE
  5
264
330
25F
100
AcDbEntity
  8
VERMASSUNG
100
AcDbLine
 10
182.0145346317
 20
106.3183248876
 30
0.0
 11
182.0145346317
 21
63.0183248876
 31
0.0
  0
LINE
  5
265
330
25F
100
AcDbEntity
  8
VERMASSUNG
100
AcDbLine
 10
257.0145346317
 20
86.0183248876
 30
0.0
 11
257.0145346317
 21
63.0183248876
 31
0.0
  0
LINE
  5
266
330
25F
100
AcDbEntity
  8
VERMASSUNG
100
AcDbLine
 10
182.0145346317
 20
64.0183248876
 30
0.0
 11
257.0145346317
 21
64.0183248876
 31
0.0
  0
MTEXT
  5
267
330
25F
100
AcDbEntity
  8
VERMASSUNG
100
AcDbMText
 10
217.2145345807
 20
66.5964602508
 30
0.1
 40
2.0
 41
0.0
 71
     1
 72
     1
  1
75
  7
SLDTEXTSTYLE0
 73
     1
 44
1.0
  0
ENDBLK
  5
261
330
25F
100
AcDbEntity
  8
0
100
AcDbBlockEnd
  0
BLOCK
  5
26A
330
269
100
AcDbEntity
  8
0
100
AcDbBlockBegin
  2
_D_3
 70
     0
 10
0.0
 20
0.0
 30
0.0
  3
_D_3
  1

  0
SOLID
  5
26C
330
269
100
AcDbEntity
  8
VERMASSUNG
100
AcDbTrace
 10
156.0822312283
 20
146.0183248876
 30
0.0
 11
155.6322312283
 21
143.0183248876
 31
0.0
 12
156.5322312283
 22
143.0183248876
 32
0.0
 13
156.5322312283
 23
143.0183248876
 33
0.0
  0
SOLID
  5
26D
330
269
100
AcDbEntity
  8
VERMASSUNG
100
AcDbTrace
 10
156.0822312283
 20
106.0183248876
 30
0.0
 11
156.5322312283
 21
109.0183248876
 31
0.0
 12
155.6322312283
 22
109.0183248876
 32
0.0
 13
155.6322312283
 23
109.0183248876
 33
0.0
  0
LINE
  5
26E
330
269
100
AcDbEntity
  8
VERMASSUNG
100
AcDbLine
 10
182.3145346317
 20
146.0183248876
 30
0.0
 11
155.0822312283
 21
146.0183248876
 31
0.0
  0
LINE
  5
26F
330
269
100
AcDbEntity
  8
VERMASSUNG
100
AcDbLine
 10
182.3145346317
 20
106.0183248876
 30
0.0
 11
155.0822312283
 21
106.0183248876
 31
0.0
  0
LINE
  5
270
330
269
100
AcDbEntity
  8
VERMASSUNG
100
AcDbLine
 10
156.0822312283
 20
146.0183248876
 30
0.0
 11
156.0822312283
 21
106.0183248876
 31
0.0
  0
MTEXT
  5
271
330
269
100
AcDbEntity
  8
VERMASSUNG
100
AcDbMText
 10
153.3040957392
 20
118.0133242367
 30
0.1
 40
2.0
 41
0.0
 71
     1
 72
     1
  1
HSK T
  7
SLDTEXTSTYLE0
 11
-7.044195017643634E-15
 21
1.0
 31
0.0
 73
     1
 44
1.0
  0
MTEXT
  5
272
330
269
100
AcDbEntity
  8
VERMASSUNG
100
AcDbMText
 10
153.5040957487
 20
125.6133243649
 30
0.1
 40
2.0
 41
0.0
 71
     1
 72
     1
  1
%%c
  7
SLDTEXTSTYLE0
 11
-7.044195017643634E-15
 21
1.0
 31
0.0
 73
     1
 44
1.0
  0
MTEXT
  5
273
330
269
100
AcDbEntity
  8
VERMASSUNG
100
AcDbMText
 10
153.3040957392
 20
129.2233243792
 30
0.1
 40
2.0
 41
0.0
 71
     1
 72
     1
  1
40
  7
SLDTEXTSTYLE0
 11
-7.044195017643634E-15
 21
1.0
 31
0.0
 73
     1
 44
1.0
  0
ENDBLK
  5
26B
330
269
100
AcDbEntity
  8
0
100
AcDbBlockEnd
  0
BLOCK
  5
276
330
275
100
AcDbEntity
  8
0
100
AcDbBlockBegin
  2
_D_4
 70
     0
 10
0.0
 20
0.0
 30
0.0
  3
_D_4
  1

  0
SOLID
  5
278
330
275
100
AcDbEntity
  8
VERMASSUNG
100
AcDbTrace
 10
162.1145346317
 20
176.0183248876
 30
0.0
 11
165.1145346317
 21
175.5683248876
 31
0.0
 12
165.1145346317
 22
176.4683248876
 32
0.0
 13
165.1145346317
 23
176.4683248876
 33
0.0
  0
SOLID
  5
279
330
275
100
AcDbEntity
  8
VERMASSUNG
100
AcDbTrace
 10
257.0145346317
 20
176.0183248876
 30
0.0
 11
254.0145346317
 21
176.4683248876
 31
0.0
 12
254.0145346317
 22
175.5683248876
 32
0.0
 13
254.0145346317
 23
175.5683248876
 33
0.0
  0
LINE
  5
27A
330
275
100
AcDbEntity
  8
VERMASSUNG
100
AcDbLine
 10
162.1145346317
 20
139.4643084788
 30
0.0
 11
162.1145346317
 21
177.0183248876
 31
0.0
  0
LINE
  5
27B
330
275
100
AcDbEntity
  8
VERMASSUNG
100
AcDbLine
 10
257.0145346317
 20
138.0183248876
 30
0.0
 11
257.0145346317
 21
177.0183248876
 31
0.0
  0
LINE
  5
27C
330
275
100
AcDbEntity
  8
VERMASSUNG
100
AcDbLine
 10
162.1145346317
 20
176.0183248876
 30
0.0
 11
257.0145346317
 21
176.0183248876
 31
0.0
  0
MTEXT
  5
27D
330
275
100
AcDbEntity
  8
VERMASSUNG
100
AcDbMText
 10
206.1645345867
 20
178.5964602508
 30
0.1
 40
2.0
 41
0.0
 71
     1
 72
     1
  1
94.9
  7
SLDTEXTSTYLE0
 73
     1
 44
1.0
  0
ENDBLK
  5
277
330
275
100
AcDbEntity
  8
0
100
AcDbBlockEnd
  0
BLOCK
  5
2D7
330
2D6
100
AcDbEntity
  8
0
100
AcDbBlockBegin
  2
_D_5
 70
     0
 10
0.0
 20
0.0
 30
0.0
  3
_D_5
  1

  0
SOLID
  5
2D9
330
2D6
100
AcDbEntity
  8
VERMASSUNG
100
AcDbTrace
 10
111.4368251331
 20
154.3025961351
 30
0.0
 11
113.8763435282
 21
156.1057184271
 31
0.0
 12
113.2399474251
 22
156.7421145302
 32
0.0
 13
113.2399474251
 23
156.7421145302
 33
0.0
  0
SOLID
  5
2DA
330
2D6
100
AcDbEntity
  8
VERMASSUNG
100
AcDbTrace
 10
54.8682826382
 20
97.7340536402
 30
0.0
 11
52.4287642431
 21
95.9309313481
 31
0.0
 12
53.0651603462
 22
95.2945352451
 32
0.0
 13
53.0651603462
 23
95.2945352451
 33
0.0
  0
LINE
  5
2DB
330
2D6
100
AcDbEntity
  8
VERMASSUNG
100
AcDbLine
 10
111.4368251331
 20
154.3025961351
 30
0.0
 11
112.1439319143
 21
153.5954893539
 31
0.0
  0
LINE
  5
2DC
330
2D6
100
AcDbEntity
  8
VERMASSUNG
100
AcDbLine
 10
54.8682826382
 20
97.7340536402
 30
0.0
 11
55.5753894194
 21
97.026946859
 31
0.0
  0
LINE
  5
2DD
330
2D6
100
AcDbEntity
  8
VERMASSUNG
100
AcDbLine
 10
111.4368251331
 20
154.3025961351
 30
0.0
 11
115.6794658202
 21
158.5452368222
 31
0.0
  0
LINE
  5
2DE
330
2D6
100
AcDbEntity
  8
VERMASSUNG
100
AcDbLine
 10
111.4368251331
 20
154.3025961351
 30
0.0
 11
54.8682826382
 21
97.7340536402
 31
0.0
  0
LINE
  5
2DF
330
2D6
100
AcDbEntity
  8
VERMASSUNG
100
AcDbLine
 10
54.8682826382
 20
97.7340536402
 30
0.0
 11
45.9830095003
 21
88.8487805023
 31
0.0
  0
MTEXT
  5
2E0
330
2D6
100
AcDbEntity
  8
VERMASSUNG
100
AcDbMText
 10
44.1599924199
 20
90.6717975827
 30
-28.1
 40
2.0
 41
0.0
 71
     1
 72
     1
  1
%%c
  7
SLDTEXTSTYLE0
 11
0.7071067811865464
 21
0.7071067811865488
 31
0.0
 73
     1
 44
1.0
  0
MTEXT
  5
2E1
330
2D6
100
AcDbEntity
  8
VERMASSUNG
100
AcDbMText
 10
46.5712265472
 20
93.3658744358
 30
-28.1
 40
2.0
 41
0.0
 71
     1
 72
     1
  1
80
  7
SLDTEXTSTYLE0
 11
0.7071067811865464
 21
0.7071067811865488
 31
0.0
 73
     1
 44
1.0
  0
ENDBLK
  5
2D8
330
2D6
100
AcDbEntity
  8
0
100
AcDbBlockEnd
  0
BLOCK
  5
2E3
330
2E2
100
AcDbEntity
  8
0
100
AcDbBlockBegin
  2
SW_CENTERMARKSYMBOL_0
 70
     0
 10
0.0
 20
0.0
 30
0.0
  3
SW_CENTERMARKSYMBOL_0
  1

  0
LINE
  5
2E5
330
2E2
100
AcDbEntity
  8
VERMASSUNG
 62
     0
100
AcDbLine
 10
0.0
 20
0.0
 30
0.0
 11
0.0
 21
2.5
 31
0.0
  0
LINE
  5
2E6
330
2E2
100
AcDbEntity
  8
VERMASSUNG
 62
     0
100
AcDbLine
 10
0.0
 20
0.0
 30
0.0
 11
-2.5
 21
0.0
 31
0.0
  0
LINE
  5
2E7
330
2E2
100
AcDbEntity
  8
VERMASSUNG
 62
     0
100
AcDbLine
 10
0.0
 20
0.0
 30
0.0
 11
0.0
 21
-2.5
 31
0.0
  0
LINE
  5
2E8
330
2E2
100
AcDbEntity
  8
VERMASSUNG
 62
     0
100
AcDbLine
 10
0.0
 20
0.0
 30
0.0
 11
2.5
 21
0.0
 31
0.0
  0
LINE
  5
2E9
330
2E2
100
AcDbEntity
  8
VERMASSUNG
 62
     0
100
AcDbLine
 10
0.0
 20
5.0
 30
0.0
 11
0.0
 21
42.5
 31
0.0
  0
LINE
  5
2EA
330
2E2
100
AcDbEntity
  8
VERMASSUNG
 62
     0
100
AcDbLine
 10
-5.0
 20
0.0
 30
0.0
 11
-42.5
 21
0.0
 31
0.0
  0
LINE
  5
2EB
330
2E2
100
AcDbEntity
  8
VERMASSUNG
 62
     0
100
AcDbLine
 10
0.0
 20
-5.0
 30
0.0
 11
0.0
 21
-42.5
 31
0.0
  0
LINE
  5
2EC
330
2E2
100
AcDbEntity
  8
VERMASSUNG
 62
     0
100
AcDbLine
 10
5.0
 20
0.0
 30
0.0
 11
42.5
 21
0.0
 31
0.0
  0
ENDBLK
  5
2E4
330
2E2
100
AcDbEntity
  8
0
100
AcDbBlockEnd
  0
ENDSEC
  0
SECTION
  2
ENTITIES
  0
MTEXT
  5
49
330
1F
100
AcDbEntity
  8
KOPF_DÜNN
100
AcDbMText
 10
13.8892156294
 20
23.8442973028
 30
0.0
 40
3.0
 41
0.0
 71
     1
 72
     1
  1
HA4.AM2.K11.075
  7
SLDTEXTSTYLE0
 73
     1
 44
1.0
  0
MTEXT
  5
4A
330
1F
100
AcDbEntity
  8
VERMASSUNG
100
AcDbMText
 10
13.9329988022
 20
28.8834360957
 30
0.0
 40
3.0
 41
0.0
 71
     1
 72
     1
  1
Abstechhalter radial / Cut-off block radial
  7
SLDTEXTSTYLE0
 73
     1
 44
1.0
  0
MTEXT
  5
4B
330
1F
100
AcDbEntity
  8
VERMASSUNG
100
AcDbMText
 10
98.8601118557
 20
13.8365368179
 30
0.0
 40
2.0
 41
0.0
 71
     1
 72
     1
  1
Datum: 18.06.2012
  7
SLDTEXTSTYLE0
 73
     1
 44
1.0
  0
MTEXT
  5
4D
330
1F
100
AcDbEntity
  8
VERMASSUNG
100
AcDbMText
 10
13.933048693
 20
18.0482802738
 30
0.0
 40
2.0
 41
0.0
 71
     1
 72
     1
  1
HSK T ø40 / H 26
  7
SLDTEXTSTYLE1
 73
     1
 44
1.0
  0
MTEXT
  5
4E
330
1F
100
AcDbEntity
  8
VERMASSUNG
100
AcDbMText
 10
13.9808475933
 20
13.9090973692
 30
0.0
 40
2.0
 41
0.0
 71
     1
 72
     1
  1
Gewicht: 1425g
  7
SLDTEXTSTYLE0
 73
     1
 44
1.0
  0
LINE
  5
4F
330
1F
100
AcDbEntity
  8
0
  6
Continuous
 62
     7
370
    15
100
AcDbLine
 10
220.9031790588
 20
86.0183257817
 30
0.0
 11
257.014537612
 21
86.0183257817
 31
0.0
  0
LINE
  5
50
330
1F
100
AcDbEntity
  8
0
  6
Continuous
 62
     7
370
    15
100
AcDbLine
 10
238.0145363603
 20
166.0183239936
 30
0.0
 11
220.9031790588
 21
166.0183239936
 31
0.0
  0
ARC
  5
51
330
1F
100
AcDbEntity
  8
0
  6
Continuous
 62
     7
370
    15
100
AcDbCircle
 10
220.9031805726
 20
87.0183248876
 30
0.0
 40
1.0
100
AcDbArc
 50
185.0
 51
270.0
  0
ARC
  5
52
330
1F
100
AcDbEntity
  8
0
  6
Continuous
 62
     7
370
    15
100
AcDbCircle
 10
220.9031805726
 20
165.0183248876
 30
0.0
 40
1.0
100
AcDbArc
 50
90.0
 51
175.0
  0
LINE
  5
53
330
1F
100
AcDbEntity
  8
0
  6
Continuous
 62
     7
370
    15
100
AcDbLine
 10
219.9069842789
 20
165.1054788588
 30
0.0
 11
218.0107295606
 21
143.431169933
 31
0.0
  0
LINE
  5
54
330
1F
100
AcDbEntity
  8
0
  6
Continuous
 62
     7
370
    15
100
AcDbLine
 10
218.0107295606
 20
108.6054798423
 30
0.0
 11
219.9069842789
 21
86.9311709164
 31
0.0
  0
ARC
  5
55
330
1F
100
AcDbEntity
  8
0
  6
Continuous
 62
     7
370
    15
100
AcDbCircle
 10
182.3145346317
 20
106.3183248876
 30
0.0
 40
0.3000000000000114
100
AcDbArc
 50
180.0
 51
270.0
  0
ARC
  5
56
330
1F
100
AcDbEntity
  8
0
  6
Continuous
 62
     7
370
    15
100
AcDbCircle
 10
182.3145346317
 20
145.7183248876
 30
0.0
 40
0.3000000000000114
100
AcDbArc
 50
90.0
 51
180.0
  0
LINE
  5
57
330
1F
100
AcDbEntity
  8
0
  6
Continuous
 62
     7
370
    15
100
AcDbLine
 10
193.9553584997
 20
106.0183253347
 30
0.0
 11
195.9793748427
 21
106.0183253347
 31
0.0
  0
LINE
  5
58
330
1F
100
AcDbEntity
  8
0
  6
Continuous
 62
     7
370
    15
100
AcDbLine
 10
182.314534646
 20
106.0183253347
 30
0.0
 11
184.0423109569
 21
106.0183253347
 31
0.0
  0
LINE
  5
59
330
1F
100
AcDbEntity
  8
0
  6
Continuous
 62
     7
370
    15
100
AcDbLine
 10
195.9793748427
 20
146.0183244406
 30
0.0
 11
182.314534646
 21
146.0183244406
 31
0.0
  0
ARC
  5
5A
330
1F
100
AcDbEntity
  8
0
  6
Continuous
 62
     7
370
    15
100
AcDbCircle
 10
201.3645346317
 20
145.4183248876
 30
0.0
 40
0.6000000000000227
100
AcDbArc
 50
0.0
 51
90.0
  0
ARC
  5
5B
330
1F
100
AcDbEntity
  8
0
  6
Continuous
 62
     7
370
    15
100
AcDbCircle
 10
201.3645346317
 20
106.6183248876
 30
0.0
 40
0.6000000000000227
100
AcDbArc
 50
270.0
 51
0.0
  0
LINE
  5
5C
330
1F
100
AcDbEntity
  8
0
  6
Continuous
 62
     7
370
    15
100
AcDbLine
 10
199.0545339976
 20
107.7419929414
 30
0.0
 11
200.0496950094
 21
106.0183253347
 31
0.0
  0
LINE
  5
5D
330
1F
100
AcDbEntity
  8
0
  6
Continuous
 62
     7
370
    15
100
AcDbLine
 10
201.3645343576
 20
146.0183244406
 30
0.0
 11
200.0496950094
 21
146.0183244406
 31
0.0
  0
LINE
  5
5E
330
1F
100
AcDbEntity
  8
0
  6
Continuous
 62
     7
370
    15
100
AcDbLine
 10
200.0496950094
 20
146.0183244406
 30
0.0
 11
199.0545339976
 21
144.2946568339
 31
0.0
  0
LINE
  5
5F
330
1F
100
AcDbEntity
  8
0
  6
Continuous
 62
     7
370
    15
100
AcDbLine
 10
195.9793748427
 20
106.0183253347
 30
0.0
 11
196.9745349232
 21
107.7419929414
 31
0.0
  0
LINE
  5
60
330
1F
100
AcDbEntity
  8
0
  6
Continuous
 62
     7
370
    15
100
AcDbLine
 10
196.9745349232
 20
144.2946568339
 30
0.0
 11
195.9793748427
 21
146.0183244406
 31
0.0
  0
LINE
  5
61
330
1F
100
AcDbEntity
  8
0
  6
Continuous
 62
     7
370
    15
100
AcDbLine
 10
200.0496950094
 20
106.0183253347
 30
0.0
 11
201.3645343576
 21
106.0183253347
 31
0.0
  0
ARC
  5
62
330
1F
100
AcDbEntity
  8
0
  6
Continuous
 62
     7
370
    15
100
AcDbCircle
 10
217.0145346317
 20
108.5183248876
 30
0.0
 40
1.00000000000003
100
AcDbArc
 50
5.0
 51
90.0
  0
ARC
  5
63
330
1F
100
AcDbEntity
  8
0
  6
Continuous
 62
     7
370
    15
100
AcDbCircle
 10
217.0145346317
 20
143.5183248876
 30
0.0
 40
1.000000000000033
100
AcDbArc
 50
270.0
 51
355.0
  0
ARC
  5
64
330
1F
100
AcDbEntity
  8
0
  6
Continuous
 62
     7
370
    15
100
AcDbCircle
 10
198.4545346317
 20
108.0433248876
 30
0.0
 40
0.6000000000000085
100
AcDbArc
 50
0.0
 51
90.0
  0
ARC
  5
65
330
1F
100
AcDbEntity
  8
0
  6
Continuous
 62
     7
370
    15
100
AcDbCircle
 10
197.5745346317
 20
108.0433248876
 30
0.0
 40
0.6000000000000227
100
AcDbArc
 50
90.0
 51
180.0
  0
ARC
  5
66
330
1F
100
AcDbEntity
  8
0
  6
Continuous
 62
     7
370
    15
100
AcDbCircle
 10
198.4545346317
 20
143.9933248876
 30
0.0
 40
0.5999999999999943
100
AcDbArc
 50
270.0
 51
0.0
  0
ARC
  5
67
330
1F
100
AcDbEntity
  8
0
  6
Continuous
 62
     7
370
    15
100
AcDbCircle
 10
197.5745346317
 20
143.9933248876
 30
0.0
 40
0.6000000000000227
100
AcDbArc
 50
180.0
 51
270.0
  0
LINE
  5
68
330
1F
100
AcDbEntity
  8
0
  6
Continuous
 62
     7
370
    15
100
AcDbLine
 10
197.5745348353
 20
108.6433250664
 30
0.0
 11
198.4545350168
 21
108.6433250664
 31
0.0
  0
ARC
  5
69
330
1F
100
AcDbEntity
  8
0
  6
Continuous
 62
     7
370
    15
100
AcDbCircle
 10
202.9645346317
 20
108.5183248876
 30
0.0
 40
1.0
100
AcDbArc
 50
90.0
 51
180.0
  0
ARC
  5
6A
330
1F
100
AcDbEntity
  8
0
  6
Continuous
 62
     7
370
    15
100
AcDbCircle
 10
202.9645346317
 20
143.5183248876
 30
0.0
 40
1.0
100
AcDbArc
 50
180.0
 51
270.0
  0
LINE
  5
6B
330
1F
100
AcDbEntity
  8
0
  6
Continuous
 62
     7
370
    15
100
AcDbLine
 10
198.4545350168
 20
143.3933247088
 30
0.0
 11
197.5745348353
 21
143.3933247088
 31
0.0
  0
LINE
  5
6C
330
1F
100
AcDbEntity
  8
0
  6
Continuous
 62
     7
370
    15
100
AcDbLine
 10
202.9645353649
 20
109.518324977
 30
0.0
 11
217.0145347808
 21
109.518324977
 31
0.0
  0
LINE
  5
6D
330
1F
100
AcDbEntity
  8
0
  6
Continuous
 62
     7
370
    15
100
AcDbLine
 10
217.0145347808
 20
142.5183247982
 30
0.0
 11
202.9645353649
 21
142.5183247982
 31
0.0
  0
ARC
  5
6E
330
1F
100
AcDbEntity
  8
0
  6
Continuous
 62
     7
370
    15
100
AcDbCircle
 10
181.5145278791
 20
110.5646177342
 30
0.0
 40
0.6000067526677282
100
AcDbArc
 50
33.5571153394
 51
90.0
  0
ARC
  5
6F
330
1F
100
AcDbEntity
  8
0
  6
Continuous
 62
     7
370
    15
100
AcDbCircle
 10
181.5145278791
 20
141.4720320411
 30
0.0
 40
0.600006752667744
100
AcDbArc
 50
270.0
 51
326.4428846606
  0
LINE
  5
70
330
1F
100
AcDbEntity
  8
0
  6
Continuous
 62
     7
370
    15
100
AcDbLine
 10
180.0145345368
 20
141.1220254584
 30
0.0
 11
162.8745053057
 21
140.2633059977
 31
0.0
  0
LINE
  5
71
330
1F
100
AcDbEntity
  8
0
  6
Continuous
 62
     7
370
    15
100
AcDbLine
 10
162.8745053057
 20
111.7733437775
 30
0.0
 11
180.0145345368
 21
110.9146243169
 31
0.0
  0
LINE
  5
72
330
1F
100
AcDbEntity
  8
0
  6
Continuous
 62
     7
370
    15
100
AcDbLine
 10
180.0145345368
 20
110.9146243169
 30
0.0
 11
180.8712465316
 21
111.144179499
 31
0.0
  0
LINE
  5
73
330
1F
100
AcDbEntity
  8
0
  6
Continuous
 62
     7
370
    15
100
AcDbLine
 10
180.8712465316
 20
140.8924702762
 30
0.0
 11
180.0145345368
 21
141.1220254584
 31
0.0
  0
ARC
  5
74
330
1F
100
AcDbEntity
  8
0
  6
Continuous
 62
     7
370
    15
100
AcDbCircle
 10
181.0265397212
 20
110.5646177342
 30
0.0
 40
0.60000675266771
100
AcDbArc
 50
90.0
 51
105.0
  0
ARC
  5
75
330
1F
100
AcDbEntity
  8
0
  6
Continuous
 62
     7
370
    15
100
AcDbCircle
 10
181.0265397212
 20
141.4720320411
 30
0.0
 40
0.6000067526677242
100
AcDbArc
 50
255.0
 51
270.0
  0
LINE
  5
76
330
1F
100
AcDbEntity
  8
0
  6
Continuous
 62
     7
370
    15
100
AcDbLine
 10
181.0265396815
 20
111.1646248235
 30
0.0
 11
181.5145278559
 21
111.1646248235
 31
0.0
  0
LINE
  5
77
330
1F
100
AcDbEntity
  8
0
  6
Continuous
 62
     7
370
    15
100
AcDbLine
 10
181.5145278559
 20
140.8720249517
 30
0.0
 11
181.0265396815
 21
140.8720249517
 31
0.0
  0
ARC
  5
78
330
1F
100
AcDbEntity
  8
0
  6
Continuous
 62
     7
370
    15
100
AcDbCircle
 10
162.9145346317
 20
112.5723412965
 30
0.0
 40
0.7999999999999886
100
AcDbArc
 50
180.0
 51
267.1318680593
  0
ARC
  5
79
330
1F
100
AcDbEntity
  8
0
  6
Continuous
 62
     7
370
    15
100
AcDbCircle
 10
162.9145346317
 20
139.4643084788
 30
0.0
 40
0.8000000000000028
100
AcDbArc
 50
92.8681319407
 51
180.0
  0
LINE
  5
7A
330
1F
100
AcDbEntity
  8
0
  6
Continuous
 62
     7
370
    15
100
AcDbLine
 10
227.1970160399
 20
161.6597417949
 30
0.0
 11
227.0747967158
 21
161.7556382178
 31
0.0
  0
LINE
  5
7B
330
1F
100
AcDbEntity
  8
0
  6
Continuous
 62
     7
370
    15
100
AcDbLine
 10
222.9542717431
 20
161.7556382178
 30
0.0
 11
222.832052419
 21
161.6597417949
 31
0.0
  0
LWPOLYLINE
  5
7C
330
1F
100
AcDbEntity
  8
0
  6
Continuous
 62
     7
370
    15
100
AcDbPolyline
 90
        3
 70
   128
 43
0.0
 10
225.0546686444
 20
161.0935423731
 10
224.4896911178
 20
161.0238533674
 10
224.1706125531
 20
160.90717355
  0
LWPOLYLINE
  5
7D
330
1F
100
AcDbEntity
  8
0
  6
Continuous
 62
     7
370
    15
100
AcDbPolyline
 90
        3
 70
   128
 43
0.0
 10
225.8364431653
 20
160.9172579108
 10
225.6163939927
 20
161.00123713
 10
225.0546686444
 20
161.0935423731
  0
LINE
  5
7E
330
1F
100
AcDbEntity
  8
0
  6
Continuous
 62
     7
370
    15
100
AcDbLine
 10
253.6145322118
 20
161.5183260499
 30
0.0
 11
253.0145369563
 21
161.5183260499
 31
0.0
  0
LINE
  5
7F
330
1F
100
AcDbEntity
  8
0
  6
Continuous
 62
     7
370
    15
100
AcDbLine
 10
253.0145369563
 20
148.5183257817
 30
0.0
 11
253.6145322118
 21
148.5183257817
 31
0.0
  0
ARC
  5
80
330
1F
100
AcDbEntity
  8
0
  6
Continuous
 62
     7
370
    15
100
AcDbCircle
 10
252.4145346317
 20
150.4183248876
 30
0.0
 40
0.6000000000000512
100
AcDbArc
 50
0.0
 51
90.0
  0
ARC
  5
81
330
1F
100
AcDbEntity
  8
0
  6
Continuous
 62
     7
370
    15
100
AcDbCircle
 10
252.4145346317
 20
159.6183248876
 30
0.0
 40
0.6000000000000512
100
AcDbArc
 50
270.0
 51
0.0
  0
LINE
  5
82
330
1F
100
AcDbEntity
  8
0
  6
Continuous
 62
     7
370
    15
100
AcDbLine
 10
252.4145342503
 20
159.0183247088
 30
0.0
 11
242.0145332906
 21
159.0183247088
 31
0.0
  0
LINE
  5
83
330
1F
100
AcDbEntity
  8
0
  6
Continuous
 62
     7
370
    15
100
AcDbLine
 10
242.0145332906
 20
151.0183252602
 30
0.0
 11
252.4145342503
 21
151.0183252602
 31
0.0
  0
ARC
  5
84
330
1F
100
AcDbEntity
  8
0
  6
Continuous
 62
     7
370
    15
100
AcDbCircle
 10
241.9145346317
 20
138.7183248876
 30
0.0
 40
0.3000000000000398
100
AcDbArc
 50
90.0
 51
180.0
  0
ARC
  5
85
330
1F
100
AcDbEntity
  8
0
  6
Continuous
 62
     7
370
    15
100
AcDbCircle
 10
251.3145346317
 20
138.7183248876
 30
0.0
 40
0.3000000000000398
100
AcDbArc
 50
0.0
 51
90.0
  0
LINE
  5
86
330
1F
100
AcDbEntity
  8
0
  6
Continuous
 62
     7
370
    15
100
AcDbLine
 10
241.6145339701
 20
138.7183247341
 30
0.0
 11
241.6145339701
 21
138.0183249919
 31
0.0
  0
LINE
  5
87
330
1F
100
AcDbEntity
  8
0
  6
Continuous
 62
     7
370
    15
100
AcDbLine
 10
251.6145356093
 20
138.0183249919
 30
0.0
 11
251.6145356093
 21
138.7183247341
 31
0.0
  0
LINE
  5
88
330
1F
100
AcDbEntity
  8
0
  6
Continuous
 62
     7
370
    15
100
AcDbLine
 10
243.614534298
 20
128.0183249826
 30
0.0
 11
243.614534298
 21
126.0183248876
 31
0.0
  0
LINE
  5
89
330
1F
100
AcDbEntity
  8
0
  6
Continuous
 62
     7
370
    15
100
AcDbLine
 10
249.6145315561
 20
126.0183248876
 30
0.0
 11
249.6145315561
 21
128.0183249826
 31
0.0
  0
LINE
  5
8A
330
1F
100
AcDbEntity
  8
0
  6
Continuous
 62
     7
370
    15
100
AcDbLine
 10
251.5145339165
 20
126.0183248876
 30
0.0
 11
238.3173093293
 21
126.0183248876
 31
0.0
  0
LINE
  5
8B
330
1F
100
AcDbEntity
  8
0
  6
Continuous
 62
     7
370
    15
100
AcDbLine
 10
251.5145339165
 20
104.1896064042
 30
0.0
 11
251.5145339165
 21
126.0183248876
 31
0.0
  0
LWPOLYLINE
  5
8C
330
1F
100
AcDbEntity
  8
0
  6
Continuous
 62
     7
370
    15
100
AcDbPolyline
 90
        3
 70
   128
 43
0.0
 10
257.014537612
 20
105.663327521
 10
254.246028522
 20
104.9215067385
 10
251.5145339165
 20
104.1896064042
  0
LINE
  5
8D
330
1F
100
AcDbEntity
  8
0
  6
Continuous
 62
     7
370
    15
100
AcDbLine
 10
257.014537612
 20
86.0183257817
 30
0.0
 11
257.014537612
 21
105.663327521
 31
0.0
  0
LINE
  5
8E
330
1F
100
AcDbEntity
  8
0
  6
Continuous
 62
     7
370
    15
100
AcDbLine
 10
238.0145363603
 20
166.0183239936
 30
0.0
 11
238.0145363603
 21
138.0183249919
 31
0.0
  0
LINE
  5
8F
330
1F
100
AcDbEntity
  8
0
  6
Continuous
 62
     7
370
    15
100
AcDbLine
 10
257.014537612
 20
138.0183249919
 30
0.0
 11
238.0145363603
 21
138.0183249919
 31
0.0
  0
LINE
  5
90
330
1F
100
AcDbEntity
  8
0
  6
Continuous
 62
     7
370
    15
100
AcDbLine
 10
257.014537612
 20
128.715885591
 30
0.0
 11
257.014537612
 21
138.0183249919
 31
0.0
  0
LWPOLYLINE
  5
91
330
1F
100
AcDbEntity
  8
0
  6
Continuous
 62
     7
370
    15
100
AcDbPolyline
 90
        3
 70
   128
 43
0.0
 10
251.5145339165
 20
130.1896060093
 10
254.2623452935
 20
129.4533331154
 10
257.014537612
 20
128.715885591
  0
LINE
  5
92
330
1F
100
AcDbEntity
  8
0
  6
Continuous
 62
     7
370
    15
100
AcDbLine
 10
251.5145339165
 20
128.0183249826
 30
0.0
 11
251.5145339165
 21
130.1896060093
 31
0.0
  0
LINE
  5
93
330
1F
100
AcDbEntity
  8
0
  6
Continuous
 62
     7
370
    15
100
AcDbLine
 10
251.5145339165
 20
128.0183249826
 30
0.0
 11
239.8686356936
 21
128.0183249826
 31
0.0
  0
SPLINE
  5
94
330
1F
100
AcDbEntity
  8
0
  6
Continuous
 62
     7
370
    15
100
AcDbSpline
210
0.0
220
0.0
230
1.0
 70
     8
 71
     3
 72
    66
 73
    62
 74
     0
 42
0.00000001
 43
0.00000001
 12
1.0
 22
0.0
 32
0.0
 13
1.0
 23
0.0
 33
0.0
 40
-0.0625
 40
-0.0625
 40
0.0
 40
0.0
 40
0.0312500000000001
 40
0.0312500000000001
 40
0.0625000000000002
 40
0.0625000000000002
 40
0.0937500000000003
 40
0.0937500000000003
 40
0.1250000000000002
 40
0.1250000000000002
 40
0.1562500000000001
 40
0.1562500000000001
 40
0.1875000000000001
 40
0.1875000000000001
 40
0.21875
 40
0.21875
 40
0.2499999999999999
 40
0.2499999999999999
 40
0.2812499999999999
 40
0.2812499999999999
 40
0.3124999999999998
 40
0.3124999999999998
 40
0.3437499999999997
 40
0.3437499999999997
 40
0.3749999999999997
 40
0.3749999999999997
 40
0.4062499999999996
 40
0.4062499999999996
 40
0.4374999999999995
 40
0.4374999999999995
 40
0.4687499999999994
 40
0.4687499999999994
 40
0.4999999999999994
 40
0.4999999999999994
 40
0.5312499999999993
 40
0.5312499999999993
 40
0.5624999999999993
 40
0.5624999999999993
 40
0.6250000000000001
 40
0.6250000000000001
 40
0.6562500000000001
 40
0.6562500000000001
 40
0.6875000000000001
 40
0.6875000000000001
 40
0.7187500000000001
 40
0.7187500000000001
 40
0.7500000000000001
 40
0.7500000000000001
 40
0.7812500000000001
 40
0.7812500000000001
 40
0.8125000000000001
 40
0.8125000000000001
 40
0.8437500000000001
 40
0.8437500000000001
 40
0.875
 40
0.875
 40
0.90625
 40
0.90625
 40
0.9375
 40
0.9375
 40
1.0
 40
1.0
 40
1.03125
 40
1.03125
 10
224.6841242070158
 20
162.995727614894
 30
0.0
 10
225.1797398441123
 20
162.995727614894
 30
0.0
 10
225.3421763009114
 20
162.9895406788517
 30
0.0
 10
225.6617406413768
 20
162.9651999920344
 30
0.0
 10
225.8205266930595
 20
162.9467482460917
 30
0.0
 10
226.1232623156606
 20
162.8982571308258
 30
0.0
 10
226.2668396166898
 20
162.8684586755111
 30
0.0
 10
226.5385657843748
 20
162.7974172028187
 30
0.0
 10
226.6671891586502
 20
162.7557926134391
 30
0.0
 10
226.8977472180409
 20
162.6638714807634
 30
0.0
 10
227.0012194933053
 20
162.6132679215463
 30
0.0
 10
227.1839801521066
 20
162.5020169762065
 30
0.0
 10
227.2616216056112
 20
162.4421572206813
 30
0.0
 10
227.386315769575
 20
162.3167664590629
 30
0.0
 10
227.4343225421136
 20
162.2503110969877
 30
0.0
 10
227.4985561614399
 20
162.1123782161297
 30
0.0
 10
227.5144466905352
 20
162.0421611793745
 30
0.0
 10
227.5146218519506
 20
161.8991893555257
 30
0.0
 10
227.4983899721342
 20
161.8256519694689
 30
0.0
 10
227.4346066144085
 20
161.6815685019766
 30
0.0
 10
227.3874130098415
 20
161.6106706623917
 30
0.0
 10
227.2622413901098
 20
161.471466027299
 30
0.0
 10
227.1839836916751
 20
161.4033689052582
 30
0.0
 10
227.0030661574154
 20
161.2761594340888
 30
0.0
 10
226.8997816903834
 20
161.2162451083238
 30
0.0
 10
226.6665263726155
 20
161.1046152534666
 30
0.0
 10
226.5401280954651
 20
161.0546402917927
 30
0.0
 10
226.269460797409
 20
160.9667820497357
 30
0.0
 10
226.1233744414748
 20
160.9285218306936
 30
0.0
 10
225.8204996057524
 20
160.8669527639387
 30
0.0
 10
225.6646696083988
 20
160.8436273752151
 30
0.0
 10
225.3443138411477
 20
160.812026759928
 30
0.0
 10
225.1785998991342
 20
160.8039009345336
 30
0.0
 10
224.8522642607273
 20
160.8038429867244
 30
0.0
 10
224.6900717210501
 20
160.8116486243108
 30
0.0
 10
224.3676786372747
 20
160.8431615020788
 30
0.0
 10
224.2096727047095
 20
160.8668053160305
 30
0.0
 10
223.7582616663544
 20
160.9583403788979
 30
0.0
 10
223.4791941310765
 20
161.049097288943
 30
0.0
 10
223.1331229345909
 20
161.2142580387035
 30
0.0
 10
223.0274809913381
 20
161.2752204663376
 30
0.0
 10
222.8457066761766
 20
161.4028331505576
 30
0.0
 10
222.7688178674866
 20
161.469602603361
 30
0.0
 10
222.6431571547294
 20
161.6086614276551
 30
0.0
 10
222.5948504551139
 20
161.6809712380718
 30
0.0
 10
222.5310305748034
 20
161.8245828824823
 30
0.0
 10
222.5147001361861
 20
161.8966696831586
 30
0.0
 10
222.5143716060947
 20
162.0413211202251
 30
0.0
 10
222.5304679126474
 20
162.1118675373453
 30
0.0
 10
222.5936996128122
 20
162.2484691514179
 30
0.0
 10
222.6415431618888
 20
162.3153751155287
 30
0.0
 10
222.7668828758352
 20
162.4417610858497
 30
0.0
 10
222.8435783271765
 20
162.5008801930969
 30
0.0
 10
223.0246348757129
 20
162.6115224798012
 30
0.0
 10
223.1301076706664
 20
162.6633193617849
 30
0.0
 10
223.3606207179862
 20
162.755357743871
 30
0.0
 10
223.4863377219673
 20
162.7961858006327
 30
0.0
 10
223.7591168007347
 20
162.867783378316
 30
0.0
 10
223.9048162196714
 20
162.8980377534737
 30
0.0
 10
224.3558795184829
 20
162.9704683213907
 30
0.0
 10
224.6841242070158
 20
162.995727614894
 30
0.0
 10
225.1797398441123
 20
162.995727614894
 30
0.0
  0
SPLINE
  5
95
330
1F
100
AcDbEntity
  8
0
  6
Continuous
 62
     7
370
    15
100
AcDbSpline
210
0.0
220
0.0
230
1.0
 70
     8
 71
     3
 72
    22
 73
    18
 74
     0
 42
0.00000001
 43
0.00000001
 12
1.0
 22
0.0
 32
0.0
 13
1.0
 23
0.0
 33
0.0
 40
0.0
 40
0.0
 40
0.0
 40
0.0
 40
0.0499667272060757
 40
0.099933459865848
 40
0.1499002034333462
 40
0.1998669633625937
 40
0.2498337451076119
 40
0.2998005541224138
 40
0.349767395861001
 40
0.3997342757773691
 40
0.4497011993254969
 40
0.4996681719593503
 40
0.5841360897367992
 40
0.7488767879297421
 40
0.8591798609028963
 40
0.9428933729289242
 40
1.0
 40
1.0
 40
1.0
 40
1.0
 10
234.7117589940148
 20
126.0183248876242
 30
0.0
 10
234.76632438912
 20
125.9866836741147
 30
0.0
 10
234.8754551852861
 20
125.9234012436423
 30
0.0
 10
235.0453513803072
 20
125.8398682196798
 30
0.0
 10
235.2191617778134
 20
125.7649920674739
 30
0.0
 10
235.3968580525472
 20
125.6997894431717
 30
0.0
 10
235.5777925711823
 20
125.6442370462957
 30
0.0
 10
235.7614711478291
 20
125.5985544633199
 30
0.0
 10
235.9473479018663
 20
125.5628598161177
 30
0.0
 10
236.1348823329958
 20
125.5372614808758
 30
0.0
 10
236.3235255655991
 20
125.5218332255923
 30
0.0
 10
236.5562742138506
 20
125.5154202748226
 30
0.0
 10
236.9338925778364
 20
125.5324857315938
 30
0.0
 10
237.3831031330527
 20
125.6140783746454
 30
0.0
 10
237.8121984700981
 20
125.7612099131629
 30
0.0
 10
238.1008146385402
 20
125.8935759396139
 30
0.0
 10
238.2548460788194
 20
125.9823318191299
 30
0.0
 10
238.3173102694788
 20
126.0183248876242
 30
0.0
  0
SPLINE
  5
96
330
1F
100
AcDbEntity
  8
0
  6
Continuous
 62
     7
370
    15
100
AcDbSpline
210
0.0
220
0.0
230
1.0
 70
     8
 71
     3
 72
    52
 73
    48
 74
     0
 42
0.00000001
 43
0.00000001
 12
1.0
 22
0.0
 32
0.0
 13
1.0
 23
0.0
 33
0.0
 40
0.0
 40
0.0
 40
0.0
 40
0.0
 40
0.0624999999999999
 40
0.0624999999999999
 40
0.1249999999999999
 40
0.1249999999999999
 40
0.1562500000000001
 40
0.1562500000000001
 40
0.1875000000000002
 40
0.1875000000000002
 40
0.2187500000000004
 40
0.2187500000000004
 40
0.2500000000000006
 40
0.2500000000000006
 40
0.3124999999999998
 40
0.3124999999999998
 40
0.3437499999999994
 40
0.3437499999999994
 40
0.3749999999999991
 40
0.3749999999999991
 40
0.4374999999999984
 40
0.4374999999999984
 40
0.4999999999999978
 40
0.4999999999999978
 40
0.5312499999999976
 40
0.5312499999999976
 40
0.5624999999999972
 40
0.5624999999999972
 40
0.6249999999999976
 40
0.6249999999999976
 40
0.6562499999999979
 40
0.6562499999999979
 40
0.6874999999999982
 40
0.6874999999999982
 40
0.7187499999999984
 40
0.7187499999999984
 40
0.7499999999999988
 40
0.7499999999999988
 40
0.8124999999999994
 40
0.8124999999999994
 40
0.8750000000000001
 40
0.8750000000000001
 40
0.9062500000000001
 40
0.9062500000000001
 40
0.9375
 40
0.9375
 40
1.0
 40
1.0
 40
1.0
 40
1.0
 10
239.8686365979965
 20
128.0183248876241
 30
0.0
 10
239.9617666728342
 20
128.3306926547541
 30
0.0
 10
240.010739948481
 20
128.6521817993921
 30
0.0
 10
240.0179108060514
 20
129.3079241955238
 30
0.0
 10
239.976231703578
 20
129.6287415914943
 30
0.0
 10
239.8472795432735
 20
130.0996667147375
 30
0.0
 10
239.7928036015098
 20
130.2549279873743
 30
0.0
 10
239.6645829302339
 20
130.5524143184011
 30
0.0
 10
239.590551636066
 20
130.6959073921246
 30
0.0
 10
239.4227121792798
 20
130.9724658810767
 30
0.0
 10
239.32814564159
 20
131.1064231726125
 30
0.0
 10
239.1219279322234
 20
131.3588507984211
 30
0.0
 10
239.0110099161641
 20
131.4767204575048
 30
0.0
 10
238.6553994381754
 20
131.8059920800014
 30
0.0
 10
238.3833228409737
 20
131.9953710064637
 30
0.0
 10
237.9492113204538
 20
132.2148849199154
 30
0.0
 10
237.7999631473729
 20
132.2777882889361
 30
0.0
 10
237.492290711883
 20
132.3829082468283
 30
0.0
 10
237.332530818019
 20
132.4253134097287
 30
0.0
 10
236.8511584760336
 20
132.5173874177158
 30
0.0
 10
236.5269363066342
 20
132.5337259565781
 30
0.0
 10
235.8717387112601
 20
132.4744805383072
 30
0.0
 10
235.5550718570695
 20
132.3999992536419
 30
0.0
 10
235.0990164076489
 20
132.2234583857315
 30
0.0
 10
234.9495315606888
 20
132.1531578260663
 30
0.0
 10
234.6657677462698
 20
131.9946436151006
 30
0.0
 10
234.530318318342
 20
131.9060773098709
 30
0.0
 10
234.14302665271
 20
131.612715688498
 30
0.0
 10
233.9095026537269
 20
131.3780097176435
 30
0.0
 10
233.6186416902547
 20
130.9906027831801
 30
0.0
 10
233.5306192118405
 20
130.8548425102919
 30
0.0
 10
233.3729029387847
 20
130.5696786568528
 30
0.0
 10
233.3037865849535
 20
130.4209218224643
 30
0.0
 10
233.1880732519356
 20
130.1187047630467
 30
0.0
 10
233.1408798239244
 20
129.9642180263155
 30
0.0
 10
233.0679102506705
 20
129.648436757007
 30
0.0
 10
233.0420704884771
 20
129.4858232858632
 30
0.0
 10
232.9994436338677
 20
128.9987496167795
 30
0.0
 10
233.0159726868214
 20
128.6753934285373
 30
0.0
 10
233.1405651012741
 20
128.0314777487249
 30
0.0
 10
233.2467289666519
 20
127.7230789079564
 30
0.0
 10
233.4682229658234
 20
127.2872734044999
 30
0.0
 10
233.5533857020643
 20
127.1453039515267
 30
0.0
 10
233.7404386761465
 20
126.8779973332667
 30
0.0
 10
233.8426066347089
 20
126.7517898582224
 30
0.0
 10
234.1746939615385
 20
126.3952223960159
 30
0.0
 10
234.4334508926271
 20
126.1855672426126
 30
0.0
 10
234.7117589940148
 20
126.0183248876242
 30
0.0
  0
LINE
  5
97
330
1F
100
AcDbEntity
  8
0
  6
Continuous
 62
     7
370
    15
100
AcDbLine
 10
182.0145346317
 20
126.0183248876
 30
0.0
 11
182.0145346317
 21
145.7183249502
 31
0.0
  0
LINE
  5
98
330
1F
100
AcDbEntity
  8
0
  6
Continuous
 62
     7
370
    15
100
AcDbLine
 10
182.0145346317
 20
106.318324825
 30
0.0
 11
182.0145346317
 21
126.0183248876
 31
0.0
  0
LINE
  5
99
330
1F
100
AcDbEntity
  8
0
  6
Continuous
 62
     7
370
    15
100
AcDbLine
 10
195.9793748427
 20
131.5183248578
 30
0.0
 11
195.9793748427
 21
146.0183244406
 31
0.0
  0
LINE
  5
9A
330
1F
100
AcDbEntity
  8
0
  6
Continuous
 62
     7
370
    15
100
AcDbLine
 10
195.9793748427
 20
131.5183248578
 30
0.0
 11
194.4645349029
 21
131.5183248578
 31
0.0
  0
SPLINE
  5
9B
330
1F
100
AcDbEntity
  8
0
  6
Continuous
 62
     7
370
    15
100
AcDbSpline
210
0.0
220
0.0
230
1.0
 70
     8
 71
     3
 72
    22
 73
    18
 74
     0
 42
0.00000001
 43
0.00000001
 12
1.0
 22
0.0
 32
0.0
 13
1.0
 23
0.0
 33
0.0
 40
0.0
 40
0.0
 40
0.0
 40
0.0
 40
0.125
 40
0.125
 40
0.25
 40
0.25
 40
0.375
 40
0.375
 40
0.5
 40
0.5
 40
0.625
 40
0.625
 40
0.75
 40
0.75
 40
0.875
 40
0.875
 40
1.0
 40
1.0
 40
1.0
 40
1.0
 10
194.4645346317469
 20
131.5183248876241
 30
0.0
 10
194.1654102027062
 20
131.5183248876241
 30
0.0
 10
193.8715877544574
 20
131.4887989892042
 30
0.0
 10
193.2940234782111
 20
131.3733941559176
 30
0.0
 10
193.0072058003971
 20
131.2860113508517
 30
0.0
 10
192.4627432714978
 20
131.0593379315441
 30
0.0
 10
192.2047880008765
 20
130.9208620852116
 30
0.0
 10
191.7167300575165
 20
130.5940515880478
 30
0.0
 10
191.4870317588529
 20
130.4050067520678
 30
0.0
 10
191.0746127759002
 20
129.9921384695921
 30
0.0
 10
190.8890858330401
 20
129.7666665783407
 30
0.0
 10
190.5605657881393
 20
129.2758109737931
 30
0.0
 10
190.4221519012399
 20
129.016970815851
 30
0.0
 10
190.1975597546239
 20
128.4772179900552
 30
0.0
 10
190.1104809424997
 20
128.1931149012261
 30
0.0
 10
189.9939791345446
 20
127.6116617660842
 30
0.0
 10
189.9645346317468
 20
127.3170113004559
 30
0.0
 10
189.9645346317468
 20
127.0183248876242
 30
0.0
  0
LINE
  5
9C
330
1F
100
AcDbEntity
  8
0
  6
Continuous
 62
     7
370
    15
100
AcDbLine
 10
189.9645350967
 20
127.0183249351
 30
0.0
 11
189.9645350967
 21
125.0183248401
 31
0.0
  0
SPLINE
  5
9D
330
1F
100
AcDbEntity
  8
0
  6
Continuous
 62
     7
370
    15
100
AcDbSpline
210
0.0
220
0.0
230
1.0
 70
     8
 71
     3
 72
    22
 73
    18
 74
     0
 42
0.00000001
 43
0.00000001
 12
1.0
 22
0.0
 32
0.0
 13
1.0
 23
0.0
 33
0.0
 40
0.0
 40
0.0
 40
0.0
 40
0.0
 40
0.1249999999999999
 40
0.1249999999999999
 40
0.2499999999999999
 40
0.2499999999999999
 40
0.3749999999999999
 40
0.3749999999999999
 40
0.5
 40
0.5
 40
0.625
 40
0.625
 40
0.75
 40
0.75
 40
0.8750000000000001
 40
0.8750000000000001
 40
1.0
 40
1.0
 40
1.0
 40
1.0
 10
189.9645346317468
 20
125.0183248876242
 30
0.0
 10
189.9645346317468
 20
124.7195871592265
 30
0.0
 10
189.993983052877
 20
124.4263818343921
 30
0.0
 10
190.1088209191009
 20
123.8504267537645
 30
0.0
 10
190.1956337576386
 20
123.5646844599491
 30
0.0
 10
190.4212811299346
 20
123.0211553189554
 30
0.0
 10
190.5591182715987
 20
122.7636621307338
 30
0.0
 10
190.8843192315031
 20
122.2764571334685
 30
0.0
 10
191.0730215114112
 20
122.0463175112794
 30
0.0
 10
191.4853532316434
 20
121.6331118550759
 30
0.0
 10
191.7105001579953
 20
121.44727611438
 30
0.0
 10
192.2004760093525
 20
121.1181795341966
 30
0.0
 10
192.4611836514744
 20
120.9782196773825
 30
0.0
 10
193.0020410321901
 20
120.7525333161529
 30
0.0
 10
193.2857316582441
 20
120.6652619078141
 30
0.0
 10
193.8698140291735
 20
120.5478616944633
 30
0.0
 10
194.1653815841654
 20
120.5183248876241
 30
0.0
 10
194.4645346317469
 20
120.5183248876241
 30
0.0
  0
LINE
  5
9E
330
1F
100
AcDbEntity
  8
0
  6
Continuous
 62
     7
370
    15
100
AcDbLine
 10
194.4645349029
 20
120.5183249174
 30
0.0
 11
195.9793748427
 21
120.5183249174
 31
0.0
  0
LINE
  5
9F
330
1F
100
AcDbEntity
  8
0
  6
Continuous
 62
     7
370
    15
100
AcDbLine
 10
195.9793748427
 20
106.0183253347
 30
0.0
 11
195.9793748427
 21
120.5183249174
 31
0.0
  0
SPLINE
  5
A0
330
1F
100
AcDbEntity
  8
0
  6
Continuous
 62
     7
370
    15
100
AcDbSpline
210
0.0
220
0.0
230
1.0
 70
     8
 71
     3
 72
    13
 73
     9
 74
     0
 42
0.00000001
 43
0.00000001
 12
1.0
 22
0.0
 32
0.0
 13
1.0
 23
0.0
 33
0.0
 40
0.0
 40
0.0
 40
0.0
 40
0.0
 40
0.2100669190255735
 40
0.4199720837148406
 40
0.6340467356954418
 40
0.7413340223415682
 40
0.8518553234489921
 40
1.0
 40
1.0
 40
1.0
 40
1.0
 10
189.0145348478137
 20
106.6534072368053
 30
0.0
 10
189.5669890682409
 20
106.6391709349738
 30
0.0
 10
190.6714721119591
 20
106.6107092934534
 30
0.0
 10
192.1464708608881
 20
106.414532670194
 30
0.0
 10
193.1007351601492
 20
106.230694919968
 30
0.0
 10
193.6260181195594
 20
106.1128350903552
 30
0.0
 10
193.9539121401051
 20
106.0337678264337
 30
0.0
 10
193.9548317915583
 20
106.0332637413092
 30
0.0
 10
193.9553584996639
 20
106.0329750387577
 30
0.0
  0
LINE
  5
A1
330
1F
100
AcDbEntity
  8
0
  6
Continuous
 62
     7
370
    15
100
AcDbLine
 10
189.3571348954
 20
106.6390555559
 30
0.0
 11
188.3934432734
 21
106.6314801781
 31
0.0
  0
SPLINE
  5
A2
330
1F
100
AcDbEntity
  8
0
  6
Continuous
 62
     7
370
    15
100
AcDbSpline
210
0.0
220
0.0
230
1.0
 70
     8
 71
     3
 72
    13
 73
     9
 74
     0
 42
0.00000001
 43
0.00000001
 12
1.0
 22
0.0
 32
0.0
 13
1.0
 23
0.0
 33
0.0
 40
0.0
 40
0.0
 40
0.0
 40
0.0
 40
0.1848672457558134
 40
0.3929728194116325
 40
0.6060953852678396
 40
0.7133883119179274
 40
0.8238879786851439
 40
1.0
 40
1.0
 40
1.0
 40
1.0
 10
184.0423109568684
 20
106.0251463411955
 30
0.0
 10
184.0726507240624
 20
106.0329820787331
 30
0.0
 10
184.1371440517247
 20
106.0496385278502
 30
0.0
 10
184.8838845353102
 20
106.2254251533773
 30
0.0
 10
185.8640456470926
 20
106.4083890733127
 30
0.0
 10
186.8340855762171
 20
106.5354827533151
 30
0.0
 10
187.7983197646863
 20
106.6282292901343
 30
0.0
 10
188.5516450232954
 20
106.6438245441731
 30
0.0
 10
189.0145348478137
 20
106.6534072368053
 30
0.0
  0
LINE
  5
A3
330
1F
100
AcDbEntity
  8
0
  6
Continuous
 62
     7
370
    15
100
AcDbLine
 10
201.964535201
 20
131.5183248578
 30
0.0
 11
201.964535201
 21
145.4183254598
 31
0.0
  0
SPLINE
  5
A4
330
1F
100
AcDbEntity
  8
0
  6
Continuous
 62
     7
370
    15
100
AcDbSpline
210
0.0
220
0.0
230
1.0
 70
    24
 71
     3
 72
    10
 73
     6
 74
     0
 42
0.00000001
 43
0.00000001
 12
1.0
 22
0.0
 32
0.0
 13
1.0
 23
0.0
 33
0.0
 40
0.0
 40
0.0
 40
0.0
 40
0.0
 40
0.5
 40
0.5
 40
1.0
 40
1.0
 40
1.0
 40
1.0
 10
201.9645346317469
 20
131.5183248876241
 30
0.0
 10
201.9645346317469
 20
131.5183248876241
 30
0.0
 10
201.9028981180415
 20
131.5183248876241
 30
0.0
 10
201.6838717517986
 20
131.5183248876241
 30
0.0
 10
201.5262548637512
 20
131.5183248876241
 30
0.0
 10
201.3645346317468
 20
131.5183248876241
 30
0.0
  0
LINE
  5
A5
330
1F
100
AcDbEntity
  8
0
  6
Continuous
 62
     7
370
    15
100
AcDbLine
 10
201.964535201
 20
106.6183243154
 30
0.0
 11
201.964535201
 21
120.5183249174
 31
0.0
  0
SPLINE
  5
A6
330
1F
100
AcDbEntity
  8
0
  6
Continuous
 62
     7
370
    15
100
AcDbSpline
210
0.0
220
0.0
230
1.0
 70
    24
 71
     3
 72
    12
 73
     8
 74
     0
 42
0.00000001
 43
0.00000001
 12
1.0
 22
0.0
 32
0.0
 13
1.0
 23
0.0
 33
0.0
 40
0.0
 40
0.0
 40
0.0
 40
0.0
 40
0.2500000000000001
 40
0.2500000000000001
 40
0.5000000000000002
 40
0.5000000000000002
 40
1.0
 40
1.0
 40
1.0
 40
1.0
 10
201.3645346317468
 20
120.5183248876241
 30
0.0
 10
201.444300112217
 20
120.5183248876241
 30
0.0
 10
201.5247213958741
 20
120.5183248876241
 30
0.0
 10
201.6714033125367
 20
120.5183248876241
 30
0.0
 10
201.7377571221006
 20
120.5183248876241
 30
0.0
 10
201.9039612028272
 20
120.5183248876241
 30
0.0
 10
201.9645346317468
 20
120.5183248876241
 30
0.0
 10
201.9645346317469
 20
120.5183248876241
 30
0.0
  0
LINE
  5
A7
330
1F
100
AcDbEntity
  8
0
  6
Continuous
 62
     7
370
    15
100
AcDbLine
 10
200.0496950094
 20
106.0183253347
 30
0.0
 11
200.0496950094
 21
120.5183249174
 31
0.0
  0
LINE
  5
A8
330
1F
100
AcDbEntity
  8
0
  6
Continuous
 62
     7
370
    15
100
AcDbLine
 10
199.0545339976
 20
107.7419929414
 30
0.0
 11
199.0545339976
 21
120.5183249174
 31
0.0
  0
SPLINE
  5
A9
330
1F
100
AcDbEntity
  8
0
  6
Continuous
 62
     7
370
    15
100
AcDbSpline
210
0.0
220
0.0
230
1.0
 70
    24
 71
     3
 72
     8
 73
     4
 74
     0
 42
0.00000001
 43
0.00000001
 12
1.0
 22
0.0
 32
0.0
 13
1.0
 23
0.0
 33
0.0
 40
0.0
 40
0.0
 40
0.0
 40
0.0
 40
1.0
 40
1.0
 40
1.0
 40
1.0
 10
199.0545346317468
 20
120.5183248876241
 30
0.0
 10
199.3851732583614
 20
120.5183248876241
 30
0.0
 10
199.7169890589349
 20
120.5183248876241
 30
0.0
 10
200.0496943306403
 20
120.5183248876241
 30
0.0
  0
LINE
  5
AA
330
1F
100
AcDbEntity
  8
0
  6
Continuous
 62
     7
370
    15
100
AcDbLine
 10
200.0496950094
 20
131.5183248578
 30
0.0
 11
200.0496950094
 21
146.0183244406
 31
0.0
  0
LINE
  5
AB
330
1F
100
AcDbEntity
  8
0
  6
Continuous
 62
     7
370
    15
100
AcDbLine
 10
201.3645343576
 20
131.5183248578
 30
0.0
 11
200.0496950094
 21
131.5183248578
 31
0.0
  0
LINE
  5
AC
330
1F
100
AcDbEntity
  8
0
  6
Continuous
 62
     7
370
    15
100
AcDbLine
 10
199.0545339976
 20
131.5183248578
 30
0.0
 11
199.0545339976
 21
144.2946568339
 31
0.0
  0
SPLINE
  5
AD
330
1F
100
AcDbEntity
  8
0
  6
Continuous
 62
     7
370
    15
100
AcDbSpline
210
0.0
220
0.0
230
1.0
 70
    24
 71
     3
 72
     8
 73
     4
 74
     0
 42
0.00000001
 43
0.00000001
 12
1.0
 22
0.0
 32
0.0
 13
1.0
 23
0.0
 33
0.0
 40
0.0
 40
0.0
 40
0.0
 40
0.0
 40
1.0
 40
1.0
 40
1.0
 40
1.0
 10
200.0496943306403
 20
131.5183248876241
 30
0.0
 10
199.7169890589349
 20
131.5183248876241
 30
0.0
 10
199.3851732583614
 20
131.5183248876241
 30
0.0
 10
199.0545346317468
 20
131.5183248876241
 30
0.0
  0
LINE
  5
AE
330
1F
100
AcDbEntity
  8
0
  6
Continuous
 62
     7
370
    15
100
AcDbLine
 10
196.9745349232
 20
107.7419929414
 30
0.0
 11
196.9745349232
 21
120.5183249174
 31
0.0
  0
SPLINE
  5
AF
330
1F
100
AcDbEntity
  8
0
  6
Continuous
 62
     7
370
    15
100
AcDbSpline
210
0.0
220
0.0
230
1.0
 70
    24
 71
     3
 72
     8
 73
     4
 74
     0
 42
0.00000001
 43
0.00000001
 12
1.0
 22
0.0
 32
0.0
 13
1.0
 23
0.0
 33
0.0
 40
0.0
 40
0.0
 40
0.0
 40
0.0
 40
1.0
 40
1.0
 40
1.0
 40
1.0
 10
195.9793749328534
 20
120.5183248876241
 30
0.0
 10
196.3120802045587
 20
120.5183248876241
 30
0.0
 10
196.6438960051322
 20
120.5183248876241
 30
0.0
 10
196.9745346317468
 20
120.5183248876241
 30
0.0
  0
LINE
  5
B0
330
1F
100
AcDbEntity
  8
0
  6
Continuous
 62
     7
370
    15
100
AcDbLine
 10
196.9745349232
 20
131.5183248578
 30
0.0
 11
196.9745349232
 21
144.2946568339
 31
0.0
  0
SPLINE
  5
B1
330
1F
100
AcDbEntity
  8
0
  6
Continuous
 62
     7
370
    15
100
AcDbSpline
210
0.0
220
0.0
230
1.0
 70
    24
 71
     3
 72
     8
 73
     4
 74
     0
 42
0.00000001
 43
0.00000001
 12
1.0
 22
0.0
 32
0.0
 13
1.0
 23
0.0
 33
0.0
 40
0.0
 40
0.0
 40
0.0
 40
0.0
 40
1.0
 40
1.0
 40
1.0
 40
1.0
 10
196.9745346317468
 20
131.5183248876241
 30
0.0
 10
196.6438960051322
 20
131.5183248876241
 30
0.0
 10
196.3120802045587
 20
131.5183248876241
 30
0.0
 10
195.9793749328534
 20
131.5183248876241
 30
0.0
  0
LINE
  5
B2
330
1F
100
AcDbEntity
  8
0
  6
Continuous
 62
     7
370
    15
100
AcDbLine
 10
200.0496950094
 20
120.5183249174
 30
0.0
 11
201.3645343576
 21
120.5183249174
 31
0.0
  0
SPLINE
  5
B3
330
1F
100
AcDbEntity
  8
0
  6
Continuous
 62
     7
370
    15
100
AcDbSpline
210
0.0
220
0.0
230
1.0
 70
     8
 71
     3
 72
    16
 73
    12
 74
     0
 42
0.00000001
 43
0.00000001
 12
1.0
 22
0.0
 32
0.0
 13
1.0
 23
0.0
 33
0.0
 40
0.0
 40
0.0
 40
0.0
 40
0.0
 40
0.0624999999999992
 40
0.0624999999999992
 40
0.1249999999999983
 40
0.1249999999999983
 40
0.2499999999999979
 40
0.2499999999999979
 40
0.4999999999999984
 40
0.4999999999999984
 40
1.0
 40
1.0
 40
1.0
 40
1.0
 10
198.4545346317468
 20
121.9833992377507
 30
0.0
 10
198.4888639693896
 20
121.9833992377507
 30
0.0
 10
198.5228792108503
 20
121.9695160592787
 30
0.0
 10
198.5793637854065
 20
121.9301533378527
 30
0.0
 10
198.6036661682486
 20
121.9048078918293
 30
0.0
 10
198.6679314450676
 20
121.8247320908118
 30
0.0
 10
198.7012888145737
 20
121.7642974615869
 30
0.0
 10
198.7897125498912
 20
121.5789641611356
 30
0.0
 10
198.8322520935001
 20
121.4501529000373
 30
0.0
 10
198.9422361785702
 20
121.058071063682
 30
0.0
 10
198.9894628455978
 20
120.7872717636613
 30
0.0
 10
199.0193122311655
 20
120.5183248876241
 30
0.0
  0
SPLINE
  5
B4
330
1F
100
AcDbEntity
  8
0
  6
Continuous
 62
     7
370
    15
100
AcDbSpline
210
0.0
220
0.0
230
1.0
 70
     8
 71
     3
 72
    16
 73
    12
 74
     0
 42
0.00000001
 43
0.00000001
 12
1.0
 22
0.0
 32
0.0
 13
1.0
 23
0.0
 33
0.0
 40
0.0
 40
0.0
 40
0.0
 40
0.0
 40
0.4999999999999984
 40
0.4999999999999984
 40
0.7499999999999969
 40
0.7499999999999969
 40
0.8749999999999969
 40
0.8749999999999969
 40
0.9374999999999984
 40
0.9374999999999984
 40
1.0
 40
1.0
 40
1.0
 40
1.0
 10
197.0097570323281
 20
120.5183248876242
 30
0.0
 10
197.0396134714489
 20
120.7873353170985
 30
0.0
 10
197.0865353453037
 20
121.0570347690729
 30
0.0
 10
197.1970027517237
 20
121.4508019152684
 30
0.0
 10
197.2402286039347
 20
121.5812317375316
 30
0.0
 10
197.3286465044619
 20
121.7658877267542
 30
0.0
 10
197.3615198451023
 20
121.8253376524708
 30
0.0
 10
197.4258119761772
 20
121.9052516801829
 30
0.0
 10
197.4499661301845
 20
121.9304142494892
 30
0.0
 10
197.5067009008422
 20
121.9697917020284
 30
0.0
 10
197.5400719570277
 20
121.9833992377515
 30
0.0
 10
197.5745346317468
 20
121.9833992377515
 30
0.0
  0
SPLINE
  5
B5
330
1F
100
AcDbEntity
  8
0
  6
Continuous
 62
     7
370
    15
100
AcDbSpline
210
0.0
220
0.0
230
1.0
 70
     8
 71
     3
 72
    16
 73
    12
 74
     0
 42
0.00000001
 43
0.00000001
 12
1.0
 22
0.0
 32
0.0
 13
1.0
 23
0.0
 33
0.0
 40
0.0
 40
0.0
 40
0.0
 40
0.0
 40
0.4999999999999964
 40
0.4999999999999964
 40
0.7499999999999962
 40
0.7499999999999962
 40
0.8749999999999961
 40
0.8749999999999961
 40
0.937499999999998
 40
0.937499999999998
 40
1.0
 40
1.0
 40
1.0
 40
1.0
 10
199.0193122311655
 20
131.5183248876245
 30
0.0
 10
198.9893379133113
 20
131.2482523553124
 30
0.0
 10
198.9428215187061
 20
130.9813508826061
 30
0.0
 10
198.8329602129718
 20
130.588683159652
 30
0.0
 10
198.7898075624423
 20
130.4578103210094
 30
0.0
 10
198.7010235093284
 20
130.2718335977155
 30
0.0
 10
198.6678343414499
 20
130.2116604270552
 30
0.0
 10
198.6030880411002
 20
130.1311906518309
 30
0.0
 10
198.578816830118
 20
130.1060061037697
 30
0.0
 10
198.5223555528989
 20
130.0668800553827
 30
0.0
 10
198.4895519468256
 20
130.053250537496
 30
0.0
 10
198.4545346317468
 20
130.053250537496
 30
0.0
  0
SPLINE
  5
B6
330
1F
100
AcDbEntity
  8
0
  6
Continuous
 62
     7
370
    15
100
AcDbSpline
210
0.0
220
0.0
230
1.0
 70
     8
 71
     3
 72
    16
 73
    12
 74
     0
 42
0.00000001
 43
0.00000001
 12
1.0
 22
0.0
 32
0.0
 13
1.0
 23
0.0
 33
0.0
 40
0.0
 40
0.0
 40
0.0
 40
0.0
 40
0.0625000000000012
 40
0.0625000000000012
 40
0.1250000000000024
 40
0.1250000000000024
 40
0.2500000000000016
 40
0.2500000000000016
 40
0.5000000000000013
 40
0.5000000000000013
 40
1.0
 40
1.0
 40
1.0
 40
1.0
 10
197.5745346317468
 20
130.053250537496
 30
0.0
 10
197.5394281431327
 20
130.053250537496
 30
0.0
 10
197.5063334580467
 20
130.0670515254905
 30
0.0
 10
197.4497337461209
 20
130.1064590465541
 30
0.0
 10
197.4254316919853
 20
130.1317966311704
 30
0.0
 10
197.3609037033443
 20
130.2122286763692
 30
0.0
 10
197.3273148778282
 20
130.2732427102761
 30
0.0
 10
197.2392754634791
 20
130.4580282444043
 30
0.0
 10
197.1961676996067
 20
130.5884054819961
 30
0.0
 10
197.0857334854335
 20
130.9833254293458
 30
0.0
 10
197.0395534670562
 20
131.2498551055928
 30
0.0
 10
197.0097570323282
 20
131.5183248876241
 30
0.0
  0
LINE
  5
B7
330
1F
100
AcDbEntity
  8
0
  6
Continuous
 62
     7
370
    15
100
AcDbLine
 10
197.5745348353
 20
121.9833991698
 30
0.0
 11
198.4545350168
 21
121.9833991698
 31
0.0
  0
SPLINE
  5
B8
330
1F
100
AcDbEntity
  8
0
  6
Continuous
 62
     7
370
    15
100
AcDbSpline
210
0.0
220
0.0
230
1.0
 70
     8
 71
     3
 72
    18
 73
    14
 74
     0
 42
0.00000001
 43
0.00000001
 12
1.0
 22
0.0
 32
0.0
 13
1.0
 23
0.0
 33
0.0
 40
0.0
 40
0.0
 40
0.0
 40
0.0
 40
0.2500000000000001
 40
0.2500000000000001
 40
0.5000000000000001
 40
0.5000000000000001
 40
0.5625000000000001
 40
0.5625000000000001
 40
0.6250000000000001
 40
0.6250000000000001
 40
0.75
 40
0.75
 40
1.0
 40
1.0
 40
1.0
 40
1.0
 10
201.9645346317469
 20
121.4751982109839
 30
0.0
 10
201.9645346317469
 20
122.2296251412709
 30
0.0
 10
202.0194755303798
 20
122.982740107856
 30
0.0
 10
202.120105423932
 20
124.4891909722843
 30
0.0
 10
202.1638081007192
 20
125.2426151932186
 30
0.0
 10
202.1647035615823
 20
126.1855014080016
 30
0.0
 10
202.1624435680647
 20
126.3776498465413
 30
0.0
 10
202.1533757339772
 20
126.7583293398235
 30
0.0
 10
202.1465773293122
 20
126.9485828846106
 30
0.0
 10
202.1208718759255
 20
127.5191413750184
 30
0.0
 10
202.096572910574
 20
127.8992418115919
 30
0.0
 10
202.020508254391
 20
129.0394166154252
 30
0.0
 10
201.9645346317469
 20
129.799324445799
 30
0.0
 10
201.9645346317469
 20
130.5614515642644
 30
0.0
  0
LINE
  5
B9
330
1F
100
AcDbEntity
  8
0
  6
Continuous
 62
     7
370
    15
100
AcDbLine
 10
198.4545350168
 20
130.0532506055
 30
0.0
 11
197.5745348353
 21
130.0532506055
 31
0.0
  0
LINE
  5
BA
330
1F
100
AcDbEntity
  8
0
  6
Continuous
 62
     7
370
    15
100
AcDbLine
 10
201.964535201
 20
130.5614514484
 30
0.0
 11
201.964535201
 21
131.5183248578
 31
0.0
  0
LINE
  5
BB
330
1F
100
AcDbEntity
  8
0
  6
Continuous
 62
     7
370
    15
100
AcDbLine
 10
201.964535201
 20
120.5183249174
 30
0.0
 11
201.964535201
 21
121.4751983269
 31
0.0
  0
SPLINE
  5
BC
330
1F
100
AcDbEntity
  8
0
  6
Continuous
 62
     7
370
    15
100
AcDbSpline
210
0.0
220
0.0
230
1.0
 70
     8
 71
     3
 72
     8
 73
     4
 74
     0
 42
0.00000001
 43
0.00000001
 12
1.0
 22
0.0
 32
0.0
 13
1.0
 23
0.0
 33
0.0
 40
0.0
 40
0.0
 40
0.0
 40
0.0
 40
1.0
 40
1.0
 40
1.0
 40
1.0
 10
163.0560184821778
 20
119.5524189013243
 30
0.0
 10
163.0701529268059
 20
119.6506543021003
 30
0.0
 10
163.0932103019545
 20
119.747674934573
 30
0.0
 10
163.1235346317468
 20
119.8437652814428
 30
0.0
  0
SPLINE
  5
BD
330
1F
100
AcDbEntity
  8
0
  6
Continuous
 62
     7
370
    15
100
AcDbSpline
210
0.0
220
0.0
230
1.0
 70
     8
 71
     3
 72
    10
 73
     6
 74
     0
 42
0.00000001
 43
0.00000001
 12
1.0
 22
0.0
 32
0.0
 13
1.0
 23
0.0
 33
0.0
 40
0.0
 40
0.0
 40
0.0
 40
0.0
 40
0.5
 40
0.5
 40
1.0
 40
1.0
 40
1.0
 40
1.0
 10
163.1235346317468
 20
119.8437652814428
 30
0.0
 10
163.3388936623042
 20
119.8042558016308
 30
0.0
 10
163.5533350006282
 20
119.7615132602331
 30
0.0
 10
163.9783262192487
 20
119.6623271533656
 30
0.0
 10
164.1896989509714
 20
119.6087790798579
 30
0.0
 10
164.3937112400483
 20
119.5293270181719
 30
0.0
  0
SPLINE
  5
BE
330
1F
100
AcDbEntity
  8
0
  6
Continuous
 62
     7
370
    15
100
AcDbSpline
210
0.0
220
0.0
230
1.0
 70
     8
 71
     3
 72
    10
 73
     6
 74
     0
 42
0.00000001
 43
0.00000001
 12
1.0
 22
0.0
 32
0.0
 13
1.0
 23
0.0
 33
0.0
 40
0.0
 40
0.0
 40
0.0
 40
0.0
 40
0.5
 40
0.5
 40
1.0
 40
1.0
 40
1.0
 40
1.0
 10
164.3937112400483
 20
119.5293270181719
 30
0.0
 10
164.866615670638
 20
119.3451556030048
 30
0.0
 10
165.3496206034824
 20
119.1861632027539
 30
0.0
 10
166.3254349818353
 20
118.8926195601657
 30
0.0
 10
166.8189091948593
 20
118.7586774688928
 30
0.0
 10
167.3145346317467
 20
118.6329567965127
 30
0.0
  0
SPLINE
  5
BF
330
1F
100
AcDbEntity
  8
0
  6
Continuous
 62
     7
370
    15
100
AcDbSpline
210
0.0
220
0.0
230
1.0
 70
     8
 71
     3
 72
    14
 73
    10
 74
     0
 42
0.00000001
 43
0.00000001
 12
1.0
 22
0.0
 32
0.0
 13
1.0
 23
0.0
 33
0.0
 40
0.0
 40
0.0
 40
0.0
 40
0.0
 40
0.1250000000000002
 40
0.1250000000000002
 40
0.2500000000000005
 40
0.2500000000000005
 40
0.5000000000000003
 40
0.5000000000000003
 40
1.0
 40
1.0
 40
1.0
 40
1.0
 10
167.3145346317468
 20
118.6329567965128
 30
0.0
 10
167.3635469545581
 20
118.6205242986623
 30
0.0
 10
167.4163531795536
 20
118.6289722931102
 30
0.0
 10
167.5014202712831
 20
118.6718878204044
 30
0.0
 10
167.5360044566239
 20
118.7035793323438
 30
0.0
 10
167.6245601419612
 20
118.8057014623895
 30
0.0
 10
167.6654958432824
 20
118.8842772445803
 30
0.0
 10
167.7693763701853
 20
119.1243515741865
 30
0.0
 10
167.8126001696174
 20
119.2958675613921
 30
0.0
 10
167.84679953889
 20
119.4697255325882
 30
0.0
  0
SPLINE
  5
C0
330
1F
100
AcDbEntity
  8
0
  6
Continuous
 62
     7
370
    15
100
AcDbSpline
210
0.0
220
0.0
230
1.0
 70
     8
 71
     3
 72
    12
 73
     8
 74
     0
 42
0.00000001
 43
0.00000001
 12
1.0
 22
0.0
 32
0.0
 13
1.0
 23
0.0
 33
0.0
 40
0.0
 40
0.0
 40
0.0
 40
0.0
 40
0.2500000000000006
 40
0.2500000000000006
 40
0.5000000000000012
 40
0.5000000000000012
 40
1.0
 40
1.0
 40
1.0
 40
1.0
 10
167.84679953889
 20
119.4697255325882
 30
0.0
 10
167.8722237557839
 20
119.5989736112065
 30
0.0
 10
167.9128355953532
 20
119.7265260263953
 30
0.0
 10
167.9974367416253
 20
119.982715849481
 30
0.0
 10
168.0415335379109
 20
120.1112905376506
 30
0.0
 10
168.157602646397
 20
120.5025648885218
 30
0.0
 10
168.2145346317469
 20
120.7705520102433
 30
0.0
 10
168.2145346317469
 20
121.0532146935223
 30
0.0
  0
LINE
  5
C1
330
1F
100
AcDbEntity
  8
0
  6
Continuous
 62
     7
370
    15
100
AcDbLine
 10
168.2145347912
 20
121.0532146713
 30
0.0
 11
168.2145347912
 21
130.9834351039
 31
0.0
  0
SPLINE
  5
C2
330
1F
100
AcDbEntity
  8
0
  6
Continuous
 62
     7
370
    15
100
AcDbSpline
210
0.0
220
0.0
230
1.0
 70
     8
 71
     3
 72
    12
 73
     8
 74
     0
 42
0.00000001
 43
0.00000001
 12
1.0
 22
0.0
 32
0.0
 13
1.0
 23
0.0
 33
0.0
 40
0.0
 40
0.0
 40
0.0
 40
0.0
 40
0.2500000000000006
 40
0.2500000000000006
 40
0.5000000000000012
 40
0.5000000000000012
 40
1.0
 40
1.0
 40
1.0
 40
1.0
 10
167.84679953889
 20
132.5669242426601
 30
0.0
 10
167.8722237557839
 20
132.4376761640418
 30
0.0
 10
167.9128355953532
 20
132.310123748853
 30
0.0
 10
167.9974367416253
 20
132.0539339257673
 30
0.0
 10
168.0415335379109
 20
131.9253592375977
 30
0.0
 10
168.157602646397
 20
131.5340848867265
 30
0.0
 10
168.2145346317469
 20
131.266097765005
 30
0.0
 10
168.2145346317469
 20
130.983435081726
 30
0.0
  0
SPLINE
  5
C3
330
1F
100
AcDbEntity
  8
0
  6
Continuous
 62
     7
370
    15
100
AcDbSpline
210
0.0
220
0.0
230
1.0
 70
     8
 71
     3
 72
    14
 73
    10
 74
     0
 42
0.00000001
 43
0.00000001
 12
1.0
 22
0.0
 32
0.0
 13
1.0
 23
0.0
 33
0.0
 40
0.0
 40
0.0
 40
0.0
 40
0.0
 40
0.1250000000000001
 40
0.1250000000000001
 40
0.2500000000000003
 40
0.2500000000000003
 40
0.5000000000000001
 40
0.5000000000000001
 40
1.0
 40
1.0
 40
1.0
 40
1.0
 10
167.3145346317468
 20
133.4036929787355
 30
0.0
 10
167.3635469545582
 20
133.416125476586
 30
0.0
 10
167.4163531795537
 20
133.407677482138
 30
0.0
 10
167.5014202712832
 20
133.3647619548438
 30
0.0
 10
167.5360044566239
 20
133.3330704429044
 30
0.0
 10
167.6245601419612
 20
133.2309483128588
 30
0.0
 10
167.6654958432824
 20
133.1523725306679
 30
0.0
 10
167.7693763701853
 20
132.9122982010618
 30
0.0
 10
167.8126001696174
 20
132.7407822138562
 30
0.0
 10
167.84679953889
 20
132.5669242426601
 30
0.0
  0
SPLINE
  5
C4
330
1F
100
AcDbEntity
  8
0
  6
Continuous
 62
     7
370
    15
100
AcDbSpline
210
0.0
220
0.0
230
1.0
 70
     8
 71
     3
 72
    10
 73
     6
 74
     0
 42
0.00000001
 43
0.00000001
 12
1.0
 22
0.0
 32
0.0
 13
1.0
 23
0.0
 33
0.0
 40
0.0
 40
0.0
 40
0.0
 40
0.0
 40
0.5
 40
0.5
 40
1.0
 40
1.0
 40
1.0
 40
1.0
 10
164.3937112400483
 20
132.5073227570764
 30
0.0
 10
164.866615670638
 20
132.6914941722435
 30
0.0
 10
165.3496206034824
 20
132.8504865724944
 30
0.0
 10
166.3254349818353
 20
133.1440302150826
 30
0.0
 10
166.8189091948594
 20
133.2779723063556
 30
0.0
 10
167.3145346317468
 20
133.4036929787356
 30
0.0
  0
SPLINE
  5
C5
330
1F
100
AcDbEntity
  8
0
  6
Continuous
 62
     7
370
    15
100
AcDbSpline
210
0.0
220
0.0
230
1.0
 70
     8
 71
     3
 72
    10
 73
     6
 74
     0
 42
0.00000001
 43
0.00000001
 12
1.0
 22
0.0
 32
0.0
 13
1.0
 23
0.0
 33
0.0
 40
0.0
 40
0.0
 40
0.0
 40
0.0
 40
0.5
 40
0.5
 40
1.0
 40
1.0
 40
1.0
 40
1.0
 10
163.1235346317468
 20
132.1928844938055
 30
0.0
 10
163.3388936623042
 20
132.2323939736175
 30
0.0
 10
163.5533350006282
 20
132.2751365150152
 30
0.0
 10
163.9783262192487
 20
132.3743226218828
 30
0.0
 10
164.1896989509714
 20
132.4278706953905
 30
0.0
 10
164.3937112400483
 20
132.5073227570764
 30
0.0
  0
SPLINE
  5
C6
330
1F
100
AcDbEntity
  8
0
  6
Continuous
 62
     7
370
    15
100
AcDbSpline
210
0.0
220
0.0
230
1.0
 70
     8
 71
     3
 72
     8
 73
     4
 74
     0
 42
0.00000001
 43
0.00000001
 12
1.0
 22
0.0
 32
0.0
 13
1.0
 23
0.0
 33
0.0
 40
0.0
 40
0.0
 40
0.0
 40
0.0
 40
1.0
 40
1.0
 40
1.0
 40
1.0
 10
163.0560184821778
 20
132.484230873924
 30
0.0
 10
163.0701529268059
 20
132.385995473148
 30
0.0
 10
163.0932103019545
 20
132.2889748406753
 30
0.0
 10
163.1235346317468
 20
132.1928844938055
 30
0.0
  0
ELLIPSE
  5
C7
330
1F
100
AcDbEntity
  8
0
  6
Continuous
 62
     7
370
    15
100
AcDbEllipse
 10
149.5877924239
 20
126.2510102132
 30
0.0
 11
11.13693598682957
 21
11.10090879287049
 31
0.0
210
0.0
220
0.0
230
1.0
 40
0.6999052427
 41
5.802043396094651
 42
5.88201289191444
  0
ELLIPSE
  5
C8
330
1F
100
AcDbEntity
  8
0
  6
Continuous
 62
     7
370
    15
100
AcDbEllipse
 10
149.5877924239
 20
125.7856395621
 30
0.0
 11
11.13693598682957
 21
-11.10090879287049
 31
0.0
210
0.0
220
0.0
230
1.0
 40
0.6999052427
 41
0.4011724152651648
 42
0.4811419110849532
  0
LINE
  5
C9
330
1F
100
AcDbEntity
  8
0
  6
Continuous
 62
     7
370
    15
100
AcDbLine
 10
180.0145345368
 20
126.0183248876
 30
0.0
 11
180.0145345368
 21
141.1220254584
 31
0.0
  0
LINE
  5
CA
330
1F
100
AcDbEntity
  8
0
  6
Continuous
 62
     7
370
    15
100
AcDbLine
 10
180.0145345368
 20
110.9146243169
 30
0.0
 11
180.0145345368
 21
126.0183248876
 31
0.0
  0
SPLINE
  5
CB
330
1F
100
AcDbEntity
  8
0
  6
Continuous
 62
     7
370
    15
100
AcDbSpline
210
0.0
220
0.0
230
1.0
 70
     8
 71
     3
 72
    39
 73
    35
 74
     0
 42
0.00000001
 43
0.00000001
 12
1.0
 22
0.0
 32
0.0
 13
1.0
 23
0.0
 33
0.0
 40
-0.0936307374834309
 40
-0.0624866940518825
 40
-0.0311899125704025
 40
0.0
 40
0.0313950051306802
 40
0.0632578417333789
 40
0.0952224636478779
 40
0.126830088354159
 40
0.1583319028233978
 40
0.1900733366302706
 40
0.2215799771180664
 40
0.25255066683902
 40
0.2832646329730916
 40
0.3142453913338126
 40
0.345100864399635
 40
0.3756595953882576
 40
0.406248358785202
 40
0.4375428428480461
 40
0.4689219037425845
 40
0.5001883476926348
 40
0.5315602582319886
 40
0.5633787432097891
 40
0.5952897280240882
 40
0.6268283118816917
 40
0.6582867464516128
 40
0.69005820263925
 40
0.7215959795544077
 40
0.7526086401062462
 40
0.7834418460066718
 40
0.8143773968256295
 40
0.8453229801620533
 40
0.8757917625066943
 40
0.9063692625165691
 40
0.9375133059481175
 40
0.9688100874295975
 40
1.0
 40
1.03139500513068
 40
1.063257841733379
 40
1.095222463647878
 10
173.9948822052163
 20
123.9687060810682
 30
0.0
 10
173.647636038586
 20
124.4101921508785
 30
0.0
 10
173.3902362618591
 20
124.9133730911459
 30
0.0
 10
173.2344603253802
 20
125.4618042628405
 30
0.0
 10
173.179066407803
 20
126.0309818783736
 30
0.0
 10
173.2352102641251
 20
126.5981450094612
 30
0.0
 10
173.3973118039156
 20
127.1426968990879
 30
0.0
 10
173.6625287445136
 20
127.6436441192292
 30
0.0
 10
174.0125626241619
 20
128.0850699837899
 30
0.0
 10
174.4394244258576
 20
128.4441971060467
 30
0.0
 10
174.9269144375837
 20
128.7105736310995
 30
0.0
 10
175.458550953458
 20
128.8701982519933
 30
0.0
 10
176.0096758342225
 20
128.9260430794853
 30
0.0
 10
176.5571303892214
 20
128.8658884556562
 30
0.0
 10
177.08177383392
 20
128.6962309841335
 30
0.0
 10
177.5635281216014
 20
128.4219034794466
 30
0.0
 10
177.9886045332755
 20
128.0607446441158
 30
0.0
 10
178.3343443858915
 20
127.6213842417951
 30
0.0
 10
178.5912142429976
 20
127.1200596384913
 30
0.0
 10
178.746145411474
 20
126.5728519582403
 30
0.0
 10
178.8009510195774
 20
126.0045816864604
 30
0.0
 10
178.7440135272404
 20
125.4384522649665
 30
0.0
 10
178.5815481820372
 20
124.8953894582034
 30
0.0
 10
178.3176722335777
 20
124.3960252053176
 30
0.0
 10
177.9701224122055
 20
123.956186774678
 30
0.0
 10
177.5465173666658
 20
123.5980651913916
 30
0.0
 10
177.0631436231256
 20
123.3316491808999
 30
0.0
 10
176.5344471207065
 20
123.1697972018846
 30
0.0
 10
175.9851050676052
 20
123.1110197188829
 30
0.0
 10
175.4361624417515
 20
123.1674108848988
 30
0.0
 10
174.908611328423
 20
123.3338933839003
 30
0.0
 10
174.4230550196545
 20
123.6073608290093
 30
0.0
 10
173.9948822052163
 20
123.9687060810682
 30
0.0
 10
173.647636038586
 20
124.4101921508785
 30
0.0
 10
173.3902362618591
 20
124.9133730911459
 30
0.0
  0
SPLINE
  5
CC
330
1F
100
AcDbEntity
  8
0
  6
Continuous
 62
     7
370
    15
100
AcDbSpline
210
0.0
220
0.0
230
1.0
 70
     8
 71
     3
 72
    35
 73
    31
 74
     0
 42
0.00000001
 43
0.00000001
 12
1.0
 22
0.0
 32
0.0
 13
1.0
 23
0.0
 33
0.0
 40
-0.0968759714501203
 40
-0.0666637413391963
 40
-0.0343786692036319
 40
0.0
 40
0.0402501655240332
 40
0.0744868222977328
 40
0.1027071321015054
 40
0.1249179508766872
 40
0.1620537620829704
 40
0.2036866237654145
 40
0.2499064447776843
 40
0.2843401084240513
 40
0.3106265058297986
 40
0.3287516660584153
 40
0.3698185614147602
 40
0.4071583507676087
 40
0.4519490945101337
 40
0.5000414664482699
 40
0.520302688696607
 40
0.5628788326114309
 40
0.5977565701865465
 40
0.6256573753263002
 40
0.6860513535192114
 40
0.749948136075524
 40
0.7710338114755418
 40
0.8124324596667003
 40
0.8472054374238177
 40
0.874958922179045
 40
0.9031240285498797
 40
0.9333362586608037
 40
0.9656213307963681
 40
1.0
 40
1.040250165524033
 40
1.074486822297733
 40
1.102707132101505
 10
173.8583084126849
 20
125.1704738011128
 30
0.0
 10
174.0969712026953
 20
124.7101965128945
 30
0.0
 10
174.4434055211258
 20
124.3096467317696
 30
0.0
 10
174.8481656076967
 20
124.0187270262572
 30
0.0
 10
175.2217640272107
 20
123.8489214339783
 30
0.0
 10
175.6303948121381
 20
123.7367163478818
 30
0.0
 10
176.120461554594
 20
123.6970090111517
 30
0.0
 10
176.7188518613324
 20
123.7980939130742
 30
0.0
 10
177.2539780641518
 20
124.0518561959359
 30
0.0
 10
177.6482343705069
 20
124.3798212390025
 30
0.0
 10
177.8881633961417
 20
124.671606361377
 30
0.0
 10
178.1019451447227
 20
125.020206080436
 30
0.0
 10
178.2697129610315
 20
125.4587382699618
 30
0.0
 10
178.3401765820466
 20
126.0542152594481
 30
0.0
 10
178.2506513897102
 20
126.6846008321879
 30
0.0
 10
178.0178148954498
 20
127.1851791236113
 30
0.0
 10
177.6983807429881
 20
127.607339066603
 30
0.0
 10
177.346289198392
 20
127.9211909820594
 30
0.0
 10
176.8985886401182
 20
128.1575638328752
 30
0.0
 10
176.3317151049445
 20
128.327399333744
 30
0.0
 10
175.578864892988
 20
128.3387951125
 30
0.0
 10
174.9076934457267
 20
128.0682800813315
 30
0.0
 10
174.4229003558019
 20
127.6996929614436
 30
0.0
 10
174.1085436508704
 20
127.3449950579578
 30
0.0
 10
173.8737096977764
 20
126.8990380641814
 30
0.0
 10
173.7487713717049
 20
126.4779816209063
 30
0.0
 10
173.7019470651883
 20
126.0628396938196
 30
0.0
 10
173.7334606973789
 20
125.6238980165378
 30
0.0
 10
173.8583084126849
 20
125.1704738011128
 30
0.0
 10
174.0969712026953
 20
124.7101965128945
 30
0.0
 10
174.4434055211258
 20
124.3096467317696
 30
0.0
  0
ARC
  5
CD
330
1F
100
AcDbEntity
  8
0
  6
Continuous
 62
     7
370
    15
100
AcDbCircle
 10
167.3145346317
 20
122.9523248876
 30
0.0
 40
0.9000000000000341
100
AcDbArc
 50
270.0
 51
0.0
  0
ARC
  5
CE
330
1F
100
AcDbEntity
  8
0
  6
Continuous
 62
     7
370
    15
100
AcDbCircle
 10
167.3145346317
 20
129.0843248876
 30
0.0
 40
0.9000000000000341
100
AcDbArc
 50
0.0
 51
90.0
  0
LINE
  5
CF
330
1F
100
AcDbEntity
  8
0
  6
Continuous
 62
     7
370
    15
100
AcDbLine
 10
167.3145344574
 20
129.9843248187
 30
0.0
 11
163.1235353742
 21
129.9843248187
 31
0.0
  0
LINE
  5
D0
330
1F
100
AcDbEntity
  8
0
  6
Continuous
 62
     7
370
    15
100
AcDbLine
 10
163.1235353742
 20
129.9843248187
 30
0.0
 11
163.1235353742
 21
132.1928845926
 31
0.0
  0
LINE
  5
D1
330
1F
100
AcDbEntity
  8
0
  6
Continuous
 62
     7
370
    15
100
AcDbLine
 10
163.1235353742
 20
122.0523249565
 30
0.0
 11
163.1235353742
 21
119.8437651827
 31
0.0
  0
LINE
  5
D2
330
1F
100
AcDbEntity
  8
0
  6
Continuous
 62
     7
370
    15
100
AcDbLine
 10
167.3145344574
 20
122.0523249565
 30
0.0
 11
163.1235353742
 21
122.0523249565
 31
0.0
  0
LINE
  5
D3
330
1F
100
AcDbEntity
  8
0
  6
Continuous
 62
     7
370
    15
100
AcDbLine
 10
162.1145349089
 20
121.0433249569
 30
0.0
 11
162.1145349089
 21
119.8744252531
 31
0.0
  0
LINE
  5
D4
330
1F
100
AcDbEntity
  8
0
  6
Continuous
 62
     7
370
    15
100
AcDbLine
 10
163.1235353742
 20
122.0523249565
 30
0.0
 11
162.1145349089
 21
121.0433249569
 31
0.0
  0
LINE
  5
D5
330
1F
100
AcDbEntity
  8
0
  6
Continuous
 62
     7
370
    15
100
AcDbLine
 10
163.1235353742
 20
129.9843248187
 30
0.0
 11
162.1145349089
 21
130.9933248183
 31
0.0
  0
LINE
  5
D6
330
1F
100
AcDbEntity
  8
0
  6
Continuous
 62
     7
370
    15
100
AcDbLine
 10
162.1145349089
 20
130.9933248183
 30
0.0
 11
162.1145349089
 21
132.1622245221
 31
0.0
  0
SPLINE
  5
D7
330
1F
100
AcDbEntity
  8
0
  6
Continuous
 62
     7
370
    15
100
AcDbSpline
210
0.0
220
0.0
230
1.0
 70
     8
 71
     3
 72
     9
 73
     5
 74
     0
 42
0.00000001
 43
0.00000001
 12
1.0
 22
0.0
 32
0.0
 13
1.0
 23
0.0
 33
0.0
 40
0.0
 40
0.0
 40
0.0
 40
0.0
 40
0.8972775180519583
 40
1.0
 40
1.0
 40
1.0
 40
1.0
 10
174.3631413299618
 20
124.4399243940247
 30
0.0
 10
174.2008615341641
 20
124.6023017817861
 30
0.0
 10
174.0200035581947
 20
124.7832685222813
 30
0.0
 10
173.9500864307683
 20
125.0217465644348
 30
0.0
 10
173.9429043699084
 20
125.0462436208149
 30
0.0
  0
SPLINE
  5
D8
330
1F
100
AcDbEntity
  8
0
  6
Continuous
 62
     7
370
    15
100
AcDbSpline
210
0.0
220
0.0
230
1.0
 70
     8
 71
     3
 72
     9
 73
     5
 74
     0
 42
0.00000001
 43
0.00000001
 12
1.0
 22
0.0
 32
0.0
 13
1.0
 23
0.0
 33
0.0
 40
0.0
 40
0.0
 40
0.0
 40
0.0
 40
0.0758807436978637
 40
1.0
 40
1.0
 40
1.0
 40
1.0
 10
177.3392673674999
 20
127.8886555435715
 30
0.0
 10
177.3548899347951
 20
127.8808846563546
 30
0.0
 10
177.5607730947885
 20
127.7784754437118
 30
0.0
 10
177.705222745807
 20
127.5917400725926
 30
0.0
 10
177.8387114498792
 20
127.4191743203086
 30
0.0
  0
LINE
  5
D9
330
1F
100
AcDbEntity
  8
0
  6
Continuous
 62
     7
370
    15
100
AcDbLine
 10
162.1145349089
 20
132.1622245221
 30
0.0
 11
162.1145349089
 21
132.9066781534
 31
0.0
  0
SPLINE
  5
DA
330
1F
100
AcDbEntity
  8
0
  6
Continuous
 62
     7
370
    15
100
AcDbSpline
210
0.0
220
0.0
230
1.0
 70
     8
 71
     3
 72
    24
 73
    20
 74
     0
 42
0.00000001
 43
0.00000001
 12
1.0
 22
0.0
 32
0.0
 13
1.0
 23
0.0
 33
0.0
 40
0.0
 40
0.0
 40
0.0
 40
0.0
 40
0.2500000000000026
 40
0.2500000000000026
 40
0.3750000000000046
 40
0.3750000000000046
 40
0.4375000000000047
 40
0.4375000000000047
 40
0.5000000000000049
 40
0.5000000000000049
 40
0.5312500000000054
 40
0.5312500000000054
 40
0.562500000000006
 40
0.562500000000006
 40
0.6250000000000054
 40
0.6250000000000054
 40
0.750000000000004
 40
0.750000000000004
 40
1.0
 40
1.0
 40
1.0
 40
1.0
 10
162.1145346317469
 20
132.9066783629571
 30
0.0
 10
162.1145346317469
 20
133.1399637958738
 30
0.0
 10
162.1172592601792
 20
133.3741290573126
 30
0.0
 10
162.1436165812972
 20
133.7325684306799
 30
0.0
 10
162.1558302995694
 20
133.8529482303558
 30
0.0
 10
162.1904409497018
 20
134.034087769889
 30
0.0
 10
162.2048276600692
 20
134.0952676575124
 30
0.0
 10
162.2460761431715
 20
134.2128211648077
 30
0.0
 10
162.2746156931024
 20
134.2734792818337
 30
0.0
 10
162.3355383586137
 20
134.3291132615098
 30
0.0
 10
162.3586043287536
 20
134.3403355513611
 30
0.0
 10
162.4025002087598
 20
134.3461063571243
 30
0.0
 10
162.42338024432
 20
134.3415565112335
 30
0.0
 10
162.4805905076131
 20
134.3167874346464
 30
0.0
 10
162.5129371313895
 20
134.2861392395556
 30
0.0
 10
162.5991030748813
 20
134.1839671323079
 30
0.0
 10
162.6447670949213
 20
134.0981399435364
 30
0.0
 10
162.7653146583725
 20
133.8302697652017
 30
0.0
 10
162.8243747470737
 20
133.6325037267777
 30
0.0
 10
162.8745046781347
 20
133.4266957423756
 30
0.0
  0
SPLINE
  5
DB
330
1F
100
AcDbEntity
  8
0
  6
Continuous
 62
     7
370
    15
100
AcDbSpline
210
0.0
220
0.0
230
1.0
 70
     8
 71
     3
 72
    24
 73
    20
 74
     0
 42
0.00000001
 43
0.00000001
 12
1.0
 22
0.0
 32
0.0
 13
1.0
 23
0.0
 33
0.0
 40
0.0
 40
0.0
 40
0.0
 40
0.0
 40
0.2499999999999992
 40
0.2499999999999992
 40
0.3749999999999986
 40
0.3749999999999986
 40
0.4374999999999975
 40
0.4374999999999975
 40
0.4999999999999963
 40
0.4999999999999963
 40
0.5312499999999968
 40
0.5312499999999968
 40
0.5624999999999972
 40
0.5624999999999972
 40
0.6249999999999973
 40
0.6249999999999973
 40
0.7499999999999986
 40
0.7499999999999986
 40
1.0
 40
1.0
 40
1.0
 40
1.0
 10
162.1145346317469
 20
119.1299714122912
 30
0.0
 10
162.1145346317469
 20
118.8966859793745
 30
0.0
 10
162.1172592601792
 20
118.6625207179357
 30
0.0
 10
162.1436165812972
 20
118.3040813445683
 30
0.0
 10
162.1558302995694
 20
118.1837015448925
 30
0.0
 10
162.1904409497018
 20
118.0025620053593
 30
0.0
 10
162.2048276600692
 20
117.9413821177359
 30
0.0
 10
162.2460761431715
 20
117.8238286104407
 30
0.0
 10
162.2746156931024
 20
117.7631704934146
 30
0.0
 10
162.3355383586137
 20
117.7075365137385
 30
0.0
 10
162.3586043287536
 20
117.6963142238872
 30
0.0
 10
162.4025002087598
 20
117.690543418124
 30
0.0
 10
162.42338024432
 20
117.6950932640148
 30
0.0
 10
162.4805905076131
 20
117.7198623406019
 30
0.0
 10
162.5129371313895
 20
117.7505105356927
 30
0.0
 10
162.5991030748813
 20
117.8526826429404
 30
0.0
 10
162.6447670949213
 20
117.9385098317119
 30
0.0
 10
162.7653146583725
 20
118.2063800100466
 30
0.0
 10
162.8243747470737
 20
118.4041460484706
 30
0.0
 10
162.8745046781347
 20
118.6099540328727
 30
0.0
  0
LINE
  5
DC
330
1F
100
AcDbEntity
  8
0
  6
Continuous
 62
     7
370
    15
100
AcDbLine
 10
162.1145349089
 20
119.8744252531
 30
0.0
 11
162.1145349089
 21
119.1299716218
 31
0.0
  0
LINE
  5
DD
330
1F
100
AcDbEntity
  8
0
  6
Continuous
 62
     7
370
    15
100
AcDbLine
 10
162.1145349089
 20
112.5723412468
 30
0.0
 11
162.1145349089
 21
119.1299716218
 31
0.0
  0
LINE
  5
DE
330
1F
100
AcDbEntity
  8
0
  6
Continuous
 62
     7
370
    15
100
AcDbLine
 10
162.1145349089
 20
132.9066781534
 30
0.0
 11
162.1145349089
 21
139.4643085285
 31
0.0
  0
SPLINE
  5
DF
330
1F
100
AcDbEntity
  8
0
  6
Continuous
 62
     7
370
    15
100
AcDbSpline
210
0.0
220
0.0
230
1.0
 70
     8
 71
     3
 72
    11
 73
     7
 74
     0
 42
0.00000001
 43
0.00000001
 12
1.0
 22
0.0
 32
0.0
 13
1.0
 23
0.0
 33
0.0
 40
0.0
 40
0.0
 40
0.0
 40
0.0
 40
0.2871758678267002
 40
0.5743809950627952
 40
0.8587939886389703
 40
1.0
 40
1.0
 40
1.0
 40
1.0
 10
165.7145343814073
 20
122.893324841058
 30
0.0
 10
165.7036674694161
 20
122.7868920152541
 30
0.0
 10
165.6819325382396
 20
122.5740155195539
 30
0.0
 10
165.5107900883121
 20
122.2998658758026
 30
0.0
 10
165.3062908187244
 20
122.1134064387012
 30
0.0
 10
165.1480669942708
 20
122.0675414205466
 30
0.0
 10
165.0955736730276
 20
122.0523249565271
 30
0.0
  0
LINE
  5
E0
330
1F
100
AcDbEntity
  8
0
  6
Continuous
 62
     7
370
    15
100
AcDbLine
 10
165.7145343814
 20
122.8933248411
 30
0.0
 11
165.7145343814
 21
129.1433249342
 31
0.0
  0
SPLINE
  5
E1
330
1F
100
AcDbEntity
  8
0
  6
Continuous
 62
     7
370
    15
100
AcDbSpline
210
0.0
220
0.0
230
1.0
 70
     8
 71
     3
 72
    11
 73
     7
 74
     0
 42
0.00000001
 43
0.00000001
 12
1.0
 22
0.0
 32
0.0
 13
1.0
 23
0.0
 33
0.0
 40
0.0
 40
0.0
 40
0.0
 40
0.0
 40
0.2871758678267002
 40
0.5743809950627952
 40
0.8587939886389703
 40
1.0
 40
1.0
 40
1.0
 40
1.0
 10
165.7145343814073
 20
129.1433249341903
 30
0.0
 10
165.7036674694161
 20
129.2497577599942
 30
0.0
 10
165.6819325382396
 20
129.4626342556944
 30
0.0
 10
165.5107900883121
 20
129.7367838994457
 30
0.0
 10
165.3062908187244
 20
129.9232433365472
 30
0.0
 10
165.1480669942708
 20
129.9691083547018
 30
0.0
 10
165.0955736730276
 20
129.9843248187212
 30
0.0
  0
LINE
  5
E2
330
1F
100
AcDbEntity
  8
0
  6
Continuous
 62
     7
370
    15
100
AcDbLine
 10
222.7046921942
 20
161.5444626866
 30
0.0
 11
222.832052419
 21
161.6597417949
 31
0.0
  0
LINE
  5
E3
330
1F
100
AcDbEntity
  8
0
  6
Continuous
 62
     7
370
    15
100
AcDbLine
 10
227.1970160399
 20
161.6597417949
 30
0.0
 11
227.3302696738
 21
161.5381706713
 31
0.0
  0
ARC
  5
E4
330
1F
100
AcDbEntity
  8
0
  6
Continuous
 62
     7
370
    15
100
AcDbCircle
 10
225.0153556936
 20
158.9620569304
 30
0.0
 40
3.42179631184732
100
AcDbArc
 50
48.1239822012
 51
131.9538932881
  0
LWPOLYLINE
  5
E5
330
1F
100
AcDbEntity
  8
0
  6
Continuous
 62
     7
370
    15
100
AcDbPolyline
 90
       12
 70
   128
 43
0.0
 10
223.0166293774
 20
161.2911503969
 10
223.1233291421
 20
161.5362744986
 10
223.3832426462
 20
161.7582906245
 10
223.775314549
 20
161.9392167984
 10
224.2677793
 20
162.0643865524
 10
224.8207464907
 20
162.123667097
 10
225.3894083295
 20
162.1122565328
 10
225.9277016018
 20
162.0310712813
 10
226.3920180593
 20
161.8866976558
 10
226.7447359953
 20
161.6908256172
 10
226.9572824333
 20
161.4593249022
 10
227.0145364199
 20
161.2510513722
  0
SPLINE
  5
E6
330
1F
100
AcDbEntity
  8
0
  6
Continuous
 62
     7
370
    15
100
AcDbSpline
210
0.0
220
0.0
230
1.0
 70
     8
 71
     3
 72
     9
 73
     5
 74
     0
 42
0.00000001
 43
0.00000001
 12
1.0
 22
0.0
 32
0.0
 13
1.0
 23
0.0
 33
0.0
 40
0.0
 40
0.0
 40
0.0
 40
0.0
 40
0.4954579785708796
 40
1.0
 40
1.0
 40
1.0
 40
1.0
 10
241.4339765999494
 20
155.6017361788658
 30
0.0
 10
241.5962411110248
 20
155.0518315719009
 30
0.0
 10
241.9237451943042
 20
153.9419400558716
 30
0.0
 10
241.9840878733687
 20
152.7945978661424
 30
0.0
 10
242.0145332906423
 20
152.2157155184654
 30
0.0
  0
SPLINE
  5
E7
330
1F
100
AcDbEntity
  8
0
  6
Continuous
 62
     7
370
    15
100
AcDbSpline
210
0.0
220
0.0
230
1.0
 70
     8
 71
     3
 72
    10
 73
     6
 74
     0
 42
0.00000001
 43
0.00000001
 12
1.0
 22
0.0
 32
0.0
 13
1.0
 23
0.0
 33
0.0
 40
0.0
 40
0.0
 40
0.0
 40
0.0
 40
0.0700767393602982
 40
0.5307776509683267
 40
0.9999999999999999
 40
0.9999999999999999
 40
0.9999999999999999
 40
0.9999999999999999
 10
242.0145332906423
 20
152.2157155184654
 30
0.0
 10
242.0138408260814
 20
152.1354711296106
 30
0.0
 10
242.0085959371729
 20
151.5276813179193
 30
0.0
 10
241.8818041634687
 20
150.3817094023046
 30
0.0
 10
241.5841616127624
 20
149.3501851038712
 30
0.0
 10
241.4339765999494
 20
148.8296967207102
 30
0.0
  0
LINE
  5
E8
330
1F
100
AcDbEntity
  8
0
  6
Continuous
 62
     7
370
    15
100
AcDbLine
 10
241.4339765999
 20
148.8296967207
 30
0.0
 11
238.595093051
 21
148.8296967207
 31
0.0
  0
SPLINE
  5
E9
330
1F
100
AcDbEntity
  8
0
  6
Continuous
 62
     7
370
    15
100
AcDbSpline
210
0.0
220
0.0
230
1.0
 70
     8
 71
     3
 72
    10
 73
     6
 74
     0
 42
0.00000001
 43
0.00000001
 12
1.0
 22
0.0
 32
0.0
 13
1.0
 23
0.0
 33
0.0
 40
0.0
 40
0.0
 40
0.0
 40
0.0
 40
0.0700767393602982
 40
0.5307776509683267
 40
0.9999999999999999
 40
0.9999999999999999
 40
0.9999999999999999
 40
0.9999999999999999
 10
238.0145363602815
 20
152.2157155184654
 30
0.0
 10
238.0152288248424
 20
152.1354711296106
 30
0.0
 10
238.0204737137509
 20
151.5276813179193
 30
0.0
 10
238.1472654874551
 20
150.3817094023046
 30
0.0
 10
238.4449080381615
 20
149.3501851038712
 30
0.0
 10
238.5950930509744
 20
148.8296967207102
 30
0.0
  0
SPLINE
  5
EA
330
1F
100
AcDbEntity
  8
0
  6
Continuous
 62
     7
370
    15
100
AcDbSpline
210
0.0
220
0.0
230
1.0
 70
     8
 71
     3
 72
     9
 73
     5
 74
     0
 42
0.00000001
 43
0.00000001
 12
1.0
 22
0.0
 32
0.0
 13
1.0
 23
0.0
 33
0.0
 40
0.0
 40
0.0
 40
0.0
 40
0.0
 40
0.4954579785708796
 40
1.0
 40
1.0
 40
1.0
 40
1.0
 10
238.5950930509744
 20
155.6017361788658
 30
0.0
 10
238.4328285398991
 20
155.0518315719009
 30
0.0
 10
238.1053244566197
 20
153.9419400558716
 30
0.0
 10
238.0449817775552
 20
152.7945978661424
 30
0.0
 10
238.0145363602815
 20
152.2157155184654
 30
0.0
  0
LINE
  5
EB
330
1F
100
AcDbEntity
  8
0
  6
Continuous
 62
     7
370
    15
100
AcDbLine
 10
241.4339765999
 20
155.6017361789
 30
0.0
 11
238.595093051
 21
155.6017361789
 31
0.0
  0
SPLINE
  5
EC
330
1F
100
AcDbEntity
  8
0
  6
Continuous
 62
     7
370
    15
100
AcDbSpline
210
0.0
220
0.0
230
1.0
 70
     8
 71
     3
 72
    10
 73
     6
 74
     0
 42
0.00000001
 43
0.00000001
 12
1.0
 22
0.0
 32
0.0
 13
1.0
 23
0.0
 33
0.0
 40
0.0
 40
0.0
 40
0.0
 40
0.0
 40
0.2684066204649333
 40
0.6323732749873059
 40
0.9999999999999999
 40
0.9999999999999999
 40
0.9999999999999999
 40
0.9999999999999999
 10
238.0145363602815
 20
158.6960498450903
 30
0.0
 10
238.0239677468805
 20
158.4150405434519
 30
0.0
 10
238.046188349416
 20
157.7529750099297
 30
0.0
 10
238.2370715811893
 20
156.714280677863
 30
0.0
 10
238.475355193309
 20
155.9738191574295
 30
0.0
 10
238.5950930509744
 20
155.6017361788658
 30
0.0
  0
SPLINE
  5
ED
330
1F
100
AcDbEntity
  8
0
  6
Continuous
 62
     7
370
    15
100
AcDbSpline
210
0.0
220
0.0
230
1.0
 70
     8
 71
     3
 72
    10
 73
     6
 74
     0
 42
0.00000001
 43
0.00000001
 12
1.0
 22
0.0
 32
0.0
 13
1.0
 23
0.0
 33
0.0
 40
0.0
 40
0.0
 40
0.0
 40
0.0
 40
0.2684066204649333
 40
0.6323732749873059
 40
0.9999999999999999
 40
0.9999999999999999
 40
0.9999999999999999
 40
0.9999999999999999
 10
242.0145332906423
 20
158.6960498450903
 30
0.0
 10
242.0051019040434
 20
158.4150405434519
 30
0.0
 10
241.9828813015079
 20
157.7529750099297
 30
0.0
 10
241.7919980697346
 20
156.714280677863
 30
0.0
 10
241.5537144576149
 20
155.9738191574295
 30
0.0
 10
241.4339765999494
 20
155.6017361788658
 30
0.0
  0
LINE
  5
EE
330
1F
100
AcDbEntity
  8
0
  6
Continuous
 62
     7
370
    15
100
AcDbLine
 10
242.0145332906
 20
158.6960498451
 30
0.0
 11
242.0145332906
 21
152.2157155185
 31
0.0
  0
SPLINE
  5
EF
330
1F
100
AcDbEntity
  8
0
  6
Continuous
 62
     7
370
    15
100
AcDbSpline
210
0.0
220
0.0
230
1.0
 70
     8
 71
     3
 72
    10
 73
     6
 74
     0
 42
0.00000001
 43
0.00000001
 12
1.0
 22
0.0
 32
0.0
 13
1.0
 23
0.0
 33
0.0
 40
0.0
 40
0.0
 40
0.0
 40
0.0
 40
0.2572437719557117
 40
0.6263799596765316
 40
1.0
 40
1.0
 40
1.0
 40
1.0
 10
241.4339765999494
 20
161.7903653739599
 30
0.0
 10
241.5195302368033
 20
161.5305175058211
 30
0.0
 10
241.7278504740447
 20
160.8977966592504
 30
0.0
 10
241.9610285973592
 20
159.8651108836941
 30
0.0
 10
241.9966267601755
 20
159.0873020104757
 30
0.0
 10
242.0145332906423
 20
158.6960498450903
 30
0.0
  0
SPLINE
  5
F0
330
1F
100
AcDbEntity
  8
0
  6
Continuous
 62
     7
370
    15
100
AcDbSpline
210
0.0
220
0.0
230
1.0
 70
     8
 71
     3
 72
    10
 73
     6
 74
     0
 42
0.00000001
 43
0.00000001
 12
1.0
 22
0.0
 32
0.0
 13
1.0
 23
0.0
 33
0.0
 40
0.0
 40
0.0
 40
0.0
 40
0.0
 40
0.2572437719557117
 40
0.6263799596765316
 40
1.0
 40
1.0
 40
1.0
 40
1.0
 10
238.5950930509744
 20
161.7903653739599
 30
0.0
 10
238.5095394141206
 20
161.5305175058211
 30
0.0
 10
238.3012191768792
 20
160.8977966592504
 30
0.0
 10
238.0680410535647
 20
159.8651108836941
 30
0.0
 10
238.0324428907483
 20
159.0873020104757
 30
0.0
 10
238.0145363602815
 20
158.6960498450903
 30
0.0
  0
LINE
  5
F1
330
1F
100
AcDbEntity
  8
0
  6
Continuous
 62
     7
370
    15
100
AcDbLine
 10
241.4339765999
 20
161.790365374
 30
0.0
 11
238.595093051
 21
161.790365374
 31
0.0
  0
SPLINE
  5
F2
330
1F
100
AcDbEntity
  8
0
  6
Continuous
 62
     7
370
    15
100
AcDbSpline
210
0.0
220
0.0
230
1.0
 70
     8
 71
     3
 72
     9
 73
     5
 74
     0
 42
0.00000001
 43
0.00000001
 12
1.0
 22
0.0
 32
0.0
 13
1.0
 23
0.0
 33
0.0
 40
0.0
 40
0.0
 40
0.0
 40
0.0
 40
0.4954580833328222
 40
1.0
 40
1.0
 40
1.0
 40
1.0
 10
238.5950930509744
 20
148.8296967207102
 30
0.0
 10
238.4328285406919
 20
148.7823222391751
 30
0.0
 10
238.1053245282614
 20
148.6867047023365
 30
0.0
 10
238.0449817973783
 20
148.5878619173601
 30
0.0
 10
238.0145363602815
 20
148.5379915891794
 30
0.0
  0
SPLINE
  5
F3
330
1F
100
AcDbEntity
  8
0
  6
Continuous
 62
     7
370
    15
100
AcDbSpline
210
0.0
220
0.0
230
1.0
 70
     8
 71
     3
 72
     9
 73
     5
 74
     0
 42
0.00000001
 43
0.00000001
 12
1.0
 22
0.0
 32
0.0
 13
1.0
 23
0.0
 33
0.0
 40
0.0
 40
0.0
 40
0.0
 40
0.0
 40
0.4954580833328222
 40
1.0
 40
1.0
 40
1.0
 40
1.0
 10
241.4339765999494
 20
148.8296967207102
 30
0.0
 10
241.596241110232
 20
148.7823222391751
 30
0.0
 10
241.9237451226625
 20
148.6867047023365
 30
0.0
 10
241.9840878535456
 20
148.5878619173601
 30
0.0
 10
242.0145332906423
 20
148.5379915891794
 30
0.0
  0
LINE
  5
F4
330
1F
100
AcDbEntity
  8
0
  6
Continuous
 62
     7
370
    15
100
AcDbLine
 10
242.0145332906
 20
152.2157155185
 30
0.0
 11
242.0145332906
 21
148.5379915892
 31
0.0
  0
SPLINE
  5
F5
330
1F
100
AcDbEntity
  8
0
  6
Continuous
 62
     7
370
    15
100
AcDbSpline
210
0.0
220
0.0
230
1.0
 70
     8
 71
     3
 72
     9
 73
     5
 74
     0
 42
0.00000001
 43
0.00000001
 12
1.0
 22
0.0
 32
0.0
 13
1.0
 23
0.0
 33
0.0
 40
0.0
 40
0.0
 40
0.0
 40
0.0
 40
0.2437031624983565
 40
1.0
 40
1.0
 40
1.0
 40
1.0
 10
238.0428113136469
 20
161.5379955826906
 30
0.0
 10
238.0538033831003
 20
161.5588446442289
 30
0.0
 10
238.0989077196251
 20
161.6443956946322
 30
0.0
 10
238.3814256407159
 20
161.7275078862679
 30
0.0
 10
238.5950930509744
 20
161.7903653739599
 30
0.0
  0
SPLINE
  5
F6
330
1F
100
AcDbEntity
  8
0
  6
Continuous
 62
     7
370
    15
100
AcDbSpline
210
0.0
220
0.0
230
1.0
 70
     8
 71
     3
 72
     9
 73
     5
 74
     0
 42
0.00000001
 43
0.00000001
 12
1.0
 22
0.0
 32
0.0
 13
1.0
 23
0.0
 33
0.0
 40
0.0
 40
0.0
 40
0.0
 40
0.0
 40
0.2437031624983565
 40
1.0
 40
1.0
 40
1.0
 40
1.0
 10
241.986258337277
 20
161.5379955826906
 30
0.0
 10
241.9752662678235
 20
161.5588446442289
 30
0.0
 10
241.9301619312988
 20
161.6443956946322
 30
0.0
 10
241.647644010208
 20
161.7275078862679
 30
0.0
 10
241.4339765999494
 20
161.7903653739599
 30
0.0
  0
LINE
  5
F7
330
1F
100
AcDbEntity
  8
0
  6
Continuous
 62
     7
370
    15
100
AcDbLine
 10
242.0145332906
 20
161.5183260499
 30
0.0
 11
242.0145332906
 21
158.6960498451
 31
0.0
  0
SPLINE
  5
F8
330
1F
100
AcDbEntity
  8
0
  6
Continuous
 62
     7
370
    15
100
AcDbSpline
210
0.0
220
0.0
230
1.0
 70
     8
 71
     3
 72
    10
 73
     6
 74
     0
 42
0.00000001
 43
0.00000001
 12
1.0
 22
0.0
 32
0.0
 13
1.0
 23
0.0
 33
0.0
 40
0.0
 40
0.0
 40
0.0
 40
0.0
 40
0.0700770203467095
 40
0.5307776381911218
 40
1.0
 40
1.0
 40
1.0
 40
1.0
 10
242.0145332906423
 20
148.5379915891794
 30
0.0
 10
242.0138408298477
 20
148.5310782855332
 30
0.0
 10
242.0085959906225
 20
148.4787155143526
 30
0.0
 10
241.8818040294159
 20
148.3799931044164
 30
0.0
 10
241.5841616006853
 20
148.291126794622
 30
0.0
 10
241.4339765999494
 20
148.2462864576486
 30
0.0
  0
LINE
  5
F9
330
1F
100
AcDbEntity
  8
0
  6
Continuous
 62
     7
370
    15
100
AcDbLine
 10
241.4339765999
 20
148.2462864576
 30
0.0
 11
238.595093051
 21
148.2462864576
 31
0.0
  0
SPLINE
  5
FA
330
1F
100
AcDbEntity
  8
0
  6
Continuous
 62
     7
370
    15
100
AcDbSpline
210
0.0
220
0.0
230
1.0
 70
     8
 71
     3
 72
    10
 73
     6
 74
     0
 42
0.00000001
 43
0.00000001
 12
1.0
 22
0.0
 32
0.0
 13
1.0
 23
0.0
 33
0.0
 40
0.0
 40
0.0
 40
0.0
 40
0.0
 40
0.0700770203467095
 40
0.5307776381911218
 40
1.0
 40
1.0
 40
1.0
 40
1.0
 10
238.0145363602815
 20
148.5379915891794
 30
0.0
 10
238.0152288210762
 20
148.5310782855332
 30
0.0
 10
238.0204736603014
 20
148.4787155143526
 30
0.0
 10
238.147265621508
 20
148.3799931044164
 30
0.0
 10
238.4449080502386
 20
148.291126794622
 30
0.0
 10
238.5950930509744
 20
148.2462864576486
 30
0.0
  0
LINE
  5
FB
330
1F
100
AcDbEntity
  8
0
  6
Continuous
 62
     7
370
    15
100
AcDbLine
 10
253.6145322118
 20
152.2157155185
 30
0.0
 11
253.6145322118
 21
155.6017361789
 31
0.0
  0
LINE
  5
FC
330
1F
100
AcDbEntity
  8
0
  6
Continuous
 62
     7
370
    15
100
AcDbLine
 10
253.6145322118
 20
155.6017361789
 30
0.0
 11
257.7339805756
 21
155.6017361789
 31
0.0
  0
SPLINE
  5
FD
330
1F
100
AcDbEntity
  8
0
  6
Continuous
 62
     7
370
    15
100
AcDbSpline
210
0.0
220
0.0
230
1.0
 70
     8
 71
     3
 72
     9
 73
     5
 74
     0
 42
0.00000001
 43
0.00000001
 12
1.0
 22
0.0
 32
0.0
 13
1.0
 23
0.0
 33
0.0
 40
0.0
 40
0.0
 40
0.0
 40
0.0
 40
0.4954579785708796
 40
1.0
 40
1.0
 40
1.0
 40
1.0
 10
257.7339805755792
 20
155.6017361788658
 30
0.0
 10
257.8962450866545
 20
155.0518315719009
 30
0.0
 10
258.223749169934
 20
153.9419400558716
 30
0.0
 10
258.2840918489985
 20
152.7945978661424
 30
0.0
 10
258.3145372662721
 20
152.2157155184654
 30
0.0
  0
SPLINE
  5
FE
330
1F
100
AcDbEntity
  8
0
  6
Continuous
 62
     7
370
    15
100
AcDbSpline
210
0.0
220
0.0
230
1.0
 70
     8
 71
     3
 72
    10
 73
     6
 74
     0
 42
0.00000001
 43
0.00000001
 12
1.0
 22
0.0
 32
0.0
 13
1.0
 23
0.0
 33
0.0
 40
0.0
 40
0.0
 40
0.0
 40
0.0
 40
0.0700767832056429
 40
0.5307777343315387
 40
1.0
 40
1.0
 40
1.0
 40
1.0
 10
258.3145372662721
 20
152.2157155184654
 30
0.0
 10
258.3138421207408
 20
152.1354711324448
 30
0.0
 10
258.3085769280015
 20
151.5276816270407
 30
0.0
 10
258.181811052699
 20
150.3817095503042
 30
0.0
 10
257.8841665524797
 20
149.3501851083557
 30
0.0
 10
257.7339805755792
 20
148.8296967207102
 30
0.0
  0
LINE
  5
FF
330
1F
100
AcDbEntity
  8
0
  6
Continuous
 62
     7
370
    15
100
AcDbLine
 10
253.6145322118
 20
148.8296967207
 30
0.0
 11
257.7339805756
 21
148.8296967207
 31
0.0
  0
LINE
  5
100
330
1F
100
AcDbEntity
  8
0
  6
Continuous
 62
     7
370
    15
100
AcDbLine
 10
253.6145322118
 20
148.8296967207
 30
0.0
 11
253.6145322118
 21
152.2157155185
 31
0.0
  0
LINE
  5
101
330
1F
100
AcDbEntity
  8
0
  6
Continuous
 62
     7
370
    15
100
AcDbLine
 10
253.0145369563
 20
148.5183257817
 30
0.0
 11
253.0145369563
 21
161.5183260499
 31
0.0
  0
SPLINE
  5
102
330
1F
100
AcDbEntity
  8
0
  6
Continuous
 62
     7
370
    15
100
AcDbSpline
210
0.0
220
0.0
230
1.0
 70
     8
 71
     3
 72
    10
 73
     6
 74
     0
 42
0.00000001
 43
0.00000001
 12
1.0
 22
0.0
 32
0.0
 13
1.0
 23
0.0
 33
0.0
 40
0.0
 40
0.0
 40
0.0
 40
0.0
 40
0.2416192342028418
 40
0.6187322548611073
 40
1.0
 40
1.0
 40
1.0
 40
1.0
 10
258.3145372662721
 20
158.6960498450903
 30
0.0
 10
258.3068303858211
 20
158.4431045240404
 30
0.0
 10
258.2870948066767
 20
157.7953687203654
 30
0.0
 10
258.1042343748125
 20
156.7554606617406
 30
0.0
 10
257.8578484434422
 20
155.9877130198621
 30
0.0
 10
257.7339805755792
 20
155.6017361788658
 30
0.0
  0
LINE
  5
103
330
1F
100
AcDbEntity
  8
0
  6
Continuous
 62
     7
370
    15
100
AcDbLine
 10
258.3145372663
 20
158.6960498451
 30
0.0
 11
258.3145372663
 21
152.2157155185
 31
0.0
  0
LINE
  5
104
330
1F
100
AcDbEntity
  8
0
  6
Continuous
 62
     7
370
    15
100
AcDbLine
 10
253.6145322118
 20
158.6960498451
 30
0.0
 11
253.6145322118
 21
161.790365374
 31
0.0
  0
LINE
  5
105
330
1F
100
AcDbEntity
  8
0
  6
Continuous
 62
     7
370
    15
100
AcDbLine
 10
253.6145322118
 20
161.790365374
 30
0.0
 11
257.7339805756
 21
161.790365374
 31
0.0
  0
SPLINE
  5
106
330
1F
100
AcDbEntity
  8
0
  6
Continuous
 62
     7
370
    15
100
AcDbSpline
210
0.0
220
0.0
230
1.0
 70
     8
 71
     3
 72
    10
 73
     6
 74
     0
 42
0.00000001
 43
0.00000001
 12
1.0
 22
0.0
 32
0.0
 13
1.0
 23
0.0
 33
0.0
 40
0.0
 40
0.0
 40
0.0
 40
0.0
 40
0.2234128467912723
 40
0.6092011947869599
 40
1.0
 40
1.0
 40
1.0
 40
1.0
 10
257.7339805755792
 20
161.7903653739599
 30
0.0
 10
257.8087791748025
 20
161.5648291795633
 30
0.0
 10
258.0127396751482
 20
160.9498380496107
 30
0.0
 10
258.2560678552266
 20
159.9185426840321
 30
0.0
 10
258.2949638117404
 20
159.1052964506309
 30
0.0
 10
258.3145372662721
 20
158.6960498450903
 30
0.0
  0
LINE
  5
107
330
1F
100
AcDbEntity
  8
0
  6
Continuous
 62
     7
370
    15
100
AcDbLine
 10
253.6145322118
 20
155.6017361789
 30
0.0
 11
253.6145322118
 21
158.6960498451
 31
0.0
  0
SPLINE
  5
108
330
1F
100
AcDbEntity
  8
0
  6
Continuous
 62
     7
370
    15
100
AcDbSpline
210
0.0
220
0.0
230
1.0
 70
     8
 71
     3
 72
     9
 73
     5
 74
     0
 42
0.00000001
 43
0.00000001
 12
1.0
 22
0.0
 32
0.0
 13
1.0
 23
0.0
 33
0.0
 40
0.0
 40
0.0
 40
0.0
 40
0.0
 40
0.4954580833328222
 40
1.0
 40
1.0
 40
1.0
 40
1.0
 10
257.7339805755793
 20
148.8296967207102
 30
0.0
 10
257.8962450858618
 20
148.7823222391751
 30
0.0
 10
258.2237490982923
 20
148.6867047023365
 30
0.0
 10
258.2840918291755
 20
148.5878619173601
 30
0.0
 10
258.3145372662721
 20
148.5379915891794
 30
0.0
  0
LINE
  5
109
330
1F
100
AcDbEntity
  8
0
  6
Continuous
 62
     7
370
    15
100
AcDbLine
 10
258.3145372663
 20
148.5379915892
 30
0.0
 11
258.3145372663
 21
152.2157155185
 31
0.0
  0
SPLINE
  5
10A
330
1F
100
AcDbEntity
  8
0
  6
Continuous
 62
     7
370
    15
100
AcDbSpline
210
0.0
220
0.0
230
1.0
 70
     8
 71
     3
 72
    10
 73
     6
 74
     0
 42
0.00000001
 43
0.00000001
 12
1.0
 22
0.0
 32
0.0
 13
1.0
 23
0.0
 33
0.0
 40
0.0
 40
0.0
 40
0.0
 40
0.0
 40
0.070077009540901
 40
0.5307775954071337
 40
0.9999999999999999
 40
0.9999999999999999
 40
0.9999999999999999
 40
0.9999999999999999
 10
258.3145372662721
 20
161.4986602424291
 30
0.0
 10
258.3138421242326
 20
161.5055728705782
 30
0.0
 10
258.3085769763239
 20
161.5579305292588
 30
0.0
 10
258.1818108360519
 20
161.6566610242345
 30
0.0
 10
257.884166533673
 20
161.7455258049598
 30
0.0
 10
257.7339805755792
 20
161.7903653739599
 30
0.0
  0
LINE
  5
10B
330
1F
100
AcDbEntity
  8
0
  6
Continuous
 62
     7
370
    15
100
AcDbLine
 10
258.3145372663
 20
158.6960498451
 30
0.0
 11
258.3145372663
 21
161.5091655611
 31
0.0
  0
SPLINE
  5
10C
330
1F
100
AcDbEntity
  8
0
  6
Continuous
 62
     7
370
    15
100
AcDbSpline
210
0.0
220
0.0
230
1.0
 70
     8
 71
     3
 72
    10
 73
     6
 74
     0
 42
0.00000001
 43
0.00000001
 12
1.0
 22
0.0
 32
0.0
 13
1.0
 23
0.0
 33
0.0
 40
0.0
 40
0.0
 40
0.0
 40
0.0
 40
0.0700770641920491
 40
0.5307777215542442
 40
0.9999999999999999
 40
0.9999999999999999
 40
0.9999999999999999
 40
0.9999999999999999
 10
258.3145372662721
 20
148.5379915891794
 30
0.0
 10
258.3138421245063
 20
148.5310782857774
 30
0.0
 10
258.3085769815256
 20
148.478715540984
 30
0.0
 10
258.1818109186198
 20
148.379993117166
 30
0.0
 10
257.884166540394
 20
148.2911267950082
 30
0.0
 10
257.7339805755792
 20
148.2462864576486
 30
0.0
  0
LINE
  5
10D
330
1F
100
AcDbEntity
  8
0
  6
Continuous
 62
     7
370
    15
100
AcDbLine
 10
253.6145322118
 20
148.2462864576
 30
0.0
 11
257.7339805756
 21
148.2462864576
 31
0.0
  0
LINE
  5
10E
330
1F
100
AcDbEntity
  8
0
  6
Continuous
 62
     7
370
    15
100
AcDbLine
 10
253.6145322118
 20
148.2462864576
 30
0.0
 11
253.6145322118
 21
148.5379915892
 31
0.0
  0
LINE
  5
10F
330
1F
100
AcDbEntity
  8
0
  6
Continuous
 62
     7
370
    15
100
AcDbLine
 10
253.6145322118
 20
148.5379915892
 30
0.0
 11
253.6145322118
 21
148.8296967207
 31
0.0
  0
LINE
  5
110
330
1F
100
AcDbEntity
  8
0
  6
Continuous
 62
     7
370
    15
100
AcDbLine
 10
245.3095041309
 20
139.0183251558
 30
0.0
 11
251.3145379815
 21
139.0183251558
 31
0.0
  0
LINE
  5
111
330
1F
100
AcDbEntity
  8
0
  6
Continuous
 62
     7
370
    15
100
AcDbLine
 10
241.9145353232
 20
139.0183251558
 30
0.0
 11
245.3095041309
 21
139.0183251558
 31
0.0
  0
LINE
  5
112
330
1F
100
AcDbEntity
  8
0
  6
HIDDEN
 62
     7
370
     0
100
AcDbLine
 10
257.014537612
 20
105.663327521
 30
0.0
 11
257.014537612
 21
86.0183257817
 31
0.0
  0
LWPOLYLINE
  5
113
330
1F
100
AcDbEntity
  8
0
  6
HIDDEN
 62
     7
370
     0
100
AcDbPolyline
 90
        3
 70
   128
 43
0.0
 10
251.5145339165
 20
104.1896064042
 10
254.246028522
 20
104.9215067385
 10
257.014537612
 20
105.663327521
  0
LINE
  5
114
330
1F
100
AcDbEntity
  8
0
  6
HIDDEN
 62
     7
370
     0
100
AcDbLine
 10
251.5145339165
 20
126.0183248876
 30
0.0
 11
251.5145339165
 21
104.1896064042
 31
0.0
  0
LINE
  5
115
330
1F
100
AcDbEntity
  8
0
  6
HIDDEN
 62
     7
370
     0
100
AcDbLine
 10
238.3173093293
 20
126.0183248876
 30
0.0
 11
251.5145339165
 21
126.0183248876
 31
0.0
  0
LINE
  5
116
330
1F
100
AcDbEntity
  8
0
  6
HIDDEN
 62
     7
370
     0
100
AcDbLine
 10
239.8686356936
 20
128.0183249826
 30
0.0
 11
251.5145339165
 21
128.0183249826
 31
0.0
  0
LINE
  5
117
330
1F
100
AcDbEntity
  8
0
  6
HIDDEN
 62
     7
370
     0
100
AcDbLine
 10
251.5145339165
 20
130.1896060093
 30
0.0
 11
251.5145339165
 21
128.0183249826
 31
0.0
  0
LWPOLYLINE
  5
118
330
1F
100
AcDbEntity
  8
0
  6
HIDDEN
 62
     7
370
     0
100
AcDbPolyline
 90
        3
 70
   128
 43
0.0
 10
257.014537612
 20
128.715885591
 10
254.2623452935
 20
129.4533331154
 10
251.5145339165
 20
130.1896060093
  0
LINE
  5
119
330
1F
100
AcDbEntity
  8
0
  6
HIDDEN
 62
     7
370
     0
100
AcDbLine
 10
257.014537612
 20
138.0183249919
 30
0.0
 11
257.014537612
 21
128.715885591
 31
0.0
  0
LINE
  5
11A
330
1F
100
AcDbEntity
  8
0
  6
HIDDEN
 62
     7
370
     0
100
AcDbLine
 10
238.0145363603
 20
138.0183249919
 30
0.0
 11
257.014537612
 21
138.0183249919
 31
0.0
  0
LINE
  5
11B
330
1F
100
AcDbEntity
  8
0
  6
HIDDEN
 62
     7
370
     0
100
AcDbLine
 10
238.0145363603
 20
138.0183249919
 30
0.0
 11
238.0145363603
 21
166.0183239936
 31
0.0
  0
SPLINE
  5
11C
330
1F
100
AcDbEntity
  8
0
  6
HIDDEN
 62
     7
370
     0
100
AcDbSpline
210
0.0
220
0.0
230
1.0
 70
     8
 71
     3
 72
    66
 73
    62
 74
     0
 42
0.00000001
 43
0.00000001
 12
1.0
 22
0.0
 32
0.0
 13
1.0
 23
0.0
 33
0.0
 40
-0.0625
 40
-0.0625
 40
0.0
 40
0.0
 40
0.0312500000000001
 40
0.0312500000000001
 40
0.0625000000000002
 40
0.0625000000000002
 40
0.0937500000000003
 40
0.0937500000000003
 40
0.1250000000000002
 40
0.1250000000000002
 40
0.1562500000000001
 40
0.1562500000000001
 40
0.1875000000000001
 40
0.1875000000000001
 40
0.21875
 40
0.21875
 40
0.2499999999999999
 40
0.2499999999999999
 40
0.2812499999999999
 40
0.2812499999999999
 40
0.3124999999999998
 40
0.3124999999999998
 40
0.3437499999999997
 40
0.3437499999999997
 40
0.3749999999999997
 40
0.3749999999999997
 40
0.4062499999999996
 40
0.4062499999999996
 40
0.4374999999999995
 40
0.4374999999999995
 40
0.4687499999999994
 40
0.4687499999999994
 40
0.4999999999999994
 40
0.4999999999999994
 40
0.5312499999999993
 40
0.5312499999999993
 40
0.5624999999999993
 40
0.5624999999999993
 40
0.6250000000000001
 40
0.6250000000000001
 40
0.6562500000000001
 40
0.6562500000000001
 40
0.6875000000000001
 40
0.6875000000000001
 40
0.7187500000000001
 40
0.7187500000000001
 40
0.7500000000000001
 40
0.7500000000000001
 40
0.7812500000000001
 40
0.7812500000000001
 40
0.8125000000000001
 40
0.8125000000000001
 40
0.8437500000000001
 40
0.8437500000000001
 40
0.875
 40
0.875
 40
0.90625
 40
0.90625
 40
0.9375
 40
0.9375
 40
1.0
 40
1.0
 40
1.03125
 40
1.03125
 10
225.3449450564778
 20
162.995727614894
 30
0.0
 10
224.8493294193813
 20
162.995727614894
 30
0.0
 10
224.6868929625822
 20
162.9895406788517
 30
0.0
 10
224.3673286221168
 20
162.9651999920344
 30
0.0
 10
224.2085425704342
 20
162.9467482460917
 30
0.0
 10
223.9058069478331
 20
162.8982571308258
 30
0.0
 10
223.7622296468039
 20
162.8684586755111
 30
0.0
 10
223.4905034791189
 20
162.7974172028187
 30
0.0
 10
223.3618801048434
 20
162.7557926134391
 30
0.0
 10
223.1313220454527
 20
162.6638714807634
 30
0.0
 10
223.0278497701884
 20
162.6132679215463
 30
0.0
 10
222.845089111387
 20
162.5020169762065
 30
0.0
 10
222.7674476578825
 20
162.4421572206813
 30
0.0
 10
222.6427534939187
 20
162.3167664590629
 30
0.0
 10
222.5947467213801
 20
162.2503110969877
 30
0.0
 10
222.5305131020537
 20
162.1123782161297
 30
0.0
 10
222.5146225729585
 20
162.0421611793745
 30
0.0
 10
222.514447411543
 20
161.8991893555257
 30
0.0
 10
222.5306792913594
 20
161.8256519694689
 30
0.0
 10
222.5944626490851
 20
161.6815685019766
 30
0.0
 10
222.6416562536522
 20
161.6106706623917
 30
0.0
 10
222.7668278733839
 20
161.471466027299
 30
0.0
 10
222.8450855718186
 20
161.4033689052582
 30
0.0
 10
223.0260031060782
 20
161.2761594340888
 30
0.0
 10
223.1292875731102
 20
161.2162451083238
 30
0.0
 10
223.3625428908781
 20
161.1046152534666
 30
0.0
 10
223.4889411680286
 20
161.0546402917927
 30
0.0
 10
223.7596084660847
 20
160.9667820497357
 30
0.0
 10
223.9056948220189
 20
160.9285218306936
 30
0.0
 10
224.2085696577412
 20
160.8669527639387
 30
0.0
 10
224.3643996550949
 20
160.8436273752151
 30
0.0
 10
224.6847554223459
 20
160.812026759928
 30
0.0
 10
224.8504693643594
 20
160.8039009345336
 30
0.0
 10
225.1768050027663
 20
160.8038429867244
 30
0.0
 10
225.3389975424435
 20
160.8116486243108
 30
0.0
 10
225.6613906262189
 20
160.8431615020788
 30
0.0
 10
225.8193965587842
 20
160.8668053160305
 30
0.0
 10
226.2708075971393
 20
160.9583403788979
 30
0.0
 10
226.5498751324172
 20
161.049097288943
 30
0.0
 10
226.8959463289028
 20
161.2142580387035
 30
0.0
 10
227.0015882721555
 20
161.2752204663376
 30
0.0
 10
227.183362587317
 20
161.4028331505576
 30
0.0
 10
227.260251396007
 20
161.469602603361
 30
0.0
 10
227.3859121087642
 20
161.6086614276551
 30
0.0
 10
227.4342188083798
 20
161.6809712380718
 30
0.0
 10
227.4980386886903
 20
161.8245828824823
 30
0.0
 10
227.5143691273076
 20
161.8966696831586
 30
0.0
 10
227.5146976573989
 20
162.0413211202251
 30
0.0
 10
227.4986013508463
 20
162.1118675373453
 30
0.0
 10
227.4353696506814
 20
162.2484691514179
 30
0.0
 10
227.3875261016048
 20
162.3153751155287
 30
0.0
 10
227.2621863876584
 20
162.4417610858497
 30
0.0
 10
227.1854909363171
 20
162.5008801930969
 30
0.0
 10
227.0044343877807
 20
162.6115224798012
 30
0.0
 10
226.8989615928272
 20
162.6633193617849
 30
0.0
 10
226.6684485455074
 20
162.755357743871
 30
0.0
 10
226.5427315415264
 20
162.7961858006327
 30
0.0
 10
226.269952462759
 20
162.867783378316
 30
0.0
 10
226.1242530438222
 20
162.8980377534737
 30
0.0
 10
225.6731897450108
 20
162.9704683213907
 30
0.0
 10
225.3449450564778
 20
162.995727614894
 30
0.0
 10
224.8493294193813
 20
162.995727614894
 30
0.0
  0
SPLINE
  5
11D
330
1F
100
AcDbEntity
  8
0
  6
HIDDEN
 62
     7
370
     0
100
AcDbSpline
210
0.0
220
0.0
230
1.0
 70
     8
 71
     3
 72
    66
 73
    62
 74
     0
 42
0.00000001
 43
0.00000001
 12
1.0
 22
0.0
 32
0.0
 13
1.0
 23
0.0
 33
0.0
 40
-0.0625
 40
-0.0625
 40
0.0
 40
0.0
 40
0.0312500000000001
 40
0.0312500000000001
 40
0.0625000000000002
 40
0.0625000000000002
 40
0.0937500000000003
 40
0.0937500000000003
 40
0.1250000000000002
 40
0.1250000000000002
 40
0.1562500000000001
 40
0.1562500000000001
 40
0.1875000000000001
 40
0.1875000000000001
 40
0.21875
 40
0.21875
 40
0.2499999999999999
 40
0.2499999999999999
 40
0.2812499999999999
 40
0.2812499999999999
 40
0.3124999999999998
 40
0.3124999999999998
 40
0.3437499999999997
 40
0.3437499999999997
 40
0.3749999999999997
 40
0.3749999999999997
 40
0.4062499999999996
 40
0.4062499999999996
 40
0.4374999999999995
 40
0.4374999999999995
 40
0.4687499999999994
 40
0.4687499999999994
 40
0.4999999999999994
 40
0.4999999999999994
 40
0.5312499999999993
 40
0.5312499999999993
 40
0.5624999999999993
 40
0.5624999999999993
 40
0.6250000000000001
 40
0.6250000000000001
 40
0.6562500000000001
 40
0.6562500000000001
 40
0.6875000000000001
 40
0.6875000000000001
 40
0.7187500000000001
 40
0.7187500000000001
 40
0.7500000000000001
 40
0.7500000000000001
 40
0.7812500000000001
 40
0.7812500000000001
 40
0.8125000000000001
 40
0.8125000000000001
 40
0.8437500000000001
 40
0.8437500000000001
 40
0.875
 40
0.875
 40
0.90625
 40
0.90625
 40
0.9375
 40
0.9375
 40
1.0
 40
1.0
 40
1.03125
 40
1.03125
 10
225.3449450564778
 20
162.995727614894
 30
0.0
 10
224.8493294193813
 20
162.995727614894
 30
0.0
 10
224.6868929625822
 20
162.9895406788517
 30
0.0
 10
224.3673286221168
 20
162.9651999920344
 30
0.0
 10
224.2085425704342
 20
162.9467482460917
 30
0.0
 10
223.9058069478331
 20
162.8982571308258
 30
0.0
 10
223.7622296468039
 20
162.8684586755111
 30
0.0
 10
223.4905034791189
 20
162.7974172028187
 30
0.0
 10
223.3618801048434
 20
162.7557926134391
 30
0.0
 10
223.1313220454527
 20
162.6638714807634
 30
0.0
 10
223.0278497701884
 20
162.6132679215463
 30
0.0
 10
222.845089111387
 20
162.5020169762065
 30
0.0
 10
222.7674476578825
 20
162.4421572206813
 30
0.0
 10
222.6427534939187
 20
162.3167664590629
 30
0.0
 10
222.5947467213801
 20
162.2503110969877
 30
0.0
 10
222.5305131020537
 20
162.1123782161297
 30
0.0
 10
222.5146225729585
 20
162.0421611793745
 30
0.0
 10
222.514447411543
 20
161.8991893555257
 30
0.0
 10
222.5306792913594
 20
161.8256519694689
 30
0.0
 10
222.5944626490851
 20
161.6815685019766
 30
0.0
 10
222.6416562536522
 20
161.6106706623917
 30
0.0
 10
222.7668278733839
 20
161.471466027299
 30
0.0
 10
222.8450855718186
 20
161.4033689052582
 30
0.0
 10
223.0260031060782
 20
161.2761594340888
 30
0.0
 10
223.1292875731102
 20
161.2162451083238
 30
0.0
 10
223.3625428908781
 20
161.1046152534666
 30
0.0
 10
223.4889411680286
 20
161.0546402917927
 30
0.0
 10
223.7596084660847
 20
160.9667820497357
 30
0.0
 10
223.9056948220189
 20
160.9285218306936
 30
0.0
 10
224.2085696577412
 20
160.8669527639387
 30
0.0
 10
224.3643996550949
 20
160.8436273752151
 30
0.0
 10
224.6847554223459
 20
160.812026759928
 30
0.0
 10
224.8504693643594
 20
160.8039009345336
 30
0.0
 10
225.1768050027663
 20
160.8038429867244
 30
0.0
 10
225.3389975424435
 20
160.8116486243108
 30
0.0
 10
225.6613906262189
 20
160.8431615020788
 30
0.0
 10
225.8193965587842
 20
160.8668053160305
 30
0.0
 10
226.2708075971393
 20
160.9583403788979
 30
0.0
 10
226.5498751324172
 20
161.049097288943
 30
0.0
 10
226.8959463289028
 20
161.2142580387035
 30
0.0
 10
227.0015882721555
 20
161.2752204663376
 30
0.0
 10
227.183362587317
 20
161.4028331505576
 30
0.0
 10
227.260251396007
 20
161.469602603361
 30
0.0
 10
227.3859121087642
 20
161.6086614276551
 30
0.0
 10
227.4342188083798
 20
161.6809712380718
 30
0.0
 10
227.4980386886903
 20
161.8245828824823
 30
0.0
 10
227.5143691273076
 20
161.8966696831586
 30
0.0
 10
227.5146976573989
 20
162.0413211202251
 30
0.0
 10
227.4986013508463
 20
162.1118675373453
 30
0.0
 10
227.4353696506814
 20
162.2484691514179
 30
0.0
 10
227.3875261016048
 20
162.3153751155287
 30
0.0
 10
227.2621863876584
 20
162.4417610858497
 30
0.0
 10
227.1854909363171
 20
162.5008801930969
 30
0.0
 10
227.0044343877807
 20
162.6115224798012
 30
0.0
 10
226.8989615928272
 20
162.6633193617849
 30
0.0
 10
226.6684485455074
 20
162.755357743871
 30
0.0
 10
226.5427315415264
 20
162.7961858006327
 30
0.0
 10
226.269952462759
 20
162.867783378316
 30
0.0
 10
226.1242530438222
 20
162.8980377534737
 30
0.0
 10
225.6731897450108
 20
162.9704683213907
 30
0.0
 10
225.3449450564778
 20
162.995727614894
 30
0.0
 10
224.8493294193813
 20
162.995727614894
 30
0.0
  0
SPLINE
  5
11E
330
1F
100
AcDbEntity
  8
0
  6
HIDDEN
 62
     7
370
     0
100
AcDbSpline
210
0.0
220
0.0
230
1.0
 70
     8
 71
     3
 72
    54
 73
    50
 74
     0
 42
0.00000001
 43
0.00000001
 12
1.0
 22
0.0
 32
0.0
 13
1.0
 23
0.0
 33
0.0
 40
0.0
 40
0.0
 40
0.0
 40
0.0
 40
0.0624999999999996
 40
0.0624999999999996
 40
0.0937499999999998
 40
0.0937499999999998
 40
0.1250000000000001
 40
0.1250000000000001
 40
0.1875000000000012
 40
0.1875000000000012
 40
0.2187500000000018
 40
0.2187500000000018
 40
0.2500000000000023
 40
0.2500000000000023
 40
0.2812500000000028
 40
0.2812500000000028
 40
0.3125000000000034
 40
0.3125000000000034
 40
0.3750000000000046
 40
0.3750000000000046
 40
0.4375000000000059
 40
0.4375000000000059
 40
0.4687500000000066
 40
0.4687500000000066
 40
0.5000000000000072
 40
0.5000000000000072
 40
0.5625000000000072
 40
0.5625000000000072
 40
0.5937500000000066
 40
0.5937500000000066
 40
0.6250000000000059
 40
0.6250000000000059
 40
0.6562500000000052
 40
0.6562500000000052
 40
0.6875000000000046
 40
0.6875000000000046
 40
0.7500000000000032
 40
0.7500000000000032
 40
0.812500000000002
 40
0.812500000000002
 40
0.8437500000000018
 40
0.8437500000000018
 40
0.8750000000000016
 40
0.8750000000000016
 40
0.9375000000000008
 40
0.9375000000000008
 40
0.9687500000000003
 40
0.9687500000000003
 40
1.0
 40
1.0
 40
1.0
 40
1.0
 10
234.7117589940148
 20
126.0183248876242
 30
0.0
 10
234.4295440097318
 20
126.187914987047
 30
0.0
 10
234.1774413311691
 20
126.3925598534182
 30
0.0
 10
233.8433725489149
 20
126.7508251842378
 30
0.0
 10
233.739299669577
 20
126.879495155649
 30
0.0
 10
233.5526813151583
 20
127.1464417051994
 30
0.0
 10
233.4692128646202
 20
127.2855808789365
 30
0.0
 10
233.248111903679
 20
127.719853316324
 30
0.0
 10
233.1401161344604
 20
128.0342947285834
 30
0.0
 10
233.0476353964108
 20
128.5115077813529
 30
0.0
 10
233.0278195016664
 20
128.6726100230956
 30
0.0
 10
233.010775685685
 20
128.9989751129688
 30
0.0
 10
233.0137861958235
 20
129.1633109841149
 30
0.0
 10
233.0421604328363
 20
129.4861688814258
 30
0.0
 10
233.0674392368901
 20
129.6458713661692
 30
0.0
 10
233.1402080483669
 20
129.9618297114976
 30
0.0
 10
233.1882196285452
 20
130.119267233906
 30
0.0
 10
233.3628450047171
 20
130.5748063993412
 30
0.0
 10
233.518831824566
 20
130.8575351262138
 30
0.0
 10
233.9113745581174
 20
131.3806303805158
 30
0.0
 10
234.1401776744974
 20
131.6102278087924
 30
0.0
 10
234.5283710807753
 20
131.9047651307424
 30
0.0
 10
234.666484186473
 20
131.9950937668983
 30
0.0
 10
234.9504584285934
 20
132.1536253580131
 30
0.0
 10
235.0970265290574
 20
132.2225324930831
 30
0.0
 10
235.5503704675915
 20
132.3984861063893
 30
0.0
 10
235.874424383734
 20
132.4745652941714
 30
0.0
 10
236.3592641961386
 20
132.5186428462089
 30
0.0
 10
236.5217002931448
 20
132.5221330300713
 30
0.0
 10
236.8482548687926
 20
132.50621159008
 30
0.0
 10
237.0124162961133
 20
132.4865498276753
 30
0.0
 10
237.3320143248325
 20
132.4254053589218
 30
0.0
 10
237.4887985328812
 20
132.3839157474186
 30
0.0
 10
237.7963726032937
 20
132.2791964581227
 30
0.0
 10
237.9482822191543
 20
132.2153592868214
 30
0.0
 10
238.3854143837586
 20
131.9943042776234
 30
0.0
 10
238.6511038003686
 20
131.8097288858855
 30
0.0
 10
239.1310750234533
 20
131.3657874480035
 30
0.0
 10
239.3363966022101
 20
131.1140985436357
 30
0.0
 10
239.5891707936617
 20
130.6984753336379
 30
0.0
 10
239.6647247376398
 20
130.5521598481117
 30
0.0
 10
239.7931662857409
 20
130.254011687225
 30
0.0
 10
239.8466196543597
 20
130.1015306243871
 30
0.0
 10
239.975097113912
 20
129.6339614454577
 30
0.0
 10
240.0177692782364
 20
129.3049402999084
 30
0.0
 10
240.0126224057761
 20
128.8193719511843
 30
0.0
 10
239.9997357252794
 20
128.6578541146002
 30
0.0
 10
239.9511515122632
 20
128.3355143303575
 30
0.0
 10
239.9151184457255
 20
128.1742297444871
 30
0.0
 10
239.8686365979966
 20
128.0183248876247
 30
0.0
  0
SPLINE
  5
11F
330
1F
100
AcDbEntity
  8
0
  6
HIDDEN
 62
     7
370
     0
100
AcDbSpline
210
0.0
220
0.0
230
1.0
 70
     8
 71
     3
 72
    19
 73
    15
 74
     0
 42
0.00000001
 43
0.00000001
 12
1.0
 22
0.0
 32
0.0
 13
1.0
 23
0.0
 33
0.0
 40
0.0
 40
0.0
 40
0.0
 40
0.0
 40
0.0501541984041312
 40
0.1000877114079251
 40
0.1499474799841356
 40
0.1998810961970365
 40
0.2500355002199074
 40
0.3747939872141577
 40
0.4995502279566811
 40
0.6241931525491038
 40
0.7488383069049697
 40
0.8326743718721944
 40
0.916164214403493
 40
0.9999999999999999
 40
0.9999999999999999
 40
0.9999999999999999
 40
0.9999999999999999
 10
238.3173102694788
 20
126.0183248876242
 30
0.0
 10
238.2625506753528
 20
125.9865547606078
 30
0.0
 10
238.1532724368783
 20
125.9231542995221
 30
0.0
 10
237.9833618405223
 20
125.8395405509488
 30
0.0
 10
237.8097555290269
 20
125.7647743360257
 30
0.0
 10
237.6319735761467
 20
125.6996428533272
 30
0.0
 10
237.3605910560874
 20
125.6164749403288
 30
0.0
 10
236.9890049542269
 20
125.539580123755
 30
0.0
 10
236.5164880091762
 20
125.507820424158
 30
0.0
 10
236.0440923038374
 20
125.5390911752796
 30
0.0
 10
235.6308957683048
 20
125.6239034318961
 30
0.0
 10
235.280270740523
 20
125.7382519339653
 30
0.0
 10
234.9877398935943
 20
125.8620116356813
 30
0.0
 10
234.8038793367967
 20
125.9661487030684
 30
0.0
 10
234.7117589940149
 20
126.0183248876242
 30
0.0
  0
LINE
  5
120
330
1F
100
AcDbEntity
  8
0
  6
HIDDEN
 62
     7
370
     0
100
AcDbLine
 10
241.1145329569
 20
133.0183251037
 30
0.0
 11
252.1145366225
 21
133.0183251037
 31
0.0
  0
LINE
  5
121
330
1F
100
AcDbEntity
  8
0
  6
HIDDEN
 62
     7
370
     0
100
AcDbLine
 10
241.1333195958
 20
138.0183249919
 30
0.0
 11
252.0957462583
 21
138.0183249919
 31
0.0
  0
LINE
  5
122
330
1F
100
AcDbEntity
  8
0
  6
HIDDEN
 62
     7
370
     0
100
AcDbLine
 10
243.4192285035
 20
133.0183251037
 30
0.0
 11
249.8098410759
 21
133.0183251037
 31
0.0
  0
LINE
  5
123
330
1F
100
AcDbEntity
  8
0
  6
HIDDEN
 62
     7
370
     0
100
AcDbLine
 10
243.4192285035
 20
128.0183249826
 30
0.0
 11
249.8098410759
 21
128.0183249826
 31
0.0
  0
LINE
  5
124
330
1F
100
AcDbEntity
  8
0
  6
HIDDEN
 62
     7
370
     0
100
AcDbLine
 10
244.3645358179
 20
110.0183241277
 30
0.0
 11
248.8645337615
 21
110.0183241277
 31
0.0
  0
LINE
  5
125
330
1F
100
AcDbEntity
  8
0
  6
HIDDEN
 62
     7
370
     0
100
AcDbLine
 10
244.3645358179
 20
126.0183248876
 30
0.0
 11
248.8645337615
 21
126.0183248876
 31
0.0
  0
LINE
  5
126
330
1F
100
AcDbEntity
  8
0
  6
HIDDEN
 62
     7
370
     0
100
AcDbLine
 10
182.0145346317
 20
145.7183249502
 30
0.0
 11
182.0145346317
 21
106.318324825
 31
0.0
  0
LINE
  5
127
330
1F
100
AcDbEntity
  8
0
  6
HIDDEN
 62
     7
370
     0
100
AcDbLine
 10
189.9645350967
 20
142.1297341792
 30
0.0
 11
195.9793748427
 21
142.1297341792
 31
0.0
  0
LINE
  5
128
330
1F
100
AcDbEntity
  8
0
  6
HIDDEN
 62
     7
370
     0
100
AcDbLine
 10
195.9793748427
 20
146.0183244406
 30
0.0
 11
195.9793748427
 21
142.1297341792
 31
0.0
  0
LINE
  5
129
330
1F
100
AcDbEntity
  8
0
  6
HIDDEN
 62
     7
370
     0
100
AcDbLine
 10
195.9793748427
 20
121.5183250813
 30
0.0
 11
195.9793748427
 21
106.0183253347
 31
0.0
  0
LINE
  5
12A
330
1F
100
AcDbEntity
  8
0
  6
HIDDEN
 62
     7
370
     0
100
AcDbLine
 10
194.4645349029
 20
121.5183250813
 30
0.0
 11
195.9793748427
 21
121.5183250813
 31
0.0
  0
SPLINE
  5
12B
330
1F
100
AcDbEntity
  8
0
  6
HIDDEN
 62
     7
370
     0
100
AcDbSpline
210
0.0
220
0.0
230
1.0
 70
     8
 71
     3
 72
    38
 73
    34
 74
     0
 42
0.00000001
 43
0.00000001
 12
1.0
 22
0.0
 32
0.0
 13
1.0
 23
0.0
 33
0.0
 40
0.0
 40
0.0
 40
0.0
 40
0.0
 40
0.0624999999999999
 40
0.0624999999999999
 40
0.1249999999999999
 40
0.1249999999999999
 40
0.1874999999999998
 40
0.1874999999999998
 40
0.2499999999999998
 40
0.2499999999999998
 40
0.3124999999999997
 40
0.3124999999999997
 40
0.3749999999999997
 40
0.3749999999999997
 40
0.4374999999999997
 40
0.4374999999999997
 40
0.4999999999999997
 40
0.4999999999999997
 40
0.5624999999999997
 40
0.5624999999999997
 40
0.6249999999999998
 40
0.6249999999999998
 40
0.6874999999999998
 40
0.6874999999999998
 40
0.7499999999999999
 40
0.7499999999999999
 40
0.8124999999999999
 40
0.8124999999999999
 40
0.875
 40
0.875
 40
0.9375
 40
0.9375
 40
1.0
 40
1.0
 40
1.0
 40
1.0
 10
194.4645346317469
 20
130.5183248876241
 30
0.0
 10
194.1662616583931
 20
130.5183248876241
 30
0.0
 10
193.8731698988393
 20
130.4889644650526
 30
0.0
 10
193.2968621970556
 20
130.3741108745454
 30
0.0
 10
193.0105995615792
 20
130.2871587918008
 30
0.0
 10
192.4662161281543
 20
130.0610459079162
 30
0.0
 10
192.2081717948359
 20
129.9228205834425
 30
0.0
 10
191.7198077448084
 20
129.5964157482052
 30
0.0
 10
191.489343212958
 20
129.4070939738799
 30
0.0
 10
191.075773108183
 20
128.9935249203632
 30
0.0
 10
190.889832384021
 20
128.7676788304395
 30
0.0
 10
190.560789642725
 20
128.2762483414768
 30
0.0
 10
190.4215749752772
 20
128.0158908863265
 30
0.0
 10
190.1967427647299
 20
127.4749460747683
 30
0.0
 10
190.1097606302457
 20
127.190402232856
 30
0.0
 10
189.9936620726984
 20
126.6091890582287
 30
0.0
 10
189.9647860770014
 20
126.3166274503677
 30
0.0
 10
189.9642864251198
 20
125.7276574597579
 30
0.0
 10
189.9936504822109
 20
125.4284263264137
 30
0.0
 10
190.1087147806374
 20
124.8505839849535
 30
0.0
 10
190.1938733903134
 20
124.5696137518125
 30
0.0
 10
190.4199803013999
 20
124.0236089522142
 30
0.0
 10
190.5603364202674
 20
123.7615966524908
 30
0.0
 10
190.8853902135139
 20
123.2750948142983
 30
0.0
 10
191.0723717514696
 20
123.0467252230653
 30
0.0
 10
191.4897229063913
 20
122.6289785241753
 30
0.0
 10
191.7157603592813
 20
122.4434268832051
 30
0.0
 10
192.2019647922201
 20
122.1175001717171
 30
0.0
 10
192.465337665354
 20
121.9760782903065
 30
0.0
 10
193.0086274321119
 20
121.7502011441027
 30
0.0
 10
193.2890297185443
 20
121.6645603756452
 30
0.0
 10
193.8676493547933
 20
121.5483354924592
 30
0.0
 10
194.166257382431
 20
121.5183248876241
 30
0.0
 10
194.4645346317469
 20
121.5183248876241
 30
0.0
  0
LINE
  5
12C
330
1F
100
AcDbEntity
  8
0
  6
HIDDEN
 62
     7
370
     0
100
AcDbLine
 10
195.9793748427
 20
130.5183246939
 30
0.0
 11
194.4645349029
 21
130.5183246939
 31
0.0
  0
LINE
  5
12D
330
1F
100
AcDbEntity
  8
0
  6
HIDDEN
 62
     7
370
     0
100
AcDbLine
 10
195.9793748427
 20
137.8683252467
 30
0.0
 11
195.9793748427
 21
130.5183246939
 31
0.0
  0
LINE
  5
12E
330
1F
100
AcDbEntity
  8
0
  6
HIDDEN
 62
     7
370
     0
100
AcDbLine
 10
194.4582047034
 20
137.8683252467
 30
0.0
 11
195.9793748427
 21
137.8683252467
 31
0.0
  0
SPLINE
  5
12F
330
1F
100
AcDbEntity
  8
0
  6
HIDDEN
 62
     7
370
     0
100
AcDbSpline
210
0.0
220
0.0
230
1.0
 70
     8
 71
     3
 72
    22
 73
    18
 74
     0
 42
0.00000001
 43
0.00000001
 12
1.0
 22
0.0
 32
0.0
 13
1.0
 23
0.0
 33
0.0
 40
0.0
 40
0.0
 40
0.0
 40
0.0
 40
0.2500000000000003
 40
0.2500000000000003
 40
0.3750000000000001
 40
0.3750000000000001
 40
0.5
 40
0.5
 40
0.6249999999999998
 40
0.6249999999999998
 40
0.7499999999999996
 40
0.7499999999999996
 40
0.8749999999999994
 40
0.8749999999999994
 40
0.9374999999999997
 40
0.9374999999999997
 40
1.0
 40
1.0
 40
1.0
 40
1.0
 10
189.9645346317468
 20
142.1297338887016
 30
0.0
 10
189.9865156497335
 20
141.7157390105351
 30
0.0
 10
190.0654925330882
 20
141.2799292092262
 30
0.0
 10
190.3118904261206
 20
140.6031884062419
 30
0.0
 10
190.4164150412115
 20
140.3723332790672
 30
0.0
 10
190.678261636518
 20
139.9122962239051
 30
0.0
 10
190.8334782586838
 20
139.6863285471266
 30
0.0
 10
191.2020700117478
 20
139.2491369586259
 30
0.0
 10
191.4182037042127
 20
139.0360842343333
 30
0.0
 10
191.9020981991996
 20
138.6519080950997
 30
0.0
 10
192.1725637442073
 20
138.4777910863083
 30
0.0
 10
192.7687903097175
 20
138.1842733415077
 30
0.0
 10
193.0842835764375
 20
138.0694810369103
 30
0.0
 10
193.585000224456
 20
137.9505264608144
 30
0.0
 10
193.7577966590711
 20
137.9197083778278
 30
0.0
 10
194.1061654318532
 20
137.8786891661092
 30
0.0
 10
194.2815664607636
 20
137.8683248876242
 30
0.0
 10
194.4582051064516
 20
137.8683248876242
 30
0.0
  0
SPLINE
  5
130
330
1F
100
AcDbEntity
  8
0
  6
HIDDEN
 62
     7
370
     0
100
AcDbSpline
210
0.0
220
0.0
230
1.0
 70
     8
 71
     3
 72
    14
 73
    10
 74
     0
 42
0.00000001
 43
0.00000001
 12
1.0
 22
0.0
 32
0.0
 13
1.0
 23
0.0
 33
0.0
 40
0.0
 40
0.0
 40
0.0
 40
0.0
 40
0.0673061392933401
 40
0.284493437054577
 40
0.5036951045921771
 40
0.728818137867054
 40
0.8406091987920947
 40
0.9558133458208103
 40
0.9999999999999999
 40
0.9999999999999999
 40
0.9999999999999999
 40
0.9999999999999999
 10
193.9553584996639
 20
106.0329750387577
 30
0.0
 10
193.9724173379725
 20
106.0287551091639
 30
0.0
 10
194.0445226108869
 20
106.0109180695287
 30
0.0
 10
193.6167378311303
 20
106.1180153630898
 30
0.0
 10
192.7131120975833
 20
106.3131820074801
 30
0.0
 10
191.5779802504969
 20
106.4978854559529
 30
0.0
 10
190.5319060585866
 20
106.5964071078249
 30
0.0
 10
189.868052306993
 20
106.647362782873
 30
0.0
 10
189.4680299399303
 20
106.6408586463729
 30
0.0
 10
189.357134895402
 20
106.6390555559305
 30
0.0
  0
SPLINE
  5
131
330
1F
100
AcDbEntity
  8
0
  6
HIDDEN
 62
     7
370
     0
100
AcDbSpline
210
0.0
220
0.0
230
1.0
 70
     8
 71
     3
 72
    15
 73
    11
 74
     0
 42
0.00000001
 43
0.00000001
 12
1.0
 22
0.0
 32
0.0
 13
1.0
 23
0.0
 33
0.0
 40
0.0
 40
0.0
 40
0.0
 40
0.0
 40
0.0494956467692694
 40
0.2743562817260224
 40
0.5036681952208577
 40
0.6198915076348098
 40
0.7395275909943492
 40
0.8548131886986099
 40
0.9736266123727467
 40
1.0
 40
1.0
 40
1.0
 40
1.0
 10
188.3934432733832
 20
106.6314801781086
 30
0.0
 10
188.2736162789805
 20
106.6313280463373
 30
0.0
 10
187.6094106208951
 20
106.630484774053
 30
0.0
 10
186.4639242039491
 20
106.4958227594174
 30
0.0
 10
185.3865671294816
 20
106.3228172461203
 30
0.0
 10
184.7270169264038
 20
106.1858445754486
 30
0.0
 10
184.3426436199629
 20
106.0985766081165
 30
0.0
 10
184.1148672395086
 20
106.0433776578342
 30
0.0
 10
183.9808028000016
 20
106.0100605559828
 30
0.0
 10
184.0328555093146
 20
106.0228272528314
 30
0.0
 10
184.0423109568684
 20
106.0251463411955
 30
0.0
  0
SPLINE
  5
132
330
1F
100
AcDbEntity
  8
0
  6
HIDDEN
 62
     7
370
     0
100
AcDbSpline
210
0.0
220
0.0
230
1.0
 70
     8
 71
     3
 72
     8
 73
     4
 74
     0
 42
0.00000001
 43
0.00000001
 12
1.0
 22
0.0
 32
0.0
 13
1.0
 23
0.0
 33
0.0
 40
0.0
 40
0.0
 40
0.0
 40
0.0
 40
1.0
 40
1.0
 40
1.0
 40
1.0
 10
226.0145346317468
 20
155.837895313839
 30
0.0
 10
225.9824959985747
 20
155.7439405778408
 30
0.0
 10
225.9515925999627
 20
155.6500659767461
 30
0.0
 10
225.9221029291991
 20
155.556160442145
 30
0.0
  0
SPLINE
  5
133
330
1F
100
AcDbEntity
  8
0
  6
HIDDEN
 62
     7
370
     0
100
AcDbSpline
210
0.0
220
0.0
230
1.0
 70
     8
 71
     3
 72
    28
 73
    24
 74
     0
 42
0.00000001
 43
0.00000001
 12
1.0
 22
0.0
 32
0.0
 13
1.0
 23
0.0
 33
0.0
 40
0.0
 40
0.0
 40
0.0
 40
0.0
 40
0.1250000000000013
 40
0.1250000000000013
 40
0.1875000000000017
 40
0.1875000000000017
 40
0.2500000000000021
 40
0.2500000000000021
 40
0.3750000000000021
 40
0.3750000000000021
 40
0.5000000000000021
 40
0.5000000000000021
 40
0.5625000000000018
 40
0.5625000000000018
 40
0.6250000000000014
 40
0.6250000000000014
 40
0.6875000000000011
 40
0.6875000000000011
 40
0.7500000000000008
 40
0.7500000000000008
 40
0.8750000000000004
 40
0.8750000000000004
 40
1.0
 40
1.0
 40
1.0
 40
1.0
 10
226.0145346317468
 20
158.0866433314961
 30
0.0
 10
226.237631642514
 20
158.1241345459808
 30
0.0
 10
226.4361547013316
 20
158.1618718639419
 30
0.0
 10
226.7073312006615
 20
158.1998713293992
 30
0.0
 10
226.7935640653808
 20
158.2094983581624
 30
0.0
 10
226.9523608865152
 20
158.2194055743794
 30
0.0
 10
227.0254495724917
 20
158.2198101424607
 30
0.0
 10
227.2257784744637
 20
158.2039147453489
 30
0.0
 10
227.3354378612658
 20
158.1692690910305
 30
0.0
 10
227.4809614399373
 20
158.0392496138141
 30
0.0
 10
227.517990523534
 20
157.9417792845725
 30
0.0
 10
227.5124093609467
 20
157.7558182032583
 30
0.0
 10
227.5005463459251
 20
157.6862004211162
 30
0.0
 10
227.4579229116976
 20
157.5369684952799
 30
0.0
 10
227.4275218102835
 20
157.4579041897136
 30
0.0
 10
227.3499562136699
 20
157.2919062573484
 30
0.0
 10
227.302400608272
 20
157.2044704999275
 30
0.0
 10
227.1943609095734
 20
157.0280474751966
 30
0.0
 10
227.1336701453584
 20
156.9384838100287
 30
0.0
 10
226.9327190464225
 20
156.6672431168444
 30
0.0
 10
226.7757838414134
 20
156.4856065865887
 30
0.0
 10
226.4250791993487
 20
156.1414435419303
 30
0.0
 10
226.2301605679256
 20
155.977001862936
 30
0.0
 10
226.0145346317468
 20
155.837895313839
 30
0.0
  0
SPLINE
  5
134
330
1F
100
AcDbEntity
  8
0
  6
HIDDEN
 62
     7
370
     0
100
AcDbSpline
210
0.0
220
0.0
230
1.0
 70
     8
 71
     3
 72
     8
 73
     4
 74
     0
 42
0.00000001
 43
0.00000001
 12
1.0
 22
0.0
 32
0.0
 13
1.0
 23
0.0
 33
0.0
 40
0.0
 40
0.0
 40
0.0
 40
0.0
 40
1.0
 40
1.0
 40
1.0
 40
1.0
 10
225.8167170562955
 20
157.615300117889
 30
0.0
 10
225.8781417077374
 20
157.776184308546
 30
0.0
 10
225.9447158189558
 20
157.9332702323098
 30
0.0
 10
226.0145346317468
 20
158.0866433314961
 30
0.0
  0
LWPOLYLINE
  5
135
330
1F
100
AcDbEntity
  8
0
  6
HIDDEN
 62
     7
370
     0
100
AcDbPolyline
 90
       16
 70
   128
 43
0.0
 10
225.9221024904
 20
155.5561609774
 10
225.3027208243
 20
155.4886996953
 10
224.6645562444
 20
155.4921865671
 10
224.0491978917
 20
155.5663924872
 10
223.4967559669
 20
155.7064801662
 10
223.0432242248
 20
155.9033226429
 10
222.7181665693
 20
156.1440881549
 10
222.5427650008
 20
156.4130895047
 10
222.5284487102
 20
156.6927936135
 10
222.6761564706
 20
156.964972636
 10
222.9762546811
 20
157.2118886022
 10
223.4091892932
 20
157.4174482583
 10
223.9467449579
 20
157.5682554601
 10
224.5538890455
 20
157.6544847547
 10
225.1910552476
 20
157.6705146788
 10
225.8167177532
 20
157.615298426
  0
LINE
  5
136
330
1F
100
AcDbEntity
  8
0
  6
HIDDEN
 62
     7
370
     0
100
AcDbLine
 10
201.964535201
 20
145.4183254598
 30
0.0
 11
201.964535201
 21
141.378582476
 31
0.0
  0
SPLINE
  5
137
330
1F
100
AcDbEntity
  8
0
  6
HIDDEN
 62
     7
370
     0
100
AcDbSpline
210
0.0
220
0.0
230
1.0
 70
     8
 71
     3
 72
    12
 73
     8
 74
     0
 42
0.00000001
 43
0.00000001
 12
1.0
 22
0.0
 32
0.0
 13
1.0
 23
0.0
 33
0.0
 40
0.0
 40
0.0
 40
0.0
 40
0.0
 40
0.249999999999998
 40
0.249999999999998
 40
0.499999999999996
 40
0.499999999999996
 40
1.0
 40
1.0
 40
1.0
 40
1.0
 10
201.3645346317468
 20
142.1297338887016
 30
0.0
 10
201.4527214971157
 20
142.1297338887016
 30
0.0
 10
201.541408890417
 20
142.1044537385372
 30
0.0
 10
201.6956613835358
 20
142.0148423930354
 30
0.0
 10
201.7610073646118
 20
141.9518567561094
 30
0.0
 10
201.9154172345629
 20
141.7355700343518
 30
0.0
 10
201.9645346317469
 20
141.5555902769315
 30
0.0
 10
201.9645346317469
 20
141.3785820469298
 30
0.0
  0
LINE
  5
138
330
1F
100
AcDbEntity
  8
0
  6
HIDDEN
 62
     7
370
     0
100
AcDbLine
 10
201.964535201
 20
121.5183250813
 30
0.0
 11
201.964535201
 21
106.6183243154
 31
0.0
  0
SPLINE
  5
139
330
1F
100
AcDbEntity
  8
0
  6
HIDDEN
 62
     7
370
     0
100
AcDbSpline
210
0.0
220
0.0
230
1.0
 70
    24
 71
     3
 72
    10
 73
     6
 74
     0
 42
0.00000001
 43
0.00000001
 12
1.0
 22
0.0
 32
0.0
 13
1.0
 23
0.0
 33
0.0
 40
0.0
 40
0.0
 40
0.0
 40
0.0
 40
0.5
 40
0.5
 40
1.0
 40
1.0
 40
1.0
 40
1.0
 10
201.3645346317468
 20
121.5183248876241
 30
0.0
 10
201.5249568563463
 20
121.5183248876241
 30
0.0
 10
201.6814396570135
 20
121.5183248876241
 30
0.0
 10
201.9020932675809
 20
121.5183248876241
 30
0.0
 10
201.9645346317469
 20
121.5183248876241
 30
0.0
 10
201.9645346317469
 20
121.5183248876241
 30
0.0
  0
LINE
  5
13A
330
1F
100
AcDbEntity
  8
0
  6
HIDDEN
 62
     7
370
     0
100
AcDbLine
 10
200.0496950094
 20
121.5183250813
 30
0.0
 11
200.0496950094
 21
106.0183253347
 31
0.0
  0
SPLINE
  5
13B
330
1F
100
AcDbEntity
  8
0
  6
HIDDEN
 62
     7
370
     0
100
AcDbSpline
210
0.0
220
0.0
230
1.0
 70
    24
 71
     3
 72
     8
 73
     4
 74
     0
 42
0.00000001
 43
0.00000001
 12
1.0
 22
0.0
 32
0.0
 13
1.0
 23
0.0
 33
0.0
 40
0.0
 40
0.0
 40
0.0
 40
0.0
 40
1.0
 40
1.0
 40
1.0
 40
1.0
 10
199.0545346317468
 20
121.5183248876241
 30
0.0
 10
199.3855549627665
 20
121.5183248876241
 30
0.0
 10
199.7173362342506
 20
121.5183248876241
 30
0.0
 10
200.0496943306403
 20
121.5183248876241
 30
0.0
  0
LINE
  5
13C
330
1F
100
AcDbEntity
  8
0
  6
HIDDEN
 62
     7
370
     0
100
AcDbLine
 10
199.0545339976
 20
121.5183250813
 30
0.0
 11
199.0545339976
 21
107.7419929414
 31
0.0
  0
LINE
  5
13D
330
1F
100
AcDbEntity
  8
0
  6
HIDDEN
 62
     7
370
     0
100
AcDbLine
 10
200.0496950094
 20
146.0183244406
 30
0.0
 11
200.0496950094
 21
142.1297341792
 31
0.0
  0
LINE
  5
13E
330
1F
100
AcDbEntity
  8
0
  6
HIDDEN
 62
     7
370
     0
100
AcDbLine
 10
200.0496950094
 20
142.1297341792
 30
0.0
 11
201.3645343576
 21
142.1297341792
 31
0.0
  0
LINE
  5
13F
330
1F
100
AcDbEntity
  8
0
  6
HIDDEN
 62
     7
370
     0
100
AcDbLine
 10
199.0545339976
 20
144.2946568339
 30
0.0
 11
199.0545339976
 21
139.9324126749
 31
0.0
  0
SPLINE
  5
140
330
1F
100
AcDbEntity
  8
0
  6
HIDDEN
 62
     7
370
     0
100
AcDbSpline
210
0.0
220
0.0
230
1.0
 70
     8
 71
     3
 72
     8
 73
     4
 74
     0
 42
0.00000001
 43
0.00000001
 12
1.0
 22
0.0
 32
0.0
 13
1.0
 23
0.0
 33
0.0
 40
0.0
 40
0.0
 40
0.0
 40
0.0
 40
1.0
 40
1.0
 40
1.0
 40
1.0
 10
199.0545346317468
 20
139.9324127870795
 30
0.0
 10
199.378171287369
 20
140.668709137824
 30
0.0
 10
199.7106615088857
 20
141.4007820351758
 30
0.0
 10
200.0496943306403
 20
142.1297338887017
 30
0.0
  0
LINE
  5
141
330
1F
100
AcDbEntity
  8
0
  6
HIDDEN
 62
     7
370
     0
100
AcDbLine
 10
196.9745349232
 20
121.5183250813
 30
0.0
 11
196.9745349232
 21
107.7419929414
 31
0.0
  0
SPLINE
  5
142
330
1F
100
AcDbEntity
  8
0
  6
HIDDEN
 62
     7
370
     0
100
AcDbSpline
210
0.0
220
0.0
230
1.0
 70
    24
 71
     3
 72
     8
 73
     4
 74
     0
 42
0.00000001
 43
0.00000001
 12
1.0
 22
0.0
 32
0.0
 13
1.0
 23
0.0
 33
0.0
 40
0.0
 40
0.0
 40
0.0
 40
0.0
 40
1.0
 40
1.0
 40
1.0
 40
1.0
 10
195.9793749328534
 20
121.5183248876241
 30
0.0
 10
196.3117330292431
 20
121.5183248876241
 30
0.0
 10
196.6435143007272
 20
121.5183248876241
 30
0.0
 10
196.9745346317468
 20
121.5183248876241
 30
0.0
  0
LINE
  5
143
330
1F
100
AcDbEntity
  8
0
  6
HIDDEN
 62
     7
370
     0
100
AcDbLine
 10
196.9745349232
 20
144.2946568339
 30
0.0
 11
196.9745349232
 21
139.9324126749
 31
0.0
  0
SPLINE
  5
144
330
1F
100
AcDbEntity
  8
0
  6
HIDDEN
 62
     7
370
     0
100
AcDbSpline
210
0.0
220
0.0
230
1.0
 70
     8
 71
     3
 72
     8
 73
     4
 74
     0
 42
0.00000001
 43
0.00000001
 12
1.0
 22
0.0
 32
0.0
 13
1.0
 23
0.0
 33
0.0
 40
0.0
 40
0.0
 40
0.0
 40
0.0
 40
1.0
 40
1.0
 40
1.0
 40
1.0
 10
195.9793749328534
 20
142.1297338887016
 30
0.0
 10
196.318407754608
 20
141.4007820351758
 30
0.0
 10
196.6508979761246
 20
140.668709137824
 30
0.0
 10
196.9745346317468
 20
139.9324127870795
 30
0.0
  0
LINE
  5
145
330
1F
100
AcDbEntity
  8
0
  6
HIDDEN
 62
     7
370
     0
100
AcDbLine
 10
200.0496950094
 20
121.5183250813
 30
0.0
 11
201.3645343576
 21
121.5183250813
 31
0.0
  0
LINE
  5
146
330
1F
100
AcDbEntity
  8
0
  6
HIDDEN
 62
     7
370
     0
100
AcDbLine
 10
226.0145343933
 20
151.8898848652
 30
0.0
 11
226.0145343933
 21
155.8378953694
 31
0.0
  0
SPLINE
  5
147
330
1F
100
AcDbEntity
  8
0
  6
HIDDEN
 62
     7
370
     0
100
AcDbSpline
210
0.0
220
0.0
230
1.0
 70
     8
 71
     3
 72
    20
 73
    16
 74
     0
 42
0.00000001
 43
0.00000001
 12
1.0
 22
0.0
 32
0.0
 13
1.0
 23
0.0
 33
0.0
 40
0.0
 40
0.0
 40
0.0
 40
0.0
 40
0.1250000000000002
 40
0.1250000000000002
 40
0.2500000000000004
 40
0.2500000000000004
 40
0.3750000000000006
 40
0.3750000000000006
 40
0.5000000000000008
 40
0.5000000000000008
 40
0.625000000000001
 40
0.625000000000001
 40
0.7500000000000011
 40
0.7500000000000011
 40
1.0
 40
1.0
 40
1.0
 40
1.0
 10
226.0145346317468
 20
151.8898856572692
 30
0.0
 10
226.1769101119597
 20
151.8663743301138
 30
0.0
 10
226.32191826128
 20
151.8448658135927
 30
0.0
 10
226.5840876043317
 20
151.8185345706424
 30
0.0
 10
226.701165803149
 20
151.8139288324582
 30
0.0
 10
226.8941346368522
 20
151.8328367210212
 30
0.0
 10
226.9728921770897
 20
151.8565753149284
 30
0.0
 10
227.0818361333598
 20
151.940172929445
 30
0.0
 10
227.1119336466728
 20
152.0000291887559
 30
0.0
 10
227.1168101423916
 20
152.1545720976948
 30
0.0
 10
227.0918122633412
 20
152.2478996531923
 30
0.0
 10
226.9890986643308
 20
152.4580368112507
 30
0.0
 10
226.9129256851041
 20
152.5720292735151
 30
0.0
 10
226.6194657617031
 20
152.9231519431194
 30
0.0
 10
226.3466822936114
 20
153.1622781509578
 30
0.0
 10
226.0145346317468
 20
153.3439178151015
 30
0.0
  0
LINE
  5
148
330
1F
100
AcDbEntity
  8
0
  6
HIDDEN
 62
     7
370
     0
100
AcDbLine
 10
226.0145343933
 20
158.0866445063
 30
0.0
 11
226.0145343933
 21
153.3439178227
 31
0.0
  0
LINE
  5
149
330
1F
100
AcDbEntity
  8
0
  6
HIDDEN
 62
     7
370
     0
100
AcDbLine
 10
238.0145363603
 20
158.2183260678
 30
0.0
 11
238.0145363603
 21
151.8370826005
 31
0.0
  0
SPLINE
  5
14A
330
1F
100
AcDbEntity
  8
0
  6
HIDDEN
 62
     7
370
     0
100
AcDbSpline
210
0.0
220
0.0
230
1.0
 70
     8
 71
     3
 72
     8
 73
     4
 74
     0
 42
0.00000001
 43
0.00000001
 12
1.0
 22
0.0
 32
0.0
 13
1.0
 23
0.0
 33
0.0
 40
0.0
 40
0.0
 40
0.0
 40
0.0
 40
1.0
 40
1.0
 40
1.0
 40
1.0
 10
225.5663432644997
 20
157.2495323498794
 30
0.0
 10
225.6497340187651
 20
157.3710667914021
 30
0.0
 10
225.7332053672651
 20
157.4930476093705
 30
0.0
 10
225.8167170562955
 20
157.615300117889
 30
0.0
  0
LWPOLYLINE
  5
14B
330
1F
100
AcDbEntity
  8
0
  6
HIDDEN
 62
     7
370
     0
100
AcDbPolyline
 90
       14
 70
   128
 43
0.0
 10
225.67404286
 20
155.4872989862
 10
225.0833384786
 20
155.4412171452
 10
224.4870200846
 20
155.4702408819
 10
223.933758596
 20
155.5719990491
 10
223.4687231574
 20
155.7381879746
 10
223.1298670266
 20
155.9552420138
 10
222.9448542092
 20
156.2054399608
 10
222.9287833069
 20
156.4683616369
 10
223.0829730723
 20
156.7225437819
 10
223.3948282991
 20
156.9472383915
 10
223.8389015291
 20
157.124103999
 10
224.3789382372
 20
157.2387032418
 10
224.9708570633
 20
157.2816837786
 10
225.5663447175
 20
157.2495326607
  0
SPLINE
  5
14C
330
1F
100
AcDbEntity
  8
0
  6
HIDDEN
 62
     7
370
     0
100
AcDbSpline
210
0.0
220
0.0
230
1.0
 70
     8
 71
     3
 72
     8
 73
     4
 74
     0
 42
0.00000001
 43
0.00000001
 12
1.0
 22
0.0
 32
0.0
 13
1.0
 23
0.0
 33
0.0
 40
0.0
 40
0.0
 40
0.0
 40
0.0
 40
1.0
 40
1.0
 40
1.0
 40
1.0
 10
225.9221029291991
 20
155.556160442145
 30
0.0
 10
225.8394134658002
 20
155.5327128883708
 30
0.0
 10
225.7567261535083
 20
155.5096682713031
 30
0.0
 10
225.6740438979056
 20
155.4872990784209
 30
0.0
  0
SPLINE
  5
14D
330
1F
100
AcDbEntity
  8
0
  6
HIDDEN
 62
     7
370
     0
100
AcDbSpline
210
0.0
220
0.0
230
1.0
 70
    24
 71
     3
 72
    10
 73
     6
 74
     0
 42
0.00000001
 43
0.00000001
 12
1.0
 22
0.0
 32
0.0
 13
1.0
 23
0.0
 33
0.0
 40
0.0
 40
0.0
 40
0.0
 40
0.0
 40
0.5
 40
0.5
 40
1.0
 40
1.0
 40
1.0
 40
1.0
 10
198.8061902459968
 20
121.5183248876241
 30
0.0
 10
198.8836182505454
 20
121.5183248876241
 30
0.0
 10
198.946797867432
 20
121.5183248876241
 30
0.0
 10
199.0320930466932
 20
121.5183248876241
 30
0.0
 10
199.0545346317468
 20
121.5183248876241
 30
0.0
 10
199.0545346317468
 20
121.5183248876241
 30
0.0
  0
SPLINE
  5
14E
330
1F
100
AcDbEntity
  8
0
  6
HIDDEN
 62
     7
370
     0
100
AcDbSpline
210
0.0
220
0.0
230
1.0
 70
     8
 71
     3
 72
    12
 73
     8
 74
     0
 42
0.00000001
 43
0.00000001
 12
1.0
 22
0.0
 32
0.0
 13
1.0
 23
0.0
 33
0.0
 40
0.0
 40
0.0
 40
0.0
 40
0.0
 40
0.25
 40
0.25
 40
0.5
 40
0.5
 40
1.0
 40
1.0
 40
1.0
 40
1.0
 10
198.4545346317468
 20
121.9833992377515
 30
0.0
 10
198.5062515496562
 20
121.9833992377515
 30
0.0
 10
198.553339337795
 20
121.9531935755323
 30
0.0
 10
198.6264033324701
 20
121.8814590522801
 30
0.0
 10
198.6560322397559
 20
121.8386210292582
 30
0.0
 10
198.7346055842809
 20
121.7057131473227
 30
0.0
 10
198.7725694525133
 20
121.6128413073995
 30
0.0
 10
198.8061902459968
 20
121.5183248876241
 30
0.0
  0
LINE
  5
14F
330
1F
100
AcDbEntity
  8
0
  6
HIDDEN
 62
     7
370
     0
100
AcDbLine
 10
199.0545339976
 20
121.5183250813
 30
0.0
 11
199.0545339976
 21
108.0508642106
 31
0.0
  0
SPLINE
  5
150
330
1F
100
AcDbEntity
  8
0
  6
HIDDEN
 62
     7
370
     0
100
AcDbSpline
210
0.0
220
0.0
230
1.0
 70
    24
 71
     3
 72
    10
 73
     6
 74
     0
 42
0.00000001
 43
0.00000001
 12
1.0
 22
0.0
 32
0.0
 13
1.0
 23
0.0
 33
0.0
 40
0.0
 40
0.0
 40
0.0
 40
0.0
 40
0.5
 40
0.5
 40
1.0
 40
1.0
 40
1.0
 40
1.0
 10
199.0193122311655
 20
120.5183248876241
 30
0.0
 10
199.0310243481286
 20
120.5183248876241
 30
0.0
 10
199.0398224180006
 20
120.5183248876241
 30
0.0
 10
199.0516359757727
 20
120.5183248876241
 30
0.0
 10
199.0545346317468
 20
120.5183248876241
 30
0.0
 10
199.0545346317468
 20
120.5183248876241
 30
0.0
  0
SPLINE
  5
151
330
1F
100
AcDbEntity
  8
0
  6
HIDDEN
 62
     7
370
     0
100
AcDbSpline
210
0.0
220
0.0
230
1.0
 70
     8
 71
     3
 72
    12
 73
     8
 74
     0
 42
0.00000001
 43
0.00000001
 12
1.0
 22
0.0
 32
0.0
 13
1.0
 23
0.0
 33
0.0
 40
0.0
 40
0.0
 40
0.0
 40
0.0
 40
0.499999999999996
 40
0.499999999999996
 40
0.749999999999998
 40
0.749999999999998
 40
1.0
 40
1.0
 40
1.0
 40
1.0
 10
197.2228790174968
 20
121.5183248876241
 30
0.0
 10
197.2565752611558
 20
121.6130534166247
 30
0.0
 10
197.294612135924
 20
121.7060230466024
 30
0.0
 10
197.3731724573282
 20
121.838820607834
 30
0.0
 10
197.4028009627537
 20
121.8816118807419
 30
0.0
 10
197.4757447054994
 20
121.9531877909928
 30
0.0
 10
197.5228971857561
 20
121.9833992377515
 30
0.0
 10
197.5745346317468
 20
121.9833992377515
 30
0.0
  0
SPLINE
  5
152
330
1F
100
AcDbEntity
  8
0
  6
HIDDEN
 62
     7
370
     0
100
AcDbSpline
210
0.0
220
0.0
230
1.0
 70
    24
 71
     3
 72
    10
 73
     6
 74
     0
 42
0.00000001
 43
0.00000001
 12
1.0
 22
0.0
 32
0.0
 13
1.0
 23
0.0
 33
0.0
 40
0.0
 40
0.0
 40
0.0
 40
0.0
 40
0.5
 40
0.5
 40
1.0
 40
1.0
 40
1.0
 40
1.0
 10
196.9745346317468
 20
121.5183248876241
 30
0.0
 10
196.9745346317468
 20
121.5183248876241
 30
0.0
 10
196.9969842675923
 20
121.5183248876241
 30
0.0
 10
197.0819799258603
 20
121.5183248876241
 30
0.0
 10
197.1448360097908
 20
121.5183248876241
 30
0.0
 10
197.2228790174968
 20
121.5183248876241
 30
0.0
  0
LINE
  5
153
330
1F
100
AcDbEntity
  8
0
  6
HIDDEN
 62
     7
370
     0
100
AcDbLine
 10
196.9745349232
 20
121.5183250813
 30
0.0
 11
196.9745349232
 21
108.0508642106
 31
0.0
  0
SPLINE
  5
154
330
1F
100
AcDbEntity
  8
0
  6
HIDDEN
 62
     7
370
     0
100
AcDbSpline
210
0.0
220
0.0
230
1.0
 70
    24
 71
     3
 72
    10
 73
     6
 74
     0
 42
0.00000001
 43
0.00000001
 12
1.0
 22
0.0
 32
0.0
 13
1.0
 23
0.0
 33
0.0
 40
0.0
 40
0.0
 40
0.0
 40
0.0
 40
0.5
 40
0.5
 40
1.0
 40
1.0
 40
1.0
 40
1.0
 10
196.9745346317468
 20
120.5183248876241
 30
0.0
 10
196.9745346317468
 20
120.5183248876241
 30
0.0
 10
196.9775043610442
 20
120.5183248876241
 30
0.0
 10
196.9893833433922
 20
120.5183248876241
 30
0.0
 10
196.9981785712329
 20
120.5183248876241
 30
0.0
 10
197.0097570323282
 20
120.5183248876241
 30
0.0
  0
SPLINE
  5
155
330
1F
100
AcDbEntity
  8
0
  6
HIDDEN
 62
     7
370
     0
100
AcDbSpline
210
0.0
220
0.0
230
1.0
 70
     8
 71
     3
 72
    12
 73
     8
 74
     0
 42
0.00000001
 43
0.00000001
 12
1.0
 22
0.0
 32
0.0
 13
1.0
 23
0.0
 33
0.0
 40
0.0
 40
0.0
 40
0.0
 40
0.0
 40
0.25
 40
0.25
 40
0.5
 40
0.5
 40
1.0
 40
1.0
 40
1.0
 40
1.0
 10
198.4545346317468
 20
138.7253357477753
 30
0.0
 10
198.5468376309355
 20
138.7253357477753
 30
0.0
 10
198.6395813268945
 20
138.7565042600788
 30
0.0
 10
198.794631057188
 20
138.8593786485102
 30
0.0
 10
198.8580810287905
 20
138.9291581023222
 30
0.0
 10
199.0073411198506
 20
139.1621522030404
 30
0.0
 10
199.0545346317468
 20
139.3496019336091
 30
0.0
 10
199.0545346317468
 20
139.5341720678789
 30
0.0
  0
LINE
  5
156
330
1F
100
AcDbEntity
  8
0
  6
HIDDEN
 62
     7
370
     0
100
AcDbLine
 10
199.0545339976
 20
131.5183248578
 30
0.0
 11
199.0545339976
 21
143.9827326893
 31
0.0
  0
SPLINE
  5
157
330
1F
100
AcDbEntity
  8
0
  6
HIDDEN
 62
     7
370
     0
100
AcDbSpline
210
0.0
220
0.0
230
1.0
 70
    24
 71
     3
 72
    10
 73
     6
 74
     0
 42
0.00000001
 43
0.00000001
 12
1.0
 22
0.0
 32
0.0
 13
1.0
 23
0.0
 33
0.0
 40
0.0
 40
0.0
 40
0.0
 40
0.0
 40
0.5
 40
0.5
 40
1.0
 40
1.0
 40
1.0
 40
1.0
 10
199.0545346317468
 20
131.5183248876241
 30
0.0
 10
199.0545346317468
 20
131.5183248876241
 30
0.0
 10
199.0515649024494
 20
131.5183248876241
 30
0.0
 10
199.0396859201015
 20
131.5183248876241
 30
0.0
 10
199.0308906922609
 20
131.5183248876241
 30
0.0
 10
199.0193122311657
 20
131.5183248876241
 30
0.0
  0
SPLINE
  5
158
330
1F
100
AcDbEntity
  8
0
  6
HIDDEN
 62
     7
370
     0
100
AcDbSpline
210
0.0
220
0.0
230
1.0
 70
     8
 71
     3
 72
    14
 73
    10
 74
     0
 42
0.00000001
 43
0.00000001
 12
1.0
 22
0.0
 32
0.0
 13
1.0
 23
0.0
 33
0.0
 40
0.0
 40
0.0
 40
0.0
 40
0.0
 40
0.25
 40
0.25
 40
0.5
 40
0.5
 40
0.75
 40
0.75
 40
1.0
 40
1.0
 40
1.0
 40
1.0
 10
196.9745346317468
 20
139.5341720678789
 30
0.0
 10
196.9745346317468
 20
139.4410649404139
 30
0.0
 10
196.9864116430078
 20
139.3497135466441
 30
0.0
 10
197.0349401327877
 20
139.1706730749841
 30
0.0
 10
197.071358589012
 20
139.0846051121067
 30
0.0
 10
197.1714859235406
 20
138.9284557570672
 30
0.0
 10
197.2346627349766
 20
138.859112825709
 30
0.0
 10
197.3902332376625
 20
138.7561273386567
 30
0.0
 10
197.4821095854172
 20
138.7253357477752
 30
0.0
 10
197.5745346317481
 20
138.7253357477755
 30
0.0
  0
LINE
  5
159
330
1F
100
AcDbEntity
  8
0
  6
HIDDEN
 62
     7
370
     0
100
AcDbLine
 10
196.9745349232
 20
131.5183248578
 30
0.0
 11
196.9745349232
 21
143.9827326893
 31
0.0
  0
SPLINE
  5
15A
330
1F
100
AcDbEntity
  8
0
  6
HIDDEN
 62
     7
370
     0
100
AcDbSpline
210
0.0
220
0.0
230
1.0
 70
    24
 71
     3
 72
    10
 73
     6
 74
     0
 42
0.00000001
 43
0.00000001
 12
1.0
 22
0.0
 32
0.0
 13
1.0
 23
0.0
 33
0.0
 40
0.0
 40
0.0
 40
0.0
 40
0.0
 40
0.5
 40
0.5
 40
1.0
 40
1.0
 40
1.0
 40
1.0
 10
197.0097570323282
 20
131.5183248876241
 30
0.0
 10
196.9980449153651
 20
131.5183248876241
 30
0.0
 10
196.989246845493
 20
131.5183248876241
 30
0.0
 10
196.9774332877209
 20
131.5183248876241
 30
0.0
 10
196.9745346317468
 20
131.5183248876241
 30
0.0
 10
196.9745346317468
 20
131.5183248876241
 30
0.0
  0
SPLINE
  5
15B
330
1F
100
AcDbEntity
  8
0
  6
HIDDEN
 62
     7
370
     0
100
AcDbSpline
210
0.0
220
0.0
230
1.0
 70
     8
 71
     3
 72
    40
 73
    36
 74
     0
 42
0.00000001
 43
0.00000001
 12
1.0
 22
0.0
 32
0.0
 13
1.0
 23
0.0
 33
0.0
 40
0.0
 40
0.0
 40
0.0
 40
0.0
 40
0.0625000000000022
 40
0.0625000000000022
 40
0.1250000000000045
 40
0.1250000000000045
 40
0.1875000000000067
 40
0.1875000000000067
 40
0.2500000000000089
 40
0.2500000000000089
 40
0.3125000000000112
 40
0.3125000000000112
 40
0.3750000000000134
 40
0.3750000000000134
 40
0.4375000000000157
 40
0.4375000000000157
 40
0.4687500000000158
 40
0.4687500000000158
 40
0.5000000000000159
 40
0.5000000000000159
 40
0.5625000000000139
 40
0.5625000000000139
 40
0.6250000000000119
 40
0.6250000000000119
 40
0.6875000000000099
 40
0.6875000000000099
 40
0.7500000000000079
 40
0.7500000000000079
 40
0.812500000000006
 40
0.812500000000006
 40
0.875000000000004
 40
0.875000000000004
 40
0.937500000000002
 40
0.937500000000002
 40
1.0
 40
1.0
 40
1.0
 40
1.0
 10
223.223182597558
 20
128.5183248876241
 30
0.0
 10
223.1289458194499
 20
128.5183248876241
 30
0.0
 10
223.050884477835
 20
128.5000924750052
 30
0.0
 10
222.9445367545875
 20
128.4187281977843
 30
0.0
 10
222.9153339389202
 20
128.3540848200564
 30
0.0
 10
222.9137689721547
 20
128.1838796164471
 30
0.0
 10
222.9413337318303
 20
128.0760478228087
 30
0.0
 10
223.0451624867148
 20
127.8370313853827
 30
0.0
 10
223.1219710020187
 20
127.7037204838817
 30
0.0
 10
223.3093995527615
 20
127.4328168765954
 30
0.0
 10
223.4217137183745
 20
127.2925105428358
 30
0.0
 10
223.6690706505043
 20
127.0230001764773
 30
0.0
 10
223.8053337766359
 20
126.891572324016
 30
0.0
 10
224.1068784591174
 20
126.6477054662862
 30
0.0
 10
224.2676745601724
 20
126.5379648976799
 30
0.0
 10
224.5356034934723
 20
126.4119065510315
 30
0.0
 10
224.6284210306709
 20
126.3773011728942
 30
0.0
 10
224.8190000261934
 20
126.3297101998725
 30
0.0
 10
224.9187994881362
 20
126.316719479623
 30
0.0
 10
225.2134450594222
 20
126.3173562031834
 30
0.0
 10
225.4086225792219
 20
126.3716402870104
 30
0.0
 10
225.7621963118268
 20
126.5386955210374
 30
0.0
 10
225.9262030220933
 20
126.6507436246537
 30
0.0
 10
226.2240326113486
 20
126.892022251868
 30
0.0
 10
226.3611855828204
 20
127.0241066432997
 30
0.0
 10
226.6100487694291
 20
127.2956347170991
 30
0.0
 10
226.7192174269436
 20
127.4322954346649
 30
0.0
 10
226.9058517238358
 20
127.7017876995214
 30
0.0
 10
226.9830217837212
 20
127.8353754240415
 30
0.0
 10
227.0872372565867
 20
128.0745245041633
 30
0.0
 10
227.1150733821711
 20
128.1825035205365
 30
0.0
 10
227.1139794767312
 20
128.3532500311248
 30
0.0
 10
227.0850309396745
 20
128.4181212631927
 30
0.0
 10
226.978568336852
 20
128.5000227660358
 30
0.0
 10
226.900755404816
 20
128.5183248876241
 30
0.0
 10
226.8058866659357
 20
128.5183248876241
 30
0.0
  0
ELLIPSE
  5
15C
330
1F
100
AcDbEntity
  8
0
  6
HIDDEN
 62
     7
370
     0
100
AcDbEllipse
 10
225.0145346317
 20
126.0183248876
 30
0.0
 11
0.0
 21
4.790461268680176
 31
0.0
210
0.0
220
0.0
230
1.0
 40
0.4383711468
 41
5.261431147006384
 42
7.304939467352794
  0
SPLINE
  5
15D
330
1F
100
AcDbEntity
  8
0
  6
HIDDEN
 62
     7
370
     0
100
AcDbSpline
210
0.0
220
0.0
230
1.0
 70
     8
 71
     3
 72
    18
 73
    14
 74
     0
 42
0.00000001
 43
0.00000001
 12
1.0
 22
0.0
 32
0.0
 13
1.0
 23
0.0
 33
0.0
 40
0.0
 40
0.0
 40
0.0
 40
0.0
 40
0.25
 40
0.25
 40
0.5
 40
0.5
 40
0.625
 40
0.625
 40
0.75
 40
0.75
 40
0.875
 40
0.875
 40
1.0
 40
1.0
 40
1.0
 40
1.0
 10
226.0145346317468
 20
153.3439178151015
 30
0.0
 10
225.8717649377102
 20
153.6750682490938
 30
0.0
 10
225.7340671580897
 20
154.0001774976393
 30
0.0
 10
225.49051992904
 20
154.6498103576801
 30
0.0
 10
225.3837252249827
 20
154.9739389751658
 30
0.0
 10
225.2899923364738
 20
155.4764770258313
 30
0.0
 10
225.2712100704037
 20
155.6436345885542
 30
0.0
 10
225.2634688788528
 20
155.975176521671
 30
0.0
 10
225.2744609337088
 20
156.1400021332307
 30
0.0
 10
225.3231794965201
 20
156.467401095542
 30
0.0
 10
225.3609143847505
 20
156.6302585084645
 30
0.0
 10
225.4528845240747
 20
156.9457086202897
 30
0.0
 10
225.5071406877617
 20
157.0994107581475
 30
0.0
 10
225.5663432644997
 20
157.2495323498794
 30
0.0
  0
SPLINE
  5
15E
330
1F
100
AcDbEntity
  8
0
  6
HIDDEN
 62
     7
370
     0
100
AcDbSpline
210
0.0
220
0.0
230
1.0
 70
     8
 71
     3
 72
    16
 73
    12
 74
     0
 42
0.00000001
 43
0.00000001
 12
1.0
 22
0.0
 32
0.0
 13
1.0
 23
0.0
 33
0.0
 40
0.0
 40
0.0
 40
0.0
 40
0.0
 40
0.2499999999999973
 40
0.2499999999999973
 40
0.3749999999999964
 40
0.3749999999999964
 40
0.4999999999999956
 40
0.4999999999999956
 40
0.7499999999999978
 40
0.7499999999999978
 40
1.0
 40
1.0
 40
1.0
 40
1.0
 10
225.6740438979057
 20
155.4872990784208
 30
0.0
 10
225.5727469427284
 20
155.1753495820093
 30
0.0
 10
225.4888989049899
 20
154.8632698083935
 30
0.0
 10
225.4215118044806
 20
154.3837186578639
 30
0.0
 10
225.4095008490186
 20
154.2239941542219
 30
0.0
 10
225.4085756123459
 20
153.9099800367158
 30
0.0
 10
225.4195140192687
 20
153.7548452369599
 30
0.0
 10
225.4825823569671
 20
153.2950862861842
 30
0.0
 10
225.565340608228
 20
152.9940462028622
 30
0.0
 10
225.7687679825778
 20
152.420510777377
 30
0.0
 10
225.8883685707931
 20
152.1481074798518
 30
0.0
 10
226.0145346317468
 20
151.8898856572692
 30
0.0
  0
LINE
  5
15F
330
1F
100
AcDbEntity
  8
0
  6
HIDDEN
 62
     7
370
     0
100
AcDbLine
 10
197.5745348353
 20
121.9833991698
 30
0.0
 11
198.4545350168
 21
121.9833991698
 31
0.0
  0
SPLINE
  5
160
330
1F
100
AcDbEntity
  8
0
  6
HIDDEN
 62
     7
370
     0
100
AcDbSpline
210
0.0
220
0.0
230
1.0
 70
    24
 71
     3
 72
     9
 73
     5
 74
     0
 42
0.00000001
 43
0.00000001
 12
1.0
 22
0.0
 32
0.0
 13
1.0
 23
0.0
 33
0.0
 40
0.0
 40
0.0
 40
0.0
 40
0.0
 40
0.5
 40
1.0
 40
1.0
 40
1.0
 40
1.0
 10
201.9645967548701
 20
130.5183248876241
 30
0.0
 10
201.9645760421668
 20
130.5183248876241
 30
0.0
 10
201.9645449808484
 20
130.5183248876241
 30
0.0
 10
201.9645346317469
 20
130.5183248876241
 30
0.0
 10
201.9645346317469
 20
130.5183248876241
 30
0.0
  0
SPLINE
  5
161
330
1F
100
AcDbEntity
  8
0
  6
HIDDEN
 62
     7
370
     0
100
AcDbSpline
210
0.0
220
0.0
230
1.0
 70
     8
 71
     3
 72
    18
 73
    14
 74
     0
 42
0.00000001
 43
0.00000001
 12
1.0
 22
0.0
 32
0.0
 13
1.0
 23
0.0
 33
0.0
 40
0.0
 40
0.0
 40
0.0
 40
0.0
 40
0.2500000000000001
 40
0.2500000000000001
 40
0.5000000000000001
 40
0.5000000000000001
 40
0.5625000000000001
 40
0.5625000000000001
 40
0.625
 40
0.625
 40
0.75
 40
0.75
 40
1.0
 40
1.0
 40
1.0
 40
1.0
 10
201.9645967548702
 20
121.5183248876241
 30
0.0
 10
201.9667399604598
 20
122.2655488439258
 30
0.0
 10
202.0214620103947
 20
123.0115172413091
 30
0.0
 10
202.1210079466196
 20
124.5036903997271
 30
0.0
 10
202.163822303229
 20
125.2499830781239
 30
0.0
 10
202.1647002676725
 20
126.1839311303844
 30
0.0
 10
202.1624833368004
 20
126.3742589186522
 30
0.0
 10
202.1535822836694
 20
126.7513327337328
 30
0.0
 10
202.1469072198503
 20
126.9397849602028
 30
0.0
 10
202.1216391157652
 20
127.5049420585751
 30
0.0
 10
202.0977219937395
 20
127.8814450009639
 30
0.0
 10
202.0224896117016
 20
129.0108156166296
 30
0.0
 10
201.9667617375411
 20
129.763508399404
 30
0.0
 10
201.9645967548702
 20
130.5183248876241
 30
0.0
  0
SPLINE
  5
162
330
1F
100
AcDbEntity
  8
0
  6
HIDDEN
 62
     7
370
     0
100
AcDbSpline
210
0.0
220
0.0
230
1.0
 70
    24
 71
     3
 72
     9
 73
     5
 74
     0
 42
0.00000001
 43
0.00000001
 12
1.0
 22
0.0
 32
0.0
 13
1.0
 23
0.0
 33
0.0
 40
0.0
 40
0.0
 40
0.0
 40
0.0
 40
0.5
 40
1.0
 40
1.0
 40
1.0
 40
1.0
 10
201.9645346317468
 20
121.5183248876241
 30
0.0
 10
201.9645346317468
 20
121.5183248876241
 30
0.0
 10
201.9645449932444
 20
121.5183248876241
 30
0.0
 10
201.9645760545603
 20
121.5183248876241
 30
0.0
 10
201.9645967548702
 20
121.5183248876241
 30
0.0
  0
SPLINE
  5
163
330
1F
100
AcDbEntity
  8
0
  6
HIDDEN
 62
     7
370
     0
100
AcDbSpline
210
0.0
220
0.0
230
1.0
 70
     8
 71
     3
 72
    12
 73
     8
 74
     0
 42
0.00000001
 43
0.00000001
 12
1.0
 22
0.0
 32
0.0
 13
1.0
 23
0.0
 33
0.0
 40
0.0
 40
0.0
 40
0.0
 40
0.0
 40
0.5
 40
0.5
 40
0.75
 40
0.75
 40
1.0
 40
1.0
 40
1.0
 40
1.0
 10
201.9645346317469
 20
138.8957275760548
 30
0.0
 10
201.9645346317469
 20
138.7132008725071
 30
0.0
 10
201.9917553798745
 20
138.5286102171719
 30
0.0
 10
202.0722018256474
 20
138.2683288949974
 30
0.0
 10
202.1056490541254
 20
138.1837744421863
 30
0.0
 10
202.1880586238997
 20
138.0198264924421
 30
0.0
 10
202.2373417207833
 20
137.9403762684007
 30
0.0
 10
202.2936583434199
 20
137.8683248876224
 30
0.0
  0
SPLINE
  5
164
330
1F
100
AcDbEntity
  8
0
  6
HIDDEN
 62
     7
370
     0
100
AcDbSpline
210
0.0
220
0.0
230
1.0
 70
    24
 71
     3
 72
    10
 73
     6
 74
     0
 42
0.00000001
 43
0.00000001
 12
1.0
 22
0.0
 32
0.0
 13
1.0
 23
0.0
 33
0.0
 40
0.0
 40
0.0
 40
0.0
 40
0.0
 40
0.5
 40
0.5
 40
1.0
 40
1.0
 40
1.0
 40
1.0
 10
201.9645346317468
 20
137.8683248876242
 30
0.0
 10
201.9645346317468
 20
137.8683248876242
 30
0.0
 10
201.9915079654549
 20
137.8683248876242
 30
0.0
 10
202.0990983332407
 20
137.8683248876242
 30
0.0
 10
202.1805628775838
 20
137.8683248876242
 30
0.0
 10
202.2936583434197
 20
137.8683248876242
 30
0.0
  0
LINE
  5
165
330
1F
100
AcDbEntity
  8
0
  6
HIDDEN
 62
     7
370
     0
100
AcDbLine
 10
201.964535201
 20
137.8683252467
 30
0.0
 11
201.964535201
 21
130.5183246939
 31
0.0
  0
LINE
  5
166
330
1F
100
AcDbEntity
  8
0
  6
HIDDEN
 62
     7
370
     0
100
AcDbLine
 10
201.964535201
 20
130.5614514484
 30
0.0
 11
201.964535201
 21
143.5182765334
 31
0.0
  0
LINE
  5
167
330
1F
100
AcDbEntity
  8
0
  6
HIDDEN
 62
     7
370
     0
100
AcDbLine
 10
201.964535201
 20
121.5183250813
 30
0.0
 11
201.964535201
 21
108.5183397143
 31
0.0
  0
LINE
  5
168
330
1F
100
AcDbEntity
  8
0
  6
HIDDEN
 62
     7
370
     0
100
AcDbLine
 10
197.5745348353
 20
138.7253357305
 30
0.0
 11
198.4545350168
 21
138.7253357305
 31
0.0
  0
LINE
  5
169
330
1F
100
AcDbEntity
  8
0
  6
HIDDEN
 62
     7
370
     0
100
AcDbLine
 10
194.4645349029
 20
120.5183249174
 30
0.0
 11
197.0097566117
 21
120.5183249174
 31
0.0
  0
LINE
  5
16A
330
1F
100
AcDbEntity
  8
0
  6
HIDDEN
 62
     7
370
     0
100
AcDbLine
 10
197.0097566117
 20
131.5183248578
 30
0.0
 11
194.4645349029
 21
131.5183248578
 31
0.0
  0
LINE
  5
16B
330
1F
100
AcDbEntity
  8
0
  6
HIDDEN
 62
     7
370
     0
100
AcDbLine
 10
199.0193113778
 20
120.5183249174
 30
0.0
 11
201.964535201
 21
120.5183249174
 31
0.0
  0
LINE
  5
16C
330
1F
100
AcDbEntity
  8
0
  6
HIDDEN
 62
     7
370
     0
100
AcDbLine
 10
201.964535201
 20
131.5183248578
 30
0.0
 11
199.0193113778
 21
131.5183248578
 31
0.0
  0
ARC
  5
16D
330
1F
100
AcDbEntity
  8
0
  6
HIDDEN
 62
     7
370
     0
100
AcDbCircle
 10
194.4645346317
 20
125.0183248876
 30
0.0
 40
4.500000000000028
100
AcDbArc
 50
180.0
 51
270.0
  0
ARC
  5
16E
330
1F
100
AcDbEntity
  8
0
  6
HIDDEN
 62
     7
370
     0
100
AcDbCircle
 10
194.4645346317
 20
127.0183248876
 30
0.0
 40
4.500000000000028
100
AcDbArc
 50
90.0
 51
180.0
  0
LINE
  5
16F
330
1F
100
AcDbEntity
  8
0
  6
HIDDEN
 62
     7
370
     0
100
AcDbLine
 10
189.9645350967
 20
127.0183249351
 30
0.0
 11
189.9645350967
 21
125.0183248401
 31
0.0
  0
LINE
  5
170
330
1F
100
AcDbEntity
  8
0
  6
HIDDEN
 62
     7
370
     0
100
AcDbLine
 10
182.0145346317
 20
109.8158564626
 30
0.0
 11
182.0145346317
 21
142.2207933127
 31
0.0
  0
LINE
  5
171
330
1F
100
AcDbEntity
  8
0
  6
HIDDEN
 62
     7
370
     0
100
AcDbLine
 10
242.0145332906
 20
138.0183249919
 30
0.0
 11
257.014537612
 21
138.0183249919
 31
0.0
  0
LINE
  5
172
330
1F
100
AcDbEntity
  8
0
  6
HIDDEN
 62
     7
370
     0
100
AcDbLine
 10
257.014537612
 20
128.715885591
 30
0.0
 11
257.014537612
 21
138.0183249919
 31
0.0
  0
LINE
  5
173
330
1F
100
AcDbEntity
  8
0
  6
HIDDEN
 62
     7
370
     0
100
AcDbLine
 10
257.014537612
 20
128.715885591
 30
0.0
 11
251.5145339165
 21
130.1896060093
 31
0.0
  0
LINE
  5
174
330
1F
100
AcDbEntity
  8
0
  6
HIDDEN
 62
     7
370
     0
100
AcDbLine
 10
251.5145339165
 20
130.1896060093
 30
0.0
 11
251.5145339165
 21
128.0183249826
 31
0.0
  0
LINE
  5
175
330
1F
100
AcDbEntity
  8
0
  6
HIDDEN
 62
     7
370
     0
100
AcDbLine
 10
242.0145332906
 20
128.0183249826
 30
0.0
 11
251.5145339165
 21
128.0183249826
 31
0.0
  0
LINE
  5
176
330
1F
100
AcDbEntity
  8
0
  6
HIDDEN
 62
     7
370
     0
100
AcDbLine
 10
242.0145332906
 20
138.0183249919
 30
0.0
 11
239.9359107111
 21
138.0183249919
 31
0.0
  0
LINE
  5
177
330
1F
100
AcDbEntity
  8
0
  6
HIDDEN
 62
     7
370
     0
100
AcDbLine
 10
242.0145332906
 20
128.0183249826
 30
0.0
 11
239.9359107111
 21
128.0183249826
 31
0.0
  0
SPLINE
  5
178
330
1F
100
AcDbEntity
  8
0
  6
HIDDEN
 62
     7
370
     0
100
AcDbSpline
210
0.0
220
0.0
230
1.0
 70
    11
 71
     3
 72
    32
 73
    28
 74
     0
 42
0.00000001
 43
0.00000001
 12
1.0
 22
0.0
 32
0.0
 13
1.0
 23
0.0
 33
0.0
 40
-0.0625000000000003
 40
-0.0625000000000003
 40
0.0
 40
0.0
 40
0.0625000000000007
 40
0.0625000000000007
 40
0.1250000000000014
 40
0.1250000000000014
 40
0.2500000000000013
 40
0.2500000000000013
 40
0.3125000000000011
 40
0.3125000000000011
 40
0.3750000000000008
 40
0.3750000000000008
 40
0.4375000000000007
 40
0.4375000000000007
 40
0.5000000000000004
 40
0.5000000000000004
 40
0.5625000000000002
 40
0.5625000000000002
 40
0.625
 40
0.625
 40
0.7499999999999997
 40
0.7499999999999997
 40
0.8749999999999993
 40
0.8749999999999993
 40
0.9374999999999997
 40
0.9374999999999997
 40
1.0
 40
1.0
 40
1.062500000000001
 40
1.062500000000001
 10
239.9145346317468
 20
128.1876625013324
 30
0.0
 10
239.9145346317468
 20
128.1876625013324
 30
0.0
 10
239.9218823071861
 20
128.2167079953807
 30
0.0
 10
239.9438189295417
 20
128.3164580710923
 30
0.0
 10
239.9580390655257
 20
128.3868074894571
 30
0.0
 10
239.9962710732045
 20
128.6263307667573
 30
0.0
 10
240.0144720263849
 20
128.8233230235821
 30
0.0
 10
240.0145656622904
 20
129.1141354223993
 30
0.0
 10
240.0104068166799
 20
129.2120343050479
 30
0.0
 10
239.9951907073875
 20
129.3973749567348
 30
0.0
 10
239.9838305858869
 20
129.4879187134922
 30
0.0
 10
239.9584551610105
 20
129.6475658325907
 30
0.0
 10
239.944213685778
 20
129.718303142885
 30
0.0
 10
239.9220642632006
 20
129.8192055168459
 30
0.0
 10
239.9146347925994
 20
129.8485773013221
 30
0.0
 10
239.9144366358092
 20
129.8493883852304
 30
0.0
 10
239.9216268244555
 20
129.82105334314
 30
0.0
 10
239.9437617894039
 20
129.7205009938103
 30
0.0
 10
239.9580497051221
 20
129.6497672873451
 30
0.0
 10
239.9962228441862
 20
129.4106378370319
 30
0.0
 10
240.0144971170902
 20
129.2133692998891
 30
0.0
 10
240.0145720164745
 20
128.8246291801996
 30
0.0
 10
239.9966273618876
 20
128.6289205443742
 30
0.0
 10
239.9581455451597
 20
128.3872977424204
 30
0.0
 10
239.9439495182806
 20
128.3170795896679
 30
0.0
 10
239.9219254019094
 20
128.2168764667662
 30
0.0
 10
239.9145346317468
 20
128.1876625013324
 30
0.0
 10
239.9145346317468
 20
128.1876625013324
 30
0.0
  0
ELLIPSE
  5
179
330
1F
100
AcDbEntity
  8
0
  6
HIDDEN
 62
     7
370
     0
100
AcDbEllipse
 10
149.5084139932
 20
126.2509420683
 30
0.0
 11
11.13367439321786
 21
11.09765775028154
 31
0.0
210
0.0
220
0.0
230
1.0
 40
0.6999052427
 41
5.806205102868862
 42
5.849848223713465
  0
SPLINE
  5
17A
330
1F
100
AcDbEntity
  8
0
  6
HIDDEN
 62
     7
370
     0
100
AcDbSpline
210
0.0
220
0.0
230
1.0
 70
     8
 71
     3
 72
     8
 73
     4
 74
     0
 42
0.00000001
 43
0.00000001
 12
1.0
 22
0.0
 32
0.0
 13
1.0
 23
0.0
 33
0.0
 40
0.0
 40
0.0
 40
0.0
 40
0.0
 40
1.0
 40
1.0
 40
1.0
 40
1.0
 10
163.0645346317468
 20
132.1557237317178
 30
0.0
 10
163.0187697240575
 20
132.2793611631242
 30
0.0
 10
162.9843826024275
 20
132.4046634138842
 30
0.0
 10
162.9653673487546
 20
132.5324055487342
 30
0.0
  0
SPLINE
  5
17B
330
1F
100
AcDbEntity
  8
0
  6
HIDDEN
 62
     7
370
     0
100
AcDbSpline
210
0.0
220
0.0
230
1.0
 70
     8
 71
     3
 72
    12
 73
     8
 74
     0
 42
0.00000001
 43
0.00000001
 12
1.0
 22
0.0
 32
0.0
 13
1.0
 23
0.0
 33
0.0
 40
0.0
 40
0.0
 40
0.0
 40
0.0
 40
0.2499999999999986
 40
0.2499999999999986
 40
0.4999999999999971
 40
0.4999999999999971
 40
1.0
 40
1.0
 40
1.0
 40
1.0
 10
164.8145346317469
 20
132.5259634467637
 30
0.0
 10
164.6724922285576
 20
132.4791985009805
 30
0.0
 10
164.5283741220535
 20
132.4411440511516
 30
0.0
 10
164.238619608381
 20
132.3714085007577
 30
0.0
 10
164.0928777050222
 20
132.3401700290774
 30
0.0
 10
163.6541974658424
 20
132.2525619613684
 30
0.0
 10
163.3598218497712
 20
132.2022273440029
 30
0.0
 10
163.0645346317468
 20
132.1557237317178
 30
0.0
  0
SPLINE
  5
17C
330
1F
100
AcDbEntity
  8
0
  6
HIDDEN
 62
     7
370
     0
100
AcDbSpline
210
0.0
220
0.0
230
1.0
 70
     8
 71
     3
 72
    20
 73
    16
 74
     0
 42
0.00000001
 43
0.00000001
 12
1.0
 22
0.0
 32
0.0
 13
1.0
 23
0.0
 33
0.0
 40
0.0
 40
0.0
 40
0.0
 40
0.0
 40
0.2500000000000013
 40
0.2500000000000013
 40
0.5000000000000027
 40
0.5000000000000027
 40
0.750000000000004
 40
0.750000000000004
 40
0.8750000000000033
 40
0.8750000000000033
 40
0.9375000000000014
 40
0.9375000000000014
 40
0.9687500000000007
 40
0.9687500000000007
 40
1.0
 40
1.0
 40
1.0
 40
1.0
 10
165.7145346317478
 20
130.8336137485244
 30
0.0
 10
165.7145346317478
 20
131.0042604993505
 30
0.0
 10
165.6891396121709
 20
131.1752251616281
 30
0.0
 10
165.6028464263889
 20
131.5003040176247
 30
0.0
 10
165.5422104477057
 20
131.65601193303
 30
0.0
 10
165.3941086534844
 20
131.9567558886677
 30
0.0
 10
165.3073390467057
 20
132.1017212053666
 30
0.0
 10
165.1587012513766
 20
132.3055053355182
 30
0.0
 10
165.1064120344904
 20
132.3719279517382
 30
0.0
 10
165.0156482061805
 20
132.4612750834328
 30
0.0
 10
164.9832822137285
 20
132.4899030447701
 30
0.0
 10
164.9255930580622
 20
132.5211841245505
 30
0.0
 10
164.9046060301748
 20
132.5294497068356
 30
0.0
 10
164.8593170511843
 20
132.5357099252022
 30
0.0
 10
164.8363027823458
 20
132.5331302248529
 30
0.0
 10
164.8145346317462
 20
132.5259634467658
 30
0.0
  0
LINE
  5
17D
330
1F
100
AcDbEntity
  8
0
  6
HIDDEN
 62
     7
370
     0
100
AcDbLine
 10
165.7145343814
 20
130.833613707
 30
0.0
 11
165.7145343814
 21
121.2030360683
 31
0.0
  0
SPLINE
  5
17E
330
1F
100
AcDbEntity
  8
0
  6
HIDDEN
 62
     7
370
     0
100
AcDbSpline
210
0.0
220
0.0
230
1.0
 70
     8
 71
     3
 72
    20
 73
    16
 74
     0
 42
0.00000001
 43
0.00000001
 12
1.0
 22
0.0
 32
0.0
 13
1.0
 23
0.0
 33
0.0
 40
0.0
 40
0.0
 40
0.0
 40
0.0
 40
0.2499999999999984
 40
0.2499999999999984
 40
0.4999999999999969
 40
0.4999999999999969
 40
0.7499999999999953
 40
0.7499999999999953
 40
0.8749999999999959
 40
0.8749999999999959
 40
0.9374999999999977
 40
0.9374999999999977
 40
0.9687499999999989
 40
0.9687499999999989
 40
1.0
 40
1.0
 40
1.0
 40
1.0
 10
165.7145346317478
 20
121.2030360267239
 30
0.0
 10
165.7145346317478
 20
121.0323892758978
 30
0.0
 10
165.6891396121709
 20
120.8614246136202
 30
0.0
 10
165.6028464263889
 20
120.5363457576237
 30
0.0
 10
165.5422104477057
 20
120.3806378422183
 30
0.0
 10
165.3941086534844
 20
120.0798938865806
 30
0.0
 10
165.3073390467057
 20
119.9349285698817
 30
0.0
 10
165.1587012513766
 20
119.7311444397301
 30
0.0
 10
165.1064120344904
 20
119.6647218235101
 30
0.0
 10
165.0156482061804
 20
119.5753746918155
 30
0.0
 10
164.9832822137285
 20
119.5467467304782
 30
0.0
 10
164.9255930580622
 20
119.5154656506978
 30
0.0
 10
164.9046060301748
 20
119.5072000684127
 30
0.0
 10
164.8593170511843
 20
119.5009398500461
 30
0.0
 10
164.8363027823458
 20
119.5035195503954
 30
0.0
 10
164.8145346317462
 20
119.5106863284825
 30
0.0
  0
SPLINE
  5
17F
330
1F
100
AcDbEntity
  8
0
  6
HIDDEN
 62
     7
370
     0
100
AcDbSpline
210
0.0
220
0.0
230
1.0
 70
     8
 71
     3
 72
    12
 73
     8
 74
     0
 42
0.00000001
 43
0.00000001
 12
1.0
 22
0.0
 32
0.0
 13
1.0
 23
0.0
 33
0.0
 40
0.0
 40
0.0
 40
0.0
 40
0.0
 40
0.2499999999999986
 40
0.2499999999999986
 40
0.4999999999999971
 40
0.4999999999999971
 40
1.0
 40
1.0
 40
1.0
 40
1.0
 10
164.8145346317469
 20
119.5106863284846
 30
0.0
 10
164.6724922285576
 20
119.5574512742678
 30
0.0
 10
164.5283741220535
 20
119.5955057240968
 30
0.0
 10
164.238619608381
 20
119.6652412744906
 30
0.0
 10
164.0928777050222
 20
119.696479746171
 30
0.0
 10
163.6541974658424
 20
119.7840878138799
 30
0.0
 10
163.3598218497712
 20
119.8344224312454
 30
0.0
 10
163.0645346317468
 20
119.8809260435306
 30
0.0
  0
SPLINE
  5
180
330
1F
100
AcDbEntity
  8
0
  6
HIDDEN
 62
     7
370
     0
100
AcDbSpline
210
0.0
220
0.0
230
1.0
 70
     8
 71
     3
 72
     8
 73
     4
 74
     0
 42
0.00000001
 43
0.00000001
 12
1.0
 22
0.0
 32
0.0
 13
1.0
 23
0.0
 33
0.0
 40
0.0
 40
0.0
 40
0.0
 40
0.0
 40
1.0
 40
1.0
 40
1.0
 40
1.0
 10
163.0645346317468
 20
119.8809260435306
 30
0.0
 10
163.0187697240575
 20
119.7572886121242
 30
0.0
 10
162.9843826024275
 20
119.6319863613642
 30
0.0
 10
162.9653673487546
 20
119.5042442265141
 30
0.0
  0
ELLIPSE
  5
181
330
1F
100
AcDbEntity
  8
0
  6
HIDDEN
 62
     7
370
     0
100
AcDbEllipse
 10
149.5084139932
 20
125.7857077069
 30
0.0
 11
11.13367439321786
 21
-11.09765775028153
 31
0.0
210
0.0
220
0.0
230
1.0
 40
0.6999052427
 41
0.4333370834661363
 42
0.4769802043107379
  0
LINE
  5
182
330
1F
100
AcDbEntity
  8
0
  6
HIDDEN
 62
     7
370
     0
100
AcDbLine
 10
180.0145345368
 20
141.1220254584
 30
0.0
 11
180.0145345368
 21
110.9146243169
 31
0.0
  0
SPLINE
  5
183
330
1F
100
AcDbEntity
  8
0
  6
HIDDEN
 62
     7
370
     0
100
AcDbSpline
210
0.0
220
0.0
230
1.0
 70
     8
 71
     3
 72
    37
 73
    33
 74
     0
 42
0.00000001
 43
0.00000001
 12
1.0
 22
0.0
 32
0.0
 13
1.0
 23
0.0
 33
0.0
 40
-0.1266254246229433
 40
-0.0943089202656675
 40
-0.0468438588501552
 40
0.0
 40
0.031218840630372
 40
0.0625350707077851
 40
0.0936968928317466
 40
0.1243304270014363
 40
0.1547877422609593
 40
0.1858051167351311
 40
0.2167130688424573
 40
0.2475893961677471
 40
0.2785505527459726
 40
0.3100767087838769
 40
0.3417807687008605
 40
0.3732262309390945
 40
0.4056980892594443
 40
0.4531468073849924
 40
0.500065500939778
 40
0.5312623534105453
 40
0.5625708117516208
 40
0.5937316548360991
 40
0.624320078988798
 40
0.6548794701782962
 40
0.6857828120135872
 40
0.716796828478914
 40
0.7475836640620095
 40
0.7785530845194878
 40
0.8101373721415009
 40
0.8418358242956674
 40
0.8733745753770567
 40
0.9056910797343325
 40
0.9531561411498448
 40
1.0
 40
1.031218840630372
 40
1.062535070707785
 40
1.093696892831747
 10
173.2737816631962
 20
125.1702824958419
 30
0.0
 10
173.5909713215273
 20
124.4823952226567
 30
0.0
 10
173.9955862619019
 20
123.9689714510814
 30
0.0
 10
174.4240873407049
 20
123.6074536292206
 30
0.0
 10
174.9099474099676
 20
123.3337662349739
 30
0.0
 10
175.4376448963146
 20
123.1669012828607
 30
0.0
 10
175.9871865067852
 20
123.1105115897811
 30
0.0
 10
176.5365496572178
 20
123.1699854882917
 30
0.0
 10
177.0653637941257
 20
123.3326192994331
 30
0.0
 10
177.5482523181776
 20
123.5991720718181
 30
0.0
 10
177.9715872220086
 20
123.9571786354237
 30
0.0
 10
178.3185545355317
 20
124.3963887954831
 30
0.0
 10
178.5817460698415
 20
124.8951937835137
 30
0.0
 10
178.7462784505734
 20
125.4431608338797
 30
0.0
 10
178.8070880072301
 20
126.1073804712996
 30
0.0
 10
178.7037432921156
 20
126.8664903263383
 30
0.0
 10
178.3883436359862
 20
127.5529244610636
 30
0.0
 10
177.9868809596416
 20
128.0641671504102
 30
0.0
 10
177.5628730757801
 20
128.4241247039328
 30
0.0
 10
177.0819188670261
 20
128.6970950983282
 30
0.0
 10
176.557927684285
 20
128.8657728321196
 30
0.0
 10
176.0103326981192
 20
128.9257256020681
 30
0.0
 10
175.4588523332407
 20
128.8698969342403
 30
0.0
 10
174.9264246218486
 20
128.7102111679943
 30
0.0
 10
174.4383927293286
 20
128.4437415076158
 30
0.0
 10
174.0110676092492
 20
128.0839729842722
 30
0.0
 10
173.661450651596
 20
127.6420469648902
 30
0.0
 10
173.3968821630739
 20
127.1405993811206
 30
0.0
 10
173.2329766150007
 20
126.5920456242482
 30
0.0
 10
173.1715654390354
 20
125.9283211246687
 30
0.0
 10
173.2737816631962
 20
125.1702824958419
 30
0.0
 10
173.5909713215273
 20
124.4823952226567
 30
0.0
 10
173.9955862619019
 20
123.9689714510814
 30
0.0
  0
LINE
  5
184
330
1F
100
AcDbEntity
  8
0
  6
HIDDEN
 62
     7
370
     0
100
AcDbLine
 10
168.2145347912
 20
122.9523248247
 30
0.0
 11
168.2145347912
 21
121.0532146713
 31
0.0
  0
LINE
  5
185
330
1F
100
AcDbEntity
  8
0
  6
HIDDEN
 62
     7
370
     0
100
AcDbLine
 10
168.2145347912
 20
129.0843249506
 30
0.0
 11
168.2145347912
 21
130.9834351039
 31
0.0
  0
SPLINE
  5
186
330
1F
100
AcDbEntity
  8
0
  6
HIDDEN
 62
     7
370
     0
100
AcDbSpline
210
0.0
220
0.0
230
1.0
 70
     8
 71
     3
 72
    14
 73
    10
 74
     0
 42
0.00000001
 43
0.00000001
 12
1.0
 22
0.0
 32
0.0
 13
1.0
 23
0.0
 33
0.0
 40
0.0
 40
0.0
 40
0.0
 40
0.0
 40
0.2500000000000001
 40
0.2500000000000001
 40
0.5000000000000001
 40
0.5000000000000001
 40
0.7500000000000001
 40
0.7500000000000001
 40
1.0
 40
1.0
 40
1.0
 40
1.0
 10
177.8387113596243
 20
127.419174367572
 30
0.0
 10
177.9925872553272
 20
127.2187982158581
 30
0.0
 10
178.1104678229562
 20
126.9987116742727
 30
0.0
 10
178.2735316128689
 20
126.5193506681281
 30
0.0
 10
178.3144481314925
 20
126.2721252858554
 30
0.0
 10
178.3146208640087
 20
125.7660946899593
 30
0.0
 10
178.2736931057749
 20
125.5183317814322
 30
0.0
 10
178.1113557403094
 20
125.0399939846579
 30
0.0
 10
177.9925854722032
 20
124.8178492374184
 30
0.0
 10
177.8387113596243
 20
124.6174754076763
 30
0.0
  0
LINE
  5
187
330
1F
100
AcDbEntity
  8
0
  6
HIDDEN
 62
     7
370
     0
100
AcDbLine
 10
182.0145346317
 20
115.5183250292
 30
0.0
 11
182.0145346317
 21
136.5183247461
 31
0.0
  0
SPLINE
  5
188
330
1F
100
AcDbEntity
  8
0
  6
HIDDEN
 62
     7
370
     0
100
AcDbSpline
210
0.0
220
0.0
230
1.0
 70
     8
 71
     3
 72
    14
 73
    10
 74
     0
 42
0.00000001
 43
0.00000001
 12
1.0
 22
0.0
 32
0.0
 13
1.0
 23
0.0
 33
0.0
 40
0.0
 40
0.0
 40
0.0
 40
0.0
 40
0.25
 40
0.25
 40
0.5
 40
0.5
 40
0.75
 40
0.75
 40
1.0
 40
1.0
 40
1.0
 40
1.0
 10
177.8387113596243
 20
124.6174754076763
 30
0.0
 10
177.9925872553272
 20
124.8178515593902
 30
0.0
 10
178.1104678229562
 20
125.0379381009756
 30
0.0
 10
178.2735316128689
 20
125.5172991071202
 30
0.0
 10
178.3144481314925
 20
125.7645244893929
 30
0.0
 10
178.3146208640087
 20
126.270555085289
 30
0.0
 10
178.2736931057749
 20
126.5183179938161
 30
0.0
 10
178.1113557403094
 20
126.9966557905904
 30
0.0
 10
177.9925854722032
 20
127.21880053783
 30
0.0
 10
177.8387113596243
 20
127.419174367572
 30
0.0
  0
SPLINE
  5
189
330
1F
100
AcDbEntity
  8
0
  6
HIDDEN
 62
     7
370
     0
100
AcDbSpline
210
0.0
220
0.0
230
1.0
 70
     8
 71
     3
 72
    13
 73
     9
 74
     0
 42
0.00000001
 43
0.00000001
 12
1.0
 22
0.0
 32
0.0
 13
1.0
 23
0.0
 33
0.0
 40
0.0
 40
0.0
 40
0.0
 40
0.0
 40
0.196257745587595
 40
0.3925641633040257
 40
0.5872321718048176
 40
0.7794855586965151
 40
0.9727147851561385
 40
1.0
 40
1.0
 40
1.0
 40
1.0
 10
177.8387114498792
 20
124.6174754549397
 30
0.0
 10
177.6607425455891
 20
124.4275745666097
 30
0.0
 10
177.3047606005321
 20
124.0477256943282
 30
0.0
 10
176.5714645150773
 20
123.7443367783135
 30
0.0
 10
175.7882000686634
 20
123.6825633798241
 30
0.0
 10
175.0506485312718
 20
123.8983941407227
 30
0.0
 10
174.5532222560102
 20
124.1747519224175
 30
0.0
 10
174.3840711366677
 20
124.4107262588417
 30
0.0
 10
174.3631413299618
 20
124.4399243940247
 30
0.0
  0
SPLINE
  5
18A
330
1F
100
AcDbEntity
  8
0
  6
HIDDEN
 62
     7
370
     0
100
AcDbSpline
210
0.0
220
0.0
230
1.0
 70
     8
 71
     3
 72
    15
 73
    11
 74
     0
 42
0.00000001
 43
0.00000001
 12
1.0
 22
0.0
 32
0.0
 13
1.0
 23
0.0
 33
0.0
 40
0.0
 40
0.0
 40
0.0
 40
0.0
 40
0.1163644439668532
 40
0.2436822265809524
 40
0.3700330455286437
 40
0.497625803642018
 40
0.6268095701936709
 40
0.7554572432786348
 40
0.8822154070949811
 40
1.0
 40
1.0
 40
1.0
 40
1.0
 10
173.9429043699084
 20
125.0462436208149
 30
0.0
 10
173.8578387052323
 20
125.2655357105508
 30
0.0
 10
173.67970017883
 20
125.7247617668679
 30
0.0
 10
173.7224076537919
 20
126.4886699057027
 30
0.0
 10
173.9981042732894
 20
127.2122990343522
 30
0.0
 10
174.5019529139316
 20
127.8083853178915
 30
0.0
 10
175.1785033162745
 20
128.2091142928849
 30
0.0
 10
175.9474618245649
 20
128.3581347982167
 30
0.0
 10
176.7123464500702
 20
128.264736555361
 30
0.0
 10
177.135469268573
 20
128.0109111472918
 30
0.0
 10
177.3392673674999
 20
127.8886555435715
 30
0.0
  0
SPLINE
  5
18B
330
1F
100
AcDbEntity
  8
0
  6
HIDDEN
 62
     7
370
     0
100
AcDbSpline
210
0.0
220
0.0
230
1.0
 70
     8
 71
     3
 72
    50
 73
    46
 74
     0
 42
0.00000001
 43
0.00000001
 12
1.0
 22
0.0
 32
0.0
 13
1.0
 23
0.0
 33
0.0
 40
0.0
 40
0.0
 40
0.0
 40
0.0
 40
0.0624999999999998
 40
0.0624999999999998
 40
0.1249999999999996
 40
0.1249999999999996
 40
0.1562499999999997
 40
0.1562499999999997
 40
0.1874999999999997
 40
0.1874999999999997
 40
0.2187499999999998
 40
0.2187499999999998
 40
0.2499999999999998
 40
0.2499999999999998
 40
0.2812499999999998
 40
0.2812499999999998
 40
0.3124999999999998
 40
0.3124999999999998
 40
0.375
 40
0.375
 40
0.4374999999999999
 40
0.4374999999999999
 40
0.4999999999999999
 40
0.4999999999999999
 40
0.5312499999999999
 40
0.5312499999999999
 40
0.5624999999999999
 40
0.5624999999999999
 40
0.5937499999999999
 40
0.5937499999999999
 40
0.6249999999999999
 40
0.6249999999999999
 40
0.6562499999999999
 40
0.6562499999999999
 40
0.6874999999999999
 40
0.6874999999999999
 40
0.7499999999999999
 40
0.7499999999999999
 40
0.8125
 40
0.8125
 40
0.875
 40
0.875
 40
0.9375
 40
0.9375
 40
1.0
 40
1.0
 40
1.0
 40
1.0
 10
177.8387113596243
 20
127.419174367572
 30
0.0
 10
177.6924565248227
 20
127.6096264252724
 30
0.0
 10
177.5209878878644
 20
127.7726876146708
 30
0.0
 10
177.1278432823544
 20
128.0450793965373
 30
0.0
 10
176.9125990967891
 20
128.1491753697628
 30
0.0
 10
176.5698593102395
 20
128.2534703843665
 30
0.0
 10
176.451612927184
 20
128.2795487638252
 30
0.0
 10
176.2158339250057
 20
128.3125893556351
 30
0.0
 10
176.0972676152997
 20
128.3199284187058
 30
0.0
 10
175.8587725344992
 20
128.3161416187661
 30
0.0
 10
175.7379801409773
 20
128.3047521085359
 30
0.0
 10
175.5029141755121
 20
128.2638707748536
 30
0.0
 10
175.3878586630121
 20
128.234497111175
 30
0.0
 10
175.1626389082693
 20
128.1580481806105
 30
0.0
 10
175.051556738667
 20
128.1104294953403
 30
0.0
 10
174.8403052917313
 20
127.9995905359496
 30
0.0
 10
174.7399470572306
 20
127.9365207876519
 30
0.0
 10
174.4543031002071
 20
127.7247461579931
 30
0.0
 10
174.2840243566113
 20
127.5517569704673
 30
0.0
 10
174.007873226691
 20
127.1669718179302
 30
0.0
 10
173.8981740403062
 20
126.9496171011787
 30
0.0
 10
173.7526309591423
 20
126.4979905168788
 30
0.0
 10
173.714624323685
 20
126.2569704336011
 30
0.0
 10
173.7144900303272
 20
125.9003011107141
 30
0.0
 10
173.7236077855694
 20
125.7817399594363
 30
0.0
 10
173.760526331083
 20
125.5452870209362
 30
0.0
 10
173.7884999861078
 20
125.4276423406145
 30
0.0
 10
173.86127156556
 20
125.2012604576536
 30
0.0
 10
173.9061968037217
 20
125.0914463010425
 30
0.0
 10
174.0132401186772
 20
124.8785825556462
 30
0.0
 10
174.0758081596437
 20
124.7751630143914
 30
0.0
 10
174.2141990623831
 20
124.5820437123744
 30
0.0
 10
174.2903825181576
 20
124.4914354844661
 30
0.0
 10
174.4567382519687
 20
124.3220459602597
 30
0.0
 10
174.5477665544134
 20
124.2427247060462
 30
0.0
 10
174.8344203710863
 20
124.0298609775162
 30
0.0
 10
175.0464724292039
 20
123.9182885038748
 30
0.0
 10
175.4996497051585
 20
123.763953411262
 30
0.0
 10
175.7342793538984
 20
123.722803972862
 30
0.0
 10
176.215702903357
 20
123.7145257172602
 30
0.0
 10
176.4510082736255
 20
123.7473744536961
 30
0.0
 10
176.910915925301
 20
123.8866059357032
 30
0.0
 10
177.1253444372602
 20
123.9902213152649
 30
0.0
 10
177.5185436220255
 20
124.2618911480821
 30
0.0
 10
177.6924526936907
 20
124.4270183611016
 30
0.0
 10
177.8387113596243
 20
124.6174754076763
 30
0.0
  0
LINE
  5
18C
330
1F
100
AcDbEntity
  8
0
  6
HIDDEN
 62
     7
370
     0
100
AcDbLine
 10
170.0171841402
 20
115.5183250292
 30
0.0
 11
170.0171841402
 21
136.5183247461
 31
0.0
  0
SPLINE
  5
18D
330
1F
100
AcDbEntity
  8
0
  6
HIDDEN
 62
     7
370
     0
100
AcDbSpline
210
0.0
220
0.0
230
1.0
 70
     8
 71
     3
 72
    26
 73
    22
 74
     0
 42
0.00000001
 43
0.00000001
 12
1.0
 22
0.0
 32
0.0
 13
1.0
 23
0.0
 33
0.0
 40
0.0
 40
0.0
 40
0.0
 40
0.0
 40
0.2500000000000028
 40
0.2500000000000028
 40
0.375000000000003
 40
0.375000000000003
 40
0.4375000000000025
 40
0.4375000000000025
 40
0.4687500000000013
 40
0.4687500000000013
 40
0.5000000000000001
 40
0.5000000000000001
 40
0.5312499999999989
 40
0.5312499999999989
 40
0.5624999999999977
 40
0.5624999999999977
 40
0.6249999999999977
 40
0.6249999999999977
 40
0.7499999999999984
 40
0.7499999999999984
 40
1.0
 40
1.0
 40
1.0
 40
1.0
 10
162.8745046781347
 20
118.9859030787214
 30
0.0
 10
162.8271165687062
 20
118.751745553556
 30
0.0
 10
162.7694752668018
 20
118.5247467545125
 30
0.0
 10
162.6474274542585
 20
118.2145785227775
 30
0.0
 10
162.601378446482
 20
118.1155723224445
 30
0.0
 10
162.5107251623163
 20
117.9949449774149
 30
0.0
 10
162.4763726620307
 20
117.9582545866942
 30
0.0
 10
162.4139374896402
 20
117.9305239064754
 30
0.0
 10
162.3906434708422
 20
117.9260853513457
 30
0.0
 10
162.3415909337156
 20
117.9387398323966
 30
0.0
 10
162.3171594840588
 20
117.9567544698725
 30
0.0
 10
162.276529888439
 20
118.0071139036107
 30
0.0
 10
162.2603676065879
 20
118.037692529937
 30
0.0
 10
162.2333855624847
 20
118.1009527029651
 30
0.0
 10
162.2226360396619
 20
118.1334551172281
 30
0.0
 10
162.1946000655048
 20
118.2323027809351
 30
0.0
 10
162.1817388334721
 20
118.2992056245781
 30
0.0
 10
162.1507359723118
 20
118.4970386870408
 30
0.0
 10
162.1398764902427
 20
118.6278417180604
 30
0.0
 10
162.1165992343047
 20
119.0192213487593
 30
0.0
 10
162.1145346317467
 20
119.2761846816889
 30
0.0
 10
162.1145346317467
 20
119.532360171133
 30
0.0
  0
LINE
  5
18E
330
1F
100
AcDbEntity
  8
0
  6
HIDDEN
 62
     7
370
     0
100
AcDbLine
 10
162.1145349089
 20
119.5323602504
 30
0.0
 11
162.1145349089
 21
112.5723412468
 31
0.0
  0
SPLINE
  5
18F
330
1F
100
AcDbEntity
  8
0
  6
HIDDEN
 62
     7
370
     0
100
AcDbSpline
210
0.0
220
0.0
230
1.0
 70
     8
 71
     3
 72
    26
 73
    22
 74
     0
 42
0.00000001
 43
0.00000001
 12
1.0
 22
0.0
 32
0.0
 13
1.0
 23
0.0
 33
0.0
 40
0.0
 40
0.0
 40
0.0
 40
0.0
 40
0.2499999999999953
 40
0.2499999999999953
 40
0.3749999999999926
 40
0.3749999999999926
 40
0.4374999999999915
 40
0.4374999999999915
 40
0.4687499999999916
 40
0.4687499999999916
 40
0.4999999999999919
 40
0.4999999999999919
 40
0.5312499999999921
 40
0.5312499999999921
 40
0.5624999999999922
 40
0.5624999999999922
 40
0.6249999999999934
 40
0.6249999999999934
 40
0.7499999999999954
 40
0.7499999999999954
 40
1.0
 40
1.0
 40
1.0
 40
1.0
 10
162.8745046781347
 20
133.0507466965269
 30
0.0
 10
162.8271165687062
 20
133.2849042216923
 30
0.0
 10
162.7694752668018
 20
133.5119030207358
 30
0.0
 10
162.6474274542585
 20
133.8220712524708
 30
0.0
 10
162.601378446482
 20
133.9210774528038
 30
0.0
 10
162.5107251623164
 20
134.0417047978334
 30
0.0
 10
162.4763726620307
 20
134.0783951885541
 30
0.0
 10
162.4139374896402
 20
134.1061258687729
 30
0.0
 10
162.3906434708422
 20
134.1105644239026
 30
0.0
 10
162.3415909337156
 20
134.0979099428517
 30
0.0
 10
162.3171594840588
 20
134.0798953053758
 30
0.0
 10
162.276529888439
 20
134.0295358716376
 30
0.0
 10
162.2603676065879
 20
133.9989572453113
 30
0.0
 10
162.2333855624847
 20
133.9356970722833
 30
0.0
 10
162.2226360396619
 20
133.9031946580203
 30
0.0
 10
162.1946000655048
 20
133.8043469943132
 30
0.0
 10
162.1817388334721
 20
133.7374441506702
 30
0.0
 10
162.1507359723118
 20
133.5396110882075
 30
0.0
 10
162.1398764902427
 20
133.4088080571879
 30
0.0
 10
162.1165992343047
 20
133.017428426489
 30
0.0
 10
162.1145346317467
 20
132.7604650935594
 30
0.0
 10
162.1145346317467
 20
132.5042896041153
 30
0.0
  0
LINE
  5
190
330
1F
100
AcDbEntity
  8
0
  6
HIDDEN
 62
     7
370
     0
100
AcDbLine
 10
162.1145349089
 20
139.4643085285
 30
0.0
 11
162.1145349089
 21
132.5042895249
 31
0.0
  0
LINE
  5
191
330
1F
100
AcDbEntity
  8
0
  6
HIDDEN
 62
     7
370
     0
100
AcDbLine
 10
188.1839096639
 20
115.5183250292
 30
0.0
 11
188.1839096639
 21
136.5183247461
 31
0.0
  0
LINE
  5
192
330
1F
100
AcDbEntity
  8
0
  6
HIDDEN
 62
     7
370
     0
100
AcDbLine
 10
189.9645350967
 20
116.1433244331
 30
0.0
 11
189.9645350967
 21
135.8933253421
 31
0.0
  0
LINE
  5
193
330
1F
100
AcDbEntity
  8
0
  6
HIDDEN
 62
     7
370
     0
100
AcDbLine
 10
163.0645342264
 20
121.9933247401
 30
0.0
 11
163.0645342264
 21
115.5183250292
 31
0.0
  0
LINE
  5
194
330
1F
100
AcDbEntity
  8
0
  6
HIDDEN
 62
     7
370
     0
100
AcDbLine
 10
164.8145340476
 20
121.9933247401
 30
0.0
 11
163.0645342264
 21
121.9933247401
 31
0.0
  0
SPLINE
  5
195
330
1F
100
AcDbEntity
  8
0
  6
HIDDEN
 62
     7
370
     0
100
AcDbSpline
210
0.0
220
0.0
230
1.0
 70
     8
 71
     3
 72
     9
 73
     5
 74
     0
 42
0.00000001
 43
0.00000001
 12
1.0
 22
0.0
 32
0.0
 13
1.0
 23
0.0
 33
0.0
 40
0.0
 40
0.0
 40
0.0
 40
0.0
 40
0.5071375316632437
 40
1.0
 40
1.0
 40
1.0
 40
1.0
 10
165.0955736730276
 20
122.0523249565271
 30
0.0
 10
165.0502296248638
 20
122.0334270093583
 30
0.0
 10
164.9608178867598
 20
121.9961630602539
 30
0.0
 10
164.8628290617735
 20
121.9942617999493
 30
0.0
 10
164.8145340476213
 20
121.9933247401027
 30
0.0
  0
SPLINE
  5
196
330
1F
100
AcDbEntity
  8
0
  6
HIDDEN
 62
     7
370
     0
100
AcDbSpline
210
0.0
220
0.0
230
1.0
 70
     8
 71
     3
 72
     9
 73
     5
 74
     0
 42
0.00000001
 43
0.00000001
 12
1.0
 22
0.0
 32
0.0
 13
1.0
 23
0.0
 33
0.0
 40
0.0
 40
0.0
 40
0.0
 40
0.0
 40
0.5071375316632437
 40
1.0
 40
1.0
 40
1.0
 40
1.0
 10
165.0955736730276
 20
129.9843248187212
 30
0.0
 10
165.0502296248638
 20
130.00322276589
 30
0.0
 10
164.9608178867598
 20
130.0404867149944
 30
0.0
 10
164.8628290617735
 20
130.042387975299
 30
0.0
 10
164.8145340476213
 20
130.0433250351456
 30
0.0
  0
LINE
  5
197
330
1F
100
AcDbEntity
  8
0
  6
HIDDEN
 62
     7
370
     0
100
AcDbLine
 10
164.8145340476
 20
130.0433250351
 30
0.0
 11
163.0645342264
 21
130.0433250351
 31
0.0
  0
LINE
  5
198
330
1F
100
AcDbEntity
  8
0
  6
HIDDEN
 62
     7
370
     0
100
AcDbLine
 10
163.0645342264
 20
130.0433250351
 30
0.0
 11
163.0645342264
 21
136.5183247461
 31
0.0
  0
LINE
  5
199
330
1F
100
AcDbEntity
  8
0
  6
HIDDEN
 62
     7
370
     0
100
AcDbLine
 10
163.0645342264
 20
121.9933247401
 30
0.0
 11
163.1235353742
 21
122.0523249565
 31
0.0
  0
LINE
  5
19A
330
1F
100
AcDbEntity
  8
0
  6
HIDDEN
 62
     7
370
     0
100
AcDbLine
 10
163.1235353742
 20
122.0523249565
 30
0.0
 11
167.3145344574
 21
122.0523249565
 31
0.0
  0
LINE
  5
19B
330
1F
100
AcDbEntity
  8
0
  6
HIDDEN
 62
     7
370
     0
100
AcDbLine
 10
163.0645342264
 20
130.0433250351
 30
0.0
 11
163.1235353742
 21
129.9843248187
 31
0.0
  0
SPLINE
  5
19C
330
1F
100
AcDbEntity
  8
0
  6
HIDDEN
 62
     7
370
     0
100
AcDbSpline
210
0.0
220
0.0
230
1.0
 70
     8
 71
     3
 72
    14
 73
    10
 74
     0
 42
0.00000001
 43
0.00000001
 12
1.0
 22
0.0
 32
0.0
 13
1.0
 23
0.0
 33
0.0
 40
0.0
 40
0.0
 40
0.0
 40
0.0
 40
0.25
 40
0.25
 40
0.5
 40
0.5
 40
0.75
 40
0.75
 40
1.0
 40
1.0
 40
1.0
 40
1.0
 10
167.3145346317468
 20
129.9843248876242
 30
0.0
 10
167.4370027196658
 20
129.9843248876242
 30
0.0
 10
167.5572137985345
 20
129.9592136302782
 30
0.0
 10
167.7774201177872
 20
129.8653885961837
 30
0.0
 10
167.8770755704853
 20
129.7964757385075
 30
0.0
 10
168.040062923441
 20
129.629503610725
 30
0.0
 10
168.1048002841875
 20
129.5301511337252
 30
0.0
 10
168.1916356343045
 20
129.3166493901035
 30
0.0
 10
168.2145346317469
 20
129.2012818910705
 30
0.0
 10
168.2145346317469
 20
129.0843248876242
 30
0.0
  0
SPLINE
  5
19D
330
1F
100
AcDbEntity
  8
0
  6
HIDDEN
 62
     7
370
     0
100
AcDbSpline
210
0.0
220
0.0
230
1.0
 70
     8
 71
     3
 72
    14
 73
    10
 74
     0
 42
0.00000001
 43
0.00000001
 12
1.0
 22
0.0
 32
0.0
 13
1.0
 23
0.0
 33
0.0
 40
0.0
 40
0.0
 40
0.0
 40
0.0
 40
0.25
 40
0.25
 40
0.5
 40
0.5
 40
0.75
 40
0.75
 40
1.0
 40
1.0
 40
1.0
 40
1.0
 10
167.3145346317468
 20
122.0523248876242
 30
0.0
 10
167.4370027196658
 20
122.0523248876242
 30
0.0
 10
167.5572137985345
 20
122.0774361449701
 30
0.0
 10
167.7774201177872
 20
122.1712611790646
 30
0.0
 10
167.8770755704853
 20
122.2401740367408
 30
0.0
 10
168.040062923441
 20
122.4071461645233
 30
0.0
 10
168.1048002841875
 20
122.5064986415231
 30
0.0
 10
168.1916356343045
 20
122.7200003851448
 30
0.0
 10
168.2145346317469
 20
122.8353678841778
 30
0.0
 10
168.2145346317469
 20
122.9523248876242
 30
0.0
  0
LINE
  5
19E
330
1F
100
AcDbEntity
  8
0
  6
HIDDEN
 62
     7
370
     0
100
AcDbLine
 10
163.1235353742
 20
129.9843248187
 30
0.0
 11
167.3145344574
 21
129.9843248187
 31
0.0
  0
LINE
  5
19F
330
1F
100
AcDbEntity
  8
0
  6
HIDDEN
 62
     7
370
     0
100
AcDbLine
 10
168.2145347912
 20
129.0843249506
 30
0.0
 11
168.2145347912
 21
122.9523248247
 31
0.0
  0
LWPOLYLINE
  5
1A0
330
1F
100
AcDbEntity
  8
0
  6
HIDDEN
 62
     7
370
     0
100
AcDbPolyline
 90
        4
 70
   128
 43
0.0
 10
163.0645342264
 20
121.9933247401
 10
162.7497080807
 20
121.678497663
 10
162.4329671357
 20
121.3617571837
 10
162.1145349089
 20
121.0433249569
  0
LWPOLYLINE
  5
1A1
330
1F
100
AcDbEntity
  8
0
  6
HIDDEN
 62
     7
370
     0
100
AcDbPolyline
 90
        4
 70
   128
 43
0.0
 10
162.1145349089
 20
121.0433249569
 10
162.4329671357
 20
121.3617571837
 10
162.7497080807
 20
121.678497663
 10
163.0645342264
 20
121.9933247401
  0
LINE
  5
1A2
330
1F
100
AcDbEntity
  8
0
  6
HIDDEN
 62
     7
370
     0
100
AcDbLine
 10
162.1145349089
 20
121.0433249569
 30
0.0
 11
162.1145349089
 21
114.9884779214
 31
0.0
  0
LWPOLYLINE
  5
1A3
330
1F
100
AcDbEntity
  8
0
  6
HIDDEN
 62
     7
370
     0
100
AcDbPolyline
 90
        4
 70
   128
 43
0.0
 10
163.0645342264
 20
130.0433250351
 10
162.7497080807
 20
130.3581521122
 10
162.4329671357
 20
130.6748925916
 10
162.1145349089
 20
130.9933248183
  0
LWPOLYLINE
  5
1A4
330
1F
100
AcDbEntity
  8
0
  6
HIDDEN
 62
     7
370
     0
100
AcDbPolyline
 90
        4
 70
   128
 43
0.0
 10
162.1145349089
 20
130.9933248183
 10
162.4329671357
 20
130.6748925916
 10
162.7497080807
 20
130.3581521122
 10
163.0645342264
 20
130.0433250351
  0
LINE
  5
1A5
330
1F
100
AcDbEntity
  8
0
  6
HIDDEN
 62
     7
370
     0
100
AcDbLine
 10
162.1145349089
 20
130.9933248183
 30
0.0
 11
162.1145349089
 21
137.0481718539
 31
0.0
  0
LINE
  5
1A6
330
1F
100
AcDbEntity
  8
0
  6
HIDDEN
 62
     7
370
     0
100
AcDbLine
 10
195.3145343903
 20
119.7683247945
 30
0.0
 11
195.3145343903
 21
132.2683249808
 31
0.0
  0
LINE
  5
1A7
330
1F
100
AcDbEntity
  8
0
  6
HIDDEN
 62
     7
370
     0
100
AcDbLine
 10
197.8145338688
 20
119.7683247945
 30
0.0
 11
197.8145338688
 21
132.2683249808
 31
0.0
  0
LINE
  5
1A8
330
1F
100
AcDbEntity
  8
0
  6
HIDDEN
 62
     7
370
     0
100
AcDbLine
 10
190.4645342473
 20
120.5183249174
 30
0.0
 11
190.4645342473
 21
131.5183248578
 31
0.0
  0
LINE
  5
1A9
330
1F
100
AcDbEntity
  8
0
  6
HIDDEN
 62
     7
370
     0
100
AcDbLine
 10
189.9645350967
 20
120.0231909959
 30
0.0
 11
189.9645350967
 21
132.0134587793
 31
0.0
  0
LINE
  5
1AA
330
1F
100
AcDbEntity
  8
0
  6
HIDDEN
 62
     7
370
     0
100
AcDbLine
 10
241.1333195958
 20
133.0183251037
 30
0.0
 11
252.0957462583
 21
133.0183251037
 31
0.0
  0
LINE
  5
1AB
330
1F
100
AcDbEntity
  8
0
  6
HIDDEN
 62
     7
370
     0
100
AcDbLine
 10
241.1333195958
 20
138.0183249919
 30
0.0
 11
252.0957462583
 21
138.0183249919
 31
0.0
  0
LINE
  5
1AC
330
1F
100
AcDbEntity
  8
0
  6
HIDDEN
 62
     7
370
     0
100
AcDbLine
 10
195.3145343903
 20
120.5371101594
 30
0.0
 11
195.3145343903
 21
131.4995396158
 31
0.0
  0
LINE
  5
1AD
330
1F
100
AcDbEntity
  8
0
  6
HIDDEN
 62
     7
370
     0
100
AcDbLine
 10
193.7145343144
 20
111.3183247133
 30
0.0
 11
184.3145346828
 21
111.3183247133
 31
0.0
  0
LINE
  5
1AE
330
1F
100
AcDbEntity
  8
0
  6
HIDDEN
 62
     7
370
     0
100
AcDbLine
 10
243.4192285035
 20
133.0183251037
 30
0.0
 11
249.8098410759
 21
133.0183251037
 31
0.0
  0
LINE
  5
1AF
330
1F
100
AcDbEntity
  8
0
  6
HIDDEN
 62
     7
370
     0
100
AcDbLine
 10
243.4192285035
 20
128.0183249826
 30
0.0
 11
249.8098410759
 21
128.0183249826
 31
0.0
  0
LINE
  5
1B0
330
1F
100
AcDbEntity
  8
0
  6
HIDDEN
 62
     7
370
     0
100
AcDbLine
 10
228.0145347212
 20
123.5183249435
 30
0.0
 11
228.0145347212
 21
128.5183248317
 31
0.0
  0
SPLINE
  5
1B1
330
1F
100
AcDbEntity
  8
0
  6
HIDDEN
 62
     7
370
     0
100
AcDbSpline
210
0.0
220
0.0
230
1.0
 70
     8
 71
     3
 72
    40
 73
    36
 74
     0
 42
0.00000001
 43
0.00000001
 12
1.0
 22
0.0
 32
0.0
 13
1.0
 23
0.0
 33
0.0
 40
0.0
 40
0.0
 40
0.0
 40
0.0
 40
0.0625000000000022
 40
0.0625000000000022
 40
0.1250000000000045
 40
0.1250000000000045
 40
0.1875000000000067
 40
0.1875000000000067
 40
0.250000000000009
 40
0.250000000000009
 40
0.3125000000000112
 40
0.3125000000000112
 40
0.3750000000000134
 40
0.3750000000000134
 40
0.4375000000000155
 40
0.4375000000000155
 40
0.4687500000000157
 40
0.4687500000000157
 40
0.5000000000000158
 40
0.5000000000000158
 40
0.5625000000000138
 40
0.5625000000000138
 40
0.6250000000000118
 40
0.6250000000000118
 40
0.6875000000000099
 40
0.6875000000000099
 40
0.7500000000000079
 40
0.7500000000000079
 40
0.8125000000000059
 40
0.8125000000000059
 40
0.8750000000000039
 40
0.8750000000000039
 40
0.937500000000002
 40
0.937500000000002
 40
1.0
 40
1.0
 40
1.0
 40
1.0
 10
226.8058866659357
 20
128.5183248876241
 30
0.0
 10
226.9001234440438
 20
128.5183248876241
 30
0.0
 10
226.9781847856586
 20
128.5000924750052
 30
0.0
 10
227.0845325089061
 20
128.4187281977843
 30
0.0
 10
227.1137353245735
 20
128.3540848200564
 30
0.0
 10
227.115300291339
 20
128.1838796164471
 30
0.0
 10
227.0877355316633
 20
128.0760478228087
 30
0.0
 10
226.9839067767789
 20
127.8370313853826
 30
0.0
 10
226.907098261475
 20
127.7037204838817
 30
0.0
 10
226.7196697107322
 20
127.4328168765954
 30
0.0
 10
226.6073555451191
 20
127.2925105428358
 30
0.0
 10
226.3599986129893
 20
127.0230001764773
 30
0.0
 10
226.2237354868577
 20
126.891572324016
 30
0.0
 10
225.9221908043762
 20
126.6477054662862
 30
0.0
 10
225.7613947033212
 20
126.5379648976799
 30
0.0
 10
225.4934657700213
 20
126.4119065510315
 30
0.0
 10
225.4006482328227
 20
126.3773011728942
 30
0.0
 10
225.2100692373002
 20
126.3297101998725
 30
0.0
 10
225.1102697753574
 20
126.316719479623
 30
0.0
 10
224.8156242040715
 20
126.3173562031834
 30
0.0
 10
224.6204466842718
 20
126.3716402870104
 30
0.0
 10
224.2668729516668
 20
126.5386955210374
 30
0.0
 10
224.1028662414003
 20
126.6507436246537
 30
0.0
 10
223.805036652145
 20
126.892022251868
 30
0.0
 10
223.6678836806733
 20
127.0241066432997
 30
0.0
 10
223.4190204940645
 20
127.2956347170991
 30
0.0
 10
223.30985183655
 20
127.4322954346649
 30
0.0
 10
223.1232175396578
 20
127.7017876995214
 30
0.0
 10
223.0460474797725
 20
127.8353754240415
 30
0.0
 10
222.941832006907
 20
128.0745245041633
 30
0.0
 10
222.9139958813225
 20
128.1825035205365
 30
0.0
 10
222.9150897867624
 20
128.3532500311248
 30
0.0
 10
222.9440383238191
 20
128.4181212631927
 30
0.0
 10
223.0505009266417
 20
128.5000227660358
 30
0.0
 10
223.1283138586776
 20
128.5183248876241
 30
0.0
 10
223.223182597558
 20
128.5183248876241
 30
0.0
  0
LINE
  5
1B2
330
1F
100
AcDbEntity
  8
0
  6
HIDDEN
 62
     7
370
     0
100
AcDbLine
 10
197.8145338688
 20
123.5232581592
 30
0.0
 11
197.8145338688
 21
128.5133916161
 31
0.0
  0
LINE
  5
1B3
330
1F
100
AcDbEntity
  8
0
  6
HIDDEN
 62
     7
370
     0
100
AcDbLine
 10
244.3645358179
 20
110.0183241277
 30
0.0
 11
248.8645337615
 21
110.0183241277
 31
0.0
  0
LINE
  5
1B4
330
1F
100
AcDbEntity
  8
0
  6
HIDDEN
 62
     7
370
     0
100
AcDbLine
 10
244.3645358179
 20
126.0183248876
 30
0.0
 11
248.8645337615
 21
126.0183248876
 31
0.0
  0
SPLINE
  5
1B5
330
1F
100
AcDbEntity
  8
0
  6
HIDDEN
 62
     7
370
     0
100
AcDbSpline
210
0.0
220
0.0
230
1.0
 70
     8
 71
     3
 72
    14
 73
    10
 74
     0
 42
0.00000001
 43
0.00000001
 12
1.0
 22
0.0
 32
0.0
 13
1.0
 23
0.0
 33
0.0
 40
0.0
 40
0.0
 40
0.0
 40
0.0
 40
0.2500000000000006
 40
0.2500000000000006
 40
0.5000000000000011
 40
0.5000000000000011
 40
0.7500000000000006
 40
0.7500000000000006
 40
1.0
 40
1.0
 40
1.0
 40
1.0
 10
226.0145346317468
 20
151.8898856572692
 30
0.0
 10
225.8887943838534
 20
152.14723597587
 30
0.0
 10
225.7700133817388
 20
152.4179029160194
 30
0.0
 10
225.5681883262688
 20
152.9851322586601
 30
0.0
 10
225.4850736884711
 20
153.2816951993623
 30
0.0
 10
225.3979747715584
 20
153.9072006205868
 30
0.0
 10
225.3994150091168
 20
154.2231121985704
 30
0.0
 10
225.4869683518044
 20
154.8528297597839
 30
0.0
 10
225.571261016502
 20
155.1707735911792
 30
0.0
 10
225.6740438979057
 20
155.4872990784209
 30
0.0
  0
SPLINE
  5
1B6
330
1F
100
AcDbEntity
  8
0
  6
HIDDEN
 62
     7
370
     0
100
AcDbSpline
210
0.0
220
0.0
230
1.0
 70
     8
 71
     3
 72
    22
 73
    18
 74
     0
 42
0.00000001
 43
0.00000001
 12
1.0
 22
0.0
 32
0.0
 13
1.0
 23
0.0
 33
0.0
 40
0.0
 40
0.0
 40
0.0
 40
0.0
 40
0.125
 40
0.125
 40
0.25
 40
0.25
 40
0.375
 40
0.375
 40
0.5
 40
0.5
 40
0.625
 40
0.625
 40
0.75
 40
0.75
 40
0.875
 40
0.875
 40
1.0
 40
1.0
 40
1.0
 40
1.0
 10
226.0145346317468
 20
153.3439178151015
 30
0.0
 10
226.1805027608391
 20
153.2531557875814
 30
0.0
 10
226.3291380042715
 20
153.1490130598903
 30
0.0
 10
226.5972128646931
 20
152.9262561146319
 30
0.0
 10
226.7158696223858
 20
152.8074224239596
 30
0.0
 10
226.9094748300654
 20
152.5765316720544
 30
0.0
 10
226.9873831200335
 20
152.460598565389
 30
0.0
 10
227.0900763914298
 20
152.2523674914203
 30
0.0
 10
227.116141207607
 20
152.1583825807554
 30
0.0
 10
227.1127734002187
 20
152.0026464471396
 30
0.0
 10
227.0837080307806
 20
151.9426367846854
 30
0.0
 10
226.9755113484138
 20
151.8575991744327
 30
0.0
 10
226.8981337338102
 20
151.8335509068111
 30
0.0
 10
226.7029204743268
 20
151.8137877645297
 30
0.0
 10
226.5881179263952
 20
151.8182387381139
 30
0.0
 10
226.3239899288026
 20
151.8445512700211
 30
0.0
 10
226.1770562277198
 20
151.8663531731298
 30
0.0
 10
226.0145346317468
 20
151.8898856572692
 30
0.0
  0
SPLINE
  5
1B7
330
1F
100
AcDbEntity
  8
0
  6
HIDDEN
 62
     7
370
     0
100
AcDbSpline
210
0.0
220
0.0
230
1.0
 70
     8
 71
     3
 72
    18
 73
    14
 74
     0
 42
0.00000001
 43
0.00000001
 12
1.0
 22
0.0
 32
0.0
 13
1.0
 23
0.0
 33
0.0
 40
0.0
 40
0.0
 40
0.0
 40
0.0
 40
0.2500000000000021
 40
0.2500000000000021
 40
0.375000000000002
 40
0.375000000000002
 40
0.500000000000002
 40
0.500000000000002
 40
0.625000000000002
 40
0.625000000000002
 40
0.750000000000002
 40
0.750000000000002
 40
1.0
 40
1.0
 40
1.0
 40
1.0
 10
225.5663432644997
 20
157.2495323498794
 30
0.0
 10
225.4484920715987
 20
156.9506938593843
 30
0.0
 10
225.3491621232021
 20
156.6384435224087
 30
0.0
 10
225.2747363545157
 20
156.1435971547085
 30
0.0
 10
225.2635995122739
 20
155.9779193274751
 30
0.0
 10
225.2709287576893
 20
155.6475104674212
 30
0.0
 10
225.289273792417
 20
155.4824695424326
 30
0.0
 10
225.3501678381943
 20
155.1518161237927
 30
0.0
 10
225.3928176886326
 20
154.9853034845983
 30
0.0
 10
225.4926347795366
 20
154.655655060145
 30
0.0
 10
225.5496708931582
 20
154.4922166898298
 30
0.0
 10
225.7331614122037
 20
154.0022311875805
 30
0.0
 10
225.8714150346616
 20
153.675879839727
 30
0.0
 10
226.0145346317468
 20
153.3439178151015
 30
0.0
  0
LWPOLYLINE
  5
1B8
330
1F
100
AcDbEntity
  8
0
  6
HIDDEN
 62
     7
370
     0
100
AcDbPolyline
 90
       14
 70
   128
 43
0.0
 10
225.67404286
 20
155.4872989862
 10
225.0833384786
 20
155.4412171452
 10
224.4870200846
 20
155.4702408819
 10
223.933758596
 20
155.5719990491
 10
223.4687231574
 20
155.7381879746
 10
223.1298670266
 20
155.9552420138
 10
222.9448542092
 20
156.2054399608
 10
222.9287833069
 20
156.4683616369
 10
223.0829730723
 20
156.7225437819
 10
223.3948282991
 20
156.9472383915
 10
223.8389015291
 20
157.124103999
 10
224.3789382372
 20
157.2387032418
 10
224.9708570633
 20
157.2816837786
 10
225.5663447175
 20
157.2495326607
  0
SPLINE
  5
1B9
330
1F
100
AcDbEntity
  8
0
  6
HIDDEN
 62
     7
370
     0
100
AcDbSpline
210
0.0
220
0.0
230
1.0
 70
     8
 71
     3
 72
    26
 73
    22
 74
     0
 42
0.00000001
 43
0.00000001
 12
1.0
 22
0.0
 32
0.0
 13
1.0
 23
0.0
 33
0.0
 40
0.0
 40
0.0
 40
0.0
 40
0.0
 40
0.1249999999999989
 40
0.1249999999999989
 40
0.2499999999999977
 40
0.2499999999999977
 40
0.3124999999999974
 40
0.3124999999999974
 40
0.3749999999999971
 40
0.3749999999999971
 40
0.4374999999999968
 40
0.4374999999999968
 40
0.4999999999999966
 40
0.4999999999999966
 40
0.6249999999999974
 40
0.6249999999999974
 40
0.7499999999999982
 40
0.7499999999999982
 40
0.8749999999999991
 40
0.8749999999999991
 40
1.0
 40
1.0
 40
1.0
 40
1.0
 10
226.0145346317468
 20
155.837895313839
 30
0.0
 10
226.2301108621162
 20
155.9769697962759
 30
0.0
 10
226.4212171053892
 20
156.138121782731
 30
0.0
 10
226.7709981711703
 20
156.4804533269005
 30
0.0
 10
226.9290571358674
 20
156.6630482554011
 30
0.0
 10
227.1282162499344
 20
156.9307684521911
 30
0.0
 10
227.1888190385468
 20
157.0196476620418
 30
0.0
 10
227.2974278229459
 20
157.1957606929253
 30
0.0
 10
227.3455681391313
 20
157.2834994516665
 30
0.0
 10
227.4241100536257
 20
157.4497123514294
 30
0.0
 10
227.4550682154369
 20
157.5289677357163
 30
0.0
 10
227.4989296032716
 20
157.6787421279643
 30
0.0
 10
227.5115191649886
 20
157.7489854757657
 30
0.0
 10
227.5191005916136
 20
157.9364279525226
 30
0.0
 10
227.4834929868271
 20
158.034933191527
 30
0.0
 10
227.3399469356105
 20
158.1671974463885
 30
0.0
 10
227.2315005797193
 20
158.2027882405118
 30
0.0
 10
226.9634122643239
 20
158.2253794094106
 30
0.0
 10
226.8018773966746
 20
158.2129628524898
 30
0.0
 10
226.4407369259453
 20
158.1626672799441
 30
0.0
 10
226.2378166001045
 20
158.1241656279065
 30
0.0
 10
226.0145346317468
 20
158.0866433314961
 30
0.0
  0
LINE
  5
1BA
330
1F
100
AcDbEntity
  8
0
  6
HIDDEN
 62
     7
370
     0
100
AcDbLine
 10
226.0145343933
 20
158.0866445063
 30
0.0
 11
226.0145343933
 21
153.3439178227
 31
0.0
  0
LINE
  5
1BB
330
1F
100
AcDbEntity
  8
0
  6
HIDDEN
 62
     7
370
     0
100
AcDbLine
 10
226.0145343933
 20
151.8898848652
 30
0.0
 11
226.0145343933
 21
155.8378953694
 31
0.0
  0
LINE
  5
1BC
330
1F
100
AcDbEntity
  8
0
  6
HIDDEN
 62
     7
370
     0
100
AcDbLine
 10
238.0145363603
 20
158.2183260678
 30
0.0
 11
238.0145363603
 21
151.8370826005
 31
0.0
  0
LINE
  5
1BD
330
1F
100
AcDbEntity
  8
0
  6
HIDDEN
 62
     7
370
     0
100
AcDbLine
 10
163.0645342264
 20
121.9933247401
 30
0.0
 11
163.0645342264
 21
119.8809258847
 31
0.0
  0
LINE
  5
1BE
330
1F
100
AcDbEntity
  8
0
  6
HIDDEN
 62
     7
370
     0
100
AcDbLine
 10
165.7145343814
 20
122.8933248411
 30
0.0
 11
165.7145343814
 21
121.2030360683
 31
0.0
  0
ARC
  5
1BF
330
1F
100
AcDbEntity
  8
0
  6
HIDDEN
 62
     7
370
     0
100
AcDbCircle
 10
164.8145346317
 20
122.8933248876
 30
0.0
 40
0.9000000000000341
100
AcDbArc
 50
270.0
 51
0.0
  0
LINE
  5
1C0
330
1F
100
AcDbEntity
  8
0
  6
HIDDEN
 62
     7
370
     0
100
AcDbLine
 10
162.1145349089
 20
121.0433249569
 30
0.0
 11
163.0645342264
 21
121.9933247401
 31
0.0
  0
LINE
  5
1C1
330
1F
100
AcDbEntity
  8
0
  6
HIDDEN
 62
     7
370
     0
100
AcDbLine
 10
162.1145349089
 20
121.0433249569
 30
0.0
 11
162.1145349089
 21
119.7952460705
 31
0.0
  0
LINE
  5
1C2
330
1F
100
AcDbEntity
  8
0
  6
HIDDEN
 62
     7
370
     0
100
AcDbLine
 10
163.0645342264
 20
130.0433250351
 30
0.0
 11
163.0645342264
 21
132.1557238905
 31
0.0
  0
LINE
  5
1C3
330
1F
100
AcDbEntity
  8
0
  6
HIDDEN
 62
     7
370
     0
100
AcDbLine
 10
162.1145349089
 20
130.9933248183
 30
0.0
 11
163.0645342264
 21
130.0433250351
 31
0.0
  0
LINE
  5
1C4
330
1F
100
AcDbEntity
  8
0
  6
HIDDEN
 62
     7
370
     0
100
AcDbLine
 10
162.1145349089
 20
130.9933248183
 30
0.0
 11
162.1145349089
 21
132.2414037048
 31
0.0
  0
LINE
  5
1C5
330
1F
100
AcDbEntity
  8
0
  6
HIDDEN
 62
     7
370
     0
100
AcDbLine
 10
165.7145343814
 20
129.1433249342
 30
0.0
 11
165.7145343814
 21
130.833613707
 31
0.0
  0
ARC
  5
1C6
330
1F
100
AcDbEntity
  8
0
  6
HIDDEN
 62
     7
370
     0
100
AcDbCircle
 10
164.8145346317
 20
129.1433248876
 30
0.0
 40
0.9000000000000341
100
AcDbArc
 50
0.0
 51
90.0
  0
LINE
  5
1C7
330
1F
100
AcDbEntity
  8
0
  6
HIDDEN
 62
     7
370
     0
100
AcDbLine
 10
162.1145349089
 20
119.7952460705
 30
0.0
 11
162.1145349089
 21
119.5323602504
 31
0.0
  0
LINE
  5
1C8
330
1F
100
AcDbEntity
  8
0
  6
HIDDEN
 62
     7
370
     0
100
AcDbLine
 10
162.1145349089
 20
132.2414037048
 30
0.0
 11
162.1145349089
 21
132.5042895249
 31
0.0
  0
LINE
  5
1C9
330
1F
100
AcDbEntity
  8
0
  6
HIDDEN
 62
     7
370
     0
100
AcDbLine
 10
194.4582047034
 20
137.8683252467
 30
0.0
 11
202.2936590109
 21
137.8683252467
 31
0.0
  0
ARC
  5
1CA
330
1F
100
AcDbEntity
  8
0
  6
HIDDEN
 62
     7
370
     0
100
AcDbCircle
 10
194.4582051065
 20
142.3683248876
 30
0.0
 40
4.500000000000001
100
AcDbArc
 50
183.0392600505
 51
270.0
  0
LINE
  5
1CB
330
1F
100
AcDbEntity
  8
0
  6
HIDDEN
 62
     7
370
     0
100
AcDbLine
 10
196.9745349232
 20
139.9324126749
 30
0.0
 11
196.9745349232
 21
139.5341716914
 31
0.0
  0
LINE
  5
1CC
330
1F
100
AcDbEntity
  8
0
  6
HIDDEN
 62
     7
370
     0
100
AcDbLine
 10
199.0545339976
 20
139.5341716914
 30
0.0
 11
199.0545339976
 21
139.9324126749
 31
0.0
  0
LINE
  5
1CD
330
1F
100
AcDbEntity
  8
0
  6
HIDDEN
 62
     7
370
     0
100
AcDbLine
 10
201.964535201
 20
141.378582476
 30
0.0
 11
201.964535201
 21
138.8957277148
 31
0.0
  0
LINE
  5
1CE
330
1F
100
AcDbEntity
  8
0
  6
HIDDEN
 62
     7
370
     0
100
AcDbLine
 10
242.0145332906
 20
138.0183249919
 30
0.0
 11
239.9359107111
 21
138.0183249919
 31
0.0
  0
LINE
  5
1CF
330
1F
100
AcDbEntity
  8
0
  6
HIDDEN
 62
     7
370
     0
100
AcDbLine
 10
242.0145332906
 20
128.0183249826
 30
0.0
 11
239.9359107111
 21
128.0183249826
 31
0.0
  0
SPLINE
  5
1D0
330
1F
100
AcDbEntity
  8
0
  6
HIDDEN
 62
     7
370
     0
100
AcDbSpline
210
0.0
220
0.0
230
1.0
 70
    11
 71
     3
 72
    32
 73
    28
 74
     0
 42
0.00000001
 43
0.00000001
 12
1.0
 22
0.0
 32
0.0
 13
1.0
 23
0.0
 33
0.0
 40
-0.0625
 40
-0.0625
 40
0.0
 40
0.0
 40
0.0624999999999998
 40
0.0624999999999998
 40
0.1249999999999996
 40
0.1249999999999996
 40
0.2499999999999992
 40
0.2499999999999992
 40
0.3124999999999992
 40
0.3124999999999992
 40
0.3749999999999991
 40
0.3749999999999991
 40
0.4374999999999991
 40
0.4374999999999991
 40
0.499999999999999
 40
0.499999999999999
 40
0.562499999999999
 40
0.562499999999999
 40
0.624999999999999
 40
0.624999999999999
 40
0.7499999999999994
 40
0.7499999999999994
 40
0.875
 40
0.875
 40
0.9375
 40
0.9375
 40
1.0
 40
1.0
 40
1.0625
 40
1.0625
 10
239.9145346317468
 20
128.1876625013323
 30
0.0
 10
239.9145346317468
 20
128.1876625013323
 30
0.0
 10
239.921882307186
 20
128.2167079953807
 30
0.0
 10
239.9438189295417
 20
128.3164580710923
 30
0.0
 10
239.9580390655257
 20
128.3868074894571
 30
0.0
 10
239.9962710732045
 20
128.6263307667573
 30
0.0
 10
240.0144720263849
 20
128.8233230235821
 30
0.0
 10
240.0145656622904
 20
129.1141354223993
 30
0.0
 10
240.0104068166799
 20
129.2120343050479
 30
0.0
 10
239.9951907073875
 20
129.3973749567348
 30
0.0
 10
239.9838305858868
 20
129.4879187134923
 30
0.0
 10
239.9584551610105
 20
129.6475658325907
 30
0.0
 10
239.9442136857779
 20
129.718303142885
 30
0.0
 10
239.9220642632005
 20
129.8192055168459
 30
0.0
 10
239.9146347925994
 20
129.8485773013221
 30
0.0
 10
239.9144366358092
 20
129.8493883852305
 30
0.0
 10
239.9216268244555
 20
129.82105334314
 30
0.0
 10
239.9437617894039
 20
129.7205009938103
 30
0.0
 10
239.9580497051221
 20
129.6497672873451
 30
0.0
 10
239.9962228441862
 20
129.4106378370319
 30
0.0
 10
240.0144971170902
 20
129.2133692998891
 30
0.0
 10
240.0145720164746
 20
128.8246291801996
 30
0.0
 10
239.9966273618876
 20
128.6289205443742
 30
0.0
 10
239.9581455451597
 20
128.3872977424204
 30
0.0
 10
239.9439495182806
 20
128.3170795896679
 30
0.0
 10
239.9219254019094
 20
128.2168764667661
 30
0.0
 10
239.9145346317468
 20
128.1876625013323
 30
0.0
 10
239.9145346317468
 20
128.1876625013323
 30
0.0
  0
SPLINE
  5
1D1
330
1F
100
AcDbEntity
  8
0
  6
HIDDEN
 62
     7
370
     0
100
AcDbSpline
210
0.0
220
0.0
230
1.0
 70
    24
 71
     3
 72
    10
 73
     6
 74
     0
 42
0.00000001
 43
0.00000001
 12
1.0
 22
0.0
 32
0.0
 13
1.0
 23
0.0
 33
0.0
 40
0.0
 40
0.0
 40
0.0
 40
0.0
 40
0.5
 40
0.5
 40
1.0
 40
1.0
 40
1.0
 40
1.0
 10
197.2228790174968
 20
130.5183248876241
 30
0.0
 10
197.1455542856226
 20
130.5183248876241
 30
0.0
 10
197.0821744600861
 20
130.5183248876241
 30
0.0
 10
196.996604011313
 20
130.5183248876241
 30
0.0
 10
196.9745346317468
 20
130.5183248876241
 30
0.0
 10
196.9745346317468
 20
130.5183248876241
 30
0.0
  0
SPLINE
  5
1D2
330
1F
100
AcDbEntity
  8
0
  6
HIDDEN
 62
     7
370
     0
100
AcDbSpline
210
0.0
220
0.0
230
1.0
 70
     8
 71
     3
 72
    12
 73
     8
 74
     0
 42
0.00000001
 43
0.00000001
 12
1.0
 22
0.0
 32
0.0
 13
1.0
 23
0.0
 33
0.0
 40
0.0
 40
0.0
 40
0.0
 40
0.0
 40
0.2499999999999991
 40
0.2499999999999991
 40
0.4999999999999982
 40
0.4999999999999982
 40
1.0
 40
1.0
 40
1.0
 40
1.0
 10
197.5745346317466
 20
130.0532505374968
 30
0.0
 10
197.5232453867102
 20
130.0532505374969
 30
0.0
 10
197.4760573610386
 20
130.0832303609695
 30
0.0
 10
197.4030411523436
 20
130.1547276065659
 30
0.0
 10
197.3735495448039
 20
130.1973398685209
 30
0.0
 10
197.2959675057095
 20
130.3280453350577
 30
0.0
 10
197.2568061929942
 20
130.422947151737
 30
0.0
 10
197.222879017496
 20
130.518324887624
 30
0.0
  0
LINE
  5
1D3
330
1F
100
AcDbEntity
  8
0
  6
HIDDEN
 62
     7
370
     0
100
AcDbLine
 10
196.9745349232
 20
137.8683252467
 30
0.0
 11
196.9745349232
 21
130.5183246939
 31
0.0
  0
SPLINE
  5
1D4
330
1F
100
AcDbEntity
  8
0
  6
HIDDEN
 62
     7
370
     0
100
AcDbSpline
210
0.0
220
0.0
230
1.0
 70
    24
 71
     3
 72
    12
 73
     8
 74
     0
 42
0.00000001
 43
0.00000001
 12
1.0
 22
0.0
 32
0.0
 13
1.0
 23
0.0
 33
0.0
 40
0.0
 40
0.0
 40
0.0
 40
0.0
 40
0.5
 40
0.5
 40
0.75
 40
0.75
 40
1.0
 40
1.0
 40
1.0
 40
1.0
 10
196.9745346317468
 20
137.8683248876242
 30
0.0
 10
196.9745346317468
 20
137.8683248876242
 30
0.0
 10
197.0213773261993
 20
137.8683248876242
 30
0.0
 10
197.170929348896
 20
137.8683248876242
 30
0.0
 10
197.2350343442001
 20
137.8683248876242
 30
0.0
 10
197.3892632995067
 20
137.8683248876242
 30
0.0
 10
197.4819398074397
 20
137.8683248876242
 30
0.0
 10
197.5745346317464
 20
137.8683248876242
 30
0.0
  0
SPLINE
  5
1D5
330
1F
100
AcDbEntity
  8
0
  6
HIDDEN
 62
     7
370
     0
100
AcDbSpline
210
0.0
220
0.0
230
1.0
 70
     8
 71
     3
 72
    12
 73
     8
 74
     0
 42
0.00000001
 43
0.00000001
 12
1.0
 22
0.0
 32
0.0
 13
1.0
 23
0.0
 33
0.0
 40
0.0
 40
0.0
 40
0.0
 40
0.0
 40
0.5000000000000062
 40
0.5000000000000062
 40
0.7500000000000031
 40
0.7500000000000031
 40
1.0
 40
1.0
 40
1.0
 40
1.0
 10
198.8061902459977
 20
130.5183248876262
 30
0.0
 10
198.7720202846471
 20
130.4222646202711
 30
0.0
 10
198.7327701435956
 20
130.327233335912
 30
0.0
 10
198.6547701330826
 20
130.1962059136477
 30
0.0
 10
198.6253672046817
 20
130.1538856703102
 30
0.0
 10
198.5522226105332
 20
130.0826561681358
 30
0.0
 10
198.5055926325653
 20
130.0532505374968
 30
0.0
 10
198.4545346317468
 20
130.0532505374968
 30
0.0
  0
SPLINE
  5
1D6
330
1F
100
AcDbEntity
  8
0
  6
HIDDEN
 62
     7
370
     0
100
AcDbSpline
210
0.0
220
0.0
230
1.0
 70
    24
 71
     3
 72
    10
 73
     6
 74
     0
 42
0.00000001
 43
0.00000001
 12
1.0
 22
0.0
 32
0.0
 13
1.0
 23
0.0
 33
0.0
 40
0.0
 40
0.0
 40
0.0
 40
0.0
 40
0.5
 40
0.5
 40
1.0
 40
1.0
 40
1.0
 40
1.0
 10
199.0545346317468
 20
130.5183248876241
 30
0.0
 10
199.0545346317467
 20
130.5183248876241
 30
0.0
 10
199.0325940091657
 20
130.5183248876241
 30
0.0
 10
198.9464638237754
 20
130.5183248876241
 30
0.0
 10
198.8833815166331
 20
130.5183248876241
 30
0.0
 10
198.8061902460015
 20
130.5183248876241
 30
0.0
  0
LINE
  5
1D7
330
1F
100
AcDbEntity
  8
0
  6
HIDDEN
 62
     7
370
     0
100
AcDbLine
 10
199.0545339976
 20
137.8683252467
 30
0.0
 11
199.0545339976
 21
130.5183246939
 31
0.0
  0
SPLINE
  5
1D8
330
1F
100
AcDbEntity
  8
0
  6
HIDDEN
 62
     7
370
     0
100
AcDbSpline
210
0.0
220
0.0
230
1.0
 70
    24
 71
     3
 72
    12
 73
     8
 74
     0
 42
0.00000001
 43
0.00000001
 12
1.0
 22
0.0
 32
0.0
 13
1.0
 23
0.0
 33
0.0
 40
0.0
 40
0.0
 40
0.0
 40
0.0
 40
0.249999999999999
 40
0.249999999999999
 40
0.499999999999998
 40
0.499999999999998
 40
1.0
 40
1.0
 40
1.0
 40
1.0
 10
198.4545346317468
 20
137.8683248876242
 30
0.0
 10
198.54778565008
 20
137.8683248876242
 30
0.0
 10
198.6392913589059
 20
137.8683248876242
 30
0.0
 10
198.7942148934409
 20
137.8683248876242
 30
0.0
 10
198.8578097113832
 20
137.8683248876242
 30
0.0
 10
199.0083686680662
 20
137.8683248876242
 30
0.0
 10
199.0545346317468
 20
137.8683248876242
 30
0.0
 10
199.0545346317468
 20
137.8683248876242
 30
0.0
  0
SPLINE
  5
1D9
330
1F
100
AcDbEntity
  8
0
  6
HIDDEN
 62
     7
370
     0
100
AcDbSpline
210
0.0
220
0.0
230
1.0
 70
     8
 71
     3
 72
     8
 73
     4
 74
     0
 42
0.00000001
 43
0.00000001
 12
1.0
 22
0.0
 32
0.0
 13
1.0
 23
0.0
 33
0.0
 40
0.0
 40
0.0
 40
0.0
 40
0.0
 40
1.0
 40
1.0
 40
1.0
 40
1.0
 10
225.9221029291991
 20
155.556160442145
 30
0.0
 10
225.9515925999627
 20
155.6500659767461
 30
0.0
 10
225.9824959985747
 20
155.7439405778408
 30
0.0
 10
226.0145346317468
 20
155.837895313839
 30
0.0
  0
LWPOLYLINE
  5
1DA
330
1F
100
AcDbEntity
  8
0
  6
HIDDEN
 62
     7
370
     0
100
AcDbPolyline
 90
       16
 70
   128
 43
0.0
 10
225.9221024904
 20
155.5561609774
 10
225.3027208243
 20
155.4886996953
 10
224.6645562444
 20
155.4921865671
 10
224.0491978917
 20
155.5663924872
 10
223.4967559669
 20
155.7064801662
 10
223.0432242248
 20
155.9033226429
 10
222.7181665693
 20
156.1440881549
 10
222.5427650008
 20
156.4130895047
 10
222.5284487102
 20
156.6927936135
 10
222.6761564706
 20
156.964972636
 10
222.9762546811
 20
157.2118886022
 10
223.4091892932
 20
157.4174482583
 10
223.9467449579
 20
157.5682554601
 10
224.5538890455
 20
157.6544847547
 10
225.1910552476
 20
157.6705146788
 10
225.8167177532
 20
157.615298426
  0
SPLINE
  5
1DB
330
1F
100
AcDbEntity
  8
0
  6
HIDDEN
 62
     7
370
     0
100
AcDbSpline
210
0.0
220
0.0
230
1.0
 70
     8
 71
     3
 72
     8
 73
     4
 74
     0
 42
0.00000001
 43
0.00000001
 12
1.0
 22
0.0
 32
0.0
 13
1.0
 23
0.0
 33
0.0
 40
0.0
 40
0.0
 40
0.0
 40
0.0
 40
1.0
 40
1.0
 40
1.0
 40
1.0
 10
226.0145346317468
 20
158.0866433314961
 30
0.0
 10
225.9447158189558
 20
157.9332702323098
 30
0.0
 10
225.8781417077374
 20
157.776184308546
 30
0.0
 10
225.8167170562955
 20
157.615300117889
 30
0.0
  0
SPLINE
  5
1DC
330
1F
100
AcDbEntity
  8
0
  6
HIDDEN
 62
     7
370
     0
100
AcDbSpline
210
0.0
220
0.0
230
1.0
 70
     8
 71
     3
 72
     8
 73
     4
 74
     0
 42
0.00000001
 43
0.00000001
 12
1.0
 22
0.0
 32
0.0
 13
1.0
 23
0.0
 33
0.0
 40
0.0
 40
0.0
 40
0.0
 40
0.0
 40
1.0
 40
1.0
 40
1.0
 40
1.0
 10
225.6740438979056
 20
155.4872990784209
 30
0.0
 10
225.7567261535083
 20
155.5096682713031
 30
0.0
 10
225.8394134658002
 20
155.5327128883708
 30
0.0
 10
225.9221029291991
 20
155.556160442145
 30
0.0
  0
SPLINE
  5
1DD
330
1F
100
AcDbEntity
  8
0
  6
HIDDEN
 62
     7
370
     0
100
AcDbSpline
210
0.0
220
0.0
230
1.0
 70
     8
 71
     3
 72
     8
 73
     4
 74
     0
 42
0.00000001
 43
0.00000001
 12
1.0
 22
0.0
 32
0.0
 13
1.0
 23
0.0
 33
0.0
 40
0.0
 40
0.0
 40
0.0
 40
0.0
 40
1.0
 40
1.0
 40
1.0
 40
1.0
 10
225.8167170562955
 20
157.615300117889
 30
0.0
 10
225.7332132815706
 20
157.4930591950983
 30
0.0
 10
225.6497433714218
 20
157.3710804220487
 30
0.0
 10
225.5663432644997
 20
157.2495323498794
 30
0.0
  0
LINE
  5
1DE
330
1F
100
AcDbEntity
  8
0
  6
HIDDEN
 62
     7
370
     0
100
AcDbLine
 10
197.5745348353
 20
137.8683252467
 30
0.0
 11
198.4545350168
 21
137.8683252467
 31
0.0
  0
LINE
  5
1DF
330
1F
100
AcDbEntity
  8
0
  6
HIDDEN
 62
     7
370
     0
100
AcDbLine
 10
199.0545339976
 20
137.8683252467
 30
0.0
 11
199.0545339976
 21
130.5183246939
 31
0.0
  0
SPLINE
  5
1E0
330
1F
100
AcDbEntity
  8
0
  6
HIDDEN
 62
     7
370
     0
100
AcDbSpline
210
0.0
220
0.0
230
1.0
 70
    24
 71
     3
 72
     8
 73
     4
 74
     0
 42
0.00000001
 43
0.00000001
 12
1.0
 22
0.0
 32
0.0
 13
1.0
 23
0.0
 33
0.0
 40
0.0
 40
0.0
 40
0.0
 40
0.0
 40
1.0
 40
1.0
 40
1.0
 40
1.0
 10
199.0545346317468
 20
137.8683248876242
 30
0.0
 10
199.3780921900017
 20
137.8683248876242
 30
0.0
 10
199.7105865102187
 20
137.8683248876242
 30
0.0
 10
200.0496943306403
 20
137.8683248876242
 30
0.0
  0
LINE
  5
1E1
330
1F
100
AcDbEntity
  8
0
  6
HIDDEN
 62
     7
370
     0
100
AcDbLine
 10
196.9745349232
 20
137.8683252467
 30
0.0
 11
196.9745349232
 21
130.5183246939
 31
0.0
  0
SPLINE
  5
1E2
330
1F
100
AcDbEntity
  8
0
  6
HIDDEN
 62
     7
370
     0
100
AcDbSpline
210
0.0
220
0.0
230
1.0
 70
    24
 71
     3
 72
     8
 73
     4
 74
     0
 42
0.00000001
 43
0.00000001
 12
1.0
 22
0.0
 32
0.0
 13
1.0
 23
0.0
 33
0.0
 40
0.0
 40
0.0
 40
0.0
 40
0.0
 40
1.0
 40
1.0
 40
1.0
 40
1.0
 10
195.9793749328534
 20
137.8683248876242
 30
0.0
 10
196.318797974135
 20
137.8683248876242
 30
0.0
 10
196.6513087176301
 20
137.8683248876242
 30
0.0
 10
196.9745346317468
 20
137.8683248876242
 30
0.0
  0
SPLINE
  5
1E3
330
1F
100
AcDbEntity
  8
0
  6
HIDDEN
 62
     7
370
     0
100
AcDbSpline
210
0.0
220
0.0
230
1.0
 70
     8
 71
     3
 72
    35
 73
    31
 74
     0
 42
0.00000001
 43
0.00000001
 12
1.0
 22
0.0
 32
0.0
 13
1.0
 23
0.0
 33
0.0
 40
-0.1243198177529216
 40
-0.1014877469671102
 40
-0.0608367564012208
 40
0.0
 40
0.0343712166269115
 40
0.0666387492012554
 40
0.096823304326669
 40
0.1249505753809351
 40
0.1526662634897283
 40
0.1874715367338476
 40
0.2288808094666797
 40
0.2500284990771027
 40
0.313987578175962
 40
0.3744836764365594
 40
0.4023317405692824
 40
0.4371113310320021
 40
0.4795885132808722
 40
0.4997903583980314
 40
0.5479907218504444
 40
0.592988434225201
 40
0.6398023656121368
 40
0.6945155365638745
 40
0.7285101556289182
 40
0.7625224506971453
 40
0.7965528224366043
 40
0.8145532956144464
 40
0.8337228321507867
 40
0.8540904280735325
 40
0.8756801822470784
 40
0.8985122530328898
 40
0.9391632435987792
 40
1.0
 40
1.034371216626911
 40
1.066638749201255
 40
1.096823304326669
 10
174.6138493176711
 20
124.1435184271013
 30
0.0
 10
174.142423261183
 20
124.6218765491975
 30
0.0
 10
173.8585295576449
 20
125.1701651523098
 30
0.0
 10
173.733578321705
 20
125.6232664469581
 30
0.0
 10
173.701966362243
 20
126.0616583905458
 30
0.0
 10
173.7484531997294
 20
126.4762236670294
 30
0.0
 10
173.8729138225335
 20
126.8970756185655
 30
0.0
 10
174.1072635415844
 20
127.3431783850061
 30
0.0
 10
174.421556757229
 20
127.6984533435968
 30
0.0
 10
174.9064824390963
 20
128.0677006985402
 30
0.0
 10
175.5784369230699
 20
128.3388514228157
 30
0.0
 10
176.3317142658594
 20
128.3274302903146
 30
0.0
 10
176.898198312869
 20
128.1576393655063
 30
0.0
 10
177.3447917999216
 20
127.9220826151438
 30
0.0
 10
177.6961796226825
 20
127.6095411243638
 30
0.0
 10
178.0160715501108
 20
127.1882294068638
 30
0.0
 10
178.2501410125351
 20
126.6869002753178
 30
0.0
 10
178.3469054940277
 20
126.0095962635679
 30
0.0
 10
178.2414394711411
 20
125.3004061509126
 30
0.0
 10
177.9420059342142
 20
124.7090802799032
 30
0.0
 10
177.5425601117036
 20
124.2763112111237
 30
0.0
 10
177.1417947478155
 20
123.9936821491721
 30
0.0
 10
176.7618460783904
 20
123.8321423922257
 30
0.0
 10
176.430860395544
 20
123.7510508374018
 30
0.0
 10
176.1557764367097
 20
123.7167297675807
 30
0.0
 10
175.8605417772946
 20
123.7167812831228
 30
0.0
 10
175.5498071563941
 20
123.7580901234217
 30
0.0
 10
175.1532246326823
 20
123.868750705394
 30
0.0
 10
174.6138493176711
 20
124.1435184271013
 30
0.0
 10
174.142423261183
 20
124.6218765491975
 30
0.0
 10
173.8585295576449
 20
125.1701651523098
 30
0.0
  0
SPLINE
  5
1E4
330
1F
100
AcDbEntity
  8
0
  6
HIDDEN
 62
     7
370
     0
100
AcDbSpline
210
0.0
220
0.0
230
1.0
 70
    24
 71
     3
 72
    10
 73
     6
 74
     0
 42
0.00000001
 43
0.00000001
 12
1.0
 22
0.0
 32
0.0
 13
1.0
 23
0.0
 33
0.0
 40
0.0
 40
0.0
 40
0.0
 40
0.0
 40
0.5
 40
0.5
 40
1.0
 40
1.0
 40
1.0
 40
1.0
 10
201.9645346317469
 20
130.5183248876241
 30
0.0
 10
201.9645346317469
 20
130.5183248876241
 30
0.0
 10
201.9023734152639
 20
130.5183248876241
 30
0.0
 10
201.6818640745922
 20
130.5183248876241
 30
0.0
 10
201.5229489716471
 20
130.5183248876241
 30
0.0
 10
201.3645346317468
 20
130.5183248876241
 30
0.0
  0
LINE
  5
1E5
330
1F
100
AcDbEntity
  8
0
  6
HIDDEN
 62
     7
370
     0
100
AcDbLine
 10
201.964535201
 20
137.8683252467
 30
0.0
 11
201.964535201
 21
130.5183246939
 31
0.0
  0
SPLINE
  5
1E6
330
1F
100
AcDbEntity
  8
0
  6
HIDDEN
 62
     7
370
     0
100
AcDbSpline
210
0.0
220
0.0
230
1.0
 70
    24
 71
     3
 72
    12
 73
     8
 74
     0
 42
0.00000001
 43
0.00000001
 12
1.0
 22
0.0
 32
0.0
 13
1.0
 23
0.0
 33
0.0
 40
0.0
 40
0.0
 40
0.0
 40
0.0
 40
0.25
 40
0.25
 40
0.5
 40
0.5
 40
1.0
 40
1.0
 40
1.0
 40
1.0
 10
201.3645346317468
 20
137.8683248876242
 30
0.0
 10
201.4538229907906
 20
137.8683248876242
 30
0.0
 10
201.5418818216928
 20
137.8683248876242
 30
0.0
 10
201.694535534942
 20
137.8683248876242
 30
0.0
 10
201.7603290282839
 20
137.8683248876242
 30
0.0
 10
201.915769675
 20
137.8683248876242
 30
0.0
 10
201.9645346317468
 20
137.8683248876242
 30
0.0
 10
201.9645346317469
 20
137.8683248876242
 30
0.0
  0
LINE
  5
1E7
330
1F
100
AcDbEntity
  8
0
  6
HIDDEN
 62
     7
370
     0
100
AcDbLine
 10
200.0496950094
 20
137.8683252467
 30
0.0
 11
200.0496950094
 21
130.5183246939
 31
0.0
  0
LINE
  5
1E8
330
1F
100
AcDbEntity
  8
0
  6
HIDDEN
 62
     7
370
     0
100
AcDbLine
 10
200.0496950094
 20
137.8683252467
 30
0.0
 11
201.3645343576
 21
137.8683252467
 31
0.0
  0
ARC
  5
1E9
330
1F
100
AcDbEntity
  8
0
  6
HIDDEN
 62
     7
370
     0
100
AcDbCircle
 10
194.4645346317
 20
126.0183248876
 30
0.0
 40
4.500000000000014
100
AcDbArc
 50
90.0
 51
270.0
  0
LINE
  5
1EA
330
1F
100
AcDbEntity
  8
0
  6
HIDDEN
 62
     7
370
     0
100
AcDbLine
 10
198.4545350168
 20
130.0532506055
 30
0.0
 11
197.5745348353
 21
130.0532506055
 31
0.0
  0
LINE
  5
1EB
330
1F
100
AcDbEntity
  8
0
  6
HIDDEN
 62
     7
370
     0
100
AcDbLine
 10
194.4645349029
 20
121.5183250813
 30
0.0
 11
197.222878607
 21
121.5183250813
 31
0.0
  0
LINE
  5
1EC
330
1F
100
AcDbEntity
  8
0
  6
HIDDEN
 62
     7
370
     0
100
AcDbLine
 10
197.222878607
 20
130.5183246939
 30
0.0
 11
194.4645349029
 21
130.5183246939
 31
0.0
  0
SPLINE
  5
1ED
330
1F
100
AcDbEntity
  8
0
  6
HIDDEN
 62
     7
370
     0
100
AcDbSpline
210
0.0
220
0.0
230
1.0
 70
    24
 71
     3
 72
     8
 73
     4
 74
     0
 42
0.00000001
 43
0.00000001
 12
1.0
 22
0.0
 32
0.0
 13
1.0
 23
0.0
 33
0.0
 40
0.0
 40
0.0
 40
0.0
 40
0.0
 40
1.0
 40
1.0
 40
1.0
 40
1.0
 10
196.9745346317468
 20
130.5183248876241
 30
0.0
 10
196.6435143007272
 20
130.5183248876241
 30
0.0
 10
196.3117330292431
 20
130.5183248876241
 30
0.0
 10
195.9793749328534
 20
130.5183248876241
 30
0.0
  0
LINE
  5
1EE
330
1F
100
AcDbEntity
  8
0
  6
HIDDEN
 62
     7
370
     0
100
AcDbLine
 10
198.8061893825
 20
121.5183250813
 30
0.0
 11
201.9645966683
 21
121.5183250813
 31
0.0
  0
LINE
  5
1EF
330
1F
100
AcDbEntity
  8
0
  6
HIDDEN
 62
     7
370
     0
100
AcDbLine
 10
201.9645966683
 20
130.5183246939
 30
0.0
 11
198.8061893825
 21
130.5183246939
 31
0.0
  0
LINE
  5
1F0
330
1F
100
AcDbEntity
  8
0
  6
HIDDEN
 62
     7
370
     0
100
AcDbLine
 10
201.3645343576
 20
130.5183246939
 30
0.0
 11
200.0496950094
 21
130.5183246939
 31
0.0
  0
SPLINE
  5
1F1
330
1F
100
AcDbEntity
  8
0
  6
HIDDEN
 62
     7
370
     0
100
AcDbSpline
210
0.0
220
0.0
230
1.0
 70
    24
 71
     3
 72
     8
 73
     4
 74
     0
 42
0.00000001
 43
0.00000001
 12
1.0
 22
0.0
 32
0.0
 13
1.0
 23
0.0
 33
0.0
 40
0.0
 40
0.0
 40
0.0
 40
0.0
 40
1.0
 40
1.0
 40
1.0
 40
1.0
 10
200.0496943306403
 20
130.5183248876241
 30
0.0
 10
199.7173362342506
 20
130.5183248876241
 30
0.0
 10
199.3855549627665
 20
130.5183248876241
 30
0.0
 10
199.0545346317468
 20
130.5183248876241
 30
0.0
  0
LINE
  5
1F2
330
1F
100
AcDbEntity
  8
0
  6
HIDDEN
 62
     7
370
     0
100
AcDbLine
 10
241.1333195958
 20
133.0183251037
 30
0.0
 11
252.0957462583
 21
133.0183251037
 31
0.0
  0
LINE
  5
1F3
330
1F
100
AcDbEntity
  8
0
  6
HIDDEN
 62
     7
370
     0
100
AcDbLine
 10
241.1333195958
 20
138.0183249919
 30
0.0
 11
252.0957462583
 21
138.0183249919
 31
0.0
  0
LINE
  5
1F4
330
1F
100
AcDbEntity
  8
0
  6
HIDDEN
 62
     7
370
     0
100
AcDbLine
 10
243.4192285035
 20
133.0183251037
 30
0.0
 11
249.8098410759
 21
133.0183251037
 31
0.0
  0
LINE
  5
1F5
330
1F
100
AcDbEntity
  8
0
  6
HIDDEN
 62
     7
370
     0
100
AcDbLine
 10
243.4192285035
 20
128.0183249826
 30
0.0
 11
249.8098410759
 21
128.0183249826
 31
0.0
  0
LINE
  5
1F6
330
1F
100
AcDbEntity
  8
0
  6
HIDDEN
 62
     7
370
     0
100
AcDbLine
 10
244.3645358179
 20
110.0183241277
 30
0.0
 11
248.8645337615
 21
110.0183241277
 31
0.0
  0
LINE
  5
1F7
330
1F
100
AcDbEntity
  8
0
  6
HIDDEN
 62
     7
370
     0
100
AcDbLine
 10
244.3645358179
 20
126.0183248876
 30
0.0
 11
248.8645337615
 21
126.0183248876
 31
0.0
  0
LINE
  5
1F8
330
1F
100
AcDbEntity
  8
0
  6
HIDDEN
 62
     7
370
     0
100
AcDbLine
 10
252.1145366225
 20
133.0183251037
 30
0.0
 11
252.1145366225
 21
138.0183249919
 31
0.0
  0
LINE
  5
1F9
330
1F
100
AcDbEntity
  8
0
  6
HIDDEN
 62
     7
370
     0
100
AcDbLine
 10
241.1145329569
 20
138.0183249919
 30
0.0
 11
241.1145329569
 21
133.0183251037
 31
0.0
  0
LINE
  5
1FA
330
1F
100
AcDbEntity
  8
0
  6
HIDDEN
 62
     7
370
     0
100
AcDbLine
 10
249.8145349417
 20
128.0183249826
 30
0.0
 11
249.8145349417
 21
133.0183251037
 31
0.0
  0
LINE
  5
1FB
330
1F
100
AcDbEntity
  8
0
  6
HIDDEN
 62
     7
370
     0
100
AcDbLine
 10
243.4145346377
 20
133.0183251037
 30
0.0
 11
243.4145346377
 21
128.0183249826
 31
0.0
  0
LINE
  5
1FC
330
1F
100
AcDbEntity
  8
0
  6
HIDDEN
 62
     7
370
     0
100
AcDbLine
 10
248.8645337615
 20
110.0183241277
 30
0.0
 11
248.8645337615
 21
126.0183248876
 31
0.0
  0
LINE
  5
1FD
330
1F
100
AcDbEntity
  8
0
  6
HIDDEN
 62
     7
370
     0
100
AcDbLine
 10
244.3645358179
 20
126.0183248876
 30
0.0
 11
244.3645358179
 21
110.0183241277
 31
0.0
  0
LINE
  5
1FE
330
1F
100
AcDbEntity
  8
0
  6
HIDDEN
 62
     7
370
     0
100
AcDbLine
 10
244.3645358179
 20
110.0183241277
 30
0.0
 11
246.6145329271
 21
108.6663883387
 31
0.0
  0
LINE
  5
1FF
330
1F
100
AcDbEntity
  8
0
  6
HIDDEN
 62
     7
370
     0
100
AcDbLine
 10
246.6145329271
 20
108.6663883387
 30
0.0
 11
248.8645337615
 21
110.0183241277
 31
0.0
  0
LINE
  5
200
330
1F
100
AcDbEntity
  8
0
  6
HIDDEN
 62
     7
370
     0
100
AcDbLine
 10
222.514534751
 20
161.9699169158
 30
0.0
 11
222.514534751
 21
156.5773226528
 31
0.0
  0
LINE
  5
201
330
1F
100
AcDbEntity
  8
0
  6
HIDDEN
 62
     7
370
     0
100
AcDbLine
 10
227.5145337079
 20
157.8176934479
 30
0.0
 11
227.5145337079
 21
161.9683150409
 31
0.0
  0
LINE
  5
202
330
1F
100
AcDbEntity
  8
0
  6
HIDDEN
 62
     7
370
     0
100
AcDbLine
 10
238.0145363603
 20
158.2183260678
 30
0.0
 11
226.9483156595
 21
158.2183260678
 31
0.0
  0
LINE
  5
203
330
1F
100
AcDbEntity
  8
0
  6
HIDDEN
 62
     7
370
     0
100
AcDbLine
 10
226.6632974241
 20
151.8183257638
 30
0.0
 11
238.0145363603
 21
151.8183257638
 31
0.0
  0
LINE
  5
204
330
1F
100
AcDbEntity
  8
0
  6
HIDDEN
 62
     7
370
     0
100
AcDbLine
 10
223.5544309113
 20
155.6877326428
 30
0.0
 11
223.7880475912
 21
155.6140464007
 31
0.0
  0
LINE
  5
205
330
1F
100
AcDbEntity
  8
0
  6
HIDDEN
 62
     7
370
     0
100
AcDbLine
 10
222.9145340715
 20
156.3613023816
 30
0.0
 11
222.9145340715
 21
128.2500110308
 31
0.0
  0
LINE
  5
206
330
1F
100
AcDbEntity
  8
0
  6
HIDDEN
 62
     7
370
     0
100
AcDbLine
 10
227.1145343874
 20
128.2501358281
 30
0.0
 11
227.1145343874
 21
152.0961988925
 31
0.0
  0
LINE
  5
207
330
1F
100
AcDbEntity
  8
0
  6
HIDDEN
 62
     7
370
     0
100
AcDbLine
 10
182.0145346317
 20
109.8111234813
 30
0.0
 11
182.108695404
 21
110.4811132162
 31
0.0
  0
LINE
  5
208
330
1F
100
AcDbEntity
  8
0
  6
HIDDEN
 62
     7
370
     0
100
AcDbLine
 10
182.108695404
 20
141.5555365591
 30
0.0
 11
182.0145346317
 21
142.225526294
 31
0.0
  0
LINE
  5
209
330
1F
100
AcDbEntity
  8
0
  6
HIDDEN
 62
     7
370
     0
100
AcDbLine
 10
239.9145349953
 20
128.1876624769
 30
0.0
 11
239.9145349953
 21
128.0183249826
 31
0.0
  0
LINE
  5
20A
330
1F
100
AcDbEntity
  8
0
  6
HIDDEN
 62
     7
370
     0
100
AcDbLine
 10
239.9145349953
 20
138.0183249919
 30
0.0
 11
239.9145349953
 21
129.8435062843
 31
0.0
  0
ARC
  5
20B
330
1F
100
AcDbEntity
  8
0
  6
HIDDEN
 62
     7
370
     0
100
AcDbCircle
 10
181.5145278791
 20
110.5646177342
 30
0.0
 40
0.6000067526677303
100
AcDbArc
 50
352.0
 51
0.0
  0
ARC
  5
20C
330
1F
100
AcDbEntity
  8
0
  6
HIDDEN
 62
     7
370
     0
100
AcDbCircle
 10
181.5145278791
 20
110.5646177342
 30
0.0
 40
0.6000067526677282
100
AcDbArc
 50
0.0
 51
33.5571153394
  0
ARC
  5
20D
330
1F
100
AcDbEntity
  8
0
  6
HIDDEN
 62
     7
370
     0
100
AcDbCircle
 10
181.5145278791
 20
141.4720320411
 30
0.0
 40
0.6000067526677323
100
AcDbArc
 50
348.75
 51
8.0
  0
LWPOLYLINE
  5
20E
330
1F
100
AcDbEntity
  8
0
  6
HIDDEN
 62
     7
370
     0
100
AcDbPolyline
 90
        3
 70
   128
 43
0.0
 10
182.1030056707
 20
141.3549762427
 10
182.0688618389
 20
141.2424193903
 10
182.0145346317
 20
141.1403678565
  0
LINE
  5
20F
330
1F
100
AcDbEntity
  8
0
  6
HIDDEN
 62
     7
370
     0
100
AcDbLine
 10
182.1145346292
 20
110.5646174608
 30
0.0
 11
182.1145346292
 21
141.4720323144
 31
0.0
  0
LINE
  5
210
330
1F
100
AcDbEntity
  8
0
  6
HIDDEN
 62
     7
370
     0
100
AcDbLine
 10
182.1145346292
 20
110.5646174608
 30
0.0
 11
182.1145346292
 21
141.4720323144
 31
0.0
  0
ARC
  5
211
330
1F
100
AcDbEntity
  8
0
  6
HIDDEN
 62
     7
370
     0
100
AcDbCircle
 10
177.8387113596
 20
118.2683248876
 30
0.0
 40
5.000000000000018
100
AcDbArc
 50
270.0
 51
326.6329870308
  0
ARC
  5
212
330
1F
100
AcDbEntity
  8
0
  6
HIDDEN
 62
     7
370
     0
100
AcDbCircle
 10
177.8387113596
 20
133.7683248876
 30
0.0
 40
5.000000000000026
100
AcDbArc
 50
33.3670129692
 51
90.0
  0
LINE
  5
213
330
1F
100
AcDbEntity
  8
0
  6
HIDDEN
 62
     7
370
     0
100
AcDbLine
 10
171.5471627284
 20
113.268325126
 30
0.0
 11
177.8387114499
 21
113.268325126
 31
0.0
  0
LINE
  5
214
330
1F
100
AcDbEntity
  8
0
  6
HIDDEN
 62
     7
370
     0
100
AcDbLine
 10
177.8387114499
 20
138.7683246492
 30
0.0
 11
171.5471627284
 21
138.7683246492
 31
0.0
  0
ARC
  5
215
330
1F
100
AcDbEntity
  8
0
  6
HIDDEN
 62
     7
370
     0
100
AcDbCircle
 10
171.5471625759
 20
113.6683248876
 30
0.0
 40
0.4000000000000173
100
AcDbArc
 50
210.0
 51
270.0
  0
ARC
  5
216
330
1F
100
AcDbEntity
  8
0
  6
HIDDEN
 62
     7
370
     0
100
AcDbCircle
 10
171.5471625759
 20
138.3683248876
 30
0.0
 40
0.4000000000000173
100
AcDbArc
 50
90.0
 51
150.0
  0
LINE
  5
217
330
1F
100
AcDbEntity
  8
0
  6
HIDDEN
 62
     7
370
     0
100
AcDbLine
 10
171.2007526401
 20
138.568324989
 30
0.0
 11
170.0171841402
 21
136.5183247461
 31
0.0
  0
LINE
  5
218
330
1F
100
AcDbEntity
  8
0
  6
HIDDEN
 62
     7
370
     0
100
AcDbLine
 10
170.0171841402
 20
115.5183250292
 30
0.0
 11
171.2007526401
 21
113.4683247863
 31
0.0
  0
ARC
  5
219
330
1F
100
AcDbEntity
  8
0
  6
HIDDEN
 62
     7
370
     0
100
AcDbCircle
 10
188.9645346317
 20
116.1433248876
 30
0.0
 40
1.0
100
AcDbArc
 50
218.6821874535
 51
0.0
  0
ARC
  5
21A
330
1F
100
AcDbEntity
  8
0
  6
HIDDEN
 62
     7
370
     0
100
AcDbCircle
 10
188.9645346317
 20
135.8933248876
 30
0.0
 40
1.000000000000006
100
AcDbArc
 50
0.0
 51
141.3178125465
  0
LINE
  5
21B
330
1F
100
AcDbEntity
  8
0
  6
HIDDEN
 62
     7
370
     0
100
AcDbLine
 10
182.0145346317
 20
115.5183250292
 30
0.0
 11
188.1839096639
 21
115.5183250292
 31
0.0
  0
LINE
  5
21C
330
1F
100
AcDbEntity
  8
0
  6
HIDDEN
 62
     7
370
     0
100
AcDbLine
 10
188.1839096639
 20
136.5183247461
 30
0.0
 11
182.0145346317
 21
136.5183247461
 31
0.0
  0
LINE
  5
21D
330
1F
100
AcDbEntity
  8
0
  6
HIDDEN
 62
     7
370
     0
100
AcDbLine
 10
163.0645342264
 20
115.5183250292
 30
0.0
 11
170.0171841402
 21
115.5183250292
 31
0.0
  0
LINE
  5
21E
330
1F
100
AcDbEntity
  8
0
  6
HIDDEN
 62
     7
370
     0
100
AcDbLine
 10
170.0171841402
 20
136.5183247461
 30
0.0
 11
163.0645342264
 21
136.5183247461
 31
0.0
  0
LINE
  5
21F
330
1F
100
AcDbEntity
  8
0
  6
HIDDEN
 62
     7
370
     0
100
AcDbLine
 10
162.1145349089
 20
114.9698421566
 30
0.0
 11
163.0645342264
 21
115.5183250292
 31
0.0
  0
LINE
  5
220
330
1F
100
AcDbEntity
  8
0
  6
HIDDEN
 62
     7
370
     0
100
AcDbLine
 10
163.0645342264
 20
136.5183247461
 30
0.0
 11
162.1145349089
 21
137.0668076186
 31
0.0
  0
LINE
  5
221
330
1F
100
AcDbEntity
  8
0
  6
HIDDEN
 62
     7
370
     0
100
AcDbLine
 10
195.3145343903
 20
119.7683247945
 30
0.0
 11
197.8145338688
 21
119.7683247945
 31
0.0
  0
LINE
  5
222
330
1F
100
AcDbEntity
  8
0
  6
HIDDEN
 62
     7
370
     0
100
AcDbLine
 10
197.8145338688
 20
132.2683249808
 30
0.0
 11
195.3145343903
 21
132.2683249808
 31
0.0
  0
LINE
  5
223
330
1F
100
AcDbEntity
  8
0
  6
HIDDEN
 62
     7
370
     0
100
AcDbLine
 10
189.9645350967
 20
120.0183248355
 30
0.0
 11
190.4645342473
 21
120.5183249174
 31
0.0
  0
LINE
  5
224
330
1F
100
AcDbEntity
  8
0
  6
HIDDEN
 62
     7
370
     0
100
AcDbLine
 10
190.4645342473
 20
131.5183248578
 30
0.0
 11
189.9645350967
 21
132.0183249398
 31
0.0
  0
LINE
  5
225
330
1F
100
AcDbEntity
  8
0
  6
HIDDEN
 62
     7
370
     0
100
AcDbLine
 10
252.1145366225
 20
133.0183251037
 30
0.0
 11
252.1145366225
 21
138.0183249919
 31
0.0
  0
LINE
  5
226
330
1F
100
AcDbEntity
  8
0
  6
HIDDEN
 62
     7
370
     0
100
AcDbLine
 10
241.1145329569
 20
138.0183249919
 30
0.0
 11
241.1145329569
 21
133.0183251037
 31
0.0
  0
LINE
  5
227
330
1F
100
AcDbEntity
  8
0
  6
HIDDEN
 62
     7
370
     0
100
AcDbLine
 10
190.4645342473
 20
120.5183249174
 30
0.0
 11
194.4645349029
 21
120.5183249174
 31
0.0
  0
LINE
  5
228
330
1F
100
AcDbEntity
  8
0
  6
HIDDEN
 62
     7
370
     0
100
AcDbLine
 10
194.4645349029
 20
131.5183248578
 30
0.0
 11
190.4645342473
 21
131.5183248578
 31
0.0
  0
LINE
  5
229
330
1F
100
AcDbEntity
  8
0
  6
HIDDEN
 62
     7
370
     0
100
AcDbLine
 10
184.0145347267
 20
111.0183252229
 30
0.0
 11
184.0145347267
 21
106.0183253347
 31
0.0
  0
LINE
  5
22A
330
1F
100
AcDbEntity
  8
0
  6
HIDDEN
 62
     7
370
     0
100
AcDbLine
 10
194.0145347361
 20
106.0183253347
 30
0.0
 11
194.0145347361
 21
111.0183252229
 31
0.0
  0
ARC
  5
22B
330
1F
100
AcDbEntity
  8
0
  6
HIDDEN
 62
     7
370
     0
100
AcDbCircle
 10
184.3145346317
 20
111.0183248876
 30
0.0
 40
0.3000000000000114
100
AcDbArc
 50
90.0
 51
180.0
  0
ARC
  5
22C
330
1F
100
AcDbEntity
  8
0
  6
HIDDEN
 62
     7
370
     0
100
AcDbCircle
 10
193.7145346317
 20
111.0183248876
 30
0.0
 40
0.3000000000000114
100
AcDbArc
 50
0.0
 51
90.0
  0
LINE
  5
22D
330
1F
100
AcDbEntity
  8
0
  6
HIDDEN
 62
     7
370
     0
100
AcDbLine
 10
249.8145349417
 20
128.0183249826
 30
0.0
 11
249.8145349417
 21
133.0183251037
 31
0.0
  0
LINE
  5
22E
330
1F
100
AcDbEntity
  8
0
  6
HIDDEN
 62
     7
370
     0
100
AcDbLine
 10
243.4145346377
 20
133.0183251037
 30
0.0
 11
243.4145346377
 21
128.0183249826
 31
0.0
  0
LINE
  5
22F
330
1F
100
AcDbEntity
  8
0
  6
HIDDEN
 62
     7
370
     0
100
AcDbLine
 10
197.8145338688
 20
123.5183249435
 30
0.0
 11
228.0145347212
 21
123.5183249435
 31
0.0
  0
LINE
  5
230
330
1F
100
AcDbEntity
  8
0
  6
HIDDEN
 62
     7
370
     0
100
AcDbLine
 10
223.2231818233
 20
128.5183248317
 30
0.0
 11
197.8145338688
 21
128.5183248317
 31
0.0
  0
LINE
  5
231
330
1F
100
AcDbEntity
  8
0
  6
HIDDEN
 62
     7
370
     0
100
AcDbLine
 10
228.0145347212
 20
128.5183248317
 30
0.0
 11
226.8058866356
 21
128.5183248317
 31
0.0
  0
LINE
  5
232
330
1F
100
AcDbEntity
  8
0
  6
HIDDEN
 62
     7
370
     0
100
AcDbLine
 10
228.0145347212
 20
123.5183249435
 30
0.0
 11
228.9244592283
 21
126.0183248876
 31
0.0
  0
LINE
  5
233
330
1F
100
AcDbEntity
  8
0
  6
HIDDEN
 62
     7
370
     0
100
AcDbLine
 10
228.9244592283
 20
126.0183248876
 30
0.0
 11
228.0145347212
 21
128.5183248317
 31
0.0
  0
LINE
  5
234
330
1F
100
AcDbEntity
  8
0
  6
HIDDEN
 62
     7
370
     0
100
AcDbLine
 10
248.8645337615
 20
110.0183241277
 30
0.0
 11
248.8645337615
 21
126.0183248876
 31
0.0
  0
LINE
  5
235
330
1F
100
AcDbEntity
  8
0
  6
HIDDEN
 62
     7
370
     0
100
AcDbLine
 10
244.3645358179
 20
126.0183248876
 30
0.0
 11
244.3645358179
 21
110.0183241277
 31
0.0
  0
LINE
  5
236
330
1F
100
AcDbEntity
  8
0
  6
HIDDEN
 62
     7
370
     0
100
AcDbLine
 10
244.3645358179
 20
110.0183241277
 30
0.0
 11
246.6145329271
 21
108.6663883387
 31
0.0
  0
LINE
  5
237
330
1F
100
AcDbEntity
  8
0
  6
HIDDEN
 62
     7
370
     0
100
AcDbLine
 10
246.6145329271
 20
108.6663883387
 30
0.0
 11
248.8645337615
 21
110.0183241277
 31
0.0
  0
LINE
  5
238
330
1F
100
AcDbEntity
  8
0
  6
HIDDEN
 62
     7
370
     0
100
AcDbLine
 10
222.9145340715
 20
156.3613023816
 30
0.0
 11
222.9145340715
 21
128.2501358281
 31
0.0
  0
LINE
  5
239
330
1F
100
AcDbEntity
  8
0
  6
HIDDEN
 62
     7
370
     0
100
AcDbLine
 10
227.1145343874
 20
128.2500110308
 30
0.0
 11
227.1145343874
 21
128.2501358281
 31
0.0
  0
LINE
  5
23A
330
1F
100
AcDbEntity
  8
0
  6
HIDDEN
 62
     7
370
     0
100
AcDbLine
 10
238.0145363603
 20
158.2183260678
 30
0.0
 11
226.9790157769
 21
158.2183260678
 31
0.0
  0
LINE
  5
23B
330
1F
100
AcDbEntity
  8
0
  6
HIDDEN
 62
     7
370
     0
100
AcDbLine
 10
226.6596242879
 20
151.8183257638
 30
0.0
 11
226.6632974241
 21
151.8183257638
 31
0.0
  0
LINE
  5
23C
330
1F
100
AcDbEntity
  8
0
  6
HIDDEN
 62
     7
370
     0
100
AcDbLine
 10
239.9145349953
 20
128.1876624769
 30
0.0
 11
239.9145349953
 21
128.0183249826
 31
0.0
  0
LINE
  5
23D
330
1F
100
AcDbEntity
  8
0
  6
HIDDEN
 62
     7
370
     0
100
AcDbLine
 10
239.9145349953
 20
138.0183249919
 30
0.0
 11
239.9145349953
 21
129.8435062843
 31
0.0
  0
LINE
  5
23E
330
1F
100
AcDbEntity
  8
0
  6
HIDDEN
 62
     7
370
     0
100
AcDbLine
 10
222.514534751
 20
161.9683150409
 30
0.0
 11
222.514534751
 21
156.5773226528
 31
0.0
  0
LINE
  5
23F
330
1F
100
AcDbEntity
  8
0
  6
HIDDEN
 62
     7
370
     0
100
AcDbLine
 10
227.5145337079
 20
161.9683150409
 30
0.0
 11
227.5145337079
 21
161.9699169158
 31
0.0
  0
LINE
  5
240
330
1F
100
AcDbEntity
  8
0
  6
HIDDEN
 62
     7
370
     0
100
AcDbLine
 10
223.5544309113
 20
155.6877326428
 30
0.0
 11
223.7880475912
 21
155.6140464007
 31
0.0
  0
LINE
  5
241
330
1F
100
AcDbEntity
  8
0
  6
HIDDEN
 62
     7
370
     0
100
AcDbLine
 10
252.1145366225
 20
133.0183251037
 30
0.0
 11
252.1145366225
 21
138.0183249919
 31
0.0
  0
LINE
  5
242
330
1F
100
AcDbEntity
  8
0
  6
HIDDEN
 62
     7
370
     0
100
AcDbLine
 10
241.1145329569
 20
138.0183249919
 30
0.0
 11
241.1145329569
 21
133.0183251037
 31
0.0
  0
LINE
  5
243
330
1F
100
AcDbEntity
  8
0
  6
HIDDEN
 62
     7
370
     0
100
AcDbLine
 10
249.8145349417
 20
128.0183249826
 30
0.0
 11
249.8145349417
 21
133.0183251037
 31
0.0
  0
LINE
  5
244
330
1F
100
AcDbEntity
  8
0
  6
HIDDEN
 62
     7
370
     0
100
AcDbLine
 10
243.4145346377
 20
133.0183251037
 30
0.0
 11
243.4145346377
 21
128.0183249826
 31
0.0
  0
LINE
  5
245
330
1F
100
AcDbEntity
  8
0
  6
HIDDEN
 62
     7
370
     0
100
AcDbLine
 10
244.3645358179
 20
110.0183241277
 30
0.0
 11
246.6145329271
 21
108.6663883387
 31
0.0
  0
LINE
  5
246
330
1F
100
AcDbEntity
  8
0
  6
HIDDEN
 62
     7
370
     0
100
AcDbLine
 10
246.6145329271
 20
108.6663883387
 30
0.0
 11
248.8645337615
 21
110.0183241277
 31
0.0
  0
LINE
  5
247
330
1F
100
AcDbEntity
  8
0
  6
HIDDEN
 62
     7
370
     0
100
AcDbLine
 10
248.8645337615
 20
110.0183241277
 30
0.0
 11
248.8645337615
 21
126.0183248876
 31
0.0
  0
LINE
  5
248
330
1F
100
AcDbEntity
  8
0
  6
HIDDEN
 62
     7
370
     0
100
AcDbLine
 10
244.3645358179
 20
126.0183248876
 30
0.0
 11
244.3645358179
 21
110.0183241277
 31
0.0
  0
DIMENSION
  5
249
330
1F
100
AcDbEntity
  8
VERMASSUNG
100
AcDbDimension
  2
_D
 10
268.3145346317
 20
130.1896061797
 30
0.0
 11
268.3145346317
 21
117.1896061797
 31
0.0
 70
   160
  1
<>
 71
     2
 42
-1.0
  3
SLDDIMSTYLE0
100
AcDbAlignedDimension
 13
251.5145346317
 23
104.1896061797
 33
0.0
 14
251.5145346317
 24
130.1896061797
 34
0.0
 50
90.0
100
AcDbRotatedDimension
  0
DIMENSION
  5
254
330
1F
100
AcDbEntity
  8
VERMASSUNG
100
AcDbDimension
  2
_D_1
 10
251.5145346317
 20
76.0183248876
 30
0.0
 11
216.7645346317
 21
76.0183248876
 31
0.0
 70
   160
  1
<>
 71
     2
 42
-1.0
  3
SLDDIMSTYLE0
100
AcDbAlignedDimension
 13
182.0145346317
 23
106.3183248876
 33
0.0
 14
251.5145346317
 24
104.1896061797
 34
0.0
100
AcDbRotatedDimension
  0
DIMENSION
  5
25E
330
1F
100
AcDbEntity
  8
VERMASSUNG
100
AcDbDimension
  2
_D_2
 10
257.0145346317
 20
64.0183248876
 30
0.0
 11
219.5145346317
 21
64.0183248876
 31
0.0
 70
   160
  1
<>
 71
     2
 42
-1.0
  3
SLDDIMSTYLE0
100
AcDbAlignedDimension
 13
182.0145346317
 23
106.3183248876
 33
0.0
 14
257.0145346317
 24
86.0183248876
 34
0.0
100
AcDbRotatedDimension
  0
DIMENSION
  5
268
330
1F
100
AcDbEntity
  8
VERMASSUNG
100
AcDbDimension
  2
_D_3
 10
156.0822312283
 20
106.0183248876
 30
0.0
 11
156.0822312283
 21
126.0183248876
 31
0.0
 70
   160
  1
HSK T%%c<>
 71
     2
 42
-1.0
  3
SLDDIMSTYLE0
100
AcDbAlignedDimension
 13
182.3145346317
 23
146.0183248876
 33
0.0
 14
182.3145346317
 24
106.0183248876
 34
0.0
 50
90.0
100
AcDbRotatedDimension
  0
DIMENSION
  5
274
330
1F
100
AcDbEntity
  8
VERMASSUNG
100
AcDbDimension
  2
_D_4
 10
257.0145346317
 20
176.0183248876
 30
0.0
 11
209.5645346317
 21
176.0183248876
 31
0.0
 70
   160
  1
<>
 71
     2
 42
-1.0
  3
SLDDIMSTYLE0
100
AcDbAlignedDimension
 13
162.1145346317
 23
139.4643084788
 33
0.0
 14
257.0145346317
 24
138.0183248876
 34
0.0
100
AcDbRotatedDimension
  0
LINE
  5
27E
330
1F
100
AcDbEntity
  8
VERMASSUNG
  6
CENTERX2
370
     0
100
AcDbLine
 10
161.2705529479
 20
126.0183248876
 30
0.0
 11
259.3944434799
 21
126.0183248876
 31
0.0
  0
ARC
  5
27F
330
1F
100
AcDbEntity
  8
0
  6
Continuous
 62
     7
370
    15
100
AcDbCircle
 10
78.4525538857
 20
138.7183248876
 30
0.0
 40
0.3000000000000398
100
AcDbArc
 50
90.0
 51
180.0
  0
ARC
  5
280
330
1F
100
AcDbEntity
  8
0
  6
Continuous
 62
     7
370
    15
100
AcDbCircle
 10
87.8525538857
 20
138.7183248876
 30
0.0
 40
0.3000000000000398
100
AcDbArc
 50
0.0
 51
90.0
  0
LINE
  5
281
330
1F
100
AcDbEntity
  8
0
  6
Continuous
 62
     7
370
    15
100
AcDbLine
 10
78.1525539974
 20
138.7183247341
 30
0.0
 11
78.1525539974
 21
138.0183249919
 31
0.0
  0
LINE
  5
282
330
1F
100
AcDbEntity
  8
0
  6
Continuous
 62
     7
370
    15
100
AcDbLine
 10
88.1525537739
 20
138.0183249919
 30
0.0
 11
88.1525537739
 21
138.7183247341
 31
0.0
  0
LINE
  5
283
330
1F
100
AcDbEntity
  8
0
  6
Continuous
 62
     7
370
    15
100
AcDbLine
 10
80.1525538596
 20
128.0183249826
 30
0.0
 11
80.1525538596
 21
126.0183248876
 31
0.0
  0
LINE
  5
284
330
1F
100
AcDbEntity
  8
0
  6
Continuous
 62
     7
370
    15
100
AcDbLine
 10
86.1525539117
 20
126.0183248876
 30
0.0
 11
86.1525539117
 21
128.0183249826
 31
0.0
  0
LINE
  5
285
330
1F
100
AcDbEntity
  8
0
  6
Continuous
 62
     7
370
    15
100
AcDbLine
 10
106.1525539304
 20
138.7183247341
 30
0.0
 11
106.1525539304
 21
138.0183249919
 31
0.0
  0
LINE
  5
286
330
1F
100
AcDbEntity
  8
0
  6
Continuous
 62
     7
370
    15
100
AcDbLine
 10
116.1525537068
 20
138.0183249919
 30
0.0
 11
116.1525537068
 21
138.7183247341
 31
0.0
  0
ARC
  5
287
330
1F
100
AcDbEntity
  8
0
  6
Continuous
 62
     7
370
    15
100
AcDbCircle
 10
106.4525538857
 20
138.7183248876
 30
0.0
 40
0.3000000000000398
100
AcDbArc
 50
90.0
 51
180.0
  0
ARC
  5
288
330
1F
100
AcDbEntity
  8
0
  6
Continuous
 62
     7
370
    15
100
AcDbCircle
 10
115.8525538857
 20
138.7183248876
 30
0.0
 40
0.3000000000000398
100
AcDbArc
 50
0.0
 51
90.0
  0
LINE
  5
289
330
1F
100
AcDbEntity
  8
0
  6
Continuous
 62
     7
370
    15
100
AcDbLine
 10
108.1525542582
 20
128.0183249826
 30
0.0
 11
108.1525542582
 21
126.0183248876
 31
0.0
  0
LINE
  5
28A
330
1F
100
AcDbEntity
  8
0
  6
Continuous
 62
     7
370
    15
100
AcDbLine
 10
114.152553379
 20
126.0183248876
 30
0.0
 11
114.152553379
 21
128.0183249826
 31
0.0
  0
LINE
  5
28B
330
1F
100
AcDbEntity
  8
0
  6
Continuous
 62
     7
370
    15
100
AcDbLine
 10
50.1525540645
 20
138.7183247341
 30
0.0
 11
50.1525540645
 21
138.0183249919
 31
0.0
  0
LINE
  5
28C
330
1F
100
AcDbEntity
  8
0
  6
Continuous
 62
     7
370
    15
100
AcDbLine
 10
60.152553841
 20
138.0183249919
 30
0.0
 11
60.152553841
 21
138.7183247341
 31
0.0
  0
ARC
  5
28D
330
1F
100
AcDbEntity
  8
0
  6
Continuous
 62
     7
370
    15
100
AcDbCircle
 10
50.4525538857
 20
138.7183248876
 30
0.0
 40
0.3000000000000398
100
AcDbArc
 50
90.0
 51
180.0
  0
ARC
  5
28E
330
1F
100
AcDbEntity
  8
0
  6
Continuous
 62
     7
370
    15
100
AcDbCircle
 10
59.8525538857
 20
138.7183248876
 30
0.0
 40
0.3000000000000398
100
AcDbArc
 50
0.0
 51
90.0
  0
LINE
  5
28F
330
1F
100
AcDbEntity
  8
0
  6
Continuous
 62
     7
370
    15
100
AcDbLine
 10
52.1525543923
 20
128.0183249826
 30
0.0
 11
52.1525543923
 21
126.0183248876
 31
0.0
  0
LINE
  5
290
330
1F
100
AcDbEntity
  8
0
  6
Continuous
 62
     7
370
    15
100
AcDbLine
 10
58.1525535131
 20
126.0183248876
 30
0.0
 11
58.1525535131
 21
128.0183249826
 31
0.0
  0
ARC
  5
291
330
1F
100
AcDbEntity
  8
0
  6
Continuous
 62
     7
370
    15
100
AcDbCircle
 10
83.1525538857
 20
126.0183248876
 30
0.0
 40
40.00000000000001
100
AcDbArc
 50
3.8669060399
 51
17.4576031237
  0
LINE
  5
292
330
1F
100
AcDbEntity
  8
0
  6
Continuous
 62
     7
370
    15
100
AcDbLine
 10
99.2525544757
 20
128.715885591
 30
0.0
 11
123.0614882702
 21
128.715885591
 31
0.0
  0
LINE
  5
293
330
1F
100
AcDbEntity
  8
0
  6
Continuous
 62
     7
370
    15
100
AcDbLine
 10
99.2525544757
 20
128.715885591
 30
0.0
 11
99.2525544757
 21
138.0183249919
 31
0.0
  0
LINE
  5
294
330
1F
100
AcDbEntity
  8
0
  6
Continuous
 62
     7
370
    15
100
AcDbLine
 10
99.2525544757
 20
138.0183249919
 30
0.0
 11
121.3101212675
 21
138.0183249919
 31
0.0
  0
LINE
  5
295
330
1F
100
AcDbEntity
  8
0
  6
Continuous
 62
     7
370
    15
100
AcDbLine
 10
48.7189356978
 20
105.663327521
 30
0.0
 11
117.5861720736
 21
105.663327521
 31
0.0
  0
ARC
  5
296
330
1F
100
AcDbEntity
  8
0
  6
Continuous
 62
     7
370
    15
100
AcDbCircle
 10
83.1525538857
 20
126.0183248876
 30
0.0
 40
40.0
100
AcDbArc
 50
210.5889199956
 51
329.4110800044
  0
LINE
  5
297
330
1F
100
AcDbEntity
  8
0
  6
Continuous
 62
     7
370
    15
100
AcDbLine
 10
71.2525536115
 20
128.715885591
 30
0.0
 11
71.2525536115
 21
138.0183249919
 31
0.0
  0
LINE
  5
298
330
1F
100
AcDbEntity
  8
0
  6
Continuous
 62
     7
370
    15
100
AcDbLine
 10
71.2525536115
 20
128.715885591
 30
0.0
 11
95.0525541598
 21
128.715885591
 31
0.0
  0
LINE
  5
299
330
1F
100
AcDbEntity
  8
0
  6
Continuous
 62
     7
370
    15
100
AcDbLine
 10
95.0525541598
 20
128.715885591
 30
0.0
 11
95.0525541598
 21
138.0183249919
 31
0.0
  0
LINE
  5
29A
330
1F
100
AcDbEntity
  8
0
  6
Continuous
 62
     7
370
    15
100
AcDbLine
 10
71.2525536115
 20
138.0183249919
 30
0.0
 11
95.0525541598
 21
138.0183249919
 31
0.0
  0
LINE
  5
29B
330
1F
100
AcDbEntity
  8
0
  6
Continuous
 62
     7
370
    15
100
AcDbLine
 10
43.2436195011
 20
128.715885591
 30
0.0
 11
67.0525532956
 21
128.715885591
 31
0.0
  0
LINE
  5
29C
330
1F
100
AcDbEntity
  8
0
  6
Continuous
 62
     7
370
    15
100
AcDbLine
 10
67.0525532956
 20
128.715885591
 30
0.0
 11
67.0525532956
 21
138.0183249919
 31
0.0
  0
ARC
  5
29D
330
1F
100
AcDbEntity
  8
0
  6
Continuous
 62
     7
370
    15
100
AcDbCircle
 10
83.1525538857
 20
126.0183248876
 30
0.0
 40
40.00000000000001
100
AcDbArc
 50
162.5423968763
 51
176.1330939601
  0
LINE
  5
29E
330
1F
100
AcDbEntity
  8
0
  6
Continuous
 62
     7
370
    15
100
AcDbLine
 10
44.9949865038
 20
138.0183249919
 30
0.0
 11
67.0525532956
 21
138.0183249919
 31
0.0
  0
LINE
  5
29F
330
1F
100
AcDbEntity
  8
0
  6
Continuous
 62
     7
370
    15
100
AcDbLine
 10
123.1025223429
 20
128.0183249826
 30
0.0
 11
99.2525544757
 21
128.0183249826
 31
0.0
  0
LINE
  5
2A0
330
1F
100
AcDbEntity
  8
0
  6
Continuous
 62
     7
370
    15
100
AcDbLine
 10
99.2525544757
 20
128.0183249826
 30
0.0
 11
99.2525544757
 21
128.715885591
 31
0.0
  0
ARC
  5
2A1
330
1F
100
AcDbEntity
  8
0
  6
Continuous
 62
     7
370
    15
100
AcDbCircle
 10
83.1525538857
 20
126.0183248876
 30
0.0
 40
40.00000000000001
100
AcDbArc
 50
2.8659839826
 51
3.8669060399
  0
LINE
  5
2A2
330
1F
100
AcDbEntity
  8
0
  6
Continuous
 62
     7
370
    15
100
AcDbLine
 10
123.1525529916
 20
126.0183248876
 30
0.0
 11
43.1525547797
 21
126.0183248876
 31
0.0
  0
ARC
  5
2A3
330
1F
100
AcDbEntity
  8
0
  6
Continuous
 62
     7
370
    15
100
AcDbCircle
 10
83.1525538857
 20
126.0183248876
 30
0.0
 40
40.0
100
AcDbArc
 50
180.0
 51
210.5889199956
  0
ARC
  5
2A4
330
1F
100
AcDbEntity
  8
0
  6
Continuous
 62
     7
370
    15
100
AcDbCircle
 10
83.1525538857
 20
126.0183248876
 30
0.0
 40
40.0
100
AcDbArc
 50
329.4110800044
 51
0.0
  0
LINE
  5
2A5
330
1F
100
AcDbEntity
  8
0
  6
Continuous
 62
     7
370
    15
100
AcDbLine
 10
95.0525541598
 20
128.0183249826
 30
0.0
 11
71.2525536115
 21
128.0183249826
 31
0.0
  0
LINE
  5
2A6
330
1F
100
AcDbEntity
  8
0
  6
Continuous
 62
     7
370
    15
100
AcDbLine
 10
71.2525536115
 20
128.0183249826
 30
0.0
 11
71.2525536115
 21
128.715885591
 31
0.0
  0
LINE
  5
2A7
330
1F
100
AcDbEntity
  8
0
  6
Continuous
 62
     7
370
    15
100
AcDbLine
 10
95.0525541598
 20
128.715885591
 30
0.0
 11
95.0525541598
 21
128.0183249826
 31
0.0
  0
LINE
  5
2A8
330
1F
100
AcDbEntity
  8
0
  6
Continuous
 62
     7
370
    15
100
AcDbLine
 10
67.0525532956
 20
128.0183249826
 30
0.0
 11
43.2025854284
 21
128.0183249826
 31
0.0
  0
LINE
  5
2A9
330
1F
100
AcDbEntity
  8
0
  6
Continuous
 62
     7
370
    15
100
AcDbLine
 10
67.0525532956
 20
128.715885591
 30
0.0
 11
67.0525532956
 21
128.0183249826
 31
0.0
  0
ARC
  5
2AA
330
1F
100
AcDbEntity
  8
0
  6
Continuous
 62
     7
370
    15
100
AcDbCircle
 10
83.1525538857
 20
126.0183248876
 30
0.0
 40
40.00000000000001
100
AcDbArc
 50
176.1330939601
 51
177.1340160174
  0
SPLINE
  5
2AB
330
1F
100
AcDbEntity
  8
0
  6
Continuous
 62
     7
370
    15
100
AcDbSpline
210
0.0
220
0.0
230
1.0
 70
     8
 71
     3
 72
    32
 73
    28
 74
     0
 42
0.00000001
 43
0.00000001
 12
1.0
 22
0.0
 32
0.0
 13
1.0
 23
0.0
 33
0.0
 40
-0.0625
 40
-0.0625
 40
0.0
 40
0.0
 40
0.0624999999999998
 40
0.0624999999999998
 40
0.1249999999999996
 40
0.1249999999999996
 40
0.2499999999999992
 40
0.2499999999999992
 40
0.3124999999999992
 40
0.3124999999999992
 40
0.3749999999999991
 40
0.3749999999999991
 40
0.4374999999999991
 40
0.4374999999999991
 40
0.499999999999999
 40
0.499999999999999
 40
0.562499999999999
 40
0.562499999999999
 40
0.624999999999999
 40
0.624999999999999
 40
0.7499999999999994
 40
0.7499999999999994
 40
0.875
 40
0.875
 40
0.9375
 40
0.9375
 40
1.0
 40
1.0
 40
1.0625
 40
1.0625
 10
97.05392417824159
 20
128.1876625013323
 30
0.0
 10
97.25118359306879
 20
128.1876625013323
 30
0.0
 10
97.34680401129671
 20
128.2167079953807
 30
0.0
 10
97.51180775611817
 20
128.3164580710923
 30
0.0
 10
97.58138820077986
 20
128.3868074894571
 30
0.0
 10
97.74323463117103
 20
128.6263307667573
 30
0.0
 10
97.79267076291032
 20
128.8233230235821
 30
0.0
 10
97.79296323262767
 20
129.1141354223993
 30
0.0
 10
97.78038750915255
 20
129.2120343050479
 30
0.0
 10
97.72957509243358
 20
129.3973749567348
 30
0.0
 10
97.69039008706294
 20
129.4879187134923
 30
0.0
 10
97.58332518394839
 20
129.6475658325907
 30
0.0
 10
97.51411177879807
 20
129.718303142885
 30
0.0
 10
97.3488207605151
 20
129.8192055168459
 30
0.0
 10
97.25226771676012
 20
129.8485773013221
 30
0.0
 10
97.05710447484635
 20
129.8493883852305
 30
0.0
 10
96.96059024249352
 20
129.82105334314
 30
0.0
 10
96.79337013667467
 20
129.7205009938103
 30
0.0
 10
96.7236790121004
 20
129.6497672873451
 30
0.0
 10
96.562068347645
 20
129.4106378370319
 30
0.0
 10
96.51235863805394
 20
129.2133692998891
 30
0.0
 10
96.51212469159968
 20
128.8246291801996
 30
0.0
 10
96.5605558807026
 20
128.6289205443742
 30
0.0
 10
96.72317436649992
 20
128.3872977424204
 30
0.0
 10
96.7925167875833
 20
128.3170795896679
 30
0.0
 10
96.95778213386515
 20
128.2168764667661
 30
0.0
 10
97.05392417824159
 20
128.1876625013323
 30
0.0
 10
97.25118359306879
 20
128.1876625013323
 30
0.0
  0
LINE
  5
2AC
330
1F
100
AcDbEntity
  8
0
  6
Continuous
 62
     7
370
    15
100
AcDbLine
 10
99.2525544757
 20
128.0183249826
 30
0.0
 11
95.0525541598
 21
128.0183249826
 31
0.0
  0
LINE
  5
2AD
330
1F
100
AcDbEntity
  8
0
  6
Continuous
 62
     7
370
    15
100
AcDbLine
 10
99.2525544757
 20
138.0183249919
 30
0.0
 11
95.0525541598
 21
138.0183249919
 31
0.0
  0
SPLINE
  5
2AE
330
1F
100
AcDbEntity
  8
0
  6
Continuous
 62
     7
370
    15
100
AcDbSpline
210
0.0
220
0.0
230
1.0
 70
     8
 71
     3
 72
    32
 73
    28
 74
     0
 42
0.00000001
 43
0.00000001
 12
1.0
 22
0.0
 32
0.0
 13
1.0
 23
0.0
 33
0.0
 40
-0.0625000000000003
 40
-0.0625000000000003
 40
0.0
 40
0.0
 40
0.0625000000000007
 40
0.0625000000000007
 40
0.1250000000000014
 40
0.1250000000000014
 40
0.2500000000000013
 40
0.2500000000000013
 40
0.3125000000000011
 40
0.3125000000000011
 40
0.3750000000000008
 40
0.3750000000000008
 40
0.4375000000000007
 40
0.4375000000000007
 40
0.5000000000000004
 40
0.5000000000000004
 40
0.5625000000000002
 40
0.5625000000000002
 40
0.625
 40
0.625
 40
0.7499999999999997
 40
0.7499999999999997
 40
0.8749999999999993
 40
0.8749999999999993
 40
0.9374999999999997
 40
0.9374999999999997
 40
1.0
 40
1.0
 40
1.062500000000001
 40
1.062500000000001
 10
69.05392417824159
 20
128.1876625013324
 30
0.0
 10
69.2511835930688
 20
128.1876625013324
 30
0.0
 10
69.34680401129671
 20
128.2167079953807
 30
0.0
 10
69.51180775611816
 20
128.3164580710923
 30
0.0
 10
69.58138820077983
 20
128.3868074894571
 30
0.0
 10
69.743234631171
 20
128.6263307667573
 30
0.0
 10
69.79267076291028
 20
128.8233230235821
 30
0.0
 10
69.79296323262764
 20
129.1141354223993
 30
0.0
 10
69.78038750915252
 20
129.2120343050479
 30
0.0
 10
69.72957509243355
 20
129.3973749567348
 30
0.0
 10
69.69039008706292
 20
129.4879187134922
 30
0.0
 10
69.58332518394836
 20
129.6475658325907
 30
0.0
 10
69.51411177879804
 20
129.718303142885
 30
0.0
 10
69.34882076051507
 20
129.8192055168459
 30
0.0
 10
69.2522677167601
 20
129.8485773013221
 30
0.0
 10
69.05710447484635
 20
129.8493883852304
 30
0.0
 10
68.96059024249354
 20
129.82105334314
 30
0.0
 10
68.79337013667467
 20
129.7205009938103
 30
0.0
 10
68.72367901210042
 20
129.6497672873451
 30
0.0
 10
68.56206834764501
 20
129.4106378370319
 30
0.0
 10
68.51235863805394
 20
129.2133692998891
 30
0.0
 10
68.5121246915997
 20
128.8246291801996
 30
0.0
 10
68.56055588070261
 20
128.6289205443742
 30
0.0
 10
68.72317436649993
 20
128.3872977424204
 30
0.0
 10
68.79251678758331
 20
128.3170795896679
 30
0.0
 10
68.95778213386515
 20
128.2168764667662
 30
0.0
 10
69.05392417824159
 20
128.1876625013324
 30
0.0
 10
69.2511835930688
 20
128.1876625013324
 30
0.0
  0
LINE
  5
2AF
330
1F
100
AcDbEntity
  8
0
  6
Continuous
 62
     7
370
    15
100
AcDbLine
 10
71.2525536115
 20
128.0183249826
 30
0.0
 11
67.0525532956
 21
128.0183249826
 31
0.0
  0
LINE
  5
2B0
330
1F
100
AcDbEntity
  8
0
  6
Continuous
 62
     7
370
    15
100
AcDbLine
 10
71.2525536115
 20
138.0183249919
 30
0.0
 11
67.0525532956
 21
138.0183249919
 31
0.0
  0
SPLINE
  5
2B1
330
1F
100
AcDbEntity
  8
0
  6
Continuous
 62
     7
370
    15
100
AcDbSpline
210
0.0
220
0.0
230
1.0
 70
     8
 71
     3
 72
    10
 73
     6
 74
     0
 42
0.00000001
 43
0.00000001
 12
1.0
 22
0.0
 32
0.0
 13
1.0
 23
0.0
 33
0.0
 40
0.0
 40
0.0
 40
0.0
 40
0.0
 40
0.456427395516829
 40
0.912877778006509
 40
0.9999999999999999
 40
0.9999999999999999
 40
0.9999999999999999
 40
0.9999999999999999
 10
123.1525529915855
 20
126.0183248876242
 30
0.0
 10
123.1510553536774
 20
126.255134446968
 30
0.0
 10
123.1480600024359
 20
126.7287654920538
 30
0.0
 10
123.1324386977383
 20
127.4851391846992
 30
0.0
 10
123.1044427294998
 20
127.9446723545966
 30
0.0
 10
123.0999556178615
 20
128.018324982619
 30
0.0
  0
SPLINE
  5
2B2
330
1F
100
AcDbEntity
  8
0
  6
Continuous
 62
     7
370
    15
100
AcDbSpline
210
0.0
220
0.0
230
1.0
 70
     8
 71
     3
 72
    10
 73
     6
 74
     0
 42
0.00000001
 43
0.00000001
 12
1.0
 22
0.0
 32
0.0
 13
1.0
 23
0.0
 33
0.0
 40
0.0
 40
0.0
 40
0.0
 40
0.0
 40
0.3400478331950023
 40
0.7968009439111708
 40
0.9999999999999999
 40
0.9999999999999999
 40
0.9999999999999999
 40
0.9999999999999999
 10
43.20546135254361
 20
128.018324982619
 30
0.0
 10
43.19218622263411
 20
127.7401963836769
 30
0.0
 10
43.161079904611
 20
127.0884847462772
 30
0.0
 10
43.15360365538768
 20
126.4284652895827
 30
0.0
 10
43.15280170116688
 20
126.1148782381048
 30
0.0
 10
43.15255477972485
 20
126.0183248876242
 30
0.0
  0
CIRCLE
  5
2B3
330
1F
100
AcDbEntity
  8
0
  6
Continuous
 62
     7
370
    15
100
AcDbCircle
 10
69.1525538857
 20
155.0183248876
 30
0.0
 40
3.200000000000017
  0
ARC
  5
2B4
330
1F
100
AcDbEntity
  8
0
  6
Continuous
 62
     7
370
    15
100
AcDbCircle
 10
83.1525538857
 20
126.0183248876
 30
0.0
 40
40.00000000000001
100
AcDbArc
 50
17.4576031237
 51
162.5423968763
  0
CIRCLE
  5
2B5
330
1F
100
AcDbEntity
  8
0
  6
Continuous
 62
     7
370
    15
100
AcDbCircle
 10
69.1525538857
 20
155.0183248876
 30
0.0
 40
3.309499999999986
  0
LINE
  5
2B6
330
1F
100
AcDbEntity
  8
0
  6
Continuous
 62
     7
370
    15
100
AcDbLine
 10
70.5600817496
 20
156.8492260038
 30
0.0
 11
68.270711116
 21
157.1527309923
 31
0.0
  0
LINE
  5
2B7
330
1F
100
AcDbEntity
  8
0
  6
Continuous
 62
     7
370
    15
100
AcDbLine
 10
66.8631837512
 20
155.3218290417
 30
0.0
 11
68.270711116
 21
157.1527309923
 31
0.0
  0
LINE
  5
2B8
330
1F
100
AcDbEntity
  8
0
  6
Continuous
 62
     7
370
    15
100
AcDbLine
 10
67.7450260887
 20
153.1874239652
 30
0.0
 11
66.8631837512
 21
155.3218290417
 31
0.0
  0
LINE
  5
2B9
330
1F
100
AcDbEntity
  8
0
  6
Continuous
 62
     7
370
    15
100
AcDbLine
 10
67.7450260887
 20
153.1874239652
 30
0.0
 11
70.0343967224
 21
152.8839189767
 31
0.0
  0
LINE
  5
2BA
330
1F
100
AcDbEntity
  8
0
  6
Continuous
 62
     7
370
    15
100
AcDbLine
 10
71.4419250185
 20
154.7148209273
 30
0.0
 11
70.0343967224
 21
152.8839189767
 31
0.0
  0
LINE
  5
2BB
330
1F
100
AcDbEntity
  8
0
  6
Continuous
 62
     7
370
    15
100
AcDbLine
 10
71.4419250185
 20
154.7148209273
 30
0.0
 11
70.5600817496
 21
156.8492260038
 31
0.0
  0
SPLINE
  5
2BC
330
1F
100
AcDbEntity
  8
0
  6
Continuous
 62
     7
370
    15
100
AcDbSpline
210
0.0
220
0.0
230
1.0
 70
     8
 71
     3
 72
    10
 73
     6
 74
     0
 42
0.00000001
 43
0.00000001
 12
1.0
 22
0.0
 32
0.0
 13
1.0
 23
0.0
 33
0.0
 40
0.0
 40
0.0
 40
0.0
 40
0.0
 40
0.3854631977860125
 40
0.776588135907348
 40
1.0
 40
1.0
 40
1.0
 40
1.0
 10
102.5120624149606
 20
151.3406001238731
 30
0.0
 10
102.7890521955285
 20
151.7442535282817
 30
0.0
 10
103.3471002234389
 20
152.5574892578734
 30
0.0
 10
104.0549293960975
 20
153.5890026761133
 30
0.0
 10
104.4806346997081
 20
154.2093789972983
 30
0.0
 10
104.6353977913425
 20
154.4349137900976
 30
0.0
  0
ARC
  5
2BD
330
1F
100
AcDbEntity
  8
0
  6
Continuous
 62
     7
370
    15
100
AcDbCircle
 10
97.1525538857
 20
155.0183248876
 30
0.0
 40
6.500000000000002
100
AcDbArc
 50
325.5418713137
 51
25.5418713137
  0
SPLINE
  5
2BE
330
1F
100
AcDbEntity
  8
0
  6
Continuous
 62
     7
370
    15
100
AcDbSpline
210
0.0
220
0.0
230
1.0
 70
     8
 71
     3
 72
     9
 73
     5
 74
     0
 42
0.00000001
 43
0.00000001
 12
1.0
 22
0.0
 32
0.0
 13
1.0
 23
0.0
 33
0.0
 40
0.0
 40
0.0
 40
0.0
 40
0.0
 40
0.4954579267993661
 40
1.0
 40
1.0
 40
1.0
 40
1.0
 10
104.6353977913425
 20
154.4349137900976
 30
0.0
 10
104.3726137326378
 20
154.9848184263876
 30
0.0
 10
103.8422275091248
 20
156.0947101175801
 30
0.0
 10
103.2939443061833
 20
157.2420521319152
 30
0.0
 10
103.0173123622701
 20
157.820934450498
 30
0.0
  0
ARC
  5
2BF
330
1F
100
AcDbEntity
  8
0
  6
Continuous
 62
     7
370
    15
100
AcDbCircle
 10
97.1525538857
 20
155.0183248876
 30
0.0
 40
6.499999999999999
100
AcDbArc
 50
205.5418713137
 51
265.5418713137
  0
ARC
  5
2C0
330
1F
100
AcDbEntity
  8
0
  6
Continuous
 62
     7
370
    15
100
AcDbCircle
 10
97.1525538857
 20
155.0183248876
 30
0.0
 40
6.500000000000002
100
AcDbArc
 50
145.5418713137
 51
205.5418713137
  0
ARC
  5
2C1
330
1F
100
AcDbEntity
  8
0
  6
Continuous
 62
     7
370
    15
100
AcDbCircle
 10
97.1525538857
 20
155.0183248876
 30
0.0
 40
6.500000000000009
100
AcDbArc
 50
85.5418713137
 51
145.5418713137
  0
ARC
  5
2C2
330
1F
100
AcDbEntity
  8
0
  6
Continuous
 62
     7
370
    15
100
AcDbCircle
 10
97.1525538857
 20
155.0183248876
 30
0.0
 40
6.500000000000009
100
AcDbArc
 50
25.5418713137
 51
85.5418713137
  0
ARC
  5
2C3
330
1F
100
AcDbEntity
  8
0
  6
Continuous
 62
     7
370
    15
100
AcDbCircle
 10
97.1525538857
 20
155.0183248876
 30
0.0
 40
6.500000000000002
100
AcDbArc
 50
265.5418713137
 51
325.5418713137
  0
SPLINE
  5
2C4
330
1F
100
AcDbEntity
  8
0
  6
Continuous
 62
     7
370
    15
100
AcDbSpline
210
0.0
220
0.0
230
1.0
 70
     8
 71
     3
 72
     9
 73
     5
 74
     0
 42
0.00000001
 43
0.00000001
 12
1.0
 22
0.0
 32
0.0
 13
1.0
 23
0.0
 33
0.0
 40
0.0
 40
0.0
 40
0.0
 40
0.0
 40
0.4954580832588379
 40
0.9999999999999999
 40
0.9999999999999999
 40
0.9999999999999999
 40
0.9999999999999999
 10
101.3992250705526
 20
161.2069513856081
 30
0.0
 10
100.7916014609275
 20
161.2543264907977
 30
0.0
 10
99.5652139416676
 20
161.3499452863939
 30
0.0
 10
98.29744498289651
 20
161.448789296242
 30
0.0
 10
97.6578024024532
 20
161.4986602424291
 30
0.0
  0
SPLINE
  5
2C5
330
1F
100
AcDbEntity
  8
0
  6
Continuous
 62
     7
370
    15
100
AcDbSpline
210
0.0
220
0.0
230
1.0
 70
     8
 71
     3
 72
    10
 73
     6
 74
     0
 42
0.00000001
 43
0.00000001
 12
1.0
 22
0.0
 32
0.0
 13
1.0
 23
0.0
 33
0.0
 40
0.0
 40
0.0
 40
0.0
 40
0.0
 40
0.0700764707053946
 40
0.530777680490851
 40
1.0
 40
1.0
 40
1.0
 40
1.0
 10
103.0173123622701
 20
157.820934450498
 30
0.0
 10
102.9789654942684
 20
157.9011782001725
 30
0.0
 10
102.6885161972762
 20
158.5089655344575
 30
0.0
 10
102.1408896819478
 20
159.6549386591001
 30
0.0
 10
101.6479522418866
 20
160.6864631090911
 30
0.0
 10
101.3992250705526
 20
161.2069513856081
 30
0.0
  0
SPLINE
  5
2C6
330
1F
100
AcDbEntity
  8
0
  6
Continuous
 62
     7
370
    15
100
AcDbSpline
210
0.0
220
0.0
230
1.0
 70
     8
 71
     3
 72
    10
 73
     6
 74
     0
 42
0.00000001
 43
0.00000001
 12
1.0
 22
0.0
 32
0.0
 13
1.0
 23
0.0
 33
0.0
 40
0.0
 40
0.0
 40
0.0
 40
0.0
 40
0.0700770641920491
 40
0.5307777215542442
 40
0.9999999999999999
 40
0.9999999999999999
 40
0.9999999999999999
 40
0.9999999999999999
 10
96.64730530180194
 20
148.5379915891794
 30
0.0
 10
96.73597259076192
 20
148.5310782857774
 30
0.0
 10
97.40755639857663
 20
148.478715540984
 30
0.0
 10
98.67381240244151
 20
148.379993117166
 30
0.0
 10
99.81360721205132
 20
148.2911267950082
 30
0.0
 10
100.3887270385788
 20
148.2462864576486
 30
0.0
  0
SPLINE
  5
2C7
330
1F
100
AcDbEntity
  8
0
  6
Continuous
 62
     7
370
    15
100
AcDbSpline
210
0.0
220
0.0
230
1.0
 70
     8
 71
     3
 72
    10
 73
     6
 74
     0
 42
0.00000001
 43
0.00000001
 12
1.0
 22
0.0
 32
0.0
 13
1.0
 23
0.0
 33
0.0
 40
0.0
 40
0.0
 40
0.0
 40
0.0
 40
0.3774422992739522
 40
0.7583799586972563
 40
1.0
 40
1.0
 40
1.0
 40
1.0
 10
100.3887270385788
 20
148.2462864576486
 30
0.0
 10
100.6509097938087
 20
148.6283620350644
 30
0.0
 10
101.1777032863898
 20
149.3960514572016
 30
0.0
 10
101.8912632006713
 20
150.4359139875811
 30
0.0
 10
102.3384898678997
 20
151.0876541256301
 30
0.0
 10
102.5120624149606
 20
151.3406001238731
 30
0.0
  0
SPLINE
  5
2C8
330
1F
100
AcDbEntity
  8
0
  6
Continuous
 62
     7
370
    15
100
AcDbSpline
210
0.0
220
0.0
230
1.0
 70
     8
 71
     3
 72
    10
 73
     6
 74
     0
 42
0.00000001
 43
0.00000001
 12
1.0
 22
0.0
 32
0.0
 13
1.0
 23
0.0
 33
0.0
 40
0.0
 40
0.0
 40
0.0
 40
0.0
 40
0.2234128467912723
 40
0.6092011947869599
 40
1.0
 40
1.0
 40
1.0
 40
1.0
 10
93.9163797343538
 20
161.7903653739599
 30
0.0
 10
93.7616158273179
 20
161.5648291795633
 30
0.0
 10
93.33960626775011
 20
160.9498380496107
 30
0.0
 10
92.63192624859477
 20
159.9185426840321
 30
0.0
 10
92.07387182399138
 20
159.1052964506309
 30
0.0
 10
91.79304435797192
 20
158.6960498450903
 30
0.0
  0
SPLINE
  5
2C9
330
1F
100
AcDbEntity
  8
0
  6
Continuous
 62
     7
370
    15
100
AcDbSpline
210
0.0
220
0.0
230
1.0
 70
     8
 71
     3
 72
    10
 73
     6
 74
     0
 42
0.00000001
 43
0.00000001
 12
1.0
 22
0.0
 32
0.0
 13
1.0
 23
0.0
 33
0.0
 40
0.0
 40
0.0
 40
0.0
 40
0.0
 40
0.070077009540901
 40
0.5307775954071337
 40
0.9999999999999999
 40
0.9999999999999999
 40
0.9999999999999999
 40
0.9999999999999999
 10
97.6578024024532
 20
161.4986602424291
 30
0.0
 10
97.5691351092069
 20
161.5055728705782
 30
0.0
 10
96.89755090478866
 20
161.5579305292588
 30
0.0
 10
95.63129524156072
 20
161.6566610242345
 30
0.0
 10
94.49149993330592
 20
161.7455258049598
 30
0.0
 10
93.9163797343538
 20
161.7903653739599
 30
0.0
  0
SPLINE
  5
2CA
330
1F
100
AcDbEntity
  8
0
  6
Continuous
 62
     7
370
    15
100
AcDbSpline
210
0.0
220
0.0
230
1.0
 70
     8
 71
     3
 72
     9
 73
     5
 74
     0
 42
0.00000001
 43
0.00000001
 12
1.0
 22
0.0
 32
0.0
 13
1.0
 23
0.0
 33
0.0
 40
0.0
 40
0.0
 40
0.0
 40
0.0
 40
0.4954579785708796
 40
1.0
 40
1.0
 40
1.0
 40
1.0
 10
89.66970898159005
 20
155.6017361788658
 30
0.0
 10
89.93249356953987
 20
155.0518315719009
 30
0.0
 10
90.46288080582542
 20
153.9419400558716
 30
0.0
 10
91.01116424073977
 20
152.7945978661424
 30
0.0
 10
91.28779627330758
 20
152.2157155184654
 30
0.0
  0
SPLINE
  5
2CB
330
1F
100
AcDbEntity
  8
0
  6
Continuous
 62
     7
370
    15
100
AcDbSpline
210
0.0
220
0.0
230
1.0
 70
     8
 71
     3
 72
    10
 73
     6
 74
     0
 42
0.00000001
 43
0.00000001
 12
1.0
 22
0.0
 32
0.0
 13
1.0
 23
0.0
 33
0.0
 40
0.0
 40
0.0
 40
0.0
 40
0.0
 40
0.2416192342028418
 40
0.6187322548611073
 40
1.0
 40
1.0
 40
1.0
 40
1.0
 10
91.79304435797192
 20
158.6960498450903
 30
0.0
 10
91.61947171763076
 20
158.4431045240404
 30
0.0
 10
91.17499141168655
 20
157.7953687203654
 30
0.0
 10
90.46140215392545
 20
156.7554606617406
 30
0.0
 10
89.93456877630891
 20
155.9877130198621
 30
0.0
 10
89.66970898159005
 20
155.6017361788658
 30
0.0
  0
SPLINE
  5
2CC
330
1F
100
AcDbEntity
  8
0
  6
Continuous
 62
     7
370
    15
100
AcDbSpline
210
0.0
220
0.0
230
1.0
 70
     8
 71
     3
 72
    10
 73
     6
 74
     0
 42
0.00000001
 43
0.00000001
 12
1.0
 22
0.0
 32
0.0
 13
1.0
 23
0.0
 33
0.0
 40
0.0
 40
0.0
 40
0.0
 40
0.0
 40
0.0700767832056429
 40
0.5307777343315387
 40
1.0
 40
1.0
 40
1.0
 40
1.0
 10
91.28779627330758
 20
152.2157155184654
 30
0.0
 10
91.32614279855878
 20
152.1354711324448
 30
0.0
 10
91.61658823371219
 20
151.5276816270407
 30
0.0
 10
92.16421789065673
 20
150.3817095503042
 30
0.0
 10
92.65715538163307
 20
149.3501851083557
 30
0.0
 10
92.90588263370253
 20
148.8296967207102
 30
0.0
  0
SPLINE
  5
2CD
330
1F
100
AcDbEntity
  8
0
  6
Continuous
 62
     7
370
    15
100
AcDbSpline
210
0.0
220
0.0
230
1.0
 70
     8
 71
     3
 72
     9
 73
     5
 74
     0
 42
0.00000001
 43
0.00000001
 12
1.0
 22
0.0
 32
0.0
 13
1.0
 23
0.0
 33
0.0
 40
0.0
 40
0.0
 40
0.0
 40
0.0
 40
0.4954580833328222
 40
1.0
 40
1.0
 40
1.0
 40
1.0
 10
92.90588263370253
 20
148.8296967207102
 30
0.0
 10
93.51350624328131
 20
148.7823222391751
 30
0.0
 10
94.73989376226464
 20
148.6867047023365
 30
0.0
 10
96.00766272131268
 20
148.5878619173601
 30
0.0
 10
96.64730530180194
 20
148.5379915891794
 30
0.0
  0
LINE
  5
2CE
330
1F
100
AcDbEntity
  8
0
  6
Continuous
 62
     7
370
    15
100
AcDbLine
 10
78.4525539535
 20
139.0183251558
 30
0.0
 11
87.8525538179
 21
139.0183251558
 31
0.0
  0
LINE
  5
2CF
330
1F
100
AcDbEntity
  8
0
  6
Continuous
 62
     7
370
    15
100
AcDbLine
 10
106.4525534207
 20
139.0183251558
 30
0.0
 11
115.8525523538
 21
139.0183251558
 31
0.0
  0
LINE
  5
2D0
330
1F
100
AcDbEntity
  8
0
  6
Continuous
 62
     7
370
    15
100
AcDbLine
 10
50.4525554175
 20
139.0183251558
 30
0.0
 11
59.8525543506
 21
139.0183251558
 31
0.0
  0
LINE
  5
2D1
330
1F
100
AcDbEntity
  8
0
  6
Continuous
 62
     8
370
    15
100
AcDbLine
 10
88.1525537739
 20
138.7183247341
 30
0.0
 11
78.1525539974
 21
138.7183247341
 31
0.0
  0
LINE
  5
2D2
330
1F
100
AcDbEntity
  8
0
  6
Continuous
 62
     8
370
    15
100
AcDbLine
 10
116.1525537068
 20
138.7183247341
 30
0.0
 11
106.1525539304
 21
138.7183247341
 31
0.0
  0
LINE
  5
2D3
330
1F
100
AcDbEntity
  8
0
  6
Continuous
 62
     8
370
    15
100
AcDbLine
 10
60.152553841
 20
138.7183247341
 30
0.0
 11
50.1525540645
 21
138.7183247341
 31
0.0
  0
DIMENSION
  5
2D4
330
1F
100
AcDbEntity
  8
VERMASSUNG
100
AcDbDimension
  2
_D_5
 10
54.8682826382
 20
97.7340536402
 30
0.0
 11
48.8856827136
 21
91.7514537156
 31
0.0
 70
   160
  1
%%c<>
 71
     2
 42
-1.0
  3
SLDDIMSTYLE1
100
AcDbAlignedDimension
 13
111.4368251331
 23
154.3025961351
 33
0.0
 14
54.8682826382
 24
97.7340536402
 34
0.0
 50
45.0
100
AcDbRotatedDimension
  0
INSERT
  5
2ED
330
1F
100
AcDbEntity
  8
VERMASSUNG
100
AcDbBlockReference
  2
SW_CENTERMARKSYMBOL_0
 10
83.1525538857
 20
126.0183248876
 30
0.0
  0
OLE2FRAME
  5
2EE
330
1F
100
AcDbEntity
  8
0
100
AcDbOle2Frame
 70
     2
  3
Paintbrush-Bild
 10
13.8511154363
 20
38.264191557
 30
0.0
 11
51.6290888628
 21
31.9806341108
 31
0.0
 71
     2
 72
     0
 73
     1
 90
    12928
310
80552BED0767C5B32B40DDAF6807D121434000000000000000006FFBDDFB85D0
310
4940DDAF6807D121434000000000000000006FFBDDFB85D04940416F4BD60AFB
310
3F4000000000000000002BED0767C5B32B40416F4BD60AFB3F40000000000000
310
0000000000000100000000010000010000000100000000000100000000320000
310
D0CF11E0A1B11AE1000000000000000000000000000000003E000300FEFF0900
310
0600000000000000000000000100000001000000000000000010000002000000
310
01000000FEFFFFFF0000000000000000FFFFFFFFFFFFFFFFFFFFFFFFFFFFFFFF
310
FFFFFFFFFFFFFFFFFFFFFFFFFFFFFFFFFFFFFFFFFFFFFFFFFFFFFFFFFFFFFFFF
310
FFFFFFFFFFFFFFFFFFFFFFFFFFFFFFFFFFFFFFFFFFFFFFFFFFFFFFFFFFFFFFFF
310
FFFFFFFFFFFFFFFFFFFFFFFFFFFFFFFFFFFFFFFFFFFFFFFFFFFFFFFFFFFFFFFF
310
FFFFFFFFFFFFFFFFFFFFFFFFFFFFFFFFFFFFFFFFFFFFFFFFFFFFFFFFFFFFFFFF
310
FFFFFFFFFFFFFFFFFFFFFFFFFFFFFFFFFFFFFFFFFFFFFFFFFFFFFFFFFFFFFFFF
310
FFFFFFFFFFFFFFFFFFFFFFFFFFFFFFFFFFFFFFFFFFFFFFFFFFFFFFFFFFFFFFFF
310
FFFFFFFFFFFFFFFFFFFFFFFFFFFFFFFFFFFFFFFFFFFFFFFFFFFFFFFFFFFFFFFF
310
FFFFFFFFFFFFFFFFFFFFFFFFFFFFFFFFFFFFFFFFFFFFFFFFFFFFFFFFFFFFFFFF
310
FFFFFFFFFFFFFFFFFFFFFFFFFFFFFFFFFFFFFFFFFFFFFFFFFFFFFFFFFFFFFFFF
310
FFFFFFFFFFFFFFFFFFFFFFFFFFFFFFFFFFFFFFFFFFFFFFFFFFFFFFFFFFFFFFFF
310
FFFFFFFFFFFFFFFFFFFFFFFFFFFFFFFFFFFFFFFFFFFFFFFFFFFFFFFFFFFFFFFF
310
FFFFFFFFFFFFFFFFFFFFFFFFFFFFFFFFFFFFFFFFFFFFFFFFFFFFFFFFFFFFFFFF
310
FFFFFFFFFFFFFFFFFFFFFFFFFFFFFFFFFFFFFFFFFFFFFFFFFFFFFFFFFFFFFFFF
310
FDFFFFFFFEFFFFFFFEFFFFFFFEFFFFFF05000000060000000700000008000000
310
090000000A0000000B0000000C0000000D0000000E0000000F00000010000000
310
11000000120000001300000014000000150000001600000017000000FEFFFFFF
310
FFFFFFFFFFFFFFFFFFFFFFFFFFFFFFFFFFFFFFFFFFFFFFFFFFFFFFFFFFFFFFFF
310
FFFFFFFFFFFFFFFFFFFFFFFFFFFFFFFFFFFFFFFFFFFFFFFFFFFFFFFFFFFFFFFF
310
FFFFFFFFFFFFFFFFFFFFFFFFFFFFFFFFFFFFFFFFFFFFFFFFFFFFFFFFFFFFFFFF
310
FFFFFFFFFFFFFFFFFFFFFFFFFFFFFFFFFFFFFFFFFFFFFFFFFFFFFFFFFFFFFFFF
310
FFFFFFFFFFFFFFFFFFFFFFFFFFFFFFFFFFFFFFFFFFFFFFFFFFFFFFFFFFFFFFFF
310
FFFFFFFFFFFFFFFFFFFFFFFFFFFFFFFFFFFFFFFFFFFFFFFFFFFFFFFFFFFFFFFF
310
FFFFFFFFFFFFFFFFFFFFFFFFFFFFFFFFFFFFFFFFFFFFFFFFFFFFFFFFFFFFFFFF
310
FFFFFFFFFFFFFFFFFFFFFFFFFFFFFFFFFFFFFFFFFFFFFFFFFFFFFFFFFFFFFFFF
310
FFFFFFFFFFFFFFFFFFFFFFFFFFFFFFFFFFFFFFFFFFFFFFFFFFFFFFFFFFFFFFFF
310
FFFFFFFFFFFFFFFFFFFFFFFFFFFFFFFFFFFFFFFFFFFFFFFFFFFFFFFFFFFFFFFF
310
FFFFFFFFFFFFFFFFFFFFFFFFFFFFFFFFFFFFFFFFFFFFFFFFFFFFFFFFFFFFFFFF
310
FFFFFFFFFFFFFFFFFFFFFFFFFFFFFFFFFFFFFFFFFFFFFFFFFFFFFFFFFFFFFFFF
310
FFFFFFFFFFFFFFFFFFFFFFFFFFFFFFFFFFFFFFFFFFFFFFFFFFFFFFFFFFFFFFFF
310
52006F006F007400200045006E00740072007900000000000000000000000000
310
0000000000000000000000000000000000000000000000000000000000000000
310
16000500FFFFFFFFFFFFFFFF020000000A00030000000000C000000000000046
310
000000000000000000000000C0B310BD604DCD0103000000C000000000000000
310
01004F006C006500000000000000000000000000000000000000000000000000
310
0000000000000000000000000000000000000000000000000000000000000000
310
0A000200FFFFFFFFFFFFFFFFFFFFFFFF00000000000000000000000000000000
310
0000000000000000000000000000000000000000000000001400000000000000
310
010043006F006D0070004F0062006A0000000000000000000000000000000000
310
0000000000000000000000000000000000000000000000000000000000000000
310
120002010100000003000000FFFFFFFF00000000000000000000000000000000
310
0000000000000000000000000000000000000000010000004D00000000000000
310
01004F006C006500310030004E00610074006900760065000000000000000000
310
0000000000000000000000000000000000000000000000000000000000000000
310
1A000200FFFFFFFFFFFFFFFFFFFFFFFF00000000000000000000000000000000
310
0000000000000000000000000000000000000000040000002426000000000000
310
FEFFFFFF02000000FEFFFFFFFFFFFFFFFFFFFFFFFFFFFFFFFFFFFFFFFFFFFFFF
310
FFFFFFFFFFFFFFFFFFFFFFFFFFFFFFFFFFFFFFFFFFFFFFFFFFFFFFFFFFFFFFFF
310
FFFFFFFFFFFFFFFFFFFFFFFFFFFFFFFFFFFFFFFFFFFFFFFFFFFFFFFFFFFFFFFF
310
FFFFFFFFFFFFFFFFFFFFFFFFFFFFFFFFFFFFFFFFFFFFFFFFFFFFFFFFFFFFFFFF
310
FFFFFFFFFFFFFFFFFFFFFFFFFFFFFFFFFFFFFFFFFFFFFFFFFFFFFFFFFFFFFFFF
310
FFFFFFFFFFFFFFFFFFFFFFFFFFFFFFFFFFFFFFFFFFFFFFFFFFFFFFFFFFFFFFFF
310
FFFFFFFFFFFFFFFFFFFFFFFFFFFFFFFFFFFFFFFFFFFFFFFFFFFFFFFFFFFFFFFF
310
FFFFFFFFFFFFFFFFFFFFFFFFFFFFFFFFFFFFFFFFFFFFFFFFFFFFFFFFFFFFFFFF
310
FFFFFFFFFFFFFFFFFFFFFFFFFFFFFFFFFFFFFFFFFFFFFFFFFFFFFFFFFFFFFFFF
310
FFFFFFFFFFFFFFFFFFFFFFFFFFFFFFFFFFFFFFFFFFFFFFFFFFFFFFFFFFFFFFFF
310
FFFFFFFFFFFFFFFFFFFFFFFFFFFFFFFFFFFFFFFFFFFFFFFFFFFFFFFFFFFFFFFF
310
FFFFFFFFFFFFFFFFFFFFFFFFFFFFFFFFFFFFFFFFFFFFFFFFFFFFFFFFFFFFFFFF
310
FFFFFFFFFFFFFFFFFFFFFFFFFFFFFFFFFFFFFFFFFFFFFFFFFFFFFFFFFFFFFFFF
310
FFFFFFFFFFFFFFFFFFFFFFFFFFFFFFFFFFFFFFFFFFFFFFFFFFFFFFFFFFFFFFFF
310
FFFFFFFFFFFFFFFFFFFFFFFFFFFFFFFFFFFFFFFFFFFFFFFFFFFFFFFFFFFFFFFF
310
FFFFFFFFFFFFFFFFFFFFFFFFFFFFFFFFFFFFFFFFFFFFFFFFFFFFFFFFFFFFFFFF
310
0100000200000000000000000000000000000000000000000000000000000000
310
0000000000000000000000000000000000000000000000000000000000000000
310
0100FEFF030A0000FFFFFFFF0A00030000000000C00000000000004607000000
310
5042727573680007000000504272757368000700000050427275736800F439B2
310
7100000000000000000000000000000000000000000000000000000000000000
310
0000000000000000000000000000000000000000000000000000000000000000
310
0000000000000000000000000000000000000000000000000000000000000000
310
0000000000000000000000000000000000000000000000000000000000000000
310
0000000000000000000000000000000000000000000000000000000000000000
310
0000000000000000000000000000000000000000000000000000000000000000
310
0000000000000000000000000000000000000000000000000000000000000000
310
0000000000000000000000000000000000000000000000000000000000000000
310
0000000000000000000000000000000000000000000000000000000000000000
310
0000000000000000000000000000000000000000000000000000000000000000
310
0000000000000000000000000000000000000000000000000000000000000000
310
0000000000000000000000000000000000000000000000000000000000000000
310
20260000424D0E260000000000003E00000028000000B40200006E0000000100
310
01000000000000000000130B0000130B00000200000002000000000000FFFFFF
310
FFFFFFFFFFFFFFFFFFFFFFFFFFFFFFFFFFFFFFFFFFFFFFFFFFFFFFFFFFFFFFFF
310
FFFFFFFFFFFFFFFFFFFFFFFFFFFFFFFFFFFFFFFFFFFFFFFFFFFFFFFFFFFFFFFF
310
FFFFFFFFFFFFFFFFFFFFFFFFFFFFFFFFFFFFFFFFFFFFFFFFF000FFFFFFFFFFFF
310
FFFFFFFFFFFFFFFFFFFFFFFFFFFFFFFFFFFFFFFFFFFFFFFFFFFFFFFFFFFFFFFF
310
FFFFFFFFFFFFFFFFFFFFFFFFFFFFFFFFFFFFFFFFFFFFFFFFFFFFFFFFFFFFFFFF
310
FFFFFFFFFFFFFFFFFFFFFFFFFFFFFFFFF000FFFFFFFFFFFFFFFFFFFFFFFFFFFF
310
FFFFFFFFFFFFFFFFFFFFFFFFFFFFFFFFFFFFFFFFFFFFFFFFFFFFFFFFFFFFFFFF
310
FFFFFFFFFFFFFFFFFFFFFFFFFFFFFFFFFFFFFFFFFFFFFFFFFFFFFFFFFFFFFFFF
310
FFFFFFFFFFFFFFFFF000FFFFFFFFFFFFFFFFFFFFFFFFFFFFFFFFFFFFFFFFFFFF
310
FFFFFFFFFFFFFFFFFFFFFFFFFFFFFFFFFFFFFFFFFFFFFFFFFFFFFFFFFFFFFFFF
310
FFFFFFFFFFFFFFFFFFFFFFFFFFFFFFFFFFFFFFFFFFFFFFFFFFFFFFFFFFFFFFFF
310
F000FFFFFFFFFFFFFFFFFFFFFFFFFFFFFFFFFFFFFFFFFFFFFFFFFFFFFFFFFFFF
310
FFFFFFFFFFFFFFFFFFFFFFFFFFFFFFFFFFFFFFFFFFFFFFFFFFFFFFFFFFFFFFFF
310
FFFFFFFFFFFFFFFFFFFFFFFFFFFFFFFFFFFFFFFFFFFFFFFFF000FFFFFFFFFFFF
310
FFFFFFFFFFFFFFFFFFFFFFFFFFFFFFFFFFFFFFFFFFFFFFFFFFFFFFFFFFFFFFFF
310
FFFFFFFFFFFFFFFFFFFFFFFFFFFFFFFFFFFFFFFFFFFFFFFFFFFFFFFFFFFFFFFF
310
FFFFFFFFFFFFFFFFFFFFFFFFFFFFFFFFF000FFFFFFFFFFFFFFFFFFFFFFFFFFFF
310
FFFFFFFFFFFFFFFFFFFFFFFFFFFFFFFFFFFFFFFFFFFFFFFFFFFFFFFFFFFFFFFF
310
FFFFFFFFFFFFFFFFFFFFFFFFFFFFFFFFFFFFFFFFFFFFFFFFFFFFFFFFFFFFFFFF
310
FFFFFFFFFFFFFFFFF000FFFFFFFFFFFFFFFFFFFFFFFFFFFFFFFFFFFFFFFFFFFF
310
FFFFFFFFFFFFFFFFFFFFFFFFFFFFFFFFFFFFFFFFFFFFFFFFFFFFFFFFFFFFFFFF
310
FFFFFFFFFFFFFFFFFFFFFFFFFFFFFFFFFFFFFFFFFFFFFFFFFFFFFFFFFFFFFFFF
310
F000FFFFFFFFFFFFFFFFFFFFFFFFFFFFFFFFFFFFFFFFFFFFFFFFFFFFFFFFFFFF
310
FFFFFFFFFFFFFFFFFFFFFFFFFFFFFFFFFFFFFFFFFFFFFFFFFFFFFFFFFFFFFFFF
310
FFFFFFFFFFFFFFFFFFFFFFFFFFFFFFFFFFFFFFFFFFFFFFFFF000FFFFFFFFFFFF
310
FFFFFFFFFFFFFFFFFFFFFFFFFFFFFFFFFFFFFFFFFFFFFFFFFFFFFFFFFFFFFFFF
310
FFFFFFFFFFFFFFFFFFFFFFFFFFFFFFFFFFFFFFFFFFFFFFFFFFFFFFFFFFFFFFFF
310
FFFFFFFFFFFFFFFFFFFFFFFFFFFFFFFFF000FFFFFFFFFFFFFFFFFFFFFFFFFFFF
310
FFFFFFFFFFFFFFFFFFFFFFFFFFFFFFFFFFFFFFFFFFFFFFFFFFFFFFFFFFFFFFFF
310
FFFFFFFFFFFFFFFFFFFFFFFFFFFFFFFFFFFFFFFFFFFFFFFFFFFFFFFFFFFFFFFF
310
FFFFFFFFFFFFFFFFF000FFFFFFFFFFFFFFFFFFFFFFFFFFFFFFFFFFFFFFFFFFFF
310
FFFFFFFFFFFFFFFFFFFFFFFFFFFFFFFFFFFFFFFFFFFFFFFFFFFFFFFFFFFFFFFF
310
FFFFFFFFFFFFFFFFFFFFFFFFFFFFFFFFFFFFFFFFFFFFFFFFFFFFFFFFFFFFFFFF
310
F000FFFFFFFFFFFFFFFFFFFFFFFFFFFFFFFFFFFFFFFFFFFFFFFFFFFFFFFFFFFF
310
FFFFFFFFFFFFFFFFFFFFFFFFFFFFFFFFFFFFFFFFFFFFFFFFFFFFFFFFFFFFFFFF
310
FFFFFFFFFFFFFFFFFFFFFFFFFFFFFFFFFFFFFFFFFFFFFFFFF000FFFFFFFFFFFF
310
FFFFFFFFFFFFFFFFFFFFFFFFFFFFFFFFFFFFFFFFFFFFFFFFFFFFFFFFFFFFFFFF
310
FFFFFFFFFFFFFFFFFFFFFFFFFFFFFFFFFFFFFFFFFFFFFFFFFFFFFFFFFFFFFFFF
310
FFFFFFFFFFFFFFFFFFFFFFFFFFFFFFFFF000FFFFFFFFFFFFFFFFFFFFFFFFFFFF
310
FFFFFFFFFFFFFFFFFFFFFFFFFFFFFFFFFFFFFFFFFFFFFFFFFFFFFFFFFFFFFFFF
310
FFFFFFFFFFFFFFFFFFFFFFFFFFFFFFFFFFFFFFFFFFFFFFFFFFFFFFFFFFFFFFFF
310
FFFFFFFFFFFFFFFFF000FFFFFFFFFFFFFFFFFFFFFFFFFFFFFFFFFFFFFFFFFFFF
310
FFFFFFFFFFFFFFFFFFFFFFFFFFFFFFFFFFFFFFFFFFFFFFFFFFFFFFFFFFFFFFFF
310
FFFFFFFFFFFFFFFFFFFFFFFFFFFFFFFFFFFFFFFFFFFFFFFFFFFFFFFFFFFFFFFF
310
F000FFFFFFFFFFFFFFFFFFFFFFFFFFFFFFFFFFFFFFFFFFFFFFFFFFFFFFFFFFFF
310
FFFFFFFFFFFFFFFFFFFFFFFFFFFFFFFFFFFFFFFFFFFFFFFFFFFFFFFFFFFFFFFF
310
FFFFFFFFFFFFFFFFFFFFFFFFFFFFFFFFFFFFFFFFFFFFFFFFF000FFFFFFFFFFFF
310
FFFFFFFFFFFFFFFFFFFFFFFFFFFFFFFFFFFFFFFFFFFFFFFFFFFFFFFFFFFFFFFF
310
FFFFFFFFFFFFFFFFFFFFFFFFFFFFFFFFFFFFFFFFFFFFFFFFFFFFFFFFFFFFFFFF
310
FFFFFFFFFFFFFFFFFFFFFFFFFFFFFFFFF000FFFFFFFFFFFFFFFFFFFFFFFFFFFF
310
FFFFFFFFFFFFFFFFFFFFFFFFFFFFFFFFFFFFFFFFFFFFFFFFFFFFFFFFFFFFFFFF
310
FFFFFFFFFFFFFFFFFFFFFFFFFFFFFFFFFFFFFFFFFFFFFFFFFFFFFFFFFFFFFFFF
310
FFFFFFFFFFFFFFFFF000FFFFF80003FFFFFFFFFFFFFFFFFFFFFFFFFFFFFFFFFF
310
FFFFF00007FFFFFFFFFF00007FFFFFF800000000000000007FFFFFFFFFFFFFFF
310
FFFFFFFC001FFFFFFFFFFFFFFC001FFFFFFFFFFFFFFFFFFFFFFFFFFE0007FFFF
310
F000FFFF8000007FFFFFFFF8000FFFFFC0007FFFFF80007FFFFF0000007FFFFF
310
FFF8000007FFFFF800000000000000007FFFFFF0001FFFFFFFFFFFC00001FFFF
310
FFFFFFFFC00001FFFFFFFF000000000003FFFFE000007FFFF000FFFE0000000F
310
FFFFFFF0000FFFFF80007FFFFF80007FFFFC0000001FFFFFFFC0000001FFFFF8
310
00000000000000007FFFFFF0001FFFFFFFFFFE0000003FFFFFFFFFFE0000003F
310
FFFFFF000000000003FFFF0000000FFFF000FFF800000003FFFFFFF00007FFFF
310
80007FFFFF80007FFFF000000007FFFFFF000000003FFFF80000000000000000
310
7FFFFFF0001FFFFFFFFFF80000000FFFFFFFFFF80000000FFFFFFF0000000000
310
03FFFC00000003FFF000FFE000000000FFFFFFF00007FFFF80003FFFFF80007F
310
FFC000000001FFFFFC000000001FFFF800000000000000007FFFFFF0001FFFFF
310
FFFFE000000003FFFFFFFFE000000003FFFFFF000000000003FFF000000000FF
310
F000FF80000000007FFFFFF00007FFFF80003FFFFF80007FFF8000000000FFFF
310
F80000000007FFF800000000000000007FFFFFF0001FFFFFFFFFC000000001FF
310
FFFFFFC000000001FFFFFF000000000003FFC0000000007FF000FF0000000000
310
3FFFFFE00007FFFF00003FFFFF80007FFE00000000003FFFF00000000003FFF8
310
00000000000000007FFFFFF0001FFFFFFFFF8000000000FFFFFFFF8000000000
310
FFFFFF000000000003FF80000000003FF000FE00000000001FFFFFE00003FFFF
310
00003FFFFF80007FFC00000000001FFFE00000000001FFF8000001FFFE000000
310
7FFFFFF0001FFFFFFFFE00000000003FFFFFFE00000000003FFFFF0000000000
310
03FF00000000001FF000FC00000000000FFFFFE00003FFFF00001FFFFF80007F
310
F800000000001FFFC00000000000FFF8000001FFFE0000007FFFFFF0001FFFFF
310
FFFC00000000001FFFFFFC00000000001FFFFF000000000003FE00000000000F
310
F000F8000000000007FFFFE00003FFFF00001FFFFF80007FF800000000000FFF
310
800000000000FFF8000001FFFE0000007FFFFFF0001FFFFFFFF800000000000F
310
FFFFF800000000000FFFFF000000000003FC000000000007F000F80000000000
310
03FFFFC00003FFFE00001FFFFF80007FF0000000000007FF0000000000007FF8
310
000001FFFE0000007FFFFFF0001FFFFFFFF0000000000007FFFFF00000000000
310
07FFFF000000000003F8000000000003F000F0000000000003FFFFC00001FFFE
310
00001FFFFF80007FE0000000000007FE0000000000003FF8000001FFFE000000
310
7FFFFFF0001FFFFFFFF0000000000007FFFFF0000000000007FFFF0000000000
310
03F800001F800003F000E00001FFF00001FFFFC00001FFFE00000FFFFF80007F
310
E00001FFE00003FE00001FFF00003FF8000001FFFE0000007FFFFFF0001FFFFF
310
FFE000003E000003FFFFE000003E000003FFFF000000000003F00001FFF80001
310
F000E00007FFFC0001FFFFC00001FFFE00000FFFFF80007FC0000FFFFC0003FC
310
0000FFFFC0001FF8000001FFFE0000007FFFFFF0001FFFFFFFC00003FFE00001
310
FFFFC00003FFE00001FFFF0001FFFFFFFFF00007FFFE0001F000E0000FFFFF00
310
00FFFF800001FFFC00000FFFFF80007FC0001FFFFE0001FC0001FFFFE0001FF8
310
000001FFFE0000007FFFFFF0001FFFFFFF80000FFFF80000FFFF80000FFFF800
310
00FFFF0003FFFFFFFFE0000FFFFF8000F000C0003FFFFF8000FFFF800000FFFC
310
000007FFFF80007F80003FFFFF0001FC0003FFFFF0001FF8000001FFFE000000
310
7FFFFFF0001FFFFFFF80003FFFFE0000FFFF80003FFFFE0000FFFF0003FFFFFF
310
FFE0003FFFFF8000F000C0003FFFFF8000FFFF800000FFFC000007FFFF80007F
310
80007FFFFF8001F80007FFFFF8000FF8000001FFFE0000007FFFFFF0001FFFFF
310
FF00007FFFFF00007FFF00007FFFFF00007FFF0003FFFFFFFFE0003FFFFFC000
310
F000C0007FFFFFC000FFFF000000FFFC000007FFFF80007F8000FFFFFF8000F8
310
000FFFFFF8000FF8000001FFFE0000007FFFFFF0001FFFFFFF0000FFFFFF8000
310
7FFF0000FFFFFF80007FFF0003FFFFFFFFC0007FFFFFC00070008000FFFFFFC0
310
00FFFF000000FFF8000007FFFF80007F8000FFFFFF8000F8000FFFFFF8000FF8
310
000001FFFE0000007FFFFFF0001FFFFFFE0001FFFFFFC0003FFE0001FFFFFFC0
310
003FFF0003FFFFFFFFC0007FFFFFE00070008000FFFFFFC0007FFF0000007FF8
310
000003FFFF80007F0001FFFFFF8000F8000FFFFFF8000FF8000001FFFE000000
310
7FFFFFF0001FFFFFFE0001FFFFFFC0003FFE0001FFFFFFC0003FFF0003FFFFFF
310
FFC000FFFFFFE00070008000FFFFFFC0007FFF0000007FF8000003FFFF80007F
310
0001FFFFFF8000F8001FFFFFF8000FF8000001FFFE0000007FFFFFF0001FFFFF
310
FE0003FFFFFFE0003FFE0003FFFFFFE0003FFF0003FFFFFFFFC000FFFFFFE000
310
70008000FFFFFFC0007FFE0000007FF8000003FFFF80007F0001FFFFFF8000F0
310
001FFFFFF8000FF8000001FFFE0000007FFFFFF0001FFFFFFC0003FFFFFFE000
310
1FFC0003FFFFFFE0001FFF0003FFFFFFFFC000FFFFFFC00070008000FFFFFF80
310
007FFE0000007FF0000003FFFF80007F0001FFFFFF0000F0001FFFFFF8000FF8
310
000001FFFE0000007FFFFFF0001FFFFFFC0007FFFFFFF0001FFC0007FFFFFFF0
310
001FFF0003FFFFFFFFC000FFFFFFC00070008001FFFFFF0000FFFE0000003FF0
310
000001FFFF80007F0001FFFFFF0000F8001FFFFFF0000FF8000001FFFE000000
310
7FFFFFF0001FFFFFFC0007FFFFFFF0001FFC0007FFFFFFF0001FFF0003FFFFFF
310
FFC001FFFFFF80007000FFFFFFFFFE0000FFFE0008003FF0008001FFFF80007F
310
FFFFFFFFFC0000FFFFFFFFFFE0000FF8000001FFFE0000007FFFFFF0001FFFFF
310
F8000FFFFFFFF8000FF8000FFFFFFFF8000FFF0003FFFFFFFFFFFFFFFFFF0000
310
7000FFFFFFFFFC0000FFFC0008003FF0008001FFFF80007FFFFFFFFFF80001FF
310
FFFFFFFF80000FF8000001FFFE0000007FFFFFF0001FFFFFF8000FFFFFFFF800
310
0FF8000FFFFFFFF8000FFF0003FFFFFFFFFFFFFFFFFE0000F000FFFFFFFFE000
310
00FFFC000C003FE000C001FFFF80007FFFFFFFFFC00001FFFFFFFFFE00001FF8
310
000001FFFE0000007FFFFFF0001FFFFFF8000FFFFFFFF8000FF8000FFFFFFFF8
310
000FFF0003FFFFFFFFFFFFFFFFF00000F000FFFFFFFE000001FFFC000C001FE0
310
00C000FFFF80007FFFFFFFFE000001FFFFFFFFE000001FF80FFFFFFFFFFFFFC0
310
7FFFFFF0001FFFFFF8000FFFFFFFF8000FF8000FFFFFFFF8000FFF0003FFFFFF
310
FFFFFFFFFF800000F000FFFFFFC0000001FFFC001C001FE001C000FFFF80007F
310
FFFFFF80000003FFFFFFF80000001FF80FFFFFFFFFFFFFC07FFFFFF0001FFFFF
310
F8001FFFFFFFFC000FF8001FFFFFFFFC000FFF0003FFFFFFFFFFFFFFF0000001
310
F000FFFFF800000001FFF8001C001FE001C000FFFF80007FFFFFF800000003FF
310
FFFF800000003FF80FFFFFFFFFFFFFC07FFFFFF0001FFFFFF8001FFFFFFFFC00
310
0FF8001FFFFFFFFC000FFF0003FFFFFFFFFFFFFE00000001F000FFFFC0000000
310
03FFF8001E001FC001E000FFFF80007FFFFF8000000007FFFFFC000000003FF8
310
0FFFFFFFFFFFFFC07FFFFFF0001FFFFFF8001FFFFFFFFC000FF8001FFFFFFFFC
310
000FFF0003FFFFFFFFFFFFE000000003F000FFFE0000000007FFF8001E000FC0
310
01E0007FFF80007FFFFE0000000007FFFFE0000000007FF80FFFFFFFFFFFFFC0
310
7FFFFFF0001FFFFFF0001FFFFFFFFC0007F0001FFFFFFFFC0007FF0003FFFFFF
310
FFFFFF0000000003F000FFF80000000007FFF8001E000FC003E0007FFF80007F
310
FFF0000000000FFFFF8000000000FFF80FFFFFFFFFFFFFC07FFFFFF0001FFFFF
310
F0001FFFFFFFFC0007F0001FFFFFFFFC0007FF0003FFFFFFFFFFFC0000000007
310
F000FFE0000000000FFFF0003E000FC003E0007FFF80007FFFC0000000001FFF
310
FE0000000001FFF80FFFFFFFFFFFFFC07FFFFFF0001FFFFFF0001FFFFFFFFC00
310
07F0001FFFFFFFFC0007FF0003FFFFFFFFFFF0000000000FF000FFC000000000
310
1FFFF0003F000F8003F0003FFF80007FFF80000000003FFFF80000000003FFF8
310
0FFFFFFFFFFFFFC07FFFFFF0001FFFFFF0001FFFFFFFFC0007F0001FFFFFFFFC
310
0007FF0003FFFFFFFFFFE0000000001FF000FF00000000007FFFF0003F000780
310
03F0003FFF80007FFF00000000007FFFF00000000007FFF80FFFFFFFFFFFFFC0
310
7FFFFFF0001FFFFFF0001FFFFFFFFC0007F0001FFFFFFFFC0007FF0003FFFFFF
310
FFFF80000000007FF000FE0000000000FFFFE0003F00078007F0003FFF80007F
310
FE0000000001FFFFE0000000001FFFF80FFFFFFFFFFFFFC07FFFFFF0001FFFFF
310
F0001FFFFFFFFC0007F0001FFFFFFFFC0007FF0003FFFFFFFFFF0000000000FF
310
F000FC0000000003FFFFE0007F00078007F0003FFF80007FFC0000000007FFFF
310
C0000000007FFFF80FFFFFFFFFFFFFC07FFFFFF0001FFFFFF8001FFFFFFFFC00
310
0FF8001FFFFFFFFC000FFF0003FFFFFFFFFE0000000003FFF000FC000000000F
310
FFFFE0007F80070007F8001FFF80007FF8000000001FFFFF8000000001FFFFF8
310
0FFFFFFFFFFFFFC07FFFFFF0001FFFFFF8001FFFFFFFFC000FF8001FFFFFFFFC
310
000FFF0003FFFFFFFFFC000000000FFFF000F8000000007FFFFFE0007F800700
310
07F8001FFF80007FF000000000FFFFFF800000000FFFFFF80FFFFFFFFFFFFFC0
310
7FFFFFF0001FFFFFF8000FFFFFFFF8000FF8000FFFFFFFF8000FFF0003FFFFFF
310
FFFC000000007FFFF000F800000007FFFFFFC0007F8003000FF8001FFF80007F
310
F000000007FFFFFF000000007FFFFFF80FFFFFFFFFFFFFC07FFFFFF0001FFFFF
310
F8000FFFFFFFF8000FF8000FFFFFFFF8000FFF0003FFFFFFFFF80000000FFFFF
310
F000F0000000FFFFFFFFC000FF8003000FF8001FFF80007FE0000000FFFFFFFF
310
0000000FFFFFFFF8000001FFFE0000007FFFFFF0001FFFFFF8000FFFFFFFF800
310
0FF8000FFFFFFFF8000FFF0003FFFFFFFFF8000000FFFFFFF000F000000FFFFF
310
FFFFC000FFC002000FF8000FFF80007FE000001FFFFFFFFE000001FFFFFFFFF8
310
000001FFFE0000007FFFFFF0001FFFFFF8000FFFFFFFF8000FF8000FFFFFFFF8
310
000FFF0003FFFFFFFFF000001FFFFFFFF000E00000FFFFFFFFFFC000FFC00200
310
0FFC000FFF80007FE00001FFFFFFFFFE00001FFFFFFFFFF8000001FFFE000000
310
7FFFFFF0001FFFFFFC000FFFFFFFF8001FFC000FFFFFFFF8001FFF0003FFFFFF
310
FFF00001FFFFFFFFF000E00007FFFFFFFFFF8000FFC000001FFC000FFF80007F
310
C0000FFFFFFFFFFE0000FFFFFFFFFFF8000001FFFE0000007FFFFFF0001FFFFF
310
FC0007FFFFFFF0001FFC0007FFFFFFF0001FFF0003FFFFFFFFF00007FFFFFFFF
310
F000E0001FFFFFFFFFFF8000FFC000001FFC000FFF80007FC0003FFFFFFFFFFE
310
0001FFFFFFFFFFF8000001FFFE0000007FFFFFF0001FFFFFFC0007FFFFFFF000
310
1FFC0007FFFFFFF0001FFF0003FFFFFFFFF0001FFFFFFFFFF000E0003FFFFF00
310
03FF8001FFE000001FFC0007FF80007FC0007FFFFF0007FC0003FFFFF0003FF8
310
000001FFFE0000007FFFFFF0001FFFFFFC0003FFFFFFE0001FFC0003FFFFFFE0
310
001FFF0003FFFFFFFFF0003FFFFFFFFFF000E0003FFFFF0001FF8001FFE00000
310
1FFE0007FF80007FC0007FFFFE0003FC0007FFFFE0003FF8000001FFFE000000
310
7FFFFFF0001FFFFFFE0003FFFFFFE0003FFE0003FFFFFFE0003FFF0003FFFFFF
310
FFF0003FFFFF8001F000E0003FFFFF0001FF0001FFE000001FFE0007FF80007F
310
C0007FFFFE0003FC0007FFFFE0003FF8000001FFFE0000007FFFFFF0001FFFFF
310
FE0001FFFFFFC0003FFE0001FFFFFFC0003FFF0003FFFFFFFFF0003FFFFF0001
310
F000E0003FFFFF0003FF0001FFE000003FFE0007FF80007FC0007FFFFE0003FC
310
0007FFFFE0003FF8000001FFFE0000007FFFFFF0001FFFFFFF0001FFFFFFC000
310
7FFF0001FFFFFFC0007FFF0003FFFFFFFFF0003FFFFF0001F000E0003FFFFE00
310
03FF0003FFF000003FFE0003FF80007FC0007FFFFC0003FE0007FFFFE0003FF8
310
000001FFFE0000007FFFFFF0001FFFFFFF0000FFFFFF80007FFF0000FFFFFF80
310
007FFF0003FFFFFFFFF0003FFFFF0001F000E0003FFFFE0003FF0003FFF00000
310
3FFF0003FF80007FC0007FFFFC0007FE0007FFFFC0003FF8000001FFFE000000
310
7FFFFFF0001FFFFFFF80007FFFFF0000FFFF80007FFFFF0000FFFF0003FFFFFF
310
FFF0003FFFFF0003F000E0003FFFFC0003FE0003FFF000003FFF0003FF80007F
310
E0003FFFF80007FE0003FFFFC0007FF8000001FFFE0000007FFFFFF0001FFFFF
310
FF80003FFFFE0000FFFF80003FFFFE0000FFFF0003FFFFFFFFF0001FFFFE0003
310
F000F0001FFFF80003FE0003FFF000007FFF0001FF80007FE0003FFFF00007FE
310
0001FFFF80007FF8000001FFFE0000007FFFFFF0001FFFFFFFC0000FFFF80001
310
FFFFC0000FFFF80001FFFF0003FFFFFFFFF0001FFFFC0003F000F0000FFFF000
310
07FE0007FFF800007FFF0001FF80007FE0001FFFE00007FF0000FFFE00007FF8
310
000001FFFE0000007FFFFFF0001FFFFFFFC00003FFE00001FFFFC00003FFE000
310
01FFFF0003FFFFFFFFF8000FFFF80003F000F00003FFC00007FC0007FFF80000
310
7FFF8001FF80007FF00007FF80000FFF00007FF80000FFF8000001FFFE000000
310
7F80000000000001FFE000003E000003FFFFE000003E000003FFFF0003FFFFFF
310
FFF80003FFE00007F000F800000000000FFC0007FFF800007FFF8001FF80007F
310
F000000000000FFF000000000000FFF8000001FFFE0000007F80000000000001
310
FFF0000000000007FFFFF0000000000007FFFF0003FFFFFFFFFC00007E000007
310
F000F800000000000FFC0007FFF80000FFFF8000FF80007FF800000000001FFF
310
800000000001FFF8000001FFFE0000007F80000000000001FFF800000000000F
310
FFFFF800000000000FFFFF0003FFFFFFFFFC00000000000FF000FC0000000000
310
1FFC0007FFFC0000FFFF8000FF80007FF800000000003FFFC00000000001FFF8
310
000001FFFE0000007F80000000000001FFF800000000000FFFFFF80000000000
310
0FFFFF0003FFFFFFFFFE00000000001FF000FE00000000003FF8000FFFFC0000
310
FFFF8000FF80007FFC00000000003FFFC00000000003FFF8000001FFFE000000
310
7F80000000000001FFFC00000000001FFFFFFC00000000001FFFFF0003FFFFFF
310
FFFF00000000001FF000FF00000000003FF8000FFFFC0000FFFFC000FF80007F
310
FE00000000007FFFE00000000007FFF8000001FFFE0000007F80000000000001
310
FFFE00000000003FFFFFFE00000000003FFFFF0003FFFFFFFFFF80000000003F
310
F000FF80000000007FF8000FFFFC0001FFFFC0007F80007FFF0000000000FFFF
310
F0000000000FFFF800000000000000007F80000000000001FFFF8000000000FF
310
FFFFFF8000000000FFFFFF0003FFFFFFFFFFC0000000007FF000FFC000000000
310
FFF8000FFFFE0001FFFFC0007F80007FFF8000000001FFFFF8000000001FFFF8
310
00000000000000007F80000000000001FFFFC000000001FFFFFFFFC000000001
310
FFFFFF0003FFFFFFFFFFE000000000FFF000FFE000000003FFF0001FFFFE0001
310
FFFFC0007F80007FFFC000000007FFFFFE000000003FFFF80000000000000000
310
7F80000000000001FFFFE000000003FFFFFFFFE000000003FFFFFF0003FFFFFF
310
FFFFF000000003FFF000FFF80000000FFFF0001FFFFE0001FFFFE0007F80007F
310
FFF00000000FFFFFFF00000000FFFFF800000000000000007F80000000000001
310
FFFFF80000000FFFFFFFFFF80000000FFFFFFF0003FFFFFFFFFFFC0000000FFF
310
F000FFFE0000003FFFF0001FFFFE0003FFFFE0003F80007FFFFC0000003FFFFF
310
FFC0000003FFFFF800000000000000007F80000000000001FFFFFE0000003FFF
310
FFFFFFFE0000003FFFFFFF0003FFFFFFFFFFFF0000003FFFF000FFFF800000FF
310
FFF0001FFFFF0003FFFFE0003F80007FFFFF000001FFFFFFFFF800001FFFFFF8
310
00000000000000007F80000000000001FFFFFFC00001FFFFFFFFFFFFC00001FF
310
FFFFFF0003FFFFFFFFFFFFC00000FFFFF000FFFFF8000FFFFFFFFFFFFFFFFFFF
310
FFFFFFFFFFFFFFFFFFFFF0001FFFFFFFFFFF0000FFFFFFF80000000000000000
310
7FFFFFFFFFFFFFFFFFFFFFFC001FFFFFFFFFFFFFFC001FFFFFFFFFFFFFFFFFFF
310
FFFFFFFC001FFFFFF000FFFFFFFFFFFFFFFFFFFFFFFFFFFFFFFFFFFFFFFFFFFF
310
FFFFFFFFFFFFFFFFFFFFFFFFFFFFFFFFFFFFFFFFFFFFFFFFFFFFFFFFFFFFFFFF
310
FFFFFFFFFFFFFFFFFFFFFFFFFFFFFFFFFFFFFFFFFFFFFFFFFFFFFFFFFFFFFFFF
310
F000FFFFFFFFFFFFFFFFFFFFFFFFFFFFFFFFFFFFFFFFFFFFFFFFFFFFFFFFFFFF
310
FFFFFFFFFFFFFFFFFFFFFFFFFFFFFFFFFFFFFFFFFFFFFFFFFFFFFFFFFFFFFFFF
310
FFFFFFFFFFFFFFFFFFFFFFFFFFFFFFFFFFFFFFFFFFFFFFFFF000FFFFFFFFFFFF
310
FFFFFFFFFFFFFFFFFFFFFFFFFFFFFFFFFFFFFFFFFFFFFFFFFFFFFFFFFFFFFFFF
310
FFFFFFFFFFFFFFFFFFFFFFFFFFFFFFFFFFFFFFFFFFFFFFFFFFFFFFFFFFFFFFFF
310
FFFFFFFFFFFFFFFFFFFFFFFFFFFFFFFFF000FFFFFFFFFFFFFFFFFFFFFFFFFFFF
310
FFFFFFFFFFFFFFFFFFFFFFFFFFFFFFFFFFFFFFFFFFFFFFFFFFFFFFFFFFFFFFFF
310
FFFFFFFFFFFFFFFFFFFFFFFFFFFFFFFFFFFFFFFFFFFFFFFFFFFFFFFFFFFFFFFF
310
FFFFFFFFFFFFFFFFF000FFFFFFFFFFFFFFFFFFFFFFFFFFFFFFFFFFFFFFFFFFFF
310
FFFFFFFFFFFFFFFFFFFFFFFFFFFFFFFFFFFFFFFFFFFFFFFFFFFFFFFFFFFFFFFF
310
FFFFFFFFFFFFFFFFFFFFFFFFFFFFFFFFFFFFFFFFFFFFFFFFFFFFFFFFFFFFFFFF
310
F000FFFFFFFFFFFFFFFFFFFFFFFFFFFFFFFFFFFFFFFFFFFFFFFFFFFFFFFFFFFF
310
FFFFFFFFFFFFFFFFFFFFFFFFFFFFFFFFFFFFFFFFFFFFFFFFFFFFFFFFFFFFFFFF
310
FFFFFFFFFFFFFFFFFFFFFFFFFFFFFFFFFFFFFFFFFFFFFFFFF000FFFFFFFFFFFF
310
FFFFFFFFFFFFFFFFFFFFFFFFFFFFFFFFFFFFFFFFFFFFFFFFFFFFFFFFFFFFFFFF
310
FFFFFFFFFFFFFFFFFFFFFFFFFFFFFFFFFFFFFFFFFFFFFFFFFFFFFFFFFFFFFFFF
310
FFFFFFFFFFFFFFFFFFFFFFFFFFFFFFFFF000FFFFFFFFFFFFFFFFFFFFFFFFFFFF
310
FFFFFFFFFFFFFFFFFFFFFFFFFFFFFFFFFFFFFFFFFFFFFFFFFFFFFFFFFFFFFFFF
310
FFFFFFFFFFFFFFFFFFFFFFFFFFFFFFFFFFFFFFFFFFFFFFFFFFFFFFFFFFFFFFFF
310
FFFFFFFFFFFFFFFFF000FFFFFFFFFFFFFFFFFFFFFFFFFFFFFFFFFFFFFFFFFFFF
310
FFFFFFFFFFFFFFFFFFFFFFFFFFFFFFFFFFFFFFFFFFFFFFFFFFFFFFFFFFFFFFFF
310
FFFFFFFFFFFFFFFFFFFFFFFFFFFFFFFFFFFFFFFFFFFFFFFFFFFFFFFFFFFFFFFF
310
F000FFFFFFFFFFFFFFFFFFFFFFFFFFFFFFFFFFFFFFFFFFFFFFFFFFFFFFFFFFFF
310
FFFFFFFFFFFFFFFFFFFFFFFFFFFFFFFFFFFFFFFFFFFFFFFFFFFFFFFFFFFFFFFF
310
FFFFFFFFFFFFFFFFFFFFFFFFFFFFFFFFFFFFFFFFFFFFFFFFF000FFFFFFFFFFFF
310
FFFFFFFFFFFFFFFFFFFFFFFFFFFFFFFFFFFFFFFFFFFFFFFFFFFFFFFFFFFFFFFF
310
FFFFFFFFFFFFFFFFFFFFFFFFFFFFFFFFFFFFFFFFFFFFFFFFFFFFFFFFFFFFFFFF
310
FFFFFFFFFFFFFFFFFFFFFFFFFFFFFFFFF000FFFFFFFFFFFFFFFFFFFFFFFFFFFF
310
FFFFFFFFFFFFFFFFFFFFFFFFFFFFFFFFFFFFFFFFFFFFFFFFFFFFFFFFFFFFFFFF
310
FFFFFFFFFFFFFFFFFFFFFFFFFFFFFFFFFFFFFFFFFFFFFFFFFFFFFFFFFFFFFFFF
310
FFFFFFFFFFFFFFFFF000FFFFFFFFFFFFFFFFFFFFFFFFFFFFFFFFFFFFFFFFFFFF
310
FFFFFFFFFFFFFFFFFFFFFFFFFFFFFFFFFFFFFFFFFFFFFFFFFFFFFFFFFFFFFFFF
310
FFFFFFFFFFFFFFFFFFFFFFFFFFFFFFFFFFFFFFFFFFFFFFFFFFFFFFFFFFFFFFFF
310
F000FFFFFFFFFFFFFFFFFFFFFFFFFFFFFFFFFFFFFFFFFFFFFFFFFFFFFFFFFFFF
310
FFFFFFFFFFFFFFFFFFFFFFFFFFFFFFFFFFFFFFFFFFFFFFFFFFFFFFFFFFFFFFFF
310
FFFFFFFFFFFFFFFFFFFFFFFFFFFFFFFFFFFFFFFFFFFFFFFFF000FFFFFFFFFFFF
310
FFFFFFFFFFFFFFFFFFFFFFFFFFFFFFFFFFFFFFFFFFFFFFFFFFFFFFFFFFFFFFFF
310
FFFFFFFFFFFFFFFFFFFFFFFFFFFFFFFFFFFFFFFFFFFFFFFFFFFFFFFFFFFFFFFF
310
FFFFFFFFFFFFFFFFFFFFFFFFFFFFFFFFF000FFFFFFFFFFFFFFFFFFFFFFFFFFFF
310
FFFFFFFFFFFFFFFFFFFFFFFFFFFFFFFFFFFFFFFFFFFFFFFFFFFFFFFFFFFFFFFF
310
FFFFFFFFFFFFFFFFFFFFFFFFFFFFFFFFFFFFFFFFFFFFFFFFFFFFFFFFFFFFFFFF
310
FFFFFFFFFFFFFFFFF000FFFFFFFFFFFFFFFFFFFFFFFFFFFFFFFFFFFFFFFFFFFF
310
FFFFFFFFFFFFFFFFFFFFFFFFFFFFFFFFFFFFFFFFFFFFFFFFFFFFFFFFFFFFFFFF
310
FFFFFFFFFFFFFFFFFFFFFFFFFFFFFFFFFFFFFFFFFFFFFFFFFFFFFFFFFFFFFFFF
310
F000FFFFFFFFFFFFFFFFFFFFFFFFFFFFFFFFFFFFFFFFFFFFFFFFFFFFFFFFFFFF
310
FFFFFFFFFFFFFFFFFFFFFFFFFFFFFFFFFFFFFFFFFFFFFFFFFFFFFFFFFFFFFFFF
310
FFFFFFFFFFFFFFFFFFFFFFFFFFFFFFFFFFFFFFFFFFFFFFFFF000FFFFFFFFFFFF
310
FFFFFFFFFFFFFFFFFFFFFFFFFFFFFFFFFFFFFFFFFFFFFFFFFFFFFFFFFFFFFFFF
310
FFFFFFFFFFFFFFFFFFFFFFFFFFFFFFFFFFFFFFFFFFFFFFFFFFFFFFFFFFFFFFFF
310
FFFFFFFFFFFFFFFFFFFFFFFFFFFFFFFFF000FFFFFFFFFFFFFFFFFFFFFFFFFFFF
310
FFFFFFFFFFFFFFFFFFFFFFFFFFFFFFFFFFFFFFFFFFFFFFFFFFFFFFFFFFFFFFFF
310
FFFFFFFFFFFFFFFFFFFFFFFFFFFFFFFFFFFFFFFFFFFFFFFFFFFFFFFFFFFFFFFF
310
FFFFFFFFFFFFFFFFF000FFFFFFFFFFFFFFFFFFFFFFFFFFFFFFFFFFFFFFFFFFFF
310
FFFFFFFFFFFFFFFFFFFFFFFFFFFFFFFFFFFFFFFFFFFFFFFFFFFFFFFFFFFFFFFF
310
FFFFFFFFFFFFFFFFFFFFFFFFFFFFFFFFFFFFFFFFFFFFFFFFFFFFFFFFFFFFFFFF
310
F000FFFFFFFFFFFFFFFFFFFFFFFFFFFFFFFFFFFFFFFFFFFFFFFFFFFFFFFFFFFF
310
FFFFFFFFFFFFFFFFFFFFFFFFFFFFFFFFFFFFFFFFFFFFFFFFFFFFFFFFFFFFFFFF
310
FFFFFFFFFFFFFFFFFFFFFFFFFFFFFFFFFFFFFFFFFFFFFFFFF000FFFFFFFFFFFF
310
FFFFFFFFFFFFFFFFFFFFFFFFFFFFFFFFFFFFFFFFFFFFFFFFFFFFFFFFFFFFFFFF
310
FFFFFFFFFFFFFFFFFFFFFFFFFFFFFFFFFFFFFFFFFFFFFFFFFFFFFFFFFFFFFFFF
310
FFFFFFFFFFFFFFFFFFFFFFFFFFFFFFFFF0000000000000000000000000000000
310
0000000000000000000000000000000000000000000000000000000000000000
310
0000000000000000000000000000000000000000000000000000000000000000
310
0000000000000000000000000000000000000000000000000000000000000000
310
0000000000000000000000000000000000000000000000000000000000000000
310
0000000000000000000000000000000000000000000000000000000000000000
310
0000000000000000000000000000000000000000000000000000000000000000
310
0000000000000000000000000000000000000000000000000000000000000000
310
0000000000000000000000000000000000000000000000000000000000000000
310
0000000000000000000000000000000000000000000000000000000000000000
310
0000000000000000000000000000000000000000000000000000000000000000
310
0000000000000000000000000000000000000000000000000000000000000000
310
0000000000000000000000000000000000000000000000000000000000000000
310
0000000000000000000000000000000000000000000000000000000000000000
310
0000000000000000000000000000000000000000000000000000000000000000
310
0000000000000000000000000000000000000000000000000000000000000000
  1
OLE
  0
ENDSEC
  0
SECTION
  2
OBJECTS
  0
DICTIONARY
  5
C
330
0
100
AcDbDictionary
281
     1
  3
ACAD_GROUP
350
D
  3
ACAD_LAYOUT
350
1A
  3
ACAD_MLINESTYLE
350
17
  3
ACAD_PLOTSETTINGS
350
19
  3
ACAD_PLOTSTYLENAME
350
E
  0
DICTIONARY
  5
D
102
{ACAD_REACTORS
330
C
102
}
330
C
100
AcDbDictionary
281
     1
  0
DICTIONARY
  5
1A
102
{ACAD_REACTORS
330
C
102
}
330
C
100
AcDbDictionary
281
     1
  3
Layout1
350
1E
  3
Layout2
350
26
  3
Model
350
22
  0
DICTIONARY
  5
17
102
{ACAD_REACTORS
330
C
102
}
330
C
100
AcDbDictionary
281
     1
  3
Standard
350
18
  0
DICTIONARY
  5
19
102
{ACAD_REACTORS
330
C
102
}
330
C
100
AcDbDictionary
281
     1
  0
ACDBDICTIONARYWDFLT
  5
E
102
{ACAD_REACTORS
330
C
102
}
330
C
100
AcDbDictionary
281
     1
  3
Normal
350
F
100
AcDbDictionaryWithDefault
340
F
  0
LAYOUT
  5
1E
102
{ACAD_REACTORS
330
1A
102
}
330
1A
100
AcDbPlotSettings
  1

  2
none_device
  4

  6

 40
0.0
 41
0.0
 42
0.0
 43
0.0
 44
0.0
 45
0.0
 46
0.0
 47
0.0
 48
0.0
 49
0.0
140
0.0
141
0.0
142
1.0
143
1.0
 70
   688
 72
     0
 73
     0
 74
     5
  7

 75
    16
147
1.0
148
0.0
149
0.0
100
AcDbLayout
  1
Layout1
 70
     1
 71
     1
 10
0.0
 20
0.0
 11
420.0
 21
297.0
 12
0.0
 22
0.0
 32
0.0
 14
1.0000000000E+20
 24
1.0000000000E+20
 34
1.0000000000E+20
 15
-1.0000000000E+20
 25
-1.0000000000E+20
 35
-1.0000000000E+20
146
0.0
 13
0.0
 23
0.0
 33
0.0
 16
1.0
 26
0.0
 36
0.0
 17
0.0
 27
1.0
 37
0.0
 76
     0
330
1B
  0
LAYOUT
  5
26
102
{ACAD_REACTORS
330
1A
102
}
330
1A
100
AcDbPlotSettings
  1

  2
none_device
  4

  6

 40
0.0
 41
0.0
 42
0.0
 43
0.0
 44
0.0
 45
0.0
 46
0.0
 47
0.0
 48
0.0
 49
0.0
140
0.0
141
0.0
142
1.0
143
1.0
 70
   688
 72
     0
 73
     0
 74
     5
  7

 75
    16
147
1.0
148
0.0
149
0.0
100
AcDbLayout
  1
Layout2
 70
     1
 71
     2
 10
0.0
 20
0.0
 11
0.0
 21
0.0
 12
0.0
 22
0.0
 32
0.0
 14
0.0
 24
0.0
 34
0.0
 15
0.0
 25
0.0
 35
0.0
146
0.0
 13
0.0
 23
0.0
 33
0.0
 16
1.0
 26
0.0
 36
0.0
 17
0.0
 27
1.0
 37
0.0
 76
     0
330
23
  0
LAYOUT
  5
22
102
{ACAD_REACTORS
330
1A
102
}
330
1A
100
AcDbPlotSettings
  1

  2
none_device
  4

  6

 40
0.0
 41
0.0
 42
0.0
 43
0.0
 44
0.0
 45
0.0
 46
0.0
 47
0.0
 48
0.0
 49
0.0
140
0.0
141
0.0
142
1.0
143
1.0
 70
  1712
 72
     0
 73
     0
 74
     0
  7

 75
     0
147
1.0
148
0.0
149
0.0
100
AcDbLayout
  1
Model
 70
     1
 71
     0
 10
0.0
 20
0.0
 11
297.0
 21
210.0
 12
0.0
 22
0.0
 32
0.0
 14
0.0
 24
0.0
 34
0.0
 15
297.0
 25
210.0
 35
0.0
146
0.0
 13
0.0
 23
0.0
 33
0.0
 16
1.0
 26
0.0
 36
0.0
 17
0.0
 27
1.0
 37
0.0
 76
     0
330
1F
331
29
  0
MLINESTYLE
  5
18
102
{ACAD_REACTORS
330
17
102
}
330
17
100
AcDbMlineStyle
  2
Standard
 70
     0
  3

 62
   256
 51
90.0
 52
90.0
 71
     2
 49
0.5
 62
   256
  6
BYLAYER
 49
-0.5
 62
   256
  6
BYLAYER
  0
ACDBPLACEHOLDER
  5
F
102
{ACAD_REACTORS
330
E
102
}
330
E
  0
ENDSEC
  0
EOF
