  0
SECTION
  2
HEADER
  9
$ACADVER
  1
AC1015
  9
$ACADMAINTVER
 70
     6
  9
$DWGCODEPAGE
  3
ANSI_1252
  9
$INSBASE
 10
0.0
 20
0.0
 30
0.0
  9
$EXTMIN
 10
0.0
 20
0.0
 30
0.0
  9
$EXTMAX
 10
297.0
 20
210.0
 30
0.0
  9
$LIMMIN
 10
0.0
 20
0.0
  9
$LIMMAX
 10
297.0
 20
210.0
  9
$ORTHOMODE
 70
     0
  9
$REGENMODE
 70
     1
  9
$FILLMODE
 70
     1
  9
$QTEXTMODE
 70
     0
  9
$MIRRTEXT
 70
     1
  9
$LTSCALE
 40
1.0
  9
$ATTMODE
 70
     1
  9
$TEXTSIZE
 40
2.0
  9
$TRACEWID
 40
1.0
  9
$TEXTSTYLE
  7
Standard
  9
$CLAYER
  8
0
  9
$CELTYPE
  6
ByLayer
  9
$CECOLOR
 62
   256
  9
$CELTSCALE
 40
1.0
  9
$DISPSILH
 70
     0
  9
$DIMSCALE
 40
1.0
  9
$DIMASZ
 40
3.0
  9
$DIMEXO
 40
0.0
  9
$DIMDLI
 40
3.75
  9
$DIMRND
 40
0.0
  9
$DIMDLE
 40
0.0
  9
$DIMEXE
 40
1.0
  9
$DIMTP
 40
0.0
  9
$DIMTM
 40
0.0
  9
$DIMTXT
 40
2.0
  9
$DIMCEN
 40
2.5
  9
$DIMTSZ
 40
0.0
  9
$DIMTOL
 70
     0
  9
$DIMLIM
 70
     0
  9
$DIMTIH
 70
     1
  9
$DIMTOH
 70
     1
  9
$DIMSE1
 70
     0
  9
$DIMSE2
 70
     0
  9
$DIMTAD
 70
     1
  9
$DIMZIN
 70
     0
  9
$DIMBLK
  1

  9
$DIMASO
 70
     1
  9
$DIMSHO
 70
     1
  9
$DIMPOST
  1

  9
$DIMAPOST
  1

  9
$DIMALT
 70
     0
  9
$DIMALTD
 70
     3
  9
$DIMALTF
 40
0.0393700787
  9
$DIMLFAC
 40
1.0
  9
$DIMTOFL
 70
     1
  9
$DIMTVP
 40
0.0
  9
$DIMTIX
 70
     0
  9
$DIMSOXD
 70
     0
  9
$DIMSAH
 70
     0
  9
$DIMBLK1
  1

  9
$DIMBLK2
  1

  9
$DIMSTYLE
  2
ISO-25
  9
$DIMCLRD
 70
     0
  9
$DIMCLRE
 70
     0
  9
$DIMCLRT
 70
     0
  9
$DIMTFAC
 40
1.0
  9
$DIMGAP
 40
1.524
  9
$DIMJUST
 70
     0
  9
$DIMSD1
 70
     0
  9
$DIMSD2
 70
     0
  9
$DIMTOLJ
 70
     0
  9
$DIMTZIN
 70
     0
  9
$DIMALTZ
 70
     0
  9
$DIMALTTZ
 70
     0
  9
$DIMUPT
 70
     0
  9
$DIMDEC
 70
     2
  9
$DIMTDEC
 70
     3
  9
$DIMALTU
 70
     2
  9
$DIMALTTD
 70
     3
  9
$DIMTXSTY
  7
Standard
  9
$DIMAUNIT
 70
     0
  9
$DIMADEC
 70
     2
  9
$DIMALTRND
 40
0.0
  9
$DIMAZIN
 70
     0
  9
$DIMDSEP
 70
    44
  9
$DIMATFIT
 70
     3
  9
$DIMFRAC
 70
     0
  9
$DIMLDRBLK
  1

  9
$DIMLUNIT
 70
     2
  9
$DIMLWD
 70
    -2
  9
$DIMLWE
 70
    -2
  9
$DIMTMOVE
 70
     0
  9
$LUNITS
 70
     2
  9
$LUPREC
 70
     2
  9
$SKETCHINC
 40
1.0
  9
$FILLETRAD
 40
10.0
  9
$AUNITS
 70
     0
  9
$AUPREC
 70
     2
  9
$MENU
  1
.
  9
$ELEVATION
 40
0.0
  9
$PELEVATION
 40
0.0
  9
$THICKNESS
 40
0.0
  9
$LIMCHECK
 70
     0
  9
$CHAMFERA
 40
10.0
  9
$CHAMFERB
 40
10.0
  9
$CHAMFERC
 40
20.0
  9
$CHAMFERD
 40
0.0
  9
$SKPOLY
 70
     0
  9
$TDCREATE
 40
2456036.403300312
  9
$TDUCREATE
 40
2456036.319966979
  9
$TDUPDATE
 40
2456036.403302118
  9
$TDUUPDATE
 40
2456036.319968785
  9
$TDINDWG
 40
0.0000000116
  9
$TDUSRTIMER
 40
0.0000000116
  9
$USRTIMER
 70
     1
  9
$ANGBASE
 50
0.0
  9
$ANGDIR
 70
     0
  9
$PDMODE
 70
     0
  9
$PDSIZE
 40
-1.0
  9
$PLINEWID
 40
0.0
  9
$SPLFRAME
 70
     0
  9
$SPLINETYPE
 70
     6
  9
$SPLINESEGS
 70
     8
  9
$HANDSEED
  5
2F0
  9
$SURFTAB1
 70
     6
  9
$SURFTAB2
 70
     6
  9
$SURFTYPE
 70
     6
  9
$SURFU
 70
     6
  9
$SURFV
 70
     6
  9
$UCSBASE
  2

  9
$UCSNAME
  2

  9
$UCSORG
 10
0.0
 20
0.0
 30
0.0
  9
$UCSXDIR
 10
1.0
 20
0.0
 30
0.0
  9
$UCSYDIR
 10
0.0
 20
1.0
 30
0.0
  9
$UCSORTHOREF
  2

  9
$UCSORTHOVIEW
 70
     0
  9
$UCSORGTOP
 10
0.0
 20
0.0
 30
0.0
  9
$UCSORGBOTTOM
 10
0.0
 20
0.0
 30
0.0
  9
$UCSORGLEFT
 10
0.0
 20
0.0
 30
0.0
  9
$UCSORGRIGHT
 10
0.0
 20
0.0
 30
0.0
  9
$UCSORGFRONT
 10
0.0
 20
0.0
 30
0.0
  9
$UCSORGBACK
 10
0.0
 20
0.0
 30
0.0
  9
$PUCSBASE
  2

  9
$PUCSNAME
  2

  9
$PUCSORG
 10
0.0
 20
0.0
 30
0.0
  9
$PUCSXDIR
 10
1.0
 20
0.0
 30
0.0
  9
$PUCSYDIR
 10
0.0
 20
1.0
 30
0.0
  9
$PUCSORTHOREF
  2

  9
$PUCSORTHOVIEW
 70
     0
  9
$PUCSORGTOP
 10
0.0
 20
0.0
 30
0.0
  9
$PUCSORGBOTTOM
 10
0.0
 20
0.0
 30
0.0
  9
$PUCSORGLEFT
 10
0.0
 20
0.0
 30
0.0
  9
$PUCSORGRIGHT
 10
0.0
 20
0.0
 30
0.0
  9
$PUCSORGFRONT
 10
0.0
 20
0.0
 30
0.0
  9
$PUCSORGBACK
 10
0.0
 20
0.0
 30
0.0
  9
$USERI1
 70
     0
  9
$USERI2
 70
     0
  9
$USERI3
 70
     0
  9
$USERI4
 70
     0
  9
$USERI5
 70
     0
  9
$USERR1
 40
0.0
  9
$USERR2
 40
0.0
  9
$USERR3
 40
0.0
  9
$USERR4
 40
0.0
  9
$USERR5
 40
0.0
  9
$WORLDVIEW
 70
     1
  9
$SHADEDGE
 70
     3
  9
$SHADEDIF
 70
    70
  9
$TILEMODE
 70
     1
  9
$MAXACTVP
 70
    64
  9
$PINSBASE
 10
0.0
 20
0.0
 30
0.0
  9
$PLIMCHECK
 70
     0
  9
$PEXTMIN
 10
1.0000000000E+20
 20
1.0000000000E+20
 30
1.0000000000E+20
  9
$PEXTMAX
 10
-1.0000000000E+20
 20
-1.0000000000E+20
 30
-1.0000000000E+20
  9
$PLIMMIN
 10
0.0
 20
0.0
  9
$PLIMMAX
 10
420.0
 20
297.0
  9
$UNITMODE
 70
     0
  9
$VISRETAIN
 70
     1
  9
$PLINEGEN
 70
     0
  9
$PSLTSCALE
 70
     1
  9
$TREEDEPTH
 70
  3020
  9
$CMLSTYLE
  2
Standard
  9
$CMLJUST
 70
     0
  9
$CMLSCALE
 40
20.0
  9
$PROXYGRAPHICS
 70
     1
  9
$MEASUREMENT
 70
     1
  9
$CELWEIGHT
370
    -1
  9
$ENDCAPS
280
     0
  9
$JOINSTYLE
280
     0
  9
$LWDISPLAY
290
     1
  9
$INSUNITS
 70
     4
  9
$HYPERLINKBASE
  1

  9
$STYLESHEET
  1

  9
$XEDIT
290
     1
  9
$CEPSNTYPE
380
     0
  9
$PSTYLEMODE
290
     1
  9
$FINGERPRINTGUID
  2
{15C7F742-D1D2-485E-8C1E-B3197B824AD4}
  9
$VERSIONGUID
  2
{FAEB1C32-E019-11D5-929B-00C0DF256EC4}
  9
$EXTNAMES
290
     1
  9
$PSVPSCALE
 40
0.0
  9
$OLESTARTUP
290
     0
  0
ENDSEC
  0
SECTION
  2
CLASSES
  0
CLASS
  1
ACDBDICTIONARYWDFLT
  2
AcDbDictionaryWithDefault
  3
ObjectDBX Classes
 90
        0
280
     0
281
     0
  0
CLASS
  1
VISUALSTYLE
  2
AcDbVisualStyle
  3
ObjectDBX Classes
 90
     4095
280
     0
281
     0
  0
CLASS
  1
MATERIAL
  2
AcDbMaterial
  3
ObjectDBX Classes
 90
     1153
280
     0
281
     0
  0
CLASS
  1
ACDBPLACEHOLDER
  2
AcDbPlaceHolder
  3
ObjectDBX Classes
 90
        0
280
     0
281
     0
  0
CLASS
  1
LAYOUT
  2
AcDbLayout
  3
ObjectDBX Classes
 90
        0
280
     0
281
     0
  0
ENDSEC
  0
SECTION
  2
TABLES
  0
TABLE
  2
VPORT
  5
8
330
0
100
AcDbSymbolTable
 70
     1
  0
VPORT
  5
29
330
8
100
AcDbSymbolTableRecord
100
AcDbViewportTableRecord
  2
*Active
 70
     0
 10
0.0
 20
0.0
 11
1.0
 21
1.0
 12
148.5
 22
105.0
 13
0.0
 23
0.0
 14
10.0
 24
10.0
 15
10.0
 25
10.0
 16
0.0
 26
0.0
 36
1.0
 17
0.0
 27
0.0
 37
0.0
 40
210.0
 41
1.4142857143
 42
50.0
 43
0.0
 44
0.0
 50
0.0
 51
0.0
 71
     0
 72
  2000
 73
     1
 74
     3
 75
     0
 76
     0
 77
     0
 78
     0
281
     0
 65
     1
110
0.0
120
0.0
130
0.0
111
1.0
121
0.0
131
0.0
112
0.0
122
1.0
132
0.0
 79
     0
146
0.0
  0
ENDTAB
  0
TABLE
  2
LTYPE
  5
5
330
0
100
AcDbSymbolTable
 70
     6
  0
LTYPE
  5
14
330
5
100
AcDbSymbolTableRecord
100
AcDbLinetypeTableRecord
  2
ByBlock
 70
     0
  3

 72
    65
 73
     0
 40
0.0
  0
LTYPE
  5
15
330
5
100
AcDbSymbolTableRecord
100
AcDbLinetypeTableRecord
  2
ByLayer
 70
     0
  3

 72
    65
 73
     0
 40
0.0
  0
LTYPE
  5
16
330
5
100
AcDbSymbolTableRecord
100
AcDbLinetypeTableRecord
  2
Continuous
 70
     0
  3
Solid line
 72
    65
 73
     0
 40
0.0
  0
LTYPE
  5
3F
330
5
100
AcDbSymbolTableRecord
100
AcDbLinetypeTableRecord
  2
HIDDEN
 70
     0
  3
Hidden __ __ __ __ __ __ __ __ __ __ __ __ __ __
 72
    65
 73
     2
 40
1.905
 49
1.27
 74
     0
 49
-0.635
 74
     0
  0
LTYPE
  5
40
330
5
100
AcDbSymbolTableRecord
100
AcDbLinetypeTableRecord
  2
PHANTOM
 70
     0
  3
Phantom ______  __  __  ______  __  __  ______
 72
    65
 73
     6
 40
12.7
 49
6.35
 74
     0
 49
-1.27
 74
     0
 49
1.27
 74
     0
 49
-1.27
 74
     0
 49
1.27
 74
     0
 49
-1.27
 74
     0
  0
LTYPE
  5
41
330
5
100
AcDbSymbolTableRecord
100
AcDbLinetypeTableRecord
  2
CENTER
 70
     0
  3
Center ____ _ ____ _ ____ _ ____ _ ____ _ ____
 72
    65
 73
     4
 40
10.16
 49
6.35
 74
     0
 49
-1.27
 74
     0
 49
1.27
 74
     0
 49
-1.27
 74
     0
  0
LTYPE
  5
42
330
5
100
AcDbSymbolTableRecord
100
AcDbLinetypeTableRecord
  2
CENTERX2
 70
     0
  3
Center (2x) ________  __  ________  __  _____
 72
    65
 73
     4
 40
20.32
 49
12.7
 74
     0
 49
-2.54
 74
     0
 49
2.54
 74
     0
 49
-2.54
 74
     0
  0
LTYPE
  5
43
330
5
100
AcDbSymbolTableRecord
100
AcDbLinetypeTableRecord
  2
DOT2
 70
     0
  3
Dot (.5x) ........................................
 72
    65
 73
     2
 40
0.635
 49
0.0
 74
     0
 49
-0.635
 74
     0
  0
ENDTAB
  0
TABLE
  2
LAYER
  5
2
330
0
100
AcDbSymbolTable
 70
     5
  0
LAYER
  5
10
330
2
100
AcDbSymbolTableRecord
100
AcDbLayerTableRecord
  2
0
 70
     0
 62
     7
  6
Continuous
370
    -3
390
F
  0
LAYER
  5
44
330
2
100
AcDbSymbolTableRecord
100
AcDbLayerTableRecord
  2
FORMAT
 70
     0
 62
     7
  6
Continuous
370
    -3
390
F
  0
LAYER
  5
45
330
2
100
AcDbSymbolTableRecord
100
AcDbLayerTableRecord
  2
VERMASSUNG
 70
     0
 62
     7
  6
Continuous
370
    -3
390
F
  0
LAYER
  5
46
330
2
100
AcDbSymbolTableRecord
100
AcDbLayerTableRecord
  2
KOPF_DÜNN
 70
     0
 62
     7
  6
Continuous
370
    -3
390
F
  0
LAYER
  5
47
330
2
100
AcDbSymbolTableRecord
100
AcDbLayerTableRecord
  2
KOPF_DICK
 70
     0
 62
     7
  6
Continuous
370
    15
390
F
  0
ENDTAB
  0
TABLE
  2
STYLE
  5
3
330
0
100
AcDbSymbolTable
 70
     3
  0
STYLE
  5
11
330
3
100
AcDbSymbolTableRecord
100
AcDbTextStyleTableRecord
  2
Standard
 70
     0
 40
0.0
 41
1.0
 50
0.0
 71
     0
 42
2.0
  3
txt
  4

  0
STYLE
  5
48
330
3
100
AcDbSymbolTableRecord
100
AcDbTextStyleTableRecord
  2
SLDTEXTSTYLE0
 70
     0
 40
0.0
 41
0.7
 50
0.0
 71
     0
 42
0.2
  3
TXT
  4

  0
STYLE
  5
4C
330
3
100
AcDbSymbolTableRecord
100
AcDbTextStyleTableRecord
  2
SLDTEXTSTYLE1
 70
     0
 40
0.0
 41
0.6517241379
 50
0.0
 71
     0
 42
0.2
  3
TXT
  4

  0
ENDTAB
  0
TABLE
  2
VIEW
  5
6
330
0
100
AcDbSymbolTable
 70
     0
  0
ENDTAB
  0
TABLE
  2
UCS
  5
7
330
0
100
AcDbSymbolTable
 70
     0
  0
ENDTAB
  0
TABLE
  2
APPID
  5
9
330
0
100
AcDbSymbolTable
 70
     1
  0
APPID
  5
12
330
9
100
AcDbSymbolTableRecord
100
AcDbRegAppTableRecord
  2
ACAD
 70
     0
  0
ENDTAB
  0
TABLE
  2
DIMSTYLE
  5
A
330
0
100
AcDbSymbolTable
 70
     2
100
AcDbDimStyleTable
  0
DIMSTYLE
105
27
330
A
100
AcDbSymbolTableRecord
100
AcDbDimStyleTableRecord
  2
ISO-25
 70
     0
 41
2.5
 42
0.625
 43
3.75
 44
1.25
 73
     0
 74
     0
 77
     1
 78
     8
140
2.5
141
2.5
143
0.0393700787
147
0.625
171
     3
172
     1
178
     0
271
     2
272
     2
274
     3
278
    44
283
     0
284
     8
340
11
  0
DIMSTYLE
105
1CF
102
{ACAD_REACTORS
330
1CE
330
1DB
330
1E6
330
1F1
330
1FB
330
205
330
20F
330
219
330
223
330
22D
102
}
330
A
100
AcDbSymbolTableRecord
100
AcDbDimStyleTableRecord
  2
SLDDIMSTYLE0
 70
     0
 41
3.0
 44
0.0
 45
0.000000001
 73
     0
 74
     0
 77
     1
 78
    12
 79
     3
140
2.0
147
0.5
173
     1
178
     0
271
     2
272
     3
276
     2
284
    12
340
48
  0
ENDTAB
  0
TABLE
  2
BLOCK_RECORD
  5
1
330
0
100
AcDbSymbolTable
 70
    12
  0
BLOCK_RECORD
  5
1F
330
1
100
AcDbSymbolTableRecord
100
AcDbBlockTableRecord
  2
*Model_Space
340
22
  0
BLOCK_RECORD
  5
1B
330
1
100
AcDbSymbolTableRecord
100
AcDbBlockTableRecord
  2
*Paper_Space
340
1E
  0
BLOCK_RECORD
  5
23
330
1
100
AcDbSymbolTableRecord
100
AcDbBlockTableRecord
  2
*Paper_Space0
340
26
  0
BLOCK_RECORD
  5
1D0
330
1
100
AcDbSymbolTableRecord
100
AcDbBlockTableRecord
  2
_D
340
0
  0
BLOCK_RECORD
  5
1DC
330
1
100
AcDbSymbolTableRecord
100
AcDbBlockTableRecord
  2
_D_1
340
0
  0
BLOCK_RECORD
  5
1E7
330
1
100
AcDbSymbolTableRecord
100
AcDbBlockTableRecord
  2
_D_2
340
0
  0
BLOCK_RECORD
  5
1F2
330
1
100
AcDbSymbolTableRecord
100
AcDbBlockTableRecord
  2
_D_3
340
0
  0
BLOCK_RECORD
  5
1FC
330
1
100
AcDbSymbolTableRecord
100
AcDbBlockTableRecord
  2
_D_4
340
0
  0
BLOCK_RECORD
  5
206
330
1
100
AcDbSymbolTableRecord
100
AcDbBlockTableRecord
  2
_D_5
340
0
  0
BLOCK_RECORD
  5
210
330
1
100
AcDbSymbolTableRecord
100
AcDbBlockTableRecord
  2
_D_6
340
0
  0
BLOCK_RECORD
  5
21A
330
1
100
AcDbSymbolTableRecord
100
AcDbBlockTableRecord
  2
_D_7
340
0
  0
BLOCK_RECORD
  5
224
330
1
100
AcDbSymbolTableRecord
100
AcDbBlockTableRecord
  2
_D_8
340
0
  0
BLOCK_RECORD
  5
22E
330
1
100
AcDbSymbolTableRecord
100
AcDbBlockTableRecord
  2
_D_9
340
0
  0
BLOCK_RECORD
  5
2E3
330
1
100
AcDbSymbolTableRecord
100
AcDbBlockTableRecord
  2
SW_CENTERMARKSYMBOL_0
340
0
102
{BLKREFS
331
2EE
102
}
  0
ENDTAB
  0
ENDSEC
  0
SECTION
  2
BLOCKS
  0
BLOCK
  5
20
330
1F
100
AcDbEntity
  8
0
100
AcDbBlockBegin
  2
*Model_Space
 70
     0
 10
0.0
 20
0.0
 30
0.0
  3
*Model_Space
  1

  0
ENDBLK
  5
21
330
1F
100
AcDbEntity
  8
0
100
AcDbBlockEnd
  0
BLOCK
  5
1C
330
1B
100
AcDbEntity
 67
     1
  8
0
100
AcDbBlockBegin
  2
*Paper_Space
 70
     0
 10
0.0
 20
0.0
 30
0.0
  3
*Paper_Space
  1

  0
ENDBLK
  5
1D
330
1B
100
AcDbEntity
 67
     1
  8
0
100
AcDbBlockEnd
  0
BLOCK
  5
24
330
23
100
AcDbEntity
  8
0
100
AcDbBlockBegin
  2
*Paper_Space0
 70
     0
 10
0.0
 20
0.0
 30
0.0
  3
*Paper_Space0
  1

  0
ENDBLK
  5
25
330
23
100
AcDbEntity
  8
0
100
AcDbBlockEnd
  0
BLOCK
  5
1D1
330
1D0
100
AcDbEntity
  8
0
100
AcDbBlockBegin
  2
_D
 70
     0
 10
0.0
 20
0.0
 30
0.0
  3
_D
  1

  0
SOLID
  5
1D3
330
1D0
100
AcDbEntity
  8
VERMASSUNG
100
AcDbTrace
 10
148.2314013671
 20
121.6607142857
 30
0.0
 11
147.7814013671
 21
118.6607142857
 31
0.0
 12
148.6814013671
 22
118.6607142857
 32
0.0
 13
148.6814013671
 23
118.6607142857
 33
0.0
  0
SOLID
  5
1D4
330
1D0
100
AcDbEntity
  8
VERMASSUNG
100
AcDbTrace
 10
148.2314013671
 20
81.6607142857
 30
0.0
 11
148.6814013671
 21
84.6607142857
 31
0.0
 12
147.7814013671
 22
84.6607142857
 32
0.0
 13
147.7814013671
 23
84.6607142857
 33
0.0
  0
LINE
  5
1D5
330
1D0
100
AcDbEntity
  8
VERMASSUNG
100
AcDbLine
 10
170.9927587732
 20
121.6607142857
 30
0.0
 11
147.2314013671
 21
121.6607142857
 31
0.0
  0
LINE
  5
1D6
330
1D0
100
AcDbEntity
  8
VERMASSUNG
100
AcDbLine
 10
170.9927587732
 20
81.6607142857
 30
0.0
 11
147.2314013671
 21
81.6607142857
 31
0.0
  0
LINE
  5
1D7
330
1D0
100
AcDbEntity
  8
VERMASSUNG
100
AcDbLine
 10
148.2314013671
 20
121.6607142857
 30
0.0
 11
148.2314013671
 21
81.6607142857
 31
0.0
  0
MTEXT
  5
1D8
330
1D0
100
AcDbEntity
  8
VERMASSUNG
100
AcDbMText
 10
145.453265878
 20
95.3571119943
 30
0.0
 40
2.0
 41
0.0
 71
     1
 72
     1
  1
HSK
  7
SLDTEXTSTYLE0
 11
-7.044195017643634E-15
 21
1.0
 31
0.0
 73
     1
 44
1.0
  0
MTEXT
  5
1D9
330
1D0
100
AcDbEntity
  8
VERMASSUNG
100
AcDbMText
 10
145.6532658875
 20
101.3571120465
 30
0.0
 40
2.0
 41
0.0
 71
     1
 72
     1
  1
%%c
  7
SLDTEXTSTYLE0
 11
-7.044195017643634E-15
 21
1.0
 31
0.0
 73
     1
 44
1.0
  0
MTEXT
  5
1DA
330
1D0
100
AcDbEntity
  8
VERMASSUNG
100
AcDbMText
 10
145.6532660039
 20
104.9666687375
 30
0.0
 40
2.0
 41
0.0
 71
     1
 72
     1
  1
40
  7
SLDTEXTSTYLE0
 11
-7.044195017643634E-15
 21
1.0
 31
0.0
 73
     1
 44
1.0
  0
ENDBLK
  5
1D2
330
1D0
100
AcDbEntity
  8
0
100
AcDbBlockEnd
  0
BLOCK
  5
1DD
330
1DC
100
AcDbEntity
  8
0
100
AcDbBlockBegin
  2
_D_1
 70
     0
 10
0.0
 20
0.0
 30
0.0
  3
_D_1
  1

  0
SOLID
  5
1DF
330
1DC
100
AcDbEntity
  8
VERMASSUNG
100
AcDbTrace
 10
231.2221216445
 20
106.6607142857
 30
0.0
 11
230.7721216445
 21
103.6607142857
 31
0.0
 12
231.6721216445
 22
103.6607142857
 32
0.0
 13
231.6721216445
 23
103.6607142857
 33
0.0
  0
SOLID
  5
1E0
330
1DC
100
AcDbEntity
  8
VERMASSUNG
100
AcDbTrace
 10
231.2221216445
 20
96.6607142857
 30
0.0
 11
231.6721216445
 21
99.6607142857
 31
0.0
 12
230.7721216445
 22
99.6607142857
 32
0.0
 13
230.7721216445
 23
99.6607142857
 33
0.0
  0
LINE
  5
1E1
330
1DC
100
AcDbEntity
  8
VERMASSUNG
100
AcDbLine
 10
225.3927587732
 20
106.6607142857
 30
0.0
 11
232.2221216445
 21
106.6607142857
 31
0.0
  0
LINE
  5
1E2
330
1DC
100
AcDbEntity
  8
VERMASSUNG
100
AcDbLine
 10
225.3927587732
 20
96.6607142857
 30
0.0
 11
232.2221216445
 21
96.6607142857
 31
0.0
  0
LINE
  5
1E3
330
1DC
100
AcDbEntity
  8
VERMASSUNG
100
AcDbLine
 10
231.2221216445
 20
106.6607142857
 30
0.0
 11
231.2221216445
 21
96.6607142857
 31
0.0
  0
MTEXT
  5
1E4
330
1DC
100
AcDbEntity
  8
VERMASSUNG
100
AcDbMText
 10
228.6439861649
 20
98.6563931428
 30
0.0
 40
2.0
 41
0.0
 71
     1
 72
     1
  1
%%c
  7
SLDTEXTSTYLE0
 11
-7.044195017643634E-15
 21
1.0
 31
0.0
 73
     1
 44
1.0
  0
MTEXT
  5
1E5
330
1DC
100
AcDbEntity
  8
VERMASSUNG
100
AcDbMText
 10
228.6439862814
 20
102.2653155641
 30
0.0
 40
2.0
 41
0.0
 71
     1
 72
     1
  1
10
  7
SLDTEXTSTYLE0
 11
-7.044195017643634E-15
 21
1.0
 31
0.0
 73
     1
 44
1.0
  0
ENDBLK
  5
1DE
330
1DC
100
AcDbEntity
  8
0
100
AcDbBlockEnd
  0
BLOCK
  5
1E8
330
1E7
100
AcDbEntity
  8
0
100
AcDbBlockBegin
  2
_D_2
 70
     0
 10
0.0
 20
0.0
 30
0.0
  3
_D_2
  1

  0
SOLID
  5
1EA
330
1E7
100
AcDbEntity
  8
VERMASSUNG
100
AcDbTrace
 10
237.2221216445
 20
118.6607142857
 30
0.0
 11
236.7721216445
 21
115.6607142857
 31
0.0
 12
237.6721216445
 22
115.6607142857
 32
0.0
 13
237.6721216445
 23
115.6607142857
 33
0.0
  0
SOLID
  5
1EB
330
1E7
100
AcDbEntity
  8
VERMASSUNG
100
AcDbTrace
 10
237.2221216445
 20
84.6607142857
 30
0.0
 11
237.6721216445
 21
87.6607142857
 31
0.0
 12
236.7721216445
 22
87.6607142857
 32
0.0
 13
236.7721216445
 23
87.6607142857
 33
0.0
  0
LINE
  5
1EC
330
1E7
100
AcDbEntity
  8
VERMASSUNG
100
AcDbLine
 10
224.6927587732
 20
118.6607142857
 30
0.0
 11
238.2221216445
 21
118.6607142857
 31
0.0
  0
LINE
  5
1ED
330
1E7
100
AcDbEntity
  8
VERMASSUNG
100
AcDbLine
 10
224.6927587732
 20
84.6607142857
 30
0.0
 11
238.2221216445
 21
84.6607142857
 31
0.0
  0
LINE
  5
1EE
330
1E7
100
AcDbEntity
  8
VERMASSUNG
100
AcDbLine
 10
237.2221216445
 20
118.6607142857
 30
0.0
 11
237.2221216445
 21
84.6607142857
 31
0.0
  0
MTEXT
  5
1EF
330
1E7
100
AcDbEntity
  8
VERMASSUNG
100
AcDbMText
 10
234.6439861649
 20
98.3574291552
 30
0.0
 40
2.0
 41
0.0
 71
     1
 72
     1
  1
%%c
  7
SLDTEXTSTYLE0
 11
-7.044195017643634E-15
 21
1.0
 31
0.0
 73
     1
 44
1.0
  0
MTEXT
  5
1F0
330
1E7
100
AcDbEntity
  8
VERMASSUNG
100
AcDbMText
 10
234.6439862814
 20
101.9663515766
 30
0.0
 40
2.0
 41
0.0
 71
     1
 72
     1
  1
34
  7
SLDTEXTSTYLE0
 11
-7.044195017643634E-15
 21
1.0
 31
0.0
 73
     1
 44
1.0
  0
ENDBLK
  5
1E9
330
1E7
100
AcDbEntity
  8
0
100
AcDbBlockEnd
  0
BLOCK
  5
1F3
330
1F2
100
AcDbEntity
  8
0
100
AcDbBlockBegin
  2
_D_3
 70
     0
 10
0.0
 20
0.0
 30
0.0
  3
_D_3
  1

  0
SOLID
  5
1F5
330
1F2
100
AcDbEntity
  8
VERMASSUNG
100
AcDbTrace
 10
150.7927587732
 20
136.1618286652
 30
0.0
 11
153.7927587732
 21
135.7118286652
 31
0.0
 12
153.7927587732
 22
136.6118286652
 32
0.0
 13
153.7927587732
 23
136.6118286652
 33
0.0
  0
SOLID
  5
1F6
330
1F2
100
AcDbEntity
  8
VERMASSUNG
100
AcDbTrace
 10
225.6927587732
 20
136.1618286652
 30
0.0
 11
222.6927587732
 21
136.6118286652
 31
0.0
 12
222.6927587732
 22
135.7118286652
 32
0.0
 13
222.6927587732
 23
135.7118286652
 33
0.0
  0
LINE
  5
1F7
330
1F2
100
AcDbEntity
  8
VERMASSUNG
100
AcDbLine
 10
150.7927587732
 20
113.5907142857
 30
0.0
 11
150.7927587732
 21
137.1618286652
 31
0.0
  0
LINE
  5
1F8
330
1F2
100
AcDbEntity
  8
VERMASSUNG
100
AcDbLine
 10
225.6927587732
 20
117.6607142857
 30
0.0
 11
225.6927587732
 21
137.1618286652
 31
0.0
  0
LINE
  5
1F9
330
1F2
100
AcDbEntity
  8
VERMASSUNG
100
AcDbLine
 10
150.7927587732
 20
136.1618286652
 30
0.0
 11
225.6927587732
 21
136.1618286652
 31
0.0
  0
MTEXT
  5
1FA
330
1F2
100
AcDbEntity
  8
VERMASSUNG
100
AcDbMText
 10
185.7429393593
 20
138.7399640283
 30
0.0
 40
2.0
 41
0.0
 71
     1
 72
     1
  1
74.9
  7
SLDTEXTSTYLE0
 73
     1
 44
1.0
  0
ENDBLK
  5
1F4
330
1F2
100
AcDbEntity
  8
0
100
AcDbBlockEnd
  0
BLOCK
  5
1FD
330
1FC
100
AcDbEntity
  8
0
100
AcDbBlockBegin
  2
_D_4
 70
     0
 10
0.0
 20
0.0
 30
0.0
  3
_D_4
  1

  0
SOLID
  5
1FF
330
1FC
100
AcDbEntity
  8
VERMASSUNG
100
AcDbTrace
 10
170.6927587732
 20
130.1618286652
 30
0.0
 11
173.6927587732
 21
129.7118286652
 31
0.0
 12
173.6927587732
 22
130.6118286652
 32
0.0
 13
173.6927587732
 23
130.6118286652
 33
0.0
  0
SOLID
  5
200
330
1FC
100
AcDbEntity
  8
VERMASSUNG
100
AcDbTrace
 10
225.6927587732
 20
130.1618286652
 30
0.0
 11
222.6927587732
 21
130.6118286652
 31
0.0
 12
222.6927587732
 22
129.7118286652
 32
0.0
 13
222.6927587732
 23
129.7118286652
 33
0.0
  0
LINE
  5
201
330
1FC
100
AcDbEntity
  8
VERMASSUNG
100
AcDbLine
 10
170.6927587732
 20
121.3607142857
 30
0.0
 11
170.6927587732
 21
131.1618286652
 31
0.0
  0
LINE
  5
202
330
1FC
100
AcDbEntity
  8
VERMASSUNG
100
AcDbLine
 10
225.6927587732
 20
117.6607142857
 30
0.0
 11
225.6927587732
 21
131.1618286652
 31
0.0
  0
LINE
  5
203
330
1FC
100
AcDbEntity
  8
VERMASSUNG
100
AcDbLine
 10
170.6927587732
 20
130.1618286652
 30
0.0
 11
225.6927587732
 21
130.1618286652
 31
0.0
  0
MTEXT
  5
204
330
1FC
100
AcDbEntity
  8
VERMASSUNG
100
AcDbMText
 10
196.7940344028
 20
132.7399640283
 30
0.0
 40
2.0
 41
0.0
 71
     1
 72
     1
  1
55
  7
SLDTEXTSTYLE0
 73
     1
 44
1.0
  0
ENDBLK
  5
1FE
330
1FC
100
AcDbEntity
  8
0
100
AcDbBlockEnd
  0
BLOCK
  5
207
330
206
100
AcDbEntity
  8
0
100
AcDbBlockBegin
  2
_D_5
 70
     0
 10
0.0
 20
0.0
 30
0.0
  3
_D_5
  1

  0
SOLID
  5
209
330
206
100
AcDbEntity
  8
VERMASSUNG
100
AcDbTrace
 10
190.6427587732
 20
124.1618286652
 30
0.0
 11
193.6427587732
 21
123.7118286652
 31
0.0
 12
193.6427587732
 22
124.6118286652
 32
0.0
 13
193.6427587732
 23
124.6118286652
 33
0.0
  0
SOLID
  5
20A
330
206
100
AcDbEntity
  8
VERMASSUNG
100
AcDbTrace
 10
225.6927587732
 20
124.1618286652
 30
0.0
 11
222.6927587732
 21
124.6118286652
 31
0.0
 12
222.6927587732
 22
123.7118286652
 32
0.0
 13
222.6927587732
 23
123.7118286652
 33
0.0
  0
LINE
  5
20B
330
206
100
AcDbEntity
  8
VERMASSUNG
100
AcDbLine
 10
190.6427587732
 20
120.5315913189
 30
0.0
 11
190.6427587732
 21
125.1618286652
 31
0.0
  0
LINE
  5
20C
330
206
100
AcDbEntity
  8
VERMASSUNG
100
AcDbLine
 10
225.6927587732
 20
117.6607142857
 30
0.0
 11
225.6927587732
 21
125.1618286652
 31
0.0
  0
LINE
  5
20D
330
206
100
AcDbEntity
  8
VERMASSUNG
100
AcDbLine
 10
190.6427587732
 20
124.1618286652
 30
0.0
 11
225.6927587732
 21
124.1618286652
 31
0.0
  0
MTEXT
  5
20E
330
206
100
AcDbEntity
  8
VERMASSUNG
100
AcDbMText
 10
205.0686767235
 20
126.7399640283
 30
0.0
 40
2.0
 41
0.0
 71
     1
 72
     1
  1
35.05
  7
SLDTEXTSTYLE0
 73
     1
 44
1.0
  0
ENDBLK
  5
208
330
206
100
AcDbEntity
  8
0
100
AcDbBlockEnd
  0
BLOCK
  5
211
330
210
100
AcDbEntity
  8
0
100
AcDbBlockBegin
  2
_D_6
 70
     0
 10
0.0
 20
0.0
 30
0.0
  3
_D_6
  1

  0
SOLID
  5
213
330
210
100
AcDbEntity
  8
VERMASSUNG
100
AcDbTrace
 10
225.6927587732
 20
80.3541992299
 30
0.0
 11
222.6927587732
 21
80.8041992299
 31
0.0
 12
222.6927587732
 22
79.9041992299
 32
0.0
 13
222.6927587732
 23
79.9041992299
 33
0.0
  0
SOLID
  5
214
330
210
100
AcDbEntity
  8
VERMASSUNG
100
AcDbTrace
 10
217.6927587732
 20
80.3541992299
 30
0.0
 11
220.6927587732
 21
79.9041992299
 31
0.0
 12
220.6927587732
 22
80.8041992299
 32
0.0
 13
220.6927587732
 23
80.8041992299
 33
0.0
  0
LINE
  5
215
330
210
100
AcDbEntity
  8
VERMASSUNG
100
AcDbLine
 10
225.6927587732
 20
85.6607142857
 30
0.0
 11
225.6927587732
 21
79.3541992299
 31
0.0
  0
LINE
  5
216
330
210
100
AcDbEntity
  8
VERMASSUNG
100
AcDbLine
 10
217.6927587732
 20
104.6607142857
 30
0.0
 11
217.6927587732
 21
79.3541992299
 31
0.0
  0
LINE
  5
217
330
210
100
AcDbEntity
  8
VERMASSUNG
100
AcDbLine
 10
225.6927587732
 20
80.3541992299
 30
0.0
 11
217.6927587732
 21
80.3541992299
 31
0.0
  0
MTEXT
  5
218
330
210
100
AcDbEntity
  8
VERMASSUNG
100
AcDbMText
 10
220.993396588
 20
82.9323345931
 30
0.0
 40
2.0
 41
0.0
 71
     1
 72
     1
  1
8
  7
SLDTEXTSTYLE0
 73
     1
 44
1.0
  0
ENDBLK
  5
212
330
210
100
AcDbEntity
  8
0
100
AcDbBlockEnd
  0
BLOCK
  5
21B
330
21A
100
AcDbEntity
  8
0
100
AcDbBlockBegin
  2
_D_7
 70
     0
 10
0.0
 20
0.0
 30
0.0
  3
_D_7
  1

  0
SOLID
  5
21D
330
21A
100
AcDbEntity
  8
VERMASSUNG
100
AcDbTrace
 10
217.6927587732
 20
80.3541992299
 30
0.0
 11
214.6927587732
 21
80.8041992299
 31
0.0
 12
214.6927587732
 22
79.9041992299
 32
0.0
 13
214.6927587732
 23
79.9041992299
 33
0.0
  0
SOLID
  5
21E
330
21A
100
AcDbEntity
  8
VERMASSUNG
100
AcDbTrace
 10
207.6927587732
 20
80.3541992299
 30
0.0
 11
210.6927587732
 21
79.9041992299
 31
0.0
 12
210.6927587732
 22
80.8041992299
 32
0.0
 13
210.6927587732
 23
80.8041992299
 33
0.0
  0
LINE
  5
21F
330
21A
100
AcDbEntity
  8
VERMASSUNG
100
AcDbLine
 10
217.6927587732
 20
104.6607142857
 30
0.0
 11
217.6927587732
 21
79.3541992299
 31
0.0
  0
LINE
  5
220
330
21A
100
AcDbEntity
  8
VERMASSUNG
100
AcDbLine
 10
207.6927587732
 20
104.6607142857
 30
0.0
 11
207.6927587732
 21
79.3541992299
 31
0.0
  0
LINE
  5
221
330
21A
100
AcDbEntity
  8
VERMASSUNG
100
AcDbLine
 10
217.6927587732
 20
80.3541992299
 30
0.0
 11
207.6927587732
 21
80.3541992299
 31
0.0
  0
MTEXT
  5
222
330
21A
100
AcDbEntity
  8
VERMASSUNG
100
AcDbMText
 10
211.492898841
 20
82.9323345931
 30
0.0
 40
2.0
 41
0.0
 71
     1
 72
     1
  1
10
  7
SLDTEXTSTYLE0
 73
     1
 44
1.0
  0
ENDBLK
  5
21C
330
21A
100
AcDbEntity
  8
0
100
AcDbBlockEnd
  0
BLOCK
  5
225
330
224
100
AcDbEntity
  8
0
100
AcDbBlockBegin
  2
_D_8
 70
     0
 10
0.0
 20
0.0
 30
0.0
  3
_D_8
  1

  0
SOLID
  5
227
330
224
100
AcDbEntity
  8
VERMASSUNG
100
AcDbTrace
 10
207.6927587732
 20
80.3541992299
 30
0.0
 11
204.6927587732
 21
80.8041992299
 31
0.0
 12
204.6927587732
 22
79.9041992299
 32
0.0
 13
204.6927587732
 23
79.9041992299
 33
0.0
  0
SOLID
  5
228
330
224
100
AcDbEntity
  8
VERMASSUNG
100
AcDbTrace
 10
197.6927587732
 20
80.3541992299
 30
0.0
 11
200.6927587732
 21
79.9041992299
 31
0.0
 12
200.6927587732
 22
80.8041992299
 32
0.0
 13
200.6927587732
 23
80.8041992299
 33
0.0
  0
LINE
  5
229
330
224
100
AcDbEntity
  8
VERMASSUNG
100
AcDbLine
 10
207.6927587732
 20
104.6607142857
 30
0.0
 11
207.6927587732
 21
79.3541992299
 31
0.0
  0
LINE
  5
22A
330
224
100
AcDbEntity
  8
VERMASSUNG
100
AcDbLine
 10
197.6927587732
 20
104.6607142857
 30
0.0
 11
197.6927587732
 21
79.3541992299
 31
0.0
  0
LINE
  5
22B
330
224
100
AcDbEntity
  8
VERMASSUNG
100
AcDbLine
 10
207.6927587732
 20
80.3541992299
 30
0.0
 11
197.6927587732
 21
80.3541992299
 31
0.0
  0
MTEXT
  5
22C
330
224
100
AcDbEntity
  8
VERMASSUNG
100
AcDbMText
 10
201.492898841
 20
82.9323345931
 30
0.0
 40
2.0
 41
0.0
 71
     1
 72
     1
  1
10
  7
SLDTEXTSTYLE0
 73
     1
 44
1.0
  0
ENDBLK
  5
226
330
224
100
AcDbEntity
  8
0
100
AcDbBlockEnd
  0
BLOCK
  5
22F
330
22E
100
AcDbEntity
  8
0
100
AcDbBlockBegin
  2
_D_9
 70
     0
 10
0.0
 20
0.0
 30
0.0
  3
_D_9
  1

  0
SOLID
  5
231
330
22E
100
AcDbEntity
  8
VERMASSUNG
100
AcDbTrace
 10
225.6927587732
 20
75.3529053832
 30
0.0
 11
222.6927587732
 21
75.8029053832
 31
0.0
 12
222.6927587732
 22
74.9029053832
 32
0.0
 13
222.6927587732
 23
74.9029053832
 33
0.0
  0
SOLID
  5
232
330
22E
100
AcDbEntity
  8
VERMASSUNG
100
AcDbTrace
 10
189.6927587732
 20
75.3529053832
 30
0.0
 11
192.6927587732
 21
74.9029053832
 31
0.0
 12
192.6927587732
 22
75.8029053832
 32
0.0
 13
192.6927587732
 23
75.8029053832
 33
0.0
  0
LINE
  5
233
330
22E
100
AcDbEntity
  8
VERMASSUNG
100
AcDbLine
 10
225.6927587732
 20
85.6607142857
 30
0.0
 11
225.6927587732
 21
74.3529053832
 31
0.0
  0
LINE
  5
234
330
22E
100
AcDbEntity
  8
VERMASSUNG
100
AcDbLine
 10
189.6927587732
 20
96.7607142857
 30
0.0
 11
189.6927587732
 21
74.3529053832
 31
0.0
  0
LINE
  5
235
330
22E
100
AcDbEntity
  8
VERMASSUNG
100
AcDbLine
 10
225.6927587732
 20
75.3529053832
 30
0.0
 11
189.6927587732
 21
75.3529053832
 31
0.0
  0
MTEXT
  5
236
330
22E
100
AcDbEntity
  8
VERMASSUNG
100
AcDbMText
 10
206.2940344028
 20
77.9310407463
 30
0.0
 40
2.0
 41
0.0
 71
     1
 72
     1
  1
36
  7
SLDTEXTSTYLE0
 73
     1
 44
1.0
  0
ENDBLK
  5
230
330
22E
100
AcDbEntity
  8
0
100
AcDbBlockEnd
  0
BLOCK
  5
2E4
330
2E3
100
AcDbEntity
  8
0
100
AcDbBlockBegin
  2
SW_CENTERMARKSYMBOL_0
 70
     0
 10
0.0
 20
0.0
 30
0.0
  3
SW_CENTERMARKSYMBOL_0
  1

  0
LINE
  5
2E6
330
2E3
100
AcDbEntity
  8
VERMASSUNG
 62
     0
100
AcDbLine
 10
0.0
 20
0.0
 30
0.0
 11
0.0
 21
2.5
 31
0.0
  0
LINE
  5
2E7
330
2E3
100
AcDbEntity
  8
VERMASSUNG
 62
     0
100
AcDbLine
 10
0.0
 20
0.0
 30
0.0
 11
-2.5
 21
0.0
 31
0.0
  0
LINE
  5
2E8
330
2E3
100
AcDbEntity
  8
VERMASSUNG
 62
     0
100
AcDbLine
 10
0.0
 20
0.0
 30
0.0
 11
0.0
 21
-2.5
 31
0.0
  0
LINE
  5
2E9
330
2E3
100
AcDbEntity
  8
VERMASSUNG
 62
     0
100
AcDbLine
 10
0.0
 20
0.0
 30
0.0
 11
2.5
 21
0.0
 31
0.0
  0
LINE
  5
2EA
330
2E3
100
AcDbEntity
  8
VERMASSUNG
 62
     0
100
AcDbLine
 10
0.0
 20
5.0
 30
0.0
 11
0.0
 21
22.5
 31
0.0
  0
LINE
  5
2EB
330
2E3
100
AcDbEntity
  8
VERMASSUNG
 62
     0
100
AcDbLine
 10
-5.0
 20
0.0
 30
0.0
 11
-22.5
 21
0.0
 31
0.0
  0
LINE
  5
2EC
330
2E3
100
AcDbEntity
  8
VERMASSUNG
 62
     0
100
AcDbLine
 10
0.0
 20
-5.0
 30
0.0
 11
0.0
 21
-22.5
 31
0.0
  0
LINE
  5
2ED
330
2E3
100
AcDbEntity
  8
VERMASSUNG
 62
     0
100
AcDbLine
 10
5.0
 20
0.0
 30
0.0
 11
22.5
 21
0.0
 31
0.0
  0
ENDBLK
  5
2E5
330
2E3
100
AcDbEntity
  8
0
100
AcDbBlockEnd
  0
ENDSEC
  0
SECTION
  2
ENTITIES
  0
MTEXT
  5
49
330
1F
100
AcDbEntity
  8
KOPF_DÜNN
100
AcDbMText
 10
13.8892156294
 20
23.8442973028
 30
0.0
 40
3.0
 41
0.0
 71
     1
 72
     1
  1
HA4.B10.K01.055
  7
SLDTEXTSTYLE0
 73
     1
 44
1.0
  0
MTEXT
  5
4A
330
1F
100
AcDbEntity
  8
VERMASSUNG
100
AcDbMText
 10
13.9329988022
 20
28.8834360957
 30
0.0
 40
3.0
 41
0.0
 71
     1
 72
     1
  1
Bohrstangenhalter_Boring bar holder
  7
SLDTEXTSTYLE0
 73
     1
 44
1.0
  0
MTEXT
  5
4B
330
1F
100
AcDbEntity
  8
VERMASSUNG
100
AcDbMText
 10
98.8601118557
 20
13.8365368179
 30
0.0
 40
2.0
 41
0.0
 71
     1
 72
     1
  1
Datum: 09.02.2009
  7
SLDTEXTSTYLE0
 73
     1
 44
1.0
  0
MTEXT
  5
4D
330
1F
100
AcDbEntity
  8
VERMASSUNG
100
AcDbMText
 10
13.933048693
 20
18.0482802738
 30
0.0
 40
2.0
 41
0.0
 71
     1
 72
     1
  1
DIN 69893 HSK 40 A ICTM / ø10
  7
SLDTEXTSTYLE1
 73
     1
 44
1.0
  0
MTEXT
  5
4E
330
1F
100
AcDbEntity
  8
VERMASSUNG
100
AcDbMText
 10
13.9808475933
 20
13.9090973692
 30
0.0
 40
2.0
 41
0.0
 71
     1
 72
     1
  1
Gewicht: 407g
  7
SLDTEXTSTYLE0
 73
     1
 44
1.0
  0
LINE
  5
4F
330
1F
100
AcDbEntity
  8
0
  6
Continuous
 62
     7
370
    15
100
AcDbLine
 10
170.9927587875
 20
81.6607147327
 30
0.0
 11
178.6427592381
 21
81.6607147327
 31
0.0
  0
LINE
  5
50
330
1F
100
AcDbEntity
  8
0
  6
Continuous
 62
     7
370
    15
100
AcDbLine
 10
178.6582862481
 20
121.6607138387
 30
0.0
 11
170.9927587875
 21
121.6607138387
 31
0.0
  0
ARC
  5
51
330
1F
100
AcDbEntity
  8
0
  6
Continuous
 62
     7
370
    15
100
AcDbCircle
 10
170.9927587732
 20
81.9607142857
 30
0.0
 40
0.3000000000000114
100
AcDbArc
 50
180.0
 51
270.0
  0
ARC
  5
52
330
1F
100
AcDbEntity
  8
0
  6
Continuous
 62
     7
370
    15
100
AcDbCircle
 10
170.9927587732
 20
121.3607142857
 30
0.0
 40
0.3000000000000114
100
AcDbArc
 50
90.0
 51
180.0
  0
ARC
  5
53
330
1F
100
AcDbEntity
  8
0
  6
Continuous
 62
     7
370
    15
100
AcDbCircle
 10
191.6427587732
 20
84.1607142857
 30
0.0
 40
1.000000000000015
100
AcDbArc
 50
90.0
 51
143.1137328946
  0
ARC
  5
54
330
1F
100
AcDbEntity
  8
0
  6
Continuous
 62
     7
370
    15
100
AcDbCircle
 10
191.6427587732
 20
119.1607142857
 30
0.0
 40
1.00000000000002
100
AcDbArc
 50
216.8998129703
 51
270.0
  0
LINE
  5
55
330
1F
100
AcDbEntity
  8
0
  6
Continuous
 62
     7
370
    15
100
AcDbLine
 10
214.1982970282
 20
118.6607152096
 30
0.0
 11
211.1834344908
 21
118.6607152096
 31
0.0
  0
LINE
  5
56
330
1F
100
AcDbEntity
  8
0
  6
Continuous
 62
     7
370
    15
100
AcDbLine
 10
224.6927601739
 20
118.6607152096
 30
0.0
 11
221.1807986244
 21
118.6607152096
 31
0.0
  0
LINE
  5
57
330
1F
100
AcDbEntity
  8
0
  6
Continuous
 62
     7
370
    15
100
AcDbLine
 10
206.3541953906
 20
84.6607133618
 30
0.0
 11
224.6927601739
 21
84.6607133618
 31
0.0
  0
ARC
  5
58
330
1F
100
AcDbEntity
  8
0
  6
Continuous
 62
     7
370
    15
100
AcDbCircle
 10
224.6927587732
 20
117.6607142857
 30
0.0
 40
1.000000000000014
100
AcDbArc
 50
0.0
 51
90.0
  0
ARC
  5
59
330
1F
100
AcDbEntity
  8
0
  6
Continuous
 62
     7
370
    15
100
AcDbCircle
 10
224.6927587732
 20
85.6607142857
 30
0.0
 40
1.0
100
AcDbArc
 50
270.0
 51
0.0
  0
ARC
  5
5A
330
1F
100
AcDbEntity
  8
0
  6
Continuous
 62
     7
370
    15
100
AcDbCircle
 10
206.354196601
 20
85.6607142857
 30
0.0
 40
1.00000000000002
100
AcDbArc
 50
228.5903778907
 51
270.0
  0
ARC
  5
5B
330
1F
100
AcDbEntity
  8
0
  6
Continuous
 62
     7
370
    15
100
AcDbCircle
 10
205.0313209455
 20
84.1607142857
 30
0.0
 40
1.0
100
AcDbArc
 50
48.5903778907
 51
90.0
  0
LINE
  5
5C
330
1F
100
AcDbEntity
  8
0
  6
Continuous
 62
     7
370
    15
100
AcDbLine
 10
191.6427595064
 20
85.1607143751
 30
0.0
 11
205.0313224539
 21
85.1607143751
 31
0.0
  0
LINE
  5
5D
330
1F
100
AcDbEntity
  8
0
  6
Continuous
 62
     7
370
    15
100
AcDbLine
 10
194.2047571286
 20
118.1607141963
 30
0.0
 11
191.6427595064
 21
118.1607141963
 31
0.0
  0
LINE
  5
5E
330
1F
100
AcDbEntity
  8
0
  6
Continuous
 62
     7
370
    15
100
AcDbLine
 10
204.2006572231
 20
118.1607141963
 30
0.0
 11
201.1868135526
 21
118.1607141963
 31
0.0
  0
ARC
  5
5F
330
1F
100
AcDbEntity
  8
0
  6
Continuous
 62
     7
370
    15
100
AcDbCircle
 10
170.1927520205
 20
86.2070071322
 30
0.0
 40
0.6000067526677282
100
AcDbArc
 50
33.5571153394
 51
90.0
  0
ARC
  5
60
330
1F
100
AcDbEntity
  8
0
  6
Continuous
 62
     7
370
    15
100
AcDbCircle
 10
170.1927520205
 20
117.1144214392
 30
0.0
 40
0.6000067526677282
100
AcDbArc
 50
270.0
 51
326.4428846606
  0
LINE
  5
61
330
1F
100
AcDbEntity
  8
0
  6
Continuous
 62
     7
370
    15
100
AcDbLine
 10
161.8768257543
 20
116.4229351899
 30
0.0
 11
154.3927585229
 21
116.0479819274
 31
0.0
  0
LINE
  5
62
330
1F
100
AcDbEntity
  8
0
  6
Continuous
 62
     7
370
    15
100
AcDbLine
 10
168.6927586782
 20
116.7644148565
 30
0.0
 11
167.45802611
 21
116.7025545484
 31
0.0
  0
LINE
  5
63
330
1F
100
AcDbEntity
  8
0
  6
Continuous
 62
     7
370
    15
100
AcDbLine
 10
167.4590221595
 20
86.6188246629
 30
0.0
 11
168.6927586782
 21
86.557013715
 31
0.0
  0
LINE
  5
64
330
1F
100
AcDbEntity
  8
0
  6
Continuous
 62
     7
370
    15
100
AcDbLine
 10
156.8927589327
 20
87.1481958649
 30
0.0
 11
161.8772886216
 21
86.8984700984
 31
0.0
  0
LINE
  5
65
330
1F
100
AcDbEntity
  8
0
  6
Continuous
 62
     7
370
    15
100
AcDbLine
 10
168.6927586782
 20
86.557013715
 30
0.0
 11
169.5494706731
 21
86.7865688971
 31
0.0
  0
LINE
  5
66
330
1F
100
AcDbEntity
  8
0
  6
Continuous
 62
     7
370
    15
100
AcDbLine
 10
169.5494706731
 20
116.5348596743
 30
0.0
 11
168.6927586782
 21
116.7644148565
 31
0.0
  0
ARC
  5
67
330
1F
100
AcDbEntity
  8
0
  6
Continuous
 62
     7
370
    15
100
AcDbCircle
 10
169.7047638627
 20
86.2070071322
 30
0.0
 40
0.600006752667717
100
AcDbArc
 50
90.0
 51
105.0
  0
ARC
  5
68
330
1F
100
AcDbEntity
  8
0
  6
Continuous
 62
     7
370
    15
100
AcDbCircle
 10
169.7047638627
 20
117.1144214392
 30
0.0
 40
0.600006752667717
100
AcDbArc
 50
255.0
 51
270.0
  0
LINE
  5
69
330
1F
100
AcDbEntity
  8
0
  6
Continuous
 62
     7
370
    15
100
AcDbLine
 10
169.704763823
 20
86.8070142216
 30
0.0
 11
170.1927519974
 21
86.8070142216
 31
0.0
  0
LINE
  5
6A
330
1F
100
AcDbEntity
  8
0
  6
Continuous
 62
     7
370
    15
100
AcDbLine
 10
170.1927519974
 20
116.5144143498
 30
0.0
 11
169.704763823
 21
116.5144143498
 31
0.0
  0
ARC
  5
6B
330
1F
100
AcDbEntity
  8
0
  6
Continuous
 62
     7
370
    15
100
AcDbCircle
 10
153.4927587732
 20
115.4407142857
 30
0.0
 40
0.9000000000000071
100
AcDbArc
 50
270.0
 51
311.1792132369
  0
ARC
  5
6C
330
1F
100
AcDbEntity
  8
0
  6
Continuous
 62
     7
370
    15
100
AcDbCircle
 10
155.9927587732
 20
87.8807142857
 30
0.0
 40
0.9000000000000057
100
AcDbArc
 50
34.6391318474
 51
90.0
  0
LINE
  5
6D
330
1F
100
AcDbEntity
  8
0
  6
Continuous
 62
     7
370
    15
100
AcDbLine
 10
151.7427583679
 20
114.5407145715
 30
0.0
 11
150.7927590504
 21
113.5907143227
 31
0.0
  0
LINE
  5
6E
330
1F
100
AcDbEntity
  8
0
  6
Continuous
 62
     7
370
    15
100
AcDbLine
 10
153.4927581891
 20
114.5407145715
 30
0.0
 11
151.7427583679
 21
114.5407145715
 31
0.0
  0
LINE
  5
6F
330
1F
100
AcDbEntity
  8
0
  6
Continuous
 62
     7
370
    15
100
AcDbLine
 10
151.8017595157
 20
88.7807139999
 30
0.0
 11
155.9927585989
 21
88.7807139999
 31
0.0
  0
LINE
  5
70
330
1F
100
AcDbEntity
  8
0
  6
Continuous
 62
     7
370
    15
100
AcDbLine
 10
150.7927590504
 20
89.7897144652
 30
0.0
 11
151.8017595157
 21
88.7807139999
 31
0.0
  0
CIRCLE
  5
71
330
1F
100
AcDbEntity
  8
0
  6
Continuous
 62
     7
370
    15
100
AcDbCircle
 10
217.6927587732
 20
101.6607142857
 30
0.0
 40
3.309499999999999
  0
LINE
  5
72
330
1F
100
AcDbEntity
  8
0
  6
Continuous
 62
     7
370
    15
100
AcDbLine
 10
219.4033285126
 20
103.2122574153
 30
0.0
 11
217.2043678805
 21
103.9178823459
 31
0.0
  0
LINE
  5
73
330
1F
100
AcDbEntity
  8
0
  6
Continuous
 62
     7
370
    15
100
AcDbLine
 10
215.4937965318
 20
102.3663390999
 30
0.0
 11
217.2043678805
 21
103.9178823459
 31
0.0
  0
LINE
  5
74
330
1F
100
AcDbEntity
  8
0
  6
Continuous
 62
     7
370
    15
100
AcDbLine
 10
215.9821895405
 20
100.1091711561
 30
0.0
 11
215.4937965318
 21
102.3663390999
 31
0.0
  0
LINE
  5
75
330
1F
100
AcDbEntity
  8
0
  6
Continuous
 62
     7
370
    15
100
AcDbLine
 10
215.9821895405
 20
100.1091711561
 30
0.0
 11
218.1811501726
 21
99.4035462255
 31
0.0
  0
LINE
  5
76
330
1F
100
AcDbEntity
  8
0
  6
Continuous
 62
     7
370
    15
100
AcDbLine
 10
219.891717796
 20
100.9550894716
 30
0.0
 11
218.1811501726
 21
99.4035462255
 31
0.0
  0
LINE
  5
77
330
1F
100
AcDbEntity
  8
0
  6
Continuous
 62
     7
370
    15
100
AcDbLine
 10
219.891717796
 20
100.9550894716
 30
0.0
 11
219.4033285126
 21
103.2122574153
 31
0.0
  0
CIRCLE
  5
78
330
1F
100
AcDbEntity
  8
0
  6
Continuous
 62
     7
370
    15
100
AcDbCircle
 10
207.6927587732
 20
101.6607142857
 30
0.0
 40
3.309499999999999
  0
LINE
  5
79
330
1F
100
AcDbEntity
  8
0
  6
Continuous
 62
     7
370
    15
100
AcDbLine
 10
209.4033268734
 20
103.2122574153
 30
0.0
 11
207.2043662413
 21
103.9178823459
 31
0.0
  0
LINE
  5
7A
330
1F
100
AcDbEntity
  8
0
  6
Continuous
 62
     7
370
    15
100
AcDbLine
 10
205.493798618
 20
102.3663390999
 30
0.0
 11
207.2043662413
 21
103.9178823459
 31
0.0
  0
LINE
  5
7B
330
1F
100
AcDbEntity
  8
0
  6
Continuous
 62
     7
370
    15
100
AcDbLine
 10
205.9821879014
 20
100.1091711561
 30
0.0
 11
205.493798618
 21
102.3663390999
 31
0.0
  0
LINE
  5
7C
330
1F
100
AcDbEntity
  8
0
  6
Continuous
 62
     7
370
    15
100
AcDbLine
 10
205.9821879014
 20
100.1091711561
 30
0.0
 11
208.1811485335
 21
99.4035462255
 31
0.0
  0
LINE
  5
7D
330
1F
100
AcDbEntity
  8
0
  6
Continuous
 62
     7
370
    15
100
AcDbLine
 10
209.8917198821
 20
100.9550894716
 30
0.0
 11
208.1811485335
 21
99.4035462255
 31
0.0
  0
LINE
  5
7E
330
1F
100
AcDbEntity
  8
0
  6
Continuous
 62
     7
370
    15
100
AcDbLine
 10
209.8917198821
 20
100.9550894716
 30
0.0
 11
209.4033268734
 21
103.2122574153
 31
0.0
  0
CIRCLE
  5
7F
330
1F
100
AcDbEntity
  8
0
  6
Continuous
 62
     7
370
    15
100
AcDbCircle
 10
197.6927587732
 20
101.6607142857
 30
0.0
 40
3.309500000000011
  0
LINE
  5
80
330
1F
100
AcDbEntity
  8
0
  6
Continuous
 62
     7
370
    15
100
AcDbLine
 10
199.4033270969
 20
103.2122574153
 30
0.0
 11
197.2043683275
 21
103.9178823459
 31
0.0
  0
LINE
  5
81
330
1F
100
AcDbEntity
  8
0
  6
Continuous
 62
     7
370
    15
100
AcDbLine
 10
195.4937988415
 20
102.3663390999
 30
0.0
 11
197.2043683275
 21
103.9178823459
 31
0.0
  0
LINE
  5
82
330
1F
100
AcDbEntity
  8
0
  6
Continuous
 62
     7
370
    15
100
AcDbLine
 10
195.9821899875
 20
100.1091711561
 30
0.0
 11
195.4937988415
 21
102.3663390999
 31
0.0
  0
LINE
  5
83
330
1F
100
AcDbEntity
  8
0
  6
Continuous
 62
     7
370
    15
100
AcDbLine
 10
195.9821899875
 20
100.1091711561
 30
0.0
 11
198.1811506196
 21
99.4035462255
 31
0.0
  0
LINE
  5
84
330
1F
100
AcDbEntity
  8
0
  6
Continuous
 62
     7
370
    15
100
AcDbLine
 10
199.8917201057
 20
100.9550894716
 30
0.0
 11
198.1811506196
 21
99.4035462255
 31
0.0
  0
LINE
  5
85
330
1F
100
AcDbEntity
  8
0
  6
Continuous
 62
     7
370
    15
100
AcDbLine
 10
199.8917201057
 20
100.9550894716
 30
0.0
 11
199.4033270969
 21
103.2122574153
 31
0.0
  0
LINE
  5
86
330
1F
100
AcDbEntity
  8
0
  6
Continuous
 62
     7
370
    15
100
AcDbLine
 10
188.7279191508
 20
82.4318293354
 30
0.0
 11
188.7279191508
 21
113.5107146448
 31
0.0
  0
SPLINE
  5
87
330
1F
100
AcDbEntity
  8
0
  6
Continuous
 62
     7
370
    15
100
AcDbSpline
210
0.0
220
0.0
230
1.0
 70
     8
 71
     3
 72
     8
 73
     4
 74
     0
 42
0.00000001
 43
0.00000001
 12
1.0
 22
0.0
 32
0.0
 13
1.0
 23
0.0
 33
0.0
 40
0.0
 40
0.0
 40
0.0
 40
0.0
 40
1.0
 40
1.0
 40
1.0
 40
1.0
 10
188.7279184721102
 20
82.4318297626849
 30
0.0
 10
188.3952132004049
 20
83.03120143590856
 30
0.0
 10
188.0633973998314
 20
83.6310705466136
 30
0.0
 10
187.7327587732167
 20
84.23159089772459
 30
0.0
  0
LINE
  5
88
330
1F
100
AcDbEntity
  8
0
  6
Continuous
 62
     7
370
    15
100
AcDbLine
 10
187.732758139
 20
84.2315915844
 30
0.0
 11
187.732758139
 21
113.5107146448
 31
0.0
  0
SPLINE
  5
89
330
1F
100
AcDbEntity
  8
0
  6
Continuous
 62
     7
370
    15
100
AcDbSpline
210
0.0
220
0.0
230
1.0
 70
    24
 71
     3
 72
     8
 73
     4
 74
     0
 42
0.00000001
 43
0.00000001
 12
1.0
 22
0.0
 32
0.0
 13
1.0
 23
0.0
 33
0.0
 40
0.0
 40
0.0
 40
0.0
 40
0.0
 40
1.0
 40
1.0
 40
1.0
 40
1.0
 10
187.7327587732167
 20
113.5107142857143
 30
0.0
 10
188.056395428839
 20
113.5107142857143
 30
0.0
 10
188.3888856503556
 20
113.5107142857143
 30
0.0
 10
188.7279184721102
 20
113.5107142857143
 30
0.0
  0
LINE
  5
8A
330
1F
100
AcDbEntity
  8
0
  6
Continuous
 62
     7
370
    15
100
AcDbLine
 10
185.6527590647
 20
84.2315915844
 30
0.0
 11
185.6527590647
 21
113.5107146448
 31
0.0
  0
SPLINE
  5
8B
330
1F
100
AcDbEntity
  8
0
  6
Continuous
 62
     7
370
    15
100
AcDbSpline
210
0.0
220
0.0
230
1.0
 70
     8
 71
     3
 72
     8
 73
     4
 74
     0
 42
0.00000001
 43
0.00000001
 12
1.0
 22
0.0
 32
0.0
 13
1.0
 23
0.0
 33
0.0
 40
0.0
 40
0.0
 40
0.0
 40
0.0
 40
1.0
 40
1.0
 40
1.0
 40
1.0
 10
185.6527587732167
 20
84.2315908977246
 30
0.0
 10
185.3221201466021
 20
83.6310705466136
 30
0.0
 10
184.9903043460286
 20
83.03120143590856
 30
0.0
 10
184.6575990743233
 20
82.4318297626849
 30
0.0
  0
LINE
  5
8C
330
1F
100
AcDbEntity
  8
0
  6
Continuous
 62
     7
370
    15
100
AcDbLine
 10
184.6575989842
 20
82.4318293354
 30
0.0
 11
184.6575989842
 21
113.5107146448
 31
0.0
  0
SPLINE
  5
8D
330
1F
100
AcDbEntity
  8
0
  6
Continuous
 62
     7
370
    15
100
AcDbSpline
210
0.0
220
0.0
230
1.0
 70
    24
 71
     3
 72
     8
 73
     4
 74
     0
 42
0.00000001
 43
0.00000001
 12
1.0
 22
0.0
 32
0.0
 13
1.0
 23
0.0
 33
0.0
 40
0.0
 40
0.0
 40
0.0
 40
0.0
 40
1.0
 40
1.0
 40
1.0
 40
1.0
 10
184.6575990743233
 20
113.5107142857143
 30
0.0
 10
184.9966318960779
 20
113.5107142857143
 30
0.0
 10
185.3291221175945
 20
113.5107142857143
 30
0.0
 10
185.6527587732167
 20
113.5107142857143
 30
0.0
  0
LINE
  5
8E
330
1F
100
AcDbEntity
  8
0
  6
Continuous
 62
     7
370
    15
100
AcDbLine
 10
178.6427592381
 20
113.5107146448
 30
0.0
 11
184.6575989842
 21
113.5107146448
 31
0.0
  0
LINE
  5
8F
330
1F
100
AcDbEntity
  8
0
  6
Continuous
 62
     7
370
    15
100
AcDbLine
 10
184.6575989842
 20
82.4318293354
 30
0.0
 11
183.1427590444
 21
82.4318293354
 31
0.0
  0
SPLINE
  5
90
330
1F
100
AcDbEntity
  8
0
  6
Continuous
 62
     7
370
    15
100
AcDbSpline
210
0.0
220
0.0
230
1.0
 70
     8
 71
     3
 72
    22
 73
    18
 74
     0
 42
0.00000001
 43
0.00000001
 12
1.0
 22
0.0
 32
0.0
 13
1.0
 23
0.0
 33
0.0
 40
0.0
 40
0.0
 40
0.0
 40
0.0
 40
0.125
 40
0.125
 40
0.25
 40
0.25
 40
0.375
 40
0.375
 40
0.5
 40
0.5
 40
0.625
 40
0.625
 40
0.75
 40
0.75
 40
0.875
 40
0.875
 40
1.0
 40
1.0
 40
1.0
 40
1.0
 10
183.1427587732168
 20
82.4318297626849
 30
0.0
 10
182.8436343441761
 20
82.4318297626849
 30
0.0
 10
182.5498118959273
 20
82.4233156616185
 30
0.0
 10
181.972247619681
 20
82.39087189273661
 30
0.0
 10
181.685429941867
 20
82.36653800403458
 30
0.0
 10
181.1409674129677
 20
82.30607797927775
 30
0.0
 10
180.8830121423464
 20
82.27016455849926
 30
0.0
 10
180.3949541989865
 20
82.19045453243012
 30
0.0
 10
180.1652559003227
 20
82.14657623124077
 30
0.0
 10
179.7528369173701
 20
82.0583326088706
 30
0.0
 10
179.56730997451
 20
82.01352426740964
 30
0.0
 10
179.2387899296092
 20
81.92620325949046
 30
0.0
 10
179.1003760427097
 20
81.8849124709148
 30
0.0
 10
178.8757838960938
 20
81.81057424762098
 30
0.0
 10
178.7887050839696
 20
81.7771641218863
 30
0.0
 10
178.6722032760145
 20
81.72214472036018
 30
0.0
 10
178.6427587732167
 20
81.70068295389393
 30
0.0
 10
178.6427587732167
 20
81.68572993027615
 30
0.0
  0
LINE
  5
91
330
1F
100
AcDbEntity
  8
0
  6
Continuous
 62
     7
370
    15
100
AcDbLine
 10
178.6427592381
 20
81.6857300571
 30
0.0
 11
178.6427592381
 21
81.6607147327
 31
0.0
  0
SPLINE
  5
92
330
1F
100
AcDbEntity
  8
0
  6
Continuous
 62
     7
370
    15
100
AcDbSpline
210
0.0
220
0.0
230
1.0
 70
     8
 71
     3
 72
    17
 73
    13
 74
     0
 42
0.00000001
 43
0.00000001
 12
1.0
 22
0.0
 32
0.0
 13
1.0
 23
0.0
 33
0.0
 40
0.0
 40
0.0
 40
0.0
 40
0.0
 40
0.1039928149931941
 40
0.211050797947968
 40
0.315030024669631
 40
0.4219351868122974
 40
0.5275775927633417
 40
0.6362134531400181
 40
0.7429488821168505
 40
0.8528788227495517
 40
0.9578277247781112
 40
1.0
 40
1.0
 40
1.0
 40
1.0
 10
183.1427590444179
 20
121.1478903761932
 30
0.0
 10
182.8969419601929
 20
121.1506062107863
 30
0.0
 10
182.3980623810765
 20
121.1561179286678
 30
0.0
 10
181.6745788375518
 20
121.1992016874434
 30
0.0
 10
180.986783481344
 20
121.2630682996249
 30
0.0
 10
180.3620381092098
 20
121.3424038156498
 30
0.0
 10
179.8060873061475
 20
121.4293426074181
 30
0.0
 10
179.3441007995802
 20
121.5133021987371
 30
0.0
 10
178.9818356683085
 20
121.5864650678281
 30
0.0
 10
178.7500566975548
 20
121.6366021081197
 30
0.0
 10
178.6404907532716
 20
121.6612222055022
 30
0.0
 10
178.6543216286361
 20
121.658117057437
 30
0.0
 10
178.658286248097
 20
121.6572269669601
 30
0.0
  0
LINE
  5
93
330
1F
100
AcDbEntity
  8
0
  6
Continuous
 62
     7
370
    15
100
AcDbLine
 10
184.6575989842
 20
121.1478903762
 30
0.0
 11
183.1427590444
 21
121.1478903762
 31
0.0
  0
LINE
  5
94
330
1F
100
AcDbEntity
  8
0
  6
Continuous
 62
     7
370
    15
100
AcDbLine
 10
184.6575989842
 20
117.7721235773
 30
0.0
 11
184.6575989842
 21
121.1478903762
 31
0.0
  0
LINE
  5
95
330
1F
100
AcDbEntity
  8
0
  6
Continuous
 62
     7
370
    15
100
AcDbLine
 10
183.1364288449
 20
117.7721235773
 30
0.0
 11
184.6575989842
 21
117.7721235773
 31
0.0
  0
SPLINE
  5
96
330
1F
100
AcDbEntity
  8
0
  6
Continuous
 62
     7
370
    15
100
AcDbSpline
210
0.0
220
0.0
230
1.0
 70
     8
 71
     3
 72
    22
 73
    18
 74
     0
 42
0.00000001
 43
0.00000001
 12
1.0
 22
0.0
 32
0.0
 13
1.0
 23
0.0
 33
0.0
 40
0.0
 40
0.0
 40
0.0
 40
0.0
 40
0.2500000000000002
 40
0.2500000000000002
 40
0.3750000000000001
 40
0.3750000000000001
 40
0.5000000000000001
 40
0.5000000000000001
 40
0.6250000000000001
 40
0.6250000000000001
 40
0.75
 40
0.75
 40
0.875
 40
0.875
 40
0.9375000000000001
 40
0.9375000000000001
 40
1.0
 40
1.0
 40
1.0
 40
1.0
 10
178.6427587732167
 20
113.5107142857143
 30
0.0
 10
178.6647397912034
 20
114.0735869276123
 30
0.0
 10
178.7437166745581
 20
114.6042118113419
 30
0.0
 10
178.9901145675905
 20
115.3499228022634
 30
0.0
 10
179.0946391826814
 20
115.5915430286621
 30
0.0
 10
179.356485777988
 20
116.0504018039881
 30
0.0
 10
179.5117024001538
 20
116.2645804764579
 30
0.0
 10
179.8802941532177
 20
116.6618090356034
 30
0.0
 10
180.0964278456826
 20
116.8462538706232
 30
0.0
 10
180.5803223406695
 20
117.1673337185069
 30
0.0
 10
180.8507878856772
 20
117.3066845486129
 30
0.0
 10
181.4470144511874
 20
117.5359900830384
 30
0.0
 10
181.7625077179074
 20
117.6225260925148
 30
0.0
 10
182.2632243659259
 20
117.711415696846
 30
0.0
 10
182.4360208005411
 20
117.7342242027077
 30
0.0
 10
182.7843895733231
 20
117.7645153654039
 30
0.0
 10
182.9597906022335
 20
117.7721232867918
 30
0.0
 10
183.1364292479215
 20
117.7721232867918
 30
0.0
  0
LINE
  5
97
330
1F
100
AcDbEntity
  8
0
  6
Continuous
 62
     7
370
    15
100
AcDbLine
 10
190.6427593424
 20
83.0566815904
 30
0.0
 11
190.6427593424
 21
113.5107146448
 31
0.0
  0
SPLINE
  5
98
330
1F
100
AcDbEntity
  8
0
  6
Continuous
 62
     7
370
    15
100
AcDbSpline
210
0.0
220
0.0
230
1.0
 70
     8
 71
     3
 72
    10
 73
     6
 74
     0
 42
0.00000001
 43
0.00000001
 12
1.0
 22
0.0
 32
0.0
 13
1.0
 23
0.0
 33
0.0
 40
0.0
 40
0.0
 40
0.0
 40
0.0
 40
0.5
 40
0.5
 40
1.0
 40
1.0
 40
1.0
 40
1.0
 10
190.6427587732168
 20
83.05668246462778
 30
0.0
 10
190.6427587732168
 20
82.89705029572455
 30
0.0
 10
190.5811222595114
 20
82.73600066196049
 30
0.0
 10
190.3620958932686
 20
82.5030097782839
 30
0.0
 10
190.2044790052211
 20
82.4318297626849
 30
0.0
 10
190.0427587732167
 20
82.4318297626849
 30
0.0
  0
SPLINE
  5
99
330
1F
100
AcDbEntity
  8
0
  6
Continuous
 62
     7
370
    15
100
AcDbSpline
210
0.0
220
0.0
230
1.0
 70
    24
 71
     3
 72
    12
 73
     8
 74
     0
 42
0.00000001
 43
0.00000001
 12
1.0
 22
0.0
 32
0.0
 13
1.0
 23
0.0
 33
0.0
 40
0.0
 40
0.0
 40
0.0
 40
0.0
 40
0.250000000000002
 40
0.250000000000002
 40
0.500000000000004
 40
0.500000000000004
 40
1.0
 40
1.0
 40
1.0
 40
1.0
 10
190.0427587732167
 20
113.5107142857143
 30
0.0
 10
190.1309456385856
 20
113.5107142857143
 30
0.0
 10
190.2196330318869
 20
113.5107142857143
 30
0.0
 10
190.3738855250057
 20
113.5107142857143
 30
0.0
 10
190.4392315060817
 20
113.5107142857143
 30
0.0
 10
190.5936413760328
 20
113.5107142857143
 30
0.0
 10
190.6427587732168
 20
113.5107142857143
 30
0.0
 10
190.6427587732168
 20
113.5107142857143
 30
0.0
  0
LINE
  5
9A
330
1F
100
AcDbEntity
  8
0
  6
Continuous
 62
     7
370
    15
100
AcDbLine
 10
190.042758499
 20
82.4318293354
 30
0.0
 11
188.7279191508
 21
82.4318293354
 31
0.0
  0
LINE
  5
9B
330
1F
100
AcDbEntity
  8
0
  6
Continuous
 62
     7
370
    15
100
AcDbLine
 10
188.7279191508
 20
113.5107146448
 30
0.0
 11
190.042758499
 21
113.5107146448
 31
0.0
  0
LINE
  5
9C
330
1F
100
AcDbEntity
  8
0
  6
Continuous
 62
     7
370
    15
100
AcDbLine
 10
170.6927587732
 20
81.9607142231
 30
0.0
 11
170.6927587732
 21
121.3607143483
 31
0.0
  0
SPLINE
  5
9D
330
1F
100
AcDbEntity
  8
0
  6
Continuous
 62
     7
370
    15
100
AcDbSpline
210
0.0
220
0.0
230
1.0
 70
    24
 71
     3
 72
    16
 73
    12
 74
     0
 42
0.00000001
 43
0.00000001
 12
1.0
 22
0.0
 32
0.0
 13
1.0
 23
0.0
 33
0.0
 40
0.0
 40
0.0
 40
0.0
 40
0.0
 40
0.5000000000000001
 40
0.5000000000000001
 40
0.7499999999999993
 40
0.7499999999999993
 40
0.8749999999999983
 40
0.8749999999999983
 40
0.9374999999999991
 40
0.9374999999999991
 40
1.0
 40
1.0
 40
1.0
 40
1.0
 10
187.6975363726355
 20
84.76071428571431
 30
0.0
 10
187.6674999531089
 20
84.76071428571431
 30
0.0
 10
187.6208658559041
 20
84.76071428571431
 30
0.0
 10
187.5104814443254
 20
84.76071428571431
 30
0.0
 10
187.4671437958048
 20
84.76071428571431
 30
0.0
 10
187.3786621614201
 20
84.76071428571431
 30
0.0
 10
187.3452866568035
 20
84.76071428571431
 30
0.0
 10
187.280794447353
 20
84.76071428571431
 30
0.0
 10
187.2565901101663
 20
84.76071428571431
 30
0.0
 10
187.2008363003559
 20
84.76071428571431
 30
0.0
 10
187.1672522742877
 20
84.76071428571431
 30
0.0
 10
187.1327587732168
 20
84.76071428571431
 30
0.0
  0
SPLINE
  5
9E
330
1F
100
AcDbEntity
  8
0
  6
Continuous
 62
     7
370
    15
100
AcDbSpline
210
0.0
220
0.0
230
1.0
 70
    24
 71
     3
 72
    12
 73
     8
 74
     0
 42
0.00000001
 43
0.00000001
 12
1.0
 22
0.0
 32
0.0
 13
1.0
 23
0.0
 33
0.0
 40
0.0
 40
0.0
 40
0.0
 40
0.0
 40
0.249999999999999
 40
0.249999999999999
 40
0.499999999999998
 40
0.499999999999998
 40
1.0
 40
1.0
 40
1.0
 40
1.0
 10
187.1327587732168
 20
113.5107142857143
 30
0.0
 10
187.225416862723
 20
113.5107142857143
 30
0.0
 10
187.3174802722807
 20
113.5107142857143
 30
0.0
 10
187.4716378227715
 20
113.5107142857143
 30
0.0
 10
187.5361267561362
 20
113.5107142857143
 30
0.0
 10
187.6861783050857
 20
113.5107142857143
 30
0.0
 10
187.7327587732167
 20
113.5107142857143
 30
0.0
 10
187.7327587732167
 20
113.5107142857143
 30
0.0
  0
SPLINE
  5
9F
330
1F
100
AcDbEntity
  8
0
  6
Continuous
 62
     7
370
    15
100
AcDbSpline
210
0.0
220
0.0
230
1.0
 70
    24
 71
     3
 72
    16
 73
    12
 74
     0
 42
0.00000001
 43
0.00000001
 12
1.0
 22
0.0
 32
0.0
 13
1.0
 23
0.0
 33
0.0
 40
0.0
 40
0.0
 40
0.0
 40
0.0
 40
0.0624999999999997
 40
0.0624999999999997
 40
0.1249999999999994
 40
0.1249999999999994
 40
0.2499999999999988
 40
0.2499999999999988
 40
0.499999999999999
 40
0.499999999999999
 40
1.0
 40
1.0
 40
1.0
 40
1.0
 10
186.2527587731902
 20
84.76071428571431
 30
0.0
 10
186.218280106005
 20
84.76071428571431
 30
0.0
 10
186.1844599291681
 20
84.76071428571431
 30
0.0
 10
186.1279378619844
 20
84.76071428571431
 30
0.0
 10
186.1036117824581
 20
84.76071428571431
 30
0.0
 10
186.0391588829069
 20
84.76071428571431
 30
0.0
 10
186.0055306075483
 20
84.76071428571431
 30
0.0
 10
185.9174532920235
 20
84.76071428571431
 30
0.0
 10
185.8746338387558
 20
84.76071428571431
 30
0.0
 10
185.7639772045588
 20
84.76071428571431
 30
0.0
 10
185.7177446186148
 20
84.76071428571431
 30
0.0
 10
185.6879811737981
 20
84.76071428571431
 30
0.0
  0
SPLINE
  5
A0
330
1F
100
AcDbEntity
  8
0
  6
Continuous
 62
     7
370
    15
100
AcDbSpline
210
0.0
220
0.0
230
1.0
 70
    24
 71
     3
 72
    12
 73
     8
 74
     0
 42
0.00000001
 43
0.00000001
 12
1.0
 22
0.0
 32
0.0
 13
1.0
 23
0.0
 33
0.0
 40
0.0
 40
0.0
 40
0.0
 40
0.0
 40
0.5000000000000013
 40
0.5000000000000013
 40
0.7500000000000007
 40
0.7500000000000007
 40
1.0
 40
1.0
 40
1.0
 40
1.0
 10
185.6527587732167
 20
113.5107142857143
 30
0.0
 10
185.6527587732167
 20
113.5107142857143
 30
0.0
 10
185.6997548707251
 20
113.5107142857143
 30
0.0
 10
185.8492608087253
 20
113.5107142857143
 30
0.0
 10
185.9137794312838
 20
113.5107142857143
 30
0.0
 10
186.0682191240128
 20
113.5107142857143
 30
0.0
 10
186.1591575120157
 20
113.5107142857143
 30
0.0
 10
186.2527587732168
 20
113.5107142857143
 30
0.0
  0
SPLINE
  5
A1
330
1F
100
AcDbEntity
  8
0
  6
Continuous
 62
     7
370
    15
100
AcDbSpline
210
0.0
220
0.0
230
1.0
 70
     8
 71
     3
 72
    10
 73
     6
 74
     0
 42
0.00000001
 43
0.00000001
 12
1.0
 22
0.0
 32
0.0
 13
1.0
 23
0.0
 33
0.0
 40
0.0
 40
0.0
 40
0.0
 40
0.0
 40
0.0000100224852105
 40
0.8297491912727495
 40
1.0
 40
1.0
 40
1.0
 40
1.0
 10
190.8427590026947
 20
118.5607135168144
 30
0.0
 10
190.8427590026963
 20
118.5607135168144
 30
0.0
 10
190.8427591404203
 20
118.5607135169941
 30
0.0
 10
190.8015826875006
 20
118.5607135168008
 30
0.0
 10
190.7490743774084
 20
118.5607135168124
 30
0.0
 10
190.7401347055526
 20
118.5607135168144
 30
0.0
  0
LINE
  5
A2
330
1F
100
AcDbEntity
  8
0
  6
Continuous
 62
     7
370
    15
100
AcDbLine
 10
190.646147494
 20
118.5607135168
 30
0.0
 11
190.6428208097
 21
118.5607135168
 31
0.0
  0
SPLINE
  5
A3
330
1F
100
AcDbEntity
  8
0
  6
Continuous
 62
     7
370
    15
100
AcDbSpline
210
0.0
220
0.0
230
1.0
 70
     8
 71
     3
 72
    10
 73
     6
 74
     0
 42
0.00000001
 43
0.00000001
 12
1.0
 22
0.0
 32
0.0
 13
1.0
 23
0.0
 33
0.0
 40
0.0
 40
0.0
 40
0.0
 40
0.0
 40
0.0000098434885725
 40
0.8383950128568723
 40
1.0
 40
1.0
 40
1.0
 40
1.0
 10
190.8427590026947
 20
84.76071505461422
 30
0.0
 10
190.8427590026962
 20
84.76071505461422
 30
0.0
 10
190.8427591362091
 20
84.76071505484931
 30
0.0
 10
190.8019875160636
 20
84.76071505459758
 30
0.0
 10
190.750163789543
 20
84.76071505461191
 30
0.0
 10
190.7417887344452
 20
84.76071505461422
 30
0.0
  0
SPLINE
  5
A4
330
1F
100
AcDbEntity
  8
0
  6
Continuous
 62
     7
370
    15
100
AcDbSpline
210
0.0
220
0.0
230
1.0
 70
    24
 71
     3
 72
    12
 73
     8
 74
     0
 42
0.00000001
 43
0.00000001
 12
1.0
 22
0.0
 32
0.0
 13
1.0
 23
0.0
 33
0.0
 40
0.0
 40
0.0
 40
0.0
 40
0.0
 40
0.5
 40
0.5
 40
0.75
 40
0.75
 40
1.0
 40
1.0
 40
1.0
 40
1.0
 10
190.6427587732168
 20
113.5107142857143
 30
0.0
 10
190.6427587732168
 20
113.5107142857143
 30
0.0
 10
190.6699795213444
 20
113.5107142857143
 30
0.0
 10
190.7504259671173
 20
113.5107142857143
 30
0.0
 10
190.7838731955954
 20
113.5107142857143
 30
0.0
 10
190.8662827653696
 20
113.5107142857143
 30
0.0
 10
190.9155658622532
 20
113.5107142857143
 30
0.0
 10
190.9718824848898
 20
113.5107142857143
 30
0.0
  0
SPLINE
  5
A5
330
1F
100
AcDbEntity
  8
0
  6
Continuous
 62
     7
370
    15
100
AcDbSpline
210
0.0
220
0.0
230
1.0
 70
     8
 71
     3
 72
    10
 73
     6
 74
     0
 42
0.00000001
 43
0.00000001
 12
1.0
 22
0.0
 32
0.0
 13
1.0
 23
0.0
 33
0.0
 40
0.0
 40
0.0
 40
0.0
 40
0.0
 40
0.5
 40
0.5
 40
1.0
 40
1.0
 40
1.0
 40
1.0
 10
190.6427587732167
 20
114.5381169741449
 30
0.0
 10
190.6427587732167
 20
114.3554082620099
 30
0.0
 10
190.6697321069248
 20
114.1718999722492
 30
0.0
 10
190.7773224747106
 20
113.8235959939285
 30
0.0
 10
190.8587870190538
 20
113.6554084113856
 30
0.0
 10
190.9718824848896
 20
113.5107142857129
 30
0.0
  0
LINE
  5
A6
330
1F
100
AcDbEntity
  8
0
  6
Continuous
 62
     7
370
    15
100
AcDbLine
 10
187.1327591583
 20
84.7607150546
 30
0.0
 11
186.2527589768
 21
84.7607150546
 31
0.0
  0
LINE
  5
A7
330
1F
100
AcDbEntity
  8
0
  6
Continuous
 62
     7
370
    15
100
AcDbLine
 10
186.2527589768
 20
113.5107146448
 30
0.0
 11
187.1327591583
 21
113.5107146448
 31
0.0
  0
SPLINE
  5
A8
330
1F
100
AcDbEntity
  8
0
  6
Continuous
 62
     7
370
    15
100
AcDbSpline
210
0.0
220
0.0
230
1.0
 70
     8
 71
     3
 72
    17
 73
    13
 74
     0
 42
0.00000001
 43
0.00000001
 12
1.0
 22
0.0
 32
0.0
 13
1.0
 23
0.0
 33
0.0
 40
0.0
 40
0.0
 40
0.0
 40
0.0
 40
0.104296631004894
 40
0.211658907974047
 40
0.3159441421171175
 40
0.4231783416880534
 40
0.5288575767175796
 40
0.6375433893975311
 40
0.744129945279386
 40
0.8538907634960204
 40
0.9589751266501257
 40
1.0
 40
1.0
 40
1.0
 40
1.0
 10
217.6927571638914
 20
118.2965196541378
 30
0.0
 10
217.8844040685821
 20
118.2984528863975
 30
0.0
 10
218.2733310566606
 20
118.3023761754339
 30
0.0
 10
218.8374298093063
 20
118.3330614208288
 30
0.0
 10
219.3737612329688
 20
118.37857356023
 30
0.0
 10
219.8604080968172
 20
118.4350908826349
 30
0.0
 10
220.2928319426342
 20
118.4969551672312
 30
0.0
 10
220.6512661565936
 20
118.556566380879
 30
0.0
 10
220.9317517653056
 20
118.6084086942957
 30
0.0
 10
221.1107407923903
 20
118.6438472788156
 30
0.0
 10
221.1949846280785
 20
118.6611708177222
 30
0.0
 10
221.1839085812405
 20
118.6588954115483
 30
0.0
 10
221.1807986244054
 20
118.6582565179893
 30
0.0
  0
SPLINE
  5
A9
330
1F
100
AcDbEntity
  8
0
  6
Continuous
 62
     7
370
    15
100
AcDbSpline
210
0.0
220
0.0
230
1.0
 70
     8
 71
     3
 72
    16
 73
    12
 74
     0
 42
0.00000001
 43
0.00000001
 12
1.0
 22
0.0
 32
0.0
 13
1.0
 23
0.0
 33
0.0
 40
0.0
 40
0.0
 40
0.0
 40
0.0
 40
0.0897207612197864
 40
0.1967286353878007
 40
0.3004984919100494
 40
0.4071807185267589
 40
0.5127184705554975
 40
0.6212479866093221
 40
0.7278985171931708
 40
0.8377152103482657
 40
1.0
 40
1.0
 40
1.0
 40
1.0
 10
214.1982970281931
 20
118.6595789960453
 30
0.0
 10
214.2028226277705
 20
118.6586395092565
 30
0.0
 10
214.212745805161
 20
118.6565795183314
 30
0.0
 10
214.3437234186966
 20
118.6299755010976
 30
0.0
 10
214.5642627826455
 20
118.5874930335397
 30
0.0
 10
214.8710643756902
 20
118.5329521497208
 30
0.0
 10
215.2597366673043
 20
118.471778087787
 30
0.0
 10
215.7168474383238
 20
118.4110062707897
 30
0.0
 10
216.2369960522244
 20
118.3574924530545
 30
0.0
 10
216.8931816993042
 20
118.3089372579046
 30
0.0
 10
217.394039307669
 20
118.3011588159692
 30
0.0
 10
217.6927571638914
 20
118.2965196541378
 30
0.0
  0
SPLINE
  5
AA
330
1F
100
AcDbEntity
  8
0
  6
Continuous
 62
     7
370
    15
100
AcDbSpline
210
0.0
220
0.0
230
1.0
 70
     8
 71
     3
 72
    70
 73
    66
 74
     0
 42
0.00000001
 43
0.00000001
 12
1.0
 22
0.0
 32
0.0
 13
1.0
 23
0.0
 33
0.0
 40
-0.03125
 40
-0.03125
 40
0.0
 40
0.0
 40
0.03125
 40
0.03125
 40
0.0624999999999999
 40
0.0624999999999999
 40
0.0937499999999999
 40
0.0937499999999999
 40
0.1249999999999999
 40
0.1249999999999999
 40
0.1562499999999999
 40
0.1562499999999999
 40
0.1874999999999999
 40
0.1874999999999999
 40
0.2187499999999999
 40
0.2187499999999999
 40
0.2499999999999999
 40
0.2499999999999999
 40
0.2812499999999999
 40
0.2812499999999999
 40
0.3124999999999999
 40
0.3124999999999999
 40
0.3437499999999999
 40
0.3437499999999999
 40
0.375
 40
0.375
 40
0.40625
 40
0.40625
 40
0.4375000000000001
 40
0.4375000000000001
 40
0.4687500000000001
 40
0.4687500000000001
 40
0.5000000000000001
 40
0.5000000000000001
 40
0.5312500000000001
 40
0.5312500000000001
 40
0.5625
 40
0.5625
 40
0.59375
 40
0.59375
 40
0.625
 40
0.625
 40
0.65625
 40
0.65625
 40
0.6875
 40
0.6875
 40
0.7187500000000001
 40
0.7187500000000001
 40
0.7500000000000002
 40
0.7500000000000002
 40
0.7812500000000002
 40
0.7812500000000002
 40
0.8125000000000001
 40
0.8125000000000001
 40
0.8437500000000001
 40
0.8437500000000001
 40
0.8750000000000001
 40
0.8750000000000001
 40
0.9062500000000001
 40
0.9062500000000001
 40
0.9375
 40
0.9375
 40
0.96875
 40
0.96875
 40
1.0
 40
1.0
 40
1.03125
 40
1.03125
 10
217.4608657834147
 20
98.16071428571449
 30
0.0
 10
217.9246517630188
 20
98.16071428571449
 30
0.0
 10
218.1525420765241
 20
98.18353149405267
 30
0.0
 10
218.600685031743
 20
98.2728136434719
 30
0.0
 10
218.8233018746513
 20
98.3404056073395
 30
0.0
 10
219.2468303078487
 20
98.51628443451094
 30
0.0
 10
219.4476058303502
 20
98.62381944866118
 30
0.0
 10
219.8275804437575
 20
98.87777431506468
 30
0.0
 10
220.0069913414996
 20
99.02516142233038
 30
0.0
 10
220.3288579104787
 20
99.3471039869996
 30
0.0
 10
220.4735190818443
 20
99.52288961889312
 30
0.0
 10
220.7294169812271
 20
99.90525732872814
 30
0.0
 10
220.837754989505
 20
100.1080005702327
 30
0.0
 10
221.0125283227065
 20
100.5288789527294
 30
0.0
 10
221.080077966473
 20
100.7501139192722
 30
0.0
 10
221.1702399268588
 20
101.2021849295866
 30
0.0
 10
221.1926217988236
 20
101.4296870775195
 30
0.0
 10
221.1928945061067
 20
101.8875724358506
 30
0.0
 10
221.170022903835
 20
102.1201937783095
 30
0.0
 10
221.0804561172074
 20
102.5695563752542
 30
0.0
 10
221.0141937435213
 20
102.7880384115023
 30
0.0
 10
220.8383165922034
 20
103.212569934271
 30
0.0
 10
220.7290125671008
 20
103.4165573152158
 30
0.0
 10
220.4759898872571
 20
103.7950634630894
 30
0.0
 10
220.3306247469169
 20
103.9725394200068
 30
0.0
 10
220.005496946244
 20
104.297779793011
 30
0.0
 10
219.8294677829267
 20
104.4421399485262
 30
0.0
 10
219.4510532629165
 20
104.6955544128736
 30
0.0
 10
219.2461557918483
 20
104.8054522081088
 30
0.0
 10
218.823246505552
 20
104.9810179442791
 30
0.0
 10
218.60509774206
 20
105.0474913623375
 30
0.0
 10
218.1552465660446
 20
105.1375988685406
 30
0.0
 10
217.9229314664731
 20
105.1606203298329
 30
0.0
 10
217.4654523845246
 20
105.1608076547602
 30
0.0
 10
217.2376679887593
 20
105.1386964834385
 30
0.0
 10
216.7840677055899
 20
105.0485968594468
 30
0.0
 10
216.5642236830366
 20
104.9816226033657
 30
0.0
 10
216.1427676143964
 20
104.8070694645829
 30
0.0
 10
215.9383229647346
 20
104.697890641598
 30
0.0
 10
215.5573851230194
 20
104.4432786779371
 30
0.0
 10
215.3815595545015
 20
104.2989729592266
 30
0.0
 10
215.0586247209195
 20
103.9766133447151
 30
0.0
 10
214.9110649464833
 20
103.7970916867709
 30
0.0
 10
214.6575314165402
 20
103.4183615309585
 30
0.0
 10
214.5497134891981
 20
103.2176929762501
 30
0.0
 10
214.3729679797535
 20
102.7929268928739
 30
0.0
 10
214.3056610466685
 20
102.5715852919048
 30
0.0
 10
214.2160376198957
 20
102.1238849034748
 30
0.0
 10
214.1929172176789
 20
101.8941835784183
 30
0.0
 10
214.1926019573569
 20
101.432019972504
 30
0.0
 10
214.2151084251451
 20
101.2043528414948
 30
0.0
 10
214.3040812832717
 20
100.7556272289334
 30
0.0
 10
214.3717270014689
 20
100.5323889699066
 30
0.0
 10
214.5469230531134
 20
100.1095574047466
 30
0.0
 10
214.6542539421822
 20
99.90857658660468
 30
0.0
 10
214.9086118510347
 20
99.52740135963761
 30
0.0
 10
215.0554297010939
 20
99.34852314522362
 30
0.0
 10
215.3768633612228
 20
99.02663741790398
 30
0.0
 10
215.5530878866664
 20
98.8813322689554
 30
0.0
 10
215.9361674369317
 20
98.62467364449716
 30
0.0
 10
216.1372880704029
 20
98.51707320917552
 30
0.0
 10
216.5582097441452
 20
98.34186405919804
 30
0.0
 10
216.7803500650518
 20
98.27389354737748
 30
0.0
 10
217.232027939948
 20
98.183535621389
 30
0.0
 10
217.4608657834147
 20
98.16071428571449
 30
0.0
 10
217.9246517630188
 20
98.16071428571449
 30
0.0
  0
SPLINE
  5
AB
330
1F
100
AcDbEntity
  8
0
  6
Continuous
 62
     7
370
    15
100
AcDbSpline
210
0.0
220
0.0
230
1.0
 70
     8
 71
     3
 72
    19
 73
    15
 74
     0
 42
0.00000001
 43
0.00000001
 12
1.0
 22
0.0
 32
0.0
 13
1.0
 23
0.0
 33
0.0
 40
0.0
 40
0.0
 40
0.0
 40
0.0
 40
0.0830897371622481
 40
0.1685704994511328
 40
0.2516674664393055
 40
0.3371912890313553
 40
0.4200786380904323
 40
0.5052943158595077
 40
0.5895696641572945
 40
0.6762246149576842
 40
0.7615626247593569
 40
0.8494228855468238
 40
0.9338578753701953
 40
1.0
 40
1.0
 40
1.0
 40
1.0
 10
206.3541953905912
 20
118.3502849063703
 30
0.0
 10
206.5334846969457
 20
118.3375133220847
 30
0.0
 10
206.8972226139331
 20
118.3116026330473
 30
0.0
 10
207.4729357070449
 20
118.294747154557
 30
0.0
 10
208.0575935652015
 20
118.2971032306259
 30
0.0
 10
208.6268452909524
 20
118.3196012694096
 30
0.0
 10
209.1738592276925
 20
118.3595787396243
 30
0.0
 10
209.677261250297
 20
118.4122009732981
 30
0.0
 10
210.1325838255166
 20
118.4727446996095
 30
0.0
 10
210.5199783781989
 20
118.5338671963371
 30
0.0
 10
210.8334316110391
 20
118.5897182334598
 30
0.0
 10
211.0519211763119
 20
118.6319932164473
 30
0.0
 10
211.1769325667146
 20
118.6574413100792
 30
0.0
 10
211.1814501211904
 20
118.6583856166454
 30
0.0
 10
211.183434490809
 20
118.6588004103729
 30
0.0
  0
SPLINE
  5
AC
330
1F
100
AcDbEntity
  8
0
  6
Continuous
 62
     7
370
    15
100
AcDbSpline
210
0.0
220
0.0
230
1.0
 70
     8
 71
     3
 72
    46
 73
    42
 74
     0
 42
0.00000001
 43
0.00000001
 12
1.0
 22
0.0
 32
0.0
 13
1.0
 23
0.0
 33
0.0
 40
0.0
 40
0.0
 40
0.0
 40
0.0
 40
0.0625000000000009
 40
0.0625000000000009
 40
0.1250000000000017
 40
0.1250000000000017
 40
0.1562500000000022
 40
0.1562500000000022
 40
0.1875000000000026
 40
0.1875000000000026
 40
0.2500000000000034
 40
0.2500000000000034
 40
0.3125000000000043
 40
0.3125000000000043
 40
0.3750000000000052
 40
0.3750000000000052
 40
0.4062500000000052
 40
0.4062500000000052
 40
0.4375000000000052
 40
0.4375000000000052
 40
0.500000000000005
 40
0.500000000000005
 40
0.5312500000000049
 40
0.5312500000000049
 40
0.5625000000000048
 40
0.5625000000000048
 40
0.625000000000004
 40
0.625000000000004
 40
0.6875000000000033
 40
0.6875000000000033
 40
0.7500000000000027
 40
0.7500000000000027
 40
0.7812500000000023
 40
0.7812500000000023
 40
0.812500000000002
 40
0.812500000000002
 40
0.8750000000000013
 40
0.8750000000000013
 40
0.9375000000000007
 40
0.9375000000000007
 40
1.0
 40
1.0
 40
1.0
 40
1.0
 10
206.3541966009829
 20
98.4267923152482
 30
0.0
 10
206.6210947487203
 20
98.31631971644612
 30
0.0
 10
206.8962630318783
 20
98.24053720499315
 30
0.0
 10
207.4628434296287
 20
98.15655166616548
 30
0.0
 10
207.754822087043
 20
98.14963817886186
 30
0.0
 10
208.1809646809531
 20
98.19199235791314
 30
0.0
 10
208.3220643003467
 20
98.21475869154384
 30
0.0
 10
208.6023362981809
 20
98.27791897272961
 30
0.0
 10
208.7418030948636
 20
98.31856128609559
 30
0.0
 10
209.1458354164962
 20
98.46376403347098
 30
0.0
 10
209.400145121254
 20
98.59189474496706
 30
0.0
 10
209.8784909577439
 20
98.91200616504048
 30
0.0
 10
210.0942975590016
 20
99.09874695145358
 30
0.0
 10
210.4768055640569
 20
99.52058610547358
 30
0.0
 10
210.644348062432
 20
99.75833418696544
 30
0.0
 10
210.8457072672478
 20
100.134559595957
 30
0.0
 10
210.9051475786466
 20
100.2639243764558
 30
0.0
 10
211.0084215594235
 20
100.53073898686
 30
0.0
 10
211.0524420147816
 20
100.6691776098991
 30
0.0
 10
211.1573333724667
 20
101.0869646026752
 30
0.0
 10
211.192530350829
 20
101.3701186031305
 30
0.0
 10
211.1928713469561
 20
101.8018656502186
 30
0.0
 10
211.183972671278
 20
101.9469860961231
 30
0.0
 10
211.1488952150265
 20
102.2313691087429
 30
0.0
 10
211.1227575402815
 20
102.3716871894291
 30
0.0
 10
211.018831191206
 20
102.7870971326277
 30
0.0
 10
210.9137742963377
 20
103.0593726193203
 30
0.0
 10
210.6451335280012
 20
103.5619426890534
 30
0.0
 10
210.4797821213392
 20
103.797221821665
 30
0.0
 10
210.0950262648185
 20
104.2222127715517
 30
0.0
 10
209.8801349859184
 20
104.4079190710744
 30
0.0
 10
209.5239842383463
 20
104.6468573671844
 30
0.0
 10
209.3988781932289
 20
104.7200625338489
 30
0.0
 10
209.1435764845851
 20
104.8490654500447
 30
0.0
 10
209.0127482551606
 20
104.9053879320298
 30
0.0
 10
208.6108074388776
 20
105.0501543370533
 30
0.0
 10
208.3261074449859
 20
105.1148152562342
 30
0.0
 10
207.7564353855959
 20
105.171823703493
 30
0.0
 10
207.4705261987115
 20
105.165626634951
 30
0.0
 10
206.8977151260239
 20
105.0814895621775
 30
0.0
 10
206.6211187915545
 20
105.0051188066232
 30
0.0
 10
206.3541966009829
 20
104.8946362561808
 30
0.0
  0
LINE
  5
AD
330
1F
100
AcDbEntity
  8
0
  6
Continuous
 62
     7
370
    15
100
AcDbLine
 10
225.6927584752
 20
101.6607142857
 30
0.0
 11
225.6927584752
 21
85.6607135258
 31
0.0
  0
LINE
  5
AE
330
1F
100
AcDbEntity
  8
0
  6
Continuous
 62
     7
370
    15
100
AcDbLine
 10
225.6927584752
 20
117.6607150457
 30
0.0
 11
225.6927584752
 21
101.6607142857
 31
0.0
  0
SPLINE
  5
AF
330
1F
100
AcDbEntity
  8
0
  6
Continuous
 62
     7
370
    15
100
AcDbSpline
210
0.0
220
0.0
230
1.0
 70
     8
 71
     3
 72
    10
 73
     6
 74
     0
 42
0.00000001
 43
0.00000001
 12
1.0
 22
0.0
 32
0.0
 13
1.0
 23
0.0
 33
0.0
 40
0.0
 40
0.0
 40
0.0
 40
0.0
 40
0.5
 40
0.5
 40
1.0
 40
1.0
 40
1.0
 40
1.0
 10
205.6927587732168
 20
98.78843296244548
 30
0.0
 10
205.7850426785111
 20
98.72417469878116
 30
0.0
 10
205.8874320003842
 20
98.65946656128989
 30
0.0
 10
206.1136218596129
 20
98.53453142667323
 30
0.0
 10
206.231471057691
 20
98.47759000650905
 30
0.0
 10
206.3541966009829
 20
98.4267923152482
 30
0.0
  0
SPLINE
  5
B0
330
1F
100
AcDbEntity
  8
0
  6
Continuous
 62
     7
370
    15
100
AcDbSpline
210
0.0
220
0.0
230
1.0
 70
     8
 71
     3
 72
    10
 73
     6
 74
     0
 42
0.00000001
 43
0.00000001
 12
1.0
 22
0.0
 32
0.0
 13
1.0
 23
0.0
 33
0.0
 40
0.0
 40
0.0
 40
0.0
 40
0.0
 40
0.5
 40
0.5
 40
1.0
 40
1.0
 40
1.0
 40
1.0
 10
205.6927587732168
 20
118.1626081164236
 30
0.0
 10
205.7850426785111
 20
118.2340338775481
 30
0.0
 10
205.8874320003842
 20
118.2846677689872
 30
0.0
 10
206.1136218596129
 20
118.3486456971439
 30
0.0
 10
206.231471057691
 20
118.3601273626344
 30
0.0
 10
206.3541966009829
 20
118.350284342757
 30
0.0
  0
SPLINE
  5
B1
330
1F
100
AcDbEntity
  8
0
  6
Continuous
 62
     7
370
    15
100
AcDbSpline
210
0.0
220
0.0
230
1.0
 70
     8
 71
     3
 72
    10
 73
     6
 74
     0
 42
0.00000001
 43
0.00000001
 12
1.0
 22
0.0
 32
0.0
 13
1.0
 23
0.0
 33
0.0
 40
0.0
 40
0.0
 40
0.0
 40
0.0
 40
0.5
 40
0.5
 40
1.0
 40
1.0
 40
1.0
 40
1.0
 10
206.3541966009829
 20
104.8946362561808
 30
0.0
 10
206.2314694807408
 20
104.8438379121998
 30
0.0
 10
206.1137303756747
 20
104.7869511541644
 30
0.0
 10
205.887569529125
 20
104.662043896223
 30
0.0
 10
205.7850414885312
 20
104.5972530440521
 30
0.0
 10
205.6927587732168
 20
104.5329956089835
 30
0.0
  0
SPLINE
  5
B2
330
1F
100
AcDbEntity
  8
0
  6
Continuous
 62
     7
370
    15
100
AcDbSpline
210
0.0
220
0.0
230
1.0
 70
     8
 71
     3
 72
    10
 73
     6
 74
     0
 42
0.00000001
 43
0.00000001
 12
1.0
 22
0.0
 32
0.0
 13
1.0
 23
0.0
 33
0.0
 40
0.0
 40
0.0
 40
0.0
 40
0.0
 40
0.5
 40
0.5
 40
1.0
 40
1.0
 40
1.0
 40
1.0
 10
205.0313209454506
 20
99.3876659604615
 30
0.0
 10
205.1317184736467
 20
99.2701137833315
 30
0.0
 10
205.2391806302946
 20
99.16000874082607
 30
0.0
 10
205.4675863675755
 20
98.95476127599058
 30
0.0
 10
205.5841612383071
 20
98.864050579724
 30
0.0
 10
205.6927587732168
 20
98.78843296244548
 30
0.0
  0
SPLINE
  5
B3
330
1F
100
AcDbEntity
  8
0
  6
Continuous
 62
     7
370
    15
100
AcDbSpline
210
0.0
220
0.0
230
1.0
 70
     8
 71
     3
 72
    10
 73
     6
 74
     0
 42
0.00000001
 43
0.00000001
 12
1.0
 22
0.0
 32
0.0
 13
1.0
 23
0.0
 33
0.0
 40
0.0
 40
0.0
 40
0.0
 40
0.0
 40
0.5
 40
0.5
 40
1.0
 40
1.0
 40
1.0
 40
1.0
 10
205.0313209454506
 20
118.0033961742865
 30
0.0
 10
205.1317184736467
 20
117.98704623973
 30
0.0
 10
205.2391806302946
 20
117.9850047237852
 30
0.0
 10
205.4675863675755
 20
118.0309988535693
 30
0.0
 10
205.5841612383071
 20
118.0785559562725
 30
0.0
 10
205.6927587732168
 20
118.1626081164236
 30
0.0
  0
SPLINE
  5
B4
330
1F
100
AcDbEntity
  8
0
  6
Continuous
 62
     7
370
    15
100
AcDbSpline
210
0.0
220
0.0
230
1.0
 70
     8
 71
     3
 72
    10
 73
     6
 74
     0
 42
0.00000001
 43
0.00000001
 12
1.0
 22
0.0
 32
0.0
 13
1.0
 23
0.0
 33
0.0
 40
0.0
 40
0.0
 40
0.0
 40
0.0
 40
0.5
 40
0.5
 40
1.0
 40
1.0
 40
1.0
 40
1.0
 10
205.6927587732168
 20
104.5329956089835
 30
0.0
 10
205.5844636312
 20
104.4575885510888
 30
0.0
 10
205.466731090846
 20
104.3659101486453
 30
0.0
 10
205.239746076365
 20
104.1619165183584
 30
0.0
 10
205.1315971796806
 20
104.0511727689657
 30
0.0
 10
205.0313209454506
 20
103.9337626109675
 30
0.0
  0
SPLINE
  5
B5
330
1F
100
AcDbEntity
  8
0
  6
Continuous
 62
     7
370
    15
100
AcDbSpline
210
0.0
220
0.0
230
1.0
 70
     8
 71
     3
 72
    12
 73
     8
 74
     0
 42
0.00000001
 43
0.00000001
 12
1.0
 22
0.0
 32
0.0
 13
1.0
 23
0.0
 33
0.0
 40
0.0
 40
0.0
 40
0.0
 40
0.0
 40
0.2341547802628265
 40
0.4750020501646779
 40
0.7091883588295573
 40
0.9503557957133821
 40
0.9999999999999999
 40
0.9999999999999999
 40
0.9999999999999999
 40
0.9999999999999999
 10
205.0313224538656
 20
118.0033970496484
 30
0.0
 10
204.9133821625107
 20
118.0234043570658
 30
0.0
 10
204.6741306719892
 20
118.0639908103122
 30
0.0
 10
204.4179300706146
 20
118.1141385372131
 30
0.0
 10
204.2542010486981
 20
118.1476113526822
 30
0.0
 10
204.1839954374746
 20
118.16256778904
 30
0.0
 10
204.1982276537559
 20
118.1595573184456
 30
0.0
 10
204.2006572231145
 20
118.1590434036085
 30
0.0
  0
SPLINE
  5
B6
330
1F
100
AcDbEntity
  8
0
  6
Continuous
 62
     7
370
    15
100
AcDbSpline
210
0.0
220
0.0
230
1.0
 70
     8
 71
     3
 72
    17
 73
    13
 74
     0
 42
0.00000001
 43
0.00000001
 12
1.0
 22
0.0
 32
0.0
 13
1.0
 23
0.0
 33
0.0
 40
0.0
 40
0.0
 40
0.0
 40
0.0
 40
0.1042004491776818
 40
0.2114663782287819
 40
0.3156547556445763
 40
0.4227847447432687
 40
0.528452610770275
 40
0.6371228949263706
 40
0.7437564749877031
 40
0.8535706090661521
 40
0.9586116464926276
 40
1.0
 40
1.0
 40
1.0
 40
1.0
 10
197.6927594735714
 20
117.7852291486093
 30
0.0
 10
197.5012569103392
 20
117.7872215955225
 30
0.0
 10
197.1126179573614
 20
117.7912651052758
 30
0.0
 10
196.5489591104556
 20
117.822870293003
 30
0.0
 10
196.0130641247424
 20
117.8697435559237
 30
0.0
 10
195.5266499215961
 20
117.9279564488346
 30
0.0
 10
195.0942293753216
 20
117.9916965589825
 30
0.0
 10
194.7355128868954
 20
118.0531606837076
 30
0.0
 10
194.4546231640547
 20
118.1066519837077
 30
0.0
 10
194.2752289119112
 20
118.1432386369811
 30
0.0
 10
194.1906774538296
 20
118.1611538154864
 30
0.0
 10
194.2016544688507
 20
118.1588302932508
 30
0.0
 10
194.2047571286054
 20
118.1581735483238
 30
0.0
  0
LINE
  5
B7
330
1F
100
AcDbEntity
  8
0
  6
Continuous
 62
     7
370
    15
100
AcDbLine
 10
197.4690930441
 20
117.7891947201
 30
0.0
 11
197.7408417955
 21
117.7865628025
 31
0.0
  0
SPLINE
  5
B8
330
1F
100
AcDbEntity
  8
0
  6
Continuous
 62
     7
370
    15
100
AcDbSpline
210
0.0
220
0.0
230
1.0
 70
     8
 71
     3
 72
    16
 73
    12
 74
     0
 42
0.00000001
 43
0.00000001
 12
1.0
 22
0.0
 32
0.0
 13
1.0
 23
0.0
 33
0.0
 40
0.0
 40
0.0
 40
0.0
 40
0.0
 40
0.0883342487271794
 40
0.1952367651290565
 40
0.2988736044508619
 40
0.4054141498670032
 40
0.5109153916638526
 40
0.6194017568331794
 40
0.726103384374065
 40
0.8359759303501465
 40
1.0
 40
1.0
 40
1.0
 40
1.0
 10
201.1868135526271
 20
118.1594587734768
 30
0.0
 10
201.1826532242671
 20
118.1585681182516
 30
0.0
 10
201.1734580472822
 20
118.1565995879532
 30
0.0
 10
201.0441842147488
 20
118.1295376386486
 30
0.0
 10
200.8252550195343
 20
118.0860352865385
 30
0.0
 10
200.520063471366
 20
118.0300344619428
 30
0.0
 10
200.1329625835938
 20
117.967074167414
 30
0.0
 10
199.6770561816412
 20
117.9043567004645
 30
0.0
 10
199.1577236682457
 20
117.8489683635681
 30
0.0
 10
198.4990313189374
 20
117.7982924535502
 30
0.0
 10
197.9947502078929
 20
117.7901220356355
 30
0.0
 10
197.6927594735714
 20
117.7852291486093
 30
0.0
  0
SPLINE
  5
B9
330
1F
100
AcDbEntity
  8
0
  6
Continuous
 62
     7
370
    15
100
AcDbSpline
210
0.0
220
0.0
230
1.0
 70
     8
 71
     3
 72
    70
 73
    66
 74
     0
 42
0.00000001
 43
0.00000001
 12
1.0
 22
0.0
 32
0.0
 13
1.0
 23
0.0
 33
0.0
 40
-0.03125
 40
-0.03125
 40
0.0
 40
0.0
 40
0.03125
 40
0.03125
 40
0.0625
 40
0.0625
 40
0.09375
 40
0.09375
 40
0.125
 40
0.125
 40
0.15625
 40
0.15625
 40
0.1875
 40
0.1875
 40
0.21875
 40
0.21875
 40
0.25
 40
0.25
 40
0.28125
 40
0.28125
 40
0.3125
 40
0.3125
 40
0.34375
 40
0.34375
 40
0.375
 40
0.375
 40
0.40625
 40
0.40625
 40
0.4375
 40
0.4375
 40
0.46875
 40
0.46875
 40
0.5
 40
0.5
 40
0.53125
 40
0.53125
 40
0.5625
 40
0.5625
 40
0.59375
 40
0.59375
 40
0.625
 40
0.625
 40
0.65625
 40
0.65625
 40
0.6875
 40
0.6875
 40
0.71875
 40
0.71875
 40
0.75
 40
0.75
 40
0.78125
 40
0.78125
 40
0.8125
 40
0.8125
 40
0.84375
 40
0.84375
 40
0.875
 40
0.875
 40
0.90625
 40
0.90625
 40
0.9375
 40
0.9375
 40
0.96875
 40
0.96875
 40
1.0
 40
1.0
 40
1.03125
 40
1.03125
 10
197.9246936591459
 20
98.16071428571449
 30
0.0
 10
197.4608238872876
 20
98.16071428571449
 30
0.0
 10
197.2329006106662
 20
98.18353958113644
 30
0.0
 10
196.7847061768089
 20
98.27284564334082
 30
0.0
 10
196.562068714289
 20
98.34045616877142
 30
0.0
 10
196.1385615988789
 20
98.51634708136885
 30
0.0
 10
195.9378023910492
 20
98.62388364666522
 30
0.0
 10
195.5578585752959
 20
98.87783567203107
 30
0.0
 10
195.378495000008
 20
99.02519253448803
 30
0.0
 10
195.0566893012134
 20
99.34707441487323
 30
0.0
 10
194.9120410737336
 20
99.52283462767873
 30
0.0
 10
194.6561396124092
 20
99.90519031017938
 30
0.0
 10
194.547827573489
 20
100.1078694677889
 30
0.0
 10
194.3730392416323
 20
100.5287330530095
 30
0.0
 10
194.3054663650004
 20
100.7500115555579
 30
0.0
 10
194.2152879322277
 20
101.202101299041
 30
0.0
 10
194.1928966343567
 20
101.4296299300721
 30
0.0
 10
194.1926221691531
 20
101.8876035171523
 30
0.0
 10
194.2155036812164
 20
102.1202711196657
 30
0.0
 10
194.3050897505615
 20
102.5696664579522
 30
0.0
 10
194.3713659361989
 20
102.788169216744
 30
0.0
 10
194.5472887505286
 20
103.2127527310072
 30
0.0
 10
194.6565727064095
 20
103.4166714587987
 30
0.0
 10
194.909581805364
 20
103.7951316281278
 30
0.0
 10
195.055000931035
 20
103.9726540201095
 30
0.0
 10
195.380010378909
 20
104.297763135109
 30
0.0
 10
195.5559932654258
 20
104.4420954022645
 30
0.0
 10
195.9343783769104
 20
104.6955035918561
 30
0.0
 10
196.1392883615846
 20
104.8054133416688
 30
0.0
 10
196.5621254359122
 20
104.9809658919805
 30
0.0
 10
196.7802755824271
 20
105.0474560501014
 30
0.0
 10
197.2302268217481
 20
105.1375964444865
 30
0.0
 10
197.4625523046325
 20
105.1606196818181
 30
0.0
 10
197.9200795320603
 20
105.1608082948022
 30
0.0
 10
198.1479164583621
 20
105.1386933698273
 30
0.0
 10
198.6016792610436
 20
105.0485411075402
 30
0.0
 10
198.8214158484135
 20
104.9815820825863
 30
0.0
 10
199.2428900116043
 20
104.8070014406746
 30
0.0
 10
199.4473836673018
 20
104.6977755673691
 30
0.0
 10
199.8281822958869
 20
104.4432340298126
 30
0.0
 10
200.0039791580929
 20
104.2989549042478
 30
0.0
 10
200.3269188958762
 20
103.9765842468601
 30
0.0
 10
200.4744323034292
 20
103.7971121071465
 30
0.0
 10
200.727912322489
 20
103.4184816800088
 30
0.0
 10
200.8357458334109
 20
103.2178205310119
 30
0.0
 10
201.0125522486044
 20
102.7929328160636
 30
0.0
 10
201.0798255853725
 20
102.5717051116541
 30
0.0
 10
201.169469962838
 20
102.1239692683267
 30
0.0
 10
201.1926053146618
 20
101.8940795051509
 30
0.0
 10
201.1929107031744
 20
101.4319751187111
 30
0.0
 10
201.1704050447416
 20
101.2042929544227
 30
0.0
 10
201.0813948079899
 20
100.7554575015111
 30
0.0
 10
201.0137155164626
 20
100.5321761388674
 30
0.0
 10
200.8385271232407
 20
100.1094265859673
 30
0.0
 10
200.7311915941688
 20
99.90844510885302
 30
0.0
 10
200.4767558384818
 20
99.52720037289058
 30
0.0
 10
200.3300288457112
 20
99.34846044096429
 30
0.0
 10
200.0086575160786
 20
99.02664437573716
 30
0.0
 10
199.8322546373516
 20
98.88120924911739
 30
0.0
 10
199.4494044007935
 20
98.62471577777113
 30
0.0
 10
199.2483463996714
 20
98.51712987457373
 30
0.0
 10
198.8274000739696
 20
98.3418944755754
 30
0.0
 10
198.6051329220326
 20
98.2738869183968
 30
0.0
 10
198.1535324842561
 20
98.18354391447087
 30
0.0
 10
197.9246936591459
 20
98.16071428571449
 30
0.0
 10
197.4608238872876
 20
98.16071428571449
 30
0.0
  0
SPLINE
  5
BA
330
1F
100
AcDbEntity
  8
0
  6
Continuous
 62
     7
370
    15
100
AcDbSpline
210
0.0
220
0.0
230
1.0
 70
     8
 71
     3
 72
    20
 73
    16
 74
     0
 42
0.00000001
 43
0.00000001
 12
1.0
 22
0.0
 32
0.0
 13
1.0
 23
0.0
 33
0.0
 40
0.0
 40
0.0
 40
0.0
 40
0.0
 40
0.2500000000000011
 40
0.2500000000000011
 40
0.3750000000000009
 40
0.3750000000000009
 40
0.5000000000000007
 40
0.5000000000000007
 40
0.6250000000000004
 40
0.6250000000000004
 40
0.7500000000000003
 40
0.7500000000000003
 40
0.8750000000000002
 40
0.8750000000000002
 40
1.0
 40
1.0
 40
1.0
 40
1.0
 10
205.0313209454506
 20
99.3876659604615
 30
0.0
 10
204.7619792248063
 20
99.70302935857077
 30
0.0
 10
204.5537099601105
 20
100.0580524688619
 30
0.0
 10
204.3379284384784
 20
100.6418170815352
 30
0.0
 10
204.2840814751549
 20
100.8402688564951
 30
0.0
 10
204.2115006513465
 20
101.2447172742335
 30
0.0
 10
204.1928020276199
 20
101.4525321679435
 30
0.0
 10
204.1927156704358
 20
101.86743945081
 30
0.0
 10
204.2109720822975
 20
102.0723783275749
 30
0.0
 10
204.2831561270573
 20
102.4773633166483
 30
0.0
 10
204.3379183835442
 20
102.6793678336327
 30
0.0
 10
204.4809136154177
 20
103.0666516147543
 30
0.0
 10
204.568643375816
 20
103.2519548142417
 30
0.0
 10
204.7760903057906
 20
103.6062703725508
 30
0.0
 10
204.896645533322
 20
103.7760755823518
 30
0.0
 10
205.0313209454506
 20
103.9337626109675
 30
0.0
  0
LINE
  5
BB
330
1F
100
AcDbEntity
  8
0
  6
Continuous
 62
     7
370
    15
100
AcDbLine
 10
156.8927589327
 20
87.1481958649
 30
0.0
 11
156.8927589327
 21
88.0239678419
 31
0.0
  0
SPLINE
  5
BC
330
1F
100
AcDbEntity
  8
0
  6
Continuous
 62
     7
370
    15
100
AcDbSpline
210
0.0
220
0.0
230
1.0
 70
     8
 71
     3
 72
    12
 73
     8
 74
     0
 42
0.00000001
 43
0.00000001
 12
1.0
 22
0.0
 32
0.0
 13
1.0
 23
0.0
 33
0.0
 40
0.0
 40
0.0
 40
0.0
 40
0.0
 40
0.25
 40
0.25
 40
0.5
 40
0.5
 40
1.0
 40
1.0
 40
1.0
 40
1.0
 10
156.5250236803599
 20
88.73033842282958
 30
0.0
 10
156.5504478972538
 20
88.66345282975578
 30
0.0
 10
156.5910597368231
 20
88.59900434007217
 30
0.0
 10
156.6756608830952
 20
88.47400367999433
 30
0.0
 10
156.7197576793808
 20
88.4134849348022
 30
0.0
 10
156.8358267878669
 20
88.23727887869377
 30
0.0
 10
156.8927587732168
 20
88.12688446372198
 30
0.0
 10
156.8927587732168
 20
88.02396758762883
 30
0.0
  0
SPLINE
  5
BD
330
1F
100
AcDbEntity
  8
0
  6
Continuous
 62
     7
370
    15
100
AcDbSpline
210
0.0
220
0.0
230
1.0
 70
     8
 71
     3
 72
    14
 73
    10
 74
     0
 42
0.00000001
 43
0.00000001
 12
1.0
 22
0.0
 32
0.0
 13
1.0
 23
0.0
 33
0.0
 40
0.0
 40
0.0
 40
0.0
 40
0.0
 40
0.1249999999999994
 40
0.1249999999999994
 40
0.2499999999999988
 40
0.2499999999999988
 40
0.4999999999999991
 40
0.4999999999999991
 40
1.0
 40
1.0
 40
1.0
 40
1.0
 10
155.9927587732168
 20
89.2203442382033
 30
0.0
 10
156.0417710960281
 20
89.22486929735845
 30
0.0
 10
156.0945773210236
 20
89.21674991180393
 30
0.0
 10
156.1796444127531
 20
89.18641983665249
 30
0.0
 10
156.2142285980938
 20
89.165764879576
 30
0.0
 10
156.3027842834311
 20
89.10122875624921
 30
0.0
 10
156.3437199847523
 20
89.05399057619657
 30
0.0
 10
156.4476005116552
 20
88.91419447491288
 30
0.0
 10
156.4908243110874
 20
88.82030953604358
 30
0.0
 10
156.5250236803599
 20
88.73033842282958
 30
0.0
  0
SPLINE
  5
BE
330
1F
100
AcDbEntity
  8
0
  6
Continuous
 62
     7
370
    15
100
AcDbSpline
210
0.0
220
0.0
230
1.0
 70
     8
 71
     3
 72
    10
 73
     6
 74
     0
 42
0.00000001
 43
0.00000001
 12
1.0
 22
0.0
 32
0.0
 13
1.0
 23
0.0
 33
0.0
 40
0.0
 40
0.0
 40
0.0
 40
0.0
 40
0.5
 40
0.5
 40
1.0
 40
1.0
 40
1.0
 40
1.0
 10
153.0719353815182
 20
88.89409215863681
 30
0.0
 10
153.5448398121079
 20
88.9611250717603
 30
0.0
 10
154.0278447449523
 20
89.01899357292615
 30
0.0
 10
155.0036591233053
 20
89.12583472128635
 30
0.0
 10
155.4971333363293
 20
89.17458565562507
 30
0.0
 10
155.9927587732167
 20
89.22034423820334
 30
0.0
  0
SPLINE
  5
BF
330
1F
100
AcDbEntity
  8
0
  6
Continuous
 62
     7
370
    15
100
AcDbSpline
210
0.0
220
0.0
230
1.0
 70
     8
 71
     3
 72
    10
 73
     6
 74
     0
 42
0.00000001
 43
0.00000001
 12
1.0
 22
0.0
 32
0.0
 13
1.0
 23
0.0
 33
0.0
 40
0.0
 40
0.0
 40
0.0
 40
0.0
 40
0.5
 40
0.5
 40
1.0
 40
1.0
 40
1.0
 40
1.0
 10
151.8017587732168
 20
88.80964740815804
 30
0.0
 10
152.0171178037741
 20
88.81666023912857
 30
0.0
 10
152.2315591420981
 20
88.82543496278386
 30
0.0
 10
152.6565503607187
 20
88.85048814033168
 30
0.0
 10
152.8679230924413
 20
88.86517397313203
 30
0.0
 10
153.0719353815183
 20
88.8940921586368
 30
0.0
  0
SPLINE
  5
C0
330
1F
100
AcDbEntity
  8
0
  6
Continuous
 62
     7
370
    15
100
AcDbSpline
210
0.0
220
0.0
230
1.0
 70
     8
 71
     3
 72
     8
 73
     4
 74
     0
 42
0.00000001
 43
0.00000001
 12
1.0
 22
0.0
 32
0.0
 13
1.0
 23
0.0
 33
0.0
 40
0.0
 40
0.0
 40
0.0
 40
0.0
 40
1.0
 40
1.0
 40
1.0
 40
1.0
 10
151.7342426236477
 20
88.95753658617075
 30
0.0
 10
151.7483770682758
 20
88.90674026253751
 30
0.0
 10
151.7714344434245
 20
88.85750151197728
 30
0.0
 10
151.8017587732168
 20
88.80964740815803
 30
0.0
  0
ELLIPSE
  5
C1
330
1F
100
AcDbEntity
  8
0
  6
Continuous
 62
     7
370
    15
100
AcDbEllipse
 10
138.2660165654
 20
101.0214166079
 30
0.0
 11
13.37355272666625
 21
-13.37146352987013
 31
0.0
210
0.0
220
0.0
230
1.0
 40
0.1761188775
 41
0.3023035477142504
 42
0.3822730435340295
  0
ELLIPSE
  5
C2
330
1F
100
AcDbEntity
  8
0
  6
Continuous
 62
     7
370
    15
100
AcDbEllipse
 10
138.1866381347
 20
102.299824737
 30
0.0
 11
13.36963611134303
 21
13.36754752639482
 31
0.0
210
0.0
220
0.0
230
1.0
 40
0.1761188775
 41
5.9330769318466
 42
5.976720052691197
  0
SPLINE
  5
C3
330
1F
100
AcDbEntity
  8
0
  6
Continuous
 62
     7
370
    15
100
AcDbSpline
210
0.0
220
0.0
230
1.0
 70
     8
 71
     3
 72
     8
 73
     4
 74
     0
 42
0.00000001
 43
0.00000001
 12
1.0
 22
0.0
 32
0.0
 13
1.0
 23
0.0
 33
0.0
 40
0.0
 40
0.0
 40
0.0
 40
0.0
 40
1.0
 40
1.0
 40
1.0
 40
1.0
 10
151.7427587732167
 20
114.5262948326927
 30
0.0
 10
151.6969938655274
 20
114.4647744535338
 30
0.0
 10
151.6626067438974
 20
114.4008795937844
 30
0.0
 10
151.6435914902245
 20
114.3341496487406
 30
0.0
  0
SPLINE
  5
C4
330
1F
100
AcDbEntity
  8
0
  6
Continuous
 62
     7
370
    15
100
AcDbSpline
210
0.0
220
0.0
230
1.0
 70
     8
 71
     3
 72
    12
 73
     8
 74
     0
 42
0.00000001
 43
0.00000001
 12
1.0
 22
0.0
 32
0.0
 13
1.0
 23
0.0
 33
0.0
 40
0.0
 40
0.0
 40
0.0
 40
0.0
 40
0.2499999999999986
 40
0.2499999999999986
 40
0.4999999999999971
 40
0.4999999999999971
 40
1.0
 40
1.0
 40
1.0
 40
1.0
 10
153.4927587732168
 20
114.4415081443735
 30
0.0
 10
153.3507163700276
 20
114.4573338725497
 30
0.0
 10
153.2065982635234
 20
114.468355006325
 30
0.0
 10
152.9168437498509
 20
114.4868913681922
 30
0.0
 10
152.7711018464921
 20
114.494162073928
 30
0.0
 10
152.3324216073123
 20
114.512622924256
 30
0.0
 10
152.0380459912411
 20
114.5205017910795
 30
0.0
 10
151.7427587732167
 20
114.5262948326927
 30
0.0
  0
SPLINE
  5
C5
330
1F
100
AcDbEntity
  8
0
  6
Continuous
 62
     7
370
    15
100
AcDbSpline
210
0.0
220
0.0
230
1.0
 70
     8
 71
     3
 72
    20
 73
    16
 74
     0
 42
0.00000001
 43
0.00000001
 12
1.0
 22
0.0
 32
0.0
 13
1.0
 23
0.0
 33
0.0
 40
0.0
 40
0.0
 40
0.0
 40
0.0
 40
0.2499999999999996
 40
0.2499999999999996
 40
0.4999999999999991
 40
0.4999999999999991
 40
0.7499999999999987
 40
0.7499999999999987
 40
0.8749999999999971
 40
0.8749999999999971
 40
0.9374999999999983
 40
0.9374999999999983
 40
0.9687499999999991
 40
0.9687499999999991
 40
1.0
 40
1.0
 40
1.0
 40
1.0
 10
154.3927587732177
 20
115.2182384074622
 30
0.0
 10
154.3927587732177
 20
115.1576290077648
 30
0.0
 10
154.3673637536408
 20
115.0918030423612
 30
0.0
 10
154.2810705678588
 20
114.9577552730146
 30
0.0
 10
154.2204345891756
 20
114.8890599148728
 30
0.0
 10
154.0723327949543
 20
114.7486613632184
 30
0.0
 10
153.9855631881757
 20
114.676957858637
 30
0.0
 10
153.8369253928465
 20
114.5707944568882
 30
0.0
 10
153.7846361759603
 20
114.5352661082566
 30
0.0
 10
153.6938723476504
 20
114.4855621777412
 30
0.0
 10
153.6615063551984
 20
114.469301179726
 30
0.0
 10
153.6038171995322
 20
114.4501886113801
 30
0.0
 10
153.5828301716447
 20
114.4447974692986
 30
0.0
 10
153.5375411926542
 20
114.4390601009061
 30
0.0
 10
153.5145269238157
 20
114.4390828345595
 30
0.0
 10
153.4927587732161
 20
114.4415081443723
 30
0.0
  0
LINE
  5
C6
330
1F
100
AcDbEntity
  8
0
  6
Continuous
 62
     7
370
    15
100
AcDbLine
 10
154.3927585229
 20
115.218238706
 30
0.0
 11
154.3927585229
 21
116.0479819274
 31
0.0
  0
LINE
  5
C7
330
1F
100
AcDbEntity
  8
0
  6
Continuous
 62
     7
370
    15
100
AcDbLine
 10
168.6927586782
 20
86.557013715
 30
0.0
 11
168.6927586782
 21
116.7644148565
 31
0.0
  0
SPLINE
  5
C8
330
1F
100
AcDbEntity
  8
0
  6
Continuous
 62
     7
370
    15
100
AcDbSpline
210
0.0
220
0.0
230
1.0
 70
     8
 71
     3
 72
    24
 73
    20
 74
     0
 42
0.00000001
 43
0.00000001
 12
1.0
 22
0.0
 32
0.0
 13
1.0
 23
0.0
 33
0.0
 40
0.0
 40
0.0
 40
0.0
 40
0.0
 40
0.0016643193296813
 40
0.0648792890554526
 40
0.127882629835479
 40
0.1913652263153964
 40
0.2543782098387403
 40
0.3163193264594876
 40
0.3777469775702122
 40
0.4397082275190884
 40
0.5014189034197821
 40
0.562536076452263
 40
0.6237133677268287
 40
0.6863020174790898
 40
0.7490598999921412
 40
0.811592469235191
 40
0.8743360189604256
 40
0.9379727054607176
 40
1.0
 40
1.0
 40
1.0
 40
1.0
 10
161.8773016601296
 20
86.8987476325461
 30
0.0
 10
161.8768242693041
 20
86.89867922171115
 30
0.0
 10
161.8582143926961
 20
86.89601239794897
 30
0.0
 10
161.9213549295052
 20
86.90572696078705
 30
0.0
 10
162.0733976865877
 20
86.92793166699501
 30
0.0
 10
162.3413232018526
 20
86.96236741852843
 30
0.0
 10
162.6906369790394
 20
87.00083042919766
 30
0.0
 10
163.1176880409634
 20
87.03505848214503
 30
0.0
 10
163.6051276693784
 20
87.05751104198515
 30
0.0
 10
164.1367780343197
 20
87.06110502971617
 30
0.0
 10
164.6878986368207
 20
87.04409140046296
 30
0.0
 10
165.2353566276074
 20
87.0041456350198
 30
0.0
 10
165.759990857363
 20
86.94503802236314
 30
0.0
 10
166.2417792557629
 20
86.87267358494198
 30
0.0
 10
166.6667278477725
 20
86.79635291346385
 30
0.0
 10
167.0129441612334
 20
86.72436896747278
 30
0.0
 10
167.2680224733646
 20
86.66598194130907
 30
0.0
 10
167.428217865502
 20
86.62632228500253
 30
0.0
 10
167.4488519278987
 20
86.6214976095388
 30
0.0
 10
167.459036827782
 20
86.61911616687266
 30
0.0
  0
SPLINE
  5
C9
330
1F
100
AcDbEntity
  8
0
  6
Continuous
 62
     7
370
    15
100
AcDbSpline
210
0.0
220
0.0
230
1.0
 70
     8
 71
     3
 72
    24
 73
    20
 74
     0
 42
0.00000001
 43
0.00000001
 12
1.0
 22
0.0
 32
0.0
 13
1.0
 23
0.0
 33
0.0
 40
0.0
 40
0.0
 40
0.0
 40
0.0
 40
0.0629034706215385
 40
0.1256338688179741
 40
0.1890239793713884
 40
0.2513957684939822
 40
0.3139906836130308
 40
0.3762905044722344
 40
0.4374458894592898
 40
0.498543195540241
 40
0.5603281747675228
 40
0.6223344559749604
 40
0.6838864964282686
 40
0.7458035579052691
 40
0.8089499376965126
 40
0.8723245876864573
 40
0.9353799443000518
 40
0.9988635323362688
 40
1.0
 40
1.0
 40
1.0
 40
1.0
 10
167.4580379843207
 20
116.7023133358785
 30
0.0
 10
167.4485673580458
 20
116.6998905466099
 30
0.0
 10
167.4296521629494
 20
116.695051634128
 30
0.0
 10
167.2676008665452
 20
116.6550800429506
 30
0.0
 10
167.0110756257995
 20
116.5967360473782
 30
0.0
 10
166.6650194895062
 20
116.5245009493899
 30
0.0
 10
166.2411200966129
 20
116.4483516978778
 30
0.0
 10
165.760137135775
 20
116.3762323963653
 30
0.0
 10
165.2361535787949
 20
116.3173448830575
 30
0.0
 10
164.6885556935878
 20
116.2774333604533
 30
0.0
 10
164.1370793775318
 20
116.2603976128381
 30
0.0
 10
163.6046380977504
 20
116.2639610839298
 30
0.0
 10
163.1166558860644
 20
116.2863943488968
 30
0.0
 10
162.689143732432
 20
116.3206843637737
 30
0.0
 10
162.3402421776596
 20
116.3591881585604
 30
0.0
 10
162.0729875571689
 20
116.3936441865151
 30
0.0
 10
161.920053252648
 20
116.4157269738532
 30
0.0
 10
161.8589436014845
 20
116.4255556856038
 30
0.0
 10
161.8765267651726
 20
116.4227919432077
 30
0.0
 10
161.8768359988423
 20
116.422743337495
 30
0.0
  0
SPLINE
  5
CA
330
1F
100
AcDbEntity
  8
0
  6
Continuous
 62
     7
370
    15
100
AcDbSpline
210
0.0
220
0.0
230
1.0
 70
     8
 71
     3
 72
    26
 73
    22
 74
     0
 42
0.00000001
 43
0.00000001
 12
1.0
 22
0.0
 32
0.0
 13
1.0
 23
0.0
 33
0.0
 40
0.0
 40
0.0
 40
0.0
 40
0.0
 40
0.2500000000000016
 40
0.2500000000000016
 40
0.3750000000000021
 40
0.3750000000000021
 40
0.4375000000000028
 40
0.4375000000000028
 40
0.4687500000000033
 40
0.4687500000000033
 40
0.5000000000000037
 40
0.5000000000000037
 40
0.5312500000000041
 40
0.5312500000000041
 40
0.5625000000000046
 40
0.5625000000000046
 40
0.6250000000000043
 40
0.6250000000000043
 40
0.7500000000000029
 40
0.7500000000000029
 40
1.0
 40
1.0
 40
1.0
 40
1.0
 10
151.5527288196046
 20
114.0487948653272
 30
0.0
 10
151.5053407101761
 20
113.9131391233041
 30
0.0
 10
151.4476994082717
 20
113.7691777249749
 30
0.0
 10
151.3256515957284
 20
113.5264051517205
 30
0.0
 10
151.2796025879519
 20
113.4413655112711
 30
0.0
 10
151.1889493037863
 20
113.3009895382308
 30
0.0
 10
151.1545968035007
 20
113.251078160892
 30
0.0
 10
151.0921616311102
 20
113.1745428960377
 30
0.0
 10
151.0688676123121
 20
113.1481384170508
 30
0.0
 10
151.0198150751856
 20
113.1005436517898
 30
0.0
 10
150.9953836255288
 20
113.0811010379379
 30
0.0
 10
150.954754029909
 20
113.0561932602698
 30
0.0
 10
150.9385917480578
 20
113.0501234289589
 30
0.0
 10
150.9116097039547
 20
113.0444345573651
 30
0.0
 10
150.9008601811319
 20
113.0448250654458
 30
0.0
 10
150.8728242069747
 20
113.0509674122343
 30
0.0
 10
150.8599629749421
 20
113.0616314186523
 30
0.0
 10
150.8289601137818
 20
113.1006442090124
 30
0.0
 10
150.8181006317126
 20
113.1366961994168
 30
0.0
 10
150.7948233757746
 20
113.2543755969158
 30
0.0
 10
150.7927587732167
 20
113.3457054972489
 30
0.0
 10
150.7927587732167
 20
113.4389457501551
 30
0.0
  0
SPLINE
  5
CB
330
1F
100
AcDbEntity
  8
0
  6
Continuous
 62
     7
370
    15
100
AcDbSpline
210
0.0
220
0.0
230
1.0
 70
     8
 71
     3
 72
    24
 73
    20
 74
     0
 42
0.00000001
 43
0.00000001
 12
1.0
 22
0.0
 32
0.0
 13
1.0
 23
0.0
 33
0.0
 40
0.0
 40
0.0
 40
0.0
 40
0.0
 40
0.2500000000000067
 40
0.2500000000000067
 40
0.3750000000000105
 40
0.3750000000000105
 40
0.4375000000000129
 40
0.4375000000000129
 40
0.5000000000000152
 40
0.5000000000000152
 40
0.5312500000000153
 40
0.5312500000000153
 40
0.5625000000000153
 40
0.5625000000000153
 40
0.6250000000000133
 40
0.6250000000000133
 40
0.7500000000000088
 40
0.7500000000000088
 40
1.0
 40
1.0
 40
1.0
 40
1.0
 10
150.7927587732167
 20
90.11320108449293
 30
0.0
 10
150.7927587732167
 20
90.19811003816251
 30
0.0
 10
150.7954834016491
 20
90.28043973420941
 30
0.0
 10
150.8218407227671
 20
90.38285212162842
 30
0.0
 10
150.8340544410393
 20
90.4136692180128
 30
0.0
 10
150.8686650911717
 20
90.44276673408974
 30
0.0
 10
150.8830518015391
 20
90.44972437472836
 30
0.0
 10
150.9243002846415
 20
90.4486146334515
 30
0.0
 10
150.9528398345723
 20
90.44032122784273
 30
0.0
 10
151.0137625000837
 20
90.3957377939815
 30
0.0
 10
151.0368284702235
 20
90.37527608072419
 30
0.0
 10
151.0807243502298
 20
90.33066346244385
 30
0.0
 10
151.1016043857899
 20
90.30678738423748
 30
0.0
 10
151.158814649083
 20
90.23689028707547
 30
0.0
 10
151.1911612728594
 20
90.19131269829099
 30
0.0
 10
151.2773272163512
 20
90.06242921067212
 30
0.0
 10
151.3229912363913
 20
89.98259603354006
 30
0.0
 10
151.4435387998425
 20
89.75681522442774
 30
0.0
 10
151.5025988885436
 20
89.62198383945642
 30
0.0
 10
151.5527288196046
 20
89.49372870078889
 30
0.0
  0
LINE
  5
CC
330
1F
100
AcDbEntity
  8
0
  6
Continuous
 62
     7
370
    15
100
AcDbLine
 10
150.7927590504
 20
90.1132009796
 30
0.0
 11
150.7927590504
 21
113.4389459959
 31
0.0
  0
SPLINE
  5
CD
330
1F
100
AcDbEntity
  8
0
  6
Continuous
 62
     7
370
    15
100
AcDbSpline
210
0.0
220
0.0
230
1.0
 70
     8
 71
     3
 72
    10
 73
     6
 74
     0
 42
0.00000001
 43
0.00000001
 12
1.0
 22
0.0
 32
0.0
 13
1.0
 23
0.0
 33
0.0
 40
0.0
 40
0.0
 40
0.0
 40
0.0
 40
0.5
 40
0.5
 40
1.0
 40
1.0
 40
1.0
 40
1.0
 10
190.6427587732168
 20
120.5315913188572
 30
0.0
 10
190.6427587732168
 20
120.690025761745
 30
0.0
 10
190.5805975567338
 20
120.849046456547
 30
0.0
 10
190.3600882160621
 20
121.0790542808027
 30
0.0
 10
190.2011731131171
 20
121.1478895556194
 30
0.0
 10
190.0427587732167
 20
121.1478895556194
 30
0.0
  0
LINE
  5
CE
330
1F
100
AcDbEntity
  8
0
  6
Continuous
 62
     7
370
    15
100
AcDbLine
 10
190.6427593424
 20
117.020971874
 30
0.0
 11
190.6427593424
 21
120.5315913877
 31
0.0
  0
SPLINE
  5
CF
330
1F
100
AcDbEntity
  8
0
  6
Continuous
 62
     7
370
    15
100
AcDbSpline
210
0.0
220
0.0
230
1.0
 70
     8
 71
     3
 72
    12
 73
     8
 74
     0
 42
0.00000001
 43
0.00000001
 12
1.0
 22
0.0
 32
0.0
 13
1.0
 23
0.0
 33
0.0
 40
0.0
 40
0.0
 40
0.0
 40
0.0
 40
0.25
 40
0.25
 40
0.5
 40
0.5
 40
1.0
 40
1.0
 40
1.0
 40
1.0
 10
190.0427587732167
 20
117.7721232867918
 30
0.0
 10
190.1320471322605
 20
117.7721232867918
 30
0.0
 10
190.2201059631627
 20
117.746498654187
 30
0.0
 10
190.3727596764119
 20
117.6579552812552
 30
0.0
 10
190.4385531697539
 20
117.5950727981406
 30
0.0
 10
190.5939938164699
 20
117.377711610207
 30
0.0
 10
190.6427587732167
 20
117.1990646001956
 30
0.0
 10
190.6427587732168
 20
117.0209714450199
 30
0.0
  0
SPLINE
  5
D0
330
1F
100
AcDbEntity
  8
0
  6
Continuous
 62
     7
370
    15
100
AcDbSpline
210
0.0
220
0.0
230
1.0
 70
     8
 71
     3
 72
    10
 73
     6
 74
     0
 42
0.00000001
 43
0.00000001
 12
1.0
 22
0.0
 32
0.0
 13
1.0
 23
0.0
 33
0.0
 40
0.0
 40
0.0
 40
0.0
 40
0.0
 40
0.5
 40
0.5
 40
1.0
 40
1.0
 40
1.0
 40
1.0
 10
185.9011031589667
 20
118.5607142857143
 30
0.0
 10
185.8237784270925
 20
118.618596286576
 30
0.0
 10
185.760398601556
 20
118.6956696312099
 30
0.0
 10
185.6748281527829
 20
118.8701726894037
 30
0.0
 10
185.6527587732167
 20
118.9669778928842
 30
0.0
 10
185.6527587732167
 20
119.0633182575342
 30
0.0
  0
SPLINE
  5
D1
330
1F
100
AcDbEntity
  8
0
  6
Continuous
 62
     7
370
    15
100
AcDbSpline
210
0.0
220
0.0
230
1.0
 70
    24
 71
     3
 72
    12
 73
     8
 74
     0
 42
0.00000001
 43
0.00000001
 12
1.0
 22
0.0
 32
0.0
 13
1.0
 23
0.0
 33
0.0
 40
0.0
 40
0.0
 40
0.0
 40
0.0
 40
0.2499999999999989
 40
0.2499999999999989
 40
0.4999999999999978
 40
0.4999999999999978
 40
1.0
 40
1.0
 40
1.0
 40
1.0
 10
186.2527587732168
 20
118.5607142857143
 30
0.0
 10
186.2011665729422
 20
118.5607142857143
 30
0.0
 10
186.1542615641476
 20
118.5607142857143
 30
0.0
 10
186.0809278382711
 20
118.5607142857143
 30
0.0
 10
186.0516980088221
 20
118.5607142857143
 30
0.0
 10
185.9734652287592
 20
118.5607142857143
 30
0.0
 10
185.9350310708516
 20
118.5607142857143
 30
0.0
 10
185.9011031589667
 20
118.5607142857143
 30
0.0
  0
SPLINE
  5
D2
330
1F
100
AcDbEntity
  8
0
  6
Continuous
 62
     7
370
    15
100
AcDbSpline
210
0.0
220
0.0
230
1.0
 70
     8
 71
     3
 72
    12
 73
     8
 74
     0
 42
0.00000001
 43
0.00000001
 12
1.0
 22
0.0
 32
0.0
 13
1.0
 23
0.0
 33
0.0
 40
0.0
 40
0.0
 40
0.0
 40
0.0
 40
0.5000000000000032
 40
0.5000000000000032
 40
0.7500000000000016
 40
0.7500000000000016
 40
1.0
 40
1.0
 40
1.0
 40
1.0
 10
185.6527587732167
 20
115.1765614659691
 30
0.0
 10
185.6527587732168
 20
114.990795389391
 30
0.0
 10
185.6993045184734
 20
114.8056220774007
 30
0.0
 10
185.849405466863
 20
114.5712114740572
 30
0.0
 10
185.9133422831571
 20
114.501115576645
 30
0.0
 10
186.0687100148868
 20
114.398435058841
 30
0.0
 10
186.1599532978047
 20
114.3677251458655
 30
0.0
 10
186.2527587732168
 20
114.3677251458655
 30
0.0
  0
SPLINE
  5
D3
330
1F
100
AcDbEntity
  8
0
  6
Continuous
 62
     7
370
    15
100
AcDbSpline
210
0.0
220
0.0
230
1.0
 70
    24
 71
     3
 72
    12
 73
     8
 74
     0
 42
0.00000001
 43
0.00000001
 12
1.0
 22
0.0
 32
0.0
 13
1.0
 23
0.0
 33
0.0
 40
0.0
 40
0.0
 40
0.0
 40
0.0
 40
0.5
 40
0.5
 40
0.75
 40
0.75
 40
1.0
 40
1.0
 40
1.0
 40
1.0
 10
187.4844143874668
 20
118.5607142857143
 30
0.0
 10
187.4502686391758
 20
118.5607142857143
 30
0.0
 10
187.4110754807708
 20
118.5607142857143
 30
0.0
 10
187.333227822117
 20
118.5607142857143
 30
0.0
 10
187.3038233633317
 20
118.5607142857143
 30
0.0
 10
187.2308158420258
 20
118.5607142857143
 30
0.0
 10
187.183910524218
 20
118.5607142857143
 30
0.0
 10
187.1327587732168
 20
118.5607142857143
 30
0.0
  0
SPLINE
  5
D4
330
1F
100
AcDbEntity
  8
0
  6
Continuous
 62
     7
370
    15
100
AcDbSpline
210
0.0
220
0.0
230
1.0
 70
     8
 71
     3
 72
    10
 73
     6
 74
     0
 42
0.00000001
 43
0.00000001
 12
1.0
 22
0.0
 32
0.0
 13
1.0
 23
0.0
 33
0.0
 40
0.0
 40
0.0
 40
0.0
 40
0.0
 40
0.5
 40
0.5
 40
1.0
 40
1.0
 40
1.0
 40
1.0
 10
187.7327587732168
 20
119.063318257533
 30
0.0
 10
187.7327587732166
 20
118.9667757100565
 30
0.0
 10
187.7108181506351
 20
118.8703145097864
 30
0.0
 10
187.6246879652433
 20
118.6949119155421
 30
0.0
 10
187.5616056580996
 20
118.6184963831751
 30
0.0
 10
187.4844143874668
 20
118.5607142857143
 30
0.0
  0
SPLINE
  5
D5
330
1F
100
AcDbEntity
  8
0
  6
Continuous
 62
     7
370
    15
100
AcDbSpline
210
0.0
220
0.0
230
1.0
 70
     8
 71
     3
 72
    12
 73
     8
 74
     0
 42
0.00000001
 43
0.00000001
 12
1.0
 22
0.0
 32
0.0
 13
1.0
 23
0.0
 33
0.0
 40
0.0
 40
0.0
 40
0.0
 40
0.0
 40
0.25
 40
0.25
 40
0.5
 40
0.5
 40
1.0
 40
1.0
 40
1.0
 40
1.0
 10
187.1327587732168
 20
114.3677251458656
 30
0.0
 10
187.2253007399386
 20
114.3677251458656
 30
0.0
 10
187.317510117083
 20
114.3987584927818
 30
0.0
 10
187.4726470774598
 20
114.5015693586066
 30
0.0
 10
187.5364569749209
 20
114.5717421729523
 30
0.0
 10
187.685583410722
 20
114.8046546564803
 30
0.0
 10
187.7327587732168
 20
114.9914500185502
 30
0.0
 10
187.7327587732167
 20
115.1765614659691
 30
0.0
  0
SPLINE
  5
D6
330
1F
100
AcDbEntity
  8
0
  6
Continuous
 62
     7
370
    15
100
AcDbSpline
210
0.0
220
0.0
230
1.0
 70
     8
 71
     3
 72
     8
 73
     4
 74
     0
 42
0.00000001
 43
0.00000001
 12
1.0
 22
0.0
 32
0.0
 13
1.0
 23
0.0
 33
0.0
 40
0.0
 40
0.0
 40
0.0
 40
0.0
 40
1.0
 40
1.0
 40
1.0
 40
1.0
 10
185.6527587732167
 20
119.3743909812445
 30
0.0
 10
185.3217384421971
 20
119.9659466777022
 30
0.0
 10
184.989957170713
 20
120.5570793419474
 30
0.0
 10
184.6575990743233
 20
121.1478895556194
 30
0.0
  0
LINE
  5
D7
330
1F
100
AcDbEntity
  8
0
  6
Continuous
 62
     7
370
    15
100
AcDbLine
 10
185.6527590647
 20
115.574802073
 30
0.0
 11
185.6527590647
 21
119.3743914238
 31
0.0
  0
SPLINE
  5
D8
330
1F
100
AcDbEntity
  8
0
  6
Continuous
 62
     7
370
    15
100
AcDbSpline
210
0.0
220
0.0
230
1.0
 70
     8
 71
     3
 72
     8
 73
     4
 74
     0
 42
0.00000001
 43
0.00000001
 12
1.0
 22
0.0
 32
0.0
 13
1.0
 23
0.0
 33
0.0
 40
0.0
 40
0.0
 40
0.0
 40
0.0
 40
1.0
 40
1.0
 40
1.0
 40
1.0
 10
184.6575990743233
 20
117.7721232867918
 30
0.0
 10
184.997022115605
 20
117.0423324252724
 30
0.0
 10
185.3295328591
 20
116.3101640698507
 30
0.0
 10
185.6527587732167
 20
115.5748021851698
 30
0.0
  0
LINE
  5
D9
330
1F
100
AcDbEntity
  8
0
  6
Continuous
 62
     7
370
    15
100
AcDbLine
 10
185.6527590647
 20
115.574802073
 30
0.0
 11
185.6527590647
 21
115.1765610895
 31
0.0
  0
LINE
  5
DA
330
1F
100
AcDbEntity
  8
0
  6
Continuous
 62
     7
370
    15
100
AcDbLine
 10
186.2527589768
 20
114.3677251286
 30
0.0
 11
187.1327591583
 21
114.3677251286
 31
0.0
  0
SPLINE
  5
DB
330
1F
100
AcDbEntity
  8
0
  6
Continuous
 62
     7
370
    15
100
AcDbSpline
210
0.0
220
0.0
230
1.0
 70
     8
 71
     3
 72
     8
 73
     4
 74
     0
 42
0.00000001
 43
0.00000001
 12
1.0
 22
0.0
 32
0.0
 13
1.0
 23
0.0
 33
0.0
 40
0.0
 40
0.0
 40
0.0
 40
0.0
 40
1.0
 40
1.0
 40
1.0
 40
1.0
 10
187.7327587732167
 20
115.5748021851697
 30
0.0
 10
188.0563163314717
 20
116.3109185837923
 30
0.0
 10
188.3888106516886
 20
117.0430101792109
 30
0.0
 10
188.7279184721102
 20
117.7721232867918
 30
0.0
  0
LINE
  5
DC
330
1F
100
AcDbEntity
  8
0
  6
Continuous
 62
     7
370
    15
100
AcDbLine
 10
188.7279191508
 20
117.7721235773
 30
0.0
 11
190.042758499
 21
117.7721235773
 31
0.0
  0
LINE
  5
DD
330
1F
100
AcDbEntity
  8
0
  6
Continuous
 62
     7
370
    15
100
AcDbLine
 10
190.6427593424
 20
117.020971874
 30
0.0
 11
190.6427593424
 21
114.5381171129
 31
0.0
  0
LINE
  5
DE
330
1F
100
AcDbEntity
  8
0
  6
Continuous
 62
     7
370
    15
100
AcDbLine
 10
187.732758139
 20
115.1765610895
 30
0.0
 11
187.732758139
 21
115.574802073
 31
0.0
  0
SPLINE
  5
DF
330
1F
100
AcDbEntity
  8
0
  6
Continuous
 62
     7
370
    15
100
AcDbSpline
210
0.0
220
0.0
230
1.0
 70
     8
 71
     3
 72
     8
 73
     4
 74
     0
 42
0.00000001
 43
0.00000001
 12
1.0
 22
0.0
 32
0.0
 13
1.0
 23
0.0
 33
0.0
 40
0.0
 40
0.0
 40
0.0
 40
0.0
 40
1.0
 40
1.0
 40
1.0
 40
1.0
 10
188.7279184721102
 20
121.1478895556194
 30
0.0
 10
188.3955603757205
 20
120.5570793419474
 30
0.0
 10
188.0637791042364
 20
119.9659466777022
 30
0.0
 10
187.7327587732167
 20
119.3743909812445
 30
0.0
  0
LINE
  5
E0
330
1F
100
AcDbEntity
  8
0
  6
Continuous
 62
     7
370
    15
100
AcDbLine
 10
188.7279191508
 20
117.7721235773
 30
0.0
 11
188.7279191508
 21
121.1478903762
 31
0.0
  0
LINE
  5
E1
330
1F
100
AcDbEntity
  8
0
  6
Continuous
 62
     7
370
    15
100
AcDbLine
 10
187.732758139
 20
115.574802073
 30
0.0
 11
187.732758139
 21
119.3743914238
 31
0.0
  0
LINE
  5
E2
330
1F
100
AcDbEntity
  8
0
  6
Continuous
 62
     7
370
    15
100
AcDbLine
 10
187.1327591583
 20
118.5607135168
 30
0.0
 11
186.2527589768
 21
118.5607135168
 31
0.0
  0
LINE
  5
E3
330
1F
100
AcDbEntity
  8
0
  6
Continuous
 62
     7
370
    15
100
AcDbLine
 10
190.042758499
 20
121.1478903762
 30
0.0
 11
188.7279191508
 21
121.1478903762
 31
0.0
  0
LINE
  5
E4
330
1F
100
AcDbEntity
  8
0
  6
Continuous
 62
     7
370
    15
100
AcDbLine
 10
150.7927590504
 20
89.8422419897
 30
0.0
 11
150.7927590504
 21
90.1132009796
 31
0.0
  0
LINE
  5
E5
330
1F
100
AcDbEntity
  8
0
  6
Continuous
 62
     7
370
    15
100
AcDbLine
 10
150.7927590504
 20
113.5346282146
 30
0.0
 11
150.7927590504
 21
113.4389459959
 31
0.0
  0
LINE
  5
E6
330
1F
100
AcDbEntity
  8
0
  6
Continuous
 62
     7
370
    15
100
AcDbLine
 10
151.7427583679
 20
114.5407145715
 30
0.0
 11
151.7427583679
 21
114.5262949041
 31
0.0
  0
LINE
  5
E7
330
1F
100
AcDbEntity
  8
0
  6
Continuous
 62
     7
370
    15
100
AcDbLine
 10
150.7927590504
 20
113.5907143227
 30
0.0
 11
150.7927590504
 21
113.5346282146
 31
0.0
  0
LINE
  5
E8
330
1F
100
AcDbEntity
  8
0
  6
Continuous
 62
     7
370
    15
100
AcDbLine
 10
151.8017595157
 20
88.7807139999
 30
0.0
 11
151.8017595157
 21
88.8096473983
 31
0.0
  0
LINE
  5
E9
330
1F
100
AcDbEntity
  8
0
  6
Continuous
 62
     7
370
    15
100
AcDbLine
 10
150.7927590504
 20
89.7897144652
 30
0.0
 11
150.7927590504
 21
89.8422419897
 31
0.0
  0
LINE
  5
EA
330
1F
100
AcDbEntity
  8
0
  6
HIDDEN
 62
     7
370
     0
100
AcDbLine
 10
219.4033285126
 20
100.1091711561
 30
0.0
 11
217.2043678805
 21
99.4035462255
 31
0.0
  0
LINE
  5
EB
330
1F
100
AcDbEntity
  8
0
  6
HIDDEN
 62
     7
370
     0
100
AcDbLine
 10
215.4937965318
 20
100.9550894716
 30
0.0
 11
217.2043678805
 21
99.4035462255
 31
0.0
  0
LINE
  5
EC
330
1F
100
AcDbEntity
  8
0
  6
HIDDEN
 62
     7
370
     0
100
AcDbLine
 10
219.891717796
 20
102.3663390999
 30
0.0
 11
219.4033285126
 21
100.1091711561
 31
0.0
  0
LINE
  5
ED
330
1F
100
AcDbEntity
  8
0
  6
HIDDEN
 62
     7
370
     0
100
AcDbLine
 10
215.9821895405
 20
103.2122574153
 30
0.0
 11
215.4937965318
 21
100.9550894716
 31
0.0
  0
LINE
  5
EE
330
1F
100
AcDbEntity
  8
0
  6
HIDDEN
 62
     7
370
     0
100
AcDbLine
 10
219.891717796
 20
102.3663390999
 30
0.0
 11
218.1811501726
 21
103.9178823459
 31
0.0
  0
LINE
  5
EF
330
1F
100
AcDbEntity
  8
0
  6
HIDDEN
 62
     7
370
     0
100
AcDbLine
 10
215.9821895405
 20
103.2122574153
 30
0.0
 11
218.1811501726
 21
103.9178823459
 31
0.0
  0
LINE
  5
F0
330
1F
100
AcDbEntity
  8
0
  6
HIDDEN
 62
     7
370
     0
100
AcDbLine
 10
209.4033268734
 20
100.1091711561
 30
0.0
 11
207.2043662413
 21
99.4035462255
 31
0.0
  0
LINE
  5
F1
330
1F
100
AcDbEntity
  8
0
  6
HIDDEN
 62
     7
370
     0
100
AcDbLine
 10
205.493798618
 20
100.9550894716
 30
0.0
 11
207.2043662413
 21
99.4035462255
 31
0.0
  0
LINE
  5
F2
330
1F
100
AcDbEntity
  8
0
  6
HIDDEN
 62
     7
370
     0
100
AcDbLine
 10
209.8917198821
 20
102.3663390999
 30
0.0
 11
209.4033268734
 21
100.1091711561
 31
0.0
  0
LINE
  5
F3
330
1F
100
AcDbEntity
  8
0
  6
HIDDEN
 62
     7
370
     0
100
AcDbLine
 10
205.9821879014
 20
103.2122574153
 30
0.0
 11
205.493798618
 21
100.9550894716
 31
0.0
  0
LINE
  5
F4
330
1F
100
AcDbEntity
  8
0
  6
HIDDEN
 62
     7
370
     0
100
AcDbLine
 10
209.8917198821
 20
102.3663390999
 30
0.0
 11
208.1811485335
 21
103.9178823459
 31
0.0
  0
LINE
  5
F5
330
1F
100
AcDbEntity
  8
0
  6
HIDDEN
 62
     7
370
     0
100
AcDbLine
 10
205.9821879014
 20
103.2122574153
 30
0.0
 11
208.1811485335
 21
103.9178823459
 31
0.0
  0
LINE
  5
F6
330
1F
100
AcDbEntity
  8
0
  6
HIDDEN
 62
     7
370
     0
100
AcDbLine
 10
218.5386774584
 20
109.0052209667
 30
0.0
 11
221.6927578195
 21
109.0052209667
 31
0.0
  0
LINE
  5
F7
330
1F
100
AcDbEntity
  8
0
  6
HIDDEN
 62
     7
370
     0
100
AcDbLine
 10
213.6927602335
 20
109.0052209667
 30
0.0
 11
218.5386774584
 21
109.0052209667
 31
0.0
  0
LINE
  5
F8
330
1F
100
AcDbEntity
  8
0
  6
HIDDEN
 62
     7
370
     0
100
AcDbLine
 10
218.2743271335
 20
107.7552212275
 30
0.0
 11
220.4427590116
 21
107.7552212275
 31
0.0
  0
LINE
  5
F9
330
1F
100
AcDbEntity
  8
0
  6
HIDDEN
 62
     7
370
     0
100
AcDbLine
 10
214.9427590414
 20
107.7552212275
 30
0.0
 11
218.2743271335
 21
107.7552212275
 31
0.0
  0
LINE
  5
FA
330
1F
100
AcDbEntity
  8
0
  6
HIDDEN
 62
     7
370
     0
100
AcDbLine
 10
218.5386774584
 20
117.356559994
 30
0.0
 11
221.6927578195
 21
117.356559994
 31
0.0
  0
LINE
  5
FB
330
1F
100
AcDbEntity
  8
0
  6
HIDDEN
 62
     7
370
     0
100
AcDbLine
 10
213.6927602335
 20
117.356559994
 30
0.0
 11
218.5386774584
 21
117.356559994
 31
0.0
  0
LINE
  5
FC
330
1F
100
AcDbEntity
  8
0
  6
HIDDEN
 62
     7
370
     0
100
AcDbLine
 10
218.392649804
 20
117.7552219353
 30
0.0
 11
221.0022603616
 21
117.7552219353
 31
0.0
  0
LINE
  5
FD
330
1F
100
AcDbEntity
  8
0
  6
HIDDEN
 62
     7
370
     0
100
AcDbLine
 10
214.3832576915
 20
117.7552219353
 30
0.0
 11
218.392649804
 21
117.7552219353
 31
0.0
  0
LINE
  5
FE
330
1F
100
AcDbEntity
  8
0
  6
HIDDEN
 62
     7
370
     0
100
AcDbLine
 10
215.9821895405
 20
112.7552211157
 30
0.0
 11
218.1811501726
 21
112.7552211157
 31
0.0
  0
LINE
  5
FF
330
1F
100
AcDbEntity
  8
0
  6
HIDDEN
 62
     7
370
     0
100
AcDbLine
 10
218.1811501726
 20
112.7552211157
 30
0.0
 11
218.1811501726
 21
117.7552219353
 31
0.0
  0
LINE
  5
100
330
1F
100
AcDbEntity
  8
0
  6
HIDDEN
 62
     7
370
     0
100
AcDbLine
 10
219.891717796
 20
112.7552211157
 30
0.0
 11
218.1811501726
 21
112.7552211157
 31
0.0
  0
LINE
  5
101
330
1F
100
AcDbEntity
  8
0
  6
HIDDEN
 62
     7
370
     0
100
AcDbLine
 10
215.9821895405
 20
112.7552211157
 30
0.0
 11
215.9821895405
 21
117.7552219353
 31
0.0
  0
LINE
  5
102
330
1F
100
AcDbEntity
  8
0
  6
HIDDEN
 62
     7
370
     0
100
AcDbLine
 10
215.9821895405
 20
112.7552211157
 30
0.0
 11
215.4937965318
 21
112.7552211157
 31
0.0
  0
LINE
  5
103
330
1F
100
AcDbEntity
  8
0
  6
HIDDEN
 62
     7
370
     0
100
AcDbLine
 10
219.4033285126
 20
112.7552211157
 30
0.0
 11
219.4033285126
 21
117.7552219353
 31
0.0
  0
LINE
  5
104
330
1F
100
AcDbEntity
  8
0
  6
HIDDEN
 62
     7
370
     0
100
AcDbLine
 10
219.891717796
 20
112.7552211157
 30
0.0
 11
219.891717796
 21
117.7552219353
 31
0.0
  0
LINE
  5
105
330
1F
100
AcDbEntity
  8
0
  6
HIDDEN
 62
     7
370
     0
100
AcDbLine
 10
217.2043678805
 20
112.7552211157
 30
0.0
 11
217.2043678805
 21
117.7552219353
 31
0.0
  0
LINE
  5
106
330
1F
100
AcDbEntity
  8
0
  6
HIDDEN
 62
     7
370
     0
100
AcDbLine
 10
215.4937965318
 20
112.7552211157
 30
0.0
 11
215.4937965318
 21
117.7552219353
 31
0.0
  0
LINE
  5
107
330
1F
100
AcDbEntity
  8
0
  6
HIDDEN
 62
     7
370
     0
100
AcDbLine
 10
208.5386758193
 20
109.0052209667
 30
0.0
 11
211.6927599057
 21
109.0052209667
 31
0.0
  0
LINE
  5
108
330
1F
100
AcDbEntity
  8
0
  6
HIDDEN
 62
     7
370
     0
100
AcDbLine
 10
203.6927585944
 20
109.0052209667
 30
0.0
 11
208.5386758193
 21
109.0052209667
 31
0.0
  0
LINE
  5
109
330
1F
100
AcDbEntity
  8
0
  6
HIDDEN
 62
     7
370
     0
100
AcDbLine
 10
208.2743292197
 20
107.7552212275
 30
0.0
 11
210.4427573725
 21
107.7552212275
 31
0.0
  0
LINE
  5
10A
330
1F
100
AcDbEntity
  8
0
  6
HIDDEN
 62
     7
370
     0
100
AcDbLine
 10
204.9427574023
 20
107.7552212275
 30
0.0
 11
208.2743292197
 21
107.7552212275
 31
0.0
  0
LINE
  5
10B
330
1F
100
AcDbEntity
  8
0
  6
HIDDEN
 62
     7
370
     0
100
AcDbLine
 10
208.5386758193
 20
117.356559994
 30
0.0
 11
211.6927599057
 21
117.356559994
 31
0.0
  0
LINE
  5
10C
330
1F
100
AcDbEntity
  8
0
  6
HIDDEN
 62
     7
370
     0
100
AcDbLine
 10
203.6927585944
 20
117.356559994
 30
0.0
 11
208.5386758193
 21
117.356559994
 31
0.0
  0
LINE
  5
10D
330
1F
100
AcDbEntity
  8
0
  6
HIDDEN
 62
     7
370
     0
100
AcDbLine
 10
208.3926518902
 20
117.7552219353
 30
0.0
 11
211.0022587224
 21
117.7552219353
 31
0.0
  0
LINE
  5
10E
330
1F
100
AcDbEntity
  8
0
  6
HIDDEN
 62
     7
370
     0
100
AcDbLine
 10
204.3832597777
 20
117.7552219353
 30
0.0
 11
208.3926518902
 21
117.7552219353
 31
0.0
  0
LINE
  5
10F
330
1F
100
AcDbEntity
  8
0
  6
HIDDEN
 62
     7
370
     0
100
AcDbLine
 10
205.9821879014
 20
112.7552211157
 30
0.0
 11
208.1811485335
 21
112.7552211157
 31
0.0
  0
LINE
  5
110
330
1F
100
AcDbEntity
  8
0
  6
HIDDEN
 62
     7
370
     0
100
AcDbLine
 10
208.1811485335
 20
112.7552211157
 30
0.0
 11
208.1811485335
 21
117.7552219353
 31
0.0
  0
LINE
  5
111
330
1F
100
AcDbEntity
  8
0
  6
HIDDEN
 62
     7
370
     0
100
AcDbLine
 10
209.8917198821
 20
112.7552211157
 30
0.0
 11
208.1811485335
 21
112.7552211157
 31
0.0
  0
LINE
  5
112
330
1F
100
AcDbEntity
  8
0
  6
HIDDEN
 62
     7
370
     0
100
AcDbLine
 10
205.9821879014
 20
112.7552211157
 30
0.0
 11
205.9821879014
 21
117.7552219353
 31
0.0
  0
LINE
  5
113
330
1F
100
AcDbEntity
  8
0
  6
HIDDEN
 62
     7
370
     0
100
AcDbLine
 10
205.9821879014
 20
112.7552211157
 30
0.0
 11
205.493798618
 21
112.7552211157
 31
0.0
  0
LINE
  5
114
330
1F
100
AcDbEntity
  8
0
  6
HIDDEN
 62
     7
370
     0
100
AcDbLine
 10
209.4033268734
 20
112.7552211157
 30
0.0
 11
209.4033268734
 21
117.7552219353
 31
0.0
  0
LINE
  5
115
330
1F
100
AcDbEntity
  8
0
  6
HIDDEN
 62
     7
370
     0
100
AcDbLine
 10
209.8917198821
 20
112.7552211157
 30
0.0
 11
209.8917198821
 21
117.7552219353
 31
0.0
  0
LINE
  5
116
330
1F
100
AcDbEntity
  8
0
  6
HIDDEN
 62
     7
370
     0
100
AcDbLine
 10
207.2043662413
 20
112.7552211157
 30
0.0
 11
207.2043662413
 21
117.7552219353
 31
0.0
  0
LINE
  5
117
330
1F
100
AcDbEntity
  8
0
  6
HIDDEN
 62
     7
370
     0
100
AcDbLine
 10
205.493798618
 20
112.7552211157
 30
0.0
 11
205.493798618
 21
117.7552219353
 31
0.0
  0
CIRCLE
  5
118
330
1F
100
AcDbEntity
  8
0
  6
HIDDEN
 62
     7
370
     0
100
AcDbCircle
 10
217.6927587732
 20
101.6607142857
 30
0.0
 40
4.000000000000004
  0
CIRCLE
  5
119
330
1F
100
AcDbEntity
  8
0
  6
HIDDEN
 62
     7
370
     0
100
AcDbCircle
 10
217.6927587732
 20
101.6607142857
 30
0.0
 40
2.749999999999989
  0
CIRCLE
  5
11A
330
1F
100
AcDbEntity
  8
0
  6
HIDDEN
 62
     7
370
     0
100
AcDbCircle
 10
207.6927587732
 20
101.6607142857
 30
0.0
 40
4.00000000000001
  0
CIRCLE
  5
11B
330
1F
100
AcDbEntity
  8
0
  6
HIDDEN
 62
     7
370
     0
100
AcDbCircle
 10
207.6927587732
 20
101.6607142857
 30
0.0
 40
2.749999999999989
  0
LINE
  5
11C
330
1F
100
AcDbEntity
  8
0
  6
HIDDEN
 62
     7
370
     0
100
AcDbLine
 10
199.4033270969
 20
100.1091711561
 30
0.0
 11
197.2043683275
 21
99.4035462255
 31
0.0
  0
LINE
  5
11D
330
1F
100
AcDbEntity
  8
0
  6
HIDDEN
 62
     7
370
     0
100
AcDbLine
 10
195.4937988415
 20
100.9550894716
 30
0.0
 11
197.2043683275
 21
99.4035462255
 31
0.0
  0
LINE
  5
11E
330
1F
100
AcDbEntity
  8
0
  6
HIDDEN
 62
     7
370
     0
100
AcDbLine
 10
199.8917201057
 20
102.3663390999
 30
0.0
 11
199.4033270969
 21
100.1091711561
 31
0.0
  0
LINE
  5
11F
330
1F
100
AcDbEntity
  8
0
  6
HIDDEN
 62
     7
370
     0
100
AcDbLine
 10
195.9821899875
 20
103.2122574153
 30
0.0
 11
195.4937988415
 21
100.9550894716
 31
0.0
  0
LINE
  5
120
330
1F
100
AcDbEntity
  8
0
  6
HIDDEN
 62
     7
370
     0
100
AcDbLine
 10
199.8917201057
 20
102.3663390999
 30
0.0
 11
198.1811506196
 21
103.9178823459
 31
0.0
  0
LINE
  5
121
330
1F
100
AcDbEntity
  8
0
  6
HIDDEN
 62
     7
370
     0
100
AcDbLine
 10
195.9821899875
 20
103.2122574153
 30
0.0
 11
198.1811506196
 21
103.9178823459
 31
0.0
  0
LINE
  5
122
330
1F
100
AcDbEntity
  8
0
  6
HIDDEN
 62
     7
370
     0
100
AcDbLine
 10
198.5386779054
 20
109.0052209667
 30
0.0
 11
201.6927582666
 21
109.0052209667
 31
0.0
  0
LINE
  5
123
330
1F
100
AcDbEntity
  8
0
  6
HIDDEN
 62
     7
370
     0
100
AcDbLine
 10
193.6927588179
 20
109.0052209667
 30
0.0
 11
198.5386779054
 21
109.0052209667
 31
0.0
  0
LINE
  5
124
330
1F
100
AcDbEntity
  8
0
  6
HIDDEN
 62
     7
370
     0
100
AcDbLine
 10
198.2743275806
 20
107.7552212275
 30
0.0
 11
200.4427594587
 21
107.7552212275
 31
0.0
  0
LINE
  5
125
330
1F
100
AcDbEntity
  8
0
  6
HIDDEN
 62
     7
370
     0
100
AcDbLine
 10
194.9427594885
 20
107.7552212275
 30
0.0
 11
198.2743275806
 21
107.7552212275
 31
0.0
  0
LINE
  5
126
330
1F
100
AcDbEntity
  8
0
  6
HIDDEN
 62
     7
370
     0
100
AcDbLine
 10
198.5386779054
 20
117.356559994
 30
0.0
 11
201.6927582666
 21
117.356559994
 31
0.0
  0
LINE
  5
127
330
1F
100
AcDbEntity
  8
0
  6
HIDDEN
 62
     7
370
     0
100
AcDbLine
 10
193.6927588179
 20
117.356559994
 30
0.0
 11
198.5386779054
 21
117.356559994
 31
0.0
  0
LINE
  5
128
330
1F
100
AcDbEntity
  8
0
  6
HIDDEN
 62
     7
370
     0
100
AcDbLine
 10
198.392650251
 20
117.7552219353
 30
0.0
 11
201.002258946
 21
117.7552219353
 31
0.0
  0
LINE
  5
129
330
1F
100
AcDbEntity
  8
0
  6
HIDDEN
 62
     7
370
     0
100
AcDbLine
 10
194.3832581385
 20
117.7552219353
 30
0.0
 11
198.392650251
 21
117.7552219353
 31
0.0
  0
LINE
  5
12A
330
1F
100
AcDbEntity
  8
0
  6
HIDDEN
 62
     7
370
     0
100
AcDbLine
 10
195.9821899875
 20
112.7552211157
 30
0.0
 11
198.1811506196
 21
112.7552211157
 31
0.0
  0
LINE
  5
12B
330
1F
100
AcDbEntity
  8
0
  6
HIDDEN
 62
     7
370
     0
100
AcDbLine
 10
198.1811506196
 20
112.7552211157
 30
0.0
 11
198.1811506196
 21
117.7552219353
 31
0.0
  0
LINE
  5
12C
330
1F
100
AcDbEntity
  8
0
  6
HIDDEN
 62
     7
370
     0
100
AcDbLine
 10
199.8917201057
 20
112.7552211157
 30
0.0
 11
198.1811506196
 21
112.7552211157
 31
0.0
  0
LINE
  5
12D
330
1F
100
AcDbEntity
  8
0
  6
HIDDEN
 62
     7
370
     0
100
AcDbLine
 10
195.9821899875
 20
112.7552211157
 30
0.0
 11
195.9821899875
 21
117.7552219353
 31
0.0
  0
LINE
  5
12E
330
1F
100
AcDbEntity
  8
0
  6
HIDDEN
 62
     7
370
     0
100
AcDbLine
 10
195.9821899875
 20
112.7552211157
 30
0.0
 11
195.4937988415
 21
112.7552211157
 31
0.0
  0
LINE
  5
12F
330
1F
100
AcDbEntity
  8
0
  6
HIDDEN
 62
     7
370
     0
100
AcDbLine
 10
199.4033270969
 20
112.7552211157
 30
0.0
 11
199.4033270969
 21
117.7552219353
 31
0.0
  0
LINE
  5
130
330
1F
100
AcDbEntity
  8
0
  6
HIDDEN
 62
     7
370
     0
100
AcDbLine
 10
199.8917201057
 20
112.7552211157
 30
0.0
 11
199.8917201057
 21
117.7552219353
 31
0.0
  0
LINE
  5
131
330
1F
100
AcDbEntity
  8
0
  6
HIDDEN
 62
     7
370
     0
100
AcDbLine
 10
197.2043683275
 20
112.7552211157
 30
0.0
 11
197.2043683275
 21
117.7552219353
 31
0.0
  0
LINE
  5
132
330
1F
100
AcDbEntity
  8
0
  6
HIDDEN
 62
     7
370
     0
100
AcDbLine
 10
195.4937988415
 20
112.7552211157
 30
0.0
 11
195.4937988415
 21
117.7552219353
 31
0.0
  0
CIRCLE
  5
133
330
1F
100
AcDbEntity
  8
0
  6
HIDDEN
 62
     7
370
     0
100
AcDbCircle
 10
197.6927587732
 20
101.6607142857
 30
0.0
 40
4.00000000000001
  0
CIRCLE
  5
134
330
1F
100
AcDbEntity
  8
0
  6
HIDDEN
 62
     7
370
     0
100
AcDbCircle
 10
197.6927587732
 20
101.6607142857
 30
0.0
 40
2.749999999999995
  0
LINE
  5
135
330
1F
100
AcDbEntity
  8
0
  6
HIDDEN
 62
     7
370
     0
100
AcDbLine
 10
184.6575989842
 20
117.7721235773
 30
0.0
 11
184.6575989842
 21
113.5107146448
 31
0.0
  0
LINE
  5
136
330
1F
100
AcDbEntity
  8
0
  6
HIDDEN
 62
     7
370
     0
100
AcDbLine
 10
190.6427593424
 20
114.5381171129
 30
0.0
 11
190.6427593424
 21
113.5107146448
 31
0.0
  0
LINE
  5
137
330
1F
100
AcDbEntity
  8
0
  6
HIDDEN
 62
     7
370
     0
100
AcDbLine
 10
217.9141139134
 20
118.3003250382
 30
0.0
 11
217.6426706358
 21
118.2978514454
 31
0.0
  0
LINE
  5
138
330
1F
100
AcDbEntity
  8
0
  6
HIDDEN
 62
     7
370
     0
100
AcDbLine
 10
162.3417503654
 20
86.9619592897
 30
0.0
 11
162.1427919238
 21
86.9362808636
 31
0.0
  0
SPLINE
  5
139
330
1F
100
AcDbEntity
  8
0
  6
HIDDEN
 62
     7
370
     0
100
AcDbSpline
210
0.0
220
0.0
230
1.0
 70
     8
 71
     3
 72
     9
 73
     5
 74
     0
 42
0.00000001
 43
0.00000001
 12
1.0
 22
0.0
 32
0.0
 13
1.0
 23
0.0
 33
0.0
 40
0.0
 40
0.0
 40
0.0
 40
0.0
 40
0.0295948964519587
 40
1.0
 40
1.0
 40
1.0
 40
1.0
 10
162.6992627500983
 20
86.99962756250588
 30
0.0
 10
162.6949368625877
 20
86.9992928402143
 30
0.0
 10
162.5487668120334
 20
86.98798270462603
 30
0.0
 10
162.4437039261246
 20
86.9747755651773
 30
0.0
 10
162.3417503654452
 20
86.96195928965298
 30
0.0
  0
SPLINE
  5
13A
330
1F
100
AcDbEntity
  8
0
  6
HIDDEN
 62
     7
370
     0
100
AcDbSpline
210
0.0
220
0.0
230
1.0
 70
     8
 71
     3
 72
     9
 73
     5
 74
     0
 42
0.00000001
 43
0.00000001
 12
1.0
 22
0.0
 32
0.0
 13
1.0
 23
0.0
 33
0.0
 40
0.0
 40
0.0
 40
0.0
 40
0.0
 40
0.985348532497498
 40
1.0
 40
1.0
 40
1.0
 40
1.0
 10
162.3416320874782
 20
116.3594543806144
 30
0.0
 10
162.4437593192747
 20
116.3466677097124
 30
0.0
 10
162.5474051140655
 20
116.3336909096459
 30
0.0
 10
162.6912799892395
 20
116.3225335191599
 30
0.0
 10
162.6933879672976
 20
116.3223700470158
 30
0.0
  0
LWPOLYLINE
  5
13B
330
1F
100
AcDbEntity
  8
0
  6
HIDDEN
 62
     7
370
     0
100
AcDbPolyline
 90
        3
 70
   128
 43
0.0
 10
161.9275511696
 20
116.4147712163
 10
162.0827877417
 20
116.3923356554
 10
162.3416320875
 20
116.3594543806
  0
SPLINE
  5
13C
330
1F
100
AcDbEntity
  8
0
  6
HIDDEN
 62
     7
370
     0
100
AcDbSpline
210
0.0
220
0.0
230
1.0
 70
     8
 71
     3
 72
    15
 73
    11
 74
     0
 42
0.00000001
 43
0.00000001
 12
1.0
 22
0.0
 32
0.0
 13
1.0
 23
0.0
 33
0.0
 40
0.0
 40
0.0
 40
0.0
 40
0.0
 40
0.1360947993897038
 40
0.2722233504338452
 40
0.4072157477284721
 40
0.5405337273204607
 40
0.674528402193116
 40
0.8104813419156445
 40
0.9466524598609822
 40
1.0
 40
1.0
 40
1.0
 40
1.0
 10
166.5169355913492
 20
88.98790440176217
 30
0.0
 10
166.3390353295407
 20
89.01184679827992
 30
0.0
 10
165.9831906864705
 20
89.05973752905513
 30
0.0
 10
165.2488675059706
 20
89.11544701740732
 30
0.0
 10
164.469458852096
 20
89.1258978088722
 30
0.0
 10
163.7176726716868
 20
89.08869728607395
 30
0.0
 10
163.070378765053
 20
89.01934295784774
 30
0.0
 10
162.6145793946628
 20
88.95053568069022
 30
0.0
 10
162.3883572348636
 20
88.9099392609426
 30
0.0
 10
162.4158067669256
 20
88.91484295738253
 30
0.0
 10
162.4235335260125
 20
88.91622329716174
 30
0.0
  0
SPLINE
  5
13D
330
1F
100
AcDbEntity
  8
0
  6
HIDDEN
 62
     7
370
     0
100
AcDbSpline
210
0.0
220
0.0
230
1.0
 70
     8
 71
     3
 72
    15
 73
    11
 74
     0
 42
0.00000001
 43
0.00000001
 12
1.0
 22
0.0
 32
0.0
 13
1.0
 23
0.0
 33
0.0
 40
0.0
 40
0.0
 40
0.0
 40
0.0
 40
0.0809850953378773
 40
0.2142994841332234
 40
0.3489242590596051
 40
0.4852277276366004
 40
0.6209655570397145
 40
0.7547097406923156
 40
0.8881684412294678
 40
1.0
 40
1.0
 40
1.0
 40
1.0
 10
162.4235335260125
 20
114.4052052742669
 30
0.0
 10
162.4205702471488
 20
114.4057134029066
 30
0.0
 10
162.412728938459
 20
114.4070579923637
 30
0.0
 10
162.6842199399244
 20
114.3593342597869
 30
0.0
 10
163.178202956969
 20
114.288170345584
 30
0.0
 10
163.8565803591071
 20
114.2220771657294
 30
0.0
 10
164.6282208413698
 20
114.1935351946145
 30
0.0
 10
165.398589355121
 20
114.2140898495141
 30
0.0
 10
166.0601014321264
 20
114.2713547124882
 30
0.0
 10
166.3738794308479
 20
114.3140560023571
 30
0.0
 10
166.5169355913492
 20
114.3335241696664
 30
0.0
  0
SPLINE
  5
13E
330
1F
100
AcDbEntity
  8
0
  6
HIDDEN
 62
     7
370
     0
100
AcDbSpline
210
0.0
220
0.0
230
1.0
 70
     8
 71
     3
 72
     9
 73
     5
 74
     0
 42
0.00000001
 43
0.00000001
 12
1.0
 22
0.0
 32
0.0
 13
1.0
 23
0.0
 33
0.0
 40
0.0
 40
0.0
 40
0.0
 40
0.0
 40
0.5108162292355561
 40
1.0
 40
1.0
 40
1.0
 40
1.0
 10
166.5169355913492
 20
114.3335241696664
 30
0.0
 10
166.6569233600804
 20
114.3508667724485
 30
0.0
 10
166.9309705823871
 20
114.3848175394553
 30
0.0
 10
166.9689700229046
 20
114.386647536691
 30
0.0
 10
166.9875587325038
 20
114.3875427416393
 30
0.0
  0
SPLINE
  5
13F
330
1F
100
AcDbEntity
  8
0
  6
HIDDEN
 62
     7
370
     0
100
AcDbSpline
210
0.0
220
0.0
230
1.0
 70
     8
 71
     3
 72
    10
 73
     6
 74
     0
 42
0.00000001
 43
0.00000001
 12
1.0
 22
0.0
 32
0.0
 13
1.0
 23
0.0
 33
0.0
 40
0.0
 40
0.0
 40
0.0
 40
0.0
 40
0.0213446420092497
 40
0.5331818962574534
 40
1.0
 40
1.0
 40
1.0
 40
1.0
 10
166.9876395247372
 20
88.93387837920872
 30
0.0
 10
166.9893379425424
 20
88.93372229905798
 30
0.0
 10
167.0317638415421
 20
88.92982346998846
 30
0.0
 10
166.8922739855136
 20
88.93969855180124
 30
0.0
 10
166.638151761735
 20
88.97233624083512
 30
0.0
 10
166.5169355913492
 20
88.98790440176217
 30
0.0
  0
LINE
  5
140
330
1F
100
AcDbEntity
  8
0
  6
HIDDEN
 62
     7
370
     0
100
AcDbLine
 10
158.6954082816
 20
91.1607144273
 30
0.0
 11
158.6954082816
 21
112.1607141442
 31
0.0
  0
LINE
  5
141
330
1F
100
AcDbEntity
  8
0
  6
HIDDEN
 62
     7
370
     0
100
AcDbLine
 10
176.8621338054
 20
91.1607144273
 30
0.0
 11
176.8621338054
 21
112.1607141442
 31
0.0
  0
LINE
  5
142
330
1F
100
AcDbEntity
  8
0
  6
HIDDEN
 62
     7
370
     0
100
AcDbLine
 10
178.6427592381
 20
91.7857138312
 30
0.0
 11
178.6427592381
 21
111.5357147402
 31
0.0
  0
SPLINE
  5
143
330
1F
100
AcDbEntity
  8
0
  6
HIDDEN
 62
     7
370
     0
100
AcDbSpline
210
0.0
220
0.0
230
1.0
 70
     8
 71
     3
 72
    14
 73
    10
 74
     0
 42
0.00000001
 43
0.00000001
 12
1.0
 22
0.0
 32
0.0
 13
1.0
 23
0.0
 33
0.0
 40
0.0
 40
0.0
 40
0.0
 40
0.0
 40
0.2499999999999999
 40
0.2499999999999999
 40
0.4999999999999998
 40
0.4999999999999998
 40
0.7499999999999997
 40
0.7499999999999997
 40
1.0
 40
1.0
 40
1.0
 40
1.0
 10
154.3927587732168
 20
111.6849037791347
 30
0.0
 10
154.3927587732168
 20
111.6484319146009
 30
0.0
 10
154.3703881414127
 20
111.6106961620884
 30
0.0
 10
154.2831726101645
 20
111.5355604403889
 30
0.0
 10
154.2191514040878
 20
111.4991881541669
 30
0.0
 10
154.0556661063465
 20
111.4349646150048
 30
0.0
 10
153.9563512321733
 20
111.4074416523823
 30
0.0
 10
153.7365249614682
 20
111.3692694854952
 30
0.0
 10
153.6155213991591
 20
111.3586199874625
 30
0.0
 10
153.4927587732168
 20
111.3586199874625
 30
0.0
  0
LINE
  5
144
330
1F
100
AcDbEntity
  8
0
  6
HIDDEN
 62
     7
370
     0
100
AcDbLine
 10
153.4927581891
 20
111.3586200273
 30
0.0
 11
151.7427583679
 21
111.3586200273
 31
0.0
  0
ARC
  5
145
330
1F
100
AcDbEntity
  8
0
  6
HIDDEN
 62
     7
370
     0
100
AcDbCircle
 10
155.7677587732
 20
101.6607142857
 30
0.0
 40
10.49999999999999
100
AcDbArc
 50
247.4596895365
 51
247.8078280674
  0
LINE
  5
146
330
1F
100
AcDbEntity
  8
0
  6
HIDDEN
 62
     7
370
     0
100
AcDbLine
 10
151.8017595157
 20
91.9385308272
 30
0.0
 11
155.9927585989
 21
91.9385308272
 31
0.0
  0
SPLINE
  5
147
330
1F
100
AcDbEntity
  8
0
  6
HIDDEN
 62
     7
370
     0
100
AcDbSpline
210
0.0
220
0.0
230
1.0
 70
     8
 71
     3
 72
    14
 73
    10
 74
     0
 42
0.00000001
 43
0.00000001
 12
1.0
 22
0.0
 32
0.0
 13
1.0
 23
0.0
 33
0.0
 40
0.0
 40
0.0
 40
0.0
 40
0.0
 40
0.25
 40
0.25
 40
0.5
 40
0.5
 40
0.75
 40
0.75
 40
1.0
 40
1.0
 40
1.0
 40
1.0
 10
155.9927587732168
 20
91.9385311975391
 30
0.0
 10
156.1152268611357
 20
91.9385311975391
 30
0.0
 10
156.2354379400045
 20
91.92819417781921
 30
0.0
 10
156.4556442592572
 20
91.89072694924124
 30
0.0
 10
156.5552997119552
 20
91.86359578095201
 30
0.0
 10
156.7182870649109
 20
91.80082873474517
 30
0.0
 10
156.7830244256574
 20
91.76476504081825
 30
0.0
 10
156.8698597757744
 20
91.69157237095017
 30
0.0
 10
156.8927587732168
 20
91.65402958543918
 30
0.0
 10
156.8927587732168
 20
91.61832194125775
 30
0.0
  0
LINE
  5
148
330
1F
100
AcDbEntity
  8
0
  6
HIDDEN
 62
     7
370
     0
100
AcDbLine
 10
151.7427583679
 20
91.9628085441
 30
0.0
 11
151.7427583679
 21
111.3586200273
 31
0.0
  0
LINE
  5
149
330
1F
100
AcDbEntity
  8
0
  6
HIDDEN
 62
     7
370
     0
100
AcDbLine
 10
154.3927585229
 20
112.6607142261
 30
0.0
 11
154.3927585229
 21
115.218238706
 31
0.0
  0
LINE
  5
14A
330
1F
100
AcDbEntity
  8
0
  6
HIDDEN
 62
     7
370
     0
100
AcDbLine
 10
156.8927589327
 20
90.6607143453
 30
0.0
 11
156.8927589327
 21
88.0239678419
 31
0.0
  0
LINE
  5
14B
330
1F
100
AcDbEntity
  8
0
  6
HIDDEN
 62
     7
370
     0
100
AcDbLine
 10
151.7427583679
 20
112.6607142261
 30
0.0
 11
151.7427583679
 21
114.5262949041
 31
0.0
  0
LINE
  5
14C
330
1F
100
AcDbEntity
  8
0
  6
HIDDEN
 62
     7
370
     0
100
AcDbLine
 10
151.8017595157
 20
90.6607143453
 30
0.0
 11
151.8017595157
 21
88.8096473983
 31
0.0
  0
LINE
  5
14D
330
1F
100
AcDbEntity
  8
0
  6
HIDDEN
 62
     7
370
     0
100
AcDbLine
 10
186.4927580103
 20
95.4107141926
 30
0.0
 11
186.4927580103
 21
107.9107143788
 31
0.0
  0
LINE
  5
14E
330
1F
100
AcDbEntity
  8
0
  6
HIDDEN
 62
     7
370
     0
100
AcDbLine
 10
183.9927585318
 20
95.4107141926
 30
0.0
 11
183.9927585318
 21
107.9107143788
 31
0.0
  0
LINE
  5
14F
330
1F
100
AcDbEntity
  8
0
  6
HIDDEN
 62
     7
370
     0
100
AcDbLine
 10
179.1427583888
 20
96.1607143155
 30
0.0
 11
179.1427583888
 21
107.1607142559
 31
0.0
  0
LINE
  5
150
330
1F
100
AcDbEntity
  8
0
  6
HIDDEN
 62
     7
370
     0
100
AcDbLine
 10
178.6427592381
 20
81.6857300571
 30
0.0
 11
178.6427592381
 21
84.7607150546
 31
0.0
  0
LINE
  5
151
330
1F
100
AcDbEntity
  8
0
  6
HIDDEN
 62
     7
370
     0
100
AcDbLine
 10
183.1427590444
 20
84.7607150546
 30
0.0
 11
178.6427592381
 21
84.7607150546
 31
0.0
  0
LINE
  5
152
330
1F
100
AcDbEntity
  8
0
  6
HIDDEN
 62
     7
370
     0
100
AcDbLine
 10
185.6879807531
 20
84.7607150546
 30
0.0
 11
183.1427590444
 21
84.7607150546
 31
0.0
  0
LINE
  5
153
330
1F
100
AcDbEntity
  8
0
  6
HIDDEN
 62
     7
370
     0
100
AcDbLine
 10
190.6427593424
 20
84.7607150546
 30
0.0
 11
187.6975355193
 21
84.7607150546
 31
0.0
  0
LINE
  5
154
330
1F
100
AcDbEntity
  8
0
  6
HIDDEN
 62
     7
370
     0
100
AcDbLine
 10
192.8685159876
 20
101.6607142857
 30
0.0
 11
192.8685159876
 21
96.3607144414
 31
0.0
  0
LINE
  5
155
330
1F
100
AcDbEntity
  8
0
  6
HIDDEN
 62
     7
370
     0
100
AcDbLine
 10
192.8685159876
 20
106.96071413
 30
0.0
 11
192.8685159876
 21
101.6607142857
 31
0.0
  0
LINE
  5
156
330
1F
100
AcDbEntity
  8
0
  6
HIDDEN
 62
     7
370
     0
100
AcDbLine
 10
193.6927588179
 20
101.6607142857
 30
0.0
 11
193.6927588179
 21
96.6607143975
 31
0.0
  0
LINE
  5
157
330
1F
100
AcDbEntity
  8
0
  6
HIDDEN
 62
     7
370
     0
100
AcDbLine
 10
193.6927588179
 20
106.660714174
 30
0.0
 11
193.6927588179
 21
101.6607142857
 31
0.0
  0
LINE
  5
158
330
1F
100
AcDbEntity
  8
0
  6
HIDDEN
 62
     7
370
     0
100
AcDbLine
 10
189.6927581623
 20
101.6607142857
 30
0.0
 11
189.6927581623
 21
96.7607142276
 31
0.0
  0
LINE
  5
159
330
1F
100
AcDbEntity
  8
0
  6
HIDDEN
 62
     7
370
     0
100
AcDbLine
 10
189.6927581623
 20
106.5607143438
 30
0.0
 11
189.6927581623
 21
101.6607142857
 31
0.0
  0
SPLINE
  5
15A
330
1F
100
AcDbEntity
  8
0
  6
HIDDEN
 62
     7
370
     0
100
AcDbSpline
210
0.0
220
0.0
230
1.0
 70
     8
 71
     3
 72
    15
 73
    11
 74
     0
 42
0.00000001
 43
0.00000001
 12
1.0
 22
0.0
 32
0.0
 13
1.0
 23
0.0
 33
0.0
 40
0.0
 40
0.0
 40
0.0
 40
0.0
 40
0.0866825067541989
 40
0.1766473952060864
 40
0.3511094793680438
 40
0.5562395428199562
 40
0.6739761104820394
 40
0.796061833883272
 40
0.9704793268456928
 40
1.0
 40
1.0
 40
1.0
 40
1.0
 10
217.6927571638914
 20
105.2314285526851
 30
0.0
 10
217.5276742883018
 20
105.2382006904053
 30
0.0
 10
217.1912573910757
 20
105.2520014044484
 30
0.0
 10
216.5485167303734
 20
105.3903279777062
 30
0.0
 10
215.7709534919257
 20
105.691138249124
 30
0.0
 10
215.1032458972761
 20
106.0645678086612
 30
0.0
 10
214.6383869080328
 20
106.3574296765595
 30
0.0
 10
214.333513271574
 20
106.5617961093679
 30
0.0
 10
214.1625508102603
 20
106.6817240467115
 30
0.0
 10
214.2063154991684
 20
106.6512805748214
 30
0.0
 10
214.212650571713
 20
106.6468737891742
 30
0.0
  0
LINE
  5
15B
330
1F
100
AcDbEntity
  8
0
  6
HIDDEN
 62
     7
370
     0
100
AcDbLine
 10
217.6613604173
 20
105.2335820033
 30
0.0
 11
217.7479287132
 21
105.2381848323
 31
0.0
  0
SPLINE
  5
15C
330
1F
100
AcDbEntity
  8
0
  6
HIDDEN
 62
     7
370
     0
100
AcDbSpline
210
0.0
220
0.0
230
1.0
 70
     8
 71
     3
 72
    14
 73
    10
 74
     0
 42
0.00000001
 43
0.00000001
 12
1.0
 22
0.0
 32
0.0
 13
1.0
 23
0.0
 33
0.0
 40
0.0
 40
0.0
 40
0.0
 40
0.0
 40
0.0511365277724498
 40
0.2220562573600862
 40
0.399114798371671
 40
0.6040920143189747
 40
0.7209180908078346
 40
0.8418220772887839
 40
1.0
 40
1.0
 40
1.0
 40
1.0
 10
221.1819497391077
 20
106.6531550942787
 30
0.0
 10
221.1835002402267
 20
106.654243050595
 30
0.0
 10
221.1902331665815
 20
106.6589674133606
 30
0.0
 10
220.9988538618062
 20
106.5247699408092
 30
0.0
 10
220.5173226384373
 20
106.2061025130682
 30
0.0
 10
219.8817279951216
 20
105.8328993162876
 30
0.0
 10
219.2054640084228
 20
105.5284962604483
 30
0.0
 10
218.5269002365802
 20
105.2948500996075
 30
0.0
 10
217.9945068533324
 20
105.2543711781342
 30
0.0
 10
217.6927571638914
 20
105.2314285526851
 30
0.0
  0
SPLINE
  5
15D
330
1F
100
AcDbEntity
  8
0
  6
HIDDEN
 62
     7
370
     0
100
AcDbSpline
210
0.0
220
0.0
230
1.0
 70
     8
 71
     3
 72
    15
 73
    11
 74
     0
 42
0.00000001
 43
0.00000001
 12
1.0
 22
0.0
 32
0.0
 13
1.0
 23
0.0
 33
0.0
 40
0.0
 40
0.0
 40
0.0
 40
0.0
 40
0.0866831122942689
 40
0.1766479547146999
 40
0.3511093842099464
 40
0.5562398015087411
 40
0.6739759550579635
 40
0.7960618767699821
 40
0.9704792804899062
 40
0.9999999999999999
 40
0.9999999999999999
 40
0.9999999999999999
 40
0.9999999999999999
 10
207.6927592500539
 20
105.2314285526851
 30
0.0
 10
207.5276751369579
 20
105.2382006335601
 30
0.0
 10
207.1912570024161
 20
105.2520011790651
 30
0.0
 10
206.5485157889461
 20
105.3903275025031
 30
0.0
 10
205.7709557243469
 20
105.691139906991
 30
0.0
 10
205.1032426764666
 20
106.0645664709283
 30
0.0
 10
204.6383900910362
 20
106.3574304534289
 30
0.0
 10
204.3335115723274
 20
106.5617956639143
 30
0.0
 10
204.1625423898861
 20
106.6817240234924
 30
0.0
 10
204.2063162469325
 20
106.6512805787398
 30
0.0
 10
204.2126526578756
 20
106.6468737891742
 30
0.0
  0
LINE
  5
15E
330
1F
100
AcDbEntity
  8
0
  6
HIDDEN
 62
     7
370
     0
100
AcDbLine
 10
207.6613625034
 20
105.2335820033
 30
0.0
 11
207.7479307994
 21
105.2381848323
 31
0.0
  0
SPLINE
  5
15F
330
1F
100
AcDbEntity
  8
0
  6
HIDDEN
 62
     7
370
     0
100
AcDbSpline
210
0.0
220
0.0
230
1.0
 70
     8
 71
     3
 72
    14
 73
    10
 74
     0
 42
0.00000001
 43
0.00000001
 12
1.0
 22
0.0
 32
0.0
 13
1.0
 23
0.0
 33
0.0
 40
0.0
 40
0.0
 40
0.0
 40
0.0
 40
0.0511365534936645
 40
0.2220563589082817
 40
0.3991146804554622
 40
0.6040924191139098
 40
0.7209180222623507
 40
0.8418226504375279
 40
1.0
 40
1.0
 40
1.0
 40
1.0
 10
211.1819518252702
 20
106.6531550942787
 30
0.0
 10
211.1835009399352
 20
106.654243046886
 30
0.0
 10
211.1902278454174
 20
106.6589673933293
 30
0.0
 10
210.9988525932285
 20
106.5247703826206
 30
0.0
 10
210.5173257541962
 20
106.2061012806508
 30
0.0
 10
209.8817261812587
 20
105.8329010624156
 30
0.0
 10
209.2054651060097
 20
105.5284948267849
 30
0.0
 10
208.5269002488454
 20
105.2948512537041
 30
0.0
 10
207.9945074441174
 20
105.2543715389702
 30
0.0
 10
207.6927592500539
 20
105.2314285526851
 30
0.0
  0
SPLINE
  5
160
330
1F
100
AcDbEntity
  8
0
  6
HIDDEN
 62
     7
370
     0
100
AcDbSpline
210
0.0
220
0.0
230
1.0
 70
     8
 71
     3
 72
    15
 73
    11
 74
     0
 42
0.00000001
 43
0.00000001
 12
1.0
 22
0.0
 32
0.0
 13
1.0
 23
0.0
 33
0.0
 40
0.0
 40
0.0
 40
0.0
 40
0.0
 40
0.0866827989183823
 40
0.1766479664374498
 40
0.3511097019199293
 40
0.5562396877950566
 40
0.6739760339949108
 40
0.796061972002581
 40
0.9704793380099215
 40
1.0
 40
1.0
 40
1.0
 40
1.0
 10
197.6927594735714
 20
105.2314285526851
 30
0.0
 10
197.5276759951915
 20
105.2382007037488
 30
0.0
 10
197.1912579155714
 20
105.2520014430965
 30
0.0
 10
196.5485161206651
 20
105.3903273462567
 30
0.0
 10
195.7709542060917
 20
105.6911388562892
 30
0.0
 10
195.1032450692698
 20
106.064567350088
 30
0.0
 10
194.6383904475558
 20
106.3574301954141
 30
0.0
 10
194.3335095918889
 20
106.5617956798233
 30
0.0
 10
194.162551427566
 20
106.6817240525759
 30
0.0
 10
194.2063159660788
 20
106.6512805767143
 30
0.0
 10
194.2126510187479
 20
106.6468737891742
 30
0.0
  0
LINE
  5
161
330
1F
100
AcDbEntity
  8
0
  6
HIDDEN
 62
     7
370
     0
100
AcDbLine
 10
197.6613608643
 20
105.2335820033
 30
0.0
 11
197.7479291602
 21
105.2381848323
 31
0.0
  0
SPLINE
  5
162
330
1F
100
AcDbEntity
  8
0
  6
HIDDEN
 62
     7
370
     0
100
AcDbSpline
210
0.0
220
0.0
230
1.0
 70
     8
 71
     3
 72
    14
 73
    10
 74
     0
 42
0.00000001
 43
0.00000001
 12
1.0
 22
0.0
 32
0.0
 13
1.0
 23
0.0
 33
0.0
 40
0.0
 40
0.0
 40
0.0
 40
0.0
 40
0.0511365486189179
 40
0.2220564137770722
 40
0.3991147237034616
 40
0.6040924489086951
 40
0.7209183069740152
 40
0.8418223391576747
 40
0.9999999999999999
 40
0.9999999999999999
 40
0.9999999999999999
 40
0.9999999999999999
 10
201.1819520487877
 20
106.6531550942787
 30
0.0
 10
201.1835018912786
 20
106.6542430457392
 30
0.0
 10
201.1902319595908
 20
106.6589673888203
 30
0.0
 10
200.9988514056559
 20
106.524770409569
 30
0.0
 10
200.5173263257853
 20
106.206101411
 30
0.0
 10
199.8817265040253
 20
105.8329003783668
 30
0.0
 10
199.2054643881794
 20
105.5284958636008
 30
0.0
 10
198.5269011048206
 20
105.2948503839948
 30
0.0
 10
197.994508471906
 20
105.2543712681105
 30
0.0
 10
197.6927594735714
 20
105.2314285526851
 30
0.0
  0
LINE
  5
163
330
1F
100
AcDbEntity
  8
0
  6
HIDDEN
 62
     7
370
     0
100
AcDbLine
 10
197.6927594736
 20
105.1607143937
 30
0.0
 11
197.3861885711
 21
105.1384068898
 31
0.0
  0
SPLINE
  5
164
330
1F
100
AcDbEntity
  8
0
  6
HIDDEN
 62
     7
370
     0
100
AcDbSpline
210
0.0
220
0.0
230
1.0
 70
     8
 71
     3
 72
     9
 73
     5
 74
     0
 42
0.00000001
 43
0.00000001
 12
1.0
 22
0.0
 32
0.0
 13
1.0
 23
0.0
 33
0.0
 40
0.0
 40
0.0
 40
0.0
 40
0.0
 40
0.6475278401522641
 40
1.0
 40
1.0
 40
1.0
 40
1.0
 10
197.6657865091653
 20
98.16298194815008
 30
0.0
 10
197.825020912855
 20
98.16230137609622
 30
0.0
 10
198.0709321985415
 20
98.16125034475567
 30
0.0
 10
198.2984923007846
 20
98.22680581690005
 30
0.0
 10
198.3787009015174
 20
98.24991229575662
 30
0.0
  0
LINE
  5
165
330
1F
100
AcDbEntity
  8
0
  6
HIDDEN
 62
     7
370
     0
100
AcDbLine
 10
197.7459137782
 20
105.1538600924
 30
0.0
 11
197.6927594736
 21
105.1607143937
 31
0.0
  0
LINE
  5
166
330
1F
100
AcDbEntity
  8
0
  6
HIDDEN
 62
     7
370
     0
100
AcDbLine
 10
217.6927571639
 20
105.1607143937
 30
0.0
 11
217.6111211523
 21
105.1547739527
 31
0.0
  0
SPLINE
  5
167
330
1F
100
AcDbEntity
  8
0
  6
HIDDEN
 62
     7
370
     0
100
AcDbSpline
210
0.0
220
0.0
230
1.0
 70
     8
 71
     3
 72
     9
 73
     5
 74
     0
 42
0.00000001
 43
0.00000001
 12
1.0
 22
0.0
 32
0.0
 13
1.0
 23
0.0
 33
0.0
 40
0.0
 40
0.0
 40
0.0
 40
0.0
 40
0.8896723329590066
 40
1.0
 40
1.0
 40
1.0
 40
1.0
 10
217.6723276718946
 20
98.16334213715581
 30
0.0
 10
217.8302916513787
 20
98.15923830911468
 30
0.0
 10
218.0078446376098
 20
98.15462556812106
 30
0.0
 10
218.1722269035989
 20
98.1978161970353
 30
0.0
 10
218.1903628155084
 20
98.20258131836144
 30
0.0
  0
LINE
  5
168
330
1F
100
AcDbEntity
  8
0
  6
HIDDEN
 62
     7
370
     0
100
AcDbLine
 10
217.7997847542
 20
105.1469133573
 30
0.0
 11
217.6927571639
 21
105.1607143937
 31
0.0
  0
LINE
  5
169
330
1F
100
AcDbEntity
  8
0
  6
HIDDEN
 62
     7
370
     0
100
AcDbLine
 10
207.6927592501
 20
105.1607143937
 30
0.0
 11
207.2247882828
 21
105.1266626793
 31
0.0
  0
LINE
  5
16A
330
1F
100
AcDbEntity
  8
0
  6
HIDDEN
 62
     7
370
     0
100
AcDbLine
 10
206.5486890718
 20
104.9480403646
 30
0.0
 11
205.8777866408
 21
104.648197802
 31
0.0
  0
LINE
  5
16B
330
1F
100
AcDbEntity
  8
0
  6
HIDDEN
 62
     7
370
     0
100
AcDbLine
 10
205.8241312846
 20
104.6147919598
 30
0.0
 11
205.0262858614
 21
103.9273634425
 31
0.0
  0
LINE
  5
16C
330
1F
100
AcDbEntity
  8
0
  6
HIDDEN
 62
     7
370
     0
100
AcDbLine
 10
204.6591287001
 20
99.9260919972
 30
0.0
 11
205.2138914808
 21
99.2027693766
 31
0.0
  0
LINE
  5
16D
330
1F
100
AcDbEntity
  8
0
  6
HIDDEN
 62
     7
370
     0
100
AcDbLine
 10
205.315617983
 20
99.0997450764
 30
0.0
 11
205.7073508843
 21
98.7793631258
 31
0.0
  0
LINE
  5
16E
330
1F
100
AcDbEntity
  8
0
  6
HIDDEN
 62
     7
370
     0
100
AcDbLine
 10
206.2667032226
 20
98.4688685614
 30
0.0
 11
207.0698311075
 21
98.2268271374
 31
0.0
  0
ELLIPSE
  5
16F
330
1F
100
AcDbEntity
  8
0
  6
HIDDEN
 62
     7
370
     0
100
AcDbEllipse
 10
148.6869920335
 20
101.6607142857
 30
0.0
 11
12.26424774976735
 21
0.0
 31
0.0
210
0.0
220
0.0
230
1.0
 40
0.8164965809
 41
1.318982952866324
 42
1.398241670070612
  0
ELLIPSE
  5
170
330
1F
100
AcDbEntity
  8
0
  6
HIDDEN
 62
     7
370
     0
100
AcDbEllipse
 10
148.6869920335
 20
101.6607142857
 30
0.0
 11
12.26424774976732
 21
0.0
 31
0.0
210
0.0
220
0.0
230
1.0
 40
0.8164965809
 41
4.884943637108985
 42
4.964202354313272
  0
LINE
  5
171
330
1F
100
AcDbEntity
  8
0
  6
HIDDEN
 62
     7
370
     0
100
AcDbLine
 10
190.6428208097
 20
118.5607135168
 30
0.0
 11
187.4844135239
 21
118.5607135168
 31
0.0
  0
LINE
  5
172
330
1F
100
AcDbEntity
  8
0
  6
HIDDEN
 62
     7
370
     0
100
AcDbLine
 10
185.9011027485
 20
118.5607135168
 30
0.0
 11
183.1427590444
 21
118.5607135168
 31
0.0
  0
LINE
  5
173
330
1F
100
AcDbEntity
  8
0
  6
HIDDEN
 62
     7
370
     0
100
AcDbLine
 10
183.1427590444
 20
118.5607135168
 30
0.0
 11
178.6427592381
 21
118.5607135168
 31
0.0
  0
LINE
  5
174
330
1F
100
AcDbEntity
  8
0
  6
HIDDEN
 62
     7
370
     0
100
AcDbLine
 10
151.7427583679
 20
112.6607142261
 30
0.0
 11
151.7427583679
 21
111.3586200273
 31
0.0
  0
LINE
  5
175
330
1F
100
AcDbEntity
  8
0
  6
HIDDEN
 62
     7
370
     0
100
AcDbLine
 10
154.3927585229
 20
112.6607142261
 30
0.0
 11
154.3927585229
 21
111.6849042347
 31
0.0
  0
LINE
  5
176
330
1F
100
AcDbEntity
  8
0
  6
HIDDEN
 62
     7
370
     0
100
AcDbLine
 10
151.8017595157
 20
90.6607143453
 30
0.0
 11
151.8017595157
 21
91.9385308272
 31
0.0
  0
LINE
  5
177
330
1F
100
AcDbEntity
  8
0
  6
HIDDEN
 62
     7
370
     0
100
AcDbLine
 10
156.8927589327
 20
90.6607143453
 30
0.0
 11
156.8927589327
 21
91.618321637
 31
0.0
  0
SPLINE
  5
178
330
1F
100
AcDbEntity
  8
0
  6
HIDDEN
 62
     7
370
     0
100
AcDbSpline
210
0.0
220
0.0
230
1.0
 70
     8
 71
     3
 72
    11
 73
     7
 74
     0
 42
0.00000001
 43
0.00000001
 12
1.0
 22
0.0
 32
0.0
 13
1.0
 23
0.0
 33
0.0
 40
0.0
 40
0.0
 40
0.0
 40
0.0
 40
0.3851954207689286
 40
0.7128710471912713
 40
0.8994964148501966
 40
1.0
 40
1.0
 40
1.0
 40
1.0
 10
162.777132493207
 20
87.45488970194546
 30
0.0
 10
162.8962299076469
 20
87.46959032648546
 30
0.0
 10
163.1166403641888
 20
87.49679638617663
 30
0.0
 10
163.4931858835495
 20
87.5234976573126
 30
0.0
 10
163.770035519726
 20
87.53793288479407
 30
0.0
 10
163.9073812142456
 20
87.54125940086861
 30
0.0
 10
163.9554562501104
 20
87.542423779411
 30
0.0
  0
SPLINE
  5
179
330
1F
100
AcDbEntity
  8
0
  6
HIDDEN
 62
     7
370
     0
100
AcDbSpline
210
0.0
220
0.0
230
1.0
 70
     8
 71
     3
 72
    47
 73
    43
 74
     0
 42
0.00000001
 43
0.00000001
 12
1.0
 22
0.0
 32
0.0
 13
1.0
 23
0.0
 33
0.0
 40
0.0
 40
0.0
 40
0.0
 40
0.0
 40
0.0182122804094397
 40
0.0624448888913288
 40
0.1155365812666187
 40
0.1647116657566212
 40
0.2142756530941617
 40
0.2663047472127114
 40
0.2933053730812618
 40
0.3070544418654313
 40
0.3139913229007735
 40
0.3174753543239188
 40
0.3192212732913209
 40
0.3200951985320444
 40
0.320532423062788
 40
0.320751087774848
 40
0.3208604272255246
 40
0.3209151136903841
 40
0.3209424402139943
 40
0.3209561272532988
 40
0.3209629415338613
 40
0.3209663767731347
 40
0.3209680667149318
 40
0.3209697861499929
 40
0.3331880103050143
 40
0.354741258642743
 40
0.3856232817702322
 40
0.4258251384720916
 40
0.4839331640236783
 40
0.5304173375396024
 40
0.6310367048986809
 40
0.6837627536442641
 40
0.7017116201314695
 40
0.7198390830370592
 40
0.7381481522544765
 40
0.7732779671676913
 40
0.8035933918408729
 40
0.8423937621150215
 40
0.9003272826475642
 40
0.9465659639703125
 40
0.9934971731573979
 40
1.0
 40
1.0
 40
1.0
 40
1.0
 10
166.5517870790752
 20
87.23546358410803
 30
0.0
 10
166.5840937681616
 20
87.22747631318697
 30
0.0
 10
166.6948644989594
 20
87.200090163073
 30
0.0
 10
166.8385831536571
 20
87.1596458935083
 30
0.0
 10
166.9639036111779
 20
87.12408657899053
 30
0.0
 10
167.005976226677
 20
87.11095007377908
 30
0.0
 10
166.9669246186641
 20
87.12401079930912
 30
0.0
 10
166.8628526972767
 20
87.15307387397992
 30
0.0
 10
166.7512705549944
 20
87.18296124824563
 30
0.0
 10
166.684766079834
 20
87.20049084631269
 30
0.0
 10
166.6487830637446
 20
87.20991978644655
 30
0.0
 10
166.6301024802198
 20
87.21479899980538
 30
0.0
 10
166.6205897308359
 20
87.21728110236383
 30
0.0
 10
166.6157896608687
 20
87.21853293228367
 30
0.0
 10
166.613379061249
 20
87.21915971129975
 30
0.0
 10
166.6121705746447
 20
87.21947567986216
 30
0.0
 10
166.6115664524123
 20
87.21963225670586
 30
0.0
 10
166.6112632185709
 20
87.2197123776676
 30
0.0
 10
166.6111128732132
 20
87.21975105128273
 30
0.0
 10
166.6110363199066
 20
87.21977107712586
 30
0.0
 10
166.6109990409993
 20
87.21978015098328
 30
0.0
 10
166.6109799324824
 20
87.21978610719407
 30
0.0
 10
166.6109694122722
 20
87.21978849126042
 30
0.0
 10
166.5908928751824
 20
87.22423317481666
 30
0.0
 10
166.5370775888702
 20
87.24024683587406
 30
0.0
 10
166.421124064034
 20
87.26847309598443
 30
0.0
 10
166.2370040406748
 20
87.31078973950231
 30
0.0
 10
165.9463462551657
 20
87.37011308673941
 30
0.0
 10
165.5767091688266
 20
87.43413846026507
 30
0.0
 10
165.0102021705055
 20
87.51105353709225
 30
0.0
 10
164.4149770779316
 20
87.54679040348577
 30
0.0
 10
163.9353121284738
 20
87.54545329864413
 30
0.0
 10
163.6995964089487
 20
87.53806478498099
 30
0.0
 10
163.5599124949809
 20
87.53146094539649
 30
0.0
 10
163.3832440564597
 20
87.52018107790393
 30
0.0
 10
163.1900173229876
 20
87.50217086073523
 30
0.0
 10
162.9740046645095
 20
87.48015510247193
 30
0.0
 10
162.7464448945772
 20
87.45220569376
 30
0.0
 10
162.5502621250744
 20
87.42263964955912
 30
0.0
 10
162.4316283145974
 20
87.40081364055031
 30
0.0
 10
162.3832494107737
 20
87.39340791716701
 30
0.0
 10
162.3959009871666
 20
87.39592080974948
 30
0.0
 10
162.3974406614395
 20
87.396226624293
 30
0.0
  0
LINE
  5
17A
330
1F
100
AcDbEntity
  8
0
  6
HIDDEN
 62
     7
370
     0
100
AcDbLine
 10
162.5674917817
 20
87.4243404589
 30
0.0
 11
162.7771324932
 21
87.4548897019
 31
0.0
  0
LINE
  5
17B
330
1F
100
AcDbEntity
  8
0
  6
HIDDEN
 62
     7
370
     0
100
AcDbLine
 10
162.7771296992
 20
115.866468089
 30
0.0
 11
162.55118898
 21
115.8993977926
 31
0.0
  0
SPLINE
  5
17C
330
1F
100
AcDbEntity
  8
0
  6
HIDDEN
 62
     7
370
     0
100
AcDbSpline
210
0.0
220
0.0
230
1.0
 70
     8
 71
     3
 72
    34
 73
    30
 74
     0
 42
0.00000001
 43
0.00000001
 12
1.0
 22
0.0
 32
0.0
 13
1.0
 23
0.0
 33
0.0
 40
0.0
 40
0.0
 40
0.0
 40
0.0
 40
0.0077735237215272
 40
0.0638902873435168
 40
0.0897951517558809
 40
0.1192470649964356
 40
0.1522485328055876
 40
0.1888010115365523
 40
0.2401530487985731
 40
0.2787948771248354
 40
0.2939614921233621
 40
0.305632830616814
 40
0.3138086198827356
 40
0.378892550012822
 40
0.4421142314457697
 40
0.5035807916542783
 40
0.5634086816489073
 40
0.5894863646997414
 40
0.6190295260818357
 40
0.652042647769004
 40
0.6885286081075601
 40
0.7415723635082843
 40
0.7806448788747163
 40
0.795532567687233
 40
0.8065779827713049
 40
0.8137808796439034
 40
0.8792325130979002
 40
0.9417217629281065
 40
1.0
 40
1.0
 40
1.0
 40
1.0
 10
162.3974266916009
 20
115.9251600376197
 30
0.0
 10
162.395879394511
 20
115.925466928233
 30
0.0
 10
162.3831622202646
 20
115.9279892501765
 30
0.0
 10
162.420833756986
 20
115.922288700837
 30
0.0
 10
162.4826628294747
 20
115.9109381111858
 30
0.0
 10
162.5520753010823
 20
115.8990281826455
 30
0.0
 10
162.6508933908047
 20
115.8836325502067
 30
0.0
 10
162.8001109239557
 20
115.8622992986505
 30
0.0
 10
162.99142340687
 20
115.8391592542433
 30
0.0
 10
163.1765590740043
 20
115.8205053187153
 30
0.0
 10
163.3003227544389
 20
115.8091964619794
 30
0.0
 10
163.3686658061051
 20
115.8033019523542
 30
0.0
 10
163.5381111465371
 20
115.7899603362008
 30
0.0
 10
163.8327411296434
 20
115.7762929886734
 30
0.0
 10
164.2767403658546
 20
115.7750838928951
 30
0.0
 10
164.7238285229128
 20
115.792960709336
 30
0.0
 10
165.0790791361439
 20
115.8232051343326
 30
0.0
 10
165.3481922300227
 20
115.8563300530222
 30
0.0
 10
165.5492999450245
 20
115.8849025463863
 30
0.0
 10
165.7651263040377
 20
115.919535810176
 30
0.0
 10
166.0170326999082
 20
115.965530095665
 30
0.0
 10
166.257502497582
 20
116.0149178024425
 30
0.0
 10
166.4321532935717
 20
116.0553886363941
 30
0.0
 10
166.5281519010634
 20
116.0796805834094
 30
0.0
 10
166.5745370275258
 20
116.0919408710653
 30
0.0
 10
166.6871606260924
 20
116.1218006473922
 30
0.0
 10
166.8382185618063
 20
116.1610640946548
 30
0.0
 10
166.9695852515341
 20
116.1980522951189
 30
0.0
 10
166.9846463345205
 20
116.2032286299407
 30
0.0
 10
166.9919142953547
 20
116.2057265511581
 30
0.0
  0
SPLINE
  5
17D
330
1F
100
AcDbEntity
  8
0
  6
HIDDEN
 62
     7
370
     0
100
AcDbSpline
210
0.0
220
0.0
230
1.0
 70
     8
 71
     3
 72
    10
 73
     6
 74
     0
 42
0.00000001
 43
0.00000001
 12
1.0
 22
0.0
 32
0.0
 13
1.0
 23
0.0
 33
0.0
 40
0.0
 40
0.0
 40
0.0
 40
0.0
 40
0.2531748020364187
 40
0.5868561163861409
 40
1.0
 40
1.0
 40
1.0
 40
1.0
 10
163.8477418094369
 20
115.7791929191777
 30
0.0
 10
163.7401170539977
 20
115.7839085726069
 30
0.0
 10
163.4906441779613
 20
115.7948393999856
 30
0.0
 10
163.1091936453388
 20
115.8255124169736
 30
0.0
 10
162.8954002553072
 20
115.8518809886281
 30
0.0
 10
162.7771296992393
 20
115.8664680889675
 30
0.0
  0
LINE
  5
17E
330
1F
100
AcDbEntity
  8
0
  6
HIDDEN
 62
     7
370
     0
100
AcDbLine
 10
187.732758139
 20
115.1765610895
 30
0.0
 11
187.732758139
 21
113.5107146448
 31
0.0
  0
LINE
  5
17F
330
1F
100
AcDbEntity
  8
0
  6
HIDDEN
 62
     7
370
     0
100
AcDbLine
 10
185.6527590647
 20
115.1765610895
 30
0.0
 11
185.6527590647
 21
113.5107146448
 31
0.0
  0
LINE
  5
180
330
1F
100
AcDbEntity
  8
0
  6
HIDDEN
 62
     7
370
     0
100
AcDbLine
 10
188.7279191508
 20
117.7721235773
 30
0.0
 11
188.7279191508
 21
113.5107146448
 31
0.0
  0
SPLINE
  5
181
330
1F
100
AcDbEntity
  8
0
  6
HIDDEN
 62
     7
370
     0
100
AcDbSpline
210
0.0
220
0.0
230
1.0
 70
     8
 71
     3
 72
    12
 73
     8
 74
     0
 42
0.00000001
 43
0.00000001
 12
1.0
 22
0.0
 32
0.0
 13
1.0
 23
0.0
 33
0.0
 40
0.0
 40
0.0
 40
0.0
 40
0.0
 40
0.5000000000000002
 40
0.5000000000000002
 40
0.7500000000000001
 40
0.7500000000000001
 40
1.0
 40
1.0
 40
1.0
 40
1.0
 10
150.7927587732167
 20
90.11320108449293
 30
0.0
 10
150.7927587732167
 20
90.18201115725495
 30
0.0
 10
150.7949678894124
 20
90.24872997980486
 30
0.0
 10
150.8095922695894
 20
90.33810098323401
 30
0.0
 10
150.8164021304708
 20
90.36617780225859
 30
0.0
 10
150.8378226938123
 20
90.41426041070956
 30
0.0
 10
150.8517415337268
 20
90.43495970849408
 30
0.0
 10
150.8762902180038
 20
90.44458705257576
 30
0.0
  0
CIRCLE
  5
182
330
1F
100
AcDbEntity
  8
0
  6
HIDDEN
 62
     7
370
     0
100
AcDbCircle
 10
177.6927587732
 20
101.6607142857
 30
0.0
 40
5.0
  0
LINE
  5
183
330
1F
100
AcDbEntity
  8
0
  6
HIDDEN
 62
     7
370
     0
100
AcDbLine
 10
213.6927602335
 20
109.0052209667
 30
0.0
 11
214.9427590414
 21
107.7552212275
 31
0.0
  0
LINE
  5
184
330
1F
100
AcDbEntity
  8
0
  6
HIDDEN
 62
     7
370
     0
100
AcDbLine
 10
220.4427590116
 20
107.7552212275
 30
0.0
 11
221.6927578195
 21
109.0052209667
 31
0.0
  0
LINE
  5
185
330
1F
100
AcDbEntity
  8
0
  6
HIDDEN
 62
     7
370
     0
100
AcDbLine
 10
213.6927602335
 20
117.356559994
 30
0.0
 11
213.6927602335
 21
109.0052209667
 31
0.0
  0
LINE
  5
186
330
1F
100
AcDbEntity
  8
0
  6
HIDDEN
 62
     7
370
     0
100
AcDbLine
 10
221.6927578195
 20
109.0052209667
 30
0.0
 11
221.6927578195
 21
117.356559994
 31
0.0
  0
LINE
  5
187
330
1F
100
AcDbEntity
  8
0
  6
HIDDEN
 62
     7
370
     0
100
AcDbLine
 10
221.6927578195
 20
117.356559994
 30
0.0
 11
221.0022603616
 21
117.7552219353
 31
0.0
  0
LINE
  5
188
330
1F
100
AcDbEntity
  8
0
  6
HIDDEN
 62
     7
370
     0
100
AcDbLine
 10
214.3832576915
 20
117.7552219353
 30
0.0
 11
213.6927602335
 21
117.356559994
 31
0.0
  0
LINE
  5
189
330
1F
100
AcDbEntity
  8
0
  6
HIDDEN
 62
     7
370
     0
100
AcDbLine
 10
203.6927585944
 20
109.0052209667
 30
0.0
 11
204.9427574023
 21
107.7552212275
 31
0.0
  0
LINE
  5
18A
330
1F
100
AcDbEntity
  8
0
  6
HIDDEN
 62
     7
370
     0
100
AcDbLine
 10
210.4427573725
 20
107.7552212275
 30
0.0
 11
211.6927599057
 21
109.0052209667
 31
0.0
  0
LINE
  5
18B
330
1F
100
AcDbEntity
  8
0
  6
HIDDEN
 62
     7
370
     0
100
AcDbLine
 10
203.6927585944
 20
117.356559994
 30
0.0
 11
203.6927585944
 21
109.0052209667
 31
0.0
  0
LINE
  5
18C
330
1F
100
AcDbEntity
  8
0
  6
HIDDEN
 62
     7
370
     0
100
AcDbLine
 10
211.6927599057
 20
109.0052209667
 30
0.0
 11
211.6927599057
 21
117.356559994
 31
0.0
  0
LINE
  5
18D
330
1F
100
AcDbEntity
  8
0
  6
HIDDEN
 62
     7
370
     0
100
AcDbLine
 10
211.6927599057
 20
117.356559994
 30
0.0
 11
211.0022587224
 21
117.7552219353
 31
0.0
  0
LINE
  5
18E
330
1F
100
AcDbEntity
  8
0
  6
HIDDEN
 62
     7
370
     0
100
AcDbLine
 10
204.3832597777
 20
117.7552219353
 30
0.0
 11
203.6927585944
 21
117.356559994
 31
0.0
  0
LINE
  5
18F
330
1F
100
AcDbEntity
  8
0
  6
HIDDEN
 62
     7
370
     0
100
AcDbLine
 10
193.6927588179
 20
109.0052209667
 30
0.0
 11
194.9427594885
 21
107.7552212275
 31
0.0
  0
LINE
  5
190
330
1F
100
AcDbEntity
  8
0
  6
HIDDEN
 62
     7
370
     0
100
AcDbLine
 10
200.4427594587
 20
107.7552212275
 30
0.0
 11
201.6927582666
 21
109.0052209667
 31
0.0
  0
LINE
  5
191
330
1F
100
AcDbEntity
  8
0
  6
HIDDEN
 62
     7
370
     0
100
AcDbLine
 10
193.6927588179
 20
117.356559994
 30
0.0
 11
193.6927588179
 21
109.0052209667
 31
0.0
  0
LINE
  5
192
330
1F
100
AcDbEntity
  8
0
  6
HIDDEN
 62
     7
370
     0
100
AcDbLine
 10
201.6927582666
 20
109.0052209667
 30
0.0
 11
201.6927582666
 21
117.356559994
 31
0.0
  0
LINE
  5
193
330
1F
100
AcDbEntity
  8
0
  6
HIDDEN
 62
     7
370
     0
100
AcDbLine
 10
201.6927582666
 20
117.356559994
 30
0.0
 11
201.002258946
 21
117.7552219353
 31
0.0
  0
LINE
  5
194
330
1F
100
AcDbEntity
  8
0
  6
HIDDEN
 62
     7
370
     0
100
AcDbLine
 10
194.3832581385
 20
117.7552219353
 30
0.0
 11
193.6927588179
 21
117.356559994
 31
0.0
  0
LINE
  5
195
330
1F
100
AcDbEntity
  8
0
  6
HIDDEN
 62
     7
370
     0
100
AcDbLine
 10
170.6927587732
 20
85.4535128794
 30
0.0
 11
170.7869195455
 21
86.1235026142
 31
0.0
  0
LINE
  5
196
330
1F
100
AcDbEntity
  8
0
  6
HIDDEN
 62
     7
370
     0
100
AcDbLine
 10
170.7869195455
 20
117.1979259572
 30
0.0
 11
170.6927587732
 21
117.8679156921
 31
0.0
  0
ARC
  5
197
330
1F
100
AcDbEntity
  8
0
  6
HIDDEN
 62
     7
370
     0
100
AcDbCircle
 10
170.1927520205
 20
86.2070071322
 30
0.0
 40
0.6000067526677062
100
AcDbArc
 50
352.0
 51
0.0
  0
ARC
  5
198
330
1F
100
AcDbEntity
  8
0
  6
HIDDEN
 62
     7
370
     0
100
AcDbCircle
 10
170.1927520205
 20
86.2070071322
 30
0.0
 40
0.6000067526677282
100
AcDbArc
 50
0.0
 51
33.5571153394
  0
ARC
  5
199
330
1F
100
AcDbEntity
  8
0
  6
HIDDEN
 62
     7
370
     0
100
AcDbCircle
 10
170.1927520205
 20
117.1144214392
 30
0.0
 40
0.6000067526677062
100
AcDbArc
 50
348.75
 51
8.0
  0
LWPOLYLINE
  5
19A
330
1F
100
AcDbEntity
  8
0
  6
HIDDEN
 62
     7
370
     0
100
AcDbPolyline
 90
        3
 70
   128
 43
0.0
 10
170.7812298121
 20
116.9973656407
 10
170.7470859804
 20
116.8848087883
 10
170.6927587732
 20
116.7827572546
  0
LINE
  5
19B
330
1F
100
AcDbEntity
  8
0
  6
HIDDEN
 62
     7
370
     0
100
AcDbLine
 10
170.7927587707
 20
86.2070068589
 30
0.0
 11
170.7927587707
 21
117.1144217125
 31
0.0
  0
ARC
  5
19C
330
1F
100
AcDbEntity
  8
0
  6
HIDDEN
 62
     7
370
     0
100
AcDbCircle
 10
160.2253867174
 20
89.3107142857
 30
0.0
 40
0.3999999999999927
100
AcDbArc
 50
210.0
 51
270.0
  0
ARC
  5
19D
330
1F
100
AcDbEntity
  8
0
  6
HIDDEN
 62
     7
370
     0
100
AcDbCircle
 10
160.2253867174
 20
114.0107142857
 30
0.0
 40
0.3999999999999927
100
AcDbArc
 50
90.0
 51
150.0
  0
LINE
  5
19E
330
1F
100
AcDbEntity
  8
0
  6
HIDDEN
 62
     7
370
     0
100
AcDbLine
 10
160.2253868699
 20
88.9107145241
 30
0.0
 11
162.423533526
 21
88.9107145241
 31
0.0
  0
LINE
  5
19F
330
1F
100
AcDbEntity
  8
0
  6
HIDDEN
 62
     7
370
     0
100
AcDbLine
 10
162.423533526
 20
114.4107140473
 30
0.0
 11
160.2253868699
 21
114.4107140473
 31
0.0
  0
ARC
  5
1A0
330
1F
100
AcDbEntity
  8
0
  6
HIDDEN
 62
     7
370
     0
100
AcDbCircle
 10
166.5169355011
 20
93.9107142857
 30
0.0
 40
5.000000000000034
100
AcDbArc
 50
275.3987916986
 51
326.6329870308
  0
ARC
  5
1A1
330
1F
100
AcDbEntity
  8
0
  6
HIDDEN
 62
     7
370
     0
100
AcDbCircle
 10
166.5169355011
 20
109.4107142857
 30
0.0
 40
5.000000000000034
100
AcDbArc
 50
33.3670129692
 51
84.5928143067
  0
LINE
  5
1A2
330
1F
100
AcDbEntity
  8
0
  6
HIDDEN
 62
     7
370
     0
100
AcDbLine
 10
159.8789767816
 20
114.210714387
 30
0.0
 11
158.6954082816
 21
112.1607141442
 31
0.0
  0
LINE
  5
1A3
330
1F
100
AcDbEntity
  8
0
  6
HIDDEN
 62
     7
370
     0
100
AcDbLine
 10
158.6954082816
 20
91.1607144273
 30
0.0
 11
159.8789767816
 21
89.1107141844
 31
0.0
  0
ARC
  5
1A4
330
1F
100
AcDbEntity
  8
0
  6
HIDDEN
 62
     7
370
     0
100
AcDbCircle
 10
177.6427587732
 20
91.7857142857
 30
0.0
 40
1.0
100
AcDbArc
 50
218.6821874535
 51
0.0
  0
ARC
  5
1A5
330
1F
100
AcDbEntity
  8
0
  6
HIDDEN
 62
     7
370
     0
100
AcDbCircle
 10
177.6427587732
 20
111.5357142857
 30
0.0
 40
1.0
100
AcDbArc
 50
0.0
 51
141.3178125465
  0
LINE
  5
1A6
330
1F
100
AcDbEntity
  8
0
  6
HIDDEN
 62
     7
370
     0
100
AcDbLine
 10
156.8927589327
 20
91.1607144273
 30
0.0
 11
158.6954082816
 21
91.1607144273
 31
0.0
  0
LINE
  5
1A7
330
1F
100
AcDbEntity
  8
0
  6
HIDDEN
 62
     7
370
     0
100
AcDbLine
 10
158.6954082816
 20
112.1607141442
 30
0.0
 11
154.3927585229
 21
112.1607141442
 31
0.0
  0
LINE
  5
1A8
330
1F
100
AcDbEntity
  8
0
  6
HIDDEN
 62
     7
370
     0
100
AcDbLine
 10
170.6927587732
 20
91.1607144273
 30
0.0
 11
176.8621338054
 21
91.1607144273
 31
0.0
  0
LINE
  5
1A9
330
1F
100
AcDbEntity
  8
0
  6
HIDDEN
 62
     7
370
     0
100
AcDbLine
 10
176.8621338054
 20
112.1607141442
 30
0.0
 11
170.6927587732
 21
112.1607141442
 31
0.0
  0
LINE
  5
1AA
330
1F
100
AcDbEntity
  8
0
  6
HIDDEN
 62
     7
370
     0
100
AcDbLine
 10
183.9927585318
 20
95.4107141926
 30
0.0
 11
186.4927580103
 21
95.4107141926
 31
0.0
  0
LINE
  5
1AB
330
1F
100
AcDbEntity
  8
0
  6
HIDDEN
 62
     7
370
     0
100
AcDbLine
 10
186.4927580103
 20
107.9107143788
 30
0.0
 11
183.9927585318
 21
107.9107143788
 31
0.0
  0
LINE
  5
1AC
330
1F
100
AcDbEntity
  8
0
  6
HIDDEN
 62
     7
370
     0
100
AcDbLine
 10
178.6427592381
 20
95.6607142336
 30
0.0
 11
179.1427583888
 21
96.1607143155
 31
0.0
  0
LINE
  5
1AD
330
1F
100
AcDbEntity
  8
0
  6
HIDDEN
 62
     7
370
     0
100
AcDbLine
 10
179.1427583888
 20
107.1607142559
 30
0.0
 11
178.6427592381
 21
107.6607143379
 31
0.0
  0
LINE
  5
1AE
330
1F
100
AcDbEntity
  8
0
  6
HIDDEN
 62
     7
370
     0
100
AcDbLine
 10
179.1427583888
 20
96.1607143155
 30
0.0
 11
183.9927585318
 21
96.1607143155
 31
0.0
  0
LINE
  5
1AF
330
1F
100
AcDbEntity
  8
0
  6
HIDDEN
 62
     7
370
     0
100
AcDbLine
 10
183.9927585318
 20
107.1607142559
 30
0.0
 11
179.1427583888
 21
107.1607142559
 31
0.0
  0
ARC
  5
1B0
330
1F
100
AcDbEntity
  8
0
  6
HIDDEN
 62
     7
370
     0
100
AcDbCircle
 10
225.3927587732
 20
106.9607142857
 30
0.0
 40
0.3000000000000114
100
AcDbArc
 50
270.0
 51
0.0
  0
ARC
  5
1B1
330
1F
100
AcDbEntity
  8
0
  6
HIDDEN
 62
     7
370
     0
100
AcDbCircle
 10
225.3927587732
 20
96.3607142857
 30
0.0
 40
0.3000000000000114
100
AcDbArc
 50
0.0
 51
90.0
  0
LINE
  5
1B2
330
1F
100
AcDbEntity
  8
0
  6
HIDDEN
 62
     7
370
     0
100
AcDbLine
 10
192.8685159876
 20
96.3607144414
 30
0.0
 11
193.6927588179
 21
96.6607143975
 31
0.0
  0
LINE
  5
1B3
330
1F
100
AcDbEntity
  8
0
  6
HIDDEN
 62
     7
370
     0
100
AcDbLine
 10
193.6927588179
 20
106.660714174
 30
0.0
 11
192.8685159876
 21
106.96071413
 31
0.0
  0
LINE
  5
1B4
330
1F
100
AcDbEntity
  8
0
  6
HIDDEN
 62
     7
370
     0
100
AcDbLine
 10
192.8685159876
 20
106.96071413
 30
0.0
 11
190.0927593454
 21
106.96071413
 31
0.0
  0
LINE
  5
1B5
330
1F
100
AcDbEntity
  8
0
  6
HIDDEN
 62
     7
370
     0
100
AcDbLine
 10
190.0927593454
 20
96.3607144414
 30
0.0
 11
192.8685159876
 21
96.3607144414
 31
0.0
  0
ARC
  5
1B6
330
1F
100
AcDbEntity
  8
0
  6
HIDDEN
 62
     7
370
     0
100
AcDbCircle
 10
190.0927587732
 20
106.5607142857
 30
0.0
 40
0.4000000000000057
100
AcDbArc
 50
90.0
 51
180.0
  0
ARC
  5
1B7
330
1F
100
AcDbEntity
  8
0
  6
HIDDEN
 62
     7
370
     0
100
AcDbCircle
 10
190.0927587732
 20
96.7607142857
 30
0.0
 40
0.4000000000000057
100
AcDbArc
 50
180.0
 51
270.0
  0
LINE
  5
1B8
330
1F
100
AcDbEntity
  8
0
  6
HIDDEN
 62
     7
370
     0
100
AcDbLine
 10
194.2126510187
 20
106.660714174
 30
0.0
 11
193.6927588179
 21
106.660714174
 31
0.0
  0
LINE
  5
1B9
330
1F
100
AcDbEntity
  8
0
  6
HIDDEN
 62
     7
370
     0
100
AcDbLine
 10
204.2126526579
 20
106.660714174
 30
0.0
 11
201.1819520488
 21
106.660714174
 31
0.0
  0
LINE
  5
1BA
330
1F
100
AcDbEntity
  8
0
  6
HIDDEN
 62
     7
370
     0
100
AcDbLine
 10
214.2126505717
 20
106.660714174
 30
0.0
 11
211.1819518253
 21
106.660714174
 31
0.0
  0
LINE
  5
1BB
330
1F
100
AcDbEntity
  8
0
  6
HIDDEN
 62
     7
370
     0
100
AcDbLine
 10
225.3927571222
 20
106.660714174
 30
0.0
 11
221.1819497391
 21
106.660714174
 31
0.0
  0
LINE
  5
1BC
330
1F
100
AcDbEntity
  8
0
  6
HIDDEN
 62
     7
370
     0
100
AcDbLine
 10
193.6927588179
 20
96.6607143975
 30
0.0
 11
225.3927571222
 21
96.6607143975
 31
0.0
  0
LINE
  5
1BD
330
1F
100
AcDbEntity
  8
0
  6
HIDDEN
 62
     7
370
     0
100
AcDbLine
 10
178.6427592381
 20
121.6607138387
 30
0.0
 11
178.6427592381
 21
118.5607135168
 31
0.0
  0
LINE
  5
1BE
330
1F
100
AcDbEntity
  8
0
  6
HIDDEN
 62
     7
370
     0
100
AcDbLine
 10
214.1927575215
 20
118.6607152096
 30
0.0
 11
214.1927575215
 21
106.6469375848
 31
0.0
  0
LINE
  5
1BF
330
1F
100
AcDbEntity
  8
0
  6
HIDDEN
 62
     7
370
     0
100
AcDbLine
 10
221.1927605316
 20
106.6531550943
 30
0.0
 11
221.1927605316
 21
118.6607152096
 31
0.0
  0
LINE
  5
1C0
330
1F
100
AcDbEntity
  8
0
  6
HIDDEN
 62
     7
370
     0
100
AcDbLine
 10
204.1927596077
 20
118.1590471289
 30
0.0
 11
204.1927596077
 21
106.6469375848
 31
0.0
  0
LINE
  5
1C1
330
1F
100
AcDbEntity
  8
0
  6
HIDDEN
 62
     7
370
     0
100
AcDbLine
 10
211.1927588924
 20
106.6531550943
 30
0.0
 11
211.1927588924
 21
118.6607152096
 31
0.0
  0
LINE
  5
1C2
330
1F
100
AcDbEntity
  8
0
  6
HIDDEN
 62
     7
370
     0
100
AcDbLine
 10
194.1927579686
 20
118.1607141963
 30
0.0
 11
194.1927579686
 21
106.6469375848
 31
0.0
  0
LINE
  5
1C3
330
1F
100
AcDbEntity
  8
0
  6
HIDDEN
 62
     7
370
     0
100
AcDbLine
 10
201.1927591159
 20
106.6531550943
 30
0.0
 11
201.1927591159
 21
118.1607141963
 31
0.0
  0
LINE
  5
1C4
330
1F
100
AcDbEntity
  8
0
  6
HIDDEN
 62
     7
370
     0
100
AcDbLine
 10
167.4599381152
 20
86.6194095335
 30
0.0
 11
166.9920095231
 21
87.1152466035
 31
0.0
  0
LINE
  5
1C5
330
1F
100
AcDbEntity
  8
0
  6
HIDDEN
 62
     7
370
     0
100
AcDbLine
 10
162.394104664
 20
87.395099724
 30
0.0
 11
161.8766311079
 21
86.8992747611
 31
0.0
  0
LINE
  5
1C6
330
1F
100
AcDbEntity
  8
0
  6
HIDDEN
 62
     7
370
     0
100
AcDbLine
 10
161.8759968772
 20
116.4222041017
 30
0.0
 11
162.3936827749
 21
115.9263167403
 31
0.0
  0
LINE
  5
1C7
330
1F
100
AcDbEntity
  8
0
  6
HIDDEN
 62
     7
370
     0
100
AcDbLine
 10
166.991323604
 20
116.2059640384
 30
0.0
 11
167.4592275161
 21
116.7018579191
 31
0.0
  0
LINE
  5
1C8
330
1F
100
AcDbEntity
  8
0
  6
HIDDEN
 62
     7
370
     0
100
AcDbLine
 10
186.4927580103
 20
99.1607143416
 30
0.0
 11
189.6927581623
 21
99.1607143416
 31
0.0
  0
LINE
  5
1C9
330
1F
100
AcDbEntity
  8
0
  6
HIDDEN
 62
     7
370
     0
100
AcDbLine
 10
189.6927581623
 20
104.1607142298
 30
0.0
 11
186.4927580103
 21
104.1607142298
 31
0.0
  0
LINE
  5
1CA
330
1F
100
AcDbEntity
  8
0
  6
HIDDEN
 62
     7
370
     0
100
AcDbLine
 10
166.9927587721
 20
114.3875688187
 30
0.0
 11
166.9927587721
 21
116.2057535595
 31
0.0
  0
LINE
  5
1CB
330
1F
100
AcDbEntity
  8
0
  6
HIDDEN
 62
     7
370
     0
100
AcDbLine
 10
162.3927589029
 20
115.9252112604
 30
0.0
 11
162.3927589029
 21
114.4052117935
 31
0.0
  0
LINE
  5
1CC
330
1F
100
AcDbEntity
  8
0
  6
HIDDEN
 62
     7
370
     0
100
AcDbLine
 10
166.9927587721
 20
87.11549061
 30
0.0
 11
166.9927587721
 21
88.9338597528
 31
0.0
  0
LINE
  5
1CD
330
1F
100
AcDbEntity
  8
0
  6
HIDDEN
 62
     7
370
     0
100
AcDbLine
 10
162.3927589029
 20
88.9162167779
 30
0.0
 11
162.3927589029
 21
87.3961875087
 31
0.0
  0
DIMENSION
  5
1CE
330
1F
100
AcDbEntity
  8
VERMASSUNG
100
AcDbDimension
  2
_D
 10
148.2314013671
 20
81.6607142857
 30
0.0
 11
148.2314013671
 21
101.6607142857
 31
0.0
 70
   160
  1
HSK %%c<>
 71
     2
 42
-1.0
  3
SLDDIMSTYLE0
100
AcDbAlignedDimension
 13
170.9927587732
 23
121.6607142857
 33
0.0
 14
170.9927587732
 24
81.6607142857
 34
0.0
 50
90.0
100
AcDbRotatedDimension
  0
DIMENSION
  5
1DB
330
1F
100
AcDbEntity
  8
VERMASSUNG
100
AcDbDimension
  2
_D_1
 10
231.2221216445
 20
96.6607142857
 30
0.0
 11
231.2221216445
 21
101.6607142857
 31
0.0
 70
   160
  1
%%c<>
 71
     2
 42
-1.0
  3
SLDDIMSTYLE0
100
AcDbAlignedDimension
 13
225.3927587732
 23
106.6607142857
 33
0.0
 14
225.3927587732
 24
96.6607142857
 34
0.0
 50
90.0
100
AcDbRotatedDimension
  0
DIMENSION
  5
1E6
330
1F
100
AcDbEntity
  8
VERMASSUNG
100
AcDbDimension
  2
_D_2
 10
237.2221216445
 20
84.6607142857
 30
0.0
 11
237.2221216445
 21
101.6607142857
 31
0.0
 70
   160
  1
%%c<>
 71
     2
 42
-1.0
  3
SLDDIMSTYLE0
100
AcDbAlignedDimension
 13
224.6927587732
 23
118.6607142857
 33
0.0
 14
224.6927587732
 24
84.6607142857
 34
0.0
 50
90.0
100
AcDbRotatedDimension
  0
DIMENSION
  5
1F1
330
1F
100
AcDbEntity
  8
VERMASSUNG
100
AcDbDimension
  2
_D_3
 10
225.6927587732
 20
136.1618286652
 30
0.0
 11
188.2427587732
 21
136.1618286652
 31
0.0
 70
   160
  1
<>
 71
     2
 42
-1.0
  3
SLDDIMSTYLE0
100
AcDbAlignedDimension
 13
150.7927587732
 23
113.5907142857
 33
0.0
 14
225.6927587732
 24
117.6607142857
 34
0.0
100
AcDbRotatedDimension
  0
DIMENSION
  5
1FB
330
1F
100
AcDbEntity
  8
VERMASSUNG
100
AcDbDimension
  2
_D_4
 10
225.6927587732
 20
130.1618286652
 30
0.0
 11
198.1927587732
 21
130.1618286652
 31
0.0
 70
   160
  1
<>
 71
     2
 42
-1.0
  3
SLDDIMSTYLE0
100
AcDbAlignedDimension
 13
170.6927587732
 23
121.3607142857
 33
0.0
 14
225.6927587732
 24
117.6607142857
 34
0.0
100
AcDbRotatedDimension
  0
DIMENSION
  5
205
330
1F
100
AcDbEntity
  8
VERMASSUNG
100
AcDbDimension
  2
_D_5
 10
225.6927587732
 20
124.1618286652
 30
0.0
 11
208.1677587732
 21
124.1618286652
 31
0.0
 70
   160
  1
<>
 71
     2
 42
-1.0
  3
SLDDIMSTYLE0
100
AcDbAlignedDimension
 13
190.6427587732
 23
120.5315913189
 33
0.0
 14
225.6927587732
 24
117.6607142857
 34
0.0
100
AcDbRotatedDimension
  0
DIMENSION
  5
20F
330
1F
100
AcDbEntity
  8
VERMASSUNG
100
AcDbDimension
  2
_D_6
 10
217.6927587732
 20
80.3541992299
 30
0.0
 11
221.6927587732
 21
80.3541992299
 31
0.0
 70
   160
  1
<>
 71
     2
 42
-1.0
  3
SLDDIMSTYLE0
100
AcDbAlignedDimension
 13
225.6927587732
 23
85.6607142857
 33
0.0
 14
217.6927587732
 24
104.6607142857
 34
0.0
100
AcDbRotatedDimension
  0
DIMENSION
  5
219
330
1F
100
AcDbEntity
  8
VERMASSUNG
100
AcDbDimension
  2
_D_7
 10
207.6927587732
 20
80.3541992299
 30
0.0
 11
212.6927587732
 21
80.3541992299
 31
0.0
 70
   160
  1
<>
 71
     2
 42
-1.0
  3
SLDDIMSTYLE0
100
AcDbAlignedDimension
 13
217.6927587732
 23
104.6607142857
 33
0.0
 14
207.6927587732
 24
104.6607142857
 34
0.0
100
AcDbRotatedDimension
  0
DIMENSION
  5
223
330
1F
100
AcDbEntity
  8
VERMASSUNG
100
AcDbDimension
  2
_D_8
 10
197.6927587732
 20
80.3541992299
 30
0.0
 11
202.6927587732
 21
80.3541992299
 31
0.0
 70
   160
  1
<>
 71
     2
 42
-1.0
  3
SLDDIMSTYLE0
100
AcDbAlignedDimension
 13
207.6927587732
 23
104.6607142857
 33
0.0
 14
197.6927587732
 24
104.6607142857
 34
0.0
100
AcDbRotatedDimension
  0
DIMENSION
  5
22D
330
1F
100
AcDbEntity
  8
VERMASSUNG
100
AcDbDimension
  2
_D_9
 10
189.6927587732
 20
75.3529053832
 30
0.0
 11
207.6927587732
 21
75.3529053832
 31
0.0
 70
   160
  1
<>
 71
     2
 42
-1.0
  3
SLDDIMSTYLE0
100
AcDbAlignedDimension
 13
225.6927587732
 23
85.6607142857
 33
0.0
 14
189.6927587732
 24
96.7607142857
 34
0.0
100
AcDbRotatedDimension
  0
LINE
  5
237
330
1F
100
AcDbEntity
  8
VERMASSUNG
  6
CENTERX2
370
     0
100
AcDbLine
 10
149.7157235534
 20
101.6607142857
 30
0.0
 11
225.9137679372
 21
101.6607142857
 31
0.0
  0
LINE
  5
238
330
1F
100
AcDbEntity
  8
VERMASSUNG
  6
CENTERX2
370
     0
100
AcDbLine
 10
197.6927587732
 20
120.1607142857
 30
0.0
 11
197.6927587732
 21
104.6607142857
 31
0.0
  0
LINE
  5
239
330
1F
100
AcDbEntity
  8
VERMASSUNG
  6
CENTERX2
370
     0
100
AcDbLine
 10
207.6927587732
 20
104.6607142857
 30
0.0
 11
207.6927587732
 21
120.4107142857
 31
0.0
  0
LINE
  5
23A
330
1F
100
AcDbEntity
  8
VERMASSUNG
  6
CENTERX2
370
     0
100
AcDbLine
 10
217.6927587732
 20
104.6607142857
 30
0.0
 11
217.6927587732
 21
120.6607142857
 31
0.0
  0
CIRCLE
  5
23B
330
1F
100
AcDbEntity
  8
0
  6
Continuous
 62
     7
370
    15
100
AcDbCircle
 10
78.6421428571
 20
101.6607142857
 30
0.0
 40
17.00000000000001
  0
CIRCLE
  5
23C
330
1F
100
AcDbEntity
  8
0
  6
Continuous
 62
     7
370
    15
100
AcDbCircle
 10
78.6421428571
 20
101.6607142857
 30
0.0
 40
5.000000000000014
  0
SPLINE
  5
23D
330
1F
100
AcDbEntity
  8
0
  6
Continuous
 62
     7
370
    15
100
AcDbSpline
210
0.0
220
0.0
230
1.0
 70
    24
 71
     3
 72
     9
 73
     5
 74
     0
 42
0.00000001
 43
0.00000001
 12
1.0
 22
0.0
 32
0.0
 13
1.0
 23
0.0
 33
0.0
 40
0.0
 40
0.0
 40
0.0
 40
0.0
 40
0.5
 40
1.0
 40
1.0
 40
1.0
 40
1.0
 10
74.14214285714289
 20
118.5607142857143
 30
0.0
 10
74.14214285714289
 20
118.5626371540482
 30
0.0
 10
74.14214285714289
 20
118.5664824430371
 30
0.0
 10
74.14214285714289
 20
118.5703268373576
 30
0.0
 10
74.14214285714289
 20
118.5722488110021
 30
0.0
  0
SPLINE
  5
23E
330
1F
100
AcDbEntity
  8
0
  6
Continuous
 62
     7
370
    15
100
AcDbSpline
210
0.0
220
0.0
230
1.0
 70
    24
 71
     3
 72
     9
 73
     5
 74
     0
 42
0.00000001
 43
0.00000001
 12
1.0
 22
0.0
 32
0.0
 13
1.0
 23
0.0
 33
0.0
 40
0.0
 40
0.0
 40
0.0
 40
0.0
 40
0.6553015998479133
 40
1.0
 40
1.0
 40
1.0
 40
1.0
 10
83.14214266342779
 20
118.5607135168144
 30
0.0
 10
82.55057060294381
 20
118.5607135168144
 30
0.0
 10
81.64782282906187
 20
118.5607135168144
 30
0.0
 10
80.74632967847006
 20
118.5607135168144
 30
0.0
 10
80.435586431713
 20
118.5607135168144
 30
0.0
  0
SPLINE
  5
23F
330
1F
100
AcDbEntity
  8
0
  6
Continuous
 62
     7
370
    15
100
AcDbSpline
210
0.0
220
0.0
230
1.0
 70
    24
 71
     3
 72
    10
 73
     6
 74
     0
 42
0.00000001
 43
0.00000001
 12
1.0
 22
0.0
 32
0.0
 13
1.0
 23
0.0
 33
0.0
 40
0.0
 40
0.0
 40
0.0
 40
0.0
 40
0.1760639201685926
 40
0.5881320505685043
 40
1.0
 40
1.0
 40
1.0
 40
1.0
 10
77.17668978934844
 20
118.5607135168144
 30
0.0
 10
76.99845587881853
 20
118.5607135168144
 30
0.0
 10
76.40307509222453
 20
118.5607135168144
 30
0.0
 10
75.3936852713421
 20
118.5607135168144
 30
0.0
 10
74.55925621424942
 20
118.5607135168144
 30
0.0
 10
74.14214305085798
 20
118.5607135168144
 30
0.0
  0
SPLINE
  5
240
330
1F
100
AcDbEntity
  8
0
  6
Continuous
 62
     7
370
    15
100
AcDbSpline
210
0.0
220
0.0
230
1.0
 70
    24
 71
     3
 72
     9
 73
     5
 74
     0
 42
0.00000001
 43
0.00000001
 12
1.0
 22
0.0
 32
0.0
 13
1.0
 23
0.0
 33
0.0
 40
0.0
 40
0.0
 40
0.0
 40
0.0
 40
0.5
 40
1.0
 40
1.0
 40
1.0
 40
1.0
 10
83.14214285714289
 20
118.5722488110021
 30
0.0
 10
83.14214285714289
 20
118.570325686519
 30
0.0
 10
83.14214285714289
 20
118.5664801416741
 30
0.0
 10
83.14214285714289
 20
118.5626360034966
 30
0.0
 10
83.14214285714289
 20
118.5607142857143
 30
0.0
  0
SPLINE
  5
241
330
1F
100
AcDbEntity
  8
0
  6
Continuous
 62
     7
370
    15
100
AcDbSpline
210
0.0
220
0.0
230
1.0
 70
    24
 71
     3
 72
     9
 73
     5
 74
     0
 42
0.00000001
 43
0.00000001
 12
1.0
 22
0.0
 32
0.0
 13
1.0
 23
0.0
 33
0.0
 40
0.0
 40
0.0
 40
0.0
 40
0.0
 40
0.602316368958265
 40
1.0
 40
1.0
 40
1.0
 40
1.0
 10
83.18526941789051
 20
84.76071505461422
 30
0.0
 10
82.58650904090908
 20
84.76071505461422
 30
0.0
 10
81.59241290167083
 20
84.76071505461424
 30
0.0
 10
80.59978947828232
 20
84.76071505461422
 30
0.0
 10
80.2050393910121
 20
84.76071505461422
 30
0.0
  0
SPLINE
  5
242
330
1F
100
AcDbEntity
  8
0
  6
Continuous
 62
     7
370
    15
100
AcDbSpline
210
0.0
220
0.0
230
1.0
 70
    24
 71
     3
 72
    10
 73
     6
 74
     0
 42
0.00000001
 43
0.00000001
 12
1.0
 22
0.0
 32
0.0
 13
1.0
 23
0.0
 33
0.0
 40
0.0
 40
0.0
 40
0.0
 40
0.0
 40
0.1136994756915817
 40
0.5569669064533532
 40
1.0
 40
1.0
 40
1.0
 40
1.0
 10
76.96858180192967
 20
84.76071505461422
 30
0.0
 10
76.85974696983672
 20
84.76071505461422
 30
0.0
 10
76.32660994896236
 20
84.76071505461422
 30
0.0
 10
75.37221515505337
 20
84.76071505461422
 30
0.0
 10
74.52334110205354
 20
84.76071505461422
 30
0.0
 10
74.09901629639526
 20
84.76071505461422
 30
0.0
  0
SPLINE
  5
243
330
1F
100
AcDbEntity
  8
0
  6
Continuous
 62
     7
370
    15
100
AcDbSpline
210
0.0
220
0.0
230
1.0
 70
    24
 71
     3
 72
     9
 73
     5
 74
     0
 42
0.00000001
 43
0.00000001
 12
1.0
 22
0.0
 32
0.0
 13
1.0
 23
0.0
 33
0.0
 40
0.0
 40
0.0
 40
0.0
 40
0.0
 40
0.3720509437450013
 40
1.0
 40
1.0
 40
1.0
 40
1.0
 10
65.76474002999922
 20
113.5107146448323
 30
0.0
 10
65.85531585671657
 20
113.5107146448323
 30
0.0
 10
66.09876592246732
 20
113.5107146448323
 30
0.0
 10
66.32462754089859
 20
113.5107146448323
 30
0.0
 10
66.46645713103672
 20
113.5107146448323
 30
0.0
  0
SPLINE
  5
244
330
1F
100
AcDbEntity
  8
0
  6
Continuous
 62
     7
370
    15
100
AcDbSpline
210
0.0
220
0.0
230
1.0
 70
    24
 71
     3
 72
     9
 73
     5
 74
     0
 42
0.00000001
 43
0.00000001
 12
1.0
 22
0.0
 32
0.0
 13
1.0
 23
0.0
 33
0.0
 40
0.0
 40
0.0
 40
0.0
 40
0.0
 40
0.1865655654198226
 40
1.0
 40
1.0
 40
1.0
 40
1.0
 10
66.7921424980249
 20
114.538117112858
 30
0.0
 10
66.7921424980249
 20
114.4924084251628
 30
0.0
 10
66.79214249802492
 20
114.24740775962
 30
0.0
 10
66.7921424980249
 20
114.0125476990981
 30
0.0
 10
66.7921424980249
 20
113.8215044385621
 30
0.0
  0
SPLINE
  5
245
330
1F
100
AcDbEntity
  8
0
  6
Continuous
 62
     7
370
    15
100
AcDbSpline
210
0.0
220
0.0
230
1.0
 70
    24
 71
     3
 72
    10
 73
     6
 74
     0
 42
0.00000001
 43
0.00000001
 12
1.0
 22
0.0
 32
0.0
 13
1.0
 23
0.0
 33
0.0
 40
0.0
 40
0.0
 40
0.0
 40
0.0
 40
0.5
 40
0.5
 40
1.0
 40
1.0
 40
1.0
 40
1.0
 10
74.14214285714289
 20
120.5315913188572
 30
0.0
 10
74.14214285714289
 20
120.690025761745
 30
0.0
 10
74.14214285714289
 20
120.849046456547
 30
0.0
 10
74.14214285714289
 20
121.0790542808027
 30
0.0
 10
74.14214285714289
 20
121.1478895556194
 30
0.0
 10
74.14214285714289
 20
121.1478895556194
 30
0.0
  0
ARC
  5
246
330
1F
100
AcDbEntity
  8
0
  6
Continuous
 62
     7
370
    15
100
AcDbCircle
 10
78.6421428571
 20
101.6607142857
 30
0.0
 40
20.00000000000001
100
AcDbArc
 50
103.0028781629
 51
126.3346172154
  0
SPLINE
  5
247
330
1F
100
AcDbEntity
  8
0
  6
Continuous
 62
     7
370
    15
100
AcDbSpline
210
0.0
220
0.0
230
1.0
 70
    24
 71
     3
 72
    12
 73
     8
 74
     0
 42
0.00000001
 43
0.00000001
 12
1.0
 22
0.0
 32
0.0
 13
1.0
 23
0.0
 33
0.0
 40
0.0
 40
0.0
 40
0.0
 40
0.0
 40
0.25
 40
0.25
 40
0.5
 40
0.5
 40
1.0
 40
1.0
 40
1.0
 40
1.0
 10
66.79214285714288
 20
117.7721232867918
 30
0.0
 10
66.79214285714288
 20
117.7721232867918
 30
0.0
 10
66.79214285714288
 20
117.746498654187
 30
0.0
 10
66.79214285714288
 20
117.6579552812552
 30
0.0
 10
66.79214285714288
 20
117.5950727981406
 30
0.0
 10
66.79214285714288
 20
117.377711610207
 30
0.0
 10
66.79214285714288
 20
117.1990646001956
 30
0.0
 10
66.79214285714288
 20
117.0209714450199
 30
0.0
  0
ARC
  5
248
330
1F
100
AcDbEntity
  8
0
  6
Continuous
 62
     7
370
    15
100
AcDbCircle
 10
78.6421428571
 20
101.6607142857
 30
0.0
 40
20.00000000000001
100
AcDbArc
 50
143.6653827846
 51
254.0379858372
  0
SPLINE
  5
249
330
1F
100
AcDbEntity
  8
0
  6
Continuous
 62
     7
370
    15
100
AcDbSpline
210
0.0
220
0.0
230
1.0
 70
    24
 71
     3
 72
    10
 73
     6
 74
     0
 42
0.00000001
 43
0.00000001
 12
1.0
 22
0.0
 32
0.0
 13
1.0
 23
0.0
 33
0.0
 40
0.0
 40
0.0
 40
0.0
 40
0.0
 40
0.5
 40
0.5
 40
1.0
 40
1.0
 40
1.0
 40
1.0
 10
73.14214285714289
 20
83.05668246462778
 30
0.0
 10
73.14214285714289
 20
82.89705029572455
 30
0.0
 10
73.14214285714289
 20
82.73600066196049
 30
0.0
 10
73.14214285714289
 20
82.5030097782839
 30
0.0
 10
73.14214285714289
 20
82.4318297626849
 30
0.0
 10
73.14214285714289
 20
82.4318297626849
 30
0.0
  0
SPLINE
  5
24A
330
1F
100
AcDbEntity
  8
0
  6
Continuous
 62
     7
370
    15
100
AcDbSpline
210
0.0
220
0.0
230
1.0
 70
    24
 71
     3
 72
    12
 73
     8
 74
     0
 42
0.00000001
 43
0.00000001
 12
1.0
 22
0.0
 32
0.0
 13
1.0
 23
0.0
 33
0.0
 40
0.0
 40
0.0
 40
0.0
 40
0.0
 40
0.250000000000002
 40
0.250000000000002
 40
0.500000000000004
 40
0.500000000000004
 40
1.0
 40
1.0
 40
1.0
 40
1.0
 10
62.53073385606542
 20
113.5107142857143
 30
0.0
 10
62.53073385606542
 20
113.5107142857143
 30
0.0
 10
62.55601400622989
 20
113.5107142857143
 30
0.0
 10
62.64562535173162
 20
113.5107142857143
 30
0.0
 10
62.70861098865765
 20
113.5107142857143
 30
0.0
 10
62.92489771041521
 20
113.5107142857143
 30
0.0
 10
63.10487746783558
 20
113.5107142857143
 30
0.0
 10
63.28188569783728
 20
113.5107142857143
 30
0.0
  0
SPLINE
  5
24B
330
1F
100
AcDbEntity
  8
0
  6
Continuous
 62
     7
370
    15
100
AcDbSpline
210
0.0
220
0.0
230
1.0
 70
    24
 71
     3
 72
    10
 73
     6
 74
     0
 42
0.00000001
 43
0.00000001
 12
1.0
 22
0.0
 32
0.0
 13
1.0
 23
0.0
 33
0.0
 40
0.0
 40
0.0
 40
0.0
 40
0.0
 40
0.5
 40
0.5
 40
1.0
 40
1.0
 40
1.0
 40
1.0
 10
83.14214285714289
 20
121.1478895556194
 30
0.0
 10
83.14214285714289
 20
121.1478895556194
 30
0.0
 10
83.14214285714289
 20
121.0793041531136
 30
0.0
 10
83.14214285714289
 20
120.8495308837939
 30
0.0
 10
83.14214285714289
 20
120.6910326821262
 30
0.0
 10
83.14214285714289
 20
120.5315913188572
 30
0.0
  0
ARC
  5
24C
330
1F
100
AcDbEntity
  8
0
  6
Continuous
 62
     7
370
    15
100
AcDbCircle
 10
78.6421428571
 20
101.6607142857
 30
0.0
 40
20.0
100
AcDbArc
 50
285.9620141628
 51
76.9971218371
  0
SPLINE
  5
24D
330
1F
100
AcDbEntity
  8
0
  6
Continuous
 62
     7
370
    15
100
AcDbSpline
210
0.0
220
0.0
230
1.0
 70
    24
 71
     3
 72
    12
 73
     8
 74
     0
 42
0.00000001
 43
0.00000001
 12
1.0
 22
0.0
 32
0.0
 13
1.0
 23
0.0
 33
0.0
 40
0.0
 40
0.0
 40
0.0
 40
0.0
 40
0.2499999999999962
 40
0.2499999999999962
 40
0.4999999999999925
 40
0.4999999999999925
 40
1.0
 40
1.0
 40
1.0
 40
1.0
 10
84.14214285714289
 20
82.4318297626849
 30
0.0
 10
84.14214285714289
 20
82.4318297626849
 30
0.0
 10
84.14214285714289
 20
82.448805359043
 30
0.0
 10
84.14214285714289
 20
82.51328085650219
 30
0.0
 10
84.14214285714289
 20
82.56039448829681
 30
0.0
 10
84.14214285714289
 20
82.7370044022843
 30
0.0
 10
84.14214285714289
 20
82.89685327809245
 30
0.0
 10
84.14214285714289
 20
83.05668246462747
 30
0.0
  0
LINE
  5
24E
330
1F
100
AcDbEntity
  8
0
  6
Continuous
 62
     7
370
    15
100
AcDbLine
 10
84.1421428273
 20
83.0566815904
 30
0.0
 11
84.1421428273
 21
84.7607150546
 31
0.0
  0
LINE
  5
24F
330
1F
100
AcDbEntity
  8
0
  6
Continuous
 62
     7
370
    15
100
AcDbLine
 10
83.1421426634
 20
120.5315913877
 30
0.0
 11
83.1421426634
 21
118.5722488782
 31
0.0
  0
LINE
  5
250
330
1F
100
AcDbEntity
  8
0
  6
Continuous
 62
     7
370
    15
100
AcDbLine
 10
84.1421428273
 20
84.7607150546
 30
0.0
 11
83.1852694179
 21
84.7607150546
 31
0.0
  0
LINE
  5
251
330
1F
100
AcDbEntity
  8
0
  6
Continuous
 62
     7
370
    15
100
AcDbLine
 10
73.1421428869
 20
84.7607150546
 30
0.0
 11
73.1421428869
 21
83.0566815904
 31
0.0
  0
LINE
  5
252
330
1F
100
AcDbEntity
  8
0
  6
Continuous
 62
     7
370
    15
100
AcDbLine
 10
74.0990162964
 20
84.7607150546
 30
0.0
 11
73.1421428869
 21
84.7607150546
 31
0.0
  0
LINE
  5
253
330
1F
100
AcDbEntity
  8
0
  6
Continuous
 62
     7
370
    15
100
AcDbLine
 10
63.2818852688
 20
113.5107146448
 30
0.0
 11
65.76474003
 21
113.5107146448
 31
0.0
  0
LINE
  5
254
330
1F
100
AcDbEntity
  8
0
  6
Continuous
 62
     7
370
    15
100
AcDbLine
 10
74.1421430509
 20
118.5722488782
 30
0.0
 11
74.1421430509
 21
120.5315913877
 31
0.0
  0
LINE
  5
255
330
1F
100
AcDbEntity
  8
0
  6
Continuous
 62
     7
370
    15
100
AcDbLine
 10
66.792142498
 20
117.020971874
 30
0.0
 11
66.792142498
 21
114.5381171129
 31
0.0
  0
CIRCLE
  5
256
330
1F
100
AcDbEntity
  8
0
  6
Continuous
 62
     7
370
    15
100
AcDbCircle
 10
78.6421428571
 20
101.6607142857
 30
0.0
 40
2.5
  0
SPLINE
  5
257
330
1F
100
AcDbEntity
  8
0
  6
Continuous
 62
     7
370
    15
100
AcDbSpline
210
0.0
220
0.0
230
1.0
 70
     8
 71
     3
 72
    22
 73
    18
 74
     0
 42
0.00000001
 43
0.00000001
 12
1.0
 22
0.0
 32
0.0
 13
1.0
 23
0.0
 33
0.0
 40
0.0
 40
0.0
 40
0.0
 40
0.0
 40
0.2500000000000002
 40
0.2500000000000002
 40
0.3750000000000001
 40
0.3750000000000001
 40
0.5000000000000001
 40
0.5000000000000001
 40
0.6250000000000001
 40
0.6250000000000001
 40
0.75
 40
0.75
 40
0.875
 40
0.875
 40
0.9375000000000001
 40
0.9375000000000001
 40
1.0
 40
1.0
 40
1.0
 40
1.0
 10
62.53073385606543
 20
113.5107142857143
 30
0.0
 10
62.94472873423192
 20
114.0735869276123
 30
0.0
 10
63.38053853554085
 20
114.6042118113419
 30
0.0
 10
64.05727933852518
 20
115.3499228022634
 30
0.0
 10
64.28813446569987
 20
115.5915430286621
 30
0.0
 10
64.74817152086199
 20
116.0504018039881
 30
0.0
 10
64.97413919764048
 20
116.2645804764579
 30
0.0
 10
65.4113307861412
 20
116.6618090356034
 30
0.0
 10
65.62438351043377
 20
116.8462538706232
 30
0.0
 10
66.0085596496673
 20
117.1673337185069
 30
0.0
 10
66.18267665845879
 20
117.3066845486129
 30
0.0
 10
66.4761944032593
 20
117.5359900830384
 30
0.0
 10
66.59098670785673
 20
117.6225260925148
 30
0.0
 10
66.70994128395269
 20
117.711415696846
 30
0.0
 10
66.74075936693929
 20
117.7342242027077
 30
0.0
 10
66.78177857865789
 20
117.7645153654039
 30
0.0
 10
66.79214285714288
 20
117.7721232867918
 30
0.0
 10
66.79214285714288
 20
117.7721232867918
 30
0.0
  0
SPLINE
  5
258
330
1F
100
AcDbEntity
  8
0
  6
Continuous
 62
     7
370
    15
100
AcDbSpline
210
0.0
220
0.0
230
1.0
 70
     8
 71
     3
 72
    22
 73
    18
 74
     0
 42
0.00000001
 43
0.00000001
 12
1.0
 22
0.0
 32
0.0
 13
1.0
 23
0.0
 33
0.0
 40
0.0
 40
0.0
 40
0.0
 40
0.0
 40
0.1250000000000001
 40
0.1250000000000001
 40
0.2500000000000002
 40
0.2500000000000002
 40
0.3750000000000003
 40
0.3750000000000003
 40
0.5000000000000004
 40
0.5000000000000004
 40
0.6250000000000003
 40
0.6250000000000003
 40
0.7500000000000002
 40
0.7500000000000002
 40
0.8750000000000001
 40
0.8750000000000001
 40
1.0
 40
1.0
 40
1.0
 40
1.0
 10
79.64214285714289
 20
81.68572993027615
 30
0.0
 10
79.94088058554054
 20
81.70068552288546
 30
0.0
 10
80.234085910375
 20
81.72207371953185
 30
0.0
 10
80.81004099100257
 20
81.77645196614714
 30
0.0
 10
81.09578328481795
 20
81.80989812975552
 30
0.0
 10
81.63931242581162
 20
81.88466240515326
 30
0.0
 10
81.89680561403324
 20
81.9257608941142
 30
0.0
 10
82.38401061129854
 20
82.01231382307797
 30
0.0
 10
82.61415023348768
 20
82.05796472217585
 30
0.0
 10
83.02735588969117
 20
82.1462442773407
 30
0.0
 10
83.21319163038704
 20
82.18934562734795
 30
0.0
 10
83.54228821057048
 20
82.2695498072032
 30
0.0
 10
83.68224806738452
 20
82.30584465459278
 30
0.0
 10
83.90793442861415
 20
82.36602387374248
 30
0.0
 10
83.9952058369529
 20
82.39031121117358
 30
0.0
 10
84.11260605030378
 20
82.42330930548496
 30
0.0
 10
84.14214285714289
 20
82.4318297626849
 30
0.0
 10
84.14214285714289
 20
82.4318297626849
 30
0.0
  0
SPLINE
  5
259
330
1F
100
AcDbEntity
  8
0
  6
Continuous
 62
     7
370
    15
100
AcDbSpline
210
0.0
220
0.0
230
1.0
 70
     8
 71
     3
 72
    22
 73
    18
 74
     0
 42
0.00000001
 43
0.00000001
 12
1.0
 22
0.0
 32
0.0
 13
1.0
 23
0.0
 33
0.0
 40
0.0
 40
0.0
 40
0.0
 40
0.0
 40
0.125
 40
0.125
 40
0.25
 40
0.25
 40
0.375
 40
0.375
 40
0.5
 40
0.5
 40
0.625
 40
0.625
 40
0.75
 40
0.75
 40
0.875
 40
0.875
 40
1.0
 40
1.0
 40
1.0
 40
1.0
 10
73.14214285714289
 20
82.4318297626849
 30
0.0
 10
73.14214285714289
 20
82.4318297626849
 30
0.0
 10
73.1716687555628
 20
82.4233156616185
 30
0.0
 10
73.28707358884947
 20
82.39087189273661
 30
0.0
 10
73.37445639391531
 20
82.36653800403458
 30
0.0
 10
73.60112981322293
 20
82.30607797927775
 30
0.0
 10
73.73960565955548
 20
82.27016455849926
 30
0.0
 10
74.06641615671926
 20
82.19045453243012
 30
0.0
 10
74.25546099269926
 20
82.14657623124077
 30
0.0
 10
74.66832927517497
 20
82.0583326088706
 30
0.0
 10
74.89380116642629
 20
82.01352426740964
 30
0.0
 10
75.38465677097398
 20
81.92620325949046
 30
0.0
 10
75.64349692891605
 20
81.8849124709148
 30
0.0
 10
76.18324975471187
 20
81.81057424762098
 30
0.0
 10
76.46735284354094
 20
81.7771641218863
 30
0.0
 10
77.04880597868284
 20
81.72214472036018
 30
0.0
 10
77.34345644431113
 20
81.70068295389393
 30
0.0
 10
77.6421428571429
 20
81.68572993027615
 30
0.0
  0
SPLINE
  5
25A
330
1F
100
AcDbEntity
  8
0
  6
Continuous
 62
     7
370
    15
100
AcDbSpline
210
0.0
220
0.0
230
1.0
 70
     8
 71
     3
 72
    38
 73
    34
 74
     0
 42
0.00000001
 43
0.00000001
 12
1.0
 22
0.0
 32
0.0
 13
1.0
 23
0.0
 33
0.0
 40
0.0
 40
0.0
 40
0.0
 40
0.0
 40
0.0625
 40
0.0625
 40
0.125
 40
0.125
 40
0.1875
 40
0.1875
 40
0.25
 40
0.25
 40
0.3125
 40
0.3125
 40
0.375
 40
0.375
 40
0.4375
 40
0.4375
 40
0.5
 40
0.5
 40
0.5625
 40
0.5625
 40
0.625
 40
0.625
 40
0.6875
 40
0.6875
 40
0.75
 40
0.75
 40
0.8125
 40
0.8125
 40
0.875
 40
0.875
 40
0.9375
 40
0.9375
 40
1.0
 40
1.0
 40
1.0
 40
1.0
 10
74.14214285714289
 20
121.1478895556194
 30
0.0
 10
74.14214285714289
 20
121.1478895556194
 30
0.0
 10
74.17150327971439
 20
121.1547351228756
 30
0.0
 10
74.2863568702217
 20
121.1807192823092
 30
0.0
 10
74.37330895296623
 20
121.2001722011321
 30
0.0
 10
74.59942183685087
 20
121.2482043056715
 30
0.0
 10
74.73764716132456
 20
121.2765883226507
 30
0.0
 10
75.06405199656183
 20
121.3387443361296
 30
0.0
 10
75.25337377088711
 20
121.3726425118063
 30
0.0
 10
75.66694282440382
 20
121.4392899441321
 30
0.0
 10
75.89278891432753
 20
121.472387361545
 30
0.0
 10
76.38421940329025
 20
121.5343933322072
 30
0.0
 10
76.64457685844056
 20
121.5625593014549
 30
0.0
 10
77.18552166999874
 20
121.6094475704844
 30
0.0
 10
77.47006551191105
 20
121.6284595578043
 30
0.0
 10
78.0512786865384
 20
121.6541005943458
 30
0.0
 10
78.34384029439937
 20
121.6606577105513
 30
0.0
 10
78.9328102850091
 20
121.6607701321863
 30
0.0
 10
79.23204141835338
 20
121.6541046089542
 30
0.0
 10
79.80988375981356
 20
121.6286890982528
 30
0.0
 10
80.09085399295452
 20
121.6100582048511
 30
0.0
 10
80.63685879255283
 20
121.5628798738117
 30
0.0
 10
80.89887109227622
 20
121.5344982205581
 30
0.0
 10
81.38537293046878
 20
121.4732052694575
 30
0.0
 10
81.61374252170178
 20
121.4398536861956
 30
0.0
 10
82.03148922059178
 20
121.3725658278362
 30
0.0
 10
82.21704086156193
 20
121.3393225316868
 30
0.0
 10
82.54296757304996
 20
121.2773165597123
 30
0.0
 10
82.68438945446051
 20
121.2483015022417
 30
0.0
 10
82.91026660066431
 20
121.2003266213923
 30
0.0
 10
82.9959073691219
 20
121.1811723840519
 30
0.0
 10
83.11213225230784
 20
121.1548863533307
 30
0.0
 10
83.14214285714289
 20
121.1478895556194
 30
0.0
 10
83.14214285714289
 20
121.1478895556194
 30
0.0
  0
ARC
  5
25B
330
1F
100
AcDbEntity
  8
0
  6
Continuous
 62
     7
370
    15
100
AcDbCircle
 10
78.6421428571
 20
101.6607142857
 30
0.0
 40
19.99999999999998
100
AcDbArc
 50
267.1340160174
 51
272.8659839826
  0
LINE
  5
25C
330
1F
100
AcDbEntity
  8
0
  6
HIDDEN
 62
     7
370
     0
100
AcDbLine
 10
94.7366505067
 20
104.9702142238
 30
0.0
 11
94.7366505067
 21
98.3512143477
 31
0.0
  0
LINE
  5
25D
330
1F
100
AcDbEntity
  8
0
  6
HIDDEN
 62
     7
370
     0
100
AcDbLine
 10
94.3379885654
 20
105.6607144757
 30
0.0
 11
94.3379885654
 21
97.6607140957
 31
0.0
  0
LINE
  5
25E
330
1F
100
AcDbEntity
  8
0
  6
HIDDEN
 62
     7
370
     0
100
AcDbLine
 10
85.9866495381
 20
105.6607144757
 30
0.0
 11
85.9866495381
 21
97.6607140957
 31
0.0
  0
LINE
  5
25F
330
1F
100
AcDbEntity
  8
0
  6
HIDDEN
 62
     7
370
     0
100
AcDbLine
 10
84.7366497989
 20
104.4107142708
 30
0.0
 11
84.7366497989
 21
98.9107143006
 31
0.0
  0
LINE
  5
260
330
1F
100
AcDbEntity
  8
0
  6
HIDDEN
 62
     7
370
     0
100
AcDbLine
 10
94.7366505067
 20
102.3663390999
 30
0.0
 11
94.7366505067
 21
103.9178823459
 31
0.0
  0
LINE
  5
261
330
1F
100
AcDbEntity
  8
0
  6
HIDDEN
 62
     7
370
     0
100
AcDbLine
 10
89.7366496871
 20
102.3663390999
 30
0.0
 11
89.7366496871
 21
103.9178823459
 31
0.0
  0
LINE
  5
262
330
1F
100
AcDbEntity
  8
0
  6
HIDDEN
 62
     7
370
     0
100
AcDbLine
 10
89.7366496871
 20
102.3663390999
 30
0.0
 11
89.7366496871
 21
100.1091711561
 31
0.0
  0
LINE
  5
263
330
1F
100
AcDbEntity
  8
0
  6
HIDDEN
 62
     7
370
     0
100
AcDbLine
 10
89.7366496871
 20
102.3663390999
 30
0.0
 11
94.7366505067
 21
102.3663390999
 31
0.0
  0
LINE
  5
264
330
1F
100
AcDbEntity
  8
0
  6
HIDDEN
 62
     7
370
     0
100
AcDbLine
 10
94.7366505067
 20
102.3663390999
 30
0.0
 11
94.7366505067
 21
100.1091711561
 31
0.0
  0
LINE
  5
265
330
1F
100
AcDbEntity
  8
0
  6
HIDDEN
 62
     7
370
     0
100
AcDbLine
 10
89.7366496871
 20
100.1091711561
 30
0.0
 11
94.7366505067
 21
100.1091711561
 31
0.0
  0
LINE
  5
266
330
1F
100
AcDbEntity
  8
0
  6
HIDDEN
 62
     7
370
     0
100
AcDbLine
 10
89.7366496871
 20
100.1091711561
 30
0.0
 11
89.7366496871
 21
99.4035462255
 31
0.0
  0
LINE
  5
267
330
1F
100
AcDbEntity
  8
0
  6
HIDDEN
 62
     7
370
     0
100
AcDbLine
 10
94.7366505067
 20
100.1091711561
 30
0.0
 11
94.7366505067
 21
99.4035462255
 31
0.0
  0
LINE
  5
268
330
1F
100
AcDbEntity
  8
0
  6
HIDDEN
 62
     7
370
     0
100
AcDbLine
 10
89.7366496871
 20
103.2122574153
 30
0.0
 11
94.7366505067
 21
103.2122574153
 31
0.0
  0
LINE
  5
269
330
1F
100
AcDbEntity
  8
0
  6
HIDDEN
 62
     7
370
     0
100
AcDbLine
 10
89.7366496871
 20
103.2122574153
 30
0.0
 11
89.7366496871
 21
103.9178823459
 31
0.0
  0
LINE
  5
26A
330
1F
100
AcDbEntity
  8
0
  6
HIDDEN
 62
     7
370
     0
100
AcDbLine
 10
89.7366496871
 20
103.9178823459
 30
0.0
 11
94.7366505067
 21
103.9178823459
 31
0.0
  0
LINE
  5
26B
330
1F
100
AcDbEntity
  8
0
  6
HIDDEN
 62
     7
370
     0
100
AcDbLine
 10
94.7366505067
 20
103.2122574153
 30
0.0
 11
94.7366505067
 21
103.9178823459
 31
0.0
  0
LINE
  5
26C
330
1F
100
AcDbEntity
  8
0
  6
HIDDEN
 62
     7
370
     0
100
AcDbLine
 10
89.7366496871
 20
100.9550894716
 30
0.0
 11
94.7366505067
 21
100.9550894716
 31
0.0
  0
LINE
  5
26D
330
1F
100
AcDbEntity
  8
0
  6
HIDDEN
 62
     7
370
     0
100
AcDbLine
 10
89.7366496871
 20
99.4035462255
 30
0.0
 11
94.7366505067
 21
99.4035462255
 31
0.0
  0
LINE
  5
26E
330
1F
100
AcDbEntity
  8
0
  6
HIDDEN
 62
     7
370
     0
100
AcDbLine
 10
89.7366496871
 20
100.9550894716
 30
0.0
 11
89.7366496871
 21
99.4035462255
 31
0.0
  0
LINE
  5
26F
330
1F
100
AcDbEntity
  8
0
  6
HIDDEN
 62
     7
370
     0
100
AcDbLine
 10
94.7366505067
 20
100.9550894716
 30
0.0
 11
94.7366505067
 21
99.4035462255
 31
0.0
  0
LINE
  5
270
330
1F
100
AcDbEntity
  8
0
  6
HIDDEN
 62
     7
370
     0
100
AcDbLine
 10
89.7366496871
 20
103.2122574153
 30
0.0
 11
89.7366496871
 21
100.9550894716
 31
0.0
  0
LINE
  5
271
330
1F
100
AcDbEntity
  8
0
  6
HIDDEN
 62
     7
370
     0
100
AcDbLine
 10
94.7366505067
 20
103.2122574153
 30
0.0
 11
94.7366505067
 21
100.9550894716
 31
0.0
  0
LINE
  5
272
330
1F
100
AcDbEntity
  8
0
  6
HIDDEN
 62
     7
370
     0
100
AcDbLine
 10
75.3326429191
 20
117.7552219353
 30
0.0
 11
81.9516427952
 21
117.7552219353
 31
0.0
  0
LINE
  5
273
330
1F
100
AcDbEntity
  8
0
  6
HIDDEN
 62
     7
370
     0
100
AcDbLine
 10
74.6421426672
 20
117.356559994
 30
0.0
 11
82.6421430471
 21
117.356559994
 31
0.0
  0
LINE
  5
274
330
1F
100
AcDbEntity
  8
0
  6
HIDDEN
 62
     7
370
     0
100
AcDbLine
 10
74.6421426672
 20
109.0052209667
 30
0.0
 11
82.6421430471
 21
109.0052209667
 31
0.0
  0
LINE
  5
275
330
1F
100
AcDbEntity
  8
0
  6
HIDDEN
 62
     7
370
     0
100
AcDbLine
 10
75.892142872
 20
107.7552212275
 30
0.0
 11
81.3921428422
 21
107.7552212275
 31
0.0
  0
LINE
  5
276
330
1F
100
AcDbEntity
  8
0
  6
HIDDEN
 62
     7
370
     0
100
AcDbLine
 10
77.936518043
 20
112.7552211157
 30
0.0
 11
76.384974797
 21
112.7552211157
 31
0.0
  0
LINE
  5
277
330
1F
100
AcDbEntity
  8
0
  6
HIDDEN
 62
     7
370
     0
100
AcDbLine
 10
77.936518043
 20
117.7552219353
 30
0.0
 11
76.384974797
 21
117.7552219353
 31
0.0
  0
LINE
  5
278
330
1F
100
AcDbEntity
  8
0
  6
HIDDEN
 62
     7
370
     0
100
AcDbLine
 10
77.936518043
 20
112.7552211157
 30
0.0
 11
77.936518043
 21
117.7552219353
 31
0.0
  0
LINE
  5
279
330
1F
100
AcDbEntity
  8
0
  6
HIDDEN
 62
     7
370
     0
100
AcDbLine
 10
77.936518043
 20
112.7552211157
 30
0.0
 11
80.1936859868
 21
112.7552211157
 31
0.0
  0
LINE
  5
27A
330
1F
100
AcDbEntity
  8
0
  6
HIDDEN
 62
     7
370
     0
100
AcDbLine
 10
77.936518043
 20
117.7552219353
 30
0.0
 11
80.1936859868
 21
117.7552219353
 31
0.0
  0
LINE
  5
27B
330
1F
100
AcDbEntity
  8
0
  6
HIDDEN
 62
     7
370
     0
100
AcDbLine
 10
80.1936859868
 20
112.7552211157
 30
0.0
 11
80.1936859868
 21
117.7552219353
 31
0.0
  0
LINE
  5
27C
330
1F
100
AcDbEntity
  8
0
  6
HIDDEN
 62
     7
370
     0
100
AcDbLine
 10
80.1936859868
 20
112.7552211157
 30
0.0
 11
80.8993109173
 21
112.7552211157
 31
0.0
  0
LINE
  5
27D
330
1F
100
AcDbEntity
  8
0
  6
HIDDEN
 62
     7
370
     0
100
AcDbLine
 10
80.1936859868
 20
117.7552219353
 30
0.0
 11
80.8993109173
 21
117.7552219353
 31
0.0
  0
LINE
  5
27E
330
1F
100
AcDbEntity
  8
0
  6
HIDDEN
 62
     7
370
     0
100
AcDbLine
 10
77.0905997275
 20
112.7552211157
 30
0.0
 11
77.0905997275
 21
117.7552219353
 31
0.0
  0
LINE
  5
27F
330
1F
100
AcDbEntity
  8
0
  6
HIDDEN
 62
     7
370
     0
100
AcDbLine
 10
76.384974797
 20
112.7552211157
 30
0.0
 11
76.384974797
 21
117.7552219353
 31
0.0
  0
LINE
  5
280
330
1F
100
AcDbEntity
  8
0
  6
HIDDEN
 62
     7
370
     0
100
AcDbLine
 10
77.0905997275
 20
112.7552211157
 30
0.0
 11
76.384974797
 21
112.7552211157
 31
0.0
  0
LINE
  5
281
330
1F
100
AcDbEntity
  8
0
  6
HIDDEN
 62
     7
370
     0
100
AcDbLine
 10
77.0905997275
 20
117.7552219353
 30
0.0
 11
76.384974797
 21
117.7552219353
 31
0.0
  0
LINE
  5
282
330
1F
100
AcDbEntity
  8
0
  6
HIDDEN
 62
     7
370
     0
100
AcDbLine
 10
79.3477676713
 20
112.7552211157
 30
0.0
 11
79.3477676713
 21
117.7552219353
 31
0.0
  0
LINE
  5
283
330
1F
100
AcDbEntity
  8
0
  6
HIDDEN
 62
     7
370
     0
100
AcDbLine
 10
80.8993109173
 20
112.7552211157
 30
0.0
 11
80.8993109173
 21
117.7552219353
 31
0.0
  0
LINE
  5
284
330
1F
100
AcDbEntity
  8
0
  6
HIDDEN
 62
     7
370
     0
100
AcDbLine
 10
79.3477676713
 20
112.7552211157
 30
0.0
 11
80.8993109173
 21
112.7552211157
 31
0.0
  0
LINE
  5
285
330
1F
100
AcDbEntity
  8
0
  6
HIDDEN
 62
     7
370
     0
100
AcDbLine
 10
79.3477676713
 20
117.7552219353
 30
0.0
 11
80.8993109173
 21
117.7552219353
 31
0.0
  0
LINE
  5
286
330
1F
100
AcDbEntity
  8
0
  6
HIDDEN
 62
     7
370
     0
100
AcDbLine
 10
77.0905997275
 20
112.7552211157
 30
0.0
 11
79.3477676713
 21
112.7552211157
 31
0.0
  0
LINE
  5
287
330
1F
100
AcDbEntity
  8
0
  6
HIDDEN
 62
     7
370
     0
100
AcDbLine
 10
77.0905997275
 20
117.7552219353
 30
0.0
 11
79.3477676713
 21
117.7552219353
 31
0.0
  0
LINE
  5
288
330
1F
100
AcDbEntity
  8
0
  6
HIDDEN
 62
     7
370
     0
100
AcDbLine
 10
71.2976361762
 20
97.6607140957
 30
0.0
 11
71.2976361762
 21
105.6607144757
 31
0.0
  0
LINE
  5
289
330
1F
100
AcDbEntity
  8
0
  6
HIDDEN
 62
     7
370
     0
100
AcDbLine
 10
72.5476359154
 20
98.9107143006
 30
0.0
 11
72.5476359154
 21
104.4107142708
 31
0.0
  0
LINE
  5
28A
330
1F
100
AcDbEntity
  8
0
  6
HIDDEN
 62
     7
370
     0
100
AcDbLine
 10
62.9462971489
 20
97.6607140957
 30
0.0
 11
62.9462971489
 21
105.6607144757
 31
0.0
  0
LINE
  5
28B
330
1F
100
AcDbEntity
  8
0
  6
HIDDEN
 62
     7
370
     0
100
AcDbLine
 10
62.5476352076
 20
98.3512143477
 30
0.0
 11
62.5476352076
 21
104.9702142238
 31
0.0
  0
LINE
  5
28C
330
1F
100
AcDbEntity
  8
0
  6
HIDDEN
 62
     7
370
     0
100
AcDbLine
 10
67.5476360272
 20
100.9550894716
 30
0.0
 11
67.5476360272
 21
99.4035462255
 31
0.0
  0
LINE
  5
28D
330
1F
100
AcDbEntity
  8
0
  6
HIDDEN
 62
     7
370
     0
100
AcDbLine
 10
62.5476352076
 20
100.9550894716
 30
0.0
 11
62.5476352076
 21
99.4035462255
 31
0.0
  0
LINE
  5
28E
330
1F
100
AcDbEntity
  8
0
  6
HIDDEN
 62
     7
370
     0
100
AcDbLine
 10
67.5476360272
 20
100.9550894716
 30
0.0
 11
62.5476352076
 21
100.9550894716
 31
0.0
  0
LINE
  5
28F
330
1F
100
AcDbEntity
  8
0
  6
HIDDEN
 62
     7
370
     0
100
AcDbLine
 10
67.5476360272
 20
100.9550894716
 30
0.0
 11
67.5476360272
 21
103.2122574153
 31
0.0
  0
LINE
  5
290
330
1F
100
AcDbEntity
  8
0
  6
HIDDEN
 62
     7
370
     0
100
AcDbLine
 10
62.5476352076
 20
100.9550894716
 30
0.0
 11
62.5476352076
 21
103.2122574153
 31
0.0
  0
LINE
  5
291
330
1F
100
AcDbEntity
  8
0
  6
HIDDEN
 62
     7
370
     0
100
AcDbLine
 10
67.5476360272
 20
103.2122574153
 30
0.0
 11
62.5476352076
 21
103.2122574153
 31
0.0
  0
LINE
  5
292
330
1F
100
AcDbEntity
  8
0
  6
HIDDEN
 62
     7
370
     0
100
AcDbLine
 10
67.5476360272
 20
103.2122574153
 30
0.0
 11
67.5476360272
 21
103.9178823459
 31
0.0
  0
LINE
  5
293
330
1F
100
AcDbEntity
  8
0
  6
HIDDEN
 62
     7
370
     0
100
AcDbLine
 10
62.5476352076
 20
103.2122574153
 30
0.0
 11
62.5476352076
 21
103.9178823459
 31
0.0
  0
LINE
  5
294
330
1F
100
AcDbEntity
  8
0
  6
HIDDEN
 62
     7
370
     0
100
AcDbLine
 10
67.5476360272
 20
100.1091711561
 30
0.0
 11
62.5476352076
 21
100.1091711561
 31
0.0
  0
LINE
  5
295
330
1F
100
AcDbEntity
  8
0
  6
HIDDEN
 62
     7
370
     0
100
AcDbLine
 10
67.5476360272
 20
99.4035462255
 30
0.0
 11
62.5476352076
 21
99.4035462255
 31
0.0
  0
LINE
  5
296
330
1F
100
AcDbEntity
  8
0
  6
HIDDEN
 62
     7
370
     0
100
AcDbLine
 10
67.5476360272
 20
100.1091711561
 30
0.0
 11
67.5476360272
 21
99.4035462255
 31
0.0
  0
LINE
  5
297
330
1F
100
AcDbEntity
  8
0
  6
HIDDEN
 62
     7
370
     0
100
AcDbLine
 10
62.5476352076
 20
100.1091711561
 30
0.0
 11
62.5476352076
 21
99.4035462255
 31
0.0
  0
LINE
  5
298
330
1F
100
AcDbEntity
  8
0
  6
HIDDEN
 62
     7
370
     0
100
AcDbLine
 10
67.5476360272
 20
102.3663390999
 30
0.0
 11
62.5476352076
 21
102.3663390999
 31
0.0
  0
LINE
  5
299
330
1F
100
AcDbEntity
  8
0
  6
HIDDEN
 62
     7
370
     0
100
AcDbLine
 10
67.5476360272
 20
103.9178823459
 30
0.0
 11
62.5476352076
 21
103.9178823459
 31
0.0
  0
LINE
  5
29A
330
1F
100
AcDbEntity
  8
0
  6
HIDDEN
 62
     7
370
     0
100
AcDbLine
 10
67.5476360272
 20
102.3663390999
 30
0.0
 11
67.5476360272
 21
103.9178823459
 31
0.0
  0
LINE
  5
29B
330
1F
100
AcDbEntity
  8
0
  6
HIDDEN
 62
     7
370
     0
100
AcDbLine
 10
62.5476352076
 20
102.3663390999
 30
0.0
 11
62.5476352076
 21
103.9178823459
 31
0.0
  0
LINE
  5
29C
330
1F
100
AcDbEntity
  8
0
  6
HIDDEN
 62
     7
370
     0
100
AcDbLine
 10
67.5476360272
 20
100.1091711561
 30
0.0
 11
67.5476360272
 21
102.3663390999
 31
0.0
  0
LINE
  5
29D
330
1F
100
AcDbEntity
  8
0
  6
HIDDEN
 62
     7
370
     0
100
AcDbLine
 10
62.5476352076
 20
100.1091711561
 30
0.0
 11
62.5476352076
 21
102.3663390999
 31
0.0
  0
SPLINE
  5
29E
330
1F
100
AcDbEntity
  8
0
  6
HIDDEN
 62
     7
370
     0
100
AcDbSpline
210
0.0
220
0.0
230
1.0
 70
    11
 71
     3
 72
    70
 73
    66
 74
     0
 42
0.00000001
 43
0.00000001
 12
1.0
 22
0.0
 32
0.0
 13
1.0
 23
0.0
 33
0.0
 40
-0.0312500000000001
 40
-0.0312500000000001
 40
0.0
 40
0.0
 40
0.03125
 40
0.03125
 40
0.0625
 40
0.0625
 40
0.09375
 40
0.09375
 40
0.125
 40
0.125
 40
0.15625
 40
0.15625
 40
0.1875
 40
0.1875
 40
0.21875
 40
0.21875
 40
0.25
 40
0.25
 40
0.28125
 40
0.28125
 40
0.3125
 40
0.3125
 40
0.34375
 40
0.34375
 40
0.3749999999999999
 40
0.3749999999999999
 40
0.4062499999999999
 40
0.4062499999999999
 40
0.4374999999999999
 40
0.4374999999999999
 40
0.4687499999999999
 40
0.4687499999999999
 40
0.5
 40
0.5
 40
0.53125
 40
0.53125
 40
0.5625
 40
0.5625
 40
0.59375
 40
0.59375
 40
0.625
 40
0.625
 40
0.65625
 40
0.65625
 40
0.6875
 40
0.6875
 40
0.71875
 40
0.71875
 40
0.7499999999999999
 40
0.7499999999999999
 40
0.7812499999999999
 40
0.7812499999999999
 40
0.8124999999999999
 40
0.8124999999999999
 40
0.8437499999999999
 40
0.8437499999999999
 40
0.8749999999999999
 40
0.8749999999999999
 40
0.9062499999999999
 40
0.9062499999999999
 40
0.9374999999999999
 40
0.9374999999999999
 40
0.9687499999999999
 40
0.9687499999999999
 40
1.0
 40
1.0
 40
1.03125
 40
1.03125
 10
95.27794761675703
 20
105.1607142857142
 30
0.0
 10
95.27794761675702
 20
105.1607142857142
 30
0.0
 10
95.28279420732343
 20
105.1378970773761
 30
0.0
 10
95.30120065652599
 20
105.0486149279568
 30
0.0
 10
95.31498225812588
 20
104.9810229640892
 30
0.0
 10
95.34904515294635
 20
104.8051441369178
 30
0.0
 10
95.36918323144937
 20
104.6976091227676
 30
0.0
 10
95.41330426757477
 20
104.4436542563641
 30
0.0
 10
95.43739021410265
 20
104.2962671490984
 30
0.0
 10
95.48475785787352
 20
103.9743245844292
 30
0.0
 10
95.50828475722129
 20
103.7985389525356
 30
0.0
 10
95.55235893417212
 20
103.4161712427006
 30
0.0
 10
95.57240105319345
 20
103.213428001196
 30
0.0
 10
95.60573655795373
 20
102.7925496186994
 30
0.0
 10
95.61924455340706
 20
102.5713146521566
 30
0.0
 10
95.6374635620378
 20
102.1192436418422
 30
0.0
 10
95.6421146565373
 20
101.8917414939093
 30
0.0
 10
95.64217080214488
 20
101.4338561355782
 30
0.0
 10
95.63741991215352
 20
101.2012347931192
 30
0.0
 10
95.6193207627009
 20
100.7518721961746
 30
0.0
 10
95.606059816086
 20
100.5333901599265
 30
0.0
 10
95.5725026383331
 20
100.1088586371578
 30
0.0
 10
95.55229682127629
 20
99.90487125621294
 30
0.0
 10
95.50870283314225
 20
99.52636510833929
 30
0.0
 10
95.4850191638484
 20
99.34888915142194
 30
0.0
 10
95.43716900314084
 20
99.02364877841775
 30
0.0
 10
95.41355335209856
 20
98.8792886229025
 30
0.0
 10
95.36955401699191
 20
98.62587415855512
 30
0.0
 10
95.34898631417816
 20
98.51597636331996
 30
0.0
 10
95.31498240274367
 20
98.34041062714961
 30
0.0
 10
95.30143027015203
 20
98.27393720909123
 30
0.0
 10
95.28285767573438
 20
98.18382970288809
 30
0.0
 10
95.27796738409386
 20
98.16080824159582
 30
0.0
 10
95.2779279728843
 20
98.16062091666859
 30
0.0
 10
95.28262829464792
 20
98.18273208799019
 30
0.0
 10
95.3012054787343
 20
98.27283171198198
 30
0.0
 10
95.31485922523345
 20
98.339805968063
 30
0.0
 10
95.34867907005814
 20
98.51435910684589
 30
0.0
 10
95.36913468975148
 20
98.62353792983072
 30
0.0
 10
95.41336915065008
 20
98.87814989349165
 30
0.0
 10
95.43696746592659
 20
99.02245561220211
 30
0.0
 10
95.48444537243718
 20
99.3448152267136
 30
0.0
 10
95.50844735322636
 20
99.52433688465783
 30
0.0
 10
95.55211068430438
 20
99.90306704047023
 30
0.0
 10
95.57203381572111
 20
100.1037355951787
 30
0.0
 10
95.60573578801458
 20
100.5285016785548
 30
0.0
 10
95.6192010502388
 20
100.7498432795239
 30
0.0
 10
95.63730875396564
 20
101.197543667954
 30
0.0
 10
95.64211023623147
 20
101.4272449930105
 30
0.0
 10
95.64217514275389
 20
101.8894085989247
 30
0.0
 10
95.63749968611899
 20
102.1170757299339
 30
0.0
 10
95.61951712207684
 20
102.5658013424953
 30
0.0
 10
95.60598257429531
 20
102.7890396015221
 30
0.0
 10
95.57255597372561
 20
103.2118711666821
 30
0.0
 10
95.55269630064467
 20
103.4128519848241
 30
0.0
 10
95.50884912249312
 20
103.7940272117911
 30
0.0
 10
95.48495244433961
 20
103.9729054262051
 30
0.0
 10
95.43762146643522
 20
104.2947911535247
 30
0.0
 10
95.4139048494169
 20
104.4400963024733
 30
0.0
 10
95.36934889836351
 20
104.6967549269316
 30
0.0
 10
95.34919175876881
 20
104.8043553622532
 30
0.0
 10
95.31527079983482
 20
104.9795645122307
 30
0.0
 10
95.30142174757701
 20
105.0475350240513
 30
0.0
 10
95.28279658225996
 20
105.1378929500398
 30
0.0
 10
95.27794761675703
 20
105.1607142857142
 30
0.0
 10
95.27794761675702
 20
105.1607142857142
 30
0.0
  0
SPLINE
  5
29F
330
1F
100
AcDbEntity
  8
0
  6
HIDDEN
 62
     7
370
     0
100
AcDbSpline
210
0.0
220
0.0
230
1.0
 70
    11
 71
     3
 72
    74
 73
    70
 74
     0
 42
0.00000001
 43
0.00000001
 12
1.0
 22
0.0
 32
0.0
 13
1.0
 23
0.0
 33
0.0
 40
-0.031249999999999
 40
-0.031249999999999
 40
0.0
 40
0.0
 40
0.0312500000000009
 40
0.0312500000000009
 40
0.0625000000000018
 40
0.0625000000000018
 40
0.0937500000000027
 40
0.0937500000000027
 40
0.1250000000000036
 40
0.1250000000000036
 40
0.1562500000000045
 40
0.1562500000000045
 40
0.1875000000000053
 40
0.1875000000000053
 40
0.2187500000000062
 40
0.2187500000000062
 40
0.250000000000007
 40
0.250000000000007
 40
0.2812500000000079
 40
0.2812500000000079
 40
0.3125000000000088
 40
0.3125000000000088
 40
0.3437500000000097
 40
0.3437500000000097
 40
0.3750000000000106
 40
0.3750000000000106
 40
0.4062500000000115
 40
0.4062500000000115
 40
0.4375000000000124
 40
0.4375000000000124
 40
0.4687500000000133
 40
0.4687500000000133
 40
0.4843750000000133
 40
0.4843750000000133
 40
0.5000000000000133
 40
0.5000000000000133
 40
0.5312500000000124
 40
0.5312500000000124
 40
0.5625000000000115
 40
0.5625000000000115
 40
0.5937500000000107
 40
0.5937500000000107
 40
0.6250000000000098
 40
0.6250000000000098
 40
0.6562500000000089
 40
0.6562500000000089
 40
0.687500000000008
 40
0.687500000000008
 40
0.7187500000000071
 40
0.7187500000000071
 40
0.7500000000000062
 40
0.7500000000000062
 40
0.7812500000000054
 40
0.7812500000000054
 40
0.8125000000000046
 40
0.8125000000000046
 40
0.8437500000000037
 40
0.8437500000000037
 40
0.8750000000000028
 40
0.8750000000000028
 40
0.9062500000000019
 40
0.9062500000000019
 40
0.937500000000001
 40
0.937500000000001
 40
0.953125000000001
 40
0.953125000000001
 40
0.968750000000001
 40
0.968750000000001
 40
1.0
 40
1.0
 40
1.031250000000001
 40
1.031250000000001
 10
82.21285707141432
 20
105.1607142857143
 30
0.0
 10
82.21285707141432
 20
105.1607142857143
 30
0.0
 10
82.23733616404488
 20
105.136159385111
 30
0.0
 10
82.3255110286768
 20
105.0425676926267
 30
0.0
 10
82.38980344788878
 20
104.9725515450488
 30
0.0
 10
82.53810958640517
 20
104.7967418972362
 30
0.0
 10
82.62320078836622
 20
104.689623571717
 30
0.0
 10
82.79987248097235
 20
104.4421524190763
 30
0.0
 10
82.89064924595608
 20
104.3030977163857
 30
0.0
 10
83.06861032177531
 20
103.9927482723929
 30
0.0
 10
83.15630321754504
 20
103.8199936511297
 30
0.0
 10
83.3145817501659
 20
103.4519278208074
 30
0.0
 10
83.38607710336247
 20
103.2554492337994
 30
0.0
 10
83.50748104035797
 20
102.8339900632058
 30
0.0
 10
83.55716116960261
 20
102.6076083730088
 30
0.0
 10
83.62380528527105
 20
102.1475950478563
 30
0.0
 10
83.641726136548
 20
101.9080984631331
 30
0.0
 10
83.6425448853019
 20
101.430472118144
 30
0.0
 10
83.62592851045753
 20
101.1950715418395
 30
0.0
 10
83.56050814953754
 20
100.7308619029805
 30
0.0
 10
83.51189580087406
 20
100.5057144638852
 30
0.0
 10
83.39146360258111
 20
100.0819581999449
 30
0.0
 10
83.31848577990903
 20
99.8795281245209
 30
0.0
 10
83.1595532878299
 20
99.50808559668037
 30
0.0
 10
83.07329456874153
 20
99.33745250788078
 30
0.0
 10
82.89403328197966
 20
99.02365558429577
 30
0.0
 10
82.80277237051982
 20
98.88365319544057
 30
0.0
 10
82.62718773208836
 20
98.63708673071247
 30
0.0
 10
82.54192242786469
 20
98.5293763277797
 30
0.0
 10
82.39192958153644
 20
98.35123432224829
 30
0.0
 10
82.32844250673108
 20
98.28202983904895
 30
0.0
 10
82.2609277418591
 20
98.21028324273972
 30
0.0
 10
82.24307812975243
 20
98.19177247912548
 30
0.0
 10
82.219279483441
 20
98.16723669857855
 30
0.0
 10
82.21312847764982
 20
98.16099117682865
 30
0.0
 10
82.21234067022561
 20
98.16018744845088
 30
0.0
 10
82.23650770254844
 20
98.18441070619473
 30
0.0
 10
82.32482756564146
 20
98.27811490703247
 30
0.0
 10
82.38859388562317
 20
98.34748626747509
 30
0.0
 10
82.53777687942667
 20
98.52424959213472
 30
0.0
 10
82.62191032665567
 20
98.6301613818723
 30
0.0
 10
82.79753249777522
 20
98.87583781647857
 30
0.0
 10
82.88994087692672
 20
99.01718516299998
 30
0.0
 10
83.06808332821589
 20
99.3276722402217
 30
0.0
 10
83.15422156423826
 20
99.49698058237408
 30
0.0
 10
83.31369553075308
 20
99.86706063584782
 30
0.0
 10
83.38714110469941
 20
100.0691063452845
 30
0.0
 10
83.50840818998493
 20
100.4912332402358
 30
0.0
 10
83.55747828993348
 20
100.7148349561953
 30
0.0
 10
83.62452081106375
 20
101.1799648217089
 30
0.0
 10
83.64175270504039
 20
101.4150357773537
 30
0.0
 10
83.64251997481495
 20
101.8902469451018
 30
0.0
 10
83.62534647994474
 20
102.1318849915551
 30
0.0
 10
83.55990786537492
 20
102.5934026067287
 30
0.0
 10
83.51120766037451
 20
102.8188469051359
 30
0.0
 10
83.38972314979209
 20
103.2448685039286
 30
0.0
 10
83.31780225743518
 20
103.4437993767667
 30
0.0
 10
83.15791962109415
 20
103.8168551641434
 30
0.0
 10
83.07057305674515
 20
103.9890360344268
 30
0.0
 10
82.89263819970898
 20
104.299912183012
 30
0.0
 10
82.80069391413677
 20
104.4409423869681
 30
0.0
 10
82.62369082674427
 20
104.6889961342861
 30
0.0
 10
82.53967228559033
 20
104.7947930643366
 30
0.0
 10
82.42868352263613
 20
104.9265076269443
 30
0.0
 10
82.39422112403659
 20
104.9658710906656
 30
0.0
 10
82.33223845148486
 20
105.0349323182116
 30
0.0
 10
82.30465130363271
 20
105.0646967561467
 30
0.0
 10
82.23754105852831
 20
105.1359654841108
 30
0.0
 10
82.21285707141432
 20
105.1607142857143
 30
0.0
 10
82.21285707141432
 20
105.1607142857143
 30
0.0
  0
SPLINE
  5
2A0
330
1F
100
AcDbEntity
  8
0
  6
HIDDEN
 62
     7
370
     0
100
AcDbSpline
210
0.0
220
0.0
230
1.0
 70
    11
 71
     3
 72
    70
 73
    66
 74
     0
 42
0.00000001
 43
0.00000001
 12
1.0
 22
0.0
 32
0.0
 13
1.0
 23
0.0
 33
0.0
 40
-0.0312500000000001
 40
-0.0312500000000001
 40
0.0
 40
0.0
 40
0.03125
 40
0.03125
 40
0.0625
 40
0.0625
 40
0.0937499999999999
 40
0.0937499999999999
 40
0.1249999999999999
 40
0.1249999999999999
 40
0.1562499999999999
 40
0.1562499999999999
 40
0.1874999999999999
 40
0.1874999999999999
 40
0.2187499999999999
 40
0.2187499999999999
 40
0.2499999999999999
 40
0.2499999999999999
 40
0.2812499999999999
 40
0.2812499999999999
 40
0.3124999999999999
 40
0.3124999999999999
 40
0.3437499999999999
 40
0.3437499999999999
 40
0.3749999999999998
 40
0.3749999999999998
 40
0.4062499999999998
 40
0.4062499999999998
 40
0.4374999999999998
 40
0.4374999999999998
 40
0.4687499999999998
 40
0.4687499999999998
 40
0.4999999999999998
 40
0.4999999999999998
 40
0.5312499999999998
 40
0.5312499999999998
 40
0.5624999999999998
 40
0.5624999999999998
 40
0.5937499999999997
 40
0.5937499999999997
 40
0.6249999999999997
 40
0.6249999999999997
 40
0.6562499999999997
 40
0.6562499999999997
 40
0.6874999999999997
 40
0.6874999999999997
 40
0.7187499999999997
 40
0.7187499999999997
 40
0.7499999999999996
 40
0.7499999999999996
 40
0.7812499999999996
 40
0.7812499999999996
 40
0.8124999999999996
 40
0.8124999999999996
 40
0.8437499999999996
 40
0.8437499999999996
 40
0.8749999999999997
 40
0.8749999999999997
 40
0.9062499999999998
 40
0.9062499999999998
 40
0.9374999999999998
 40
0.9374999999999998
 40
0.9687499999999999
 40
0.9687499999999999
 40
1.0
 40
1.0
 40
1.03125
 40
1.03125
 10
75.1421428571429
 20
118.2965190453284
 30
0.0
 10
75.1421428571429
 20
118.2965190453284
 30
0.0
 10
75.16496006548107
 20
118.3013656358948
 30
0.0
 10
75.2542422149003
 20
118.3197720850974
 30
0.0
 10
75.3218341787679
 20
118.3335536866973
 30
0.0
 10
75.49771300593933
 20
118.3676165815178
 30
0.0
 10
75.60524802008958
 20
118.3877546600208
 30
0.0
 10
75.8592028864931
 20
118.4318756961462
 30
0.0
 10
76.00658999375878
 20
118.4559616426741
 30
0.0
 10
76.328532558428
 20
118.5033292864449
 30
0.0
 10
76.50431819032153
 20
118.5268561857927
 30
0.0
 10
76.88668590015654
 20
118.5709303627436
 30
0.0
 10
77.08942914166109
 20
118.5909724817649
 30
0.0
 10
77.51030752415774
 20
118.6243079865252
 30
0.0
 10
77.73154249070058
 20
118.6378159819785
 30
0.0
 10
78.18361350101497
 20
118.6560349906092
 30
0.0
 10
78.41111564894787
 20
118.6606860851087
 30
0.0
 10
78.869001007279
 20
118.6607422307163
 30
0.0
 10
79.10162234973792
 20
118.6559913407249
 30
0.0
 10
79.55098494668256
 20
118.6378921912723
 30
0.0
 10
79.76946698293067
 20
118.6246312446574
 30
0.0
 10
80.19399850569938
 20
118.5910740669046
 30
0.0
 10
80.3979858866442
 20
118.5708682498477
 30
0.0
 10
80.77649203451786
 20
118.5272742617137
 30
0.0
 10
80.95396799143519
 20
118.5035905924198
 30
0.0
 10
81.27920836443938
 20
118.4557404317123
 30
0.0
 10
81.42356851995466
 20
118.43212478067
 30
0.0
 10
81.67698298430203
 20
118.3881254455634
 30
0.0
 10
81.78688077953717
 20
118.3675577427496
 30
0.0
 10
81.96244651570753
 20
118.3335538313151
 30
0.0
 10
82.0289199337659
 20
118.3200016987235
 30
0.0
 10
82.11902743996905
 20
118.3014291043058
 30
0.0
 10
82.14204890126132
 20
118.2965388126653
 30
0.0
 10
82.14223622618854
 20
118.2964994014557
 30
0.0
 10
82.12012505486695
 20
118.3011997232194
 30
0.0
 10
82.03002543087516
 20
118.3197769073058
 30
0.0
 10
81.96305117479413
 20
118.3334306538049
 30
0.0
 10
81.78849803601123
 20
118.3672504986296
 30
0.0
 10
81.67931921302642
 20
118.3877061183229
 30
0.0
 10
81.42470724936548
 20
118.4319405792215
 30
0.0
 10
81.28040153065504
 20
118.455538894498
 30
0.0
 10
80.95804191614353
 20
118.5030168010086
 30
0.0
 10
80.77852025819932
 20
118.5270187817978
 30
0.0
 10
80.3997901023869
 20
118.5706821128758
 30
0.0
 10
80.19912154767847
 20
118.5906052442925
 30
0.0
 10
79.7743554643023
 20
118.624307216586
 30
0.0
 10
79.55301386333323
 20
118.6377724788102
 30
0.0
 10
79.10531347490317
 20
118.6558801825371
 30
0.0
 10
78.87561214984666
 20
118.6606816648029
 30
0.0
 10
78.41344854393242
 20
118.6607465713253
 30
0.0
 10
78.18578141292322
 20
118.6560711146904
 30
0.0
 10
77.7370558003618
 20
118.6380885506483
 30
0.0
 10
77.51381754133504
 20
118.6245540028667
 30
0.0
 10
77.09098597617503
 20
118.591127402297
 30
0.0
 10
76.89000515803308
 20
118.5712677292161
 30
0.0
 10
76.50882993106602
 20
118.5274205510645
 30
0.0
 10
76.32995171665202
 20
118.503523872911
 30
0.0
 10
76.0080659893324
 20
118.4561928950066
 30
0.0
 10
75.8627608403838
 20
118.4324762779883
 30
0.0
 10
75.60610221592556
 20
118.3879203269349
 30
0.0
 10
75.49850178060393
 20
118.3677631873402
 30
0.0
 10
75.32329263062645
 20
118.3338422284062
 30
0.0
 10
75.25532211880588
 20
118.3199931761484
 30
0.0
 10
75.1649641928174
 20
118.3013680108314
 30
0.0
 10
75.1421428571429
 20
118.2965190453284
 30
0.0
 10
75.1421428571429
 20
118.2965190453284
 30
0.0
  0
SPLINE
  5
2A1
330
1F
100
AcDbEntity
  8
0
  6
HIDDEN
 62
     7
370
     0
100
AcDbSpline
210
0.0
220
0.0
230
1.0
 70
    11
 71
     3
 72
    74
 73
    70
 74
     0
 42
0.00000001
 43
0.00000001
 12
1.0
 22
0.0
 32
0.0
 13
1.0
 23
0.0
 33
0.0
 40
-0.031249999999999
 40
-0.031249999999999
 40
0.0
 40
0.0
 40
0.0312500000000009
 40
0.0312500000000009
 40
0.0625000000000018
 40
0.0625000000000018
 40
0.0937500000000027
 40
0.0937500000000027
 40
0.1250000000000036
 40
0.1250000000000036
 40
0.1562500000000045
 40
0.1562500000000045
 40
0.1875000000000054
 40
0.1875000000000054
 40
0.2187500000000063
 40
0.2187500000000063
 40
0.2500000000000072
 40
0.2500000000000072
 40
0.2812500000000081
 40
0.2812500000000081
 40
0.312500000000009
 40
0.312500000000009
 40
0.3437500000000099
 40
0.3437500000000099
 40
0.3750000000000108
 40
0.3750000000000108
 40
0.4062500000000116
 40
0.4062500000000116
 40
0.4375000000000125
 40
0.4375000000000125
 40
0.4687500000000134
 40
0.4687500000000134
 40
0.4843750000000135
 40
0.4843750000000135
 40
0.5000000000000135
 40
0.5000000000000135
 40
0.5312500000000127
 40
0.5312500000000127
 40
0.5625000000000118
 40
0.5625000000000118
 40
0.5937500000000109
 40
0.5937500000000109
 40
0.62500000000001
 40
0.62500000000001
 40
0.6562500000000091
 40
0.6562500000000091
 40
0.6875000000000082
 40
0.6875000000000082
 40
0.7187500000000073
 40
0.7187500000000073
 40
0.7500000000000063
 40
0.7500000000000063
 40
0.7812500000000054
 40
0.7812500000000054
 40
0.8125000000000046
 40
0.8125000000000046
 40
0.8437500000000037
 40
0.8437500000000037
 40
0.8750000000000028
 40
0.8750000000000028
 40
0.9062500000000019
 40
0.9062500000000019
 40
0.937500000000001
 40
0.937500000000001
 40
0.953125000000001
 40
0.953125000000001
 40
0.968750000000001
 40
0.968750000000001
 40
1.0
 40
1.0
 40
1.031250000000001
 40
1.031250000000001
 10
75.1421428571429
 20
105.2314284999857
 30
0.0
 10
75.1421428571429
 20
105.2314284999857
 30
0.0
 10
75.16669775774615
 20
105.2559075926163
 30
0.0
 10
75.26028945023053
 20
105.3440824572482
 30
0.0
 10
75.33030559780833
 20
105.4083748764602
 30
0.0
 10
75.50611524562098
 20
105.5566810149766
 30
0.0
 10
75.6132335711402
 20
105.6417722169376
 30
0.0
 10
75.86070472378088
 20
105.8184439095438
 30
0.0
 10
75.99975942647148
 20
105.9092206745275
 30
0.0
 10
76.31010887046432
 20
106.0871817503467
 30
0.0
 10
76.48286349172746
 20
106.1748746461165
 30
0.0
 10
76.8509293220498
 20
106.3331531787373
 30
0.0
 10
77.04740790905777
 20
106.4046485319339
 30
0.0
 10
77.46886707965139
 20
106.5260524689294
 30
0.0
 10
77.69524876984836
 20
106.575732598174
 30
0.0
 10
78.1552620950009
 20
106.6423767138425
 30
0.0
 10
78.39475867972412
 20
106.6602975651194
 30
0.0
 10
78.87238502471324
 20
106.6611163138733
 30
0.0
 10
79.10778560101772
 20
106.644499939029
 30
0.0
 10
79.5719952398767
 20
106.579079578109
 30
0.0
 10
79.79714267897195
 20
106.5304672294455
 30
0.0
 10
80.22089894291223
 20
106.4100350311525
 30
0.0
 10
80.42332901833628
 20
106.3370572084805
 30
0.0
 10
80.79477154617682
 20
106.1781247164013
 30
0.0
 10
80.96540463497641
 20
106.091865997313
 30
0.0
 10
81.27920155856141
 20
105.9126047105511
 30
0.0
 10
81.41920394741662
 20
105.8213437990913
 30
0.0
 10
81.66577041214471
 20
105.6457591606598
 30
0.0
 10
81.77348081507749
 20
105.5604938564361
 30
0.0
 10
81.95162282060889
 20
105.4105010101079
 30
0.0
 10
82.02082730380823
 20
105.3470139353025
 30
0.0
 10
82.09257390011746
 20
105.2794991704305
 30
0.0
 10
82.1110846637317
 20
105.2616495583239
 30
0.0
 10
82.13562044427863
 20
105.2378509120124
 30
0.0
 10
82.14186596602853
 20
105.2316999062213
 30
0.0
 10
82.1426696944063
 20
105.2309120987971
 30
0.0
 10
82.11844643666245
 20
105.2550791311199
 30
0.0
 10
82.0247422358247
 20
105.3433989942129
 30
0.0
 10
81.95537087538209
 20
105.4071653141946
 30
0.0
 10
81.77860755072246
 20
105.5563483079981
 30
0.0
 10
81.67269576098491
 20
105.6404817552271
 30
0.0
 10
81.42701932637863
 20
105.8161039263466
 30
0.0
 10
81.28567197985721
 20
105.9085123054982
 30
0.0
 10
80.97518490263549
 20
106.0866547567873
 30
0.0
 10
80.80587656048309
 20
106.1727929928097
 30
0.0
 10
80.43579650700934
 20
106.3322669593245
 30
0.0
 10
80.2337507975727
 20
106.4057125332708
 30
0.0
 10
79.81162390262133
 20
106.5269796185564
 30
0.0
 10
79.58802218666189
 20
106.5760497185049
 30
0.0
 10
79.12289232114826
 20
106.6430922396352
 30
0.0
 10
78.88782136550348
 20
106.6603241336118
 30
0.0
 10
78.41261019775536
 20
106.6610914033864
 30
0.0
 10
78.17097215130205
 20
106.6439179085162
 30
0.0
 10
77.70945453612849
 20
106.5784792939464
 30
0.0
 10
77.48401023772125
 20
106.5297790889459
 30
0.0
 10
77.05798863892855
 20
106.4082945783635
 30
0.0
 10
76.85905776609047
 20
106.3363736860066
 30
0.0
 10
76.48600197871382
 20
106.1764910496656
 30
0.0
 10
76.31382110843039
 20
106.0891444853166
 30
0.0
 10
76.00294495984515
 20
105.9112096282804
 30
0.0
 10
75.86191475588907
 20
105.8192653427082
 30
0.0
 10
75.61386100857109
 20
105.6422622553157
 30
0.0
 10
75.50806407852056
 20
105.5582437141617
 30
0.0
 10
75.37634951591289
 20
105.4472549512076
 30
0.0
 10
75.33698605219162
 20
105.412792552608
 30
0.0
 10
75.26792482464562
 20
105.3508098800563
 30
0.0
 10
75.23816038671046
 20
105.3232227322041
 30
0.0
 10
75.16689165874641
 20
105.2561124870997
 30
0.0
 10
75.1421428571429
 20
105.2314284999857
 30
0.0
 10
75.1421428571429
 20
105.2314284999857
 30
0.0
  0
SPLINE
  5
2A2
330
1F
100
AcDbEntity
  8
0
  6
HIDDEN
 62
     7
370
     0
100
AcDbSpline
210
0.0
220
0.0
230
1.0
 70
    11
 71
     3
 72
    70
 73
    66
 74
     0
 42
0.00000001
 43
0.00000001
 12
1.0
 22
0.0
 32
0.0
 13
1.0
 23
0.0
 33
0.0
 40
-0.03125
 40
-0.03125
 40
0.0
 40
0.0
 40
0.03125
 40
0.03125
 40
0.0624999999999999
 40
0.0624999999999999
 40
0.0937499999999999
 40
0.0937499999999999
 40
0.1249999999999999
 40
0.1249999999999999
 40
0.1562499999999999
 40
0.1562499999999999
 40
0.1874999999999999
 40
0.1874999999999999
 40
0.2187499999999999
 40
0.2187499999999999
 40
0.2499999999999999
 40
0.2499999999999999
 40
0.2812499999999999
 40
0.2812499999999999
 40
0.3124999999999999
 40
0.3124999999999999
 40
0.3437499999999999
 40
0.3437499999999999
 40
0.375
 40
0.375
 40
0.40625
 40
0.40625
 40
0.4375000000000001
 40
0.4375000000000001
 40
0.4687500000000001
 40
0.4687500000000001
 40
0.5000000000000001
 40
0.5000000000000001
 40
0.5312500000000001
 40
0.5312500000000001
 40
0.5625
 40
0.5625
 40
0.59375
 40
0.59375
 40
0.625
 40
0.625
 40
0.65625
 40
0.65625
 40
0.6875
 40
0.6875
 40
0.7187500000000001
 40
0.7187500000000001
 40
0.7500000000000002
 40
0.7500000000000002
 40
0.7812500000000002
 40
0.7812500000000002
 40
0.8125000000000001
 40
0.8125000000000001
 40
0.8437500000000001
 40
0.8437500000000001
 40
0.8750000000000001
 40
0.8750000000000001
 40
0.9062500000000001
 40
0.9062500000000001
 40
0.9375
 40
0.9375
 40
0.96875
 40
0.96875
 40
1.0
 40
1.0
 40
1.03125
 40
1.03125
 10
62.00633809752873
 20
98.16071428571449
 30
0.0
 10
62.00633809752872
 20
98.16071428571449
 30
0.0
 10
62.00149150696232
 20
98.18353149405267
 30
0.0
 10
61.98308505775977
 20
98.2728136434719
 30
0.0
 10
61.96930345615987
 20
98.3404056073395
 30
0.0
 10
61.93524056133941
 20
98.51628443451094
 30
0.0
 10
61.91510248283639
 20
98.62381944866118
 30
0.0
 10
61.87098144671098
 20
98.87777431506468
 30
0.0
 10
61.84689550018312
 20
99.02516142233038
 30
0.0
 10
61.79952785641225
 20
99.3471039869996
 30
0.0
 10
61.77600095706448
 20
99.52288961889312
 30
0.0
 10
61.73192678011364
 20
99.90525732872814
 30
0.0
 10
61.7118846610923
 20
100.1080005702327
 30
0.0
 10
61.67854915633204
 20
100.5288789527294
 30
0.0
 10
61.6650411608787
 20
100.7501139192722
 30
0.0
 10
61.64682215224798
 20
101.2021849295866
 30
0.0
 10
61.64217105774847
 20
101.4296870775195
 30
0.0
 10
61.6421149121409
 20
101.8875724358506
 30
0.0
 10
61.64686580213226
 20
102.1201937783095
 30
0.0
 10
61.66496495158487
 20
102.5695563752542
 30
0.0
 10
61.67822589819978
 20
102.7880384115023
 30
0.0
 10
61.71178307595266
 20
103.212569934271
 30
0.0
 10
61.73198889300949
 20
103.4165573152158
 30
0.0
 10
61.77558288114354
 20
103.7950634630894
 30
0.0
 10
61.79926655043738
 20
103.9725394200068
 30
0.0
 10
61.84711671114496
 20
104.297779793011
 30
0.0
 10
61.87073236218723
 20
104.4421399485262
 30
0.0
 10
61.91473169729386
 20
104.6955544128736
 30
0.0
 10
61.93529940010762
 20
104.8054522081088
 30
0.0
 10
61.96930331154212
 20
104.9810179442791
 30
0.0
 10
61.98285544413377
 20
105.0474913623375
 30
0.0
 10
62.00142803855144
 20
105.1375988685406
 30
0.0
 10
62.00631833019192
 20
105.1606203298329
 30
0.0
 10
62.00635774140151
 20
105.1608076547602
 30
0.0
 10
62.00165741963787
 20
105.1386964834385
 30
0.0
 10
61.98308023555149
 20
105.0485968594468
 30
0.0
 10
61.96942648905234
 20
104.9816226033657
 30
0.0
 10
61.93560664422765
 20
104.8070694645829
 30
0.0
 10
61.91515102453432
 20
104.697890641598
 30
0.0
 10
61.8709165636357
 20
104.4432786779371
 30
0.0
 10
61.84731824835921
 20
104.2989729592266
 30
0.0
 10
61.79984034184861
 20
103.9766133447151
 30
0.0
 10
61.77583836105942
 20
103.7970916867709
 30
0.0
 10
61.73217502998141
 20
103.4183615309585
 30
0.0
 10
61.71225189856466
 20
103.2176929762501
 30
0.0
 10
61.6785499262712
 20
102.7929268928739
 30
0.0
 10
61.66508466404697
 20
102.5715852919048
 30
0.0
 10
61.64697696032012
 20
102.1238849034748
 30
0.0
 10
61.6421754780543
 20
101.8941835784183
 30
0.0
 10
61.64211057153189
 20
101.432019972504
 30
0.0
 10
61.64678602816679
 20
101.2043528414948
 30
0.0
 10
61.66476859220892
 20
100.7556272289334
 30
0.0
 10
61.67830313999046
 20
100.5323889699066
 30
0.0
 10
61.71172974056013
 20
100.1095574047466
 30
0.0
 10
61.7315894136411
 20
99.90857658660468
 30
0.0
 10
61.77543659179263
 20
99.52740135963761
 30
0.0
 10
61.79933326994613
 20
99.34852314522362
 30
0.0
 10
61.84666424785054
 20
99.02663741790398
 30
0.0
 10
61.87038086486885
 20
98.8813322689554
 30
0.0
 10
61.91493681592224
 20
98.62467364449716
 30
0.0
 10
61.93509395551693
 20
98.51707320917552
 30
0.0
 10
61.96901491445091
 20
98.34186405919804
 30
0.0
 10
61.98286396670874
 20
98.27389354737748
 30
0.0
 10
62.00148913202579
 20
98.183535621389
 30
0.0
 10
62.00633809752873
 20
98.16071428571449
 30
0.0
 10
62.00633809752872
 20
98.16071428571449
 30
0.0
  0
SPLINE
  5
2A3
330
1F
100
AcDbEntity
  8
0
  6
HIDDEN
 62
     7
370
     0
100
AcDbSpline
210
0.0
220
0.0
230
1.0
 70
    11
 71
     3
 72
    74
 73
    70
 74
     0
 42
0.00000001
 43
0.00000001
 12
1.0
 22
0.0
 32
0.0
 13
1.0
 23
0.0
 33
0.0
 40
-0.0312499999999998
 40
-0.0312499999999998
 40
0.0
 40
0.0
 40
0.03125
 40
0.03125
 40
0.0624999999999999
 40
0.0624999999999999
 40
0.0937499999999999
 40
0.0937499999999999
 40
0.1249999999999998
 40
0.1249999999999998
 40
0.1562499999999998
 40
0.1562499999999998
 40
0.1874999999999998
 40
0.1874999999999998
 40
0.2187499999999997
 40
0.2187499999999997
 40
0.2499999999999997
 40
0.2499999999999997
 40
0.2812499999999996
 40
0.2812499999999996
 40
0.3124999999999996
 40
0.3124999999999996
 40
0.3437499999999996
 40
0.3437499999999996
 40
0.3749999999999995
 40
0.3749999999999995
 40
0.4062499999999994
 40
0.4062499999999994
 40
0.4374999999999994
 40
0.4374999999999994
 40
0.4687499999999994
 40
0.4687499999999994
 40
0.4843749999999998
 40
0.4843749999999998
 40
0.5000000000000002
 40
0.5000000000000002
 40
0.5312500000000002
 40
0.5312500000000002
 40
0.5625000000000001
 40
0.5625000000000001
 40
0.5937500000000001
 40
0.5937500000000001
 40
0.625
 40
0.625
 40
0.65625
 40
0.65625
 40
0.6875
 40
0.6875
 40
0.7187499999999999
 40
0.7187499999999999
 40
0.7499999999999999
 40
0.7499999999999999
 40
0.7812499999999999
 40
0.7812499999999999
 40
0.8124999999999998
 40
0.8124999999999998
 40
0.8437499999999998
 40
0.8437499999999998
 40
0.8749999999999997
 40
0.8749999999999997
 40
0.9062499999999997
 40
0.9062499999999997
 40
0.9374999999999997
 40
0.9374999999999997
 40
0.953125
 40
0.953125
 40
0.9687500000000002
 40
0.9687500000000002
 40
1.0
 40
1.0
 40
1.03125
 40
1.03125
 10
75.07142864287144
 20
98.16071428571435
 30
0.0
 10
75.07142864287144
 20
98.16071428571435
 30
0.0
 10
75.04694955024085
 20
98.18526918631761
 30
0.0
 10
74.95877468560894
 20
98.27886087880198
 30
0.0
 10
74.89448226639698
 20
98.34887702637978
 30
0.0
 10
74.74617612788057
 20
98.52468667419245
 30
0.0
 10
74.66108492591954
 20
98.63180499971166
 30
0.0
 10
74.48441323331339
 20
98.87927615235236
 30
0.0
 10
74.39363646832966
 20
99.01833085504296
 30
0.0
 10
74.21567539251043
 20
99.3286802990358
 30
0.0
 10
74.12798249674071
 20
99.50143492029893
 30
0.0
 10
73.96970396411984
 20
99.86950075062126
 30
0.0
 10
73.89820861092329
 20
100.0659793376293
 30
0.0
 10
73.77680467392778
 20
100.4874385082229
 30
0.0
 10
73.72712454468315
 20
100.7138201984198
 30
0.0
 10
73.66048042901471
 20
101.1738335235724
 30
0.0
 10
73.64255957773777
 20
101.4133301082956
 30
0.0
 10
73.64174082898387
 20
101.8909564532847
 30
0.0
 10
73.65835720382825
 20
102.1263570295892
 30
0.0
 10
73.72377756474823
 20
102.5905666684482
 30
0.0
 10
73.77238991341171
 20
102.8157141075434
 30
0.0
 10
73.89282211170467
 20
103.2394703714837
 30
0.0
 10
73.96579993437678
 20
103.4419004469078
 30
0.0
 10
74.12473242645588
 20
103.8133429747483
 30
0.0
 10
74.21099114554426
 20
103.9839760635479
 30
0.0
 10
74.39025243230614
 20
104.2977729871329
 30
0.0
 10
74.48151334376597
 20
104.4377753759881
 30
0.0
 10
74.65709798219744
 20
104.6843418407162
 30
0.0
 10
74.74236328642111
 20
104.7920522436489
 30
0.0
 10
74.89235613274936
 20
104.9701942491804
 30
0.0
 10
74.95584320755474
 20
105.0393987323797
 30
0.0
 10
75.0233579724267
 20
105.1111453286889
 30
0.0
 10
75.04120758453337
 20
105.1296560923032
 30
0.0
 10
75.06500623084479
 20
105.1541918728501
 30
0.0
 10
75.07115723663597
 20
105.1604373946
 30
0.0
 10
75.07194504406017
 20
105.1612411229778
 30
0.0
 10
75.04777801173735
 20
105.1370178652339
 30
0.0
 10
74.95945814864434
 20
105.0433136643962
 30
0.0
 10
74.89569182866262
 20
104.9739423039536
 30
0.0
 10
74.74650883485911
 20
104.7971789792939
 30
0.0
 10
74.66237538763012
 20
104.6912671895564
 30
0.0
 10
74.48675321651058
 20
104.4455907549501
 30
0.0
 10
74.39434483735906
 20
104.3042434084287
 30
0.0
 10
74.2162023860699
 20
103.993756331207
 30
0.0
 10
74.13006415004753
 20
103.8244479890546
 30
0.0
 10
73.9705901835327
 20
103.4543679355808
 30
0.0
 10
73.89714460958636
 20
103.2523222261442
 30
0.0
 10
73.77587752430084
 20
102.8301953311928
 30
0.0
 10
73.7268074243523
 20
102.6065936152334
 30
0.0
 10
73.65976490322203
 20
102.1414637497197
 30
0.0
 10
73.6425330092454
 20
101.906392794075
 30
0.0
 10
73.64176573947081
 20
101.4311816263268
 30
0.0
 10
73.65893923434102
 20
101.1895435798735
 30
0.0
 10
73.72437784891083
 20
100.7280259647
 30
0.0
 10
73.77307805391126
 20
100.5025816662927
 30
0.0
 10
73.89456256449367
 20
100.0765600675
 30
0.0
 10
73.96648345685058
 20
99.87762919466196
 30
0.0
 10
74.1263660931916
 20
99.50457340728529
 30
0.0
 10
74.21371265754061
 20
99.33239253700187
 30
0.0
 10
74.39164751457676
 20
99.02151638841663
 30
0.0
 10
74.48359180014899
 20
98.88048618446055
 30
0.0
 10
74.66059488754148
 20
98.63243243714257
 30
0.0
 10
74.74461342869543
 20
98.52663550709204
 30
0.0
 10
74.85560219164962
 20
98.39492094448437
 30
0.0
 10
74.89006459024915
 20
98.3555574807631
 30
0.0
 10
74.95204726280089
 20
98.28649625321708
 30
0.0
 10
74.97963441065303
 20
98.25673181528194
 30
0.0
 10
75.04674465575745
 20
98.18546308731787
 30
0.0
 10
75.07142864287144
 20
98.16071428571435
 30
0.0
 10
75.07142864287144
 20
98.16071428571435
 30
0.0
  0
SPLINE
  5
2A4
330
1F
100
AcDbEntity
  8
0
  6
HIDDEN
 62
     7
370
     0
100
AcDbSpline
210
0.0
220
0.0
230
1.0
 70
     8
 71
     3
 72
    10
 73
     6
 74
     0
 42
0.00000001
 43
0.00000001
 12
1.0
 22
0.0
 32
0.0
 13
1.0
 23
0.0
 33
0.0
 40
0.0
 40
0.0
 40
0.0
 40
0.0
 40
0.5
 40
0.5
 40
1.0
 40
1.0
 40
1.0
 40
1.0
 10
95.14403668785215
 20
104.5329956089833
 30
0.0
 10
95.2154624489767
 20
104.5972538726476
 30
0.0
 10
95.26609634041573
 20
104.6619620101389
 30
0.0
 10
95.33007426857252
 20
104.7868971447555
 30
0.0
 10
95.34155593406301
 20
104.8438385649197
 30
0.0
 10
95.33171291418557
 20
104.8946362561805
 30
0.0
  0
SPLINE
  5
2A5
330
1F
100
AcDbEntity
  8
0
  6
HIDDEN
 62
     7
370
     0
100
AcDbSpline
210
0.0
220
0.0
230
1.0
 70
     8
 71
     3
 72
    10
 73
     6
 74
     0
 42
0.00000001
 43
0.00000001
 12
1.0
 22
0.0
 32
0.0
 13
1.0
 23
0.0
 33
0.0
 40
0.0
 40
0.0
 40
0.0
 40
0.0
 40
0.5
 40
0.5
 40
1.0
 40
1.0
 40
1.0
 40
1.0
 10
94.98482474571506
 20
103.9337626109672
 30
0.0
 10
94.9684748111586
 20
104.0513147880972
 30
0.0
 10
94.96643329521378
 20
104.1614198306027
 30
0.0
 10
95.01242742499791
 20
104.3666672954382
 30
0.0
 10
95.05998452770108
 20
104.4573779917047
 30
0.0
 10
95.14403668785215
 20
104.5329956089833
 30
0.0
  0
SPLINE
  5
2A6
330
1F
100
AcDbEntity
  8
0
  6
HIDDEN
 62
     7
370
     0
100
AcDbSpline
210
0.0
220
0.0
230
1.0
 70
     8
 71
     3
 72
    20
 73
    16
 74
     0
 42
0.00000001
 43
0.00000001
 12
1.0
 22
0.0
 32
0.0
 13
1.0
 23
0.0
 33
0.0
 40
0.0
 40
0.0
 40
0.0
 40
0.0
 40
0.2500000000000012
 40
0.2500000000000012
 40
0.375000000000001
 40
0.375000000000001
 40
0.5000000000000009
 40
0.5000000000000009
 40
0.6250000000000007
 40
0.6250000000000007
 40
0.7500000000000004
 40
0.7500000000000004
 40
0.8750000000000003
 40
0.8750000000000003
 40
1.0
 40
1.0
 40
1.0
 40
1.0
 10
94.98482474571506
 20
103.9337626109672
 30
0.0
 10
95.02868757366495
 20
103.618399212858
 30
0.0
 10
95.06876019123919
 20
103.2633761025668
 30
0.0
 10
95.11180948923729
 20
102.6796114898936
 30
0.0
 10
95.1229747966676
 20
102.4811597149336
 30
0.0
 10
95.13813929893517
 20
102.0767112971953
 30
0.0
 10
95.14213368196664
 20
101.8688964034852
 30
0.0
 10
95.14215200015684
 20
101.4539891206188
 30
0.0
 10
95.13825127136037
 20
101.2490502438538
 30
0.0
 10
95.12316662562439
 20
100.8440652547804
 30
0.0
 10
95.11181333493445
 20
100.6420607377961
 30
0.0
 10
95.08328153195912
 20
100.2547769566744
 30
0.0
 10
95.06620152588893
 20
100.0694737571871
 30
0.0
 10
95.02800753029986
 20
99.71515819887797
 30
0.0
 10
95.00675690096061
 20
99.54535298907692
 30
0.0
 10
94.98482474571504
 20
99.38766596046128
 30
0.0
  0
SPLINE
  5
2A7
330
1F
100
AcDbEntity
  8
0
  6
HIDDEN
 62
     7
370
     0
100
AcDbSpline
210
0.0
220
0.0
230
1.0
 70
     8
 71
     3
 72
    10
 73
     6
 74
     0
 42
0.00000001
 43
0.00000001
 12
1.0
 22
0.0
 32
0.0
 13
1.0
 23
0.0
 33
0.0
 40
0.0
 40
0.0
 40
0.0
 40
0.0
 40
0.5
 40
0.5
 40
1.0
 40
1.0
 40
1.0
 40
1.0
 10
95.14403668785214
 20
98.78843296244524
 30
0.0
 10
95.06021857330698
 20
98.8638400203399
 30
0.0
 10
95.01223450357502
 20
98.9555184227834
 30
0.0
 10
94.96656787979313
 20
99.15951205307033
 30
0.0
 10
94.96849456411906
 20
99.27025580246301
 30
0.0
 10
94.98482474571504
 20
99.38766596046128
 30
0.0
  0
SPLINE
  5
2A8
330
1F
100
AcDbEntity
  8
0
  6
HIDDEN
 62
     7
370
     0
100
AcDbSpline
210
0.0
220
0.0
230
1.0
 70
     8
 71
     3
 72
    10
 73
     6
 74
     0
 42
0.00000001
 43
0.00000001
 12
1.0
 22
0.0
 32
0.0
 13
1.0
 23
0.0
 33
0.0
 40
0.0
 40
0.0
 40
0.0
 40
0.0
 40
0.5
 40
0.5
 40
1.0
 40
1.0
 40
1.0
 40
1.0
 10
95.33171291418556
 20
98.42679231524797
 30
0.0
 10
95.34155606053994
 20
98.47759065922891
 30
0.0
 10
95.33008855848094
 20
98.53447741726438
 30
0.0
 10
95.26615162658038
 20
98.65938467520577
 30
0.0
 10
95.21546152795774
 20
98.72417552737662
 30
0.0
 10
95.14403668785214
 20
98.78843296244524
 30
0.0
  0
SPLINE
  5
2A9
330
1F
100
AcDbEntity
  8
0
  6
HIDDEN
 62
     7
370
     0
100
AcDbSpline
210
0.0
220
0.0
230
1.0
 70
     8
 71
     3
 72
    46
 73
    42
 74
     0
 42
0.00000001
 43
0.00000001
 12
1.0
 22
0.0
 32
0.0
 13
1.0
 23
0.0
 33
0.0
 40
0.0
 40
0.0
 40
0.0
 40
0.0
 40
0.0625000000000005
 40
0.0625000000000005
 40
0.1250000000000011
 40
0.1250000000000011
 40
0.1562500000000014
 40
0.1562500000000014
 40
0.1875000000000016
 40
0.1875000000000016
 40
0.2500000000000021
 40
0.2500000000000021
 40
0.3125000000000027
 40
0.3125000000000027
 40
0.3750000000000032
 40
0.3750000000000032
 40
0.4062500000000031
 40
0.4062500000000031
 40
0.4375000000000031
 40
0.4375000000000031
 40
0.500000000000003
 40
0.500000000000003
 40
0.5312500000000029
 40
0.5312500000000029
 40
0.5625000000000029
 40
0.5625000000000029
 40
0.6250000000000024
 40
0.6250000000000024
 40
0.687500000000002
 40
0.687500000000002
 40
0.7500000000000014
 40
0.7500000000000014
 40
0.7812500000000013
 40
0.7812500000000013
 40
0.8125000000000011
 40
0.8125000000000011
 40
0.8750000000000008
 40
0.8750000000000008
 40
0.9375000000000004
 40
0.9375000000000004
 40
1.0
 40
1.0
 40
1.0
 40
1.0
 10
95.33171291418557
 20
104.8946362561805
 30
0.0
 10
95.31030674475284
 20
105.0051088549826
 30
0.0
 10
95.29459698357097
 20
105.0808913664356
 30
0.0
 10
95.27712659720223
 20
105.1648769052633
 30
0.0
 10
95.27563848435712
 20
105.1717903925669
 30
0.0
 10
95.28450375455635
 20
105.1294362135156
 30
0.0
 10
95.28925760023292
 20
105.1066698798849
 30
0.0
 10
95.30220693556254
 20
105.0435095986991
 30
0.0
 10
95.3104495301891
 20
105.0028672853331
 30
0.0
 10
95.33912597275372
 20
104.8576645379577
 30
0.0
 10
95.36364808473895
 20
104.7295338264617
 30
0.0
 10
95.41924016619896
 20
104.4094224063883
 30
0.0
 10
95.4493341126298
 20
104.2226816199752
 30
0.0
 10
95.50823920136182
 20
103.8008424659552
 30
0.0
 10
95.53724446997569
 20
103.5630943844633
 30
0.0
 10
95.57396877757884
 20
103.1868689754717
 30
0.0
 10
95.58519082081546
 20
103.0575041949729
 30
0.0
 10
95.60507456642873
 20
102.7906895845687
 30
0.0
 10
95.61377500861711
 20
102.6522509615296
 30
0.0
 10
95.63474662345762
 20
102.2344639687535
 30
0.0
 10
95.64209582901826
 20
101.9513099682983
 30
0.0
 10
95.64216603408227
 20
101.5195629212101
 30
0.0
 10
95.64032745804953
 20
101.3744424753056
 30
0.0
 10
95.63315766935727
 20
101.0900594626858
 30
0.0
 10
95.6278350555105
 20
100.9497413819997
 30
0.0
 10
95.60705221122406
 20
100.5343314388011
 30
0.0
 10
95.58638965345197
 20
100.2620559521084
 30
0.0
 10
95.53738109715397
 20
99.75948588237532
 30
0.0
 10
95.50871834768915
 20
99.52420674976375
 30
0.0
 10
95.44942576475538
 20
99.09921579987702
 30
0.0
 10
95.41947887659066
 20
98.9135095003544
 30
0.0
 10
95.37801702037471
 20
98.67457120424439
 30
0.0
 10
95.36472322400961
 20
98.60136603757982
 30
0.0
 10
95.34060753754373
 20
98.47236312138405
 30
0.0
 10
95.32969846887306
 20
98.41604063939897
 30
0.0
 10
95.30111562262582
 20
98.27127423437548
 30
0.0
 10
95.28756368594499
 20
98.20661331519452
 30
0.0
 10
95.27563193005994
 20
98.14960486793574
 30
0.0
 10
95.2769688495068
 20
98.15580193647772
 30
0.0
 10
95.29447431192713
 20
98.23993900925127
 30
0.0
 10
95.31030481643302
 20
98.31630976480557
 30
0.0
 10
95.33171291418556
 20
98.42679231524797
 30
0.0
  0
SPLINE
  5
2AA
330
1F
100
AcDbEntity
  8
0
  6
HIDDEN
 62
     7
370
     0
100
AcDbSpline
210
0.0
220
0.0
230
1.0
 70
    11
 71
     3
 72
    74
 73
    70
 74
     0
 42
0.00000001
 43
0.00000001
 12
1.0
 22
0.0
 32
0.0
 13
1.0
 23
0.0
 33
0.0
 40
-0.031250000000001
 40
-0.031250000000001
 40
0.0
 40
0.0
 40
0.0312499999999992
 40
0.0312499999999992
 40
0.0624999999999983
 40
0.0624999999999983
 40
0.0937499999999975
 40
0.0937499999999975
 40
0.1249999999999966
 40
0.1249999999999966
 40
0.1562499999999958
 40
0.1562499999999958
 40
0.1874999999999949
 40
0.1874999999999949
 40
0.2187499999999939
 40
0.2187499999999939
 40
0.2499999999999931
 40
0.2499999999999931
 40
0.2812499999999922
 40
0.2812499999999922
 40
0.3124999999999913
 40
0.3124999999999913
 40
0.3437499999999904
 40
0.3437499999999904
 40
0.3749999999999895
 40
0.3749999999999895
 40
0.4062499999999886
 40
0.4062499999999886
 40
0.4374999999999877
 40
0.4374999999999877
 40
0.4687499999999868
 40
0.4687499999999868
 40
0.4843749999999868
 40
0.4843749999999868
 40
0.4999999999999868
 40
0.4999999999999868
 40
0.5312499999999877
 40
0.5312499999999877
 40
0.5624999999999887
 40
0.5624999999999887
 40
0.5937499999999896
 40
0.5937499999999896
 40
0.6249999999999906
 40
0.6249999999999906
 40
0.6562499999999915
 40
0.6562499999999915
 40
0.6874999999999923
 40
0.6874999999999923
 40
0.7187499999999931
 40
0.7187499999999931
 40
0.7499999999999939
 40
0.7499999999999939
 40
0.7812499999999948
 40
0.7812499999999948
 40
0.8124999999999956
 40
0.8124999999999956
 40
0.8437499999999964
 40
0.8437499999999964
 40
0.8749999999999972
 40
0.8749999999999972
 40
0.9062499999999981
 40
0.9062499999999981
 40
0.9374999999999989
 40
0.9374999999999989
 40
0.9531249999999989
 40
0.9531249999999989
 40
0.968749999999999
 40
0.968749999999999
 40
1.0
 40
1.0
 40
1.031249999999999
 40
1.031249999999999
 10
82.21285707141432
 20
105.1607142857143
 30
0.0
 10
82.21285707141432
 20
105.1607142857143
 30
0.0
 10
82.23733616404488
 20
105.136159385111
 30
0.0
 10
82.3255110286768
 20
105.0425676926267
 30
0.0
 10
82.38980344788878
 20
104.9725515450488
 30
0.0
 10
82.53810958640517
 20
104.7967418972362
 30
0.0
 10
82.62320078836622
 20
104.689623571717
 30
0.0
 10
82.79987248097235
 20
104.4421524190763
 30
0.0
 10
82.89064924595608
 20
104.3030977163857
 30
0.0
 10
83.06861032177531
 20
103.9927482723929
 30
0.0
 10
83.15630321754504
 20
103.8199936511297
 30
0.0
 10
83.3145817501659
 20
103.4519278208074
 30
0.0
 10
83.38607710336247
 20
103.2554492337994
 30
0.0
 10
83.50748104035797
 20
102.8339900632058
 30
0.0
 10
83.55716116960261
 20
102.6076083730088
 30
0.0
 10
83.62380528527105
 20
102.1475950478563
 30
0.0
 10
83.641726136548
 20
101.9080984631331
 30
0.0
 10
83.64254488530192
 20
101.430472118144
 30
0.0
 10
83.62592851045753
 20
101.1950715418395
 30
0.0
 10
83.56050814953754
 20
100.7308619029805
 30
0.0
 10
83.51189580087404
 20
100.5057144638852
 30
0.0
 10
83.39146360258111
 20
100.0819581999449
 30
0.0
 10
83.31848577990901
 20
99.8795281245209
 30
0.0
 10
83.1595532878299
 20
99.50808559668037
 30
0.0
 10
83.07329456874153
 20
99.33745250788077
 30
0.0
 10
82.89403328197966
 20
99.02365558429577
 30
0.0
 10
82.80277237051982
 20
98.88365319544057
 30
0.0
 10
82.62718773208836
 20
98.63708673071247
 30
0.0
 10
82.54192242786468
 20
98.52937632777969
 30
0.0
 10
82.39192958153643
 20
98.35123432224829
 30
0.0
 10
82.32844250673108
 20
98.28202983904895
 30
0.0
 10
82.2609277418591
 20
98.21028324273972
 30
0.0
 10
82.24307812975243
 20
98.19177247912548
 30
0.0
 10
82.219279483441
 20
98.16723669857855
 30
0.0
 10
82.21312847764982
 20
98.16099117682865
 30
0.0
 10
82.21234067022561
 20
98.16018744845088
 30
0.0
 10
82.23650770254844
 20
98.18441070619473
 30
0.0
 10
82.32482756564146
 20
98.27811490703247
 30
0.0
 10
82.38859388562317
 20
98.34748626747509
 30
0.0
 10
82.53777687942667
 20
98.52424959213471
 30
0.0
 10
82.62191032665565
 20
98.63016138187228
 30
0.0
 10
82.79753249777522
 20
98.87583781647857
 30
0.0
 10
82.88994087692672
 20
99.01718516299997
 30
0.0
 10
83.06808332821589
 20
99.3276722402217
 30
0.0
 10
83.15422156423826
 20
99.49698058237408
 30
0.0
 10
83.31369553075308
 20
99.86706063584782
 30
0.0
 10
83.38714110469941
 20
100.0691063452845
 30
0.0
 10
83.50840818998493
 20
100.4912332402358
 30
0.0
 10
83.55747828993348
 20
100.7148349561953
 30
0.0
 10
83.62452081106375
 20
101.1799648217089
 30
0.0
 10
83.64175270504039
 20
101.4150357773537
 30
0.0
 10
83.64251997481495
 20
101.8902469451018
 30
0.0
 10
83.62534647994474
 20
102.1318849915551
 30
0.0
 10
83.55990786537492
 20
102.5934026067287
 30
0.0
 10
83.51120766037451
 20
102.8188469051359
 30
0.0
 10
83.38972314979209
 20
103.2448685039286
 30
0.0
 10
83.31780225743518
 20
103.4437993767667
 30
0.0
 10
83.15791962109415
 20
103.8168551641434
 30
0.0
 10
83.07057305674515
 20
103.9890360344268
 30
0.0
 10
82.89263819970898
 20
104.299912183012
 30
0.0
 10
82.80069391413677
 20
104.4409423869681
 30
0.0
 10
82.62369082674427
 20
104.6889961342861
 30
0.0
 10
82.53967228559033
 20
104.7947930643366
 30
0.0
 10
82.42868352263613
 20
104.9265076269443
 30
0.0
 10
82.3942211240366
 20
104.9658710906656
 30
0.0
 10
82.33223845148486
 20
105.0349323182116
 30
0.0
 10
82.30465130363271
 20
105.0646967561467
 30
0.0
 10
82.23754105852831
 20
105.1359654841108
 30
0.0
 10
82.21285707141432
 20
105.1607142857143
 30
0.0
 10
82.21285707141432
 20
105.1607142857143
 30
0.0
  0
SPLINE
  5
2AB
330
1F
100
AcDbEntity
  8
0
  6
HIDDEN
 62
     7
370
     0
100
AcDbSpline
210
0.0
220
0.0
230
1.0
 70
     8
 71
     3
 72
    10
 73
     6
 74
     0
 42
0.00000001
 43
0.00000001
 12
1.0
 22
0.0
 32
0.0
 13
1.0
 23
0.0
 33
0.0
 40
0.0
 40
0.0
 40
0.0
 40
0.0
 40
0.5
 40
0.5
 40
1.0
 40
1.0
 40
1.0
 40
1.0
 10
75.76986153387386
 20
118.1626081164236
 30
0.0
 10
75.70560327020956
 20
118.2340338775481
 30
0.0
 10
75.6408951327183
 20
118.2846677689872
 30
0.0
 10
75.51595999810164
 20
118.3486456971439
 30
0.0
 10
75.45901857793744
 20
118.3601273626344
 30
0.0
 10
75.4082208866766
 20
118.350284342757
 30
0.0
  0
SPLINE
  5
2AC
330
1F
100
AcDbEntity
  8
0
  6
HIDDEN
 62
     7
370
     0
100
AcDbSpline
210
0.0
220
0.0
230
1.0
 70
     8
 71
     3
 72
    10
 73
     6
 74
     0
 42
0.00000001
 43
0.00000001
 12
1.0
 22
0.0
 32
0.0
 13
1.0
 23
0.0
 33
0.0
 40
0.0
 40
0.0
 40
0.0
 40
0.0
 40
0.5
 40
0.5
 40
1.0
 40
1.0
 40
1.0
 40
1.0
 10
76.3690945318899
 20
118.0033961742865
 30
0.0
 10
76.25154235475989
 20
117.98704623973
 30
0.0
 10
76.14143731225448
 20
117.9850047237852
 30
0.0
 10
75.93618984741899
 20
118.0309988535693
 30
0.0
 10
75.8454791511524
 20
118.0785559562725
 30
0.0
 10
75.76986153387388
 20
118.1626081164236
 30
0.0
  0
SPLINE
  5
2AD
330
1F
100
AcDbEntity
  8
0
  6
HIDDEN
 62
     7
370
     0
100
AcDbSpline
210
0.0
220
0.0
230
1.0
 70
     8
 71
     3
 72
    20
 73
    16
 74
     0
 42
0.00000001
 43
0.00000001
 12
1.0
 22
0.0
 32
0.0
 13
1.0
 23
0.0
 33
0.0
 40
0.0
 40
0.0
 40
0.0
 40
0.0
 40
0.2500000000000012
 40
0.2500000000000012
 40
0.375000000000001
 40
0.375000000000001
 40
0.5000000000000008
 40
0.5000000000000008
 40
0.6250000000000006
 40
0.6250000000000006
 40
0.7500000000000003
 40
0.7500000000000003
 40
0.8750000000000002
 40
0.8750000000000002
 40
1.0
 40
1.0
 40
1.0
 40
1.0
 10
76.3690945318899
 20
118.0033961742865
 30
0.0
 10
76.68445792999917
 20
118.0472590022364
 30
0.0
 10
77.03948104029034
 20
118.0873316198106
 30
0.0
 10
77.62324565296358
 20
118.1303809178087
 30
0.0
 10
77.8216974279235
 20
118.141546225239
 30
0.0
 10
78.22614584566189
 20
118.1567107275066
 30
0.0
 10
78.43396073937195
 20
118.1607051105381
 30
0.0
 10
78.84886802223836
 20
118.1607234287283
 30
0.0
 10
79.05380689900335
 20
118.1568226999318
 30
0.0
 10
79.45879188807673
 20
118.1417380541958
 30
0.0
 10
79.66079640506109
 20
118.1303847635059
 30
0.0
 10
80.04808018618273
 20
118.1018529605306
 30
0.0
 10
80.23338338567008
 20
118.0847729544604
 30
0.0
 10
80.58769894397918
 20
118.0465789588713
 30
0.0
 10
80.75750415378022
 20
118.025328329532
 30
0.0
 10
80.91519118239586
 20
118.0033961742865
 30
0.0
  0
SPLINE
  5
2AE
330
1F
100
AcDbEntity
  8
0
  6
HIDDEN
 62
     7
370
     0
100
AcDbSpline
210
0.0
220
0.0
230
1.0
 70
     8
 71
     3
 72
    10
 73
     6
 74
     0
 42
0.00000001
 43
0.00000001
 12
1.0
 22
0.0
 32
0.0
 13
1.0
 23
0.0
 33
0.0
 40
0.0
 40
0.0
 40
0.0
 40
0.0
 40
0.5
 40
0.5
 40
1.0
 40
1.0
 40
1.0
 40
1.0
 10
81.5144241804119
 20
118.1626081164236
 30
0.0
 10
81.43901712251724
 20
118.0787900018784
 30
0.0
 10
81.34733872007374
 20
118.0308059321464
 30
0.0
 10
81.1433450897868
 20
117.9851393083646
 30
0.0
 10
81.03260134039412
 20
117.9870659926905
 30
0.0
 10
80.91519118239587
 20
118.0033961742865
 30
0.0
  0
SPLINE
  5
2AF
330
1F
100
AcDbEntity
  8
0
  6
HIDDEN
 62
     7
370
     0
100
AcDbSpline
210
0.0
220
0.0
230
1.0
 70
     8
 71
     3
 72
    10
 73
     6
 74
     0
 42
0.00000001
 43
0.00000001
 12
1.0
 22
0.0
 32
0.0
 13
1.0
 23
0.0
 33
0.0
 40
0.0
 40
0.0
 40
0.0
 40
0.0
 40
0.5
 40
0.5
 40
1.0
 40
1.0
 40
1.0
 40
1.0
 10
81.87606482760917
 20
118.350284342757
 30
0.0
 10
81.82526648362823
 20
118.3601274891114
 30
0.0
 10
81.76837972559275
 20
118.3486599870524
 30
0.0
 10
81.64347246765136
 20
118.2847230551518
 30
0.0
 10
81.57868161548053
 20
118.2340329565292
 30
0.0
 10
81.5144241804119
 20
118.1626081164236
 30
0.0
  0
SPLINE
  5
2B0
330
1F
100
AcDbEntity
  8
0
  6
HIDDEN
 62
     7
370
     0
100
AcDbSpline
210
0.0
220
0.0
230
1.0
 70
     8
 71
     3
 72
    46
 73
    42
 74
     0
 42
0.00000001
 43
0.00000001
 12
1.0
 22
0.0
 32
0.0
 13
1.0
 23
0.0
 33
0.0
 40
0.0
 40
0.0
 40
0.0
 40
0.0
 40
0.0625000000000006
 40
0.0625000000000006
 40
0.1250000000000012
 40
0.1250000000000012
 40
0.1562500000000016
 40
0.1562500000000016
 40
0.1875000000000019
 40
0.1875000000000019
 40
0.2500000000000025
 40
0.2500000000000025
 40
0.3125000000000031
 40
0.3125000000000031
 40
0.3750000000000038
 40
0.3750000000000038
 40
0.4062500000000037
 40
0.4062500000000037
 40
0.4375000000000037
 40
0.4375000000000037
 40
0.5000000000000036
 40
0.5000000000000036
 40
0.5312500000000036
 40
0.5312500000000036
 40
0.5625000000000036
 40
0.5625000000000036
 40
0.625000000000003
 40
0.625000000000003
 40
0.6875000000000026
 40
0.6875000000000026
 40
0.750000000000002
 40
0.750000000000002
 40
0.7812500000000018
 40
0.7812500000000018
 40
0.8125000000000016
 40
0.8125000000000016
 40
0.8750000000000011
 40
0.8750000000000011
 40
0.9375000000000006
 40
0.9375000000000006
 40
1.0
 40
1.0
 40
1.0
 40
1.0
 10
75.40822088667659
 20
118.350284342757
 30
0.0
 10
75.29774828787451
 20
118.3288781733242
 30
0.0
 10
75.22196577642156
 20
118.3131684121424
 30
0.0
 10
75.13798023759388
 20
118.2956980257736
 30
0.0
 10
75.13106675029027
 20
118.2942099129285
 30
0.0
 10
75.17342092934153
 20
118.3030751831278
 30
0.0
 10
75.19618726297224
 20
118.3078290288043
 30
0.0
 10
75.259347544158
 20
118.320778364134
 30
0.0
 10
75.299989857524
 20
118.3290209587605
 30
0.0
 10
75.44519260489939
 20
118.3576974013251
 30
0.0
 10
75.57332331639545
 20
118.3822195133104
 30
0.0
 10
75.89343473646888
 20
118.4378115947704
 30
0.0
 10
76.08017552288197
 20
118.4679055412012
 30
0.0
 10
76.50201467690198
 20
118.5268106299332
 30
0.0
 10
76.73976275839385
 20
118.5558158985471
 30
0.0
 10
77.1159881673854
 20
118.5925402061503
 30
0.0
 10
77.24535294788423
 20
118.6037622493869
 30
0.0
 10
77.5121675582884
 20
118.6236459950001
 30
0.0
 10
77.65060618132749
 20
118.6323464371885
 30
0.0
 10
78.06839317410362
 20
118.653318052029
 30
0.0
 10
78.35154717455886
 20
118.6606672575897
 30
0.0
 10
78.783294221647
 20
118.6607374626537
 30
0.0
 10
78.92841466755154
 20
118.658898886621
 30
0.0
 10
79.21279768017129
 20
118.6517290979287
 30
0.0
 10
79.35311576085746
 20
118.6464064840819
 30
0.0
 10
79.76852570405606
 20
118.6256236397955
 30
0.0
 10
80.04080119074872
 20
118.6049610820234
 30
0.0
 10
80.54337126048182
 20
118.5559525257254
 30
0.0
 10
80.77865039309339
 20
118.5272897762606
 30
0.0
 10
81.20364134298012
 20
118.4679971933268
 30
0.0
 10
81.38934764250274
 20
118.4380503051621
 30
0.0
 10
81.62828593861275
 20
118.3965884489461
 30
0.0
 10
81.70149110527731
 20
118.3832946525811
 30
0.0
 10
81.83049402147309
 20
118.3591789661152
 30
0.0
 10
81.88681650345816
 20
118.3482698974445
 30
0.0
 10
82.03158290848165
 20
118.3196870511972
 30
0.0
 10
82.09624382766262
 20
118.3061351145164
 30
0.0
 10
82.1532522749214
 20
118.2942033586314
 30
0.0
 10
82.14705520637942
 20
118.2955402780782
 30
0.0
 10
82.06291813360586
 20
118.3130457404986
 30
0.0
 10
81.98654737805157
 20
118.3288762450045
 30
0.0
 10
81.87606482760917
 20
118.350284342757
 30
0.0
  0
SPLINE
  5
2B1
330
1F
100
AcDbEntity
  8
0
  6
HIDDEN
 62
     7
370
     0
100
AcDbSpline
210
0.0
220
0.0
230
1.0
 70
    11
 71
     3
 72
    74
 73
    70
 74
     0
 42
0.00000001
 43
0.00000001
 12
1.0
 22
0.0
 32
0.0
 13
1.0
 23
0.0
 33
0.0
 40
-0.0312500000000008
 40
-0.0312500000000008
 40
0.0
 40
0.0
 40
0.0312499999999991
 40
0.0312499999999991
 40
0.0624999999999983
 40
0.0624999999999983
 40
0.0937499999999974
 40
0.0937499999999974
 40
0.1249999999999965
 40
0.1249999999999965
 40
0.1562499999999957
 40
0.1562499999999957
 40
0.1874999999999948
 40
0.1874999999999948
 40
0.2187499999999939
 40
0.2187499999999939
 40
0.2499999999999931
 40
0.2499999999999931
 40
0.2812499999999922
 40
0.2812499999999922
 40
0.3124999999999913
 40
0.3124999999999913
 40
0.3437499999999905
 40
0.3437499999999905
 40
0.3749999999999896
 40
0.3749999999999896
 40
0.4062499999999887
 40
0.4062499999999887
 40
0.4374999999999878
 40
0.4374999999999878
 40
0.468749999999987
 40
0.468749999999987
 40
0.484374999999987
 40
0.484374999999987
 40
0.4999999999999869
 40
0.4999999999999869
 40
0.5312499999999878
 40
0.5312499999999878
 40
0.5624999999999887
 40
0.5624999999999887
 40
0.5937499999999896
 40
0.5937499999999896
 40
0.6249999999999905
 40
0.6249999999999905
 40
0.6562499999999915
 40
0.6562499999999915
 40
0.6874999999999923
 40
0.6874999999999923
 40
0.7187499999999932
 40
0.7187499999999932
 40
0.7499999999999941
 40
0.7499999999999941
 40
0.781249999999995
 40
0.781249999999995
 40
0.8124999999999959
 40
0.8124999999999959
 40
0.8437499999999968
 40
0.8437499999999968
 40
0.8749999999999976
 40
0.8749999999999976
 40
0.9062499999999984
 40
0.9062499999999984
 40
0.9374999999999992
 40
0.9374999999999992
 40
0.9531249999999992
 40
0.9531249999999992
 40
0.9687499999999992
 40
0.9687499999999992
 40
1.0
 40
1.0
 40
1.031249999999999
 40
1.031249999999999
 10
75.1421428571429
 20
105.2314284999857
 30
0.0
 10
75.1421428571429
 20
105.2314284999857
 30
0.0
 10
75.16669775774615
 20
105.2559075926163
 30
0.0
 10
75.26028945023053
 20
105.3440824572482
 30
0.0
 10
75.33030559780833
 20
105.4083748764602
 30
0.0
 10
75.50611524562098
 20
105.5566810149766
 30
0.0
 10
75.6132335711402
 20
105.6417722169376
 30
0.0
 10
75.86070472378088
 20
105.8184439095438
 30
0.0
 10
75.99975942647148
 20
105.9092206745275
 30
0.0
 10
76.31010887046432
 20
106.0871817503467
 30
0.0
 10
76.48286349172746
 20
106.1748746461165
 30
0.0
 10
76.8509293220498
 20
106.3331531787373
 30
0.0
 10
77.04740790905777
 20
106.4046485319339
 30
0.0
 10
77.46886707965139
 20
106.5260524689294
 30
0.0
 10
77.69524876984836
 20
106.575732598174
 30
0.0
 10
78.1552620950009
 20
106.6423767138425
 30
0.0
 10
78.39475867972412
 20
106.6602975651194
 30
0.0
 10
78.87238502471324
 20
106.6611163138733
 30
0.0
 10
79.10778560101772
 20
106.644499939029
 30
0.0
 10
79.5719952398767
 20
106.579079578109
 30
0.0
 10
79.79714267897195
 20
106.5304672294455
 30
0.0
 10
80.22089894291223
 20
106.4100350311525
 30
0.0
 10
80.42332901833628
 20
106.3370572084805
 30
0.0
 10
80.79477154617682
 20
106.1781247164013
 30
0.0
 10
80.96540463497641
 20
106.091865997313
 30
0.0
 10
81.27920155856141
 20
105.9126047105511
 30
0.0
 10
81.41920394741662
 20
105.8213437990913
 30
0.0
 10
81.66577041214471
 20
105.6457591606598
 30
0.0
 10
81.77348081507749
 20
105.5604938564361
 30
0.0
 10
81.9516228206089
 20
105.4105010101079
 30
0.0
 10
82.02082730380823
 20
105.3470139353025
 30
0.0
 10
82.09257390011746
 20
105.2794991704305
 30
0.0
 10
82.1110846637317
 20
105.2616495583239
 30
0.0
 10
82.13562044427863
 20
105.2378509120124
 30
0.0
 10
82.14186596602855
 20
105.2316999062213
 30
0.0
 10
82.1426696944063
 20
105.2309120987971
 30
0.0
 10
82.11844643666245
 20
105.2550791311199
 30
0.0
 10
82.0247422358247
 20
105.3433989942129
 30
0.0
 10
81.95537087538209
 20
105.4071653141946
 30
0.0
 10
81.77860755072247
 20
105.5563483079981
 30
0.0
 10
81.67269576098491
 20
105.6404817552271
 30
0.0
 10
81.42701932637863
 20
105.8161039263467
 30
0.0
 10
81.28567197985721
 20
105.9085123054982
 30
0.0
 10
80.97518490263549
 20
106.0866547567873
 30
0.0
 10
80.8058765604831
 20
106.1727929928097
 30
0.0
 10
80.43579650700936
 20
106.3322669593245
 30
0.0
 10
80.2337507975727
 20
106.4057125332708
 30
0.0
 10
79.81162390262135
 20
106.5269796185564
 30
0.0
 10
79.58802218666189
 20
106.5760497185049
 30
0.0
 10
79.12289232114826
 20
106.6430922396352
 30
0.0
 10
78.88782136550348
 20
106.6603241336118
 30
0.0
 10
78.41261019775536
 20
106.6610914033864
 30
0.0
 10
78.17097215130205
 20
106.6439179085162
 30
0.0
 10
77.70945453612849
 20
106.5784792939464
 30
0.0
 10
77.48401023772125
 20
106.5297790889459
 30
0.0
 10
77.05798863892855
 20
106.4082945783635
 30
0.0
 10
76.85905776609047
 20
106.3363736860066
 30
0.0
 10
76.4860019787138
 20
106.1764910496656
 30
0.0
 10
76.31382110843037
 20
106.0891444853166
 30
0.0
 10
76.00294495984514
 20
105.9112096282804
 30
0.0
 10
75.86191475588907
 20
105.8192653427082
 30
0.0
 10
75.61386100857109
 20
105.6422622553157
 30
0.0
 10
75.50806407852058
 20
105.5582437141617
 30
0.0
 10
75.37634951591289
 20
105.4472549512076
 30
0.0
 10
75.33698605219162
 20
105.412792552608
 30
0.0
 10
75.26792482464562
 20
105.3508098800563
 30
0.0
 10
75.23816038671046
 20
105.3232227322041
 30
0.0
 10
75.16689165874641
 20
105.2561124870997
 30
0.0
 10
75.1421428571429
 20
105.2314284999857
 30
0.0
 10
75.1421428571429
 20
105.2314284999857
 30
0.0
  0
SPLINE
  5
2B2
330
1F
100
AcDbEntity
  8
0
  6
HIDDEN
 62
     7
370
     0
100
AcDbSpline
210
0.0
220
0.0
230
1.0
 70
     8
 71
     3
 72
    10
 73
     6
 74
     0
 42
0.00000001
 43
0.00000001
 12
1.0
 22
0.0
 32
0.0
 13
1.0
 23
0.0
 33
0.0
 40
0.0
 40
0.0
 40
0.0
 40
0.0
 40
0.5
 40
0.5
 40
1.0
 40
1.0
 40
1.0
 40
1.0
 10
62.1402490264336
 20
98.78843296244548
 30
0.0
 10
62.06882326530907
 20
98.72417469878116
 30
0.0
 10
62.01818937387002
 20
98.65946656128989
 30
0.0
 10
61.95421144571324
 20
98.53453142667323
 30
0.0
 10
61.94272978022273
 20
98.47759000650905
 30
0.0
 10
61.95257280010018
 20
98.4267923152482
 30
0.0
  0
SPLINE
  5
2B3
330
1F
100
AcDbEntity
  8
0
  6
HIDDEN
 62
     7
370
     0
100
AcDbSpline
210
0.0
220
0.0
230
1.0
 70
     8
 71
     3
 72
    10
 73
     6
 74
     0
 42
0.00000001
 43
0.00000001
 12
1.0
 22
0.0
 32
0.0
 13
1.0
 23
0.0
 33
0.0
 40
0.0
 40
0.0
 40
0.0
 40
0.0
 40
0.5
 40
0.5
 40
1.0
 40
1.0
 40
1.0
 40
1.0
 10
62.29946096857071
 20
99.3876659604615
 30
0.0
 10
62.31581090312716
 20
99.2701137833315
 30
0.0
 10
62.31785241907198
 20
99.16000874082607
 30
0.0
 10
62.27185828928783
 20
98.95476127599058
 30
0.0
 10
62.22430118658468
 20
98.864050579724
 30
0.0
 10
62.14024902643361
 20
98.78843296244548
 30
0.0
  0
SPLINE
  5
2B4
330
1F
100
AcDbEntity
  8
0
  6
HIDDEN
 62
     7
370
     0
100
AcDbSpline
210
0.0
220
0.0
230
1.0
 70
     8
 71
     3
 72
    20
 73
    16
 74
     0
 42
0.00000001
 43
0.00000001
 12
1.0
 22
0.0
 32
0.0
 13
1.0
 23
0.0
 33
0.0
 40
0.0
 40
0.0
 40
0.0
 40
0.0
 40
0.2500000000000011
 40
0.2500000000000011
 40
0.3750000000000009
 40
0.3750000000000009
 40
0.5000000000000007
 40
0.5000000000000007
 40
0.6250000000000004
 40
0.6250000000000004
 40
0.7500000000000003
 40
0.7500000000000003
 40
0.8750000000000002
 40
0.8750000000000002
 40
1.0
 40
1.0
 40
1.0
 40
1.0
 10
62.2994609685707
 20
99.3876659604615
 30
0.0
 10
62.2555981406208
 20
99.70302935857077
 30
0.0
 10
62.21552552304657
 20
100.0580524688619
 30
0.0
 10
62.17247622504848
 20
100.6418170815352
 30
0.0
 10
62.16131091761816
 20
100.8402688564951
 30
0.0
 10
62.14614641535059
 20
101.2447172742335
 30
0.0
 10
62.14215203231912
 20
101.4525321679435
 30
0.0
 10
62.14213371412893
 20
101.86743945081
 30
0.0
 10
62.1460344429254
 20
102.0723783275749
 30
0.0
 10
62.16111908866137
 20
102.4773633166483
 30
0.0
 10
62.17247237935132
 20
102.6793678336327
 30
0.0
 10
62.20100418232666
 20
103.0666516147543
 30
0.0
 10
62.21808418839684
 20
103.2519548142417
 30
0.0
 10
62.25627818398592
 20
103.6062703725508
 30
0.0
 10
62.27752881332519
 20
103.7760755823518
 30
0.0
 10
62.29946096857075
 20
103.9337626109675
 30
0.0
  0
SPLINE
  5
2B5
330
1F
100
AcDbEntity
  8
0
  6
HIDDEN
 62
     7
370
     0
100
AcDbSpline
210
0.0
220
0.0
230
1.0
 70
     8
 71
     3
 72
    10
 73
     6
 74
     0
 42
0.00000001
 43
0.00000001
 12
1.0
 22
0.0
 32
0.0
 13
1.0
 23
0.0
 33
0.0
 40
0.0
 40
0.0
 40
0.0
 40
0.0
 40
0.5
 40
0.5
 40
1.0
 40
1.0
 40
1.0
 40
1.0
 10
62.14024902643366
 20
104.5329956089835
 30
0.0
 10
62.2240671409788
 20
104.4575885510888
 30
0.0
 10
62.27205121071079
 20
104.3659101486453
 30
0.0
 10
62.31771783449266
 20
104.1619165183584
 30
0.0
 10
62.31579115016672
 20
104.0511727689657
 30
0.0
 10
62.29946096857076
 20
103.9337626109675
 30
0.0
  0
SPLINE
  5
2B6
330
1F
100
AcDbEntity
  8
0
  6
HIDDEN
 62
     7
370
     0
100
AcDbSpline
210
0.0
220
0.0
230
1.0
 70
     8
 71
     3
 72
    10
 73
     6
 74
     0
 42
0.00000001
 43
0.00000001
 12
1.0
 22
0.0
 32
0.0
 13
1.0
 23
0.0
 33
0.0
 40
0.0
 40
0.0
 40
0.0
 40
0.0
 40
0.5
 40
0.5
 40
1.0
 40
1.0
 40
1.0
 40
1.0
 10
61.95257280010023
 20
104.8946362561808
 30
0.0
 10
61.94272965374585
 20
104.8438379121998
 30
0.0
 10
61.95419715580486
 20
104.7869511541644
 30
0.0
 10
62.01813408770541
 20
104.662043896223
 30
0.0
 10
62.06882418632804
 20
104.5972530440521
 30
0.0
 10
62.14024902643366
 20
104.5329956089835
 30
0.0
  0
SPLINE
  5
2B7
330
1F
100
AcDbEntity
  8
0
  6
HIDDEN
 62
     7
370
     0
100
AcDbSpline
210
0.0
220
0.0
230
1.0
 70
     8
 71
     3
 72
    46
 73
    42
 74
     0
 42
0.00000001
 43
0.00000001
 12
1.0
 22
0.0
 32
0.0
 13
1.0
 23
0.0
 33
0.0
 40
0.0
 40
0.0
 40
0.0
 40
0.0
 40
0.0625000000000009
 40
0.0625000000000009
 40
0.1250000000000017
 40
0.1250000000000017
 40
0.1562500000000022
 40
0.1562500000000022
 40
0.1875000000000026
 40
0.1875000000000026
 40
0.2500000000000034
 40
0.2500000000000034
 40
0.3125000000000043
 40
0.3125000000000043
 40
0.3750000000000052
 40
0.3750000000000052
 40
0.4062500000000052
 40
0.4062500000000052
 40
0.4375000000000052
 40
0.4375000000000052
 40
0.500000000000005
 40
0.500000000000005
 40
0.5312500000000049
 40
0.5312500000000049
 40
0.5625000000000048
 40
0.5625000000000048
 40
0.625000000000004
 40
0.625000000000004
 40
0.6875000000000033
 40
0.6875000000000033
 40
0.7500000000000027
 40
0.7500000000000027
 40
0.7812500000000023
 40
0.7812500000000023
 40
0.812500000000002
 40
0.812500000000002
 40
0.8750000000000013
 40
0.8750000000000013
 40
0.9375000000000007
 40
0.9375000000000007
 40
1.0
 40
1.0
 40
1.0
 40
1.0
 10
61.95257280010018
 20
98.4267923152482
 30
0.0
 10
61.97397896953291
 20
98.31631971644612
 30
0.0
 10
61.98968873071477
 20
98.24053720499315
 30
0.0
 10
62.00715911708352
 20
98.15655166616548
 30
0.0
 10
62.00864722992862
 20
98.14963817886186
 30
0.0
 10
61.9997819597294
 20
98.19199235791314
 30
0.0
 10
61.99502811405283
 20
98.21475869154384
 30
0.0
 10
61.98207877872321
 20
98.27791897272961
 30
0.0
 10
61.97383618409665
 20
98.31856128609559
 30
0.0
 10
61.94515974153203
 20
98.46376403347098
 30
0.0
 10
61.92063762954679
 20
98.59189474496706
 30
0.0
 10
61.86504554808679
 20
98.91200616504048
 30
0.0
 10
61.83495160165594
 20
99.09874695145358
 30
0.0
 10
61.77604651292395
 20
99.52058610547358
 30
0.0
 10
61.74704124431006
 20
99.75833418696544
 30
0.0
 10
61.71031693670692
 20
100.134559595957
 30
0.0
 10
61.69909489347029
 20
100.2639243764558
 30
0.0
 10
61.67921114785705
 20
100.53073898686
 30
0.0
 10
61.67051070566867
 20
100.6691776098991
 30
0.0
 10
61.64953909082816
 20
101.0869646026752
 30
0.0
 10
61.64218988526753
 20
101.3701186031305
 30
0.0
 10
61.6421196802035
 20
101.8018656502186
 30
0.0
 10
61.64395825623624
 20
101.9469860961231
 30
0.0
 10
61.65112804492851
 20
102.2313691087429
 30
0.0
 10
61.65645065877527
 20
102.3716871894291
 30
0.0
 10
61.67723350306172
 20
102.7870971326277
 30
0.0
 10
61.69789606083382
 20
103.0593726193203
 30
0.0
 10
61.74690461713181
 20
103.5619426890534
 30
0.0
 10
61.77556736659665
 20
103.797221821665
 30
0.0
 10
61.83485994953043
 20
104.2222127715517
 30
0.0
 10
61.86480683769513
 20
104.4079190710744
 30
0.0
 10
61.90626869391109
 20
104.6468573671844
 30
0.0
 10
61.91956249027618
 20
104.7200625338489
 30
0.0
 10
61.94367817674208
 20
104.8490654500447
 30
0.0
 10
61.95458724541274
 20
104.9053879320298
 30
0.0
 10
61.98317009165999
 20
105.0501543370533
 30
0.0
 10
61.99672202834081
 20
105.1148152562342
 30
0.0
 10
62.00865378422586
 20
105.171823703493
 30
0.0
 10
62.00731686477899
 20
105.165626634951
 30
0.0
 10
61.98981140235867
 20
105.0814895621775
 30
0.0
 10
61.97398089785277
 20
105.0051188066232
 30
0.0
 10
61.95257280010024
 20
104.8946362561808
 30
0.0
  0
SPLINE
  5
2B8
330
1F
100
AcDbEntity
  8
0
  6
HIDDEN
 62
     7
370
     0
100
AcDbSpline
210
0.0
220
0.0
230
1.0
 70
    11
 71
     3
 72
    74
 73
    70
 74
     0
 42
0.00000001
 43
0.00000001
 12
1.0
 22
0.0
 32
0.0
 13
1.0
 23
0.0
 33
0.0
 40
-0.0312499999999992
 40
-0.0312499999999992
 40
0.0
 40
0.0
 40
0.0312500000000009
 40
0.0312500000000009
 40
0.0625000000000018
 40
0.0625000000000018
 40
0.0937500000000028
 40
0.0937500000000028
 40
0.1250000000000037
 40
0.1250000000000037
 40
0.1562500000000047
 40
0.1562500000000047
 40
0.1875000000000057
 40
0.1875000000000057
 40
0.2187500000000066
 40
0.2187500000000066
 40
0.2500000000000075
 40
0.2500000000000075
 40
0.2812500000000085
 40
0.2812500000000085
 40
0.3125000000000095
 40
0.3125000000000095
 40
0.3437500000000105
 40
0.3437500000000105
 40
0.3750000000000115
 40
0.3750000000000115
 40
0.4062500000000124
 40
0.4062500000000124
 40
0.4375000000000134
 40
0.4375000000000134
 40
0.4687500000000144
 40
0.4687500000000144
 40
0.4843750000000144
 40
0.4843750000000144
 40
0.5000000000000144
 40
0.5000000000000144
 40
0.5312500000000135
 40
0.5312500000000135
 40
0.5625000000000128
 40
0.5625000000000128
 40
0.5937500000000119
 40
0.5937500000000119
 40
0.625000000000011
 40
0.625000000000011
 40
0.6562500000000102
 40
0.6562500000000102
 40
0.6875000000000093
 40
0.6875000000000093
 40
0.7187500000000084
 40
0.7187500000000084
 40
0.7500000000000075
 40
0.7500000000000075
 40
0.7812500000000068
 40
0.7812500000000068
 40
0.8125000000000059
 40
0.8125000000000059
 40
0.843750000000005
 40
0.843750000000005
 40
0.8750000000000042
 40
0.8750000000000042
 40
0.9062500000000033
 40
0.9062500000000033
 40
0.9375000000000024
 40
0.9375000000000024
 40
0.9531250000000017
 40
0.9531250000000017
 40
0.9687500000000008
 40
0.9687500000000008
 40
1.0
 40
1.0
 40
1.031250000000001
 40
1.031250000000001
 10
75.07142864287144
 20
98.16071428571435
 30
0.0
 10
75.07142864287142
 20
98.16071428571435
 30
0.0
 10
75.04694955024085
 20
98.18526918631761
 30
0.0
 10
74.95877468560894
 20
98.27886087880198
 30
0.0
 10
74.89448226639698
 20
98.3488770263798
 30
0.0
 10
74.74617612788057
 20
98.52468667419245
 30
0.0
 10
74.66108492591954
 20
98.63180499971166
 30
0.0
 10
74.48441323331339
 20
98.87927615235236
 30
0.0
 10
74.39363646832966
 20
99.01833085504296
 30
0.0
 10
74.21567539251043
 20
99.3286802990358
 30
0.0
 10
74.12798249674071
 20
99.50143492029893
 30
0.0
 10
73.96970396411984
 20
99.86950075062126
 30
0.0
 10
73.89820861092329
 20
100.0659793376293
 30
0.0
 10
73.77680467392778
 20
100.4874385082229
 30
0.0
 10
73.72712454468315
 20
100.7138201984198
 30
0.0
 10
73.66048042901471
 20
101.1738335235724
 30
0.0
 10
73.64255957773777
 20
101.4133301082956
 30
0.0
 10
73.64174082898387
 20
101.8909564532847
 30
0.0
 10
73.65835720382825
 20
102.1263570295892
 30
0.0
 10
73.72377756474823
 20
102.5905666684482
 30
0.0
 10
73.77238991341173
 20
102.8157141075434
 30
0.0
 10
73.89282211170469
 20
103.2394703714837
 30
0.0
 10
73.96579993437678
 20
103.4419004469078
 30
0.0
 10
74.12473242645588
 20
103.8133429747483
 30
0.0
 10
74.21099114554424
 20
103.9839760635479
 30
0.0
 10
74.39025243230614
 20
104.2977729871329
 30
0.0
 10
74.48151334376598
 20
104.4377753759881
 30
0.0
 10
74.65709798219744
 20
104.6843418407162
 30
0.0
 10
74.74236328642111
 20
104.792052243649
 30
0.0
 10
74.89235613274936
 20
104.9701942491804
 30
0.0
 10
74.95584320755474
 20
105.0393987323797
 30
0.0
 10
75.0233579724267
 20
105.1111453286889
 30
0.0
 10
75.04120758453337
 20
105.1296560923032
 30
0.0
 10
75.06500623084479
 20
105.1541918728501
 30
0.0
 10
75.07115723663597
 20
105.1604373946
 30
0.0
 10
75.07194504406017
 20
105.1612411229778
 30
0.0
 10
75.04777801173735
 20
105.1370178652339
 30
0.0
 10
74.95945814864434
 20
105.0433136643962
 30
0.0
 10
74.89569182866262
 20
104.9739423039536
 30
0.0
 10
74.74650883485911
 20
104.7971789792939
 30
0.0
 10
74.66237538763012
 20
104.6912671895564
 30
0.0
 10
74.48675321651058
 20
104.4455907549501
 30
0.0
 10
74.39434483735906
 20
104.3042434084287
 30
0.0
 10
74.2162023860699
 20
103.993756331207
 30
0.0
 10
74.13006415004753
 20
103.8244479890546
 30
0.0
 10
73.9705901835327
 20
103.4543679355808
 30
0.0
 10
73.89714460958636
 20
103.2523222261442
 30
0.0
 10
73.77587752430084
 20
102.8301953311928
 30
0.0
 10
73.7268074243523
 20
102.6065936152334
 30
0.0
 10
73.65976490322203
 20
102.1414637497197
 30
0.0
 10
73.6425330092454
 20
101.906392794075
 30
0.0
 10
73.64176573947081
 20
101.4311816263268
 30
0.0
 10
73.65893923434102
 20
101.1895435798735
 30
0.0
 10
73.72437784891083
 20
100.7280259647
 30
0.0
 10
73.77307805391126
 20
100.5025816662927
 30
0.0
 10
73.89456256449367
 20
100.0765600675
 30
0.0
 10
73.96648345685058
 20
99.87762919466196
 30
0.0
 10
74.1263660931916
 20
99.50457340728529
 30
0.0
 10
74.21371265754061
 20
99.33239253700185
 30
0.0
 10
74.39164751457676
 20
99.02151638841661
 30
0.0
 10
74.48359180014899
 20
98.88048618446055
 30
0.0
 10
74.66059488754148
 20
98.63243243714257
 30
0.0
 10
74.74461342869543
 20
98.52663550709204
 30
0.0
 10
74.85560219164962
 20
98.39492094448437
 30
0.0
 10
74.89006459024915
 20
98.35555748076308
 30
0.0
 10
74.95204726280089
 20
98.28649625321708
 30
0.0
 10
74.97963441065305
 20
98.25673181528194
 30
0.0
 10
75.04674465575745
 20
98.18546308731787
 30
0.0
 10
75.07142864287144
 20
98.16071428571435
 30
0.0
 10
75.07142864287142
 20
98.16071428571435
 30
0.0
  0
SPLINE
  5
2B9
330
1F
100
AcDbEntity
  8
0
  6
HIDDEN
 62
     7
370
     0
100
AcDbSpline
210
0.0
220
0.0
230
1.0
 70
    11
 71
     3
 72
    70
 73
    66
 74
     0
 42
0.00000001
 43
0.00000001
 12
1.0
 22
0.0
 32
0.0
 13
1.0
 23
0.0
 33
0.0
 40
-0.0312499999999999
 40
-0.0312499999999999
 40
0.0
 40
0.0
 40
0.03125
 40
0.03125
 40
0.0625
 40
0.0625
 40
0.09375
 40
0.09375
 40
0.125
 40
0.125
 40
0.15625
 40
0.15625
 40
0.1875
 40
0.1875
 40
0.21875
 40
0.21875
 40
0.25
 40
0.25
 40
0.2812499999999999
 40
0.2812499999999999
 40
0.3124999999999999
 40
0.3124999999999999
 40
0.3437499999999999
 40
0.3437499999999999
 40
0.3749999999999999
 40
0.3749999999999999
 40
0.40625
 40
0.40625
 40
0.4375
 40
0.4375
 40
0.46875
 40
0.46875
 40
0.5
 40
0.5
 40
0.53125
 40
0.53125
 40
0.5625
 40
0.5625
 40
0.59375
 40
0.59375
 40
0.625
 40
0.625
 40
0.65625
 40
0.65625
 40
0.6875
 40
0.6875
 40
0.71875
 40
0.71875
 40
0.75
 40
0.75
 40
0.7812500000000001
 40
0.7812500000000001
 40
0.8125000000000001
 40
0.8125000000000001
 40
0.8437500000000001
 40
0.8437500000000001
 40
0.8750000000000001
 40
0.8750000000000001
 40
0.9062500000000001
 40
0.9062500000000001
 40
0.9375000000000001
 40
0.9375000000000001
 40
0.9687500000000001
 40
0.9687500000000001
 40
1.0
 40
1.0
 40
1.03125
 40
1.03125
 10
94.76665835374001
 20
105.1607142857142
 30
0.0
 10
94.76665835374
 20
105.1607142857142
 30
0.0
 10
94.7716605238421
 20
105.1378889902923
 30
0.0
 10
94.79065455787062
 20
105.0485829280879
 30
0.0
 10
94.80487558091635
 20
104.9809724026573
 30
0.0
 10
94.84001302415864
 20
104.8050814900599
 30
0.0
 10
94.86078337083403
 20
104.6975449247635
 30
0.0
 10
94.90628215389376
 20
104.4435928993977
 30
0.0
 10
94.93111222564056
 20
104.2962360369407
 30
0.0
 10
94.97993856332972
 20
103.9743541565555
 30
0.0
 10
95.0041884342812
 20
103.79859394375
 30
0.0
 10
95.04961677825321
 20
103.4162382612494
 30
0.0
 10
95.07026659576509
 20
103.2135591036398
 30
0.0
 10
95.10462125770106
 20
102.7926955184192
 30
0.0
 10
95.11854431346697
 20
102.5714170158708
 30
0.0
 10
95.13731968375278
 20
102.1193272723877
 30
0.0
 10
95.14211361387578
 20
101.8917986413566
 30
0.0
 10
95.14217183375746
 20
101.4338250542764
 30
0.0
 10
95.13727497354088
 20
101.2011574517631
 30
0.0
 10
95.11862251663447
 20
100.7517621134766
 30
0.0
 10
95.10495586916205
 20
100.5332593546847
 30
0.0
 10
95.07036684984956
 20
100.1086758404216
 30
0.0
 10
95.04954749981052
 20
99.90475711263002
 30
0.0
 10
95.004617465537
 20
99.52629694330093
 30
0.0
 10
94.98019557523459
 20
99.34877455131928
 30
0.0
 10
94.93088146148315
 20
99.02366543631976
 30
0.0
 10
94.90653610392987
 20
98.87933316916423
 30
0.0
 10
94.86116324892238
 20
98.6259249795726
 30
0.0
 10
94.83994764753729
 20
98.51601522975992
 30
0.0
 10
94.80487596300502
 20
98.34046267944821
 30
0.0
 10
94.79089213969625
 20
98.2739725213273
 30
0.0
 10
94.77172479913455
 20
98.18383212694225
 30
0.0
 10
94.76667888853422
 20
98.16080888961066
 30
0.0
 10
94.76663794805536
 20
98.16062027662652
 30
0.0
 10
94.77148832681587
 20
98.18273520160143
 30
0.0
 10
94.79066456084396
 20
98.27288746388852
 30
0.0
 10
94.80474663876923
 20
98.33984648884244
 30
0.0
 10
94.83963652328381
 20
98.51442713075413
 30
0.0
 10
94.86074256663623
 20
98.62365300405963
 30
0.0
 10
94.90634593134875
 20
98.87819454161618
 30
0.0
 10
94.93067459536012
 20
99.02247366718096
 30
0.0
 10
94.97962510108893
 20
99.34484432456867
 30
0.0
 10
95.0043600274597
 20
99.52431646428225
 30
0.0
 10
95.04935469119883
 20
99.90294689141993
 30
0.0
 10
95.06988933312115
 20
100.1036080404168
 30
0.0
 10
95.10463098432751
 20
100.5284957553652
 30
0.0
 10
95.11849863217343
 20
100.7497234597746
 30
0.0
 10
95.13716024820413
 20
101.197459303102
 30
0.0
 10
95.14211030533497
 20
101.4273490662778
 30
0.0
 10
95.14217508470291
 20
101.8894534527177
 30
0.0
 10
95.1373581870736
 20
102.117135617006
 30
0.0
 10
95.1188221150241
 20
102.5659710699177
 30
0.0
 10
95.10486977412313
 20
102.7892524325613
 30
0.0
 10
95.07042585825312
 20
103.2120019854614
 30
0.0
 10
95.04995808418174
 20
103.4129834625757
 30
0.0
 10
95.00475163987107
 20
103.7942281985382
 30
0.0
 10
94.98013442932773
 20
103.9729681304644
 30
0.0
 10
94.93134671014619
 20
104.2947841956916
 30
0.0
 10
94.9068692961183
 20
104.4402193223113
 30
0.0
 10
94.86094945451434
 20
104.6967127936576
 30
0.0
 10
94.84016310827384
 20
104.804298696855
 30
0.0
 10
94.80516912309457
 20
104.9795340958534
 30
0.0
 10
94.79087448285182
 20
105.0475416530319
 30
0.0
 10
94.77166296607761
 20
105.1378846569579
 30
0.0
 10
94.76665835374001
 20
105.1607142857142
 30
0.0
 10
94.76665835374
 20
105.1607142857142
 30
0.0
  0
SPLINE
  5
2BA
330
1F
100
AcDbEntity
  8
0
  6
HIDDEN
 62
     7
370
     0
100
AcDbSpline
210
0.0
220
0.0
230
1.0
 70
    11
 71
     3
 72
    74
 73
    70
 74
     0
 42
0.00000001
 43
0.00000001
 12
1.0
 22
0.0
 32
0.0
 13
1.0
 23
0.0
 33
0.0
 40
-0.03125
 40
-0.03125
 40
0.0
 40
0.0
 40
0.03125
 40
0.03125
 40
0.0625
 40
0.0625
 40
0.09375
 40
0.09375
 40
0.125
 40
0.125
 40
0.15625
 40
0.15625
 40
0.1875
 40
0.1875
 40
0.21875
 40
0.21875
 40
0.25
 40
0.25
 40
0.28125
 40
0.28125
 40
0.3125
 40
0.3125
 40
0.34375
 40
0.34375
 40
0.375
 40
0.375
 40
0.40625
 40
0.40625
 40
0.4375
 40
0.4375
 40
0.46875
 40
0.46875
 40
0.484375
 40
0.484375
 40
0.5
 40
0.5
 40
0.53125
 40
0.53125
 40
0.5625
 40
0.5625
 40
0.59375
 40
0.59375
 40
0.625
 40
0.625
 40
0.65625
 40
0.65625
 40
0.6875
 40
0.6875
 40
0.71875
 40
0.71875
 40
0.75
 40
0.75
 40
0.78125
 40
0.78125
 40
0.8125
 40
0.8125
 40
0.84375
 40
0.84375
 40
0.875
 40
0.875
 40
0.90625
 40
0.90625
 40
0.9375
 40
0.9375
 40
0.953125
 40
0.953125
 40
0.96875
 40
0.96875
 40
1.0
 40
1.0
 40
1.03125
 40
1.03125
 10
82.21285707141433
 20
105.1607142857143
 30
0.0
 10
82.21285707141432
 20
105.1607142857143
 30
0.0
 10
82.23733616404489
 20
105.136159385111
 30
0.0
 10
82.3255110286768
 20
105.0425676926266
 30
0.0
 10
82.38980344788878
 20
104.9725515450488
 30
0.0
 10
82.53810958640517
 20
104.7967418972362
 30
0.0
 10
82.62320078836622
 20
104.689623571717
 30
0.0
 10
82.79987248097235
 20
104.4421524190763
 30
0.0
 10
82.8906492459561
 20
104.3030977163857
 30
0.0
 10
83.06861032177531
 20
103.9927482723929
 30
0.0
 10
83.15630321754504
 20
103.8199936511297
 30
0.0
 10
83.3145817501659
 20
103.4519278208074
 30
0.0
 10
83.38607710336247
 20
103.2554492337994
 30
0.0
 10
83.50748104035797
 20
102.8339900632058
 30
0.0
 10
83.55716116960261
 20
102.6076083730088
 30
0.0
 10
83.62380528527105
 20
102.1475950478563
 30
0.0
 10
83.641726136548
 20
101.9080984631331
 30
0.0
 10
83.6425448853019
 20
101.430472118144
 30
0.0
 10
83.62592851045753
 20
101.1950715418395
 30
0.0
 10
83.56050814953754
 20
100.7308619029805
 30
0.0
 10
83.51189580087406
 20
100.5057144638852
 30
0.0
 10
83.39146360258111
 20
100.081958199945
 30
0.0
 10
83.31848577990903
 20
99.8795281245209
 30
0.0
 10
83.1595532878299
 20
99.50808559668037
 30
0.0
 10
83.07329456874153
 20
99.33745250788078
 30
0.0
 10
82.89403328197966
 20
99.02365558429577
 30
0.0
 10
82.80277237051982
 20
98.88365319544059
 30
0.0
 10
82.62718773208836
 20
98.63708673071247
 30
0.0
 10
82.54192242786469
 20
98.5293763277797
 30
0.0
 10
82.39192958153644
 20
98.35123432224829
 30
0.0
 10
82.32844250673108
 20
98.28202983904896
 30
0.0
 10
82.2609277418591
 20
98.21028324273973
 30
0.0
 10
82.24307812975245
 20
98.19177247912548
 30
0.0
 10
82.21927948344101
 20
98.16723669857855
 30
0.0
 10
82.21312847764983
 20
98.16099117682865
 30
0.0
 10
82.21234067022563
 20
98.1601874484509
 30
0.0
 10
82.23650770254844
 20
98.18441070619473
 30
0.0
 10
82.32482756564146
 20
98.27811490703247
 30
0.0
 10
82.38859388562317
 20
98.34748626747509
 30
0.0
 10
82.53777687942667
 20
98.52424959213472
 30
0.0
 10
82.62191032665567
 20
98.63016138187228
 30
0.0
 10
82.79753249777522
 20
98.87583781647857
 30
0.0
 10
82.88994087692672
 20
99.01718516299997
 30
0.0
 10
83.06808332821589
 20
99.3276722402217
 30
0.0
 10
83.15422156423826
 20
99.49698058237408
 30
0.0
 10
83.31369553075308
 20
99.86706063584782
 30
0.0
 10
83.38714110469941
 20
100.0691063452845
 30
0.0
 10
83.50840818998493
 20
100.4912332402358
 30
0.0
 10
83.55747828993348
 20
100.7148349561953
 30
0.0
 10
83.62452081106375
 20
101.1799648217089
 30
0.0
 10
83.64175270504039
 20
101.4150357773537
 30
0.0
 10
83.64251997481495
 20
101.8902469451018
 30
0.0
 10
83.62534647994474
 20
102.1318849915551
 30
0.0
 10
83.55990786537492
 20
102.5934026067287
 30
0.0
 10
83.51120766037451
 20
102.8188469051359
 30
0.0
 10
83.38972314979209
 20
103.2448685039286
 30
0.0
 10
83.31780225743518
 20
103.4437993767667
 30
0.0
 10
83.15791962109415
 20
103.8168551641434
 30
0.0
 10
83.07057305674516
 20
103.9890360344268
 30
0.0
 10
82.89263819970898
 20
104.299912183012
 30
0.0
 10
82.80069391413677
 20
104.4409423869681
 30
0.0
 10
82.62369082674428
 20
104.6889961342861
 30
0.0
 10
82.53967228559033
 20
104.7947930643366
 30
0.0
 10
82.42868352263613
 20
104.9265076269443
 30
0.0
 10
82.3942211240366
 20
104.9658710906656
 30
0.0
 10
82.33223845148487
 20
105.0349323182116
 30
0.0
 10
82.30465130363272
 20
105.0646967561467
 30
0.0
 10
82.23754105852831
 20
105.1359654841108
 30
0.0
 10
82.21285707141433
 20
105.1607142857143
 30
0.0
 10
82.21285707141432
 20
105.1607142857143
 30
0.0
  0
SPLINE
  5
2BB
330
1F
100
AcDbEntity
  8
0
  6
HIDDEN
 62
     7
370
     0
100
AcDbSpline
210
0.0
220
0.0
230
1.0
 70
    11
 71
     3
 72
    70
 73
    66
 74
     0
 42
0.00000001
 43
0.00000001
 12
1.0
 22
0.0
 32
0.0
 13
1.0
 23
0.0
 33
0.0
 40
-0.03125
 40
-0.03125
 40
0.0
 40
0.0
 40
0.03125
 40
0.03125
 40
0.0625
 40
0.0625
 40
0.09375
 40
0.09375
 40
0.125
 40
0.125
 40
0.15625
 40
0.15625
 40
0.1875
 40
0.1875
 40
0.21875
 40
0.21875
 40
0.25
 40
0.25
 40
0.28125
 40
0.28125
 40
0.3125
 40
0.3125
 40
0.34375
 40
0.34375
 40
0.375
 40
0.375
 40
0.40625
 40
0.40625
 40
0.4375
 40
0.4375
 40
0.46875
 40
0.46875
 40
0.5
 40
0.5
 40
0.53125
 40
0.53125
 40
0.5625
 40
0.5625
 40
0.59375
 40
0.59375
 40
0.625
 40
0.625
 40
0.65625
 40
0.65625
 40
0.6875
 40
0.6875
 40
0.71875
 40
0.71875
 40
0.75
 40
0.75
 40
0.78125
 40
0.78125
 40
0.8125
 40
0.8125
 40
0.84375
 40
0.84375
 40
0.875
 40
0.875
 40
0.90625
 40
0.90625
 40
0.9375
 40
0.9375
 40
0.96875
 40
0.96875
 40
1.0
 40
1.0
 40
1.03125
 40
1.03125
 10
75.1421428571429
 20
117.7852297823114
 30
0.0
 10
75.1421428571429
 20
117.7852297823114
 30
0.0
 10
75.16496815256485
 20
117.7902319524135
 30
0.0
 10
75.25427421476923
 20
117.809225986442
 30
0.0
 10
75.32188474019983
 20
117.8234470094878
 30
0.0
 10
75.49777565279724
 20
117.85858445273
 30
0.0
 10
75.60531221809362
 20
117.8793547994054
 30
0.0
 10
75.85926424345946
 20
117.9248535824652
 30
0.0
 10
76.00662110591641
 20
117.949683654212
 30
0.0
 10
76.32850298630164
 20
117.9985099919011
 30
0.0
 10
76.50426319910714
 20
118.0227598628526
 30
0.0
 10
76.88661888160777
 20
118.0681882068246
 30
0.0
 10
77.0892980392173
 20
118.0888380243365
 30
0.0
 10
77.51016162443791
 20
118.1231926862725
 30
0.0
 10
77.73144012698631
 20
118.1371157420384
 30
0.0
 10
78.18352987046943
 20
118.1558911123242
 30
0.0
 10
78.41105850150052
 20
118.1606850424472
 30
0.0
 10
78.86903208858071
 20
118.1607432623289
 30
0.0
 10
79.10169969109408
 20
118.1558464021123
 30
0.0
 10
79.55109502938056
 20
118.1371939452059
 30
0.0
 10
79.7695977881724
 20
118.1235272977335
 30
0.0
 10
80.19418130243557
 20
118.088938278421
 30
0.0
 10
80.39810003022711
 20
118.0681189283819
 30
0.0
 10
80.7765601995562
 20
118.0231888941084
 30
0.0
 10
80.95408259153785
 20
117.998767003806
 30
0.0
 10
81.27919170653739
 20
117.9494528900546
 30
0.0
 10
81.42352397369291
 20
117.9251075325013
 30
0.0
 10
81.67693216328455
 20
117.8797346774938
 30
0.0
 10
81.78684191309722
 20
117.8585190761087
 30
0.0
 10
81.96239446340893
 20
117.8234473915765
 30
0.0
 10
82.02888462152984
 20
117.8094635682677
 30
0.0
 10
82.11902501591489
 20
117.790296227706
 30
0.0
 10
82.14204825324647
 20
117.7852503171056
 30
0.0
 10
82.14223686623062
 20
117.7852093766268
 30
0.0
 10
82.1201219412557
 20
117.7900597553873
 30
0.0
 10
82.02996967896861
 20
117.8092359894154
 30
0.0
 10
81.96301065401471
 20
117.8233180673407
 30
0.0
 10
81.788430012103
 20
117.8582079518552
 30
0.0
 10
81.6792041387975
 20
117.8793139952077
 30
0.0
 10
81.42466260124097
 20
117.9249173599202
 30
0.0
 10
81.28038347567617
 20
117.9492460239315
 30
0.0
 10
80.9580128182885
 20
117.9981965296604
 30
0.0
 10
80.77854067857488
 20
118.0229314560311
 30
0.0
 10
80.3999102514372
 20
118.0679261197703
 30
0.0
 10
80.19924910244029
 20
118.0884607616926
 30
0.0
 10
79.77436138749195
 20
118.1232024128989
 30
0.0
 10
79.55313368308255
 20
118.1370700607448
 30
0.0
 10
79.10539783975511
 20
118.1557316767756
 30
0.0
 10
78.87550807657934
 20
118.1606817339064
 30
0.0
 10
78.41340369013948
 20
118.1607465132743
 30
0.0
 10
78.18572152585112
 20
118.155929615645
 30
0.0
 10
77.7368860729395
 20
118.1373935435955
 30
0.0
 10
77.51360471029582
 20
118.1234412026946
 30
0.0
 10
77.0908551573957
 20
118.0889972868245
 30
0.0
 10
76.88987368028141
 20
118.0685295127531
 30
0.0
 10
76.50862894431899
 20
118.0233230684425
 30
0.0
 10
76.3298890123927
 20
117.9987058578992
 30
0.0
 10
76.00807294716556
 20
117.9499181387176
 30
0.0
 10
75.8626378205458
 20
117.9254407246897
 30
0.0
 10
75.60614434919952
 20
117.8795208830858
 30
0.0
 10
75.49855844600214
 20
117.8587345368453
 30
0.0
 10
75.3233230470038
 20
117.823740551666
 30
0.0
 10
75.2553154898252
 20
117.8094459114232
 30
0.0
 10
75.16497248589926
 20
117.790234394649
 30
0.0
 10
75.1421428571429
 20
117.7852297823114
 30
0.0
 10
75.1421428571429
 20
117.7852297823114
 30
0.0
  0
SPLINE
  5
2BC
330
1F
100
AcDbEntity
  8
0
  6
HIDDEN
 62
     7
370
     0
100
AcDbSpline
210
0.0
220
0.0
230
1.0
 70
    11
 71
     3
 72
    74
 73
    70
 74
     0
 42
0.00000001
 43
0.00000001
 12
1.0
 22
0.0
 32
0.0
 13
1.0
 23
0.0
 33
0.0
 40
-0.0312499999999997
 40
-0.0312499999999997
 40
0.0
 40
0.0
 40
0.0312500000000002
 40
0.0312500000000002
 40
0.0625000000000004
 40
0.0625000000000004
 40
0.0937500000000007
 40
0.0937500000000007
 40
0.1250000000000009
 40
0.1250000000000009
 40
0.1562500000000011
 40
0.1562500000000011
 40
0.1875000000000014
 40
0.1875000000000014
 40
0.2187500000000016
 40
0.2187500000000016
 40
0.2500000000000018
 40
0.2500000000000018
 40
0.2812500000000021
 40
0.2812500000000021
 40
0.3125000000000023
 40
0.3125000000000023
 40
0.3437500000000025
 40
0.3437500000000025
 40
0.3750000000000027
 40
0.3750000000000027
 40
0.4062500000000029
 40
0.4062500000000029
 40
0.4375000000000032
 40
0.4375000000000032
 40
0.4687500000000034
 40
0.4687500000000034
 40
0.4843750000000035
 40
0.4843750000000035
 40
0.5000000000000037
 40
0.5000000000000037
 40
0.5312500000000034
 40
0.5312500000000034
 40
0.5625000000000032
 40
0.5625000000000032
 40
0.593750000000003
 40
0.593750000000003
 40
0.6250000000000028
 40
0.6250000000000028
 40
0.6562500000000026
 40
0.6562500000000026
 40
0.6875000000000023
 40
0.6875000000000023
 40
0.7187500000000021
 40
0.7187500000000021
 40
0.7500000000000019
 40
0.7500000000000019
 40
0.7812500000000017
 40
0.7812500000000017
 40
0.8125000000000014
 40
0.8125000000000014
 40
0.8437500000000012
 40
0.8437500000000012
 40
0.875000000000001
 40
0.875000000000001
 40
0.9062500000000008
 40
0.9062500000000008
 40
0.9375000000000006
 40
0.9375000000000006
 40
0.9531250000000004
 40
0.9531250000000004
 40
0.9687500000000003
 40
0.9687500000000003
 40
1.0
 40
1.0
 40
1.03125
 40
1.03125
 10
75.1421428571429
 20
105.2314284999857
 30
0.0
 10
75.1421428571429
 20
105.2314284999857
 30
0.0
 10
75.16669775774615
 20
105.2559075926163
 30
0.0
 10
75.26028945023053
 20
105.3440824572482
 30
0.0
 10
75.33030559780833
 20
105.4083748764602
 30
0.0
 10
75.50611524562099
 20
105.5566810149766
 30
0.0
 10
75.61323357114021
 20
105.6417722169376
 30
0.0
 10
75.8607047237809
 20
105.8184439095438
 30
0.0
 10
75.99975942647148
 20
105.9092206745275
 30
0.0
 10
76.31010887046433
 20
106.0871817503467
 30
0.0
 10
76.48286349172746
 20
106.1748746461165
 30
0.0
 10
76.8509293220498
 20
106.3331531787373
 30
0.0
 10
77.04740790905778
 20
106.4046485319339
 30
0.0
 10
77.4688670796514
 20
106.5260524689294
 30
0.0
 10
77.69524876984838
 20
106.575732598174
 30
0.0
 10
78.1552620950009
 20
106.6423767138425
 30
0.0
 10
78.39475867972413
 20
106.6602975651194
 30
0.0
 10
78.87238502471325
 20
106.6611163138733
 30
0.0
 10
79.10778560101774
 20
106.644499939029
 30
0.0
 10
79.5719952398767
 20
106.579079578109
 30
0.0
 10
79.79714267897197
 20
106.5304672294455
 30
0.0
 10
80.22089894291223
 20
106.4100350311525
 30
0.0
 10
80.42332901833629
 20
106.3370572084805
 30
0.0
 10
80.79477154617683
 20
106.1781247164013
 30
0.0
 10
80.96540463497641
 20
106.091865997313
 30
0.0
 10
81.27920155856141
 20
105.9126047105511
 30
0.0
 10
81.41920394741662
 20
105.8213437990913
 30
0.0
 10
81.66577041214471
 20
105.6457591606598
 30
0.0
 10
81.77348081507749
 20
105.5604938564361
 30
0.0
 10
81.95162282060889
 20
105.4105010101079
 30
0.0
 10
82.02082730380823
 20
105.3470139353025
 30
0.0
 10
82.09257390011746
 20
105.2794991704305
 30
0.0
 10
82.1110846637317
 20
105.2616495583239
 30
0.0
 10
82.13562044427863
 20
105.2378509120124
 30
0.0
 10
82.14186596602853
 20
105.2316999062213
 30
0.0
 10
82.1426696944063
 20
105.2309120987971
 30
0.0
 10
82.11844643666245
 20
105.2550791311199
 30
0.0
 10
82.0247422358247
 20
105.3433989942129
 30
0.0
 10
81.95537087538209
 20
105.4071653141946
 30
0.0
 10
81.77860755072246
 20
105.5563483079981
 30
0.0
 10
81.67269576098491
 20
105.6404817552271
 30
0.0
 10
81.42701932637863
 20
105.8161039263467
 30
0.0
 10
81.2856719798572
 20
105.9085123054982
 30
0.0
 10
80.97518490263549
 20
106.0866547567873
 30
0.0
 10
80.8058765604831
 20
106.1727929928097
 30
0.0
 10
80.43579650700934
 20
106.3322669593245
 30
0.0
 10
80.2337507975727
 20
106.4057125332708
 30
0.0
 10
79.81162390262135
 20
106.5269796185564
 30
0.0
 10
79.58802218666187
 20
106.5760497185049
 30
0.0
 10
79.12289232114826
 20
106.6430922396352
 30
0.0
 10
78.88782136550348
 20
106.6603241336118
 30
0.0
 10
78.41261019775536
 20
106.6610914033864
 30
0.0
 10
78.17097215130205
 20
106.6439179085162
 30
0.0
 10
77.70945453612849
 20
106.5784792939463
 30
0.0
 10
77.48401023772125
 20
106.5297790889459
 30
0.0
 10
77.05798863892855
 20
106.4082945783635
 30
0.0
 10
76.85905776609047
 20
106.3363736860066
 30
0.0
 10
76.48600197871382
 20
106.1764910496656
 30
0.0
 10
76.31382110843039
 20
106.0891444853166
 30
0.0
 10
76.00294495984515
 20
105.9112096282804
 30
0.0
 10
75.86191475588907
 20
105.8192653427082
 30
0.0
 10
75.6138610085711
 20
105.6422622553157
 30
0.0
 10
75.50806407852058
 20
105.5582437141617
 30
0.0
 10
75.37634951591289
 20
105.4472549512076
 30
0.0
 10
75.33698605219162
 20
105.412792552608
 30
0.0
 10
75.26792482464563
 20
105.3508098800563
 30
0.0
 10
75.23816038671048
 20
105.3232227322041
 30
0.0
 10
75.16689165874642
 20
105.2561124870997
 30
0.0
 10
75.1421428571429
 20
105.2314284999857
 30
0.0
 10
75.1421428571429
 20
105.2314284999857
 30
0.0
  0
SPLINE
  5
2BD
330
1F
100
AcDbEntity
  8
0
  6
HIDDEN
 62
     7
370
     0
100
AcDbSpline
210
0.0
220
0.0
230
1.0
 70
    11
 71
     3
 72
    70
 73
    66
 74
     0
 42
0.00000001
 43
0.00000001
 12
1.0
 22
0.0
 32
0.0
 13
1.0
 23
0.0
 33
0.0
 40
-0.03125
 40
-0.03125
 40
0.0
 40
0.0
 40
0.03125
 40
0.03125
 40
0.0625
 40
0.0625
 40
0.09375
 40
0.09375
 40
0.125
 40
0.125
 40
0.15625
 40
0.15625
 40
0.1875
 40
0.1875
 40
0.21875
 40
0.21875
 40
0.25
 40
0.25
 40
0.28125
 40
0.28125
 40
0.3125
 40
0.3125
 40
0.34375
 40
0.34375
 40
0.375
 40
0.375
 40
0.40625
 40
0.40625
 40
0.4375
 40
0.4375
 40
0.46875
 40
0.46875
 40
0.5
 40
0.5
 40
0.53125
 40
0.53125
 40
0.5625
 40
0.5625
 40
0.59375
 40
0.59375
 40
0.625
 40
0.625
 40
0.65625
 40
0.65625
 40
0.6875
 40
0.6875
 40
0.71875
 40
0.71875
 40
0.75
 40
0.75
 40
0.78125
 40
0.78125
 40
0.8125
 40
0.8125
 40
0.84375
 40
0.84375
 40
0.875
 40
0.875
 40
0.90625
 40
0.90625
 40
0.9375
 40
0.9375
 40
0.96875
 40
0.96875
 40
1.0
 40
1.0
 40
1.03125
 40
1.03125
 10
62.51762736054574
 20
98.16071428571449
 30
0.0
 10
62.51762736054575
 20
98.16071428571449
 30
0.0
 10
62.51262519044365
 20
98.18353958113644
 30
0.0
 10
62.49363115641514
 20
98.27284564334082
 30
0.0
 10
62.47941013336941
 20
98.34045616877142
 30
0.0
 10
62.44427269012711
 20
98.51634708136885
 30
0.0
 10
62.42350234345172
 20
98.62388364666522
 30
0.0
 10
62.37800356039201
 20
98.87783567203107
 30
0.0
 10
62.35317348864518
 20
99.02519253448803
 30
0.0
 10
62.30434715095603
 20
99.34707441487323
 30
0.0
 10
62.28009728000455
 20
99.52283462767873
 30
0.0
 10
62.23466893603253
 20
99.90519031017938
 30
0.0
 10
62.21401911852067
 20
100.1078694677889
 30
0.0
 10
62.17966445658471
 20
100.5287330530095
 30
0.0
 10
62.16574140081879
 20
100.7500115555579
 30
0.0
 10
62.14696603053301
 20
101.202101299041
 30
0.0
 10
62.14217210040999
 20
101.4296299300721
 30
0.0
 10
62.14211388052831
 20
101.8876035171523
 30
0.0
 10
62.1470107407449
 20
102.1202711196657
 30
0.0
 10
62.1656631976513
 20
102.5696664579522
 30
0.0
 10
62.17932984512373
 20
102.788169216744
 30
0.0
 10
62.21391886443621
 20
103.2127527310072
 30
0.0
 10
62.23473821447529
 20
103.4166714587987
 30
0.0
 10
62.27966824874879
 20
103.7951316281278
 30
0.0
 10
62.30409013905121
 20
103.9726540201095
 30
0.0
 10
62.35340425280265
 20
104.297763135109
 30
0.0
 10
62.37774961035593
 20
104.4420954022645
 30
0.0
 10
62.42312246536343
 20
104.6955035918561
 30
0.0
 10
62.44433806674851
 20
104.8054133416688
 30
0.0
 10
62.47940975128078
 20
104.9809658919805
 30
0.0
 10
62.49339357458955
 20
105.0474560501014
 30
0.0
 10
62.51256091515125
 20
105.1375964444865
 30
0.0
 10
62.51760682575159
 20
105.1606196818181
 30
0.0
 10
62.51764776623044
 20
105.1608082948022
 30
0.0
 10
62.51279738746994
 20
105.1386933698273
 30
0.0
 10
62.49362115344184
 20
105.0485411075402
 30
0.0
 10
62.47953907551655
 20
104.9815820825863
 30
0.0
 10
62.44464919100197
 20
104.8070014406746
 30
0.0
 10
62.42354314764956
 20
104.6977755673691
 30
0.0
 10
62.37793978293703
 20
104.4432340298126
 30
0.0
 10
62.35361111892568
 20
104.2989549042478
 30
0.0
 10
62.30466061319685
 20
103.9765842468601
 30
0.0
 10
62.2799256868261
 20
103.7971121071465
 30
0.0
 10
62.23493102308694
 20
103.4184816800088
 30
0.0
 10
62.21439638116463
 20
103.2178205310119
 30
0.0
 10
62.17965472995826
 20
102.7929328160636
 30
0.0
 10
62.16578708211236
 20
102.5717051116541
 30
0.0
 10
62.14712546608163
 20
102.1239692683267
 30
0.0
 10
62.1421754089508
 20
101.8940795051509
 30
0.0
 10
62.14211062958286
 20
101.4319751187111
 30
0.0
 10
62.14692752721218
 20
101.2042929544227
 30
0.0
 10
62.16546359926166
 20
100.7554575015111
 30
0.0
 10
62.17941594016264
 20
100.5321761388674
 30
0.0
 10
62.21385985603263
 20
100.1094265859673
 30
0.0
 10
62.23432763010403
 20
99.90844510885302
 30
0.0
 10
62.27953407441468
 20
99.52720037289058
 30
0.0
 10
62.30415128495802
 20
99.34846044096429
 30
0.0
 10
62.35293900413957
 20
99.02664437573716
 30
0.0
 10
62.37741641816745
 20
98.88120924911739
 30
0.0
 10
62.42333625977141
 20
98.62471577777113
 30
0.0
 10
62.44412260601191
 20
98.51712987457373
 30
0.0
 10
62.47911659119119
 20
98.3418944755754
 30
0.0
 10
62.49341123143392
 20
98.2738869183968
 30
0.0
 10
62.51262274820814
 20
98.18354391447087
 30
0.0
 10
62.51762736054574
 20
98.16071428571449
 30
0.0
 10
62.51762736054575
 20
98.16071428571449
 30
0.0
  0
SPLINE
  5
2BE
330
1F
100
AcDbEntity
  8
0
  6
HIDDEN
 62
     7
370
     0
100
AcDbSpline
210
0.0
220
0.0
230
1.0
 70
    11
 71
     3
 72
    74
 73
    70
 74
     0
 42
0.00000001
 43
0.00000001
 12
1.0
 22
0.0
 32
0.0
 13
1.0
 23
0.0
 33
0.0
 40
-0.0312499999999998
 40
-0.0312499999999998
 40
0.0
 40
0.0
 40
0.0312500000000003
 40
0.0312500000000003
 40
0.0625000000000006
 40
0.0625000000000006
 40
0.0937500000000009
 40
0.0937500000000009
 40
0.1250000000000011
 40
0.1250000000000011
 40
0.1562500000000014
 40
0.1562500000000014
 40
0.1875000000000017
 40
0.1875000000000017
 40
0.2187500000000019
 40
0.2187500000000019
 40
0.2500000000000022
 40
0.2500000000000022
 40
0.2812500000000024
 40
0.2812500000000024
 40
0.3125000000000027
 40
0.3125000000000027
 40
0.343750000000003
 40
0.343750000000003
 40
0.3750000000000032
 40
0.3750000000000032
 40
0.4062500000000035
 40
0.4062500000000035
 40
0.4375000000000037
 40
0.4375000000000037
 40
0.4687500000000039
 40
0.4687500000000039
 40
0.4843750000000041
 40
0.4843750000000041
 40
0.5000000000000042
 40
0.5000000000000042
 40
0.531250000000004
 40
0.531250000000004
 40
0.5625000000000037
 40
0.5625000000000037
 40
0.5937500000000034
 40
0.5937500000000034
 40
0.6250000000000031
 40
0.6250000000000031
 40
0.6562500000000029
 40
0.6562500000000029
 40
0.6875000000000026
 40
0.6875000000000026
 40
0.7187500000000023
 40
0.7187500000000023
 40
0.750000000000002
 40
0.750000000000002
 40
0.7812500000000018
 40
0.7812500000000018
 40
0.8125000000000016
 40
0.8125000000000016
 40
0.8437500000000012
 40
0.8437500000000012
 40
0.875000000000001
 40
0.875000000000001
 40
0.9062500000000007
 40
0.9062500000000007
 40
0.9375000000000004
 40
0.9375000000000004
 40
0.9531250000000003
 40
0.9531250000000003
 40
0.9687500000000002
 40
0.9687500000000002
 40
1.0
 40
1.0
 40
1.03125
 40
1.03125
 10
75.07142864287142
 20
98.16071428571435
 30
0.0
 10
75.07142864287142
 20
98.16071428571436
 30
0.0
 10
75.04694955024085
 20
98.18526918631763
 30
0.0
 10
74.95877468560894
 20
98.27886087880199
 30
0.0
 10
74.89448226639698
 20
98.3488770263798
 30
0.0
 10
74.74617612788057
 20
98.52468667419245
 30
0.0
 10
74.66108492591954
 20
98.63180499971168
 30
0.0
 10
74.48441323331339
 20
98.87927615235238
 30
0.0
 10
74.39363646832965
 20
99.01833085504296
 30
0.0
 10
74.21567539251043
 20
99.3286802990358
 30
0.0
 10
74.12798249674071
 20
99.50143492029893
 30
0.0
 10
73.96970396411984
 20
99.86950075062126
 30
0.0
 10
73.89820861092329
 20
100.0659793376293
 30
0.0
 10
73.77680467392778
 20
100.4874385082229
 30
0.0
 10
73.72712454468314
 20
100.7138201984198
 30
0.0
 10
73.66048042901471
 20
101.1738335235724
 30
0.0
 10
73.64255957773777
 20
101.4133301082956
 30
0.0
 10
73.64174082898387
 20
101.8909564532847
 30
0.0
 10
73.65835720382826
 20
102.1263570295892
 30
0.0
 10
73.72377756474823
 20
102.5905666684482
 30
0.0
 10
73.77238991341173
 20
102.8157141075434
 30
0.0
 10
73.89282211170469
 20
103.2394703714837
 30
0.0
 10
73.96579993437678
 20
103.4419004469078
 30
0.0
 10
74.12473242645588
 20
103.8133429747483
 30
0.0
 10
74.21099114554426
 20
103.9839760635479
 30
0.0
 10
74.39025243230614
 20
104.2977729871329
 30
0.0
 10
74.48151334376597
 20
104.4377753759881
 30
0.0
 10
74.65709798219744
 20
104.6843418407162
 30
0.0
 10
74.74236328642111
 20
104.792052243649
 30
0.0
 10
74.89235613274936
 20
104.9701942491804
 30
0.0
 10
74.95584320755472
 20
105.0393987323797
 30
0.0
 10
75.0233579724267
 20
105.1111453286889
 30
0.0
 10
75.04120758453337
 20
105.1296560923032
 30
0.0
 10
75.06500623084479
 20
105.1541918728501
 30
0.0
 10
75.07115723663597
 20
105.1604373946
 30
0.0
 10
75.07194504406017
 20
105.1612411229778
 30
0.0
 10
75.04777801173735
 20
105.1370178652339
 30
0.0
 10
74.95945814864434
 20
105.0433136643962
 30
0.0
 10
74.89569182866262
 20
104.9739423039535
 30
0.0
 10
74.74650883485911
 20
104.7971789792939
 30
0.0
 10
74.66237538763012
 20
104.6912671895564
 30
0.0
 10
74.48675321651058
 20
104.4455907549501
 30
0.0
 10
74.39434483735906
 20
104.3042434084287
 30
0.0
 10
74.2162023860699
 20
103.993756331207
 30
0.0
 10
74.13006415004753
 20
103.8244479890546
 30
0.0
 10
73.9705901835327
 20
103.4543679355808
 30
0.0
 10
73.89714460958636
 20
103.2523222261442
 30
0.0
 10
73.77587752430084
 20
102.8301953311928
 30
0.0
 10
73.7268074243523
 20
102.6065936152334
 30
0.0
 10
73.65976490322203
 20
102.1414637497197
 30
0.0
 10
73.6425330092454
 20
101.906392794075
 30
0.0
 10
73.64176573947081
 20
101.4311816263268
 30
0.0
 10
73.65893923434102
 20
101.1895435798735
 30
0.0
 10
73.72437784891083
 20
100.7280259647
 30
0.0
 10
73.77307805391126
 20
100.5025816662927
 30
0.0
 10
73.89456256449367
 20
100.0765600675
 30
0.0
 10
73.96648345685058
 20
99.87762919466196
 30
0.0
 10
74.1263660931916
 20
99.50457340728529
 30
0.0
 10
74.21371265754061
 20
99.33239253700187
 30
0.0
 10
74.39164751457676
 20
99.02151638841663
 30
0.0
 10
74.48359180014897
 20
98.88048618446055
 30
0.0
 10
74.66059488754148
 20
98.63243243714258
 30
0.0
 10
74.74461342869543
 20
98.52663550709204
 30
0.0
 10
74.85560219164962
 20
98.39492094448437
 30
0.0
 10
74.89006459024915
 20
98.3555574807631
 30
0.0
 10
74.95204726280089
 20
98.28649625321708
 30
0.0
 10
74.97963441065303
 20
98.25673181528194
 30
0.0
 10
75.04674465575744
 20
98.18546308731787
 30
0.0
 10
75.07142864287142
 20
98.16071428571435
 30
0.0
 10
75.07142864287142
 20
98.16071428571436
 30
0.0
  0
LINE
  5
2BF
330
1F
100
AcDbEntity
  8
0
  6
HIDDEN
 62
     7
370
     0
100
AcDbLine
 10
94.3379885654
 20
97.6607140957
 30
0.0
 11
94.7366505067
 21
98.3512143477
 31
0.0
  0
LINE
  5
2C0
330
1F
100
AcDbEntity
  8
0
  6
HIDDEN
 62
     7
370
     0
100
AcDbLine
 10
94.7366505067
 20
104.9702142238
 30
0.0
 11
94.3379885654
 21
105.6607144757
 31
0.0
  0
LINE
  5
2C1
330
1F
100
AcDbEntity
  8
0
  6
HIDDEN
 62
     7
370
     0
100
AcDbLine
 10
94.3379885654
 20
105.6607144757
 30
0.0
 11
85.9866495381
 21
105.6607144757
 31
0.0
  0
LINE
  5
2C2
330
1F
100
AcDbEntity
  8
0
  6
HIDDEN
 62
     7
370
     0
100
AcDbLine
 10
85.9866495381
 20
97.6607140957
 30
0.0
 11
94.3379885654
 21
97.6607140957
 31
0.0
  0
LINE
  5
2C3
330
1F
100
AcDbEntity
  8
0
  6
HIDDEN
 62
     7
370
     0
100
AcDbLine
 10
85.9866495381
 20
105.6607144757
 30
0.0
 11
84.7366497989
 21
104.4107142708
 31
0.0
  0
LINE
  5
2C4
330
1F
100
AcDbEntity
  8
0
  6
HIDDEN
 62
     7
370
     0
100
AcDbLine
 10
84.7366497989
 20
98.9107143006
 30
0.0
 11
85.9866495381
 21
97.6607140957
 31
0.0
  0
LINE
  5
2C5
330
1F
100
AcDbEntity
  8
0
  6
HIDDEN
 62
     7
370
     0
100
AcDbLine
 10
82.6421430471
 20
117.356559994
 30
0.0
 11
81.9516427952
 21
117.7552219353
 31
0.0
  0
LINE
  5
2C6
330
1F
100
AcDbEntity
  8
0
  6
HIDDEN
 62
     7
370
     0
100
AcDbLine
 10
75.3326429191
 20
117.7552219353
 30
0.0
 11
74.6421426672
 21
117.356559994
 31
0.0
  0
LINE
  5
2C7
330
1F
100
AcDbEntity
  8
0
  6
HIDDEN
 62
     7
370
     0
100
AcDbLine
 10
74.6421426672
 20
109.0052209667
 30
0.0
 11
75.892142872
 21
107.7552212275
 31
0.0
  0
LINE
  5
2C8
330
1F
100
AcDbEntity
  8
0
  6
HIDDEN
 62
     7
370
     0
100
AcDbLine
 10
81.3921428422
 20
107.7552212275
 30
0.0
 11
82.6421430471
 21
109.0052209667
 31
0.0
  0
LINE
  5
2C9
330
1F
100
AcDbEntity
  8
0
  6
HIDDEN
 62
     7
370
     0
100
AcDbLine
 10
74.6421426672
 20
117.356559994
 30
0.0
 11
74.6421426672
 21
109.0052209667
 31
0.0
  0
LINE
  5
2CA
330
1F
100
AcDbEntity
  8
0
  6
HIDDEN
 62
     7
370
     0
100
AcDbLine
 10
82.6421430471
 20
109.0052209667
 30
0.0
 11
82.6421430471
 21
117.356559994
 31
0.0
  0
LINE
  5
2CB
330
1F
100
AcDbEntity
  8
0
  6
HIDDEN
 62
     7
370
     0
100
AcDbLine
 10
71.2976361762
 20
97.6607140957
 30
0.0
 11
72.5476359154
 21
98.9107143006
 31
0.0
  0
LINE
  5
2CC
330
1F
100
AcDbEntity
  8
0
  6
HIDDEN
 62
     7
370
     0
100
AcDbLine
 10
72.5476359154
 20
104.4107142708
 30
0.0
 11
71.2976361762
 21
105.6607144757
 31
0.0
  0
LINE
  5
2CD
330
1F
100
AcDbEntity
  8
0
  6
HIDDEN
 62
     7
370
     0
100
AcDbLine
 10
62.9462971489
 20
97.6607140957
 30
0.0
 11
71.2976361762
 21
97.6607140957
 31
0.0
  0
LINE
  5
2CE
330
1F
100
AcDbEntity
  8
0
  6
HIDDEN
 62
     7
370
     0
100
AcDbLine
 10
71.2976361762
 20
105.6607144757
 30
0.0
 11
62.9462971489
 21
105.6607144757
 31
0.0
  0
LINE
  5
2CF
330
1F
100
AcDbEntity
  8
0
  6
HIDDEN
 62
     7
370
     0
100
AcDbLine
 10
62.9462971489
 20
105.6607144757
 30
0.0
 11
62.5476352076
 21
104.9702142238
 31
0.0
  0
LINE
  5
2D0
330
1F
100
AcDbEntity
  8
0
  6
HIDDEN
 62
     7
370
     0
100
AcDbLine
 10
62.5476352076
 20
98.3512143477
 30
0.0
 11
62.9462971489
 21
97.6607140957
 31
0.0
  0
LINE
  5
2D1
330
1F
100
AcDbEntity
  8
0
  6
HIDDEN
 62
     7
370
     0
100
AcDbLine
 10
95.2779482256
 20
105.1607143937
 30
0.0
 11
82.2128571241
 21
105.1607143937
 31
0.0
  0
LINE
  5
2D2
330
1F
100
AcDbEntity
  8
0
  6
HIDDEN
 62
     7
370
     0
100
AcDbLine
 10
82.216789168
 20
98.1607141777
 30
0.0
 11
95.2799580197
 21
98.1607141777
 31
0.0
  0
LINE
  5
2D3
330
1F
100
AcDbEntity
  8
0
  6
HIDDEN
 62
     7
370
     0
100
AcDbLine
 10
75.1421427491
 20
118.2965196541
 30
0.0
 11
75.1421427491
 21
105.2314285527
 31
0.0
  0
LINE
  5
2D4
330
1F
100
AcDbEntity
  8
0
  6
HIDDEN
 62
     7
370
     0
100
AcDbLine
 10
82.1421429652
 20
105.2353605966
 30
0.0
 11
82.1421429652
 21
118.2985294483
 31
0.0
  0
LINE
  5
2D5
330
1F
100
AcDbEntity
  8
0
  6
HIDDEN
 62
     7
370
     0
100
AcDbLine
 10
62.0063374887
 20
98.1607141777
 30
0.0
 11
75.0714285902
 21
98.1607141777
 31
0.0
  0
LINE
  5
2D6
330
1F
100
AcDbEntity
  8
0
  6
HIDDEN
 62
     7
370
     0
100
AcDbLine
 10
75.0674965463
 20
105.1607143937
 30
0.0
 11
62.0043276946
 21
105.1607143937
 31
0.0
  0
LINE
  5
2D7
330
1F
100
AcDbEntity
  8
0
  6
HIDDEN
 62
     7
370
     0
100
AcDbLine
 10
95.2803510378
 20
105.1607143937
 30
0.0
 11
95.2779482256
 21
105.1607143937
 31
0.0
  0
LINE
  5
2D8
330
1F
100
AcDbEntity
  8
0
  6
HIDDEN
 62
     7
370
     0
100
AcDbLine
 10
82.216789168
 20
98.1607141777
 30
0.0
 11
95.2793414841
 21
98.1607141777
 31
0.0
  0
LINE
  5
2D9
330
1F
100
AcDbEntity
  8
0
  6
HIDDEN
 62
     7
370
     0
100
AcDbLine
 10
75.1421427491
 20
118.2989224664
 30
0.0
 11
75.1421427491
 21
118.2965196541
 31
0.0
  0
LINE
  5
2DA
330
1F
100
AcDbEntity
  8
0
  6
HIDDEN
 62
     7
370
     0
100
AcDbLine
 10
82.1421429652
 20
105.2353605966
 30
0.0
 11
82.1421429652
 21
118.2979129127
 31
0.0
  0
LINE
  5
2DB
330
1F
100
AcDbEntity
  8
0
  6
HIDDEN
 62
     7
370
     0
100
AcDbLine
 10
62.0039346765
 20
98.1607141777
 30
0.0
 11
62.0063374887
 21
98.1607141777
 31
0.0
  0
LINE
  5
2DC
330
1F
100
AcDbEntity
  8
0
  6
HIDDEN
 62
     7
370
     0
100
AcDbLine
 10
75.0674965463
 20
105.1607143937
 30
0.0
 11
62.0049442301
 21
105.1607143937
 31
0.0
  0
LINE
  5
2DD
330
1F
100
AcDbEntity
  8
0
  6
HIDDEN
 62
     7
370
     0
100
AcDbLine
 10
94.76665772
 20
105.1607143937
 30
0.0
 11
82.2128571241
 21
105.1607143937
 31
0.0
  0
LINE
  5
2DE
330
1F
100
AcDbEntity
  8
0
  6
HIDDEN
 62
     7
370
     0
100
AcDbLine
 10
82.216789168
 20
98.1607141777
 30
0.0
 11
94.7686880033
 21
98.1607141777
 31
0.0
  0
LINE
  5
2DF
330
1F
100
AcDbEntity
  8
0
  6
HIDDEN
 62
     7
370
     0
100
AcDbLine
 10
75.1421427491
 20
117.7852291486
 30
0.0
 11
75.1421427491
 21
105.2314285527
 31
0.0
  0
LINE
  5
2E0
330
1F
100
AcDbEntity
  8
0
  6
HIDDEN
 62
     7
370
     0
100
AcDbLine
 10
82.1421429652
 20
105.2353605966
 30
0.0
 11
82.1421429652
 21
117.7872594318
 31
0.0
  0
LINE
  5
2E1
330
1F
100
AcDbEntity
  8
0
  6
HIDDEN
 62
     7
370
     0
100
AcDbLine
 10
62.5176279942
 20
98.1607141777
 30
0.0
 11
75.0714285902
 21
98.1607141777
 31
0.0
  0
LINE
  5
2E2
330
1F
100
AcDbEntity
  8
0
  6
HIDDEN
 62
     7
370
     0
100
AcDbLine
 10
75.0674965463
 20
105.1607143937
 30
0.0
 11
62.515597711
 21
105.1607143937
 31
0.0
  0
INSERT
  5
2EE
330
1F
100
AcDbEntity
  8
VERMASSUNG
100
AcDbBlockReference
  2
SW_CENTERMARKSYMBOL_0
 10
78.6421428571
 20
101.6607142857
 30
0.0
  0
OLE2FRAME
  5
2EF
330
1F
100
AcDbEntity
  8
0
100
AcDbOle2Frame
 70
     2
  3
Paintbrush-Bild
 10
13.8511154363
 20
38.264191557
 30
0.0
 11
51.6290888628
 21
31.9806341108
 31
0.0
 71
     2
 72
     0
 73
     1
 90
    12928
310
80552BED0767C5B32B40DDAF6807D121434000000000000000006FFBDDFB85D0
310
4940DDAF6807D121434000000000000000006FFBDDFB85D04940416F4BD60AFB
310
3F4000000000000000002BED0767C5B32B40416F4BD60AFB3F40000000000000
310
0000000000000100000000010000010000000100000000000100000000320000
310
D0CF11E0A1B11AE1000000000000000000000000000000003E000300FEFF0900
310
0600000000000000000000000100000001000000000000000010000002000000
310
01000000FEFFFFFF0000000000000000FFFFFFFFFFFFFFFFFFFFFFFFFFFFFFFF
310
FFFFFFFFFFFFFFFFFFFFFFFFFFFFFFFFFFFFFFFFFFFFFFFFFFFFFFFFFFFFFFFF
310
FFFFFFFFFFFFFFFFFFFFFFFFFFFFFFFFFFFFFFFFFFFFFFFFFFFFFFFFFFFFFFFF
310
FFFFFFFFFFFFFFFFFFFFFFFFFFFFFFFFFFFFFFFFFFFFFFFFFFFFFFFFFFFFFFFF
310
FFFFFFFFFFFFFFFFFFFFFFFFFFFFFFFFFFFFFFFFFFFFFFFFFFFFFFFFFFFFFFFF
310
FFFFFFFFFFFFFFFFFFFFFFFFFFFFFFFFFFFFFFFFFFFFFFFFFFFFFFFFFFFFFFFF
310
FFFFFFFFFFFFFFFFFFFFFFFFFFFFFFFFFFFFFFFFFFFFFFFFFFFFFFFFFFFFFFFF
310
FFFFFFFFFFFFFFFFFFFFFFFFFFFFFFFFFFFFFFFFFFFFFFFFFFFFFFFFFFFFFFFF
310
FFFFFFFFFFFFFFFFFFFFFFFFFFFFFFFFFFFFFFFFFFFFFFFFFFFFFFFFFFFFFFFF
310
FFFFFFFFFFFFFFFFFFFFFFFFFFFFFFFFFFFFFFFFFFFFFFFFFFFFFFFFFFFFFFFF
310
FFFFFFFFFFFFFFFFFFFFFFFFFFFFFFFFFFFFFFFFFFFFFFFFFFFFFFFFFFFFFFFF
310
FFFFFFFFFFFFFFFFFFFFFFFFFFFFFFFFFFFFFFFFFFFFFFFFFFFFFFFFFFFFFFFF
310
FFFFFFFFFFFFFFFFFFFFFFFFFFFFFFFFFFFFFFFFFFFFFFFFFFFFFFFFFFFFFFFF
310
FFFFFFFFFFFFFFFFFFFFFFFFFFFFFFFFFFFFFFFFFFFFFFFFFFFFFFFFFFFFFFFF
310
FDFFFFFFFEFFFFFFFEFFFFFFFEFFFFFF05000000060000000700000008000000
310
090000000A0000000B0000000C0000000D0000000E0000000F00000010000000
310
11000000120000001300000014000000150000001600000017000000FEFFFFFF
310
FFFFFFFFFFFFFFFFFFFFFFFFFFFFFFFFFFFFFFFFFFFFFFFFFFFFFFFFFFFFFFFF
310
FFFFFFFFFFFFFFFFFFFFFFFFFFFFFFFFFFFFFFFFFFFFFFFFFFFFFFFFFFFFFFFF
310
FFFFFFFFFFFFFFFFFFFFFFFFFFFFFFFFFFFFFFFFFFFFFFFFFFFFFFFFFFFFFFFF
310
FFFFFFFFFFFFFFFFFFFFFFFFFFFFFFFFFFFFFFFFFFFFFFFFFFFFFFFFFFFFFFFF
310
FFFFFFFFFFFFFFFFFFFFFFFFFFFFFFFFFFFFFFFFFFFFFFFFFFFFFFFFFFFFFFFF
310
FFFFFFFFFFFFFFFFFFFFFFFFFFFFFFFFFFFFFFFFFFFFFFFFFFFFFFFFFFFFFFFF
310
FFFFFFFFFFFFFFFFFFFFFFFFFFFFFFFFFFFFFFFFFFFFFFFFFFFFFFFFFFFFFFFF
310
FFFFFFFFFFFFFFFFFFFFFFFFFFFFFFFFFFFFFFFFFFFFFFFFFFFFFFFFFFFFFFFF
310
FFFFFFFFFFFFFFFFFFFFFFFFFFFFFFFFFFFFFFFFFFFFFFFFFFFFFFFFFFFFFFFF
310
FFFFFFFFFFFFFFFFFFFFFFFFFFFFFFFFFFFFFFFFFFFFFFFFFFFFFFFFFFFFFFFF
310
FFFFFFFFFFFFFFFFFFFFFFFFFFFFFFFFFFFFFFFFFFFFFFFFFFFFFFFFFFFFFFFF
310
FFFFFFFFFFFFFFFFFFFFFFFFFFFFFFFFFFFFFFFFFFFFFFFFFFFFFFFFFFFFFFFF
310
FFFFFFFFFFFFFFFFFFFFFFFFFFFFFFFFFFFFFFFFFFFFFFFFFFFFFFFFFFFFFFFF
310
52006F006F007400200045006E00740072007900000000000000000000000000
310
0000000000000000000000000000000000000000000000000000000000000000
310
16000500FFFFFFFFFFFFFFFF020000000A00030000000000C000000000000046
310
00000000000000000000000070F87A90361DCD0103000000C000000000000000
310
01004F006C006500000000000000000000000000000000000000000000000000
310
0000000000000000000000000000000000000000000000000000000000000000
310
0A000200FFFFFFFFFFFFFFFFFFFFFFFF00000000000000000000000000000000
310
0000000000000000000000000000000000000000000000001400000000000000
310
010043006F006D0070004F0062006A0000000000000000000000000000000000
310
0000000000000000000000000000000000000000000000000000000000000000
310
120002010100000003000000FFFFFFFF00000000000000000000000000000000
310
0000000000000000000000000000000000000000010000004D00000000000000
310
01004F006C006500310030004E00610074006900760065000000000000000000
310
0000000000000000000000000000000000000000000000000000000000000000
310
1A000200FFFFFFFFFFFFFFFFFFFFFFFF00000000000000000000000000000000
310
0000000000000000000000000000000000000000040000002426000000000000
310
FEFFFFFF02000000FEFFFFFFFFFFFFFFFFFFFFFFFFFFFFFFFFFFFFFFFFFFFFFF
310
FFFFFFFFFFFFFFFFFFFFFFFFFFFFFFFFFFFFFFFFFFFFFFFFFFFFFFFFFFFFFFFF
310
FFFFFFFFFFFFFFFFFFFFFFFFFFFFFFFFFFFFFFFFFFFFFFFFFFFFFFFFFFFFFFFF
310
FFFFFFFFFFFFFFFFFFFFFFFFFFFFFFFFFFFFFFFFFFFFFFFFFFFFFFFFFFFFFFFF
310
FFFFFFFFFFFFFFFFFFFFFFFFFFFFFFFFFFFFFFFFFFFFFFFFFFFFFFFFFFFFFFFF
310
FFFFFFFFFFFFFFFFFFFFFFFFFFFFFFFFFFFFFFFFFFFFFFFFFFFFFFFFFFFFFFFF
310
FFFFFFFFFFFFFFFFFFFFFFFFFFFFFFFFFFFFFFFFFFFFFFFFFFFFFFFFFFFFFFFF
310
FFFFFFFFFFFFFFFFFFFFFFFFFFFFFFFFFFFFFFFFFFFFFFFFFFFFFFFFFFFFFFFF
310
FFFFFFFFFFFFFFFFFFFFFFFFFFFFFFFFFFFFFFFFFFFFFFFFFFFFFFFFFFFFFFFF
310
FFFFFFFFFFFFFFFFFFFFFFFFFFFFFFFFFFFFFFFFFFFFFFFFFFFFFFFFFFFFFFFF
310
FFFFFFFFFFFFFFFFFFFFFFFFFFFFFFFFFFFFFFFFFFFFFFFFFFFFFFFFFFFFFFFF
310
FFFFFFFFFFFFFFFFFFFFFFFFFFFFFFFFFFFFFFFFFFFFFFFFFFFFFFFFFFFFFFFF
310
FFFFFFFFFFFFFFFFFFFFFFFFFFFFFFFFFFFFFFFFFFFFFFFFFFFFFFFFFFFFFFFF
310
FFFFFFFFFFFFFFFFFFFFFFFFFFFFFFFFFFFFFFFFFFFFFFFFFFFFFFFFFFFFFFFF
310
FFFFFFFFFFFFFFFFFFFFFFFFFFFFFFFFFFFFFFFFFFFFFFFFFFFFFFFFFFFFFFFF
310
FFFFFFFFFFFFFFFFFFFFFFFFFFFFFFFFFFFFFFFFFFFFFFFFFFFFFFFFFFFFFFFF
310
0100000200000000000000000000000000000000000000000000000000000000
310
0000000000000000000000000000000000000000000000000000000000000000
310
0100FEFF030A0000FFFFFFFF0A00030000000000C00000000000004607000000
310
5042727573680007000000504272757368000700000050427275736800F439B2
310
7100000000000000000000000000000000000000000000000000000000000000
310
0000000000000000000000000000000000000000000000000000000000000000
310
0000000000000000000000000000000000000000000000000000000000000000
310
0000000000000000000000000000000000000000000000000000000000000000
310
0000000000000000000000000000000000000000000000000000000000000000
310
0000000000000000000000000000000000000000000000000000000000000000
310
0000000000000000000000000000000000000000000000000000000000000000
310
0000000000000000000000000000000000000000000000000000000000000000
310
0000000000000000000000000000000000000000000000000000000000000000
310
0000000000000000000000000000000000000000000000000000000000000000
310
0000000000000000000000000000000000000000000000000000000000000000
310
0000000000000000000000000000000000000000000000000000000000000000
310
20260000424D0E260000000000003E00000028000000B40200006E0000000100
310
01000000000000000000130B0000130B00000200000002000000000000FFFFFF
310
FFFFFFFFFFFFFFFFFFFFFFFFFFFFFFFFFFFFFFFFFFFFFFFFFFFFFFFFFFFFFFFF
310
FFFFFFFFFFFFFFFFFFFFFFFFFFFFFFFFFFFFFFFFFFFFFFFFFFFFFFFFFFFFFFFF
310
FFFFFFFFFFFFFFFFFFFFFFFFFFFFFFFFFFFFFFFFFFFFFFFFF000FFFFFFFFFFFF
310
FFFFFFFFFFFFFFFFFFFFFFFFFFFFFFFFFFFFFFFFFFFFFFFFFFFFFFFFFFFFFFFF
310
FFFFFFFFFFFFFFFFFFFFFFFFFFFFFFFFFFFFFFFFFFFFFFFFFFFFFFFFFFFFFFFF
310
FFFFFFFFFFFFFFFFFFFFFFFFFFFFFFFFF000FFFFFFFFFFFFFFFFFFFFFFFFFFFF
310
FFFFFFFFFFFFFFFFFFFFFFFFFFFFFFFFFFFFFFFFFFFFFFFFFFFFFFFFFFFFFFFF
310
FFFFFFFFFFFFFFFFFFFFFFFFFFFFFFFFFFFFFFFFFFFFFFFFFFFFFFFFFFFFFFFF
310
FFFFFFFFFFFFFFFFF000FFFFFFFFFFFFFFFFFFFFFFFFFFFFFFFFFFFFFFFFFFFF
310
FFFFFFFFFFFFFFFFFFFFFFFFFFFFFFFFFFFFFFFFFFFFFFFFFFFFFFFFFFFFFFFF
310
FFFFFFFFFFFFFFFFFFFFFFFFFFFFFFFFFFFFFFFFFFFFFFFFFFFFFFFFFFFFFFFF
310
F000FFFFFFFFFFFFFFFFFFFFFFFFFFFFFFFFFFFFFFFFFFFFFFFFFFFFFFFFFFFF
310
FFFFFFFFFFFFFFFFFFFFFFFFFFFFFFFFFFFFFFFFFFFFFFFFFFFFFFFFFFFFFFFF
310
FFFFFFFFFFFFFFFFFFFFFFFFFFFFFFFFFFFFFFFFFFFFFFFFF000FFFFFFFFFFFF
310
FFFFFFFFFFFFFFFFFFFFFFFFFFFFFFFFFFFFFFFFFFFFFFFFFFFFFFFFFFFFFFFF
310
FFFFFFFFFFFFFFFFFFFFFFFFFFFFFFFFFFFFFFFFFFFFFFFFFFFFFFFFFFFFFFFF
310
FFFFFFFFFFFFFFFFFFFFFFFFFFFFFFFFF000FFFFFFFFFFFFFFFFFFFFFFFFFFFF
310
FFFFFFFFFFFFFFFFFFFFFFFFFFFFFFFFFFFFFFFFFFFFFFFFFFFFFFFFFFFFFFFF
310
FFFFFFFFFFFFFFFFFFFFFFFFFFFFFFFFFFFFFFFFFFFFFFFFFFFFFFFFFFFFFFFF
310
FFFFFFFFFFFFFFFFF000FFFFFFFFFFFFFFFFFFFFFFFFFFFFFFFFFFFFFFFFFFFF
310
FFFFFFFFFFFFFFFFFFFFFFFFFFFFFFFFFFFFFFFFFFFFFFFFFFFFFFFFFFFFFFFF
310
FFFFFFFFFFFFFFFFFFFFFFFFFFFFFFFFFFFFFFFFFFFFFFFFFFFFFFFFFFFFFFFF
310
F000FFFFFFFFFFFFFFFFFFFFFFFFFFFFFFFFFFFFFFFFFFFFFFFFFFFFFFFFFFFF
310
FFFFFFFFFFFFFFFFFFFFFFFFFFFFFFFFFFFFFFFFFFFFFFFFFFFFFFFFFFFFFFFF
310
FFFFFFFFFFFFFFFFFFFFFFFFFFFFFFFFFFFFFFFFFFFFFFFFF000FFFFFFFFFFFF
310
FFFFFFFFFFFFFFFFFFFFFFFFFFFFFFFFFFFFFFFFFFFFFFFFFFFFFFFFFFFFFFFF
310
FFFFFFFFFFFFFFFFFFFFFFFFFFFFFFFFFFFFFFFFFFFFFFFFFFFFFFFFFFFFFFFF
310
FFFFFFFFFFFFFFFFFFFFFFFFFFFFFFFFF000FFFFFFFFFFFFFFFFFFFFFFFFFFFF
310
FFFFFFFFFFFFFFFFFFFFFFFFFFFFFFFFFFFFFFFFFFFFFFFFFFFFFFFFFFFFFFFF
310
FFFFFFFFFFFFFFFFFFFFFFFFFFFFFFFFFFFFFFFFFFFFFFFFFFFFFFFFFFFFFFFF
310
FFFFFFFFFFFFFFFFF000FFFFFFFFFFFFFFFFFFFFFFFFFFFFFFFFFFFFFFFFFFFF
310
FFFFFFFFFFFFFFFFFFFFFFFFFFFFFFFFFFFFFFFFFFFFFFFFFFFFFFFFFFFFFFFF
310
FFFFFFFFFFFFFFFFFFFFFFFFFFFFFFFFFFFFFFFFFFFFFFFFFFFFFFFFFFFFFFFF
310
F000FFFFFFFFFFFFFFFFFFFFFFFFFFFFFFFFFFFFFFFFFFFFFFFFFFFFFFFFFFFF
310
FFFFFFFFFFFFFFFFFFFFFFFFFFFFFFFFFFFFFFFFFFFFFFFFFFFFFFFFFFFFFFFF
310
FFFFFFFFFFFFFFFFFFFFFFFFFFFFFFFFFFFFFFFFFFFFFFFFF000FFFFFFFFFFFF
310
FFFFFFFFFFFFFFFFFFFFFFFFFFFFFFFFFFFFFFFFFFFFFFFFFFFFFFFFFFFFFFFF
310
FFFFFFFFFFFFFFFFFFFFFFFFFFFFFFFFFFFFFFFFFFFFFFFFFFFFFFFFFFFFFFFF
310
FFFFFFFFFFFFFFFFFFFFFFFFFFFFFFFFF000FFFFFFFFFFFFFFFFFFFFFFFFFFFF
310
FFFFFFFFFFFFFFFFFFFFFFFFFFFFFFFFFFFFFFFFFFFFFFFFFFFFFFFFFFFFFFFF
310
FFFFFFFFFFFFFFFFFFFFFFFFFFFFFFFFFFFFFFFFFFFFFFFFFFFFFFFFFFFFFFFF
310
FFFFFFFFFFFFFFFFF000FFFFFFFFFFFFFFFFFFFFFFFFFFFFFFFFFFFFFFFFFFFF
310
FFFFFFFFFFFFFFFFFFFFFFFFFFFFFFFFFFFFFFFFFFFFFFFFFFFFFFFFFFFFFFFF
310
FFFFFFFFFFFFFFFFFFFFFFFFFFFFFFFFFFFFFFFFFFFFFFFFFFFFFFFFFFFFFFFF
310
F000FFFFFFFFFFFFFFFFFFFFFFFFFFFFFFFFFFFFFFFFFFFFFFFFFFFFFFFFFFFF
310
FFFFFFFFFFFFFFFFFFFFFFFFFFFFFFFFFFFFFFFFFFFFFFFFFFFFFFFFFFFFFFFF
310
FFFFFFFFFFFFFFFFFFFFFFFFFFFFFFFFFFFFFFFFFFFFFFFFF000FFFFFFFFFFFF
310
FFFFFFFFFFFFFFFFFFFFFFFFFFFFFFFFFFFFFFFFFFFFFFFFFFFFFFFFFFFFFFFF
310
FFFFFFFFFFFFFFFFFFFFFFFFFFFFFFFFFFFFFFFFFFFFFFFFFFFFFFFFFFFFFFFF
310
FFFFFFFFFFFFFFFFFFFFFFFFFFFFFFFFF000FFFFFFFFFFFFFFFFFFFFFFFFFFFF
310
FFFFFFFFFFFFFFFFFFFFFFFFFFFFFFFFFFFFFFFFFFFFFFFFFFFFFFFFFFFFFFFF
310
FFFFFFFFFFFFFFFFFFFFFFFFFFFFFFFFFFFFFFFFFFFFFFFFFFFFFFFFFFFFFFFF
310
FFFFFFFFFFFFFFFFF000FFFFF80003FFFFFFFFFFFFFFFFFFFFFFFFFFFFFFFFFF
310
FFFFF00007FFFFFFFFFF00007FFFFFF800000000000000007FFFFFFFFFFFFFFF
310
FFFFFFFC001FFFFFFFFFFFFFFC001FFFFFFFFFFFFFFFFFFFFFFFFFFE0007FFFF
310
F000FFFF8000007FFFFFFFF8000FFFFFC0007FFFFF80007FFFFF0000007FFFFF
310
FFF8000007FFFFF800000000000000007FFFFFF0001FFFFFFFFFFFC00001FFFF
310
FFFFFFFFC00001FFFFFFFF000000000003FFFFE000007FFFF000FFFE0000000F
310
FFFFFFF0000FFFFF80007FFFFF80007FFFFC0000001FFFFFFFC0000001FFFFF8
310
00000000000000007FFFFFF0001FFFFFFFFFFE0000003FFFFFFFFFFE0000003F
310
FFFFFF000000000003FFFF0000000FFFF000FFF800000003FFFFFFF00007FFFF
310
80007FFFFF80007FFFF000000007FFFFFF000000003FFFF80000000000000000
310
7FFFFFF0001FFFFFFFFFF80000000FFFFFFFFFF80000000FFFFFFF0000000000
310
03FFFC00000003FFF000FFE000000000FFFFFFF00007FFFF80003FFFFF80007F
310
FFC000000001FFFFFC000000001FFFF800000000000000007FFFFFF0001FFFFF
310
FFFFE000000003FFFFFFFFE000000003FFFFFF000000000003FFF000000000FF
310
F000FF80000000007FFFFFF00007FFFF80003FFFFF80007FFF8000000000FFFF
310
F80000000007FFF800000000000000007FFFFFF0001FFFFFFFFFC000000001FF
310
FFFFFFC000000001FFFFFF000000000003FFC0000000007FF000FF0000000000
310
3FFFFFE00007FFFF00003FFFFF80007FFE00000000003FFFF00000000003FFF8
310
00000000000000007FFFFFF0001FFFFFFFFF8000000000FFFFFFFF8000000000
310
FFFFFF000000000003FF80000000003FF000FE00000000001FFFFFE00003FFFF
310
00003FFFFF80007FFC00000000001FFFE00000000001FFF8000001FFFE000000
310
7FFFFFF0001FFFFFFFFE00000000003FFFFFFE00000000003FFFFF0000000000
310
03FF00000000001FF000FC00000000000FFFFFE00003FFFF00001FFFFF80007F
310
F800000000001FFFC00000000000FFF8000001FFFE0000007FFFFFF0001FFFFF
310
FFFC00000000001FFFFFFC00000000001FFFFF000000000003FE00000000000F
310
F000F8000000000007FFFFE00003FFFF00001FFFFF80007FF800000000000FFF
310
800000000000FFF8000001FFFE0000007FFFFFF0001FFFFFFFF800000000000F
310
FFFFF800000000000FFFFF000000000003FC000000000007F000F80000000000
310
03FFFFC00003FFFE00001FFFFF80007FF0000000000007FF0000000000007FF8
310
000001FFFE0000007FFFFFF0001FFFFFFFF0000000000007FFFFF00000000000
310
07FFFF000000000003F8000000000003F000F0000000000003FFFFC00001FFFE
310
00001FFFFF80007FE0000000000007FE0000000000003FF8000001FFFE000000
310
7FFFFFF0001FFFFFFFF0000000000007FFFFF0000000000007FFFF0000000000
310
03F800001F800003F000E00001FFF00001FFFFC00001FFFE00000FFFFF80007F
310
E00001FFE00003FE00001FFF00003FF8000001FFFE0000007FFFFFF0001FFFFF
310
FFE000003E000003FFFFE000003E000003FFFF000000000003F00001FFF80001
310
F000E00007FFFC0001FFFFC00001FFFE00000FFFFF80007FC0000FFFFC0003FC
310
0000FFFFC0001FF8000001FFFE0000007FFFFFF0001FFFFFFFC00003FFE00001
310
FFFFC00003FFE00001FFFF0001FFFFFFFFF00007FFFE0001F000E0000FFFFF00
310
00FFFF800001FFFC00000FFFFF80007FC0001FFFFE0001FC0001FFFFE0001FF8
310
000001FFFE0000007FFFFFF0001FFFFFFF80000FFFF80000FFFF80000FFFF800
310
00FFFF0003FFFFFFFFE0000FFFFF8000F000C0003FFFFF8000FFFF800000FFFC
310
000007FFFF80007F80003FFFFF0001FC0003FFFFF0001FF8000001FFFE000000
310
7FFFFFF0001FFFFFFF80003FFFFE0000FFFF80003FFFFE0000FFFF0003FFFFFF
310
FFE0003FFFFF8000F000C0003FFFFF8000FFFF800000FFFC000007FFFF80007F
310
80007FFFFF8001F80007FFFFF8000FF8000001FFFE0000007FFFFFF0001FFFFF
310
FF00007FFFFF00007FFF00007FFFFF00007FFF0003FFFFFFFFE0003FFFFFC000
310
F000C0007FFFFFC000FFFF000000FFFC000007FFFF80007F8000FFFFFF8000F8
310
000FFFFFF8000FF8000001FFFE0000007FFFFFF0001FFFFFFF0000FFFFFF8000
310
7FFF0000FFFFFF80007FFF0003FFFFFFFFC0007FFFFFC00070008000FFFFFFC0
310
00FFFF000000FFF8000007FFFF80007F8000FFFFFF8000F8000FFFFFF8000FF8
310
000001FFFE0000007FFFFFF0001FFFFFFE0001FFFFFFC0003FFE0001FFFFFFC0
310
003FFF0003FFFFFFFFC0007FFFFFE00070008000FFFFFFC0007FFF0000007FF8
310
000003FFFF80007F0001FFFFFF8000F8000FFFFFF8000FF8000001FFFE000000
310
7FFFFFF0001FFFFFFE0001FFFFFFC0003FFE0001FFFFFFC0003FFF0003FFFFFF
310
FFC000FFFFFFE00070008000FFFFFFC0007FFF0000007FF8000003FFFF80007F
310
0001FFFFFF8000F8001FFFFFF8000FF8000001FFFE0000007FFFFFF0001FFFFF
310
FE0003FFFFFFE0003FFE0003FFFFFFE0003FFF0003FFFFFFFFC000FFFFFFE000
310
70008000FFFFFFC0007FFE0000007FF8000003FFFF80007F0001FFFFFF8000F0
310
001FFFFFF8000FF8000001FFFE0000007FFFFFF0001FFFFFFC0003FFFFFFE000
310
1FFC0003FFFFFFE0001FFF0003FFFFFFFFC000FFFFFFC00070008000FFFFFF80
310
007FFE0000007FF0000003FFFF80007F0001FFFFFF0000F0001FFFFFF8000FF8
310
000001FFFE0000007FFFFFF0001FFFFFFC0007FFFFFFF0001FFC0007FFFFFFF0
310
001FFF0003FFFFFFFFC000FFFFFFC00070008001FFFFFF0000FFFE0000003FF0
310
000001FFFF80007F0001FFFFFF0000F8001FFFFFF0000FF8000001FFFE000000
310
7FFFFFF0001FFFFFFC0007FFFFFFF0001FFC0007FFFFFFF0001FFF0003FFFFFF
310
FFC001FFFFFF80007000FFFFFFFFFE0000FFFE0008003FF0008001FFFF80007F
310
FFFFFFFFFC0000FFFFFFFFFFE0000FF8000001FFFE0000007FFFFFF0001FFFFF
310
F8000FFFFFFFF8000FF8000FFFFFFFF8000FFF0003FFFFFFFFFFFFFFFFFF0000
310
7000FFFFFFFFFC0000FFFC0008003FF0008001FFFF80007FFFFFFFFFF80001FF
310
FFFFFFFF80000FF8000001FFFE0000007FFFFFF0001FFFFFF8000FFFFFFFF800
310
0FF8000FFFFFFFF8000FFF0003FFFFFFFFFFFFFFFFFE0000F000FFFFFFFFE000
310
00FFFC000C003FE000C001FFFF80007FFFFFFFFFC00001FFFFFFFFFE00001FF8
310
000001FFFE0000007FFFFFF0001FFFFFF8000FFFFFFFF8000FF8000FFFFFFFF8
310
000FFF0003FFFFFFFFFFFFFFFFF00000F000FFFFFFFE000001FFFC000C001FE0
310
00C000FFFF80007FFFFFFFFE000001FFFFFFFFE000001FF80FFFFFFFFFFFFFC0
310
7FFFFFF0001FFFFFF8000FFFFFFFF8000FF8000FFFFFFFF8000FFF0003FFFFFF
310
FFFFFFFFFF800000F000FFFFFFC0000001FFFC001C001FE001C000FFFF80007F
310
FFFFFF80000003FFFFFFF80000001FF80FFFFFFFFFFFFFC07FFFFFF0001FFFFF
310
F8001FFFFFFFFC000FF8001FFFFFFFFC000FFF0003FFFFFFFFFFFFFFF0000001
310
F000FFFFF800000001FFF8001C001FE001C000FFFF80007FFFFFF800000003FF
310
FFFF800000003FF80FFFFFFFFFFFFFC07FFFFFF0001FFFFFF8001FFFFFFFFC00
310
0FF8001FFFFFFFFC000FFF0003FFFFFFFFFFFFFE00000001F000FFFFC0000000
310
03FFF8001E001FC001E000FFFF80007FFFFF8000000007FFFFFC000000003FF8
310
0FFFFFFFFFFFFFC07FFFFFF0001FFFFFF8001FFFFFFFFC000FF8001FFFFFFFFC
310
000FFF0003FFFFFFFFFFFFE000000003F000FFFE0000000007FFF8001E000FC0
310
01E0007FFF80007FFFFE0000000007FFFFE0000000007FF80FFFFFFFFFFFFFC0
310
7FFFFFF0001FFFFFF0001FFFFFFFFC0007F0001FFFFFFFFC0007FF0003FFFFFF
310
FFFFFF0000000003F000FFF80000000007FFF8001E000FC003E0007FFF80007F
310
FFF0000000000FFFFF8000000000FFF80FFFFFFFFFFFFFC07FFFFFF0001FFFFF
310
F0001FFFFFFFFC0007F0001FFFFFFFFC0007FF0003FFFFFFFFFFFC0000000007
310
F000FFE0000000000FFFF0003E000FC003E0007FFF80007FFFC0000000001FFF
310
FE0000000001FFF80FFFFFFFFFFFFFC07FFFFFF0001FFFFFF0001FFFFFFFFC00
310
07F0001FFFFFFFFC0007FF0003FFFFFFFFFFF0000000000FF000FFC000000000
310
1FFFF0003F000F8003F0003FFF80007FFF80000000003FFFF80000000003FFF8
310
0FFFFFFFFFFFFFC07FFFFFF0001FFFFFF0001FFFFFFFFC0007F0001FFFFFFFFC
310
0007FF0003FFFFFFFFFFE0000000001FF000FF00000000007FFFF0003F000780
310
03F0003FFF80007FFF00000000007FFFF00000000007FFF80FFFFFFFFFFFFFC0
310
7FFFFFF0001FFFFFF0001FFFFFFFFC0007F0001FFFFFFFFC0007FF0003FFFFFF
310
FFFF80000000007FF000FE0000000000FFFFE0003F00078007F0003FFF80007F
310
FE0000000001FFFFE0000000001FFFF80FFFFFFFFFFFFFC07FFFFFF0001FFFFF
310
F0001FFFFFFFFC0007F0001FFFFFFFFC0007FF0003FFFFFFFFFF0000000000FF
310
F000FC0000000003FFFFE0007F00078007F0003FFF80007FFC0000000007FFFF
310
C0000000007FFFF80FFFFFFFFFFFFFC07FFFFFF0001FFFFFF8001FFFFFFFFC00
310
0FF8001FFFFFFFFC000FFF0003FFFFFFFFFE0000000003FFF000FC000000000F
310
FFFFE0007F80070007F8001FFF80007FF8000000001FFFFF8000000001FFFFF8
310
0FFFFFFFFFFFFFC07FFFFFF0001FFFFFF8001FFFFFFFFC000FF8001FFFFFFFFC
310
000FFF0003FFFFFFFFFC000000000FFFF000F8000000007FFFFFE0007F800700
310
07F8001FFF80007FF000000000FFFFFF800000000FFFFFF80FFFFFFFFFFFFFC0
310
7FFFFFF0001FFFFFF8000FFFFFFFF8000FF8000FFFFFFFF8000FFF0003FFFFFF
310
FFFC000000007FFFF000F800000007FFFFFFC0007F8003000FF8001FFF80007F
310
F000000007FFFFFF000000007FFFFFF80FFFFFFFFFFFFFC07FFFFFF0001FFFFF
310
F8000FFFFFFFF8000FF8000FFFFFFFF8000FFF0003FFFFFFFFF80000000FFFFF
310
F000F0000000FFFFFFFFC000FF8003000FF8001FFF80007FE0000000FFFFFFFF
310
0000000FFFFFFFF8000001FFFE0000007FFFFFF0001FFFFFF8000FFFFFFFF800
310
0FF8000FFFFFFFF8000FFF0003FFFFFFFFF8000000FFFFFFF000F000000FFFFF
310
FFFFC000FFC002000FF8000FFF80007FE000001FFFFFFFFE000001FFFFFFFFF8
310
000001FFFE0000007FFFFFF0001FFFFFF8000FFFFFFFF8000FF8000FFFFFFFF8
310
000FFF0003FFFFFFFFF000001FFFFFFFF000E00000FFFFFFFFFFC000FFC00200
310
0FFC000FFF80007FE00001FFFFFFFFFE00001FFFFFFFFFF8000001FFFE000000
310
7FFFFFF0001FFFFFFC000FFFFFFFF8001FFC000FFFFFFFF8001FFF0003FFFFFF
310
FFF00001FFFFFFFFF000E00007FFFFFFFFFF8000FFC000001FFC000FFF80007F
310
C0000FFFFFFFFFFE0000FFFFFFFFFFF8000001FFFE0000007FFFFFF0001FFFFF
310
FC0007FFFFFFF0001FFC0007FFFFFFF0001FFF0003FFFFFFFFF00007FFFFFFFF
310
F000E0001FFFFFFFFFFF8000FFC000001FFC000FFF80007FC0003FFFFFFFFFFE
310
0001FFFFFFFFFFF8000001FFFE0000007FFFFFF0001FFFFFFC0007FFFFFFF000
310
1FFC0007FFFFFFF0001FFF0003FFFFFFFFF0001FFFFFFFFFF000E0003FFFFF00
310
03FF8001FFE000001FFC0007FF80007FC0007FFFFF0007FC0003FFFFF0003FF8
310
000001FFFE0000007FFFFFF0001FFFFFFC0003FFFFFFE0001FFC0003FFFFFFE0
310
001FFF0003FFFFFFFFF0003FFFFFFFFFF000E0003FFFFF0001FF8001FFE00000
310
1FFE0007FF80007FC0007FFFFE0003FC0007FFFFE0003FF8000001FFFE000000
310
7FFFFFF0001FFFFFFE0003FFFFFFE0003FFE0003FFFFFFE0003FFF0003FFFFFF
310
FFF0003FFFFF8001F000E0003FFFFF0001FF0001FFE000001FFE0007FF80007F
310
C0007FFFFE0003FC0007FFFFE0003FF8000001FFFE0000007FFFFFF0001FFFFF
310
FE0001FFFFFFC0003FFE0001FFFFFFC0003FFF0003FFFFFFFFF0003FFFFF0001
310
F000E0003FFFFF0003FF0001FFE000003FFE0007FF80007FC0007FFFFE0003FC
310
0007FFFFE0003FF8000001FFFE0000007FFFFFF0001FFFFFFF0001FFFFFFC000
310
7FFF0001FFFFFFC0007FFF0003FFFFFFFFF0003FFFFF0001F000E0003FFFFE00
310
03FF0003FFF000003FFE0003FF80007FC0007FFFFC0003FE0007FFFFE0003FF8
310
000001FFFE0000007FFFFFF0001FFFFFFF0000FFFFFF80007FFF0000FFFFFF80
310
007FFF0003FFFFFFFFF0003FFFFF0001F000E0003FFFFE0003FF0003FFF00000
310
3FFF0003FF80007FC0007FFFFC0007FE0007FFFFC0003FF8000001FFFE000000
310
7FFFFFF0001FFFFFFF80007FFFFF0000FFFF80007FFFFF0000FFFF0003FFFFFF
310
FFF0003FFFFF0003F000E0003FFFFC0003FE0003FFF000003FFF0003FF80007F
310
E0003FFFF80007FE0003FFFFC0007FF8000001FFFE0000007FFFFFF0001FFFFF
310
FF80003FFFFE0000FFFF80003FFFFE0000FFFF0003FFFFFFFFF0001FFFFE0003
310
F000F0001FFFF80003FE0003FFF000007FFF0001FF80007FE0003FFFF00007FE
310
0001FFFF80007FF8000001FFFE0000007FFFFFF0001FFFFFFFC0000FFFF80001
310
FFFFC0000FFFF80001FFFF0003FFFFFFFFF0001FFFFC0003F000F0000FFFF000
310
07FE0007FFF800007FFF0001FF80007FE0001FFFE00007FF0000FFFE00007FF8
310
000001FFFE0000007FFFFFF0001FFFFFFFC00003FFE00001FFFFC00003FFE000
310
01FFFF0003FFFFFFFFF8000FFFF80003F000F00003FFC00007FC0007FFF80000
310
7FFF8001FF80007FF00007FF80000FFF00007FF80000FFF8000001FFFE000000
310
7F80000000000001FFE000003E000003FFFFE000003E000003FFFF0003FFFFFF
310
FFF80003FFE00007F000F800000000000FFC0007FFF800007FFF8001FF80007F
310
F000000000000FFF000000000000FFF8000001FFFE0000007F80000000000001
310
FFF0000000000007FFFFF0000000000007FFFF0003FFFFFFFFFC00007E000007
310
F000F800000000000FFC0007FFF80000FFFF8000FF80007FF800000000001FFF
310
800000000001FFF8000001FFFE0000007F80000000000001FFF800000000000F
310
FFFFF800000000000FFFFF0003FFFFFFFFFC00000000000FF000FC0000000000
310
1FFC0007FFFC0000FFFF8000FF80007FF800000000003FFFC00000000001FFF8
310
000001FFFE0000007F80000000000001FFF800000000000FFFFFF80000000000
310
0FFFFF0003FFFFFFFFFE00000000001FF000FE00000000003FF8000FFFFC0000
310
FFFF8000FF80007FFC00000000003FFFC00000000003FFF8000001FFFE000000
310
7F80000000000001FFFC00000000001FFFFFFC00000000001FFFFF0003FFFFFF
310
FFFF00000000001FF000FF00000000003FF8000FFFFC0000FFFFC000FF80007F
310
FE00000000007FFFE00000000007FFF8000001FFFE0000007F80000000000001
310
FFFE00000000003FFFFFFE00000000003FFFFF0003FFFFFFFFFF80000000003F
310
F000FF80000000007FF8000FFFFC0001FFFFC0007F80007FFF0000000000FFFF
310
F0000000000FFFF800000000000000007F80000000000001FFFF8000000000FF
310
FFFFFF8000000000FFFFFF0003FFFFFFFFFFC0000000007FF000FFC000000000
310
FFF8000FFFFE0001FFFFC0007F80007FFF8000000001FFFFF8000000001FFFF8
310
00000000000000007F80000000000001FFFFC000000001FFFFFFFFC000000001
310
FFFFFF0003FFFFFFFFFFE000000000FFF000FFE000000003FFF0001FFFFE0001
310
FFFFC0007F80007FFFC000000007FFFFFE000000003FFFF80000000000000000
310
7F80000000000001FFFFE000000003FFFFFFFFE000000003FFFFFF0003FFFFFF
310
FFFFF000000003FFF000FFF80000000FFFF0001FFFFE0001FFFFE0007F80007F
310
FFF00000000FFFFFFF00000000FFFFF800000000000000007F80000000000001
310
FFFFF80000000FFFFFFFFFF80000000FFFFFFF0003FFFFFFFFFFFC0000000FFF
310
F000FFFE0000003FFFF0001FFFFE0003FFFFE0003F80007FFFFC0000003FFFFF
310
FFC0000003FFFFF800000000000000007F80000000000001FFFFFE0000003FFF
310
FFFFFFFE0000003FFFFFFF0003FFFFFFFFFFFF0000003FFFF000FFFF800000FF
310
FFF0001FFFFF0003FFFFE0003F80007FFFFF000001FFFFFFFFF800001FFFFFF8
310
00000000000000007F80000000000001FFFFFFC00001FFFFFFFFFFFFC00001FF
310
FFFFFF0003FFFFFFFFFFFFC00000FFFFF000FFFFF8000FFFFFFFFFFFFFFFFFFF
310
FFFFFFFFFFFFFFFFFFFFF0001FFFFFFFFFFF0000FFFFFFF80000000000000000
310
7FFFFFFFFFFFFFFFFFFFFFFC001FFFFFFFFFFFFFFC001FFFFFFFFFFFFFFFFFFF
310
FFFFFFFC001FFFFFF000FFFFFFFFFFFFFFFFFFFFFFFFFFFFFFFFFFFFFFFFFFFF
310
FFFFFFFFFFFFFFFFFFFFFFFFFFFFFFFFFFFFFFFFFFFFFFFFFFFFFFFFFFFFFFFF
310
FFFFFFFFFFFFFFFFFFFFFFFFFFFFFFFFFFFFFFFFFFFFFFFFFFFFFFFFFFFFFFFF
310
F000FFFFFFFFFFFFFFFFFFFFFFFFFFFFFFFFFFFFFFFFFFFFFFFFFFFFFFFFFFFF
310
FFFFFFFFFFFFFFFFFFFFFFFFFFFFFFFFFFFFFFFFFFFFFFFFFFFFFFFFFFFFFFFF
310
FFFFFFFFFFFFFFFFFFFFFFFFFFFFFFFFFFFFFFFFFFFFFFFFF000FFFFFFFFFFFF
310
FFFFFFFFFFFFFFFFFFFFFFFFFFFFFFFFFFFFFFFFFFFFFFFFFFFFFFFFFFFFFFFF
310
FFFFFFFFFFFFFFFFFFFFFFFFFFFFFFFFFFFFFFFFFFFFFFFFFFFFFFFFFFFFFFFF
310
FFFFFFFFFFFFFFFFFFFFFFFFFFFFFFFFF000FFFFFFFFFFFFFFFFFFFFFFFFFFFF
310
FFFFFFFFFFFFFFFFFFFFFFFFFFFFFFFFFFFFFFFFFFFFFFFFFFFFFFFFFFFFFFFF
310
FFFFFFFFFFFFFFFFFFFFFFFFFFFFFFFFFFFFFFFFFFFFFFFFFFFFFFFFFFFFFFFF
310
FFFFFFFFFFFFFFFFF000FFFFFFFFFFFFFFFFFFFFFFFFFFFFFFFFFFFFFFFFFFFF
310
FFFFFFFFFFFFFFFFFFFFFFFFFFFFFFFFFFFFFFFFFFFFFFFFFFFFFFFFFFFFFFFF
310
FFFFFFFFFFFFFFFFFFFFFFFFFFFFFFFFFFFFFFFFFFFFFFFFFFFFFFFFFFFFFFFF
310
F000FFFFFFFFFFFFFFFFFFFFFFFFFFFFFFFFFFFFFFFFFFFFFFFFFFFFFFFFFFFF
310
FFFFFFFFFFFFFFFFFFFFFFFFFFFFFFFFFFFFFFFFFFFFFFFFFFFFFFFFFFFFFFFF
310
FFFFFFFFFFFFFFFFFFFFFFFFFFFFFFFFFFFFFFFFFFFFFFFFF000FFFFFFFFFFFF
310
FFFFFFFFFFFFFFFFFFFFFFFFFFFFFFFFFFFFFFFFFFFFFFFFFFFFFFFFFFFFFFFF
310
FFFFFFFFFFFFFFFFFFFFFFFFFFFFFFFFFFFFFFFFFFFFFFFFFFFFFFFFFFFFFFFF
310
FFFFFFFFFFFFFFFFFFFFFFFFFFFFFFFFF000FFFFFFFFFFFFFFFFFFFFFFFFFFFF
310
FFFFFFFFFFFFFFFFFFFFFFFFFFFFFFFFFFFFFFFFFFFFFFFFFFFFFFFFFFFFFFFF
310
FFFFFFFFFFFFFFFFFFFFFFFFFFFFFFFFFFFFFFFFFFFFFFFFFFFFFFFFFFFFFFFF
310
FFFFFFFFFFFFFFFFF000FFFFFFFFFFFFFFFFFFFFFFFFFFFFFFFFFFFFFFFFFFFF
310
FFFFFFFFFFFFFFFFFFFFFFFFFFFFFFFFFFFFFFFFFFFFFFFFFFFFFFFFFFFFFFFF
310
FFFFFFFFFFFFFFFFFFFFFFFFFFFFFFFFFFFFFFFFFFFFFFFFFFFFFFFFFFFFFFFF
310
F000FFFFFFFFFFFFFFFFFFFFFFFFFFFFFFFFFFFFFFFFFFFFFFFFFFFFFFFFFFFF
310
FFFFFFFFFFFFFFFFFFFFFFFFFFFFFFFFFFFFFFFFFFFFFFFFFFFFFFFFFFFFFFFF
310
FFFFFFFFFFFFFFFFFFFFFFFFFFFFFFFFFFFFFFFFFFFFFFFFF000FFFFFFFFFFFF
310
FFFFFFFFFFFFFFFFFFFFFFFFFFFFFFFFFFFFFFFFFFFFFFFFFFFFFFFFFFFFFFFF
310
FFFFFFFFFFFFFFFFFFFFFFFFFFFFFFFFFFFFFFFFFFFFFFFFFFFFFFFFFFFFFFFF
310
FFFFFFFFFFFFFFFFFFFFFFFFFFFFFFFFF000FFFFFFFFFFFFFFFFFFFFFFFFFFFF
310
FFFFFFFFFFFFFFFFFFFFFFFFFFFFFFFFFFFFFFFFFFFFFFFFFFFFFFFFFFFFFFFF
310
FFFFFFFFFFFFFFFFFFFFFFFFFFFFFFFFFFFFFFFFFFFFFFFFFFFFFFFFFFFFFFFF
310
FFFFFFFFFFFFFFFFF000FFFFFFFFFFFFFFFFFFFFFFFFFFFFFFFFFFFFFFFFFFFF
310
FFFFFFFFFFFFFFFFFFFFFFFFFFFFFFFFFFFFFFFFFFFFFFFFFFFFFFFFFFFFFFFF
310
FFFFFFFFFFFFFFFFFFFFFFFFFFFFFFFFFFFFFFFFFFFFFFFFFFFFFFFFFFFFFFFF
310
F000FFFFFFFFFFFFFFFFFFFFFFFFFFFFFFFFFFFFFFFFFFFFFFFFFFFFFFFFFFFF
310
FFFFFFFFFFFFFFFFFFFFFFFFFFFFFFFFFFFFFFFFFFFFFFFFFFFFFFFFFFFFFFFF
310
FFFFFFFFFFFFFFFFFFFFFFFFFFFFFFFFFFFFFFFFFFFFFFFFF000FFFFFFFFFFFF
310
FFFFFFFFFFFFFFFFFFFFFFFFFFFFFFFFFFFFFFFFFFFFFFFFFFFFFFFFFFFFFFFF
310
FFFFFFFFFFFFFFFFFFFFFFFFFFFFFFFFFFFFFFFFFFFFFFFFFFFFFFFFFFFFFFFF
310
FFFFFFFFFFFFFFFFFFFFFFFFFFFFFFFFF000FFFFFFFFFFFFFFFFFFFFFFFFFFFF
310
FFFFFFFFFFFFFFFFFFFFFFFFFFFFFFFFFFFFFFFFFFFFFFFFFFFFFFFFFFFFFFFF
310
FFFFFFFFFFFFFFFFFFFFFFFFFFFFFFFFFFFFFFFFFFFFFFFFFFFFFFFFFFFFFFFF
310
FFFFFFFFFFFFFFFFF000FFFFFFFFFFFFFFFFFFFFFFFFFFFFFFFFFFFFFFFFFFFF
310
FFFFFFFFFFFFFFFFFFFFFFFFFFFFFFFFFFFFFFFFFFFFFFFFFFFFFFFFFFFFFFFF
310
FFFFFFFFFFFFFFFFFFFFFFFFFFFFFFFFFFFFFFFFFFFFFFFFFFFFFFFFFFFFFFFF
310
F000FFFFFFFFFFFFFFFFFFFFFFFFFFFFFFFFFFFFFFFFFFFFFFFFFFFFFFFFFFFF
310
FFFFFFFFFFFFFFFFFFFFFFFFFFFFFFFFFFFFFFFFFFFFFFFFFFFFFFFFFFFFFFFF
310
FFFFFFFFFFFFFFFFFFFFFFFFFFFFFFFFFFFFFFFFFFFFFFFFF000FFFFFFFFFFFF
310
FFFFFFFFFFFFFFFFFFFFFFFFFFFFFFFFFFFFFFFFFFFFFFFFFFFFFFFFFFFFFFFF
310
FFFFFFFFFFFFFFFFFFFFFFFFFFFFFFFFFFFFFFFFFFFFFFFFFFFFFFFFFFFFFFFF
310
FFFFFFFFFFFFFFFFFFFFFFFFFFFFFFFFF000FFFFFFFFFFFFFFFFFFFFFFFFFFFF
310
FFFFFFFFFFFFFFFFFFFFFFFFFFFFFFFFFFFFFFFFFFFFFFFFFFFFFFFFFFFFFFFF
310
FFFFFFFFFFFFFFFFFFFFFFFFFFFFFFFFFFFFFFFFFFFFFFFFFFFFFFFFFFFFFFFF
310
FFFFFFFFFFFFFFFFF000FFFFFFFFFFFFFFFFFFFFFFFFFFFFFFFFFFFFFFFFFFFF
310
FFFFFFFFFFFFFFFFFFFFFFFFFFFFFFFFFFFFFFFFFFFFFFFFFFFFFFFFFFFFFFFF
310
FFFFFFFFFFFFFFFFFFFFFFFFFFFFFFFFFFFFFFFFFFFFFFFFFFFFFFFFFFFFFFFF
310
F000FFFFFFFFFFFFFFFFFFFFFFFFFFFFFFFFFFFFFFFFFFFFFFFFFFFFFFFFFFFF
310
FFFFFFFFFFFFFFFFFFFFFFFFFFFFFFFFFFFFFFFFFFFFFFFFFFFFFFFFFFFFFFFF
310
FFFFFFFFFFFFFFFFFFFFFFFFFFFFFFFFFFFFFFFFFFFFFFFFF000FFFFFFFFFFFF
310
FFFFFFFFFFFFFFFFFFFFFFFFFFFFFFFFFFFFFFFFFFFFFFFFFFFFFFFFFFFFFFFF
310
FFFFFFFFFFFFFFFFFFFFFFFFFFFFFFFFFFFFFFFFFFFFFFFFFFFFFFFFFFFFFFFF
310
FFFFFFFFFFFFFFFFFFFFFFFFFFFFFFFFF0000000000000000000000000000000
310
0000000000000000000000000000000000000000000000000000000000000000
310
0000000000000000000000000000000000000000000000000000000000000000
310
0000000000000000000000000000000000000000000000000000000000000000
310
0000000000000000000000000000000000000000000000000000000000000000
310
0000000000000000000000000000000000000000000000000000000000000000
310
0000000000000000000000000000000000000000000000000000000000000000
310
0000000000000000000000000000000000000000000000000000000000000000
310
0000000000000000000000000000000000000000000000000000000000000000
310
0000000000000000000000000000000000000000000000000000000000000000
310
0000000000000000000000000000000000000000000000000000000000000000
310
0000000000000000000000000000000000000000000000000000000000000000
310
0000000000000000000000000000000000000000000000000000000000000000
310
0000000000000000000000000000000000000000000000000000000000000000
310
0000000000000000000000000000000000000000000000000000000000000000
310
0000000000000000000000000000000000000000000000000000000000000000
  1
OLE
  0
ENDSEC
  0
SECTION
  2
OBJECTS
  0
DICTIONARY
  5
C
330
0
100
AcDbDictionary
281
     1
  3
ACAD_GROUP
350
D
  3
ACAD_LAYOUT
350
1A
  3
ACAD_MLINESTYLE
350
17
  3
ACAD_PLOTSETTINGS
350
19
  3
ACAD_PLOTSTYLENAME
350
E
  0
DICTIONARY
  5
D
102
{ACAD_REACTORS
330
C
102
}
330
C
100
AcDbDictionary
281
     1
  0
DICTIONARY
  5
1A
102
{ACAD_REACTORS
330
C
102
}
330
C
100
AcDbDictionary
281
     1
  3
Layout1
350
1E
  3
Layout2
350
26
  3
Model
350
22
  0
DICTIONARY
  5
17
102
{ACAD_REACTORS
330
C
102
}
330
C
100
AcDbDictionary
281
     1
  3
Standard
350
18
  0
DICTIONARY
  5
19
102
{ACAD_REACTORS
330
C
102
}
330
C
100
AcDbDictionary
281
     1
  0
ACDBDICTIONARYWDFLT
  5
E
102
{ACAD_REACTORS
330
C
102
}
330
C
100
AcDbDictionary
281
     1
  3
Normal
350
F
100
AcDbDictionaryWithDefault
340
F
  0
LAYOUT
  5
1E
102
{ACAD_REACTORS
330
1A
102
}
330
1A
100
AcDbPlotSettings
  1

  2
none_device
  4

  6

 40
0.0
 41
0.0
 42
0.0
 43
0.0
 44
0.0
 45
0.0
 46
0.0
 47
0.0
 48
0.0
 49
0.0
140
0.0
141
0.0
142
1.0
143
1.0
 70
   688
 72
     0
 73
     0
 74
     5
  7

 75
    16
147
1.0
148
0.0
149
0.0
100
AcDbLayout
  1
Layout1
 70
     1
 71
     1
 10
0.0
 20
0.0
 11
420.0
 21
297.0
 12
0.0
 22
0.0
 32
0.0
 14
1.0000000000E+20
 24
1.0000000000E+20
 34
1.0000000000E+20
 15
-1.0000000000E+20
 25
-1.0000000000E+20
 35
-1.0000000000E+20
146
0.0
 13
0.0
 23
0.0
 33
0.0
 16
1.0
 26
0.0
 36
0.0
 17
0.0
 27
1.0
 37
0.0
 76
     0
330
1B
  0
LAYOUT
  5
26
102
{ACAD_REACTORS
330
1A
102
}
330
1A
100
AcDbPlotSettings
  1

  2
none_device
  4

  6

 40
0.0
 41
0.0
 42
0.0
 43
0.0
 44
0.0
 45
0.0
 46
0.0
 47
0.0
 48
0.0
 49
0.0
140
0.0
141
0.0
142
1.0
143
1.0
 70
   688
 72
     0
 73
     0
 74
     5
  7

 75
    16
147
1.0
148
0.0
149
0.0
100
AcDbLayout
  1
Layout2
 70
     1
 71
     2
 10
0.0
 20
0.0
 11
0.0
 21
0.0
 12
0.0
 22
0.0
 32
0.0
 14
0.0
 24
0.0
 34
0.0
 15
0.0
 25
0.0
 35
0.0
146
0.0
 13
0.0
 23
0.0
 33
0.0
 16
1.0
 26
0.0
 36
0.0
 17
0.0
 27
1.0
 37
0.0
 76
     0
330
23
  0
LAYOUT
  5
22
102
{ACAD_REACTORS
330
1A
102
}
330
1A
100
AcDbPlotSettings
  1

  2
none_device
  4

  6

 40
0.0
 41
0.0
 42
0.0
 43
0.0
 44
0.0
 45
0.0
 46
0.0
 47
0.0
 48
0.0
 49
0.0
140
0.0
141
0.0
142
1.0
143
1.0
 70
  1712
 72
     0
 73
     0
 74
     0
  7

 75
     0
147
1.0
148
0.0
149
0.0
100
AcDbLayout
  1
Model
 70
     1
 71
     0
 10
0.0
 20
0.0
 11
297.0
 21
210.0
 12
0.0
 22
0.0
 32
0.0
 14
0.0
 24
0.0
 34
0.0
 15
297.0
 25
210.0
 35
0.0
146
0.0
 13
0.0
 23
0.0
 33
0.0
 16
1.0
 26
0.0
 36
0.0
 17
0.0
 27
1.0
 37
0.0
 76
     0
330
1F
331
29
  0
MLINESTYLE
  5
18
102
{ACAD_REACTORS
330
17
102
}
330
17
100
AcDbMlineStyle
  2
Standard
 70
     0
  3

 62
   256
 51
90.0
 52
90.0
 71
     2
 49
0.5
 62
   256
  6
BYLAYER
 49
-0.5
 62
   256
  6
BYLAYER
  0
ACDBPLACEHOLDER
  5
F
102
{ACAD_REACTORS
330
E
102
}
330
E
  0
ENDSEC
  0
EOF
