  0
SECTION
  2
HEADER
  9
$ACADVER
  1
AC1015
  9
$ACADMAINTVER
 70
     6
  9
$DWGCODEPAGE
  3
ANSI_1252
  9
$INSBASE
 10
0.0
 20
0.0
 30
0.0
  9
$EXTMIN
 10
0.0
 20
0.0
 30
0.0
  9
$EXTMAX
 10
297.0
 20
210.0
 30
0.0
  9
$LIMMIN
 10
0.0
 20
0.0
  9
$LIMMAX
 10
297.0
 20
210.0
  9
$ORTHOMODE
 70
     0
  9
$REGENMODE
 70
     1
  9
$FILLMODE
 70
     1
  9
$QTEXTMODE
 70
     0
  9
$MIRRTEXT
 70
     1
  9
$LTSCALE
 40
1.0
  9
$ATTMODE
 70
     1
  9
$TEXTSIZE
 40
2.0
  9
$TRACEWID
 40
1.0
  9
$TEXTSTYLE
  7
Standard
  9
$CLAYER
  8
0
  9
$CELTYPE
  6
ByLayer
  9
$CECOLOR
 62
   256
  9
$CELTSCALE
 40
1.0
  9
$DISPSILH
 70
     0
  9
$DIMSCALE
 40
1.0
  9
$DIMASZ
 40
3.0
  9
$DIMEXO
 40
0.0
  9
$DIMDLI
 40
3.75
  9
$DIMRND
 40
0.0
  9
$DIMDLE
 40
0.0
  9
$DIMEXE
 40
1.0
  9
$DIMTP
 40
0.0
  9
$DIMTM
 40
0.0
  9
$DIMTXT
 40
2.0
  9
$DIMCEN
 40
2.5
  9
$DIMTSZ
 40
0.0
  9
$DIMTOL
 70
     0
  9
$DIMLIM
 70
     0
  9
$DIMTIH
 70
     1
  9
$DIMTOH
 70
     1
  9
$DIMSE1
 70
     0
  9
$DIMSE2
 70
     0
  9
$DIMTAD
 70
     1
  9
$DIMZIN
 70
     0
  9
$DIMBLK
  1

  9
$DIMASO
 70
     1
  9
$DIMSHO
 70
     1
  9
$DIMPOST
  1

  9
$DIMAPOST
  1

  9
$DIMALT
 70
     0
  9
$DIMALTD
 70
     3
  9
$DIMALTF
 40
0.0393700787
  9
$DIMLFAC
 40
1.0
  9
$DIMTOFL
 70
     1
  9
$DIMTVP
 40
0.0
  9
$DIMTIX
 70
     0
  9
$DIMSOXD
 70
     0
  9
$DIMSAH
 70
     0
  9
$DIMBLK1
  1

  9
$DIMBLK2
  1

  9
$DIMSTYLE
  2
ISO-25
  9
$DIMCLRD
 70
     0
  9
$DIMCLRE
 70
     0
  9
$DIMCLRT
 70
     0
  9
$DIMTFAC
 40
1.0
  9
$DIMGAP
 40
1.524
  9
$DIMJUST
 70
     0
  9
$DIMSD1
 70
     0
  9
$DIMSD2
 70
     0
  9
$DIMTOLJ
 70
     0
  9
$DIMTZIN
 70
     0
  9
$DIMALTZ
 70
     0
  9
$DIMALTTZ
 70
     0
  9
$DIMUPT
 70
     0
  9
$DIMDEC
 70
     2
  9
$DIMTDEC
 70
     3
  9
$DIMALTU
 70
     2
  9
$DIMALTTD
 70
     3
  9
$DIMTXSTY
  7
Standard
  9
$DIMAUNIT
 70
     0
  9
$DIMADEC
 70
     2
  9
$DIMALTRND
 40
0.0
  9
$DIMAZIN
 70
     0
  9
$DIMDSEP
 70
    44
  9
$DIMATFIT
 70
     3
  9
$DIMFRAC
 70
     0
  9
$DIMLDRBLK
  1

  9
$DIMLUNIT
 70
     2
  9
$DIMLWD
 70
    -2
  9
$DIMLWE
 70
    -2
  9
$DIMTMOVE
 70
     0
  9
$LUNITS
 70
     2
  9
$LUPREC
 70
     2
  9
$SKETCHINC
 40
1.0
  9
$FILLETRAD
 40
10.0
  9
$AUNITS
 70
     0
  9
$AUPREC
 70
     2
  9
$MENU
  1
.
  9
$ELEVATION
 40
0.0
  9
$PELEVATION
 40
0.0
  9
$THICKNESS
 40
0.0
  9
$LIMCHECK
 70
     0
  9
$CHAMFERA
 40
10.0
  9
$CHAMFERB
 40
10.0
  9
$CHAMFERC
 40
20.0
  9
$CHAMFERD
 40
0.0
  9
$SKPOLY
 70
     0
  9
$TDCREATE
 40
2456036.404100081
  9
$TDUCREATE
 40
2456036.320766747
  9
$TDUPDATE
 40
2456036.404101528
  9
$TDUUPDATE
 40
2456036.320768194
  9
$TDINDWG
 40
0.0000000116
  9
$TDUSRTIMER
 40
0.0000000116
  9
$USRTIMER
 70
     1
  9
$ANGBASE
 50
0.0
  9
$ANGDIR
 70
     0
  9
$PDMODE
 70
     0
  9
$PDSIZE
 40
-1.0
  9
$PLINEWID
 40
0.0
  9
$SPLFRAME
 70
     0
  9
$SPLINETYPE
 70
     6
  9
$SPLINESEGS
 70
     8
  9
$HANDSEED
  5
2ED
  9
$SURFTAB1
 70
     6
  9
$SURFTAB2
 70
     6
  9
$SURFTYPE
 70
     6
  9
$SURFU
 70
     6
  9
$SURFV
 70
     6
  9
$UCSBASE
  2

  9
$UCSNAME
  2

  9
$UCSORG
 10
0.0
 20
0.0
 30
0.0
  9
$UCSXDIR
 10
1.0
 20
0.0
 30
0.0
  9
$UCSYDIR
 10
0.0
 20
1.0
 30
0.0
  9
$UCSORTHOREF
  2

  9
$UCSORTHOVIEW
 70
     0
  9
$UCSORGTOP
 10
0.0
 20
0.0
 30
0.0
  9
$UCSORGBOTTOM
 10
0.0
 20
0.0
 30
0.0
  9
$UCSORGLEFT
 10
0.0
 20
0.0
 30
0.0
  9
$UCSORGRIGHT
 10
0.0
 20
0.0
 30
0.0
  9
$UCSORGFRONT
 10
0.0
 20
0.0
 30
0.0
  9
$UCSORGBACK
 10
0.0
 20
0.0
 30
0.0
  9
$PUCSBASE
  2

  9
$PUCSNAME
  2

  9
$PUCSORG
 10
0.0
 20
0.0
 30
0.0
  9
$PUCSXDIR
 10
1.0
 20
0.0
 30
0.0
  9
$PUCSYDIR
 10
0.0
 20
1.0
 30
0.0
  9
$PUCSORTHOREF
  2

  9
$PUCSORTHOVIEW
 70
     0
  9
$PUCSORGTOP
 10
0.0
 20
0.0
 30
0.0
  9
$PUCSORGBOTTOM
 10
0.0
 20
0.0
 30
0.0
  9
$PUCSORGLEFT
 10
0.0
 20
0.0
 30
0.0
  9
$PUCSORGRIGHT
 10
0.0
 20
0.0
 30
0.0
  9
$PUCSORGFRONT
 10
0.0
 20
0.0
 30
0.0
  9
$PUCSORGBACK
 10
0.0
 20
0.0
 30
0.0
  9
$USERI1
 70
     0
  9
$USERI2
 70
     0
  9
$USERI3
 70
     0
  9
$USERI4
 70
     0
  9
$USERI5
 70
     0
  9
$USERR1
 40
0.0
  9
$USERR2
 40
0.0
  9
$USERR3
 40
0.0
  9
$USERR4
 40
0.0
  9
$USERR5
 40
0.0
  9
$WORLDVIEW
 70
     1
  9
$SHADEDGE
 70
     3
  9
$SHADEDIF
 70
    70
  9
$TILEMODE
 70
     1
  9
$MAXACTVP
 70
    64
  9
$PINSBASE
 10
0.0
 20
0.0
 30
0.0
  9
$PLIMCHECK
 70
     0
  9
$PEXTMIN
 10
1.0000000000E+20
 20
1.0000000000E+20
 30
1.0000000000E+20
  9
$PEXTMAX
 10
-1.0000000000E+20
 20
-1.0000000000E+20
 30
-1.0000000000E+20
  9
$PLIMMIN
 10
0.0
 20
0.0
  9
$PLIMMAX
 10
420.0
 20
297.0
  9
$UNITMODE
 70
     0
  9
$VISRETAIN
 70
     1
  9
$PLINEGEN
 70
     0
  9
$PSLTSCALE
 70
     1
  9
$TREEDEPTH
 70
  3020
  9
$CMLSTYLE
  2
Standard
  9
$CMLJUST
 70
     0
  9
$CMLSCALE
 40
20.0
  9
$PROXYGRAPHICS
 70
     1
  9
$MEASUREMENT
 70
     1
  9
$CELWEIGHT
370
    -1
  9
$ENDCAPS
280
     0
  9
$JOINSTYLE
280
     0
  9
$LWDISPLAY
290
     1
  9
$INSUNITS
 70
     4
  9
$HYPERLINKBASE
  1

  9
$STYLESHEET
  1

  9
$XEDIT
290
     1
  9
$CEPSNTYPE
380
     0
  9
$PSTYLEMODE
290
     1
  9
$FINGERPRINTGUID
  2
{878036EF-E045-4A5A-96C4-E0CB2739B051}
  9
$VERSIONGUID
  2
{FAEB1C32-E019-11D5-929B-00C0DF256EC4}
  9
$EXTNAMES
290
     1
  9
$PSVPSCALE
 40
0.0
  9
$OLESTARTUP
290
     0
  0
ENDSEC
  0
SECTION
  2
CLASSES
  0
CLASS
  1
ACDBDICTIONARYWDFLT
  2
AcDbDictionaryWithDefault
  3
ObjectDBX Classes
 90
        0
280
     0
281
     0
  0
CLASS
  1
VISUALSTYLE
  2
AcDbVisualStyle
  3
ObjectDBX Classes
 90
     4095
280
     0
281
     0
  0
CLASS
  1
MATERIAL
  2
AcDbMaterial
  3
ObjectDBX Classes
 90
     1153
280
     0
281
     0
  0
CLASS
  1
ACDBPLACEHOLDER
  2
AcDbPlaceHolder
  3
ObjectDBX Classes
 90
        0
280
     0
281
     0
  0
CLASS
  1
LAYOUT
  2
AcDbLayout
  3
ObjectDBX Classes
 90
        0
280
     0
281
     0
  0
ENDSEC
  0
SECTION
  2
TABLES
  0
TABLE
  2
VPORT
  5
8
330
0
100
AcDbSymbolTable
 70
     1
  0
VPORT
  5
29
330
8
100
AcDbSymbolTableRecord
100
AcDbViewportTableRecord
  2
*Active
 70
     0
 10
0.0
 20
0.0
 11
1.0
 21
1.0
 12
148.5
 22
105.0
 13
0.0
 23
0.0
 14
10.0
 24
10.0
 15
10.0
 25
10.0
 16
0.0
 26
0.0
 36
1.0
 17
0.0
 27
0.0
 37
0.0
 40
210.0
 41
1.4142857143
 42
50.0
 43
0.0
 44
0.0
 50
0.0
 51
0.0
 71
     0
 72
  2000
 73
     1
 74
     3
 75
     0
 76
     0
 77
     0
 78
     0
281
     0
 65
     1
110
0.0
120
0.0
130
0.0
111
1.0
121
0.0
131
0.0
112
0.0
122
1.0
132
0.0
 79
     0
146
0.0
  0
ENDTAB
  0
TABLE
  2
LTYPE
  5
5
330
0
100
AcDbSymbolTable
 70
     6
  0
LTYPE
  5
14
330
5
100
AcDbSymbolTableRecord
100
AcDbLinetypeTableRecord
  2
ByBlock
 70
     0
  3

 72
    65
 73
     0
 40
0.0
  0
LTYPE
  5
15
330
5
100
AcDbSymbolTableRecord
100
AcDbLinetypeTableRecord
  2
ByLayer
 70
     0
  3

 72
    65
 73
     0
 40
0.0
  0
LTYPE
  5
16
330
5
100
AcDbSymbolTableRecord
100
AcDbLinetypeTableRecord
  2
Continuous
 70
     0
  3
Solid line
 72
    65
 73
     0
 40
0.0
  0
LTYPE
  5
3F
330
5
100
AcDbSymbolTableRecord
100
AcDbLinetypeTableRecord
  2
HIDDEN
 70
     0
  3
Hidden __ __ __ __ __ __ __ __ __ __ __ __ __ __
 72
    65
 73
     2
 40
1.905
 49
1.27
 74
     0
 49
-0.635
 74
     0
  0
LTYPE
  5
40
330
5
100
AcDbSymbolTableRecord
100
AcDbLinetypeTableRecord
  2
PHANTOM
 70
     0
  3
Phantom ______  __  __  ______  __  __  ______
 72
    65
 73
     6
 40
12.7
 49
6.35
 74
     0
 49
-1.27
 74
     0
 49
1.27
 74
     0
 49
-1.27
 74
     0
 49
1.27
 74
     0
 49
-1.27
 74
     0
  0
LTYPE
  5
41
330
5
100
AcDbSymbolTableRecord
100
AcDbLinetypeTableRecord
  2
CENTER
 70
     0
  3
Center ____ _ ____ _ ____ _ ____ _ ____ _ ____
 72
    65
 73
     4
 40
10.16
 49
6.35
 74
     0
 49
-1.27
 74
     0
 49
1.27
 74
     0
 49
-1.27
 74
     0
  0
LTYPE
  5
42
330
5
100
AcDbSymbolTableRecord
100
AcDbLinetypeTableRecord
  2
CENTERX2
 70
     0
  3
Center (2x) ________  __  ________  __  _____
 72
    65
 73
     4
 40
20.32
 49
12.7
 74
     0
 49
-2.54
 74
     0
 49
2.54
 74
     0
 49
-2.54
 74
     0
  0
LTYPE
  5
43
330
5
100
AcDbSymbolTableRecord
100
AcDbLinetypeTableRecord
  2
DOT2
 70
     0
  3
Dot (.5x) ........................................
 72
    65
 73
     2
 40
0.635
 49
0.0
 74
     0
 49
-0.635
 74
     0
  0
ENDTAB
  0
TABLE
  2
LAYER
  5
2
330
0
100
AcDbSymbolTable
 70
     5
  0
LAYER
  5
10
330
2
100
AcDbSymbolTableRecord
100
AcDbLayerTableRecord
  2
0
 70
     0
 62
     7
  6
Continuous
370
    -3
390
F
  0
LAYER
  5
44
330
2
100
AcDbSymbolTableRecord
100
AcDbLayerTableRecord
  2
FORMAT
 70
     0
 62
     7
  6
Continuous
370
    -3
390
F
  0
LAYER
  5
45
330
2
100
AcDbSymbolTableRecord
100
AcDbLayerTableRecord
  2
VERMASSUNG
 70
     0
 62
     7
  6
Continuous
370
    -3
390
F
  0
LAYER
  5
46
330
2
100
AcDbSymbolTableRecord
100
AcDbLayerTableRecord
  2
KOPF_DÜNN
 70
     0
 62
     7
  6
Continuous
370
    -3
390
F
  0
LAYER
  5
47
330
2
100
AcDbSymbolTableRecord
100
AcDbLayerTableRecord
  2
KOPF_DICK
 70
     0
 62
     7
  6
Continuous
370
    15
390
F
  0
ENDTAB
  0
TABLE
  2
STYLE
  5
3
330
0
100
AcDbSymbolTable
 70
     3
  0
STYLE
  5
11
330
3
100
AcDbSymbolTableRecord
100
AcDbTextStyleTableRecord
  2
Standard
 70
     0
 40
0.0
 41
1.0
 50
0.0
 71
     0
 42
2.0
  3
txt
  4

  0
STYLE
  5
48
330
3
100
AcDbSymbolTableRecord
100
AcDbTextStyleTableRecord
  2
SLDTEXTSTYLE0
 70
     0
 40
0.0
 41
0.7
 50
0.0
 71
     0
 42
0.2
  3
TXT
  4

  0
STYLE
  5
4C
330
3
100
AcDbSymbolTableRecord
100
AcDbTextStyleTableRecord
  2
SLDTEXTSTYLE1
 70
     0
 40
0.0
 41
0.6517241379
 50
0.0
 71
     0
 42
0.2
  3
TXT
  4

  0
ENDTAB
  0
TABLE
  2
VIEW
  5
6
330
0
100
AcDbSymbolTable
 70
     0
  0
ENDTAB
  0
TABLE
  2
UCS
  5
7
330
0
100
AcDbSymbolTable
 70
     0
  0
ENDTAB
  0
TABLE
  2
APPID
  5
9
330
0
100
AcDbSymbolTable
 70
     1
  0
APPID
  5
12
330
9
100
AcDbSymbolTableRecord
100
AcDbRegAppTableRecord
  2
ACAD
 70
     0
  0
ENDTAB
  0
TABLE
  2
DIMSTYLE
  5
A
330
0
100
AcDbSymbolTable
 70
     2
100
AcDbDimStyleTable
  0
DIMSTYLE
105
27
330
A
100
AcDbSymbolTableRecord
100
AcDbDimStyleTableRecord
  2
ISO-25
 70
     0
 41
2.5
 42
0.625
 43
3.75
 44
1.25
 73
     0
 74
     0
 77
     1
 78
     8
140
2.5
141
2.5
143
0.0393700787
147
0.625
171
     3
172
     1
178
     0
271
     2
272
     2
274
     3
278
    44
283
     0
284
     8
340
11
  0
DIMSTYLE
105
1A4
102
{ACAD_REACTORS
330
1A3
330
1AF
330
1BA
330
1C6
330
1D0
330
1DA
330
1E4
330
1EE
330
1F8
102
}
330
A
100
AcDbSymbolTableRecord
100
AcDbDimStyleTableRecord
  2
SLDDIMSTYLE0
 70
     0
 41
3.0
 44
0.0
 45
0.000000001
 73
     0
 74
     0
 77
     1
 78
    12
 79
     3
140
2.0
147
0.5
173
     1
178
     0
271
     2
272
     3
276
     2
284
    12
340
48
  0
ENDTAB
  0
TABLE
  2
BLOCK_RECORD
  5
1
330
0
100
AcDbSymbolTable
 70
    11
  0
BLOCK_RECORD
  5
1F
330
1
100
AcDbSymbolTableRecord
100
AcDbBlockTableRecord
  2
*Model_Space
340
22
  0
BLOCK_RECORD
  5
1B
330
1
100
AcDbSymbolTableRecord
100
AcDbBlockTableRecord
  2
*Paper_Space
340
1E
  0
BLOCK_RECORD
  5
23
330
1
100
AcDbSymbolTableRecord
100
AcDbBlockTableRecord
  2
*Paper_Space0
340
26
  0
BLOCK_RECORD
  5
1A5
330
1
100
AcDbSymbolTableRecord
100
AcDbBlockTableRecord
  2
_D
340
0
  0
BLOCK_RECORD
  5
1B0
330
1
100
AcDbSymbolTableRecord
100
AcDbBlockTableRecord
  2
_D_1
340
0
  0
BLOCK_RECORD
  5
1BB
330
1
100
AcDbSymbolTableRecord
100
AcDbBlockTableRecord
  2
_D_2
340
0
  0
BLOCK_RECORD
  5
1C7
330
1
100
AcDbSymbolTableRecord
100
AcDbBlockTableRecord
  2
_D_3
340
0
  0
BLOCK_RECORD
  5
1D1
330
1
100
AcDbSymbolTableRecord
100
AcDbBlockTableRecord
  2
_D_4
340
0
  0
BLOCK_RECORD
  5
1DB
330
1
100
AcDbSymbolTableRecord
100
AcDbBlockTableRecord
  2
_D_5
340
0
  0
BLOCK_RECORD
  5
1E5
330
1
100
AcDbSymbolTableRecord
100
AcDbBlockTableRecord
  2
_D_6
340
0
  0
BLOCK_RECORD
  5
1EF
330
1
100
AcDbSymbolTableRecord
100
AcDbBlockTableRecord
  2
_D_7
340
0
  0
BLOCK_RECORD
  5
1F9
330
1
100
AcDbSymbolTableRecord
100
AcDbBlockTableRecord
  2
_D_8
340
0
  0
BLOCK_RECORD
  5
2E0
330
1
100
AcDbSymbolTableRecord
100
AcDbBlockTableRecord
  2
SW_CENTERMARKSYMBOL_0
340
0
102
{BLKREFS
331
2EB
102
}
  0
ENDTAB
  0
ENDSEC
  0
SECTION
  2
BLOCKS
  0
BLOCK
  5
20
330
1F
100
AcDbEntity
  8
0
100
AcDbBlockBegin
  2
*Model_Space
 70
     0
 10
0.0
 20
0.0
 30
0.0
  3
*Model_Space
  1

  0
ENDBLK
  5
21
330
1F
100
AcDbEntity
  8
0
100
AcDbBlockEnd
  0
BLOCK
  5
1C
330
1B
100
AcDbEntity
 67
     1
  8
0
100
AcDbBlockBegin
  2
*Paper_Space
 70
     0
 10
0.0
 20
0.0
 30
0.0
  3
*Paper_Space
  1

  0
ENDBLK
  5
1D
330
1B
100
AcDbEntity
 67
     1
  8
0
100
AcDbBlockEnd
  0
BLOCK
  5
24
330
23
100
AcDbEntity
  8
0
100
AcDbBlockBegin
  2
*Paper_Space0
 70
     0
 10
0.0
 20
0.0
 30
0.0
  3
*Paper_Space0
  1

  0
ENDBLK
  5
25
330
23
100
AcDbEntity
  8
0
100
AcDbBlockEnd
  0
BLOCK
  5
1A6
330
1A5
100
AcDbEntity
  8
0
100
AcDbBlockBegin
  2
_D
 70
     0
 10
0.0
 20
0.0
 30
0.0
  3
_D
  1

  0
SOLID
  5
1A8
330
1A5
100
AcDbEntity
  8
VERMASSUNG
100
AcDbTrace
 10
237.3321901292
 20
108.0578571429
 30
0.0
 11
236.8821901292
 21
105.0578571429
 31
0.0
 12
237.7821901292
 22
105.0578571429
 32
0.0
 13
237.7821901292
 23
105.0578571429
 33
0.0
  0
SOLID
  5
1A9
330
1A5
100
AcDbEntity
  8
VERMASSUNG
100
AcDbTrace
 10
237.3321901292
 20
92.0578571429
 30
0.0
 11
237.7821901292
 21
95.0578571429
 31
0.0
 12
236.8821901292
 22
95.0578571429
 32
0.0
 13
236.8821901292
 23
95.0578571429
 33
0.0
  0
LINE
  5
1AA
330
1A5
100
AcDbEntity
  8
VERMASSUNG
100
AcDbLine
 10
232.0913302018
 20
108.0578571429
 30
0.0
 11
238.3321901292
 21
108.0578571429
 31
0.0
  0
LINE
  5
1AB
330
1A5
100
AcDbEntity
  8
VERMASSUNG
100
AcDbLine
 10
232.0913302018
 20
92.0578571429
 30
0.0
 11
238.3321901292
 21
92.0578571429
 31
0.0
  0
LINE
  5
1AC
330
1A5
100
AcDbEntity
  8
VERMASSUNG
100
AcDbLine
 10
237.3321901292
 20
108.0578571429
 30
0.0
 11
237.3321901292
 21
92.0578571429
 31
0.0
  0
MTEXT
  5
1AD
330
1A5
100
AcDbEntity
  8
VERMASSUNG
100
AcDbMText
 10
234.7540546496
 20
97.0542213235
 30
0.0
 40
2.0
 41
0.0
 71
     1
 72
     1
  1
%%c
  7
SLDTEXTSTYLE0
 11
-7.044195017643634E-15
 21
1.0
 31
0.0
 73
     1
 44
1.0
  0
MTEXT
  5
1AE
330
1A5
100
AcDbEntity
  8
VERMASSUNG
100
AcDbMText
 10
234.754054766
 20
100.6633588723
 30
0.0
 40
2.0
 41
0.0
 71
     1
 72
     1
  1
16
  7
SLDTEXTSTYLE0
 11
-7.044195017643634E-15
 21
1.0
 31
0.0
 73
     1
 44
1.0
  0
ENDBLK
  5
1A7
330
1A5
100
AcDbEntity
  8
0
100
AcDbBlockEnd
  0
BLOCK
  5
1B1
330
1B0
100
AcDbEntity
  8
0
100
AcDbBlockBegin
  2
_D_1
 70
     0
 10
0.0
 20
0.0
 30
0.0
  3
_D_1
  1

  0
SOLID
  5
1B3
330
1B0
100
AcDbEntity
  8
VERMASSUNG
100
AcDbTrace
 10
243.3321901292
 20
120.0578571429
 30
0.0
 11
242.8821901292
 21
117.0578571429
 31
0.0
 12
243.7821901292
 22
117.0578571429
 32
0.0
 13
243.7821901292
 23
117.0578571429
 33
0.0
  0
SOLID
  5
1B4
330
1B0
100
AcDbEntity
  8
VERMASSUNG
100
AcDbTrace
 10
243.3321901292
 20
80.0578571429
 30
0.0
 11
243.7821901292
 21
83.0578571429
 31
0.0
 12
242.8821901292
 22
83.0578571429
 32
0.0
 13
242.8821901292
 23
83.0578571429
 33
0.0
  0
LINE
  5
1B5
330
1B0
100
AcDbEntity
  8
VERMASSUNG
100
AcDbLine
 10
231.3913302018
 20
120.0578571429
 30
0.0
 11
244.3321901292
 21
120.0578571429
 31
0.0
  0
LINE
  5
1B6
330
1B0
100
AcDbEntity
  8
VERMASSUNG
100
AcDbLine
 10
231.3913302018
 20
80.0578571429
 30
0.0
 11
244.3321901292
 21
80.0578571429
 31
0.0
  0
LINE
  5
1B7
330
1B0
100
AcDbEntity
  8
VERMASSUNG
100
AcDbLine
 10
243.3321901292
 20
120.0578571429
 30
0.0
 11
243.3321901292
 21
80.0578571429
 31
0.0
  0
MTEXT
  5
1B8
330
1B0
100
AcDbEntity
  8
VERMASSUNG
100
AcDbMText
 10
240.7540546496
 20
96.7536407158
 30
0.0
 40
2.0
 41
0.0
 71
     1
 72
     1
  1
%%c
  7
SLDTEXTSTYLE0
 11
-7.044195017643634E-15
 21
1.0
 31
0.0
 73
     1
 44
1.0
  0
MTEXT
  5
1B9
330
1B0
100
AcDbEntity
  8
VERMASSUNG
100
AcDbMText
 10
240.754054766
 20
100.3627782647
 30
0.0
 40
2.0
 41
0.0
 71
     1
 72
     1
  1
40
  7
SLDTEXTSTYLE0
 11
-7.044195017643634E-15
 21
1.0
 31
0.0
 73
     1
 44
1.0
  0
ENDBLK
  5
1B2
330
1B0
100
AcDbEntity
  8
0
100
AcDbBlockEnd
  0
BLOCK
  5
1BC
330
1BB
100
AcDbEntity
  8
0
100
AcDbBlockBegin
  2
_D_2
 70
     0
 10
0.0
 20
0.0
 30
0.0
  3
_D_2
  1

  0
SOLID
  5
1BE
330
1BB
100
AcDbEntity
  8
VERMASSUNG
100
AcDbTrace
 10
138.1160648209
 20
120.0578571429
 30
0.0
 11
137.6660648209
 21
117.0578571429
 31
0.0
 12
138.5660648209
 22
117.0578571429
 32
0.0
 13
138.5660648209
 23
117.0578571429
 33
0.0
  0
SOLID
  5
1BF
330
1BB
100
AcDbEntity
  8
VERMASSUNG
100
AcDbTrace
 10
138.1160648209
 20
80.0578571429
 30
0.0
 11
138.5660648209
 21
83.0578571429
 31
0.0
 12
137.6660648209
 22
83.0578571429
 32
0.0
 13
137.6660648209
 23
83.0578571429
 33
0.0
  0
LINE
  5
1C0
330
1BB
100
AcDbEntity
  8
VERMASSUNG
100
AcDbLine
 10
162.6913302018
 20
120.0578571429
 30
0.0
 11
137.1160648209
 21
120.0578571429
 31
0.0
  0
LINE
  5
1C1
330
1BB
100
AcDbEntity
  8
VERMASSUNG
100
AcDbLine
 10
162.6913302018
 20
80.0578571429
 30
0.0
 11
137.1160648209
 21
80.0578571429
 31
0.0
  0
LINE
  5
1C2
330
1BB
100
AcDbEntity
  8
VERMASSUNG
100
AcDbLine
 10
138.1160648209
 20
120.0578571429
 30
0.0
 11
138.1160648209
 21
80.0578571429
 31
0.0
  0
MTEXT
  5
1C3
330
1BB
100
AcDbEntity
  8
VERMASSUNG
100
AcDbMText
 10
135.3379293319
 20
93.7532602821
 30
0.0
 40
2.0
 41
0.0
 71
     1
 72
     1
  1
HSK
  7
SLDTEXTSTYLE0
 11
-7.044195017643634E-15
 21
1.0
 31
0.0
 73
     1
 44
1.0
  0
MTEXT
  5
1C4
330
1BB
100
AcDbEntity
  8
VERMASSUNG
100
AcDbMText
 10
135.5379293414
 20
99.7532603342
 30
0.0
 40
2.0
 41
0.0
 71
     1
 72
     1
  1
%%c
  7
SLDTEXTSTYLE0
 11
-7.044195017643634E-15
 21
1.0
 31
0.0
 73
     1
 44
1.0
  0
MTEXT
  5
1C5
330
1BB
100
AcDbEntity
  8
VERMASSUNG
100
AcDbMText
 10
135.5379294578
 20
103.3631586984
 30
0.0
 40
2.0
 41
0.0
 71
     1
 72
     1
  1
40
  7
SLDTEXTSTYLE0
 11
-7.044195017643634E-15
 21
1.0
 31
0.0
 73
     1
 44
1.0
  0
ENDBLK
  5
1BD
330
1BB
100
AcDbEntity
  8
0
100
AcDbBlockEnd
  0
BLOCK
  5
1C8
330
1C7
100
AcDbEntity
  8
0
100
AcDbBlockBegin
  2
_D_3
 70
     0
 10
0.0
 20
0.0
 30
0.0
  3
_D_3
  1

  0
SOLID
  5
1CA
330
1C7
100
AcDbEntity
  8
VERMASSUNG
100
AcDbTrace
 10
142.4913302018
 20
137.5190769213
 30
0.0
 11
145.4913302018
 21
137.0690769213
 31
0.0
 12
145.4913302018
 22
137.9690769213
 32
0.0
 13
145.4913302018
 23
137.9690769213
 33
0.0
  0
SOLID
  5
1CB
330
1C7
100
AcDbEntity
  8
VERMASSUNG
100
AcDbTrace
 10
232.3913302018
 20
137.5190769213
 30
0.0
 11
229.3913302018
 21
137.9690769213
 31
0.0
 12
229.3913302018
 22
137.0690769213
 32
0.0
 13
229.3913302018
 23
137.0690769213
 33
0.0
  0
LINE
  5
1CC
330
1C7
100
AcDbEntity
  8
VERMASSUNG
100
AcDbLine
 10
142.4913302018
 20
111.9878571429
 30
0.0
 11
142.4913302018
 21
138.5190769213
 31
0.0
  0
LINE
  5
1CD
330
1C7
100
AcDbEntity
  8
VERMASSUNG
100
AcDbLine
 10
232.3913302018
 20
119.0578571429
 30
0.0
 11
232.3913302018
 21
138.5190769213
 31
0.0
  0
LINE
  5
1CE
330
1C7
100
AcDbEntity
  8
VERMASSUNG
100
AcDbLine
 10
142.4913302018
 20
137.5190769213
 30
0.0
 11
232.3913302018
 21
137.5190769213
 31
0.0
  0
MTEXT
  5
1CF
330
1C7
100
AcDbEntity
  8
VERMASSUNG
100
AcDbMText
 10
185.0421109833
 20
140.0972122844
 30
0.0
 40
2.0
 41
0.0
 71
     1
 72
     1
  1
89.9
  7
SLDTEXTSTYLE0
 73
     1
 44
1.0
  0
ENDBLK
  5
1C9
330
1C7
100
AcDbEntity
  8
0
100
AcDbBlockEnd
  0
BLOCK
  5
1D2
330
1D1
100
AcDbEntity
  8
0
100
AcDbBlockBegin
  2
_D_4
 70
     0
 10
0.0
 20
0.0
 30
0.0
  3
_D_4
  1

  0
SOLID
  5
1D4
330
1D1
100
AcDbEntity
  8
VERMASSUNG
100
AcDbTrace
 10
162.3913302018
 20
131.5190769213
 30
0.0
 11
165.3913302018
 21
131.0690769213
 31
0.0
 12
165.3913302018
 22
131.9690769213
 32
0.0
 13
165.3913302018
 23
131.9690769213
 33
0.0
  0
SOLID
  5
1D5
330
1D1
100
AcDbEntity
  8
VERMASSUNG
100
AcDbTrace
 10
232.3913302018
 20
131.5190769213
 30
0.0
 11
229.3913302018
 21
131.9690769213
 31
0.0
 12
229.3913302018
 22
131.0690769213
 32
0.0
 13
229.3913302018
 23
131.0690769213
 33
0.0
  0
LINE
  5
1D6
330
1D1
100
AcDbEntity
  8
VERMASSUNG
100
AcDbLine
 10
162.3913302018
 20
119.7578571429
 30
0.0
 11
162.3913302018
 21
132.5190769213
 31
0.0
  0
LINE
  5
1D7
330
1D1
100
AcDbEntity
  8
VERMASSUNG
100
AcDbLine
 10
232.3913302018
 20
119.0578571429
 30
0.0
 11
232.3913302018
 21
132.5190769213
 31
0.0
  0
LINE
  5
1D8
330
1D1
100
AcDbEntity
  8
VERMASSUNG
100
AcDbLine
 10
162.3913302018
 20
131.5190769213
 30
0.0
 11
232.3913302018
 21
131.5190769213
 31
0.0
  0
MTEXT
  5
1D9
330
1D1
100
AcDbEntity
  8
VERMASSUNG
100
AcDbMText
 10
195.9915143756
 20
134.0972122844
 30
0.0
 40
2.0
 41
0.0
 71
     1
 72
     1
  1
70
  7
SLDTEXTSTYLE0
 73
     1
 44
1.0
  0
ENDBLK
  5
1D3
330
1D1
100
AcDbEntity
  8
0
100
AcDbBlockEnd
  0
BLOCK
  5
1DC
330
1DB
100
AcDbEntity
  8
0
100
AcDbBlockBegin
  2
_D_5
 70
     0
 10
0.0
 20
0.0
 30
0.0
  3
_D_5
  1

  0
SOLID
  5
1DE
330
1DB
100
AcDbEntity
  8
VERMASSUNG
100
AcDbTrace
 10
182.3413302018
 20
125.5190769213
 30
0.0
 11
185.3413302018
 21
125.0690769213
 31
0.0
 12
185.3413302018
 22
125.9690769213
 32
0.0
 13
185.3413302018
 23
125.9690769213
 33
0.0
  0
SOLID
  5
1DF
330
1DB
100
AcDbEntity
  8
VERMASSUNG
100
AcDbTrace
 10
232.3913302018
 20
125.5190769213
 30
0.0
 11
229.3913302018
 21
125.9690769213
 31
0.0
 12
229.3913302018
 22
125.0690769213
 32
0.0
 13
229.3913302018
 23
125.0690769213
 33
0.0
  0
LINE
  5
1E0
330
1DB
100
AcDbEntity
  8
VERMASSUNG
100
AcDbLine
 10
182.3413302018
 20
115.4181143022
 30
0.0
 11
182.3413302018
 21
126.5190769213
 31
0.0
  0
LINE
  5
1E1
330
1DB
100
AcDbEntity
  8
VERMASSUNG
100
AcDbLine
 10
232.3913302018
 20
119.0578571429
 30
0.0
 11
232.3913302018
 21
126.5190769213
 31
0.0
  0
LINE
  5
1E2
330
1DB
100
AcDbEntity
  8
VERMASSUNG
100
AcDbLine
 10
182.3413302018
 20
125.5190769213
 30
0.0
 11
232.3913302018
 21
125.5190769213
 31
0.0
  0
MTEXT
  5
1E3
330
1DB
100
AcDbEntity
  8
VERMASSUNG
100
AcDbMText
 10
204.2672030702
 20
128.0972122844
 30
0.0
 40
2.0
 41
0.0
 71
     1
 72
     1
  1
50.05
  7
SLDTEXTSTYLE0
 73
     1
 44
1.0
  0
ENDBLK
  5
1DD
330
1DB
100
AcDbEntity
  8
0
100
AcDbBlockEnd
  0
BLOCK
  5
1E6
330
1E5
100
AcDbEntity
  8
0
100
AcDbBlockBegin
  2
_D_6
 70
     0
 10
0.0
 20
0.0
 30
0.0
  3
_D_6
  1

  0
SOLID
  5
1E8
330
1E5
100
AcDbEntity
  8
VERMASSUNG
100
AcDbTrace
 10
232.3913302018
 20
68.1813155656
 30
0.0
 11
229.3913302018
 21
68.6313155656
 31
0.0
 12
229.3913302018
 22
67.7313155656
 32
0.0
 13
229.3913302018
 23
67.7313155656
 33
0.0
  0
SOLID
  5
1E9
330
1E5
100
AcDbEntity
  8
VERMASSUNG
100
AcDbTrace
 10
197.3913302018
 20
68.1813155656
 30
0.0
 11
200.3913302018
 21
67.7313155656
 31
0.0
 12
200.3913302018
 22
68.6313155656
 32
0.0
 13
200.3913302018
 23
68.6313155656
 33
0.0
  0
LINE
  5
1EA
330
1E5
100
AcDbEntity
  8
VERMASSUNG
100
AcDbLine
 10
232.3913302018
 20
81.0578571429
 30
0.0
 11
232.3913302018
 21
67.1813155656
 31
0.0
  0
LINE
  5
1EB
330
1E5
100
AcDbEntity
  8
VERMASSUNG
100
AcDbLine
 10
197.3913302018
 20
81.0578571429
 30
0.0
 11
197.3913302018
 21
67.1813155656
 31
0.0
  0
LINE
  5
1EC
330
1E5
100
AcDbEntity
  8
VERMASSUNG
100
AcDbLine
 10
232.3913302018
 20
68.1813155656
 30
0.0
 11
197.3913302018
 21
68.1813155656
 31
0.0
  0
MTEXT
  5
1ED
330
1E5
100
AcDbEntity
  8
VERMASSUNG
100
AcDbMText
 10
213.4915143756
 20
70.7594509287
 30
0.0
 40
2.0
 41
0.0
 71
     1
 72
     1
  1
35
  7
SLDTEXTSTYLE0
 73
     1
 44
1.0
  0
ENDBLK
  5
1E7
330
1E5
100
AcDbEntity
  8
0
100
AcDbBlockEnd
  0
BLOCK
  5
1F0
330
1EF
100
AcDbEntity
  8
0
100
AcDbBlockBegin
  2
_D_7
 70
     0
 10
0.0
 20
0.0
 30
0.0
  3
_D_7
  1

  0
SOLID
  5
1F2
330
1EF
100
AcDbEntity
  8
VERMASSUNG
100
AcDbTrace
 10
232.3913302018
 20
72.8013235719
 30
0.0
 11
229.3913302018
 21
73.2513235719
 31
0.0
 12
229.3913302018
 22
72.3513235719
 32
0.0
 13
229.3913302018
 23
72.3513235719
 33
0.0
  0
SOLID
  5
1F3
330
1EF
100
AcDbEntity
  8
VERMASSUNG
100
AcDbTrace
 10
221.8913302018
 20
72.8013235719
 30
0.0
 11
224.8913302018
 21
72.3513235719
 31
0.0
 12
224.8913302018
 22
73.2513235719
 32
0.0
 13
224.8913302018
 23
73.2513235719
 33
0.0
  0
LINE
  5
1F4
330
1EF
100
AcDbEntity
  8
VERMASSUNG
100
AcDbLine
 10
232.3913302018
 20
81.0578571429
 30
0.0
 11
232.3913302018
 21
71.8013235719
 31
0.0
  0
LINE
  5
1F5
330
1EF
100
AcDbEntity
  8
VERMASSUNG
100
AcDbLine
 10
221.8913302018
 20
104.6722652546
 30
0.0
 11
221.8913302018
 21
71.8013235719
 31
0.0
  0
LINE
  5
1F6
330
1EF
100
AcDbEntity
  8
VERMASSUNG
100
AcDbLine
 10
232.3913302018
 20
72.8013235719
 30
0.0
 11
221.8913302018
 21
72.8013235719
 31
0.0
  0
MTEXT
  5
1F7
330
1EF
100
AcDbEntity
  8
VERMASSUNG
100
AcDbMText
 10
224.9417746361
 20
75.379458935
 30
0.0
 40
2.0
 41
0.0
 71
     1
 72
     1
  1
10.5
  7
SLDTEXTSTYLE0
 73
     1
 44
1.0
  0
ENDBLK
  5
1F1
330
1EF
100
AcDbEntity
  8
0
100
AcDbBlockEnd
  0
BLOCK
  5
1FA
330
1F9
100
AcDbEntity
  8
0
100
AcDbBlockBegin
  2
_D_8
 70
     0
 10
0.0
 20
0.0
 30
0.0
  3
_D_8
  1

  0
SOLID
  5
1FC
330
1F9
100
AcDbEntity
  8
VERMASSUNG
100
AcDbTrace
 10
221.8913302018
 20
72.8013235719
 30
0.0
 11
218.8913302018
 21
73.2513235719
 31
0.0
 12
218.8913302018
 22
72.3513235719
 32
0.0
 13
218.8913302018
 23
72.3513235719
 33
0.0
  0
SOLID
  5
1FD
330
1F9
100
AcDbEntity
  8
VERMASSUNG
100
AcDbTrace
 10
206.3913302018
 20
72.8013235719
 30
0.0
 11
209.3913302018
 21
72.3513235719
 31
0.0
 12
209.3913302018
 22
73.2513235719
 32
0.0
 13
209.3913302018
 23
73.2513235719
 33
0.0
  0
LINE
  5
1FE
330
1F9
100
AcDbEntity
  8
VERMASSUNG
100
AcDbLine
 10
221.8913302018
 20
104.6722652546
 30
0.0
 11
221.8913302018
 21
71.8013235719
 31
0.0
  0
LINE
  5
1FF
330
1F9
100
AcDbEntity
  8
VERMASSUNG
100
AcDbLine
 10
206.3913302018
 20
104.6722652546
 30
0.0
 11
206.3913302018
 21
71.8013235719
 31
0.0
  0
LINE
  5
200
330
1F9
100
AcDbEntity
  8
VERMASSUNG
100
AcDbLine
 10
221.8913302018
 20
72.8013235719
 30
0.0
 11
206.3913302018
 21
72.8013235719
 31
0.0
  0
MTEXT
  5
201
330
1F9
100
AcDbEntity
  8
VERMASSUNG
100
AcDbMText
 10
211.9417746361
 20
75.379458935
 30
0.0
 40
2.0
 41
0.0
 71
     1
 72
     1
  1
15.5
  7
SLDTEXTSTYLE0
 73
     1
 44
1.0
  0
ENDBLK
  5
1FB
330
1F9
100
AcDbEntity
  8
0
100
AcDbBlockEnd
  0
BLOCK
  5
2E1
330
2E0
100
AcDbEntity
  8
0
100
AcDbBlockBegin
  2
SW_CENTERMARKSYMBOL_0
 70
     0
 10
0.0
 20
0.0
 30
0.0
  3
SW_CENTERMARKSYMBOL_0
  1

  0
LINE
  5
2E3
330
2E0
100
AcDbEntity
  8
VERMASSUNG
 62
     0
100
AcDbLine
 10
0.0
 20
0.0
 30
0.0
 11
0.0
 21
2.5
 31
0.0
  0
LINE
  5
2E4
330
2E0
100
AcDbEntity
  8
VERMASSUNG
 62
     0
100
AcDbLine
 10
0.0
 20
0.0
 30
0.0
 11
-2.5
 21
0.0
 31
0.0
  0
LINE
  5
2E5
330
2E0
100
AcDbEntity
  8
VERMASSUNG
 62
     0
100
AcDbLine
 10
0.0
 20
0.0
 30
0.0
 11
0.0
 21
-2.5
 31
0.0
  0
LINE
  5
2E6
330
2E0
100
AcDbEntity
  8
VERMASSUNG
 62
     0
100
AcDbLine
 10
0.0
 20
0.0
 30
0.0
 11
2.5
 21
0.0
 31
0.0
  0
LINE
  5
2E7
330
2E0
100
AcDbEntity
  8
VERMASSUNG
 62
     0
100
AcDbLine
 10
0.0
 20
5.0
 30
0.0
 11
0.0
 21
22.5
 31
0.0
  0
LINE
  5
2E8
330
2E0
100
AcDbEntity
  8
VERMASSUNG
 62
     0
100
AcDbLine
 10
-5.0
 20
0.0
 30
0.0
 11
-22.5
 21
0.0
 31
0.0
  0
LINE
  5
2E9
330
2E0
100
AcDbEntity
  8
VERMASSUNG
 62
     0
100
AcDbLine
 10
0.0
 20
-5.0
 30
0.0
 11
0.0
 21
-22.5
 31
0.0
  0
LINE
  5
2EA
330
2E0
100
AcDbEntity
  8
VERMASSUNG
 62
     0
100
AcDbLine
 10
5.0
 20
0.0
 30
0.0
 11
22.5
 21
0.0
 31
0.0
  0
ENDBLK
  5
2E2
330
2E0
100
AcDbEntity
  8
0
100
AcDbBlockEnd
  0
ENDSEC
  0
SECTION
  2
ENTITIES
  0
MTEXT
  5
49
330
1F
100
AcDbEntity
  8
KOPF_DÜNN
100
AcDbMText
 10
13.8892156294
 20
23.8442973028
 30
0.0
 40
3.0
 41
0.0
 71
     1
 72
     1
  1
HA4.B16.K01.070
  7
SLDTEXTSTYLE0
 73
     1
 44
1.0
  0
MTEXT
  5
4A
330
1F
100
AcDbEntity
  8
VERMASSUNG
100
AcDbMText
 10
13.9329988022
 20
28.8834360957
 30
0.0
 40
3.0
 41
0.0
 71
     1
 72
     1
  1
Bohrstangenhalter_Boring bar holder
  7
SLDTEXTSTYLE0
 73
     1
 44
1.0
  0
MTEXT
  5
4B
330
1F
100
AcDbEntity
  8
VERMASSUNG
100
AcDbMText
 10
98.8601118557
 20
13.8365368179
 30
0.0
 40
2.0
 41
0.0
 71
     1
 72
     1
  1
Datum: 09.02.2009
  7
SLDTEXTSTYLE0
 73
     1
 44
1.0
  0
MTEXT
  5
4D
330
1F
100
AcDbEntity
  8
VERMASSUNG
100
AcDbMText
 10
13.933048693
 20
18.0482802738
 30
0.0
 40
2.0
 41
0.0
 71
     1
 72
     1
  1
DIN 69893 HSK 40 A ICTM / ø16
  7
SLDTEXTSTYLE1
 73
     1
 44
1.0
  0
MTEXT
  5
4E
330
1F
100
AcDbEntity
  8
VERMASSUNG
100
AcDbMText
 10
13.9808475933
 20
13.9090973692
 30
0.0
 40
2.0
 41
0.0
 71
     1
 72
     1
  1
Gewicht: 554g
  7
SLDTEXTSTYLE0
 73
     1
 44
1.0
  0
LINE
  5
4F
330
1F
100
AcDbEntity
  8
0
  6
Continuous
 62
     7
370
    15
100
AcDbLine
 10
210.6531887247
 20
120.0059783031
 30
0.0
 11
210.5633309974
 21
120.0578566958
 31
0.0
  0
LINE
  5
50
330
1F
100
AcDbEntity
  8
0
  6
Continuous
 62
     7
370
    15
100
AcDbLine
 10
202.2193289293
 20
120.0578566958
 30
0.0
 11
202.1292700364
 21
120.0058609565
 31
0.0
  0
LINE
  5
51
330
1F
100
AcDbEntity
  8
0
  6
Continuous
 62
     7
370
    15
100
AcDbLine
 10
226.1264800026
 20
120.0002767463
 30
0.0
 11
226.0633288814
 21
120.0367361625
 31
0.0
  0
LINE
  5
52
330
1F
100
AcDbEntity
  8
0
  6
Continuous
 62
     7
370
    15
100
AcDbLine
 10
217.7193305387
 20
120.0367361625
 30
0.0
 11
217.6561421646
 21
120.0002525319
 31
0.0
  0
LINE
  5
53
330
1F
100
AcDbEntity
  8
0
  6
Continuous
 62
     7
370
    15
100
AcDbLine
 10
201.9000380232
 20
120.0578566958
 30
0.0
 11
198.3913286521
 21
120.0578566958
 31
0.0
  0
LINE
  5
54
330
1F
100
AcDbEntity
  8
0
  6
Continuous
 62
     7
370
    15
100
AcDbLine
 10
217.4000359072
 20
120.0578566958
 30
0.0
 11
210.8758046223
 21
120.0578566958
 31
0.0
  0
LINE
  5
55
330
1F
100
AcDbEntity
  8
0
  6
Continuous
 62
     7
370
    15
100
AcDbLine
 10
231.3913284733
 20
120.0578566958
 30
0.0
 11
226.3758062317
 21
120.0578566958
 31
0.0
  0
LINE
  5
56
330
1F
100
AcDbEntity
  8
0
  6
Continuous
 62
     7
370
    15
100
AcDbLine
 10
198.3913286521
 20
80.0578575899
 30
0.0
 11
231.3913284733
 21
80.0578575899
 31
0.0
  0
ARC
  5
57
330
1F
100
AcDbEntity
  8
0
  6
Continuous
 62
     7
370
    15
100
AcDbCircle
 10
231.3913302018
 20
119.0578571429
 30
0.0
 40
1.0
100
AcDbArc
 50
0.0
 51
90.0
  0
ARC
  5
58
330
1F
100
AcDbEntity
  8
0
  6
Continuous
 62
     7
370
    15
100
AcDbCircle
 10
231.3913302018
 20
81.0578571429
 30
0.0
 40
1.0
100
AcDbArc
 50
270.0
 51
0.0
  0
ARC
  5
59
330
1F
100
AcDbEntity
  8
0
  6
Continuous
 62
     7
370
    15
100
AcDbCircle
 10
198.3913302018
 20
81.0578571429
 30
0.0
 40
1.0
100
AcDbArc
 50
180.0
 51
270.0
  0
ARC
  5
5A
330
1F
100
AcDbEntity
  8
0
  6
Continuous
 62
     7
370
    15
100
AcDbCircle
 10
198.3913302018
 20
119.0578571429
 30
0.0
 40
1.0
100
AcDbArc
 50
90.0
 51
180.0
  0
LINE
  5
5B
330
1F
100
AcDbEntity
  8
0
  6
Continuous
 62
     7
370
    15
100
AcDbLine
 10
162.691330216
 20
80.0578575899
 30
0.0
 11
170.3413306667
 21
80.0578575899
 31
0.0
  0
LINE
  5
5C
330
1F
100
AcDbEntity
  8
0
  6
Continuous
 62
     7
370
    15
100
AcDbLine
 10
170.3568576767
 20
120.0578566958
 30
0.0
 11
162.691330216
 21
120.0578566958
 31
0.0
  0
ARC
  5
5D
330
1F
100
AcDbEntity
  8
0
  6
Continuous
 62
     7
370
    15
100
AcDbCircle
 10
162.6913302018
 20
80.3578571429
 30
0.0
 40
0.3000000000000114
100
AcDbArc
 50
180.0
 51
270.0
  0
ARC
  5
5E
330
1F
100
AcDbEntity
  8
0
  6
Continuous
 62
     7
370
    15
100
AcDbCircle
 10
162.6913302018
 20
119.7578571429
 30
0.0
 40
0.3000000000000114
100
AcDbArc
 50
90.0
 51
180.0
  0
ARC
  5
5F
330
1F
100
AcDbEntity
  8
0
  6
Continuous
 62
     7
370
    15
100
AcDbCircle
 10
196.3913302018
 20
82.5578571429
 30
0.0
 40
1.0
100
AcDbArc
 50
0.0
 51
90.0
  0
ARC
  5
60
330
1F
100
AcDbEntity
  8
0
  6
Continuous
 62
     7
370
    15
100
AcDbCircle
 10
196.3913302018
 20
117.5578571429
 30
0.0
 40
1.0
100
AcDbArc
 50
270.0
 51
0.0
  0
ARC
  5
61
330
1F
100
AcDbEntity
  8
0
  6
Continuous
 62
     7
370
    15
100
AcDbCircle
 10
183.3413302018
 20
82.5578571429
 30
0.0
 40
1.0
100
AcDbArc
 50
90.0
 51
143.1137328946
  0
ARC
  5
62
330
1F
100
AcDbEntity
  8
0
  6
Continuous
 62
     7
370
    15
100
AcDbCircle
 10
183.3413302018
 20
117.5578571429
 30
0.0
 40
1.0
100
AcDbArc
 50
216.8998129703
 51
270.0
  0
LINE
  5
63
330
1F
100
AcDbEntity
  8
0
  6
Continuous
 62
     7
370
    15
100
AcDbLine
 10
183.3413309349
 20
83.5578572323
 30
0.0
 11
196.3913320495
 21
83.5578572323
 31
0.0
  0
LINE
  5
64
330
1F
100
AcDbEntity
  8
0
  6
Continuous
 62
     7
370
    15
100
AcDbLine
 10
196.3913320495
 20
116.5578570535
 30
0.0
 11
183.3413309349
 21
116.5578570535
 31
0.0
  0
ARC
  5
65
330
1F
100
AcDbEntity
  8
0
  6
Continuous
 62
     7
370
    15
100
AcDbCircle
 10
161.8913234491
 20
84.6041499894
 30
0.0
 40
0.6000067526677361
100
AcDbArc
 50
33.5571153394
 51
90.0
  0
ARC
  5
66
330
1F
100
AcDbEntity
  8
0
  6
Continuous
 62
     7
370
    15
100
AcDbCircle
 10
161.8913234491
 20
115.5115642963
 30
0.0
 40
0.6000067526677203
100
AcDbArc
 50
270.0
 51
326.4428846606
  0
LINE
  5
67
330
1F
100
AcDbEntity
  8
0
  6
Continuous
 62
     7
370
    15
100
AcDbLine
 10
160.3913301068
 20
84.9541565721
 30
0.0
 11
161.2480421016
 21
85.1837117543
 31
0.0
  0
LINE
  5
68
330
1F
100
AcDbEntity
  8
0
  6
Continuous
 62
     7
370
    15
100
AcDbLine
 10
161.2480421016
 20
114.9320025315
 30
0.0
 11
160.3913301068
 21
115.1615577136
 31
0.0
  0
LINE
  5
69
330
1F
100
AcDbEntity
  8
0
  6
Continuous
 62
     7
370
    15
100
AcDbLine
 10
153.5753971829
 20
114.8200780471
 30
0.0
 11
146.0913299514
 21
114.4451247846
 31
0.0
  0
LINE
  5
6A
330
1F
100
AcDbEntity
  8
0
  6
Continuous
 62
     7
370
    15
100
AcDbLine
 10
160.3913301068
 20
115.1615577136
 30
0.0
 11
159.1565975385
 21
115.0996974056
 31
0.0
  0
LINE
  5
6B
330
1F
100
AcDbEntity
  8
0
  6
Continuous
 62
     7
370
    15
100
AcDbLine
 10
159.157593588
 20
85.01596752
 30
0.0
 11
160.3913301068
 21
84.9541565721
 31
0.0
  0
LINE
  5
6C
330
1F
100
AcDbEntity
  8
0
  6
Continuous
 62
     7
370
    15
100
AcDbLine
 10
148.5913303612
 20
85.545338722
 30
0.0
 11
153.5758600502
 21
85.2956129556
 31
0.0
  0
ARC
  5
6D
330
1F
100
AcDbEntity
  8
0
  6
Continuous
 62
     7
370
    15
100
AcDbCircle
 10
161.4033352912
 20
84.6041499894
 30
0.0
 40
0.6000067526677242
100
AcDbArc
 50
90.0
 51
105.0
  0
ARC
  5
6E
330
1F
100
AcDbEntity
  8
0
  6
Continuous
 62
     7
370
    15
100
AcDbCircle
 10
161.4033352912
 20
115.5115642963
 30
0.0
 40
0.600006752667717
100
AcDbArc
 50
255.0
 51
270.0
  0
LINE
  5
6F
330
1F
100
AcDbEntity
  8
0
  6
Continuous
 62
     7
370
    15
100
AcDbLine
 10
161.4033352515
 20
85.2041570787
 30
0.0
 11
161.891323426
 21
85.2041570787
 31
0.0
  0
LINE
  5
70
330
1F
100
AcDbEntity
  8
0
  6
Continuous
 62
     7
370
    15
100
AcDbLine
 10
161.891323426
 20
114.911557207
 30
0.0
 11
161.4033352515
 21
114.911557207
 31
0.0
  0
ARC
  5
71
330
1F
100
AcDbEntity
  8
0
  6
Continuous
 62
     7
370
    15
100
AcDbCircle
 10
145.1913302018
 20
113.8378571429
 30
0.0
 40
0.9000000000000071
100
AcDbArc
 50
270.0
 51
311.1792132369
  0
ARC
  5
72
330
1F
100
AcDbEntity
  8
0
  6
Continuous
 62
     7
370
    15
100
AcDbCircle
 10
147.6913302018
 20
86.2778571429
 30
0.0
 40
0.8999999999999915
100
AcDbArc
 50
34.6391318474
 51
90.0
  0
LINE
  5
73
330
1F
100
AcDbEntity
  8
0
  6
Continuous
 62
     7
370
    15
100
AcDbLine
 10
143.4413297965
 20
112.9378574287
 30
0.0
 11
142.4913304789
 21
111.9878571798
 31
0.0
  0
LINE
  5
74
330
1F
100
AcDbEntity
  8
0
  6
Continuous
 62
     7
370
    15
100
AcDbLine
 10
145.1913296177
 20
112.9378574287
 30
0.0
 11
143.4413297965
 21
112.9378574287
 31
0.0
  0
LINE
  5
75
330
1F
100
AcDbEntity
  8
0
  6
Continuous
 62
     7
370
    15
100
AcDbLine
 10
143.5003309442
 20
87.1778568571
 30
0.0
 11
147.6913300274
 21
87.1778568571
 31
0.0
  0
LINE
  5
76
330
1F
100
AcDbEntity
  8
0
  6
Continuous
 62
     7
370
    15
100
AcDbLine
 10
142.4913304789
 20
88.1868573223
 30
0.0
 11
143.5003309442
 21
87.1778568571
 31
0.0
  0
LINE
  5
77
330
1F
100
AcDbEntity
  8
0
  6
Continuous
 62
     7
370
    15
100
AcDbLine
 10
206.3913299634
 20
119.5798106809
 30
0.0
 11
208.8625012829
 21
119.5798106809
 31
0.0
  0
LINE
  5
78
330
1F
100
AcDbEntity
  8
0
  6
Continuous
 62
     7
370
    15
100
AcDbLine
 10
203.9201586439
 20
119.5798106809
 30
0.0
 11
206.3913299634
 21
119.5798106809
 31
0.0
  0
LINE
  5
79
330
1F
100
AcDbEntity
  8
0
  6
Continuous
 62
     7
370
    15
100
AcDbLine
 10
206.3913299634
 20
120.0578566958
 30
0.0
 11
210.5633309974
 21
120.0578566958
 31
0.0
  0
LINE
  5
7A
330
1F
100
AcDbEntity
  8
0
  6
Continuous
 62
     7
370
    15
100
AcDbLine
 10
202.2193289293
 20
120.0578566958
 30
0.0
 11
206.3913299634
 21
120.0578566958
 31
0.0
  0
LINE
  5
7B
330
1F
100
AcDbEntity
  8
0
  6
Continuous
 62
     7
370
    15
100
AcDbLine
 10
222.8828920914
 20
119.5586901476
 30
0.0
 11
224.1896904005
 21
119.5586901476
 31
0.0
  0
LINE
  5
7C
330
1F
100
AcDbEntity
  8
0
  6
Continuous
 62
     7
370
    15
100
AcDbLine
 10
219.5929727449
 20
119.5586901476
 30
0.0
 11
222.8828920914
 21
119.5586901476
 31
0.0
  0
LINE
  5
7D
330
1F
100
AcDbEntity
  8
0
  6
Continuous
 62
     7
370
    15
100
AcDbLine
 10
222.7186887457
 20
120.0367361625
 30
0.0
 11
226.0633288814
 21
120.0367361625
 31
0.0
  0
LINE
  5
7E
330
1F
100
AcDbEntity
  8
0
  6
Continuous
 62
     7
370
    15
100
AcDbLine
 10
217.7193305387
 20
120.0367361625
 30
0.0
 11
222.7186887457
 21
120.0367361625
 31
0.0
  0
CIRCLE
  5
7F
330
1F
100
AcDbEntity
  8
0
  6
Continuous
 62
     7
370
    15
100
AcDbCircle
 10
206.3913302018
 20
100.0578571429
 30
0.0
 40
4.171999999999997
  0
ARC
  5
80
330
1F
100
AcDbEntity
  8
0
  6
Continuous
 62
     7
370
    15
100
AcDbCircle
 10
206.3913302018
 20
100.0578571429
 30
0.0
 40
5.000000000000014
100
AcDbArc
 50
270.0
 51
299.6192678846
  0
ARC
  5
81
330
1F
100
AcDbEntity
  8
0
  6
Continuous
 62
     7
370
    15
100
AcDbCircle
 10
206.3913302018
 20
100.0578571429
 30
0.0
 40
4.999999999999991
100
AcDbArc
 50
60.3807321154
 51
119.6192678846
  0
ARC
  5
82
330
1F
100
AcDbEntity
  8
0
  6
Continuous
 62
     7
370
    15
100
AcDbCircle
 10
206.3913302018
 20
100.0578571429
 30
0.0
 40
5.000000000000014
100
AcDbArc
 50
240.3807321154
 51
270.0
  0
LINE
  5
83
330
1F
100
AcDbEntity
  8
0
  6
Continuous
 62
     7
370
    15
100
AcDbLine
 10
208.8913313045
 20
101.5012328598
 30
0.0
 11
206.3913299634
 21
102.9446085767
 31
0.0
  0
LINE
  5
84
330
1F
100
AcDbEntity
  8
0
  6
Continuous
 62
     7
370
    15
100
AcDbLine
 10
203.8913286223
 20
101.5012328598
 30
0.0
 11
206.3913299634
 21
102.9446085767
 31
0.0
  0
LINE
  5
85
330
1F
100
AcDbEntity
  8
0
  6
Continuous
 62
     7
370
    15
100
AcDbLine
 10
203.8913286223
 20
98.6144814259
 30
0.0
 11
203.8913286223
 21
101.5012328598
 31
0.0
  0
LINE
  5
86
330
1F
100
AcDbEntity
  8
0
  6
Continuous
 62
     7
370
    15
100
AcDbLine
 10
203.8913286223
 20
98.6144814259
 30
0.0
 11
206.3913299634
 21
97.171105709
 31
0.0
  0
LINE
  5
87
330
1F
100
AcDbEntity
  8
0
  6
Continuous
 62
     7
370
    15
100
AcDbLine
 10
208.8913313045
 20
98.6144814259
 30
0.0
 11
206.3913299634
 21
97.171105709
 31
0.0
  0
LINE
  5
88
330
1F
100
AcDbEntity
  8
0
  6
Continuous
 62
     7
370
    15
100
AcDbLine
 10
208.8913313045
 20
98.6144814259
 30
0.0
 11
208.8913313045
 21
101.5012328598
 31
0.0
  0
CIRCLE
  5
89
330
1F
100
AcDbEntity
  8
0
  6
Continuous
 62
     7
370
    15
100
AcDbCircle
 10
221.8913302018
 20
100.0578571429
 30
0.0
 40
4.172000000000003
  0
LWPOLYLINE
  5
8A
330
1F
100
AcDbEntity
  8
0
  6
Continuous
 62
     7
370
    15
100
AcDbPolyline
 90
        3
 70
   128
 43
0.0
 10
222.8828920914
 20
95.1571632494
 10
223.5858729972
 20
95.3537607883
 10
224.1896904005
 20
95.6174130869
  0
ARC
  5
8B
330
1F
100
AcDbEntity
  8
0
  6
Continuous
 62
     7
370
    15
100
AcDbCircle
 10
221.8913302018
 20
100.0578571429
 30
0.0
 40
4.999999999999994
100
AcDbArc
 50
62.6340665476
 51
117.3659334524
  0
ARC
  5
8C
330
1F
100
AcDbEntity
  8
0
  6
Continuous
 62
     7
370
    15
100
AcDbCircle
 10
221.8913302018
 20
100.0578571429
 30
0.0
 40
5.000000000000007
100
AcDbArc
 50
242.6340665476
 51
281.4383044579
  0
LINE
  5
8D
330
1F
100
AcDbEntity
  8
0
  6
Continuous
 62
     7
370
    15
100
AcDbLine
 10
224.0554383887
 20
101.9683472431
 30
0.0
 11
221.3188513114
 21
102.8872742635
 31
0.0
  0
LINE
  5
8E
330
1F
100
AcDbEntity
  8
0
  6
Continuous
 62
     7
370
    15
100
AcDbLine
 10
219.1547444953
 20
100.9767840468
 30
0.0
 11
221.3188513114
 21
102.8872742635
 31
0.0
  0
LINE
  5
8F
330
1F
100
AcDbEntity
  8
0
  6
Continuous
 62
     7
370
    15
100
AcDbLine
 10
219.7272210314
 20
98.1473670426
 30
0.0
 11
219.1547444953
 21
100.9767840468
 31
0.0
  0
LINE
  5
90
330
1F
100
AcDbEntity
  8
0
  6
Continuous
 62
     7
370
    15
100
AcDbLine
 10
219.7272210314
 20
98.1473670426
 30
0.0
 11
222.4638081087
 21
97.2284400222
 31
0.0
  0
LINE
  5
91
330
1F
100
AcDbEntity
  8
0
  6
Continuous
 62
     7
370
    15
100
AcDbLine
 10
224.6279186501
 20
99.1389302389
 30
0.0
 11
222.4638081087
 21
97.2284400222
 31
0.0
  0
LINE
  5
92
330
1F
100
AcDbEntity
  8
0
  6
Continuous
 62
     7
370
    15
100
AcDbLine
 10
224.6279186501
 20
99.1389302389
 30
0.0
 11
224.0554383887
 21
101.9683472431
 31
0.0
  0
SPLINE
  5
93
330
1F
100
AcDbEntity
  8
0
  6
Continuous
 62
     7
370
    15
100
AcDbSpline
210
0.0
220
0.0
230
1.0
 70
     8
 71
     3
 72
    12
 73
     8
 74
     0
 42
0.00000001
 43
0.00000001
 12
1.0
 22
0.0
 32
0.0
 13
1.0
 23
0.0
 33
0.0
 40
0.0
 40
0.0
 40
0.0
 40
0.0
 40
0.1816802310741284
 40
0.4217764616051605
 40
0.6690584006942846
 40
0.9051356089179498
 40
1.0
 40
1.0
 40
1.0
 40
1.0
 10
225.3274946405122
 20
119.8466811646734
 30
0.0
 10
225.448034037363
 20
119.8678906499025
 30
0.0
 10
225.7278700987067
 20
119.9171291475614
 30
0.0
 10
226.0501357187462
 20
119.9834791153573
 30
0.0
 10
226.2845956383617
 20
120.0337789718877
 30
0.0
 10
226.3935511540542
 20
120.0583621934357
 30
0.0
 10
226.3797595843509
 20
120.0552592753889
 30
0.0
 10
226.3758062316605
 20
120.0543698241029
 30
0.0
  0
SPLINE
  5
94
330
1F
100
AcDbEntity
  8
0
  6
Continuous
 62
     7
370
    15
100
AcDbSpline
210
0.0
220
0.0
230
1.0
 70
     8
 71
     3
 72
    12
 73
     8
 74
     0
 42
0.00000001
 43
0.00000001
 12
1.0
 22
0.0
 32
0.0
 13
1.0
 23
0.0
 33
0.0
 40
0.0
 40
0.0
 40
0.0
 40
0.0
 40
0.1919578931103657
 40
0.4318825336364199
 40
0.6643145981629579
 40
0.9032353823648658
 40
0.9999999999999999
 40
0.9999999999999999
 40
0.9999999999999999
 40
0.9999999999999999
 10
217.4000359071919
 20
120.0559046437059
 30
0.0
 10
217.4044708172424
 20
120.0549080122827
 30
0.0
 10
217.4144488398077
 20
120.0526657095716
 30
0.0
 10
217.5748714230212
 20
120.0168051648092
 30
0.0
 10
217.8563338756483
 20
119.9580636501986
 30
0.0
 10
218.1539853378942
 20
119.8979359871716
 30
0.0
 10
218.3888257324935
 20
119.8582612278252
 30
0.0
 10
218.4565207852551
 20
119.8468245883499
 30
0.0
  0
SPLINE
  5
95
330
1F
100
AcDbEntity
  8
0
  6
Continuous
 62
     7
370
    15
100
AcDbSpline
210
0.0
220
0.0
230
1.0
 70
     8
 71
     3
 72
    12
 73
     8
 74
     0
 42
0.00000001
 43
0.00000001
 12
1.0
 22
0.0
 32
0.0
 13
1.0
 23
0.0
 33
0.0
 40
0.0
 40
0.0
 40
0.0
 40
0.0
 40
0.1287018961875946
 40
0.3843416327757808
 40
0.647632876999898
 40
0.8989939837395315
 40
0.9999999999999999
 40
0.9999999999999999
 40
0.9999999999999999
 40
0.9999999999999999
 10
209.9437593414017
 20
119.8675148506675
 30
0.0
 10
210.02328933098
 20
119.8815618395642
 30
0.0
 10
210.2607892199062
 20
119.9235102708464
 30
0.0
 10
210.5488578987522
 20
119.9833557808739
 30
0.0
 10
210.7849311758781
 20
120.0338115597277
 30
0.0
 10
210.8935211030956
 20
120.0583594443327
 30
0.0
 10
210.8797516385758
 20
120.0552586629222
 30
0.0
 10
210.8758046223351
 20
120.0543698241029
 30
0.0
  0
SPLINE
  5
96
330
1F
100
AcDbEntity
  8
0
  6
Continuous
 62
     7
370
    15
100
AcDbSpline
210
0.0
220
0.0
230
1.0
 70
     8
 71
     3
 72
    12
 73
     8
 74
     0
 42
0.00000001
 43
0.00000001
 12
1.0
 22
0.0
 32
0.0
 13
1.0
 23
0.0
 33
0.0
 40
0.0
 40
0.0
 40
0.0
 40
0.0
 40
0.2043817662577456
 40
0.4598351332724005
 40
0.7073107154790581
 40
0.961694328669036
 40
1.0
 40
1.0
 40
1.0
 40
1.0
 10
201.9000380231568
 20
120.0559046437059
 30
0.0
 10
201.9045032586869
 20
120.0549057444083
 30
0.0
 10
201.9145495177671
 20
120.0526583375087
 30
0.0
 10
202.0743398897519
 20
120.0168428717007
 30
0.0
 10
202.3582810204652
 20
119.9579267289819
 30
0.0
 10
202.61734168014
 20
119.9047073426435
 30
0.0
 10
202.8071754983495
 20
119.8723906335545
 30
0.0
 10
202.8320199741551
 20
119.8681611885343
 30
0.0
  0
SPLINE
  5
97
330
1F
100
AcDbEntity
  8
0
  6
Continuous
 62
     7
370
    15
100
AcDbSpline
210
0.0
220
0.0
230
1.0
 70
     8
 71
     3
 72
    16
 73
    12
 74
     0
 42
0.00000001
 43
0.00000001
 12
1.0
 22
0.0
 32
0.0
 13
1.0
 23
0.0
 33
0.0
 40
0.0
 40
0.0
 40
0.0
 40
0.0
 40
0.0643600107342842
 40
0.1941074182500589
 40
0.3238397418624773
 40
0.4514185533550703
 40
0.5789937302274437
 40
0.7042648947103098
 40
0.8295476451253276
 40
0.9557929092351983
 40
1.0
 40
1.0
 40
1.0
 40
1.0
 10
209.9439381553361
 20
97.32201279523116
 30
0.0
 10
210.0234492521937
 20
97.42013264005833
 30
0.0
 10
210.2632517872955
 20
97.71605847259323
 30
0.0
 10
210.5482381512529
 20
98.29110177656327
 30
0.0
 10
210.7922660094329
 20
99.01435330151382
 30
0.0
 10
210.9021783002618
 20
99.7692606284941
 30
0.0
 10
210.8884060163954
 20
100.5222990980073
 30
0.0
 10
210.7497101526805
 20
101.2585492455746
 30
0.0
 10
210.4899445684659
 20
101.9537793909594
 30
0.0
 10
210.2164580995328
 20
102.4723057347898
 30
0.0
 10
210.0013715098612
 20
102.7282019300742
 30
0.0
 10
209.9455884589383
 20
102.7945690174614
 30
0.0
  0
SPLINE
  5
98
330
1F
100
AcDbEntity
  8
0
  6
Continuous
 62
     7
370
    15
100
AcDbSpline
210
0.0
220
0.0
230
1.0
 70
     8
 71
     3
 72
    16
 73
    12
 74
     0
 42
0.00000001
 43
0.00000001
 12
1.0
 22
0.0
 32
0.0
 13
1.0
 23
0.0
 33
0.0
 40
0.0
 40
0.0
 40
0.0
 40
0.0
 40
0.0910804833868846
 40
0.2206866115252422
 40
0.3494274666051504
 40
0.4781576639139819
 40
0.6040502866371025
 40
0.7299501081859264
 40
0.8553939227270421
 40
0.9808509729868166
 40
0.9999999999999999
 40
0.9999999999999999
 40
0.9999999999999999
 40
0.9999999999999999
 10
202.8371124459931
 20
102.7955466733341
 30
0.0
 10
202.7287665350005
 20
102.653292735508
 30
0.0
 10
202.4662460577209
 20
102.3086136303082
 30
0.0
 10
202.1737789653527
 20
101.6814172964569
 30
0.0
 10
201.9586156655548
 20
100.9482628616986
 30
0.0
 10
201.8718461684124
 20
100.1932640336558
 30
0.0
 10
201.9142730331237
 20
99.44131018919433
 30
0.0
 10
202.0738372651148
 20
98.71094892957531
 30
0.0
 10
202.3613652180439
 20
98.02789159057495
 30
0.0
 10
202.6192298276195
 20
97.55764800815602
 30
0.0
 10
202.8072553654693
 20
97.3455534610593
 30
0.0
 10
202.8321540846059
 20
97.31746747540575
 30
0.0
  0
SPLINE
  5
99
330
1F
100
AcDbEntity
  8
0
  6
Continuous
 62
     7
370
    15
100
AcDbSpline
210
0.0
220
0.0
230
1.0
 70
     8
 71
     3
 72
    16
 73
    12
 74
     0
 42
0.00000001
 43
0.00000001
 12
1.0
 22
0.0
 32
0.0
 13
1.0
 23
0.0
 33
0.0
 40
0.0
 40
0.0
 40
0.0
 40
0.0
 40
0.0908503956624874
 40
0.2127071079162475
 40
0.3345498378879204
 40
0.4543698390685951
 40
0.5741864266714671
 40
0.691839232113941
 40
0.8095028090592173
 40
0.9280700729734468
 40
1.0
 40
1.0
 40
1.0
 40
1.0
 10
225.3277703119942
 20
97.17125099534434
 30
0.0
 10
225.4483018633017
 20
97.31800057835534
 30
0.0
 10
225.7305011592357
 20
97.66158388542371
 30
0.0
 10
226.049512345722
 20
98.29019664614641
 30
0.0
 10
226.2919401687308
 20
99.01459623838004
 30
0.0
 10
226.4022401118208
 20
99.76917588325955
 30
0.0
 10
226.3884918783838
 20
100.5223957321912
 30
0.0
 10
226.2493240075669
 20
101.2582534021368
 30
0.0
 10
225.9913989150331
 20
101.9548702760458
 30
0.0
 10
225.6819384611445
 20
102.5256580075771
 30
0.0
 10
225.4234452057219
 20
102.8282615113796
 30
0.0
 10
225.3258406116196
 20
102.9425217156325
 30
0.0
  0
SPLINE
  5
9A
330
1F
100
AcDbEntity
  8
0
  6
Continuous
 62
     7
370
    15
100
AcDbSpline
210
0.0
220
0.0
230
1.0
 70
     8
 71
     3
 72
    16
 73
    12
 74
     0
 42
0.00000001
 43
0.00000001
 12
1.0
 22
0.0
 32
0.0
 13
1.0
 23
0.0
 33
0.0
 40
0.0
 40
0.0
 40
0.0
 40
0.0
 40
0.1159120907106432
 40
0.2376435698718707
 40
0.3585626045579007
 40
0.4794716963189442
 40
0.5977155467603883
 40
0.7159661586533888
 40
0.8337886904537678
 40
0.9516234322111743
 40
1.0
 40
1.0
 40
1.0
 40
1.0
 10
218.4477812542149
 20
102.9501371403251
 30
0.0
 10
218.2999645379429
 20
102.7580585938705
 30
0.0
 10
217.9969099391841
 20
102.3642581611854
 30
0.0
 10
217.6728046630535
 20
101.6820660618268
 30
0.0
 10
217.4588692854535
 20
100.9480809529511
 30
0.0
 10
217.3718145916687
 20
100.1933415457614
 30
0.0
 10
217.4141429778598
 20
99.44118159614268
 30
0.0
 10
217.5743764231269
 20
98.71138635021954
 30
0.0
 10
217.8593347300738
 20
98.02627408404142
 30
0.0
 10
218.1558305158344
 20
97.5058382434285
 30
0.0
 10
218.3890218899584
 20
97.24874560281614
 30
0.0
 10
218.456893314285
 20
97.1739176047061
 30
0.0
  0
LINE
  5
9B
330
1F
100
AcDbEntity
  8
0
  6
Continuous
 62
     7
370
    15
100
AcDbLine
 10
232.3913304998
 20
100.0578571429
 30
0.0
 11
232.3913304998
 21
81.0578577538
 31
0.0
  0
LINE
  5
9C
330
1F
100
AcDbEntity
  8
0
  6
Continuous
 62
     7
370
    15
100
AcDbLine
 10
232.3913304998
 20
119.0578565319
 30
0.0
 11
232.3913304998
 21
100.0578571429
 31
0.0
  0
LINE
  5
9D
330
1F
100
AcDbEntity
  8
0
  6
Continuous
 62
     7
370
    15
100
AcDbLine
 10
197.3913303508
 20
81.0578577538
 30
0.0
 11
197.3913303508
 21
119.0578565319
 31
0.0
  0
LINE
  5
9E
330
1F
100
AcDbEntity
  8
0
  6
Continuous
 62
     7
370
    15
100
AcDbLine
 10
181.7413299276
 20
80.8289721926
 30
0.0
 11
180.4264905794
 21
80.8289721926
 31
0.0
  0
LINE
  5
9F
330
1F
100
AcDbEntity
  8
0
  6
Continuous
 62
     7
370
    15
100
AcDbLine
 10
180.4264905794
 20
80.8289721926
 30
0.0
 11
180.4264905794
 21
111.907857502
 31
0.0
  0
LINE
  5
A0
330
1F
100
AcDbEntity
  8
0
  6
Continuous
 62
     7
370
    15
100
AcDbLine
 10
180.4264905794
 20
111.907857502
 30
0.0
 11
181.7413299276
 21
111.907857502
 31
0.0
  0
SPLINE
  5
A1
330
1F
100
AcDbEntity
  8
0
  6
Continuous
 62
     7
370
    15
100
AcDbSpline
210
0.0
220
0.0
230
1.0
 70
     8
 71
     3
 72
     8
 73
     4
 74
     0
 42
0.00000001
 43
0.00000001
 12
1.0
 22
0.0
 32
0.0
 13
1.0
 23
0.0
 33
0.0
 40
0.0
 40
0.0
 40
0.0
 40
0.0
 40
1.0
 40
1.0
 40
1.0
 40
1.0
 10
180.426489900681
 20
80.82897261982771
 30
0.0
 10
180.0937846289757
 20
81.42834429305138
 30
0.0
 10
179.7619688284022
 20
82.02821340375642
 30
0.0
 10
179.4313302017876
 20
82.62873375486741
 30
0.0
  0
LINE
  5
A2
330
1F
100
AcDbEntity
  8
0
  6
Continuous
 62
     7
370
    15
100
AcDbLine
 10
179.4313295676
 20
82.6287344416
 30
0.0
 11
179.4313295676
 21
111.907857502
 31
0.0
  0
SPLINE
  5
A3
330
1F
100
AcDbEntity
  8
0
  6
Continuous
 62
     7
370
    15
100
AcDbSpline
210
0.0
220
0.0
230
1.0
 70
    24
 71
     3
 72
     8
 73
     4
 74
     0
 42
0.00000001
 43
0.00000001
 12
1.0
 22
0.0
 32
0.0
 13
1.0
 23
0.0
 33
0.0
 40
0.0
 40
0.0
 40
0.0
 40
0.0
 40
1.0
 40
1.0
 40
1.0
 40
1.0
 10
179.4313302017876
 20
111.9078571428571
 30
0.0
 10
179.7549668574098
 20
111.9078571428571
 30
0.0
 10
180.0874570789265
 20
111.9078571428571
 30
0.0
 10
180.4264899006811
 20
111.9078571428571
 30
0.0
  0
LINE
  5
A4
330
1F
100
AcDbEntity
  8
0
  6
Continuous
 62
     7
370
    15
100
AcDbLine
 10
182.341330771
 20
81.4538244476
 30
0.0
 11
182.341330771
 21
111.907857502
 31
0.0
  0
SPLINE
  5
A5
330
1F
100
AcDbEntity
  8
0
  6
Continuous
 62
     7
370
    15
100
AcDbSpline
210
0.0
220
0.0
230
1.0
 70
     8
 71
     3
 72
    10
 73
     6
 74
     0
 42
0.00000001
 43
0.00000001
 12
1.0
 22
0.0
 32
0.0
 13
1.0
 23
0.0
 33
0.0
 40
0.0
 40
0.0
 40
0.0
 40
0.0
 40
0.5
 40
0.5
 40
1.0
 40
1.0
 40
1.0
 40
1.0
 10
182.3413302017876
 20
81.45382532177061
 30
0.0
 10
182.3413302017876
 20
81.29419315286738
 30
0.0
 10
182.2796936880823
 20
81.13314351910331
 30
0.0
 10
182.0606673218394
 20
80.9001526354267
 30
0.0
 10
181.903050433792
 20
80.82897261982771
 30
0.0
 10
181.7413302017876
 20
80.82897261982771
 30
0.0
  0
SPLINE
  5
A6
330
1F
100
AcDbEntity
  8
0
  6
Continuous
 62
     7
370
    15
100
AcDbSpline
210
0.0
220
0.0
230
1.0
 70
    24
 71
     3
 72
    12
 73
     8
 74
     0
 42
0.00000001
 43
0.00000001
 12
1.0
 22
0.0
 32
0.0
 13
1.0
 23
0.0
 33
0.0
 40
0.0
 40
0.0
 40
0.0
 40
0.0
 40
0.250000000000002
 40
0.250000000000002
 40
0.500000000000004
 40
0.500000000000004
 40
1.0
 40
1.0
 40
1.0
 40
1.0
 10
181.7413302017876
 20
111.9078571428571
 30
0.0
 10
181.8295170671565
 20
111.9078571428571
 30
0.0
 10
181.9182044604578
 20
111.9078571428571
 30
0.0
 10
182.0724569535766
 20
111.9078571428571
 30
0.0
 10
182.1378029346526
 20
111.9078571428571
 30
0.0
 10
182.2922128046037
 20
111.9078571428571
 30
0.0
 10
182.3413302017876
 20
111.9078571428571
 30
0.0
 10
182.3413302017876
 20
111.9078571428571
 30
0.0
  0
LINE
  5
A7
330
1F
100
AcDbEntity
  8
0
  6
Continuous
 62
     7
370
    15
100
AcDbLine
 10
177.3513304933
 20
82.6287344416
 30
0.0
 11
177.3513304933
 21
111.907857502
 31
0.0
  0
SPLINE
  5
A8
330
1F
100
AcDbEntity
  8
0
  6
Continuous
 62
     7
370
    15
100
AcDbSpline
210
0.0
220
0.0
230
1.0
 70
     8
 71
     3
 72
     8
 73
     4
 74
     0
 42
0.00000001
 43
0.00000001
 12
1.0
 22
0.0
 32
0.0
 13
1.0
 23
0.0
 33
0.0
 40
0.0
 40
0.0
 40
0.0
 40
0.0
 40
1.0
 40
1.0
 40
1.0
 40
1.0
 10
177.3513302017876
 20
82.62873375486741
 30
0.0
 10
177.020691575173
 20
82.02821340375642
 30
0.0
 10
176.6888757745995
 20
81.42834429305138
 30
0.0
 10
176.3561705028942
 20
80.82897261982771
 30
0.0
  0
LINE
  5
A9
330
1F
100
AcDbEntity
  8
0
  6
Continuous
 62
     7
370
    15
100
AcDbLine
 10
176.3561704128
 20
80.8289721926
 30
0.0
 11
176.3561704128
 21
111.907857502
 31
0.0
  0
SPLINE
  5
AA
330
1F
100
AcDbEntity
  8
0
  6
Continuous
 62
     7
370
    15
100
AcDbSpline
210
0.0
220
0.0
230
1.0
 70
    24
 71
     3
 72
     8
 73
     4
 74
     0
 42
0.00000001
 43
0.00000001
 12
1.0
 22
0.0
 32
0.0
 13
1.0
 23
0.0
 33
0.0
 40
0.0
 40
0.0
 40
0.0
 40
0.0
 40
1.0
 40
1.0
 40
1.0
 40
1.0
 10
176.3561705028942
 20
111.9078571428571
 30
0.0
 10
176.6952033246488
 20
111.9078571428571
 30
0.0
 10
177.0276935461654
 20
111.9078571428571
 30
0.0
 10
177.3513302017876
 20
111.9078571428571
 30
0.0
  0
LINE
  5
AB
330
1F
100
AcDbEntity
  8
0
  6
Continuous
 62
     7
370
    15
100
AcDbLine
 10
170.3413306667
 20
111.907857502
 30
0.0
 11
176.3561704128
 21
111.907857502
 31
0.0
  0
LINE
  5
AC
330
1F
100
AcDbEntity
  8
0
  6
Continuous
 62
     7
370
    15
100
AcDbLine
 10
176.3561704128
 20
80.8289721926
 30
0.0
 11
174.841330473
 21
80.8289721926
 31
0.0
  0
SPLINE
  5
AD
330
1F
100
AcDbEntity
  8
0
  6
Continuous
 62
     7
370
    15
100
AcDbSpline
210
0.0
220
0.0
230
1.0
 70
     8
 71
     3
 72
    22
 73
    18
 74
     0
 42
0.00000001
 43
0.00000001
 12
1.0
 22
0.0
 32
0.0
 13
1.0
 23
0.0
 33
0.0
 40
0.0
 40
0.0
 40
0.0
 40
0.0
 40
0.125
 40
0.125
 40
0.25
 40
0.25
 40
0.375
 40
0.375
 40
0.5
 40
0.5
 40
0.625
 40
0.625
 40
0.75
 40
0.75
 40
0.875
 40
0.875
 40
1.0
 40
1.0
 40
1.0
 40
1.0
 10
174.8413302017876
 20
80.82897261982772
 30
0.0
 10
174.542205772747
 20
80.82897261982772
 30
0.0
 10
174.2483833244982
 20
80.82045851876133
 30
0.0
 10
173.6708190482518
 20
80.78801474987942
 30
0.0
 10
173.3840013704379
 20
80.7636808611774
 30
0.0
 10
172.8395388415386
 20
80.70322083642057
 30
0.0
 10
172.5815835709173
 20
80.66730741564209
 30
0.0
 10
172.0935256275573
 20
80.58759738957293
 30
0.0
 10
171.8638273288936
 20
80.54371908838361
 30
0.0
 10
171.451408345941
 20
80.45547546601343
 30
0.0
 10
171.2658814030809
 20
80.41066712455246
 30
0.0
 10
170.9373613581801
 20
80.32334611663327
 30
0.0
 10
170.7989474712806
 20
80.28205532805762
 30
0.0
 10
170.5743553246647
 20
80.20771710476379
 30
0.0
 10
170.4872765125405
 20
80.17430697902913
 30
0.0
 10
170.3707747045854
 20
80.11928757750299
 30
0.0
 10
170.3413302017876
 20
80.09782581103676
 30
0.0
 10
170.3413302017876
 20
80.08287278741896
 30
0.0
  0
LINE
  5
AE
330
1F
100
AcDbEntity
  8
0
  6
Continuous
 62
     7
370
    15
100
AcDbLine
 10
170.3413306667
 20
80.0828729142
 30
0.0
 11
170.3413306667
 21
80.0578575899
 31
0.0
  0
SPLINE
  5
AF
330
1F
100
AcDbEntity
  8
0
  6
Continuous
 62
     7
370
    15
100
AcDbSpline
210
0.0
220
0.0
230
1.0
 70
     8
 71
     3
 72
    17
 73
    13
 74
     0
 42
0.00000001
 43
0.00000001
 12
1.0
 22
0.0
 32
0.0
 13
1.0
 23
0.0
 33
0.0
 40
0.0
 40
0.0
 40
0.0
 40
0.0
 40
0.1039928149931941
 40
0.211050797947968
 40
0.315030024669631
 40
0.4219351868122974
 40
0.5275775927633417
 40
0.6362134531400181
 40
0.7429488821168505
 40
0.8528788227495517
 40
0.9578277247781112
 40
1.0
 40
1.0
 40
1.0
 40
1.0
 10
174.8413304729888
 20
119.545033233336
 30
0.0
 10
174.5955133887637
 20
119.5477490679291
 30
0.0
 10
174.0966338096474
 20
119.5532607858107
 30
0.0
 10
173.3731502661227
 20
119.5963445445862
 30
0.0
 10
172.6853549099149
 20
119.6602111567678
 30
0.0
 10
172.0606095377807
 20
119.7395466727926
 30
0.0
 10
171.5046587347183
 20
119.826485464561
 30
0.0
 10
171.0426722281511
 20
119.9104450558799
 30
0.0
 10
170.6804070968794
 20
119.983607924971
 30
0.0
 10
170.4486281261257
 20
120.0337449652625
 30
0.0
 10
170.3390621818425
 20
120.058365062645
 30
0.0
 10
170.352893057207
 20
120.0552599145798
 30
0.0
 10
170.3568576766679
 20
120.0543698241029
 30
0.0
  0
LINE
  5
B0
330
1F
100
AcDbEntity
  8
0
  6
Continuous
 62
     7
370
    15
100
AcDbLine
 10
176.3561704128
 20
119.5450332333
 30
0.0
 11
174.841330473
 21
119.5450332333
 31
0.0
  0
LINE
  5
B1
330
1F
100
AcDbEntity
  8
0
  6
Continuous
 62
     7
370
    15
100
AcDbLine
 10
176.3561704128
 20
116.1692664345
 30
0.0
 11
176.3561704128
 21
119.5450332333
 31
0.0
  0
LINE
  5
B2
330
1F
100
AcDbEntity
  8
0
  6
Continuous
 62
     7
370
    15
100
AcDbLine
 10
174.8350002734
 20
116.1692664345
 30
0.0
 11
176.3561704128
 21
116.1692664345
 31
0.0
  0
SPLINE
  5
B3
330
1F
100
AcDbEntity
  8
0
  6
Continuous
 62
     7
370
    15
100
AcDbSpline
210
0.0
220
0.0
230
1.0
 70
     8
 71
     3
 72
    22
 73
    18
 74
     0
 42
0.00000001
 43
0.00000001
 12
1.0
 22
0.0
 32
0.0
 13
1.0
 23
0.0
 33
0.0
 40
0.0
 40
0.0
 40
0.0
 40
0.0
 40
0.2500000000000002
 40
0.2500000000000002
 40
0.3750000000000001
 40
0.3750000000000001
 40
0.5000000000000001
 40
0.5000000000000001
 40
0.6250000000000001
 40
0.6250000000000001
 40
0.75
 40
0.75
 40
0.875
 40
0.875
 40
0.9375000000000001
 40
0.9375000000000001
 40
1.0
 40
1.0
 40
1.0
 40
1.0
 10
170.3413302017876
 20
111.9078571428571
 30
0.0
 10
170.3633112197743
 20
112.4707297847552
 30
0.0
 10
170.442288103129
 20
113.0013546684847
 30
0.0
 10
170.6886859961614
 20
113.7470656594063
 30
0.0
 10
170.7932106112523
 20
113.988685885805
 30
0.0
 10
171.0550572065588
 20
114.4475446611309
 30
0.0
 10
171.2102738287246
 20
114.6617233336007
 30
0.0
 10
171.5788655817886
 20
115.0589518927462
 30
0.0
 10
171.7949992742535
 20
115.2433967277661
 30
0.0
 10
172.2788937692404
 20
115.5644765756497
 30
0.0
 10
172.5493593142481
 20
115.7038274057557
 30
0.0
 10
173.1455858797583
 20
115.9331329401813
 30
0.0
 10
173.4610791464782
 20
116.0196689496576
 30
0.0
 10
173.9617957944968
 20
116.1085585539888
 30
0.0
 10
174.1345922291119
 20
116.1313670598505
 30
0.0
 10
174.482961001894
 20
116.1616582225467
 30
0.0
 10
174.6583620308044
 20
116.1692661439346
 30
0.0
 10
174.8350006764924
 20
116.1692661439346
 30
0.0
  0
LINE
  5
B4
330
1F
100
AcDbEntity
  8
0
  6
Continuous
 62
     7
370
    15
100
AcDbLine
 10
162.3913302018
 20
80.3578570803
 30
0.0
 11
162.3913302018
 21
119.7578572054
 31
0.0
  0
SPLINE
  5
B5
330
1F
100
AcDbEntity
  8
0
  6
Continuous
 62
     7
370
    15
100
AcDbSpline
210
0.0
220
0.0
230
1.0
 70
    24
 71
     3
 72
    16
 73
    12
 74
     0
 42
0.00000001
 43
0.00000001
 12
1.0
 22
0.0
 32
0.0
 13
1.0
 23
0.0
 33
0.0
 40
0.0
 40
0.0
 40
0.0
 40
0.0
 40
0.0624999999999997
 40
0.0624999999999997
 40
0.1249999999999994
 40
0.1249999999999994
 40
0.2499999999999988
 40
0.2499999999999988
 40
0.499999999999999
 40
0.499999999999999
 40
1.0
 40
1.0
 40
1.0
 40
1.0
 10
177.951330201761
 20
83.15785714285713
 30
0.0
 10
177.9168515345758
 20
83.15785714285713
 30
0.0
 10
177.883031357739
 20
83.15785714285713
 30
0.0
 10
177.8265092905553
 20
83.15785714285713
 30
0.0
 10
177.802183211029
 20
83.15785714285713
 30
0.0
 10
177.7377303114778
 20
83.15785714285713
 30
0.0
 10
177.7041020361192
 20
83.15785714285713
 30
0.0
 10
177.6160247205943
 20
83.15785714285714
 30
0.0
 10
177.5732052673267
 20
83.15785714285714
 30
0.0
 10
177.4625486331297
 20
83.15785714285714
 30
0.0
 10
177.4163160471857
 20
83.15785714285713
 30
0.0
 10
177.386552602369
 20
83.15785714285713
 30
0.0
  0
SPLINE
  5
B6
330
1F
100
AcDbEntity
  8
0
  6
Continuous
 62
     7
370
    15
100
AcDbSpline
210
0.0
220
0.0
230
1.0
 70
    24
 71
     3
 72
    12
 73
     8
 74
     0
 42
0.00000001
 43
0.00000001
 12
1.0
 22
0.0
 32
0.0
 13
1.0
 23
0.0
 33
0.0
 40
0.0
 40
0.0
 40
0.0
 40
0.0
 40
0.5000000000000013
 40
0.5000000000000013
 40
0.7500000000000007
 40
0.7500000000000007
 40
1.0
 40
1.0
 40
1.0
 40
1.0
 10
177.3513302017876
 20
111.9078571428571
 30
0.0
 10
177.3513302017876
 20
111.9078571428571
 30
0.0
 10
177.3983262992959
 20
111.9078571428571
 30
0.0
 10
177.5478322372962
 20
111.9078571428571
 30
0.0
 10
177.6123508598546
 20
111.9078571428571
 30
0.0
 10
177.7667905525836
 20
111.9078571428571
 30
0.0
 10
177.8577289405866
 20
111.9078571428571
 30
0.0
 10
177.9513302017876
 20
111.9078571428571
 30
0.0
  0
SPLINE
  5
B7
330
1F
100
AcDbEntity
  8
0
  6
Continuous
 62
     7
370
    15
100
AcDbSpline
210
0.0
220
0.0
230
1.0
 70
    24
 71
     3
 72
    16
 73
    12
 74
     0
 42
0.00000001
 43
0.00000001
 12
1.0
 22
0.0
 32
0.0
 13
1.0
 23
0.0
 33
0.0
 40
0.0
 40
0.0
 40
0.0
 40
0.0
 40
0.5000000000000001
 40
0.5000000000000001
 40
0.7499999999999993
 40
0.7499999999999993
 40
0.8749999999999983
 40
0.8749999999999983
 40
0.9374999999999991
 40
0.9374999999999991
 40
1.0
 40
1.0
 40
1.0
 40
1.0
 10
179.3961078012064
 20
83.15785714285713
 30
0.0
 10
179.3660713816797
 20
83.15785714285713
 30
0.0
 10
179.3194372844749
 20
83.15785714285713
 30
0.0
 10
179.2090528728962
 20
83.15785714285713
 30
0.0
 10
179.1657152243756
 20
83.15785714285714
 30
0.0
 10
179.077233589991
 20
83.15785714285714
 30
0.0
 10
179.0438580853744
 20
83.15785714285713
 30
0.0
 10
178.9793658759238
 20
83.15785714285713
 30
0.0
 10
178.9551615387372
 20
83.15785714285713
 30
0.0
 10
178.8994077289268
 20
83.15785714285713
 30
0.0
 10
178.8658237028586
 20
83.15785714285713
 30
0.0
 10
178.8313302017876
 20
83.15785714285713
 30
0.0
  0
SPLINE
  5
B8
330
1F
100
AcDbEntity
  8
0
  6
Continuous
 62
     7
370
    15
100
AcDbSpline
210
0.0
220
0.0
230
1.0
 70
    24
 71
     3
 72
    12
 73
     8
 74
     0
 42
0.00000001
 43
0.00000001
 12
1.0
 22
0.0
 32
0.0
 13
1.0
 23
0.0
 33
0.0
 40
0.0
 40
0.0
 40
0.0
 40
0.0
 40
0.249999999999999
 40
0.249999999999999
 40
0.499999999999998
 40
0.499999999999998
 40
1.0
 40
1.0
 40
1.0
 40
1.0
 10
178.8313302017876
 20
111.9078571428571
 30
0.0
 10
178.9239882912939
 20
111.9078571428571
 30
0.0
 10
179.0160517008516
 20
111.9078571428571
 30
0.0
 10
179.1702092513423
 20
111.9078571428571
 30
0.0
 10
179.234698184707
 20
111.9078571428571
 30
0.0
 10
179.3847497336566
 20
111.9078571428571
 30
0.0
 10
179.4313302017876
 20
111.9078571428571
 30
0.0
 10
179.4313302017876
 20
111.9078571428571
 30
0.0
  0
SPLINE
  5
B9
330
1F
100
AcDbEntity
  8
0
  6
Continuous
 62
     7
370
    15
100
AcDbSpline
210
0.0
220
0.0
230
1.0
 70
    24
 71
     3
 72
    14
 73
    10
 74
     0
 42
0.00000001
 43
0.00000001
 12
1.0
 22
0.0
 32
0.0
 13
1.0
 23
0.0
 33
0.0
 40
0.0
 40
0.0
 40
0.0
 40
0.0
 40
0.125
 40
0.125
 40
0.25
 40
0.25
 40
0.5
 40
0.5
 40
1.0
 40
1.0
 40
1.0
 40
1.0
 10
182.5413302017704
 20
116.9578571428571
 30
0.0
 10
182.54133043166
 20
116.9578571428571
 30
0.0
 10
182.5389540778206
 20
116.9578571428571
 30
0.0
 10
182.5298061945955
 20
116.9578571428571
 30
0.0
 10
182.5230403012378
 20
116.9578571428571
 30
0.0
 10
182.497600894955
 20
116.9578571428571
 30
0.0
 10
182.4737078576124
 20
116.9578571428571
 30
0.0
 10
182.3987736211815
 20
116.9578571428571
 30
0.0
 10
182.3435470909044
 20
116.9578571428571
 30
0.0
 10
182.3413923249109
 20
116.9578571428571
 30
0.0
  0
SPLINE
  5
BA
330
1F
100
AcDbEntity
  8
0
  6
Continuous
 62
     7
370
    15
100
AcDbSpline
210
0.0
220
0.0
230
1.0
 70
    24
 71
     3
 72
    10
 73
     6
 74
     0
 42
0.00000001
 43
0.00000001
 12
1.0
 22
0.0
 32
0.0
 13
1.0
 23
0.0
 33
0.0
 40
0.0
 40
0.0
 40
0.0
 40
0.0
 40
0.0000127965407537
 40
0.9263151974694004
 40
1.0
 40
1.0
 40
1.0
 40
1.0
 10
182.5413304312655
 20
83.15785791175705
 30
0.0
 10
182.5413304312682
 20
83.15785791175705
 30
0.0
 10
182.5413306298855
 20
83.1578579118307
 30
0.0
 10
182.4947571265135
 20
83.15785791175497
 30
0.0
 10
182.4600120143928
 20
83.1578579117569
 30
0.0
 10
182.4574517949054
 20
83.15785791175705
 30
0.0
  0
SPLINE
  5
BB
330
1F
100
AcDbEntity
  8
0
  6
Continuous
 62
     7
370
    15
100
AcDbSpline
210
0.0
220
0.0
230
1.0
 70
    24
 71
     3
 72
    12
 73
     8
 74
     0
 42
0.00000001
 43
0.00000001
 12
1.0
 22
0.0
 32
0.0
 13
1.0
 23
0.0
 33
0.0
 40
0.0
 40
0.0
 40
0.0
 40
0.0
 40
0.5
 40
0.5
 40
0.75
 40
0.75
 40
1.0
 40
1.0
 40
1.0
 40
1.0
 10
182.3413302017876
 20
111.9078571428571
 30
0.0
 10
182.3413302017876
 20
111.9078571428571
 30
0.0
 10
182.3685509499153
 20
111.9078571428571
 30
0.0
 10
182.4489973956882
 20
111.9078571428571
 30
0.0
 10
182.4824446241662
 20
111.9078571428571
 30
0.0
 10
182.5648541939405
 20
111.9078571428571
 30
0.0
 10
182.6141372908241
 20
111.9078571428571
 30
0.0
 10
182.6704539134607
 20
111.9078571428571
 30
0.0
  0
SPLINE
  5
BC
330
1F
100
AcDbEntity
  8
0
  6
Continuous
 62
     7
370
    15
100
AcDbSpline
210
0.0
220
0.0
230
1.0
 70
     8
 71
     3
 72
    10
 73
     6
 74
     0
 42
0.00000001
 43
0.00000001
 12
1.0
 22
0.0
 32
0.0
 13
1.0
 23
0.0
 33
0.0
 40
0.0
 40
0.0
 40
0.0
 40
0.0
 40
0.5
 40
0.5
 40
1.0
 40
1.0
 40
1.0
 40
1.0
 10
182.3413302017876
 20
112.9352598312877
 30
0.0
 10
182.3413302017876
 20
112.7525511191528
 30
0.0
 10
182.3683035354957
 20
112.569042829392
 30
0.0
 10
182.4758939032814
 20
112.2207388510713
 30
0.0
 10
182.5573584476246
 20
112.0525512685284
 30
0.0
 10
182.6704539134604
 20
111.9078571428557
 30
0.0
  0
LINE
  5
BD
330
1F
100
AcDbEntity
  8
0
  6
Continuous
 62
     7
370
    15
100
AcDbLine
 10
178.8313305868
 20
83.1578579118
 30
0.0
 11
177.9513304053
 21
83.1578579118
 31
0.0
  0
LINE
  5
BE
330
1F
100
AcDbEntity
  8
0
  6
Continuous
 62
     7
370
    15
100
AcDbLine
 10
177.9513304053
 20
111.907857502
 30
0.0
 11
178.8313305868
 21
111.907857502
 31
0.0
  0
LINE
  5
BF
330
1F
100
AcDbEntity
  8
0
  6
Continuous
 62
     7
370
    15
100
AcDbLine
 10
160.3913301068
 20
84.9541565721
 30
0.0
 11
160.3913301068
 21
115.1615577136
 31
0.0
  0
LINE
  5
C0
330
1F
100
AcDbEntity
  8
0
  6
Continuous
 62
     7
370
    15
100
AcDbLine
 10
148.5913303612
 20
85.545338722
 30
0.0
 11
148.5913303612
 21
86.421110699
 31
0.0
  0
SPLINE
  5
C1
330
1F
100
AcDbEntity
  8
0
  6
Continuous
 62
     7
370
    15
100
AcDbSpline
210
0.0
220
0.0
230
1.0
 70
     8
 71
     3
 72
    12
 73
     8
 74
     0
 42
0.00000001
 43
0.00000001
 12
1.0
 22
0.0
 32
0.0
 13
1.0
 23
0.0
 33
0.0
 40
0.0
 40
0.0
 40
0.0
 40
0.0
 40
0.25
 40
0.25
 40
0.5
 40
0.5
 40
1.0
 40
1.0
 40
1.0
 40
1.0
 10
148.2235951089308
 20
87.1274812799724
 30
0.0
 10
148.2490193258247
 20
87.06059568689861
 30
0.0
 10
148.289631165394
 20
86.996147197215
 30
0.0
 10
148.3742323116661
 20
86.87114653713714
 30
0.0
 10
148.4183291079516
 20
86.81062779194501
 30
0.0
 10
148.5343982164378
 20
86.63442173583658
 30
0.0
 10
148.5913302017876
 20
86.5240273208648
 30
0.0
 10
148.5913302017876
 20
86.42111044477164
 30
0.0
  0
SPLINE
  5
C2
330
1F
100
AcDbEntity
  8
0
  6
Continuous
 62
     7
370
    15
100
AcDbSpline
210
0.0
220
0.0
230
1.0
 70
     8
 71
     3
 72
    14
 73
    10
 74
     0
 42
0.00000001
 43
0.00000001
 12
1.0
 22
0.0
 32
0.0
 13
1.0
 23
0.0
 33
0.0
 40
0.0
 40
0.0
 40
0.0
 40
0.0
 40
0.1249999999999994
 40
0.1249999999999994
 40
0.2499999999999988
 40
0.2499999999999988
 40
0.4999999999999991
 40
0.4999999999999991
 40
1.0
 40
1.0
 40
1.0
 40
1.0
 10
147.6913302017876
 20
87.61748709534612
 30
0.0
 10
147.740342524599
 20
87.62201215450129
 30
0.0
 10
147.7931487495945
 20
87.61389276894677
 30
0.0
 10
147.878215841324
 20
87.58356269379532
 30
0.0
 10
147.9128000266647
 20
87.56290773671881
 30
0.0
 10
148.001355712002
 20
87.49837161339202
 30
0.0
 10
148.0422914133232
 20
87.45113343333938
 30
0.0
 10
148.1461719402261
 20
87.3113373320557
 30
0.0
 10
148.1893957396582
 20
87.2174523931864
 30
0.0
 10
148.2235951089308
 20
87.1274812799724
 30
0.0
  0
SPLINE
  5
C3
330
1F
100
AcDbEntity
  8
0
  6
Continuous
 62
     7
370
    15
100
AcDbSpline
210
0.0
220
0.0
230
1.0
 70
     8
 71
     3
 72
    10
 73
     6
 74
     0
 42
0.00000001
 43
0.00000001
 12
1.0
 22
0.0
 32
0.0
 13
1.0
 23
0.0
 33
0.0
 40
0.0
 40
0.0
 40
0.0
 40
0.0
 40
0.5
 40
0.5
 40
1.0
 40
1.0
 40
1.0
 40
1.0
 10
144.7705068100891
 20
87.29123501577962
 30
0.0
 10
145.2434112406788
 20
87.35826792890312
 30
0.0
 10
145.7264161735232
 20
87.41613643006899
 30
0.0
 10
146.7022305518761
 20
87.52297757842918
 30
0.0
 10
147.1957047649002
 20
87.5717285127679
 30
0.0
 10
147.6913302017876
 20
87.61748709534615
 30
0.0
  0
SPLINE
  5
C4
330
1F
100
AcDbEntity
  8
0
  6
Continuous
 62
     7
370
    15
100
AcDbSpline
210
0.0
220
0.0
230
1.0
 70
     8
 71
     3
 72
    10
 73
     6
 74
     0
 42
0.00000001
 43
0.00000001
 12
1.0
 22
0.0
 32
0.0
 13
1.0
 23
0.0
 33
0.0
 40
0.0
 40
0.0
 40
0.0
 40
0.0
 40
0.5
 40
0.5
 40
1.0
 40
1.0
 40
1.0
 40
1.0
 10
143.5003302017876
 20
87.20679026530085
 30
0.0
 10
143.715689232345
 20
87.21380309627139
 30
0.0
 10
143.930130570669
 20
87.22257781992668
 30
0.0
 10
144.3551217892895
 20
87.24763099747452
 30
0.0
 10
144.5664945210122
 20
87.26231683027484
 30
0.0
 10
144.7705068100892
 20
87.2912350157796
 30
0.0
  0
SPLINE
  5
C5
330
1F
100
AcDbEntity
  8
0
  6
Continuous
 62
     7
370
    15
100
AcDbSpline
210
0.0
220
0.0
230
1.0
 70
     8
 71
     3
 72
     8
 73
     4
 74
     0
 42
0.00000001
 43
0.00000001
 12
1.0
 22
0.0
 32
0.0
 13
1.0
 23
0.0
 33
0.0
 40
0.0
 40
0.0
 40
0.0
 40
0.0
 40
1.0
 40
1.0
 40
1.0
 40
1.0
 10
143.4328140522186
 20
87.35467944331356
 30
0.0
 10
143.4469484968467
 20
87.30388311968034
 30
0.0
 10
143.4700058719953
 20
87.25464436912009
 30
0.0
 10
143.5003302017876
 20
87.20679026530085
 30
0.0
  0
ELLIPSE
  5
C6
330
1F
100
AcDbEntity
  8
0
  6
Continuous
 62
     7
370
    15
100
AcDbEllipse
 10
129.964587994
 20
99.4185594651
 30
0.0
 11
13.37355272666628
 21
-13.37146352987014
 31
0.0
210
0.0
220
0.0
230
1.0
 40
0.1761188775
 41
0.3023035477142521
 42
0.3822730435340347
  0
ELLIPSE
  5
C7
330
1F
100
AcDbEntity
  8
0
  6
Continuous
 62
     7
370
    15
100
AcDbEllipse
 10
129.8852095632
 20
100.6969675942
 30
0.0
 11
13.36963611134306
 21
13.36754752639485
 31
0.0
210
0.0
220
0.0
230
1.0
 40
0.1761188775
 41
5.933076931846599
 42
5.976720052691192
  0
SPLINE
  5
C8
330
1F
100
AcDbEntity
  8
0
  6
Continuous
 62
     7
370
    15
100
AcDbSpline
210
0.0
220
0.0
230
1.0
 70
     8
 71
     3
 72
     8
 73
     4
 74
     0
 42
0.00000001
 43
0.00000001
 12
1.0
 22
0.0
 32
0.0
 13
1.0
 23
0.0
 33
0.0
 40
0.0
 40
0.0
 40
0.0
 40
0.0
 40
1.0
 40
1.0
 40
1.0
 40
1.0
 10
143.4413302017876
 20
112.9234376898355
 30
0.0
 10
143.3955652940983
 20
112.8619173106767
 30
0.0
 10
143.3611781724683
 20
112.7980224509272
 30
0.0
 10
143.3421629187954
 20
112.7312925058835
 30
0.0
  0
SPLINE
  5
C9
330
1F
100
AcDbEntity
  8
0
  6
Continuous
 62
     7
370
    15
100
AcDbSpline
210
0.0
220
0.0
230
1.0
 70
     8
 71
     3
 72
    12
 73
     8
 74
     0
 42
0.00000001
 43
0.00000001
 12
1.0
 22
0.0
 32
0.0
 13
1.0
 23
0.0
 33
0.0
 40
0.0
 40
0.0
 40
0.0
 40
0.0
 40
0.2499999999999986
 40
0.2499999999999986
 40
0.4999999999999971
 40
0.4999999999999971
 40
1.0
 40
1.0
 40
1.0
 40
1.0
 10
145.1913302017877
 20
112.8386510015163
 30
0.0
 10
145.0492877985984
 20
112.8544767296925
 30
0.0
 10
144.9051696920943
 20
112.8654978634679
 30
0.0
 10
144.6154151784218
 20
112.884034225335
 30
0.0
 10
144.469673275063
 20
112.8913049310708
 30
0.0
 10
144.0309930358832
 20
112.9097657813988
 30
0.0
 10
143.736617419812
 20
112.9176446482223
 30
0.0
 10
143.4413302017876
 20
112.9234376898355
 30
0.0
  0
SPLINE
  5
CA
330
1F
100
AcDbEntity
  8
0
  6
Continuous
 62
     7
370
    15
100
AcDbSpline
210
0.0
220
0.0
230
1.0
 70
     8
 71
     3
 72
    20
 73
    16
 74
     0
 42
0.00000001
 43
0.00000001
 12
1.0
 22
0.0
 32
0.0
 13
1.0
 23
0.0
 33
0.0
 40
0.0
 40
0.0
 40
0.0
 40
0.0
 40
0.2499999999999996
 40
0.2499999999999996
 40
0.4999999999999991
 40
0.4999999999999991
 40
0.7499999999999987
 40
0.7499999999999987
 40
0.8749999999999971
 40
0.8749999999999971
 40
0.9374999999999983
 40
0.9374999999999983
 40
0.9687499999999991
 40
0.9687499999999991
 40
1.0
 40
1.0
 40
1.0
 40
1.0
 10
146.0913302017886
 20
113.615381264605
 30
0.0
 10
146.0913302017886
 20
113.5547718649076
 30
0.0
 10
146.0659351822117
 20
113.4889458995041
 30
0.0
 10
145.9796419964297
 20
113.3548981301574
 30
0.0
 10
145.9190060177465
 20
113.2862027720156
 30
0.0
 10
145.7709042235252
 20
113.1458042203612
 30
0.0
 10
145.6841346167466
 20
113.0741007157798
 30
0.0
 10
145.5354968214174
 20
112.967937314031
 30
0.0
 10
145.4832076045312
 20
112.9324089653995
 30
0.0
 10
145.3924437762212
 20
112.882705034884
 30
0.0
 10
145.3600777837692
 20
112.8664440368689
 30
0.0
 10
145.302388628103
 20
112.8473314685229
 30
0.0
 10
145.2814016002156
 20
112.8419403264414
 30
0.0
 10
145.2361126212251
 20
112.8362029580489
 30
0.0
 10
145.2130983523866
 20
112.8362256917023
 30
0.0
 10
145.191330201787
 20
112.8386510015152
 30
0.0
  0
LINE
  5
CB
330
1F
100
AcDbEntity
  8
0
  6
Continuous
 62
     7
370
    15
100
AcDbLine
 10
146.0913299514
 20
113.6153815632
 30
0.0
 11
146.0913299514
 21
114.4451247846
 31
0.0
  0
SPLINE
  5
CC
330
1F
100
AcDbEntity
  8
0
  6
Continuous
 62
     7
370
    15
100
AcDbSpline
210
0.0
220
0.0
230
1.0
 70
     8
 71
     3
 72
    24
 73
    20
 74
     0
 42
0.00000001
 43
0.00000001
 12
1.0
 22
0.0
 32
0.0
 13
1.0
 23
0.0
 33
0.0
 40
0.0
 40
0.0
 40
0.0
 40
0.0
 40
0.0016643193296813
 40
0.0648792890554526
 40
0.127882629835479
 40
0.1913652263153964
 40
0.2543782098387403
 40
0.3163193264594876
 40
0.3777469775702122
 40
0.4397082275190884
 40
0.5014189034197821
 40
0.562536076452263
 40
0.6237133677268287
 40
0.6863020174790898
 40
0.7490598999921412
 40
0.811592469235191
 40
0.8743360189604256
 40
0.9379727054607176
 40
1.0
 40
1.0
 40
1.0
 40
1.0
 10
153.5758730887005
 20
85.29589048968893
 30
0.0
 10
153.5753956978749
 20
85.29582207885396
 30
0.0
 10
153.5567858212669
 20
85.29315525509179
 30
0.0
 10
153.619926358076
 20
85.30286981792986
 30
0.0
 10
153.7719691151586
 20
85.32507452413785
 30
0.0
 10
154.0398946304235
 20
85.35951027567125
 30
0.0
 10
154.3892084076103
 20
85.39797328634049
 30
0.0
 10
154.8162594695343
 20
85.43220133928784
 30
0.0
 10
155.3036990979493
 20
85.45465389912799
 30
0.0
 10
155.8353494628906
 20
85.45824788685898
 30
0.0
 10
156.3864700653916
 20
85.44123425760577
 30
0.0
 10
156.9339280561783
 20
85.4012884921626
 30
0.0
 10
157.4585622859338
 20
85.34218087950596
 30
0.0
 10
157.9403506843338
 20
85.26981644208482
 30
0.0
 10
158.3652992763434
 20
85.19349577060667
 30
0.0
 10
158.7115155898043
 20
85.1215118246156
 30
0.0
 10
158.9665939019355
 20
85.0631247984519
 30
0.0
 10
159.1267892940729
 20
85.02346514214534
 30
0.0
 10
159.1474233564695
 20
85.01864046668162
 30
0.0
 10
159.1576082563528
 20
85.01625902401548
 30
0.0
  0
SPLINE
  5
CD
330
1F
100
AcDbEntity
  8
0
  6
Continuous
 62
     7
370
    15
100
AcDbSpline
210
0.0
220
0.0
230
1.0
 70
     8
 71
     3
 72
    24
 73
    20
 74
     0
 42
0.00000001
 43
0.00000001
 12
1.0
 22
0.0
 32
0.0
 13
1.0
 23
0.0
 33
0.0
 40
0.0
 40
0.0
 40
0.0
 40
0.0
 40
0.0629034706215385
 40
0.1256338688179741
 40
0.1890239793713884
 40
0.2513957684939822
 40
0.3139906836130308
 40
0.3762905044722344
 40
0.4374458894592898
 40
0.498543195540241
 40
0.5603281747675228
 40
0.6223344559749604
 40
0.6838864964282686
 40
0.7458035579052691
 40
0.8089499376965126
 40
0.8723245876864573
 40
0.9353799443000518
 40
0.9988635323362688
 40
1.0
 40
1.0
 40
1.0
 40
1.0
 10
159.1566094128916
 20
115.0994561930214
 30
0.0
 10
159.1471387866166
 20
115.0970334037528
 30
0.0
 10
159.1282235915203
 20
115.0921944912708
 30
0.0
 10
158.9661722951161
 20
115.0522229000934
 30
0.0
 10
158.7096470543704
 20
114.9938789045211
 30
0.0
 10
158.3635909180771
 20
114.9216438065327
 30
0.0
 10
157.9396915251837
 20
114.8454945550207
 30
0.0
 10
157.4587085643458
 20
114.7733752535081
 30
0.0
 10
156.9347250073658
 20
114.7144877402003
 30
0.0
 10
156.3871271221587
 20
114.6745762175961
 30
0.0
 10
155.8356508061026
 20
114.6575404699809
 30
0.0
 10
155.3032095263213
 20
114.6611039410726
 30
0.0
 10
154.8152273146353
 20
114.6835372060396
 30
0.0
 10
154.3877151610029
 20
114.7178272209165
 30
0.0
 10
154.0388136062305
 20
114.7563310157033
 30
0.0
 10
153.7715589857397
 20
114.7907870436579
 30
0.0
 10
153.6186246812189
 20
114.812869830996
 30
0.0
 10
153.5575150300554
 20
114.8226985427467
 30
0.0
 10
153.5750981937435
 20
114.8199348003506
 30
0.0
 10
153.5754074274132
 20
114.8198861946378
 30
0.0
  0
SPLINE
  5
CE
330
1F
100
AcDbEntity
  8
0
  6
Continuous
 62
     7
370
    15
100
AcDbSpline
210
0.0
220
0.0
230
1.0
 70
     8
 71
     3
 72
    26
 73
    22
 74
     0
 42
0.00000001
 43
0.00000001
 12
1.0
 22
0.0
 32
0.0
 13
1.0
 23
0.0
 33
0.0
 40
0.0
 40
0.0
 40
0.0
 40
0.0
 40
0.2500000000000016
 40
0.2500000000000016
 40
0.3750000000000021
 40
0.3750000000000021
 40
0.4375000000000028
 40
0.4375000000000028
 40
0.4687500000000033
 40
0.4687500000000033
 40
0.5000000000000037
 40
0.5000000000000037
 40
0.5312500000000041
 40
0.5312500000000041
 40
0.5625000000000046
 40
0.5625000000000046
 40
0.6250000000000043
 40
0.6250000000000043
 40
0.7500000000000029
 40
0.7500000000000029
 40
1.0
 40
1.0
 40
1.0
 40
1.0
 10
143.2513002481755
 20
112.44593772247
 30
0.0
 10
143.203912138747
 20
112.310281980447
 30
0.0
 10
143.1462708368426
 20
112.1663205821177
 30
0.0
 10
143.0242230242993
 20
111.9235480088633
 30
0.0
 10
142.9781740165228
 20
111.838508368414
 30
0.0
 10
142.8875207323572
 20
111.6981323953736
 30
0.0
 10
142.8531682320716
 20
111.6482210180348
 30
0.0
 10
142.7907330596811
 20
111.5716857531805
 30
0.0
 10
142.767439040883
 20
111.5452812741936
 30
0.0
 10
142.7183865037565
 20
111.4976865089326
 30
0.0
 10
142.6939550540997
 20
111.4782438950808
 30
0.0
 10
142.6533254584799
 20
111.4533361174126
 30
0.0
 10
142.6371631766287
 20
111.4472662861017
 30
0.0
 10
142.6101811325256
 20
111.4415774145079
 30
0.0
 10
142.5994316097027
 20
111.4419679225886
 30
0.0
 10
142.5713956355456
 20
111.4481102693771
 30
0.0
 10
142.558534403513
 20
111.4587742757951
 30
0.0
 10
142.5275315423526
 20
111.4977870661553
 30
0.0
 10
142.5166720602835
 20
111.5338390565596
 30
0.0
 10
142.4933948043455
 20
111.6515184540587
 30
0.0
 10
142.4913302017875
 20
111.7428483543917
 30
0.0
 10
142.4913302017875
 20
111.8360886072979
 30
0.0
  0
SPLINE
  5
CF
330
1F
100
AcDbEntity
  8
0
  6
Continuous
 62
     7
370
    15
100
AcDbSpline
210
0.0
220
0.0
230
1.0
 70
     8
 71
     3
 72
    24
 73
    20
 74
     0
 42
0.00000001
 43
0.00000001
 12
1.0
 22
0.0
 32
0.0
 13
1.0
 23
0.0
 33
0.0
 40
0.0
 40
0.0
 40
0.0
 40
0.0
 40
0.2500000000000067
 40
0.2500000000000067
 40
0.3750000000000105
 40
0.3750000000000105
 40
0.4375000000000129
 40
0.4375000000000129
 40
0.5000000000000152
 40
0.5000000000000152
 40
0.5312500000000153
 40
0.5312500000000153
 40
0.5625000000000153
 40
0.5625000000000153
 40
0.6250000000000133
 40
0.6250000000000133
 40
0.7500000000000088
 40
0.7500000000000088
 40
1.0
 40
1.0
 40
1.0
 40
1.0
 10
142.4913302017876
 20
88.51034394163577
 30
0.0
 10
142.4913302017876
 20
88.59525289530535
 30
0.0
 10
142.49405483022
 20
88.67758259135222
 30
0.0
 10
142.520412151338
 20
88.77999497877123
 30
0.0
 10
142.5326258696102
 20
88.81081207515564
 30
0.0
 10
142.5672365197426
 20
88.83990959123255
 30
0.0
 10
142.58162323011
 20
88.84686723187119
 30
0.0
 10
142.6228717132124
 20
88.84575749059432
 30
0.0
 10
142.6514112631432
 20
88.83746408498557
 30
0.0
 10
142.7123339286545
 20
88.7928806511243
 30
0.0
 10
142.7353998987944
 20
88.77241893786702
 30
0.0
 10
142.7792957788006
 20
88.72780631958666
 30
0.0
 10
142.8001758143608
 20
88.70393024138029
 30
0.0
 10
142.8573860776539
 20
88.6340331442183
 30
0.0
 10
142.8897327014303
 20
88.58845555543381
 30
0.0
 10
142.9758986449221
 20
88.45957206781493
 30
0.0
 10
143.0215626649621
 20
88.37973889068287
 30
0.0
 10
143.1421102284133
 20
88.15395808157058
 30
0.0
 10
143.2011703171145
 20
88.01912669659924
 30
0.0
 10
143.2513002481755
 20
87.89087155793172
 30
0.0
  0
LINE
  5
D0
330
1F
100
AcDbEntity
  8
0
  6
Continuous
 62
     7
370
    15
100
AcDbLine
 10
142.4913304789
 20
88.5103438367
 30
0.0
 11
142.4913304789
 21
111.8360888531
 31
0.0
  0
SPLINE
  5
D1
330
1F
100
AcDbEntity
  8
0
  6
Continuous
 62
     7
370
    15
100
AcDbSpline
210
0.0
220
0.0
230
1.0
 70
     8
 71
     3
 72
     8
 73
     4
 74
     0
 42
0.00000001
 43
0.00000001
 12
1.0
 22
0.0
 32
0.0
 13
1.0
 23
0.0
 33
0.0
 40
0.0
 40
0.0
 40
0.0
 40
0.0
 40
1.0
 40
1.0
 40
1.0
 40
1.0
 10
176.3561705028942
 20
116.1692661439346
 30
0.0
 10
176.6955935441759
 20
115.4394752824152
 30
0.0
 10
177.0281042876709
 20
114.7073069269936
 30
0.0
 10
177.3513302017876
 20
113.9719450423126
 30
0.0
  0
LINE
  5
D2
330
1F
100
AcDbEntity
  8
0
  6
Continuous
 62
     7
370
    15
100
AcDbLine
 10
177.3513304933
 20
113.9719449301
 30
0.0
 11
177.3513304933
 21
113.5737039466
 31
0.0
  0
SPLINE
  5
D3
330
1F
100
AcDbEntity
  8
0
  6
Continuous
 62
     7
370
    15
100
AcDbSpline
210
0.0
220
0.0
230
1.0
 70
     8
 71
     3
 72
    12
 73
     8
 74
     0
 42
0.00000001
 43
0.00000001
 12
1.0
 22
0.0
 32
0.0
 13
1.0
 23
0.0
 33
0.0
 40
0.0
 40
0.0
 40
0.0
 40
0.0
 40
0.5000000000000032
 40
0.5000000000000032
 40
0.7500000000000016
 40
0.7500000000000016
 40
1.0
 40
1.0
 40
1.0
 40
1.0
 10
177.3513302017876
 20
113.5737043231119
 30
0.0
 10
177.3513302017876
 20
113.3879382465338
 30
0.0
 10
177.3978759470442
 20
113.2027649345435
 30
0.0
 10
177.5479768954339
 20
112.9683543312
 30
0.0
 10
177.611913711728
 20
112.8982584337879
 30
0.0
 10
177.7672814434576
 20
112.7955779159838
 30
0.0
 10
177.8585247263755
 20
112.7648680030083
 30
0.0
 10
177.9513302017876
 20
112.7648680030083
 30
0.0
  0
LINE
  5
D4
330
1F
100
AcDbEntity
  8
0
  6
Continuous
 62
     7
370
    15
100
AcDbLine
 10
177.9513304053
 20
112.7648679857
 30
0.0
 11
178.8313305868
 21
112.7648679857
 31
0.0
  0
SPLINE
  5
D5
330
1F
100
AcDbEntity
  8
0
  6
Continuous
 62
     7
370
    15
100
AcDbSpline
210
0.0
220
0.0
230
1.0
 70
     8
 71
     3
 72
    12
 73
     8
 74
     0
 42
0.00000001
 43
0.00000001
 12
1.0
 22
0.0
 32
0.0
 13
1.0
 23
0.0
 33
0.0
 40
0.0
 40
0.0
 40
0.0
 40
0.0
 40
0.25
 40
0.25
 40
0.5
 40
0.5
 40
1.0
 40
1.0
 40
1.0
 40
1.0
 10
178.8313302017876
 20
112.7648680030084
 30
0.0
 10
178.9238721685094
 20
112.7648680030084
 30
0.0
 10
179.0160815456539
 20
112.7959013499246
 30
0.0
 10
179.1712185060307
 20
112.8987122157495
 30
0.0
 10
179.2350284034917
 20
112.9688850300951
 30
0.0
 10
179.3841548392928
 20
113.2017975136231
 30
0.0
 10
179.4313302017876
 20
113.388592875693
 30
0.0
 10
179.4313302017876
 20
113.5737043231119
 30
0.0
  0
SPLINE
  5
D6
330
1F
100
AcDbEntity
  8
0
  6
Continuous
 62
     7
370
    15
100
AcDbSpline
210
0.0
220
0.0
230
1.0
 70
     8
 71
     3
 72
     8
 73
     4
 74
     0
 42
0.00000001
 43
0.00000001
 12
1.0
 22
0.0
 32
0.0
 13
1.0
 23
0.0
 33
0.0
 40
0.0
 40
0.0
 40
0.0
 40
0.0
 40
1.0
 40
1.0
 40
1.0
 40
1.0
 10
179.4313302017876
 20
113.9719450423125
 30
0.0
 10
179.7548877600425
 20
114.7080614409351
 30
0.0
 10
180.0873820802595
 20
115.4401530363537
 30
0.0
 10
180.426489900681
 20
116.1692661439346
 30
0.0
  0
LINE
  5
D7
330
1F
100
AcDbEntity
  8
0
  6
Continuous
 62
     7
370
    15
100
AcDbLine
 10
180.4264905794
 20
116.1692664345
 30
0.0
 11
181.7413299276
 21
116.1692664345
 31
0.0
  0
SPLINE
  5
D8
330
1F
100
AcDbEntity
  8
0
  6
Continuous
 62
     7
370
    15
100
AcDbSpline
210
0.0
220
0.0
230
1.0
 70
     8
 71
     3
 72
    12
 73
     8
 74
     0
 42
0.00000001
 43
0.00000001
 12
1.0
 22
0.0
 32
0.0
 13
1.0
 23
0.0
 33
0.0
 40
0.0
 40
0.0
 40
0.0
 40
0.0
 40
0.25
 40
0.25
 40
0.5
 40
0.5
 40
1.0
 40
1.0
 40
1.0
 40
1.0
 10
181.7413302017876
 20
116.1692661439346
 30
0.0
 10
181.8306185608314
 20
116.1692661439346
 30
0.0
 10
181.9186773917336
 20
116.1436415113299
 30
0.0
 10
182.0713311049828
 20
116.055098138398
 30
0.0
 10
182.1371245983247
 20
115.9922156552834
 30
0.0
 10
182.2925652450408
 20
115.7748544673498
 30
0.0
 10
182.3413302017876
 20
115.5962074573385
 30
0.0
 10
182.3413302017876
 20
115.4181143021628
 30
0.0
  0
LINE
  5
D9
330
1F
100
AcDbEntity
  8
0
  6
Continuous
 62
     7
370
    15
100
AcDbLine
 10
182.341330771
 20
115.4181147312
 30
0.0
 11
182.341330771
 21
112.93525997
 31
0.0
  0
LINE
  5
DA
330
1F
100
AcDbEntity
  8
0
  6
Continuous
 62
     7
370
    15
100
AcDbLine
 10
179.4313295676
 20
113.5737039466
 30
0.0
 11
179.4313295676
 21
113.9719449301
 31
0.0
  0
SPLINE
  5
DB
330
1F
100
AcDbEntity
  8
0
  6
Continuous
 62
     7
370
    15
100
AcDbSpline
210
0.0
220
0.0
230
1.0
 70
     8
 71
     3
 72
     8
 73
     4
 74
     0
 42
0.00000001
 43
0.00000001
 12
1.0
 22
0.0
 32
0.0
 13
1.0
 23
0.0
 33
0.0
 40
0.0
 40
0.0
 40
0.0
 40
0.0
 40
1.0
 40
1.0
 40
1.0
 40
1.0
 10
180.426489900681
 20
119.5450324127622
 30
0.0
 10
180.0941318042914
 20
118.9542221990902
 30
0.0
 10
179.7623505328073
 20
118.363089534845
 30
0.0
 10
179.4313302017876
 20
117.7715338383873
 30
0.0
  0
LINE
  5
DC
330
1F
100
AcDbEntity
  8
0
  6
Continuous
 62
     7
370
    15
100
AcDbLine
 10
180.4264905794
 20
116.1692664345
 30
0.0
 11
180.4264905794
 21
119.5450332333
 31
0.0
  0
LINE
  5
DD
330
1F
100
AcDbEntity
  8
0
  6
Continuous
 62
     7
370
    15
100
AcDbLine
 10
179.4313295676
 20
113.9719449301
 30
0.0
 11
179.4313295676
 21
117.7715342809
 31
0.0
  0
SPLINE
  5
DE
330
1F
100
AcDbEntity
  8
0
  6
Continuous
 62
     7
370
    15
100
AcDbSpline
210
0.0
220
0.0
230
1.0
 70
     8
 71
     3
 72
    10
 73
     6
 74
     0
 42
0.00000001
 43
0.00000001
 12
1.0
 22
0.0
 32
0.0
 13
1.0
 23
0.0
 33
0.0
 40
0.0
 40
0.0
 40
0.0
 40
0.0
 40
0.5
 40
0.5
 40
1.0
 40
1.0
 40
1.0
 40
1.0
 10
177.5996745875376
 20
116.9578571428571
 30
0.0
 10
177.5223498556634
 20
117.0157391437188
 30
0.0
 10
177.4589700301268
 20
117.0928124883527
 30
0.0
 10
177.3733995813538
 20
117.2673155465465
 30
0.0
 10
177.3513302017876
 20
117.364120750027
 30
0.0
 10
177.3513302017876
 20
117.460461114677
 30
0.0
  0
SPLINE
  5
DF
330
1F
100
AcDbEntity
  8
0
  6
Continuous
 62
     7
370
    15
100
AcDbSpline
210
0.0
220
0.0
230
1.0
 70
    24
 71
     3
 72
    12
 73
     8
 74
     0
 42
0.00000001
 43
0.00000001
 12
1.0
 22
0.0
 32
0.0
 13
1.0
 23
0.0
 33
0.0
 40
0.0
 40
0.0
 40
0.0
 40
0.0
 40
0.2499999999999989
 40
0.2499999999999989
 40
0.4999999999999978
 40
0.4999999999999978
 40
1.0
 40
1.0
 40
1.0
 40
1.0
 10
177.9513302017876
 20
116.9578571428571
 30
0.0
 10
177.899738001513
 20
116.9578571428571
 30
0.0
 10
177.8528329927185
 20
116.9578571428571
 30
0.0
 10
177.779499266842
 20
116.9578571428571
 30
0.0
 10
177.750269437393
 20
116.9578571428571
 30
0.0
 10
177.6720366573301
 20
116.9578571428571
 30
0.0
 10
177.6336024994224
 20
116.9578571428571
 30
0.0
 10
177.5996745875376
 20
116.9578571428571
 30
0.0
  0
LINE
  5
E0
330
1F
100
AcDbEntity
  8
0
  6
Continuous
 62
     7
370
    15
100
AcDbLine
 10
178.8313305868
 20
116.957856374
 30
0.0
 11
177.9513304053
 21
116.957856374
 31
0.0
  0
LINE
  5
E1
330
1F
100
AcDbEntity
  8
0
  6
Continuous
 62
     7
370
    15
100
AcDbLine
 10
181.7413299276
 20
119.5450332333
 30
0.0
 11
180.4264905794
 21
119.5450332333
 31
0.0
  0
SPLINE
  5
E2
330
1F
100
AcDbEntity
  8
0
  6
Continuous
 62
     7
370
    15
100
AcDbSpline
210
0.0
220
0.0
230
1.0
 70
     8
 71
     3
 72
    10
 73
     6
 74
     0
 42
0.00000001
 43
0.00000001
 12
1.0
 22
0.0
 32
0.0
 13
1.0
 23
0.0
 33
0.0
 40
0.0
 40
0.0
 40
0.0
 40
0.0
 40
0.5
 40
0.5
 40
1.0
 40
1.0
 40
1.0
 40
1.0
 10
182.3413302017876
 20
118.928734176
 30
0.0
 10
182.3413302017876
 20
119.0871686188879
 30
0.0
 10
182.2791689853047
 20
119.2461893136898
 30
0.0
 10
182.058659644633
 20
119.4761971379455
 30
0.0
 10
181.8997445416879
 20
119.5450324127623
 30
0.0
 10
181.7413302017876
 20
119.5450324127623
 30
0.0
  0
LINE
  5
E3
330
1F
100
AcDbEntity
  8
0
  6
Continuous
 62
     7
370
    15
100
AcDbLine
 10
182.341330771
 20
115.4181147312
 30
0.0
 11
182.341330771
 21
118.9287342449
 31
0.0
  0
SPLINE
  5
E4
330
1F
100
AcDbEntity
  8
0
  6
Continuous
 62
     7
370
    15
100
AcDbSpline
210
0.0
220
0.0
230
1.0
 70
    24
 71
     3
 72
    12
 73
     8
 74
     0
 42
0.00000001
 43
0.00000001
 12
1.0
 22
0.0
 32
0.0
 13
1.0
 23
0.0
 33
0.0
 40
0.0
 40
0.0
 40
0.0
 40
0.0
 40
0.5
 40
0.5
 40
0.75
 40
0.75
 40
1.0
 40
1.0
 40
1.0
 40
1.0
 10
179.1829858160376
 20
116.9578571428571
 30
0.0
 10
179.1488400677466
 20
116.9578571428571
 30
0.0
 10
179.1096469093416
 20
116.9578571428571
 30
0.0
 10
179.0317992506879
 20
116.9578571428571
 30
0.0
 10
179.0023947919026
 20
116.9578571428571
 30
0.0
 10
178.9293872705967
 20
116.9578571428571
 30
0.0
 10
178.8824819527889
 20
116.9578571428571
 30
0.0
 10
178.8313302017876
 20
116.9578571428571
 30
0.0
  0
SPLINE
  5
E5
330
1F
100
AcDbEntity
  8
0
  6
Continuous
 62
     7
370
    15
100
AcDbSpline
210
0.0
220
0.0
230
1.0
 70
     8
 71
     3
 72
    10
 73
     6
 74
     0
 42
0.00000001
 43
0.00000001
 12
1.0
 22
0.0
 32
0.0
 13
1.0
 23
0.0
 33
0.0
 40
0.0
 40
0.0
 40
0.0
 40
0.0
 40
0.5
 40
0.5
 40
1.0
 40
1.0
 40
1.0
 40
1.0
 10
179.4313302017876
 20
117.4604611146758
 30
0.0
 10
179.4313302017875
 20
117.3639185671993
 30
0.0
 10
179.409389579206
 20
117.2674573669292
 30
0.0
 10
179.3232593938141
 20
117.0920547726849
 30
0.0
 10
179.2601770866705
 20
117.0156392403179
 30
0.0
 10
179.1829858160376
 20
116.9578571428571
 30
0.0
  0
SPLINE
  5
E6
330
1F
100
AcDbEntity
  8
0
  6
Continuous
 62
     7
370
    15
100
AcDbSpline
210
0.0
220
0.0
230
1.0
 70
     8
 71
     3
 72
     8
 73
     4
 74
     0
 42
0.00000001
 43
0.00000001
 12
1.0
 22
0.0
 32
0.0
 13
1.0
 23
0.0
 33
0.0
 40
0.0
 40
0.0
 40
0.0
 40
0.0
 40
1.0
 40
1.0
 40
1.0
 40
1.0
 10
177.3513302017876
 20
117.7715338383873
 30
0.0
 10
177.020309870768
 20
118.363089534845
 30
0.0
 10
176.6885285992839
 20
118.9542221990902
 30
0.0
 10
176.3561705028942
 20
119.5450324127622
 30
0.0
  0
LINE
  5
E7
330
1F
100
AcDbEntity
  8
0
  6
Continuous
 62
     7
370
    15
100
AcDbLine
 10
177.3513304933
 20
113.9719449301
 30
0.0
 11
177.3513304933
 21
117.7715342809
 31
0.0
  0
LINE
  5
E8
330
1F
100
AcDbEntity
  8
0
  6
Continuous
 62
     7
370
    15
100
AcDbLine
 10
142.4913304789
 20
88.2393848469
 30
0.0
 11
142.4913304789
 21
88.5103438367
 31
0.0
  0
LINE
  5
E9
330
1F
100
AcDbEntity
  8
0
  6
Continuous
 62
     7
370
    15
100
AcDbLine
 10
142.4913304789
 20
111.9317710717
 30
0.0
 11
142.4913304789
 21
111.8360888531
 31
0.0
  0
LINE
  5
EA
330
1F
100
AcDbEntity
  8
0
  6
Continuous
 62
     7
370
    15
100
AcDbLine
 10
143.4413297965
 20
112.9378574287
 30
0.0
 11
143.4413297965
 21
112.9234377612
 31
0.0
  0
LINE
  5
EB
330
1F
100
AcDbEntity
  8
0
  6
Continuous
 62
     7
370
    15
100
AcDbLine
 10
142.4913304789
 20
111.9878571798
 30
0.0
 11
142.4913304789
 21
111.9317710717
 31
0.0
  0
LINE
  5
EC
330
1F
100
AcDbEntity
  8
0
  6
Continuous
 62
     7
370
    15
100
AcDbLine
 10
143.5003309442
 20
87.1778568571
 30
0.0
 11
143.5003309442
 21
87.2067902555
 31
0.0
  0
LINE
  5
ED
330
1F
100
AcDbEntity
  8
0
  6
Continuous
 62
     7
370
    15
100
AcDbLine
 10
142.4913304789
 20
88.1868573223
 30
0.0
 11
142.4913304789
 21
88.2393848469
 31
0.0
  0
LINE
  5
EE
330
1F
100
AcDbEntity
  8
0
  6
HIDDEN
 62
     7
370
     0
100
AcDbLine
 10
206.3913299634
 20
109.5578568374
 30
0.0
 11
211.3913289203
 21
109.5578568374
 31
0.0
  0
LINE
  5
EF
330
1F
100
AcDbEntity
  8
0
  6
HIDDEN
 62
     7
370
     0
100
AcDbLine
 10
201.3913310065
 20
109.5578568374
 30
0.0
 11
206.3913299634
 21
109.5578568374
 31
0.0
  0
LINE
  5
F0
330
1F
100
AcDbEntity
  8
0
  6
HIDDEN
 62
     7
370
     0
100
AcDbLine
 10
206.3913299634
 20
108.0578575228
 30
0.0
 11
209.8913296057
 21
108.0578575228
 31
0.0
  0
LINE
  5
F1
330
1F
100
AcDbEntity
  8
0
  6
HIDDEN
 62
     7
370
     0
100
AcDbLine
 10
202.891330321
 20
108.0578575228
 30
0.0
 11
206.3913299634
 21
108.0578575228
 31
0.0
  0
LINE
  5
F2
330
1F
100
AcDbEntity
  8
0
  6
HIDDEN
 62
     7
370
     0
100
AcDbLine
 10
208.8625012829
 20
119.5798106809
 30
0.0
 11
211.3913289203
 21
119.5798106809
 31
0.0
  0
LINE
  5
F3
330
1F
100
AcDbEntity
  8
0
  6
HIDDEN
 62
     7
370
     0
100
AcDbLine
 10
201.3913310065
 20
119.5798106809
 30
0.0
 11
203.9201586439
 21
119.5798106809
 31
0.0
  0
LINE
  5
F4
330
1F
100
AcDbEntity
  8
0
  6
HIDDEN
 62
     7
370
     0
100
AcDbLine
 10
208.8913313045
 20
114.057857575
 30
0.0
 11
206.3913299634
 21
114.057857575
 31
0.0
  0
LINE
  5
F5
330
1F
100
AcDbEntity
  8
0
  6
HIDDEN
 62
     7
370
     0
100
AcDbLine
 10
206.3913299634
 20
114.057857575
 30
0.0
 11
206.3913299634
 21
120.0578566958
 31
0.0
  0
LINE
  5
F6
330
1F
100
AcDbEntity
  8
0
  6
HIDDEN
 62
     7
370
     0
100
AcDbLine
 10
203.8913286223
 20
114.057857575
 30
0.0
 11
206.3913299634
 21
114.057857575
 31
0.0
  0
LINE
  5
F7
330
1F
100
AcDbEntity
  8
0
  6
HIDDEN
 62
     7
370
     0
100
AcDbLine
 10
208.8913313045
 20
114.057857575
 30
0.0
 11
208.8913313045
 21
120.0578566958
 31
0.0
  0
LINE
  5
F8
330
1F
100
AcDbEntity
  8
0
  6
HIDDEN
 62
     7
370
     0
100
AcDbLine
 10
203.8913286223
 20
114.057857575
 30
0.0
 11
203.8913286223
 21
120.0578566958
 31
0.0
  0
LINE
  5
F9
330
1F
100
AcDbEntity
  8
0
  6
HIDDEN
 62
     7
370
     0
100
AcDbLine
 10
224.0554383887
 20
98.1473670426
 30
0.0
 11
221.3188513114
 21
97.2284400222
 31
0.0
  0
LINE
  5
FA
330
1F
100
AcDbEntity
  8
0
  6
HIDDEN
 62
     7
370
     0
100
AcDbLine
 10
219.1547444953
 20
99.1389302389
 30
0.0
 11
221.3188513114
 21
97.2284400222
 31
0.0
  0
LINE
  5
FB
330
1F
100
AcDbEntity
  8
0
  6
HIDDEN
 62
     7
370
     0
100
AcDbLine
 10
224.6279186501
 20
100.9767840468
 30
0.0
 11
224.0554383887
 21
98.1473670426
 31
0.0
  0
LINE
  5
FC
330
1F
100
AcDbEntity
  8
0
  6
HIDDEN
 62
     7
370
     0
100
AcDbLine
 10
219.7272210314
 20
101.9683472431
 30
0.0
 11
219.1547444953
 21
99.1389302389
 31
0.0
  0
LINE
  5
FD
330
1F
100
AcDbEntity
  8
0
  6
HIDDEN
 62
     7
370
     0
100
AcDbLine
 10
224.6279186501
 20
100.9767840468
 30
0.0
 11
222.4638081087
 21
102.8872742635
 31
0.0
  0
LINE
  5
FE
330
1F
100
AcDbEntity
  8
0
  6
HIDDEN
 62
     7
370
     0
100
AcDbLine
 10
219.7272210314
 20
101.9683472431
 30
0.0
 11
222.4638081087
 21
102.8872742635
 31
0.0
  0
LINE
  5
FF
330
1F
100
AcDbEntity
  8
0
  6
HIDDEN
 62
     7
370
     0
100
AcDbLine
 10
222.8828920914
 20
109.5367353727
 30
0.0
 11
226.8913268043
 21
109.5367353727
 31
0.0
  0
LINE
  5
100
330
1F
100
AcDbEntity
  8
0
  6
HIDDEN
 62
     7
370
     0
100
AcDbLine
 10
216.8913288905
 20
109.5367353727
 30
0.0
 11
222.8828920914
 21
109.5367353727
 31
0.0
  0
LINE
  5
101
330
1F
100
AcDbEntity
  8
0
  6
HIDDEN
 62
     7
370
     0
100
AcDbLine
 10
222.5854239358
 20
108.0367351268
 30
0.0
 11
225.3913312151
 21
108.0367351268
 31
0.0
  0
LINE
  5
102
330
1F
100
AcDbEntity
  8
0
  6
HIDDEN
 62
     7
370
     0
100
AcDbLine
 10
218.3913319303
 20
108.0367351268
 30
0.0
 11
222.5854239358
 21
108.0367351268
 31
0.0
  0
LINE
  5
103
330
1F
100
AcDbEntity
  8
0
  6
HIDDEN
 62
     7
370
     0
100
AcDbLine
 10
224.1896904005
 20
119.5586901476
 30
0.0
 11
226.8913268043
 21
119.5586901476
 31
0.0
  0
LINE
  5
104
330
1F
100
AcDbEntity
  8
0
  6
HIDDEN
 62
     7
370
     0
100
AcDbLine
 10
216.8913288905
 20
119.5586901476
 30
0.0
 11
219.5929727449
 21
119.5586901476
 31
0.0
  0
LINE
  5
105
330
1F
100
AcDbEntity
  8
0
  6
HIDDEN
 62
     7
370
     0
100
AcDbLine
 10
219.7272210314
 20
114.036735179
 30
0.0
 11
222.4638081087
 21
114.036735179
 31
0.0
  0
LINE
  5
106
330
1F
100
AcDbEntity
  8
0
  6
HIDDEN
 62
     7
370
     0
100
AcDbLine
 10
224.6279186501
 20
114.036735179
 30
0.0
 11
222.4638081087
 21
114.036735179
 31
0.0
  0
LINE
  5
107
330
1F
100
AcDbEntity
  8
0
  6
HIDDEN
 62
     7
370
     0
100
AcDbLine
 10
222.4638081087
 20
114.036735179
 30
0.0
 11
222.4638081087
 21
120.0367361625
 31
0.0
  0
LINE
  5
108
330
1F
100
AcDbEntity
  8
0
  6
HIDDEN
 62
     7
370
     0
100
AcDbLine
 10
219.7272210314
 20
114.036735179
 30
0.0
 11
219.1547444953
 21
114.036735179
 31
0.0
  0
LINE
  5
109
330
1F
100
AcDbEntity
  8
0
  6
HIDDEN
 62
     7
370
     0
100
AcDbLine
 10
219.7272210314
 20
114.036735179
 30
0.0
 11
219.7272210314
 21
120.0367361625
 31
0.0
  0
LINE
  5
10A
330
1F
100
AcDbEntity
  8
0
  6
HIDDEN
 62
     7
370
     0
100
AcDbLine
 10
224.0554383887
 20
114.036735179
 30
0.0
 11
224.0554383887
 21
120.0367361625
 31
0.0
  0
LINE
  5
10B
330
1F
100
AcDbEntity
  8
0
  6
HIDDEN
 62
     7
370
     0
100
AcDbLine
 10
224.6279186501
 20
114.036735179
 30
0.0
 11
224.6279186501
 21
120.0367361625
 31
0.0
  0
LINE
  5
10C
330
1F
100
AcDbEntity
  8
0
  6
HIDDEN
 62
     7
370
     0
100
AcDbLine
 10
221.3188513114
 20
114.036735179
 30
0.0
 11
221.3188513114
 21
120.0367361625
 31
0.0
  0
LINE
  5
10D
330
1F
100
AcDbEntity
  8
0
  6
HIDDEN
 62
     7
370
     0
100
AcDbLine
 10
219.1547444953
 20
114.036735179
 30
0.0
 11
219.1547444953
 21
120.0367361625
 31
0.0
  0
ARC
  5
10E
330
1F
100
AcDbEntity
  8
0
  6
HIDDEN
 62
     7
370
     0
100
AcDbCircle
 10
206.3913302018
 20
100.0578571429
 30
0.0
 40
5.000000000000005
100
AcDbArc
 50
299.6192678846
 51
60.3807321154
  0
ARC
  5
10F
330
1F
100
AcDbEntity
  8
0
  6
HIDDEN
 62
     7
370
     0
100
AcDbCircle
 10
206.3913302018
 20
100.0578571429
 30
0.0
 40
5.000000000000005
100
AcDbArc
 50
119.6192678846
 51
240.3807321154
  0
CIRCLE
  5
110
330
1F
100
AcDbEntity
  8
0
  6
HIDDEN
 62
     7
370
     0
100
AcDbCircle
 10
206.3913302018
 20
100.0578571429
 30
0.0
 40
3.5
  0
ARC
  5
111
330
1F
100
AcDbEntity
  8
0
  6
HIDDEN
 62
     7
370
     0
100
AcDbCircle
 10
221.8913302018
 20
100.0578571429
 30
0.0
 40
5.000000000000007
100
AcDbArc
 50
297.3659334524
 51
62.6340665476
  0
ARC
  5
112
330
1F
100
AcDbEntity
  8
0
  6
HIDDEN
 62
     7
370
     0
100
AcDbCircle
 10
221.8913302018
 20
100.0578571429
 30
0.0
 40
5.000000000000007
100
AcDbArc
 50
117.3659334524
 51
242.6340665476
  0
CIRCLE
  5
113
330
1F
100
AcDbEntity
  8
0
  6
HIDDEN
 62
     7
370
     0
100
AcDbCircle
 10
221.8913302018
 20
100.0578571429
 30
0.0
 40
3.500000000000005
  0
SPLINE
  5
114
330
1F
100
AcDbEntity
  8
0
  6
HIDDEN
 62
     7
370
     0
100
AcDbSpline
210
0.0
220
0.0
230
1.0
 70
     8
 71
     3
 72
    13
 73
     9
 74
     0
 42
0.00000001
 43
0.00000001
 12
1.0
 22
0.0
 32
0.0
 13
1.0
 23
0.0
 33
0.0
 40
0.0
 40
0.0
 40
0.0
 40
0.0
 40
0.1872235351052226
 40
0.3799654611379203
 40
0.5671643365277471
 40
0.759631754312072
 40
0.9498253712401226
 40
1.0
 40
1.0
 40
1.0
 40
1.0
 10
221.8913315726945
 20
119.545033233336
 30
0.0
 10
222.1371763228206
 20
119.5477509193394
 30
0.0
 10
222.6361120671837
 20
119.5532663948104
 30
0.0
 10
223.3591631932127
 20
119.5963216022709
 30
0.0
 10
224.0485759002104
 20
119.6602953000866
 30
0.0
 10
224.6671731848908
 20
119.7392246791048
 30
0.0
 10
225.1005681915152
 20
119.8054396320564
 30
0.0
 10
225.2883061029999
 20
119.83955905372
 30
0.0
 10
225.3274946405122
 20
119.8466811646734
 30
0.0
  0
SPLINE
  5
115
330
1F
100
AcDbEntity
  8
0
  6
HIDDEN
 62
     7
370
     0
100
AcDbSpline
210
0.0
220
0.0
230
1.0
 70
     8
 71
     3
 72
    12
 73
     8
 74
     0
 42
0.00000001
 43
0.00000001
 12
1.0
 22
0.0
 32
0.0
 13
1.0
 23
0.0
 33
0.0
 40
0.0
 40
0.0
 40
0.0
 40
0.0
 40
0.1123418378900426
 40
0.3075069851284451
 40
0.4998362919549477
 40
0.6978914382337371
 40
1.0
 40
1.0
 40
1.0
 40
1.0
 10
218.4565207852551
 20
119.8468245883499
 30
0.0
 10
218.5495357649883
 20
119.8304628744844
 30
0.0
 10
218.804140429882
 20
119.7856768767049
 30
0.0
 10
219.319542944115
 20
119.7108240480789
 30
0.0
 10
219.9816095246239
 20
119.6347272914905
 30
0.0
 10
220.8363876445777
 20
119.5636320433282
 30
0.0
 10
221.4940754230554
 20
119.5520369151891
 30
0.0
 10
221.8913315726945
 20
119.545033233336
 30
0.0
  0
SPLINE
  5
116
330
1F
100
AcDbEntity
  8
0
  6
HIDDEN
 62
     7
370
     0
100
AcDbSpline
210
0.0
220
0.0
230
1.0
 70
     8
 71
     3
 72
    13
 73
     9
 74
     0
 42
0.00000001
 43
0.00000001
 12
1.0
 22
0.0
 32
0.0
 13
1.0
 23
0.0
 33
0.0
 40
0.0
 40
0.0
 40
0.0
 40
0.0
 40
0.1785350372601124
 40
0.362332373030393
 40
0.5408447186943013
 40
0.724380285342853
 40
0.9057475715966946
 40
1.0
 40
1.0
 40
1.0
 40
1.0
 10
206.3913299633691
 20
119.545033233336
 30
0.0
 10
206.6371651975013
 20
119.5477504339295
 30
0.0
 10
207.1360816293939
 20
119.5532649242736
 30
0.0
 10
207.8592805419817
 20
119.5963276797113
 30
0.0
 10
208.5481438848076
 20
119.6602734493239
 30
0.0
 10
209.1688372230102
 20
119.7393076586731
 30
0.0
 10
209.6444222125551
 20
119.8126409658524
 30
0.0
 10
209.867480952141
 20
119.8535316486428
 30
0.0
 10
209.9437593414017
 20
119.8675148506675
 30
0.0
  0
LINE
  5
117
330
1F
100
AcDbEntity
  8
0
  6
HIDDEN
 62
     7
370
     0
100
AcDbLine
 10
206.6853783025
 20
119.5505690147
 30
0.0
 11
206.3349365188
 21
119.5467338284
 31
0.0
  0
SPLINE
  5
118
330
1F
100
AcDbEntity
  8
0
  6
HIDDEN
 62
     7
370
     0
100
AcDbSpline
210
0.0
220
0.0
230
1.0
 70
     8
 71
     3
 72
    12
 73
     8
 74
     0
 42
0.00000001
 43
0.00000001
 12
1.0
 22
0.0
 32
0.0
 13
1.0
 23
0.0
 33
0.0
 40
0.0
 40
0.0
 40
0.0
 40
0.0
 40
0.1535380319182247
 40
0.3396462918721755
 40
0.5230488500253027
 40
0.7119131380862327
 40
1.0
 40
1.0
 40
1.0
 40
1.0
 10
202.8320199741551
 20
119.8681611885343
 30
0.0
 10
202.9644467090969
 20
119.8447295909529
 30
0.0
 10
203.2573920393568
 20
119.7928958196603
 30
0.0
 10
203.8185679949871
 20
119.7108441687841
 30
0.0
 10
204.4818730636506
 20
119.6347215518404
 30
0.0
 10
205.3362791060181
 20
119.5636345829538
 30
0.0
 10
205.9940342918725
 20
119.5520378584075
 30
0.0
 10
206.3913299633691
 20
119.545033233336
 30
0.0
  0
SPLINE
  5
119
330
1F
100
AcDbEntity
  8
0
  6
HIDDEN
 62
     7
370
     0
100
AcDbSpline
210
0.0
220
0.0
230
1.0
 70
     8
 71
     3
 72
    13
 73
     9
 74
     0
 42
0.00000001
 43
0.00000001
 12
1.0
 22
0.0
 32
0.0
 13
1.0
 23
0.0
 33
0.0
 40
0.0
 40
0.0
 40
0.0
 40
0.0
 40
0.1811595582945078
 40
0.3623326358700004
 40
0.5433490470682354
 40
0.7243841963250626
 40
0.9083253846643886
 40
1.0
 40
1.0
 40
1.0
 40
1.0
 10
206.3913299633691
 20
95.55785733657223
 30
0.0
 10
206.6407396500209
 20
95.57010884266788
 30
0.0
 10
207.1395776358653
 20
95.59461276914467
 30
0.0
 10
207.8660584727643
 20
95.78582623006209
 30
0.0
 10
208.5508470676016
 20
96.08585486803958
 30
0.0
 10
209.1745657574526
 20
96.49997132726863
 30
0.0
 10
209.6466078742505
 20
96.9164635110756
 30
0.0
 10
209.8697253859979
 20
97.22078887895056
 30
0.0
 10
209.9439381553361
 20
97.32201279523116
 30
0.0
  0
SPLINE
  5
11A
330
1F
100
AcDbEntity
  8
0
  6
HIDDEN
 62
     7
370
     0
100
AcDbSpline
210
0.0
220
0.0
230
1.0
 70
     8
 71
     3
 72
    19
 73
    15
 74
     0
 42
0.00000001
 43
0.00000001
 12
1.0
 22
0.0
 32
0.0
 13
1.0
 23
0.0
 33
0.0
 40
0.0
 40
0.0
 40
0.0
 40
0.0
 40
0.0588096188312784
 40
0.1513039488095085
 40
0.243792513395896
 40
0.3365858346906754
 40
0.4293686634490922
 40
0.5201457659070672
 40
0.6109249931584753
 40
0.7005505930419523
 40
0.7901861735021696
 40
0.881279584025211
 40
0.9723762246270132
 40
1.0
 40
1.0
 40
1.0
 40
1.0
 10
209.9455884589383
 20
102.7945690174614
 30
0.0
 10
209.8478073634609
 20
102.922557431903
 30
0.0
 10
209.5962385528025
 20
103.2518428939026
 30
0.0
 10
209.0833680315316
 20
103.6856366604135
 30
0.0
 10
208.4379626119043
 20
104.0910687076419
 30
0.0
 10
207.726598949432
 20
104.3767395311045
 30
0.0
 10
206.9816651945108
 20
104.5410061024093
 30
0.0
 10
206.2242133681984
 20
104.57469462279
 30
0.0
 10
205.4801626735422
 20
104.4861846045125
 30
0.0
 10
204.7664696263485
 20
104.2746964952603
 30
0.0
 10
204.094516471453
 20
103.9534703030246
 30
0.0
 10
203.4912398195529
 20
103.5173380547553
 30
0.0
 10
203.0646494609713
 20
103.125341862513
 30
0.0
 10
202.8800620932111
 20
102.8577984657767
 30
0.0
 10
202.8371124459931
 20
102.7955466733341
 30
0.0
  0
SPLINE
  5
11B
330
1F
100
AcDbEntity
  8
0
  6
HIDDEN
 62
     7
370
     0
100
AcDbSpline
210
0.0
220
0.0
230
1.0
 70
     8
 71
     3
 72
    12
 73
     8
 74
     0
 42
0.00000001
 43
0.00000001
 12
1.0
 22
0.0
 32
0.0
 13
1.0
 23
0.0
 33
0.0
 40
0.0
 40
0.0
 40
0.0
 40
0.0
 40
0.1560898192878959
 40
0.3396445896364386
 40
0.5257853703788256
 40
0.7119039304611021
 40
1.0
 40
1.0
 40
1.0
 40
1.0
 10
202.8321540846059
 20
97.31746747540575
 30
0.0
 10
202.9670195057967
 20
97.15179258813379
 30
0.0
 10
203.2604807375764
 20
96.79129131164272
 30
0.0
 10
203.8242934890643
 20
96.3374077981533
 30
0.0
 10
204.4857620248603
 20
95.95954147583053
 30
0.0
 10
205.3399106152018
 20
95.63640567456416
 30
0.0
 10
205.9939725840513
 20
95.58754269645137
 30
0.0
 10
206.3913299633691
 20
95.55785733657223
 30
0.0
  0
SPLINE
  5
11C
330
1F
100
AcDbEntity
  8
0
  6
HIDDEN
 62
     7
370
     0
100
AcDbSpline
210
0.0
220
0.0
230
1.0
 70
     8
 71
     3
 72
    13
 73
     9
 74
     0
 42
0.00000001
 43
0.00000001
 12
1.0
 22
0.0
 32
0.0
 13
1.0
 23
0.0
 33
0.0
 40
0.0
 40
0.0
 40
0.0
 40
0.0
 40
0.1899761500284505
 40
0.3799664772881595
 40
0.5697925136019727
 40
0.7596374121213578
 40
0.952530567311959
 40
1.0
 40
1.0
 40
1.0
 40
1.0
 10
221.8913315726945
 20
95.55785733657223
 30
0.0
 10
222.1407510036318
 20
95.57010048616682
 30
0.0
 10
222.6396084787743
 20
95.59458769901785
 30
0.0
 10
223.3659431797104
 20
95.78592648316526
 30
0.0
 10
224.0512857078465
 20
96.0854788521736
 30
0.0
 10
224.6729192530388
 20
96.50138206465527
 30
0.0
 10
225.1028876485849
 20
96.87049093591898
 30
0.0
 10
225.2906825257486
 20
97.1216494625891
 30
0.0
 10
225.3277703119942
 20
97.17125099534434
 30
0.0
  0
SPLINE
  5
11D
330
1F
100
AcDbEntity
  8
0
  6
HIDDEN
 62
     7
370
     0
100
AcDbSpline
210
0.0
220
0.0
230
1.0
 70
     8
 71
     3
 72
    19
 73
    15
 74
     0
 42
0.00000001
 43
0.00000001
 12
1.0
 22
0.0
 32
0.0
 13
1.0
 23
0.0
 33
0.0
 40
0.0
 40
0.0
 40
0.0
 40
0.0
 40
0.0373318535192903
 40
0.1343246367496859
 40
0.2313117271370075
 40
0.3286188347859589
 40
0.4259140400002115
 40
0.5211068978550538
 40
0.6163010410261037
 40
0.710285915759429
 40
0.8042816813056705
 40
0.8998057591156956
 40
0.9953332241113919
 40
1.0
 40
1.0
 40
1.0
 40
1.0
 10
225.3258406116196
 20
102.9425217156325
 30
0.0
 10
225.2660925906433
 20
103.019498525499
 30
0.0
 10
225.0511118045964
 20
103.2964706297134
 30
0.0
 10
224.5820298166394
 20
103.6844318652526
 30
0.0
 10
223.9383233109128
 20
104.0913940923991
 30
0.0
 10
223.2265030782023
 20
104.3766503134302
 30
0.0
 10
222.481686278392
 20
104.541032429134
 30
0.0
 10
221.7242197451005
 20
104.5746783131487
 30
0.0
 10
220.980117352747
 20
104.4862241939207
 30
0.0
 10
220.2666446129093
 20
104.2745545639599
 30
0.0
 10
219.5938585462726
 20
103.9540002399823
 30
0.0
 10
218.9937326986432
 20
103.5153289679007
 30
0.0
 10
218.6061983143421
 20
103.1731177859139
 30
0.0
 10
218.4548315092983
 20
102.9600607585818
 30
0.0
 10
218.4477812542149
 20
102.9501371403251
 30
0.0
  0
SPLINE
  5
11E
330
1F
100
AcDbEntity
  8
0
  6
HIDDEN
 62
     7
370
     0
100
AcDbSpline
210
0.0
220
0.0
230
1.0
 70
     8
 71
     3
 72
    12
 73
     8
 74
     0
 42
0.00000001
 43
0.00000001
 12
1.0
 22
0.0
 32
0.0
 13
1.0
 23
0.0
 33
0.0
 40
0.0
 40
0.0
 40
0.0
 40
0.0
 40
0.1150188390981457
 40
0.3075059993861692
 40
0.502706569449536
 40
0.6978821315005843
 40
1.0
 40
1.0
 40
1.0
 40
1.0
 10
218.456893314285
 20
97.1739176047061
 30
0.0
 10
218.5522765473948
 20
97.05808761630894
 30
0.0
 10
218.8072862193067
 20
96.74841298717651
 30
0.0
 10
219.3252615295575
 20
96.33832756703147
 30
0.0
 10
219.9855059414918
 20
95.95929973489444
 30
0.0
 10
220.8400166258308
 20
95.63650515131727
 30
0.0
 10
221.4940129067643
 20
95.58758034671875
 30
0.0
 10
221.8913315726945
 20
95.55785733657223
 30
0.0
  0
LINE
  5
11F
330
1F
100
AcDbEntity
  8
0
  6
HIDDEN
 62
     7
370
     0
100
AcDbLine
 10
176.3561704128
 20
116.1692664345
 30
0.0
 11
176.3561704128
 21
111.907857502
 31
0.0
  0
LINE
  5
120
330
1F
100
AcDbEntity
  8
0
  6
HIDDEN
 62
     7
370
     0
100
AcDbLine
 10
182.341330771
 20
112.93525997
 30
0.0
 11
182.341330771
 21
111.907857502
 31
0.0
  0
LINE
  5
121
330
1F
100
AcDbEntity
  8
0
  6
HIDDEN
 62
     7
370
     0
100
AcDbLine
 10
154.040321794
 20
85.3591021468
 30
0.0
 11
153.8413633524
 21
85.3334237208
 31
0.0
  0
SPLINE
  5
122
330
1F
100
AcDbEntity
  8
0
  6
HIDDEN
 62
     7
370
     0
100
AcDbSpline
210
0.0
220
0.0
230
1.0
 70
     8
 71
     3
 72
     9
 73
     5
 74
     0
 42
0.00000001
 43
0.00000001
 12
1.0
 22
0.0
 32
0.0
 13
1.0
 23
0.0
 33
0.0
 40
0.0
 40
0.0
 40
0.0
 40
0.0
 40
0.0295948964519587
 40
1.0
 40
1.0
 40
1.0
 40
1.0
 10
154.3978341786691
 20
85.3967704196487
 30
0.0
 10
154.3935082911586
 20
85.3964356973571
 30
0.0
 10
154.2473382406043
 20
85.38512556176885
 30
0.0
 10
154.1422753546955
 20
85.37191842232014
 30
0.0
 10
154.0403217940161
 20
85.3591021467958
 30
0.0
  0
SPLINE
  5
123
330
1F
100
AcDbEntity
  8
0
  6
HIDDEN
 62
     7
370
     0
100
AcDbSpline
210
0.0
220
0.0
230
1.0
 70
     8
 71
     3
 72
     9
 73
     5
 74
     0
 42
0.00000001
 43
0.00000001
 12
1.0
 22
0.0
 32
0.0
 13
1.0
 23
0.0
 33
0.0
 40
0.0
 40
0.0
 40
0.0
 40
0.0
 40
0.985348532497498
 40
1.0
 40
1.0
 40
1.0
 40
1.0
 10
154.0402035160491
 20
114.7565972377573
 30
0.0
 10
154.1423307478456
 20
114.7438105668552
 30
0.0
 10
154.2459765426363
 20
114.7308337667887
 30
0.0
 10
154.3898514178104
 20
114.7196763763028
 30
0.0
 10
154.3919593958685
 20
114.7195129041586
 30
0.0
  0
LWPOLYLINE
  5
124
330
1F
100
AcDbEntity
  8
0
  6
HIDDEN
 62
     7
370
     0
100
AcDbPolyline
 90
        3
 70
   128
 43
0.0
 10
153.6261225982
 20
114.8119140734
 10
153.7813591702
 20
114.7894785126
 10
154.040203516
 20
114.7565972378
  0
SPLINE
  5
125
330
1F
100
AcDbEntity
  8
0
  6
HIDDEN
 62
     7
370
     0
100
AcDbSpline
210
0.0
220
0.0
230
1.0
 70
     8
 71
     3
 72
    15
 73
    11
 74
     0
 42
0.00000001
 43
0.00000001
 12
1.0
 22
0.0
 32
0.0
 13
1.0
 23
0.0
 33
0.0
 40
0.0
 40
0.0
 40
0.0
 40
0.0
 40
0.1360947993897038
 40
0.2722233504338452
 40
0.4072157477284721
 40
0.5405337273204607
 40
0.674528402193116
 40
0.8104813419156445
 40
0.9466524598609822
 40
1.0
 40
1.0
 40
1.0
 40
1.0
 10
158.21550701992
 20
87.38504725890499
 30
0.0
 10
158.0376067581116
 20
87.40898965542274
 30
0.0
 10
157.6817621150414
 20
87.45688038619795
 30
0.0
 10
156.9474389345415
 20
87.51258987455014
 30
0.0
 10
156.1680302806669
 20
87.52304066601502
 30
0.0
 10
155.4162441002576
 20
87.48584014321678
 30
0.0
 10
154.7689501936239
 20
87.41648581499057
 30
0.0
 10
154.3131508232336
 20
87.34767853783305
 30
0.0
 10
154.0869286634345
 20
87.30708211808542
 30
0.0
 10
154.1143781954965
 20
87.31198581452534
 30
0.0
 10
154.1221049545833
 20
87.31336615430456
 30
0.0
  0
SPLINE
  5
126
330
1F
100
AcDbEntity
  8
0
  6
HIDDEN
 62
     7
370
     0
100
AcDbSpline
210
0.0
220
0.0
230
1.0
 70
     8
 71
     3
 72
    15
 73
    11
 74
     0
 42
0.00000001
 43
0.00000001
 12
1.0
 22
0.0
 32
0.0
 13
1.0
 23
0.0
 33
0.0
 40
0.0
 40
0.0
 40
0.0
 40
0.0
 40
0.0809850953378773
 40
0.2142994841332234
 40
0.3489242590596051
 40
0.4852277276366004
 40
0.6209655570397145
 40
0.7547097406923156
 40
0.8881684412294678
 40
1.0
 40
1.0
 40
1.0
 40
1.0
 10
154.1221049545833
 20
112.8023481314097
 30
0.0
 10
154.1191416757197
 20
112.8028562600495
 30
0.0
 10
154.1113003670299
 20
112.8042008495066
 30
0.0
 10
154.3827913684953
 20
112.7564771169297
 30
0.0
 10
154.8767743855399
 20
112.6853132027268
 30
0.0
 10
155.555151787678
 20
112.6192200228723
 30
0.0
 10
156.3267922699407
 20
112.5906780517574
 30
0.0
 10
157.0971607836918
 20
112.611232706657
 30
0.0
 10
157.7586728606973
 20
112.668497569631
 30
0.0
 10
158.0724508594187
 20
112.7111988594999
 30
0.0
 10
158.21550701992
 20
112.7306670268093
 30
0.0
  0
SPLINE
  5
127
330
1F
100
AcDbEntity
  8
0
  6
HIDDEN
 62
     7
370
     0
100
AcDbSpline
210
0.0
220
0.0
230
1.0
 70
     8
 71
     3
 72
     9
 73
     5
 74
     0
 42
0.00000001
 43
0.00000001
 12
1.0
 22
0.0
 32
0.0
 13
1.0
 23
0.0
 33
0.0
 40
0.0
 40
0.0
 40
0.0
 40
0.0
 40
0.5104930206733879
 40
1.0
 40
1.0
 40
1.0
 40
1.0
 10
158.21550701992
 20
112.7306670268093
 30
0.0
 10
158.3554817979173
 20
112.7480078134646
 30
0.0
 10
158.6296770803771
 20
112.7819765181345
 30
0.0
 10
158.6676751346358
 20
112.7838046737082
 30
0.0
 10
158.6862754473963
 20
112.7846995686207
 30
0.0
  0
SPLINE
  5
128
330
1F
100
AcDbEntity
  8
0
  6
HIDDEN
 62
     7
370
     0
100
AcDbSpline
210
0.0
220
0.0
230
1.0
 70
     8
 71
     3
 72
    10
 73
     6
 74
     0
 42
0.00000001
 43
0.00000001
 12
1.0
 22
0.0
 32
0.0
 13
1.0
 23
0.0
 33
0.0
 40
0.0
 40
0.0
 40
0.0
 40
0.0
 40
0.0215706971399748
 40
0.5332897244388501
 40
0.9999999999999999
 40
0.9999999999999999
 40
0.9999999999999999
 40
0.9999999999999999
 10
158.6861576350906
 20
87.33102589296442
 30
0.0
 10
158.6878751535941
 20
87.3308681584827
 30
0.0
 10
158.7303371548688
 20
87.32696850805688
 30
0.0
 10
158.5908568208482
 20
87.33683973137572
 30
0.0
 10
158.3367268741395
 20
87.36947855620438
 30
0.0
 10
158.21550701992
 20
87.38504725890499
 30
0.0
  0
LINE
  5
129
330
1F
100
AcDbEntity
  8
0
  6
HIDDEN
 62
     7
370
     0
100
AcDbLine
 10
150.3939797102
 20
89.5578572844
 30
0.0
 11
150.3939797102
 21
110.5578570013
 31
0.0
  0
LINE
  5
12A
330
1F
100
AcDbEntity
  8
0
  6
HIDDEN
 62
     7
370
     0
100
AcDbLine
 10
168.560705234
 20
89.5578572844
 30
0.0
 11
168.560705234
 21
110.5578570013
 31
0.0
  0
LINE
  5
12B
330
1F
100
AcDbEntity
  8
0
  6
HIDDEN
 62
     7
370
     0
100
AcDbLine
 10
170.3413306667
 20
90.1828566884
 30
0.0
 11
170.3413306667
 21
109.932856666
 31
0.0
  0
SPLINE
  5
12C
330
1F
100
AcDbEntity
  8
0
  6
HIDDEN
 62
     7
370
     0
100
AcDbSpline
210
0.0
220
0.0
230
1.0
 70
     8
 71
     3
 72
    14
 73
    10
 74
     0
 42
0.00000001
 43
0.00000001
 12
1.0
 22
0.0
 32
0.0
 13
1.0
 23
0.0
 33
0.0
 40
0.0
 40
0.0
 40
0.0
 40
0.0
 40
0.2499999999999999
 40
0.2499999999999999
 40
0.4999999999999998
 40
0.4999999999999998
 40
0.7499999999999997
 40
0.7499999999999997
 40
1.0
 40
1.0
 40
1.0
 40
1.0
 10
146.0913302017876
 20
110.0820466362775
 30
0.0
 10
146.0913302017876
 20
110.0455747717437
 30
0.0
 10
146.0689595699835
 20
110.0078390192312
 30
0.0
 10
145.9817440387353
 20
109.9327032975318
 30
0.0
 10
145.9177228326587
 20
109.8963310113097
 30
0.0
 10
145.7542375349174
 20
109.8321074721476
 30
0.0
 10
145.6549226607442
 20
109.8045845095251
 30
0.0
 10
145.4350963900391
 20
109.766412342638
 30
0.0
 10
145.31409282773
 20
109.7557628446053
 30
0.0
 10
145.1913302017877
 20
109.7557628446053
 30
0.0
  0
LINE
  5
12D
330
1F
100
AcDbEntity
  8
0
  6
HIDDEN
 62
     7
370
     0
100
AcDbLine
 10
145.1913296177
 20
109.7557628845
 30
0.0
 11
143.4413297965
 21
109.7557628845
 31
0.0
  0
ARC
  5
12E
330
1F
100
AcDbEntity
  8
0
  6
HIDDEN
 62
     7
370
     0
100
AcDbCircle
 10
147.4663302018
 20
100.0578571429
 30
0.0
 40
10.49999999999999
100
AcDbArc
 50
247.4596895365
 51
247.8078280674
  0
LINE
  5
12F
330
1F
100
AcDbEntity
  8
0
  6
HIDDEN
 62
     7
370
     0
100
AcDbLine
 10
143.5003309442
 20
90.3356736844
 30
0.0
 11
147.6913300274
 21
90.3356736844
 31
0.0
  0
SPLINE
  5
130
330
1F
100
AcDbEntity
  8
0
  6
HIDDEN
 62
     7
370
     0
100
AcDbSpline
210
0.0
220
0.0
230
1.0
 70
     8
 71
     3
 72
    14
 73
    10
 74
     0
 42
0.00000001
 43
0.00000001
 12
1.0
 22
0.0
 32
0.0
 13
1.0
 23
0.0
 33
0.0
 40
0.0
 40
0.0
 40
0.0
 40
0.0
 40
0.25
 40
0.25
 40
0.5
 40
0.5
 40
0.75
 40
0.75
 40
1.0
 40
1.0
 40
1.0
 40
1.0
 10
147.6913302017877
 20
90.33567405468193
 30
0.0
 10
147.8137982897066
 20
90.33567405468193
 30
0.0
 10
147.9340093685754
 20
90.32533703496202
 30
0.0
 10
148.154215687828
 20
90.28786980638407
 30
0.0
 10
148.2538711405261
 20
90.26073863809482
 30
0.0
 10
148.4168584934818
 20
90.19797159188799
 30
0.0
 10
148.4815958542283
 20
90.16190789796109
 30
0.0
 10
148.5684312043453
 20
90.088715228093
 30
0.0
 10
148.5913302017876
 20
90.05117244258201
 30
0.0
 10
148.5913302017876
 20
90.01546479840056
 30
0.0
  0
LINE
  5
131
330
1F
100
AcDbEntity
  8
0
  6
HIDDEN
 62
     7
370
     0
100
AcDbLine
 10
143.4413297965
 20
90.3599514012
 30
0.0
 11
143.4413297965
 21
109.7557628845
 31
0.0
  0
LINE
  5
132
330
1F
100
AcDbEntity
  8
0
  6
HIDDEN
 62
     7
370
     0
100
AcDbLine
 10
181.3913295908
 20
100.0578571429
 30
0.0
 11
181.3913295908
 21
92.1578575243
 31
0.0
  0
LINE
  5
133
330
1F
100
AcDbEntity
  8
0
  6
HIDDEN
 62
     7
370
     0
100
AcDbLine
 10
181.3913295908
 20
107.9578567614
 30
0.0
 11
181.3913295908
 21
100.0578571429
 31
0.0
  0
LINE
  5
134
330
1F
100
AcDbEntity
  8
0
  6
HIDDEN
 62
     7
370
     0
100
AcDbLine
 10
184.5670874162
 20
100.0578571429
 30
0.0
 11
184.5670874162
 21
91.7578572725
 31
0.0
  0
LINE
  5
135
330
1F
100
AcDbEntity
  8
0
  6
HIDDEN
 62
     7
370
     0
100
AcDbLine
 10
184.5670874162
 20
108.3578570132
 30
0.0
 11
184.5670874162
 21
100.0578571429
 31
0.0
  0
LINE
  5
136
330
1F
100
AcDbEntity
  8
0
  6
HIDDEN
 62
     7
370
     0
100
AcDbLine
 10
185.3913302465
 20
100.0578571429
 30
0.0
 11
185.3913302465
 21
92.0578567629
 31
0.0
  0
LINE
  5
137
330
1F
100
AcDbEntity
  8
0
  6
HIDDEN
 62
     7
370
     0
100
AcDbLine
 10
185.3913302465
 20
108.0578575228
 30
0.0
 11
185.3913302465
 21
100.0578571429
 31
0.0
  0
SPLINE
  5
138
330
1F
100
AcDbEntity
  8
0
  6
HIDDEN
 62
     7
370
     0
100
AcDbSpline
210
0.0
220
0.0
230
1.0
 70
     8
 71
     3
 72
    17
 73
    13
 74
     0
 42
0.00000001
 43
0.00000001
 12
1.0
 22
0.0
 32
0.0
 13
1.0
 23
0.0
 33
0.0
 40
0.0
 40
0.0
 40
0.0
 40
0.0
 40
0.093774950099096
 40
0.1906664713347523
 40
0.2843499138872266
 40
0.3802808638092284
 40
0.483936154215365
 40
0.5901058033973782
 40
0.7026236970557777
 40
0.8190087041955455
 40
0.9216324856797625
 40
1.0
 40
1.0
 40
1.0
 40
1.0
 10
221.8913315726945
 20
106.6722353306625
 30
0.0
 10
221.665227685694
 20
106.6790363444629
 30
0.0
 10
221.2055054438383
 20
106.6928644009047
 30
0.0
 10
220.5425206507765
 20
106.7992670366032
 30
0.0
 10
219.9152753680323
 20
106.9529280905709
 30
0.0
 10
219.3255678607576
 20
107.1458119064458
 30
0.0
 10
218.7762794598871
 20
107.3638785818522
 30
0.0
 10
218.2791265519833
 20
107.5906984752717
 30
0.0
 10
217.8607263092291
 20
107.8014844484619
 30
0.0
 10
217.5701741710465
 20
107.9579083782981
 30
0.0
 10
217.4100589780644
 20
108.0472868148964
 30
0.0
 10
217.4058772987663
 20
108.0496734414493
 30
0.0
 10
217.4040666712949
 20
108.0507068281088
 30
0.0
  0
LINE
  5
139
330
1F
100
AcDbEntity
  8
0
  6
HIDDEN
 62
     7
370
     0
100
AcDbLine
 10
221.649388869
 20
106.6845418272
 30
0.0
 11
222.0494552447
 21
106.682793269
 31
0.0
  0
SPLINE
  5
13A
330
1F
100
AcDbEntity
  8
0
  6
HIDDEN
 62
     7
370
     0
100
AcDbSpline
210
0.0
220
0.0
230
1.0
 70
     8
 71
     3
 72
    17
 73
    13
 74
     0
 42
0.00000001
 43
0.00000001
 12
1.0
 22
0.0
 32
0.0
 13
1.0
 23
0.0
 33
0.0
 40
0.0
 40
0.0
 40
0.0
 40
0.0
 40
0.0592006261068887
 40
0.1502499453466367
 40
0.2438022462624049
 40
0.3378967985758531
 40
0.4341890313027146
 40
0.5393971715381363
 40
0.6472381724841149
 40
0.7597417793825789
 40
0.8762987700483391
 40
1.0
 40
1.0
 40
1.0
 40
1.0
 10
226.3759701444337
 20
108.0492269565378
 30
0.0
 10
226.3781313912635
 20
108.050437402252
 30
0.0
 10
226.3836165903133
 20
108.0535094880452
 30
0.0
 10
226.2724959586498
 20
107.9912494932113
 30
0.0
 10
226.0700542192674
 20
107.8807152602085
 30
0.0
 10
225.7701173114806
 20
107.7237769161806
 30
0.0
 10
225.3756352993085
 20
107.5304512933999
 30
0.0
 10
224.8797980195296
 20
107.3103257909862
 30
0.0
 10
224.2765264701892
 20
107.0799943536785
 30
0.0
 10
223.5746284153138
 20
106.8714466318899
 30
0.0
 10
222.7696609716639
 20
106.707274885999
 30
0.0
 10
222.1898550120098
 20
106.6841444487945
 30
0.0
 10
221.8913315726945
 20
106.6722353306625
 30
0.0
  0
SPLINE
  5
13B
330
1F
100
AcDbEntity
  8
0
  6
HIDDEN
 62
     7
370
     0
100
AcDbSpline
210
0.0
220
0.0
230
1.0
 70
     8
 71
     3
 72
    17
 73
    13
 74
     0
 42
0.00000001
 43
0.00000001
 12
1.0
 22
0.0
 32
0.0
 13
1.0
 23
0.0
 33
0.0
 40
0.0
 40
0.0
 40
0.0
 40
0.0
 40
0.0937744591187636
 40
0.1906665007350337
 40
0.2843499658511863
 40
0.3802809388781789
 40
0.4839358705385342
 40
0.5901055452915313
 40
0.7026237311858553
 40
0.8190087663569784
 40
0.921632466804929
 40
1.0
 40
1.0
 40
1.0
 40
1.0
 10
206.3913299633691
 20
106.6722353306625
 30
0.0
 10
206.165227366652
 20
106.6790364693475
 30
0.0
 10
205.7055052703768
 20
106.6928648542431
 30
0.0
 10
205.0425200219185
 20
106.799266597647
 30
0.0
 10
204.4152739115774
 20
106.9529281993254
 30
0.0
 10
203.8255664869694
 20
107.1458113755104
 30
0.0
 10
203.2762813653891
 20
107.363879120385
 30
0.0
 10
202.7791289472049
 20
107.5906987314134
 30
0.0
 10
202.3607243772319
 20
107.8014841565146
 30
0.0
 10
202.0701713489965
 20
107.9579083402912
 30
0.0
 10
201.9100619176362
 20
108.0472868371821
 30
0.0
 10
201.9058796643295
 20
108.0496734477618
 30
0.0
 10
201.9040687872597
 20
108.0507068281088
 30
0.0
  0
LINE
  5
13C
330
1F
100
AcDbEntity
  8
0
  6
HIDDEN
 62
     7
370
     0
100
AcDbLine
 10
206.1493909849
 20
106.6845418272
 30
0.0
 11
206.5494573607
 21
106.682793269
 31
0.0
  0
SPLINE
  5
13D
330
1F
100
AcDbEntity
  8
0
  6
HIDDEN
 62
     7
370
     0
100
AcDbSpline
210
0.0
220
0.0
230
1.0
 70
     8
 71
     3
 72
    17
 73
    13
 74
     0
 42
0.00000001
 43
0.00000001
 12
1.0
 22
0.0
 32
0.0
 13
1.0
 23
0.0
 33
0.0
 40
0.0
 40
0.0
 40
0.0
 40
0.0
 40
0.0592006113121287
 40
0.1502499170669998
 40
0.2438023616625863
 40
0.3378969000401427
 40
0.4341894034523251
 40
0.539396843851716
 40
0.647238224729973
 40
0.7597418149660687
 40
0.8762987883691334
 40
1.0
 40
1.0
 40
1.0
 40
1.0
 10
210.8759685351083
 20
108.0492269565378
 30
0.0
 10
210.8781312348012
 20
108.0504374060433
 30
0.0
 10
210.8836201215257
 20
108.0535095016483
 30
0.0
 10
210.7724987660836
 20
107.9912493543699
 30
0.0
 10
210.5700513208828
 20
107.8807154999975
 30
0.0
 10
210.2701169638744
 20
107.7237763986906
 30
0.0
 10
209.8756287189725
 20
107.5304527215015
 30
0.0
 10
209.3798007178217
 20
107.3103241273601
 30
0.0
 10
208.7765245093308
 20
107.0799950964099
 30
0.0
 10
208.0746271374772
 20
106.8714464916529
 30
0.0
 10
207.2696592722168
 20
106.7072749241251
 30
0.0
 10
206.6898533720542
 20
106.6841444617527
 30
0.0
 10
206.3913299633691
 20
106.6722353306625
 30
0.0
  0
LINE
  5
13E
330
1F
100
AcDbEntity
  8
0
  6
HIDDEN
 62
     7
370
     0
100
AcDbLine
 10
206.3913299634
 20
104.5578569491
 30
0.0
 11
206.300675024
 21
104.5508450215
 31
0.0
  0
SPLINE
  5
13F
330
1F
100
AcDbEntity
  8
0
  6
HIDDEN
 62
     7
370
     0
100
AcDbSpline
210
0.0
220
0.0
230
1.0
 70
     8
 71
     3
 72
     9
 73
     5
 74
     0
 42
0.00000001
 43
0.00000001
 12
1.0
 22
0.0
 32
0.0
 13
1.0
 23
0.0
 33
0.0
 40
0.0
 40
0.0
 40
0.0
 40
0.0
 40
0.6741443934568124
 40
1.0
 40
1.0
 40
1.0
 40
1.0
 10
206.2629192067811
 20
95.57494896846157
 30
0.0
 10
206.4259641721996
 20
95.5655067604176
 30
0.0
 10
206.6678188356827
 20
95.55150055027092
 30
0.0
 10
206.9037868415045
 20
95.59360677853908
 30
0.0
 10
206.9806783391663
 20
95.60732732909065
 30
0.0
  0
LINE
  5
140
330
1F
100
AcDbEntity
  8
0
  6
HIDDEN
 62
     7
370
     0
100
AcDbLine
 10
206.5987094237
 20
104.5372113903
 30
0.0
 11
206.3913299634
 21
104.5578569491
 31
0.0
  0
LINE
  5
141
330
1F
100
AcDbEntity
  8
0
  6
HIDDEN
 62
     7
370
     0
100
AcDbLine
 10
221.8913315727
 20
104.5578569491
 30
0.0
 11
221.8006766333
 21
104.5508450215
 31
0.0
  0
SPLINE
  5
142
330
1F
100
AcDbEntity
  8
0
  6
HIDDEN
 62
     7
370
     0
100
AcDbSpline
210
0.0
220
0.0
230
1.0
 70
     8
 71
     3
 72
     9
 73
     5
 74
     0
 42
0.00000001
 43
0.00000001
 12
1.0
 22
0.0
 32
0.0
 13
1.0
 23
0.0
 33
0.0
 40
0.0
 40
0.0
 40
0.0
 40
0.0
 40
0.6741392879387921
 40
1.0
 40
1.0
 40
1.0
 40
1.0
 10
221.7629208161065
 20
95.57494896846157
 30
0.0
 10
221.9259644980866
 20
95.56550701497561
 30
0.0
 10
222.1678190894109
 20
95.55150107635893
 30
0.0
 10
222.4037872090141
 20
95.59360674569801
 30
0.0
 10
222.4806799484917
 20
95.60732732909065
 30
0.0
  0
LINE
  5
143
330
1F
100
AcDbEntity
  8
0
  6
HIDDEN
 62
     7
370
     0
100
AcDbLine
 10
222.098711033
 20
104.5372113903
 30
0.0
 11
221.8913315727
 21
104.5578569491
 31
0.0
  0
LINE
  5
144
330
1F
100
AcDbEntity
  8
0
  6
HIDDEN
 62
     7
370
     0
100
AcDbLine
 10
146.0913299514
 20
111.0578570833
 30
0.0
 11
146.0913299514
 21
113.6153815632
 31
0.0
  0
LINE
  5
145
330
1F
100
AcDbEntity
  8
0
  6
HIDDEN
 62
     7
370
     0
100
AcDbLine
 10
148.5913303612
 20
89.0578572025
 30
0.0
 11
148.5913303612
 21
86.421110699
 31
0.0
  0
LINE
  5
146
330
1F
100
AcDbEntity
  8
0
  6
HIDDEN
 62
     7
370
     0
100
AcDbLine
 10
143.4413297965
 20
111.0578570833
 30
0.0
 11
143.4413297965
 21
112.9234377612
 31
0.0
  0
LINE
  5
147
330
1F
100
AcDbEntity
  8
0
  6
HIDDEN
 62
     7
370
     0
100
AcDbLine
 10
143.5003309442
 20
89.0578572025
 30
0.0
 11
143.5003309442
 21
87.2067902555
 31
0.0
  0
LINE
  5
148
330
1F
100
AcDbEntity
  8
0
  6
HIDDEN
 62
     7
370
     0
100
AcDbLine
 10
178.1913294388
 20
93.8078570497
 30
0.0
 11
178.1913294388
 21
106.307857236
 31
0.0
  0
LINE
  5
149
330
1F
100
AcDbEntity
  8
0
  6
HIDDEN
 62
     7
370
     0
100
AcDbLine
 10
175.6913299604
 20
93.8078570497
 30
0.0
 11
175.6913299604
 21
106.307857236
 31
0.0
  0
LINE
  5
14A
330
1F
100
AcDbEntity
  8
0
  6
HIDDEN
 62
     7
370
     0
100
AcDbLine
 10
170.8413298173
 20
94.5578571727
 30
0.0
 11
170.8413298173
 21
105.5578571131
 31
0.0
  0
LINE
  5
14B
330
1F
100
AcDbEntity
  8
0
  6
HIDDEN
 62
     7
370
     0
100
AcDbLine
 10
177.3865521817
 20
83.1578579118
 30
0.0
 11
174.841330473
 21
83.1578579118
 31
0.0
  0
LINE
  5
14C
330
1F
100
AcDbEntity
  8
0
  6
HIDDEN
 62
     7
370
     0
100
AcDbLine
 10
170.3413306667
 20
80.0828729142
 30
0.0
 11
170.3413306667
 21
83.1578579118
 31
0.0
  0
LINE
  5
14D
330
1F
100
AcDbEntity
  8
0
  6
HIDDEN
 62
     7
370
     0
100
AcDbLine
 10
174.841330473
 20
83.1578579118
 30
0.0
 11
170.3413306667
 21
83.1578579118
 31
0.0
  0
LINE
  5
14E
330
1F
100
AcDbEntity
  8
0
  6
HIDDEN
 62
     7
370
     0
100
AcDbLine
 10
182.341330771
 20
83.1578579118
 30
0.0
 11
179.3961069478
 21
83.1578579118
 31
0.0
  0
ELLIPSE
  5
14F
330
1F
100
AcDbEntity
  8
0
  6
HIDDEN
 62
     7
370
     0
100
AcDbEllipse
 10
140.3855634621
 20
100.0578571429
 30
0.0
 11
12.26424774976732
 21
0.0
 31
0.0
210
0.0
220
0.0
230
1.0
 40
0.8164965809
 41
4.884943637108984
 42
4.964202354313274
  0
ELLIPSE
  5
150
330
1F
100
AcDbEntity
  8
0
  6
HIDDEN
 62
     7
370
     0
100
AcDbEllipse
 10
140.3855634621
 20
100.0578571429
 30
0.0
 11
12.26424774976735
 21
0.0
 31
0.0
210
0.0
220
0.0
230
1.0
 40
0.8164965809
 41
1.318982952866322
 42
1.398241670070612
  0
LINE
  5
151
330
1F
100
AcDbEntity
  8
0
  6
HIDDEN
 62
     7
370
     0
100
AcDbLine
 10
182.3413922383
 20
116.957856374
 30
0.0
 11
179.1829849525
 21
116.957856374
 31
0.0
  0
LINE
  5
152
330
1F
100
AcDbEntity
  8
0
  6
HIDDEN
 62
     7
370
     0
100
AcDbLine
 10
177.599674177
 20
116.957856374
 30
0.0
 11
174.841330473
 21
116.957856374
 31
0.0
  0
LINE
  5
153
330
1F
100
AcDbEntity
  8
0
  6
HIDDEN
 62
     7
370
     0
100
AcDbLine
 10
174.841330473
 20
116.957856374
 30
0.0
 11
170.3413306667
 21
116.957856374
 31
0.0
  0
LINE
  5
154
330
1F
100
AcDbEntity
  8
0
  6
HIDDEN
 62
     7
370
     0
100
AcDbLine
 10
143.4413297965
 20
111.0578570833
 30
0.0
 11
143.4413297965
 21
109.7557628845
 31
0.0
  0
LINE
  5
155
330
1F
100
AcDbEntity
  8
0
  6
HIDDEN
 62
     7
370
     0
100
AcDbLine
 10
146.0913299514
 20
111.0578570833
 30
0.0
 11
146.0913299514
 21
110.0820470919
 31
0.0
  0
LINE
  5
156
330
1F
100
AcDbEntity
  8
0
  6
HIDDEN
 62
     7
370
     0
100
AcDbLine
 10
148.5913303612
 20
89.0578572025
 30
0.0
 11
148.5913303612
 21
90.0154644941
 31
0.0
  0
LINE
  5
157
330
1F
100
AcDbEntity
  8
0
  6
HIDDEN
 62
     7
370
     0
100
AcDbLine
 10
143.5003309442
 20
89.0578572025
 30
0.0
 11
143.5003309442
 21
90.3356736844
 31
0.0
  0
SPLINE
  5
158
330
1F
100
AcDbEntity
  8
0
  6
HIDDEN
 62
     7
370
     0
100
AcDbSpline
210
0.0
220
0.0
230
1.0
 70
     8
 71
     3
 72
    42
 73
    38
 74
     0
 42
0.00000001
 43
0.00000001
 12
1.0
 22
0.0
 32
0.0
 13
1.0
 23
0.0
 33
0.0
 40
0.0
 40
0.0
 40
0.0
 40
0.0
 40
0.0575398796646595
 40
0.1199511638560803
 40
0.1523396527002005
 40
0.1688322911709185
 40
0.1771533980637726
 40
0.1813326535162375
 40
0.1834269633768215
 40
0.1844752767769466
 40
0.1849997476505221
 40
0.1852620459995172
 40
0.1853932036843688
 40
0.1854588026066178
 40
0.1854915820247472
 40
0.1855080002560127
 40
0.1855161742980164
 40
0.1855202950250479
 40
0.1855223221877259
 40
0.1855243847289265
 40
0.2001807048700387
 40
0.2260348145762206
 40
0.2630792174140666
 40
0.3113031879857161
 40
0.3810064291807121
 40
0.4367663268467245
 40
0.5574638718991093
 40
0.6207111851245395
 40
0.6422416735219428
 40
0.6639863965127443
 40
0.6859489646021476
 40
0.7280887884696359
 40
0.7644535304801449
 40
0.8109963538165382
 40
0.8804902682392562
 40
0.9359556867624995
 40
1.0
 40
1.0
 40
1.0
 40
1.0
 10
158.6513915962109
 20
85.52444356875759
 30
0.0
 10
158.6606357452911
 20
85.52193324871597
 30
0.0
 10
158.6799066656945
 20
85.51670008152135
 30
0.0
 10
158.5592476356266
 20
85.55088403835141
 30
0.0
 10
158.4500431788291
 20
85.58004241935255
 30
0.0
 10
158.3833193092422
 20
85.59763928327973
 30
0.0
 10
158.347356121071
 20
85.60706214421643
 30
0.0
 10
158.3286737637888
 20
85.61194190140547
 30
0.0
 10
158.3191611722818
 20
85.61442395555919
 30
0.0
 10
158.3143610882978
 20
85.61567578977656
 30
0.0
 10
158.311950489921
 20
85.61630256841154
 30
0.0
 10
158.3107420032067
 20
85.61661853700774
 30
0.0
 10
158.3101378809839
 20
85.61677511384843
 30
0.0
 10
158.3098346471417
 20
85.61685523481047
 30
0.0
 10
158.3096843017841
 20
85.61689390842554
 30
0.0
 10
158.3096077484775
 20
85.61691393426868
 30
0.0
 10
158.3095704695701
 20
85.61692300812611
 30
0.0
 10
158.3095513610533
 20
85.61692896433688
 30
0.0
 10
158.3095408408431
 20
85.61693134840323
 30
0.0
 10
158.2894643037522
 20
85.62137603195464
 30
0.0
 10
158.2356490174473
 20
85.6373896930218
 30
0.0
 10
158.119695492563
 20
85.66561595311826
 30
0.0
 10
157.9355754695007
 20
85.70793259668916
 30
0.0
 10
157.6449176822379
 20
85.7672559436275
 30
0.0
 10
157.2752806049923
 20
85.8312813186971
 30
0.0
 10
156.7087735666412
 20
85.90819638872954
 30
0.0
 10
156.1135487326819
 20
85.94393329901985
 30
0.0
 10
155.6338832572787
 20
85.94259610490528
 30
0.0
 10
155.3981681828964
 20
85.9352077007474
 30
0.0
 10
155.2584825685271
 20
85.92860357254007
 30
0.0
 10
155.0818226001084
 20
85.91732514274614
 30
0.0
 10
154.8885373619624
 20
85.89930499510854
 30
0.0
 10
154.6727545685403
 20
85.87732825369027
 30
0.0
 10
154.4439484131099
 20
85.8491672859414
 30
0.0
 10
154.2544492656279
 20
85.82073570667154
 30
0.0
 10
154.1079731058777
 20
85.7941115771651
 30
0.0
 10
154.1221343013812
 20
85.79745401158127
 30
0.0
 10
154.1297231732437
 20
85.79924519555908
 30
0.0
  0
LINE
  5
159
330
1F
100
AcDbEntity
  8
0
  6
HIDDEN
 62
     7
370
     0
100
AcDbLine
 10
154.2660632102
 20
85.821483316
 30
0.0
 11
154.4757039218
 21
85.8520325591
 31
0.0
  0
LINE
  5
15A
330
1F
100
AcDbEntity
  8
0
  6
HIDDEN
 62
     7
370
     0
100
AcDbLine
 10
154.4757011278
 20
114.2636109461
 30
0.0
 11
154.2497604086
 21
114.2965406497
 31
0.0
  0
SPLINE
  5
15B
330
1F
100
AcDbEntity
  8
0
  6
HIDDEN
 62
     7
370
     0
100
AcDbSpline
210
0.0
220
0.0
230
1.0
 70
     8
 71
     3
 72
    34
 73
    30
 74
     0
 42
0.00000001
 43
0.00000001
 12
1.0
 22
0.0
 32
0.0
 13
1.0
 23
0.0
 33
0.0
 40
0.0
 40
0.0
 40
0.0
 40
0.0
 40
0.0077483986968268
 40
0.0638665832999187
 40
0.0897721036717576
 40
0.119224762689678
 40
0.1522270661575367
 40
0.1887804704654265
 40
0.2401338080567929
 40
0.2787766148662084
 40
0.2939436139117099
 40
0.3056152479452172
 40
0.3137912442373695
 40
0.3788768224139364
 40
0.4421001047377548
 40
0.5035682213941918
 40
0.5633976263425635
 40
0.5894759697289624
 40
0.6190198791989957
 40
0.6520338368399685
 40
0.6885207210710801
 40
0.7415658196386079
 40
0.7806393243939922
 40
0.7955273901905523
 40
0.8065730849651318
 40
0.8137761642285113
 40
0.8792294550399224
 40
0.9417202872144655
 40
0.9999999999999999
 40
0.9999999999999999
 40
0.9999999999999999
 40
0.9999999999999999
 10
154.0959850816557
 20
114.3223056887303
 30
0.0
 10
154.0944433038605
 20
114.3226114493599
 30
0.0
 10
154.0817351193903
 20
114.3251316974117
 30
0.0
 10
154.1194068772271
 20
114.3194313366262
 30
0.0
 10
154.1812339075602
 20
114.3080810141894
 30
0.0
 10
154.2506468414592
 20
114.2961710251586
 30
0.0
 10
154.3494647845706
 20
114.2807754119037
 30
0.0
 10
154.4986823668242
 20
114.2594421539225
 30
0.0
 10
154.6899948321338
 20
114.2363021118188
 30
0.0
 10
154.8751305028528
 20
114.2176481758218
 30
0.0
 10
154.9988941829762
 20
114.2063393191266
 30
0.0
 10
155.067237234681
 20
114.2004448094964
 30
0.0
 10
155.236682575097
 20
114.1871031933451
 30
0.0
 10
155.5313125582188
 20
114.1734358458156
 30
0.0
 10
155.9753117944243
 20
114.172226750038
 30
0.0
 10
156.422399951484
 20
114.1901035664788
 30
0.0
 10
156.7776505647147
 20
114.2203479914754
 30
0.0
 10
157.0467636585936
 20
114.2534729101651
 30
0.0
 10
157.2478713735954
 20
114.2820454035291
 30
0.0
 10
157.4636977326086
 20
114.3166786673189
 30
0.0
 10
157.7156041284791
 20
114.3626729528078
 30
0.0
 10
157.9560739261528
 20
114.4120606595853
 30
0.0
 10
158.1307247221426
 20
114.4525314935369
 30
0.0
 10
158.2267233296343
 20
114.4768234405523
 30
0.0
 10
158.2731084560967
 20
114.4890837282081
 30
0.0
 10
158.3857320546633
 20
114.5189435045351
 30
0.0
 10
158.5367899903771
 20
114.5582069517977
 30
0.0
 10
158.668156680105
 20
114.5951951522617
 30
0.0
 10
158.6832177630914
 20
114.6003714870835
 30
0.0
 10
158.6904857239255
 20
114.6028694083009
 30
0.0
  0
SPLINE
  5
15C
330
1F
100
AcDbEntity
  8
0
  6
HIDDEN
 62
     7
370
     0
100
AcDbSpline
210
0.0
220
0.0
230
1.0
 70
     8
 71
     3
 72
    10
 73
     6
 74
     0
 42
0.00000001
 43
0.00000001
 12
1.0
 22
0.0
 32
0.0
 13
1.0
 23
0.0
 33
0.0
 40
0.0
 40
0.0
 40
0.0
 40
0.0
 40
0.2531748020364187
 40
0.5868561163861409
 40
1.0
 40
1.0
 40
1.0
 40
1.0
 10
155.5463132380077
 20
114.1763357763205
 30
0.0
 10
155.4386884825686
 20
114.1810514297497
 30
0.0
 10
155.1892156065321
 20
114.1919822571285
 30
0.0
 10
154.8077650739097
 20
114.2226552741164
 30
0.0
 10
154.593971683878
 20
114.2490238457709
 30
0.0
 10
154.4757011278102
 20
114.2636109461103
 30
0.0
  0
LINE
  5
15D
330
1F
100
AcDbEntity
  8
0
  6
HIDDEN
 62
     7
370
     0
100
AcDbLine
 10
179.4313295676
 20
113.5737039466
 30
0.0
 11
179.4313295676
 21
111.907857502
 31
0.0
  0
LINE
  5
15E
330
1F
100
AcDbEntity
  8
0
  6
HIDDEN
 62
     7
370
     0
100
AcDbLine
 10
177.3513304933
 20
113.5737039466
 30
0.0
 11
177.3513304933
 21
111.907857502
 31
0.0
  0
LINE
  5
15F
330
1F
100
AcDbEntity
  8
0
  6
HIDDEN
 62
     7
370
     0
100
AcDbLine
 10
180.4264905794
 20
116.1692664345
 30
0.0
 11
180.4264905794
 21
111.907857502
 31
0.0
  0
CIRCLE
  5
160
330
1F
100
AcDbEntity
  8
0
  6
HIDDEN
 62
     7
370
     0
100
AcDbCircle
 10
169.3913302018
 20
100.0578571429
 30
0.0
 40
4.999999999999986
  0
LINE
  5
161
330
1F
100
AcDbEntity
  8
0
  6
HIDDEN
 62
     7
370
     0
100
AcDbLine
 10
201.3913310065
 20
109.5578568374
 30
0.0
 11
202.891330321
 21
108.0578575228
 31
0.0
  0
LINE
  5
162
330
1F
100
AcDbEntity
  8
0
  6
HIDDEN
 62
     7
370
     0
100
AcDbLine
 10
209.8913296057
 20
108.0578575228
 30
0.0
 11
211.3913289203
 21
109.5578568374
 31
0.0
  0
LINE
  5
163
330
1F
100
AcDbEntity
  8
0
  6
HIDDEN
 62
     7
370
     0
100
AcDbLine
 10
201.3913310065
 20
119.5798106809
 30
0.0
 11
201.3913310065
 21
109.5578568374
 31
0.0
  0
LINE
  5
164
330
1F
100
AcDbEntity
  8
0
  6
HIDDEN
 62
     7
370
     0
100
AcDbLine
 10
211.3913289203
 20
109.5578568374
 30
0.0
 11
211.3913289203
 21
119.5798106809
 31
0.0
  0
LINE
  5
165
330
1F
100
AcDbEntity
  8
0
  6
HIDDEN
 62
     7
370
     0
100
AcDbLine
 10
211.3913289203
 20
119.5798106809
 30
0.0
 11
210.6531887247
 21
120.0059783031
 31
0.0
  0
LINE
  5
166
330
1F
100
AcDbEntity
  8
0
  6
HIDDEN
 62
     7
370
     0
100
AcDbLine
 10
202.1292700364
 20
120.0058609565
 30
0.0
 11
201.3913310065
 21
119.5798106809
 31
0.0
  0
LINE
  5
167
330
1F
100
AcDbEntity
  8
0
  6
HIDDEN
 62
     7
370
     0
100
AcDbLine
 10
216.8913288905
 20
109.5367353727
 30
0.0
 11
218.3913319303
 21
108.0367351268
 31
0.0
  0
LINE
  5
168
330
1F
100
AcDbEntity
  8
0
  6
HIDDEN
 62
     7
370
     0
100
AcDbLine
 10
225.3913312151
 20
108.0367351268
 30
0.0
 11
226.8913268043
 21
109.5367353727
 31
0.0
  0
LINE
  5
169
330
1F
100
AcDbEntity
  8
0
  6
HIDDEN
 62
     7
370
     0
100
AcDbLine
 10
216.8913288905
 20
119.5586901476
 30
0.0
 11
216.8913288905
 21
109.5367353727
 31
0.0
  0
LINE
  5
16A
330
1F
100
AcDbEntity
  8
0
  6
HIDDEN
 62
     7
370
     0
100
AcDbLine
 10
226.8913268043
 20
109.5367353727
 30
0.0
 11
226.8913268043
 21
119.5586901476
 31
0.0
  0
LINE
  5
16B
330
1F
100
AcDbEntity
  8
0
  6
HIDDEN
 62
     7
370
     0
100
AcDbLine
 10
226.8913268043
 20
119.5586901476
 30
0.0
 11
226.1264800026
 21
120.0002767463
 31
0.0
  0
LINE
  5
16C
330
1F
100
AcDbEntity
  8
0
  6
HIDDEN
 62
     7
370
     0
100
AcDbLine
 10
217.6561421646
 20
120.0002525319
 30
0.0
 11
216.8913288905
 21
119.5586901476
 31
0.0
  0
LINE
  5
16D
330
1F
100
AcDbEntity
  8
0
  6
HIDDEN
 62
     7
370
     0
100
AcDbLine
 10
162.3913302018
 20
83.8506557365
 30
0.0
 11
162.4854909741
 21
84.5206454714
 31
0.0
  0
LINE
  5
16E
330
1F
100
AcDbEntity
  8
0
  6
HIDDEN
 62
     7
370
     0
100
AcDbLine
 10
162.4854909741
 20
115.5950688143
 30
0.0
 11
162.3913302018
 21
116.2650585492
 31
0.0
  0
ARC
  5
16F
330
1F
100
AcDbEntity
  8
0
  6
HIDDEN
 62
     7
370
     0
100
AcDbCircle
 10
161.8913234491
 20
84.6041499894
 30
0.0
 40
0.6000067526677242
100
AcDbArc
 50
352.0
 51
0.0
  0
ARC
  5
170
330
1F
100
AcDbEntity
  8
0
  6
HIDDEN
 62
     7
370
     0
100
AcDbCircle
 10
161.8913234491
 20
84.6041499894
 30
0.0
 40
0.6000067526677361
100
AcDbArc
 50
0.0
 51
33.5571153394
  0
ARC
  5
171
330
1F
100
AcDbEntity
  8
0
  6
HIDDEN
 62
     7
370
     0
100
AcDbCircle
 10
161.8913234491
 20
115.5115642963
 30
0.0
 40
0.6000067526677062
100
AcDbArc
 50
348.75
 51
8.0
  0
LWPOLYLINE
  5
172
330
1F
100
AcDbEntity
  8
0
  6
HIDDEN
 62
     7
370
     0
100
AcDbPolyline
 90
        3
 70
   128
 43
0.0
 10
162.4798012407
 20
115.3945084979
 10
162.445657409
 20
115.2819516455
 10
162.3913302018
 20
115.1799001117
  0
LINE
  5
173
330
1F
100
AcDbEntity
  8
0
  6
HIDDEN
 62
     7
370
     0
100
AcDbLine
 10
162.4913301993
 20
84.6041497161
 30
0.0
 11
162.4913301993
 21
115.5115645696
 31
0.0
  0
ARC
  5
174
330
1F
100
AcDbEntity
  8
0
  6
HIDDEN
 62
     7
370
     0
100
AcDbCircle
 10
151.923958146
 20
87.7078571429
 30
0.0
 40
0.3999999999999927
100
AcDbArc
 50
210.0
 51
270.0
  0
ARC
  5
175
330
1F
100
AcDbEntity
  8
0
  6
HIDDEN
 62
     7
370
     0
100
AcDbCircle
 10
151.923958146
 20
112.4078571429
 30
0.0
 40
0.4000000000000057
100
AcDbArc
 50
90.0
 51
150.0
  0
LINE
  5
176
330
1F
100
AcDbEntity
  8
0
  6
HIDDEN
 62
     7
370
     0
100
AcDbLine
 10
151.9239582984
 20
87.3078573813
 30
0.0
 11
154.1221049546
 21
87.3078573813
 31
0.0
  0
LINE
  5
177
330
1F
100
AcDbEntity
  8
0
  6
HIDDEN
 62
     7
370
     0
100
AcDbLine
 10
154.1221049546
 20
112.8078569044
 30
0.0
 11
151.9239582984
 21
112.8078569044
 31
0.0
  0
ARC
  5
178
330
1F
100
AcDbEntity
  8
0
  6
HIDDEN
 62
     7
370
     0
100
AcDbCircle
 10
158.2155069297
 20
92.3078571429
 30
0.0
 40
5.00000000000001
100
AcDbArc
 50
275.4117581591
 51
326.6329870308
  0
ARC
  5
179
330
1F
100
AcDbEntity
  8
0
  6
HIDDEN
 62
     7
370
     0
100
AcDbCircle
 10
158.2155069297
 20
107.8078571429
 30
0.0
 40
5.00000000000001
100
AcDbArc
 50
33.3670129692
 51
84.5920393934
  0
LINE
  5
17A
330
1F
100
AcDbEntity
  8
0
  6
HIDDEN
 62
     7
370
     0
100
AcDbLine
 10
151.5775482102
 20
112.6078572442
 30
0.0
 11
150.3939797102
 21
110.5578570013
 31
0.0
  0
LINE
  5
17B
330
1F
100
AcDbEntity
  8
0
  6
HIDDEN
 62
     7
370
     0
100
AcDbLine
 10
150.3939797102
 20
89.5578572844
 30
0.0
 11
151.5775482102
 21
87.5078570415
 31
0.0
  0
ARC
  5
17C
330
1F
100
AcDbEntity
  8
0
  6
HIDDEN
 62
     7
370
     0
100
AcDbCircle
 10
169.3413302018
 20
90.1828571429
 30
0.0
 40
1.0
100
AcDbArc
 50
218.6821874535
 51
0.0
  0
ARC
  5
17D
330
1F
100
AcDbEntity
  8
0
  6
HIDDEN
 62
     7
370
     0
100
AcDbCircle
 10
169.3413302018
 20
109.9328571429
 30
0.0
 40
1.0
100
AcDbArc
 50
0.0
 51
141.3178125465
  0
LINE
  5
17E
330
1F
100
AcDbEntity
  8
0
  6
HIDDEN
 62
     7
370
     0
100
AcDbLine
 10
148.5913303612
 20
89.5578572844
 30
0.0
 11
150.3939797102
 21
89.5578572844
 31
0.0
  0
LINE
  5
17F
330
1F
100
AcDbEntity
  8
0
  6
HIDDEN
 62
     7
370
     0
100
AcDbLine
 10
150.3939797102
 20
110.5578570013
 30
0.0
 11
146.0913299514
 21
110.5578570013
 31
0.0
  0
LINE
  5
180
330
1F
100
AcDbEntity
  8
0
  6
HIDDEN
 62
     7
370
     0
100
AcDbLine
 10
162.3913302018
 20
89.5578572844
 30
0.0
 11
168.560705234
 21
89.5578572844
 31
0.0
  0
LINE
  5
181
330
1F
100
AcDbEntity
  8
0
  6
HIDDEN
 62
     7
370
     0
100
AcDbLine
 10
168.560705234
 20
110.5578570013
 30
0.0
 11
162.3913302018
 21
110.5578570013
 31
0.0
  0
ARC
  5
182
330
1F
100
AcDbEntity
  8
0
  6
HIDDEN
 62
     7
370
     0
100
AcDbCircle
 10
181.7913302018
 20
107.9578571429
 30
0.0
 40
0.4000000000000057
100
AcDbArc
 50
90.0
 51
180.0
  0
ARC
  5
183
330
1F
100
AcDbEntity
  8
0
  6
HIDDEN
 62
     7
370
     0
100
AcDbCircle
 10
181.7913302018
 20
92.1578571429
 30
0.0
 40
0.4000000000000057
100
AcDbArc
 50
180.0
 51
270.0
  0
ARC
  5
184
330
1F
100
AcDbEntity
  8
0
  6
HIDDEN
 62
     7
370
     0
100
AcDbCircle
 10
232.0913302018
 20
108.3578571429
 30
0.0
 40
0.3000000000000114
100
AcDbArc
 50
270.0
 51
0.0
  0
ARC
  5
185
330
1F
100
AcDbEntity
  8
0
  6
HIDDEN
 62
     7
370
     0
100
AcDbCircle
 10
232.0913302018
 20
91.7578571429
 30
0.0
 40
0.3000000000000114
100
AcDbArc
 50
0.0
 51
90.0
  0
LINE
  5
186
330
1F
100
AcDbEntity
  8
0
  6
HIDDEN
 62
     7
370
     0
100
AcDbLine
 10
184.5670874162
 20
91.7578572725
 30
0.0
 11
185.3913302465
 21
92.0578567629
 31
0.0
  0
LINE
  5
187
330
1F
100
AcDbEntity
  8
0
  6
HIDDEN
 62
     7
370
     0
100
AcDbLine
 10
185.3913302465
 20
108.0578575228
 30
0.0
 11
184.5670874162
 21
108.3578570132
 31
0.0
  0
LINE
  5
188
330
1F
100
AcDbEntity
  8
0
  6
HIDDEN
 62
     7
370
     0
100
AcDbLine
 10
184.5670874162
 20
108.3578570132
 30
0.0
 11
181.791330774
 21
108.3578570132
 31
0.0
  0
LINE
  5
189
330
1F
100
AcDbEntity
  8
0
  6
HIDDEN
 62
     7
370
     0
100
AcDbLine
 10
181.791330774
 20
91.7578572725
 30
0.0
 11
184.5670874162
 21
91.7578572725
 31
0.0
  0
LINE
  5
18A
330
1F
100
AcDbEntity
  8
0
  6
HIDDEN
 62
     7
370
     0
100
AcDbLine
 10
201.9040687873
 20
108.0578575228
 30
0.0
 11
185.3913302465
 21
108.0578575228
 31
0.0
  0
LINE
  5
18B
330
1F
100
AcDbEntity
  8
0
  6
HIDDEN
 62
     7
370
     0
100
AcDbLine
 10
217.4040666713
 20
108.0578575228
 30
0.0
 11
210.8759685351
 21
108.0578575228
 31
0.0
  0
LINE
  5
18C
330
1F
100
AcDbEntity
  8
0
  6
HIDDEN
 62
     7
370
     0
100
AcDbLine
 10
232.0913328721
 20
108.0578575228
 30
0.0
 11
226.3759701444
 21
108.0578575228
 31
0.0
  0
LINE
  5
18D
330
1F
100
AcDbEntity
  8
0
  6
HIDDEN
 62
     7
370
     0
100
AcDbLine
 10
185.3913302465
 20
92.0578567629
 30
0.0
 11
232.0913328721
 21
92.0578567629
 31
0.0
  0
LINE
  5
18E
330
1F
100
AcDbEntity
  8
0
  6
HIDDEN
 62
     7
370
     0
100
AcDbLine
 10
175.6913299604
 20
93.8078570497
 30
0.0
 11
178.1913294388
 21
93.8078570497
 31
0.0
  0
LINE
  5
18F
330
1F
100
AcDbEntity
  8
0
  6
HIDDEN
 62
     7
370
     0
100
AcDbLine
 10
178.1913294388
 20
106.307857236
 30
0.0
 11
175.6913299604
 21
106.307857236
 31
0.0
  0
LINE
  5
190
330
1F
100
AcDbEntity
  8
0
  6
HIDDEN
 62
     7
370
     0
100
AcDbLine
 10
170.3413306667
 20
94.0578570907
 30
0.0
 11
170.8413298173
 21
94.5578571727
 31
0.0
  0
LINE
  5
191
330
1F
100
AcDbEntity
  8
0
  6
HIDDEN
 62
     7
370
     0
100
AcDbLine
 10
170.8413298173
 20
105.5578571131
 30
0.0
 11
170.3413306667
 21
106.057857195
 31
0.0
  0
LINE
  5
192
330
1F
100
AcDbEntity
  8
0
  6
HIDDEN
 62
     7
370
     0
100
AcDbLine
 10
170.8413298173
 20
94.5578571727
 30
0.0
 11
175.6913299604
 21
94.5578571727
 31
0.0
  0
LINE
  5
193
330
1F
100
AcDbEntity
  8
0
  6
HIDDEN
 62
     7
370
     0
100
AcDbLine
 10
175.6913299604
 20
105.5578571131
 30
0.0
 11
170.8413298173
 21
105.5578571131
 31
0.0
  0
LINE
  5
194
330
1F
100
AcDbEntity
  8
0
  6
HIDDEN
 62
     7
370
     0
100
AcDbLine
 10
201.8913320197
 20
120.0578566958
 30
0.0
 11
201.8913320197
 21
108.05071521
 31
0.0
  0
LINE
  5
195
330
1F
100
AcDbEntity
  8
0
  6
HIDDEN
 62
     7
370
     0
100
AcDbLine
 10
210.8913316323
 20
108.0492278879
 30
0.0
 11
210.8913316323
 21
120.0578566958
 31
0.0
  0
LINE
  5
196
330
1F
100
AcDbEntity
  8
0
  6
HIDDEN
 62
     7
370
     0
100
AcDbLine
 10
170.3413306667
 20
120.0578566958
 30
0.0
 11
170.3413306667
 21
116.957856374
 31
0.0
  0
LINE
  5
197
330
1F
100
AcDbEntity
  8
0
  6
HIDDEN
 62
     7
370
     0
100
AcDbLine
 10
217.3913299038
 20
120.0578566958
 30
0.0
 11
217.3913299038
 21
108.05071521
 31
0.0
  0
LINE
  5
198
330
1F
100
AcDbEntity
  8
0
  6
HIDDEN
 62
     7
370
     0
100
AcDbLine
 10
226.3913332416
 20
108.0492278879
 30
0.0
 11
226.3913332416
 21
120.0578566958
 31
0.0
  0
LINE
  5
199
330
1F
100
AcDbEntity
  8
0
  6
HIDDEN
 62
     7
370
     0
100
AcDbLine
 10
159.1585095438
 20
85.0165523906
 30
0.0
 11
158.6905809517
 21
85.5123894607
 31
0.0
  0
LINE
  5
19A
330
1F
100
AcDbEntity
  8
0
  6
HIDDEN
 62
     7
370
     0
100
AcDbLine
 10
154.0926760925
 20
85.7922425811
 30
0.0
 11
153.5752025364
 21
85.2964176183
 31
0.0
  0
LINE
  5
19B
330
1F
100
AcDbEntity
  8
0
  6
HIDDEN
 62
     7
370
     0
100
AcDbLine
 10
153.5745683058
 20
114.8193469589
 30
0.0
 11
154.0922542034
 21
114.3234595974
 31
0.0
  0
LINE
  5
19C
330
1F
100
AcDbEntity
  8
0
  6
HIDDEN
 62
     7
370
     0
100
AcDbLine
 10
158.6898950326
 20
114.6031068956
 30
0.0
 11
159.1577989446
 21
115.0990007763
 31
0.0
  0
LINE
  5
19D
330
1F
100
AcDbEntity
  8
0
  6
HIDDEN
 62
     7
370
     0
100
AcDbLine
 10
178.1913294388
 20
97.5578571987
 30
0.0
 11
181.3913295908
 21
97.5578571987
 31
0.0
  0
LINE
  5
19E
330
1F
100
AcDbEntity
  8
0
  6
HIDDEN
 62
     7
370
     0
100
AcDbLine
 10
181.3913295908
 20
102.557857087
 30
0.0
 11
178.1913294388
 21
102.557857087
 31
0.0
  0
LINE
  5
19F
330
1F
100
AcDbEntity
  8
0
  6
HIDDEN
 62
     7
370
     0
100
AcDbLine
 10
158.6913302007
 20
85.5244445001
 30
0.0
 11
158.6913302007
 21
87.3310026099
 31
0.0
  0
LINE
  5
1A0
330
1F
100
AcDbEntity
  8
0
  6
HIDDEN
 62
     7
370
     0
100
AcDbLine
 10
154.0913303314
 20
87.313359635
 30
0.0
 11
154.0913303314
 21
85.7992489208
 31
0.0
  0
LINE
  5
1A1
330
1F
100
AcDbEntity
  8
0
  6
HIDDEN
 62
     7
370
     0
100
AcDbLine
 10
158.6913302007
 20
112.7847116758
 30
0.0
 11
158.6913302007
 21
114.6028964167
 31
0.0
  0
LINE
  5
1A2
330
1F
100
AcDbEntity
  8
0
  6
HIDDEN
 62
     7
370
     0
100
AcDbLine
 10
154.0913303314
 20
114.3223541175
 30
0.0
 11
154.0913303314
 21
112.8023546507
 31
0.0
  0
DIMENSION
  5
1A3
330
1F
100
AcDbEntity
  8
VERMASSUNG
100
AcDbDimension
  2
_D
 10
237.3321901292
 20
92.0578571429
 30
0.0
 11
237.3321901292
 21
100.0578571429
 31
0.0
 70
   160
  1
%%c<>
 71
     2
 42
-1.0
  3
SLDDIMSTYLE0
100
AcDbAlignedDimension
 13
232.0913302018
 23
108.0578571429
 33
0.0
 14
232.0913302018
 24
92.0578571429
 34
0.0
 50
90.0
100
AcDbRotatedDimension
  0
DIMENSION
  5
1AF
330
1F
100
AcDbEntity
  8
VERMASSUNG
100
AcDbDimension
  2
_D_1
 10
243.3321901292
 20
80.0578571429
 30
0.0
 11
243.3321901292
 21
100.0578571429
 31
0.0
 70
   160
  1
%%c<>
 71
     2
 42
-1.0
  3
SLDDIMSTYLE0
100
AcDbAlignedDimension
 13
231.3913302018
 23
120.0578571429
 33
0.0
 14
231.3913302018
 24
80.0578571429
 34
0.0
 50
90.0
100
AcDbRotatedDimension
  0
DIMENSION
  5
1BA
330
1F
100
AcDbEntity
  8
VERMASSUNG
100
AcDbDimension
  2
_D_2
 10
138.1160648209
 20
80.0578571429
 30
0.0
 11
138.1160648209
 21
100.0578571429
 31
0.0
 70
   160
  1
HSK %%c<>
 71
     2
 42
-1.0
  3
SLDDIMSTYLE0
100
AcDbAlignedDimension
 13
162.6913302018
 23
120.0578571429
 33
0.0
 14
162.6913302018
 24
80.0578571429
 34
0.0
 50
90.0
100
AcDbRotatedDimension
  0
DIMENSION
  5
1C6
330
1F
100
AcDbEntity
  8
VERMASSUNG
100
AcDbDimension
  2
_D_3
 10
232.3913302018
 20
137.5190769213
 30
0.0
 11
187.4413302018
 21
137.5190769213
 31
0.0
 70
   160
  1
<>
 71
     2
 42
-1.0
  3
SLDDIMSTYLE0
100
AcDbAlignedDimension
 13
142.4913302018
 23
111.9878571429
 33
0.0
 14
232.3913302018
 24
119.0578571429
 34
0.0
100
AcDbRotatedDimension
  0
DIMENSION
  5
1D0
330
1F
100
AcDbEntity
  8
VERMASSUNG
100
AcDbDimension
  2
_D_4
 10
232.3913302018
 20
131.5190769213
 30
0.0
 11
197.3913302018
 21
131.5190769213
 31
0.0
 70
   160
  1
<>
 71
     2
 42
-1.0
  3
SLDDIMSTYLE0
100
AcDbAlignedDimension
 13
162.3913302018
 23
119.7578571429
 33
0.0
 14
232.3913302018
 24
119.0578571429
 34
0.0
100
AcDbRotatedDimension
  0
DIMENSION
  5
1DA
330
1F
100
AcDbEntity
  8
VERMASSUNG
100
AcDbDimension
  2
_D_5
 10
232.3913302018
 20
125.5190769213
 30
0.0
 11
207.3663302018
 21
125.5190769213
 31
0.0
 70
   160
  1
<>
 71
     2
 42
-1.0
  3
SLDDIMSTYLE0
100
AcDbAlignedDimension
 13
182.3413302018
 23
115.4181143022
 33
0.0
 14
232.3913302018
 24
119.0578571429
 34
0.0
100
AcDbRotatedDimension
  0
DIMENSION
  5
1E4
330
1F
100
AcDbEntity
  8
VERMASSUNG
100
AcDbDimension
  2
_D_6
 10
197.3913302018
 20
68.1813155656
 30
0.0
 11
214.8913302018
 21
68.1813155656
 31
0.0
 70
   160
  1
<>
 71
     2
 42
-1.0
  3
SLDDIMSTYLE0
100
AcDbAlignedDimension
 13
232.3913302018
 23
81.0578571429
 33
0.0
 14
197.3913302018
 24
81.0578571429
 34
0.0
100
AcDbRotatedDimension
  0
DIMENSION
  5
1EE
330
1F
100
AcDbEntity
  8
VERMASSUNG
100
AcDbDimension
  2
_D_7
 10
221.8913302018
 20
72.8013235719
 30
0.0
 11
227.1413302018
 21
72.8013235719
 31
0.0
 70
   160
  1
<>
 71
     2
 42
-1.0
  3
SLDDIMSTYLE0
100
AcDbAlignedDimension
 13
232.3913302018
 23
81.0578571429
 33
0.0
 14
221.8913302018
 24
104.6722652546
 34
0.0
100
AcDbRotatedDimension
  0
DIMENSION
  5
1F8
330
1F
100
AcDbEntity
  8
VERMASSUNG
100
AcDbDimension
  2
_D_8
 10
206.3913302018
 20
72.8013235719
 30
0.0
 11
214.1413302018
 21
72.8013235719
 31
0.0
 70
   160
  1
<>
 71
     2
 42
-1.0
  3
SLDDIMSTYLE0
100
AcDbAlignedDimension
 13
221.8913302018
 23
104.6722652546
 33
0.0
 14
206.3913302018
 24
104.6722652546
 34
0.0
100
AcDbRotatedDimension
  0
LINE
  5
202
330
1F
100
AcDbEntity
  8
VERMASSUNG
  6
CENTERX2
370
     0
100
AcDbLine
 10
221.8913302018
 20
104.6722652546
 30
0.0
 11
221.8913302018
 21
121.5450325034
 31
0.0
  0
LINE
  5
203
330
1F
100
AcDbEntity
  8
VERMASSUNG
  6
CENTERX2
370
     0
100
AcDbLine
 10
206.3913302018
 20
104.6722652546
 30
0.0
 11
206.3913302018
 21
121.5450325034
 31
0.0
  0
LINE
  5
204
330
1F
100
AcDbEntity
  8
VERMASSUNG
  6
CENTERX2
370
     0
100
AcDbLine
 10
139.7060753585
 20
100.0578571429
 30
0.0
 11
233.2604096847
 21
100.0578571429
 31
0.0
  0
LINE
  5
205
330
1F
100
AcDbEntity
  8
0
  6
Continuous
 62
     7
370
    15
100
AcDbLine
 10
78.2992856025
 20
119.5798106809
 30
0.0
 11
77.471285817
 21
120.0578566958
 31
0.0
  0
LINE
  5
206
330
1F
100
AcDbEntity
  8
0
  6
Continuous
 62
     7
370
    15
100
AcDbLine
 10
69.1272856116
 20
120.0578566958
 30
0.0
 11
68.299285826
 21
119.5798106809
 31
0.0
  0
LINE
  5
207
330
1F
100
AcDbEntity
  8
0
  6
Continuous
 62
     7
370
    15
100
AcDbLine
 10
68.299285826
 20
119.5798106809
 30
0.0
 11
68.299285826
 21
119.5586901476
 31
0.0
  0
LINE
  5
208
330
1F
100
AcDbEntity
  8
0
  6
Continuous
 62
     7
370
    15
100
AcDbLine
 10
78.2992856025
 20
119.5586901476
 30
0.0
 11
78.2992856025
 21
119.5798106809
 31
0.0
  0
LINE
  5
209
330
1F
100
AcDbEntity
  8
0
  6
Continuous
 62
     7
370
    15
100
AcDbLine
 10
92.8212392523
 20
105.0578570311
 30
0.0
 11
92.800118719
 21
105.0578570311
 31
0.0
  0
LINE
  5
20A
330
1F
100
AcDbEntity
  8
0
  6
Continuous
 62
     7
370
    15
100
AcDbLine
 10
92.800118719
 20
95.0578572546
 30
0.0
 11
92.8212392523
 21
95.0578572546
 31
0.0
  0
LINE
  5
20B
330
1F
100
AcDbEntity
  8
0
  6
Continuous
 62
     7
370
    15
100
AcDbLine
 10
92.8212392523
 20
95.0578572546
 30
0.0
 11
93.2992852673
 21
95.8858570402
 31
0.0
  0
LINE
  5
20C
330
1F
100
AcDbEntity
  8
0
  6
Continuous
 62
     7
370
    15
100
AcDbLine
 10
93.2992852673
 20
104.2298572456
 30
0.0
 11
92.8212392523
 21
105.0578570311
 31
0.0
  0
LINE
  5
20D
330
1F
100
AcDbEntity
  8
0
  6
Continuous
 62
     7
370
    15
100
AcDbLine
 10
92.800118719
 20
105.0578570311
 30
0.0
 11
92.6642033651
 21
105.0578570311
 31
0.0
  0
LINE
  5
20E
330
1F
100
AcDbEntity
  8
0
  6
Continuous
 62
     7
370
    15
100
AcDbLine
 10
92.6642033651
 20
95.0578572546
 30
0.0
 11
92.800118719
 21
95.0578572546
 31
0.0
  0
LINE
  5
20F
330
1F
100
AcDbEntity
  8
0
  6
Continuous
 62
     7
370
    15
100
AcDbLine
 10
92.800118719
 20
95.0578572546
 30
0.0
 11
93.2781647339
 21
95.8858570402
 31
0.0
  0
LINE
  5
210
330
1F
100
AcDbEntity
  8
0
  6
Continuous
 62
     7
370
    15
100
AcDbLine
 10
93.2781647339
 20
104.2298572456
 30
0.0
 11
92.800118719
 21
105.0578570311
 31
0.0
  0
LINE
  5
211
330
1F
100
AcDbEntity
  8
0
  6
Continuous
 62
     7
370
    15
100
AcDbLine
 10
78.2992856025
 20
119.5586901476
 30
0.0
 11
77.471285817
 21
120.0367361625
 31
0.0
  0
LINE
  5
212
330
1F
100
AcDbEntity
  8
0
  6
Continuous
 62
     7
370
    15
100
AcDbLine
 10
69.1272856116
 20
120.0367361625
 30
0.0
 11
68.299285826
 21
119.5586901476
 31
0.0
  0
LINE
  5
213
330
1F
100
AcDbEntity
  8
0
  6
Continuous
 62
     7
370
    15
100
AcDbLine
 10
68.299285826
 20
119.5586901476
 30
0.0
 11
68.299285826
 21
119.4227747937
 31
0.0
  0
LINE
  5
214
330
1F
100
AcDbEntity
  8
0
  6
Continuous
 62
     7
370
    15
100
AcDbLine
 10
78.2992856025
 20
119.4227747937
 30
0.0
 11
78.2992856025
 21
119.5586901476
 31
0.0
  0
LINE
  5
215
330
1F
100
AcDbEntity
  8
0
  6
Continuous
 62
     7
370
    15
100
AcDbLine
 10
53.7773321762
 20
95.0578572546
 30
0.0
 11
53.7984527096
 21
95.0578572546
 31
0.0
  0
LINE
  5
216
330
1F
100
AcDbEntity
  8
0
  6
Continuous
 62
     7
370
    15
100
AcDbLine
 10
53.7984527096
 20
105.0578570311
 30
0.0
 11
53.7773321762
 21
105.0578570311
 31
0.0
  0
LINE
  5
217
330
1F
100
AcDbEntity
  8
0
  6
Continuous
 62
     7
370
    15
100
AcDbLine
 10
53.7773321762
 20
105.0578570311
 30
0.0
 11
53.2992861613
 21
104.2298572456
 31
0.0
  0
LINE
  5
218
330
1F
100
AcDbEntity
  8
0
  6
Continuous
 62
     7
370
    15
100
AcDbLine
 10
53.2992861613
 20
95.8858570402
 30
0.0
 11
53.7773321762
 21
95.0578572546
 31
0.0
  0
LINE
  5
219
330
1F
100
AcDbEntity
  8
0
  6
Continuous
 62
     7
370
    15
100
AcDbLine
 10
53.7984527096
 20
95.0578572546
 30
0.0
 11
53.9343680635
 21
95.0578572546
 31
0.0
  0
LINE
  5
21A
330
1F
100
AcDbEntity
  8
0
  6
Continuous
 62
     7
370
    15
100
AcDbLine
 10
53.9343680635
 20
105.0578570311
 30
0.0
 11
53.7984527096
 21
105.0578570311
 31
0.0
  0
LINE
  5
21B
330
1F
100
AcDbEntity
  8
0
  6
Continuous
 62
     7
370
    15
100
AcDbLine
 10
53.7984527096
 20
105.0578570311
 30
0.0
 11
53.3204066947
 21
104.2298572456
 31
0.0
  0
LINE
  5
21C
330
1F
100
AcDbEntity
  8
0
  6
Continuous
 62
     7
370
    15
100
AcDbLine
 10
53.3204066947
 20
95.8858570402
 30
0.0
 11
53.7984527096
 21
95.0578572546
 31
0.0
  0
LINE
  5
21D
330
1F
100
AcDbEntity
  8
0
  6
Continuous
 62
     7
370
    15
100
AcDbLine
 10
69.1272856116
 20
120.0578566958
 30
0.0
 11
77.471285817
 21
120.0578566958
 31
0.0
  0
LINE
  5
21E
330
1F
100
AcDbEntity
  8
0
  6
Continuous
 62
     7
370
    15
100
AcDbLine
 10
68.299285826
 20
119.5798106809
 30
0.0
 11
68.3358695738
 21
119.5798106809
 31
0.0
  0
LINE
  5
21F
330
1F
100
AcDbEntity
  8
0
  6
Continuous
 62
     7
370
    15
100
AcDbLine
 10
78.2627018548
 20
119.5798106809
 30
0.0
 11
78.2992856025
 21
119.5798106809
 31
0.0
  0
LINE
  5
220
330
1F
100
AcDbEntity
  8
0
  6
Continuous
 62
     7
370
    15
100
AcDbLine
 10
92.8212392523
 20
105.0578570311
 30
0.0
 11
92.8212392523
 21
105.0212732834
 31
0.0
  0
LINE
  5
221
330
1F
100
AcDbEntity
  8
0
  6
Continuous
 62
     7
370
    15
100
AcDbLine
 10
92.8212392523
 20
95.0944410023
 30
0.0
 11
92.8212392523
 21
95.0578572546
 31
0.0
  0
LINE
  5
222
330
1F
100
AcDbEntity
  8
0
  6
Continuous
 62
     7
370
    15
100
AcDbLine
 10
93.2992852673
 20
104.2298572456
 30
0.0
 11
93.2992852673
 21
95.8858570402
 31
0.0
  0
LINE
  5
223
330
1F
100
AcDbEntity
  8
0
  6
Continuous
 62
     7
370
    15
100
AcDbLine
 10
92.800118719
 20
104.9585510363
 30
0.0
 11
92.800118719
 21
104.4983011988
 31
0.0
  0
LINE
  5
224
330
1F
100
AcDbEntity
  8
0
  6
Continuous
 62
     7
370
    15
100
AcDbLine
 10
92.800118719
 20
95.6174130869
 30
0.0
 11
92.800118719
 21
95.0578572546
 31
0.0
  0
LINE
  5
225
330
1F
100
AcDbEntity
  8
0
  6
Continuous
 62
     7
370
    15
100
AcDbLine
 10
92.800118719
 20
105.0578570311
 30
0.0
 11
92.800118719
 21
104.9585510363
 31
0.0
  0
LINE
  5
226
330
1F
100
AcDbEntity
  8
0
  6
Continuous
 62
     7
370
    15
100
AcDbLine
 10
93.2781647339
 20
104.1469960791
 30
0.0
 11
93.2781647339
 21
100.9767840468
 31
0.0
  0
LINE
  5
227
330
1F
100
AcDbEntity
  8
0
  6
Continuous
 62
     7
370
    15
100
AcDbLine
 10
93.2781647339
 20
99.1389302389
 30
0.0
 11
93.2781647339
 21
95.8858570402
 31
0.0
  0
LINE
  5
228
330
1F
100
AcDbEntity
  8
0
  6
Continuous
 62
     7
370
    15
100
AcDbLine
 10
93.2781647339
 20
104.2298572456
 30
0.0
 11
93.2781647339
 21
104.1469960791
 31
0.0
  0
LINE
  5
229
330
1F
100
AcDbEntity
  8
0
  6
Continuous
 62
     7
370
    15
100
AcDbLine
 10
81.2781636983
 20
100.6388072009
 30
0.0
 11
81.2781636983
 21
99.4769070848
 31
0.0
  0
LINE
  5
22A
330
1F
100
AcDbEntity
  8
0
  6
Continuous
 62
     7
370
    15
100
AcDbLine
 10
72.7183356562
 20
108.0367351268
 30
0.0
 11
73.8802357724
 21
108.0367351268
 31
0.0
  0
LINE
  5
22B
330
1F
100
AcDbEntity
  8
0
  6
Continuous
 62
     7
370
    15
100
AcDbLine
 10
69.210146778
 20
120.0367361625
 30
0.0
 11
72.424839766
 21
120.0367361625
 31
0.0
  0
LINE
  5
22C
330
1F
100
AcDbEntity
  8
0
  6
Continuous
 62
     7
370
    15
100
AcDbLine
 10
74.2182126183
 20
120.0367361625
 30
0.0
 11
77.471285817
 21
120.0367361625
 31
0.0
  0
LINE
  5
22D
330
1F
100
AcDbEntity
  8
0
  6
Continuous
 62
     7
370
    15
100
AcDbLine
 10
69.1272856116
 20
120.0367361625
 30
0.0
 11
69.210146778
 21
120.0367361625
 31
0.0
  0
LINE
  5
22E
330
1F
100
AcDbEntity
  8
0
  6
Continuous
 62
     7
370
    15
100
AcDbLine
 10
68.3985918209
 20
119.5586901476
 30
0.0
 11
68.8588416583
 21
119.5586901476
 31
0.0
  0
LINE
  5
22F
330
1F
100
AcDbEntity
  8
0
  6
Continuous
 62
     7
370
    15
100
AcDbLine
 10
77.7397297702
 20
119.5586901476
 30
0.0
 11
78.2992856025
 21
119.5586901476
 31
0.0
  0
LINE
  5
230
330
1F
100
AcDbEntity
  8
0
  6
Continuous
 62
     7
370
    15
100
AcDbLine
 10
68.299285826
 20
119.5586901476
 30
0.0
 11
68.3985918209
 21
119.5586901476
 31
0.0
  0
LINE
  5
231
330
1F
100
AcDbEntity
  8
0
  6
Continuous
 62
     7
370
    15
100
AcDbLine
 10
53.7773321762
 20
95.0578572546
 30
0.0
 11
53.7773321762
 21
95.0944410023
 31
0.0
  0
LINE
  5
232
330
1F
100
AcDbEntity
  8
0
  6
Continuous
 62
     7
370
    15
100
AcDbLine
 10
53.7773321762
 20
105.0212732834
 30
0.0
 11
53.7773321762
 21
105.0578570311
 31
0.0
  0
LINE
  5
233
330
1F
100
AcDbEntity
  8
0
  6
Continuous
 62
     7
370
    15
100
AcDbLine
 10
53.2992861613
 20
95.8858570402
 30
0.0
 11
53.2992861613
 21
104.2298572456
 31
0.0
  0
LINE
  5
234
330
1F
100
AcDbEntity
  8
0
  6
Continuous
 62
     7
370
    15
100
AcDbLine
 10
53.7984527096
 20
95.1571632494
 30
0.0
 11
53.7984527096
 21
95.6174130869
 31
0.0
  0
LINE
  5
235
330
1F
100
AcDbEntity
  8
0
  6
Continuous
 62
     7
370
    15
100
AcDbLine
 10
53.7984527096
 20
104.4983011988
 30
0.0
 11
53.7984527096
 21
105.0578570311
 31
0.0
  0
LINE
  5
236
330
1F
100
AcDbEntity
  8
0
  6
Continuous
 62
     7
370
    15
100
AcDbLine
 10
53.7984527096
 20
95.0578572546
 30
0.0
 11
53.7984527096
 21
95.1571632494
 31
0.0
  0
LINE
  5
237
330
1F
100
AcDbEntity
  8
0
  6
Continuous
 62
     7
370
    15
100
AcDbLine
 10
65.3204077303
 20
99.4769070848
 30
0.0
 11
65.3204077303
 21
100.6388072009
 31
0.0
  0
LINE
  5
238
330
1F
100
AcDbEntity
  8
0
  6
Continuous
 62
     7
370
    15
100
AcDbLine
 10
53.3204066947
 20
95.9687182066
 30
0.0
 11
53.3204066947
 21
99.1389302389
 31
0.0
  0
LINE
  5
239
330
1F
100
AcDbEntity
  8
0
  6
Continuous
 62
     7
370
    15
100
AcDbLine
 10
53.3204066947
 20
100.9767840468
 30
0.0
 11
53.3204066947
 21
104.2298572456
 31
0.0
  0
LINE
  5
23A
330
1F
100
AcDbEntity
  8
0
  6
Continuous
 62
     7
370
    15
100
AcDbLine
 10
53.3204066947
 20
95.8858570402
 30
0.0
 11
53.3204066947
 21
95.9687182066
 31
0.0
  0
CIRCLE
  5
23B
330
1F
100
AcDbEntity
  8
0
  6
Continuous
 62
     7
370
    15
100
AcDbCircle
 10
73.2992857143
 20
100.0578571429
 30
0.0
 40
20.0
  0
CIRCLE
  5
23C
330
1F
100
AcDbEntity
  8
0
  6
Continuous
 62
     7
370
    15
100
AcDbCircle
 10
73.2992857143
 20
100.0578571429
 30
0.0
 40
7.999999999999986
  0
CIRCLE
  5
23D
330
1F
100
AcDbEntity
  8
0
  6
Continuous
 62
     7
370
    15
100
AcDbCircle
 10
73.2992857143
 20
100.0578571429
 30
0.0
 40
2.5
  0
LINE
  5
23E
330
1F
100
AcDbEntity
  8
0
  6
HIDDEN
 62
     7
370
     0
100
AcDbLine
 10
77.471285817
 20
120.0578566958
 30
0.0
 11
69.1272856116
 21
120.0578566958
 31
0.0
  0
LINE
  5
23F
330
1F
100
AcDbEntity
  8
0
  6
HIDDEN
 62
     7
370
     0
100
AcDbLine
 10
68.3358695738
 20
119.5798106809
 30
0.0
 11
78.2627018548
 21
119.5798106809
 31
0.0
  0
LINE
  5
240
330
1F
100
AcDbEntity
  8
0
  6
HIDDEN
 62
     7
370
     0
100
AcDbLine
 10
78.2992856025
 20
119.5798106809
 30
0.0
 11
68.299285826
 21
119.5798106809
 31
0.0
  0
LINE
  5
241
330
1F
100
AcDbEntity
  8
0
  6
HIDDEN
 62
     7
370
     0
100
AcDbLine
 10
78.2992856025
 20
109.5578568374
 30
0.0
 11
68.299285826
 21
109.5578568374
 31
0.0
  0
LINE
  5
242
330
1F
100
AcDbEntity
  8
0
  6
HIDDEN
 62
     7
370
     0
100
AcDbLine
 10
76.7992858223
 20
108.0578575228
 30
0.0
 11
69.7992856063
 21
108.0578575228
 31
0.0
  0
LINE
  5
243
330
1F
100
AcDbEntity
  8
0
  6
HIDDEN
 62
     7
370
     0
100
AcDbLine
 10
74.7426614312
 20
120.0578566958
 30
0.0
 11
76.1860371481
 21
120.0578566958
 31
0.0
  0
LINE
  5
244
330
1F
100
AcDbEntity
  8
0
  6
HIDDEN
 62
     7
370
     0
100
AcDbLine
 10
74.7426614312
 20
114.057857575
 30
0.0
 11
76.1860371481
 21
114.057857575
 31
0.0
  0
LINE
  5
245
330
1F
100
AcDbEntity
  8
0
  6
HIDDEN
 62
     7
370
     0
100
AcDbLine
 10
71.8559099974
 20
114.057857575
 30
0.0
 11
74.7426614312
 21
114.057857575
 31
0.0
  0
LINE
  5
246
330
1F
100
AcDbEntity
  8
0
  6
HIDDEN
 62
     7
370
     0
100
AcDbLine
 10
74.7426614312
 20
114.057857575
 30
0.0
 11
74.7426614312
 21
120.0578566958
 31
0.0
  0
LINE
  5
247
330
1F
100
AcDbEntity
  8
0
  6
HIDDEN
 62
     7
370
     0
100
AcDbLine
 10
71.8559099974
 20
120.0578566958
 30
0.0
 11
74.7426614312
 21
120.0578566958
 31
0.0
  0
LINE
  5
248
330
1F
100
AcDbEntity
  8
0
  6
HIDDEN
 62
     7
370
     0
100
AcDbLine
 10
71.8559099974
 20
114.057857575
 30
0.0
 11
71.8559099974
 21
120.0578566958
 31
0.0
  0
LINE
  5
249
330
1F
100
AcDbEntity
  8
0
  6
HIDDEN
 62
     7
370
     0
100
AcDbLine
 10
71.8559099974
 20
114.057857575
 30
0.0
 11
70.4125342805
 21
114.057857575
 31
0.0
  0
LINE
  5
24A
330
1F
100
AcDbEntity
  8
0
  6
HIDDEN
 62
     7
370
     0
100
AcDbLine
 10
71.8559099974
 20
120.0578566958
 30
0.0
 11
70.4125342805
 21
120.0578566958
 31
0.0
  0
LINE
  5
24B
330
1F
100
AcDbEntity
  8
0
  6
HIDDEN
 62
     7
370
     0
100
AcDbLine
 10
76.1860371481
 20
114.057857575
 30
0.0
 11
76.1860371481
 21
120.0578566958
 31
0.0
  0
LINE
  5
24C
330
1F
100
AcDbEntity
  8
0
  6
HIDDEN
 62
     7
370
     0
100
AcDbLine
 10
70.4125342805
 20
114.057857575
 30
0.0
 11
70.4125342805
 21
120.0578566958
 31
0.0
  0
LINE
  5
24D
330
1F
100
AcDbEntity
  8
0
  6
HIDDEN
 62
     7
370
     0
100
AcDbLine
 10
92.8212392523
 20
105.0212732834
 30
0.0
 11
92.8212392523
 21
95.0944410023
 31
0.0
  0
LINE
  5
24E
330
1F
100
AcDbEntity
  8
0
  6
HIDDEN
 62
     7
370
     0
100
AcDbLine
 10
92.8212392523
 20
95.0578572546
 30
0.0
 11
92.8212392523
 21
105.0578570311
 31
0.0
  0
LINE
  5
24F
330
1F
100
AcDbEntity
  8
0
  6
HIDDEN
 62
     7
370
     0
100
AcDbLine
 10
82.7992854088
 20
95.0578572546
 30
0.0
 11
82.7992854088
 21
105.0578570311
 31
0.0
  0
LINE
  5
250
330
1F
100
AcDbEntity
  8
0
  6
HIDDEN
 62
     7
370
     0
100
AcDbLine
 10
93.2992852673
 20
95.8858570402
 30
0.0
 11
93.2992852673
 21
104.2298572456
 31
0.0
  0
LINE
  5
251
330
1F
100
AcDbEntity
  8
0
  6
HIDDEN
 62
     7
370
     0
100
AcDbLine
 10
81.2992860943
 20
96.5578570348
 30
0.0
 11
81.2992860943
 21
103.5578572509
 31
0.0
  0
LINE
  5
252
330
1F
100
AcDbEntity
  8
0
  6
HIDDEN
 62
     7
370
     0
100
AcDbLine
 10
93.2992852673
 20
98.6144814259
 30
0.0
 11
93.2992852673
 21
97.171105709
 31
0.0
  0
LINE
  5
253
330
1F
100
AcDbEntity
  8
0
  6
HIDDEN
 62
     7
370
     0
100
AcDbLine
 10
87.2992861464
 20
98.6144814259
 30
0.0
 11
93.2992852673
 21
98.6144814259
 31
0.0
  0
LINE
  5
254
330
1F
100
AcDbEntity
  8
0
  6
HIDDEN
 62
     7
370
     0
100
AcDbLine
 10
93.2992852673
 20
101.5012328598
 30
0.0
 11
93.2992852673
 21
98.6144814259
 31
0.0
  0
LINE
  5
255
330
1F
100
AcDbEntity
  8
0
  6
HIDDEN
 62
     7
370
     0
100
AcDbLine
 10
87.2992861464
 20
101.5012328598
 30
0.0
 11
87.2992861464
 21
98.6144814259
 31
0.0
  0
LINE
  5
256
330
1F
100
AcDbEntity
  8
0
  6
HIDDEN
 62
     7
370
     0
100
AcDbLine
 10
87.2992861464
 20
98.6144814259
 30
0.0
 11
87.2992861464
 21
97.171105709
 31
0.0
  0
LINE
  5
257
330
1F
100
AcDbEntity
  8
0
  6
HIDDEN
 62
     7
370
     0
100
AcDbLine
 10
87.2992861464
 20
101.5012328598
 30
0.0
 11
87.2992861464
 21
102.9446085767
 31
0.0
  0
LINE
  5
258
330
1F
100
AcDbEntity
  8
0
  6
HIDDEN
 62
     7
370
     0
100
AcDbLine
 10
87.2992861464
 20
101.5012328598
 30
0.0
 11
93.2992852673
 21
101.5012328598
 31
0.0
  0
LINE
  5
259
330
1F
100
AcDbEntity
  8
0
  6
HIDDEN
 62
     7
370
     0
100
AcDbLine
 10
93.2992852673
 20
101.5012328598
 30
0.0
 11
93.2992852673
 21
102.9446085767
 31
0.0
  0
LINE
  5
25A
330
1F
100
AcDbEntity
  8
0
  6
HIDDEN
 62
     7
370
     0
100
AcDbLine
 10
87.2992861464
 20
97.171105709
 30
0.0
 11
93.2992852673
 21
97.171105709
 31
0.0
  0
LINE
  5
25B
330
1F
100
AcDbEntity
  8
0
  6
HIDDEN
 62
     7
370
     0
100
AcDbLine
 10
87.2992861464
 20
102.9446085767
 30
0.0
 11
93.2992852673
 21
102.9446085767
 31
0.0
  0
LINE
  5
25C
330
1F
100
AcDbEntity
  8
0
  6
HIDDEN
 62
     7
370
     0
100
AcDbLine
 10
92.800118719
 20
104.4983011988
 30
0.0
 11
92.800118719
 21
95.6174130869
 31
0.0
  0
LINE
  5
25D
330
1F
100
AcDbEntity
  8
0
  6
HIDDEN
 62
     7
370
     0
100
AcDbLine
 10
92.800118719
 20
95.0578572546
 30
0.0
 11
92.800118719
 21
105.0578570311
 31
0.0
  0
LINE
  5
25E
330
1F
100
AcDbEntity
  8
0
  6
HIDDEN
 62
     7
370
     0
100
AcDbLine
 10
82.7781639441
 20
105.0578570311
 30
0.0
 11
82.7781639441
 21
95.0578572546
 31
0.0
  0
LINE
  5
25F
330
1F
100
AcDbEntity
  8
0
  6
HIDDEN
 62
     7
370
     0
100
AcDbLine
 10
93.2781647339
 20
100.9767840468
 30
0.0
 11
93.2781647339
 21
99.1389302389
 31
0.0
  0
LINE
  5
260
330
1F
100
AcDbEntity
  8
0
  6
HIDDEN
 62
     7
370
     0
100
AcDbLine
 10
93.2781647339
 20
95.8858570402
 30
0.0
 11
93.2781647339
 21
104.2298572456
 31
0.0
  0
LINE
  5
261
330
1F
100
AcDbEntity
  8
0
  6
HIDDEN
 62
     7
370
     0
100
AcDbLine
 10
81.2781636983
 20
103.4883431011
 30
0.0
 11
81.2781636983
 21
100.6388072009
 31
0.0
  0
LINE
  5
262
330
1F
100
AcDbEntity
  8
0
  6
HIDDEN
 62
     7
370
     0
100
AcDbLine
 10
81.2781636983
 20
103.5578572509
 30
0.0
 11
81.2781636983
 21
96.5578570348
 31
0.0
  0
LINE
  5
263
330
1F
100
AcDbEntity
  8
0
  6
HIDDEN
 62
     7
370
     0
100
AcDbLine
 10
93.2781647339
 20
100.9767840468
 30
0.0
 11
93.2781647339
 21
102.8872742635
 31
0.0
  0
LINE
  5
264
330
1F
100
AcDbEntity
  8
0
  6
HIDDEN
 62
     7
370
     0
100
AcDbLine
 10
87.2781637504
 20
100.9767840468
 30
0.0
 11
87.2781637504
 21
102.8872742635
 31
0.0
  0
LINE
  5
265
330
1F
100
AcDbEntity
  8
0
  6
HIDDEN
 62
     7
370
     0
100
AcDbLine
 10
87.2781637504
 20
100.9767840468
 30
0.0
 11
87.2781637504
 21
98.1473670426
 31
0.0
  0
LINE
  5
266
330
1F
100
AcDbEntity
  8
0
  6
HIDDEN
 62
     7
370
     0
100
AcDbLine
 10
87.2781637504
 20
100.9767840468
 30
0.0
 11
93.2781647339
 21
100.9767840468
 31
0.0
  0
LINE
  5
267
330
1F
100
AcDbEntity
  8
0
  6
HIDDEN
 62
     7
370
     0
100
AcDbLine
 10
93.2781647339
 20
100.9767840468
 30
0.0
 11
93.2781647339
 21
98.1473670426
 31
0.0
  0
LINE
  5
268
330
1F
100
AcDbEntity
  8
0
  6
HIDDEN
 62
     7
370
     0
100
AcDbLine
 10
87.2781637504
 20
98.1473670426
 30
0.0
 11
93.2781647339
 21
98.1473670426
 31
0.0
  0
LINE
  5
269
330
1F
100
AcDbEntity
  8
0
  6
HIDDEN
 62
     7
370
     0
100
AcDbLine
 10
87.2781637504
 20
98.1473670426
 30
0.0
 11
87.2781637504
 21
97.2284400222
 31
0.0
  0
LINE
  5
26A
330
1F
100
AcDbEntity
  8
0
  6
HIDDEN
 62
     7
370
     0
100
AcDbLine
 10
93.2781647339
 20
98.1473670426
 30
0.0
 11
93.2781647339
 21
97.2284400222
 31
0.0
  0
LINE
  5
26B
330
1F
100
AcDbEntity
  8
0
  6
HIDDEN
 62
     7
370
     0
100
AcDbLine
 10
87.2781637504
 20
101.9683472431
 30
0.0
 11
93.2781647339
 21
101.9683472431
 31
0.0
  0
LINE
  5
26C
330
1F
100
AcDbEntity
  8
0
  6
HIDDEN
 62
     7
370
     0
100
AcDbLine
 10
87.2781637504
 20
101.9683472431
 30
0.0
 11
87.2781637504
 21
102.8872742635
 31
0.0
  0
LINE
  5
26D
330
1F
100
AcDbEntity
  8
0
  6
HIDDEN
 62
     7
370
     0
100
AcDbLine
 10
87.2781637504
 20
102.8872742635
 30
0.0
 11
93.2781647339
 21
102.8872742635
 31
0.0
  0
LINE
  5
26E
330
1F
100
AcDbEntity
  8
0
  6
HIDDEN
 62
     7
370
     0
100
AcDbLine
 10
93.2781647339
 20
101.9683472431
 30
0.0
 11
93.2781647339
 21
102.8872742635
 31
0.0
  0
LINE
  5
26F
330
1F
100
AcDbEntity
  8
0
  6
HIDDEN
 62
     7
370
     0
100
AcDbLine
 10
87.2781637504
 20
99.1389302389
 30
0.0
 11
93.2781647339
 21
99.1389302389
 31
0.0
  0
LINE
  5
270
330
1F
100
AcDbEntity
  8
0
  6
HIDDEN
 62
     7
370
     0
100
AcDbLine
 10
87.2781637504
 20
97.2284400222
 30
0.0
 11
93.2781647339
 21
97.2284400222
 31
0.0
  0
LINE
  5
271
330
1F
100
AcDbEntity
  8
0
  6
HIDDEN
 62
     7
370
     0
100
AcDbLine
 10
87.2781637504
 20
99.1389302389
 30
0.0
 11
87.2781637504
 21
97.2284400222
 31
0.0
  0
LINE
  5
272
330
1F
100
AcDbEntity
  8
0
  6
HIDDEN
 62
     7
370
     0
100
AcDbLine
 10
93.2781647339
 20
99.1389302389
 30
0.0
 11
93.2781647339
 21
97.2284400222
 31
0.0
  0
LINE
  5
273
330
1F
100
AcDbEntity
  8
0
  6
HIDDEN
 62
     7
370
     0
100
AcDbLine
 10
87.2781637504
 20
101.9683472431
 30
0.0
 11
87.2781637504
 21
99.1389302389
 31
0.0
  0
LINE
  5
274
330
1F
100
AcDbEntity
  8
0
  6
HIDDEN
 62
     7
370
     0
100
AcDbLine
 10
93.2781647339
 20
101.9683472431
 30
0.0
 11
93.2781647339
 21
99.1389302389
 31
0.0
  0
LINE
  5
275
330
1F
100
AcDbEntity
  8
0
  6
HIDDEN
 62
     7
370
     0
100
AcDbLine
 10
68.299285826
 20
109.5367353727
 30
0.0
 11
78.2992856025
 21
109.5367353727
 31
0.0
  0
LINE
  5
276
330
1F
100
AcDbEntity
  8
0
  6
HIDDEN
 62
     7
370
     0
100
AcDbLine
 10
69.8687997561
 20
108.0367351268
 30
0.0
 11
72.7183356562
 21
108.0367351268
 31
0.0
  0
LINE
  5
277
330
1F
100
AcDbEntity
  8
0
  6
HIDDEN
 62
     7
370
     0
100
AcDbLine
 10
69.7992856063
 20
108.0367351268
 30
0.0
 11
76.7992858223
 21
108.0367351268
 31
0.0
  0
LINE
  5
278
330
1F
100
AcDbEntity
  8
0
  6
HIDDEN
 62
     7
370
     0
100
AcDbLine
 10
72.424839766
 20
120.0367361625
 30
0.0
 11
74.2182126183
 21
120.0367361625
 31
0.0
  0
LINE
  5
279
330
1F
100
AcDbEntity
  8
0
  6
HIDDEN
 62
     7
370
     0
100
AcDbLine
 10
77.471285817
 20
120.0367361625
 30
0.0
 11
69.1272856116
 21
120.0367361625
 31
0.0
  0
LINE
  5
27A
330
1F
100
AcDbEntity
  8
0
  6
HIDDEN
 62
     7
370
     0
100
AcDbLine
 10
68.8588416583
 20
119.5586901476
 30
0.0
 11
77.7397297702
 21
119.5586901476
 31
0.0
  0
LINE
  5
27B
330
1F
100
AcDbEntity
  8
0
  6
HIDDEN
 62
     7
370
     0
100
AcDbLine
 10
78.2992856025
 20
119.5586901476
 30
0.0
 11
68.299285826
 21
119.5586901476
 31
0.0
  0
LINE
  5
27C
330
1F
100
AcDbEntity
  8
0
  6
HIDDEN
 62
     7
370
     0
100
AcDbLine
 10
72.3803588103
 20
120.0367361625
 30
0.0
 11
70.4698685936
 21
120.0367361625
 31
0.0
  0
LINE
  5
27D
330
1F
100
AcDbEntity
  8
0
  6
HIDDEN
 62
     7
370
     0
100
AcDbLine
 10
72.3803588103
 20
114.036735179
 30
0.0
 11
70.4698685936
 21
114.036735179
 31
0.0
  0
LINE
  5
27E
330
1F
100
AcDbEntity
  8
0
  6
HIDDEN
 62
     7
370
     0
100
AcDbLine
 10
72.3803588103
 20
114.036735179
 30
0.0
 11
75.2097758146
 21
114.036735179
 31
0.0
  0
LINE
  5
27F
330
1F
100
AcDbEntity
  8
0
  6
HIDDEN
 62
     7
370
     0
100
AcDbLine
 10
72.3803588103
 20
114.036735179
 30
0.0
 11
72.3803588103
 21
120.0367361625
 31
0.0
  0
LINE
  5
280
330
1F
100
AcDbEntity
  8
0
  6
HIDDEN
 62
     7
370
     0
100
AcDbLine
 10
72.3803588103
 20
120.0367361625
 30
0.0
 11
75.2097758146
 21
120.0367361625
 31
0.0
  0
LINE
  5
281
330
1F
100
AcDbEntity
  8
0
  6
HIDDEN
 62
     7
370
     0
100
AcDbLine
 10
75.2097758146
 20
114.036735179
 30
0.0
 11
75.2097758146
 21
120.0367361625
 31
0.0
  0
LINE
  5
282
330
1F
100
AcDbEntity
  8
0
  6
HIDDEN
 62
     7
370
     0
100
AcDbLine
 10
75.2097758146
 20
114.036735179
 30
0.0
 11
76.128702835
 21
114.036735179
 31
0.0
  0
LINE
  5
283
330
1F
100
AcDbEntity
  8
0
  6
HIDDEN
 62
     7
370
     0
100
AcDbLine
 10
75.2097758146
 20
120.0367361625
 30
0.0
 11
76.128702835
 21
120.0367361625
 31
0.0
  0
LINE
  5
284
330
1F
100
AcDbEntity
  8
0
  6
HIDDEN
 62
     7
370
     0
100
AcDbLine
 10
71.388795614
 20
114.036735179
 30
0.0
 11
71.388795614
 21
120.0367361625
 31
0.0
  0
LINE
  5
285
330
1F
100
AcDbEntity
  8
0
  6
HIDDEN
 62
     7
370
     0
100
AcDbLine
 10
71.388795614
 20
114.036735179
 30
0.0
 11
70.4698685936
 21
114.036735179
 31
0.0
  0
LINE
  5
286
330
1F
100
AcDbEntity
  8
0
  6
HIDDEN
 62
     7
370
     0
100
AcDbLine
 10
70.4698685936
 20
114.036735179
 30
0.0
 11
70.4698685936
 21
120.0367361625
 31
0.0
  0
LINE
  5
287
330
1F
100
AcDbEntity
  8
0
  6
HIDDEN
 62
     7
370
     0
100
AcDbLine
 10
71.388795614
 20
120.0367361625
 30
0.0
 11
70.4698685936
 21
120.0367361625
 31
0.0
  0
LINE
  5
288
330
1F
100
AcDbEntity
  8
0
  6
HIDDEN
 62
     7
370
     0
100
AcDbLine
 10
74.2182126183
 20
114.036735179
 30
0.0
 11
74.2182126183
 21
120.0367361625
 31
0.0
  0
LINE
  5
289
330
1F
100
AcDbEntity
  8
0
  6
HIDDEN
 62
     7
370
     0
100
AcDbLine
 10
76.128702835
 20
114.036735179
 30
0.0
 11
76.128702835
 21
120.0367361625
 31
0.0
  0
LINE
  5
28A
330
1F
100
AcDbEntity
  8
0
  6
HIDDEN
 62
     7
370
     0
100
AcDbLine
 10
74.2182126183
 20
114.036735179
 30
0.0
 11
76.128702835
 21
114.036735179
 31
0.0
  0
LINE
  5
28B
330
1F
100
AcDbEntity
  8
0
  6
HIDDEN
 62
     7
370
     0
100
AcDbLine
 10
74.2182126183
 20
120.0367361625
 30
0.0
 11
76.128702835
 21
120.0367361625
 31
0.0
  0
LINE
  5
28C
330
1F
100
AcDbEntity
  8
0
  6
HIDDEN
 62
     7
370
     0
100
AcDbLine
 10
71.388795614
 20
114.036735179
 30
0.0
 11
74.2182126183
 21
114.036735179
 31
0.0
  0
LINE
  5
28D
330
1F
100
AcDbEntity
  8
0
  6
HIDDEN
 62
     7
370
     0
100
AcDbLine
 10
71.388795614
 20
120.0367361625
 30
0.0
 11
74.2182126183
 21
120.0367361625
 31
0.0
  0
LINE
  5
28E
330
1F
100
AcDbEntity
  8
0
  6
HIDDEN
 62
     7
370
     0
100
AcDbLine
 10
63.7992860198
 20
105.0578570311
 30
0.0
 11
63.7992860198
 21
95.0578572546
 31
0.0
  0
LINE
  5
28F
330
1F
100
AcDbEntity
  8
0
  6
HIDDEN
 62
     7
370
     0
100
AcDbLine
 10
65.2992853343
 20
103.5578572509
 30
0.0
 11
65.2992853343
 21
96.5578570348
 31
0.0
  0
LINE
  5
290
330
1F
100
AcDbEntity
  8
0
  6
HIDDEN
 62
     7
370
     0
100
AcDbLine
 10
53.7773321762
 20
95.0944410023
 30
0.0
 11
53.7773321762
 21
105.0212732834
 31
0.0
  0
LINE
  5
291
330
1F
100
AcDbEntity
  8
0
  6
HIDDEN
 62
     7
370
     0
100
AcDbLine
 10
53.7773321762
 20
105.0578570311
 30
0.0
 11
53.7773321762
 21
95.0578572546
 31
0.0
  0
LINE
  5
292
330
1F
100
AcDbEntity
  8
0
  6
HIDDEN
 62
     7
370
     0
100
AcDbLine
 10
53.2992861613
 20
104.2298572456
 30
0.0
 11
53.2992861613
 21
95.8858570402
 31
0.0
  0
LINE
  5
293
330
1F
100
AcDbEntity
  8
0
  6
HIDDEN
 62
     7
370
     0
100
AcDbLine
 10
59.2992852822
 20
101.5012328598
 30
0.0
 11
59.2992852822
 21
102.9446085767
 31
0.0
  0
LINE
  5
294
330
1F
100
AcDbEntity
  8
0
  6
HIDDEN
 62
     7
370
     0
100
AcDbLine
 10
53.2992861613
 20
101.5012328598
 30
0.0
 11
53.2992861613
 21
102.9446085767
 31
0.0
  0
LINE
  5
295
330
1F
100
AcDbEntity
  8
0
  6
HIDDEN
 62
     7
370
     0
100
AcDbLine
 10
59.2992852822
 20
101.5012328598
 30
0.0
 11
53.2992861613
 21
101.5012328598
 31
0.0
  0
LINE
  5
296
330
1F
100
AcDbEntity
  8
0
  6
HIDDEN
 62
     7
370
     0
100
AcDbLine
 10
59.2992852822
 20
98.6144814259
 30
0.0
 11
59.2992852822
 21
101.5012328598
 31
0.0
  0
LINE
  5
297
330
1F
100
AcDbEntity
  8
0
  6
HIDDEN
 62
     7
370
     0
100
AcDbLine
 10
53.2992861613
 20
98.6144814259
 30
0.0
 11
53.2992861613
 21
101.5012328598
 31
0.0
  0
LINE
  5
298
330
1F
100
AcDbEntity
  8
0
  6
HIDDEN
 62
     7
370
     0
100
AcDbLine
 10
59.2992852822
 20
98.6144814259
 30
0.0
 11
53.2992861613
 21
98.6144814259
 31
0.0
  0
LINE
  5
299
330
1F
100
AcDbEntity
  8
0
  6
HIDDEN
 62
     7
370
     0
100
AcDbLine
 10
59.2992852822
 20
98.6144814259
 30
0.0
 11
59.2992852822
 21
97.171105709
 31
0.0
  0
LINE
  5
29A
330
1F
100
AcDbEntity
  8
0
  6
HIDDEN
 62
     7
370
     0
100
AcDbLine
 10
53.2992861613
 20
98.6144814259
 30
0.0
 11
53.2992861613
 21
97.171105709
 31
0.0
  0
LINE
  5
29B
330
1F
100
AcDbEntity
  8
0
  6
HIDDEN
 62
     7
370
     0
100
AcDbLine
 10
59.2992852822
 20
102.9446085767
 30
0.0
 11
53.2992861613
 21
102.9446085767
 31
0.0
  0
LINE
  5
29C
330
1F
100
AcDbEntity
  8
0
  6
HIDDEN
 62
     7
370
     0
100
AcDbLine
 10
59.2992852822
 20
97.171105709
 30
0.0
 11
53.2992861613
 21
97.171105709
 31
0.0
  0
LINE
  5
29D
330
1F
100
AcDbEntity
  8
0
  6
HIDDEN
 62
     7
370
     0
100
AcDbLine
 10
53.7984527096
 20
95.6174130869
 30
0.0
 11
53.7984527096
 21
104.4983011988
 31
0.0
  0
LINE
  5
29E
330
1F
100
AcDbEntity
  8
0
  6
HIDDEN
 62
     7
370
     0
100
AcDbLine
 10
53.7984527096
 20
105.0578570311
 30
0.0
 11
53.7984527096
 21
95.0578572546
 31
0.0
  0
LINE
  5
29F
330
1F
100
AcDbEntity
  8
0
  6
HIDDEN
 62
     7
370
     0
100
AcDbLine
 10
63.8204074844
 20
95.0578572546
 30
0.0
 11
63.8204074844
 21
105.0578570311
 31
0.0
  0
LINE
  5
2A0
330
1F
100
AcDbEntity
  8
0
  6
HIDDEN
 62
     7
370
     0
100
AcDbLine
 10
65.3204077303
 20
96.6273711846
 30
0.0
 11
65.3204077303
 21
99.4769070848
 31
0.0
  0
LINE
  5
2A1
330
1F
100
AcDbEntity
  8
0
  6
HIDDEN
 62
     7
370
     0
100
AcDbLine
 10
65.3204077303
 20
96.5578570348
 30
0.0
 11
65.3204077303
 21
103.5578572509
 31
0.0
  0
LINE
  5
2A2
330
1F
100
AcDbEntity
  8
0
  6
HIDDEN
 62
     7
370
     0
100
AcDbLine
 10
53.3204066947
 20
99.1389302389
 30
0.0
 11
53.3204066947
 21
100.9767840468
 31
0.0
  0
LINE
  5
2A3
330
1F
100
AcDbEntity
  8
0
  6
HIDDEN
 62
     7
370
     0
100
AcDbLine
 10
53.3204066947
 20
104.2298572456
 30
0.0
 11
53.3204066947
 21
95.8858570402
 31
0.0
  0
LINE
  5
2A4
330
1F
100
AcDbEntity
  8
0
  6
HIDDEN
 62
     7
370
     0
100
AcDbLine
 10
59.3204076781
 20
99.1389302389
 30
0.0
 11
59.3204076781
 21
97.2284400222
 31
0.0
  0
LINE
  5
2A5
330
1F
100
AcDbEntity
  8
0
  6
HIDDEN
 62
     7
370
     0
100
AcDbLine
 10
53.3204066947
 20
99.1389302389
 30
0.0
 11
53.3204066947
 21
97.2284400222
 31
0.0
  0
LINE
  5
2A6
330
1F
100
AcDbEntity
  8
0
  6
HIDDEN
 62
     7
370
     0
100
AcDbLine
 10
59.3204076781
 20
99.1389302389
 30
0.0
 11
53.3204066947
 21
99.1389302389
 31
0.0
  0
LINE
  5
2A7
330
1F
100
AcDbEntity
  8
0
  6
HIDDEN
 62
     7
370
     0
100
AcDbLine
 10
59.3204076781
 20
99.1389302389
 30
0.0
 11
59.3204076781
 21
101.9683472431
 31
0.0
  0
LINE
  5
2A8
330
1F
100
AcDbEntity
  8
0
  6
HIDDEN
 62
     7
370
     0
100
AcDbLine
 10
53.3204066947
 20
99.1389302389
 30
0.0
 11
53.3204066947
 21
101.9683472431
 31
0.0
  0
LINE
  5
2A9
330
1F
100
AcDbEntity
  8
0
  6
HIDDEN
 62
     7
370
     0
100
AcDbLine
 10
59.3204076781
 20
101.9683472431
 30
0.0
 11
53.3204066947
 21
101.9683472431
 31
0.0
  0
LINE
  5
2AA
330
1F
100
AcDbEntity
  8
0
  6
HIDDEN
 62
     7
370
     0
100
AcDbLine
 10
59.3204076781
 20
101.9683472431
 30
0.0
 11
59.3204076781
 21
102.8872742635
 31
0.0
  0
LINE
  5
2AB
330
1F
100
AcDbEntity
  8
0
  6
HIDDEN
 62
     7
370
     0
100
AcDbLine
 10
53.3204066947
 20
101.9683472431
 30
0.0
 11
53.3204066947
 21
102.8872742635
 31
0.0
  0
LINE
  5
2AC
330
1F
100
AcDbEntity
  8
0
  6
HIDDEN
 62
     7
370
     0
100
AcDbLine
 10
59.3204076781
 20
98.1473670426
 30
0.0
 11
53.3204066947
 21
98.1473670426
 31
0.0
  0
LINE
  5
2AD
330
1F
100
AcDbEntity
  8
0
  6
HIDDEN
 62
     7
370
     0
100
AcDbLine
 10
59.3204076781
 20
97.2284400222
 30
0.0
 11
53.3204066947
 21
97.2284400222
 31
0.0
  0
LINE
  5
2AE
330
1F
100
AcDbEntity
  8
0
  6
HIDDEN
 62
     7
370
     0
100
AcDbLine
 10
59.3204076781
 20
98.1473670426
 30
0.0
 11
59.3204076781
 21
97.2284400222
 31
0.0
  0
LINE
  5
2AF
330
1F
100
AcDbEntity
  8
0
  6
HIDDEN
 62
     7
370
     0
100
AcDbLine
 10
53.3204066947
 20
98.1473670426
 30
0.0
 11
53.3204066947
 21
97.2284400222
 31
0.0
  0
LINE
  5
2B0
330
1F
100
AcDbEntity
  8
0
  6
HIDDEN
 62
     7
370
     0
100
AcDbLine
 10
59.3204076781
 20
100.9767840468
 30
0.0
 11
53.3204066947
 21
100.9767840468
 31
0.0
  0
LINE
  5
2B1
330
1F
100
AcDbEntity
  8
0
  6
HIDDEN
 62
     7
370
     0
100
AcDbLine
 10
59.3204076781
 20
102.8872742635
 30
0.0
 11
53.3204066947
 21
102.8872742635
 31
0.0
  0
LINE
  5
2B2
330
1F
100
AcDbEntity
  8
0
  6
HIDDEN
 62
     7
370
     0
100
AcDbLine
 10
59.3204076781
 20
100.9767840468
 30
0.0
 11
59.3204076781
 21
102.8872742635
 31
0.0
  0
LINE
  5
2B3
330
1F
100
AcDbEntity
  8
0
  6
HIDDEN
 62
     7
370
     0
100
AcDbLine
 10
53.3204066947
 20
100.9767840468
 30
0.0
 11
53.3204066947
 21
102.8872742635
 31
0.0
  0
LINE
  5
2B4
330
1F
100
AcDbEntity
  8
0
  6
HIDDEN
 62
     7
370
     0
100
AcDbLine
 10
59.3204076781
 20
98.1473670426
 30
0.0
 11
59.3204076781
 21
100.9767840468
 31
0.0
  0
LINE
  5
2B5
330
1F
100
AcDbEntity
  8
0
  6
HIDDEN
 62
     7
370
     0
100
AcDbLine
 10
53.3204066947
 20
98.1473670426
 30
0.0
 11
53.3204066947
 21
100.9767840468
 31
0.0
  0
SPLINE
  5
2B6
330
1F
100
AcDbEntity
  8
0
  6
HIDDEN
 62
     7
370
     0
100
AcDbSpline
210
0.0
220
0.0
230
1.0
 70
    11
 71
     3
 72
    70
 73
    66
 74
     0
 42
0.00000001
 43
0.00000001
 12
1.0
 22
0.0
 32
0.0
 13
1.0
 23
0.0
 33
0.0
 40
-0.0312500000000002
 40
-0.0312500000000002
 40
0.0
 40
0.0
 40
0.0312499999999997
 40
0.0312499999999997
 40
0.0624999999999993
 40
0.0624999999999993
 40
0.093749999999999
 40
0.093749999999999
 40
0.1249999999999986
 40
0.1249999999999986
 40
0.1562499999999983
 40
0.1562499999999983
 40
0.1874999999999979
 40
0.1874999999999979
 40
0.2187499999999976
 40
0.2187499999999976
 40
0.2499999999999972
 40
0.2499999999999972
 40
0.2812499999999969
 40
0.2812499999999969
 40
0.3124999999999966
 40
0.3124999999999966
 40
0.3437499999999962
 40
0.3437499999999962
 40
0.3749999999999958
 40
0.3749999999999958
 40
0.4062499999999961
 40
0.4062499999999961
 40
0.4374999999999962
 40
0.4374999999999962
 40
0.4687499999999964
 40
0.4687499999999964
 40
0.4999999999999967
 40
0.4999999999999967
 40
0.5312499999999969
 40
0.5312499999999969
 40
0.5624999999999971
 40
0.5624999999999971
 40
0.5937499999999973
 40
0.5937499999999973
 40
0.6249999999999974
 40
0.6249999999999974
 40
0.6562499999999977
 40
0.6562499999999977
 40
0.6874999999999979
 40
0.6874999999999979
 40
0.7187499999999981
 40
0.7187499999999981
 40
0.7499999999999983
 40
0.7499999999999983
 40
0.7812499999999986
 40
0.7812499999999986
 40
0.8124999999999988
 40
0.8124999999999988
 40
0.843749999999999
 40
0.843749999999999
 40
0.8749999999999991
 40
0.8749999999999991
 40
0.9062499999999993
 40
0.9062499999999993
 40
0.9374999999999996
 40
0.9374999999999996
 40
0.9687499999999998
 40
0.9687499999999998
 40
1.0
 40
1.0
 40
1.03125
 40
1.03125
 10
92.78646098419084
 20
104.557857142857
 30
0.0
 10
92.78646098419084
 20
104.557857142857
 30
0.0
 10
92.79330865395362
 20
104.5284877888572
 30
0.0
 10
92.81930058023553
 20
104.413599143751
 30
0.0
 10
92.83875938313962
 20
104.3266198486721
 30
0.0
 10
92.88680424039507
 20
104.1004410051555
 30
0.0
 10
92.91519544872519
 20
103.9621755705192
 30
0.0
 10
92.97736597709964
 20
103.6356741119755
 30
0.0
 10
93.01127051471404
 20
103.4463005586777
 30
0.0
 10
93.0779276166522
 20
103.0326206716922
 30
0.0
 10
93.11102867438122
 20
102.8067136038128
 30
0.0
 10
93.17303770088826
 20
102.3151459889826
 30
0.0
 10
93.20120030975204
 20
102.0547382413715
 30
0.0
 10
93.24807900567274
 20
101.5136678806771
 30
0.0
 10
93.26708381357543
 20
101.2290461678016
 30
0.0
 10
93.29270184267281
 20
100.6477352517059
 30
0.0
 10
93.2992452912874
 20
100.3551243290059
 30
0.0
 10
93.29932576403918
 20
99.76605434999993
 30
0.0
 10
93.29264164543046
 20
99.46678284596356
 30
0.0
 10
93.26718946988773
 20
98.88889614226517
 30
0.0
 10
93.24853977102818
 20
98.60790554777061
 30
0.0
 10
93.201323742443
 20
98.06186631764507
 30
0.0
 10
93.17292744220863
 20
97.79987864546169
 30
0.0
 10
93.11160824568853
 20
97.31341214683195
 30
0.0
 10
93.07824282620442
 20
97.08504821338316
 30
0.0
 10
93.01094755605912
 20
96.66741103624308
 30
0.0
 10
92.97770411269049
 20
96.48191729750785
 30
0.0
 10
92.91570652671612
 20
96.15612279133096
 30
0.0
 10
92.88670117612696
 20
96.01478128726986
 30
0.0
 10
92.83876050801342
 20
95.78910654882039
 30
0.0
 10
92.8196273824692
 20
95.70357230606528
 30
0.0
 10
92.79339275259241
 20
95.58758577955297
 30
0.0
 10
92.78648945559603
 20
95.55798043781589
 30
0.0
 10
92.78643269414086
 20
95.55773463325424
 30
0.0
 10
92.79307022355322
 20
95.58617901281394
 30
0.0
 10
92.81932973693557
 20
95.70223765232825
 30
0.0
 10
92.83857729502083
 20
95.78828359380348
 30
0.0
 10
92.88629359233214
 20
96.01282362592403
 30
0.0
 10
92.91516615557778
 20
96.15337906630916
 30
0.0
 10
92.97744413140337
 20
96.48045643170803
 30
0.0
 10
93.01066855633448
 20
96.66588729998378
 30
0.0
 10
93.07752702084719
 20
97.08040121871612
 30
0.0
 10
93.11127425156188
 20
97.31099835311815
 30
0.0
 10
93.17266220417447
 20
97.7975408147595
 30
0.0
 10
93.20069023978664
 20
98.05551786811122
 30
0.0
 10
93.24812493928002
 20
98.60215173510922
 30
0.0
 10
93.26701918260824
 20
98.88625161109367
 30
0.0
 10
93.2924849897153
 20
99.46201981859174
 30
0.0
 10
93.29924443555775
 20
99.75810076417255
 30
0.0
 10
93.2993266102209
 20
100.3520796777995
 30
0.0
 10
93.29275794844197
 20
100.6448604294158
 30
0.0
 10
93.26745271970857
 20
101.2222502379714
 30
0.0
 10
93.24840355984713
 20
101.509424755523
 30
0.0
 10
93.20141553607323
 20
102.0527455875962
 30
0.0
 10
93.17348272068907
 20
102.3111576137485
 30
0.0
 10
93.11173941039509
 20
102.8015313583887
 30
0.0
 10
93.07818077986296
 20
103.0309332221728
 30
0.0
 10
93.01157688794851
 20
103.4445145027404
 30
0.0
 10
92.97807515803369
 20
103.6318384473849
 30
0.0
 10
92.91540811211998
 20
103.9611683538249
 30
0.0
 10
92.88700507006459
 20
104.0994560945095
 30
0.0
 10
92.83914656725678
 20
104.3248361085049
 30
0.0
 10
92.81957714883363
 20
104.4123680639648
 30
0.0
 10
92.79331198428261
 20
104.5284815775867
 30
0.0
 10
92.78646098419084
 20
104.557857142857
 30
0.0
 10
92.78646098419084
 20
104.557857142857
 30
0.0
  0
SPLINE
  5
2B7
330
1F
100
AcDbEntity
  8
0
  6
HIDDEN
 62
     7
370
     0
100
AcDbSpline
210
0.0
220
0.0
230
1.0
 70
    11
 71
     3
 72
    76
 73
    72
 74
     0
 42
0.00000001
 43
0.00000001
 12
1.0
 22
0.0
 32
0.0
 13
1.0
 23
0.0
 33
0.0
 40
-0.0312500000000013
 40
-0.0312500000000013
 40
0.0
 40
0.0
 40
0.0312499999999995
 40
0.0312499999999995
 40
0.062499999999999
 40
0.062499999999999
 40
0.0937499999999985
 40
0.0937499999999985
 40
0.1249999999999981
 40
0.1249999999999981
 40
0.1562499999999976
 40
0.1562499999999976
 40
0.1874999999999971
 40
0.1874999999999971
 40
0.2187499999999966
 40
0.2187499999999966
 40
0.2499999999999961
 40
0.2499999999999961
 40
0.2656249999999959
 40
0.2656249999999959
 40
0.2812499999999956
 40
0.2812499999999956
 40
0.3124999999999951
 40
0.3124999999999951
 40
0.3437499999999944
 40
0.3437499999999944
 40
0.3749999999999938
 40
0.3749999999999938
 40
0.4062499999999932
 40
0.4062499999999932
 40
0.4374999999999927
 40
0.4374999999999927
 40
0.4531249999999923
 40
0.4531249999999923
 40
0.4687499999999921
 40
0.4687499999999921
 40
0.4999999999999921
 40
0.4999999999999921
 40
0.5312499999999922
 40
0.5312499999999922
 40
0.5624999999999922
 40
0.5624999999999922
 40
0.5937499999999923
 40
0.5937499999999923
 40
0.6249999999999923
 40
0.6249999999999923
 40
0.6562499999999929
 40
0.6562499999999929
 40
0.6874999999999934
 40
0.6874999999999934
 40
0.7031249999999934
 40
0.7031249999999934
 40
0.7187499999999933
 40
0.7187499999999933
 40
0.7499999999999937
 40
0.7499999999999937
 40
0.781249999999994
 40
0.781249999999994
 40
0.8124999999999942
 40
0.8124999999999942
 40
0.8437499999999946
 40
0.8437499999999946
 40
0.8749999999999948
 40
0.8749999999999948
 40
0.9062499999999961
 40
0.9062499999999961
 40
0.9374999999999974
 40
0.9374999999999974
 40
0.9687499999999987
 40
0.9687499999999987
 40
1.0
 40
1.0
 40
1.03125
 40
1.03125
 10
79.91366399194725
 20
104.5578571428571
 30
0.0
 10
79.91366399194725
 20
104.5578571428571
 30
0.0
 10
79.93471114248717
 20
104.5273236432316
 30
0.0
 10
80.01268887168891
 20
104.4093189038475
 30
0.0
 10
80.07049197715372
 20
104.3202908980848
 30
0.0
 10
80.20800677336663
 20
104.0935911652896
 30
0.0
 10
80.2877711908955
 20
103.9558953280112
 30
0.0
 10
80.45904931998213
 20
103.6315689471651
 30
0.0
 10
80.54851067660152
 20
103.4486465284886
 30
0.0
 10
80.72444061604693
 20
103.0437891408814
 30
0.0
 10
80.81202130711068
 20
102.8188418911603
 30
0.0
 10
80.97171828907442
 20
102.3377718898122
 30
0.0
 10
81.04364999828752
 20
102.0830453663186
 30
0.0
 10
81.16506980251509
 20
101.5431201435163
 30
0.0
 10
81.21483120584902
 20
101.2539209648463
 30
0.0
 10
81.28126949368271
 20
100.6697100996392
 30
0.0
 10
81.29876489505327
 20
100.3729645473678
 30
0.0
 10
81.2995290066918
 20
99.92057195687622
 30
0.0
 10
81.29543754527089
 20
99.76784113301811
 30
0.0
 10
81.27891923485079
 20
99.46793997273534
 30
0.0
 10
81.26653393834711
 20
99.31988449929005
 30
0.0
 10
81.217748388214
 20
98.88119218312801
 30
0.0
 10
81.16899323693227
 20
98.5929969609037
 30
0.0
 10
81.04757990522302
 20
98.047372381572
 30
0.0
 10
80.97553368417054
 20
97.790672721798
 30
0.0
 10
80.81572240747079
 20
97.30684141560381
 30
0.0
 10
80.728427350823
 20
97.08180831439309
 30
0.0
 10
80.5524689921955
 20
96.67549932290609
 30
0.0
 10
80.46255703640095
 20
96.49116363530428
 30
0.0
 10
80.29125869671559
 20
96.16606161585048
 30
0.0
 10
80.21155332581483
 20
96.02819335858688
 30
0.0
 10
80.10839229589735
 20
95.85780047691
 30
0.0
 10
80.07675035833432
 20
95.80712496422292
 30
0.0
 10
80.020431851526
 20
95.71862383988005
 30
0.0
 10
79.99571339200642
 20
95.68073907222966
 30
0.0
 10
79.93598034319383
 20
95.59025046911661
 30
0.0
 10
79.91459516514334
 20
95.55922585800302
 30
0.0
 10
79.91279248687759
 20
95.55657613223852
 30
0.0
 10
79.93324284693682
 20
95.5862256153176
 30
0.0
 10
80.01028590036435
 20
95.70270476224054
 30
0.0
 10
80.06710617604658
 20
95.79004526368175
 30
0.0
 10
80.20493910743657
 20
96.0168717120094
 30
0.0
 10
80.28470647755537
 20
96.15438745446596
 30
0.0
 10
80.45513022513693
 20
96.47636748286534
 30
0.0
 10
80.54571458339865
 20
96.66109905205785
 30
0.0
 10
80.72194683250545
 20
97.06573435015748
 30
0.0
 10
80.80847467152314
 20
97.28704893236528
 30
0.0
 10
80.96999514909858
 20
97.77191888877012
 30
0.0
 10
81.0425067735111
 20
98.02835732452813
 30
0.0
 10
81.13368426383397
 20
98.43265412846358
 30
0.0
 10
81.16118347200147
 20
98.5708285797035
 30
0.0
 10
81.20955855657733
 20
98.85441463865754
 30
0.0
 10
81.23054374528463
 20
99.00088536060528
 30
0.0
 10
81.2811792704987
 20
99.4434074147836
 30
0.0
 10
81.29865483910024
 20
99.74110859660648
 30
0.0
 10
81.29988314944157
 20
100.3418936143978
 30
0.0
 10
81.282961815807
 20
100.6478836960886
 30
0.0
 10
81.21772930313618
 20
101.2349155771385
 30
0.0
 10
81.16957916218334
 20
101.5199939137696
 30
0.0
 10
81.04723566018299
 20
102.0699790399461
 30
0.0
 10
80.97488268971534
 20
102.3271795089109
 30
0.0
 10
80.81533537149491
 20
102.8098764888396
 30
0.0
 10
80.72743006789766
 20
103.0364347948615
 30
0.0
 10
80.55087310679653
 20
103.4436707313311
 30
0.0
 10
80.46156749107666
 20
103.6265326642606
 30
0.0
 10
80.29026760894133
 20
103.9514284309952
 30
0.0
 10
80.20945070147724
 20
104.0911117859118
 30
0.0
 10
80.07222865659377
 20
104.317524625909
 30
0.0
 10
80.0150129253646
 20
104.4057634009413
 30
0.0
 10
79.93492162724884
 20
104.5270423967157
 30
0.0
 10
79.91366399194725
 20
104.5578571428571
 30
0.0
 10
79.91366399194725
 20
104.5578571428571
 30
0.0
  0
SPLINE
  5
2B8
330
1F
100
AcDbEntity
  8
0
  6
HIDDEN
 62
     7
370
     0
100
AcDbSpline
210
0.0
220
0.0
230
1.0
 70
    11
 71
     3
 72
    70
 73
    66
 74
     0
 42
0.00000001
 43
0.00000001
 12
1.0
 22
0.0
 32
0.0
 13
1.0
 23
0.0
 33
0.0
 40
-0.0312500000000003
 40
-0.0312500000000003
 40
0.0
 40
0.0
 40
0.0312499999999997
 40
0.0312499999999997
 40
0.0624999999999993
 40
0.0624999999999993
 40
0.093749999999999
 40
0.093749999999999
 40
0.1249999999999986
 40
0.1249999999999986
 40
0.1562499999999983
 40
0.1562499999999983
 40
0.1874999999999979
 40
0.1874999999999979
 40
0.2187499999999976
 40
0.2187499999999976
 40
0.2499999999999973
 40
0.2499999999999973
 40
0.2812499999999969
 40
0.2812499999999969
 40
0.3124999999999966
 40
0.3124999999999966
 40
0.3437499999999962
 40
0.3437499999999962
 40
0.3749999999999959
 40
0.3749999999999959
 40
0.4062499999999961
 40
0.4062499999999961
 40
0.4374999999999962
 40
0.4374999999999962
 40
0.4687499999999963
 40
0.4687499999999963
 40
0.4999999999999966
 40
0.4999999999999966
 40
0.5312499999999968
 40
0.5312499999999968
 40
0.562499999999997
 40
0.562499999999997
 40
0.5937499999999972
 40
0.5937499999999972
 40
0.6249999999999973
 40
0.6249999999999973
 40
0.6562499999999976
 40
0.6562499999999976
 40
0.6874999999999978
 40
0.6874999999999978
 40
0.718749999999998
 40
0.718749999999998
 40
0.7499999999999982
 40
0.7499999999999982
 40
0.7812499999999984
 40
0.7812499999999984
 40
0.8124999999999987
 40
0.8124999999999987
 40
0.8437499999999989
 40
0.8437499999999989
 40
0.874999999999999
 40
0.874999999999999
 40
0.9062499999999992
 40
0.9062499999999992
 40
0.9374999999999994
 40
0.9374999999999994
 40
0.9687499999999997
 40
0.9687499999999997
 40
1.0
 40
1.0
 40
1.03125
 40
1.03125
 10
68.79928571428576
 20
119.5450324127622
 30
0.0
 10
68.79928571428576
 20
119.5450324127622
 30
0.0
 10
68.82865506828563
 20
119.551880082525
 30
0.0
 10
68.94354371339179
 20
119.5778720088069
 30
0.0
 10
69.03052300847065
 20
119.597330811711
 30
0.0
 10
69.2567018519873
 20
119.6453756689664
 30
0.0
 10
69.39496728662357
 20
119.6737668772965
 30
0.0
 10
69.72146874516729
 20
119.735937405671
 30
0.0
 10
69.91084229846508
 20
119.7698419432854
 30
0.0
 10
70.32452218545056
 20
119.8364990452236
 30
0.0
 10
70.55042925333004
 20
119.8696001029526
 30
0.0
 10
71.04199686816023
 20
119.9316091294596
 30
0.0
 10
71.30240461577128
 20
119.9597717383234
 30
0.0
 10
71.84347497646566
 20
120.0066504342441
 30
0.0
 10
72.12809668934123
 20
120.0256552421468
 30
0.0
 10
72.70940760543685
 20
120.0512732712442
 30
0.0
 10
73.00201852813686
 20
120.0578167198588
 30
0.0
 10
73.59108850714286
 20
120.0578971926106
 30
0.0
 10
73.89036001117923
 20
120.0512130740019
 30
0.0
 10
74.46824671487764
 20
120.0257608984591
 30
0.0
 10
74.74923730937218
 20
120.0071111995995
 30
0.0
 10
75.29527653949772
 20
119.9598951710144
 30
0.0
 10
75.5572642116811
 20
119.93149887078
 30
0.0
 10
76.04373071031085
 20
119.8701796742599
 30
0.0
 10
76.27209464375964
 20
119.8368142547758
 30
0.0
 10
76.68973182089971
 20
119.7695189846305
 30
0.0
 10
76.87522555963494
 20
119.7362755412619
 30
0.0
 10
77.20102006581183
 20
119.6742779552875
 30
0.0
 10
77.34236156987293
 20
119.6452726046983
 30
0.0
 10
77.56803630832242
 20
119.5973319365848
 30
0.0
 10
77.65357055107751
 20
119.5781988110406
 30
0.0
 10
77.76955707758984
 20
119.5519641811638
 30
0.0
 10
77.7991624193269
 20
119.5450608841674
 30
0.0
 10
77.79940822388856
 20
119.5450041227122
 30
0.0
 10
77.77096384432886
 20
119.5516416521246
 30
0.0
 10
77.65490520481455
 20
119.577901165507
 30
0.0
 10
77.5688592633393
 20
119.5971487235922
 30
0.0
 10
77.34431923121878
 20
119.6448650209035
 30
0.0
 10
77.20376379083365
 20
119.6737375841492
 30
0.0
 10
76.87668642543476
 20
119.7360155599748
 30
0.0
 10
76.69125555715901
 20
119.7692399849059
 30
0.0
 10
76.27674163842669
 20
119.8360984494186
 30
0.0
 10
76.04614450402464
 20
119.8698456801333
 30
0.0
 10
75.5596020423833
 20
119.9312336327459
 30
0.0
 10
75.30162498903157
 20
119.959261668358
 30
0.0
 10
74.75499112203359
 20
120.0066963678514
 30
0.0
 10
74.47089124604913
 20
120.0255906111796
 30
0.0
 10
73.89512303855108
 20
120.0510564182867
 30
0.0
 10
73.59904209297027
 20
120.0578158641291
 30
0.0
 10
73.00506317934334
 20
120.0578980387923
 30
0.0
 10
72.71228242772698
 20
120.0513293770133
 30
0.0
 10
72.1348926191714
 20
120.02602414828
 30
0.0
 10
71.8477181016198
 20
120.0069749884185
 30
0.0
 10
71.30439726954654
 20
119.9599869646446
 30
0.0
 10
71.04598524339427
 20
119.9320541492604
 30
0.0
 10
70.5556114987541
 20
119.8703108389665
 30
0.0
 10
70.32620963496997
 20
119.8367522084343
 30
0.0
 10
69.91262835440239
 20
119.7701483165199
 30
0.0
 10
69.72530440975787
 20
119.7366465866051
 30
0.0
 10
69.3959745033179
 20
119.6739795406913
 30
0.0
 10
69.25768676263333
 20
119.6455764986359
 30
0.0
 10
69.03230674863795
 20
119.5977179958281
 30
0.0
 10
68.944774793178
 20
119.578148577405
 30
0.0
 10
68.82866127955604
 20
119.5518834128539
 30
0.0
 10
68.79928571428576
 20
119.5450324127622
 30
0.0
 10
68.79928571428576
 20
119.5450324127622
 30
0.0
  0
SPLINE
  5
2B9
330
1F
100
AcDbEntity
  8
0
  6
HIDDEN
 62
     7
370
     0
100
AcDbSpline
210
0.0
220
0.0
230
1.0
 70
    11
 71
     3
 72
    76
 73
    72
 74
     0
 42
0.00000001
 43
0.00000001
 12
1.0
 22
0.0
 32
0.0
 13
1.0
 23
0.0
 33
0.0
 40
-0.0312499999999997
 40
-0.0312499999999997
 40
0.0
 40
0.0
 40
0.0312500000000004
 40
0.0312500000000004
 40
0.0625000000000007
 40
0.0625000000000007
 40
0.0937500000000011
 40
0.0937500000000011
 40
0.1250000000000014
 40
0.1250000000000014
 40
0.1562500000000018
 40
0.1562500000000018
 40
0.1875000000000022
 40
0.1875000000000022
 40
0.2187500000000025
 40
0.2187500000000025
 40
0.2500000000000029
 40
0.2500000000000029
 40
0.2656250000000031
 40
0.2656250000000031
 40
0.2812500000000032
 40
0.2812500000000032
 40
0.3125000000000034
 40
0.3125000000000034
 40
0.3437500000000036
 40
0.3437500000000036
 40
0.3750000000000038
 40
0.3750000000000038
 40
0.406250000000004
 40
0.406250000000004
 40
0.4375000000000042
 40
0.4375000000000042
 40
0.4531250000000043
 40
0.4531250000000043
 40
0.4687500000000044
 40
0.4687500000000044
 40
0.500000000000004
 40
0.500000000000004
 40
0.5312500000000036
 40
0.5312500000000036
 40
0.5625000000000031
 40
0.5625000000000031
 40
0.5937500000000028
 40
0.5937500000000028
 40
0.6250000000000023
 40
0.6250000000000023
 40
0.6562500000000023
 40
0.6562500000000023
 40
0.6875000000000023
 40
0.6875000000000023
 40
0.7031250000000021
 40
0.7031250000000021
 40
0.7187500000000019
 40
0.7187500000000019
 40
0.7500000000000017
 40
0.7500000000000017
 40
0.7812500000000014
 40
0.7812500000000014
 40
0.8125000000000012
 40
0.8125000000000012
 40
0.8437500000000011
 40
0.8437500000000011
 40
0.8750000000000009
 40
0.8750000000000009
 40
0.9062500000000007
 40
0.9062500000000007
 40
0.9375000000000004
 40
0.9375000000000004
 40
0.9687500000000003
 40
0.9687500000000003
 40
1.0
 40
1.0
 40
1.03125
 40
1.03125
 10
68.79928571428576
 20
106.6722354205186
 30
0.0
 10
68.79928571428576
 20
106.6722354205186
 30
0.0
 10
68.82981921391121
 20
106.6932825710585
 30
0.0
 10
68.94782395329537
 20
106.7712603002603
 30
0.0
 10
69.03685195905807
 20
106.8290634057251
 30
0.0
 10
69.26355169185325
 20
106.966578201938
 30
0.0
 10
69.4012475291317
 20
107.0463426194669
 30
0.0
 10
69.72557390997778
 20
107.2176207485535
 30
0.0
 10
69.90849632865424
 20
107.3070821051729
 30
0.0
 10
70.31335371626143
 20
107.4830120446183
 30
0.0
 10
70.53830096598257
 20
107.5705927356821
 30
0.0
 10
71.01937096733067
 20
107.7302897176458
 30
0.0
 10
71.27409749082429
 20
107.8022214268589
 30
0.0
 10
71.81402271362649
 20
107.9236412310864
 30
0.0
 10
72.1032218922965
 20
107.9734026344204
 30
0.0
 10
72.68743275750366
 20
108.0398409222541
 30
0.0
 10
72.98417830977503
 20
108.0573363236246
 30
0.0
 10
73.43657090026663
 20
108.0581004352632
 30
0.0
 10
73.58930172412472
 20
108.0540089738422
 30
0.0
 10
73.8892028844075
 20
108.0374906634222
 30
0.0
 10
74.03725835785278
 20
108.0251053669185
 30
0.0
 10
74.47595067401483
 20
107.9763198167854
 30
0.0
 10
74.76414589623914
 20
107.9275646655036
 30
0.0
 10
75.30977047557084
 20
107.8061513337944
 30
0.0
 10
75.56647013534484
 20
107.7341051127419
 30
0.0
 10
76.05030144153905
 20
107.5742938360422
 30
0.0
 10
76.27533454274976
 20
107.4869987793944
 30
0.0
 10
76.68164353423674
 20
107.3110404207669
 30
0.0
 10
76.86597922183857
 20
107.2211284649724
 30
0.0
 10
77.19108124129237
 20
107.049830125287
 30
0.0
 10
77.32894949855596
 20
106.9701247543862
 30
0.0
 10
77.49934238023285
 20
106.8669637244687
 30
0.0
 10
77.55001789291991
 20
106.8353217869057
 30
0.0
 10
77.6385190172628
 20
106.7790032800974
 30
0.0
 10
77.67640378491319
 20
106.7542848205778
 30
0.0
 10
77.76689238802624
 20
106.6945517717652
 30
0.0
 10
77.79791699913983
 20
106.6731665937147
 30
0.0
 10
77.80056672490431
 20
106.671363915449
 30
0.0
 10
77.77091724182525
 20
106.6918142755082
 30
0.0
 10
77.6544380949023
 20
106.7688573289358
 30
0.0
 10
77.5670975934611
 20
106.825677604618
 30
0.0
 10
77.34027114513343
 20
106.963510536008
 30
0.0
 10
77.20275540267687
 20
107.0432779061268
 30
0.0
 10
76.88077537427748
 20
107.2137016537083
 30
0.0
 10
76.696043805085
 20
107.30428601197
 30
0.0
 10
76.29140850698535
 20
107.4805182610768
 30
0.0
 10
76.07009392477755
 20
107.5670461000945
 30
0.0
 10
75.58522396837272
 20
107.72856657767
 30
0.0
 10
75.3287855326147
 20
107.8010782020825
 30
0.0
 10
74.92448872867925
 20
107.8922556924053
 30
0.0
 10
74.78631427743933
 20
107.9197549005728
 30
0.0
 10
74.50272821848529
 20
107.9681299851487
 30
0.0
 10
74.35625749653755
 20
107.989115173856
 30
0.0
 10
73.91373544235923
 20
108.0397506990701
 30
0.0
 10
73.61603426053635
 20
108.0572262676716
 30
0.0
 10
73.015249242745
 20
108.0584545780129
 30
0.0
 10
72.70925916105428
 20
108.0415332443784
 30
0.0
 10
72.12222728000435
 20
107.9763007317076
 30
0.0
 10
71.83714894337324
 20
107.9281505907547
 30
0.0
 10
71.28716381719669
 20
107.8058070887543
 30
0.0
 10
71.02996334823193
 20
107.7334541182867
 30
0.0
 10
70.54726636830318
 20
107.5739068000663
 30
0.0
 10
70.32070806228137
 20
107.486001496469
 30
0.0
 10
69.91347212581172
 20
107.3094445353679
 30
0.0
 10
69.73061019288227
 20
107.220138919648
 30
0.0
 10
69.40571442614767
 20
107.0488390375127
 30
0.0
 10
69.26603107123103
 20
106.9680221300486
 30
0.0
 10
69.03961823123386
 20
106.8308000851651
 30
0.0
 10
68.95137945620154
 20
106.773584353936
 30
0.0
 10
68.83010046042713
 20
106.6934930558202
 30
0.0
 10
68.79928571428576
 20
106.6722354205186
 30
0.0
 10
68.79928571428576
 20
106.6722354205186
 30
0.0
  0
SPLINE
  5
2BA
330
1F
100
AcDbEntity
  8
0
  6
HIDDEN
 62
     7
370
     0
100
AcDbSpline
210
0.0
220
0.0
230
1.0
 70
    11
 71
     3
 72
    70
 73
    66
 74
     0
 42
0.00000001
 43
0.00000001
 12
1.0
 22
0.0
 32
0.0
 13
1.0
 23
0.0
 33
0.0
 40
-0.0312500000000002
 40
-0.0312500000000002
 40
0.0
 40
0.0
 40
0.0312499999999997
 40
0.0312499999999997
 40
0.0624999999999993
 40
0.0624999999999993
 40
0.093749999999999
 40
0.093749999999999
 40
0.1249999999999986
 40
0.1249999999999986
 40
0.1562499999999983
 40
0.1562499999999983
 40
0.1874999999999979
 40
0.1874999999999979
 40
0.2187499999999976
 40
0.2187499999999976
 40
0.2499999999999972
 40
0.2499999999999972
 40
0.2812499999999969
 40
0.2812499999999969
 40
0.3124999999999966
 40
0.3124999999999966
 40
0.3437499999999962
 40
0.3437499999999962
 40
0.3749999999999958
 40
0.3749999999999958
 40
0.4062499999999961
 40
0.4062499999999961
 40
0.4374999999999962
 40
0.4374999999999962
 40
0.4687499999999964
 40
0.4687499999999964
 40
0.4999999999999967
 40
0.4999999999999967
 40
0.5312499999999969
 40
0.5312499999999969
 40
0.5624999999999971
 40
0.5624999999999971
 40
0.5937499999999973
 40
0.5937499999999973
 40
0.6249999999999974
 40
0.6249999999999974
 40
0.6562499999999977
 40
0.6562499999999977
 40
0.6874999999999979
 40
0.6874999999999979
 40
0.7187499999999981
 40
0.7187499999999981
 40
0.7499999999999983
 40
0.7499999999999983
 40
0.7812499999999986
 40
0.7812499999999986
 40
0.8124999999999988
 40
0.8124999999999988
 40
0.843749999999999
 40
0.843749999999999
 40
0.8749999999999991
 40
0.8749999999999991
 40
0.9062499999999993
 40
0.9062499999999993
 40
0.9374999999999996
 40
0.9374999999999996
 40
0.9687499999999998
 40
0.9687499999999998
 40
1.0
 40
1.0
 40
1.03125
 40
1.03125
 10
53.81211044438061
 20
95.55785714285733
 30
0.0
 10
53.81211044438062
 20
95.55785714285733
 30
0.0
 10
53.80526277461784
 20
95.5872264968572
 30
0.0
 10
53.77927084833593
 20
95.70211514196336
 30
0.0
 10
53.75981204543184
 20
95.78909443704222
 30
0.0
 10
53.7117671881764
 20
96.01527328055889
 30
0.0
 10
53.68337597984629
 20
96.15353871519515
 30
0.0
 10
53.62120545147182
 20
96.48004017373886
 30
0.0
 10
53.58730091385743
 20
96.66941372703667
 30
0.0
 10
53.52064381191926
 20
97.08309361402213
 30
0.0
 10
53.48754275419027
 20
97.30900068190162
 30
0.0
 10
53.42553372768321
 20
97.80056829673181
 30
0.0
 10
53.39737111881944
 20
98.06097604434287
 30
0.0
 10
53.35049242289875
 20
98.60204640503724
 30
0.0
 10
53.33148761499605
 20
98.88666811791282
 30
0.0
 10
53.30586958589868
 20
99.46797903400844
 30
0.0
 10
53.2993261372841
 20
99.76058995670843
 30
0.0
 10
53.29924566453231
 20
100.3496599357144
 30
0.0
 10
53.30592978314102
 20
100.6489314397508
 30
0.0
 10
53.33138195868379
 20
101.2268181434492
 30
0.0
 10
53.35003165754333
 20
101.5078087379437
 30
0.0
 10
53.39724768612851
 20
102.0538479680693
 30
0.0
 10
53.42564398636288
 20
102.3158356402527
 30
0.0
 10
53.48696318288299
 20
102.8023021388824
 30
0.0
 10
53.52032860236709
 20
103.0306660723312
 30
0.0
 10
53.5876238725124
 20
103.4483032494713
 30
0.0
 10
53.62086731588104
 20
103.6337969882065
 30
0.0
 10
53.6828649018554
 20
103.9595914943834
 30
0.0
 10
53.71187025244456
 20
104.1009329984445
 30
0.0
 10
53.7598109205581
 20
104.326607736894
 30
0.0
 10
53.77894404610232
 20
104.4121419796491
 30
0.0
 10
53.80517867597911
 20
104.5281285061614
 30
0.0
 10
53.81208197297548
 20
104.5577338478985
 30
0.0
 10
53.81213873443066
 20
104.5579796524601
 30
0.0
 10
53.80550120501832
 20
104.5295352729004
 30
0.0
 10
53.77924169163595
 20
104.4134766333861
 30
0.0
 10
53.75999413355069
 20
104.3274306919109
 30
0.0
 10
53.71227783623939
 20
104.1028906597903
 30
0.0
 10
53.68340527299373
 20
103.9623352194052
 30
0.0
 10
53.62112729716816
 20
103.6352578540063
 30
0.0
 10
53.58790287223704
 20
103.4498269857306
 30
0.0
 10
53.52104440772434
 20
103.0353130669983
 30
0.0
 10
53.48729717700963
 20
102.8047159325962
 30
0.0
 10
53.42590922439704
 20
102.3181734709549
 30
0.0
 10
53.39788118878487
 20
102.0601964176031
 30
0.0
 10
53.35044648929149
 20
101.5135625506052
 30
0.0
 10
53.33155224596327
 20
101.2294626746207
 30
0.0
 10
53.30608643885621
 20
100.6536944671226
 30
0.0
 10
53.29932699301372
 20
100.3576135215418
 30
0.0
 10
53.29924481835059
 20
99.76363460791492
 30
0.0
 10
53.30581348012952
 20
99.47085385629858
 30
0.0
 10
53.33111870886292
 20
98.89346404774298
 30
0.0
 10
53.35016786872435
 20
98.60628953019139
 30
0.0
 10
53.39715589249825
 20
98.06296869811813
 30
0.0
 10
53.42508870788242
 20
97.80455667196586
 30
0.0
 10
53.48683201817639
 20
97.31418292732567
 30
0.0
 10
53.52039064870852
 20
97.08478106354154
 30
0.0
 10
53.58699454062297
 20
96.67119978297396
 30
0.0
 10
53.62049627053777
 20
96.48387583832945
 30
0.0
 10
53.68316331645149
 20
96.15454593188947
 30
0.0
 10
53.71156635850689
 20
96.01625819120491
 30
0.0
 10
53.75942486131468
 20
95.79087817720952
 30
0.0
 10
53.77899427973784
 20
95.70334622174957
 30
0.0
 10
53.80525944428886
 20
95.58723270812762
 30
0.0
 10
53.81211044438061
 20
95.55785714285733
 30
0.0
 10
53.81211044438062
 20
95.55785714285733
 30
0.0
  0
SPLINE
  5
2BB
330
1F
100
AcDbEntity
  8
0
  6
HIDDEN
 62
     7
370
     0
100
AcDbSpline
210
0.0
220
0.0
230
1.0
 70
    11
 71
     3
 72
    76
 73
    72
 74
     0
 42
0.00000001
 43
0.00000001
 12
1.0
 22
0.0
 32
0.0
 13
1.0
 23
0.0
 33
0.0
 40
-0.0312500000000012
 40
-0.0312500000000012
 40
0.0
 40
0.0
 40
0.0312499999999996
 40
0.0312499999999996
 40
0.0624999999999991
 40
0.0624999999999991
 40
0.0937499999999987
 40
0.0937499999999987
 40
0.1249999999999982
 40
0.1249999999999982
 40
0.1562499999999978
 40
0.1562499999999978
 40
0.1874999999999973
 40
0.1874999999999973
 40
0.2187499999999969
 40
0.2187499999999969
 40
0.2499999999999964
 40
0.2499999999999964
 40
0.2656249999999962
 40
0.2656249999999962
 40
0.2812499999999959
 40
0.2812499999999959
 40
0.3124999999999953
 40
0.3124999999999953
 40
0.3437499999999947
 40
0.3437499999999947
 40
0.374999999999994
 40
0.374999999999994
 40
0.4062499999999933
 40
0.4062499999999933
 40
0.4374999999999927
 40
0.4374999999999927
 40
0.4531249999999924
 40
0.4531249999999924
 40
0.4687499999999921
 40
0.4687499999999921
 40
0.4999999999999922
 40
0.4999999999999922
 40
0.5312499999999923
 40
0.5312499999999923
 40
0.5624999999999925
 40
0.5624999999999925
 40
0.5937499999999926
 40
0.5937499999999926
 40
0.6249999999999927
 40
0.6249999999999927
 40
0.6562499999999932
 40
0.6562499999999932
 40
0.6874999999999938
 40
0.6874999999999938
 40
0.7031249999999938
 40
0.7031249999999938
 40
0.7187499999999938
 40
0.7187499999999938
 40
0.749999999999994
 40
0.749999999999994
 40
0.7812499999999942
 40
0.7812499999999942
 40
0.8124999999999944
 40
0.8124999999999944
 40
0.8437499999999948
 40
0.8437499999999948
 40
0.8749999999999951
 40
0.8749999999999951
 40
0.9062499999999963
 40
0.9062499999999963
 40
0.9374999999999976
 40
0.9374999999999976
 40
0.9687499999999988
 40
0.9687499999999988
 40
1.0
 40
1.0
 40
1.03125
 40
1.03125
 10
66.68490743662423
 20
95.55785714285719
 30
0.0
 10
66.68490743662423
 20
95.55785714285719
 30
0.0
 10
66.66386028608429
 20
95.58839064248265
 30
0.0
 10
66.58588255688255
 20
95.7063953818668
 30
0.0
 10
66.52807945141772
 20
95.79542338762951
 30
0.0
 10
66.39056465520484
 20
96.0221231204247
 30
0.0
 10
66.31080023767596
 20
96.15981895770315
 30
0.0
 10
66.13952210858933
 20
96.48414533854923
 30
0.0
 10
66.05006075196994
 20
96.6670677572257
 30
0.0
 10
65.87413081252456
 20
97.07192514483289
 30
0.0
 10
65.78655012146079
 20
97.296872394554
 30
0.0
 10
65.62685313949707
 20
97.77794239590213
 30
0.0
 10
65.55492143028397
 20
98.03266891939575
 30
0.0
 10
65.4335016260564
 20
98.57259414219794
 30
0.0
 10
65.38374022272248
 20
98.86179332086796
 30
0.0
 10
65.31730193488879
 20
99.44600418607511
 30
0.0
 10
65.29980653351822
 20
99.74274973834649
 30
0.0
 10
65.2990424218797
 20
100.1951423288381
 30
0.0
 10
65.30313388330063
 20
100.3478731526962
 30
0.0
 10
65.31965219372071
 20
100.6477743129789
 30
0.0
 10
65.33203749022438
 20
100.7958297864242
 30
0.0
 10
65.3808230403575
 20
101.2345221025863
 30
0.0
 10
65.42957819163924
 20
101.5227173248106
 30
0.0
 10
65.55099152334849
 20
102.0683419041423
 30
0.0
 10
65.62303774440097
 20
102.3250415639163
 30
0.0
 10
65.78284902110073
 20
102.8088728701105
 30
0.0
 10
65.87014407774852
 20
103.0339059713212
 30
0.0
 10
66.04610243637603
 20
103.4402149628082
 30
0.0
 10
66.13601439217055
 20
103.62455065041
 30
0.0
 10
66.30731273185592
 20
103.9496526698638
 30
0.0
 10
66.3870181027567
 20
104.0875209271274
 30
0.0
 10
66.49017913267417
 20
104.2579138088043
 30
0.0
 10
66.5218210702372
 20
104.3085893214914
 30
0.0
 10
66.57813957704553
 20
104.3970904458342
 30
0.0
 10
66.60285803656511
 20
104.4349752134846
 30
0.0
 10
66.66259108537768
 20
104.5254638165977
 30
0.0
 10
66.68397626342819
 20
104.5564884277113
 30
0.0
 10
66.68577894169393
 20
104.5591381534758
 30
0.0
 10
66.66532858163472
 20
104.5294886703967
 30
0.0
 10
66.58828552820717
 20
104.4130095234737
 30
0.0
 10
66.53146525252494
 20
104.3256690220325
 30
0.0
 10
66.39363232113494
 20
104.0988425737049
 30
0.0
 10
66.31386495101616
 20
103.9613268312483
 30
0.0
 10
66.14344120343459
 20
103.6393468028489
 30
0.0
 10
66.05285684517287
 20
103.4546152336565
 30
0.0
 10
65.87662459606605
 20
103.0499799355568
 30
0.0
 10
65.79009675704837
 20
102.828665353349
 30
0.0
 10
65.62857627947292
 20
102.3437953969442
 30
0.0
 10
65.55606465506041
 20
102.0873569611861
 30
0.0
 10
65.46488716473755
 20
101.6830601572507
 30
0.0
 10
65.43738795657003
 20
101.5448857060108
 30
0.0
 10
65.38901287199415
 20
101.2612996470568
 30
0.0
 10
65.36802768328688
 20
101.114828925109
 30
0.0
 10
65.31739215807279
 20
100.6723068709307
 30
0.0
 10
65.29991658947125
 20
100.3746056891078
 30
0.0
 10
65.29868827912992
 20
99.77382067131644
 30
0.0
 10
65.3156096127645
 20
99.46783058962573
 30
0.0
 10
65.3808421254353
 20
98.8807987085758
 30
0.0
 10
65.42899226638814
 20
98.59572037194467
 30
0.0
 10
65.5513357683885
 20
98.04573524576814
 30
0.0
 10
65.62368873885615
 20
97.78853477680339
 30
0.0
 10
65.78323605707658
 20
97.30583779687464
 30
0.0
 10
65.87114136067382
 20
97.07927949085281
 30
0.0
 10
66.04769832177496
 20
96.67204355438317
 30
0.0
 10
66.13700393749481
 20
96.48918162145371
 30
0.0
 10
66.30830381963013
 20
96.1642858547191
 30
0.0
 10
66.38912072709422
 20
96.02460249980248
 30
0.0
 10
66.5263427719777
 20
95.7981896598053
 30
0.0
 10
66.58355850320686
 20
95.709950884773
 30
0.0
 10
66.66364980132262
 20
95.58867188899859
 30
0.0
 10
66.68490743662423
 20
95.55785714285719
 30
0.0
 10
66.68490743662423
 20
95.55785714285719
 30
0.0
  0
SPLINE
  5
2BC
330
1F
100
AcDbEntity
  8
0
  6
HIDDEN
 62
     7
370
     0
100
AcDbSpline
210
0.0
220
0.0
230
1.0
 70
    11
 71
     3
 72
    70
 73
    66
 74
     0
 42
0.00000001
 43
0.00000001
 12
1.0
 22
0.0
 32
0.0
 13
1.0
 23
0.0
 33
0.0
 40
-0.03125
 40
-0.03125
 40
0.0
 40
0.0
 40
0.03125
 40
0.03125
 40
0.0625
 40
0.0625
 40
0.09375
 40
0.09375
 40
0.125
 40
0.125
 40
0.15625
 40
0.15625
 40
0.1875
 40
0.1875
 40
0.21875
 40
0.21875
 40
0.25
 40
0.25
 40
0.28125
 40
0.28125
 40
0.3125
 40
0.3125
 40
0.34375
 40
0.34375
 40
0.375
 40
0.375
 40
0.40625
 40
0.40625
 40
0.4375
 40
0.4375
 40
0.46875
 40
0.46875
 40
0.5
 40
0.5
 40
0.53125
 40
0.53125
 40
0.5625
 40
0.5625
 40
0.59375
 40
0.59375
 40
0.625
 40
0.625
 40
0.65625
 40
0.65625
 40
0.6875
 40
0.6875
 40
0.71875
 40
0.71875
 40
0.75
 40
0.75
 40
0.78125
 40
0.78125
 40
0.8125
 40
0.8125
 40
0.84375
 40
0.84375
 40
0.875
 40
0.875
 40
0.90625
 40
0.90625
 40
0.9375
 40
0.9375
 40
0.96875
 40
0.96875
 40
1.0
 40
1.0
 40
1.03125
 40
1.03125
 10
92.78646098419085
 20
104.557857142857
 30
0.0
 10
92.78646098419084
 20
104.557857142857
 30
0.0
 10
92.79330865395362
 20
104.5284877888572
 30
0.0
 10
92.81930058023553
 20
104.413599143751
 30
0.0
 10
92.83875938313962
 20
104.3266198486721
 30
0.0
 10
92.88680424039505
 20
104.1004410051555
 30
0.0
 10
92.91519544872517
 20
103.9621755705192
 30
0.0
 10
92.97736597709964
 20
103.6356741119755
 30
0.0
 10
93.01127051471404
 20
103.4463005586777
 30
0.0
 10
93.0779276166522
 20
103.0326206716922
 30
0.0
 10
93.11102867438122
 20
102.8067136038128
 30
0.0
 10
93.17303770088826
 20
102.3151459889826
 30
0.0
 10
93.20120030975204
 20
102.0547382413715
 30
0.0
 10
93.24807900567274
 20
101.5136678806771
 30
0.0
 10
93.26708381357543
 20
101.2290461678016
 30
0.0
 10
93.29270184267281
 20
100.6477352517059
 30
0.0
 10
93.2992452912874
 20
100.3551243290059
 30
0.0
 10
93.29932576403918
 20
99.76605434999993
 30
0.0
 10
93.29264164543046
 20
99.46678284596356
 30
0.0
 10
93.26718946988771
 20
98.88889614226518
 30
0.0
 10
93.24853977102818
 20
98.60790554777061
 30
0.0
 10
93.201323742443
 20
98.06186631764507
 30
0.0
 10
93.17292744220863
 20
97.79987864546169
 30
0.0
 10
93.11160824568853
 20
97.31341214683195
 30
0.0
 10
93.07824282620443
 20
97.08504821338316
 30
0.0
 10
93.01094755605911
 20
96.66741103624308
 30
0.0
 10
92.97770411269049
 20
96.48191729750785
 30
0.0
 10
92.91570652671612
 20
96.15612279133096
 30
0.0
 10
92.88670117612695
 20
96.01478128726986
 30
0.0
 10
92.83876050801342
 20
95.78910654882037
 30
0.0
 10
92.8196273824692
 20
95.70357230606528
 30
0.0
 10
92.79339275259241
 20
95.58758577955297
 30
0.0
 10
92.78648945559604
 20
95.55798043781589
 30
0.0
 10
92.78643269414086
 20
95.55773463325423
 30
0.0
 10
92.79307022355322
 20
95.58617901281394
 30
0.0
 10
92.81932973693557
 20
95.70223765232825
 30
0.0
 10
92.83857729502083
 20
95.78828359380348
 30
0.0
 10
92.88629359233214
 20
96.01282362592403
 30
0.0
 10
92.9151661555778
 20
96.15337906630916
 30
0.0
 10
92.97744413140337
 20
96.48045643170803
 30
0.0
 10
93.01066855633447
 20
96.66588729998378
 30
0.0
 10
93.07752702084719
 20
97.0804012187161
 30
0.0
 10
93.11127425156188
 20
97.31099835311815
 30
0.0
 10
93.17266220417447
 20
97.79754081475949
 30
0.0
 10
93.20069023978664
 20
98.05551786811122
 30
0.0
 10
93.24812493928003
 20
98.6021517351092
 30
0.0
 10
93.26701918260822
 20
98.88625161109366
 30
0.0
 10
93.2924849897153
 20
99.46201981859173
 30
0.0
 10
93.29924443555777
 20
99.75810076417255
 30
0.0
 10
93.2993266102209
 20
100.3520796777995
 30
0.0
 10
93.29275794844197
 20
100.6448604294158
 30
0.0
 10
93.26745271970857
 20
101.2222502379714
 30
0.0
 10
93.24840355984712
 20
101.509424755523
 30
0.0
 10
93.20141553607323
 20
102.0527455875962
 30
0.0
 10
93.17348272068907
 20
102.3111576137485
 30
0.0
 10
93.1117394103951
 20
102.8015313583887
 30
0.0
 10
93.07818077986296
 20
103.0309332221728
 30
0.0
 10
93.0115768879485
 20
103.4445145027404
 30
0.0
 10
92.97807515803369
 20
103.6318384473849
 30
0.0
 10
92.91540811211998
 20
103.9611683538249
 30
0.0
 10
92.88700507006459
 20
104.0994560945095
 30
0.0
 10
92.83914656725678
 20
104.3248361085049
 30
0.0
 10
92.81957714883363
 20
104.4123680639648
 30
0.0
 10
92.79331198428261
 20
104.5284815775867
 30
0.0
 10
92.78646098419085
 20
104.557857142857
 30
0.0
 10
92.78646098419084
 20
104.557857142857
 30
0.0
  0
SPLINE
  5
2BD
330
1F
100
AcDbEntity
  8
0
  6
HIDDEN
 62
     7
370
     0
100
AcDbSpline
210
0.0
220
0.0
230
1.0
 70
    11
 71
     3
 72
    76
 73
    72
 74
     0
 42
0.00000001
 43
0.00000001
 12
1.0
 22
0.0
 32
0.0
 13
1.0
 23
0.0
 33
0.0
 40
-0.0312499999999998
 40
-0.0312499999999998
 40
0.0
 40
0.0
 40
0.0312500000000002
 40
0.0312500000000002
 40
0.0625000000000003
 40
0.0625000000000003
 40
0.0937500000000005
 40
0.0937500000000005
 40
0.1250000000000006
 40
0.1250000000000006
 40
0.1562500000000007
 40
0.1562500000000007
 40
0.1875000000000009
 40
0.1875000000000009
 40
0.218750000000001
 40
0.218750000000001
 40
0.2500000000000012
 40
0.2500000000000012
 40
0.2656250000000013
 40
0.2656250000000013
 40
0.2812500000000014
 40
0.2812500000000014
 40
0.3125000000000018
 40
0.3125000000000018
 40
0.3437500000000021
 40
0.3437500000000021
 40
0.3750000000000025
 40
0.3750000000000025
 40
0.4062500000000029
 40
0.4062500000000029
 40
0.4375000000000033
 40
0.4375000000000033
 40
0.4531250000000034
 40
0.4531250000000034
 40
0.4687500000000036
 40
0.4687500000000036
 40
0.5000000000000032
 40
0.5000000000000032
 40
0.5312500000000028
 40
0.5312500000000028
 40
0.5625000000000024
 40
0.5625000000000024
 40
0.593750000000002
 40
0.593750000000002
 40
0.6250000000000016
 40
0.6250000000000016
 40
0.6562500000000012
 40
0.6562500000000012
 40
0.6875000000000008
 40
0.6875000000000008
 40
0.7031250000000008
 40
0.7031250000000008
 40
0.7187500000000008
 40
0.7187500000000008
 40
0.7500000000000007
 40
0.7500000000000007
 40
0.7812500000000006
 40
0.7812500000000006
 40
0.8125000000000006
 40
0.8125000000000006
 40
0.8437500000000004
 40
0.8437500000000004
 40
0.8750000000000003
 40
0.8750000000000003
 40
0.9062500000000003
 40
0.9062500000000003
 40
0.9375000000000002
 40
0.9375000000000002
 40
0.9687500000000002
 40
0.9687500000000002
 40
1.0
 40
1.0
 40
1.03125
 40
1.03125
 10
79.91366399194725
 20
104.5578571428571
 30
0.0
 10
79.91366399194725
 20
104.5578571428571
 30
0.0
 10
79.93471114248717
 20
104.5273236432316
 30
0.0
 10
80.01268887168891
 20
104.4093189038475
 30
0.0
 10
80.07049197715372
 20
104.3202908980848
 30
0.0
 10
80.20800677336663
 20
104.0935911652896
 30
0.0
 10
80.2877711908955
 20
103.9558953280112
 30
0.0
 10
80.45904931998213
 20
103.6315689471651
 30
0.0
 10
80.54851067660152
 20
103.4486465284886
 30
0.0
 10
80.72444061604692
 20
103.0437891408814
 30
0.0
 10
80.8120213071107
 20
102.8188418911603
 30
0.0
 10
80.97171828907442
 20
102.3377718898122
 30
0.0
 10
81.04364999828752
 20
102.0830453663185
 30
0.0
 10
81.16506980251509
 20
101.5431201435163
 30
0.0
 10
81.21483120584902
 20
101.2539209648463
 30
0.0
 10
81.2812694936827
 20
100.6697100996392
 30
0.0
 10
81.29876489505327
 20
100.3729645473678
 30
0.0
 10
81.2995290066918
 20
99.92057195687622
 30
0.0
 10
81.29543754527089
 20
99.76784113301811
 30
0.0
 10
81.27891923485079
 20
99.46793997273534
 30
0.0
 10
81.26653393834711
 20
99.31988449929005
 30
0.0
 10
81.217748388214
 20
98.88119218312801
 30
0.0
 10
81.16899323693228
 20
98.59299696090369
 30
0.0
 10
81.04757990522302
 20
98.047372381572
 30
0.0
 10
80.97553368417054
 20
97.790672721798
 30
0.0
 10
80.81572240747079
 20
97.3068414156038
 30
0.0
 10
80.72842735082298
 20
97.08180831439307
 30
0.0
 10
80.5524689921955
 20
96.67549932290609
 30
0.0
 10
80.46255703640097
 20
96.49116363530426
 30
0.0
 10
80.29125869671559
 20
96.16606161585047
 30
0.0
 10
80.21155332581483
 20
96.02819335858688
 30
0.0
 10
80.10839229589735
 20
95.85780047691
 30
0.0
 10
80.07675035833432
 20
95.80712496422292
 30
0.0
 10
80.020431851526
 20
95.71862383988004
 30
0.0
 10
79.99571339200642
 20
95.68073907222964
 30
0.0
 10
79.93598034319383
 20
95.59025046911661
 30
0.0
 10
79.91459516514334
 20
95.55922585800302
 30
0.0
 10
79.91279248687759
 20
95.55657613223852
 30
0.0
 10
79.93324284693682
 20
95.58622561531759
 30
0.0
 10
80.01028590036435
 20
95.70270476224054
 30
0.0
 10
80.06710617604658
 20
95.79004526368175
 30
0.0
 10
80.20493910743657
 20
96.0168717120094
 30
0.0
 10
80.28470647755537
 20
96.15438745446596
 30
0.0
 10
80.45513022513693
 20
96.47636748286536
 30
0.0
 10
80.54571458339865
 20
96.66109905205785
 30
0.0
 10
80.72194683250545
 20
97.0657343501575
 30
0.0
 10
80.80847467152314
 20
97.28704893236528
 30
0.0
 10
80.96999514909858
 20
97.77191888877012
 30
0.0
 10
81.0425067735111
 20
98.02835732452814
 30
0.0
 10
81.13368426383397
 20
98.4326541284636
 30
0.0
 10
81.16118347200147
 20
98.5708285797035
 30
0.0
 10
81.20955855657733
 20
98.85441463865754
 30
0.0
 10
81.23054374528463
 20
99.00088536060528
 30
0.0
 10
81.2811792704987
 20
99.44340741478361
 30
0.0
 10
81.29865483910024
 20
99.74110859660648
 30
0.0
 10
81.29988314944157
 20
100.3418936143978
 30
0.0
 10
81.282961815807
 20
100.6478836960886
 30
0.0
 10
81.21772930313618
 20
101.2349155771385
 30
0.0
 10
81.16957916218334
 20
101.5199939137696
 30
0.0
 10
81.04723566018299
 20
102.0699790399461
 30
0.0
 10
80.97488268971534
 20
102.3271795089109
 30
0.0
 10
80.81533537149491
 20
102.8098764888396
 30
0.0
 10
80.72743006789766
 20
103.0364347948615
 30
0.0
 10
80.55087310679653
 20
103.4436707313311
 30
0.0
 10
80.46156749107666
 20
103.6265326642606
 30
0.0
 10
80.29026760894133
 20
103.9514284309952
 30
0.0
 10
80.20945070147724
 20
104.0911117859118
 30
0.0
 10
80.07222865659378
 20
104.317524625909
 30
0.0
 10
80.0150129253646
 20
104.4057634009413
 30
0.0
 10
79.93492162724884
 20
104.5270423967157
 30
0.0
 10
79.91366399194725
 20
104.5578571428571
 30
0.0
 10
79.91366399194725
 20
104.5578571428571
 30
0.0
  0
SPLINE
  5
2BE
330
1F
100
AcDbEntity
  8
0
  6
HIDDEN
 62
     7
370
     0
100
AcDbSpline
210
0.0
220
0.0
230
1.0
 70
    11
 71
     3
 72
    70
 73
    66
 74
     0
 42
0.00000001
 43
0.00000001
 12
1.0
 22
0.0
 32
0.0
 13
1.0
 23
0.0
 33
0.0
 40
-0.03125
 40
-0.03125
 40
0.0
 40
0.0
 40
0.03125
 40
0.03125
 40
0.0625
 40
0.0625
 40
0.09375
 40
0.09375
 40
0.125
 40
0.125
 40
0.15625
 40
0.15625
 40
0.1875
 40
0.1875
 40
0.21875
 40
0.21875
 40
0.25
 40
0.25
 40
0.28125
 40
0.28125
 40
0.3125
 40
0.3125
 40
0.34375
 40
0.34375
 40
0.375
 40
0.375
 40
0.40625
 40
0.40625
 40
0.4375
 40
0.4375
 40
0.46875
 40
0.46875
 40
0.5
 40
0.5
 40
0.53125
 40
0.53125
 40
0.5625
 40
0.5625
 40
0.59375
 40
0.59375
 40
0.625
 40
0.625
 40
0.65625
 40
0.65625
 40
0.6875
 40
0.6875
 40
0.71875
 40
0.71875
 40
0.75
 40
0.75
 40
0.78125
 40
0.78125
 40
0.8125
 40
0.8125
 40
0.84375
 40
0.84375
 40
0.875
 40
0.875
 40
0.90625
 40
0.90625
 40
0.9375
 40
0.9375
 40
0.96875
 40
0.96875
 40
1.0
 40
1.0
 40
1.03125
 40
1.03125
 10
68.79928571428576
 20
119.5450324127622
 30
0.0
 10
68.79928571428576
 20
119.5450324127622
 30
0.0
 10
68.82865506828561
 20
119.551880082525
 30
0.0
 10
68.94354371339179
 20
119.5778720088069
 30
0.0
 10
69.03052300847065
 20
119.597330811711
 30
0.0
 10
69.2567018519873
 20
119.6453756689664
 30
0.0
 10
69.39496728662357
 20
119.6737668772965
 30
0.0
 10
69.7214687451673
 20
119.735937405671
 30
0.0
 10
69.91084229846507
 20
119.7698419432854
 30
0.0
 10
70.32452218545055
 20
119.8364990452236
 30
0.0
 10
70.55042925333004
 20
119.8696001029526
 30
0.0
 10
71.04199686816023
 20
119.9316091294596
 30
0.0
 10
71.3024046157713
 20
119.9597717383234
 30
0.0
 10
71.84347497646566
 20
120.0066504342441
 30
0.0
 10
72.12809668934123
 20
120.0256552421468
 30
0.0
 10
72.70940760543685
 20
120.0512732712442
 30
0.0
 10
73.00201852813686
 20
120.0578167198588
 30
0.0
 10
73.59108850714286
 20
120.0578971926106
 30
0.0
 10
73.89036001117924
 20
120.0512130740019
 30
0.0
 10
74.46824671487764
 20
120.0257608984591
 30
0.0
 10
74.74923730937218
 20
120.0071111995995
 30
0.0
 10
75.29527653949772
 20
119.9598951710144
 30
0.0
 10
75.5572642116811
 20
119.93149887078
 30
0.0
 10
76.04373071031085
 20
119.8701796742599
 30
0.0
 10
76.27209464375964
 20
119.8368142547758
 30
0.0
 10
76.68973182089972
 20
119.7695189846305
 30
0.0
 10
76.87522555963494
 20
119.7362755412619
 30
0.0
 10
77.20102006581183
 20
119.6742779552875
 30
0.0
 10
77.34236156987293
 20
119.6452726046983
 30
0.0
 10
77.56803630832242
 20
119.5973319365848
 30
0.0
 10
77.65357055107751
 20
119.5781988110406
 30
0.0
 10
77.76955707758984
 20
119.5519641811638
 30
0.0
 10
77.7991624193269
 20
119.5450608841674
 30
0.0
 10
77.79940822388856
 20
119.5450041227122
 30
0.0
 10
77.77096384432886
 20
119.5516416521246
 30
0.0
 10
77.65490520481455
 20
119.577901165507
 30
0.0
 10
77.5688592633393
 20
119.5971487235922
 30
0.0
 10
77.34431923121878
 20
119.6448650209035
 30
0.0
 10
77.20376379083365
 20
119.6737375841492
 30
0.0
 10
76.87668642543476
 20
119.7360155599748
 30
0.0
 10
76.69125555715901
 20
119.7692399849059
 30
0.0
 10
76.27674163842669
 20
119.8360984494186
 30
0.0
 10
76.04614450402464
 20
119.8698456801333
 30
0.0
 10
75.5596020423833
 20
119.9312336327459
 30
0.0
 10
75.30162498903157
 20
119.959261668358
 30
0.0
 10
74.75499112203359
 20
120.0066963678514
 30
0.0
 10
74.47089124604913
 20
120.0255906111796
 30
0.0
 10
73.89512303855108
 20
120.0510564182867
 30
0.0
 10
73.59904209297027
 20
120.0578158641291
 30
0.0
 10
73.00506317934335
 20
120.0578980387923
 30
0.0
 10
72.71228242772698
 20
120.0513293770133
 30
0.0
 10
72.1348926191714
 20
120.0260241482799
 30
0.0
 10
71.8477181016198
 20
120.0069749884185
 30
0.0
 10
71.30439726954656
 20
119.9599869646446
 30
0.0
 10
71.04598524339427
 20
119.9320541492604
 30
0.0
 10
70.5556114987541
 20
119.8703108389665
 30
0.0
 10
70.32620963496997
 20
119.8367522084343
 30
0.0
 10
69.9126283544024
 20
119.7701483165199
 30
0.0
 10
69.72530440975787
 20
119.7366465866051
 30
0.0
 10
69.3959745033179
 20
119.6739795406913
 30
0.0
 10
69.25768676263333
 20
119.6455764986359
 30
0.0
 10
69.03230674863795
 20
119.5977179958281
 30
0.0
 10
68.944774793178
 20
119.578148577405
 30
0.0
 10
68.82866127955604
 20
119.5518834128539
 30
0.0
 10
68.79928571428576
 20
119.5450324127622
 30
0.0
 10
68.79928571428576
 20
119.5450324127622
 30
0.0
  0
SPLINE
  5
2BF
330
1F
100
AcDbEntity
  8
0
  6
HIDDEN
 62
     7
370
     0
100
AcDbSpline
210
0.0
220
0.0
230
1.0
 70
    11
 71
     3
 72
    76
 73
    72
 74
     0
 42
0.00000001
 43
0.00000001
 12
1.0
 22
0.0
 32
0.0
 13
1.0
 23
0.0
 33
0.0
 40
-0.0312499999999998
 40
-0.0312499999999998
 40
0.0
 40
0.0
 40
0.0312500000000002
 40
0.0312500000000002
 40
0.0625000000000004
 40
0.0625000000000004
 40
0.0937500000000006
 40
0.0937500000000006
 40
0.1250000000000008
 40
0.1250000000000008
 40
0.156250000000001
 40
0.156250000000001
 40
0.1875000000000012
 40
0.1875000000000012
 40
0.2187500000000014
 40
0.2187500000000014
 40
0.2500000000000016
 40
0.2500000000000016
 40
0.2656250000000017
 40
0.2656250000000017
 40
0.2812500000000018
 40
0.2812500000000018
 40
0.3125000000000021
 40
0.3125000000000021
 40
0.3437500000000024
 40
0.3437500000000024
 40
0.3750000000000028
 40
0.3750000000000028
 40
0.4062500000000031
 40
0.4062500000000031
 40
0.4375000000000034
 40
0.4375000000000034
 40
0.4531250000000036
 40
0.4531250000000036
 40
0.4687500000000037
 40
0.4687500000000037
 40
0.5000000000000033
 40
0.5000000000000033
 40
0.531250000000003
 40
0.531250000000003
 40
0.5625000000000027
 40
0.5625000000000027
 40
0.5937500000000022
 40
0.5937500000000022
 40
0.6250000000000019
 40
0.6250000000000019
 40
0.6562500000000016
 40
0.6562500000000016
 40
0.6875000000000012
 40
0.6875000000000012
 40
0.7031250000000012
 40
0.7031250000000012
 40
0.7187500000000012
 40
0.7187500000000012
 40
0.7500000000000011
 40
0.7500000000000011
 40
0.781250000000001
 40
0.781250000000001
 40
0.8125000000000009
 40
0.8125000000000009
 40
0.8437500000000008
 40
0.8437500000000008
 40
0.8750000000000007
 40
0.8750000000000007
 40
0.9062500000000006
 40
0.9062500000000006
 40
0.9375000000000003
 40
0.9375000000000003
 40
0.9687500000000002
 40
0.9687500000000002
 40
1.0
 40
1.0
 40
1.03125
 40
1.03125
 10
68.79928571428576
 20
106.6722354205186
 30
0.0
 10
68.79928571428576
 20
106.6722354205186
 30
0.0
 10
68.82981921391121
 20
106.6932825710585
 30
0.0
 10
68.94782395329537
 20
106.7712603002603
 30
0.0
 10
69.03685195905807
 20
106.8290634057251
 30
0.0
 10
69.26355169185325
 20
106.966578201938
 30
0.0
 10
69.4012475291317
 20
107.0463426194669
 30
0.0
 10
69.72557390997778
 20
107.2176207485535
 30
0.0
 10
69.90849632865424
 20
107.3070821051729
 30
0.0
 10
70.31335371626143
 20
107.4830120446183
 30
0.0
 10
70.53830096598257
 20
107.5705927356821
 30
0.0
 10
71.01937096733067
 20
107.7302897176458
 30
0.0
 10
71.27409749082429
 20
107.8022214268589
 30
0.0
 10
71.8140227136265
 20
107.9236412310864
 30
0.0
 10
72.1032218922965
 20
107.9734026344204
 30
0.0
 10
72.68743275750366
 20
108.0398409222541
 30
0.0
 10
72.98417830977503
 20
108.0573363236246
 30
0.0
 10
73.43657090026663
 20
108.0581004352632
 30
0.0
 10
73.58930172412472
 20
108.0540089738422
 30
0.0
 10
73.8892028844075
 20
108.0374906634222
 30
0.0
 10
74.03725835785278
 20
108.0251053669185
 30
0.0
 10
74.47595067401484
 20
107.9763198167854
 30
0.0
 10
74.76414589623914
 20
107.9275646655036
 30
0.0
 10
75.30977047557084
 20
107.8061513337944
 30
0.0
 10
75.56647013534484
 20
107.7341051127419
 30
0.0
 10
76.05030144153905
 20
107.5742938360422
 30
0.0
 10
76.27533454274976
 20
107.4869987793944
 30
0.0
 10
76.68164353423674
 20
107.3110404207669
 30
0.0
 10
76.86597922183857
 20
107.2211284649724
 30
0.0
 10
77.19108124129238
 20
107.049830125287
 30
0.0
 10
77.32894949855597
 20
106.9701247543862
 30
0.0
 10
77.49934238023285
 20
106.8669637244687
 30
0.0
 10
77.55001789291993
 20
106.8353217869057
 30
0.0
 10
77.6385190172628
 20
106.7790032800974
 30
0.0
 10
77.67640378491319
 20
106.7542848205778
 30
0.0
 10
77.76689238802624
 20
106.6945517717652
 30
0.0
 10
77.79791699913983
 20
106.6731665937147
 30
0.0
 10
77.80056672490433
 20
106.671363915449
 30
0.0
 10
77.77091724182525
 20
106.6918142755082
 30
0.0
 10
77.6544380949023
 20
106.7688573289357
 30
0.0
 10
77.5670975934611
 20
106.825677604618
 30
0.0
 10
77.34027114513344
 20
106.963510536008
 30
0.0
 10
77.20275540267687
 20
107.0432779061268
 30
0.0
 10
76.88077537427749
 20
107.2137016537083
 30
0.0
 10
76.696043805085
 20
107.30428601197
 30
0.0
 10
76.29140850698535
 20
107.4805182610768
 30
0.0
 10
76.07009392477755
 20
107.5670461000945
 30
0.0
 10
75.58522396837272
 20
107.72856657767
 30
0.0
 10
75.32878553261469
 20
107.8010782020825
 30
0.0
 10
74.92448872867925
 20
107.8922556924053
 30
0.0
 10
74.78631427743933
 20
107.9197549005728
 30
0.0
 10
74.5027282184853
 20
107.9681299851487
 30
0.0
 10
74.35625749653755
 20
107.989115173856
 30
0.0
 10
73.91373544235924
 20
108.0397506990701
 30
0.0
 10
73.61603426053635
 20
108.0572262676716
 30
0.0
 10
73.015249242745
 20
108.0584545780129
 30
0.0
 10
72.70925916105428
 20
108.0415332443784
 30
0.0
 10
72.12222728000435
 20
107.9763007317076
 30
0.0
 10
71.83714894337324
 20
107.9281505907547
 30
0.0
 10
71.28716381719669
 20
107.8058070887543
 30
0.0
 10
71.02996334823195
 20
107.7334541182867
 30
0.0
 10
70.54726636830318
 20
107.5739068000663
 30
0.0
 10
70.32070806228135
 20
107.486001496469
 30
0.0
 10
69.91347212581172
 20
107.3094445353679
 30
0.0
 10
69.73061019288227
 20
107.220138919648
 30
0.0
 10
69.40571442614765
 20
107.0488390375127
 30
0.0
 10
69.26603107123103
 20
106.9680221300486
 30
0.0
 10
69.03961823123386
 20
106.8308000851651
 30
0.0
 10
68.95137945620154
 20
106.773584353936
 30
0.0
 10
68.83010046042713
 20
106.6934930558202
 30
0.0
 10
68.79928571428576
 20
106.6722354205186
 30
0.0
 10
68.79928571428576
 20
106.6722354205186
 30
0.0
  0
SPLINE
  5
2C0
330
1F
100
AcDbEntity
  8
0
  6
HIDDEN
 62
     7
370
     0
100
AcDbSpline
210
0.0
220
0.0
230
1.0
 70
    11
 71
     3
 72
    70
 73
    66
 74
     0
 42
0.00000001
 43
0.00000001
 12
1.0
 22
0.0
 32
0.0
 13
1.0
 23
0.0
 33
0.0
 40
-0.03125
 40
-0.03125
 40
0.0
 40
0.0
 40
0.03125
 40
0.03125
 40
0.0625
 40
0.0625
 40
0.09375
 40
0.09375
 40
0.125
 40
0.125
 40
0.15625
 40
0.15625
 40
0.1875
 40
0.1875
 40
0.21875
 40
0.21875
 40
0.25
 40
0.25
 40
0.28125
 40
0.28125
 40
0.3125
 40
0.3125
 40
0.34375
 40
0.34375
 40
0.375
 40
0.375
 40
0.40625
 40
0.40625
 40
0.4375
 40
0.4375
 40
0.46875
 40
0.46875
 40
0.5
 40
0.5
 40
0.53125
 40
0.53125
 40
0.5625
 40
0.5625
 40
0.59375
 40
0.59375
 40
0.625
 40
0.625
 40
0.65625
 40
0.65625
 40
0.6875
 40
0.6875
 40
0.71875
 40
0.71875
 40
0.75
 40
0.75
 40
0.78125
 40
0.78125
 40
0.8125
 40
0.8125
 40
0.84375
 40
0.84375
 40
0.875
 40
0.875
 40
0.90625
 40
0.90625
 40
0.9375
 40
0.9375
 40
0.96875
 40
0.96875
 40
1.0
 40
1.0
 40
1.03125
 40
1.03125
 10
53.81211044438061
 20
95.55785714285732
 30
0.0
 10
53.81211044438063
 20
95.55785714285733
 30
0.0
 10
53.80526277461787
 20
95.5872264968572
 30
0.0
 10
53.77927084833593
 20
95.70211514196336
 30
0.0
 10
53.75981204543184
 20
95.78909443704222
 30
0.0
 10
53.7117671881764
 20
96.01527328055889
 30
0.0
 10
53.68337597984628
 20
96.15353871519515
 30
0.0
 10
53.62120545147182
 20
96.48004017373887
 30
0.0
 10
53.58730091385744
 20
96.66941372703667
 30
0.0
 10
53.52064381191926
 20
97.08309361402213
 30
0.0
 10
53.48754275419026
 20
97.30900068190162
 30
0.0
 10
53.42553372768322
 20
97.80056829673181
 30
0.0
 10
53.39737111881943
 20
98.06097604434287
 30
0.0
 10
53.35049242289875
 20
98.60204640503724
 30
0.0
 10
53.33148761499605
 20
98.88666811791282
 30
0.0
 10
53.30586958589868
 20
99.46797903400844
 30
0.0
 10
53.2993261372841
 20
99.76058995670843
 30
0.0
 10
53.29924566453231
 20
100.3496599357144
 30
0.0
 10
53.30592978314101
 20
100.6489314397508
 30
0.0
 10
53.33138195868379
 20
101.2268181434492
 30
0.0
 10
53.35003165754333
 20
101.5078087379438
 30
0.0
 10
53.39724768612851
 20
102.0538479680693
 30
0.0
 10
53.42564398636288
 20
102.3158356402527
 30
0.0
 10
53.486963182883
 20
102.8023021388824
 30
0.0
 10
53.52032860236709
 20
103.0306660723312
 30
0.0
 10
53.58762387251241
 20
103.4483032494713
 30
0.0
 10
53.62086731588104
 20
103.6337969882065
 30
0.0
 10
53.68286490185541
 20
103.9595914943834
 30
0.0
 10
53.71187025244458
 20
104.1009329984445
 30
0.0
 10
53.7598109205581
 20
104.326607736894
 30
0.0
 10
53.77894404610232
 20
104.4121419796491
 30
0.0
 10
53.80517867597913
 20
104.5281285061614
 30
0.0
 10
53.81208197297549
 20
104.5577338478985
 30
0.0
 10
53.81213873443068
 20
104.5579796524601
 30
0.0
 10
53.80550120501833
 20
104.5295352729004
 30
0.0
 10
53.77924169163595
 20
104.4134766333861
 30
0.0
 10
53.75999413355069
 20
104.3274306919109
 30
0.0
 10
53.71227783623939
 20
104.1028906597903
 30
0.0
 10
53.68340527299374
 20
103.9623352194052
 30
0.0
 10
53.62112729716814
 20
103.6352578540063
 30
0.0
 10
53.58790287223704
 20
103.4498269857306
 30
0.0
 10
53.52104440772433
 20
103.0353130669983
 30
0.0
 10
53.48729717700964
 20
102.8047159325962
 30
0.0
 10
53.42590922439705
 20
102.3181734709549
 30
0.0
 10
53.39788118878489
 20
102.0601964176031
 30
0.0
 10
53.35044648929148
 20
101.5135625506052
 30
0.0
 10
53.33155224596328
 20
101.2294626746207
 30
0.0
 10
53.30608643885621
 20
100.6536944671226
 30
0.0
 10
53.29932699301374
 20
100.3576135215418
 30
0.0
 10
53.29924481835058
 20
99.76363460791492
 30
0.0
 10
53.30581348012952
 20
99.47085385629858
 30
0.0
 10
53.33111870886292
 20
98.89346404774298
 30
0.0
 10
53.35016786872437
 20
98.60628953019139
 30
0.0
 10
53.39715589249826
 20
98.06296869811813
 30
0.0
 10
53.42508870788242
 20
97.80455667196586
 30
0.0
 10
53.48683201817638
 20
97.31418292732567
 30
0.0
 10
53.52039064870852
 20
97.08478106354153
 30
0.0
 10
53.58699454062298
 20
96.67119978297396
 30
0.0
 10
53.62049627053778
 20
96.48387583832944
 30
0.0
 10
53.68316331645151
 20
96.15454593188947
 30
0.0
 10
53.71156635850689
 20
96.01625819120491
 30
0.0
 10
53.75942486131468
 20
95.79087817720952
 30
0.0
 10
53.77899427973785
 20
95.70334622174957
 30
0.0
 10
53.80525944428888
 20
95.58723270812762
 30
0.0
 10
53.81211044438061
 20
95.55785714285732
 30
0.0
 10
53.81211044438063
 20
95.55785714285733
 30
0.0
  0
SPLINE
  5
2C1
330
1F
100
AcDbEntity
  8
0
  6
HIDDEN
 62
     7
370
     0
100
AcDbSpline
210
0.0
220
0.0
230
1.0
 70
    11
 71
     3
 72
    76
 73
    72
 74
     0
 42
0.00000001
 43
0.00000001
 12
1.0
 22
0.0
 32
0.0
 13
1.0
 23
0.0
 33
0.0
 40
-0.0312499999999998
 40
-0.0312499999999998
 40
0.0
 40
0.0
 40
0.0312500000000004
 40
0.0312500000000004
 40
0.0625000000000008
 40
0.0625000000000008
 40
0.0937500000000012
 40
0.0937500000000012
 40
0.1250000000000016
 40
0.1250000000000016
 40
0.156250000000002
 40
0.156250000000002
 40
0.1875000000000024
 40
0.1875000000000024
 40
0.2187500000000028
 40
0.2187500000000028
 40
0.2500000000000032
 40
0.2500000000000032
 40
0.2656250000000034
 40
0.2656250000000034
 40
0.2812500000000036
 40
0.2812500000000036
 40
0.3125000000000038
 40
0.3125000000000038
 40
0.3437500000000041
 40
0.3437500000000041
 40
0.3750000000000043
 40
0.3750000000000043
 40
0.4062500000000046
 40
0.4062500000000046
 40
0.4375000000000048
 40
0.4375000000000048
 40
0.4531250000000049
 40
0.4531250000000049
 40
0.4687500000000051
 40
0.4687500000000051
 40
0.5000000000000047
 40
0.5000000000000047
 40
0.5312500000000042
 40
0.5312500000000042
 40
0.5625000000000037
 40
0.5625000000000037
 40
0.5937500000000032
 40
0.5937500000000032
 40
0.6250000000000027
 40
0.6250000000000027
 40
0.6562500000000022
 40
0.6562500000000022
 40
0.6875000000000018
 40
0.6875000000000018
 40
0.7031250000000017
 40
0.7031250000000017
 40
0.7187500000000014
 40
0.7187500000000014
 40
0.7500000000000013
 40
0.7500000000000013
 40
0.7812500000000012
 40
0.7812500000000012
 40
0.812500000000001
 40
0.812500000000001
 40
0.8437500000000009
 40
0.8437500000000009
 40
0.8750000000000007
 40
0.8750000000000007
 40
0.9062500000000006
 40
0.9062500000000006
 40
0.9375000000000004
 40
0.9375000000000004
 40
0.9687500000000002
 40
0.9687500000000002
 40
1.0
 40
1.0
 40
1.03125
 40
1.03125
 10
66.68490743662423
 20
95.55785714285719
 30
0.0
 10
66.68490743662423
 20
95.55785714285719
 30
0.0
 10
66.66386028608429
 20
95.58839064248265
 30
0.0
 10
66.58588255688255
 20
95.7063953818668
 30
0.0
 10
66.52807945141774
 20
95.7954233876295
 30
0.0
 10
66.39056465520484
 20
96.02212312042468
 30
0.0
 10
66.31080023767598
 20
96.15981895770314
 30
0.0
 10
66.13952210858935
 20
96.48414533854923
 30
0.0
 10
66.05006075196994
 20
96.66706775722568
 30
0.0
 10
65.87413081252456
 20
97.07192514483289
 30
0.0
 10
65.78655012146079
 20
97.29687239455401
 30
0.0
 10
65.62685313949707
 20
97.77794239590213
 30
0.0
 10
65.55492143028395
 20
98.03266891939575
 30
0.0
 10
65.4335016260564
 20
98.57259414219794
 30
0.0
 10
65.38374022272247
 20
98.86179332086796
 30
0.0
 10
65.31730193488879
 20
99.44600418607511
 30
0.0
 10
65.29980653351822
 20
99.74274973834649
 30
0.0
 10
65.2990424218797
 20
100.1951423288381
 30
0.0
 10
65.30313388330063
 20
100.3478731526962
 30
0.0
 10
65.3196521937207
 20
100.647774312979
 30
0.0
 10
65.33203749022438
 20
100.7958297864242
 30
0.0
 10
65.38082304035748
 20
101.2345221025863
 30
0.0
 10
65.42957819163924
 20
101.5227173248106
 30
0.0
 10
65.55099152334849
 20
102.0683419041423
 30
0.0
 10
65.62303774440097
 20
102.3250415639163
 30
0.0
 10
65.78284902110073
 20
102.8088728701105
 30
0.0
 10
65.87014407774852
 20
103.0339059713212
 30
0.0
 10
66.04610243637602
 20
103.4402149628082
 30
0.0
 10
66.13601439217055
 20
103.62455065041
 30
0.0
 10
66.30731273185593
 20
103.9496526698638
 30
0.0
 10
66.3870181027567
 20
104.0875209271274
 30
0.0
 10
66.49017913267417
 20
104.2579138088043
 30
0.0
 10
66.5218210702372
 20
104.3085893214914
 30
0.0
 10
66.57813957704553
 20
104.3970904458342
 30
0.0
 10
66.6028580365651
 20
104.4349752134846
 30
0.0
 10
66.66259108537768
 20
104.5254638165977
 30
0.0
 10
66.68397626342819
 20
104.5564884277113
 30
0.0
 10
66.68577894169393
 20
104.5591381534758
 30
0.0
 10
66.66532858163472
 20
104.5294886703967
 30
0.0
 10
66.58828552820717
 20
104.4130095234737
 30
0.0
 10
66.53146525252494
 20
104.3256690220325
 30
0.0
 10
66.39363232113494
 20
104.0988425737049
 30
0.0
 10
66.31386495101616
 20
103.9613268312483
 30
0.0
 10
66.1434412034346
 20
103.6393468028489
 30
0.0
 10
66.05285684517287
 20
103.4546152336564
 30
0.0
 10
65.87662459606605
 20
103.0499799355568
 30
0.0
 10
65.79009675704836
 20
102.828665353349
 30
0.0
 10
65.62857627947292
 20
102.3437953969442
 30
0.0
 10
65.5560646550604
 20
102.0873569611861
 30
0.0
 10
65.46488716473755
 20
101.6830601572507
 30
0.0
 10
65.43738795657003
 20
101.5448857060108
 30
0.0
 10
65.38901287199415
 20
101.2612996470568
 30
0.0
 10
65.36802768328688
 20
101.114828925109
 30
0.0
 10
65.3173921580728
 20
100.6723068709307
 30
0.0
 10
65.29991658947127
 20
100.3746056891078
 30
0.0
 10
65.29868827912992
 20
99.77382067131644
 30
0.0
 10
65.3156096127645
 20
99.46783058962573
 30
0.0
 10
65.3808421254353
 20
98.8807987085758
 30
0.0
 10
65.42899226638814
 20
98.59572037194468
 30
0.0
 10
65.5513357683885
 20
98.04573524576814
 30
0.0
 10
65.62368873885615
 20
97.7885347768034
 30
0.0
 10
65.78323605707658
 20
97.30583779687464
 30
0.0
 10
65.8711413606738
 20
97.07927949085281
 30
0.0
 10
66.04769832177494
 20
96.67204355438317
 30
0.0
 10
66.13700393749481
 20
96.4891816214537
 30
0.0
 10
66.30830381963013
 20
96.1642858547191
 30
0.0
 10
66.38912072709422
 20
96.02460249980248
 30
0.0
 10
66.5263427719777
 20
95.7981896598053
 30
0.0
 10
66.58355850320686
 20
95.709950884773
 30
0.0
 10
66.66364980132263
 20
95.58867188899859
 30
0.0
 10
66.68490743662423
 20
95.55785714285719
 30
0.0
 10
66.68490743662423
 20
95.55785714285719
 30
0.0
  0
LINE
  5
2C2
330
1F
100
AcDbEntity
  8
0
  6
HIDDEN
 62
     7
370
     0
100
AcDbLine
 10
68.299285826
 20
109.5578568374
 30
0.0
 11
69.7992856063
 21
108.0578575228
 31
0.0
  0
LINE
  5
2C3
330
1F
100
AcDbEntity
  8
0
  6
HIDDEN
 62
     7
370
     0
100
AcDbLine
 10
76.7992858223
 20
108.0578575228
 30
0.0
 11
78.2992856025
 21
109.5578568374
 31
0.0
  0
LINE
  5
2C4
330
1F
100
AcDbEntity
  8
0
  6
HIDDEN
 62
     7
370
     0
100
AcDbLine
 10
82.7992854088
 20
105.0578570311
 30
0.0
 11
81.2992860943
 21
103.5578572509
 31
0.0
  0
LINE
  5
2C5
330
1F
100
AcDbEntity
  8
0
  6
HIDDEN
 62
     7
370
     0
100
AcDbLine
 10
81.2992860943
 20
96.5578570348
 30
0.0
 11
82.7992854088
 21
95.0578572546
 31
0.0
  0
LINE
  5
2C6
330
1F
100
AcDbEntity
  8
0
  6
HIDDEN
 62
     7
370
     0
100
AcDbLine
 10
92.6642033651
 20
105.0578570311
 30
0.0
 11
82.7781639441
 21
105.0578570311
 31
0.0
  0
LINE
  5
2C7
330
1F
100
AcDbEntity
  8
0
  6
HIDDEN
 62
     7
370
     0
100
AcDbLine
 10
82.7781639441
 20
95.0578572546
 30
0.0
 11
92.6642033651
 21
95.0578572546
 31
0.0
  0
LINE
  5
2C8
330
1F
100
AcDbEntity
  8
0
  6
HIDDEN
 62
     7
370
     0
100
AcDbLine
 10
82.7781639441
 20
105.0578570311
 30
0.0
 11
81.2781636983
 21
103.5578572509
 31
0.0
  0
LINE
  5
2C9
330
1F
100
AcDbEntity
  8
0
  6
HIDDEN
 62
     7
370
     0
100
AcDbLine
 10
81.2781636983
 20
96.5578570348
 30
0.0
 11
82.7781639441
 21
95.0578572546
 31
0.0
  0
LINE
  5
2CA
330
1F
100
AcDbEntity
  8
0
  6
HIDDEN
 62
     7
370
     0
100
AcDbLine
 10
68.299285826
 20
109.5367353727
 30
0.0
 11
69.7992856063
 21
108.0367351268
 31
0.0
  0
LINE
  5
2CB
330
1F
100
AcDbEntity
  8
0
  6
HIDDEN
 62
     7
370
     0
100
AcDbLine
 10
76.7992858223
 20
108.0367351268
 30
0.0
 11
78.2992856025
 21
109.5367353727
 31
0.0
  0
LINE
  5
2CC
330
1F
100
AcDbEntity
  8
0
  6
HIDDEN
 62
     7
370
     0
100
AcDbLine
 10
68.299285826
 20
119.4227747937
 30
0.0
 11
68.299285826
 21
109.5367353727
 31
0.0
  0
LINE
  5
2CD
330
1F
100
AcDbEntity
  8
0
  6
HIDDEN
 62
     7
370
     0
100
AcDbLine
 10
78.2992856025
 20
109.5367353727
 30
0.0
 11
78.2992856025
 21
119.4227747937
 31
0.0
  0
LINE
  5
2CE
330
1F
100
AcDbEntity
  8
0
  6
HIDDEN
 62
     7
370
     0
100
AcDbLine
 10
63.7992860198
 20
95.0578572546
 30
0.0
 11
65.2992853343
 21
96.5578570348
 31
0.0
  0
LINE
  5
2CF
330
1F
100
AcDbEntity
  8
0
  6
HIDDEN
 62
     7
370
     0
100
AcDbLine
 10
65.2992853343
 20
103.5578572509
 30
0.0
 11
63.7992860198
 21
105.0578570311
 31
0.0
  0
LINE
  5
2D0
330
1F
100
AcDbEntity
  8
0
  6
HIDDEN
 62
     7
370
     0
100
AcDbLine
 10
53.9343680635
 20
95.0578572546
 30
0.0
 11
63.8204074844
 21
95.0578572546
 31
0.0
  0
LINE
  5
2D1
330
1F
100
AcDbEntity
  8
0
  6
HIDDEN
 62
     7
370
     0
100
AcDbLine
 10
63.8204074844
 20
105.0578570311
 30
0.0
 11
53.9343680635
 21
105.0578570311
 31
0.0
  0
LINE
  5
2D2
330
1F
100
AcDbEntity
  8
0
  6
HIDDEN
 62
     7
370
     0
100
AcDbLine
 10
63.8204074844
 20
95.0578572546
 30
0.0
 11
65.3204077303
 21
96.5578570348
 31
0.0
  0
LINE
  5
2D3
330
1F
100
AcDbEntity
  8
0
  6
HIDDEN
 62
     7
370
     0
100
AcDbLine
 10
65.3204077303
 20
103.5578572509
 30
0.0
 11
63.8204074844
 21
105.0578570311
 31
0.0
  0
LINE
  5
2D4
330
1F
100
AcDbEntity
  8
0
  6
HIDDEN
 62
     7
370
     0
100
AcDbLine
 10
92.7864618048
 20
104.5578569491
 30
0.0
 11
79.9136639021
 21
104.5578569491
 31
0.0
  0
LINE
  5
2D5
330
1F
100
AcDbEntity
  8
0
  6
HIDDEN
 62
     7
370
     0
100
AcDbLine
 10
79.9249422185
 20
95.5578573366
 30
0.0
 11
92.7891030356
 21
95.5578573366
 31
0.0
  0
LINE
  5
2D6
330
1F
100
AcDbEntity
  8
0
  6
HIDDEN
 62
     7
370
     0
100
AcDbLine
 10
68.799285908
 20
119.5450332333
 30
0.0
 11
68.799285908
 21
106.6722353307
 31
0.0
  0
LINE
  5
2D7
330
1F
100
AcDbEntity
  8
0
  6
HIDDEN
 62
     7
370
     0
100
AcDbLine
 10
77.7992855206
 20
106.683513647
 30
0.0
 11
77.7992855206
 21
119.5476744642
 31
0.0
  0
LINE
  5
2D8
330
1F
100
AcDbEntity
  8
0
  6
HIDDEN
 62
     7
370
     0
100
AcDbLine
 10
53.8121096238
 20
95.5578573366
 30
0.0
 11
66.6849075265
 21
95.5578573366
 31
0.0
  0
LINE
  5
2D9
330
1F
100
AcDbEntity
  8
0
  6
HIDDEN
 62
     7
370
     0
100
AcDbLine
 10
66.6736292101
 20
104.5578569491
 30
0.0
 11
53.809468393
 21
104.5578569491
 31
0.0
  0
LINE
  5
2DA
330
1F
100
AcDbEntity
  8
0
  6
HIDDEN
 62
     7
370
     0
100
AcDbLine
 10
92.7864618048
 20
104.5578569491
 30
0.0
 11
79.9136639021
 21
104.5578569491
 31
0.0
  0
LINE
  5
2DB
330
1F
100
AcDbEntity
  8
0
  6
HIDDEN
 62
     7
370
     0
100
AcDbLine
 10
79.9249422185
 20
95.5578573366
 30
0.0
 11
92.7891030356
 21
95.5578573366
 31
0.0
  0
LINE
  5
2DC
330
1F
100
AcDbEntity
  8
0
  6
HIDDEN
 62
     7
370
     0
100
AcDbLine
 10
68.799285908
 20
119.5450332333
 30
0.0
 11
68.799285908
 21
106.6722353307
 31
0.0
  0
LINE
  5
2DD
330
1F
100
AcDbEntity
  8
0
  6
HIDDEN
 62
     7
370
     0
100
AcDbLine
 10
77.7992855206
 20
106.683513647
 30
0.0
 11
77.7992855206
 21
119.5476744642
 31
0.0
  0
LINE
  5
2DE
330
1F
100
AcDbEntity
  8
0
  6
HIDDEN
 62
     7
370
     0
100
AcDbLine
 10
53.8121096238
 20
95.5578573366
 30
0.0
 11
66.6849075265
 21
95.5578573366
 31
0.0
  0
LINE
  5
2DF
330
1F
100
AcDbEntity
  8
0
  6
HIDDEN
 62
     7
370
     0
100
AcDbLine
 10
66.6736292101
 20
104.5578569491
 30
0.0
 11
53.809468393
 21
104.5578569491
 31
0.0
  0
INSERT
  5
2EB
330
1F
100
AcDbEntity
  8
VERMASSUNG
100
AcDbBlockReference
  2
SW_CENTERMARKSYMBOL_0
 10
73.2992857143
 20
100.0578571429
 30
0.0
  0
OLE2FRAME
  5
2EC
330
1F
100
AcDbEntity
  8
0
100
AcDbOle2Frame
 70
     2
  3
Paintbrush-Bild
 10
13.8511154363
 20
38.264191557
 30
0.0
 11
51.6290888628
 21
31.9806341108
 31
0.0
 71
     2
 72
     0
 73
     1
 90
    12928
310
80552BED0767C5B32B40DDAF6807D121434000000000000000006FFBDDFB85D0
310
4940DDAF6807D121434000000000000000006FFBDDFB85D04940416F4BD60AFB
310
3F4000000000000000002BED0767C5B32B40416F4BD60AFB3F40000000000000
310
0000000000000100000000010000010000000100000000000100000000320000
310
D0CF11E0A1B11AE1000000000000000000000000000000003E000300FEFF0900
310
0600000000000000000000000100000001000000000000000010000002000000
310
01000000FEFFFFFF0000000000000000FFFFFFFFFFFFFFFFFFFFFFFFFFFFFFFF
310
FFFFFFFFFFFFFFFFFFFFFFFFFFFFFFFFFFFFFFFFFFFFFFFFFFFFFFFFFFFFFFFF
310
FFFFFFFFFFFFFFFFFFFFFFFFFFFFFFFFFFFFFFFFFFFFFFFFFFFFFFFFFFFFFFFF
310
FFFFFFFFFFFFFFFFFFFFFFFFFFFFFFFFFFFFFFFFFFFFFFFFFFFFFFFFFFFFFFFF
310
FFFFFFFFFFFFFFFFFFFFFFFFFFFFFFFFFFFFFFFFFFFFFFFFFFFFFFFFFFFFFFFF
310
FFFFFFFFFFFFFFFFFFFFFFFFFFFFFFFFFFFFFFFFFFFFFFFFFFFFFFFFFFFFFFFF
310
FFFFFFFFFFFFFFFFFFFFFFFFFFFFFFFFFFFFFFFFFFFFFFFFFFFFFFFFFFFFFFFF
310
FFFFFFFFFFFFFFFFFFFFFFFFFFFFFFFFFFFFFFFFFFFFFFFFFFFFFFFFFFFFFFFF
310
FFFFFFFFFFFFFFFFFFFFFFFFFFFFFFFFFFFFFFFFFFFFFFFFFFFFFFFFFFFFFFFF
310
FFFFFFFFFFFFFFFFFFFFFFFFFFFFFFFFFFFFFFFFFFFFFFFFFFFFFFFFFFFFFFFF
310
FFFFFFFFFFFFFFFFFFFFFFFFFFFFFFFFFFFFFFFFFFFFFFFFFFFFFFFFFFFFFFFF
310
FFFFFFFFFFFFFFFFFFFFFFFFFFFFFFFFFFFFFFFFFFFFFFFFFFFFFFFFFFFFFFFF
310
FFFFFFFFFFFFFFFFFFFFFFFFFFFFFFFFFFFFFFFFFFFFFFFFFFFFFFFFFFFFFFFF
310
FFFFFFFFFFFFFFFFFFFFFFFFFFFFFFFFFFFFFFFFFFFFFFFFFFFFFFFFFFFFFFFF
310
FDFFFFFFFEFFFFFFFEFFFFFFFEFFFFFF05000000060000000700000008000000
310
090000000A0000000B0000000C0000000D0000000E0000000F00000010000000
310
11000000120000001300000014000000150000001600000017000000FEFFFFFF
310
FFFFFFFFFFFFFFFFFFFFFFFFFFFFFFFFFFFFFFFFFFFFFFFFFFFFFFFFFFFFFFFF
310
FFFFFFFFFFFFFFFFFFFFFFFFFFFFFFFFFFFFFFFFFFFFFFFFFFFFFFFFFFFFFFFF
310
FFFFFFFFFFFFFFFFFFFFFFFFFFFFFFFFFFFFFFFFFFFFFFFFFFFFFFFFFFFFFFFF
310
FFFFFFFFFFFFFFFFFFFFFFFFFFFFFFFFFFFFFFFFFFFFFFFFFFFFFFFFFFFFFFFF
310
FFFFFFFFFFFFFFFFFFFFFFFFFFFFFFFFFFFFFFFFFFFFFFFFFFFFFFFFFFFFFFFF
310
FFFFFFFFFFFFFFFFFFFFFFFFFFFFFFFFFFFFFFFFFFFFFFFFFFFFFFFFFFFFFFFF
310
FFFFFFFFFFFFFFFFFFFFFFFFFFFFFFFFFFFFFFFFFFFFFFFFFFFFFFFFFFFFFFFF
310
FFFFFFFFFFFFFFFFFFFFFFFFFFFFFFFFFFFFFFFFFFFFFFFFFFFFFFFFFFFFFFFF
310
FFFFFFFFFFFFFFFFFFFFFFFFFFFFFFFFFFFFFFFFFFFFFFFFFFFFFFFFFFFFFFFF
310
FFFFFFFFFFFFFFFFFFFFFFFFFFFFFFFFFFFFFFFFFFFFFFFFFFFFFFFFFFFFFFFF
310
FFFFFFFFFFFFFFFFFFFFFFFFFFFFFFFFFFFFFFFFFFFFFFFFFFFFFFFFFFFFFFFF
310
FFFFFFFFFFFFFFFFFFFFFFFFFFFFFFFFFFFFFFFFFFFFFFFFFFFFFFFFFFFFFFFF
310
FFFFFFFFFFFFFFFFFFFFFFFFFFFFFFFFFFFFFFFFFFFFFFFFFFFFFFFFFFFFFFFF
310
52006F006F007400200045006E00740072007900000000000000000000000000
310
0000000000000000000000000000000000000000000000000000000000000000
310
16000500FFFFFFFFFFFFFFFF020000000A00030000000000C000000000000046
310
00000000000000000000000050C6A3B9361DCD0103000000C000000000000000
310
01004F006C006500000000000000000000000000000000000000000000000000
310
0000000000000000000000000000000000000000000000000000000000000000
310
0A000200FFFFFFFFFFFFFFFFFFFFFFFF00000000000000000000000000000000
310
0000000000000000000000000000000000000000000000001400000000000000
310
010043006F006D0070004F0062006A0000000000000000000000000000000000
310
0000000000000000000000000000000000000000000000000000000000000000
310
120002010100000003000000FFFFFFFF00000000000000000000000000000000
310
0000000000000000000000000000000000000000010000004D00000000000000
310
01004F006C006500310030004E00610074006900760065000000000000000000
310
0000000000000000000000000000000000000000000000000000000000000000
310
1A000200FFFFFFFFFFFFFFFFFFFFFFFF00000000000000000000000000000000
310
0000000000000000000000000000000000000000040000002426000000000000
310
FEFFFFFF02000000FEFFFFFFFFFFFFFFFFFFFFFFFFFFFFFFFFFFFFFFFFFFFFFF
310
FFFFFFFFFFFFFFFFFFFFFFFFFFFFFFFFFFFFFFFFFFFFFFFFFFFFFFFFFFFFFFFF
310
FFFFFFFFFFFFFFFFFFFFFFFFFFFFFFFFFFFFFFFFFFFFFFFFFFFFFFFFFFFFFFFF
310
FFFFFFFFFFFFFFFFFFFFFFFFFFFFFFFFFFFFFFFFFFFFFFFFFFFFFFFFFFFFFFFF
310
FFFFFFFFFFFFFFFFFFFFFFFFFFFFFFFFFFFFFFFFFFFFFFFFFFFFFFFFFFFFFFFF
310
FFFFFFFFFFFFFFFFFFFFFFFFFFFFFFFFFFFFFFFFFFFFFFFFFFFFFFFFFFFFFFFF
310
FFFFFFFFFFFFFFFFFFFFFFFFFFFFFFFFFFFFFFFFFFFFFFFFFFFFFFFFFFFFFFFF
310
FFFFFFFFFFFFFFFFFFFFFFFFFFFFFFFFFFFFFFFFFFFFFFFFFFFFFFFFFFFFFFFF
310
FFFFFFFFFFFFFFFFFFFFFFFFFFFFFFFFFFFFFFFFFFFFFFFFFFFFFFFFFFFFFFFF
310
FFFFFFFFFFFFFFFFFFFFFFFFFFFFFFFFFFFFFFFFFFFFFFFFFFFFFFFFFFFFFFFF
310
FFFFFFFFFFFFFFFFFFFFFFFFFFFFFFFFFFFFFFFFFFFFFFFFFFFFFFFFFFFFFFFF
310
FFFFFFFFFFFFFFFFFFFFFFFFFFFFFFFFFFFFFFFFFFFFFFFFFFFFFFFFFFFFFFFF
310
FFFFFFFFFFFFFFFFFFFFFFFFFFFFFFFFFFFFFFFFFFFFFFFFFFFFFFFFFFFFFFFF
310
FFFFFFFFFFFFFFFFFFFFFFFFFFFFFFFFFFFFFFFFFFFFFFFFFFFFFFFFFFFFFFFF
310
FFFFFFFFFFFFFFFFFFFFFFFFFFFFFFFFFFFFFFFFFFFFFFFFFFFFFFFFFFFFFFFF
310
FFFFFFFFFFFFFFFFFFFFFFFFFFFFFFFFFFFFFFFFFFFFFFFFFFFFFFFFFFFFFFFF
310
0100000200000000000000000000000000000000000000000000000000000000
310
0000000000000000000000000000000000000000000000000000000000000000
310
0100FEFF030A0000FFFFFFFF0A00030000000000C00000000000004607000000
310
5042727573680007000000504272757368000700000050427275736800F439B2
310
7100000000000000000000000000000000000000000000000000000000000000
310
0000000000000000000000000000000000000000000000000000000000000000
310
0000000000000000000000000000000000000000000000000000000000000000
310
0000000000000000000000000000000000000000000000000000000000000000
310
0000000000000000000000000000000000000000000000000000000000000000
310
0000000000000000000000000000000000000000000000000000000000000000
310
0000000000000000000000000000000000000000000000000000000000000000
310
0000000000000000000000000000000000000000000000000000000000000000
310
0000000000000000000000000000000000000000000000000000000000000000
310
0000000000000000000000000000000000000000000000000000000000000000
310
0000000000000000000000000000000000000000000000000000000000000000
310
0000000000000000000000000000000000000000000000000000000000000000
310
20260000424D0E260000000000003E00000028000000B40200006E0000000100
310
01000000000000000000130B0000130B00000200000002000000000000FFFFFF
310
FFFFFFFFFFFFFFFFFFFFFFFFFFFFFFFFFFFFFFFFFFFFFFFFFFFFFFFFFFFFFFFF
310
FFFFFFFFFFFFFFFFFFFFFFFFFFFFFFFFFFFFFFFFFFFFFFFFFFFFFFFFFFFFFFFF
310
FFFFFFFFFFFFFFFFFFFFFFFFFFFFFFFFFFFFFFFFFFFFFFFFF000FFFFFFFFFFFF
310
FFFFFFFFFFFFFFFFFFFFFFFFFFFFFFFFFFFFFFFFFFFFFFFFFFFFFFFFFFFFFFFF
310
FFFFFFFFFFFFFFFFFFFFFFFFFFFFFFFFFFFFFFFFFFFFFFFFFFFFFFFFFFFFFFFF
310
FFFFFFFFFFFFFFFFFFFFFFFFFFFFFFFFF000FFFFFFFFFFFFFFFFFFFFFFFFFFFF
310
FFFFFFFFFFFFFFFFFFFFFFFFFFFFFFFFFFFFFFFFFFFFFFFFFFFFFFFFFFFFFFFF
310
FFFFFFFFFFFFFFFFFFFFFFFFFFFFFFFFFFFFFFFFFFFFFFFFFFFFFFFFFFFFFFFF
310
FFFFFFFFFFFFFFFFF000FFFFFFFFFFFFFFFFFFFFFFFFFFFFFFFFFFFFFFFFFFFF
310
FFFFFFFFFFFFFFFFFFFFFFFFFFFFFFFFFFFFFFFFFFFFFFFFFFFFFFFFFFFFFFFF
310
FFFFFFFFFFFFFFFFFFFFFFFFFFFFFFFFFFFFFFFFFFFFFFFFFFFFFFFFFFFFFFFF
310
F000FFFFFFFFFFFFFFFFFFFFFFFFFFFFFFFFFFFFFFFFFFFFFFFFFFFFFFFFFFFF
310
FFFFFFFFFFFFFFFFFFFFFFFFFFFFFFFFFFFFFFFFFFFFFFFFFFFFFFFFFFFFFFFF
310
FFFFFFFFFFFFFFFFFFFFFFFFFFFFFFFFFFFFFFFFFFFFFFFFF000FFFFFFFFFFFF
310
FFFFFFFFFFFFFFFFFFFFFFFFFFFFFFFFFFFFFFFFFFFFFFFFFFFFFFFFFFFFFFFF
310
FFFFFFFFFFFFFFFFFFFFFFFFFFFFFFFFFFFFFFFFFFFFFFFFFFFFFFFFFFFFFFFF
310
FFFFFFFFFFFFFFFFFFFFFFFFFFFFFFFFF000FFFFFFFFFFFFFFFFFFFFFFFFFFFF
310
FFFFFFFFFFFFFFFFFFFFFFFFFFFFFFFFFFFFFFFFFFFFFFFFFFFFFFFFFFFFFFFF
310
FFFFFFFFFFFFFFFFFFFFFFFFFFFFFFFFFFFFFFFFFFFFFFFFFFFFFFFFFFFFFFFF
310
FFFFFFFFFFFFFFFFF000FFFFFFFFFFFFFFFFFFFFFFFFFFFFFFFFFFFFFFFFFFFF
310
FFFFFFFFFFFFFFFFFFFFFFFFFFFFFFFFFFFFFFFFFFFFFFFFFFFFFFFFFFFFFFFF
310
FFFFFFFFFFFFFFFFFFFFFFFFFFFFFFFFFFFFFFFFFFFFFFFFFFFFFFFFFFFFFFFF
310
F000FFFFFFFFFFFFFFFFFFFFFFFFFFFFFFFFFFFFFFFFFFFFFFFFFFFFFFFFFFFF
310
FFFFFFFFFFFFFFFFFFFFFFFFFFFFFFFFFFFFFFFFFFFFFFFFFFFFFFFFFFFFFFFF
310
FFFFFFFFFFFFFFFFFFFFFFFFFFFFFFFFFFFFFFFFFFFFFFFFF000FFFFFFFFFFFF
310
FFFFFFFFFFFFFFFFFFFFFFFFFFFFFFFFFFFFFFFFFFFFFFFFFFFFFFFFFFFFFFFF
310
FFFFFFFFFFFFFFFFFFFFFFFFFFFFFFFFFFFFFFFFFFFFFFFFFFFFFFFFFFFFFFFF
310
FFFFFFFFFFFFFFFFFFFFFFFFFFFFFFFFF000FFFFFFFFFFFFFFFFFFFFFFFFFFFF
310
FFFFFFFFFFFFFFFFFFFFFFFFFFFFFFFFFFFFFFFFFFFFFFFFFFFFFFFFFFFFFFFF
310
FFFFFFFFFFFFFFFFFFFFFFFFFFFFFFFFFFFFFFFFFFFFFFFFFFFFFFFFFFFFFFFF
310
FFFFFFFFFFFFFFFFF000FFFFFFFFFFFFFFFFFFFFFFFFFFFFFFFFFFFFFFFFFFFF
310
FFFFFFFFFFFFFFFFFFFFFFFFFFFFFFFFFFFFFFFFFFFFFFFFFFFFFFFFFFFFFFFF
310
FFFFFFFFFFFFFFFFFFFFFFFFFFFFFFFFFFFFFFFFFFFFFFFFFFFFFFFFFFFFFFFF
310
F000FFFFFFFFFFFFFFFFFFFFFFFFFFFFFFFFFFFFFFFFFFFFFFFFFFFFFFFFFFFF
310
FFFFFFFFFFFFFFFFFFFFFFFFFFFFFFFFFFFFFFFFFFFFFFFFFFFFFFFFFFFFFFFF
310
FFFFFFFFFFFFFFFFFFFFFFFFFFFFFFFFFFFFFFFFFFFFFFFFF000FFFFFFFFFFFF
310
FFFFFFFFFFFFFFFFFFFFFFFFFFFFFFFFFFFFFFFFFFFFFFFFFFFFFFFFFFFFFFFF
310
FFFFFFFFFFFFFFFFFFFFFFFFFFFFFFFFFFFFFFFFFFFFFFFFFFFFFFFFFFFFFFFF
310
FFFFFFFFFFFFFFFFFFFFFFFFFFFFFFFFF000FFFFFFFFFFFFFFFFFFFFFFFFFFFF
310
FFFFFFFFFFFFFFFFFFFFFFFFFFFFFFFFFFFFFFFFFFFFFFFFFFFFFFFFFFFFFFFF
310
FFFFFFFFFFFFFFFFFFFFFFFFFFFFFFFFFFFFFFFFFFFFFFFFFFFFFFFFFFFFFFFF
310
FFFFFFFFFFFFFFFFF000FFFFFFFFFFFFFFFFFFFFFFFFFFFFFFFFFFFFFFFFFFFF
310
FFFFFFFFFFFFFFFFFFFFFFFFFFFFFFFFFFFFFFFFFFFFFFFFFFFFFFFFFFFFFFFF
310
FFFFFFFFFFFFFFFFFFFFFFFFFFFFFFFFFFFFFFFFFFFFFFFFFFFFFFFFFFFFFFFF
310
F000FFFFFFFFFFFFFFFFFFFFFFFFFFFFFFFFFFFFFFFFFFFFFFFFFFFFFFFFFFFF
310
FFFFFFFFFFFFFFFFFFFFFFFFFFFFFFFFFFFFFFFFFFFFFFFFFFFFFFFFFFFFFFFF
310
FFFFFFFFFFFFFFFFFFFFFFFFFFFFFFFFFFFFFFFFFFFFFFFFF000FFFFFFFFFFFF
310
FFFFFFFFFFFFFFFFFFFFFFFFFFFFFFFFFFFFFFFFFFFFFFFFFFFFFFFFFFFFFFFF
310
FFFFFFFFFFFFFFFFFFFFFFFFFFFFFFFFFFFFFFFFFFFFFFFFFFFFFFFFFFFFFFFF
310
FFFFFFFFFFFFFFFFFFFFFFFFFFFFFFFFF000FFFFFFFFFFFFFFFFFFFFFFFFFFFF
310
FFFFFFFFFFFFFFFFFFFFFFFFFFFFFFFFFFFFFFFFFFFFFFFFFFFFFFFFFFFFFFFF
310
FFFFFFFFFFFFFFFFFFFFFFFFFFFFFFFFFFFFFFFFFFFFFFFFFFFFFFFFFFFFFFFF
310
FFFFFFFFFFFFFFFFF000FFFFF80003FFFFFFFFFFFFFFFFFFFFFFFFFFFFFFFFFF
310
FFFFF00007FFFFFFFFFF00007FFFFFF800000000000000007FFFFFFFFFFFFFFF
310
FFFFFFFC001FFFFFFFFFFFFFFC001FFFFFFFFFFFFFFFFFFFFFFFFFFE0007FFFF
310
F000FFFF8000007FFFFFFFF8000FFFFFC0007FFFFF80007FFFFF0000007FFFFF
310
FFF8000007FFFFF800000000000000007FFFFFF0001FFFFFFFFFFFC00001FFFF
310
FFFFFFFFC00001FFFFFFFF000000000003FFFFE000007FFFF000FFFE0000000F
310
FFFFFFF0000FFFFF80007FFFFF80007FFFFC0000001FFFFFFFC0000001FFFFF8
310
00000000000000007FFFFFF0001FFFFFFFFFFE0000003FFFFFFFFFFE0000003F
310
FFFFFF000000000003FFFF0000000FFFF000FFF800000003FFFFFFF00007FFFF
310
80007FFFFF80007FFFF000000007FFFFFF000000003FFFF80000000000000000
310
7FFFFFF0001FFFFFFFFFF80000000FFFFFFFFFF80000000FFFFFFF0000000000
310
03FFFC00000003FFF000FFE000000000FFFFFFF00007FFFF80003FFFFF80007F
310
FFC000000001FFFFFC000000001FFFF800000000000000007FFFFFF0001FFFFF
310
FFFFE000000003FFFFFFFFE000000003FFFFFF000000000003FFF000000000FF
310
F000FF80000000007FFFFFF00007FFFF80003FFFFF80007FFF8000000000FFFF
310
F80000000007FFF800000000000000007FFFFFF0001FFFFFFFFFC000000001FF
310
FFFFFFC000000001FFFFFF000000000003FFC0000000007FF000FF0000000000
310
3FFFFFE00007FFFF00003FFFFF80007FFE00000000003FFFF00000000003FFF8
310
00000000000000007FFFFFF0001FFFFFFFFF8000000000FFFFFFFF8000000000
310
FFFFFF000000000003FF80000000003FF000FE00000000001FFFFFE00003FFFF
310
00003FFFFF80007FFC00000000001FFFE00000000001FFF8000001FFFE000000
310
7FFFFFF0001FFFFFFFFE00000000003FFFFFFE00000000003FFFFF0000000000
310
03FF00000000001FF000FC00000000000FFFFFE00003FFFF00001FFFFF80007F
310
F800000000001FFFC00000000000FFF8000001FFFE0000007FFFFFF0001FFFFF
310
FFFC00000000001FFFFFFC00000000001FFFFF000000000003FE00000000000F
310
F000F8000000000007FFFFE00003FFFF00001FFFFF80007FF800000000000FFF
310
800000000000FFF8000001FFFE0000007FFFFFF0001FFFFFFFF800000000000F
310
FFFFF800000000000FFFFF000000000003FC000000000007F000F80000000000
310
03FFFFC00003FFFE00001FFFFF80007FF0000000000007FF0000000000007FF8
310
000001FFFE0000007FFFFFF0001FFFFFFFF0000000000007FFFFF00000000000
310
07FFFF000000000003F8000000000003F000F0000000000003FFFFC00001FFFE
310
00001FFFFF80007FE0000000000007FE0000000000003FF8000001FFFE000000
310
7FFFFFF0001FFFFFFFF0000000000007FFFFF0000000000007FFFF0000000000
310
03F800001F800003F000E00001FFF00001FFFFC00001FFFE00000FFFFF80007F
310
E00001FFE00003FE00001FFF00003FF8000001FFFE0000007FFFFFF0001FFFFF
310
FFE000003E000003FFFFE000003E000003FFFF000000000003F00001FFF80001
310
F000E00007FFFC0001FFFFC00001FFFE00000FFFFF80007FC0000FFFFC0003FC
310
0000FFFFC0001FF8000001FFFE0000007FFFFFF0001FFFFFFFC00003FFE00001
310
FFFFC00003FFE00001FFFF0001FFFFFFFFF00007FFFE0001F000E0000FFFFF00
310
00FFFF800001FFFC00000FFFFF80007FC0001FFFFE0001FC0001FFFFE0001FF8
310
000001FFFE0000007FFFFFF0001FFFFFFF80000FFFF80000FFFF80000FFFF800
310
00FFFF0003FFFFFFFFE0000FFFFF8000F000C0003FFFFF8000FFFF800000FFFC
310
000007FFFF80007F80003FFFFF0001FC0003FFFFF0001FF8000001FFFE000000
310
7FFFFFF0001FFFFFFF80003FFFFE0000FFFF80003FFFFE0000FFFF0003FFFFFF
310
FFE0003FFFFF8000F000C0003FFFFF8000FFFF800000FFFC000007FFFF80007F
310
80007FFFFF8001F80007FFFFF8000FF8000001FFFE0000007FFFFFF0001FFFFF
310
FF00007FFFFF00007FFF00007FFFFF00007FFF0003FFFFFFFFE0003FFFFFC000
310
F000C0007FFFFFC000FFFF000000FFFC000007FFFF80007F8000FFFFFF8000F8
310
000FFFFFF8000FF8000001FFFE0000007FFFFFF0001FFFFFFF0000FFFFFF8000
310
7FFF0000FFFFFF80007FFF0003FFFFFFFFC0007FFFFFC00070008000FFFFFFC0
310
00FFFF000000FFF8000007FFFF80007F8000FFFFFF8000F8000FFFFFF8000FF8
310
000001FFFE0000007FFFFFF0001FFFFFFE0001FFFFFFC0003FFE0001FFFFFFC0
310
003FFF0003FFFFFFFFC0007FFFFFE00070008000FFFFFFC0007FFF0000007FF8
310
000003FFFF80007F0001FFFFFF8000F8000FFFFFF8000FF8000001FFFE000000
310
7FFFFFF0001FFFFFFE0001FFFFFFC0003FFE0001FFFFFFC0003FFF0003FFFFFF
310
FFC000FFFFFFE00070008000FFFFFFC0007FFF0000007FF8000003FFFF80007F
310
0001FFFFFF8000F8001FFFFFF8000FF8000001FFFE0000007FFFFFF0001FFFFF
310
FE0003FFFFFFE0003FFE0003FFFFFFE0003FFF0003FFFFFFFFC000FFFFFFE000
310
70008000FFFFFFC0007FFE0000007FF8000003FFFF80007F0001FFFFFF8000F0
310
001FFFFFF8000FF8000001FFFE0000007FFFFFF0001FFFFFFC0003FFFFFFE000
310
1FFC0003FFFFFFE0001FFF0003FFFFFFFFC000FFFFFFC00070008000FFFFFF80
310
007FFE0000007FF0000003FFFF80007F0001FFFFFF0000F0001FFFFFF8000FF8
310
000001FFFE0000007FFFFFF0001FFFFFFC0007FFFFFFF0001FFC0007FFFFFFF0
310
001FFF0003FFFFFFFFC000FFFFFFC00070008001FFFFFF0000FFFE0000003FF0
310
000001FFFF80007F0001FFFFFF0000F8001FFFFFF0000FF8000001FFFE000000
310
7FFFFFF0001FFFFFFC0007FFFFFFF0001FFC0007FFFFFFF0001FFF0003FFFFFF
310
FFC001FFFFFF80007000FFFFFFFFFE0000FFFE0008003FF0008001FFFF80007F
310
FFFFFFFFFC0000FFFFFFFFFFE0000FF8000001FFFE0000007FFFFFF0001FFFFF
310
F8000FFFFFFFF8000FF8000FFFFFFFF8000FFF0003FFFFFFFFFFFFFFFFFF0000
310
7000FFFFFFFFFC0000FFFC0008003FF0008001FFFF80007FFFFFFFFFF80001FF
310
FFFFFFFF80000FF8000001FFFE0000007FFFFFF0001FFFFFF8000FFFFFFFF800
310
0FF8000FFFFFFFF8000FFF0003FFFFFFFFFFFFFFFFFE0000F000FFFFFFFFE000
310
00FFFC000C003FE000C001FFFF80007FFFFFFFFFC00001FFFFFFFFFE00001FF8
310
000001FFFE0000007FFFFFF0001FFFFFF8000FFFFFFFF8000FF8000FFFFFFFF8
310
000FFF0003FFFFFFFFFFFFFFFFF00000F000FFFFFFFE000001FFFC000C001FE0
310
00C000FFFF80007FFFFFFFFE000001FFFFFFFFE000001FF80FFFFFFFFFFFFFC0
310
7FFFFFF0001FFFFFF8000FFFFFFFF8000FF8000FFFFFFFF8000FFF0003FFFFFF
310
FFFFFFFFFF800000F000FFFFFFC0000001FFFC001C001FE001C000FFFF80007F
310
FFFFFF80000003FFFFFFF80000001FF80FFFFFFFFFFFFFC07FFFFFF0001FFFFF
310
F8001FFFFFFFFC000FF8001FFFFFFFFC000FFF0003FFFFFFFFFFFFFFF0000001
310
F000FFFFF800000001FFF8001C001FE001C000FFFF80007FFFFFF800000003FF
310
FFFF800000003FF80FFFFFFFFFFFFFC07FFFFFF0001FFFFFF8001FFFFFFFFC00
310
0FF8001FFFFFFFFC000FFF0003FFFFFFFFFFFFFE00000001F000FFFFC0000000
310
03FFF8001E001FC001E000FFFF80007FFFFF8000000007FFFFFC000000003FF8
310
0FFFFFFFFFFFFFC07FFFFFF0001FFFFFF8001FFFFFFFFC000FF8001FFFFFFFFC
310
000FFF0003FFFFFFFFFFFFE000000003F000FFFE0000000007FFF8001E000FC0
310
01E0007FFF80007FFFFE0000000007FFFFE0000000007FF80FFFFFFFFFFFFFC0
310
7FFFFFF0001FFFFFF0001FFFFFFFFC0007F0001FFFFFFFFC0007FF0003FFFFFF
310
FFFFFF0000000003F000FFF80000000007FFF8001E000FC003E0007FFF80007F
310
FFF0000000000FFFFF8000000000FFF80FFFFFFFFFFFFFC07FFFFFF0001FFFFF
310
F0001FFFFFFFFC0007F0001FFFFFFFFC0007FF0003FFFFFFFFFFFC0000000007
310
F000FFE0000000000FFFF0003E000FC003E0007FFF80007FFFC0000000001FFF
310
FE0000000001FFF80FFFFFFFFFFFFFC07FFFFFF0001FFFFFF0001FFFFFFFFC00
310
07F0001FFFFFFFFC0007FF0003FFFFFFFFFFF0000000000FF000FFC000000000
310
1FFFF0003F000F8003F0003FFF80007FFF80000000003FFFF80000000003FFF8
310
0FFFFFFFFFFFFFC07FFFFFF0001FFFFFF0001FFFFFFFFC0007F0001FFFFFFFFC
310
0007FF0003FFFFFFFFFFE0000000001FF000FF00000000007FFFF0003F000780
310
03F0003FFF80007FFF00000000007FFFF00000000007FFF80FFFFFFFFFFFFFC0
310
7FFFFFF0001FFFFFF0001FFFFFFFFC0007F0001FFFFFFFFC0007FF0003FFFFFF
310
FFFF80000000007FF000FE0000000000FFFFE0003F00078007F0003FFF80007F
310
FE0000000001FFFFE0000000001FFFF80FFFFFFFFFFFFFC07FFFFFF0001FFFFF
310
F0001FFFFFFFFC0007F0001FFFFFFFFC0007FF0003FFFFFFFFFF0000000000FF
310
F000FC0000000003FFFFE0007F00078007F0003FFF80007FFC0000000007FFFF
310
C0000000007FFFF80FFFFFFFFFFFFFC07FFFFFF0001FFFFFF8001FFFFFFFFC00
310
0FF8001FFFFFFFFC000FFF0003FFFFFFFFFE0000000003FFF000FC000000000F
310
FFFFE0007F80070007F8001FFF80007FF8000000001FFFFF8000000001FFFFF8
310
0FFFFFFFFFFFFFC07FFFFFF0001FFFFFF8001FFFFFFFFC000FF8001FFFFFFFFC
310
000FFF0003FFFFFFFFFC000000000FFFF000F8000000007FFFFFE0007F800700
310
07F8001FFF80007FF000000000FFFFFF800000000FFFFFF80FFFFFFFFFFFFFC0
310
7FFFFFF0001FFFFFF8000FFFFFFFF8000FF8000FFFFFFFF8000FFF0003FFFFFF
310
FFFC000000007FFFF000F800000007FFFFFFC0007F8003000FF8001FFF80007F
310
F000000007FFFFFF000000007FFFFFF80FFFFFFFFFFFFFC07FFFFFF0001FFFFF
310
F8000FFFFFFFF8000FF8000FFFFFFFF8000FFF0003FFFFFFFFF80000000FFFFF
310
F000F0000000FFFFFFFFC000FF8003000FF8001FFF80007FE0000000FFFFFFFF
310
0000000FFFFFFFF8000001FFFE0000007FFFFFF0001FFFFFF8000FFFFFFFF800
310
0FF8000FFFFFFFF8000FFF0003FFFFFFFFF8000000FFFFFFF000F000000FFFFF
310
FFFFC000FFC002000FF8000FFF80007FE000001FFFFFFFFE000001FFFFFFFFF8
310
000001FFFE0000007FFFFFF0001FFFFFF8000FFFFFFFF8000FF8000FFFFFFFF8
310
000FFF0003FFFFFFFFF000001FFFFFFFF000E00000FFFFFFFFFFC000FFC00200
310
0FFC000FFF80007FE00001FFFFFFFFFE00001FFFFFFFFFF8000001FFFE000000
310
7FFFFFF0001FFFFFFC000FFFFFFFF8001FFC000FFFFFFFF8001FFF0003FFFFFF
310
FFF00001FFFFFFFFF000E00007FFFFFFFFFF8000FFC000001FFC000FFF80007F
310
C0000FFFFFFFFFFE0000FFFFFFFFFFF8000001FFFE0000007FFFFFF0001FFFFF
310
FC0007FFFFFFF0001FFC0007FFFFFFF0001FFF0003FFFFFFFFF00007FFFFFFFF
310
F000E0001FFFFFFFFFFF8000FFC000001FFC000FFF80007FC0003FFFFFFFFFFE
310
0001FFFFFFFFFFF8000001FFFE0000007FFFFFF0001FFFFFFC0007FFFFFFF000
310
1FFC0007FFFFFFF0001FFF0003FFFFFFFFF0001FFFFFFFFFF000E0003FFFFF00
310
03FF8001FFE000001FFC0007FF80007FC0007FFFFF0007FC0003FFFFF0003FF8
310
000001FFFE0000007FFFFFF0001FFFFFFC0003FFFFFFE0001FFC0003FFFFFFE0
310
001FFF0003FFFFFFFFF0003FFFFFFFFFF000E0003FFFFF0001FF8001FFE00000
310
1FFE0007FF80007FC0007FFFFE0003FC0007FFFFE0003FF8000001FFFE000000
310
7FFFFFF0001FFFFFFE0003FFFFFFE0003FFE0003FFFFFFE0003FFF0003FFFFFF
310
FFF0003FFFFF8001F000E0003FFFFF0001FF0001FFE000001FFE0007FF80007F
310
C0007FFFFE0003FC0007FFFFE0003FF8000001FFFE0000007FFFFFF0001FFFFF
310
FE0001FFFFFFC0003FFE0001FFFFFFC0003FFF0003FFFFFFFFF0003FFFFF0001
310
F000E0003FFFFF0003FF0001FFE000003FFE0007FF80007FC0007FFFFE0003FC
310
0007FFFFE0003FF8000001FFFE0000007FFFFFF0001FFFFFFF0001FFFFFFC000
310
7FFF0001FFFFFFC0007FFF0003FFFFFFFFF0003FFFFF0001F000E0003FFFFE00
310
03FF0003FFF000003FFE0003FF80007FC0007FFFFC0003FE0007FFFFE0003FF8
310
000001FFFE0000007FFFFFF0001FFFFFFF0000FFFFFF80007FFF0000FFFFFF80
310
007FFF0003FFFFFFFFF0003FFFFF0001F000E0003FFFFE0003FF0003FFF00000
310
3FFF0003FF80007FC0007FFFFC0007FE0007FFFFC0003FF8000001FFFE000000
310
7FFFFFF0001FFFFFFF80007FFFFF0000FFFF80007FFFFF0000FFFF0003FFFFFF
310
FFF0003FFFFF0003F000E0003FFFFC0003FE0003FFF000003FFF0003FF80007F
310
E0003FFFF80007FE0003FFFFC0007FF8000001FFFE0000007FFFFFF0001FFFFF
310
FF80003FFFFE0000FFFF80003FFFFE0000FFFF0003FFFFFFFFF0001FFFFE0003
310
F000F0001FFFF80003FE0003FFF000007FFF0001FF80007FE0003FFFF00007FE
310
0001FFFF80007FF8000001FFFE0000007FFFFFF0001FFFFFFFC0000FFFF80001
310
FFFFC0000FFFF80001FFFF0003FFFFFFFFF0001FFFFC0003F000F0000FFFF000
310
07FE0007FFF800007FFF0001FF80007FE0001FFFE00007FF0000FFFE00007FF8
310
000001FFFE0000007FFFFFF0001FFFFFFFC00003FFE00001FFFFC00003FFE000
310
01FFFF0003FFFFFFFFF8000FFFF80003F000F00003FFC00007FC0007FFF80000
310
7FFF8001FF80007FF00007FF80000FFF00007FF80000FFF8000001FFFE000000
310
7F80000000000001FFE000003E000003FFFFE000003E000003FFFF0003FFFFFF
310
FFF80003FFE00007F000F800000000000FFC0007FFF800007FFF8001FF80007F
310
F000000000000FFF000000000000FFF8000001FFFE0000007F80000000000001
310
FFF0000000000007FFFFF0000000000007FFFF0003FFFFFFFFFC00007E000007
310
F000F800000000000FFC0007FFF80000FFFF8000FF80007FF800000000001FFF
310
800000000001FFF8000001FFFE0000007F80000000000001FFF800000000000F
310
FFFFF800000000000FFFFF0003FFFFFFFFFC00000000000FF000FC0000000000
310
1FFC0007FFFC0000FFFF8000FF80007FF800000000003FFFC00000000001FFF8
310
000001FFFE0000007F80000000000001FFF800000000000FFFFFF80000000000
310
0FFFFF0003FFFFFFFFFE00000000001FF000FE00000000003FF8000FFFFC0000
310
FFFF8000FF80007FFC00000000003FFFC00000000003FFF8000001FFFE000000
310
7F80000000000001FFFC00000000001FFFFFFC00000000001FFFFF0003FFFFFF
310
FFFF00000000001FF000FF00000000003FF8000FFFFC0000FFFFC000FF80007F
310
FE00000000007FFFE00000000007FFF8000001FFFE0000007F80000000000001
310
FFFE00000000003FFFFFFE00000000003FFFFF0003FFFFFFFFFF80000000003F
310
F000FF80000000007FF8000FFFFC0001FFFFC0007F80007FFF0000000000FFFF
310
F0000000000FFFF800000000000000007F80000000000001FFFF8000000000FF
310
FFFFFF8000000000FFFFFF0003FFFFFFFFFFC0000000007FF000FFC000000000
310
FFF8000FFFFE0001FFFFC0007F80007FFF8000000001FFFFF8000000001FFFF8
310
00000000000000007F80000000000001FFFFC000000001FFFFFFFFC000000001
310
FFFFFF0003FFFFFFFFFFE000000000FFF000FFE000000003FFF0001FFFFE0001
310
FFFFC0007F80007FFFC000000007FFFFFE000000003FFFF80000000000000000
310
7F80000000000001FFFFE000000003FFFFFFFFE000000003FFFFFF0003FFFFFF
310
FFFFF000000003FFF000FFF80000000FFFF0001FFFFE0001FFFFE0007F80007F
310
FFF00000000FFFFFFF00000000FFFFF800000000000000007F80000000000001
310
FFFFF80000000FFFFFFFFFF80000000FFFFFFF0003FFFFFFFFFFFC0000000FFF
310
F000FFFE0000003FFFF0001FFFFE0003FFFFE0003F80007FFFFC0000003FFFFF
310
FFC0000003FFFFF800000000000000007F80000000000001FFFFFE0000003FFF
310
FFFFFFFE0000003FFFFFFF0003FFFFFFFFFFFF0000003FFFF000FFFF800000FF
310
FFF0001FFFFF0003FFFFE0003F80007FFFFF000001FFFFFFFFF800001FFFFFF8
310
00000000000000007F80000000000001FFFFFFC00001FFFFFFFFFFFFC00001FF
310
FFFFFF0003FFFFFFFFFFFFC00000FFFFF000FFFFF8000FFFFFFFFFFFFFFFFFFF
310
FFFFFFFFFFFFFFFFFFFFF0001FFFFFFFFFFF0000FFFFFFF80000000000000000
310
7FFFFFFFFFFFFFFFFFFFFFFC001FFFFFFFFFFFFFFC001FFFFFFFFFFFFFFFFFFF
310
FFFFFFFC001FFFFFF000FFFFFFFFFFFFFFFFFFFFFFFFFFFFFFFFFFFFFFFFFFFF
310
FFFFFFFFFFFFFFFFFFFFFFFFFFFFFFFFFFFFFFFFFFFFFFFFFFFFFFFFFFFFFFFF
310
FFFFFFFFFFFFFFFFFFFFFFFFFFFFFFFFFFFFFFFFFFFFFFFFFFFFFFFFFFFFFFFF
310
F000FFFFFFFFFFFFFFFFFFFFFFFFFFFFFFFFFFFFFFFFFFFFFFFFFFFFFFFFFFFF
310
FFFFFFFFFFFFFFFFFFFFFFFFFFFFFFFFFFFFFFFFFFFFFFFFFFFFFFFFFFFFFFFF
310
FFFFFFFFFFFFFFFFFFFFFFFFFFFFFFFFFFFFFFFFFFFFFFFFF000FFFFFFFFFFFF
310
FFFFFFFFFFFFFFFFFFFFFFFFFFFFFFFFFFFFFFFFFFFFFFFFFFFFFFFFFFFFFFFF
310
FFFFFFFFFFFFFFFFFFFFFFFFFFFFFFFFFFFFFFFFFFFFFFFFFFFFFFFFFFFFFFFF
310
FFFFFFFFFFFFFFFFFFFFFFFFFFFFFFFFF000FFFFFFFFFFFFFFFFFFFFFFFFFFFF
310
FFFFFFFFFFFFFFFFFFFFFFFFFFFFFFFFFFFFFFFFFFFFFFFFFFFFFFFFFFFFFFFF
310
FFFFFFFFFFFFFFFFFFFFFFFFFFFFFFFFFFFFFFFFFFFFFFFFFFFFFFFFFFFFFFFF
310
FFFFFFFFFFFFFFFFF000FFFFFFFFFFFFFFFFFFFFFFFFFFFFFFFFFFFFFFFFFFFF
310
FFFFFFFFFFFFFFFFFFFFFFFFFFFFFFFFFFFFFFFFFFFFFFFFFFFFFFFFFFFFFFFF
310
FFFFFFFFFFFFFFFFFFFFFFFFFFFFFFFFFFFFFFFFFFFFFFFFFFFFFFFFFFFFFFFF
310
F000FFFFFFFFFFFFFFFFFFFFFFFFFFFFFFFFFFFFFFFFFFFFFFFFFFFFFFFFFFFF
310
FFFFFFFFFFFFFFFFFFFFFFFFFFFFFFFFFFFFFFFFFFFFFFFFFFFFFFFFFFFFFFFF
310
FFFFFFFFFFFFFFFFFFFFFFFFFFFFFFFFFFFFFFFFFFFFFFFFF000FFFFFFFFFFFF
310
FFFFFFFFFFFFFFFFFFFFFFFFFFFFFFFFFFFFFFFFFFFFFFFFFFFFFFFFFFFFFFFF
310
FFFFFFFFFFFFFFFFFFFFFFFFFFFFFFFFFFFFFFFFFFFFFFFFFFFFFFFFFFFFFFFF
310
FFFFFFFFFFFFFFFFFFFFFFFFFFFFFFFFF000FFFFFFFFFFFFFFFFFFFFFFFFFFFF
310
FFFFFFFFFFFFFFFFFFFFFFFFFFFFFFFFFFFFFFFFFFFFFFFFFFFFFFFFFFFFFFFF
310
FFFFFFFFFFFFFFFFFFFFFFFFFFFFFFFFFFFFFFFFFFFFFFFFFFFFFFFFFFFFFFFF
310
FFFFFFFFFFFFFFFFF000FFFFFFFFFFFFFFFFFFFFFFFFFFFFFFFFFFFFFFFFFFFF
310
FFFFFFFFFFFFFFFFFFFFFFFFFFFFFFFFFFFFFFFFFFFFFFFFFFFFFFFFFFFFFFFF
310
FFFFFFFFFFFFFFFFFFFFFFFFFFFFFFFFFFFFFFFFFFFFFFFFFFFFFFFFFFFFFFFF
310
F000FFFFFFFFFFFFFFFFFFFFFFFFFFFFFFFFFFFFFFFFFFFFFFFFFFFFFFFFFFFF
310
FFFFFFFFFFFFFFFFFFFFFFFFFFFFFFFFFFFFFFFFFFFFFFFFFFFFFFFFFFFFFFFF
310
FFFFFFFFFFFFFFFFFFFFFFFFFFFFFFFFFFFFFFFFFFFFFFFFF000FFFFFFFFFFFF
310
FFFFFFFFFFFFFFFFFFFFFFFFFFFFFFFFFFFFFFFFFFFFFFFFFFFFFFFFFFFFFFFF
310
FFFFFFFFFFFFFFFFFFFFFFFFFFFFFFFFFFFFFFFFFFFFFFFFFFFFFFFFFFFFFFFF
310
FFFFFFFFFFFFFFFFFFFFFFFFFFFFFFFFF000FFFFFFFFFFFFFFFFFFFFFFFFFFFF
310
FFFFFFFFFFFFFFFFFFFFFFFFFFFFFFFFFFFFFFFFFFFFFFFFFFFFFFFFFFFFFFFF
310
FFFFFFFFFFFFFFFFFFFFFFFFFFFFFFFFFFFFFFFFFFFFFFFFFFFFFFFFFFFFFFFF
310
FFFFFFFFFFFFFFFFF000FFFFFFFFFFFFFFFFFFFFFFFFFFFFFFFFFFFFFFFFFFFF
310
FFFFFFFFFFFFFFFFFFFFFFFFFFFFFFFFFFFFFFFFFFFFFFFFFFFFFFFFFFFFFFFF
310
FFFFFFFFFFFFFFFFFFFFFFFFFFFFFFFFFFFFFFFFFFFFFFFFFFFFFFFFFFFFFFFF
310
F000FFFFFFFFFFFFFFFFFFFFFFFFFFFFFFFFFFFFFFFFFFFFFFFFFFFFFFFFFFFF
310
FFFFFFFFFFFFFFFFFFFFFFFFFFFFFFFFFFFFFFFFFFFFFFFFFFFFFFFFFFFFFFFF
310
FFFFFFFFFFFFFFFFFFFFFFFFFFFFFFFFFFFFFFFFFFFFFFFFF000FFFFFFFFFFFF
310
FFFFFFFFFFFFFFFFFFFFFFFFFFFFFFFFFFFFFFFFFFFFFFFFFFFFFFFFFFFFFFFF
310
FFFFFFFFFFFFFFFFFFFFFFFFFFFFFFFFFFFFFFFFFFFFFFFFFFFFFFFFFFFFFFFF
310
FFFFFFFFFFFFFFFFFFFFFFFFFFFFFFFFF000FFFFFFFFFFFFFFFFFFFFFFFFFFFF
310
FFFFFFFFFFFFFFFFFFFFFFFFFFFFFFFFFFFFFFFFFFFFFFFFFFFFFFFFFFFFFFFF
310
FFFFFFFFFFFFFFFFFFFFFFFFFFFFFFFFFFFFFFFFFFFFFFFFFFFFFFFFFFFFFFFF
310
FFFFFFFFFFFFFFFFF000FFFFFFFFFFFFFFFFFFFFFFFFFFFFFFFFFFFFFFFFFFFF
310
FFFFFFFFFFFFFFFFFFFFFFFFFFFFFFFFFFFFFFFFFFFFFFFFFFFFFFFFFFFFFFFF
310
FFFFFFFFFFFFFFFFFFFFFFFFFFFFFFFFFFFFFFFFFFFFFFFFFFFFFFFFFFFFFFFF
310
F000FFFFFFFFFFFFFFFFFFFFFFFFFFFFFFFFFFFFFFFFFFFFFFFFFFFFFFFFFFFF
310
FFFFFFFFFFFFFFFFFFFFFFFFFFFFFFFFFFFFFFFFFFFFFFFFFFFFFFFFFFFFFFFF
310
FFFFFFFFFFFFFFFFFFFFFFFFFFFFFFFFFFFFFFFFFFFFFFFFF000FFFFFFFFFFFF
310
FFFFFFFFFFFFFFFFFFFFFFFFFFFFFFFFFFFFFFFFFFFFFFFFFFFFFFFFFFFFFFFF
310
FFFFFFFFFFFFFFFFFFFFFFFFFFFFFFFFFFFFFFFFFFFFFFFFFFFFFFFFFFFFFFFF
310
FFFFFFFFFFFFFFFFFFFFFFFFFFFFFFFFF000FFFFFFFFFFFFFFFFFFFFFFFFFFFF
310
FFFFFFFFFFFFFFFFFFFFFFFFFFFFFFFFFFFFFFFFFFFFFFFFFFFFFFFFFFFFFFFF
310
FFFFFFFFFFFFFFFFFFFFFFFFFFFFFFFFFFFFFFFFFFFFFFFFFFFFFFFFFFFFFFFF
310
FFFFFFFFFFFFFFFFF000FFFFFFFFFFFFFFFFFFFFFFFFFFFFFFFFFFFFFFFFFFFF
310
FFFFFFFFFFFFFFFFFFFFFFFFFFFFFFFFFFFFFFFFFFFFFFFFFFFFFFFFFFFFFFFF
310
FFFFFFFFFFFFFFFFFFFFFFFFFFFFFFFFFFFFFFFFFFFFFFFFFFFFFFFFFFFFFFFF
310
F000FFFFFFFFFFFFFFFFFFFFFFFFFFFFFFFFFFFFFFFFFFFFFFFFFFFFFFFFFFFF
310
FFFFFFFFFFFFFFFFFFFFFFFFFFFFFFFFFFFFFFFFFFFFFFFFFFFFFFFFFFFFFFFF
310
FFFFFFFFFFFFFFFFFFFFFFFFFFFFFFFFFFFFFFFFFFFFFFFFF000FFFFFFFFFFFF
310
FFFFFFFFFFFFFFFFFFFFFFFFFFFFFFFFFFFFFFFFFFFFFFFFFFFFFFFFFFFFFFFF
310
FFFFFFFFFFFFFFFFFFFFFFFFFFFFFFFFFFFFFFFFFFFFFFFFFFFFFFFFFFFFFFFF
310
FFFFFFFFFFFFFFFFFFFFFFFFFFFFFFFFF0000000000000000000000000000000
310
0000000000000000000000000000000000000000000000000000000000000000
310
0000000000000000000000000000000000000000000000000000000000000000
310
0000000000000000000000000000000000000000000000000000000000000000
310
0000000000000000000000000000000000000000000000000000000000000000
310
0000000000000000000000000000000000000000000000000000000000000000
310
0000000000000000000000000000000000000000000000000000000000000000
310
0000000000000000000000000000000000000000000000000000000000000000
310
0000000000000000000000000000000000000000000000000000000000000000
310
0000000000000000000000000000000000000000000000000000000000000000
310
0000000000000000000000000000000000000000000000000000000000000000
310
0000000000000000000000000000000000000000000000000000000000000000
310
0000000000000000000000000000000000000000000000000000000000000000
310
0000000000000000000000000000000000000000000000000000000000000000
310
0000000000000000000000000000000000000000000000000000000000000000
310
0000000000000000000000000000000000000000000000000000000000000000
  1
OLE
  0
ENDSEC
  0
SECTION
  2
OBJECTS
  0
DICTIONARY
  5
C
330
0
100
AcDbDictionary
281
     1
  3
ACAD_GROUP
350
D
  3
ACAD_LAYOUT
350
1A
  3
ACAD_MLINESTYLE
350
17
  3
ACAD_PLOTSETTINGS
350
19
  3
ACAD_PLOTSTYLENAME
350
E
  0
DICTIONARY
  5
D
102
{ACAD_REACTORS
330
C
102
}
330
C
100
AcDbDictionary
281
     1
  0
DICTIONARY
  5
1A
102
{ACAD_REACTORS
330
C
102
}
330
C
100
AcDbDictionary
281
     1
  3
Layout1
350
1E
  3
Layout2
350
26
  3
Model
350
22
  0
DICTIONARY
  5
17
102
{ACAD_REACTORS
330
C
102
}
330
C
100
AcDbDictionary
281
     1
  3
Standard
350
18
  0
DICTIONARY
  5
19
102
{ACAD_REACTORS
330
C
102
}
330
C
100
AcDbDictionary
281
     1
  0
ACDBDICTIONARYWDFLT
  5
E
102
{ACAD_REACTORS
330
C
102
}
330
C
100
AcDbDictionary
281
     1
  3
Normal
350
F
100
AcDbDictionaryWithDefault
340
F
  0
LAYOUT
  5
1E
102
{ACAD_REACTORS
330
1A
102
}
330
1A
100
AcDbPlotSettings
  1

  2
none_device
  4

  6

 40
0.0
 41
0.0
 42
0.0
 43
0.0
 44
0.0
 45
0.0
 46
0.0
 47
0.0
 48
0.0
 49
0.0
140
0.0
141
0.0
142
1.0
143
1.0
 70
   688
 72
     0
 73
     0
 74
     5
  7

 75
    16
147
1.0
148
0.0
149
0.0
100
AcDbLayout
  1
Layout1
 70
     1
 71
     1
 10
0.0
 20
0.0
 11
420.0
 21
297.0
 12
0.0
 22
0.0
 32
0.0
 14
1.0000000000E+20
 24
1.0000000000E+20
 34
1.0000000000E+20
 15
-1.0000000000E+20
 25
-1.0000000000E+20
 35
-1.0000000000E+20
146
0.0
 13
0.0
 23
0.0
 33
0.0
 16
1.0
 26
0.0
 36
0.0
 17
0.0
 27
1.0
 37
0.0
 76
     0
330
1B
  0
LAYOUT
  5
26
102
{ACAD_REACTORS
330
1A
102
}
330
1A
100
AcDbPlotSettings
  1

  2
none_device
  4

  6

 40
0.0
 41
0.0
 42
0.0
 43
0.0
 44
0.0
 45
0.0
 46
0.0
 47
0.0
 48
0.0
 49
0.0
140
0.0
141
0.0
142
1.0
143
1.0
 70
   688
 72
     0
 73
     0
 74
     5
  7

 75
    16
147
1.0
148
0.0
149
0.0
100
AcDbLayout
  1
Layout2
 70
     1
 71
     2
 10
0.0
 20
0.0
 11
0.0
 21
0.0
 12
0.0
 22
0.0
 32
0.0
 14
0.0
 24
0.0
 34
0.0
 15
0.0
 25
0.0
 35
0.0
146
0.0
 13
0.0
 23
0.0
 33
0.0
 16
1.0
 26
0.0
 36
0.0
 17
0.0
 27
1.0
 37
0.0
 76
     0
330
23
  0
LAYOUT
  5
22
102
{ACAD_REACTORS
330
1A
102
}
330
1A
100
AcDbPlotSettings
  1

  2
none_device
  4

  6

 40
0.0
 41
0.0
 42
0.0
 43
0.0
 44
0.0
 45
0.0
 46
0.0
 47
0.0
 48
0.0
 49
0.0
140
0.0
141
0.0
142
1.0
143
1.0
 70
  1712
 72
     0
 73
     0
 74
     0
  7

 75
     0
147
1.0
148
0.0
149
0.0
100
AcDbLayout
  1
Model
 70
     1
 71
     0
 10
0.0
 20
0.0
 11
297.0
 21
210.0
 12
0.0
 22
0.0
 32
0.0
 14
0.0
 24
0.0
 34
0.0
 15
297.0
 25
210.0
 35
0.0
146
0.0
 13
0.0
 23
0.0
 33
0.0
 16
1.0
 26
0.0
 36
0.0
 17
0.0
 27
1.0
 37
0.0
 76
     0
330
1F
331
29
  0
MLINESTYLE
  5
18
102
{ACAD_REACTORS
330
17
102
}
330
17
100
AcDbMlineStyle
  2
Standard
 70
     0
  3

 62
   256
 51
90.0
 52
90.0
 71
     2
 49
0.5
 62
   256
  6
BYLAYER
 49
-0.5
 62
   256
  6
BYLAYER
  0
ACDBPLACEHOLDER
  5
F
102
{ACAD_REACTORS
330
E
102
}
330
E
  0
ENDSEC
  0
EOF
