  0
SECTION
  2
HEADER
  9
$ACADVER
  1
AC1015
  9
$ACADMAINTVER
 70
     6
  9
$DWGCODEPAGE
  3
ANSI_1252
  9
$INSBASE
 10
0.0
 20
0.0
 30
0.0
  9
$EXTMIN
 10
0.0
 20
0.0
 30
0.0
  9
$EXTMAX
 10
297.0
 20
210.0
 30
0.0
  9
$LIMMIN
 10
0.0
 20
0.0
  9
$LIMMAX
 10
297.0
 20
210.0
  9
$ORTHOMODE
 70
     0
  9
$REGENMODE
 70
     1
  9
$FILLMODE
 70
     1
  9
$QTEXTMODE
 70
     0
  9
$MIRRTEXT
 70
     1
  9
$LTSCALE
 40
1.0
  9
$ATTMODE
 70
     1
  9
$TEXTSIZE
 40
2.0
  9
$TRACEWID
 40
1.0
  9
$TEXTSTYLE
  7
STANDARD
  9
$CLAYER
  8
0
  9
$CELTYPE
  6
ByLayer
  9
$CECOLOR
 62
   256
  9
$CELTSCALE
 40
1.0
  9
$DISPSILH
 70
     0
  9
$DIMSCALE
 40
1.0
  9
$DIMASZ
 40
3.0
  9
$DIMEXO
 40
0.0
  9
$DIMDLI
 40
3.75
  9
$DIMRND
 40
0.0
  9
$DIMDLE
 40
0.0
  9
$DIMEXE
 40
1.0
  9
$DIMTP
 40
0.0
  9
$DIMTM
 40
0.0
  9
$DIMTXT
 40
2.0
  9
$DIMCEN
 40
2.5
  9
$DIMTSZ
 40
0.0
  9
$DIMTOL
 70
     0
  9
$DIMLIM
 70
     0
  9
$DIMTIH
 70
     1
  9
$DIMTOH
 70
     1
  9
$DIMSE1
 70
     0
  9
$DIMSE2
 70
     0
  9
$DIMTAD
 70
     1
  9
$DIMZIN
 70
     0
  9
$DIMBLK
  1

  9
$DIMASO
 70
     1
  9
$DIMSHO
 70
     1
  9
$DIMPOST
  1

  9
$DIMAPOST
  1

  9
$DIMALT
 70
     0
  9
$DIMALTD
 70
     3
  9
$DIMALTF
 40
0.0393700787
  9
$DIMLFAC
 40
1.0
  9
$DIMTOFL
 70
     1
  9
$DIMTVP
 40
0.0
  9
$DIMTIX
 70
     0
  9
$DIMSOXD
 70
     0
  9
$DIMSAH
 70
     0
  9
$DIMBLK1
  1

  9
$DIMBLK2
  1

  9
$DIMSTYLE
  2
ISO-25
  9
$DIMCLRD
 70
     0
  9
$DIMCLRE
 70
     0
  9
$DIMCLRT
 70
     0
  9
$DIMTFAC
 40
1.0
  9
$DIMGAP
 40
1.524
  9
$DIMJUST
 70
     0
  9
$DIMSD1
 70
     0
  9
$DIMSD2
 70
     0
  9
$DIMTOLJ
 70
     0
  9
$DIMTZIN
 70
     0
  9
$DIMALTZ
 70
     0
  9
$DIMALTTZ
 70
     0
  9
$DIMUPT
 70
     0
  9
$DIMDEC
 70
     2
  9
$DIMTDEC
 70
     2
  9
$DIMALTU
 70
     2
  9
$DIMALTTD
 70
     3
  9
$DIMTXSTY
  7
STANDARD
  9
$DIMAUNIT
 70
     0
  9
$DIMADEC
 70
     0
  9
$DIMALTRND
 40
0.0
  9
$DIMAZIN
 70
     0
  9
$DIMDSEP
 70
    44
  9
$DIMATFIT
 70
     3
  9
$DIMFRAC
 70
     0
  9
$DIMLDRBLK
  1

  9
$DIMLUNIT
 70
     2
  9
$DIMLWD
 70
    -2
  9
$DIMLWE
 70
    -2
  9
$DIMTMOVE
 70
     0
  9
$LUNITS
 70
     2
  9
$LUPREC
 70
     2
  9
$SKETCHINC
 40
1.0
  9
$FILLETRAD
 40
10.0
  9
$AUNITS
 70
     0
  9
$AUPREC
 70
     0
  9
$MENU
  1
.
  9
$ELEVATION
 40
0.0
  9
$PELEVATION
 40
0.0
  9
$THICKNESS
 40
0.0
  9
$LIMCHECK
 70
     0
  9
$CHAMFERA
 40
10.0
  9
$CHAMFERB
 40
10.0
  9
$CHAMFERC
 40
20.0
  9
$CHAMFERD
 40
0.0
  9
$SKPOLY
 70
     0
  9
$TDCREATE
 40
2454872.358961747
  9
$TDUCREATE
 40
2454872.317295081
  9
$TDUPDATE
 40
2454872.358961759
  9
$TDUUPDATE
 40
2454872.317295093
  9
$TDINDWG
 40
0.0000000116
  9
$TDUSRTIMER
 40
0.0000000116
  9
$USRTIMER
 70
     1
  9
$ANGBASE
 50
0.0
  9
$ANGDIR
 70
     0
  9
$PDMODE
 70
     0
  9
$PDSIZE
 40
-1.0
  9
$PLINEWID
 40
0.0
  9
$SPLFRAME
 70
     0
  9
$SPLINETYPE
 70
     6
  9
$SPLINESEGS
 70
     8
  9
$HANDSEED
  5
45D
  9
$SURFTAB1
 70
     6
  9
$SURFTAB2
 70
     6
  9
$SURFTYPE
 70
     6
  9
$SURFU
 70
     6
  9
$SURFV
 70
     6
  9
$UCSBASE
  2

  9
$UCSNAME
  2

  9
$UCSORG
 10
0.0
 20
0.0
 30
0.0
  9
$UCSXDIR
 10
1.0
 20
0.0
 30
0.0
  9
$UCSYDIR
 10
0.0
 20
1.0
 30
0.0
  9
$UCSORTHOREF
  2

  9
$UCSORTHOVIEW
 70
     0
  9
$UCSORGTOP
 10
0.0
 20
0.0
 30
0.0
  9
$UCSORGBOTTOM
 10
0.0
 20
0.0
 30
0.0
  9
$UCSORGLEFT
 10
0.0
 20
0.0
 30
0.0
  9
$UCSORGRIGHT
 10
0.0
 20
0.0
 30
0.0
  9
$UCSORGFRONT
 10
0.0
 20
0.0
 30
0.0
  9
$UCSORGBACK
 10
0.0
 20
0.0
 30
0.0
  9
$PUCSBASE
  2

  9
$PUCSNAME
  2

  9
$PUCSORG
 10
0.0
 20
0.0
 30
0.0
  9
$PUCSXDIR
 10
1.0
 20
0.0
 30
0.0
  9
$PUCSYDIR
 10
0.0
 20
1.0
 30
0.0
  9
$PUCSORTHOREF
  2

  9
$PUCSORTHOVIEW
 70
     0
  9
$PUCSORGTOP
 10
0.0
 20
0.0
 30
0.0
  9
$PUCSORGBOTTOM
 10
0.0
 20
0.0
 30
0.0
  9
$PUCSORGLEFT
 10
0.0
 20
0.0
 30
0.0
  9
$PUCSORGRIGHT
 10
0.0
 20
0.0
 30
0.0
  9
$PUCSORGFRONT
 10
0.0
 20
0.0
 30
0.0
  9
$PUCSORGBACK
 10
0.0
 20
0.0
 30
0.0
  9
$USERI1
 70
     0
  9
$USERI2
 70
     0
  9
$USERI3
 70
     0
  9
$USERI4
 70
     0
  9
$USERI5
 70
     0
  9
$USERR1
 40
0.0
  9
$USERR2
 40
0.0
  9
$USERR3
 40
0.0
  9
$USERR4
 40
0.0
  9
$USERR5
 40
0.0
  9
$WORLDVIEW
 70
     1
  9
$SHADEDGE
 70
     3
  9
$SHADEDIF
 70
    70
  9
$TILEMODE
 70
     1
  9
$MAXACTVP
 70
    64
  9
$PINSBASE
 10
0.0
 20
0.0
 30
0.0
  9
$PLIMCHECK
 70
     0
  9
$PEXTMIN
 10
1.0000000000E+20
 20
1.0000000000E+20
 30
1.0000000000E+20
  9
$PEXTMAX
 10
-1.0000000000E+20
 20
-1.0000000000E+20
 30
-1.0000000000E+20
  9
$PLIMMIN
 10
0.0
 20
0.0
  9
$PLIMMAX
 10
420.0
 20
297.0
  9
$UNITMODE
 70
     0
  9
$VISRETAIN
 70
     1
  9
$PLINEGEN
 70
     0
  9
$PSLTSCALE
 70
     1
  9
$TREEDEPTH
 70
  3020
  9
$CMLSTYLE
  2
Standard
  9
$CMLJUST
 70
     0
  9
$CMLSCALE
 40
20.0
  9
$PROXYGRAPHICS
 70
     1
  9
$MEASUREMENT
 70
     1
  9
$CELWEIGHT
370
    -1
  9
$ENDCAPS
280
     0
  9
$JOINSTYLE
280
     0
  9
$LWDISPLAY
290
     1
  9
$INSUNITS
 70
     4
  9
$HYPERLINKBASE
  1

  9
$STYLESHEET
  1

  9
$XEDIT
290
     1
  9
$CEPSNTYPE
380
     0
  9
$PSTYLEMODE
290
     1
  9
$FINGERPRINTGUID
  2
{34CF9BD9-0B1C-498E-B8B9-EB0E268DBC9F}
  9
$VERSIONGUID
  2
{FAEB1C32-E019-11D5-929B-00C0DF256EC4}
  9
$EXTNAMES
290
     1
  9
$PSVPSCALE
 40
0.0
  9
$OLESTARTUP
290
     0
  0
ENDSEC
  0
SECTION
  2
CLASSES
  0
CLASS
  1
ACDBDICTIONARYWDFLT
  2
AcDbDictionaryWithDefault
  3
ObjectDBX Classes
 90
        0
280
     0
281
     0
  0
CLASS
  1
VISUALSTYLE
  2
AcDbVisualStyle
  3
ObjectDBX Classes
 90
     4095
280
     0
281
     0
  0
CLASS
  1
SCALE
  2
AcDbScale
  3
ObjectDBX Classes
 90
     1153
280
     0
281
     0
  0
CLASS
  1
DICTIONARYVAR
  2
AcDbDictionaryVar
  3
ObjectDBX Classes
 90
        0
280
     0
281
     0
  0
CLASS
  1
ACDBPLACEHOLDER
  2
AcDbPlaceHolder
  3
ObjectDBX Classes
 90
        0
280
     0
281
     0
  0
CLASS
  1
LAYOUT
  2
AcDbLayout
  3
ObjectDBX Classes
 90
        0
280
     0
281
     0
  0
ENDSEC
  0
SECTION
  2
TABLES
  0
TABLE
  2
VPORT
  5
8
330
0
100
AcDbSymbolTable
 70
     1
  0
VPORT
  5
29
330
8
100
AcDbSymbolTableRecord
100
AcDbViewportTableRecord
  2
*Active
 70
     0
 10
0.0
 20
0.0
 11
1.0
 21
1.0
 12
148.5
 22
105.0
 13
0.0
 23
0.0
 14
10.0
 24
10.0
 15
10.0
 25
10.0
 16
0.0
 26
0.0
 36
1.0
 17
0.0
 27
0.0
 37
0.0
 40
210.0
 41
1.4142857143
 42
50.0
 43
0.0
 44
0.0
 50
0.0
 51
0.0
 71
     0
 72
  2000
 73
     1
 74
     3
 75
     0
 76
     0
 77
     0
 78
     0
281
     0
 65
     1
110
0.0
120
0.0
130
0.0
111
1.0
121
0.0
131
0.0
112
0.0
122
1.0
132
0.0
 79
     0
146
0.0
  0
ENDTAB
  0
TABLE
  2
LTYPE
  5
5
330
0
100
AcDbSymbolTable
 70
     8
  0
LTYPE
  5
14
330
5
100
AcDbSymbolTableRecord
100
AcDbLinetypeTableRecord
  2
ByBlock
 70
     0
  3

 72
    65
 73
     0
 40
0.0
  0
LTYPE
  5
15
330
5
100
AcDbSymbolTableRecord
100
AcDbLinetypeTableRecord
  2
ByLayer
 70
     0
  3

 72
    65
 73
     0
 40
0.0
  0
LTYPE
  5
16
330
5
100
AcDbSymbolTableRecord
100
AcDbLinetypeTableRecord
  2
Continuous
 70
     0
  3
Solid line
 72
    65
 73
     0
 40
0.0
  0
LTYPE
  5
5D
330
5
100
AcDbSymbolTableRecord
100
AcDbLinetypeTableRecord
  2
SLD-Durchgehend
 70
     0
  3
SolidWorks Line Style
 72
    65
 73
     0
 40
0.0
  0
LTYPE
  5
5E
330
5
100
AcDbSymbolTableRecord
100
AcDbLinetypeTableRecord
  2
SLD-Gestrichelt
 70
     0
  3
SolidWorks Line Style
 72
    65
 73
     2
 40
1.905
 49
1.27
 74
     0
 49
-0.635
 74
     0
  0
LTYPE
  5
5F
330
5
100
AcDbSymbolTableRecord
100
AcDbLinetypeTableRecord
  2
SLD-Phantom
 70
     0
  3
SolidWorks Line Style
 72
    65
 73
     6
 40
12.7
 49
6.35
 74
     0
 49
-1.27
 74
     0
 49
1.27
 74
     0
 49
-1.27
 74
     0
 49
1.27
 74
     0
 49
-1.27
 74
     0
  0
LTYPE
  5
60
330
5
100
AcDbSymbolTableRecord
100
AcDbLinetypeTableRecord
  2
SLD-Kette
 70
     0
  3
SolidWorks Line Style
 72
    65
 73
     4
 40
10.16
 49
6.35
 74
     0
 49
-1.27
 74
     0
 49
1.27
 74
     0
 49
-1.27
 74
     0
  0
LTYPE
  5
61
330
5
100
AcDbSymbolTableRecord
100
AcDbLinetypeTableRecord
  2
SLD-Punktstrich
 70
     0
  3
SolidWorks Line Style
 72
    65
 73
     4
 40
19.05
 49
15.24
 74
     0
 49
-1.27
 74
     0
 49
1.27
 74
     0
 49
-1.27
 74
     0
  0
LTYPE
  5
62
330
5
100
AcDbSymbolTableRecord
100
AcDbLinetypeTableRecord
  2
SLD-Naht
 70
     0
  3
SolidWorks Line Style
 72
    65
 73
     2
 40
0.635
 49
0.0
 74
     0
 49
-0.635
 74
     0
  0
LTYPE
  5
63
330
5
100
AcDbSymbolTableRecord
100
AcDbLinetypeTableRecord
  2
SLD-Dicke-Dünne-Kette
 70
     0
  3
SolidWorks Line Style
 72
    65
 73
     4
 40
10.16
 49
6.35
 74
     0
 49
-1.27
 74
     0
 49
1.27
 74
     0
 49
-1.27
 74
     0
  0
ENDTAB
  0
TABLE
  2
LAYER
  5
2
330
0
100
AcDbSymbolTable
 70
     5
  0
LAYER
  5
10
330
2
100
AcDbSymbolTableRecord
100
AcDbLayerTableRecord
  2
0
 70
     0
 62
     7
  6
Continuous
370
    -3
390
F
  0
LAYER
  5
64
330
2
100
AcDbSymbolTableRecord
100
AcDbLayerTableRecord
  2
FORMAT
 70
     0
 62
     7
  6
SLD-Durchgehend
370
    -3
390
F
  0
LAYER
  5
65
330
2
100
AcDbSymbolTableRecord
100
AcDbLayerTableRecord
  2
VERMASSUNG
 70
     0
 62
     7
  6
SLD-Durchgehend
370
    -3
390
F
  0
LAYER
  5
66
330
2
100
AcDbSymbolTableRecord
100
AcDbLayerTableRecord
  2
KOPF_DÜNN
 70
     0
 62
     7
  6
SLD-Durchgehend
370
    -3
390
F
  0
LAYER
  5
67
330
2
100
AcDbSymbolTableRecord
100
AcDbLayerTableRecord
  2
KOPF_DICK
 70
     0
 62
     7
  6
SLD-Durchgehend
370
    15
390
F
  0
ENDTAB
  0
TABLE
  2
STYLE
  5
3
330
0
100
AcDbSymbolTable
 70
     2
  0
STYLE
  5
11
330
3
100
AcDbSymbolTableRecord
100
AcDbTextStyleTableRecord
  2
STANDARD
 70
     0
 40
0.0
 41
1.0
 50
0.0
 71
     0
 42
2.5
  3
ISOCPEUR.TTF
  4

1001
ACAD
1000
ISOCPEUR
1071
       34
  0
STYLE
  5
68
330
3
100
AcDbSymbolTableRecord
100
AcDbTextStyleTableRecord
  2
SLDTEXTSTYLE0
 70
     0
 40
0.0
 41
1.0
 50
0.0
 71
     0
 42
0.2
  3
ISOCPEUR.TTF
  4

1001
ACAD
1000
ISOCPEUR
1071
      290
  0
ENDTAB
  0
TABLE
  2
VIEW
  5
6
330
0
100
AcDbSymbolTable
 70
     0
  0
ENDTAB
  0
TABLE
  2
UCS
  5
7
330
0
100
AcDbSymbolTable
 70
     0
  0
ENDTAB
  0
TABLE
  2
APPID
  5
9
330
0
100
AcDbSymbolTable
 70
     1
  0
APPID
  5
12
330
9
100
AcDbSymbolTableRecord
100
AcDbRegAppTableRecord
  2
ACAD
 70
     0
  0
ENDTAB
  0
TABLE
  2
DIMSTYLE
  5
A
330
0
100
AcDbSymbolTable
 70
     2
100
AcDbDimStyleTable
  0
DIMSTYLE
105
27
330
A
100
AcDbSymbolTableRecord
100
AcDbDimStyleTableRecord
  2
ISO-25
 70
     0
 41
2.5
 42
0.625
 43
3.75
 44
1.25
 73
     0
 74
     0
 77
     1
 78
     8
140
2.5
141
2.5
143
0.0393700787
147
0.625
171
     3
172
     1
271
     2
272
     2
274
     3
278
    44
283
     0
284
     8
340
11
  0
DIMSTYLE
105
426
102
{ACAD_REACTORS
330
425
330
430
330
43A
330
446
102
}
330
A
100
AcDbSymbolTableRecord
100
AcDbDimStyleTableRecord
  2
SLDDIMSTYLE0
 70
     0
 41
3.0
 44
0.0
 45
0.000000001
 73
     0
 74
     0
 77
     1
 78
    12
140
2.0
147
0.5
173
     1
271
     2
272
     3
284
    12
340
68
  0
ENDTAB
  0
TABLE
  2
BLOCK_RECORD
  5
1
330
0
100
AcDbSymbolTable
 70
     5
  0
BLOCK_RECORD
  5
1F
330
1
100
AcDbSymbolTableRecord
100
AcDbBlockTableRecord
  2
*Model_Space
340
22
  0
BLOCK_RECORD
  5
1B
330
1
100
AcDbSymbolTableRecord
100
AcDbBlockTableRecord
  2
*Paper_Space
340
1E
  0
BLOCK_RECORD
  5
23
330
1
100
AcDbSymbolTableRecord
100
AcDbBlockTableRecord
  2
*Paper_Space0
340
26
  0
BLOCK_RECORD
  5
427
330
1
100
AcDbSymbolTableRecord
100
AcDbBlockTableRecord
  2
*D1
340
0
  0
BLOCK_RECORD
  5
431
330
1
100
AcDbSymbolTableRecord
100
AcDbBlockTableRecord
  2
*D2
340
0
  0
BLOCK_RECORD
  5
43B
330
1
100
AcDbSymbolTableRecord
100
AcDbBlockTableRecord
  2
*D3
340
0
  0
BLOCK_RECORD
  5
447
330
1
100
AcDbSymbolTableRecord
100
AcDbBlockTableRecord
  2
*D4
340
0
  0
ENDTAB
  0
ENDSEC
  0
SECTION
  2
BLOCKS
  0
BLOCK
  5
20
330
1F
100
AcDbEntity
  8
0
100
AcDbBlockBegin
  2
*Model_Space
 70
     0
 10
0.0
 20
0.0
 30
0.0
  3
*Model_Space
  1

  0
ENDBLK
  5
21
330
1F
100
AcDbEntity
  8
0
100
AcDbBlockEnd
  0
BLOCK
  5
1C
330
1B
100
AcDbEntity
 67
     1
  8
0
100
AcDbBlockBegin
  2
*Paper_Space
 70
     0
 10
0.0
 20
0.0
 30
0.0
  3
*Paper_Space
  1

  0
ENDBLK
  5
1D
330
1B
100
AcDbEntity
 67
     1
  8
0
100
AcDbBlockEnd
  0
BLOCK
  5
24
330
23
100
AcDbEntity
  8
0
100
AcDbBlockBegin
  2
*Paper_Space0
 70
     0
 10
0.0
 20
0.0
 30
0.0
  3
*Paper_Space0
  1

  0
ENDBLK
  5
25
330
23
100
AcDbEntity
  8
0
100
AcDbBlockEnd
  0
BLOCK
  5
428
330
427
100
AcDbEntity
  8
0
100
AcDbBlockBegin
  2
*D1
 70
     1
 10
0.0
 20
0.0
 30
0.0
  3
*D1
  1

  0
SOLID
  5
42A
330
427
100
AcDbEntity
  8
VERMASSUNG
100
AcDbTrace
 10
127.9592801444
 20
127.3996127829
 30
0.0
 11
130.9592801444
 21
126.9496127829
 31
0.0
 12
130.9592801444
 22
127.8496127829
 32
0.0
 13
130.9592801444
 23
127.8496127829
 33
0.0
  0
SOLID
  5
42B
330
427
100
AcDbEntity
  8
VERMASSUNG
100
AcDbTrace
 10
187.9592801444
 20
127.3996127829
 30
0.0
 11
184.9592801444
 21
127.8496127829
 31
0.0
 12
184.9592801444
 22
126.9496127829
 32
0.0
 13
184.9592801444
 23
126.9496127829
 33
0.0
  0
LINE
  5
42C
330
427
100
AcDbEntity
  8
VERMASSUNG
100
AcDbLine
 10
127.9592801444
 20
101.1609918539
 30
0.0
 11
127.9592801444
 21
128.3996127829
 31
0.0
  0
LINE
  5
42D
330
427
100
AcDbEntity
  8
VERMASSUNG
100
AcDbLine
 10
187.9592801444
 20
120.7609918539
 30
0.0
 11
187.9592801444
 21
128.3996127829
 31
0.0
  0
LINE
  5
42E
330
427
100
AcDbEntity
  8
VERMASSUNG
100
AcDbLine
 10
127.9592801444
 20
127.3996127829
 30
0.0
 11
187.9592801444
 21
127.3996127829
 31
0.0
  0
MTEXT
  5
42F
330
427
100
AcDbEntity
  8
VERMASSUNG
100
AcDbMText
 10
156.5603533929
 20
129.9996128993
 30
0.0
 40
2.0
 41
0.0
 71
     1
 72
     1
  1
60
  7
SLDTEXTSTYLE0
 73
     1
 44
1.0
  0
ENDBLK
  5
429
330
427
100
AcDbEntity
  8
0
100
AcDbBlockEnd
  0
BLOCK
  5
432
330
431
100
AcDbEntity
  8
0
100
AcDbBlockBegin
  2
*D2
 70
     1
 10
0.0
 20
0.0
 30
0.0
  3
*D2
  1

  0
SOLID
  5
434
330
431
100
AcDbEntity
  8
VERMASSUNG
100
AcDbTrace
 10
108.0592801444
 20
133.3996127829
 30
0.0
 11
111.0592801444
 21
132.9496127829
 31
0.0
 12
111.0592801444
 22
133.8496127829
 32
0.0
 13
111.0592801444
 23
133.8496127829
 33
0.0
  0
SOLID
  5
435
330
431
100
AcDbEntity
  8
VERMASSUNG
100
AcDbTrace
 10
187.9592801444
 20
133.3996127829
 30
0.0
 11
184.9592801444
 21
133.8496127829
 31
0.0
 12
184.9592801444
 22
132.9496127829
 32
0.0
 13
184.9592801444
 23
132.9496127829
 33
0.0
  0
LINE
  5
436
330
431
100
AcDbEntity
  8
VERMASSUNG
100
AcDbLine
 10
108.0592801444
 20
113.0909918539
 30
0.0
 11
108.0592801444
 21
134.3996127829
 31
0.0
  0
LINE
  5
437
330
431
100
AcDbEntity
  8
VERMASSUNG
100
AcDbLine
 10
187.9592801444
 20
120.7609918539
 30
0.0
 11
187.9592801444
 21
134.3996127829
 31
0.0
  0
LINE
  5
438
330
431
100
AcDbEntity
  8
VERMASSUNG
100
AcDbLine
 10
108.0592801444
 20
133.3996127829
 30
0.0
 11
187.9592801444
 21
133.3996127829
 31
0.0
  0
MTEXT
  5
439
330
431
100
AcDbEntity
  8
VERMASSUNG
100
AcDbMText
 10
145.6097417459
 20
135.9996128993
 30
0.0
 40
2.0
 41
0.0
 71
     1
 72
     1
  1
79.9
  7
SLDTEXTSTYLE0
 73
     1
 44
1.0
  0
ENDBLK
  5
433
330
431
100
AcDbEntity
  8
0
100
AcDbBlockEnd
  0
BLOCK
  5
43C
330
43B
100
AcDbEntity
  8
0
100
AcDbBlockBegin
  2
*D3
 70
     1
 10
0.0
 20
0.0
 30
0.0
  3
*D3
  1

  0
SOLID
  5
43E
330
43B
100
AcDbEntity
  8
VERMASSUNG
100
AcDbTrace
 10
104.4932335065
 20
121.1609918539
 30
0.0
 11
104.0432335065
 21
118.1609918539
 31
0.0
 12
104.9432335065
 22
118.1609918539
 32
0.0
 13
104.9432335065
 23
118.1609918539
 33
0.0
  0
SOLID
  5
43F
330
43B
100
AcDbEntity
  8
VERMASSUNG
100
AcDbTrace
 10
104.4932335065
 20
81.1609918539
 30
0.0
 11
104.9432335065
 21
84.1609918539
 31
0.0
 12
104.0432335065
 22
84.1609918539
 32
0.0
 13
104.0432335065
 23
84.1609918539
 33
0.0
  0
LINE
  5
440
330
43B
100
AcDbEntity
  8
VERMASSUNG
100
AcDbLine
 10
128.2592801444
 20
121.1609918539
 30
0.0
 11
103.4932335065
 21
121.1609918539
 31
0.0
  0
LINE
  5
441
330
43B
100
AcDbEntity
  8
VERMASSUNG
100
AcDbLine
 10
128.2592801444
 20
81.1609918539
 30
0.0
 11
103.4932335065
 21
81.1609918539
 31
0.0
  0
LINE
  5
442
330
43B
100
AcDbEntity
  8
VERMASSUNG
100
AcDbLine
 10
104.4932335065
 20
121.1609918539
 30
0.0
 11
104.4932335065
 21
81.1609918539
 31
0.0
  0
MTEXT
  5
443
330
43B
100
AcDbEntity
  8
VERMASSUNG
100
AcDbMText
 10
101.6932337299
 20
94.8568628275
 30
0.0
 40
2.0
 41
0.0
 71
     1
 72
     1
  1
HSK 
  7
SLDTEXTSTYLE0
 11
-7.044195017643634E-15
 21
1.0
 31
0.0
 73
     1
 44
1.0
  0
MTEXT
  5
444
330
43B
100
AcDbEntity
  8
VERMASSUNG
100
AcDbMText
 10
101.8932336812
 20
100.8568628796
 30
0.0
 40
2.0
 41
0.0
 71
     1
 72
     1
  1
%%c
  7
SLDTEXTSTYLE0
 11
-7.044195017643634E-15
 21
1.0
 31
0.0
 73
     1
 44
1.0
  0
MTEXT
  5
445
330
43B
100
AcDbEntity
  8
VERMASSUNG
100
AcDbMText
 10
101.8932333901
 20
104.4660424453
 30
0.0
 40
2.0
 41
0.0
 71
     1
 72
     1
  1
40
  7
SLDTEXTSTYLE0
 11
-7.044195017643634E-15
 21
1.0
 31
0.0
 73
     1
 44
1.0
  0
ENDBLK
  5
43D
330
43B
100
AcDbEntity
  8
0
100
AcDbBlockEnd
  0
BLOCK
  5
448
330
447
100
AcDbEntity
  8
0
100
AcDbBlockBegin
  2
*D4
 70
     1
 10
0.0
 20
0.0
 30
0.0
  3
*D4
  1

  0
SOLID
  5
44A
330
447
100
AcDbEntity
  8
VERMASSUNG
100
AcDbTrace
 10
204.2635558908
 20
121.1609918539
 30
0.0
 11
203.8135558908
 21
118.1609918539
 31
0.0
 12
204.7135558908
 22
118.1609918539
 32
0.0
 13
204.7135558908
 23
118.1609918539
 33
0.0
  0
SOLID
  5
44B
330
447
100
AcDbEntity
  8
VERMASSUNG
100
AcDbTrace
 10
204.2635558908
 20
81.1609918539
 30
0.0
 11
204.7135558908
 21
84.1609918539
 31
0.0
 12
203.8135558908
 22
84.1609918539
 32
0.0
 13
203.8135558908
 23
84.1609918539
 33
0.0
  0
LINE
  5
44C
330
447
100
AcDbEntity
  8
VERMASSUNG
100
AcDbLine
 10
187.5592801444
 20
121.1609918539
 30
0.0
 11
205.2635558908
 21
121.1609918539
 31
0.0
  0
LINE
  5
44D
330
447
100
AcDbEntity
  8
VERMASSUNG
100
AcDbLine
 10
187.5592801444
 20
81.1609918539
 30
0.0
 11
205.2635558908
 21
81.1609918539
 31
0.0
  0
LINE
  5
44E
330
447
100
AcDbEntity
  8
VERMASSUNG
100
AcDbLine
 10
204.2635558908
 20
121.1609918539
 30
0.0
 11
204.2635558908
 21
81.1609918539
 31
0.0
  0
MTEXT
  5
44F
330
447
100
AcDbEntity
  8
VERMASSUNG
100
AcDbMText
 10
201.4635561141
 20
94.8568628275
 30
0.0
 40
2.0
 41
0.0
 71
     1
 72
     1
  1
HSK 
  7
SLDTEXTSTYLE0
 11
-7.044195017643634E-15
 21
1.0
 31
0.0
 73
     1
 44
1.0
  0
MTEXT
  5
450
330
447
100
AcDbEntity
  8
VERMASSUNG
100
AcDbMText
 10
201.6635560654
 20
100.8568628796
 30
0.0
 40
2.0
 41
0.0
 71
     1
 72
     1
  1
%%c
  7
SLDTEXTSTYLE0
 11
-7.044195017643634E-15
 21
1.0
 31
0.0
 73
     1
 44
1.0
  0
MTEXT
  5
451
330
447
100
AcDbEntity
  8
VERMASSUNG
100
AcDbMText
 10
201.6635557743
 20
104.4660424453
 30
0.0
 40
2.0
 41
0.0
 71
     1
 72
     1
  1
40
  7
SLDTEXTSTYLE0
 11
-7.044195017643634E-15
 21
1.0
 31
0.0
 73
     1
 44
1.0
  0
ENDBLK
  5
449
330
447
100
AcDbEntity
  8
0
100
AcDbBlockEnd
  0
ENDSEC
  0
SECTION
  2
ENTITIES
  0
MTEXT
  5
69
330
1F
100
AcDbEntity
  8
KOPF_DÜNN
100
AcDbMText
 10
13.8892156294
 20
23.8770940835
 30
0.0
 40
3.0
 41
0.0
 71
     1
 72
     1
  1
HA4.HA4.K01.060
  7
SLDTEXTSTYLE0
 73
     1
 44
1.0
  0
MTEXT
  5
6A
330
1F
100
AcDbEntity
  8
VERMASSUNG
100
AcDbMText
 10
13.9329988022
 20
28.9162328764
 30
0.0
 40
3.0
 41
0.0
 71
     1
 72
     1
  1
Verlängerung_Extension
  7
SLDTEXTSTYLE0
 73
     1
 44
1.0
  0
MTEXT
  5
6B
330
1F
100
AcDbEntity
  8
VERMASSUNG
100
AcDbMText
 10
98.8601118557
 20
13.8584013966
 30
0.0
 40
2.0
 41
0.0
 71
     1
 72
     1
  1
Datum: 29.07.2007
  7
SLDTEXTSTYLE0
 73
     1
 44
1.0
  0
MTEXT
  5
6C
330
1F
100
AcDbEntity
  8
VERMASSUNG
100
AcDbMText
 10
13.933048693
 20
18.0701447943
 30
0.0
 40
2.0
 41
0.0
 71
     1
 72
     1
  1
DIN 69893 HSK 40 A ICTM
  7
SLDTEXTSTYLE0
 73
     1
 44
1.0
  0
MTEXT
  5
6D
330
1F
100
AcDbEntity
  8
VERMASSUNG
100
AcDbMText
 10
13.9808475933
 20
13.9309619479
 30
0.0
 40
2.0
 41
0.0
 71
     1
 72
     1
  1
Gewicht: 466g
  7
SLDTEXTSTYLE0
 73
     1
 44
1.0
  0
ARC
  5
6E
330
1F
100
AcDbEntity
  8
0
  6
SLD-Durchgehend
 62
     7
370
    15
100
AcDbCircle
 10
179.8989584114
 20
101.4830467034
 30
0.0
 40
20.00000000000002
100
AcDbArc
 50
77.7143002511
 51
78.5790308979
  0
ARC
  5
6F
330
1F
100
AcDbEntity
  8
0
  6
SLD-Durchgehend
 62
     7
370
    15
100
AcDbCircle
 10
184.0196018775
 20
101.4830467034
 30
0.0
 40
20.00000000000001
100
AcDbArc
 50
101.4209691021
 51
102.4262993068
  0
ARC
  5
70
330
1F
100
AcDbEntity
  8
0
  6
SLD-Durchgehend
 62
     7
370
    15
100
AcDbCircle
 10
184.0196018775
 20
100.8389370043
 30
0.0
 40
19.99999999999999
100
AcDbArc
 50
257.7136607564
 51
258.5790308979
  0
ARC
  5
71
330
1F
100
AcDbEntity
  8
0
  6
SLD-Durchgehend
 62
     7
370
    15
100
AcDbCircle
 10
179.8989584114
 20
100.8389370043
 30
0.0
 40
20.0
100
AcDbArc
 50
281.4209691021
 51
282.4097029655
  0
LINE
  5
72
330
1F
100
AcDbEntity
  8
0
  6
SLD-Durchgehend
 62
     7
370
    15
100
AcDbLine
 10
196.6092801444
 20
94.2613777873
 30
0.0
 11
197.0092801444
 21
94.6613777873
 31
0.0
  0
LINE
  5
73
330
1F
100
AcDbEntity
  8
0
  6
SLD-Durchgehend
 62
     7
370
    15
100
AcDbLine
 10
197.0092801444
 20
96.6613777873
 30
0.0
 11
196.6092801444
 21
97.0613777873
 31
0.0
  0
LINE
  5
74
330
1F
100
AcDbEntity
  8
0
  6
SLD-Durchgehend
 62
     7
370
    15
100
AcDbLine
 10
195.3092801444
 20
111.1609918539
 30
0.0
 11
192.6092801444
 21
111.1609918539
 31
0.0
  0
LINE
  5
75
330
1F
100
AcDbEntity
  8
0
  6
SLD-Durchgehend
 62
     7
370
    15
100
AcDbLine
 10
192.6092801444
 20
91.1609918539
 30
0.0
 11
195.3092801444
 21
91.1609918539
 31
0.0
  0
LINE
  5
76
330
1F
100
AcDbEntity
  8
0
  6
SLD-Durchgehend
 62
     7
370
    15
100
AcDbLine
 10
192.6092801444
 20
111.1609918539
 30
0.0
 11
191.6092801444
 21
110.5836415847
 31
0.0
  0
LINE
  5
77
330
1F
100
AcDbEntity
  8
0
  6
SLD-Durchgehend
 62
     7
370
    15
100
AcDbLine
 10
191.6092801444
 20
91.7383421231
 30
0.0
 11
192.6092801444
 21
91.1609918539
 31
0.0
  0
LINE
  5
78
330
1F
100
AcDbEntity
  8
0
  6
SLD-Durchgehend
 62
     7
370
    15
100
AcDbLine
 10
195.3092801444
 20
91.4109918539
 30
0.0
 11
196.6092801444
 21
92.7947594975
 31
0.0
  0
LINE
  5
79
330
1F
100
AcDbEntity
  8
0
  6
SLD-Durchgehend
 62
     7
370
    15
100
AcDbLine
 10
196.6092801444
 20
109.5272242103
 30
0.0
 11
195.3092801444
 21
110.9109918539
 31
0.0
  0
LINE
  5
7A
330
1F
100
AcDbEntity
  8
0
  6
SLD-Durchgehend
 62
     7
370
    15
100
AcDbLine
 10
187.9592801444
 20
90.9109918539
 30
0.0
 11
191.6092801444
 21
90.9109918539
 31
0.0
  0
LINE
  5
7B
330
1F
100
AcDbEntity
  8
0
  6
SLD-Durchgehend
 62
     7
370
    15
100
AcDbLine
 10
191.6092801444
 20
111.4109918539
 30
0.0
 11
187.9592801444
 21
111.4109918539
 31
0.0
  0
LINE
  5
7C
330
1F
100
AcDbEntity
  8
0
  6
SLD-Durchgehend
 62
     7
370
    15
100
AcDbLine
 10
178.5043399189
 20
121.1609918539
 30
0.0
 11
165.5573563558
 21
121.1609918539
 31
0.0
  0
LINE
  5
7D
330
1F
100
AcDbEntity
  8
0
  6
SLD-Durchgehend
 62
     7
370
    15
100
AcDbLine
 10
187.5592801444
 20
121.1609918539
 30
0.0
 11
185.4592801444
 21
121.1609918539
 31
0.0
  0
LINE
  5
7E
330
1F
100
AcDbEntity
  8
0
  6
SLD-Durchgehend
 62
     7
370
    15
100
AcDbLine
 10
185.4592801444
 20
81.1609918539
 30
0.0
 11
187.5592801444
 21
81.1609918539
 31
0.0
  0
LINE
  5
7F
330
1F
100
AcDbEntity
  8
0
  6
SLD-Durchgehend
 62
     7
370
    15
100
AcDbLine
 10
165.5573563558
 20
81.1609918539
 30
0.0
 11
178.5043399189
 21
81.1609918539
 31
0.0
  0
ARC
  5
80
330
1F
100
AcDbEntity
  8
0
  6
SLD-Durchgehend
 62
     7
370
    15
100
AcDbCircle
 10
187.5592801444
 20
120.7609918539
 30
0.0
 40
0.4000000000000341
100
AcDbArc
 50
0.0
 51
90.0
  0
ARC
  5
81
330
1F
100
AcDbEntity
  8
0
  6
SLD-Durchgehend
 62
     7
370
    15
100
AcDbCircle
 10
187.5592801444
 20
81.5609918539
 30
0.0
 40
0.4000000000000341
100
AcDbArc
 50
270.0
 51
0.0
  0
ARC
  5
82
330
1F
100
AcDbEntity
  8
0
  6
SLD-Durchgehend
 62
     7
370
    15
100
AcDbCircle
 10
165.5573563558
 20
82.1609918539
 30
0.0
 40
1.0
100
AcDbArc
 50
210.0
 51
270.0
  0
ARC
  5
83
330
1F
100
AcDbEntity
  8
0
  6
SLD-Durchgehend
 62
     7
370
    15
100
AcDbCircle
 10
165.5573563558
 20
120.1609918539
 30
0.0
 40
1.0
100
AcDbArc
 50
90.0
 51
150.0
  0
LINE
  5
84
330
1F
100
AcDbEntity
  8
0
  6
SLD-Durchgehend
 62
     7
370
    15
100
AcDbLine
 10
128.2592801444
 20
81.1609918539
 30
0.0
 11
135.9092801444
 21
81.1609918539
 31
0.0
  0
LINE
  5
85
330
1F
100
AcDbEntity
  8
0
  6
SLD-Durchgehend
 62
     7
370
    15
100
AcDbLine
 10
135.9248073533
 20
121.1609918539
 30
0.0
 11
128.2592801444
 21
121.1609918539
 31
0.0
  0
ARC
  5
86
330
1F
100
AcDbEntity
  8
0
  6
SLD-Durchgehend
 62
     7
370
    15
100
AcDbCircle
 10
128.2592801444
 20
81.4609918539
 30
0.0
 40
0.3000000000000114
100
AcDbArc
 50
180.0
 51
270.0
  0
ARC
  5
87
330
1F
100
AcDbEntity
  8
0
  6
SLD-Durchgehend
 62
     7
370
    15
100
AcDbCircle
 10
128.2592801444
 20
120.8609918539
 30
0.0
 40
0.3000000000000114
100
AcDbArc
 50
90.0
 51
180.0
  0
LINE
  5
88
330
1F
100
AcDbEntity
  8
0
  6
SLD-Durchgehend
 62
     7
370
    15
100
AcDbLine
 10
164.691330952
 20
120.6609918539
 30
0.0
 11
163.247955279
 21
118.1609918539
 31
0.0
  0
LINE
  5
89
330
1F
100
AcDbEntity
  8
0
  6
SLD-Durchgehend
 62
     7
370
    15
100
AcDbLine
 10
163.247955279
 20
84.1609918539
 30
0.0
 11
164.691330952
 21
81.6609918539
 31
0.0
  0
ARC
  5
8A
330
1F
100
AcDbEntity
  8
0
  6
SLD-Durchgehend
 62
     7
370
    15
100
AcDbCircle
 10
148.9092801444
 20
83.6609918539
 30
0.0
 40
1.0
100
AcDbArc
 50
90.0
 51
143.1137328946
  0
ARC
  5
8B
330
1F
100
AcDbEntity
  8
0
  6
SLD-Durchgehend
 62
     7
370
    15
100
AcDbCircle
 10
148.9092801444
 20
118.6609918539
 30
0.0
 40
1.0
100
AcDbArc
 50
216.8998129703
 51
270.0
  0
ARC
  5
8C
330
1F
100
AcDbEntity
  8
0
  6
SLD-Durchgehend
 62
     7
370
    15
100
AcDbCircle
 10
162.3819298753
 20
118.6609918539
 30
0.0
 40
1.000000000000001
100
AcDbArc
 50
270.0
 51
330.0
  0
ARC
  5
8D
330
1F
100
AcDbEntity
  8
0
  6
SLD-Durchgehend
 62
     7
370
    15
100
AcDbCircle
 10
162.3819298753
 20
83.6609918539
 30
0.0
 40
1.000000000000001
100
AcDbArc
 50
30.0
 51
90.0
  0
LINE
  5
8E
330
1F
100
AcDbEntity
  8
0
  6
SLD-Durchgehend
 62
     7
370
    15
100
AcDbLine
 10
148.9092801444
 20
84.6609918539
 30
0.0
 11
162.3819298753
 21
84.6609918539
 31
0.0
  0
LINE
  5
8F
330
1F
100
AcDbEntity
  8
0
  6
SLD-Durchgehend
 62
     7
370
    15
100
AcDbLine
 10
162.3819298753
 20
117.6609918539
 30
0.0
 11
148.9092801444
 21
117.6609918539
 31
0.0
  0
ARC
  5
90
330
1F
100
AcDbEntity
  8
0
  6
SLD-Durchgehend
 62
     7
370
    15
100
AcDbCircle
 10
127.4592733918
 20
85.7072847004
 30
0.0
 40
0.6000067526677085
100
AcDbArc
 50
33.5571153394
 51
90.0
  0
ARC
  5
91
330
1F
100
AcDbEntity
  8
0
  6
SLD-Durchgehend
 62
     7
370
    15
100
AcDbCircle
 10
127.4592733918
 20
116.6146990073
 30
0.0
 40
0.6000067526677164
100
AcDbArc
 50
270.0
 51
326.4428846606
  0
LINE
  5
92
330
1F
100
AcDbEntity
  8
0
  6
SLD-Durchgehend
 62
     7
370
    15
100
AcDbLine
 10
125.9592801444
 20
86.0572914531
 30
0.0
 11
126.8159920591
 21
86.2868467188
 31
0.0
  0
LINE
  5
93
330
1F
100
AcDbEntity
  8
0
  6
SLD-Durchgehend
 62
     7
370
    15
100
AcDbLine
 10
126.8159920591
 20
116.035136989
 30
0.0
 11
125.9592801444
 21
116.2646922547
 31
0.0
  0
LINE
  5
94
330
1F
100
AcDbEntity
  8
0
  6
SLD-Durchgehend
 62
     7
370
    15
100
AcDbLine
 10
119.1433474233
 20
115.9232126594
 30
0.0
 11
111.6592801444
 21
115.5482593889
 31
0.0
  0
LINE
  5
95
330
1F
100
AcDbEntity
  8
0
  6
SLD-Durchgehend
 62
     7
370
    15
100
AcDbLine
 10
125.9592801444
 20
116.2646922547
 30
0.0
 11
124.7245474019
 21
116.2028318968
 31
0.0
  0
LINE
  5
96
330
1F
100
AcDbEntity
  8
0
  6
SLD-Durchgehend
 62
     7
370
    15
100
AcDbLine
 10
124.7255436031
 20
86.119101901
 30
0.0
 11
125.9592801444
 21
86.0572914531
 31
0.0
  0
LINE
  5
97
330
1F
100
AcDbEntity
  8
0
  6
SLD-Durchgehend
 62
     7
370
    15
100
AcDbLine
 10
114.1592801444
 20
86.6484738178
 30
0.0
 11
119.1438095839
 21
86.398747894
 31
0.0
  0
ARC
  5
98
330
1F
100
AcDbEntity
  8
0
  6
SLD-Durchgehend
 62
     7
370
    15
100
AcDbCircle
 10
126.9712852339
 20
85.7072847004
 30
0.0
 40
0.600006752667717
100
AcDbArc
 50
90.0
 51
105.0
  0
ARC
  5
99
330
1F
100
AcDbEntity
  8
0
  6
SLD-Durchgehend
 62
     7
370
    15
100
AcDbCircle
 10
126.9712852339
 20
116.6146990073
 30
0.0
 40
0.600006752667717
100
AcDbArc
 50
255.0
 51
270.0
  0
LINE
  5
9A
330
1F
100
AcDbEntity
  8
0
  6
SLD-Durchgehend
 62
     7
370
    15
100
AcDbLine
 10
126.9712852339
 20
86.3072914531
 30
0.0
 11
127.4592733918
 21
86.3072914531
 31
0.0
  0
LINE
  5
9B
330
1F
100
AcDbEntity
  8
0
  6
SLD-Durchgehend
 62
     7
370
    15
100
AcDbLine
 10
127.4592733918
 20
116.0146922547
 30
0.0
 11
126.9712852339
 21
116.0146922547
 31
0.0
  0
ARC
  5
9C
330
1F
100
AcDbEntity
  8
0
  6
SLD-Durchgehend
 62
     7
370
    15
100
AcDbCircle
 10
110.7592801444
 20
114.9409918539
 30
0.0
 40
0.9000000000000085
100
AcDbArc
 50
270.0
 51
311.1792132368
  0
ARC
  5
9D
330
1F
100
AcDbEntity
  8
0
  6
SLD-Durchgehend
 62
     7
370
    15
100
AcDbCircle
 10
113.2592801444
 20
87.3809918539
 30
0.0
 40
0.9000000000000111
100
AcDbArc
 50
34.6391318474
 51
90.0
  0
LINE
  5
9E
330
1F
100
AcDbEntity
  8
0
  6
SLD-Durchgehend
 62
     7
370
    15
100
AcDbLine
 10
109.0092801444
 20
114.0409918539
 30
0.0
 11
108.0592801444
 21
113.0909918539
 31
0.0
  0
LINE
  5
9F
330
1F
100
AcDbEntity
  8
0
  6
SLD-Durchgehend
 62
     7
370
    15
100
AcDbLine
 10
110.7592801444
 20
114.0409918539
 30
0.0
 11
109.0092801444
 21
114.0409918539
 31
0.0
  0
LINE
  5
A0
330
1F
100
AcDbEntity
  8
0
  6
SLD-Durchgehend
 62
     7
370
    15
100
AcDbLine
 10
109.0682801444
 20
88.2809918539
 30
0.0
 11
113.2592801444
 21
88.2809918539
 31
0.0
  0
LINE
  5
A1
330
1F
100
AcDbEntity
  8
0
  6
SLD-Durchgehend
 62
     7
370
    15
100
AcDbLine
 10
108.0592801444
 20
89.2899918539
 30
0.0
 11
109.0682801444
 21
88.2809918539
 31
0.0
  0
LINE
  5
A2
330
1F
100
AcDbEntity
  8
0
  6
SLD-Durchgehend
 62
     7
370
    15
100
AcDbLine
 10
181.3634452216
 20
121.0870221107
 30
0.0
 11
183.8592801444
 21
121.0870221107
 31
0.0
  0
LINE
  5
A3
330
1F
100
AcDbEntity
  8
0
  6
SLD-Durchgehend
 62
     7
370
    15
100
AcDbLine
 10
180.0592801444
 20
121.0870221107
 30
0.0
 11
181.3634452216
 21
121.0870221107
 31
0.0
  0
LINE
  5
A4
330
1F
100
AcDbEntity
  8
0
  6
SLD-Durchgehend
 62
     7
370
    15
100
AcDbLine
 10
183.6801556858
 20
81.234961597
 30
0.0
 11
180.0592801444
 21
81.234961597
 31
0.0
  0
LINE
  5
A5
330
1F
100
AcDbEntity
  8
0
  6
SLD-Durchgehend
 62
     7
370
    15
100
AcDbLine
 10
183.8592801444
 20
81.234961597
 30
0.0
 11
183.6801556858
 21
81.234961597
 31
0.0
  0
LINE
  5
A6
330
1F
100
AcDbEntity
  8
0
  6
SLD-Durchgehend
 62
     7
370
    15
100
AcDbLine
 10
197.0092801444
 20
96.6613777873
 30
0.0
 11
197.0092801444
 21
94.6613777873
 31
0.0
  0
LINE
  5
A7
330
1F
100
AcDbEntity
  8
0
  6
SLD-Durchgehend
 62
     7
370
    15
100
AcDbLine
 10
195.3092801444
 20
111.1609918539
 30
0.0
 11
195.3092801444
 21
91.1609918539
 31
0.0
  0
LINE
  5
A8
330
1F
100
AcDbEntity
  8
0
  6
SLD-Durchgehend
 62
     7
370
    15
100
AcDbLine
 10
192.6092801444
 20
111.1609918539
 30
0.0
 11
192.6092801444
 21
91.1609918539
 31
0.0
  0
LINE
  5
A9
330
1F
100
AcDbEntity
  8
0
  6
SLD-Durchgehend
 62
     7
370
    15
100
AcDbLine
 10
196.6092801444
 20
109.5272242103
 30
0.0
 11
196.6092801444
 21
92.7947594975
 31
0.0
  0
LINE
  5
AA
330
1F
100
AcDbEntity
  8
0
  6
SLD-Durchgehend
 62
     7
370
    15
100
AcDbLine
 10
191.6092801444
 20
101.282416297
 30
0.0
 11
191.6092801444
 21
111.4109918539
 31
0.0
  0
LINE
  5
AB
330
1F
100
AcDbEntity
  8
0
  6
SLD-Durchgehend
 62
     7
370
    15
100
AcDbLine
 10
191.6092801444
 20
90.9109918539
 30
0.0
 11
191.6092801444
 21
101.282416297
 31
0.0
  0
LWPOLYLINE
  5
AC
330
1F
100
AcDbEntity
  8
0
  6
SLD-Durchgehend
 62
     7
370
    15
100
AcDbPolyline
 90
       11
 70
   128
 43
0.0
 10
185.4592801444
 20
81.1609918539
 10
185.2654482842
 20
81.1940003988
 10
184.7073323446
 20
81.2787940152
 10
183.8382084216
 20
81.3801836937
 10
182.7487743139
 20
81.4538027838
 10
181.579324997
 20
81.4659578119
 10
180.4656278148
 20
81.4130553216
 10
179.5125880725
 20
81.3182021787
 10
178.8215178336
 20
81.2211936523
 10
178.4845261215
 20
81.1653944504
 10
178.5043399189
 20
81.1688111676
  0
ARC
  5
AD
330
1F
100
AcDbEntity
  8
0
  6
SLD-Durchgehend
 62
     7
370
    15
100
AcDbCircle
 10
181.9595036675
 20
140.9976250447
 30
0.0
 40
20.1430000678816
100
AcDbArc
 50
260.1231106897
 51
280.0057224773
  0
LINE
  5
AE
330
1F
100
AcDbEntity
  8
0
  6
SLD-Durchgehend
 62
     7
370
    15
100
AcDbLine
 10
187.9592801444
 20
101.1609918539
 30
0.0
 11
187.9592801444
 21
81.5609918539
 31
0.0
  0
LINE
  5
AF
330
1F
100
AcDbEntity
  8
0
  6
SLD-Durchgehend
 62
     7
370
    15
100
AcDbLine
 10
187.9592801444
 20
120.7609918539
 30
0.0
 11
187.9592801444
 21
101.1609918539
 31
0.0
  0
LINE
  5
B0
330
1F
100
AcDbEntity
  8
0
  6
SLD-Durchgehend
 62
     7
370
    15
100
AcDbLine
 10
142.9192801444
 20
83.7318684659
 30
0.0
 11
142.9192801444
 21
113.0109918539
 31
0.0
  0
LWPOLYLINE
  5
B1
330
1F
100
AcDbEntity
  8
0
  6
SLD-Durchgehend
 62
     7
370
    15
100
AcDbPolyline
 90
        3
 70
   128
 43
0.0
 10
142.9192801444
 20
83.7318684659
 10
142.8634317193
 20
83.6304606869
 10
141.9241204456
 20
81.9321073308
  0
LINE
  5
B2
330
1F
100
AcDbEntity
  8
0
  6
SLD-Durchgehend
 62
     7
370
    15
100
AcDbLine
 10
141.9241204456
 20
81.9321073308
 30
0.0
 11
141.9241204456
 21
113.0109918539
 31
0.0
  0
LINE
  5
B3
330
1F
100
AcDbEntity
  8
0
  6
SLD-Durchgehend
 62
     7
370
    15
100
AcDbLine
 10
141.9241204456
 20
113.0109918539
 30
0.0
 11
142.9192801444
 21
113.0109918539
 31
0.0
  0
LINE
  5
B4
330
1F
100
AcDbEntity
  8
0
  6
SLD-Durchgehend
 62
     7
370
    15
100
AcDbLine
 10
145.9944398433
 20
81.9321073308
 30
0.0
 11
145.9944398433
 21
113.0109918539
 31
0.0
  0
LWPOLYLINE
  5
B5
330
1F
100
AcDbEntity
  8
0
  6
SLD-Durchgehend
 62
     7
370
    15
100
AcDbPolyline
 90
        3
 70
   128
 43
0.0
 10
145.9944398433
 20
81.9321073308
 10
145.0551285696
 20
83.6304606869
 10
144.9992801444
 20
83.7318684659
  0
LINE
  5
B6
330
1F
100
AcDbEntity
  8
0
  6
SLD-Durchgehend
 62
     7
370
    15
100
AcDbLine
 10
144.9992801444
 20
83.7318684659
 30
0.0
 11
144.9992801444
 21
113.0109918539
 31
0.0
  0
LINE
  5
B7
330
1F
100
AcDbEntity
  8
0
  6
SLD-Durchgehend
 62
     7
370
    15
100
AcDbLine
 10
144.9992801444
 20
113.0109918539
 30
0.0
 11
145.9944398433
 21
113.0109918539
 31
0.0
  0
LINE
  5
B8
330
1F
100
AcDbEntity
  8
0
  6
SLD-Durchgehend
 62
     7
370
    15
100
AcDbLine
 10
147.9092801444
 20
82.5569600328
 30
0.0
 11
147.9092801444
 21
113.0109918539
 31
0.0
  0
ARC
  5
B9
330
1F
100
AcDbEntity
  8
0
  6
SLD-Durchgehend
 62
     7
370
    15
100
AcDbCircle
 10
147.2980268619
 20
82.5434072707
 30
0.0
 40
0.6114035106261387
100
AcDbArc
 50
271.0546259471
 51
1.270159006
  0
LINE
  5
BA
330
1F
100
AcDbEntity
  8
0
  6
SLD-Durchgehend
 62
     7
370
    15
100
AcDbLine
 10
147.3092801444
 20
113.0109918539
 30
0.0
 11
147.9092801444
 21
113.0109918539
 31
0.0
  0
LINE
  5
BB
330
1F
100
AcDbEntity
  8
0
  6
SLD-Durchgehend
 62
     7
370
    15
100
AcDbLine
 10
135.9092801444
 20
113.0109918539
 30
0.0
 11
141.9241204456
 21
113.0109918539
 31
0.0
  0
LINE
  5
BC
330
1F
100
AcDbEntity
  8
0
  6
SLD-Durchgehend
 62
     7
370
    15
100
AcDbLine
 10
141.9241204456
 20
81.9321073308
 30
0.0
 11
140.4092801444
 21
81.9321073308
 31
0.0
  0
ARC
  5
BD
330
1F
100
AcDbEntity
  8
0
  6
SLD-Durchgehend
 62
     7
370
    15
100
AcDbCircle
 10
139.8749384118
 20
71.2112971448
 30
0.0
 40
10.73411813479753
100
AcDbArc
 50
87.1466510647
 51
111.6813470808
  0
LINE
  5
BE
330
1F
100
AcDbEntity
  8
0
  6
SLD-Durchgehend
 62
     7
370
    15
100
AcDbLine
 10
135.9092801444
 20
81.1860074984
 30
0.0
 11
135.9092801444
 21
81.1609918539
 31
0.0
  0
LWPOLYLINE
  5
BF
330
1F
100
AcDbEntity
  8
0
  6
SLD-Durchgehend
 62
     7
370
    15
100
AcDbPolyline
 90
       11
 70
   128
 43
0.0
 10
140.4092801444
 20
120.6481671238
 10
139.6752742679
 20
120.6619857933
 10
138.9412683913
 20
120.703383174
 10
138.2693511931
 20
120.7653101516
 10
137.6391228
 20
120.8440752432
 10
137.0929876657
 20
120.9283335013
 10
136.6257244111
 20
121.0120697588
 10
136.2725765126
 20
121.082395342
 10
136.0295469298
 20
121.1342755857
 10
135.9192029852
 20
121.1587615519
 10
135.9248073533
 20
121.1575051212
  0
LINE
  5
C0
330
1F
100
AcDbEntity
  8
0
  6
SLD-Durchgehend
 62
     7
370
    15
100
AcDbLine
 10
141.9241204456
 20
120.6481671238
 30
0.0
 11
140.4092801444
 21
120.6481671238
 31
0.0
  0
LINE
  5
C1
330
1F
100
AcDbEntity
  8
0
  6
SLD-Durchgehend
 62
     7
370
    15
100
AcDbLine
 10
141.9241204456
 20
117.272400855
 30
0.0
 11
141.9241204456
 21
120.6481671238
 31
0.0
  0
LINE
  5
C2
330
1F
100
AcDbEntity
  8
0
  6
SLD-Durchgehend
 62
     7
370
    15
100
AcDbLine
 10
140.4029506191
 20
117.272400855
 30
0.0
 11
141.9241204456
 21
117.272400855
 31
0.0
  0
ARC
  5
C3
330
1F
100
AcDbEntity
  8
0
  6
SLD-Durchgehend
 62
     7
370
    15
100
AcDbCircle
 10
140.0790365169
 20
113.1139693918
 30
0.0
 40
4.171027760547963
100
AcDbArc
 50
85.5460339811
 51
181.4147059684
  0
LINE
  5
C4
330
1F
100
AcDbEntity
  8
0
  6
SLD-Durchgehend
 62
     7
370
    15
100
AcDbLine
 10
147.3092801444
 20
81.9321073308
 30
0.0
 11
145.9944398433
 21
81.9321073308
 31
0.0
  0
LINE
  5
C5
330
1F
100
AcDbEntity
  8
0
  6
SLD-Durchgehend
 62
     7
370
    15
100
AcDbLine
 10
145.9944398433
 20
113.0109918539
 30
0.0
 11
147.3092801444
 21
113.0109918539
 31
0.0
  0
LINE
  5
C6
330
1F
100
AcDbEntity
  8
0
  6
SLD-Durchgehend
 62
     7
370
    15
100
AcDbLine
 10
127.9592801444
 20
81.4609918539
 30
0.0
 11
127.9592801444
 21
120.8609918536
 31
0.0
  0
LINE
  5
C7
330
1F
100
AcDbEntity
  8
0
  6
SLD-Durchgehend
 62
     7
370
    15
100
AcDbLine
 10
144.9640577439
 20
84.2609918539
 30
0.0
 11
144.3992801444
 21
84.2609918539
 31
0.0
  0
LINE
  5
C8
330
1F
100
AcDbEntity
  8
0
  6
SLD-Durchgehend
 62
     7
370
    15
100
AcDbLine
 10
144.3992801444
 20
113.0109918539
 30
0.0
 11
144.9992801444
 21
113.0109918539
 31
0.0
  0
LINE
  5
C9
330
1F
100
AcDbEntity
  8
0
  6
SLD-Durchgehend
 62
     7
370
    15
100
AcDbLine
 10
143.5192801444
 20
84.2609918539
 30
0.0
 11
142.954502545
 21
84.2609918539
 31
0.0
  0
LINE
  5
CA
330
1F
100
AcDbEntity
  8
0
  6
SLD-Durchgehend
 62
     7
370
    15
100
AcDbLine
 10
142.9192801444
 20
113.0109918539
 30
0.0
 11
143.5192801444
 21
113.0109918539
 31
0.0
  0
LINE
  5
CB
330
1F
100
AcDbEntity
  8
0
  6
SLD-Durchgehend
 62
     7
370
    15
100
AcDbLine
 10
147.9093422676
 20
118.0609918539
 30
0.0
 11
148.1092801444
 21
118.0609918539
 31
0.0
  0
LINE
  5
CC
330
1F
100
AcDbEntity
  8
0
  6
SLD-Durchgehend
 62
     7
370
    15
100
AcDbLine
 10
148.0241797272
 20
84.2609918539
 30
0.0
 11
148.1092801444
 21
84.2609918539
 31
0.0
  0
LINE
  5
CD
330
1F
100
AcDbEntity
  8
0
  6
SLD-Durchgehend
 62
     7
370
    15
100
AcDbLine
 10
147.9092801444
 20
113.0109918539
 30
0.0
 11
148.2384038561
 21
113.0109918539
 31
0.0
  0
ARC
  5
CE
330
1F
100
AcDbEntity
  8
0
  6
SLD-Durchgehend
 62
     7
370
    15
100
AcDbCircle
 10
149.6169634389
 20
114.0190250323
 30
0.0
 40
1.707793140910325
100
AcDbArc
 50
179.350146723
 51
216.1750949747
  0
LINE
  5
CF
330
1F
100
AcDbEntity
  8
0
  6
SLD-Durchgehend
 62
     7
370
    15
100
AcDbLine
 10
144.3992801444
 20
84.2609918539
 30
0.0
 11
143.5192801444
 21
84.2609918539
 31
0.0
  0
LINE
  5
D0
330
1F
100
AcDbEntity
  8
0
  6
SLD-Durchgehend
 62
     7
370
    15
100
AcDbLine
 10
143.5192801444
 20
113.0109918539
 30
0.0
 11
144.3992801444
 21
113.0109918539
 31
0.0
  0
LINE
  5
D1
330
1F
100
AcDbEntity
  8
0
  6
SLD-Durchgehend
 62
     7
370
    15
100
AcDbLine
 10
125.9592801444
 20
86.0572914531
 30
0.0
 11
125.9592801444
 21
116.2646922547
 31
0.0
  0
LINE
  5
D2
330
1F
100
AcDbEntity
  8
0
  6
SLD-Durchgehend
 62
     7
370
    15
100
AcDbLine
 10
114.1592801444
 20
86.6484738178
 30
0.0
 11
114.1592801444
 21
87.5242451558
 31
0.0
  0
ARC
  5
D3
330
1F
100
AcDbEntity
  8
0
  6
SLD-Durchgehend
 62
     7
370
    15
100
AcDbCircle
 10
101.4553483671
 20
81.359512855
 30
0.0
 40
14.12068719798445
100
AcDbArc
 50
25.8855257158
 51
29.1172453299
  0
LWPOLYLINE
  5
D4
330
1F
100
AcDbEntity
  8
0
  6
SLD-Durchgehend
 62
     7
370
    15
100
AcDbPolyline
 90
        7
 70
   128
 43
0.0
 10
113.2592801444
 20
88.7206218064
 10
113.3164261043
 20
88.7209008521
 10
113.3723392233
 20
88.7114457594
 10
113.4413719123
 20
88.6860626231
 10
113.5352430323
 20
88.625118681
 10
113.7051095929
 20
88.4153193616
 10
113.7915450516
 20
88.230615991
  0
ARC
  5
D5
330
1F
100
AcDbEntity
  8
0
  6
SLD-Durchgehend
 62
     7
370
    15
100
AcDbCircle
 10
119.2918773252
 20
21.4751475706
 30
0.0
 40
67.51552439206193
100
AcDbArc
 50
95.1262866689
 51
97.6206003941
  0
LWPOLYLINE
  5
D6
330
1F
100
AcDbEntity
  8
0
  6
SLD-Durchgehend
 62
     7
370
    15
100
AcDbPolyline
 90
        3
 70
   128
 43
0.0
 10
109.0682801444
 20
88.3099249763
 10
109.7085663036
 20
88.3381207638
 10
110.3384567527
 20
88.3943697268
  0
LINE
  5
D7
330
1F
100
AcDbEntity
  8
0
  6
SLD-Durchgehend
 62
     7
370
    15
100
AcDbLine
 10
109.0007639949
 20
88.4578141543
 30
0.0
 11
109.0682801444
 21
88.3099249763
 31
0.0
  0
ELLIPSE
  5
D8
330
1F
100
AcDbEntity
  8
0
  6
SLD-Durchgehend
 62
     7
370
    15
100
AcDbEllipse
 10
95.5325379366
 20
100.5216941761
 30
0.0
 11
13.37355272666623
 21
-13.37146352987013
 31
0.0
210
0.0
220
0.0
230
1.0
 40
0.1761188775
 41
0.3023035477142501
 42
0.3822730435340377
  0
ELLIPSE
  5
D9
330
1F
100
AcDbEntity
  8
0
  6
SLD-Durchgehend
 62
     7
370
    15
100
AcDbEllipse
 10
95.4531595059
 20
101.8001023052
 30
0.0
 11
13.36963611134304
 21
13.36754752639483
 31
0.0
210
0.0
220
0.0
230
1.0
 40
0.1761188775
 41
5.933076931846598
 42
5.976720052691197
  0
LINE
  5
DA
330
1F
100
AcDbEntity
  8
0
  6
SLD-Durchgehend
 62
     7
370
    15
100
AcDbLine
 10
109.0092801444
 20
114.0265724009
 30
0.0
 11
108.9101128615
 21
113.8344272169
 31
0.0
  0
LWPOLYLINE
  5
DB
330
1F
100
AcDbEntity
  8
0
  6
SLD-Durchgehend
 62
     7
370
    15
100
AcDbPolyline
 90
        3
 70
   128
 43
0.0
 10
110.7592801444
 20
113.9417857125
 10
109.8956456151
 20
114.000414105
 10
109.0092801444
 20
114.0265724009
  0
ARC
  5
DC
330
1F
100
AcDbEntity
  8
0
  6
SLD-Durchgehend
 62
     7
370
    15
100
AcDbCircle
 10
110.6043139701
 20
115.0311272097
 30
0.0
 40
1.10030878055192
100
AcDbArc
 50
278.0963872001
 51
343.4942075172
  0
LINE
  5
DD
330
1F
100
AcDbEntity
  8
0
  6
SLD-Durchgehend
 62
     7
370
    15
100
AcDbLine
 10
111.6592801444
 20
114.7185159756
 30
0.0
 11
111.6592801444
 21
115.5482593889
 31
0.0
  0
LWPOLYLINE
  5
DE
330
1F
100
AcDbEntity
  8
0
  6
SLD-Durchgehend
 62
     7
370
    15
100
AcDbPolyline
 90
       18
 70
   128
 43
0.0
 10
119.1438234654
 20
86.3990249678
 10
119.1424244986
 20
86.3988247156
 10
119.1977242581
 20
86.4073214527
 10
119.358753
 20
86.430182814
 10
119.6225228883
 20
86.4634434927
 10
119.9730486747
 20
86.50067651
 10
120.3959238332
 20
86.5334872071
 10
120.8776501758
 20
86.5546124196
 10
121.4074398669
 20
86.5579268842
 10
121.9559669183
 20
86.5404383806
 10
122.4974971283
 20
86.5013023446
 10
123.0148060014
 20
86.4437029904
 10
123.49782656
 20
86.3724463467
 10
123.9205376588
 20
86.2972748963
 10
124.2637512598
 20
86.2270291253
 10
124.5177633899
 20
86.1696058289
 10
124.6739988023
 20
86.1318072149
 10
124.725558238
 20
86.1193940153
  0
LWPOLYLINE
  5
DF
330
1F
100
AcDbEntity
  8
0
  6
SLD-Durchgehend
 62
     7
370
    15
100
AcDbPolyline
 90
       18
 70
   128
 43
0.0
 10
124.7245594531
 20
116.2025913535
 10
124.673888394
 20
116.1898751841
 10
124.5189741746
 20
116.1524372127
 10
124.2609924616
 20
116.0943346945
 10
123.9186775198
 20
116.0241437146
 10
123.4968837671
 20
115.9491049766
 10
123.0157150379
 20
115.8782218222
 10
122.4983418027
 20
115.8207310517
 10
121.9569019064
 20
115.7816491581
 10
121.4076534831
 20
115.7641294589
 10
120.8773772969
 20
115.7674124277
 10
120.3945740071
 20
115.7885545892
 10
119.9719481926
 20
115.8213666204
 10
119.6211096641
 20
115.8587071298
 10
119.358260653
 20
115.8918995678
 10
119.1971829434
 20
115.9147195954
 10
119.142444598
 20
115.9231639605
 10
119.143357049
 20
115.9230205314
  0
LWPOLYLINE
  5
E0
330
1F
100
AcDbEntity
  8
0
  6
SLD-Durchgehend
 62
     7
370
    15
100
AcDbPolyline
 90
       13
 70
   128
 43
0.0
 10
108.8192501908
 20
113.5490724335
 10
108.6545270156
 20
113.1515046974
 10
108.5720421981
 20
112.9925223121
 10
108.4640778526
 20
112.8152690643
 10
108.41084148
 20
112.7403552739
 10
108.3463542109
 20
112.6615942197
 10
108.3075558399
 20
112.6214332893
 10
108.2681900313
 20
112.587359519
 10
108.2366722788
 20
112.565988313
 10
108.1971064962
 20
112.5488637898
 10
108.1471291544
 20
112.5505586496
 10
108.075800297
 20
112.6817220703
 10
108.0592801444
 20
112.9392233183
  0
LWPOLYLINE
  5
E1
330
1F
100
AcDbEntity
  8
0
  6
SLD-Durchgehend
 62
     7
370
    15
100
AcDbPolyline
 90
       11
 70
   128
 43
0.0
 10
108.0592801444
 20
89.6134786527
 10
108.084264391
 20
89.8654588497
 10
108.1428115892
 20
89.9448646207
 10
108.1946112019
 20
89.9454773577
 10
108.2283621964
 20
89.9311994462
 10
108.2721775894
 20
89.901569096
 10
108.3156643977
 20
89.8628641207
 10
108.3633923619
 20
89.8119745243
 10
108.4319244446
 20
89.7261975931
 10
108.5711326114
 20
89.512620686
 10
108.8192501908
 20
88.994006269
  0
LINE
  5
E2
330
1F
100
AcDbEntity
  8
0
  6
SLD-Durchgehend
 62
     7
370
    15
100
AcDbLine
 10
108.0592801444
 20
89.6134786527
 30
0.0
 11
108.0592801444
 21
112.9392233183
 31
0.0
  0
LINE
  5
E3
330
1F
100
AcDbEntity
  8
0
  6
SLD-Durchgehend
 62
     7
370
    15
100
AcDbLine
 10
147.3092801444
 20
120.6481671238
 30
0.0
 11
145.9944398433
 21
120.6481671238
 31
0.0
  0
LINE
  5
E4
330
1F
100
AcDbEntity
  8
0
  6
SLD-Durchgehend
 62
     7
370
    15
100
AcDbLine
 10
145.9944398433
 20
117.272400855
 30
0.0
 11
147.3092801444
 21
117.272400855
 31
0.0
  0
LINE
  5
E5
330
1F
100
AcDbEntity
  8
0
  6
SLD-Durchgehend
 62
     7
370
    15
100
AcDbLine
 10
145.9944398433
 20
117.272400855
 30
0.0
 11
145.9944398433
 21
120.6481671238
 31
0.0
  0
LWPOLYLINE
  5
E6
330
1F
100
AcDbEntity
  8
0
  6
SLD-Durchgehend
 62
     7
370
    15
100
AcDbPolyline
 90
        3
 70
   128
 43
0.0
 10
142.9192801444
 20
118.8746685494
 10
141.9902041088
 20
120.5306766903
 10
141.9241204456
 20
120.6481671238
  0
LINE
  5
E7
330
1F
100
AcDbEntity
  8
0
  6
SLD-Durchgehend
 62
     7
370
    15
100
AcDbLine
 10
141.9241204456
 20
117.272400855
 30
0.0
 11
142.9192801444
 21
115.0750797533
 31
0.0
  0
LINE
  5
E8
330
1F
100
AcDbEntity
  8
0
  6
SLD-Durchgehend
 62
     7
370
    15
100
AcDbLine
 10
142.9192801444
 20
115.0750797533
 30
0.0
 11
142.9192801444
 21
118.8746685494
 31
0.0
  0
ARC
  5
E9
330
1F
100
AcDbEntity
  8
0
  6
SLD-Durchgehend
 62
     7
370
    15
100
AcDbCircle
 10
147.3011803353
 20
120.0400660107
 30
0.0
 40
0.6081550547929049
100
AcDbArc
 50
359.2277054874
 51
89.2368745529
  0
ARC
  5
EA
330
1F
100
AcDbEntity
  8
0
  6
SLD-Durchgehend
 62
     7
370
    15
100
AcDbCircle
 10
147.21370531
 20
116.5808503368
 30
0.0
 40
0.6981236768060858
100
AcDbArc
 50
355.102491984
 51
82.1313568291
  0
LINE
  5
EB
330
1F
100
AcDbEntity
  8
0
  6
SLD-Durchgehend
 62
     7
370
    15
100
AcDbLine
 10
147.9092801444
 20
116.5212490132
 30
0.0
 11
147.9092801444
 21
120.031868887
 31
0.0
  0
LINE
  5
EC
330
1F
100
AcDbEntity
  8
0
  6
SLD-Durchgehend
 62
     7
370
    15
100
AcDbLine
 10
144.3992801444
 20
118.0609918539
 30
0.0
 11
143.5192801444
 21
118.0609918539
 31
0.0
  0
LINE
  5
ED
330
1F
100
AcDbEntity
  8
0
  6
SLD-Durchgehend
 62
     7
370
    15
100
AcDbLine
 10
143.5192801444
 20
113.868002714
 30
0.0
 11
144.3992801444
 21
113.868002714
 31
0.0
  0
LWPOLYLINE
  5
EE
330
1F
100
AcDbEntity
  8
0
  6
SLD-Durchgehend
 62
     7
370
    15
100
AcDbPolyline
 90
        6
 70
   128
 43
0.0
 10
142.9192801444
 20
114.6768390341
 10
142.9642946694
 20
114.3720839593
 10
143.0887417888
 20
114.11589113
 10
143.2358523532
 20
113.9651357004
 10
143.3860583044
 20
113.8884738965
 10
143.5192801444
 20
113.868002714
  0
ARC
  5
EF
330
1F
100
AcDbEntity
  8
0
  6
SLD-Durchgehend
 62
     7
370
    15
100
AcDbCircle
 10
144.2737333348
 20
114.5880942427
 30
0.0
 40
0.7309540416596886
100
AcDbArc
 50
279.8900172426
 51
6.9734579184
  0
LINE
  5
F0
330
1F
100
AcDbEntity
  8
0
  6
SLD-Durchgehend
 62
     7
370
    15
100
AcDbLine
 10
144.9992801444
 20
115.0750797533
 30
0.0
 11
145.9944398433
 21
117.272400855
 31
0.0
  0
LINE
  5
F1
330
1F
100
AcDbEntity
  8
0
  6
SLD-Durchgehend
 62
     7
370
    15
100
AcDbLine
 10
147.9092801444
 20
116.5212490132
 30
0.0
 11
147.9092801444
 21
114.0383945423
 31
0.0
  0
LINE
  5
F2
330
1F
100
AcDbEntity
  8
0
  6
SLD-Durchgehend
 62
     7
370
    15
100
AcDbLine
 10
142.9192801444
 20
115.0750797533
 30
0.0
 11
142.9192801444
 21
114.6768390341
 31
0.0
  0
LINE
  5
F3
330
1F
100
AcDbEntity
  8
0
  6
SLD-Durchgehend
 62
     7
370
    15
100
AcDbLine
 10
144.9992801444
 20
114.6768390341
 30
0.0
 11
144.9992801444
 21
115.0750797533
 31
0.0
  0
ARC
  5
F4
330
1F
100
AcDbEntity
  8
0
  6
SLD-Durchgehend
 62
     7
370
    15
100
AcDbCircle
 10
143.5459756373
 20
118.5605983643
 30
0.0
 40
0.6267026611852633
100
AcDbArc
 50
179.7259584955
 51
232.8634189286
  0
LINE
  5
F5
330
1F
100
AcDbEntity
  8
0
  6
SLD-Durchgehend
 62
     7
370
    15
100
AcDbLine
 10
143.5192801444
 20
118.0609918539
 30
0.0
 11
143.1676245302
 21
118.0609918539
 31
0.0
  0
LWPOLYLINE
  5
F6
330
1F
100
AcDbEntity
  8
0
  6
SLD-Durchgehend
 62
     7
370
    15
100
AcDbPolyline
 90
        3
 70
   128
 43
0.0
 10
145.9944398433
 20
120.6481671238
 10
145.9283561801
 20
120.5306766903
 10
144.9992801444
 20
118.8746685494
  0
LINE
  5
F7
330
1F
100
AcDbEntity
  8
0
  6
SLD-Durchgehend
 62
     7
370
    15
100
AcDbLine
 10
144.9992801444
 20
115.0750797533
 30
0.0
 11
144.9992801444
 21
118.8746685494
 31
0.0
  0
LINE
  5
F8
330
1F
100
AcDbEntity
  8
0
  6
SLD-Durchgehend
 62
     7
370
    15
100
AcDbLine
 10
144.7509357587
 20
118.0609918539
 30
0.0
 11
144.3992801444
 21
118.0609918539
 31
0.0
  0
ARC
  5
F9
330
1F
100
AcDbEntity
  8
0
  6
SLD-Durchgehend
 62
     7
370
    15
100
AcDbCircle
 10
144.3720890415
 20
118.560843253
 30
0.0
 40
0.627197143093504
100
AcDbArc
 50
307.1591684522
 51
0.2514541224
  0
LINE
  5
FA
330
1F
100
AcDbEntity
  8
0
  6
SLD-Durchgehend
 62
     7
370
    15
100
AcDbLine
 10
108.0592801444
 20
89.3425195812
 30
0.0
 11
108.0592801444
 21
89.6134786527
 31
0.0
  0
LINE
  5
FB
330
1F
100
AcDbEntity
  8
0
  6
SLD-Durchgehend
 62
     7
370
    15
100
AcDbLine
 10
108.0592801444
 20
113.0349059912
 30
0.0
 11
108.0592801444
 21
112.9392233183
 31
0.0
  0
LINE
  5
FC
330
1F
100
AcDbEntity
  8
0
  6
SLD-Durchgehend
 62
     7
370
    15
100
AcDbLine
 10
109.0092801444
 20
114.0409918539
 30
0.0
 11
109.0092801444
 21
114.0265724009
 31
0.0
  0
LINE
  5
FD
330
1F
100
AcDbEntity
  8
0
  6
SLD-Durchgehend
 62
     7
370
    15
100
AcDbLine
 10
108.0592801444
 20
113.0909918539
 30
0.0
 11
108.0592801444
 21
113.0349059912
 31
0.0
  0
LINE
  5
FE
330
1F
100
AcDbEntity
  8
0
  6
SLD-Durchgehend
 62
     7
370
    15
100
AcDbLine
 10
109.0682801444
 20
88.2809918539
 30
0.0
 11
109.0682801444
 21
88.3099249763
 31
0.0
  0
LINE
  5
FF
330
1F
100
AcDbEntity
  8
0
  6
SLD-Durchgehend
 62
     7
370
    15
100
AcDbLine
 10
108.0592801444
 20
89.2899918539
 30
0.0
 11
108.0592801444
 21
89.3425195812
 31
0.0
  0
LINE
  5
100
330
1F
100
AcDbEntity
  8
0
  6
SLD-Gestrichelt
 62
     7
370
     0
100
AcDbLine
 10
179.1332498876
 20
119.9870221107
 30
0.0
 11
184.7853104013
 21
119.9870221107
 31
0.0
  0
LINE
  5
101
330
1F
100
AcDbEntity
  8
0
  6
SLD-Gestrichelt
 62
     7
370
     0
100
AcDbLine
 10
183.8592801444
 20
121.0870221107
 30
0.0
 11
180.0592801444
 21
121.0870221107
 31
0.0
  0
LINE
  5
102
330
1F
100
AcDbEntity
  8
0
  6
SLD-Gestrichelt
 62
     7
370
     0
100
AcDbLine
 10
179.8592801444
 20
116.4870221107
 30
0.0
 11
184.0592801444
 21
116.4870221107
 31
0.0
  0
LINE
  5
103
330
1F
100
AcDbEntity
  8
0
  6
SLD-Gestrichelt
 62
     7
370
     0
100
AcDbLine
 10
179.4592801444
 20
116.8870221107
 30
0.0
 11
184.4592801444
 21
116.8870221107
 31
0.0
  0
LINE
  5
104
330
1F
100
AcDbEntity
  8
0
  6
SLD-Gestrichelt
 62
     7
370
     0
100
AcDbLine
 10
179.4592801444
 20
118.4983469761
 30
0.0
 11
184.4592801444
 21
118.4983469761
 31
0.0
  0
LINE
  5
105
330
1F
100
AcDbEntity
  8
0
  6
SLD-Gestrichelt
 62
     7
370
     0
100
AcDbLine
 10
179.5620619627
 20
119.9870221107
 30
0.0
 11
184.354935695
 21
119.9870221107
 31
0.0
  0
ARC
  5
106
330
1F
100
AcDbEntity
  8
0
  6
SLD-Gestrichelt
 62
     7
370
     0
100
AcDbCircle
 10
182.9575916574
 20
121.742905851
 30
0.0
 40
1.047135175336041
100
AcDbArc
 50
231.8827637171
 51
308.1172362829
  0
LWPOLYLINE
  5
107
330
1F
100
AcDbEntity
  8
0
  6
SLD-Gestrichelt
 62
     7
370
     0
100
AcDbPolyline
 90
        5
 70
   128
 43
0.0
 10
183.6039594895
 20
120.9190729183
 10
183.530608238
 20
120.7697605342
 10
183.4500929697
 20
120.6909619392
 10
183.3365235821
 20
120.7531054489
 10
183.2520158087
 20
120.9190729183
  0
ARC
  5
108
330
1F
100
AcDbEntity
  8
0
  6
SLD-Gestrichelt
 62
     7
370
     0
100
AcDbCircle
 10
182.4296761362
 20
122.337703505
 30
0.0
 40
1.63974244272657
100
AcDbArc
 50
239.9003541512
 51
300.0996458488
  0
ARC
  5
109
330
1F
100
AcDbEntity
  8
0
  6
SLD-Gestrichelt
 62
     7
370
     0
100
AcDbCircle
 10
180.9609686315
 20
121.742905851
 30
0.0
 40
1.04713517533599
100
AcDbArc
 50
231.8827637171
 51
308.1172362829
  0
LWPOLYLINE
  5
10A
330
1F
100
AcDbEntity
  8
0
  6
SLD-Gestrichelt
 62
     7
370
     0
100
AcDbPolyline
 90
        5
 70
   128
 43
0.0
 10
180.3146007994
 20
120.9190729183
 10
180.3879520508
 20
120.7697605342
 10
180.4684673192
 20
120.6909619392
 10
180.5820367068
 20
120.7531054489
 10
180.6665444802
 20
120.9190729183
  0
ARC
  5
10B
330
1F
100
AcDbEntity
  8
0
  6
SLD-Gestrichelt
 62
     7
370
     0
100
AcDbCircle
 10
181.4888841527
 20
122.337703505
 30
0.0
 40
1.639742442726408
100
AcDbArc
 50
239.9003541512
 51
300.0996458488
  0
LINE
  5
10C
330
1F
100
AcDbEntity
  8
0
  6
SLD-Gestrichelt
 62
     7
370
     0
100
AcDbLine
 10
180.4905726398
 20
117.5870221107
 30
0.0
 11
181.4888841527
 21
117.5870221107
 31
0.0
  0
LINE
  5
10D
330
1F
100
AcDbEntity
  8
0
  6
SLD-Gestrichelt
 62
     7
370
     0
100
AcDbLine
 10
180.9609686315
 20
117.5870221107
 30
0.0
 11
180.4617316165
 21
117.5870221107
 31
0.0
  0
LINE
  5
10E
330
1F
100
AcDbEntity
  8
0
  6
SLD-Gestrichelt
 62
     7
370
     0
100
AcDbLine
 10
182.4296761362
 20
117.5870221107
 30
0.0
 11
180.9609686315
 21
117.5870221107
 31
0.0
  0
LINE
  5
10F
330
1F
100
AcDbEntity
  8
0
  6
SLD-Gestrichelt
 62
     7
370
     0
100
AcDbLine
 10
183.4279876491
 20
117.5870221107
 30
0.0
 11
182.4296761362
 21
117.5870221107
 31
0.0
  0
LINE
  5
110
330
1F
100
AcDbEntity
  8
0
  6
SLD-Gestrichelt
 62
     7
370
     0
100
AcDbLine
 10
182.9575916574
 20
117.5870221107
 30
0.0
 11
183.4568286724
 21
117.5870221107
 31
0.0
  0
LINE
  5
111
330
1F
100
AcDbEntity
  8
0
  6
SLD-Gestrichelt
 62
     7
370
     0
100
AcDbLine
 10
181.4888841527
 20
117.5870221107
 30
0.0
 11
182.9575916574
 21
117.5870221107
 31
0.0
  0
LINE
  5
112
330
1F
100
AcDbEntity
  8
0
  6
SLD-Gestrichelt
 62
     7
370
     0
100
AcDbLine
 10
182.9575916574
 20
117.5870221107
 30
0.0
 11
182.3112238252
 21
117.5870221107
 31
0.0
  0
LINE
  5
113
330
1F
100
AcDbEntity
  8
0
  6
SLD-Gestrichelt
 62
     7
370
     0
100
AcDbLine
 10
182.3112238252
 20
117.5870221107
 30
0.0
 11
181.4888841527
 21
117.5870221107
 31
0.0
  0
LINE
  5
114
330
1F
100
AcDbEntity
  8
0
  6
SLD-Gestrichelt
 62
     7
370
     0
100
AcDbLine
 10
182.3112238252
 20
117.5870221107
 30
0.0
 11
182.3112238252
 21
120.9190729183
 31
0.0
  0
LINE
  5
115
330
1F
100
AcDbEntity
  8
0
  6
SLD-Gestrichelt
 62
     7
370
     0
100
AcDbLine
 10
181.4888841527
 20
117.5870221107
 30
0.0
 11
180.6665444802
 21
117.5870221107
 31
0.0
  0
LINE
  5
116
330
1F
100
AcDbEntity
  8
0
  6
SLD-Gestrichelt
 62
     7
370
     0
100
AcDbLine
 10
183.6039594895
 20
117.5870221107
 30
0.0
 11
182.9575916574
 21
117.5870221107
 31
0.0
  0
LINE
  5
117
330
1F
100
AcDbEntity
  8
0
  6
SLD-Gestrichelt
 62
     7
370
     0
100
AcDbLine
 10
180.6665444802
 20
117.5870221107
 30
0.0
 11
180.4905726398
 21
117.5870221107
 31
0.0
  0
LINE
  5
118
330
1F
100
AcDbEntity
  8
0
  6
SLD-Gestrichelt
 62
     7
370
     0
100
AcDbLine
 10
180.6665444802
 20
117.5870221107
 30
0.0
 11
180.6665444802
 21
120.9190729183
 31
0.0
  0
LINE
  5
119
330
1F
100
AcDbEntity
  8
0
  6
SLD-Gestrichelt
 62
     7
370
     0
100
AcDbLine
 10
183.2520158087
 20
117.5870221107
 30
0.0
 11
183.4279876491
 21
117.5870221107
 31
0.0
  0
LINE
  5
11A
330
1F
100
AcDbEntity
  8
0
  6
SLD-Gestrichelt
 62
     7
370
     0
100
AcDbLine
 10
183.2520158087
 20
117.5870221107
 30
0.0
 11
183.2520158087
 21
120.9190729183
 31
0.0
  0
LINE
  5
11B
330
1F
100
AcDbEntity
  8
0
  6
SLD-Gestrichelt
 62
     7
370
     0
100
AcDbLine
 10
183.4279876491
 20
117.5870221107
 30
0.0
 11
183.6039594895
 21
117.5870221107
 31
0.0
  0
LINE
  5
11C
330
1F
100
AcDbEntity
  8
0
  6
SLD-Gestrichelt
 62
     7
370
     0
100
AcDbLine
 10
183.6039594895
 20
117.5870221107
 30
0.0
 11
183.6039594895
 21
120.9190729183
 31
0.0
  0
LINE
  5
11D
330
1F
100
AcDbEntity
  8
0
  6
SLD-Gestrichelt
 62
     7
370
     0
100
AcDbLine
 10
180.4905726398
 20
117.5870221107
 30
0.0
 11
180.3146007994
 21
117.5870221107
 31
0.0
  0
LINE
  5
11E
330
1F
100
AcDbEntity
  8
0
  6
SLD-Gestrichelt
 62
     7
370
     0
100
AcDbLine
 10
181.6073364636
 20
117.5870221107
 30
0.0
 11
181.6073364636
 21
120.9190729183
 31
0.0
  0
LINE
  5
11F
330
1F
100
AcDbEntity
  8
0
  6
SLD-Gestrichelt
 62
     7
370
     0
100
AcDbLine
 10
180.9609686315
 20
117.5870221107
 30
0.0
 11
181.6073364636
 21
117.5870221107
 31
0.0
  0
LINE
  5
120
330
1F
100
AcDbEntity
  8
0
  6
SLD-Gestrichelt
 62
     7
370
     0
100
AcDbLine
 10
180.3146007994
 20
117.5870221107
 30
0.0
 11
180.9609686315
 21
117.5870221107
 31
0.0
  0
LINE
  5
121
330
1F
100
AcDbEntity
  8
0
  6
SLD-Gestrichelt
 62
     7
370
     0
100
AcDbLine
 10
180.3146007994
 20
117.5870221107
 30
0.0
 11
180.3146007994
 21
120.9190729183
 31
0.0
  0
LINE
  5
122
330
1F
100
AcDbEntity
  8
0
  6
SLD-Gestrichelt
 62
     7
370
     0
100
AcDbLine
 10
181.6073364636
 20
117.5870221107
 30
0.0
 11
182.4296761362
 21
117.5870221107
 31
0.0
  0
LINE
  5
123
330
1F
100
AcDbEntity
  8
0
  6
SLD-Gestrichelt
 62
     7
370
     0
100
AcDbLine
 10
182.4296761362
 20
117.5870221107
 30
0.0
 11
183.2520158087
 21
117.5870221107
 31
0.0
  0
LINE
  5
124
330
1F
100
AcDbEntity
  8
0
  6
SLD-Gestrichelt
 62
     7
370
     0
100
AcDbLine
 10
184.7853104013
 20
82.334961597
 30
0.0
 11
179.1332498876
 21
82.334961597
 31
0.0
  0
LINE
  5
125
330
1F
100
AcDbEntity
  8
0
  6
SLD-Gestrichelt
 62
     7
370
     0
100
AcDbLine
 10
180.0592801444
 20
81.234961597
 30
0.0
 11
183.8592801444
 21
81.234961597
 31
0.0
  0
LINE
  5
126
330
1F
100
AcDbEntity
  8
0
  6
SLD-Gestrichelt
 62
     7
370
     0
100
AcDbLine
 10
184.4592801444
 20
83.8236367316
 30
0.0
 11
179.4592801444
 21
83.8236367316
 31
0.0
  0
LINE
  5
127
330
1F
100
AcDbEntity
  8
0
  6
SLD-Gestrichelt
 62
     7
370
     0
100
AcDbLine
 10
184.0592801444
 20
85.834961597
 30
0.0
 11
179.8592801444
 21
85.834961597
 31
0.0
  0
LINE
  5
128
330
1F
100
AcDbEntity
  8
0
  6
SLD-Gestrichelt
 62
     7
370
     0
100
AcDbLine
 10
184.4592801444
 20
85.434961597
 30
0.0
 11
179.4592801444
 21
85.434961597
 31
0.0
  0
LINE
  5
129
330
1F
100
AcDbEntity
  8
0
  6
SLD-Gestrichelt
 62
     7
370
     0
100
AcDbLine
 10
184.3592570329
 20
82.334961597
 30
0.0
 11
179.5722332536
 21
82.334961597
 31
0.0
  0
ARC
  5
12A
330
1F
100
AcDbEntity
  8
0
  6
SLD-Gestrichelt
 62
     7
370
     0
100
AcDbCircle
 10
182.0879524217
 20
79.8640690806
 30
0.0
 40
1.764232114329121
100
AcDbArc
 50
60.720518499
 51
119.279481501
  0
ARC
  5
12B
330
1F
100
AcDbEntity
  8
0
  6
SLD-Gestrichelt
 62
     7
370
     0
100
AcDbCircle
 10
180.729366468
 20
80.9555703044
 30
0.0
 40
0.6677456794479228
100
AcDbArc
 50
42.0613875677
 51
137.9386124323
  0
LWPOLYLINE
  5
12C
330
1F
100
AcDbEntity
  8
0
  6
SLD-Gestrichelt
 62
     7
370
     0
100
AcDbPolyline
 90
        5
 70
   128
 43
0.0
 10
180.2336137244
 20
81.4029107895
 10
180.3641688854
 20
81.5345296832
 10
180.6194065147
 20
81.6343120974
 10
180.8855011211
 20
81.4913432244
 10
180.9677746571
 20
81.4029107895
  0
ARC
  5
12D
330
1F
100
AcDbEntity
  8
0
  6
SLD-Gestrichelt
 62
     7
370
     0
100
AcDbCircle
 10
181.8306078671
 20
79.8640690806
 30
0.0
 40
1.764232114329058
100
AcDbArc
 50
60.720518499
 51
119.279481501
  0
ARC
  5
12E
330
1F
100
AcDbEntity
  8
0
  6
SLD-Gestrichelt
 62
     7
370
     0
100
AcDbCircle
 10
183.1891938209
 20
80.9555703044
 30
0.0
 40
0.6677456794479439
100
AcDbArc
 50
42.0613875677
 51
137.9386124323
  0
LWPOLYLINE
  5
12F
330
1F
100
AcDbEntity
  8
0
  6
SLD-Gestrichelt
 62
     7
370
     0
100
AcDbPolyline
 90
        5
 70
   128
 43
0.0
 10
183.6849465645
 20
81.4029107895
 10
183.6026730285
 20
81.4913432244
 10
183.3365784221
 20
81.6343120974
 10
183.0813407929
 20
81.5345296832
 10
182.9507856318
 20
81.4029107895
  0
LINE
  5
130
330
1F
100
AcDbEntity
  8
0
  6
SLD-Gestrichelt
 62
     7
370
     0
100
AcDbLine
 10
183.1891938209
 20
84.734961597
 30
0.0
 11
183.4577607989
 21
84.734961597
 31
0.0
  0
LINE
  5
131
330
1F
100
AcDbEntity
  8
0
  6
SLD-Gestrichelt
 62
     7
370
     0
100
AcDbLine
 10
181.8306078671
 20
84.734961597
 30
0.0
 11
183.1891938209
 21
84.734961597
 31
0.0
  0
LINE
  5
132
330
1F
100
AcDbEntity
  8
0
  6
SLD-Gestrichelt
 62
     7
370
     0
100
AcDbLine
 10
180.6006941907
 20
84.734961597
 30
0.0
 11
181.8306078671
 21
84.734961597
 31
0.0
  0
LINE
  5
133
330
1F
100
AcDbEntity
  8
0
  6
SLD-Gestrichelt
 62
     7
370
     0
100
AcDbLine
 10
180.729366468
 20
84.734961597
 30
0.0
 11
180.46079949
 21
84.734961597
 31
0.0
  0
LINE
  5
134
330
1F
100
AcDbEntity
  8
0
  6
SLD-Gestrichelt
 62
     7
370
     0
100
AcDbLine
 10
182.0879524217
 20
84.734961597
 30
0.0
 11
180.729366468
 21
84.734961597
 31
0.0
  0
LINE
  5
135
330
1F
100
AcDbEntity
  8
0
  6
SLD-Gestrichelt
 62
     7
370
     0
100
AcDbLine
 10
183.3178660982
 20
84.734961597
 30
0.0
 11
182.0879524217
 21
84.734961597
 31
0.0
  0
LINE
  5
136
330
1F
100
AcDbEntity
  8
0
  6
SLD-Gestrichelt
 62
     7
370
     0
100
AcDbLine
 10
181.2251192117
 20
84.734961597
 30
0.0
 11
182.0879524217
 21
84.734961597
 31
0.0
  0
LINE
  5
137
330
1F
100
AcDbEntity
  8
0
  6
SLD-Gestrichelt
 62
     7
370
     0
100
AcDbLine
 10
182.0879524217
 20
84.734961597
 30
0.0
 11
182.9507856318
 21
84.734961597
 31
0.0
  0
LINE
  5
138
330
1F
100
AcDbEntity
  8
0
  6
SLD-Gestrichelt
 62
     7
370
     0
100
AcDbLine
 10
180.729366468
 20
84.734961597
 30
0.0
 11
181.2251192117
 21
84.734961597
 31
0.0
  0
LINE
  5
139
330
1F
100
AcDbEntity
  8
0
  6
SLD-Gestrichelt
 62
     7
370
     0
100
AcDbLine
 10
181.2251192117
 20
84.734961597
 30
0.0
 11
181.2251192117
 21
81.4029107895
 31
0.0
  0
LINE
  5
13A
330
1F
100
AcDbEntity
  8
0
  6
SLD-Gestrichelt
 62
     7
370
     0
100
AcDbLine
 10
182.9507856318
 20
84.734961597
 30
0.0
 11
183.3178660982
 21
84.734961597
 31
0.0
  0
LINE
  5
13B
330
1F
100
AcDbEntity
  8
0
  6
SLD-Gestrichelt
 62
     7
370
     0
100
AcDbLine
 10
182.9507856318
 20
84.734961597
 30
0.0
 11
182.9507856318
 21
81.4029107895
 31
0.0
  0
LINE
  5
13C
330
1F
100
AcDbEntity
  8
0
  6
SLD-Gestrichelt
 62
     7
370
     0
100
AcDbLine
 10
180.2336137244
 20
84.734961597
 30
0.0
 11
180.729366468
 21
84.734961597
 31
0.0
  0
LINE
  5
13D
330
1F
100
AcDbEntity
  8
0
  6
SLD-Gestrichelt
 62
     7
370
     0
100
AcDbLine
 10
183.3178660982
 20
84.734961597
 30
0.0
 11
183.6849465645
 21
84.734961597
 31
0.0
  0
LINE
  5
13E
330
1F
100
AcDbEntity
  8
0
  6
SLD-Gestrichelt
 62
     7
370
     0
100
AcDbLine
 10
180.9677746571
 20
84.734961597
 30
0.0
 11
180.6006941907
 21
84.734961597
 31
0.0
  0
LINE
  5
13F
330
1F
100
AcDbEntity
  8
0
  6
SLD-Gestrichelt
 62
     7
370
     0
100
AcDbLine
 10
180.9677746571
 20
84.734961597
 30
0.0
 11
180.9677746571
 21
81.4029107895
 31
0.0
  0
LINE
  5
140
330
1F
100
AcDbEntity
  8
0
  6
SLD-Gestrichelt
 62
     7
370
     0
100
AcDbLine
 10
180.6006941907
 20
84.734961597
 30
0.0
 11
180.2336137244
 21
84.734961597
 31
0.0
  0
LINE
  5
141
330
1F
100
AcDbEntity
  8
0
  6
SLD-Gestrichelt
 62
     7
370
     0
100
AcDbLine
 10
180.2336137244
 20
84.734961597
 30
0.0
 11
180.2336137244
 21
81.4029107895
 31
0.0
  0
LINE
  5
142
330
1F
100
AcDbEntity
  8
0
  6
SLD-Gestrichelt
 62
     7
370
     0
100
AcDbLine
 10
182.6934410772
 20
84.734961597
 30
0.0
 11
182.6934410772
 21
81.4029107895
 31
0.0
  0
LINE
  5
143
330
1F
100
AcDbEntity
  8
0
  6
SLD-Gestrichelt
 62
     7
370
     0
100
AcDbLine
 10
183.1891938209
 20
84.734961597
 30
0.0
 11
182.6934410772
 21
84.734961597
 31
0.0
  0
LINE
  5
144
330
1F
100
AcDbEntity
  8
0
  6
SLD-Gestrichelt
 62
     7
370
     0
100
AcDbLine
 10
183.6849465645
 20
84.734961597
 30
0.0
 11
183.1891938209
 21
84.734961597
 31
0.0
  0
LINE
  5
145
330
1F
100
AcDbEntity
  8
0
  6
SLD-Gestrichelt
 62
     7
370
     0
100
AcDbLine
 10
183.6849465645
 20
84.734961597
 30
0.0
 11
183.6849465645
 21
81.4029107895
 31
0.0
  0
LINE
  5
146
330
1F
100
AcDbEntity
  8
0
  6
SLD-Gestrichelt
 62
     7
370
     0
100
AcDbLine
 10
182.6934410772
 20
84.734961597
 30
0.0
 11
181.8306078671
 21
84.734961597
 31
0.0
  0
LINE
  5
147
330
1F
100
AcDbEntity
  8
0
  6
SLD-Gestrichelt
 62
     7
370
     0
100
AcDbLine
 10
181.8306078671
 20
84.734961597
 30
0.0
 11
180.9677746571
 21
84.734961597
 31
0.0
  0
LINE
  5
148
330
1F
100
AcDbEntity
  8
0
  6
SLD-Gestrichelt
 62
     7
370
     0
100
AcDbLine
 10
166.6092801444
 20
108.0609918539
 30
0.0
 11
166.6092801444
 21
111.0609918539
 31
0.0
  0
LINE
  5
149
330
1F
100
AcDbEntity
  8
0
  6
SLD-Gestrichelt
 62
     7
370
     0
100
AcDbLine
 10
166.8592801444
 20
108.1544900066
 30
0.0
 11
166.6092801444
 21
108.0804635935
 31
0.0
  0
LINE
  5
14A
330
1F
100
AcDbEntity
  8
0
  6
SLD-Gestrichelt
 62
     7
370
     0
100
AcDbLine
 10
166.8592801444
 20
108.1457601563
 30
0.0
 11
166.8592801444
 21
110.9849294845
 31
0.0
  0
LINE
  5
14B
330
1F
100
AcDbEntity
  8
0
  6
SLD-Gestrichelt
 62
     7
370
     0
100
AcDbLine
 10
166.8592801444
 20
108.2076081934
 30
0.0
 11
166.6092801444
 21
108.1363774744
 31
0.0
  0
LINE
  5
14C
330
1F
100
AcDbEntity
  8
0
  6
SLD-Gestrichelt
 62
     7
370
     0
100
AcDbLine
 10
153.1092801444
 20
108.0609918539
 30
0.0
 11
153.1092801444
 21
111.0609918539
 31
0.0
  0
LINE
  5
14D
330
1F
100
AcDbEntity
  8
0
  6
SLD-Gestrichelt
 62
     7
370
     0
100
AcDbLine
 10
166.6092801444
 20
108.0804635935
 30
0.0
 11
153.1092801444
 21
108.0804635935
 31
0.0
  0
LINE
  5
14E
330
1F
100
AcDbEntity
  8
0
  6
SLD-Gestrichelt
 62
     7
370
     0
100
AcDbLine
 10
166.6092801444
 20
108.1363774744
 30
0.0
 11
153.1092801444
 21
108.1363774744
 31
0.0
  0
LINE
  5
14F
330
1F
100
AcDbEntity
  8
0
  6
SLD-Gestrichelt
 62
     7
370
     0
100
AcDbLine
 10
152.8592801444
 20
108.1359918539
 30
0.0
 11
152.8592801444
 21
110.9859918539
 31
0.0
  0
LINE
  5
150
330
1F
100
AcDbEntity
  8
0
  6
SLD-Gestrichelt
 62
     7
370
     0
100
AcDbLine
 10
153.1092801444
 20
108.0804635935
 30
0.0
 11
152.8592801444
 21
108.1544900066
 31
0.0
  0
LINE
  5
151
330
1F
100
AcDbEntity
  8
0
  6
SLD-Gestrichelt
 62
     7
370
     0
100
AcDbLine
 10
153.1092801444
 20
108.1363774744
 30
0.0
 11
152.8592801444
 21
108.2076081934
 31
0.0
  0
LINE
  5
152
330
1F
100
AcDbEntity
  8
0
  6
SLD-Gestrichelt
 62
     7
370
     0
100
AcDbLine
 10
152.8592801444
 20
108.3765692456
 30
0.0
 11
166.8592801444
 21
108.3765692456
 31
0.0
  0
LINE
  5
153
330
1F
100
AcDbEntity
  8
0
  6
SLD-Gestrichelt
 62
     7
370
     0
100
AcDbLine
 10
152.8592801444
 20
108.4213003503
 30
0.0
 11
166.8592801444
 21
108.4213003503
 31
0.0
  0
LINE
  5
154
330
1F
100
AcDbEntity
  8
0
  6
SLD-Gestrichelt
 62
     7
370
     0
100
AcDbLine
 10
152.8592801444
 20
108.3735851482
 30
0.0
 11
152.8592801444
 21
110.7583424803
 31
0.0
  0
LINE
  5
155
330
1F
100
AcDbEntity
  8
0
  6
SLD-Gestrichelt
 62
     7
370
     0
100
AcDbLine
 10
166.8592801444
 20
108.3735851482
 30
0.0
 11
166.8592801444
 21
110.7583424803
 31
0.0
  0
LINE
  5
156
330
1F
100
AcDbEntity
  8
0
  6
SLD-Gestrichelt
 62
     7
370
     0
100
AcDbLine
 10
152.8592801444
 20
108.4213003503
 30
0.0
 11
152.8592801444
 21
108.2076081934
 31
0.0
  0
LINE
  5
157
330
1F
100
AcDbEntity
  8
0
  6
SLD-Gestrichelt
 62
     7
370
     0
100
AcDbLine
 10
166.8592801444
 20
108.4213003503
 30
0.0
 11
166.8592801444
 21
108.2076081934
 31
0.0
  0
LINE
  5
158
330
1F
100
AcDbEntity
  8
0
  6
SLD-Gestrichelt
 62
     7
370
     0
100
AcDbLine
 10
152.8592801444
 20
108.3765692456
 30
0.0
 11
152.8592801444
 21
108.1544900066
 31
0.0
  0
LINE
  5
159
330
1F
100
AcDbEntity
  8
0
  6
SLD-Gestrichelt
 62
     7
370
     0
100
AcDbLine
 10
166.8592801444
 20
108.3765692456
 30
0.0
 11
166.8592801444
 21
108.1544900066
 31
0.0
  0
LINE
  5
15A
330
1F
100
AcDbEntity
  8
0
  6
SLD-Gestrichelt
 62
     7
370
     0
100
AcDbLine
 10
196.5092801444
 20
97.1613777873
 30
0.0
 11
196.5092801444
 21
94.1613777873
 31
0.0
  0
LINE
  5
15B
330
1F
100
AcDbEntity
  8
0
  6
SLD-Gestrichelt
 62
     7
370
     0
100
AcDbLine
 10
186.5092801444
 20
97.1613777873
 30
0.0
 11
186.5092801444
 21
94.1613777873
 31
0.0
  0
LINE
  5
15C
330
1F
100
AcDbEntity
  8
0
  6
SLD-Gestrichelt
 62
     7
370
     0
100
AcDbLine
 10
186.0092801444
 20
94.6613777873
 30
0.0
 11
186.0092801444
 21
96.6613777873
 31
0.0
  0
LINE
  5
15D
330
1F
100
AcDbEntity
  8
0
  6
SLD-Gestrichelt
 62
     7
370
     0
100
AcDbLine
 10
197.0092801444
 20
96.520376631
 30
0.0
 11
197.0092801444
 21
96.6613777873
 31
0.0
  0
LINE
  5
15E
330
1F
100
AcDbEntity
  8
0
  6
SLD-Gestrichelt
 62
     7
370
     0
100
AcDbLine
 10
197.0092801444
 20
94.6613777873
 30
0.0
 11
197.0092801444
 21
96.520376631
 31
0.0
  0
LWPOLYLINE
  5
15F
330
1F
100
AcDbEntity
  8
0
  6
SLD-Gestrichelt
 62
     7
370
     0
100
AcDbPolyline
 90
       34
 70
   128
 43
0.0
 10
181.1092801444
 20
91.9471797852
 10
180.5415264114
 20
91.9465375517
 10
179.9942927775
 20
91.9446340631
 10
179.4873576921
 20
91.9415381165
 10
179.03904311
 20
91.9373616075
 10
178.6655522883
 20
91.9322554859
 10
178.3803841584
 20
91.9264043004
 10
178.1938454395
 20
91.9200195279
 10
178.1126781269
 20
91.9133319309
 10
178.1398158188
 20
91.9065832165
 10
178.2742776883
 20
91.9000173008
 10
178.5112039331
 20
91.8938714931
 10
178.8420314214
 20
91.8883679189
 10
179.2548031858
 20
91.8837054918
 10
179.7346005793
 20
91.880052724
 10
180.2640824739
 20
91.877541636
 10
180.8241120145
 20
91.8762629851
 10
181.3944482744
 20
91.8762629851
 10
181.954477815
 20
91.877541636
 10
182.4839597096
 20
91.880052724
 10
182.9637571031
 20
91.8837054918
 10
183.3765288675
 20
91.8883679189
 10
183.7073563558
 20
91.8938714931
 10
183.9442826006
 20
91.9000173008
 10
184.0787444701
 20
91.9065832165
 10
184.105882162
 20
91.9133319309
 10
184.0247148494
 20
91.9200195279
 10
183.8381761305
 20
91.9264043004
 10
183.5530080006
 20
91.9322554859
 10
183.1795171789
 20
91.9373616075
 10
182.7312025968
 20
91.9415381165
 10
182.2242675114
 20
91.9446340631
 10
181.6770338775
 20
91.9465375517
 10
181.1092801444
 20
91.9471797852
  0
LWPOLYLINE
  5
160
330
1F
100
AcDbEntity
  8
0
  6
SLD-Gestrichelt
 62
     7
370
     0
100
AcDbPolyline
 90
       29
 70
   128
 43
0.0
 10
181.1092801444
 20
91.1883476971
 10
180.608608043
 20
91.1876794221
 10
180.1330417314
 20
91.1857081069
 10
179.7064280903
 20
91.1825326016
 10
179.3501593089
 20
91.1783121393
 10
179.0821001917
 20
91.1732583516
 10
178.915692342
 20
91.1676246566
 10
178.8592801444
 20
91.1616935511
 10
178.915692342
 20
91.1557624456
 10
179.0821001917
 20
91.1501287505
 10
179.3501593089
 20
91.1450749628
 10
179.7064280903
 20
91.1408545006
 10
180.1330417314
 20
91.1376789953
 10
180.608608043
 20
91.1357076801
 10
181.1092801444
 20
91.135039405
 10
181.6099522458
 20
91.1357076801
 10
182.0855185575
 20
91.1376789953
 10
182.5121321986
 20
91.1408545006
 10
182.86840098
 20
91.1450749628
 10
183.1364600972
 20
91.1501287505
 10
183.3028679469
 20
91.1557624456
 10
183.3592801444
 20
91.1616935511
 10
183.3028679469
 20
91.1676246566
 10
183.1364600972
 20
91.1732583516
 10
182.86840098
 20
91.1783121393
 10
182.5121321986
 20
91.1825326016
 10
182.0855185575
 20
91.1857081069
 10
181.6099522458
 20
91.1876794221
 10
181.1092801444
 20
91.1883476971
  0
LWPOLYLINE
  5
161
330
1F
100
AcDbEntity
  8
0
  6
SLD-Gestrichelt
 62
     7
370
     0
100
AcDbPolyline
 90
       34
 70
   128
 43
0.0
 10
181.1092801444
 20
110.4458816454
 10
180.5415264114
 20
110.4452394118
 10
179.9942927775
 20
110.4433359233
 10
179.4873576921
 20
110.4402399767
 10
179.03904311
 20
110.4360634676
 10
178.6655522883
 20
110.4309573461
 10
178.3803841584
 20
110.4251061605
 10
178.1938454395
 20
110.4187213881
 10
178.1126781269
 20
110.4120337911
 10
178.1398158188
 20
110.4052850766
 10
178.2742776883
 20
110.3987191609
 10
178.5112039331
 20
110.3925733532
 10
178.8420314214
 20
110.3870697791
 10
179.2548031858
 20
110.382407352
 10
179.7346005793
 20
110.3787545841
 10
180.2640824739
 20
110.3762434961
 10
180.8241120145
 20
110.3749648453
 10
181.3944482744
 20
110.3749648453
 10
181.954477815
 20
110.3762434961
 10
182.4839597096
 20
110.3787545841
 10
182.9637571031
 20
110.382407352
 10
183.3765288675
 20
110.3870697791
 10
183.7073563558
 20
110.3925733532
 10
183.9442826006
 20
110.3987191609
 10
184.0787444701
 20
110.4052850766
 10
184.105882162
 20
110.4120337911
 10
184.0247148494
 20
110.4187213881
 10
183.8381761305
 20
110.4251061605
 10
183.5530080006
 20
110.4309573461
 10
183.1795171789
 20
110.4360634676
 10
182.7312025968
 20
110.4402399767
 10
182.2242675114
 20
110.4433359233
 10
181.6770338775
 20
110.4452394118
 10
181.1092801444
 20
110.4458816454
  0
LWPOLYLINE
  5
162
330
1F
100
AcDbEntity
  8
0
  6
SLD-Gestrichelt
 62
     7
370
     0
100
AcDbPolyline
 90
       31
 70
   128
 43
0.0
 10
181.6099522458
 20
111.1862760276
 10
181.1092801444
 20
111.1869443027
 10
180.608608043
 20
111.1862760276
 10
180.1330417314
 20
111.1843047125
 10
179.7064280903
 20
111.1811292072
 10
179.3501593089
 20
111.1769087449
 10
179.0821001917
 20
111.1718549572
 10
178.915692342
 20
111.1662212621
 10
178.8594380485
 20
111.1606059315
 10
178.8592801444
 20
111.1602901567
 10
178.915692342
 20
111.1543590512
 10
179.0821001917
 20
111.1487253561
 10
179.3501593089
 20
111.1436715684
 10
179.7064280903
 20
111.1394511061
 10
180.1330417314
 20
111.1362756009
 10
180.608608043
 20
111.1343042857
 10
181.1092801444
 20
111.1336360106
 10
181.6099522458
 20
111.1343042857
 10
182.0855185575
 20
111.1362756009
 10
182.5121321986
 20
111.1394511061
 10
182.86840098
 20
111.1436715684
 10
183.1364600972
 20
111.1487253561
 10
183.3028679469
 20
111.1543590512
 10
183.3592801444
 20
111.1602901567
 10
183.3591222404
 20
111.1606059315
 10
183.3028679469
 20
111.1662212621
 10
183.1364600972
 20
111.1718549572
 10
182.86840098
 20
111.1769087449
 10
182.5121321986
 20
111.1811292072
 10
182.0855185575
 20
111.1843047125
 10
181.6099522458
 20
111.1862760276
  0
LINE
  5
163
330
1F
100
AcDbEntity
  8
0
  6
SLD-Gestrichelt
 62
     7
370
     0
100
AcDbLine
 10
180.2432547407
 20
91.1439241204
 30
0.0
 11
181.9753055482
 21
91.1439241204
 31
0.0
  0
LINE
  5
164
330
1F
100
AcDbEntity
  8
0
  6
SLD-Gestrichelt
 62
     7
370
     0
100
AcDbLine
 10
181.9753055482
 20
91.1439241204
 30
0.0
 11
182.841330952
 21
91.1616935511
 31
0.0
  0
LINE
  5
165
330
1F
100
AcDbEntity
  8
0
  6
SLD-Gestrichelt
 62
     7
370
     0
100
AcDbLine
 10
182.841330952
 20
91.1616935511
 30
0.0
 11
181.9753055482
 21
91.1794629818
 31
0.0
  0
LINE
  5
166
330
1F
100
AcDbEntity
  8
0
  6
SLD-Gestrichelt
 62
     7
370
     0
100
AcDbLine
 10
181.9753055482
 20
91.1794629818
 30
0.0
 11
180.2432547407
 21
91.1794629818
 31
0.0
  0
LINE
  5
167
330
1F
100
AcDbEntity
  8
0
  6
SLD-Gestrichelt
 62
     7
370
     0
100
AcDbLine
 10
180.2432547407
 20
91.1794629818
 30
0.0
 11
179.3772293369
 21
91.1616935511
 31
0.0
  0
LINE
  5
168
330
1F
100
AcDbEntity
  8
0
  6
SLD-Gestrichelt
 62
     7
370
     0
100
AcDbLine
 10
179.3772293369
 20
91.1616935511
 30
0.0
 11
180.2432547407
 21
91.1439241204
 31
0.0
  0
LINE
  5
169
330
1F
100
AcDbEntity
  8
0
  6
SLD-Gestrichelt
 62
     7
370
     0
100
AcDbLine
 10
181.9753055482
 20
95.679147218
 30
0.0
 11
181.9753055482
 21
91.1794629818
 31
0.0
  0
LINE
  5
16A
330
1F
100
AcDbEntity
  8
0
  6
SLD-Gestrichelt
 62
     7
370
     0
100
AcDbLine
 10
180.2432547407
 20
95.679147218
 30
0.0
 11
180.2432547407
 21
91.1794629818
 31
0.0
  0
LINE
  5
16B
330
1F
100
AcDbEntity
  8
0
  6
SLD-Gestrichelt
 62
     7
370
     0
100
AcDbLine
 10
181.9753055482
 20
95.6436083566
 30
0.0
 11
182.841330952
 21
95.6613777873
 31
0.0
  0
LINE
  5
16C
330
1F
100
AcDbEntity
  8
0
  6
SLD-Gestrichelt
 62
     7
370
     0
100
AcDbLine
 10
180.2432547407
 20
95.6436083566
 30
0.0
 11
181.9753055482
 21
95.6436083566
 31
0.0
  0
LINE
  5
16D
330
1F
100
AcDbEntity
  8
0
  6
SLD-Gestrichelt
 62
     7
370
     0
100
AcDbLine
 10
179.3772293369
 20
95.6613777873
 30
0.0
 11
180.2432547407
 21
95.6436083566
 31
0.0
  0
LINE
  5
16E
330
1F
100
AcDbEntity
  8
0
  6
SLD-Gestrichelt
 62
     7
370
     0
100
AcDbLine
 10
180.2432547407
 20
95.679147218
 30
0.0
 11
179.3772293369
 21
95.6613777873
 31
0.0
  0
LINE
  5
16F
330
1F
100
AcDbEntity
  8
0
  6
SLD-Gestrichelt
 62
     7
370
     0
100
AcDbLine
 10
181.9753055482
 20
95.679147218
 30
0.0
 11
180.2432547407
 21
95.679147218
 31
0.0
  0
LINE
  5
170
330
1F
100
AcDbEntity
  8
0
  6
SLD-Gestrichelt
 62
     7
370
     0
100
AcDbLine
 10
182.841330952
 20
95.6613777873
 30
0.0
 11
181.9753055482
 21
95.679147218
 31
0.0
  0
LINE
  5
171
330
1F
100
AcDbEntity
  8
0
  6
SLD-Gestrichelt
 62
     7
370
     0
100
AcDbLine
 10
180.2432547407
 20
111.1780595874
 30
0.0
 11
179.3772293369
 21
111.1602901567
 31
0.0
  0
LINE
  5
172
330
1F
100
AcDbEntity
  8
0
  6
SLD-Gestrichelt
 62
     7
370
     0
100
AcDbLine
 10
180.2432547407
 20
106.6783753511
 30
0.0
 11
179.3772293369
 21
106.6606059204
 31
0.0
  0
LINE
  5
173
330
1F
100
AcDbEntity
  8
0
  6
SLD-Gestrichelt
 62
     7
370
     0
100
AcDbLine
 10
181.9753055482
 20
106.6783753511
 30
0.0
 11
180.2432547407
 21
106.6783753511
 31
0.0
  0
LINE
  5
174
330
1F
100
AcDbEntity
  8
0
  6
SLD-Gestrichelt
 62
     7
370
     0
100
AcDbLine
 10
180.2432547407
 20
106.6783753511
 30
0.0
 11
180.2432547407
 21
111.1780595874
 31
0.0
  0
LINE
  5
175
330
1F
100
AcDbEntity
  8
0
  6
SLD-Gestrichelt
 62
     7
370
     0
100
AcDbLine
 10
181.9753055482
 20
111.1780595874
 30
0.0
 11
180.2432547407
 21
111.1780595874
 31
0.0
  0
LINE
  5
176
330
1F
100
AcDbEntity
  8
0
  6
SLD-Gestrichelt
 62
     7
370
     0
100
AcDbLine
 10
181.9753055482
 20
106.6783753511
 30
0.0
 11
181.9753055482
 21
111.1780595874
 31
0.0
  0
LINE
  5
177
330
1F
100
AcDbEntity
  8
0
  6
SLD-Gestrichelt
 62
     7
370
     0
100
AcDbLine
 10
182.841330952
 20
106.6606059204
 30
0.0
 11
181.9753055482
 21
106.6783753511
 31
0.0
  0
LINE
  5
178
330
1F
100
AcDbEntity
  8
0
  6
SLD-Gestrichelt
 62
     7
370
     0
100
AcDbLine
 10
182.841330952
 20
111.1602901567
 30
0.0
 11
181.9753055482
 21
111.1780595874
 31
0.0
  0
LINE
  5
179
330
1F
100
AcDbEntity
  8
0
  6
SLD-Gestrichelt
 62
     7
370
     0
100
AcDbLine
 10
180.2432547407
 20
95.6436083566
 30
0.0
 11
180.2432547407
 21
91.1439241204
 31
0.0
  0
LINE
  5
17A
330
1F
100
AcDbEntity
  8
0
  6
SLD-Gestrichelt
 62
     7
370
     0
100
AcDbLine
 10
179.3772293369
 20
95.6613777873
 30
0.0
 11
179.3772293369
 21
91.1616935511
 31
0.0
  0
LINE
  5
17B
330
1F
100
AcDbEntity
  8
0
  6
SLD-Gestrichelt
 62
     7
370
     0
100
AcDbLine
 10
181.9753055482
 20
95.6436083566
 30
0.0
 11
181.9753055482
 21
91.1439241204
 31
0.0
  0
LINE
  5
17C
330
1F
100
AcDbEntity
  8
0
  6
SLD-Gestrichelt
 62
     7
370
     0
100
AcDbLine
 10
182.841330952
 20
95.6613777873
 30
0.0
 11
182.841330952
 21
91.1616935511
 31
0.0
  0
LINE
  5
17D
330
1F
100
AcDbEntity
  8
0
  6
SLD-Gestrichelt
 62
     7
370
     0
100
AcDbLine
 10
180.2432547407
 20
106.6428364897
 30
0.0
 11
180.2432547407
 21
111.142520726
 31
0.0
  0
LINE
  5
17E
330
1F
100
AcDbEntity
  8
0
  6
SLD-Gestrichelt
 62
     7
370
     0
100
AcDbLine
 10
179.3772293369
 20
106.6606059204
 30
0.0
 11
180.2432547407
 21
106.6428364897
 31
0.0
  0
LINE
  5
17F
330
1F
100
AcDbEntity
  8
0
  6
SLD-Gestrichelt
 62
     7
370
     0
100
AcDbLine
 10
179.3772293369
 20
106.6606059204
 30
0.0
 11
179.3772293369
 21
111.1602901567
 31
0.0
  0
LINE
  5
180
330
1F
100
AcDbEntity
  8
0
  6
SLD-Gestrichelt
 62
     7
370
     0
100
AcDbLine
 10
179.3772293369
 20
111.1602901567
 30
0.0
 11
180.2432547407
 21
111.142520726
 31
0.0
  0
LINE
  5
181
330
1F
100
AcDbEntity
  8
0
  6
SLD-Gestrichelt
 62
     7
370
     0
100
AcDbLine
 10
181.9753055482
 20
106.6428364897
 30
0.0
 11
181.9753055482
 21
111.142520726
 31
0.0
  0
LINE
  5
182
330
1F
100
AcDbEntity
  8
0
  6
SLD-Gestrichelt
 62
     7
370
     0
100
AcDbLine
 10
182.841330952
 20
106.6606059204
 30
0.0
 11
182.841330952
 21
111.1602901567
 31
0.0
  0
LINE
  5
183
330
1F
100
AcDbEntity
  8
0
  6
SLD-Gestrichelt
 62
     7
370
     0
100
AcDbLine
 10
181.9753055482
 20
106.6428364897
 30
0.0
 11
182.841330952
 21
106.6606059204
 31
0.0
  0
LINE
  5
184
330
1F
100
AcDbEntity
  8
0
  6
SLD-Gestrichelt
 62
     7
370
     0
100
AcDbLine
 10
181.9753055482
 20
111.142520726
 30
0.0
 11
182.841330952
 21
111.1602901567
 31
0.0
  0
LINE
  5
185
330
1F
100
AcDbEntity
  8
0
  6
SLD-Gestrichelt
 62
     7
370
     0
100
AcDbLine
 10
180.2432547407
 20
106.6428364897
 30
0.0
 11
181.9753055482
 21
106.6428364897
 31
0.0
  0
LINE
  5
186
330
1F
100
AcDbEntity
  8
0
  6
SLD-Gestrichelt
 62
     7
370
     0
100
AcDbLine
 10
180.2432547407
 20
111.142520726
 30
0.0
 11
181.9753055482
 21
111.142520726
 31
0.0
  0
LINE
  5
187
330
1F
100
AcDbEntity
  8
0
  6
SLD-Gestrichelt
 62
     7
370
     0
100
AcDbLine
 10
187.1092801444
 20
104.0697401039
 30
0.0
 11
187.1092801444
 21
109.4025542074
 31
0.0
  0
LWPOLYLINE
  5
188
330
1F
100
AcDbEntity
  8
0
  6
SLD-Gestrichelt
 62
     7
370
     0
100
AcDbPolyline
 90
        3
 70
   128
 43
0.0
 10
187.1092801444
 20
104.2518225855
 10
185.8167878701
 20
104.2680927261
 10
185.1092801444
 20
104.2768885569
  0
LINE
  5
189
330
1F
100
AcDbEntity
  8
0
  6
SLD-Gestrichelt
 62
     7
370
     0
100
AcDbLine
 10
185.1092801444
 20
104.0446741325
 30
0.0
 11
185.1092801444
 21
111.4109918539
 31
0.0
  0
LINE
  5
18A
330
1F
100
AcDbEntity
  8
0
  6
SLD-Gestrichelt
 62
     7
370
     0
100
AcDbLine
 10
185.1092801444
 20
104.0446741325
 30
0.0
 11
187.1092801444
 21
104.0697401039
 31
0.0
  0
LINE
  5
18B
330
1F
100
AcDbEntity
  8
0
  6
SLD-Gestrichelt
 62
     7
370
     0
100
AcDbLine
 10
175.9092801444
 20
104.0446741325
 30
0.0
 11
185.1092801444
 21
104.0446741325
 31
0.0
  0
LINE
  5
18C
330
1F
100
AcDbEntity
  8
0
  6
SLD-Gestrichelt
 62
     7
370
     0
100
AcDbLine
 10
175.1092801444
 20
104.0619682073
 30
0.0
 11
175.9092801444
 21
104.0446741325
 31
0.0
  0
LINE
  5
18D
330
1F
100
AcDbEntity
  8
0
  6
SLD-Gestrichelt
 62
     7
370
     0
100
AcDbLine
 10
175.1092801444
 20
104.2595944821
 30
0.0
 11
175.1092801444
 21
104.0619682073
 31
0.0
  0
LINE
  5
18E
330
1F
100
AcDbEntity
  8
0
  6
SLD-Gestrichelt
 62
     7
370
     0
100
AcDbLine
 10
175.9092801444
 20
104.2768885569
 30
0.0
 11
175.1092801444
 21
104.2595944821
 31
0.0
  0
LINE
  5
18F
330
1F
100
AcDbEntity
  8
0
  6
SLD-Gestrichelt
 62
     7
370
     0
100
AcDbLine
 10
175.9092801444
 20
104.2768885569
 30
0.0
 11
185.1092801444
 21
104.2768885569
 31
0.0
  0
LINE
  5
190
330
1F
100
AcDbEntity
  8
0
  6
SLD-Gestrichelt
 62
     7
370
     0
100
AcDbLine
 10
187.1092801444
 20
104.0697401039
 30
0.0
 11
187.1092801444
 21
104.2518225855
 31
0.0
  0
LWPOLYLINE
  5
191
330
1F
100
AcDbEntity
  8
0
  6
SLD-Gestrichelt
 62
     7
370
     0
100
AcDbPolyline
 90
       34
 70
   128
 43
0.0
 10
181.1092801444
 20
104.1252424833
 10
181.6770338775
 20
104.1258847168
 10
182.2242675114
 20
104.1277882054
 10
182.7312025968
 20
104.130884152
 10
183.1795171789
 20
104.135060661
 10
183.5530080006
 20
104.1401667826
 10
183.8381761305
 20
104.1460179681
 10
184.0247148494
 20
104.1524027406
 10
184.105882162
 20
104.1590903376
 10
184.0787444701
 20
104.165839052
 10
183.9442826006
 20
104.1724049677
 10
183.7073563558
 20
104.1785507754
 10
183.3765288675
 20
104.1840543496
 10
182.9637571031
 20
104.1887167767
 10
182.4839597096
 20
104.1923695445
 10
181.954477815
 20
104.1948806325
 10
181.3944482744
 20
104.1961592834
 10
180.8241120145
 20
104.1961592834
 10
180.2640824739
 20
104.1948806325
 10
179.7346005793
 20
104.1923695445
 10
179.2548031858
 20
104.1887167767
 10
178.8420314214
 20
104.1840543496
 10
178.5112039331
 20
104.1785507754
 10
178.2742776883
 20
104.1724049677
 10
178.1398158188
 20
104.165839052
 10
178.1126781269
 20
104.1590903376
 10
178.1938454395
 20
104.1524027406
 10
178.3803841584
 20
104.1460179681
 10
178.6655522883
 20
104.1401667826
 10
179.03904311
 20
104.135060661
 10
179.4873576921
 20
104.130884152
 10
179.9942927775
 20
104.1277882054
 10
180.5415264114
 20
104.1258847168
 10
181.1092801444
 20
104.1252424833
  0
LINE
  5
192
330
1F
100
AcDbEntity
  8
0
  6
SLD-Gestrichelt
 62
     7
370
     0
100
AcDbLine
 10
175.1092801444
 20
104.0619682073
 30
0.0
 11
175.1092801444
 21
110.0247291982
 31
0.0
  0
LINE
  5
193
330
1F
100
AcDbEntity
  8
0
  6
SLD-Gestrichelt
 62
     7
370
     0
100
AcDbLine
 10
175.9092801444
 20
104.0446741325
 30
0.0
 11
175.9092801444
 21
111.4109918539
 31
0.0
  0
LWPOLYLINE
  5
194
330
1F
100
AcDbEntity
  8
0
  6
SLD-Gestrichelt
 62
     7
370
     0
100
AcDbPolyline
 90
       21
 70
   128
 43
0.0
 10
183.9729190661
 20
111.3817901532
 10
184.1092801444
 20
111.4102726142
 10
183.9482450542
 20
111.3528184211
 10
183.4867870859
 20
111.2239975308
 10
182.7561121044
 20
111.0691278892
 10
181.8183729707
 20
110.9525355775
 10
180.8204473179
 20
110.930332862
 10
179.8881932872
 20
111.004757279
 10
179.0770667646
 20
111.1437616517
 10
178.460597843
 20
111.2963258849
 10
178.1416093995
 20
111.3956543699
 10
178.1497985723
 20
111.3984825021
 10
178.1600798191
 20
111.4020331325
 10
178.4868256626
 20
111.3234631732
 10
179.0965512466
 20
111.1923204835
 10
179.9536493566
 20
111.062137253
 10
180.9443806204
 20
110.9983241172
 10
181.9163422399
 20
111.0288504498
 10
182.7888945249
 20
111.1337644109
 10
183.5069883376
 20
111.2718120068
 10
183.9729190661
 20
111.3817901532
  0
LWPOLYLINE
  5
195
330
1F
100
AcDbEntity
  8
0
  6
SLD-Gestrichelt
 62
     7
370
     0
100
AcDbPolyline
 90
        2
 70
   128
 43
0.0
 10
184.1092801444
 20
111.4102726142
 10
184.1092801444
 20
111.4102726142
  0
LINE
  5
196
330
1F
100
AcDbEntity
  8
0
  6
SLD-Gestrichelt
 62
     7
370
     0
100
AcDbLine
 10
175.1092801444
 20
98.2600155005
 30
0.0
 11
175.1092801444
 21
92.2972545096
 31
0.0
  0
LINE
  5
197
330
1F
100
AcDbEntity
  8
0
  6
SLD-Gestrichelt
 62
     7
370
     0
100
AcDbLine
 10
175.1092801444
 20
98.2600155005
 30
0.0
 11
175.9092801444
 21
98.2773095752
 31
0.0
  0
LINE
  5
198
330
1F
100
AcDbEntity
  8
0
  6
SLD-Gestrichelt
 62
     7
370
     0
100
AcDbLine
 10
175.9092801444
 20
98.2773095752
 30
0.0
 11
175.9092801444
 21
90.9109918539
 31
0.0
  0
LINE
  5
199
330
1F
100
AcDbEntity
  8
0
  6
SLD-Gestrichelt
 62
     7
370
     0
100
AcDbLine
 10
175.9092801444
 20
98.0450951508
 30
0.0
 11
175.1092801444
 21
98.0623892256
 31
0.0
  0
LINE
  5
19A
330
1F
100
AcDbEntity
  8
0
  6
SLD-Gestrichelt
 62
     7
370
     0
100
AcDbLine
 10
175.9092801444
 20
98.2773095752
 30
0.0
 11
185.1092801444
 21
98.2773095752
 31
0.0
  0
LINE
  5
19B
330
1F
100
AcDbEntity
  8
0
  6
SLD-Gestrichelt
 62
     7
370
     0
100
AcDbLine
 10
185.1092801444
 20
98.2773095752
 30
0.0
 11
185.1092801444
 21
90.9109918539
 31
0.0
  0
LINE
  5
19C
330
1F
100
AcDbEntity
  8
0
  6
SLD-Gestrichelt
 62
     7
370
     0
100
AcDbLine
 10
175.9092801444
 20
98.0450951508
 30
0.0
 11
185.1092801444
 21
98.0450951508
 31
0.0
  0
LWPOLYLINE
  5
19D
330
1F
100
AcDbEntity
  8
0
  6
SLD-Gestrichelt
 62
     7
370
     0
100
AcDbPolyline
 90
       22
 70
   128
 43
0.0
 10
184.0907937817
 20
90.9155724381
 10
184.1092801444
 20
90.9117110935
 10
183.9482450542
 20
90.9691652866
 10
183.4867870859
 20
91.0979861769
 10
182.7561121044
 20
91.2528558186
 10
181.8183729707
 20
91.3694481302
 10
180.8204473179
 20
91.3916508457
 10
179.8881932872
 20
91.3172264288
 10
179.0770667646
 20
91.1782220561
 10
178.460597843
 20
91.0256578229
 10
178.1416093995
 20
90.9263293378
 10
178.1497985723
 20
90.9235012056
 10
178.1600798191
 20
90.9199505753
 10
178.4868256626
 20
90.9985205345
 10
179.0965512466
 20
91.1296632242
 10
179.9536493566
 20
91.2598464548
 10
180.9443806204
 20
91.3236595905
 10
181.9163422399
 20
91.2931332579
 10
182.7888945249
 20
91.1882192968
 10
183.5069883376
 20
91.0501717009
 10
183.9729190661
 20
90.9401935546
 10
184.0907937817
 20
90.9155724381
  0
LINE
  5
19E
330
1F
100
AcDbEntity
  8
0
  6
SLD-Gestrichelt
 62
     7
370
     0
100
AcDbLine
 10
187.1092801444
 20
98.2522436038
 30
0.0
 11
187.1092801444
 21
92.9194295003
 31
0.0
  0
LWPOLYLINE
  5
19F
330
1F
100
AcDbEntity
  8
0
  6
SLD-Gestrichelt
 62
     7
370
     0
100
AcDbPolyline
 90
        3
 70
   128
 43
0.0
 10
187.1092801444
 20
98.0701611223
 10
185.8167878701
 20
98.0538909817
 10
185.1092801444
 20
98.0450951508
  0
LINE
  5
1A0
330
1F
100
AcDbEntity
  8
0
  6
SLD-Gestrichelt
 62
     7
370
     0
100
AcDbLine
 10
185.1092801444
 20
98.2773095752
 30
0.0
 11
187.1092801444
 21
98.2522436038
 31
0.0
  0
LINE
  5
1A1
330
1F
100
AcDbEntity
  8
0
  6
SLD-Gestrichelt
 62
     7
370
     0
100
AcDbLine
 10
175.1092801444
 20
98.0623892256
 30
0.0
 11
175.1092801444
 21
98.2600155005
 31
0.0
  0
LINE
  5
1A2
330
1F
100
AcDbEntity
  8
0
  6
SLD-Gestrichelt
 62
     7
370
     0
100
AcDbLine
 10
187.1092801444
 20
98.2522436038
 30
0.0
 11
187.1092801444
 21
98.0701611223
 31
0.0
  0
LWPOLYLINE
  5
1A3
330
1F
100
AcDbEntity
  8
0
  6
SLD-Gestrichelt
 62
     7
370
     0
100
AcDbPolyline
 90
       34
 70
   128
 43
0.0
 10
181.1092801444
 20
98.1967412245
 10
181.6770338775
 20
98.1960989909
 10
182.2242675114
 20
98.1941955024
 10
182.7312025968
 20
98.1910995558
 10
183.1795171789
 20
98.1869230467
 10
183.5530080006
 20
98.1818169252
 10
183.8381761305
 20
98.1759657396
 10
184.0247148494
 20
98.1695809672
 10
184.105882162
 20
98.1628933702
 10
184.0787444701
 20
98.1561446557
 10
183.9442826006
 20
98.14957874
 10
183.7073563558
 20
98.1434329323
 10
183.3765288675
 20
98.1379293582
 10
182.9637571031
 20
98.133266931
 10
182.4839597096
 20
98.1296141632
 10
181.954477815
 20
98.1271030752
 10
181.3944482744
 20
98.1258244243
 10
180.8241120145
 20
98.1258244243
 10
180.2640824739
 20
98.1271030752
 10
179.7346005793
 20
98.1296141632
 10
179.2548031858
 20
98.133266931
 10
178.8420314214
 20
98.1379293582
 10
178.5112039331
 20
98.1434329323
 10
178.2742776883
 20
98.14957874
 10
178.1398158188
 20
98.1561446557
 10
178.1126781269
 20
98.1628933702
 10
178.1938454395
 20
98.1695809672
 10
178.3803841584
 20
98.1759657396
 10
178.6655522883
 20
98.1818169252
 10
179.03904311
 20
98.1869230467
 10
179.4873576921
 20
98.1910995558
 10
179.9942927775
 20
98.1941955024
 10
180.5415264114
 20
98.1960989909
 10
181.1092801444
 20
98.1967412245
  0
LINE
  5
1A4
330
1F
100
AcDbEntity
  8
0
  6
SLD-Gestrichelt
 62
     7
370
     0
100
AcDbLine
 10
195.3092801444
 20
101.0425289825
 30
0.0
 11
195.3092801444
 21
111.1609918539
 31
0.0
  0
LINE
  5
1A5
330
1F
100
AcDbEntity
  8
0
  6
SLD-Gestrichelt
 62
     7
370
     0
100
AcDbLine
 10
195.3092801444
 20
91.1609918539
 30
0.0
 11
195.3092801444
 21
101.0425289825
 31
0.0
  0
LINE
  5
1A6
330
1F
100
AcDbEntity
  8
0
  6
SLD-Gestrichelt
 62
     7
370
     0
100
AcDbLine
 10
192.6092801444
 20
101.0425289825
 30
0.0
 11
192.6092801444
 21
111.1609918539
 31
0.0
  0
LINE
  5
1A7
330
1F
100
AcDbEntity
  8
0
  6
SLD-Gestrichelt
 62
     7
370
     0
100
AcDbLine
 10
192.6092801444
 20
91.1609918539
 30
0.0
 11
192.6092801444
 21
101.0425289825
 31
0.0
  0
LINE
  5
1A8
330
1F
100
AcDbEntity
  8
0
  6
SLD-Gestrichelt
 62
     7
370
     0
100
AcDbLine
 10
191.6092801444
 20
91.7453138292
 30
0.0
 11
191.6092801444
 21
110.5826128255
 31
0.0
  0
LINE
  5
1A9
330
1F
100
AcDbEntity
  8
0
  6
SLD-Gestrichelt
 62
     7
370
     0
100
AcDbLine
 10
196.6092801444
 20
101.0618830631
 30
0.0
 11
196.6092801444
 21
109.5272242103
 31
0.0
  0
LINE
  5
1AA
330
1F
100
AcDbEntity
  8
0
  6
SLD-Gestrichelt
 62
     7
370
     0
100
AcDbLine
 10
196.6092801444
 20
92.7947594975
 30
0.0
 11
196.6092801444
 21
101.0618830631
 31
0.0
  0
LINE
  5
1AB
330
1F
100
AcDbEntity
  8
0
  6
SLD-Gestrichelt
 62
     7
370
     0
100
AcDbLine
 10
195.3092801444
 20
91.4116760087
 30
0.0
 11
195.3092801444
 21
110.9103076991
 31
0.0
  0
LINE
  5
1AC
330
1F
100
AcDbEntity
  8
0
  6
SLD-Gestrichelt
 62
     7
370
     0
100
AcDbLine
 10
195.95333984
 20
93.4109918539
 30
0.0
 11
195.95333984
 21
108.9109918539
 31
0.0
  0
LINE
  5
1AD
330
1F
100
AcDbEntity
  8
0
  6
SLD-Gestrichelt
 62
     7
370
     0
100
AcDbLine
 10
193.6092801444
 20
93.1609918539
 30
0.0
 11
193.6092801444
 21
109.1609918539
 31
0.0
  0
LINE
  5
1AE
330
1F
100
AcDbEntity
  8
0
  6
SLD-Gestrichelt
 62
     7
370
     0
100
AcDbLine
 10
195.7184738194
 20
93.1609918539
 30
0.0
 11
195.7184738194
 21
109.1609918539
 31
0.0
  0
LINE
  5
1AF
330
1F
100
AcDbEntity
  8
0
  6
SLD-Gestrichelt
 62
     7
370
     0
100
AcDbLine
 10
193.6092801444
 20
93.9115005844
 30
0.0
 11
193.6092801444
 21
108.4104831234
 31
0.0
  0
LINE
  5
1B0
330
1F
100
AcDbEntity
  8
0
  6
SLD-Gestrichelt
 62
     7
370
     0
100
AcDbLine
 10
191.6092801444
 20
93.9115005844
 30
0.0
 11
191.6092801444
 21
108.4104831234
 31
0.0
  0
LINE
  5
1B1
330
1F
100
AcDbEntity
  8
0
  6
SLD-Gestrichelt
 62
     7
370
     0
100
AcDbLine
 10
191.6092801444
 20
111.4109918539
 30
0.0
 11
191.6092801444
 21
90.9109918539
 31
0.0
  0
LINE
  5
1B2
330
1F
100
AcDbEntity
  8
0
  6
SLD-Gestrichelt
 62
     7
370
     0
100
AcDbLine
 10
167.2092801444
 20
90.9109918539
 30
0.0
 11
167.2092801444
 21
111.4109918539
 31
0.0
  0
LINE
  5
1B3
330
1F
100
AcDbEntity
  8
0
  6
SLD-Gestrichelt
 62
     7
370
     0
100
AcDbLine
 10
175.1092801444
 20
104.0446741325
 30
0.0
 11
187.1092801444
 21
104.0446741325
 31
0.0
  0
LINE
  5
1B4
330
1F
100
AcDbEntity
  8
0
  6
SLD-Gestrichelt
 62
     7
370
     0
100
AcDbLine
 10
175.1092801444
 20
104.0446741325
 30
0.0
 11
175.1092801444
 21
111.4109918539
 31
0.0
  0
LINE
  5
1B5
330
1F
100
AcDbEntity
  8
0
  6
SLD-Gestrichelt
 62
     7
370
     0
100
AcDbLine
 10
187.1092801444
 20
104.2768885569
 30
0.0
 11
175.1092801444
 21
104.2768885569
 31
0.0
  0
LINE
  5
1B6
330
1F
100
AcDbEntity
  8
0
  6
SLD-Gestrichelt
 62
     7
370
     0
100
AcDbLine
 10
187.1092801444
 20
104.0446741325
 30
0.0
 11
187.1092801444
 21
111.4109918539
 31
0.0
  0
LINE
  5
1B7
330
1F
100
AcDbEntity
  8
0
  6
SLD-Gestrichelt
 62
     7
370
     0
100
AcDbLine
 10
187.1092801444
 20
98.2773095752
 30
0.0
 11
187.1092801444
 21
90.9109918539
 31
0.0
  0
LINE
  5
1B8
330
1F
100
AcDbEntity
  8
0
  6
SLD-Gestrichelt
 62
     7
370
     0
100
AcDbLine
 10
175.1092801444
 20
98.2773095752
 30
0.0
 11
187.1092801444
 21
98.2773095752
 31
0.0
  0
LINE
  5
1B9
330
1F
100
AcDbEntity
  8
0
  6
SLD-Gestrichelt
 62
     7
370
     0
100
AcDbLine
 10
175.1092801444
 20
98.2773095752
 30
0.0
 11
175.1092801444
 21
90.9109918539
 31
0.0
  0
LINE
  5
1BA
330
1F
100
AcDbEntity
  8
0
  6
SLD-Gestrichelt
 62
     7
370
     0
100
AcDbLine
 10
187.1092801444
 20
98.0450951508
 30
0.0
 11
175.1092801444
 21
98.0450951508
 31
0.0
  0
LWPOLYLINE
  5
1BB
330
1F
100
AcDbEntity
  8
0
  6
SLD-Gestrichelt
 62
     7
370
     0
100
AcDbPolyline
 90
       34
 70
   128
 43
0.0
 10
181.1092801444
 20
98.1967412245
 10
181.6770338775
 20
98.1960989909
 10
182.2242675114
 20
98.1941955024
 10
182.7312025968
 20
98.1910995558
 10
183.1795171789
 20
98.1869230467
 10
183.5530080006
 20
98.1818169252
 10
183.8381761305
 20
98.1759657396
 10
184.0247148494
 20
98.1695809672
 10
184.105882162
 20
98.1628933702
 10
184.0787444701
 20
98.1561446557
 10
183.9442826006
 20
98.14957874
 10
183.7073563558
 20
98.1434329323
 10
183.3765288675
 20
98.1379293582
 10
182.9637571031
 20
98.133266931
 10
182.4839597096
 20
98.1296141632
 10
181.954477815
 20
98.1271030752
 10
181.3944482744
 20
98.1258244243
 10
180.8241120145
 20
98.1258244243
 10
180.2640824739
 20
98.1271030752
 10
179.7346005793
 20
98.1296141632
 10
179.2548031858
 20
98.133266931
 10
178.8420314214
 20
98.1379293582
 10
178.5112039331
 20
98.1434329323
 10
178.2742776883
 20
98.14957874
 10
178.1398158188
 20
98.1561446557
 10
178.1126781269
 20
98.1628933702
 10
178.1938454395
 20
98.1695809672
 10
178.3803841584
 20
98.1759657396
 10
178.6655522883
 20
98.1818169252
 10
179.03904311
 20
98.1869230467
 10
179.4873576921
 20
98.1910995558
 10
179.9942927775
 20
98.1941955024
 10
180.5415264114
 20
98.1960989909
 10
181.1092801444
 20
98.1967412245
  0
LINE
  5
1BC
330
1F
100
AcDbEntity
  8
0
  6
SLD-Gestrichelt
 62
     7
370
     0
100
AcDbLine
 10
187.1092801444
 20
98.0450951508
 30
0.0
 11
187.1092801444
 21
98.2773095752
 31
0.0
  0
LINE
  5
1BD
330
1F
100
AcDbEntity
  8
0
  6
SLD-Gestrichelt
 62
     7
370
     0
100
AcDbLine
 10
175.1092801444
 20
98.0450951508
 30
0.0
 11
175.1092801444
 21
98.2773095752
 31
0.0
  0
LINE
  5
1BE
330
1F
100
AcDbEntity
  8
0
  6
SLD-Gestrichelt
 62
     7
370
     0
100
AcDbLine
 10
175.1092801444
 20
104.0446741325
 30
0.0
 11
175.1092801444
 21
104.2768885569
 31
0.0
  0
LINE
  5
1BF
330
1F
100
AcDbEntity
  8
0
  6
SLD-Gestrichelt
 62
     7
370
     0
100
AcDbLine
 10
187.1092801444
 20
104.0446741325
 30
0.0
 11
187.1092801444
 21
104.2768885569
 31
0.0
  0
LINE
  5
1C0
330
1F
100
AcDbEntity
  8
0
  6
SLD-Gestrichelt
 62
     7
370
     0
100
AcDbLine
 10
161.9592801444
 20
106.5126375309
 30
0.0
 11
161.9592801444
 21
98.1058597342
 31
0.0
  0
LINE
  5
1C1
330
1F
100
AcDbEntity
  8
0
  6
SLD-Gestrichelt
 62
     7
370
     0
100
AcDbLine
 10
154.9092801444
 20
98.1058597342
 30
0.0
 11
154.9092801444
 21
106.5126375309
 31
0.0
  0
LINE
  5
1C2
330
1F
100
AcDbEntity
  8
0
  6
SLD-Gestrichelt
 62
     7
370
     0
100
AcDbLine
 10
161.9592801444
 20
93.5425520021
 30
0.0
 11
161.9592801444
 21
108.7847851405
 31
0.0
  0
LINE
  5
1C3
330
1F
100
AcDbEntity
  8
0
  6
SLD-Gestrichelt
 62
     7
370
     0
100
AcDbLine
 10
167.2092801444
 20
93.5425520021
 30
0.0
 11
167.2092801444
 21
108.7847851405
 31
0.0
  0
LINE
  5
1C4
330
1F
100
AcDbEntity
  8
0
  6
SLD-Gestrichelt
 62
     7
370
     0
100
AcDbLine
 10
194.6092801444
 20
93.5609918539
 30
0.0
 11
194.6092801444
 21
108.7609918539
 31
0.0
  0
LINE
  5
1C5
330
1F
100
AcDbEntity
  8
0
  6
SLD-Gestrichelt
 62
     7
370
     0
100
AcDbLine
 10
193.6092801444
 20
93.5675304934
 30
0.0
 11
193.6092801444
 21
108.759789097
 31
0.0
  0
LWPOLYLINE
  5
1C6
330
1F
100
AcDbEntity
  8
0
  6
SLD-Gestrichelt
 62
     7
370
     0
100
AcDbPolyline
 90
        8
 70
   128
 43
0.0
 10
195.6092801444
 20
94.6691802666
 10
195.3737493409
 20
94.3773386147
 10
195.2324960109
 20
94.1944861266
 10
195.2174434431
 20
94.1708812632
 10
195.2149146664
 20
94.1669157318
 10
195.2854082331
 20
94.2515734365
 10
195.4314844788
 20
94.4294701252
 10
195.6092801444
 20
94.6428073221
  0
LINE
  5
1C7
330
1F
100
AcDbEntity
  8
0
  6
SLD-Gestrichelt
 62
     7
370
     0
100
AcDbLine
 10
195.6092801444
 20
94.6428073221
 30
0.0
 11
195.6092801444
 21
107.7609918539
 31
0.0
  0
LINE
  5
1C8
330
1F
100
AcDbEntity
  8
0
  6
SLD-Gestrichelt
 62
     7
370
     0
100
AcDbLine
 10
151.8092801444
 20
93.6609918539
 30
0.0
 11
151.8092801444
 21
108.6609918539
 31
0.0
  0
LINE
  5
1C9
330
1F
100
AcDbEntity
  8
0
  6
SLD-Gestrichelt
 62
     7
370
     0
100
AcDbLine
 10
154.9092801444
 20
93.6615181268
 30
0.0
 11
154.9092801444
 21
108.660465581
 31
0.0
  0
LINE
  5
1CA
330
1F
100
AcDbEntity
  8
0
  6
SLD-Gestrichelt
 62
     7
370
     0
100
AcDbLine
 10
148.0092801444
 20
93.6609918539
 30
0.0
 11
148.0092801444
 21
108.6609918539
 31
0.0
  0
LINE
  5
1CB
330
1F
100
AcDbEntity
  8
0
  6
SLD-Gestrichelt
 62
     7
370
     0
100
AcDbLine
 10
147.5092801444
 20
93.9496669885
 30
0.0
 11
147.5092801444
 21
108.3723167193
 31
0.0
  0
LINE
  5
1CC
330
1F
100
AcDbEntity
  8
0
  6
SLD-Gestrichelt
 62
     7
370
     0
100
AcDbLine
 10
149.1092801444
 20
93.6609918539
 30
0.0
 11
149.1092801444
 21
108.6609918539
 31
0.0
  0
LINE
  5
1CD
330
1F
100
AcDbEntity
  8
0
  6
SLD-Gestrichelt
 62
     7
370
     0
100
AcDbLine
 10
193.6092801444
 20
93.9115005844
 30
0.0
 11
193.6092801444
 21
108.4104831234
 31
0.0
  0
LINE
  5
1CE
330
1F
100
AcDbEntity
  8
0
  6
SLD-Gestrichelt
 62
     7
370
     0
100
AcDbLine
 10
191.6092801444
 20
93.9115005844
 30
0.0
 11
191.6092801444
 21
108.4104831234
 31
0.0
  0
LINE
  5
1CF
330
1F
100
AcDbEntity
  8
0
  6
SLD-Gestrichelt
 62
     7
370
     0
100
AcDbLine
 10
161.9592801444
 20
98.1058597342
 30
0.0
 11
161.9592801444
 21
97.699802851
 31
0.0
  0
LINE
  5
1D0
330
1F
100
AcDbEntity
  8
0
  6
SLD-Gestrichelt
 62
     7
370
     0
100
AcDbLine
 10
154.9092801444
 20
97.699802851
 30
0.0
 11
154.9092801444
 21
98.1058597342
 31
0.0
  0
LINE
  5
1D1
330
1F
100
AcDbEntity
  8
0
  6
SLD-Gestrichelt
 62
     7
370
     0
100
AcDbLine
 10
161.9592801444
 20
94.2797316916
 30
0.0
 11
161.9592801444
 21
93.7851296042
 31
0.0
  0
LINE
  5
1D2
330
1F
100
AcDbEntity
  8
0
  6
SLD-Gestrichelt
 62
     7
370
     0
100
AcDbLine
 10
154.9092801444
 20
93.7851296042
 30
0.0
 11
154.9092801444
 21
94.2797316916
 31
0.0
  0
LINE
  5
1D3
330
1F
100
AcDbEntity
  8
0
  6
SLD-Gestrichelt
 62
     7
370
     0
100
AcDbLine
 10
161.9592801444
 20
97.699802851
 30
0.0
 11
161.9592801444
 21
94.2797316916
 31
0.0
  0
LINE
  5
1D4
330
1F
100
AcDbEntity
  8
0
  6
SLD-Gestrichelt
 62
     7
370
     0
100
AcDbLine
 10
154.9092801444
 20
94.2797316916
 30
0.0
 11
154.9092801444
 21
97.699802851
 31
0.0
  0
LINE
  5
1D5
330
1F
100
AcDbEntity
  8
0
  6
SLD-Gestrichelt
 62
     7
370
     0
100
AcDbLine
 10
161.9592801444
 20
93.7851296042
 30
0.0
 11
161.9592801444
 21
92.301323342
 31
0.0
  0
LINE
  5
1D6
330
1F
100
AcDbEntity
  8
0
  6
SLD-Gestrichelt
 62
     7
370
     0
100
AcDbLine
 10
154.9092801444
 20
92.301323342
 30
0.0
 11
154.9092801444
 21
93.7851296042
 31
0.0
  0
LINE
  5
1D7
330
1F
100
AcDbEntity
  8
0
  6
SLD-Gestrichelt
 62
     7
370
     0
100
AcDbLine
 10
150.6092801444
 20
102.4800110216
 30
0.0
 11
149.4920234785
 21
102.325549127
 31
0.0
  0
ARC
  5
1D8
330
1F
100
AcDbEntity
  8
0
  6
SLD-Gestrichelt
 62
     7
370
     0
100
AcDbCircle
 10
166.8336423377
 20
101.206484556
 30
0.0
 40
17.3776882862245
100
AcDbArc
 50
176.3077899673
 51
183.6922100327
  0
LINE
  5
1D9
330
1F
100
AcDbEntity
  8
0
  6
SLD-Gestrichelt
 62
     7
370
     0
100
AcDbLine
 10
149.4920234785
 20
100.087419985
 30
0.0
 11
150.6092801444
 21
99.9318060897
 31
0.0
  0
LINE
  5
1DA
330
1F
100
AcDbEntity
  8
0
  6
SLD-Gestrichelt
 62
     7
370
     0
100
AcDbLine
 10
150.6092801444
 20
102.9409763953
 30
0.0
 11
150.6092801444
 21
99.4439565672
 31
0.0
  0
LINE
  5
1DB
330
1F
100
AcDbEntity
  8
0
  6
SLD-Gestrichelt
 62
     7
370
     0
100
AcDbLine
 10
172.6092801444
 20
99.4690441998
 30
0.0
 11
174.5382920753
 21
99.4853373011
 31
0.0
  0
LWPOLYLINE
  5
1DC
330
1F
100
AcDbEntity
  8
0
  6
SLD-Gestrichelt
 62
     7
370
     0
100
AcDbPolyline
 90
       15
 70
   128
 43
0.0
 10
174.5382920753
 20
99.4853373011
 10
174.5007217071
 20
99.4751527342
 10
174.4639670018
 20
99.5707553091
 10
174.4302609173
 20
99.7663368843
 10
174.4016511987
 20
100.0500152956
 10
174.3798759719
 20
100.4045562335
 10
174.3662581468
 20
100.8084202786
 10
174.3616250469
 20
101.2370714853
 10
174.3662581468
 20
101.6644680146
 10
174.3798759719
 20
102.0646442523
 10
174.4016511987
 20
102.4132882984
 10
174.4302609173
 20
102.6892189873
 10
174.4639670018
 20
102.8756727066
 10
174.5007217071
 20
102.9613218367
 10
174.5382920753
 20
102.9409629375
  0
LINE
  5
1DD
330
1F
100
AcDbEntity
  8
0
  6
SLD-Gestrichelt
 62
     7
370
     0
100
AcDbLine
 10
174.5382920753
 20
102.9409629375
 30
0.0
 11
172.6092801444
 21
102.9563369052
 31
0.0
  0
LINE
  5
1DE
330
1F
100
AcDbEntity
  8
0
  6
SLD-Gestrichelt
 62
     7
370
     0
100
AcDbLine
 10
172.6092801444
 20
99.4690441998
 30
0.0
 11
172.6092801444
 21
102.9563369052
 31
0.0
  0
LINE
  5
1DF
330
1F
100
AcDbEntity
  8
0
  6
SLD-Gestrichelt
 62
     7
370
     0
100
AcDbLine
 10
149.1092801444
 20
95.1123998304
 30
0.0
 11
149.1092801444
 21
107.2047941721
 31
0.0
  0
LINE
  5
1E0
330
1F
100
AcDbEntity
  8
0
  6
SLD-Gestrichelt
 62
     7
370
     0
100
AcDbLine
 10
151.8092801444
 20
95.1123998304
 30
0.0
 11
151.8092801444
 21
107.2047941721
 31
0.0
  0
LINE
  5
1E1
330
1F
100
AcDbEntity
  8
0
  6
SLD-Gestrichelt
 62
     7
370
     0
100
AcDbLine
 10
161.9592801444
 20
107.1913261698
 30
0.0
 11
161.9592801444
 21
106.5126375309
 31
0.0
  0
LINE
  5
1E2
330
1F
100
AcDbEntity
  8
0
  6
SLD-Gestrichelt
 62
     7
370
     0
100
AcDbLine
 10
154.9092801444
 20
106.5126375309
 30
0.0
 11
154.9092801444
 21
107.1913261698
 31
0.0
  0
LINE
  5
1E3
330
1F
100
AcDbEntity
  8
0
  6
SLD-Gestrichelt
 62
     7
370
     0
100
AcDbLine
 10
172.6092801444
 20
99.3295269591
 30
0.0
 11
172.6092801444
 21
103.0795269591
 31
0.0
  0
LINE
  5
1E4
330
1F
100
AcDbEntity
  8
0
  6
SLD-Gestrichelt
 62
     7
370
     0
100
AcDbLine
 10
192.6092801444
 20
103.0793953909
 30
0.0
 11
192.6092801444
 21
99.3296585273
 31
0.0
  0
LWPOLYLINE
  5
1E5
330
1F
100
AcDbEntity
  8
0
  6
SLD-Gestrichelt
 62
     7
370
     0
100
AcDbPolyline
 90
       25
 70
   128
 43
0.0
 10
178.7092801444
 20
101.1823151707
 10
178.7616352354
 20
101.6826261079
 10
178.9227560618
 20
102.1276698459
 10
179.1954723164
 20
102.4740116903
 10
179.5911062962
 20
102.7189417027
 10
180.2874521506
 20
102.8956109404
 10
181.0679302266
 20
102.9455801751
 10
181.9759985179
 20
102.8892788651
 10
182.6552784606
 20
102.7068431432
 10
183.0840544554
 20
102.4159929222
 10
183.3721930783
 20
101.9634676499
 10
183.4928067692
 20
101.4673645965
 10
183.4995104452
 20
100.9624692531
 10
183.4017945634
 20
100.4852778225
 10
183.194281841
 20
100.0859926267
 10
182.87200741
 20
99.7900658211
 10
182.4149193654
 20
99.5909414657
 10
181.6252521813
 20
99.4647501166
 10
180.7753926717
 20
99.4544530324
 10
179.8805334935
 20
99.5701222907
 10
179.3342833333
 20
99.7979934139
 10
178.9932948408
 20
100.1288031928
 10
178.7838568531
 20
100.5931284366
 10
178.7109109108
 20
101.0921173799
 10
178.7092801444
 20
101.1823151707
  0
ELLIPSE
  5
1E6
330
1F
100
AcDbEntity
  8
0
  6
SLD-Gestrichelt
 62
     7
370
     0
100
AcDbEllipse
 10
174.6019769034
 20
101.2045269591
 30
0.0
 11
-0.001958266646539641
 21
1.874999992173741
 31
0.0
210
0.0
220
0.0
230
0.9999999999999999
 40
0.0874824298
 41
0.3867662508841448
 42
2.730950539395913
  0
LINE
  5
1E7
330
1F
100
AcDbEntity
  8
0
  6
SLD-Gestrichelt
 62
     7
370
     0
100
AcDbLine
 10
195.6092801444
 20
103.0793953909
 30
0.0
 11
195.6092801444
 21
99.3296585273
 31
0.0
  0
LINE
  5
1E8
330
1F
100
AcDbEntity
  8
0
  6
SLD-Gestrichelt
 62
     7
370
     0
100
AcDbLine
 10
161.9592801444
 20
92.301323342
 30
0.0
 11
161.9592801444
 21
91.3978675273
 31
0.0
  0
LINE
  5
1E9
330
1F
100
AcDbEntity
  8
0
  6
SLD-Gestrichelt
 62
     7
370
     0
100
AcDbLine
 10
154.9092801444
 20
91.3978675273
 30
0.0
 11
154.9092801444
 21
92.301323342
 31
0.0
  0
LINE
  5
1EA
330
1F
100
AcDbEntity
  8
0
  6
SLD-Gestrichelt
 62
     7
370
     0
100
AcDbLine
 10
161.9592801444
 20
110.1486002668
 30
0.0
 11
161.9592801444
 21
107.1913261698
 31
0.0
  0
LINE
  5
1EB
330
1F
100
AcDbEntity
  8
0
  6
SLD-Gestrichelt
 62
     7
370
     0
100
AcDbLine
 10
154.9092801444
 20
107.1913261698
 30
0.0
 11
154.9092801444
 21
110.1486002668
 31
0.0
  0
LINE
  5
1EC
330
1F
100
AcDbEntity
  8
0
  6
SLD-Gestrichelt
 62
     7
370
     0
100
AcDbLine
 10
161.9592801444
 20
111.0388406255
 30
0.0
 11
161.9592801444
 21
110.1486002668
 31
0.0
  0
LINE
  5
1ED
330
1F
100
AcDbEntity
  8
0
  6
SLD-Gestrichelt
 62
     7
370
     0
100
AcDbLine
 10
154.9092801444
 20
110.1486002668
 30
0.0
 11
154.9092801444
 21
111.0388406255
 31
0.0
  0
LINE
  5
1EE
330
1F
100
AcDbEntity
  8
0
  6
SLD-Gestrichelt
 62
     7
370
     0
100
AcDbLine
 10
161.9592801444
 20
91.3978675273
 30
0.0
 11
161.9592801444
 21
90.2193393155
 31
0.0
  0
LINE
  5
1EF
330
1F
100
AcDbEntity
  8
0
  6
SLD-Gestrichelt
 62
     7
370
     0
100
AcDbLine
 10
154.9092801444
 20
91.3978675273
 30
0.0
 11
154.9092801444
 21
90.2109918539
 31
0.0
  0
LINE
  5
1F0
330
1F
100
AcDbEntity
  8
0
  6
SLD-Gestrichelt
 62
     7
370
     0
100
AcDbLine
 10
161.9592801444
 20
110.9241161804
 30
0.0
 11
161.9592801444
 21
112.1026443923
 31
0.0
  0
LINE
  5
1F1
330
1F
100
AcDbEntity
  8
0
  6
SLD-Gestrichelt
 62
     7
370
     0
100
AcDbLine
 10
154.9092801444
 20
110.9241161804
 30
0.0
 11
154.9092801444
 21
112.1109918539
 31
0.0
  0
ELLIPSE
  5
1F2
330
1F
100
AcDbEntity
  8
0
  6
SLD-Gestrichelt
 62
     7
370
     0
100
AcDbEllipse
 10
149.8280018033
 20
101.1609918539
 30
0.0
 11
-0.004177635512576216
 21
3.999999983303979
 31
0.0
210
0.0
220
0.0
230
1.0
 40
0.0874824298
 41
1.275287429457404
 42
1.842429360822911
  0
LINE
  5
1F3
330
1F
100
AcDbEntity
  8
0
  6
SLD-Gestrichelt
 62
     7
370
     0
100
AcDbLine
 10
149.4920234785
 20
102.2345637228
 30
0.0
 11
150.6092801444
 21
102.390177618
 31
0.0
  0
ELLIPSE
  5
1F4
330
1F
100
AcDbEntity
  8
0
  6
SLD-Gestrichelt
 62
     7
370
     0
100
AcDbEllipse
 10
149.8280018033
 20
101.1609918539
 30
0.0
 11
0.004177635512576216
 21
3.999999983303979
 31
0.0
210
0.0
220
0.0
230
1.0
 40
0.0874824298
 41
1.299163292766934
 42
1.866305224132443
  0
LINE
  5
1F5
330
1F
100
AcDbEntity
  8
0
  6
SLD-Gestrichelt
 62
     7
370
     0
100
AcDbLine
 10
150.6092801444
 20
99.8419726862
 30
0.0
 11
149.4920234785
 21
99.9964345807
 31
0.0
  0
LINE
  5
1F6
330
1F
100
AcDbEntity
  8
0
  6
SLD-Gestrichelt
 62
     7
370
     0
100
AcDbLine
 10
150.6092801444
 20
99.9318060897
 30
0.0
 11
150.6092801444
 21
97.1609918539
 31
0.0
  0
LINE
  5
1F7
330
1F
100
AcDbEntity
  8
0
  6
SLD-Gestrichelt
 62
     7
370
     0
100
AcDbLine
 10
150.6092801444
 20
102.390177618
 30
0.0
 11
150.6092801444
 21
105.1609918539
 31
0.0
  0
LINE
  5
1F8
330
1F
100
AcDbEntity
  8
0
  6
SLD-Gestrichelt
 62
     7
370
     0
100
AcDbLine
 10
147.5092801444
 20
97.1710205675
 30
0.0
 11
147.5092801444
 21
105.1509631402
 31
0.0
  0
LINE
  5
1F9
330
1F
100
AcDbEntity
  8
0
  6
SLD-Gestrichelt
 62
     7
370
     0
100
AcDbLine
 10
192.6092801444
 20
99.3296585273
 30
0.0
 11
192.6092801444
 21
99.2425883169
 31
0.0
  0
LINE
  5
1FA
330
1F
100
AcDbEntity
  8
0
  6
SLD-Gestrichelt
 62
     7
370
     0
100
AcDbLine
 10
195.6092801444
 20
99.3296585273
 30
0.0
 11
195.6092801444
 21
99.2425883169
 31
0.0
  0
LINE
  5
1FB
330
1F
100
AcDbEntity
  8
0
  6
SLD-Gestrichelt
 62
     7
370
     0
100
AcDbLine
 10
192.6092801444
 20
102.9923251804
 30
0.0
 11
192.6092801444
 21
103.0793953909
 31
0.0
  0
LINE
  5
1FC
330
1F
100
AcDbEntity
  8
0
  6
SLD-Gestrichelt
 62
     7
370
     0
100
AcDbLine
 10
195.6092801444
 20
102.9923251804
 30
0.0
 11
195.6092801444
 21
103.0793953909
 31
0.0
  0
LWPOLYLINE
  5
1FD
330
1F
100
AcDbEntity
  8
0
  6
SLD-Gestrichelt
 62
     7
370
     0
100
AcDbPolyline
 90
       25
 70
   128
 43
0.0
 10
178.7092801444
 20
101.139668537
 10
178.7616352354
 20
100.6393575999
 10
178.9227560618
 20
100.1943138619
 10
179.1954723164
 20
99.8479720175
 10
179.5911062962
 20
99.6030420051
 10
180.2874521506
 20
99.4263727673
 10
181.0679302266
 20
99.3764035327
 10
181.9759985179
 20
99.4327048426
 10
182.6552784606
 20
99.6151405645
 10
183.0840544554
 20
99.9059907855
 10
183.3721930783
 20
100.3585160579
 10
183.4928067692
 20
100.8546191112
 10
183.4995104452
 20
101.3595144547
 10
183.4017945634
 20
101.8367058852
 10
183.194281841
 20
102.235991081
 10
182.87200741
 20
102.5319178866
 10
182.4149193654
 20
102.731042242
 10
181.6252521813
 20
102.8572335912
 10
180.7753926717
 20
102.8675306754
 10
179.8805334935
 20
102.751861417
 10
179.3342833333
 20
102.5239902939
 10
178.9932948408
 20
102.193180515
 10
178.7838568531
 20
101.7288552711
 10
178.7109109108
 20
101.2298663279
 10
178.7092801444
 20
101.139668537
  0
LWPOLYLINE
  5
1FE
330
1F
100
AcDbEntity
  8
0
  6
SLD-Gestrichelt
 62
     7
370
     0
100
AcDbPolyline
 90
       34
 70
   128
 43
0.0
 10
181.1092801444
 20
104.1963202061
 10
181.6770338775
 20
104.1956779726
 10
182.2242675114
 20
104.193774484
 10
182.7312025968
 20
104.1906785374
 10
183.1795171789
 20
104.1865020284
 10
183.5530080006
 20
104.1813959068
 10
183.8381761305
 20
104.1755447213
 10
184.0247148494
 20
104.1691599488
 10
184.105882162
 20
104.1624723518
 10
184.0787444701
 20
104.1557236374
 10
183.9442826006
 20
104.1491577217
 10
183.7073563558
 20
104.143011914
 10
183.3765288675
 20
104.1375083398
 10
182.9637571031
 20
104.1328459127
 10
182.4839597096
 20
104.1291931449
 10
181.954477815
 20
104.1266820569
 10
181.3944482744
 20
104.125403406
 10
180.8241120145
 20
104.125403406
 10
180.2640824739
 20
104.1266820569
 10
179.7346005793
 20
104.1291931449
 10
179.2548031858
 20
104.1328459127
 10
178.8420314214
 20
104.1375083398
 10
178.5112039331
 20
104.143011914
 10
178.2742776883
 20
104.1491577217
 10
178.1398158188
 20
104.1557236374
 10
178.1126781269
 20
104.1624723518
 10
178.1938454395
 20
104.1691599488
 10
178.3803841584
 20
104.1755447213
 10
178.6655522883
 20
104.1813959068
 10
179.03904311
 20
104.1865020284
 10
179.4873576921
 20
104.1906785374
 10
179.9942927775
 20
104.193774484
 10
180.5415264114
 20
104.1956779726
 10
181.1092801444
 20
104.1963202061
  0
LINE
  5
1FF
330
1F
100
AcDbEntity
  8
0
  6
SLD-Gestrichelt
 62
     7
370
     0
100
AcDbLine
 10
195.6092801444
 20
94.6428073221
 30
0.0
 11
195.6092801444
 21
97.1499039301
 31
0.0
  0
LINE
  5
200
330
1F
100
AcDbEntity
  8
0
  6
SLD-Gestrichelt
 62
     7
370
     0
100
AcDbLine
 10
187.1092801444
 20
97.1612725328
 30
0.0
 11
187.1092801444
 21
94.1730335387
 31
0.0
  0
ARC
  5
201
330
1F
100
AcDbEntity
  8
0
  6
SLD-Gestrichelt
 62
     7
370
     0
100
AcDbCircle
 10
166.8336423377
 20
101.1154991518
 30
0.0
 40
17.37768828622459
100
AcDbArc
 50
176.3077899673
 51
183.6922100327
  0
LINE
  5
202
330
1F
100
AcDbEntity
  8
0
  6
SLD-Gestrichelt
 62
     7
370
     0
100
AcDbLine
 10
172.6092801444
 20
102.852939508
 30
0.0
 11
174.5382920753
 21
102.8366464067
 31
0.0
  0
LWPOLYLINE
  5
203
330
1F
100
AcDbEntity
  8
0
  6
SLD-Gestrichelt
 62
     7
370
     0
100
AcDbPolyline
 90
       15
 70
   128
 43
0.0
 10
174.5382920753
 20
99.3810207703
 10
174.5007217071
 20
99.360661871
 10
174.4639670018
 20
99.4463110011
 10
174.4302609173
 20
99.6327647204
 10
174.4016511987
 20
99.9086954093
 10
174.3798759719
 20
100.2573394555
 10
174.3662581468
 20
100.6575156932
 10
174.3616250469
 20
101.0849122224
 10
174.3662581468
 20
101.5135634292
 10
174.3798759719
 20
101.9174274742
 10
174.4016511987
 20
102.2719684121
 10
174.4302609173
 20
102.5556468235
 10
174.4639670018
 20
102.7512283986
 10
174.5007217071
 20
102.8468309735
 10
174.5382920753
 20
102.8366464067
  0
LINE
  5
204
330
1F
100
AcDbEntity
  8
0
  6
SLD-Gestrichelt
 62
     7
370
     0
100
AcDbLine
 10
174.5382920753
 20
99.3810207703
 30
0.0
 11
172.6092801444
 21
99.3656468026
 31
0.0
  0
LINE
  5
205
330
1F
100
AcDbEntity
  8
0
  6
SLD-Gestrichelt
 62
     7
370
     0
100
AcDbLine
 10
172.6092801444
 20
102.852939508
 30
0.0
 11
172.6092801444
 21
99.3656468026
 31
0.0
  0
LINE
  5
206
330
1F
100
AcDbEntity
  8
0
  6
SLD-Gestrichelt
 62
     7
370
     0
100
AcDbLine
 10
150.6092801444
 20
99.3810073124
 30
0.0
 11
150.6092801444
 21
102.8780271405
 31
0.0
  0
ELLIPSE
  5
207
330
1F
100
AcDbEntity
  8
0
  6
SLD-Gestrichelt
 62
     7
370
     0
100
AcDbEllipse
 10
174.6019769034
 20
101.1174567486
 30
0.0
 11
0.00195826664651122
 21
1.874999992173741
 31
0.0
210
0.0
220
0.0
230
0.9999999999999999
 40
0.0874824298
 41
0.4106421141935007
 42
2.754826402705682
  0
LINE
  5
208
330
1F
100
AcDbEntity
  8
0
  6
SLD-Gestrichelt
 62
     7
370
     0
100
AcDbLine
 10
172.6092801444
 20
99.2424567486
 30
0.0
 11
172.6092801444
 21
102.9833525114
 31
0.0
  0
LINE
  5
209
330
1F
100
AcDbEntity
  8
0
  6
SLD-Gestrichelt
 62
     7
370
     0
100
AcDbLine
 10
192.6092801444
 20
102.9923251804
 30
0.0
 11
192.6092801444
 21
99.2425883169
 31
0.0
  0
LINE
  5
20A
330
1F
100
AcDbEntity
  8
0
  6
SLD-Gestrichelt
 62
     7
370
     0
100
AcDbLine
 10
195.6092801444
 20
99.2425883169
 30
0.0
 11
195.6092801444
 21
102.9923251804
 31
0.0
  0
LINE
  5
20B
330
1F
100
AcDbEntity
  8
0
  6
SLD-Gestrichelt
 62
     7
370
     0
100
AcDbLine
 10
161.9592801444
 20
91.2831430822
 30
0.0
 11
161.9592801444
 21
92.1733834409
 31
0.0
  0
LINE
  5
20C
330
1F
100
AcDbEntity
  8
0
  6
SLD-Gestrichelt
 62
     7
370
     0
100
AcDbLine
 10
154.9092801444
 20
92.1733834409
 30
0.0
 11
154.9092801444
 21
91.2831430822
 31
0.0
  0
LINE
  5
20D
330
1F
100
AcDbEntity
  8
0
  6
SLD-Gestrichelt
 62
     7
370
     0
100
AcDbLine
 10
161.9592801444
 20
110.0206603658
 30
0.0
 11
161.9592801444
 21
110.9241161804
 31
0.0
  0
LINE
  5
20E
330
1F
100
AcDbEntity
  8
0
  6
SLD-Gestrichelt
 62
     7
370
     0
100
AcDbLine
 10
154.9092801444
 20
110.9241161804
 30
0.0
 11
154.9092801444
 21
110.0206603658
 31
0.0
  0
LINE
  5
20F
330
1F
100
AcDbEntity
  8
0
  6
SLD-Gestrichelt
 62
     7
370
     0
100
AcDbLine
 10
161.9592801444
 20
92.1733834409
 30
0.0
 11
161.9592801444
 21
95.130657538
 31
0.0
  0
LINE
  5
210
330
1F
100
AcDbEntity
  8
0
  6
SLD-Gestrichelt
 62
     7
370
     0
100
AcDbLine
 10
154.9092801444
 20
95.130657538
 30
0.0
 11
154.9092801444
 21
92.1733834409
 31
0.0
  0
LINE
  5
211
330
1F
100
AcDbEntity
  8
0
  6
SLD-Gestrichelt
 62
     7
370
     0
100
AcDbLine
 10
161.9592801444
 20
95.130657538
 30
0.0
 11
161.9592801444
 21
95.8093461769
 31
0.0
  0
LINE
  5
212
330
1F
100
AcDbEntity
  8
0
  6
SLD-Gestrichelt
 62
     7
370
     0
100
AcDbLine
 10
154.9092801444
 20
95.8093461769
 30
0.0
 11
154.9092801444
 21
95.130657538
 31
0.0
  0
LINE
  5
213
330
1F
100
AcDbEntity
  8
0
  6
SLD-Gestrichelt
 62
     7
370
     0
100
AcDbLine
 10
161.9592801444
 20
106.3783344813
 30
0.0
 11
161.9592801444
 21
107.0633862687
 31
0.0
  0
LINE
  5
214
330
1F
100
AcDbEntity
  8
0
  6
SLD-Gestrichelt
 62
     7
370
     0
100
AcDbLine
 10
154.9092801444
 20
107.0633862687
 30
0.0
 11
154.9092801444
 21
106.3783344813
 31
0.0
  0
LINE
  5
215
330
1F
100
AcDbEntity
  8
0
  6
SLD-Gestrichelt
 62
     7
370
     0
100
AcDbLine
 10
161.9592801444
 20
107.0633862687
 30
0.0
 11
161.9592801444
 21
110.0206603658
 31
0.0
  0
LINE
  5
216
330
1F
100
AcDbEntity
  8
0
  6
SLD-Gestrichelt
 62
     7
370
     0
100
AcDbLine
 10
154.9092801444
 20
110.0206603658
 30
0.0
 11
154.9092801444
 21
107.0633862687
 31
0.0
  0
LINE
  5
217
330
1F
100
AcDbEntity
  8
0
  6
SLD-Gestrichelt
 62
     7
370
     0
100
AcDbLine
 10
161.9592801444
 20
95.8093461769
 30
0.0
 11
161.9592801444
 21
106.3783344813
 31
0.0
  0
LINE
  5
218
330
1F
100
AcDbEntity
  8
0
  6
SLD-Gestrichelt
 62
     7
370
     0
100
AcDbLine
 10
154.9092801444
 20
106.3783344813
 30
0.0
 11
154.9092801444
 21
95.8093461769
 31
0.0
  0
ARC
  5
219
330
1F
100
AcDbEntity
  8
0
  6
SLD-Gestrichelt
 62
     7
370
     0
100
AcDbCircle
 10
181.9595036675
 20
61.3243586631
 30
0.0
 40
20.14300006788257
100
AcDbArc
 50
79.9942775227
 51
99.8768893103
  0
LWPOLYLINE
  5
21A
330
1F
100
AcDbEntity
  8
0
  6
SLD-Gestrichelt
 62
     7
370
     0
100
AcDbPolyline
 90
       11
 70
   128
 43
0.0
 10
185.4592801444
 20
121.1609918539
 10
185.2654482842
 20
121.127983309
 10
184.7073323446
 20
121.0431896925
 10
183.8382084216
 20
120.9418000141
 10
182.7487743139
 20
120.868180924
 10
181.579324997
 20
120.8560258958
 10
180.4656278148
 20
120.9089283861
 10
179.5125880725
 20
121.0037815291
 10
178.8215178336
 20
121.1007900554
 10
178.4845261215
 20
121.1565892573
 10
178.5043399189
 20
121.1531725401
  0
LINE
  5
21B
330
1F
100
AcDbEntity
  8
0
  6
SLD-Gestrichelt
 62
     7
370
     0
100
AcDbLine
 10
187.9592801444
 20
81.5609918539
 30
0.0
 11
187.9592801444
 21
120.7609918539
 31
0.0
  0
LINE
  5
21C
330
1F
100
AcDbEntity
  8
0
  6
SLD-Gestrichelt
 62
     7
370
     0
100
AcDbLine
 10
135.9092801444
 20
81.1609918539
 30
0.0
 11
135.9092801444
 21
81.1860074984
 31
0.0
  0
ARC
  5
21D
330
1F
100
AcDbEntity
  8
0
  6
SLD-Gestrichelt
 62
     7
370
     0
100
AcDbCircle
 10
139.8405105906
 20
71.4189438815
 30
0.0
 40
10.52853762487994
100
AcDbArc
 50
86.9032768355
 51
111.92472131
  0
LINE
  5
21E
330
1F
100
AcDbEntity
  8
0
  6
SLD-Gestrichelt
 62
     7
370
     0
100
AcDbLine
 10
140.4092801444
 20
81.9321073308
 30
0.0
 11
141.9241204456
 21
81.9321073308
 31
0.0
  0
LINE
  5
21F
330
1F
100
AcDbEntity
  8
0
  6
SLD-Gestrichelt
 62
     7
370
     0
100
AcDbLine
 10
141.9241204456
 20
120.6481671238
 30
0.0
 11
141.9241204456
 21
81.9321073308
 31
0.0
  0
LINE
  5
220
330
1F
100
AcDbEntity
  8
0
  6
SLD-Gestrichelt
 62
     7
370
     0
100
AcDbLine
 10
140.4092801444
 20
120.6481671238
 30
0.0
 11
141.9241204456
 21
120.6481671238
 31
0.0
  0
ARC
  5
221
330
1F
100
AcDbEntity
  8
0
  6
SLD-Gestrichelt
 62
     7
370
     0
100
AcDbCircle
 10
140.4785455477
 20
141.2544827214
 30
0.0
 40
20.60643201054727
100
AcDbArc
 50
257.2330330373
 51
269.8074085438
  0
CIRCLE
  5
222
330
1F
100
AcDbEntity
  8
0
  6
SLD-Gestrichelt
 62
     7
370
     0
100
AcDbCircle
 10
134.9590194738
 20
101.1610282691
 30
0.0
 40
4.999739329453602
  0
LINE
  5
223
330
1F
100
AcDbEntity
  8
0
  6
SLD-Gestrichelt
 62
     7
370
     0
100
AcDbLine
 10
127.9592801444
 20
120.8609918536
 30
0.0
 11
127.9592801444
 21
81.4609918539
 31
0.0
  0
LWPOLYLINE
  5
224
330
1F
100
AcDbEntity
  8
0
  6
SLD-Gestrichelt
 62
     7
370
     0
100
AcDbPolyline
 90
        3
 70
   128
 43
0.0
 10
144.9992801444
 20
84.0481129318
 10
144.9915234137
 20
84.1491517635
 10
144.9640577439
 20
84.2609918539
  0
LINE
  5
225
330
1F
100
AcDbEntity
  8
0
  6
SLD-Gestrichelt
 62
     7
370
     0
100
AcDbLine
 10
144.9992801444
 20
84.0481129318
 30
0.0
 11
144.9992801444
 21
113.0109918539
 31
0.0
  0
LWPOLYLINE
  5
226
330
1F
100
AcDbEntity
  8
0
  6
SLD-Gestrichelt
 62
     7
370
     0
100
AcDbPolyline
 90
        3
 70
   128
 43
0.0
 10
142.954502545
 20
84.2609918539
 10
142.9270368752
 20
84.1491517635
 10
142.9192801444
 20
84.0481129318
  0
LINE
  5
227
330
1F
100
AcDbEntity
  8
0
  6
SLD-Gestrichelt
 62
     7
370
     0
100
AcDbLine
 10
142.9192801444
 20
84.0481129318
 30
0.0
 11
142.9192801444
 21
113.0109918539
 31
0.0
  0
LINE
  5
228
330
1F
100
AcDbEntity
  8
0
  6
SLD-Gestrichelt
 62
     7
370
     0
100
AcDbLine
 10
147.9093422676
 20
118.0609918539
 30
0.0
 11
147.9092801444
 21
118.0725263792
 31
0.0
  0
LINE
  5
229
330
1F
100
AcDbEntity
  8
0
  6
SLD-Gestrichelt
 62
     7
370
     0
100
AcDbLine
 10
147.9093422676
 20
118.0609918539
 30
0.0
 11
148.1092795809
 21
118.0609918539
 31
0.0
  0
LINE
  5
22A
330
1F
100
AcDbEntity
  8
0
  6
SLD-Gestrichelt
 62
     7
370
     0
100
AcDbLine
 10
147.9092801444
 20
118.0725263792
 30
0.0
 11
147.9093422676
 21
118.0609918539
 31
0.0
  0
LINE
  5
22B
330
1F
100
AcDbEntity
  8
0
  6
SLD-Gestrichelt
 62
     7
370
     0
100
AcDbLine
 10
147.9092801444
 20
118.0725263792
 30
0.0
 11
147.9092801444
 21
84.2609918539
 31
0.0
  0
LINE
  5
22C
330
1F
100
AcDbEntity
  8
0
  6
SLD-Gestrichelt
 62
     7
370
     0
100
AcDbLine
 10
147.9092801444
 20
84.2609918539
 30
0.0
 11
148.109279586
 21
84.2609918539
 31
0.0
  0
LINE
  5
22D
330
1F
100
AcDbEntity
  8
0
  6
SLD-Gestrichelt
 62
     7
370
     0
100
AcDbLine
 10
148.0241797272
 20
84.2609918539
 30
0.0
 11
147.9092801444
 21
84.2609918539
 31
0.0
  0
LINE
  5
22E
330
1F
100
AcDbEntity
  8
0
  6
SLD-Gestrichelt
 62
     7
370
     0
100
AcDbLine
 10
147.9092801444
 20
114.0383945423
 30
0.0
 11
147.9092801444
 21
118.0725263792
 31
0.0
  0
LINE
  5
22F
330
1F
100
AcDbEntity
  8
0
  6
SLD-Gestrichelt
 62
     7
370
     0
100
AcDbLine
 10
147.9092801444
 20
84.2609918539
 30
0.0
 11
147.9092801444
 21
113.0109918539
 31
0.0
  0
LINE
  5
230
330
1F
100
AcDbEntity
  8
0
  6
SLD-Gestrichelt
 62
     7
370
     0
100
AcDbLine
 10
135.9092801444
 20
113.0109918539
 30
0.0
 11
140.4029506191
 21
113.0109918539
 31
0.0
  0
LINE
  5
231
330
1F
100
AcDbEntity
  8
0
  6
SLD-Gestrichelt
 62
     7
370
     0
100
AcDbLine
 10
127.9592801444
 20
84.9537911688
 30
0.0
 11
127.9592801444
 21
117.3547048959
 31
0.0
  0
LWPOLYLINE
  5
232
330
1F
100
AcDbEntity
  8
0
  6
SLD-Gestrichelt
 62
     7
370
     0
100
AcDbPolyline
 90
        2
 70
   128
 43
0.0
 10
142.9192801444
 20
113.0109918539
 10
142.9192801444
 20
113.0109918539
  0
LWPOLYLINE
  5
233
330
1F
100
AcDbEntity
  8
0
  6
SLD-Gestrichelt
 62
     7
370
     0
100
AcDbPolyline
 90
        2
 70
   128
 43
0.0
 10
144.9992801444
 20
113.0109918539
 10
144.9992801444
 20
113.0109918539
  0
LWPOLYLINE
  5
234
330
1F
100
AcDbEntity
  8
0
  6
SLD-Gestrichelt
 62
     7
370
     0
100
AcDbPolyline
 90
        2
 70
   128
 43
0.0
 10
147.9092801444
 20
113.0109918539
 10
147.9092801444
 20
113.0109918539
  0
LINE
  5
235
330
1F
100
AcDbEntity
  8
0
  6
SLD-Gestrichelt
 62
     7
370
     0
100
AcDbLine
 10
187.9592801444
 20
117.1176704037
 30
0.0
 11
187.9592801444
 21
85.2043133041
 31
0.0
  0
LWPOLYLINE
  5
236
330
1F
100
AcDbEntity
  8
0
  6
SLD-Gestrichelt
 62
     7
370
     0
100
AcDbPolyline
 90
       25
 70
   128
 43
0.0
 10
180.1309886384
 20
86.4606789443
 10
180.1635405385
 20
86.4634148985
 10
180.5131251446
 20
86.4764551513
 10
181.025043385
 20
86.4955507956
 10
182.031594103
 20
86.4742796486
 10
183.0277187052
 20
86.389271693
 10
183.8647457348
 20
86.2705645182
 10
184.4165538489
 20
86.1683048097
 10
184.5613266609
 20
86.1388292086
 10
184.6016979612
 20
86.1304006012
 10
184.6047790904
 20
86.1297573316
 10
184.5472938205
 20
86.141764215
 10
184.3892540559
 20
86.1738150866
 10
183.8124265905
 20
86.2792670342
 10
182.9576122618
 20
86.3973024325
 10
181.955280716
 20
86.4781829193
 10
180.9539807981
 20
86.4946555325
 10
180.1090823328
 20
86.4597745596
 10
179.5545679289
 20
86.4117591621
 10
179.4104211691
 20
86.396452477
 10
179.3706382035
 20
86.391985289
 10
179.367456086
 20
86.3916279723
 10
179.4254307211
 20
86.3980694585
 10
179.5841230869
 20
86.4147154489
 10
180.1309886384
 20
86.4606789443
  0
LWPOLYLINE
  5
237
330
1F
100
AcDbEntity
  8
0
  6
SLD-Gestrichelt
 62
     7
370
     0
100
AcDbPolyline
 90
       25
 70
   128
 43
0.0
 10
180.4995050463
 20
115.8427396768
 10
180.149345369
 20
115.8561020326
 10
180.11721271
 20
115.8588439638
 10
179.5662115359
 20
115.9058617741
 10
179.4067328974
 20
115.9228291995
 10
179.3484005147
 20
115.9294034869
 10
179.3515651364
 20
115.9290434742
 10
179.391694098
 20
115.9244783364
 10
179.5370569422
 20
115.9088310822
 10
180.0956043657
 20
115.8597542278
 10
180.9462467872
 20
115.8239204213
 10
181.9544777118
 20
115.8402114209
 10
182.9640404274
 20
115.9220096078
 10
183.8246731308
 20
116.0415951707
 10
184.4050862412
 20
116.1484339669
 10
184.564001942
 20
116.1808916742
 10
184.6219961378
 20
116.1930864609
 10
184.6188935431
 20
116.1924340709
 10
184.5783344665
 20
116.1839056174
 10
184.4323367392
 20
116.1539776303
 10
183.8762393725
 20
116.0502286956
 10
183.0333475267
 20
115.9299863479
 10
182.0306039455
 20
115.8441062766
 10
181.016961954
 20
115.8229931333
 10
180.4995050463
 20
115.8427396768
  0
LINE
  5
238
330
1F
100
AcDbEntity
  8
0
  6
SLD-Gestrichelt
 62
     7
370
     0
100
AcDbLine
 10
125.9592801444
 20
116.2646922547
 30
0.0
 11
125.9592801444
 21
86.0572914531
 31
0.0
  0
LINE
  5
239
330
1F
100
AcDbEntity
  8
0
  6
SLD-Gestrichelt
 62
     7
370
     0
100
AcDbLine
 10
109.0007639949
 20
88.4578141543
 30
0.0
 11
109.0682801444
 21
88.3099249763
 31
0.0
  0
LWPOLYLINE
  5
23A
330
1F
100
AcDbEntity
  8
0
  6
SLD-Gestrichelt
 62
     7
370
     0
100
AcDbPolyline
 90
        3
 70
   128
 43
0.0
 10
109.0682801444
 20
88.3099249763
 10
109.7085663036
 20
88.3381207638
 10
110.3384567527
 20
88.3943697268
  0
ARC
  5
23B
330
1F
100
AcDbEntity
  8
0
  6
SLD-Gestrichelt
 62
     7
370
     0
100
AcDbCircle
 10
119.2918773252
 20
21.4751475711
 30
0.0
 40
67.51552439161975
100
AcDbArc
 50
95.1262866689
 51
97.6206003941
  0
LWPOLYLINE
  5
23C
330
1F
100
AcDbEntity
  8
0
  6
SLD-Gestrichelt
 62
     7
370
     0
100
AcDbPolyline
 90
        7
 70
   128
 43
0.0
 10
113.2592801444
 20
88.7206218064
 10
113.3164261043
 20
88.7209008521
 10
113.3723392233
 20
88.7114457594
 10
113.4413719123
 20
88.6860626231
 10
113.5352430323
 20
88.625118681
 10
113.7051095929
 20
88.4153193616
 10
113.7915450516
 20
88.230615991
  0
ARC
  5
23D
330
1F
100
AcDbEntity
  8
0
  6
SLD-Gestrichelt
 62
     7
370
     0
100
AcDbCircle
 10
101.4553483671
 20
81.359512855
 30
0.0
 40
14.12068719798445
100
AcDbArc
 50
25.8855257158
 51
29.1172453299
  0
LINE
  5
23E
330
1F
100
AcDbEntity
  8
0
  6
SLD-Gestrichelt
 62
     7
370
     0
100
AcDbLine
 10
114.1592801444
 20
87.5242451558
 30
0.0
 11
114.1592801444
 21
86.6484738178
 31
0.0
  0
LINE
  5
23F
330
1F
100
AcDbEntity
  8
0
  6
SLD-Gestrichelt
 62
     7
370
     0
100
AcDbLine
 10
111.6592801444
 20
115.5482593889
 30
0.0
 11
111.6592801444
 21
114.7185159756
 31
0.0
  0
ARC
  5
240
330
1F
100
AcDbEntity
  8
0
  6
SLD-Gestrichelt
 62
     7
370
     0
100
AcDbCircle
 10
110.6043139701
 20
115.0311272097
 30
0.0
 40
1.100308780551942
100
AcDbArc
 50
278.0963872001
 51
343.4942075172
  0
LWPOLYLINE
  5
241
330
1F
100
AcDbEntity
  8
0
  6
SLD-Gestrichelt
 62
     7
370
     0
100
AcDbPolyline
 90
        3
 70
   128
 43
0.0
 10
110.7592801444
 20
113.9417857125
 10
109.8956456151
 20
114.000414105
 10
109.0092801444
 20
114.0265724009
  0
LINE
  5
242
330
1F
100
AcDbEntity
  8
0
  6
SLD-Gestrichelt
 62
     7
370
     0
100
AcDbLine
 10
109.0092801444
 20
114.0265724009
 30
0.0
 11
108.9101128615
 21
113.8344272169
 31
0.0
  0
ELLIPSE
  5
243
330
1F
100
AcDbEntity
  8
0
  6
SLD-Gestrichelt
 62
     7
370
     0
100
AcDbEllipse
 10
95.4531595059
 20
101.8001023052
 30
0.0
 11
13.36963611134304
 21
13.36754752639483
 31
0.0
210
0.0
220
0.0
230
1.0
 40
0.1761188775
 41
5.933076931846598
 42
5.976720052691197
  0
ELLIPSE
  5
244
330
1F
100
AcDbEntity
  8
0
  6
SLD-Gestrichelt
 62
     7
370
     0
100
AcDbEllipse
 10
95.5325379366
 20
100.5216941761
 30
0.0
 11
13.37355272666623
 21
-13.37146352987013
 31
0.0
210
0.0
220
0.0
230
1.0
 40
0.1761188775
 41
0.3023035477142501
 42
0.3822730435340377
  0
ARC
  5
245
330
1F
100
AcDbEntity
  8
0
  6
SLD-Gestrichelt
 62
     7
370
     0
100
AcDbCircle
 10
122.2888197481
 20
65.02920555
 30
0.0
 40
21.60000424921088
100
AcDbArc
 50
97.128752634
 51
98.3721210172
  0
LWPOLYLINE
  5
246
330
1F
100
AcDbEntity
  8
0
  6
SLD-Gestrichelt
 62
     7
370
     0
100
AcDbPolyline
 90
       16
 70
   128
 43
0.0
 10
124.725558238
 20
86.1193940153
 10
124.7270498035
 20
86.1190349132
 10
124.6711150378
 20
86.132888016
 10
124.5100816286
 20
86.1712288463
 10
124.2474128561
 20
86.2300232215
 10
123.8993937266
 20
86.3014266441
 10
123.4799729757
 20
86.3759874075
 10
123.0008405095
 20
86.4456059147
 10
122.4754444546
 20
86.5027780931
 10
121.9267210231
 20
86.5418793687
 10
121.3852806943
 20
86.5586969244
 10
120.8642094896
 20
86.5542684242
 10
120.3786484791
 20
86.5319801601
 10
119.9657841356
 20
86.4999048672
 10
119.9528427127
 20
86.4988994523
 10
119.60827129
 20
86.4622371492
  0
LWPOLYLINE
  5
247
330
1F
100
AcDbEntity
  8
0
  6
SLD-Gestrichelt
 62
     7
370
     0
100
AcDbPolyline
 90
       16
 70
   128
 43
0.0
 10
119.6081538597
 20
115.8597320747
 10
119.9535939131
 20
115.8231380923
 10
119.9599096462
 20
115.8226479091
 10
120.3796598694
 20
115.7900698215
 10
120.8653394708
 20
115.7677599626
 10
121.3871791593
 20
115.7632825301
 10
121.92829398
 20
115.7801072507
 10
122.4780885745
 20
115.8194007053
 10
123.0026865166
 20
115.8766071758
 10
123.4821906612
 20
115.9463326535
 10
123.9007219073
 20
116.0207364236
 10
124.2484394715
 20
116.0920791663
 10
124.5103502442
 20
116.1507319942
 10
124.671086026
 20
116.1890641247
 10
124.7257322622
 20
116.2028856762
 10
124.7245594531
 20
116.2025913535
  0
ARC
  5
248
330
1F
100
AcDbEntity
  8
0
  6
SLD-Gestrichelt
 62
     7
370
     0
100
AcDbCircle
 10
120.8420790544
 20
126.6602047498
 30
0.0
 40
10.87073049029485
100
AcDbArc
 50
261.0097915471
 51
263.48236901
  0
LINE
  5
249
330
1F
100
AcDbEntity
  8
0
  6
SLD-Gestrichelt
 62
     7
370
     0
100
AcDbLine
 10
173.4733073475
 20
89.6289247659
 30
0.0
 11
173.4733073475
 21
115.7159918539
 31
0.0
  0
LWPOLYLINE
  5
24A
330
1F
100
AcDbEntity
  8
0
  6
SLD-Gestrichelt
 62
     7
370
     0
100
AcDbPolyline
 90
        7
 70
   128
 43
0.0
 10
173.8592801444
 20
89.5507481339
 10
173.6872134697
 20
89.4486500757
 10
173.6291541374
 20
89.4452907071
 10
173.5700148059
 20
89.4664447826
 10
173.5288979193
 20
89.5039367783
 10
173.4972142763
 20
89.5564819371
 10
173.4733073475
 20
89.6289247659
  0
LWPOLYLINE
  5
24B
330
1F
100
AcDbEntity
  8
0
  6
SLD-Gestrichelt
 62
     7
370
     0
100
AcDbPolyline
 90
        7
 70
   128
 43
0.0
 10
173.8592801444
 20
89.5507481339
 10
173.6872134697
 20
89.4486500757
 10
173.6291541374
 20
89.4452907071
 10
173.5700148059
 20
89.4664447826
 10
173.5288979193
 20
89.5039367783
 10
173.4972142763
 20
89.5564819371
 10
173.4733073475
 20
89.6289247659
  0
LINE
  5
24C
330
1F
100
AcDbEntity
  8
0
  6
SLD-Gestrichelt
 62
     7
370
     0
100
AcDbLine
 10
173.9592801444
 20
89.6425471761
 30
0.0
 11
173.8592801444
 21
89.5507481339
 31
0.0
  0
LINE
  5
24D
330
1F
100
AcDbEntity
  8
0
  6
SLD-Gestrichelt
 62
     7
370
     0
100
AcDbLine
 10
173.8592801444
 20
86.9974116988
 30
0.0
 11
173.9592801444
 21
86.9541243809
 31
0.0
  0
LINE
  5
24E
330
1F
100
AcDbEntity
  8
0
  6
SLD-Gestrichelt
 62
     7
370
     0
100
AcDbLine
 10
173.8592801444
 20
86.9974116988
 30
0.0
 11
173.9592801444
 21
86.9541243809
 31
0.0
  0
LINE
  5
24F
330
1F
100
AcDbEntity
  8
0
  6
SLD-Gestrichelt
 62
     7
370
     0
100
AcDbLine
 10
173.9592801444
 20
89.6425471761
 30
0.0
 11
173.8592801444
 21
89.5507481339
 31
0.0
  0
LINE
  5
250
330
1F
100
AcDbEntity
  8
0
  6
SLD-Gestrichelt
 62
     7
370
     0
100
AcDbLine
 10
166.8592801444
 20
88.3132575279
 30
0.0
 11
166.8592801444
 21
114.0087261799
 31
0.0
  0
ARC
  5
251
330
1F
100
AcDbEntity
  8
0
  6
SLD-Gestrichelt
 62
     7
370
     0
100
AcDbCircle
 10
173.4639713873
 20
115.5226036246
 30
0.0
 40
3.817680660533506
100
AcDbArc
 50
203.3622892751
 51
238.3245461506
  0
LINE
  5
252
330
1F
100
AcDbEntity
  8
0
  6
SLD-Gestrichelt
 62
     7
370
     0
100
AcDbLine
 10
171.4592801444
 20
112.2736193762
 30
0.0
 11
171.4592801444
 21
115.1638014975
 31
0.0
  0
LINE
  5
253
330
1F
100
AcDbEntity
  8
0
  6
SLD-Gestrichelt
 62
     7
370
     0
100
AcDbLine
 10
170.9592801444
 20
114.9604876638
 30
0.0
 11
171.4592801444
 21
115.1638014975
 31
0.0
  0
LINE
  5
254
330
1F
100
AcDbEntity
  8
0
  6
SLD-Gestrichelt
 62
     7
370
     0
100
AcDbLine
 10
170.9592801444
 20
114.9604876638
 30
0.0
 11
170.9592801444
 21
115.7159918539
 31
0.0
  0
LINE
  5
255
330
1F
100
AcDbEntity
  8
0
  6
SLD-Gestrichelt
 62
     7
370
     0
100
AcDbLine
 10
170.9592801444
 20
114.9604876638
 30
0.0
 11
171.4592801444
 21
115.1638014975
 31
0.0
  0
LINE
  5
256
330
1F
100
AcDbEntity
  8
0
  6
SLD-Gestrichelt
 62
     7
370
     0
100
AcDbLine
 10
171.4592801444
 20
112.2736193762
 30
0.0
 11
171.4592801444
 21
115.1638014975
 31
0.0
  0
ARC
  5
257
330
1F
100
AcDbEntity
  8
0
  6
SLD-Gestrichelt
 62
     7
370
     0
100
AcDbCircle
 10
173.4639713873
 20
115.5226036246
 30
0.0
 40
3.817680660533629
100
AcDbArc
 50
203.3622892751
 51
238.3245461506
  0
LINE
  5
258
330
1F
100
AcDbEntity
  8
0
  6
SLD-Gestrichelt
 62
     7
370
     0
100
AcDbLine
 10
166.8592801444
 20
88.3132575279
 30
0.0
 11
166.8592801444
 21
114.0087261799
 31
0.0
  0
ARC
  5
259
330
1F
100
AcDbEntity
  8
0
  6
SLD-Gestrichelt
 62
     7
370
     0
100
AcDbCircle
 10
174.8206829701
 20
87.5418535221
 30
0.0
 40
2.484207609091691
100
AcDbArc
 50
122.8455588557
 51
161.9092384231
  0
ARC
  5
25A
330
1F
100
AcDbEntity
  8
0
  6
SLD-Gestrichelt
 62
     7
370
     0
100
AcDbCircle
 10
174.8206829701
 20
87.5418535221
 30
0.0
 40
2.484207609091694
100
AcDbArc
 50
122.8455588557
 51
161.9092384231
  0
ARC
  5
25B
330
1F
100
AcDbEntity
  8
0
  6
SLD-Gestrichelt
 62
     7
370
     0
100
AcDbCircle
 10
121.9570915293
 20
75.8552826098
 30
0.0
 40
12.76423700278174
100
AcDbArc
 50
81.7736235187
 51
100.2787389422
  0
ARC
  5
25C
330
1F
100
AcDbEntity
  8
0
  6
SLD-Gestrichelt
 62
     7
370
     0
100
AcDbCircle
 10
121.9570915293
 20
126.466701098
 30
0.0
 40
12.76423700278561
100
AcDbArc
 50
259.7212610578
 51
278.2263764813
  0
LWPOLYLINE
  5
25D
330
1F
100
AcDbEntity
  8
0
  6
SLD-Gestrichelt
 62
     7
370
     0
100
AcDbPolyline
 90
        6
 70
   128
 43
0.0
 10
123.7834568723
 20
113.8338021474
 10
124.1418276533
 20
113.8774481915
 10
124.2542185929
 20
113.8878334168
 10
124.2590689331
 20
113.8882816012
 10
124.1203458074
 20
113.8752788805
 10
123.7834568723
 20
113.8338021474
  0
LWPOLYLINE
  5
25E
330
1F
100
AcDbEntity
  8
0
  6
SLD-Gestrichelt
 62
     7
370
     0
100
AcDbPolyline
 90
        6
 70
   128
 43
0.0
 10
123.7834568723
 20
88.4881815604
 10
124.1418276533
 20
88.4445355162
 10
124.2541206897
 20
88.4341593375
 10
124.2590689331
 20
88.4337021065
 10
124.1203458074
 20
88.4467048272
 10
123.7834568723
 20
88.4881815604
  0
LINE
  5
25F
330
1F
100
AcDbEntity
  8
0
  6
SLD-Gestrichelt
 62
     7
370
     0
100
AcDbLine
 10
127.9592801444
 20
90.6609918539
 30
0.0
 11
127.9592801444
 21
111.6609918539
 31
0.0
  0
LINE
  5
260
330
1F
100
AcDbEntity
  8
0
  6
SLD-Gestrichelt
 62
     7
370
     0
100
AcDbLine
 10
115.9619298753
 20
111.6609918539
 30
0.0
 11
115.9619298753
 21
90.6609918539
 31
0.0
  0
LINE
  5
261
330
1F
100
AcDbEntity
  8
0
  6
SLD-Gestrichelt
 62
     7
370
     0
100
AcDbLine
 10
140.4029506191
 20
113.0109918539
 30
0.0
 11
148.2384038561
 21
113.0109918539
 31
0.0
  0
LINE
  5
262
330
1F
100
AcDbEntity
  8
0
  6
SLD-Gestrichelt
 62
     7
370
     0
100
AcDbLine
 10
142.9192801444
 20
114.6768390341
 30
0.0
 11
142.9192801444
 21
118.5635958257
 31
0.0
  0
LINE
  5
263
330
1F
100
AcDbEntity
  8
0
  6
SLD-Gestrichelt
 62
     7
370
     0
100
AcDbLine
 10
144.9992801444
 20
114.6768390341
 30
0.0
 11
144.9992801445
 21
118.5635958257
 31
0.0
  0
LINE
  5
264
330
1F
100
AcDbEntity
  8
0
  6
SLD-Gestrichelt
 62
     7
370
     0
100
AcDbLine
 10
154.7092801444
 20
89.6609918539
 30
0.0
 11
154.7092801444
 21
112.6609918539
 31
0.0
  0
LINE
  5
265
330
1F
100
AcDbEntity
  8
0
  6
SLD-Gestrichelt
 62
     7
370
     0
100
AcDbLine
 10
154.7092801444
 20
109.0173920394
 30
0.0
 11
161.9592801444
 21
109.0173920394
 31
0.0
  0
LINE
  5
266
330
1F
100
AcDbEntity
  8
0
  6
SLD-Gestrichelt
 62
     7
370
     0
100
AcDbLine
 10
161.9592801444
 20
106.0379552047
 30
0.0
 11
161.9592801444
 21
109.0173920394
 31
0.0
  0
LINE
  5
267
330
1F
100
AcDbEntity
  8
0
  6
SLD-Gestrichelt
 62
     7
370
     0
100
AcDbLine
 10
161.9592801444
 20
96.2840285031
 30
0.0
 11
161.9592801444
 21
89.6609918539
 31
0.0
  0
LINE
  5
268
330
1F
100
AcDbEntity
  8
0
  6
SLD-Gestrichelt
 62
     7
370
     0
100
AcDbLine
 10
161.9592801444
 20
106.0379552047
 30
0.0
 11
161.9592801444
 21
112.6609918539
 31
0.0
  0
LINE
  5
269
330
1F
100
AcDbEntity
  8
0
  6
SLD-Gestrichelt
 62
     7
370
     0
100
AcDbLine
 10
161.9592801444
 20
110.8380811297
 30
0.0
 11
154.7092801444
 21
110.8380811297
 31
0.0
  0
LINE
  5
26A
330
1F
100
AcDbEntity
  8
0
  6
SLD-Gestrichelt
 62
     7
370
     0
100
AcDbLine
 10
166.8592801444
 20
106.0379552047
 30
0.0
 11
166.8592801444
 21
96.2840285031
 31
0.0
  0
LINE
  5
26B
330
1F
100
AcDbEntity
  8
0
  6
SLD-Gestrichelt
 62
     7
370
     0
100
AcDbLine
 10
166.8592801444
 20
106.0379552047
 30
0.0
 11
166.8592801444
 21
96.2840285031
 31
0.0
  0
LINE
  5
26C
330
1F
100
AcDbEntity
  8
0
  6
SLD-Gestrichelt
 62
     7
370
     0
100
AcDbLine
 10
108.0592801444
 20
91.2959857108
 30
0.0
 11
108.0592801444
 21
111.025997997
 31
0.0
  0
LINE
  5
26D
330
1F
100
AcDbEntity
  8
0
  6
SLD-Gestrichelt
 62
     7
370
     0
100
AcDbLine
 10
134.1286553946
 20
111.6609918539
 30
0.0
 11
134.1286553946
 21
90.6609918539
 31
0.0
  0
LINE
  5
26E
330
1F
100
AcDbEntity
  8
0
  6
SLD-Gestrichelt
 62
     7
370
     0
100
AcDbLine
 10
135.9092801444
 20
111.0359918539
 30
0.0
 11
135.9092801444
 21
91.2859918539
 31
0.0
  0
LWPOLYLINE
  5
26F
330
1F
100
AcDbEntity
  8
0
  6
SLD-Gestrichelt
 62
     7
370
     0
100
AcDbPolyline
 90
        2
 70
   128
 43
0.0
 10
135.9092801444
 20
91.2859918539
 10
135.9092801444
 20
91.2859918539
  0
LINE
  5
270
330
1F
100
AcDbEntity
  8
0
  6
SLD-Gestrichelt
 62
     7
370
     0
100
AcDbLine
 10
109.0682801444
 20
91.4388087657
 30
0.0
 11
113.2592801444
 21
91.4388087657
 31
0.0
  0
ARC
  5
271
330
1F
100
AcDbEntity
  8
0
  6
SLD-Gestrichelt
 62
     7
370
     0
100
AcDbCircle
 10
113.0342801444
 20
101.1609918539
 30
0.0
 40
10.5
100
AcDbArc
 50
247.4596895365
 51
247.8078280674
  0
LINE
  5
272
330
1F
100
AcDbEntity
  8
0
  6
SLD-Gestrichelt
 62
     7
370
     0
100
AcDbLine
 10
109.0092801444
 20
110.8588975556
 30
0.0
 11
109.0092801444
 21
91.4630861521
 31
0.0
  0
LINE
  5
273
330
1F
100
AcDbEntity
  8
0
  6
SLD-Gestrichelt
 62
     7
370
     0
100
AcDbLine
 10
110.7592801444
 20
110.8588975556
 30
0.0
 11
109.0092801444
 21
110.8588975556
 31
0.0
  0
LWPOLYLINE
  5
274
330
1F
100
AcDbEntity
  8
0
  6
SLD-Gestrichelt
 62
     7
370
     0
100
AcDbPolyline
 90
        6
 70
   128
 43
0.0
 10
111.6592801444
 20
111.1851813473
 10
111.6034994436
 20
111.082563521
 10
111.4423373756
 20
110.983325886
 10
111.193823942
 20
110.9045692485
 10
110.9020813223
 20
110.863621636
 10
110.7592801444
 20
110.8588975556
  0
LINE
  5
275
330
1F
100
AcDbEntity
  8
0
  6
SLD-Gestrichelt
 62
     7
370
     0
100
AcDbLine
 10
111.6592801444
 20
111.1851813473
 30
0.0
 11
111.6592801444
 21
111.6609918539
 31
0.0
  0
LWPOLYLINE
  5
276
330
1F
100
AcDbEntity
  8
0
  6
SLD-Gestrichelt
 62
     7
370
     0
100
AcDbPolyline
 90
        6
 70
   128
 43
0.0
 10
111.6592801444
 20
111.1851813473
 10
111.6034994436
 20
111.082563521
 10
111.4423373756
 20
110.983325886
 10
111.193823942
 20
110.9045692485
 10
110.9020813223
 20
110.863621636
 10
110.7592801444
 20
110.8588975556
  0
LINE
  5
277
330
1F
100
AcDbEntity
  8
0
  6
SLD-Gestrichelt
 62
     7
370
     0
100
AcDbLine
 10
110.7592801444
 20
110.8588975556
 30
0.0
 11
109.0092801444
 21
110.8588975556
 31
0.0
  0
ARC
  5
278
330
1F
100
AcDbEntity
  8
0
  6
SLD-Gestrichelt
 62
     7
370
     0
100
AcDbCircle
 10
113.0342801444
 20
101.1609918539
 30
0.0
 40
10.5
100
AcDbArc
 50
247.4596895365
 51
247.8078280674
  0
LINE
  5
279
330
1F
100
AcDbEntity
  8
0
  6
SLD-Gestrichelt
 62
     7
370
     0
100
AcDbLine
 10
109.0682801444
 20
91.4388087657
 30
0.0
 11
113.2592801444
 21
91.4388087657
 31
0.0
  0
LWPOLYLINE
  5
27A
330
1F
100
AcDbEntity
  8
0
  6
SLD-Gestrichelt
 62
     7
370
     0
100
AcDbPolyline
 90
        6
 70
   128
 43
0.0
 10
113.2592801444
 20
91.4388087657
 10
113.5417997349
 20
91.4203746909
 10
113.7922012904
 20
91.3693431528
 10
113.993126558
 20
91.292697412
 10
114.1242025692
 20
91.1979603079
 10
114.1592801444
 20
91.1185995094
  0
LINE
  5
27B
330
1F
100
AcDbEntity
  8
0
  6
SLD-Gestrichelt
 62
     7
370
     0
100
AcDbLine
 10
114.1592801444
 20
91.1185995094
 30
0.0
 11
114.1592801444
 21
90.6609918539
 31
0.0
  0
LWPOLYLINE
  5
27C
330
1F
100
AcDbEntity
  8
0
  6
SLD-Gestrichelt
 62
     7
370
     0
100
AcDbPolyline
 90
        6
 70
   128
 43
0.0
 10
113.2592801444
 20
91.4388087657
 10
113.5417997349
 20
91.4203746909
 10
113.7922012904
 20
91.3693431528
 10
113.993126558
 20
91.292697412
 10
114.1242025692
 20
91.1979603079
 10
114.1592801444
 20
91.1185995094
  0
LINE
  5
27D
330
1F
100
AcDbEntity
  8
0
  6
SLD-Gestrichelt
 62
     7
370
     0
100
AcDbLine
 10
109.0092801444
 20
91.4630861521
 30
0.0
 11
109.0092801444
 21
110.8588975556
 31
0.0
  0
LINE
  5
27E
330
1F
100
AcDbEntity
  8
0
  6
SLD-Gestrichelt
 62
     7
370
     0
100
AcDbLine
 10
161.9592801444
 20
96.2840285031
 30
0.0
 11
161.9592801444
 21
95.1609918539
 31
0.0
  0
LINE
  5
27F
330
1F
100
AcDbEntity
  8
0
  6
SLD-Gestrichelt
 62
     7
370
     0
100
AcDbLine
 10
161.9592801444
 20
95.1609918539
 30
0.0
 11
166.8592801444
 21
95.1609918539
 31
0.0
  0
LINE
  5
280
330
1F
100
AcDbEntity
  8
0
  6
SLD-Gestrichelt
 62
     7
370
     0
100
AcDbLine
 10
166.8592801444
 20
96.2840285031
 30
0.0
 11
166.8592801444
 21
95.1609918539
 31
0.0
  0
LINE
  5
281
330
1F
100
AcDbEntity
  8
0
  6
SLD-Gestrichelt
 62
     7
370
     0
100
AcDbLine
 10
161.9592801444
 20
107.1609918539
 30
0.0
 11
166.8592801444
 21
107.1609918539
 31
0.0
  0
LINE
  5
282
330
1F
100
AcDbEntity
  8
0
  6
SLD-Gestrichelt
 62
     7
370
     0
100
AcDbLine
 10
161.9592801444
 20
107.1609918539
 30
0.0
 11
161.9592801444
 21
106.0379552047
 31
0.0
  0
LINE
  5
283
330
1F
100
AcDbEntity
  8
0
  6
SLD-Gestrichelt
 62
     7
370
     0
100
AcDbLine
 10
166.8592801444
 20
107.1609918539
 30
0.0
 11
166.8592801444
 21
106.0379552047
 31
0.0
  0
LINE
  5
284
330
1F
100
AcDbEntity
  8
0
  6
SLD-Gestrichelt
 62
     7
370
     0
100
AcDbLine
 10
170.9592801444
 20
112.243321257
 30
0.0
 11
170.9592801444
 21
114.9604876638
 31
0.0
  0
LINE
  5
285
330
1F
100
AcDbEntity
  8
0
  6
SLD-Gestrichelt
 62
     7
370
     0
100
AcDbLine
 10
169.9592801444
 20
112.243321257
 30
0.0
 11
169.9592801444
 21
114.243321257
 31
0.0
  0
LINE
  5
286
330
1F
100
AcDbEntity
  8
0
  6
SLD-Gestrichelt
 62
     7
370
     0
100
AcDbLine
 10
171.4592801444
 20
112.2736193762
 30
0.0
 11
171.4592801444
 21
115.743321257
 31
0.0
  0
LINE
  5
287
330
1F
100
AcDbEntity
  8
0
  6
SLD-Gestrichelt
 62
     7
370
     0
100
AcDbLine
 10
172.4592801444
 20
90.0786624507
 30
0.0
 11
172.4592801444
 21
88.0786624507
 31
0.0
  0
LINE
  5
288
330
1F
100
AcDbEntity
  8
0
  6
SLD-Gestrichelt
 62
     7
370
     0
100
AcDbLine
 10
173.4592801444
 20
90.0786624507
 30
0.0
 11
173.4592801444
 21
87.4279483835
 31
0.0
  0
ARC
  5
289
330
1F
100
AcDbEntity
  8
0
  6
SLD-Gestrichelt
 62
     7
370
     0
100
AcDbCircle
 10
174.0616889079
 20
87.5865471496
 30
0.0
 40
0.6229365031388474
100
AcDbArc
 50
194.749802054
 51
251.0388598551
  0
LWPOLYLINE
  5
28A
330
1F
100
AcDbEntity
  8
0
  6
SLD-Gestrichelt
 62
     7
370
     0
100
AcDbPolyline
 90
        2
 70
   128
 43
0.0
 10
161.9592801444
 20
95.1609918539
 10
161.9592801444
 20
95.1609918539
  0
LWPOLYLINE
  5
28B
330
1F
100
AcDbEntity
  8
0
  6
SLD-Gestrichelt
 62
     7
370
     0
100
AcDbPolyline
 90
        2
 70
   128
 43
0.0
 10
166.8592801444
 20
95.1609918539
 10
166.8592801444
 20
95.1609918539
  0
LWPOLYLINE
  5
28C
330
1F
100
AcDbEntity
  8
0
  6
SLD-Gestrichelt
 62
     7
370
     0
100
AcDbPolyline
 90
        2
 70
   128
 43
0.0
 10
161.9592801444
 20
107.1609918539
 10
161.9592801444
 20
107.1609918539
  0
LWPOLYLINE
  5
28D
330
1F
100
AcDbEntity
  8
0
  6
SLD-Gestrichelt
 62
     7
370
     0
100
AcDbPolyline
 90
        2
 70
   128
 43
0.0
 10
166.8592801444
 20
107.1609918539
 10
166.8592801444
 20
107.1609918539
  0
LINE
  5
28E
330
1F
100
AcDbEntity
  8
0
  6
SLD-Gestrichelt
 62
     7
370
     0
100
AcDbLine
 10
153.7092801444
 20
108.6609918539
 30
0.0
 11
153.7092801444
 21
93.6609918539
 31
0.0
  0
LINE
  5
28F
330
1F
100
AcDbEntity
  8
0
  6
SLD-Gestrichelt
 62
     7
370
     0
100
AcDbLine
 10
154.7092801444
 20
109.2246765248
 30
0.0
 11
154.7092801444
 21
93.0973071829
 31
0.0
  0
LINE
  5
290
330
1F
100
AcDbEntity
  8
0
  6
SLD-Gestrichelt
 62
     7
370
     0
100
AcDbLine
 10
145.9592801444
 20
108.5109918539
 30
0.0
 11
145.9592801444
 21
93.8109918539
 31
0.0
  0
LINE
  5
291
330
1F
100
AcDbEntity
  8
0
  6
SLD-Gestrichelt
 62
     7
370
     0
100
AcDbLine
 10
147.9592801444
 20
108.6609918539
 30
0.0
 11
147.9592801444
 21
93.6609918539
 31
0.0
  0
LINE
  5
292
330
1F
100
AcDbEntity
  8
0
  6
SLD-Gestrichelt
 62
     7
370
     0
100
AcDbLine
 10
166.8592801444
 20
90.0786624507
 30
0.0
 11
166.8592801444
 21
88.0786624507
 31
0.0
  0
LINE
  5
293
330
1F
100
AcDbEntity
  8
0
  6
SLD-Gestrichelt
 62
     7
370
     0
100
AcDbLine
 10
166.8592801444
 20
112.243321257
 30
0.0
 11
166.8592801444
 21
114.243321257
 31
0.0
  0
LINE
  5
294
330
1F
100
AcDbEntity
  8
0
  6
SLD-Gestrichelt
 62
     7
370
     0
100
AcDbLine
 10
111.6592801444
 20
112.1609918539
 30
0.0
 11
111.6592801444
 21
114.7185159756
 31
0.0
  0
LINE
  5
295
330
1F
100
AcDbEntity
  8
0
  6
SLD-Gestrichelt
 62
     7
370
     0
100
AcDbLine
 10
114.1592801444
 20
90.1609918539
 30
0.0
 11
114.1592801444
 21
87.5242451558
 31
0.0
  0
LINE
  5
296
330
1F
100
AcDbEntity
  8
0
  6
SLD-Gestrichelt
 62
     7
370
     0
100
AcDbLine
 10
109.0092801444
 20
112.1609918539
 30
0.0
 11
109.0092801444
 21
114.0409918539
 31
0.0
  0
LINE
  5
297
330
1F
100
AcDbEntity
  8
0
  6
SLD-Gestrichelt
 62
     7
370
     0
100
AcDbLine
 10
108.0592801444
 20
112.1609918539
 30
0.0
 11
108.0592801444
 21
113.0909918539
 31
0.0
  0
LINE
  5
298
330
1F
100
AcDbEntity
  8
0
  6
SLD-Gestrichelt
 62
     7
370
     0
100
AcDbLine
 10
109.0682801444
 20
90.1609918539
 30
0.0
 11
109.0682801444
 21
88.2809918539
 31
0.0
  0
LINE
  5
299
330
1F
100
AcDbEntity
  8
0
  6
SLD-Gestrichelt
 62
     7
370
     0
100
AcDbLine
 10
108.0592801444
 20
90.1609918539
 30
0.0
 11
108.0592801444
 21
89.2899918539
 31
0.0
  0
LINE
  5
29A
330
1F
100
AcDbEntity
  8
0
  6
SLD-Gestrichelt
 62
     7
370
     0
100
AcDbLine
 10
141.2592801444
 20
107.4109918539
 30
0.0
 11
141.2592801444
 21
94.9109918539
 31
0.0
  0
LINE
  5
29B
330
1F
100
AcDbEntity
  8
0
  6
SLD-Gestrichelt
 62
     7
370
     0
100
AcDbLine
 10
143.7592801444
 20
107.4109918539
 30
0.0
 11
143.7592801444
 21
94.9109918539
 31
0.0
  0
LINE
  5
29C
330
1F
100
AcDbEntity
  8
0
  6
SLD-Gestrichelt
 62
     7
370
     0
100
AcDbLine
 10
136.4092801444
 20
106.6609918539
 30
0.0
 11
136.4092801444
 21
95.6609918539
 31
0.0
  0
LINE
  5
29D
330
1F
100
AcDbEntity
  8
0
  6
SLD-Gestrichelt
 62
     7
370
     0
100
AcDbLine
 10
135.9092801444
 20
95.1609918539
 30
0.0
 11
135.9092801444
 21
107.1475931256
 31
0.0
  0
LWPOLYLINE
  5
29E
330
1F
100
AcDbEntity
  8
0
  6
SLD-Gestrichelt
 62
     7
370
     0
100
AcDbPolyline
 90
        2
 70
   128
 43
0.0
 10
147.9092801444
 20
84.2609918539
 10
147.9092801444
 20
84.2609918539
  0
LINE
  5
29F
330
1F
100
AcDbEntity
  8
0
  6
SLD-Gestrichelt
 62
     7
370
     0
100
AcDbLine
 10
135.9092801444
 20
81.1860074984
 30
0.0
 11
135.9092801444
 21
84.2609918539
 31
0.0
  0
LINE
  5
2A0
330
1F
100
AcDbEntity
  8
0
  6
SLD-Gestrichelt
 62
     7
370
     0
100
AcDbLine
 10
140.4092801444
 20
84.2609918539
 30
0.0
 11
135.9092801444
 21
84.2609918539
 31
0.0
  0
LINE
  5
2A1
330
1F
100
AcDbEntity
  8
0
  6
SLD-Gestrichelt
 62
     7
370
     0
100
AcDbLine
 10
142.954502545
 20
84.2609918539
 30
0.0
 11
140.4092801444
 21
84.2609918539
 31
0.0
  0
LINE
  5
2A2
330
1F
100
AcDbEntity
  8
0
  6
SLD-Gestrichelt
 62
     7
370
     0
100
AcDbLine
 10
142.9192801444
 20
84.0481129318
 30
0.0
 11
142.9192801444
 21
83.7318684659
 31
0.0
  0
LINE
  5
2A3
330
1F
100
AcDbEntity
  8
0
  6
SLD-Gestrichelt
 62
     7
370
     0
100
AcDbLine
 10
141.2592801444
 20
95.6609918539
 30
0.0
 11
141.2592801444
 21
106.6475941303
 31
0.0
  0
LINE
  5
2A4
330
1F
100
AcDbEntity
  8
0
  6
SLD-Gestrichelt
 62
     7
370
     0
100
AcDbLine
 10
147.9092801444
 20
84.2609918539
 30
0.0
 11
144.9640577439
 21
84.2609918539
 31
0.0
  0
LINE
  5
2A5
330
1F
100
AcDbEntity
  8
0
  6
SLD-Gestrichelt
 62
     7
370
     0
100
AcDbLine
 10
144.9992801444
 20
83.7318684659
 30
0.0
 11
144.9992801444
 21
84.0481129318
 31
0.0
  0
LINE
  5
2A6
330
1F
100
AcDbEntity
  8
0
  6
SLD-Gestrichelt
 62
     7
370
     0
100
AcDbLine
 10
147.9092801444
 20
84.2609918539
 30
0.0
 11
147.9092801444
 21
82.5569600328
 31
0.0
  0
LINE
  5
2A7
330
1F
100
AcDbEntity
  8
0
  6
SLD-Gestrichelt
 62
     7
370
     0
100
AcDbLine
 10
166.8592801444
 20
107.1609918539
 30
0.0
 11
161.9592801444
 21
107.1609918539
 31
0.0
  0
LINE
  5
2A8
330
1F
100
AcDbEntity
  8
0
  6
SLD-Gestrichelt
 62
     7
370
     0
100
AcDbLine
 10
166.8592801444
 20
107.1609918539
 30
0.0
 11
161.9592801444
 21
107.1609918539
 31
0.0
  0
LINE
  5
2A9
330
1F
100
AcDbEntity
  8
0
  6
SLD-Gestrichelt
 62
     7
370
     0
100
AcDbLine
 10
161.9592801444
 20
107.1609918539
 30
0.0
 11
161.9592801444
 21
109.1609918539
 31
0.0
  0
LINE
  5
2AA
330
1F
100
AcDbEntity
  8
0
  6
SLD-Gestrichelt
 62
     7
370
     0
100
AcDbLine
 10
166.8592801444
 20
107.1609918539
 30
0.0
 11
166.8592801444
 21
109.1609918539
 31
0.0
  0
LINE
  5
2AB
330
1F
100
AcDbEntity
  8
0
  6
SLD-Gestrichelt
 62
     7
370
     0
100
AcDbLine
 10
166.8592801444
 20
94.2162195484
 30
0.0
 11
161.9592801444
 21
94.2162195484
 31
0.0
  0
LINE
  5
2AC
330
1F
100
AcDbEntity
  8
0
  6
SLD-Gestrichelt
 62
     7
370
     0
100
AcDbLine
 10
161.9592801444
 20
95.1609918539
 30
0.0
 11
166.8592801444
 21
95.1609918539
 31
0.0
  0
LINE
  5
2AD
330
1F
100
AcDbEntity
  8
0
  6
SLD-Gestrichelt
 62
     7
370
     0
100
AcDbLine
 10
161.9592801444
 20
95.1609918539
 30
0.0
 11
161.9592801444
 21
93.1630296068
 31
0.0
  0
LINE
  5
2AE
330
1F
100
AcDbEntity
  8
0
  6
SLD-Gestrichelt
 62
     7
370
     0
100
AcDbLine
 10
166.8592801444
 20
95.1609918539
 30
0.0
 11
166.8592801444
 21
93.1630296068
 31
0.0
  0
ELLIPSE
  5
2AF
330
1F
100
AcDbEntity
  8
0
  6
SLD-Gestrichelt
 62
     7
370
     0
100
AcDbEllipse
 10
105.9535134047
 20
101.1609918539
 30
0.0
 11
12.26424774976734
 21
0.0
 31
0.0
210
0.0
220
0.0
230
1.0
 40
0.8164965809
 41
4.884943637108986
 42
4.964202354313275
  0
LINE
  5
2B0
330
1F
100
AcDbEntity
  8
0
  6
SLD-Gestrichelt
 62
     7
370
     0
100
AcDbLine
 10
108.0592801444
 20
90.1609918539
 30
0.0
 11
108.0592801444
 21
91.2959857108
 31
0.0
  0
ELLIPSE
  5
2B1
330
1F
100
AcDbEntity
  8
0
  6
SLD-Gestrichelt
 62
     7
370
     0
100
AcDbEllipse
 10
105.9535134047
 20
101.1609918539
 30
0.0
 11
12.26424774976735
 21
0.0
 31
0.0
210
0.0
220
0.0
230
1.0
 40
0.8164965809
 41
1.318982952866323
 42
1.398241670070613
  0
LINE
  5
2B2
330
1F
100
AcDbEntity
  8
0
  6
SLD-Gestrichelt
 62
     7
370
     0
100
AcDbLine
 10
108.0592801444
 20
112.1609918539
 30
0.0
 11
108.0592801444
 21
111.025997997
 31
0.0
  0
LINE
  5
2B3
330
1F
100
AcDbEntity
  8
0
  6
SLD-Gestrichelt
 62
     7
370
     0
100
AcDbLine
 10
173.4592801444
 20
87.4279483835
 30
0.0
 11
173.4592801444
 21
86.7109918539
 31
0.0
  0
ARC
  5
2B4
330
1F
100
AcDbEntity
  8
0
  6
SLD-Gestrichelt
 62
     7
370
     0
100
AcDbCircle
 10
174.0616889079
 20
87.5865471496
 30
0.0
 40
0.6229365031390376
100
AcDbArc
 50
194.749802054
 51
251.0388598551
  0
LINE
  5
2B5
330
1F
100
AcDbEntity
  8
0
  6
SLD-Gestrichelt
 62
     7
370
     0
100
AcDbLine
 10
147.9093422676
 20
118.0609918539
 30
0.0
 11
144.7509357587
 21
118.0609918539
 31
0.0
  0
LINE
  5
2B6
330
1F
100
AcDbEntity
  8
0
  6
SLD-Gestrichelt
 62
     7
370
     0
100
AcDbLine
 10
147.9092801444
 20
118.0725263792
 30
0.0
 11
147.9092801444
 21
120.031868887
 31
0.0
  0
LINE
  5
2B7
330
1F
100
AcDbEntity
  8
0
  6
SLD-Gestrichelt
 62
     7
370
     0
100
AcDbLine
 10
144.9992801444
 20
118.8746685494
 30
0.0
 11
144.9992801445
 21
118.5635958257
 31
0.0
  0
LINE
  5
2B8
330
1F
100
AcDbEntity
  8
0
  6
SLD-Gestrichelt
 62
     7
370
     0
100
AcDbLine
 10
143.1676245302
 20
118.0609918539
 30
0.0
 11
140.4092801444
 21
118.0609918539
 31
0.0
  0
LINE
  5
2B9
330
1F
100
AcDbEntity
  8
0
  6
SLD-Gestrichelt
 62
     7
370
     0
100
AcDbLine
 10
142.9192801444
 20
118.5635958257
 30
0.0
 11
142.9192801444
 21
118.8746685494
 31
0.0
  0
LINE
  5
2BA
330
1F
100
AcDbEntity
  8
0
  6
SLD-Gestrichelt
 62
     7
370
     0
100
AcDbLine
 10
140.4092801444
 20
118.0609918539
 30
0.0
 11
135.9092801444
 21
118.0609918539
 31
0.0
  0
LINE
  5
2BB
330
1F
100
AcDbEntity
  8
0
  6
SLD-Gestrichelt
 62
     7
370
     0
100
AcDbLine
 10
109.0092801444
 20
112.1609918539
 30
0.0
 11
109.0092801444
 21
110.8588975556
 31
0.0
  0
LINE
  5
2BC
330
1F
100
AcDbEntity
  8
0
  6
SLD-Gestrichelt
 62
     7
370
     0
100
AcDbLine
 10
111.6592801444
 20
112.1609918539
 30
0.0
 11
111.6592801444
 21
111.1851813473
 31
0.0
  0
LINE
  5
2BD
330
1F
100
AcDbEntity
  8
0
  6
SLD-Gestrichelt
 62
     7
370
     0
100
AcDbLine
 10
109.0682801444
 20
90.1609918539
 30
0.0
 11
109.0682801444
 21
91.4388087657
 31
0.0
  0
LINE
  5
2BE
330
1F
100
AcDbEntity
  8
0
  6
SLD-Gestrichelt
 62
     7
370
     0
100
AcDbLine
 10
114.1592801444
 20
90.1609918539
 30
0.0
 11
114.1592801444
 21
91.1185995094
 31
0.0
  0
LINE
  5
2BF
330
1F
100
AcDbEntity
  8
0
  6
SLD-Gestrichelt
 62
     7
370
     0
100
AcDbLine
 10
169.9592801444
 20
112.243321257
 30
0.0
 11
169.9592801444
 21
110.855964778
 31
0.0
  0
ARC
  5
2C0
330
1F
100
AcDbEntity
  8
0
  6
SLD-Gestrichelt
 62
     7
370
     0
100
AcDbCircle
 10
173.8592801444
 20
101.1609918539
 30
0.0
 40
10.45000000000003
100
AcDbArc
 50
106.1117667779
 51
111.9134600513
  0
LINE
  5
2C1
330
1F
100
AcDbEntity
  8
0
  6
SLD-Gestrichelt
 62
     7
370
     0
100
AcDbLine
 10
170.9592801444
 20
112.243321257
 30
0.0
 11
170.9592801444
 21
111.2005386564
 31
0.0
  0
ARC
  5
2C2
330
1F
100
AcDbEntity
  8
0
  6
SLD-Gestrichelt
 62
     7
370
     0
100
AcDbCircle
 10
173.8592801444
 20
101.1609918539
 30
0.0
 40
10.45000000000002
100
AcDbArc
 50
106.1117667779
 51
111.9134600513
  0
LINE
  5
2C3
330
1F
100
AcDbEntity
  8
0
  6
SLD-Gestrichelt
 62
     7
370
     0
100
AcDbLine
 10
166.8592801444
 20
110.855964778
 30
0.0
 11
169.9592801444
 21
110.855964778
 31
0.0
  0
LINE
  5
2C4
330
1F
100
AcDbEntity
  8
0
  6
SLD-Gestrichelt
 62
     7
370
     0
100
AcDbLine
 10
166.8592801444
 20
110.855964778
 30
0.0
 11
169.9592801444
 21
110.855964778
 31
0.0
  0
LINE
  5
2C5
330
1F
100
AcDbEntity
  8
0
  6
SLD-Gestrichelt
 62
     7
370
     0
100
AcDbLine
 10
170.9592801444
 20
111.2005386564
 30
0.0
 11
170.9592801444
 21
111.6109918539
 31
0.0
  0
LINE
  5
2C6
330
1F
100
AcDbEntity
  8
0
  6
SLD-Gestrichelt
 62
     7
370
     0
100
AcDbLine
 10
166.8592801444
 20
110.855964778
 30
0.0
 11
166.8592801444
 21
111.6109918539
 31
0.0
  0
LINE
  5
2C7
330
1F
100
AcDbEntity
  8
0
  6
SLD-Gestrichelt
 62
     7
370
     0
100
AcDbLine
 10
166.8592801444
 20
112.243321257
 30
0.0
 11
166.8592801444
 21
110.855964778
 31
0.0
  0
LINE
  5
2C8
330
1F
100
AcDbEntity
  8
0
  6
SLD-Gestrichelt
 62
     7
370
     0
100
AcDbLine
 10
172.4592801444
 20
91.4660189297
 30
0.0
 11
166.8592801444
 21
91.4660189297
 31
0.0
  0
LINE
  5
2C9
330
1F
100
AcDbEntity
  8
0
  6
SLD-Gestrichelt
 62
     7
370
     0
100
AcDbLine
 10
172.4592801444
 20
90.0786624507
 30
0.0
 11
172.4592801444
 21
91.4660189297
 31
0.0
  0
LINE
  5
2CA
330
1F
100
AcDbEntity
  8
0
  6
SLD-Gestrichelt
 62
     7
370
     0
100
AcDbLine
 10
166.8592801444
 20
91.4660189297
 30
0.0
 11
166.8592801444
 21
90.0786624507
 31
0.0
  0
ARC
  5
2CB
330
1F
100
AcDbEntity
  8
0
  6
SLD-Gestrichelt
 62
     7
370
     0
100
AcDbCircle
 10
176.3592801444
 20
101.1609918539
 30
0.0
 40
10.45000000000003
100
AcDbArc
 50
248.0865399487
 51
253.8882332221
  0
LINE
  5
2CC
330
1F
100
AcDbEntity
  8
0
  6
SLD-Gestrichelt
 62
     7
370
     0
100
AcDbLine
 10
173.4592801444
 20
90.0786624507
 30
0.0
 11
173.4592801444
 21
91.1214450514
 31
0.0
  0
LINE
  5
2CD
330
1F
100
AcDbEntity
  8
0
  6
SLD-Gestrichelt
 62
     7
370
     0
100
AcDbLine
 10
172.4592801444
 20
91.4660189297
 30
0.0
 11
166.8592801444
 21
91.4660189297
 31
0.0
  0
ARC
  5
2CE
330
1F
100
AcDbEntity
  8
0
  6
SLD-Gestrichelt
 62
     7
370
     0
100
AcDbCircle
 10
176.3592801444
 20
101.1609918539
 30
0.0
 40
10.45000000000002
100
AcDbArc
 50
248.0865399487
 51
253.8882332221
  0
LINE
  5
2CF
330
1F
100
AcDbEntity
  8
0
  6
SLD-Gestrichelt
 62
     7
370
     0
100
AcDbLine
 10
173.4592801444
 20
91.1214450514
 30
0.0
 11
173.4592801444
 21
90.7109918539
 31
0.0
  0
LINE
  5
2D0
330
1F
100
AcDbEntity
  8
0
  6
SLD-Gestrichelt
 62
     7
370
     0
100
AcDbLine
 10
166.8592801444
 20
91.4660189297
 30
0.0
 11
166.8592801444
 21
90.7109918539
 31
0.0
  0
LINE
  5
2D1
330
1F
100
AcDbEntity
  8
0
  6
SLD-Gestrichelt
 62
     7
370
     0
100
AcDbLine
 10
178.4592801444
 20
120.6609918539
 30
0.0
 11
185.4592801444
 21
120.6609918539
 31
0.0
  0
LWPOLYLINE
  5
2D2
330
1F
100
AcDbEntity
  8
0
  6
SLD-Gestrichelt
 62
     7
370
     0
100
AcDbPolyline
 90
        2
 70
   128
 43
0.0
 10
185.4592801444
 20
120.6609918539
 10
185.4592801444
 20
120.6609918539
  0
LINE
  5
2D3
330
1F
100
AcDbEntity
  8
0
  6
SLD-Gestrichelt
 62
     7
370
     0
100
AcDbLine
 10
179.8592801444
 20
119.2609918539
 30
0.0
 11
184.0592801444
 21
119.2609918539
 31
0.0
  0
LINE
  5
2D4
330
1F
100
AcDbEntity
  8
0
  6
SLD-Gestrichelt
 62
     7
370
     0
100
AcDbLine
 10
178.4592801444
 20
81.6609918539
 30
0.0
 11
185.4592801444
 21
81.6609918539
 31
0.0
  0
LWPOLYLINE
  5
2D5
330
1F
100
AcDbEntity
  8
0
  6
SLD-Gestrichelt
 62
     7
370
     0
100
AcDbPolyline
 90
        2
 70
   128
 43
0.0
 10
185.4592801444
 20
81.6609918539
 10
185.4592801444
 20
81.6609918539
  0
LINE
  5
2D6
330
1F
100
AcDbEntity
  8
0
  6
SLD-Gestrichelt
 62
     7
370
     0
100
AcDbLine
 10
179.8592801444
 20
83.0609918539
 30
0.0
 11
184.0592801444
 21
83.0609918539
 31
0.0
  0
LWPOLYLINE
  5
2D7
330
1F
100
AcDbEntity
  8
0
  6
SLD-Gestrichelt
 62
     7
370
     0
100
AcDbPolyline
 90
       53
 70
   128
 43
0.0
 10
119.837964841
 20
86.9251980477
 10
120.0436538843
 20
86.9551671884
 10
120.4237887731
 20
86.9975032448
 10
120.8254718067
 20
87.0266653797
 10
121.1970371966
 20
87.042653593
 10
121.5070443072
 20
87.0454678848
 10
122.3333482905
 20
86.9953032537
 10
122.7849156511
 20
86.9403247526
 10
123.0108684096
 20
86.9053614557
 10
123.2320423989
 20
86.8654154612
 10
123.6666843649
 20
86.7735921795
 10
123.9124135734
 20
86.7122496964
 10
124.0862745502
 20
86.6651826648
 10
124.2178352094
 20
86.6277186204
 10
124.2193416144
 20
86.6275784948
 10
124.220778118
 20
86.6274448715
 10
124.0956444965
 20
86.6623008054
 10
123.9984208146
 20
86.688320568
 10
123.9409270554
 20
86.7034783982
 10
123.9099487843
 20
86.7115943005
 10
123.8939015648
 20
86.7157864985
 10
123.8857384783
 20
86.7179161591
 10
123.8816220761
 20
86.7189893799
 10
123.8795551619
 20
86.7195280879
 10
123.8785195267
 20
86.7197979663
 10
123.8780011646
 20
86.7199330366
 10
123.8777418475
 20
86.7200006045
 10
123.8776121548
 20
86.7200343967
 10
123.8775473
 20
86.7200512948
 10
123.8775148705
 20
86.7200597444
 10
123.8774986552
 20
86.7200639693
 10
123.8774905474
 20
86.7200660818
 10
123.8774824396
 20
86.7200681943
 10
123.8175893046
 20
86.7359320595
 10
123.7026569493
 20
86.7648567534
 10
123.518530022
 20
86.8068422761
 10
123.2481714873
 20
86.8618886275
 10
122.806849535
 20
86.9373807196
 10
122.42296617
 20
86.9881619835
 10
121.5506203776
 20
87.0433107432
 10
121.110186511
 20
87.0424939858
 10
120.9673594678
 20
87.0380156389
 10
120.8278003035
 20
87.0314342448
 10
120.6923022459
 20
87.0227498035
 10
120.4498615902
 20
87.0014859055
 10
120.2618449331
 20
86.9821072956
 10
120.0537562412
 20
86.9568975785
 10
119.8196506314
 20
86.9225077095
 10
119.7055716271
 20
86.9028010681
 10
119.6976651478
 20
86.9023817038
 10
119.6912312055
 20
86.9020404437
 10
119.815108799
 20
86.9218678949
 10
119.837964841
 20
86.9251980477
  0
LWPOLYLINE
  5
2D8
330
1F
100
AcDbEntity
  8
0
  6
SLD-Gestrichelt
 62
     7
370
     0
100
AcDbPolyline
 90
       47
 70
   128
 43
0.0
 10
120.4201205521
 20
115.3240460937
 10
120.0436515092
 20
115.3667454929
 10
119.8174995938
 20
115.3997110703
 10
119.8151931244
 20
115.4000472784
 10
119.6913324834
 20
115.4198863777
 10
119.6639315344
 20
115.425443193
 10
119.6598900534
 20
115.426262791
 10
119.7052173012
 20
115.4191765183
 10
119.7500161362
 20
115.4111774705
 10
119.8187603079
 20
115.399496857
 10
119.9175671692
 20
115.3841346778
 10
120.0525866772
 20
115.3650909329
 10
120.2844479302
 20
115.3372733434
 10
120.4880049498
 20
115.3167485835
 10
120.5739802577
 20
115.3089080358
 10
120.6423067088
 20
115.3030684684
 10
120.6912450246
 20
115.2992298816
 10
121.1092546004
 20
115.2794798203
 10
121.5500412902
 20
115.2786604167
 10
121.9939321911
 20
115.2967716707
 10
122.4236428946
 20
115.3338135824
 10
122.6058768118
 20
115.3560465337
 10
122.8066947496
 20
115.384442327
 10
123.0221436277
 20
115.4190009624
 10
123.2467543338
 20
115.4597224397
 10
123.5428884608
 20
115.5203835891
 10
123.733751867
 20
115.5646856524
 10
123.7996898878
 20
115.5813626988
 10
123.8460746452
 20
115.5935511978
 10
123.8751420683
 20
115.6012511493
 10
124.0942452511
 20
115.6591248202
 10
124.2202999038
 20
115.6941293907
 10
124.2584355624
 20
115.7060037912
 10
124.2592653726
 20
115.7062621713
 10
124.2222454127
 20
115.6948857122
 10
124.1002842751
 20
115.6596266488
 10
123.8748969359
 20
115.6004849809
 10
123.5806442977
 20
115.5319920743
 10
123.2332576727
 20
115.4638609251
 10
122.8374357379
 20
115.3942784407
 10
122.4359852358
 20
115.3316241913
 10
122.0135156313
 20
115.2930282684
 10
121.5471180112
 20
115.2761253676
 10
121.1153811215
 20
115.2794150282
 10
121.1142386329
 20
115.2794705552
 10
120.7960326099
 20
115.2949359388
 10
120.4201205521
 20
115.3240460937
  0
LWPOLYLINE
  5
2D9
330
1F
100
AcDbEntity
  8
0
  6
SLD-Gestrichelt
 62
     7
370
     0
100
AcDbPolyline
 90
       28
 70
   128
 43
0.0
 10
180.1619869053
 20
116.4037290204
 10
180.4973195127
 20
116.3703400992
 10
180.6858867446
 20
116.3576897668
 10
180.8620129423
 20
116.345874061
 10
181.2487556842
 20
116.3351101581
 10
181.9954445222
 20
116.3546887584
 10
182.6384652347
 20
116.4237485486
 10
183.0474546578
 20
116.4852745667
 10
183.4652015311
 20
116.5647980002
 10
183.7507768866
 20
116.6298228653
 10
183.9359124266
 20
116.6759168719
 10
184.0555000781
 20
116.7102620806
 10
184.0591575655
 20
116.7113124998
 10
183.9197969603
 20
116.6712437269
 10
183.7237515009
 20
116.6229970105
 10
183.424136968
 20
116.5559420741
 10
183.0093986652
 20
116.4783469113
 10
182.6004843202
 20
116.4182895332
 10
181.9348220159
 20
116.3507881314
 10
181.1998138242
 20
116.3358606281
 10
180.8161013938
 20
116.3483821729
 10
180.4545248685
 20
116.3742272487
 10
180.1401380851
 20
116.4067919688
 10
179.9588459716
 20
116.4298780557
 10
179.8637938696
 20
116.4468464186
 10
179.8594922416
 20
116.4476143299
 10
179.9704182268
 20
116.4277376992
 10
180.1619869053
 20
116.4037290204
  0
LWPOLYLINE
  5
2DA
330
1F
100
AcDbEntity
  8
0
  6
SLD-Gestrichelt
 62
     7
370
     0
100
AcDbPolyline
 90
       27
 70
   128
 43
0.0
 10
180.6364650726
 20
85.9398208098
 10
180.4978449974
 20
85.9309548756
 10
180.1621059006
 20
85.8982067981
 10
179.9704218356
 20
85.8746514597
 10
179.8594982916
 20
85.8551189999
 10
179.863861555
 20
85.8558843804
 10
179.9584707767
 20
85.8724802263
 10
180.1396092784
 20
85.8951218873
 10
180.4541787945
 20
85.9270709136
 10
180.8154561325
 20
85.9523402241
 10
181.1990485998
 20
85.9644931376
 10
181.9345629264
 20
85.9494497734
 10
182.5996711015
 20
85.8827200291
 10
183.0086861212
 20
85.8233699182
 10
183.4237267846
 20
85.7466963148
 10
183.7234038307
 20
85.6804900895
 10
183.9195543634
 20
85.6328446718
 10
184.0591504542
 20
85.5932362594
 10
184.0552517994
 20
85.5943048905
 10
183.9223965456
 20
85.6307208512
 10
183.7225757291
 20
85.6795890886
 10
183.4657963654
 20
85.7351530805
 10
182.7950835944
 20
85.8584941026
 10
182.0903777644
 20
85.940446019
 10
181.278499303
 20
85.9644692476
 10
180.8722968738
 20
85.9549042617
 10
180.6364650726
 20
85.9398208098
  0
LINE
  5
2DB
330
1F
100
AcDbEntity
  8
0
  6
SLD-Gestrichelt
 62
     7
370
     0
100
AcDbLine
 10
143.7592801444
 20
98.6609918539
 30
0.0
 11
143.7592801444
 21
103.6609918539
 31
0.0
  0
LINE
  5
2DC
330
1F
100
AcDbEntity
  8
0
  6
SLD-Gestrichelt
 62
     7
370
     0
100
AcDbLine
 10
145.9592801444
 20
103.6472965923
 30
0.0
 11
145.9592801444
 21
98.6746871155
 31
0.0
  0
LWPOLYLINE
  5
2DD
330
1F
100
AcDbEntity
  8
0
  6
SLD-Gestrichelt
 62
     7
370
     0
100
AcDbPolyline
 90
        2
 70
   128
 43
0.0
 10
135.9092801444
 20
84.2609918539
 10
135.9092801444
 20
84.2609918539
  0
LINE
  5
2DE
330
1F
100
AcDbEntity
  8
0
  6
SLD-Gestrichelt
 62
     7
370
     0
100
AcDbLine
 10
135.9092801444
 20
81.1860074984
 30
0.0
 11
135.9092801444
 21
84.2609918539
 31
0.0
  0
LINE
  5
2DF
330
1F
100
AcDbEntity
  8
0
  6
SLD-Gestrichelt
 62
     7
370
     0
100
AcDbLine
 10
135.9092801444
 20
84.2609918539
 30
0.0
 11
140.4092801444
 21
84.2609918539
 31
0.0
  0
LINE
  5
2E0
330
1F
100
AcDbEntity
  8
0
  6
SLD-Gestrichelt
 62
     7
370
     0
100
AcDbLine
 10
173.4592801444
 20
90.0786624507
 30
0.0
 11
173.4592801444
 21
91.1214450514
 31
0.0
  0
LINE
  5
2E1
330
1F
100
AcDbEntity
  8
0
  6
SLD-Gestrichelt
 62
     7
370
     0
100
AcDbLine
 10
173.9592801444
 20
89.6425471761
 30
0.0
 11
173.9592801444
 21
86.5838346746
 31
0.0
  0
LINE
  5
2E2
330
1F
100
AcDbEntity
  8
0
  6
SLD-Gestrichelt
 62
     7
370
     0
100
AcDbLine
 10
172.4592801444
 20
90.0786624507
 30
0.0
 11
172.4592801444
 21
88.0793274618
 31
0.0
  0
LINE
  5
2E3
330
1F
100
AcDbEntity
  8
0
  6
SLD-Gestrichelt
 62
     7
370
     0
100
AcDbLine
 10
173.4592801444
 20
90.0786624507
 30
0.0
 11
173.4592801444
 21
87.4279483835
 31
0.0
  0
LINE
  5
2E4
330
1F
100
AcDbEntity
  8
0
  6
SLD-Gestrichelt
 62
     7
370
     0
100
AcDbLine
 10
169.9592801444
 20
112.243321257
 30
0.0
 11
169.9592801444
 21
114.2426562459
 31
0.0
  0
LINE
  5
2E5
330
1F
100
AcDbEntity
  8
0
  6
SLD-Gestrichelt
 62
     7
370
     0
100
AcDbLine
 10
171.4592801444
 20
112.2736193762
 30
0.0
 11
171.4592801444
 21
115.7394152161
 31
0.0
  0
LINE
  5
2E6
330
1F
100
AcDbEntity
  8
0
  6
SLD-Gestrichelt
 62
     7
370
     0
100
AcDbLine
 10
170.9592801444
 20
112.243321257
 30
0.0
 11
170.9592801444
 21
114.9604876638
 31
0.0
  0
LINE
  5
2E7
330
1F
100
AcDbEntity
  8
0
  6
SLD-Gestrichelt
 62
     7
370
     0
100
AcDbLine
 10
170.9592801444
 20
112.243321257
 30
0.0
 11
170.9592801444
 21
111.2005386564
 31
0.0
  0
LINE
  5
2E8
330
1F
100
AcDbEntity
  8
0
  6
SLD-Gestrichelt
 62
     7
370
     0
100
AcDbLine
 10
114.1592801444
 20
90.1609918539
 30
0.0
 11
114.1592801444
 21
91.1185995094
 31
0.0
  0
LINE
  5
2E9
330
1F
100
AcDbEntity
  8
0
  6
SLD-Gestrichelt
 62
     7
370
     0
100
AcDbLine
 10
111.6592801444
 20
112.1609918539
 30
0.0
 11
111.6592801444
 21
111.1851813473
 31
0.0
  0
LINE
  5
2EA
330
1F
100
AcDbEntity
  8
0
  6
SLD-Gestrichelt
 62
     7
370
     0
100
AcDbLine
 10
114.1592801444
 20
90.1609918539
 30
0.0
 11
114.1592801444
 21
87.5242451558
 31
0.0
  0
LINE
  5
2EB
330
1F
100
AcDbEntity
  8
0
  6
SLD-Gestrichelt
 62
     7
370
     0
100
AcDbLine
 10
111.6592801444
 20
112.1609918539
 30
0.0
 11
111.6592801444
 21
114.7185159756
 31
0.0
  0
LINE
  5
2EC
330
1F
100
AcDbEntity
  8
0
  6
SLD-Gestrichelt
 62
     7
370
     0
100
AcDbLine
 10
169.9592801444
 20
112.243321257
 30
0.0
 11
169.9592801444
 21
110.855964778
 31
0.0
  0
LINE
  5
2ED
330
1F
100
AcDbEntity
  8
0
  6
SLD-Gestrichelt
 62
     7
370
     0
100
AcDbLine
 10
166.8592801444
 20
112.243321257
 30
0.0
 11
166.8592801444
 21
110.855964778
 31
0.0
  0
LINE
  5
2EE
330
1F
100
AcDbEntity
  8
0
  6
SLD-Gestrichelt
 62
     7
370
     0
100
AcDbLine
 10
166.8592801444
 20
112.243321257
 30
0.0
 11
166.8592801444
 21
114.2426562459
 31
0.0
  0
LINE
  5
2EF
330
1F
100
AcDbEntity
  8
0
  6
SLD-Gestrichelt
 62
     7
370
     0
100
AcDbLine
 10
166.8592801444
 20
90.0786624507
 30
0.0
 11
166.8592801444
 21
88.0793274618
 31
0.0
  0
LINE
  5
2F0
330
1F
100
AcDbEntity
  8
0
  6
SLD-Gestrichelt
 62
     7
370
     0
100
AcDbLine
 10
172.4592801444
 20
90.0786624507
 30
0.0
 11
172.4592801444
 21
91.4660189297
 31
0.0
  0
LINE
  5
2F1
330
1F
100
AcDbEntity
  8
0
  6
SLD-Gestrichelt
 62
     7
370
     0
100
AcDbLine
 10
166.8592801444
 20
91.4660189297
 30
0.0
 11
166.8592801444
 21
90.0786624507
 31
0.0
  0
LINE
  5
2F2
330
1F
100
AcDbEntity
  8
0
  6
SLD-Gestrichelt
 62
     7
370
     0
100
AcDbLine
 10
144.9992801444
 20
118.5635958257
 30
0.0
 11
144.9992801444
 21
84.0481129318
 31
0.0
  0
ARC
  5
2F3
330
1F
100
AcDbEntity
  8
0
  6
SLD-Gestrichelt
 62
     7
370
     0
100
AcDbCircle
 10
144.3708544745
 20
118.5614532716
 30
0.0
 40
0.6284293223321097
100
AcDbArc
 50
307.2152791327
 51
0.1953434433
  0
LWPOLYLINE
  5
2F4
330
1F
100
AcDbEntity
  8
0
  6
SLD-Gestrichelt
 62
     7
370
     0
100
AcDbPolyline
 90
        3
 70
   128
 43
0.0
 10
144.9640577439
 20
84.2609918539
 10
144.9915234137
 20
84.1491517635
 10
144.9992801444
 20
84.0481129318
  0
LINE
  5
2F5
330
1F
100
AcDbEntity
  8
0
  6
SLD-Gestrichelt
 62
     7
370
     0
100
AcDbLine
 10
144.3992801444
 20
118.0609918539
 30
0.0
 11
144.7509357587
 21
118.0609918539
 31
0.0
  0
LINE
  5
2F6
330
1F
100
AcDbEntity
  8
0
  6
SLD-Gestrichelt
 62
     7
370
     0
100
AcDbLine
 10
144.3992801444
 20
84.2609918539
 30
0.0
 11
144.9640577439
 21
84.2609918539
 31
0.0
  0
ARC
  5
2F7
330
1F
100
AcDbEntity
  8
0
  6
SLD-Gestrichelt
 62
     7
370
     0
100
AcDbCircle
 10
143.547041094
 20
118.5611248229
 30
0.0
 40
0.6277658127263442
100
AcDbArc
 50
179.7744725952
 51
232.8149048289
  0
LINE
  5
2F8
330
1F
100
AcDbEntity
  8
0
  6
SLD-Gestrichelt
 62
     7
370
     0
100
AcDbLine
 10
142.9192801444
 20
118.5635958257
 30
0.0
 11
142.9192801444
 21
84.0481129318
 31
0.0
  0
LWPOLYLINE
  5
2F9
330
1F
100
AcDbEntity
  8
0
  6
SLD-Gestrichelt
 62
     7
370
     0
100
AcDbPolyline
 90
        3
 70
   128
 43
0.0
 10
142.9192801444
 20
84.0481129318
 10
142.9270368752
 20
84.1491517635
 10
142.954502545
 20
84.2609918539
  0
LINE
  5
2FA
330
1F
100
AcDbEntity
  8
0
  6
SLD-Gestrichelt
 62
     7
370
     0
100
AcDbLine
 10
143.1676245302
 20
118.0609918539
 30
0.0
 11
143.5192801444
 21
118.0609918539
 31
0.0
  0
LINE
  5
2FB
330
1F
100
AcDbEntity
  8
0
  6
SLD-Gestrichelt
 62
     7
370
     0
100
AcDbLine
 10
142.954502545
 20
84.2609918539
 30
0.0
 11
143.5192801444
 21
84.2609918539
 31
0.0
  0
ELLIPSE
  5
2FC
330
1F
100
AcDbEntity
  8
0
  6
SLD-Gestrichelt
 62
     7
370
     0
100
AcDbEllipse
 10
105.9535134047
 20
101.1609918539
 30
0.0
 11
12.26424774976734
 21
0.0
 31
0.0
210
0.0
220
0.0
230
1.0
 40
0.8164965809
 41
4.884943637108986
 42
4.964202354313275
  0
LINE
  5
2FD
330
1F
100
AcDbEntity
  8
0
  6
SLD-Gestrichelt
 62
     7
370
     0
100
AcDbLine
 10
109.0682801444
 20
90.1609918539
 30
0.0
 11
109.0682801444
 21
91.4388087657
 31
0.0
  0
LINE
  5
2FE
330
1F
100
AcDbEntity
  8
0
  6
SLD-Gestrichelt
 62
     7
370
     0
100
AcDbLine
 10
108.0592801444
 20
90.1609918539
 30
0.0
 11
108.0592801444
 21
91.2959857108
 31
0.0
  0
LINE
  5
2FF
330
1F
100
AcDbEntity
  8
0
  6
SLD-Gestrichelt
 62
     7
370
     0
100
AcDbLine
 10
109.0682801444
 20
90.1609918539
 30
0.0
 11
109.0682801444
 21
88.2827006882
 31
0.0
  0
LINE
  5
300
330
1F
100
AcDbEntity
  8
0
  6
SLD-Gestrichelt
 62
     7
370
     0
100
AcDbLine
 10
108.0592801444
 20
90.1609918539
 30
0.0
 11
108.0592801444
 21
89.2951687833
 31
0.0
  0
LINE
  5
301
330
1F
100
AcDbEntity
  8
0
  6
SLD-Gestrichelt
 62
     7
370
     0
100
AcDbLine
 10
161.9592801444
 20
95.1609918539
 30
0.0
 11
166.8592801444
 21
95.1609918539
 31
0.0
  0
LINE
  5
302
330
1F
100
AcDbEntity
  8
0
  6
SLD-Gestrichelt
 62
     7
370
     0
100
AcDbLine
 10
161.9592801444
 20
95.1609918539
 30
0.0
 11
161.9592801444
 21
93.2238969574
 31
0.0
  0
LINE
  5
303
330
1F
100
AcDbEntity
  8
0
  6
SLD-Gestrichelt
 62
     7
370
     0
100
AcDbLine
 10
166.8592801444
 20
95.1609918539
 30
0.0
 11
166.8592801444
 21
93.2238969574
 31
0.0
  0
LINE
  5
304
330
1F
100
AcDbEntity
  8
0
  6
SLD-Gestrichelt
 62
     7
370
     0
100
AcDbLine
 10
109.0092801444
 20
112.1609918539
 30
0.0
 11
109.0092801444
 21
114.0337324168
 31
0.0
  0
LINE
  5
305
330
1F
100
AcDbEntity
  8
0
  6
SLD-Gestrichelt
 62
     7
370
     0
100
AcDbLine
 10
109.0092801444
 20
112.1609918539
 30
0.0
 11
109.0092801444
 21
110.8588975556
 31
0.0
  0
ELLIPSE
  5
306
330
1F
100
AcDbEntity
  8
0
  6
SLD-Gestrichelt
 62
     7
370
     0
100
AcDbEllipse
 10
105.9535134047
 20
101.1609918539
 30
0.0
 11
12.26424774976735
 21
0.0
 31
0.0
210
0.0
220
0.0
230
1.0
 40
0.8164965809
 41
1.318982952866323
 42
1.398241670070613
  0
LINE
  5
307
330
1F
100
AcDbEntity
  8
0
  6
SLD-Gestrichelt
 62
     7
370
     0
100
AcDbLine
 10
108.0592801444
 20
112.1609918539
 30
0.0
 11
108.0592801444
 21
111.025997997
 31
0.0
  0
LINE
  5
308
330
1F
100
AcDbEntity
  8
0
  6
SLD-Gestrichelt
 62
     7
370
     0
100
AcDbLine
 10
108.0592801444
 20
111.025997997
 30
0.0
 11
108.0592801444
 21
91.2959857108
 31
0.0
  0
LINE
  5
309
330
1F
100
AcDbEntity
  8
0
  6
SLD-Gestrichelt
 62
     7
370
     0
100
AcDbLine
 10
108.0592801444
 20
112.1609918539
 30
0.0
 11
108.0592801444
 21
113.0854642484
 31
0.0
  0
LINE
  5
30A
330
1F
100
AcDbEntity
  8
0
  6
SLD-Gestrichelt
 62
     7
370
     0
100
AcDbLine
 10
143.5192801444
 20
118.0609918539
 30
0.0
 11
144.3992801444
 21
118.0609918539
 31
0.0
  0
LINE
  5
30B
330
1F
100
AcDbEntity
  8
0
  6
SLD-Gestrichelt
 62
     7
370
     0
100
AcDbLine
 10
143.5192801444
 20
84.2609918539
 30
0.0
 11
144.3992801444
 21
84.2609918539
 31
0.0
  0
LWPOLYLINE
  5
30C
330
1F
100
AcDbEntity
  8
0
  6
SLD-Gestrichelt
 62
     7
370
     0
100
AcDbPolyline
 90
        3
 70
   128
 43
0.0
 10
141.9241204456
 20
120.6481671238
 10
141.9902041088
 20
120.5306766903
 10
142.9192801444
 20
118.8746685494
  0
LINE
  5
30D
330
1F
100
AcDbEntity
  8
0
  6
SLD-Gestrichelt
 62
     7
370
     0
100
AcDbLine
 10
142.9192801444
 20
118.8746685494
 30
0.0
 11
142.9192801444
 21
118.5635958257
 31
0.0
  0
LINE
  5
30E
330
1F
100
AcDbEntity
  8
0
  6
SLD-Gestrichelt
 62
     7
370
     0
100
AcDbLine
 10
140.4092801444
 20
118.0609918539
 30
0.0
 11
143.1676245302
 21
118.0609918539
 31
0.0
  0
LINE
  5
30F
330
1F
100
AcDbEntity
  8
0
  6
SLD-Gestrichelt
 62
     7
370
     0
100
AcDbLine
 10
144.9992801444
 20
118.5635958257
 30
0.0
 11
144.9992801444
 21
118.8746685494
 31
0.0
  0
LWPOLYLINE
  5
310
330
1F
100
AcDbEntity
  8
0
  6
SLD-Gestrichelt
 62
     7
370
     0
100
AcDbPolyline
 90
        3
 70
   128
 43
0.0
 10
144.9992801444
 20
118.8746685494
 10
145.9283561801
 20
120.5306766903
 10
145.9944398433
 20
120.6481671238
  0
LINE
  5
311
330
1F
100
AcDbEntity
  8
0
  6
SLD-Gestrichelt
 62
     7
370
     0
100
AcDbLine
 10
145.9944398433
 20
120.6481671238
 30
0.0
 11
147.3092801444
 21
120.6481671238
 31
0.0
  0
ARC
  5
312
330
1F
100
AcDbEntity
  8
0
  6
SLD-Gestrichelt
 62
     7
370
     0
100
AcDbCircle
 10
147.2999966016
 20
120.0389135812
 30
0.0
 40
0.6093242677429593
100
AcDbArc
 50
359.3375608669
 51
89.1270191734
  0
LINE
  5
313
330
1F
100
AcDbEntity
  8
0
  6
SLD-Gestrichelt
 62
     7
370
     0
100
AcDbLine
 10
147.9092801444
 20
120.031868887
 30
0.0
 11
147.9092801444
 21
118.0725263792
 31
0.0
  0
LINE
  5
314
330
1F
100
AcDbEntity
  8
0
  6
SLD-Gestrichelt
 62
     7
370
     0
100
AcDbLine
 10
144.7509357587
 20
118.0609918539
 30
0.0
 11
147.9093422676
 21
118.0609918539
 31
0.0
  0
LINE
  5
315
330
1F
100
AcDbEntity
  8
0
  6
SLD-Gestrichelt
 62
     7
370
     0
100
AcDbLine
 10
147.9092801444
 20
120.031868887
 30
0.0
 11
147.9092801444
 21
82.5569600328
 31
0.0
  0
ARC
  5
316
330
1F
100
AcDbEntity
  8
0
  6
SLD-Gestrichelt
 62
     7
370
     0
100
AcDbCircle
 10
147.2964147521
 20
82.5449552609
 30
0.0
 40
0.6129829554683037
100
AcDbArc
 50
271.2026220403
 51
1.1221629126
  0
LINE
  5
317
330
1F
100
AcDbEntity
  8
0
  6
SLD-Gestrichelt
 62
     7
370
     0
100
AcDbLine
 10
142.9192801444
 20
118.8746685494
 30
0.0
 11
142.9192801444
 21
83.7318684659
 31
0.0
  0
LINE
  5
318
330
1F
100
AcDbEntity
  8
0
  6
SLD-Gestrichelt
 62
     7
370
     0
100
AcDbLine
 10
144.9992801444
 20
118.8746685494
 30
0.0
 11
144.9992801444
 21
83.7318684659
 31
0.0
  0
LINE
  5
319
330
1F
100
AcDbEntity
  8
0
  6
SLD-Gestrichelt
 62
     7
370
     0
100
AcDbLine
 10
145.9944398433
 20
120.6481671238
 30
0.0
 11
145.9944398433
 21
81.9321073308
 31
0.0
  0
LWPOLYLINE
  5
31A
330
1F
100
AcDbEntity
  8
0
  6
SLD-Gestrichelt
 62
     7
370
     0
100
AcDbPolyline
 90
        2
 70
   128
 43
0.0
 10
147.9092801444
 20
84.2609918539
 10
147.9092801444
 20
84.2609918539
  0
LWPOLYLINE
  5
31B
330
1F
100
AcDbEntity
  8
0
  6
SLD-Gestrichelt
 62
     7
370
     0
100
AcDbPolyline
 90
        2
 70
   128
 43
0.0
 10
161.9592801444
 20
107.1609918539
 10
161.9592801444
 20
107.1609918539
  0
LWPOLYLINE
  5
31C
330
1F
100
AcDbEntity
  8
0
  6
SLD-Gestrichelt
 62
     7
370
     0
100
AcDbPolyline
 90
        2
 70
   128
 43
0.0
 10
166.8592801444
 20
107.1609918539
 10
166.8592801444
 20
107.1609918539
  0
LINE
  5
31D
330
1F
100
AcDbEntity
  8
0
  6
SLD-Gestrichelt
 62
     7
370
     0
100
AcDbLine
 10
152.7592801444
 20
108.0609918539
 30
0.0
 11
152.7592801444
 21
111.0609918539
 31
0.0
  0
LINE
  5
31E
330
1F
100
AcDbEntity
  8
0
  6
SLD-Gestrichelt
 62
     7
370
     0
100
AcDbLine
 10
161.9592801444
 20
110.8380811297
 30
0.0
 11
161.9592801444
 21
108.0712947631
 31
0.0
  0
LINE
  5
31F
330
1F
100
AcDbEntity
  8
0
  6
SLD-Gestrichelt
 62
     7
370
     0
100
AcDbLine
 10
154.7092801444
 20
110.8380811297
 30
0.0
 11
154.7092801444
 21
108.0712947631
 31
0.0
  0
LINE
  5
320
330
1F
100
AcDbEntity
  8
0
  6
SLD-Gestrichelt
 62
     7
370
     0
100
AcDbLine
 10
166.8592801444
 20
111.0609918539
 30
0.0
 11
166.8592801444
 21
108.0749629348
 31
0.0
  0
LINE
  5
321
330
1F
100
AcDbEntity
  8
0
  6
SLD-Gestrichelt
 62
     7
370
     0
100
AcDbLine
 10
142.9192801444
 20
83.7318684659
 30
0.0
 11
142.9192801444
 21
84.0481129318
 31
0.0
  0
LWPOLYLINE
  5
322
330
1F
100
AcDbEntity
  8
0
  6
SLD-Gestrichelt
 62
     7
370
     0
100
AcDbPolyline
 90
        3
 70
   128
 43
0.0
 10
141.9241204456
 20
81.9321073308
 10
142.8634317193
 20
83.6304606869
 10
142.9192801444
 20
83.7318684659
  0
LINE
  5
323
330
1F
100
AcDbEntity
  8
0
  6
SLD-Gestrichelt
 62
     7
370
     0
100
AcDbLine
 10
140.4092801444
 20
84.2609918539
 30
0.0
 11
142.954502545
 21
84.2609918539
 31
0.0
  0
LINE
  5
324
330
1F
100
AcDbEntity
  8
0
  6
SLD-Gestrichelt
 62
     7
370
     0
100
AcDbLine
 10
147.9092801444
 20
82.5569600328
 30
0.0
 11
147.9092801444
 21
84.2609918539
 31
0.0
  0
LWPOLYLINE
  5
325
330
1F
100
AcDbEntity
  8
0
  6
SLD-Gestrichelt
 62
     7
370
     0
100
AcDbPolyline
 90
        3
 70
   128
 43
0.0
 10
144.9992801444
 20
83.7318684659
 10
145.0551285696
 20
83.6304606869
 10
145.9944398433
 20
81.9321073308
  0
LINE
  5
326
330
1F
100
AcDbEntity
  8
0
  6
SLD-Gestrichelt
 62
     7
370
     0
100
AcDbLine
 10
144.9992801444
 20
84.0481129318
 30
0.0
 11
144.9992801444
 21
83.7318684659
 31
0.0
  0
LINE
  5
327
330
1F
100
AcDbEntity
  8
0
  6
SLD-Gestrichelt
 62
     7
370
     0
100
AcDbLine
 10
145.9944398433
 20
81.9321073308
 30
0.0
 11
147.3092801444
 21
81.9321073308
 31
0.0
  0
LINE
  5
328
330
1F
100
AcDbEntity
  8
0
  6
SLD-Gestrichelt
 62
     7
370
     0
100
AcDbLine
 10
144.9640577439
 20
84.2609918539
 30
0.0
 11
147.9092801444
 21
84.2609918539
 31
0.0
  0
LINE
  5
329
330
1F
100
AcDbEntity
  8
0
  6
SLD-Gestrichelt
 62
     7
370
     0
100
AcDbLine
 10
108.0592801444
 20
89.3425195812
 30
0.0
 11
108.0592801444
 21
89.6134786527
 31
0.0
  0
LINE
  5
32A
330
1F
100
AcDbEntity
  8
0
  6
SLD-Gestrichelt
 62
     7
370
     0
100
AcDbLine
 10
108.0592801444
 20
113.0349059912
 30
0.0
 11
108.0592801444
 21
112.9392233183
 31
0.0
  0
LWPOLYLINE
  5
32B
330
1F
100
AcDbEntity
  8
0
  6
SLD-Gestrichelt
 62
     7
370
     0
100
AcDbPolyline
 90
       13
 70
   128
 43
0.0
 10
108.8192501908
 20
113.5490724335
 10
108.6545270156
 20
113.1515046974
 10
108.5720421981
 20
112.9925223121
 10
108.4640778526
 20
112.8152690643
 10
108.41084148
 20
112.7403552739
 10
108.3463542109
 20
112.6615942197
 10
108.3075558399
 20
112.6214332893
 10
108.2681900313
 20
112.587359519
 10
108.2366722788
 20
112.565988313
 10
108.1971064962
 20
112.5488637898
 10
108.1471291544
 20
112.5505586496
 10
108.075800297
 20
112.6817220703
 10
108.0592801444
 20
112.9392233183
  0
LWPOLYLINE
  5
32C
330
1F
100
AcDbEntity
  8
0
  6
SLD-Gestrichelt
 62
     7
370
     0
100
AcDbPolyline
 90
       11
 70
   128
 43
0.0
 10
108.0592801444
 20
89.6134786527
 10
108.084264391
 20
89.8654588497
 10
108.1428115892
 20
89.9448646207
 10
108.1946112019
 20
89.9454773577
 10
108.2283621964
 20
89.9311994462
 10
108.2721775894
 20
89.901569096
 10
108.3156643977
 20
89.8628641207
 10
108.3633923619
 20
89.8119745243
 10
108.4319244446
 20
89.7261975931
 10
108.5711326114
 20
89.512620686
 10
108.8192501908
 20
88.994006269
  0
LINE
  5
32D
330
1F
100
AcDbEntity
  8
0
  6
SLD-Gestrichelt
 62
     7
370
     0
100
AcDbLine
 10
108.0592801444
 20
112.9392233183
 30
0.0
 11
108.0592801444
 21
89.6134786527
 31
0.0
  0
LWPOLYLINE
  5
32E
330
1F
100
AcDbEntity
  8
0
  6
SLD-Gestrichelt
 62
     7
370
     0
100
AcDbPolyline
 90
        2
 70
   128
 43
0.0
 10
161.9592801444
 20
95.1609918539
 10
161.9592801444
 20
95.1609918539
  0
LWPOLYLINE
  5
32F
330
1F
100
AcDbEntity
  8
0
  6
SLD-Gestrichelt
 62
     7
370
     0
100
AcDbPolyline
 90
        2
 70
   128
 43
0.0
 10
166.8592801444
 20
95.1609918539
 10
166.8592801444
 20
95.1609918539
  0
LINE
  5
330
330
1F
100
AcDbEntity
  8
0
  6
SLD-Gestrichelt
 62
     7
370
     0
100
AcDbLine
 10
161.9592801444
 20
107.1609918539
 30
0.0
 11
166.8592801444
 21
107.1609918539
 31
0.0
  0
LINE
  5
331
330
1F
100
AcDbEntity
  8
0
  6
SLD-Gestrichelt
 62
     7
370
     0
100
AcDbLine
 10
161.9592801444
 20
107.1609918539
 30
0.0
 11
161.9592801444
 21
106.0379552047
 31
0.0
  0
LINE
  5
332
330
1F
100
AcDbEntity
  8
0
  6
SLD-Gestrichelt
 62
     7
370
     0
100
AcDbLine
 10
166.8592801444
 20
107.1609918539
 30
0.0
 11
166.8592801444
 21
106.0379552047
 31
0.0
  0
LINE
  5
333
330
1F
100
AcDbEntity
  8
0
  6
SLD-Gestrichelt
 62
     7
370
     0
100
AcDbLine
 10
161.9592801444
 20
95.1609918539
 30
0.0
 11
166.8592801444
 21
95.1609918539
 31
0.0
  0
LINE
  5
334
330
1F
100
AcDbEntity
  8
0
  6
SLD-Gestrichelt
 62
     7
370
     0
100
AcDbLine
 10
161.9592801444
 20
96.2840285031
 30
0.0
 11
161.9592801444
 21
95.1609918539
 31
0.0
  0
LINE
  5
335
330
1F
100
AcDbEntity
  8
0
  6
SLD-Gestrichelt
 62
     7
370
     0
100
AcDbLine
 10
166.8592801444
 20
96.2840285031
 30
0.0
 11
166.8592801444
 21
95.1609918539
 31
0.0
  0
CIRCLE
  5
336
330
1F
100
AcDbEntity
  8
0
  6
SLD-Gestrichelt
 62
     7
370
     0
100
AcDbCircle
 10
134.9592801444
 20
101.1609918539
 30
0.0
 40
5.0
  0
ARC
  5
337
330
1F
100
AcDbEntity
  8
0
  6
SLD-Gestrichelt
 62
     7
370
     0
100
AcDbCircle
 10
179.0092801444
 20
120.5352559226
 30
0.0
 40
0.3000000000000115
100
AcDbArc
 50
104.7339504915
 51
225.0
  0
ARC
  5
338
330
1F
100
AcDbEntity
  8
0
  6
SLD-Gestrichelt
 62
     7
370
     0
100
AcDbCircle
 10
184.9092801444
 20
120.5352559226
 30
0.0
 40
0.3000000000000188
100
AcDbArc
 50
315.0
 51
75.2660495084
  0
LINE
  5
339
330
1F
100
AcDbEntity
  8
0
  6
SLD-Gestrichelt
 62
     7
370
     0
100
AcDbLine
 10
178.7971481101
 20
120.3231238882
 30
0.0
 11
179.1332498876
 21
119.9870221107
 31
0.0
  0
LINE
  5
33A
330
1F
100
AcDbEntity
  8
0
  6
SLD-Gestrichelt
 62
     7
370
     0
100
AcDbLine
 10
184.7853104013
 20
119.9870221107
 30
0.0
 11
185.1214121788
 21
120.3231238882
 31
0.0
  0
ARC
  5
33B
330
1F
100
AcDbEntity
  8
0
  6
SLD-Gestrichelt
 62
     7
370
     0
100
AcDbCircle
 10
179.8989584114
 20
101.4830467034
 30
0.0
 40
20.00000000000002
100
AcDbArc
 50
75.2660495085
 51
77.7143002511
  0
ARC
  5
33C
330
1F
100
AcDbEntity
  8
0
  6
SLD-Gestrichelt
 62
     7
370
     0
100
AcDbCircle
 10
184.0196018775
 20
101.4830467034
 30
0.0
 40
20.00000000000001
100
AcDbArc
 50
102.4262993068
 51
104.7339504915
  0
LINE
  5
33D
330
1F
100
AcDbEntity
  8
0
  6
SLD-Gestrichelt
 62
     7
370
     0
100
AcDbLine
 10
179.4592801444
 20
116.8870221107
 30
0.0
 11
179.8592801444
 21
116.4870221107
 31
0.0
  0
LINE
  5
33E
330
1F
100
AcDbEntity
  8
0
  6
SLD-Gestrichelt
 62
     7
370
     0
100
AcDbLine
 10
184.0592801444
 20
116.4870221107
 30
0.0
 11
184.4592801444
 21
116.8870221107
 31
0.0
  0
LINE
  5
33F
330
1F
100
AcDbEntity
  8
0
  6
SLD-Gestrichelt
 62
     7
370
     0
100
AcDbLine
 10
184.4592801444
 20
118.4983469761
 30
0.0
 11
184.1592801444
 21
118.6715520569
 31
0.0
  0
LINE
  5
340
330
1F
100
AcDbEntity
  8
0
  6
SLD-Gestrichelt
 62
     7
370
     0
100
AcDbLine
 10
179.7592801444
 20
118.6715520569
 30
0.0
 11
179.4592801444
 21
118.4983469761
 31
0.0
  0
LINE
  5
341
330
1F
100
AcDbEntity
  8
0
  6
SLD-Gestrichelt
 62
     7
370
     0
100
AcDbLine
 10
179.4592801444
 20
118.4983469761
 30
0.0
 11
179.4592801444
 21
116.8870221107
 31
0.0
  0
LINE
  5
342
330
1F
100
AcDbEntity
  8
0
  6
SLD-Gestrichelt
 62
     7
370
     0
100
AcDbLine
 10
184.4592801444
 20
116.8870221107
 30
0.0
 11
184.4592801444
 21
118.4983469761
 31
0.0
  0
ARC
  5
343
330
1F
100
AcDbEntity
  8
0
  6
SLD-Gestrichelt
 62
     7
370
     0
100
AcDbCircle
 10
179.5592801444
 20
119.5870221107
 30
0.0
 40
0.4000000000000057
100
AcDbArc
 50
0.0
 51
90.0
  0
ARC
  5
344
330
1F
100
AcDbEntity
  8
0
  6
SLD-Gestrichelt
 62
     7
370
     0
100
AcDbCircle
 10
184.3592801444
 20
119.5870221107
 30
0.0
 40
0.4000000000000057
100
AcDbArc
 50
90.0
 51
180.0
  0
ARC
  5
345
330
1F
100
AcDbEntity
  8
0
  6
SLD-Gestrichelt
 62
     7
370
     0
100
AcDbCircle
 10
179.5592801444
 20
119.0179622184
 30
0.0
 40
0.4000000000000192
100
AcDbArc
 50
300.0
 51
0.0
  0
ARC
  5
346
330
1F
100
AcDbEntity
  8
0
  6
SLD-Gestrichelt
 62
     7
370
     0
100
AcDbCircle
 10
184.3592801444
 20
119.0179622184
 30
0.0
 40
0.4000000000000192
100
AcDbArc
 50
180.0
 51
240.0
  0
LINE
  5
347
330
1F
100
AcDbEntity
  8
0
  6
SLD-Gestrichelt
 62
     7
370
     0
100
AcDbLine
 10
179.9592801444
 20
119.5870221107
 30
0.0
 11
179.9592801444
 21
119.0179622184
 31
0.0
  0
LINE
  5
348
330
1F
100
AcDbEntity
  8
0
  6
SLD-Gestrichelt
 62
     7
370
     0
100
AcDbLine
 10
183.9592801444
 20
119.0179622184
 30
0.0
 11
183.9592801444
 21
119.5870221107
 31
0.0
  0
LINE
  5
349
330
1F
100
AcDbEntity
  8
0
  6
SLD-Gestrichelt
 62
     7
370
     0
100
AcDbLine
 10
180.0592801444
 20
121.0870221107
 30
0.0
 11
180.421190504
 21
120.7251117511
 31
0.0
  0
LINE
  5
34A
330
1F
100
AcDbEntity
  8
0
  6
SLD-Gestrichelt
 62
     7
370
     0
100
AcDbLine
 10
183.4973697848
 20
120.7251117511
 30
0.0
 11
183.8592801444
 21
121.0870221107
 31
0.0
  0
LINE
  5
34B
330
1F
100
AcDbEntity
  8
0
  6
SLD-Gestrichelt
 62
     7
370
     0
100
AcDbLine
 10
180.4592801444
 20
117.5870221107
 30
0.0
 11
181.9592801444
 21
117.0410667593
 31
0.0
  0
LINE
  5
34C
330
1F
100
AcDbEntity
  8
0
  6
SLD-Gestrichelt
 62
     7
370
     0
100
AcDbLine
 10
181.9592801444
 20
117.0410667593
 30
0.0
 11
183.4592801444
 21
117.5870221107
 31
0.0
  0
ARC
  5
34D
330
1F
100
AcDbEntity
  8
0
  6
SLD-Gestrichelt
 62
     7
370
     0
100
AcDbCircle
 10
184.9092801444
 20
81.7867277852
 30
0.0
 40
0.3000000000000188
100
AcDbArc
 50
284.7339504916
 51
45.0
  0
ARC
  5
34E
330
1F
100
AcDbEntity
  8
0
  6
SLD-Gestrichelt
 62
     7
370
     0
100
AcDbCircle
 10
179.0092801444
 20
81.7867277852
 30
0.0
 40
0.3000000000000115
100
AcDbArc
 50
135.0
 51
255.2660495085
  0
LINE
  5
34F
330
1F
100
AcDbEntity
  8
0
  6
SLD-Gestrichelt
 62
     7
370
     0
100
AcDbLine
 10
185.1214121788
 20
81.9988598195
 30
0.0
 11
184.7853104013
 21
82.334961597
 31
0.0
  0
LINE
  5
350
330
1F
100
AcDbEntity
  8
0
  6
SLD-Gestrichelt
 62
     7
370
     0
100
AcDbLine
 10
179.1332498876
 20
82.334961597
 30
0.0
 11
178.7971481101
 21
81.9988598195
 31
0.0
  0
ARC
  5
351
330
1F
100
AcDbEntity
  8
0
  6
SLD-Gestrichelt
 62
     7
370
     0
100
AcDbCircle
 10
184.0196018775
 20
100.8389370043
 30
0.0
 40
20.0
100
AcDbArc
 50
255.2660495085
 51
257.7136607564
  0
ARC
  5
352
330
1F
100
AcDbEntity
  8
0
  6
SLD-Gestrichelt
 62
     7
370
     0
100
AcDbCircle
 10
179.8989584114
 20
100.8389370043
 30
0.0
 40
20.0
100
AcDbArc
 50
282.4097029655
 51
284.7339504916
  0
LINE
  5
353
330
1F
100
AcDbEntity
  8
0
  6
SLD-Gestrichelt
 62
     7
370
     0
100
AcDbLine
 10
179.4592801444
 20
83.8236367316
 30
0.0
 11
179.7592801444
 21
83.6504316509
 31
0.0
  0
LINE
  5
354
330
1F
100
AcDbEntity
  8
0
  6
SLD-Gestrichelt
 62
     7
370
     0
100
AcDbLine
 10
184.1592801444
 20
83.6504316509
 30
0.0
 11
184.4592801444
 21
83.8236367316
 31
0.0
  0
LINE
  5
355
330
1F
100
AcDbEntity
  8
0
  6
SLD-Gestrichelt
 62
     7
370
     0
100
AcDbLine
 10
184.4592801444
 20
85.434961597
 30
0.0
 11
184.0592801444
 21
85.834961597
 31
0.0
  0
LINE
  5
356
330
1F
100
AcDbEntity
  8
0
  6
SLD-Gestrichelt
 62
     7
370
     0
100
AcDbLine
 10
179.8592801444
 20
85.834961597
 30
0.0
 11
179.4592801444
 21
85.434961597
 31
0.0
  0
LINE
  5
357
330
1F
100
AcDbEntity
  8
0
  6
SLD-Gestrichelt
 62
     7
370
     0
100
AcDbLine
 10
184.4592801444
 20
83.8236367316
 30
0.0
 11
184.4592801444
 21
85.434961597
 31
0.0
  0
LINE
  5
358
330
1F
100
AcDbEntity
  8
0
  6
SLD-Gestrichelt
 62
     7
370
     0
100
AcDbLine
 10
179.4592801444
 20
85.434961597
 30
0.0
 11
179.4592801444
 21
83.8236367316
 31
0.0
  0
ARC
  5
359
330
1F
100
AcDbEntity
  8
0
  6
SLD-Gestrichelt
 62
     7
370
     0
100
AcDbCircle
 10
184.3592801444
 20
82.734961597
 30
0.0
 40
0.4000000000000057
100
AcDbArc
 50
180.0
 51
270.0
  0
ARC
  5
35A
330
1F
100
AcDbEntity
  8
0
  6
SLD-Gestrichelt
 62
     7
370
     0
100
AcDbCircle
 10
179.5592801444
 20
82.734961597
 30
0.0
 40
0.4000000000000057
100
AcDbArc
 50
270.0
 51
0.0
  0
ARC
  5
35B
330
1F
100
AcDbEntity
  8
0
  6
SLD-Gestrichelt
 62
     7
370
     0
100
AcDbCircle
 10
184.3592801444
 20
83.3040214893
 30
0.0
 40
0.4000000000000192
100
AcDbArc
 50
120.0
 51
180.0
  0
ARC
  5
35C
330
1F
100
AcDbEntity
  8
0
  6
SLD-Gestrichelt
 62
     7
370
     0
100
AcDbCircle
 10
179.5592801444
 20
83.3040214893
 30
0.0
 40
0.4000000000000192
100
AcDbArc
 50
0.0
 51
60.0
  0
LINE
  5
35D
330
1F
100
AcDbEntity
  8
0
  6
SLD-Gestrichelt
 62
     7
370
     0
100
AcDbLine
 10
183.9592801444
 20
82.734961597
 30
0.0
 11
183.9592801444
 21
83.3040214893
 31
0.0
  0
LINE
  5
35E
330
1F
100
AcDbEntity
  8
0
  6
SLD-Gestrichelt
 62
     7
370
     0
100
AcDbLine
 10
179.9592801444
 20
83.3040214893
 30
0.0
 11
179.9592801444
 21
82.734961597
 31
0.0
  0
LINE
  5
35F
330
1F
100
AcDbEntity
  8
0
  6
SLD-Gestrichelt
 62
     7
370
     0
100
AcDbLine
 10
183.8592801444
 20
81.234961597
 30
0.0
 11
183.6159934608
 21
81.4782482807
 31
0.0
  0
LINE
  5
360
330
1F
100
AcDbEntity
  8
0
  6
SLD-Gestrichelt
 62
     7
370
     0
100
AcDbLine
 10
180.3002427177
 20
81.4759241703
 30
0.0
 11
180.0592801444
 21
81.234961597
 31
0.0
  0
LINE
  5
361
330
1F
100
AcDbEntity
  8
0
  6
SLD-Gestrichelt
 62
     7
370
     0
100
AcDbLine
 10
183.4592801444
 20
84.734961597
 30
0.0
 11
181.9592801444
 21
85.2809169484
 31
0.0
  0
LINE
  5
362
330
1F
100
AcDbEntity
  8
0
  6
SLD-Gestrichelt
 62
     7
370
     0
100
AcDbLine
 10
181.9592801444
 20
85.2809169484
 30
0.0
 11
180.4592801444
 21
84.734961597
 31
0.0
  0
LINE
  5
363
330
1F
100
AcDbEntity
  8
0
  6
SLD-Gestrichelt
 62
     7
370
     0
100
AcDbLine
 10
166.6092801444
 20
108.0609918539
 30
0.0
 11
166.8592801444
 21
108.1359918539
 31
0.0
  0
LINE
  5
364
330
1F
100
AcDbEntity
  8
0
  6
SLD-Gestrichelt
 62
     7
370
     0
100
AcDbLine
 10
166.8592801444
 20
110.9859918539
 30
0.0
 11
166.6092801444
 21
111.0609918539
 31
0.0
  0
LINE
  5
365
330
1F
100
AcDbEntity
  8
0
  6
SLD-Gestrichelt
 62
     7
370
     0
100
AcDbLine
 10
153.1092801444
 20
108.0609918539
 30
0.0
 11
166.6092801444
 21
108.0609918539
 31
0.0
  0
LINE
  5
366
330
1F
100
AcDbEntity
  8
0
  6
SLD-Gestrichelt
 62
     7
370
     0
100
AcDbLine
 10
166.6092801444
 20
111.0609918539
 30
0.0
 11
153.1092801444
 21
111.0609918539
 31
0.0
  0
LINE
  5
367
330
1F
100
AcDbEntity
  8
0
  6
SLD-Gestrichelt
 62
     7
370
     0
100
AcDbLine
 10
153.1092801444
 20
111.0609918539
 30
0.0
 11
152.8592801444
 21
110.9859918539
 31
0.0
  0
LINE
  5
368
330
1F
100
AcDbEntity
  8
0
  6
SLD-Gestrichelt
 62
     7
370
     0
100
AcDbLine
 10
152.8592801444
 20
108.1359918539
 30
0.0
 11
153.1092801444
 21
108.0609918539
 31
0.0
  0
LINE
  5
369
330
1F
100
AcDbEntity
  8
0
  6
SLD-Gestrichelt
 62
     7
370
     0
100
AcDbLine
 10
152.8592801444
 20
108.3609918539
 30
0.0
 11
166.8592801444
 21
108.3609918539
 31
0.0
  0
LINE
  5
36A
330
1F
100
AcDbEntity
  8
0
  6
SLD-Gestrichelt
 62
     7
370
     0
100
AcDbLine
 10
166.8592801444
 20
110.7609918539
 30
0.0
 11
152.8592801444
 21
110.7609918539
 31
0.0
  0
LINE
  5
36B
330
1F
100
AcDbEntity
  8
0
  6
SLD-Gestrichelt
 62
     7
370
     0
100
AcDbLine
 10
196.5092801444
 20
97.1613777873
 30
0.0
 11
186.5092801444
 21
97.1613777873
 31
0.0
  0
LINE
  5
36C
330
1F
100
AcDbEntity
  8
0
  6
SLD-Gestrichelt
 62
     7
370
     0
100
AcDbLine
 10
186.5092801444
 20
94.1613777873
 30
0.0
 11
196.5092801444
 21
94.1613777873
 31
0.0
  0
LINE
  5
36D
330
1F
100
AcDbEntity
  8
0
  6
SLD-Gestrichelt
 62
     7
370
     0
100
AcDbLine
 10
186.5092801444
 20
97.1613777873
 30
0.0
 11
186.0092801444
 21
96.6613777873
 31
0.0
  0
LINE
  5
36E
330
1F
100
AcDbEntity
  8
0
  6
SLD-Gestrichelt
 62
     7
370
     0
100
AcDbLine
 10
186.0092801444
 20
94.6613777873
 30
0.0
 11
186.5092801444
 21
94.1613777873
 31
0.0
  0
LINE
  5
36F
330
1F
100
AcDbEntity
  8
0
  6
SLD-Gestrichelt
 62
     7
370
     0
100
AcDbLine
 10
196.5092801444
 20
94.1613777873
 30
0.0
 11
196.6092801444
 21
94.2613777873
 31
0.0
  0
LINE
  5
370
330
1F
100
AcDbEntity
  8
0
  6
SLD-Gestrichelt
 62
     7
370
     0
100
AcDbLine
 10
196.6092801444
 20
97.0613777873
 30
0.0
 11
196.5092801444
 21
97.1613777873
 31
0.0
  0
LINE
  5
371
330
1F
100
AcDbEntity
  8
0
  6
SLD-Gestrichelt
 62
     7
370
     0
100
AcDbLine
 10
178.1094906832
 20
91.9112198907
 30
0.0
 11
178.8594380485
 21
91.1613777763
 31
0.0
  0
LINE
  5
372
330
1F
100
AcDbEntity
  8
0
  6
SLD-Gestrichelt
 62
     7
370
     0
100
AcDbLine
 10
183.3591222404
 20
91.1613777763
 30
0.0
 11
184.1090696057
 21
91.9112198907
 31
0.0
  0
LINE
  5
373
330
1F
100
AcDbEntity
  8
0
  6
SLD-Gestrichelt
 62
     7
370
     0
100
AcDbLine
 10
184.1092801444
 20
91.9116409238
 30
0.0
 11
184.1092801444
 21
110.410342784
 31
0.0
  0
LINE
  5
374
330
1F
100
AcDbEntity
  8
0
  6
SLD-Gestrichelt
 62
     7
370
     0
100
AcDbLine
 10
178.1092801444
 20
110.410342784
 30
0.0
 11
178.1092801444
 21
91.9116409238
 31
0.0
  0
LINE
  5
375
330
1F
100
AcDbEntity
  8
0
  6
SLD-Gestrichelt
 62
     7
370
     0
100
AcDbLine
 10
184.1090696057
 20
110.4107638171
 30
0.0
 11
183.3591222404
 21
111.1606059315
 31
0.0
  0
LINE
  5
376
330
1F
100
AcDbEntity
  8
0
  6
SLD-Gestrichelt
 62
     7
370
     0
100
AcDbLine
 10
178.8594380485
 20
111.1606059315
 30
0.0
 11
178.1094906832
 21
110.4107638171
 31
0.0
  0
LINE
  5
377
330
1F
100
AcDbEntity
  8
0
  6
SLD-Gestrichelt
 62
     7
370
     0
100
AcDbLine
 10
187.1092801444
 20
109.4109918539
 30
0.0
 11
185.1092801444
 21
111.4109918539
 31
0.0
  0
LINE
  5
378
330
1F
100
AcDbEntity
  8
0
  6
SLD-Gestrichelt
 62
     7
370
     0
100
AcDbLine
 10
175.9092801444
 20
111.4109918539
 30
0.0
 11
175.1092801444
 21
110.0253512078
 31
0.0
  0
LINE
  5
379
330
1F
100
AcDbEntity
  8
0
  6
SLD-Gestrichelt
 62
     7
370
     0
100
AcDbLine
 10
178.1520792715
 20
111.4109918539
 30
0.0
 11
175.9092801444
 21
111.4109918539
 31
0.0
  0
LINE
  5
37A
330
1F
100
AcDbEntity
  8
0
  6
SLD-Gestrichelt
 62
     7
370
     0
100
AcDbLine
 10
185.1092801444
 20
111.4109918539
 30
0.0
 11
184.0907937817
 21
111.4109918539
 31
0.0
  0
LINE
  5
37B
330
1F
100
AcDbEntity
  8
0
  6
SLD-Gestrichelt
 62
     7
370
     0
100
AcDbLine
 10
184.1092801444
 20
104.1607813447
 30
0.0
 11
184.1092801444
 21
111.4102726142
 31
0.0
  0
LINE
  5
37C
330
1F
100
AcDbEntity
  8
0
  6
SLD-Gestrichelt
 62
     7
370
     0
100
AcDbLine
 10
178.1092801444
 20
111.4102726142
 30
0.0
 11
178.1092801444
 21
104.1607813447
 31
0.0
  0
LINE
  5
37D
330
1F
100
AcDbEntity
  8
0
  6
SLD-Gestrichelt
 62
     7
370
     0
100
AcDbLine
 10
175.1092801444
 20
92.2966324999
 30
0.0
 11
175.9092801444
 21
90.9109918539
 31
0.0
  0
LINE
  5
37E
330
1F
100
AcDbEntity
  8
0
  6
SLD-Gestrichelt
 62
     7
370
     0
100
AcDbLine
 10
184.0907937817
 20
90.9109918539
 30
0.0
 11
185.1092801444
 21
90.9109918539
 31
0.0
  0
LINE
  5
37F
330
1F
100
AcDbEntity
  8
0
  6
SLD-Gestrichelt
 62
     7
370
     0
100
AcDbLine
 10
175.9092801444
 20
90.9109918539
 30
0.0
 11
178.1520792715
 21
90.9109918539
 31
0.0
  0
LINE
  5
380
330
1F
100
AcDbEntity
  8
0
  6
SLD-Gestrichelt
 62
     7
370
     0
100
AcDbLine
 10
185.1092801444
 20
90.9109918539
 30
0.0
 11
187.1092801444
 21
92.9109918539
 31
0.0
  0
LINE
  5
381
330
1F
100
AcDbEntity
  8
0
  6
SLD-Gestrichelt
 62
     7
370
     0
100
AcDbLine
 10
178.1092801444
 20
98.161202363
 30
0.0
 11
178.1092801444
 21
90.9117110935
 31
0.0
  0
LINE
  5
382
330
1F
100
AcDbEntity
  8
0
  6
SLD-Gestrichelt
 62
     7
370
     0
100
AcDbLine
 10
184.1092801444
 20
90.9117110935
 30
0.0
 11
184.1092801444
 21
98.161202363
 31
0.0
  0
LINE
  5
383
330
1F
100
AcDbEntity
  8
0
  6
SLD-Gestrichelt
 62
     7
370
     0
100
AcDbLine
 10
196.6092801444
 20
109.5272242103
 30
0.0
 11
195.95333984
 21
108.9109918539
 31
0.0
  0
LINE
  5
384
330
1F
100
AcDbEntity
  8
0
  6
SLD-Gestrichelt
 62
     7
370
     0
100
AcDbLine
 10
195.95333984
 20
93.4109918539
 30
0.0
 11
196.6092801444
 21
92.7947594975
 31
0.0
  0
LINE
  5
385
330
1F
100
AcDbEntity
  8
0
  6
SLD-Gestrichelt
 62
     7
370
     0
100
AcDbLine
 10
195.7184738194
 20
109.1609918539
 30
0.0
 11
193.6092801444
 21
109.1609918539
 31
0.0
  0
LINE
  5
386
330
1F
100
AcDbEntity
  8
0
  6
SLD-Gestrichelt
 62
     7
370
     0
100
AcDbLine
 10
193.6092801444
 20
93.1609918539
 30
0.0
 11
195.7184738194
 21
93.1609918539
 31
0.0
  0
LINE
  5
387
330
1F
100
AcDbEntity
  8
0
  6
SLD-Gestrichelt
 62
     7
370
     0
100
AcDbLine
 10
195.7184738194
 20
93.1609918539
 30
0.0
 11
195.95333984
 21
93.4109918539
 31
0.0
  0
LINE
  5
388
330
1F
100
AcDbEntity
  8
0
  6
SLD-Gestrichelt
 62
     7
370
     0
100
AcDbLine
 10
195.95333984
 20
108.9109918539
 30
0.0
 11
195.7184738194
 21
109.1609918539
 31
0.0
  0
LINE
  5
389
330
1F
100
AcDbEntity
  8
0
  6
SLD-Gestrichelt
 62
     7
370
     0
100
AcDbLine
 10
193.6092801444
 20
108.4109918539
 30
0.0
 11
191.6092801444
 21
108.4109918539
 31
0.0
  0
LINE
  5
38A
330
1F
100
AcDbEntity
  8
0
  6
SLD-Gestrichelt
 62
     7
370
     0
100
AcDbLine
 10
191.6092801444
 20
93.9109918539
 30
0.0
 11
193.6092801444
 21
93.9109918539
 31
0.0
  0
ARC
  5
38B
330
1F
100
AcDbEntity
  8
0
  6
SLD-Gestrichelt
 62
     7
370
     0
100
AcDbCircle
 10
150.4592801444
 20
107.9109918539
 30
0.0
 40
0.7500000000000284
100
AcDbArc
 50
0.0
 51
180.0
  0
ARC
  5
38C
330
1F
100
AcDbEntity
  8
0
  6
SLD-Gestrichelt
 62
     7
370
     0
100
AcDbCircle
 10
150.4592801444
 20
107.9109918539
 30
0.0
 40
0.7500000000000284
100
AcDbArc
 50
180.0
 51
0.0
  0
ARC
  5
38D
330
1F
100
AcDbEntity
  8
0
  6
SLD-Gestrichelt
 62
     7
370
     0
100
AcDbCircle
 10
150.4592801444
 20
94.4109918539
 30
0.0
 40
0.7500000000000284
100
AcDbArc
 50
180.0
 51
0.0
  0
ARC
  5
38E
330
1F
100
AcDbEntity
  8
0
  6
SLD-Gestrichelt
 62
     7
370
     0
100
AcDbCircle
 10
150.4592801444
 20
94.4109918539
 30
0.0
 40
0.7500000000000284
100
AcDbArc
 50
0.0
 51
180.0
  0
LINE
  5
38F
330
1F
100
AcDbEntity
  8
0
  6
SLD-Gestrichelt
 62
     7
370
     0
100
AcDbLine
 10
149.7092801444
 20
107.9109918539
 30
0.0
 11
149.7092801444
 21
94.4109918539
 31
0.0
  0
LINE
  5
390
330
1F
100
AcDbEntity
  8
0
  6
SLD-Gestrichelt
 62
     7
370
     0
100
AcDbLine
 10
149.7092801444
 20
107.9109918539
 30
0.0
 11
149.7092801444
 21
94.4109918539
 31
0.0
  0
LINE
  5
391
330
1F
100
AcDbEntity
  8
0
  6
SLD-Gestrichelt
 62
     7
370
     0
100
AcDbLine
 10
151.2092801444
 20
94.4109918539
 30
0.0
 11
151.2092801444
 21
107.9109918539
 31
0.0
  0
LINE
  5
392
330
1F
100
AcDbEntity
  8
0
  6
SLD-Gestrichelt
 62
     7
370
     0
100
AcDbLine
 10
151.2092801444
 20
94.4109918539
 30
0.0
 11
151.2092801444
 21
107.9109918539
 31
0.0
  0
LINE
  5
393
330
1F
100
AcDbEntity
  8
0
  6
SLD-Gestrichelt
 62
     7
370
     0
100
AcDbLine
 10
187.1092801444
 20
90.9109918539
 30
0.0
 11
187.9592801444
 21
90.9109918539
 31
0.0
  0
LINE
  5
394
330
1F
100
AcDbEntity
  8
0
  6
SLD-Gestrichelt
 62
     7
370
     0
100
AcDbLine
 10
167.2092801444
 20
90.9109918539
 30
0.0
 11
175.1092801444
 21
90.9109918539
 31
0.0
  0
LINE
  5
395
330
1F
100
AcDbEntity
  8
0
  6
SLD-Gestrichelt
 62
     7
370
     0
100
AcDbLine
 10
175.1092801444
 20
111.4109918539
 30
0.0
 11
167.2092801444
 21
111.4109918539
 31
0.0
  0
LINE
  5
396
330
1F
100
AcDbEntity
  8
0
  6
SLD-Gestrichelt
 62
     7
370
     0
100
AcDbLine
 10
187.9592801444
 20
111.4109918539
 30
0.0
 11
187.1092801444
 21
111.4109918539
 31
0.0
  0
LINE
  5
397
330
1F
100
AcDbEntity
  8
0
  6
SLD-Gestrichelt
 62
     7
370
     0
100
AcDbLine
 10
161.9592801444
 20
93.5359918539
 30
0.0
 11
167.2092801444
 21
93.5359918539
 31
0.0
  0
LINE
  5
398
330
1F
100
AcDbEntity
  8
0
  6
SLD-Gestrichelt
 62
     7
370
     0
100
AcDbLine
 10
167.2092801444
 20
108.7859918539
 30
0.0
 11
161.9592801444
 21
108.7859918539
 31
0.0
  0
LINE
  5
399
330
1F
100
AcDbEntity
  8
0
  6
SLD-Gestrichelt
 62
     7
370
     0
100
AcDbLine
 10
193.6092801444
 20
93.5609918539
 30
0.0
 11
194.6092801444
 21
93.5609918539
 31
0.0
  0
LINE
  5
39A
330
1F
100
AcDbEntity
  8
0
  6
SLD-Gestrichelt
 62
     7
370
     0
100
AcDbLine
 10
194.6092801444
 20
108.7609918539
 30
0.0
 11
193.6092801444
 21
108.7609918539
 31
0.0
  0
LINE
  5
39B
330
1F
100
AcDbEntity
  8
0
  6
SLD-Gestrichelt
 62
     7
370
     0
100
AcDbLine
 10
194.6092801444
 20
93.5609918539
 30
0.0
 11
195.2183064984
 21
94.1700182079
 31
0.0
  0
LINE
  5
39C
330
1F
100
AcDbEntity
  8
0
  6
SLD-Gestrichelt
 62
     7
370
     0
100
AcDbLine
 10
195.6092801444
 20
107.7609918539
 30
0.0
 11
194.6092801444
 21
108.7609918539
 31
0.0
  0
LINE
  5
39D
330
1F
100
AcDbEntity
  8
0
  6
SLD-Gestrichelt
 62
     7
370
     0
100
AcDbLine
 10
151.8092801444
 20
93.6609918539
 30
0.0
 11
154.9092801444
 21
93.6609918539
 31
0.0
  0
LINE
  5
39E
330
1F
100
AcDbEntity
  8
0
  6
SLD-Gestrichelt
 62
     7
370
     0
100
AcDbLine
 10
154.9092801444
 20
108.6609918539
 30
0.0
 11
151.8092801444
 21
108.6609918539
 31
0.0
  0
LINE
  5
39F
330
1F
100
AcDbEntity
  8
0
  6
SLD-Gestrichelt
 62
     7
370
     0
100
AcDbLine
 10
148.0092801444
 20
108.6609918539
 30
0.0
 11
147.5092801444
 21
108.3723167193
 31
0.0
  0
LINE
  5
3A0
330
1F
100
AcDbEntity
  8
0
  6
SLD-Gestrichelt
 62
     7
370
     0
100
AcDbLine
 10
147.5092801444
 20
93.9496669885
 30
0.0
 11
148.0092801444
 21
93.6609918539
 31
0.0
  0
LINE
  5
3A1
330
1F
100
AcDbEntity
  8
0
  6
SLD-Gestrichelt
 62
     7
370
     0
100
AcDbLine
 10
148.0092801444
 20
93.6609918539
 30
0.0
 11
149.1092801444
 21
93.6609918539
 31
0.0
  0
LINE
  5
3A2
330
1F
100
AcDbEntity
  8
0
  6
SLD-Gestrichelt
 62
     7
370
     0
100
AcDbLine
 10
149.1092801444
 20
108.6609918539
 30
0.0
 11
148.0092801444
 21
108.6609918539
 31
0.0
  0
LINE
  5
3A3
330
1F
100
AcDbEntity
  8
0
  6
SLD-Gestrichelt
 62
     7
370
     0
100
AcDbLine
 10
191.6092801444
 20
93.9109918539
 30
0.0
 11
193.6092801444
 21
93.9109918539
 31
0.0
  0
LINE
  5
3A4
330
1F
100
AcDbEntity
  8
0
  6
SLD-Gestrichelt
 62
     7
370
     0
100
AcDbLine
 10
193.6092801444
 20
108.4109918539
 30
0.0
 11
191.6092801444
 21
108.4109918539
 31
0.0
  0
LINE
  5
3A5
330
1F
100
AcDbEntity
  8
0
  6
SLD-Gestrichelt
 62
     7
370
     0
100
AcDbLine
 10
174.51233387
 20
102.9664184307
 30
0.0
 11
150.6092801444
 21
102.9416449274
 31
0.0
  0
LINE
  5
3A6
330
1F
100
AcDbEntity
  8
0
  6
SLD-Gestrichelt
 62
     7
370
     0
100
AcDbLine
 10
150.6092801444
 20
99.4416430477
 30
0.0
 11
174.5159613235
 21
99.4664203105
 31
0.0
  0
LINE
  5
3A7
330
1F
100
AcDbEntity
  8
0
  6
SLD-Gestrichelt
 62
     7
370
     0
100
AcDbLine
 10
149.1092801444
 20
95.1109918539
 30
0.0
 11
151.8092801444
 21
95.1109918539
 31
0.0
  0
LINE
  5
3A8
330
1F
100
AcDbEntity
  8
0
  6
SLD-Gestrichelt
 62
     7
370
     0
100
AcDbLine
 10
151.8092801444
 20
107.2109918539
 30
0.0
 11
149.1092801444
 21
107.2109918539
 31
0.0
  0
LINE
  5
3A9
330
1F
100
AcDbEntity
  8
0
  6
SLD-Gestrichelt
 62
     7
370
     0
100
AcDbLine
 10
195.6092801444
 20
103.0795269591
 30
0.0
 11
172.6092801444
 21
103.0795269591
 31
0.0
  0
LINE
  5
3AA
330
1F
100
AcDbEntity
  8
0
  6
SLD-Gestrichelt
 62
     7
370
     0
100
AcDbLine
 10
172.6092801444
 20
99.3295269591
 30
0.0
 11
192.6092801444
 21
99.3295269591
 31
0.0
  0
LINE
  5
3AB
330
1F
100
AcDbEntity
  8
0
  6
SLD-Gestrichelt
 62
     7
370
     0
100
AcDbLine
 10
154.9092801444
 20
90.2109918539
 30
0.0
 11
161.9592801444
 21
90.2109918539
 31
0.0
  0
LINE
  5
3AC
330
1F
100
AcDbEntity
  8
0
  6
SLD-Gestrichelt
 62
     7
370
     0
100
AcDbLine
 10
161.9592801444
 20
112.1109918539
 30
0.0
 11
154.9092801444
 21
112.1109918539
 31
0.0
  0
LINE
  5
3AD
330
1F
100
AcDbEntity
  8
0
  6
SLD-Gestrichelt
 62
     7
370
     0
100
AcDbLine
 10
147.5092801444
 20
97.1609918539
 30
0.0
 11
150.6092801444
 21
97.1609918539
 31
0.0
  0
LINE
  5
3AE
330
1F
100
AcDbEntity
  8
0
  6
SLD-Gestrichelt
 62
     7
370
     0
100
AcDbLine
 10
150.6092801444
 20
105.1609918539
 30
0.0
 11
147.5092801444
 21
105.1609918539
 31
0.0
  0
LINE
  5
3AF
330
1F
100
AcDbEntity
  8
0
  6
SLD-Gestrichelt
 62
     7
370
     0
100
AcDbLine
 10
178.1092801444
 20
104.1607813447
 30
0.0
 11
178.1092801444
 21
98.161202363
 31
0.0
  0
LINE
  5
3B0
330
1F
100
AcDbEntity
  8
0
  6
SLD-Gestrichelt
 62
     7
370
     0
100
AcDbLine
 10
184.1092801444
 20
98.161202363
 30
0.0
 11
184.1092801444
 21
104.1607813447
 31
0.0
  0
LINE
  5
3B1
330
1F
100
AcDbEntity
  8
0
  6
SLD-Gestrichelt
 62
     7
370
     0
100
AcDbLine
 10
195.6092801444
 20
97.1613777873
 30
0.0
 11
187.1092801444
 21
97.1613777873
 31
0.0
  0
LINE
  5
3B2
330
1F
100
AcDbEntity
  8
0
  6
SLD-Gestrichelt
 62
     7
370
     0
100
AcDbLine
 10
187.1092801444
 20
94.1613777873
 30
0.0
 11
195.22000124
 21
94.1613777873
 31
0.0
  0
LINE
  5
3B3
330
1F
100
AcDbEntity
  8
0
  6
SLD-Gestrichelt
 62
     7
370
     0
100
AcDbLine
 10
174.5159613235
 20
102.8555633973
 30
0.0
 11
150.6092801444
 21
102.8803406601
 31
0.0
  0
LINE
  5
3B4
330
1F
100
AcDbEntity
  8
0
  6
SLD-Gestrichelt
 62
     7
370
     0
100
AcDbLine
 10
150.6092801444
 20
99.3803387803
 30
0.0
 11
174.51233387
 21
99.3555652771
 31
0.0
  0
LINE
  5
3B5
330
1F
100
AcDbEntity
  8
0
  6
SLD-Gestrichelt
 62
     7
370
     0
100
AcDbLine
 10
192.6092801444
 20
102.9924567486
 30
0.0
 11
172.6092801444
 21
102.9924567486
 31
0.0
  0
LINE
  5
3B6
330
1F
100
AcDbEntity
  8
0
  6
SLD-Gestrichelt
 62
     7
370
     0
100
AcDbLine
 10
172.6092801444
 20
99.2424567486
 30
0.0
 11
195.6092801444
 21
99.2424567486
 31
0.0
  0
LINE
  5
3B7
330
1F
100
AcDbEntity
  8
0
  6
SLD-Gestrichelt
 62
     7
370
     0
100
AcDbLine
 10
127.9592801444
 20
84.9537911688
 30
0.0
 11
128.05344092
 21
85.6237799
 31
0.0
  0
LINE
  5
3B8
330
1F
100
AcDbEntity
  8
0
  6
SLD-Gestrichelt
 62
     7
370
     0
100
AcDbLine
 10
128.05344092
 20
116.6982038077
 30
0.0
 11
127.9592801444
 21
117.3681925389
 31
0.0
  0
ARC
  5
3B9
330
1F
100
AcDbEntity
  8
0
  6
SLD-Gestrichelt
 62
     7
370
     0
100
AcDbCircle
 10
187.1592801444
 20
117.1209912297
 30
0.0
 40
0.7999999999999874
100
AcDbArc
 50
272.8624052261
 51
0.0
  0
ARC
  5
3BA
330
1F
100
AcDbEntity
  8
0
  6
SLD-Gestrichelt
 62
     7
370
     0
100
AcDbCircle
 10
187.1592801444
 20
85.2009924781
 30
0.0
 40
0.7999999999999874
100
AcDbArc
 50
0.0
 51
87.1375947739
  0
ARC
  5
3BB
330
1F
100
AcDbEntity
  8
0
  6
SLD-Gestrichelt
 62
     7
370
     0
100
AcDbCircle
 10
127.4592733918
 20
85.7072847004
 30
0.0
 40
0.6000067526677384
100
AcDbArc
 50
352.0
 51
0.0
  0
ARC
  5
3BC
330
1F
100
AcDbEntity
  8
0
  6
SLD-Gestrichelt
 62
     7
370
     0
100
AcDbCircle
 10
127.4592733918
 20
85.7072847004
 30
0.0
 40
0.6000067526677384
100
AcDbArc
 50
0.0
 51
33.5571153394
  0
ARC
  5
3BD
330
1F
100
AcDbEntity
  8
0
  6
SLD-Gestrichelt
 62
     7
370
     0
100
AcDbCircle
 10
127.4592733918
 20
116.6146990073
 30
0.0
 40
0.6000067526677203
100
AcDbArc
 50
348.75
 51
8.0
  0
LWPOLYLINE
  5
3BE
330
1F
100
AcDbEntity
  8
0
  6
SLD-Gestrichelt
 62
     7
370
     0
100
AcDbPolyline
 90
        3
 70
   128
 43
0.0
 10
128.0477511829
 20
116.4976434968
 10
128.0136073499
 20
116.3850863638
 10
127.9592801444
 20
116.2830344923
  0
LINE
  5
3BF
330
1F
100
AcDbEntity
  8
0
  6
SLD-Gestrichelt
 62
     7
370
     0
100
AcDbLine
 10
128.0592801444
 20
85.7072847004
 30
0.0
 11
128.0592801444
 21
116.6146990073
 31
0.0
  0
LINE
  5
3C0
330
1F
100
AcDbEntity
  8
0
  6
SLD-Gestrichelt
 62
     7
370
     0
100
AcDbLine
 10
128.0592801444
 20
85.7072847004
 30
0.0
 11
128.0592801444
 21
116.6146990073
 31
0.0
  0
LINE
  5
3C1
330
1F
100
AcDbEntity
  8
0
  6
SLD-Gestrichelt
 62
     7
370
     0
100
AcDbLine
 10
179.351537075
 20
115.9296047004
 30
0.0
 11
175.9193322768
 21
115.7579944605
 31
0.0
  0
LINE
  5
3C2
330
1F
100
AcDbEntity
  8
0
  6
SLD-Gestrichelt
 62
     7
370
     0
100
AcDbLine
 10
187.199230238
 20
116.3219893586
 30
0.0
 11
184.6188666876
 21
116.192971181
 31
0.0
  0
LINE
  5
3C3
330
1F
100
AcDbEntity
  8
0
  6
SLD-Gestrichelt
 62
     7
370
     0
100
AcDbLine
 10
184.6016715453
 20
86.1298722838
 30
0.0
 11
187.199230238
 21
85.9999943492
 31
0.0
  0
LINE
  5
3C4
330
1F
100
AcDbEntity
  8
0
  6
SLD-Gestrichelt
 62
     7
370
     0
100
AcDbLine
 10
175.9193322768
 20
86.5639892473
 30
0.0
 11
179.3706102066
 21
86.3914253508
 31
0.0
  0
ARC
  5
3C5
330
1F
100
AcDbEntity
  8
0
  6
SLD-Gestrichelt
 62
     7
370
     0
100
AcDbCircle
 10
173.8592801444
 20
115.6109918539
 30
0.0
 40
0.4000000000000199
100
AcDbArc
 50
90.0
 51
164.7815448422
  0
LINE
  5
3C6
330
1F
100
AcDbEntity
  8
0
  6
SLD-Gestrichelt
 62
     7
370
     0
100
AcDbLine
 10
175.2681091447
 20
116.0109918539
 30
0.0
 11
173.8592801444
 21
116.0109918539
 31
0.0
  0
LINE
  5
3C7
330
1F
100
AcDbEntity
  8
0
  6
SLD-Gestrichelt
 62
     7
370
     0
100
AcDbLine
 10
173.8592801444
 20
86.3109918539
 30
0.0
 11
175.2681091447
 21
86.3109918539
 31
0.0
  0
ARC
  5
3C8
330
1F
100
AcDbEntity
  8
0
  6
SLD-Gestrichelt
 62
     7
370
     0
100
AcDbCircle
 10
175.2681091447
 20
115.6109918539
 30
0.0
 40
0.4000000000000057
100
AcDbArc
 50
45.9059563939
 51
90.0
  0
ARC
  5
3C9
330
1F
100
AcDbEntity
  8
0
  6
SLD-Gestrichelt
 62
     7
370
     0
100
AcDbCircle
 10
175.2681091447
 20
86.7109918539
 30
0.0
 40
0.4000000000000057
100
AcDbArc
 50
270.0
 51
314.0940436061
  0
ARC
  5
3CA
330
1F
100
AcDbEntity
  8
0
  6
SLD-Gestrichelt
 62
     7
370
     0
100
AcDbCircle
 10
175.8943634683
 20
116.2573706299
 30
0.0
 40
0.4999999999999817
100
AcDbArc
 50
225.9059563939
 51
272.8624052261
  0
ARC
  5
3CB
330
1F
100
AcDbEntity
  8
0
  6
SLD-Gestrichelt
 62
     7
370
     0
100
AcDbCircle
 10
175.8943634683
 20
86.0646130778
 30
0.0
 40
0.4999999999999958
100
AcDbArc
 50
87.1375947739
 51
134.0940436061
  0
LINE
  5
3CC
330
1F
100
AcDbEntity
  8
0
  6
SLD-Gestrichelt
 62
     7
370
     0
100
AcDbLine
 10
173.4733073475
 20
115.7159918539
 30
0.0
 11
170.9592801444
 21
115.7159918539
 31
0.0
  0
LINE
  5
3CD
330
1F
100
AcDbEntity
  8
0
  6
SLD-Gestrichelt
 62
     7
370
     0
100
AcDbLine
 10
117.4919080886
 20
88.4109918539
 30
0.0
 11
119.6900553229
 21
88.4109918539
 31
0.0
  0
LINE
  5
3CE
330
1F
100
AcDbEntity
  8
0
  6
SLD-Gestrichelt
 62
     7
370
     0
100
AcDbLine
 10
119.6900553229
 20
113.9109918539
 30
0.0
 11
117.4919080886
 21
113.9109918539
 31
0.0
  0
ARC
  5
3CF
330
1F
100
AcDbEntity
  8
0
  6
SLD-Gestrichelt
 62
     7
370
     0
100
AcDbCircle
 10
117.4919080886
 20
88.8109918539
 30
0.0
 40
0.4000000000000057
100
AcDbArc
 50
210.0
 51
270.0
  0
ARC
  5
3D0
330
1F
100
AcDbEntity
  8
0
  6
SLD-Gestrichelt
 62
     7
370
     0
100
AcDbCircle
 10
117.4919080886
 20
113.5109918539
 30
0.0
 40
0.4000000000000057
100
AcDbArc
 50
90.0
 51
150.0
  0
ARC
  5
3D1
330
1F
100
AcDbEntity
  8
0
  6
SLD-Gestrichelt
 62
     7
370
     0
100
AcDbCircle
 10
123.7834568723
 20
93.4109918539
 30
0.0
 40
5.00000000000001
100
AcDbArc
 50
275.4122955823
 51
326.6329870308
  0
ARC
  5
3D2
330
1F
100
AcDbEntity
  8
0
  6
SLD-Gestrichelt
 62
     7
370
     0
100
AcDbCircle
 10
123.7834568723
 20
108.9109918539
 30
0.0
 40
4.999999999999998
100
AcDbArc
 50
33.3670129692
 51
84.5907051176
  0
LINE
  5
3D3
330
1F
100
AcDbEntity
  8
0
  6
SLD-Gestrichelt
 62
     7
370
     0
100
AcDbLine
 10
117.1454979271
 20
113.7109918539
 30
0.0
 11
115.9619298753
 21
111.6609918539
 31
0.0
  0
LINE
  5
3D4
330
1F
100
AcDbEntity
  8
0
  6
SLD-Gestrichelt
 62
     7
370
     0
100
AcDbLine
 10
115.9619298753
 20
90.6609918539
 30
0.0
 11
117.1454979271
 21
88.6109918539
 31
0.0
  0
LINE
  5
3D5
330
1F
100
AcDbEntity
  8
0
  6
SLD-Gestrichelt
 62
     7
370
     0
100
AcDbLine
 10
161.9592801444
 20
112.6609918539
 30
0.0
 11
154.7092801444
 21
112.6609918539
 31
0.0
  0
LINE
  5
3D6
330
1F
100
AcDbEntity
  8
0
  6
SLD-Gestrichelt
 62
     7
370
     0
100
AcDbLine
 10
154.7092801444
 20
89.6609918539
 30
0.0
 11
161.9592801444
 21
89.6609918539
 31
0.0
  0
ARC
  5
3D7
330
1F
100
AcDbEntity
  8
0
  6
SLD-Gestrichelt
 62
     7
370
     0
100
AcDbCircle
 10
134.9092801444
 20
91.2859918539
 30
0.0
 40
1.00000000000001
100
AcDbArc
 50
218.6821874535
 51
0.0
  0
ARC
  5
3D8
330
1F
100
AcDbEntity
  8
0
  6
SLD-Gestrichelt
 62
     7
370
     0
100
AcDbCircle
 10
134.9092801444
 20
111.0359918539
 30
0.0
 40
1.00000000000001
100
AcDbArc
 50
0.0
 51
141.3178125465
  0
LINE
  5
3D9
330
1F
100
AcDbEntity
  8
0
  6
SLD-Gestrichelt
 62
     7
370
     0
100
AcDbLine
 10
114.1592801444
 20
90.6609918539
 30
0.0
 11
115.9619298753
 21
90.6609918539
 31
0.0
  0
LINE
  5
3DA
330
1F
100
AcDbEntity
  8
0
  6
SLD-Gestrichelt
 62
     7
370
     0
100
AcDbLine
 10
115.9619298753
 20
111.6609918539
 30
0.0
 11
111.6592801444
 21
111.6609918539
 31
0.0
  0
LINE
  5
3DB
330
1F
100
AcDbEntity
  8
0
  6
SLD-Gestrichelt
 62
     7
370
     0
100
AcDbLine
 10
127.9592801444
 20
90.6609918539
 30
0.0
 11
134.1286553946
 21
90.6609918539
 31
0.0
  0
LINE
  5
3DC
330
1F
100
AcDbEntity
  8
0
  6
SLD-Gestrichelt
 62
     7
370
     0
100
AcDbLine
 10
134.1286553946
 20
111.6609918539
 30
0.0
 11
127.9592801444
 21
111.6609918539
 31
0.0
  0
LINE
  5
3DD
330
1F
100
AcDbEntity
  8
0
  6
SLD-Gestrichelt
 62
     7
370
     0
100
AcDbLine
 10
171.4592801444
 20
115.743321257
 30
0.0
 11
169.9592801444
 21
114.243321257
 31
0.0
  0
LINE
  5
3DE
330
1F
100
AcDbEntity
  8
0
  6
SLD-Gestrichelt
 62
     7
370
     0
100
AcDbLine
 10
172.4592801444
 20
88.0786624507
 30
0.0
 11
173.9592801444
 21
86.5786624507
 31
0.0
  0
LINE
  5
3DF
330
1F
100
AcDbEntity
  8
0
  6
SLD-Gestrichelt
 62
     7
370
     0
100
AcDbLine
 10
154.7092801444
 20
109.2383421231
 30
0.0
 11
153.7092801444
 21
108.6609918539
 31
0.0
  0
LINE
  5
3E0
330
1F
100
AcDbEntity
  8
0
  6
SLD-Gestrichelt
 62
     7
370
     0
100
AcDbLine
 10
153.7092801444
 20
93.6609918539
 30
0.0
 11
154.7092801444
 21
93.0836415847
 31
0.0
  0
ARC
  5
3E1
330
1F
100
AcDbEntity
  8
0
  6
SLD-Gestrichelt
 62
     7
370
     0
100
AcDbCircle
 10
146.3592801444
 20
108.5109918539
 30
0.0
 40
0.4000000000000341
100
AcDbArc
 50
90.0
 51
180.0
  0
ARC
  5
3E2
330
1F
100
AcDbEntity
  8
0
  6
SLD-Gestrichelt
 62
     7
370
     0
100
AcDbCircle
 10
146.3592801444
 20
93.8109918539
 30
0.0
 40
0.4000000000000341
100
AcDbArc
 50
180.0
 51
270.0
  0
LINE
  5
3E3
330
1F
100
AcDbEntity
  8
0
  6
SLD-Gestrichelt
 62
     7
370
     0
100
AcDbLine
 10
146.9736064435
 20
108.9109918539
 30
0.0
 11
146.3592801444
 21
108.9109918539
 31
0.0
  0
LINE
  5
3E4
330
1F
100
AcDbEntity
  8
0
  6
SLD-Gestrichelt
 62
     7
370
     0
100
AcDbLine
 10
146.3592801444
 20
93.4109918539
 30
0.0
 11
146.9736064435
 21
93.4109918539
 31
0.0
  0
ARC
  5
3E5
330
1F
100
AcDbEntity
  8
0
  6
SLD-Gestrichelt
 62
     7
370
     0
100
AcDbCircle
 10
146.9736064435
 20
108.5109918539
 30
0.0
 40
0.3999999999999949
100
AcDbArc
 50
75.0
 51
90.0
  0
ARC
  5
3E6
330
1F
100
AcDbEntity
  8
0
  6
SLD-Gestrichelt
 62
     7
370
     0
100
AcDbCircle
 10
146.9736064435
 20
93.8109918539
 30
0.0
 40
0.3999999999999949
100
AcDbArc
 50
270.0
 51
285.0
  0
LINE
  5
3E7
330
1F
100
AcDbEntity
  8
0
  6
SLD-Gestrichelt
 62
     7
370
     0
100
AcDbLine
 10
147.0771340616
 20
93.4246215234
 30
0.0
 11
147.9592801444
 21
93.6609918539
 31
0.0
  0
LINE
  5
3E8
330
1F
100
AcDbEntity
  8
0
  6
SLD-Gestrichelt
 62
     7
370
     0
100
AcDbLine
 10
147.9592801444
 20
108.6609918539
 30
0.0
 11
147.0771340616
 21
108.8973621844
 31
0.0
  0
LINE
  5
3E9
330
1F
100
AcDbEntity
  8
0
  6
SLD-Gestrichelt
 62
     7
370
     0
100
AcDbLine
 10
153.7092801444
 20
108.6609918539
 30
0.0
 11
147.9592801444
 21
108.6609918539
 31
0.0
  0
LINE
  5
3EA
330
1F
100
AcDbEntity
  8
0
  6
SLD-Gestrichelt
 62
     7
370
     0
100
AcDbLine
 10
147.9592801444
 20
93.6609918539
 30
0.0
 11
153.7092801444
 21
93.6609918539
 31
0.0
  0
LINE
  5
3EB
330
1F
100
AcDbEntity
  8
0
  6
SLD-Gestrichelt
 62
     7
370
     0
100
AcDbLine
 10
166.8592801444
 20
88.0786624507
 30
0.0
 11
172.4592801444
 21
88.0786624507
 31
0.0
  0
LINE
  5
3EC
330
1F
100
AcDbEntity
  8
0
  6
SLD-Gestrichelt
 62
     7
370
     0
100
AcDbLine
 10
169.9592801444
 20
114.243321257
 30
0.0
 11
166.8592801444
 21
114.243321257
 31
0.0
  0
LINE
  5
3ED
330
1F
100
AcDbEntity
  8
0
  6
SLD-Gestrichelt
 62
     7
370
     0
100
AcDbLine
 10
141.2592801444
 20
94.9109918539
 30
0.0
 11
143.7592801444
 21
94.9109918539
 31
0.0
  0
LINE
  5
3EE
330
1F
100
AcDbEntity
  8
0
  6
SLD-Gestrichelt
 62
     7
370
     0
100
AcDbLine
 10
143.7592801444
 20
107.4109918539
 30
0.0
 11
141.2592801444
 21
107.4109918539
 31
0.0
  0
LINE
  5
3EF
330
1F
100
AcDbEntity
  8
0
  6
SLD-Gestrichelt
 62
     7
370
     0
100
AcDbLine
 10
135.9092801444
 20
95.1609918539
 30
0.0
 11
136.4092801444
 21
95.6609918539
 31
0.0
  0
LINE
  5
3F0
330
1F
100
AcDbEntity
  8
0
  6
SLD-Gestrichelt
 62
     7
370
     0
100
AcDbLine
 10
136.4092801444
 20
106.6609918539
 30
0.0
 11
135.9092801444
 21
107.1609918539
 31
0.0
  0
LINE
  5
3F1
330
1F
100
AcDbEntity
  8
0
  6
SLD-Gestrichelt
 62
     7
370
     0
100
AcDbLine
 10
136.4092801444
 20
95.6609918539
 30
0.0
 11
141.2592801444
 21
95.6609918539
 31
0.0
  0
LINE
  5
3F2
330
1F
100
AcDbEntity
  8
0
  6
SLD-Gestrichelt
 62
     7
370
     0
100
AcDbLine
 10
141.2592801444
 20
106.6609918539
 30
0.0
 11
136.4092801444
 21
106.6609918539
 31
0.0
  0
LINE
  5
3F3
330
1F
100
AcDbEntity
  8
0
  6
SLD-Gestrichelt
 62
     7
370
     0
100
AcDbLine
 10
166.8592801444
 20
109.1609918539
 30
0.0
 11
161.9592801444
 21
109.1609918539
 31
0.0
  0
LINE
  5
3F4
330
1F
100
AcDbEntity
  8
0
  6
SLD-Gestrichelt
 62
     7
370
     0
100
AcDbLine
 10
161.9592801444
 20
93.1609918539
 30
0.0
 11
166.8592801444
 21
93.1609918539
 31
0.0
  0
ARC
  5
3F5
330
1F
100
AcDbEntity
  8
0
  6
SLD-Gestrichelt
 62
     7
370
     0
100
AcDbCircle
 10
173.8592801444
 20
86.7109918539
 30
0.0
 40
0.4000000000000057
100
AcDbArc
 50
180.0
 51
270.0
  0
LINE
  5
3F6
330
1F
100
AcDbEntity
  8
0
  6
SLD-Gestrichelt
 62
     7
370
     0
100
AcDbLine
 10
135.9092801444
 20
121.1609918539
 30
0.0
 11
135.9092801444
 21
118.0609918539
 31
0.0
  0
LINE
  5
3F7
330
1F
100
AcDbEntity
  8
0
  6
SLD-Gestrichelt
 62
     7
370
     0
100
AcDbLine
 10
170.9592801444
 20
111.6109918539
 30
0.0
 11
166.8592801444
 21
111.6109918539
 31
0.0
  0
LINE
  5
3F8
330
1F
100
AcDbEntity
  8
0
  6
SLD-Gestrichelt
 62
     7
370
     0
100
AcDbLine
 10
166.8592801444
 20
90.7109918539
 30
0.0
 11
173.4592801444
 21
90.7109918539
 31
0.0
  0
LINE
  5
3F9
330
1F
100
AcDbEntity
  8
0
  6
SLD-Gestrichelt
 62
     7
370
     0
100
AcDbLine
 10
178.4592801444
 20
120.6609918539
 30
0.0
 11
179.8592801444
 21
119.2609918539
 31
0.0
  0
LINE
  5
3FA
330
1F
100
AcDbEntity
  8
0
  6
SLD-Gestrichelt
 62
     7
370
     0
100
AcDbLine
 10
184.0592801444
 20
119.2609918539
 30
0.0
 11
185.4592801444
 21
120.6609918539
 31
0.0
  0
LINE
  5
3FB
330
1F
100
AcDbEntity
  8
0
  6
SLD-Gestrichelt
 62
     7
370
     0
100
AcDbLine
 10
185.4592801444
 20
81.6609918539
 30
0.0
 11
184.0592801444
 21
83.0609918539
 31
0.0
  0
LINE
  5
3FC
330
1F
100
AcDbEntity
  8
0
  6
SLD-Gestrichelt
 62
     7
370
     0
100
AcDbLine
 10
179.8592801444
 20
83.0609918539
 30
0.0
 11
178.4592801444
 21
81.6609918539
 31
0.0
  0
LINE
  5
3FD
330
1F
100
AcDbEntity
  8
0
  6
SLD-Gestrichelt
 62
     7
370
     0
100
AcDbLine
 10
185.4592801444
 20
81.1609918539
 30
0.0
 11
185.4592801444
 21
81.6609918539
 31
0.0
  0
LINE
  5
3FE
330
1F
100
AcDbEntity
  8
0
  6
SLD-Gestrichelt
 62
     7
370
     0
100
AcDbLine
 10
178.4592801444
 20
81.6609918539
 30
0.0
 11
178.4592801444
 21
81.1609918539
 31
0.0
  0
LINE
  5
3FF
330
1F
100
AcDbEntity
  8
0
  6
SLD-Gestrichelt
 62
     7
370
     0
100
AcDbLine
 10
178.4592801444
 20
121.1609918539
 30
0.0
 11
178.4592801444
 21
120.6609918539
 31
0.0
  0
LINE
  5
400
330
1F
100
AcDbEntity
  8
0
  6
SLD-Gestrichelt
 62
     7
370
     0
100
AcDbLine
 10
185.4592801444
 20
120.6609918539
 30
0.0
 11
185.4592801444
 21
121.1609918539
 31
0.0
  0
LINE
  5
401
330
1F
100
AcDbEntity
  8
0
  6
SLD-Gestrichelt
 62
     7
370
     0
100
AcDbLine
 10
124.7264593889
 20
86.1196872404
 30
0.0
 11
124.2585308007
 21
86.6155237213
 31
0.0
  0
LINE
  5
402
330
1F
100
AcDbEntity
  8
0
  6
SLD-Gestrichelt
 62
     7
370
     0
100
AcDbLine
 10
119.6606257856
 20
86.895377435
 30
0.0
 11
119.1431520697
 21
86.3995521223
 31
0.0
  0
LINE
  5
403
330
1F
100
AcDbEntity
  8
0
  6
SLD-Gestrichelt
 62
     7
370
     0
100
AcDbLine
 10
119.1425178378
 20
115.9224815268
 30
0.0
 11
119.6602040858
 21
115.4265944802
 31
0.0
  0
LINE
  5
404
330
1F
100
AcDbEntity
  8
0
  6
SLD-Gestrichelt
 62
     7
370
     0
100
AcDbLine
 10
124.2578449208
 20
115.7062420134
 30
0.0
 11
124.725748817
 21
116.202135886
 31
0.0
  0
LINE
  5
405
330
1F
100
AcDbEntity
  8
0
  6
SLD-Gestrichelt
 62
     7
370
     0
100
AcDbLine
 10
179.8592758758
 20
116.4476454279
 30
0.0
 11
179.3481267485
 21
115.929432576
 31
0.0
  0
LINE
  5
406
330
1F
100
AcDbEntity
  8
0
  6
SLD-Gestrichelt
 62
     7
370
     0
100
AcDbLine
 10
184.6222535659
 20
116.1931388355
 30
0.0
 11
184.0592833738
 21
116.7113516675
 31
0.0
  0
LINE
  5
407
330
1F
100
AcDbEntity
  8
0
  6
SLD-Gestrichelt
 62
     7
370
     0
100
AcDbLine
 10
184.0592807476
 20
85.5931952907
 30
0.0
 11
184.6050303033
 21
86.1297063325
 31
0.0
  0
LINE
  5
408
330
1F
100
AcDbEntity
  8
0
  6
SLD-Gestrichelt
 62
     7
370
     0
100
AcDbLine
 10
179.3671758371
 20
86.3915986442
 30
0.0
 11
179.8592752918
 21
85.8550875725
 31
0.0
  0
LINE
  5
409
330
1F
100
AcDbEntity
  8
0
  6
SLD-Gestrichelt
 62
     7
370
     0
100
AcDbLine
 10
143.7592801444
 20
98.6609918539
 30
0.0
 11
145.9592801444
 21
98.6609918539
 31
0.0
  0
LINE
  5
40A
330
1F
100
AcDbEntity
  8
0
  6
SLD-Gestrichelt
 62
     7
370
     0
100
AcDbLine
 10
145.9592801444
 20
103.6609918539
 30
0.0
 11
143.7592801444
 21
103.6609918539
 31
0.0
  0
LINE
  5
40B
330
1F
100
AcDbEntity
  8
0
  6
SLD-Gestrichelt
 62
     7
370
     0
100
AcDbLine
 10
124.2592801444
 20
86.6275792038
 30
0.0
 11
124.2592801444
 21
88.4341373938
 31
0.0
  0
LINE
  5
40C
330
1F
100
AcDbEntity
  8
0
  6
SLD-Gestrichelt
 62
     7
370
     0
100
AcDbLine
 10
119.6592801444
 20
88.4164946754
 30
0.0
 11
119.6592801444
 21
86.9023853097
 31
0.0
  0
LINE
  5
40D
330
1F
100
AcDbEntity
  8
0
  6
SLD-Gestrichelt
 62
     7
370
     0
100
AcDbLine
 10
124.2592801444
 20
113.887846314
 30
0.0
 11
124.2592801444
 21
115.7060314593
 31
0.0
  0
LINE
  5
40E
330
1F
100
AcDbEntity
  8
0
  6
SLD-Gestrichelt
 62
     7
370
     0
100
AcDbLine
 10
119.6592801444
 20
115.4254921556
 30
0.0
 11
119.6592801444
 21
113.9054890324
 31
0.0
  0
LINE
  5
40F
330
1F
100
AcDbEntity
  8
0
  6
SLD-Gestrichelt
 62
     7
370
     0
100
AcDbLine
 10
179.8592801444
 20
119.2609918539
 30
0.0
 11
179.8592801444
 21
116.4468407446
 31
0.0
  0
LINE
  5
410
330
1F
100
AcDbEntity
  8
0
  6
SLD-Gestrichelt
 62
     7
370
     0
100
AcDbLine
 10
184.0592801444
 20
116.7102463772
 30
0.0
 11
184.0592801444
 21
119.2609918539
 31
0.0
  0
LINE
  5
411
330
1F
100
AcDbEntity
  8
0
  6
SLD-Gestrichelt
 62
     7
370
     0
100
AcDbLine
 10
184.0592801444
 20
83.0609918539
 30
0.0
 11
184.0592801444
 21
85.5943377713
 31
0.0
  0
LINE
  5
412
330
1F
100
AcDbEntity
  8
0
  6
SLD-Gestrichelt
 62
     7
370
     0
100
AcDbLine
 10
179.8592801444
 20
85.8558878971
 30
0.0
 11
179.8592801444
 21
83.0609918539
 31
0.0
  0
LINE
  5
413
330
1F
100
AcDbEntity
  8
0
  6
SLD-Gestrichelt
 62
     7
370
     0
100
AcDbLine
 10
172.4592801444
 20
88.0786624507
 30
0.0
 11
173.9592801444
 21
86.5786624507
 31
0.0
  0
LINE
  5
414
330
1F
100
AcDbEntity
  8
0
  6
SLD-Gestrichelt
 62
     7
370
     0
100
AcDbLine
 10
171.4592801444
 20
115.743321257
 30
0.0
 11
169.9592801444
 21
114.243321257
 31
0.0
  0
ARC
  5
415
330
1F
100
AcDbEntity
  8
0
  6
SLD-Gestrichelt
 62
     7
370
     0
100
AcDbCircle
 10
113.2592801444
 20
87.3809918539
 30
0.0
 40
0.9000000000000111
100
AcDbArc
 50
34.6391318474
 51
90.0
  0
ARC
  5
416
330
1F
100
AcDbEntity
  8
0
  6
SLD-Gestrichelt
 62
     7
370
     0
100
AcDbCircle
 10
110.7592801444
 20
114.9409918539
 30
0.0
 40
0.9000000000000005
100
AcDbArc
 50
270.0
 51
311.1792132368
  0
LINE
  5
417
330
1F
100
AcDbEntity
  8
0
  6
SLD-Gestrichelt
 62
     7
370
     0
100
AcDbLine
 10
169.9592801444
 20
114.243321257
 30
0.0
 11
166.8592801444
 21
114.243321257
 31
0.0
  0
LINE
  5
418
330
1F
100
AcDbEntity
  8
0
  6
SLD-Gestrichelt
 62
     7
370
     0
100
AcDbLine
 10
166.8592801444
 20
88.0786624507
 30
0.0
 11
172.4592801444
 21
88.0786624507
 31
0.0
  0
LINE
  5
419
330
1F
100
AcDbEntity
  8
0
  6
SLD-Gestrichelt
 62
     7
370
     0
100
AcDbLine
 10
109.0682801444
 20
88.2809918539
 30
0.0
 11
113.2592801444
 21
88.2809918539
 31
0.0
  0
LINE
  5
41A
330
1F
100
AcDbEntity
  8
0
  6
SLD-Gestrichelt
 62
     7
370
     0
100
AcDbLine
 10
108.0592801444
 20
89.2899918539
 30
0.0
 11
109.0682801444
 21
88.2809918539
 31
0.0
  0
LINE
  5
41B
330
1F
100
AcDbEntity
  8
0
  6
SLD-Gestrichelt
 62
     7
370
     0
100
AcDbLine
 10
161.9592801444
 20
93.2109918539
 30
0.0
 11
166.8592801444
 21
93.2109918539
 31
0.0
  0
LINE
  5
41C
330
1F
100
AcDbEntity
  8
0
  6
SLD-Gestrichelt
 62
     7
370
     0
100
AcDbLine
 10
110.7592801444
 20
114.0409918539
 30
0.0
 11
109.0092801444
 21
114.0409918539
 31
0.0
  0
LINE
  5
41D
330
1F
100
AcDbEntity
  8
0
  6
SLD-Gestrichelt
 62
     7
370
     0
100
AcDbLine
 10
109.0092801444
 20
114.0409918539
 30
0.0
 11
108.0592801444
 21
113.0909918539
 31
0.0
  0
LINE
  5
41E
330
1F
100
AcDbEntity
  8
0
  6
SLD-Gestrichelt
 62
     7
370
     0
100
AcDbLine
 10
166.8592801444
 20
111.0609918539
 30
0.0
 11
152.7592801444
 21
111.0609918539
 31
0.0
  0
LINE
  5
41F
330
1F
100
AcDbEntity
  8
0
  6
SLD-Gestrichelt
 62
     7
370
     0
100
AcDbLine
 10
161.9592801444
 20
108.0609918539
 30
0.0
 11
166.8592801444
 21
108.0609918539
 31
0.0
  0
LINE
  5
420
330
1F
100
AcDbEntity
  8
0
  6
SLD-Gestrichelt
 62
     7
370
     0
100
AcDbLine
 10
152.7592801444
 20
108.0609918539
 30
0.0
 11
154.7092801444
 21
108.0609918539
 31
0.0
  0
LINE
  5
421
330
1F
100
AcDbEntity
  8
0
  6
SLD-Gestrichelt
 62
     7
370
     0
100
AcDbLine
 10
152.7592801444
 20
111.0609918539
 30
0.0
 11
151.8579892159
 21
109.5609918539
 31
0.0
  0
LINE
  5
422
330
1F
100
AcDbEntity
  8
0
  6
SLD-Gestrichelt
 62
     7
370
     0
100
AcDbLine
 10
151.8579892159
 20
109.5609918539
 30
0.0
 11
152.7592801444
 21
108.0609918539
 31
0.0
  0
LINE
  5
423
330
1F
100
AcDbEntity
  8
VERMASSUNG
100
AcDbLine
 10
162.9592801444
 20
117.6609918539
 30
0.0
 11
162.9592801444
 21
84.6609918539
 31
0.0
  0
LINE
  5
424
330
1F
100
AcDbEntity
  8
VERMASSUNG
100
AcDbLine
 10
164.9800060866
 20
121.1609918539
 30
0.0
 11
164.9800060866
 21
81.1609918539
 31
0.0
  0
DIMENSION
  5
425
330
1F
100
AcDbEntity
  8
VERMASSUNG
100
AcDbDimension
  2
*D1
 10
187.9592801444
 20
127.3996127829
 30
0.0
 11
157.9592801444
 21
127.3996127829
 31
0.0
 70
   160
 71
     2
 42
-1.0
  3
SLDDIMSTYLE0
100
AcDbAlignedDimension
 13
127.9592801444
 23
101.1609918539
 33
0.0
 14
187.9592801444
 24
120.7609918539
 34
0.0
100
AcDbRotatedDimension
  0
DIMENSION
  5
430
330
1F
100
AcDbEntity
  8
VERMASSUNG
100
AcDbDimension
  2
*D2
 10
187.9592801444
 20
133.3996127829
 30
0.0
 11
148.0092801444
 21
133.3996127829
 31
0.0
 70
   160
 71
     2
 42
-1.0
  3
SLDDIMSTYLE0
100
AcDbAlignedDimension
 13
108.0592801444
 23
113.0909918539
 33
0.0
 14
187.9592801444
 24
120.7609918539
 34
0.0
100
AcDbRotatedDimension
  0
DIMENSION
  5
43A
330
1F
100
AcDbEntity
  8
VERMASSUNG
100
AcDbDimension
  2
*D3
 10
104.4932335065
 20
81.1609918539
 30
0.0
 11
104.4932335065
 21
101.1609918539
 31
0.0
 70
   160
  1
HSK %%c<>
 71
     2
 42
-1.0
  3
SLDDIMSTYLE0
100
AcDbAlignedDimension
 13
128.2592801444
 23
121.1609918539
 33
0.0
 14
128.2592801444
 24
81.1609918539
 34
0.0
 50
90.0
100
AcDbRotatedDimension
  0
DIMENSION
  5
446
330
1F
100
AcDbEntity
  8
VERMASSUNG
100
AcDbDimension
  2
*D4
 10
204.2635558908
 20
81.1609918539
 30
0.0
 11
204.2635558908
 21
101.1609918539
 31
0.0
 70
   160
  1
HSK %%c<>
 71
     2
 42
-1.0
  3
SLDDIMSTYLE0
100
AcDbAlignedDimension
 13
187.5592801444
 23
121.1609918539
 33
0.0
 14
187.5592801444
 24
81.1609918539
 34
0.0
 50
90.0
100
AcDbRotatedDimension
  0
LINE
  5
452
330
1F
100
AcDbEntity
  8
VERMASSUNG
  6
SLD-Punktstrich
 62
     7
370
     0
100
AcDbLine
 10
199.1162397637
 20
101.1609918539
 30
0.0
 11
106.7413116323
 21
101.1609918539
 31
0.0
  0
LINE
  5
453
330
1F
100
AcDbEntity
  8
VERMASSUNG
  6
SLD-Punktstrich
 62
     7
370
     0
100
AcDbLine
 10
190.6092801444
 20
101.2045269591
 30
0.0
 11
197.6092801444
 21
101.2045269591
 31
0.0
  0
LINE
  5
454
330
1F
100
AcDbEntity
  8
VERMASSUNG
  6
SLD-Punktstrich
 62
     7
370
     0
100
AcDbLine
 10
190.6092801444
 20
101.1174567486
 30
0.0
 11
197.6092801444
 21
101.1174567486
 31
0.0
  0
LINE
  5
455
330
1F
100
AcDbEntity
  8
VERMASSUNG
  6
SLD-Punktstrich
 62
     7
370
     0
100
AcDbLine
 10
176.6894715663
 20
101.103309797
 30
0.0
 11
147.3129908226
 21
101.1337560466
 31
0.0
  0
OLE2FRAME
  5
456
330
1F
100
AcDbEntity
  8
0
100
AcDbOle2Frame
 70
     2
  3
Bitmap
 10
13.8511154363
 20
38.264191557
 30
0.0
 11
51.6290888628
 21
31.9806341108
 31
0.0
 71
     2
 72
     0
 73
     1
 90
    12928
310
80552BED0767C5B32B40DDAF6807D121434000000000000000006FFBDDFB85D0
310
4940DDAF6807D121434000000000000000006FFBDDFB85D04940416F4BD60AFB
310
3F4000000000000000002BED0767C5B32B40416F4BD60AFB3F40000000000000
310
0000000000000100000000010000010000000100000000000100000000320000
310
D0CF11E0A1B11AE1000000000000000000000000000000003E000300FEFF0900
310
0600000000000000000000000100000001000000000000000010000002000000
310
01000000FEFFFFFF0000000000000000FFFFFFFFFFFFFFFFFFFFFFFFFFFFFFFF
310
FFFFFFFFFFFFFFFFFFFFFFFFFFFFFFFFFFFFFFFFFFFFFFFFFFFFFFFFFFFFFFFF
310
FFFFFFFFFFFFFFFFFFFFFFFFFFFFFFFFFFFFFFFFFFFFFFFFFFFFFFFFFFFFFFFF
310
FFFFFFFFFFFFFFFFFFFFFFFFFFFFFFFFFFFFFFFFFFFFFFFFFFFFFFFFFFFFFFFF
310
FFFFFFFFFFFFFFFFFFFFFFFFFFFFFFFFFFFFFFFFFFFFFFFFFFFFFFFFFFFFFFFF
310
FFFFFFFFFFFFFFFFFFFFFFFFFFFFFFFFFFFFFFFFFFFFFFFFFFFFFFFFFFFFFFFF
310
FFFFFFFFFFFFFFFFFFFFFFFFFFFFFFFFFFFFFFFFFFFFFFFFFFFFFFFFFFFFFFFF
310
FFFFFFFFFFFFFFFFFFFFFFFFFFFFFFFFFFFFFFFFFFFFFFFFFFFFFFFFFFFFFFFF
310
FFFFFFFFFFFFFFFFFFFFFFFFFFFFFFFFFFFFFFFFFFFFFFFFFFFFFFFFFFFFFFFF
310
FFFFFFFFFFFFFFFFFFFFFFFFFFFFFFFFFFFFFFFFFFFFFFFFFFFFFFFFFFFFFFFF
310
FFFFFFFFFFFFFFFFFFFFFFFFFFFFFFFFFFFFFFFFFFFFFFFFFFFFFFFFFFFFFFFF
310
FFFFFFFFFFFFFFFFFFFFFFFFFFFFFFFFFFFFFFFFFFFFFFFFFFFFFFFFFFFFFFFF
310
FFFFFFFFFFFFFFFFFFFFFFFFFFFFFFFFFFFFFFFFFFFFFFFFFFFFFFFFFFFFFFFF
310
FFFFFFFFFFFFFFFFFFFFFFFFFFFFFFFFFFFFFFFFFFFFFFFFFFFFFFFFFFFFFFFF
310
FDFFFFFFFEFFFFFFFEFFFFFFFEFFFFFF05000000060000000700000008000000
310
090000000A0000000B0000000C0000000D0000000E0000000F00000010000000
310
11000000120000001300000014000000150000001600000017000000FEFFFFFF
310
FFFFFFFFFFFFFFFFFFFFFFFFFFFFFFFFFFFFFFFFFFFFFFFFFFFFFFFFFFFFFFFF
310
FFFFFFFFFFFFFFFFFFFFFFFFFFFFFFFFFFFFFFFFFFFFFFFFFFFFFFFFFFFFFFFF
310
FFFFFFFFFFFFFFFFFFFFFFFFFFFFFFFFFFFFFFFFFFFFFFFFFFFFFFFFFFFFFFFF
310
FFFFFFFFFFFFFFFFFFFFFFFFFFFFFFFFFFFFFFFFFFFFFFFFFFFFFFFFFFFFFFFF
310
FFFFFFFFFFFFFFFFFFFFFFFFFFFFFFFFFFFFFFFFFFFFFFFFFFFFFFFFFFFFFFFF
310
FFFFFFFFFFFFFFFFFFFFFFFFFFFFFFFFFFFFFFFFFFFFFFFFFFFFFFFFFFFFFFFF
310
FFFFFFFFFFFFFFFFFFFFFFFFFFFFFFFFFFFFFFFFFFFFFFFFFFFFFFFFFFFFFFFF
310
FFFFFFFFFFFFFFFFFFFFFFFFFFFFFFFFFFFFFFFFFFFFFFFFFFFFFFFFFFFFFFFF
310
FFFFFFFFFFFFFFFFFFFFFFFFFFFFFFFFFFFFFFFFFFFFFFFFFFFFFFFFFFFFFFFF
310
FFFFFFFFFFFFFFFFFFFFFFFFFFFFFFFFFFFFFFFFFFFFFFFFFFFFFFFFFFFFFFFF
310
FFFFFFFFFFFFFFFFFFFFFFFFFFFFFFFFFFFFFFFFFFFFFFFFFFFFFFFFFFFFFFFF
310
FFFFFFFFFFFFFFFFFFFFFFFFFFFFFFFFFFFFFFFFFFFFFFFFFFFFFFFFFFFFFFFF
310
FFFFFFFFFFFFFFFFFFFFFFFFFFFFFFFFFFFFFFFFFFFFFFFFFFFFFFFFFFFFFFFF
310
52006F006F007400200045006E00740072007900000000000000000000000000
310
0000000000000000000000000000000000000000000000000000000000000000
310
16000500FFFFFFFFFFFFFFFF020000000A00030000000000C000000000000046
310
00000000000000000000000050D9002E898AC90103000000C000000000000000
310
01004F006C006500000000000000000000000000000000000000000000000000
310
0000000000000000000000000000000000000000000000000000000000000000
310
0A000200FFFFFFFFFFFFFFFFFFFFFFFF00000000000000000000000000000000
310
0000000000000000000000000000000000000000000000001400000000000000
310
010043006F006D0070004F0062006A0000000000000000000000000000000000
310
0000000000000000000000000000000000000000000000000000000000000000
310
120002010100000003000000FFFFFFFF00000000000000000000000000000000
310
0000000000000000000000000000000000000000010000004D00000000000000
310
01004F006C006500310030004E00610074006900760065000000000000000000
310
0000000000000000000000000000000000000000000000000000000000000000
310
1A000200FFFFFFFFFFFFFFFFFFFFFFFF00000000000000000000000000000000
310
0000000000000000000000000000000000000000040000002426000000000000
310
FEFFFFFF02000000FEFFFFFFFFFFFFFFFFFFFFFFFFFFFFFFFFFFFFFFFFFFFFFF
310
FFFFFFFFFFFFFFFFFFFFFFFFFFFFFFFFFFFFFFFFFFFFFFFFFFFFFFFFFFFFFFFF
310
FFFFFFFFFFFFFFFFFFFFFFFFFFFFFFFFFFFFFFFFFFFFFFFFFFFFFFFFFFFFFFFF
310
FFFFFFFFFFFFFFFFFFFFFFFFFFFFFFFFFFFFFFFFFFFFFFFFFFFFFFFFFFFFFFFF
310
FFFFFFFFFFFFFFFFFFFFFFFFFFFFFFFFFFFFFFFFFFFFFFFFFFFFFFFFFFFFFFFF
310
FFFFFFFFFFFFFFFFFFFFFFFFFFFFFFFFFFFFFFFFFFFFFFFFFFFFFFFFFFFFFFFF
310
FFFFFFFFFFFFFFFFFFFFFFFFFFFFFFFFFFFFFFFFFFFFFFFFFFFFFFFFFFFFFFFF
310
FFFFFFFFFFFFFFFFFFFFFFFFFFFFFFFFFFFFFFFFFFFFFFFFFFFFFFFFFFFFFFFF
310
FFFFFFFFFFFFFFFFFFFFFFFFFFFFFFFFFFFFFFFFFFFFFFFFFFFFFFFFFFFFFFFF
310
FFFFFFFFFFFFFFFFFFFFFFFFFFFFFFFFFFFFFFFFFFFFFFFFFFFFFFFFFFFFFFFF
310
FFFFFFFFFFFFFFFFFFFFFFFFFFFFFFFFFFFFFFFFFFFFFFFFFFFFFFFFFFFFFFFF
310
FFFFFFFFFFFFFFFFFFFFFFFFFFFFFFFFFFFFFFFFFFFFFFFFFFFFFFFFFFFFFFFF
310
FFFFFFFFFFFFFFFFFFFFFFFFFFFFFFFFFFFFFFFFFFFFFFFFFFFFFFFFFFFFFFFF
310
FFFFFFFFFFFFFFFFFFFFFFFFFFFFFFFFFFFFFFFFFFFFFFFFFFFFFFFFFFFFFFFF
310
FFFFFFFFFFFFFFFFFFFFFFFFFFFFFFFFFFFFFFFFFFFFFFFFFFFFFFFFFFFFFFFF
310
FFFFFFFFFFFFFFFFFFFFFFFFFFFFFFFFFFFFFFFFFFFFFFFFFFFFFFFFFFFFFFFF
310
01000002000000000000000000000000000000000BFF0C0D2B00000023000000
310
080000000B00000000000000110000003C000000900100000000000060000000
310
0100FEFF030A0000FFFFFFFF0A00030000000000C00000000000004607000000
310
5042727573680007000000504272757368000700000050427275736800F439B2
310
710000000000000000000000000000002B000000110000000000000000000000
310
90010000000000BA030201225300650067006F00650020005500490000000000
310
0000000000000000000000000000000000000000000000000000000000000000
310
0000000000000000000000005300650067006F00650020005500490000000000
310
0000000000000000000000000000000000000000000000000000000000000000
310
0000000000000000000000000000000000000000000000000000000000000000
310
0000000000000000000000000000000000000000000000000000000000000000
310
0000000000000000000000005300740061006E00640061007200640000000000
310
0000000000000000000000000000000000000000000000000000000000000000
310
000000000000000000000000420061006C007400690073006300680000000000
310
0000000000000000000000000000000000000000000000000000000000000000
310
0000000000000000000000006476000800000000000000000BFF0C0D2B000000
310
20260000424D0E260000000000003E00000028000000B40200006E0000000100
310
01000000000000000000130B0000130B00000200000002000000000000FFFFFF
310
FFFFFFFFFFFFFFFFFFFFFFFFFFFFFFFFFFFFFFFFFFFFFFFFFFFFFFFFFFFFFFFF
310
FFFFFFFFFFFFFFFFFFFFFFFFFFFFFFFFFFFFFFFFFFFFFFFFFFFFFFFFFFFFFFFF
310
FFFFFFFFFFFFFFFFFFFFFFFFFFFFFFFFFFFFFFFFFFFFFFFFF000FFFFFFFFFFFF
310
FFFFFFFFFFFFFFFFFFFFFFFFFFFFFFFFFFFFFFFFFFFFFFFFFFFFFFFFFFFFFFFF
310
FFFFFFFFFFFFFFFFFFFFFFFFFFFFFFFFFFFFFFFFFFFFFFFFFFFFFFFFFFFFFFFF
310
FFFFFFFFFFFFFFFFFFFFFFFFFFFFFFFFF000FFFFFFFFFFFFFFFFFFFFFFFFFFFF
310
FFFFFFFFFFFFFFFFFFFFFFFFFFFFFFFFFFFFFFFFFFFFFFFFFFFFFFFFFFFFFFFF
310
FFFFFFFFFFFFFFFFFFFFFFFFFFFFFFFFFFFFFFFFFFFFFFFFFFFFFFFFFFFFFFFF
310
FFFFFFFFFFFFFFFFF000FFFFFFFFFFFFFFFFFFFFFFFFFFFFFFFFFFFFFFFFFFFF
310
FFFFFFFFFFFFFFFFFFFFFFFFFFFFFFFFFFFFFFFFFFFFFFFFFFFFFFFFFFFFFFFF
310
FFFFFFFFFFFFFFFFFFFFFFFFFFFFFFFFFFFFFFFFFFFFFFFFFFFFFFFFFFFFFFFF
310
F000FFFFFFFFFFFFFFFFFFFFFFFFFFFFFFFFFFFFFFFFFFFFFFFFFFFFFFFFFFFF
310
FFFFFFFFFFFFFFFFFFFFFFFFFFFFFFFFFFFFFFFFFFFFFFFFFFFFFFFFFFFFFFFF
310
FFFFFFFFFFFFFFFFFFFFFFFFFFFFFFFFFFFFFFFFFFFFFFFFF000FFFFFFFFFFFF
310
FFFFFFFFFFFFFFFFFFFFFFFFFFFFFFFFFFFFFFFFFFFFFFFFFFFFFFFFFFFFFFFF
310
FFFFFFFFFFFFFFFFFFFFFFFFFFFFFFFFFFFFFFFFFFFFFFFFFFFFFFFFFFFFFFFF
310
FFFFFFFFFFFFFFFFFFFFFFFFFFFFFFFFF000FFFFFFFFFFFFFFFFFFFFFFFFFFFF
310
FFFFFFFFFFFFFFFFFFFFFFFFFFFFFFFFFFFFFFFFFFFFFFFFFFFFFFFFFFFFFFFF
310
FFFFFFFFFFFFFFFFFFFFFFFFFFFFFFFFFFFFFFFFFFFFFFFFFFFFFFFFFFFFFFFF
310
FFFFFFFFFFFFFFFFF000FFFFFFFFFFFFFFFFFFFFFFFFFFFFFFFFFFFFFFFFFFFF
310
FFFFFFFFFFFFFFFFFFFFFFFFFFFFFFFFFFFFFFFFFFFFFFFFFFFFFFFFFFFFFFFF
310
FFFFFFFFFFFFFFFFFFFFFFFFFFFFFFFFFFFFFFFFFFFFFFFFFFFFFFFFFFFFFFFF
310
F000FFFFFFFFFFFFFFFFFFFFFFFFFFFFFFFFFFFFFFFFFFFFFFFFFFFFFFFFFFFF
310
FFFFFFFFFFFFFFFFFFFFFFFFFFFFFFFFFFFFFFFFFFFFFFFFFFFFFFFFFFFFFFFF
310
FFFFFFFFFFFFFFFFFFFFFFFFFFFFFFFFFFFFFFFFFFFFFFFFF000FFFFFFFFFFFF
310
FFFFFFFFFFFFFFFFFFFFFFFFFFFFFFFFFFFFFFFFFFFFFFFFFFFFFFFFFFFFFFFF
310
FFFFFFFFFFFFFFFFFFFFFFFFFFFFFFFFFFFFFFFFFFFFFFFFFFFFFFFFFFFFFFFF
310
FFFFFFFFFFFFFFFFFFFFFFFFFFFFFFFFF000FFFFFFFFFFFFFFFFFFFFFFFFFFFF
310
FFFFFFFFFFFFFFFFFFFFFFFFFFFFFFFFFFFFFFFFFFFFFFFFFFFFFFFFFFFFFFFF
310
FFFFFFFFFFFFFFFFFFFFFFFFFFFFFFFFFFFFFFFFFFFFFFFFFFFFFFFFFFFFFFFF
310
FFFFFFFFFFFFFFFFF000FFFFFFFFFFFFFFFFFFFFFFFFFFFFFFFFFFFFFFFFFFFF
310
FFFFFFFFFFFFFFFFFFFFFFFFFFFFFFFFFFFFFFFFFFFFFFFFFFFFFFFFFFFFFFFF
310
FFFFFFFFFFFFFFFFFFFFFFFFFFFFFFFFFFFFFFFFFFFFFFFFFFFFFFFFFFFFFFFF
310
F000FFFFFFFFFFFFFFFFFFFFFFFFFFFFFFFFFFFFFFFFFFFFFFFFFFFFFFFFFFFF
310
FFFFFFFFFFFFFFFFFFFFFFFFFFFFFFFFFFFFFFFFFFFFFFFFFFFFFFFFFFFFFFFF
310
FFFFFFFFFFFFFFFFFFFFFFFFFFFFFFFFFFFFFFFFFFFFFFFFF000FFFFFFFFFFFF
310
FFFFFFFFFFFFFFFFFFFFFFFFFFFFFFFFFFFFFFFFFFFFFFFFFFFFFFFFFFFFFFFF
310
FFFFFFFFFFFFFFFFFFFFFFFFFFFFFFFFFFFFFFFFFFFFFFFFFFFFFFFFFFFFFFFF
310
FFFFFFFFFFFFFFFFFFFFFFFFFFFFFFFFF000FFFFFFFFFFFFFFFFFFFFFFFFFFFF
310
FFFFFFFFFFFFFFFFFFFFFFFFFFFFFFFFFFFFFFFFFFFFFFFFFFFFFFFFFFFFFFFF
310
FFFFFFFFFFFFFFFFFFFFFFFFFFFFFFFFFFFFFFFFFFFFFFFFFFFFFFFFFFFFFFFF
310
FFFFFFFFFFFFFFFFF000FFFFFFFFFFFFFFFFFFFFFFFFFFFFFFFFFFFFFFFFFFFF
310
FFFFFFFFFFFFFFFFFFFFFFFFFFFFFFFFFFFFFFFFFFFFFFFFFFFFFFFFFFFFFFFF
310
FFFFFFFFFFFFFFFFFFFFFFFFFFFFFFFFFFFFFFFFFFFFFFFFFFFFFFFFFFFFFFFF
310
F000FFFFFFFFFFFFFFFFFFFFFFFFFFFFFFFFFFFFFFFFFFFFFFFFFFFFFFFFFFFF
310
FFFFFFFFFFFFFFFFFFFFFFFFFFFFFFFFFFFFFFFFFFFFFFFFFFFFFFFFFFFFFFFF
310
FFFFFFFFFFFFFFFFFFFFFFFFFFFFFFFFFFFFFFFFFFFFFFFFF000FFFFFFFFFFFF
310
FFFFFFFFFFFFFFFFFFFFFFFFFFFFFFFFFFFFFFFFFFFFFFFFFFFFFFFFFFFFFFFF
310
FFFFFFFFFFFFFFFFFFFFFFFFFFFFFFFFFFFFFFFFFFFFFFFFFFFFFFFFFFFFFFFF
310
FFFFFFFFFFFFFFFFFFFFFFFFFFFFFFFFF000FFFFFFFFFFFFFFFFFFFFFFFFFFFF
310
FFFFFFFFFFFFFFFFFFFFFFFFFFFFFFFFFFFFFFFFFFFFFFFFFFFFFFFFFFFFFFFF
310
FFFFFFFFFFFFFFFFFFFFFFFFFFFFFFFFFFFFFFFFFFFFFFFFFFFFFFFFFFFFFFFF
310
FFFFFFFFFFFFFFFFF000FFFFF80003FFFFFFFFFFFFFFFFFFFFFFFFFFFFFFFFFF
310
FFFFF00007FFFFFFFFFF00007FFFFFF800000000000000007FFFFFFFFFFFFFFF
310
FFFFFFFC001FFFFFFFFFFFFFFC001FFFFFFFFFFFFFFFFFFFFFFFFFFE0007FFFF
310
F000FFFF8000007FFFFFFFF8000FFFFFC0007FFFFF80007FFFFF0000007FFFFF
310
FFF8000007FFFFF800000000000000007FFFFFF0001FFFFFFFFFFFC00001FFFF
310
FFFFFFFFC00001FFFFFFFF000000000003FFFFE000007FFFF000FFFE0000000F
310
FFFFFFF0000FFFFF80007FFFFF80007FFFFC0000001FFFFFFFC0000001FFFFF8
310
00000000000000007FFFFFF0001FFFFFFFFFFE0000003FFFFFFFFFFE0000003F
310
FFFFFF000000000003FFFF0000000FFFF000FFF800000003FFFFFFF00007FFFF
310
80007FFFFF80007FFFF000000007FFFFFF000000003FFFF80000000000000000
310
7FFFFFF0001FFFFFFFFFF80000000FFFFFFFFFF80000000FFFFFFF0000000000
310
03FFFC00000003FFF000FFE000000000FFFFFFF00007FFFF80003FFFFF80007F
310
FFC000000001FFFFFC000000001FFFF800000000000000007FFFFFF0001FFFFF
310
FFFFE000000003FFFFFFFFE000000003FFFFFF000000000003FFF000000000FF
310
F000FF80000000007FFFFFF00007FFFF80003FFFFF80007FFF8000000000FFFF
310
F80000000007FFF800000000000000007FFFFFF0001FFFFFFFFFC000000001FF
310
FFFFFFC000000001FFFFFF000000000003FFC0000000007FF000FF0000000000
310
3FFFFFE00007FFFF00003FFFFF80007FFE00000000003FFFF00000000003FFF8
310
00000000000000007FFFFFF0001FFFFFFFFF8000000000FFFFFFFF8000000000
310
FFFFFF000000000003FF80000000003FF000FE00000000001FFFFFE00003FFFF
310
00003FFFFF80007FFC00000000001FFFE00000000001FFF8000001FFFE000000
310
7FFFFFF0001FFFFFFFFE00000000003FFFFFFE00000000003FFFFF0000000000
310
03FF00000000001FF000FC00000000000FFFFFE00003FFFF00001FFFFF80007F
310
F800000000001FFFC00000000000FFF8000001FFFE0000007FFFFFF0001FFFFF
310
FFFC00000000001FFFFFFC00000000001FFFFF000000000003FE00000000000F
310
F000F8000000000007FFFFE00003FFFF00001FFFFF80007FF800000000000FFF
310
800000000000FFF8000001FFFE0000007FFFFFF0001FFFFFFFF800000000000F
310
FFFFF800000000000FFFFF000000000003FC000000000007F000F80000000000
310
03FFFFC00003FFFE00001FFFFF80007FF0000000000007FF0000000000007FF8
310
000001FFFE0000007FFFFFF0001FFFFFFFF0000000000007FFFFF00000000000
310
07FFFF000000000003F8000000000003F000F0000000000003FFFFC00001FFFE
310
00001FFFFF80007FE0000000000007FE0000000000003FF8000001FFFE000000
310
7FFFFFF0001FFFFFFFF0000000000007FFFFF0000000000007FFFF0000000000
310
03F800001F800003F000E00001FFF00001FFFFC00001FFFE00000FFFFF80007F
310
E00001FFE00003FE00001FFF00003FF8000001FFFE0000007FFFFFF0001FFFFF
310
FFE000003E000003FFFFE000003E000003FFFF000000000003F00001FFF80001
310
F000E00007FFFC0001FFFFC00001FFFE00000FFFFF80007FC0000FFFFC0003FC
310
0000FFFFC0001FF8000001FFFE0000007FFFFFF0001FFFFFFFC00003FFE00001
310
FFFFC00003FFE00001FFFF0001FFFFFFFFF00007FFFE0001F000E0000FFFFF00
310
00FFFF800001FFFC00000FFFFF80007FC0001FFFFE0001FC0001FFFFE0001FF8
310
000001FFFE0000007FFFFFF0001FFFFFFF80000FFFF80000FFFF80000FFFF800
310
00FFFF0003FFFFFFFFE0000FFFFF8000F000C0003FFFFF8000FFFF800000FFFC
310
000007FFFF80007F80003FFFFF0001FC0003FFFFF0001FF8000001FFFE000000
310
7FFFFFF0001FFFFFFF80003FFFFE0000FFFF80003FFFFE0000FFFF0003FFFFFF
310
FFE0003FFFFF8000F000C0003FFFFF8000FFFF800000FFFC000007FFFF80007F
310
80007FFFFF8001F80007FFFFF8000FF8000001FFFE0000007FFFFFF0001FFFFF
310
FF00007FFFFF00007FFF00007FFFFF00007FFF0003FFFFFFFFE0003FFFFFC000
310
F000C0007FFFFFC000FFFF000000FFFC000007FFFF80007F8000FFFFFF8000F8
310
000FFFFFF8000FF8000001FFFE0000007FFFFFF0001FFFFFFF0000FFFFFF8000
310
7FFF0000FFFFFF80007FFF0003FFFFFFFFC0007FFFFFC00070008000FFFFFFC0
310
00FFFF000000FFF8000007FFFF80007F8000FFFFFF8000F8000FFFFFF8000FF8
310
000001FFFE0000007FFFFFF0001FFFFFFE0001FFFFFFC0003FFE0001FFFFFFC0
310
003FFF0003FFFFFFFFC0007FFFFFE00070008000FFFFFFC0007FFF0000007FF8
310
000003FFFF80007F0001FFFFFF8000F8000FFFFFF8000FF8000001FFFE000000
310
7FFFFFF0001FFFFFFE0001FFFFFFC0003FFE0001FFFFFFC0003FFF0003FFFFFF
310
FFC000FFFFFFE00070008000FFFFFFC0007FFF0000007FF8000003FFFF80007F
310
0001FFFFFF8000F8001FFFFFF8000FF8000001FFFE0000007FFFFFF0001FFFFF
310
FE0003FFFFFFE0003FFE0003FFFFFFE0003FFF0003FFFFFFFFC000FFFFFFE000
310
70008000FFFFFFC0007FFE0000007FF8000003FFFF80007F0001FFFFFF8000F0
310
001FFFFFF8000FF8000001FFFE0000007FFFFFF0001FFFFFFC0003FFFFFFE000
310
1FFC0003FFFFFFE0001FFF0003FFFFFFFFC000FFFFFFC00070008000FFFFFF80
310
007FFE0000007FF0000003FFFF80007F0001FFFFFF0000F0001FFFFFF8000FF8
310
000001FFFE0000007FFFFFF0001FFFFFFC0007FFFFFFF0001FFC0007FFFFFFF0
310
001FFF0003FFFFFFFFC000FFFFFFC00070008001FFFFFF0000FFFE0000003FF0
310
000001FFFF80007F0001FFFFFF0000F8001FFFFFF0000FF8000001FFFE000000
310
7FFFFFF0001FFFFFFC0007FFFFFFF0001FFC0007FFFFFFF0001FFF0003FFFFFF
310
FFC001FFFFFF80007000FFFFFFFFFE0000FFFE0008003FF0008001FFFF80007F
310
FFFFFFFFFC0000FFFFFFFFFFE0000FF8000001FFFE0000007FFFFFF0001FFFFF
310
F8000FFFFFFFF8000FF8000FFFFFFFF8000FFF0003FFFFFFFFFFFFFFFFFF0000
310
7000FFFFFFFFFC0000FFFC0008003FF0008001FFFF80007FFFFFFFFFF80001FF
310
FFFFFFFF80000FF8000001FFFE0000007FFFFFF0001FFFFFF8000FFFFFFFF800
310
0FF8000FFFFFFFF8000FFF0003FFFFFFFFFFFFFFFFFE0000F000FFFFFFFFE000
310
00FFFC000C003FE000C001FFFF80007FFFFFFFFFC00001FFFFFFFFFE00001FF8
310
000001FFFE0000007FFFFFF0001FFFFFF8000FFFFFFFF8000FF8000FFFFFFFF8
310
000FFF0003FFFFFFFFFFFFFFFFF00000F000FFFFFFFE000001FFFC000C001FE0
310
00C000FFFF80007FFFFFFFFE000001FFFFFFFFE000001FF80FFFFFFFFFFFFFC0
310
7FFFFFF0001FFFFFF8000FFFFFFFF8000FF8000FFFFFFFF8000FFF0003FFFFFF
310
FFFFFFFFFF800000F000FFFFFFC0000001FFFC001C001FE001C000FFFF80007F
310
FFFFFF80000003FFFFFFF80000001FF80FFFFFFFFFFFFFC07FFFFFF0001FFFFF
310
F8001FFFFFFFFC000FF8001FFFFFFFFC000FFF0003FFFFFFFFFFFFFFF0000001
310
F000FFFFF800000001FFF8001C001FE001C000FFFF80007FFFFFF800000003FF
310
FFFF800000003FF80FFFFFFFFFFFFFC07FFFFFF0001FFFFFF8001FFFFFFFFC00
310
0FF8001FFFFFFFFC000FFF0003FFFFFFFFFFFFFE00000001F000FFFFC0000000
310
03FFF8001E001FC001E000FFFF80007FFFFF8000000007FFFFFC000000003FF8
310
0FFFFFFFFFFFFFC07FFFFFF0001FFFFFF8001FFFFFFFFC000FF8001FFFFFFFFC
310
000FFF0003FFFFFFFFFFFFE000000003F000FFFE0000000007FFF8001E000FC0
310
01E0007FFF80007FFFFE0000000007FFFFE0000000007FF80FFFFFFFFFFFFFC0
310
7FFFFFF0001FFFFFF0001FFFFFFFFC0007F0001FFFFFFFFC0007FF0003FFFFFF
310
FFFFFF0000000003F000FFF80000000007FFF8001E000FC003E0007FFF80007F
310
FFF0000000000FFFFF8000000000FFF80FFFFFFFFFFFFFC07FFFFFF0001FFFFF
310
F0001FFFFFFFFC0007F0001FFFFFFFFC0007FF0003FFFFFFFFFFFC0000000007
310
F000FFE0000000000FFFF0003E000FC003E0007FFF80007FFFC0000000001FFF
310
FE0000000001FFF80FFFFFFFFFFFFFC07FFFFFF0001FFFFFF0001FFFFFFFFC00
310
07F0001FFFFFFFFC0007FF0003FFFFFFFFFFF0000000000FF000FFC000000000
310
1FFFF0003F000F8003F0003FFF80007FFF80000000003FFFF80000000003FFF8
310
0FFFFFFFFFFFFFC07FFFFFF0001FFFFFF0001FFFFFFFFC0007F0001FFFFFFFFC
310
0007FF0003FFFFFFFFFFE0000000001FF000FF00000000007FFFF0003F000780
310
03F0003FFF80007FFF00000000007FFFF00000000007FFF80FFFFFFFFFFFFFC0
310
7FFFFFF0001FFFFFF0001FFFFFFFFC0007F0001FFFFFFFFC0007FF0003FFFFFF
310
FFFF80000000007FF000FE0000000000FFFFE0003F00078007F0003FFF80007F
310
FE0000000001FFFFE0000000001FFFF80FFFFFFFFFFFFFC07FFFFFF0001FFFFF
310
F0001FFFFFFFFC0007F0001FFFFFFFFC0007FF0003FFFFFFFFFF0000000000FF
310
F000FC0000000003FFFFE0007F00078007F0003FFF80007FFC0000000007FFFF
310
C0000000007FFFF80FFFFFFFFFFFFFC07FFFFFF0001FFFFFF8001FFFFFFFFC00
310
0FF8001FFFFFFFFC000FFF0003FFFFFFFFFE0000000003FFF000FC000000000F
310
FFFFE0007F80070007F8001FFF80007FF8000000001FFFFF8000000001FFFFF8
310
0FFFFFFFFFFFFFC07FFFFFF0001FFFFFF8001FFFFFFFFC000FF8001FFFFFFFFC
310
000FFF0003FFFFFFFFFC000000000FFFF000F8000000007FFFFFE0007F800700
310
07F8001FFF80007FF000000000FFFFFF800000000FFFFFF80FFFFFFFFFFFFFC0
310
7FFFFFF0001FFFFFF8000FFFFFFFF8000FF8000FFFFFFFF8000FFF0003FFFFFF
310
FFFC000000007FFFF000F800000007FFFFFFC0007F8003000FF8001FFF80007F
310
F000000007FFFFFF000000007FFFFFF80FFFFFFFFFFFFFC07FFFFFF0001FFFFF
310
F8000FFFFFFFF8000FF8000FFFFFFFF8000FFF0003FFFFFFFFF80000000FFFFF
310
F000F0000000FFFFFFFFC000FF8003000FF8001FFF80007FE0000000FFFFFFFF
310
0000000FFFFFFFF8000001FFFE0000007FFFFFF0001FFFFFF8000FFFFFFFF800
310
0FF8000FFFFFFFF8000FFF0003FFFFFFFFF8000000FFFFFFF000F000000FFFFF
310
FFFFC000FFC002000FF8000FFF80007FE000001FFFFFFFFE000001FFFFFFFFF8
310
000001FFFE0000007FFFFFF0001FFFFFF8000FFFFFFFF8000FF8000FFFFFFFF8
310
000FFF0003FFFFFFFFF000001FFFFFFFF000E00000FFFFFFFFFFC000FFC00200
310
0FFC000FFF80007FE00001FFFFFFFFFE00001FFFFFFFFFF8000001FFFE000000
310
7FFFFFF0001FFFFFFC000FFFFFFFF8001FFC000FFFFFFFF8001FFF0003FFFFFF
310
FFF00001FFFFFFFFF000E00007FFFFFFFFFF8000FFC000001FFC000FFF80007F
310
C0000FFFFFFFFFFE0000FFFFFFFFFFF8000001FFFE0000007FFFFFF0001FFFFF
310
FC0007FFFFFFF0001FFC0007FFFFFFF0001FFF0003FFFFFFFFF00007FFFFFFFF
310
F000E0001FFFFFFFFFFF8000FFC000001FFC000FFF80007FC0003FFFFFFFFFFE
310
0001FFFFFFFFFFF8000001FFFE0000007FFFFFF0001FFFFFFC0007FFFFFFF000
310
1FFC0007FFFFFFF0001FFF0003FFFFFFFFF0001FFFFFFFFFF000E0003FFFFF00
310
03FF8001FFE000001FFC0007FF80007FC0007FFFFF0007FC0003FFFFF0003FF8
310
000001FFFE0000007FFFFFF0001FFFFFFC0003FFFFFFE0001FFC0003FFFFFFE0
310
001FFF0003FFFFFFFFF0003FFFFFFFFFF000E0003FFFFF0001FF8001FFE00000
310
1FFE0007FF80007FC0007FFFFE0003FC0007FFFFE0003FF8000001FFFE000000
310
7FFFFFF0001FFFFFFE0003FFFFFFE0003FFE0003FFFFFFE0003FFF0003FFFFFF
310
FFF0003FFFFF8001F000E0003FFFFF0001FF0001FFE000001FFE0007FF80007F
310
C0007FFFFE0003FC0007FFFFE0003FF8000001FFFE0000007FFFFFF0001FFFFF
310
FE0001FFFFFFC0003FFE0001FFFFFFC0003FFF0003FFFFFFFFF0003FFFFF0001
310
F000E0003FFFFF0003FF0001FFE000003FFE0007FF80007FC0007FFFFE0003FC
310
0007FFFFE0003FF8000001FFFE0000007FFFFFF0001FFFFFFF0001FFFFFFC000
310
7FFF0001FFFFFFC0007FFF0003FFFFFFFFF0003FFFFF0001F000E0003FFFFE00
310
03FF0003FFF000003FFE0003FF80007FC0007FFFFC0003FE0007FFFFE0003FF8
310
000001FFFE0000007FFFFFF0001FFFFFFF0000FFFFFF80007FFF0000FFFFFF80
310
007FFF0003FFFFFFFFF0003FFFFF0001F000E0003FFFFE0003FF0003FFF00000
310
3FFF0003FF80007FC0007FFFFC0007FE0007FFFFC0003FF8000001FFFE000000
310
7FFFFFF0001FFFFFFF80007FFFFF0000FFFF80007FFFFF0000FFFF0003FFFFFF
310
FFF0003FFFFF0003F000E0003FFFFC0003FE0003FFF000003FFF0003FF80007F
310
E0003FFFF80007FE0003FFFFC0007FF8000001FFFE0000007FFFFFF0001FFFFF
310
FF80003FFFFE0000FFFF80003FFFFE0000FFFF0003FFFFFFFFF0001FFFFE0003
310
F000F0001FFFF80003FE0003FFF000007FFF0001FF80007FE0003FFFF00007FE
310
0001FFFF80007FF8000001FFFE0000007FFFFFF0001FFFFFFFC0000FFFF80001
310
FFFFC0000FFFF80001FFFF0003FFFFFFFFF0001FFFFC0003F000F0000FFFF000
310
07FE0007FFF800007FFF0001FF80007FE0001FFFE00007FF0000FFFE00007FF8
310
000001FFFE0000007FFFFFF0001FFFFFFFC00003FFE00001FFFFC00003FFE000
310
01FFFF0003FFFFFFFFF8000FFFF80003F000F00003FFC00007FC0007FFF80000
310
7FFF8001FF80007FF00007FF80000FFF00007FF80000FFF8000001FFFE000000
310
7F80000000000001FFE000003E000003FFFFE000003E000003FFFF0003FFFFFF
310
FFF80003FFE00007F000F800000000000FFC0007FFF800007FFF8001FF80007F
310
F000000000000FFF000000000000FFF8000001FFFE0000007F80000000000001
310
FFF0000000000007FFFFF0000000000007FFFF0003FFFFFFFFFC00007E000007
310
F000F800000000000FFC0007FFF80000FFFF8000FF80007FF800000000001FFF
310
800000000001FFF8000001FFFE0000007F80000000000001FFF800000000000F
310
FFFFF800000000000FFFFF0003FFFFFFFFFC00000000000FF000FC0000000000
310
1FFC0007FFFC0000FFFF8000FF80007FF800000000003FFFC00000000001FFF8
310
000001FFFE0000007F80000000000001FFF800000000000FFFFFF80000000000
310
0FFFFF0003FFFFFFFFFE00000000001FF000FE00000000003FF8000FFFFC0000
310
FFFF8000FF80007FFC00000000003FFFC00000000003FFF8000001FFFE000000
310
7F80000000000001FFFC00000000001FFFFFFC00000000001FFFFF0003FFFFFF
310
FFFF00000000001FF000FF00000000003FF8000FFFFC0000FFFFC000FF80007F
310
FE00000000007FFFE00000000007FFF8000001FFFE0000007F80000000000001
310
FFFE00000000003FFFFFFE00000000003FFFFF0003FFFFFFFFFF80000000003F
310
F000FF80000000007FF8000FFFFC0001FFFFC0007F80007FFF0000000000FFFF
310
F0000000000FFFF800000000000000007F80000000000001FFFF8000000000FF
310
FFFFFF8000000000FFFFFF0003FFFFFFFFFFC0000000007FF000FFC000000000
310
FFF8000FFFFE0001FFFFC0007F80007FFF8000000001FFFFF8000000001FFFF8
310
00000000000000007F80000000000001FFFFC000000001FFFFFFFFC000000001
310
FFFFFF0003FFFFFFFFFFE000000000FFF000FFE000000003FFF0001FFFFE0001
310
FFFFC0007F80007FFFC000000007FFFFFE000000003FFFF80000000000000000
310
7F80000000000001FFFFE000000003FFFFFFFFE000000003FFFFFF0003FFFFFF
310
FFFFF000000003FFF000FFF80000000FFFF0001FFFFE0001FFFFE0007F80007F
310
FFF00000000FFFFFFF00000000FFFFF800000000000000007F80000000000001
310
FFFFF80000000FFFFFFFFFF80000000FFFFFFF0003FFFFFFFFFFFC0000000FFF
310
F000FFFE0000003FFFF0001FFFFE0003FFFFE0003F80007FFFFC0000003FFFFF
310
FFC0000003FFFFF800000000000000007F80000000000001FFFFFE0000003FFF
310
FFFFFFFE0000003FFFFFFF0003FFFFFFFFFFFF0000003FFFF000FFFF800000FF
310
FFF0001FFFFF0003FFFFE0003F80007FFFFF000001FFFFFFFFF800001FFFFFF8
310
00000000000000007F80000000000001FFFFFFC00001FFFFFFFFFFFFC00001FF
310
FFFFFF0003FFFFFFFFFFFFC00000FFFFF000FFFFF8000FFFFFFFFFFFFFFFFFFF
310
FFFFFFFFFFFFFFFFFFFFF0001FFFFFFFFFFF0000FFFFFFF80000000000000000
310
7FFFFFFFFFFFFFFFFFFFFFFC001FFFFFFFFFFFFFFC001FFFFFFFFFFFFFFFFFFF
310
FFFFFFFC001FFFFFF000FFFFFFFFFFFFFFFFFFFFFFFFFFFFFFFFFFFFFFFFFFFF
310
FFFFFFFFFFFFFFFFFFFFFFFFFFFFFFFFFFFFFFFFFFFFFFFFFFFFFFFFFFFFFFFF
310
FFFFFFFFFFFFFFFFFFFFFFFFFFFFFFFFFFFFFFFFFFFFFFFFFFFFFFFFFFFFFFFF
310
F000FFFFFFFFFFFFFFFFFFFFFFFFFFFFFFFFFFFFFFFFFFFFFFFFFFFFFFFFFFFF
310
FFFFFFFFFFFFFFFFFFFFFFFFFFFFFFFFFFFFFFFFFFFFFFFFFFFFFFFFFFFFFFFF
310
FFFFFFFFFFFFFFFFFFFFFFFFFFFFFFFFFFFFFFFFFFFFFFFFF000FFFFFFFFFFFF
310
FFFFFFFFFFFFFFFFFFFFFFFFFFFFFFFFFFFFFFFFFFFFFFFFFFFFFFFFFFFFFFFF
310
FFFFFFFFFFFFFFFFFFFFFFFFFFFFFFFFFFFFFFFFFFFFFFFFFFFFFFFFFFFFFFFF
310
FFFFFFFFFFFFFFFFFFFFFFFFFFFFFFFFF000FFFFFFFFFFFFFFFFFFFFFFFFFFFF
310
FFFFFFFFFFFFFFFFFFFFFFFFFFFFFFFFFFFFFFFFFFFFFFFFFFFFFFFFFFFFFFFF
310
FFFFFFFFFFFFFFFFFFFFFFFFFFFFFFFFFFFFFFFFFFFFFFFFFFFFFFFFFFFFFFFF
310
FFFFFFFFFFFFFFFFF000FFFFFFFFFFFFFFFFFFFFFFFFFFFFFFFFFFFFFFFFFFFF
310
FFFFFFFFFFFFFFFFFFFFFFFFFFFFFFFFFFFFFFFFFFFFFFFFFFFFFFFFFFFFFFFF
310
FFFFFFFFFFFFFFFFFFFFFFFFFFFFFFFFFFFFFFFFFFFFFFFFFFFFFFFFFFFFFFFF
310
F000FFFFFFFFFFFFFFFFFFFFFFFFFFFFFFFFFFFFFFFFFFFFFFFFFFFFFFFFFFFF
310
FFFFFFFFFFFFFFFFFFFFFFFFFFFFFFFFFFFFFFFFFFFFFFFFFFFFFFFFFFFFFFFF
310
FFFFFFFFFFFFFFFFFFFFFFFFFFFFFFFFFFFFFFFFFFFFFFFFF000FFFFFFFFFFFF
310
FFFFFFFFFFFFFFFFFFFFFFFFFFFFFFFFFFFFFFFFFFFFFFFFFFFFFFFFFFFFFFFF
310
FFFFFFFFFFFFFFFFFFFFFFFFFFFFFFFFFFFFFFFFFFFFFFFFFFFFFFFFFFFFFFFF
310
FFFFFFFFFFFFFFFFFFFFFFFFFFFFFFFFF000FFFFFFFFFFFFFFFFFFFFFFFFFFFF
310
FFFFFFFFFFFFFFFFFFFFFFFFFFFFFFFFFFFFFFFFFFFFFFFFFFFFFFFFFFFFFFFF
310
FFFFFFFFFFFFFFFFFFFFFFFFFFFFFFFFFFFFFFFFFFFFFFFFFFFFFFFFFFFFFFFF
310
FFFFFFFFFFFFFFFFF000FFFFFFFFFFFFFFFFFFFFFFFFFFFFFFFFFFFFFFFFFFFF
310
FFFFFFFFFFFFFFFFFFFFFFFFFFFFFFFFFFFFFFFFFFFFFFFFFFFFFFFFFFFFFFFF
310
FFFFFFFFFFFFFFFFFFFFFFFFFFFFFFFFFFFFFFFFFFFFFFFFFFFFFFFFFFFFFFFF
310
F000FFFFFFFFFFFFFFFFFFFFFFFFFFFFFFFFFFFFFFFFFFFFFFFFFFFFFFFFFFFF
310
FFFFFFFFFFFFFFFFFFFFFFFFFFFFFFFFFFFFFFFFFFFFFFFFFFFFFFFFFFFFFFFF
310
FFFFFFFFFFFFFFFFFFFFFFFFFFFFFFFFFFFFFFFFFFFFFFFFF000FFFFFFFFFFFF
310
FFFFFFFFFFFFFFFFFFFFFFFFFFFFFFFFFFFFFFFFFFFFFFFFFFFFFFFFFFFFFFFF
310
FFFFFFFFFFFFFFFFFFFFFFFFFFFFFFFFFFFFFFFFFFFFFFFFFFFFFFFFFFFFFFFF
310
FFFFFFFFFFFFFFFFFFFFFFFFFFFFFFFFF000FFFFFFFFFFFFFFFFFFFFFFFFFFFF
310
FFFFFFFFFFFFFFFFFFFFFFFFFFFFFFFFFFFFFFFFFFFFFFFFFFFFFFFFFFFFFFFF
310
FFFFFFFFFFFFFFFFFFFFFFFFFFFFFFFFFFFFFFFFFFFFFFFFFFFFFFFFFFFFFFFF
310
FFFFFFFFFFFFFFFFF000FFFFFFFFFFFFFFFFFFFFFFFFFFFFFFFFFFFFFFFFFFFF
310
FFFFFFFFFFFFFFFFFFFFFFFFFFFFFFFFFFFFFFFFFFFFFFFFFFFFFFFFFFFFFFFF
310
FFFFFFFFFFFFFFFFFFFFFFFFFFFFFFFFFFFFFFFFFFFFFFFFFFFFFFFFFFFFFFFF
310
F000FFFFFFFFFFFFFFFFFFFFFFFFFFFFFFFFFFFFFFFFFFFFFFFFFFFFFFFFFFFF
310
FFFFFFFFFFFFFFFFFFFFFFFFFFFFFFFFFFFFFFFFFFFFFFFFFFFFFFFFFFFFFFFF
310
FFFFFFFFFFFFFFFFFFFFFFFFFFFFFFFFFFFFFFFFFFFFFFFFF000FFFFFFFFFFFF
310
FFFFFFFFFFFFFFFFFFFFFFFFFFFFFFFFFFFFFFFFFFFFFFFFFFFFFFFFFFFFFFFF
310
FFFFFFFFFFFFFFFFFFFFFFFFFFFFFFFFFFFFFFFFFFFFFFFFFFFFFFFFFFFFFFFF
310
FFFFFFFFFFFFFFFFFFFFFFFFFFFFFFFFF000FFFFFFFFFFFFFFFFFFFFFFFFFFFF
310
FFFFFFFFFFFFFFFFFFFFFFFFFFFFFFFFFFFFFFFFFFFFFFFFFFFFFFFFFFFFFFFF
310
FFFFFFFFFFFFFFFFFFFFFFFFFFFFFFFFFFFFFFFFFFFFFFFFFFFFFFFFFFFFFFFF
310
FFFFFFFFFFFFFFFFF000FFFFFFFFFFFFFFFFFFFFFFFFFFFFFFFFFFFFFFFFFFFF
310
FFFFFFFFFFFFFFFFFFFFFFFFFFFFFFFFFFFFFFFFFFFFFFFFFFFFFFFFFFFFFFFF
310
FFFFFFFFFFFFFFFFFFFFFFFFFFFFFFFFFFFFFFFFFFFFFFFFFFFFFFFFFFFFFFFF
310
F000FFFFFFFFFFFFFFFFFFFFFFFFFFFFFFFFFFFFFFFFFFFFFFFFFFFFFFFFFFFF
310
FFFFFFFFFFFFFFFFFFFFFFFFFFFFFFFFFFFFFFFFFFFFFFFFFFFFFFFFFFFFFFFF
310
FFFFFFFFFFFFFFFFFFFFFFFFFFFFFFFFFFFFFFFFFFFFFFFFF000FFFFFFFFFFFF
310
FFFFFFFFFFFFFFFFFFFFFFFFFFFFFFFFFFFFFFFFFFFFFFFFFFFFFFFFFFFFFFFF
310
FFFFFFFFFFFFFFFFFFFFFFFFFFFFFFFFFFFFFFFFFFFFFFFFFFFFFFFFFFFFFFFF
310
FFFFFFFFFFFFFFFFFFFFFFFFFFFFFFFFF000FFFFFFFFFFFFFFFFFFFFFFFFFFFF
310
FFFFFFFFFFFFFFFFFFFFFFFFFFFFFFFFFFFFFFFFFFFFFFFFFFFFFFFFFFFFFFFF
310
FFFFFFFFFFFFFFFFFFFFFFFFFFFFFFFFFFFFFFFFFFFFFFFFFFFFFFFFFFFFFFFF
310
FFFFFFFFFFFFFFFFF000FFFFFFFFFFFFFFFFFFFFFFFFFFFFFFFFFFFFFFFFFFFF
310
FFFFFFFFFFFFFFFFFFFFFFFFFFFFFFFFFFFFFFFFFFFFFFFFFFFFFFFFFFFFFFFF
310
FFFFFFFFFFFFFFFFFFFFFFFFFFFFFFFFFFFFFFFFFFFFFFFFFFFFFFFFFFFFFFFF
310
F000FFFFFFFFFFFFFFFFFFFFFFFFFFFFFFFFFFFFFFFFFFFFFFFFFFFFFFFFFFFF
310
FFFFFFFFFFFFFFFFFFFFFFFFFFFFFFFFFFFFFFFFFFFFFFFFFFFFFFFFFFFFFFFF
310
FFFFFFFFFFFFFFFFFFFFFFFFFFFFFFFFFFFFFFFFFFFFFFFFF000FFFFFFFFFFFF
310
FFFFFFFFFFFFFFFFFFFFFFFFFFFFFFFFFFFFFFFFFFFFFFFFFFFFFFFFFFFFFFFF
310
FFFFFFFFFFFFFFFFFFFFFFFFFFFFFFFFFFFFFFFFFFFFFFFFFFFFFFFFFFFFFFFF
310
FFFFFFFFFFFFFFFFFFFFFFFFFFFFFFFFF0000000000000000000000000000000
310
00000000000000009F0002400000D7DF616C000800000000E401000070010000
310
040000002000000010000000000000000000000090010000000000A103020131
310
40004D00530020004D0069006E00630068006F00000000000000000000000000
310
0000000000000000000000000000000000000000000000000000000000000000
310
40004D00530020004D0069006E00630068006F00000000000000000000000000
310
0000000000000000000000000000000000000000000000000000000000000000
310
0000000000000000000000000000000000000000000000000000000000000000
310
0000000000000000000000000000000000000000000000000000000000000000
310
52006500670075006C0061007200000000000000000000000000000000000000
310
0000000000000000000000000000000000000000000000000000000000000000
310
4700720069006500630068006900730063006800000000000000000000000000
310
0000000000000000000000000000000000000000000000000000000000000000
310
6476000800000000000000001EFF1F20200000001C0000000400000000000000
310
000000001000000020000000900100000000000060000000600000002000EEFF
310
1F00200000000036A100000040000000000100000001000080000000BF0200A0
  1
OLE
  0
ENDSEC
  0
SECTION
  2
OBJECTS
  0
DICTIONARY
  5
C
330
0
100
AcDbDictionary
281
     1
  3
ACAD_GROUP
350
D
  3
ACAD_LAYOUT
350
1A
  3
ACAD_MLEADERSTYLE
350
45A
  3
ACAD_MLINESTYLE
350
17
  3
ACAD_PLOTSETTINGS
350
19
  3
ACAD_PLOTSTYLENAME
350
E
  3
ACAD_SCALELIST
350
3B
  3
ACAD_TABLESTYLE
350
459
  3
ACAD_VISUALSTYLE
350
2A
  3
AcDbVariableDictionary
350
457
  0
DICTIONARY
  5
D
102
{ACAD_REACTORS
330
C
102
}
330
C
100
AcDbDictionary
281
     1
  0
DICTIONARY
  5
1A
102
{ACAD_REACTORS
330
C
102
}
330
C
100
AcDbDictionary
281
     1
  3
Layout1
350
1E
  3
Layout2
350
26
  3
Model
350
22
  0
DICTIONARY
  5
45A
102
{ACAD_REACTORS
330
C
102
}
330
C
100
AcDbDictionary
281
     1
  0
DICTIONARY
  5
17
102
{ACAD_REACTORS
330
C
102
}
330
C
100
AcDbDictionary
281
     1
  3
Standard
350
18
  0
DICTIONARY
  5
19
102
{ACAD_REACTORS
330
C
102
}
330
C
100
AcDbDictionary
281
     1
  0
ACDBDICTIONARYWDFLT
  5
E
102
{ACAD_REACTORS
330
C
102
}
330
C
100
AcDbDictionary
281
     1
  3
Normal
350
F
100
AcDbDictionaryWithDefault
340
F
  0
DICTIONARY
  5
3B
102
{ACAD_REACTORS
330
C
102
}
330
C
100
AcDbDictionary
281
     1
  3
A0
350
3C
  3
A1
350
3D
  3
A2
350
3E
  3
A3
350
3F
  3
A4
350
40
  3
A5
350
41
  3
A6
350
42
  3
A7
350
43
  3
A8
350
44
  3
A9
350
45
  3
B0
350
46
  3
B1
350
47
  3
B2
350
48
  3
B3
350
49
  3
B4
350
4A
  3
B5
350
4B
  3
B6
350
4C
  3
B7
350
4D
  3
B8
350
4E
  3
B9
350
4F
  3
C0
350
50
  3
C1
350
51
  3
C2
350
52
  3
C3
350
53
  3
C4
350
54
  3
C5
350
55
  3
C6
350
56
  3
C7
350
57
  3
C8
350
58
  3
C9
350
59
  3
D0
350
5A
  3
D1
350
5B
  3
D2
350
5C
  0
DICTIONARY
  5
459
102
{ACAD_REACTORS
330
C
102
}
330
C
100
AcDbDictionary
281
     1
  0
DICTIONARY
  5
2A
102
{ACAD_REACTORS
330
C
102
}
330
C
100
AcDbDictionary
281
     1
  3
2dWireframe
350
2F
  3
3D Hidden
350
31
  3
3dWireframe
350
30
  3
Basic
350
32
  3
Brighten
350
36
  3
ColorChange
350
3A
  3
Conceptual
350
34
  3
Dim
350
35
  3
Facepattern
350
39
  3
Flat
350
2B
  3
FlatWithEdges
350
2C
  3
Gouraud
350
2D
  3
GouraudWithEdges
350
2E
  3
Linepattern
350
38
  3
Realistic
350
33
  3
Thicken
350
37
  0
DICTIONARY
  5
457
102
{ACAD_REACTORS
330
C
102
}
330
C
100
AcDbDictionary
281
     1
  3
CANNOSCALE
350
458
  3
PSOLHEIGHT
350
45C
  3
PSOLWIDTH
350
45B
  0
LAYOUT
  5
1E
102
{ACAD_REACTORS
330
1A
102
}
330
1A
100
AcDbPlotSettings
  1

  2
none_device
  4

  6

 40
0.0
 41
0.0
 42
0.0
 43
0.0
 44
0.0
 45
0.0
 46
0.0
 47
0.0
 48
0.0
 49
0.0
140
0.0
141
0.0
142
1.0
143
1.0
 70
   688
 72
     0
 73
     0
 74
     5
  7

 75
    16
147
1.0
148
0.0
149
0.0
100
AcDbLayout
  1
Layout1
 70
     1
 71
     1
 10
0.0
 20
0.0
 11
420.0
 21
297.0
 12
0.0
 22
0.0
 32
0.0
 14
1.0000000000E+20
 24
1.0000000000E+20
 34
1.0000000000E+20
 15
-1.0000000000E+20
 25
-1.0000000000E+20
 35
-1.0000000000E+20
146
0.0
 13
0.0
 23
0.0
 33
0.0
 16
1.0
 26
0.0
 36
0.0
 17
0.0
 27
1.0
 37
0.0
 76
     0
330
1B
  0
LAYOUT
  5
26
102
{ACAD_REACTORS
330
1A
102
}
330
1A
100
AcDbPlotSettings
  1

  2
none_device
  4

  6

 40
0.0
 41
0.0
 42
0.0
 43
0.0
 44
0.0
 45
0.0
 46
0.0
 47
0.0
 48
0.0
 49
0.0
140
0.0
141
0.0
142
1.0
143
1.0
 70
   688
 72
     0
 73
     0
 74
     5
  7

 75
    16
147
1.0
148
0.0
149
0.0
100
AcDbLayout
  1
Layout2
 70
     1
 71
     2
 10
0.0
 20
0.0
 11
0.0
 21
0.0
 12
0.0
 22
0.0
 32
0.0
 14
0.0
 24
0.0
 34
0.0
 15
0.0
 25
0.0
 35
0.0
146
0.0
 13
0.0
 23
0.0
 33
0.0
 16
1.0
 26
0.0
 36
0.0
 17
0.0
 27
1.0
 37
0.0
 76
     0
330
23
  0
LAYOUT
  5
22
102
{ACAD_REACTORS
330
1A
102
}
330
1A
100
AcDbPlotSettings
  1

  2
none_device
  4

  6

 40
0.0
 41
0.0
 42
0.0
 43
0.0
 44
0.0
 45
0.0
 46
0.0
 47
0.0
 48
0.0
 49
0.0
140
0.0
141
0.0
142
1.0
143
1.0
 70
  1712
 72
     0
 73
     0
 74
     0
  7

 75
     0
147
1.0
148
0.0
149
0.0
100
AcDbLayout
  1
Model
 70
     1
 71
     0
 10
0.0
 20
0.0
 11
297.0
 21
210.0
 12
0.0
 22
0.0
 32
0.0
 14
0.0
 24
0.0
 34
0.0
 15
297.0
 25
210.0
 35
0.0
146
0.0
 13
0.0
 23
0.0
 33
0.0
 16
1.0
 26
0.0
 36
0.0
 17
0.0
 27
1.0
 37
0.0
 76
     0
330
1F
331
29
  0
MLINESTYLE
  5
18
102
{ACAD_REACTORS
330
17
102
}
330
17
100
AcDbMlineStyle
  2
Standard
 70
     0
  3

 62
   256
 51
90.0
 52
90.0
 71
     2
 49
0.5
 62
   256
  6
BYLAYER
 49
-0.5
 62
   256
  6
BYLAYER
  0
ACDBPLACEHOLDER
  5
F
102
{ACAD_REACTORS
330
E
102
}
330
E
  0
SCALE
  5
3C
102
{ACAD_REACTORS
330
3B
102
}
330
3B
100
AcDbScale
 70
     0
300
1:1
140
1.0
141
1.0
290
     1
  0
SCALE
  5
3D
102
{ACAD_REACTORS
330
3B
102
}
330
3B
100
AcDbScale
 70
     0
300
1:2
140
1.0
141
2.0
290
     0
  0
SCALE
  5
3E
102
{ACAD_REACTORS
330
3B
102
}
330
3B
100
AcDbScale
 70
     0
300
1:4
140
1.0
141
4.0
290
     0
  0
SCALE
  5
3F
102
{ACAD_REACTORS
330
3B
102
}
330
3B
100
AcDbScale
 70
     0
300
1:5
140
1.0
141
5.0
290
     0
  0
SCALE
  5
40
102
{ACAD_REACTORS
330
3B
102
}
330
3B
100
AcDbScale
 70
     0
300
1:8
140
1.0
141
8.0
290
     0
  0
SCALE
  5
41
102
{ACAD_REACTORS
330
3B
102
}
330
3B
100
AcDbScale
 70
     0
300
1:10
140
1.0
141
10.0
290
     0
  0
SCALE
  5
42
102
{ACAD_REACTORS
330
3B
102
}
330
3B
100
AcDbScale
 70
     0
300
1:16
140
1.0
141
16.0
290
     0
  0
SCALE
  5
43
102
{ACAD_REACTORS
330
3B
102
}
330
3B
100
AcDbScale
 70
     0
300
1:20
140
1.0
141
20.0
290
     0
  0
SCALE
  5
44
102
{ACAD_REACTORS
330
3B
102
}
330
3B
100
AcDbScale
 70
     0
300
1:30
140
1.0
141
30.0
290
     0
  0
SCALE
  5
45
102
{ACAD_REACTORS
330
3B
102
}
330
3B
100
AcDbScale
 70
     0
300
1:40
140
1.0
141
40.0
290
     0
  0
SCALE
  5
46
102
{ACAD_REACTORS
330
3B
102
}
330
3B
100
AcDbScale
 70
     0
300
1:50
140
1.0
141
50.0
290
     0
  0
SCALE
  5
47
102
{ACAD_REACTORS
330
3B
102
}
330
3B
100
AcDbScale
 70
     0
300
1:100
140
1.0
141
100.0
290
     0
  0
SCALE
  5
48
102
{ACAD_REACTORS
330
3B
102
}
330
3B
100
AcDbScale
 70
     0
300
2:1
140
2.0
141
1.0
290
     0
  0
SCALE
  5
49
102
{ACAD_REACTORS
330
3B
102
}
330
3B
100
AcDbScale
 70
     0
300
4:1
140
4.0
141
1.0
290
     0
  0
SCALE
  5
4A
102
{ACAD_REACTORS
330
3B
102
}
330
3B
100
AcDbScale
 70
     0
300
8:1
140
8.0
141
1.0
290
     0
  0
SCALE
  5
4B
102
{ACAD_REACTORS
330
3B
102
}
330
3B
100
AcDbScale
 70
     0
300
10:1
140
10.0
141
1.0
290
     0
  0
SCALE
  5
4C
102
{ACAD_REACTORS
330
3B
102
}
330
3B
100
AcDbScale
 70
     0
300
100:1
140
100.0
141
1.0
290
     0
  0
SCALE
  5
4D
102
{ACAD_REACTORS
330
3B
102
}
330
3B
100
AcDbScale
 70
     0
300
1/128" = 1'-0"
140
0.0078125
141
12.0
290
     0
  0
SCALE
  5
4E
102
{ACAD_REACTORS
330
3B
102
}
330
3B
100
AcDbScale
 70
     0
300
1/64" = 1'-0"
140
0.015625
141
12.0
290
     0
  0
SCALE
  5
4F
102
{ACAD_REACTORS
330
3B
102
}
330
3B
100
AcDbScale
 70
     0
300
1/32" = 1'-0"
140
0.03125
141
12.0
290
     0
  0
SCALE
  5
50
102
{ACAD_REACTORS
330
3B
102
}
330
3B
100
AcDbScale
 70
     0
300
1/16" = 1'-0"
140
0.0625
141
12.0
290
     0
  0
SCALE
  5
51
102
{ACAD_REACTORS
330
3B
102
}
330
3B
100
AcDbScale
 70
     0
300
3/32" = 1'-0"
140
0.09375
141
12.0
290
     0
  0
SCALE
  5
52
102
{ACAD_REACTORS
330
3B
102
}
330
3B
100
AcDbScale
 70
     0
300
1/8" = 1'-0"
140
0.125
141
12.0
290
     0
  0
SCALE
  5
53
102
{ACAD_REACTORS
330
3B
102
}
330
3B
100
AcDbScale
 70
     0
300
3/16" = 1'-0"
140
0.1875
141
12.0
290
     0
  0
SCALE
  5
54
102
{ACAD_REACTORS
330
3B
102
}
330
3B
100
AcDbScale
 70
     0
300
1/4" = 1'-0"
140
0.25
141
12.0
290
     0
  0
SCALE
  5
55
102
{ACAD_REACTORS
330
3B
102
}
330
3B
100
AcDbScale
 70
     0
300
3/8" = 1'-0"
140
0.375
141
12.0
290
     0
  0
SCALE
  5
56
102
{ACAD_REACTORS
330
3B
102
}
330
3B
100
AcDbScale
 70
     0
300
1/2" = 1'-0"
140
0.5
141
12.0
290
     0
  0
SCALE
  5
57
102
{ACAD_REACTORS
330
3B
102
}
330
3B
100
AcDbScale
 70
     0
300
3/4" = 1'-0"
140
0.75
141
12.0
290
     0
  0
SCALE
  5
58
102
{ACAD_REACTORS
330
3B
102
}
330
3B
100
AcDbScale
 70
     0
300
1" = 1'-0"
140
1.0
141
12.0
290
     0
  0
SCALE
  5
59
102
{ACAD_REACTORS
330
3B
102
}
330
3B
100
AcDbScale
 70
     0
300
1-1/2" = 1'-0"
140
1.5
141
12.0
290
     0
  0
SCALE
  5
5A
102
{ACAD_REACTORS
330
3B
102
}
330
3B
100
AcDbScale
 70
     0
300
3" = 1'-0"
140
3.0
141
12.0
290
     0
  0
SCALE
  5
5B
102
{ACAD_REACTORS
330
3B
102
}
330
3B
100
AcDbScale
 70
     0
300
6" = 1'-0"
140
6.0
141
12.0
290
     0
  0
SCALE
  5
5C
102
{ACAD_REACTORS
330
3B
102
}
330
3B
100
AcDbScale
 70
     0
300
1'-0" = 1'-0"
140
12.0
141
12.0
290
     0
  0
VISUALSTYLE
  5
2F
102
{ACAD_REACTORS
330
2A
102
}
330
2A
100
AcDbVisualStyle
  2
2dWireframe
 70
     4
 71
     0
 72
     2
 73
     0
 90
        0
 40
-0.6
 41
-30.0
 62
     5
 63
     7
 74
     1
 91
        4
 64
     7
 65
   257
 75
     1
175
     1
 42
1.0
 92
        0
 66
   257
 43
1.0
 76
     1
 77
     6
 78
     2
 67
     7
 79
     5
170
     0
171
     0
290
     0
174
     0
 93
        1
 44
0.0
173
     0
291
     0
 45
0.0
1001
ACAD
1000
AcDbSavedByObjectVersion
1070
     0
  0
VISUALSTYLE
  5
31
102
{ACAD_REACTORS
330
2A
102
}
330
2A
100
AcDbVisualStyle
  2
3D Hidden
 70
     6
 71
     1
 72
     2
 73
     2
 90
        0
 40
-0.6
 41
-30.0
 62
     5
 63
     7
 74
     2
 91
        2
 64
     7
 65
   257
 75
     2
175
     1
 42
40.0
 92
        0
 66
   257
 43
1.0
 76
     1
 77
     6
 78
     2
 67
     7
 79
     3
170
     0
171
     0
290
     0
174
     0
 93
        1
 44
0.0
173
     0
291
     0
 45
0.0
1001
ACAD
1000
AcDbSavedByObjectVersion
1070
     0
  0
VISUALSTYLE
  5
30
102
{ACAD_REACTORS
330
2A
102
}
330
2A
100
AcDbVisualStyle
  2
3dWireframe
 70
     5
 71
     0
 72
     2
 73
     0
 90
        0
 40
-0.6
 41
-30.0
 62
     5
 63
     7
 74
     1
 91
        4
 64
     7
 65
   257
 75
     1
175
     1
 42
1.0
 92
        0
 66
   257
 43
1.0
 76
     1
 77
     6
 78
     2
 67
     7
 79
     5
170
     0
171
     0
290
     0
174
     0
 93
        1
 44
0.0
173
     0
291
     0
 45
0.0
1001
ACAD
1000
AcDbSavedByObjectVersion
1070
     0
  0
VISUALSTYLE
  5
32
102
{ACAD_REACTORS
330
2A
102
}
330
2A
100
AcDbVisualStyle
  2
Basic
 70
     7
 71
     1
 72
     0
 73
     1
 90
        0
 40
-0.6
 41
-30.0
 62
     5
 63
     7
 74
     0
 91
        4
 64
     7
 65
   257
 75
     1
175
     1
 42
1.0
 92
        8
 66
     7
 43
1.0
 76
     1
 77
     6
 78
     2
 67
     7
 79
     5
170
     0
171
     0
290
     0
174
     0
 93
        1
 44
0.0
173
     0
291
     1
 45
0.0
1001
ACAD
1000
AcDbSavedByObjectVersion
1070
     0
  0
VISUALSTYLE
  5
36
102
{ACAD_REACTORS
330
2A
102
}
330
2A
100
AcDbVisualStyle
  2
Brighten
 70
    12
 71
     2
 72
     2
 73
     0
 90
        0
 40
-0.6
 41
-30.0
 62
     5
 63
     7
 74
     1
 91
        4
 64
     7
 65
   257
 75
     1
175
     1
 42
1.0
 92
        8
 66
     7
 43
1.0
 76
     1
 77
     6
 78
     2
 67
     7
 79
     5
170
     0
171
     0
290
     0
174
     0
 93
        1
 44
50.0
173
     0
291
     1
 45
0.0
1001
ACAD
1000
AcDbSavedByObjectVersion
1070
     0
  0
VISUALSTYLE
  5
3A
102
{ACAD_REACTORS
330
2A
102
}
330
2A
100
AcDbVisualStyle
  2
ColorChange
 70
    16
 71
     2
 72
     2
 73
     3
 90
        0
 40
-0.6
 41
-30.0
 62
     5
 63
     8
 74
     1
 91
        4
 64
     7
 65
   257
 75
     1
175
     1
 42
1.0
 92
        8
 66
     8
 43
1.0
 76
     1
 77
     6
 78
     2
 67
     7
 79
     5
170
     0
171
     0
290
     0
174
     0
 93
        1
 44
0.0
173
     0
291
     1
 45
0.0
1001
ACAD
1000
AcDbSavedByObjectVersion
1070
     0
  0
VISUALSTYLE
  5
34
102
{ACAD_REACTORS
330
2A
102
}
330
2A
100
AcDbVisualStyle
  2
Conceptual
 70
     9
 71
     3
 72
     2
 73
     0
 90
        0
 40
-0.6
 41
-30.0
 62
     5
 63
     7
 74
     2
 91
        2
 64
     7
 65
   257
 75
     1
175
     1
 42
40.0
 92
        8
 66
     7
 43
1.0
 76
     1
 77
     6
 78
     2
 67
     7
 79
     3
170
     0
171
     0
290
     0
174
     0
 93
        1
 44
0.0
173
     0
291
     0
 45
0.0
1001
ACAD
1000
AcDbSavedByObjectVersion
1070
     0
  0
VISUALSTYLE
  5
35
102
{ACAD_REACTORS
330
2A
102
}
330
2A
100
AcDbVisualStyle
  2
Dim
 70
    11
 71
     2
 72
     2
 73
     0
 90
        0
 40
-0.6
 41
-30.0
 62
     5
 63
     7
 74
     1
 91
        4
 64
     7
 65
   257
 75
     1
175
     1
 42
1.0
 92
        8
 66
     7
 43
1.0
 76
     1
 77
     6
 78
     2
 67
     7
 79
     5
170
     0
171
     0
290
     0
174
     0
 93
        1
 44
-50.0
173
     0
291
     1
 45
0.0
1001
ACAD
1000
AcDbSavedByObjectVersion
1070
     0
  0
VISUALSTYLE
  5
39
102
{ACAD_REACTORS
330
2A
102
}
330
2A
100
AcDbVisualStyle
  2
Facepattern
 70
    15
 71
     2
 72
     2
 73
     0
 90
        0
 40
-0.6
 41
-30.0
 62
     5
 63
     7
 74
     1
 91
        4
 64
     7
 65
   257
 75
     1
175
     1
 42
1.0
 92
        8
 66
     7
 43
1.0
 76
     1
 77
     6
 78
     2
 67
     7
 79
     5
170
     0
171
     0
290
     0
174
     0
 93
        1
 44
0.0
173
     0
291
     1
 45
0.0
1001
ACAD
1000
AcDbSavedByObjectVersion
1070
     0
  0
VISUALSTYLE
  5
2B
102
{ACAD_REACTORS
330
2A
102
}
330
2A
100
AcDbVisualStyle
  2
Flat
 70
     0
 71
     2
 72
     1
 73
     1
 90
        2
 40
-0.6
 41
30.0
 62
     5
 63
     7
 74
     0
 91
        4
 64
     7
 65
   257
 75
     1
175
     1
 42
1.0
 92
        8
 66
     7
 43
1.0
 76
     1
 77
     6
 78
     2
 67
     7
 79
     5
170
     0
171
     0
290
     0
174
     0
 93
       13
 44
0.0
173
     0
291
     1
 45
0.0
1001
ACAD
1000
AcDbSavedByObjectVersion
1070
     0
  0
VISUALSTYLE
  5
2C
102
{ACAD_REACTORS
330
2A
102
}
330
2A
100
AcDbVisualStyle
  2
FlatWithEdges
 70
     1
 71
     2
 72
     1
 73
     1
 90
        2
 40
-0.6
 41
30.0
 62
     5
 63
     7
 74
     1
 91
        4
 64
     7
 65
   257
 75
     1
175
     1
 42
1.0
 92
        0
 66
   257
 43
1.0
 76
     1
 77
     6
 78
     2
 67
     7
 79
     5
170
     0
171
     0
290
     0
174
     0
 93
       13
 44
0.0
173
     0
291
     1
 45
0.0
1001
ACAD
1000
AcDbSavedByObjectVersion
1070
     0
  0
VISUALSTYLE
  5
2D
102
{ACAD_REACTORS
330
2A
102
}
330
2A
100
AcDbVisualStyle
  2
Gouraud
 70
     2
 71
     2
 72
     2
 73
     1
 90
        2
 40
-0.6
 41
30.0
 62
     5
 63
     7
 74
     0
 91
        4
 64
     7
 65
   257
 75
     1
175
     1
 42
1.0
 92
        0
 66
     7
 43
1.0
 76
     1
 77
     6
 78
     2
 67
     7
 79
     5
170
     0
171
     0
290
     0
174
     0
 93
       13
 44
0.0
173
     0
291
     1
 45
0.0
1001
ACAD
1000
AcDbSavedByObjectVersion
1070
     0
  0
VISUALSTYLE
  5
2E
102
{ACAD_REACTORS
330
2A
102
}
330
2A
100
AcDbVisualStyle
  2
GouraudWithEdges
 70
     3
 71
     2
 72
     2
 73
     1
 90
        2
 40
-0.6
 41
30.0
 62
     5
 63
     7
 74
     1
 91
        4
 64
     7
 65
   257
 75
     1
175
     1
 42
1.0
 92
        0
 66
   257
 43
1.0
 76
     1
 77
     6
 78
     2
 67
     7
 79
     5
170
     0
171
     0
290
     0
174
     0
 93
       13
 44
0.0
173
     0
291
     1
 45
0.0
1001
ACAD
1000
AcDbSavedByObjectVersion
1070
     0
  0
VISUALSTYLE
  5
38
102
{ACAD_REACTORS
330
2A
102
}
330
2A
100
AcDbVisualStyle
  2
Linepattern
 70
    14
 71
     2
 72
     2
 73
     0
 90
        0
 40
-0.6
 41
-30.0
 62
     5
 63
     7
 74
     1
 91
        4
 64
     7
 65
   257
 75
     7
175
     7
 42
1.0
 92
        8
 66
     7
 43
1.0
 76
     1
 77
     6
 78
     2
 67
     7
 79
     5
170
     0
171
     0
290
     0
174
     0
 93
        1
 44
0.0
173
     0
291
     1
 45
0.0
1001
ACAD
1000
AcDbSavedByObjectVersion
1070
     0
  0
VISUALSTYLE
  5
33
102
{ACAD_REACTORS
330
2A
102
}
330
2A
100
AcDbVisualStyle
  2
Realistic
 70
     8
 71
     2
 72
     2
 73
     0
 90
        0
 40
-0.6
 41
-30.0
 62
     5
 63
     7
 74
     1
 91
        0
 64
     7
 65
   257
 75
     1
175
     1
 42
1.0
 92
        8
 66
     8
 43
1.0
 76
     1
 77
     6
 78
     2
 67
     7
 79
     5
170
     0
171
     0
290
     0
174
     0
 93
       13
 44
0.0
173
     0
291
     0
 45
0.0
1001
ACAD
1000
AcDbSavedByObjectVersion
1070
     0
  0
VISUALSTYLE
  5
37
102
{ACAD_REACTORS
330
2A
102
}
330
2A
100
AcDbVisualStyle
  2
Thicken
 70
    13
 71
     2
 72
     2
 73
     0
 90
        0
 40
-0.6
 41
-30.0
 62
     5
 63
     7
 74
     1
 91
        4
 64
     7
 65
   257
 75
     1
175
     1
 42
1.0
 92
       12
 66
     7
 43
1.0
 76
     1
 77
     6
 78
     2
 67
     7
 79
     5
170
     0
171
     0
290
     0
174
     0
 93
        1
 44
0.0
173
     0
291
     1
 45
0.0
1001
ACAD
1000
AcDbSavedByObjectVersion
1070
     0
  0
DICTIONARYVAR
  5
458
102
{ACAD_REACTORS
330
457
102
}
330
457
100
DictionaryVariables
280
     0
  1
1:1
  0
DICTIONARYVAR
  5
45C
102
{ACAD_REACTORS
330
457
102
}
330
457
100
DictionaryVariables
280
     0
  1
80.000000
  0
DICTIONARYVAR
  5
45B
102
{ACAD_REACTORS
330
457
102
}
330
457
100
DictionaryVariables
280
     0
  1
5.000000
  0
ENDSEC
  0
EOF
