  0
SECTION
  2
HEADER
  9
$ACADVER
  1
AC1015
  9
$ACADMAINTVER
 70
     6
  9
$DWGCODEPAGE
  3
ANSI_1252
  9
$INSBASE
 10
0.0
 20
0.0
 30
0.0
  9
$EXTMIN
 10
0.0
 20
0.0
 30
0.0
  9
$EXTMAX
 10
297.0
 20
210.0
 30
0.0
  9
$LIMMIN
 10
0.0
 20
0.0
  9
$LIMMAX
 10
297.0
 20
210.0
  9
$ORTHOMODE
 70
     0
  9
$REGENMODE
 70
     1
  9
$FILLMODE
 70
     1
  9
$QTEXTMODE
 70
     0
  9
$MIRRTEXT
 70
     1
  9
$LTSCALE
 40
1.0
  9
$ATTMODE
 70
     1
  9
$TEXTSIZE
 40
2.0
  9
$TRACEWID
 40
1.0
  9
$TEXTSTYLE
  7
STANDARD
  9
$CLAYER
  8
0
  9
$CELTYPE
  6
ByLayer
  9
$CECOLOR
 62
   256
  9
$CELTSCALE
 40
1.0
  9
$DISPSILH
 70
     0
  9
$DIMSCALE
 40
1.0
  9
$DIMASZ
 40
3.0
  9
$DIMEXO
 40
0.0
  9
$DIMDLI
 40
3.75
  9
$DIMRND
 40
0.0
  9
$DIMDLE
 40
0.0
  9
$DIMEXE
 40
1.0
  9
$DIMTP
 40
0.0
  9
$DIMTM
 40
0.0
  9
$DIMTXT
 40
2.0
  9
$DIMCEN
 40
2.5
  9
$DIMTSZ
 40
0.0
  9
$DIMTOL
 70
     0
  9
$DIMLIM
 70
     0
  9
$DIMTIH
 70
     1
  9
$DIMTOH
 70
     1
  9
$DIMSE1
 70
     0
  9
$DIMSE2
 70
     0
  9
$DIMTAD
 70
     1
  9
$DIMZIN
 70
     0
  9
$DIMBLK
  1

  9
$DIMASO
 70
     1
  9
$DIMSHO
 70
     1
  9
$DIMPOST
  1

  9
$DIMAPOST
  1

  9
$DIMALT
 70
     0
  9
$DIMALTD
 70
     3
  9
$DIMALTF
 40
0.0393700787
  9
$DIMLFAC
 40
1.0
  9
$DIMTOFL
 70
     1
  9
$DIMTVP
 40
0.0
  9
$DIMTIX
 70
     0
  9
$DIMSOXD
 70
     0
  9
$DIMSAH
 70
     0
  9
$DIMBLK1
  1

  9
$DIMBLK2
  1

  9
$DIMSTYLE
  2
ISO-25
  9
$DIMCLRD
 70
     0
  9
$DIMCLRE
 70
     0
  9
$DIMCLRT
 70
     0
  9
$DIMTFAC
 40
1.0
  9
$DIMGAP
 40
1.524
  9
$DIMJUST
 70
     0
  9
$DIMSD1
 70
     0
  9
$DIMSD2
 70
     0
  9
$DIMTOLJ
 70
     0
  9
$DIMTZIN
 70
     0
  9
$DIMALTZ
 70
     0
  9
$DIMALTTZ
 70
     0
  9
$DIMUPT
 70
     0
  9
$DIMDEC
 70
     2
  9
$DIMTDEC
 70
     2
  9
$DIMALTU
 70
     2
  9
$DIMALTTD
 70
     3
  9
$DIMTXSTY
  7
STANDARD
  9
$DIMAUNIT
 70
     0
  9
$DIMADEC
 70
     0
  9
$DIMALTRND
 40
0.0
  9
$DIMAZIN
 70
     0
  9
$DIMDSEP
 70
    44
  9
$DIMATFIT
 70
     3
  9
$DIMFRAC
 70
     0
  9
$DIMLDRBLK
  1

  9
$DIMLUNIT
 70
     2
  9
$DIMLWD
 70
    -2
  9
$DIMLWE
 70
    -2
  9
$DIMTMOVE
 70
     0
  9
$LUNITS
 70
     2
  9
$LUPREC
 70
     2
  9
$SKETCHINC
 40
1.0
  9
$FILLETRAD
 40
10.0
  9
$AUNITS
 70
     0
  9
$AUPREC
 70
     0
  9
$MENU
  1
.
  9
$ELEVATION
 40
0.0
  9
$PELEVATION
 40
0.0
  9
$THICKNESS
 40
0.0
  9
$LIMCHECK
 70
     0
  9
$CHAMFERA
 40
10.0
  9
$CHAMFERB
 40
10.0
  9
$CHAMFERC
 40
20.0
  9
$CHAMFERD
 40
0.0
  9
$SKPOLY
 70
     0
  9
$TDCREATE
 40
2454910.40908794
  9
$TDUCREATE
 40
2454910.367421273
  9
$TDUPDATE
 40
2454910.409087951
  9
$TDUUPDATE
 40
2454910.367421285
  9
$TDINDWG
 40
0.0000000116
  9
$TDUSRTIMER
 40
0.0000000116
  9
$USRTIMER
 70
     1
  9
$ANGBASE
 50
0.0
  9
$ANGDIR
 70
     0
  9
$PDMODE
 70
     0
  9
$PDSIZE
 40
-1.0
  9
$PLINEWID
 40
0.0
  9
$SPLFRAME
 70
     0
  9
$SPLINETYPE
 70
     6
  9
$SPLINESEGS
 70
     8
  9
$HANDSEED
  5
37F
  9
$SURFTAB1
 70
     6
  9
$SURFTAB2
 70
     6
  9
$SURFTYPE
 70
     6
  9
$SURFU
 70
     6
  9
$SURFV
 70
     6
  9
$UCSBASE
  2

  9
$UCSNAME
  2

  9
$UCSORG
 10
0.0
 20
0.0
 30
0.0
  9
$UCSXDIR
 10
1.0
 20
0.0
 30
0.0
  9
$UCSYDIR
 10
0.0
 20
1.0
 30
0.0
  9
$UCSORTHOREF
  2

  9
$UCSORTHOVIEW
 70
     0
  9
$UCSORGTOP
 10
0.0
 20
0.0
 30
0.0
  9
$UCSORGBOTTOM
 10
0.0
 20
0.0
 30
0.0
  9
$UCSORGLEFT
 10
0.0
 20
0.0
 30
0.0
  9
$UCSORGRIGHT
 10
0.0
 20
0.0
 30
0.0
  9
$UCSORGFRONT
 10
0.0
 20
0.0
 30
0.0
  9
$UCSORGBACK
 10
0.0
 20
0.0
 30
0.0
  9
$PUCSBASE
  2

  9
$PUCSNAME
  2

  9
$PUCSORG
 10
0.0
 20
0.0
 30
0.0
  9
$PUCSXDIR
 10
1.0
 20
0.0
 30
0.0
  9
$PUCSYDIR
 10
0.0
 20
1.0
 30
0.0
  9
$PUCSORTHOREF
  2

  9
$PUCSORTHOVIEW
 70
     0
  9
$PUCSORGTOP
 10
0.0
 20
0.0
 30
0.0
  9
$PUCSORGBOTTOM
 10
0.0
 20
0.0
 30
0.0
  9
$PUCSORGLEFT
 10
0.0
 20
0.0
 30
0.0
  9
$PUCSORGRIGHT
 10
0.0
 20
0.0
 30
0.0
  9
$PUCSORGFRONT
 10
0.0
 20
0.0
 30
0.0
  9
$PUCSORGBACK
 10
0.0
 20
0.0
 30
0.0
  9
$USERI1
 70
     0
  9
$USERI2
 70
     0
  9
$USERI3
 70
     0
  9
$USERI4
 70
     0
  9
$USERI5
 70
     0
  9
$USERR1
 40
0.0
  9
$USERR2
 40
0.0
  9
$USERR3
 40
0.0
  9
$USERR4
 40
0.0
  9
$USERR5
 40
0.0
  9
$WORLDVIEW
 70
     1
  9
$SHADEDGE
 70
     3
  9
$SHADEDIF
 70
    70
  9
$TILEMODE
 70
     1
  9
$MAXACTVP
 70
    64
  9
$PINSBASE
 10
0.0
 20
0.0
 30
0.0
  9
$PLIMCHECK
 70
     0
  9
$PEXTMIN
 10
1.0000000000E+20
 20
1.0000000000E+20
 30
1.0000000000E+20
  9
$PEXTMAX
 10
-1.0000000000E+20
 20
-1.0000000000E+20
 30
-1.0000000000E+20
  9
$PLIMMIN
 10
0.0
 20
0.0
  9
$PLIMMAX
 10
420.0
 20
297.0
  9
$UNITMODE
 70
     0
  9
$VISRETAIN
 70
     1
  9
$PLINEGEN
 70
     0
  9
$PSLTSCALE
 70
     1
  9
$TREEDEPTH
 70
  3020
  9
$CMLSTYLE
  2
Standard
  9
$CMLJUST
 70
     0
  9
$CMLSCALE
 40
20.0
  9
$PROXYGRAPHICS
 70
     1
  9
$MEASUREMENT
 70
     1
  9
$CELWEIGHT
370
    -1
  9
$ENDCAPS
280
     0
  9
$JOINSTYLE
280
     0
  9
$LWDISPLAY
290
     1
  9
$INSUNITS
 70
     4
  9
$HYPERLINKBASE
  1

  9
$STYLESHEET
  1

  9
$XEDIT
290
     1
  9
$CEPSNTYPE
380
     0
  9
$PSTYLEMODE
290
     1
  9
$FINGERPRINTGUID
  2
{20B3221D-E89F-48A9-8D42-54699A2A55C2}
  9
$VERSIONGUID
  2
{FAEB1C32-E019-11D5-929B-00C0DF256EC4}
  9
$EXTNAMES
290
     1
  9
$PSVPSCALE
 40
0.0
  9
$OLESTARTUP
290
     0
  0
ENDSEC
  0
SECTION
  2
CLASSES
  0
CLASS
  1
ACDBDICTIONARYWDFLT
  2
AcDbDictionaryWithDefault
  3
ObjectDBX Classes
 90
        0
280
     0
281
     0
  0
CLASS
  1
VISUALSTYLE
  2
AcDbVisualStyle
  3
ObjectDBX Classes
 90
     4095
280
     0
281
     0
  0
CLASS
  1
SCALE
  2
AcDbScale
  3
ObjectDBX Classes
 90
     1153
280
     0
281
     0
  0
CLASS
  1
DICTIONARYVAR
  2
AcDbDictionaryVar
  3
ObjectDBX Classes
 90
        0
280
     0
281
     0
  0
CLASS
  1
ACDBPLACEHOLDER
  2
AcDbPlaceHolder
  3
ObjectDBX Classes
 90
        0
280
     0
281
     0
  0
CLASS
  1
LAYOUT
  2
AcDbLayout
  3
ObjectDBX Classes
 90
        0
280
     0
281
     0
  0
ENDSEC
  0
SECTION
  2
TABLES
  0
TABLE
  2
VPORT
  5
8
330
0
100
AcDbSymbolTable
 70
     1
  0
VPORT
  5
29
330
8
100
AcDbSymbolTableRecord
100
AcDbViewportTableRecord
  2
*Active
 70
     0
 10
0.0
 20
0.0
 11
1.0
 21
1.0
 12
148.5
 22
105.0
 13
0.0
 23
0.0
 14
10.0
 24
10.0
 15
10.0
 25
10.0
 16
0.0
 26
0.0
 36
1.0
 17
0.0
 27
0.0
 37
0.0
 40
210.0
 41
1.4142857143
 42
50.0
 43
0.0
 44
0.0
 50
0.0
 51
0.0
 71
     0
 72
  2000
 73
     1
 74
     3
 75
     0
 76
     0
 77
     0
 78
     0
281
     0
 65
     1
110
0.0
120
0.0
130
0.0
111
1.0
121
0.0
131
0.0
112
0.0
122
1.0
132
0.0
 79
     0
146
0.0
  0
ENDTAB
  0
TABLE
  2
LTYPE
  5
5
330
0
100
AcDbSymbolTable
 70
     8
  0
LTYPE
  5
14
330
5
100
AcDbSymbolTableRecord
100
AcDbLinetypeTableRecord
  2
ByBlock
 70
     0
  3

 72
    65
 73
     0
 40
0.0
  0
LTYPE
  5
15
330
5
100
AcDbSymbolTableRecord
100
AcDbLinetypeTableRecord
  2
ByLayer
 70
     0
  3

 72
    65
 73
     0
 40
0.0
  0
LTYPE
  5
16
330
5
100
AcDbSymbolTableRecord
100
AcDbLinetypeTableRecord
  2
Continuous
 70
     0
  3
Solid line
 72
    65
 73
     0
 40
0.0
  0
LTYPE
  5
5D
330
5
100
AcDbSymbolTableRecord
100
AcDbLinetypeTableRecord
  2
SLD-Durchgehend
 70
     0
  3
SolidWorks Line Style
 72
    65
 73
     0
 40
0.0
  0
LTYPE
  5
5E
330
5
100
AcDbSymbolTableRecord
100
AcDbLinetypeTableRecord
  2
SLD-Gestrichelt
 70
     0
  3
SolidWorks Line Style
 72
    65
 73
     2
 40
1.905
 49
1.27
 74
     0
 49
-0.635
 74
     0
  0
LTYPE
  5
5F
330
5
100
AcDbSymbolTableRecord
100
AcDbLinetypeTableRecord
  2
SLD-Phantom
 70
     0
  3
SolidWorks Line Style
 72
    65
 73
     6
 40
12.7
 49
6.35
 74
     0
 49
-1.27
 74
     0
 49
1.27
 74
     0
 49
-1.27
 74
     0
 49
1.27
 74
     0
 49
-1.27
 74
     0
  0
LTYPE
  5
60
330
5
100
AcDbSymbolTableRecord
100
AcDbLinetypeTableRecord
  2
SLD-Kette
 70
     0
  3
SolidWorks Line Style
 72
    65
 73
     4
 40
10.16
 49
6.35
 74
     0
 49
-1.27
 74
     0
 49
1.27
 74
     0
 49
-1.27
 74
     0
  0
LTYPE
  5
61
330
5
100
AcDbSymbolTableRecord
100
AcDbLinetypeTableRecord
  2
SLD-Punktstrich
 70
     0
  3
SolidWorks Line Style
 72
    65
 73
     4
 40
19.05
 49
15.24
 74
     0
 49
-1.27
 74
     0
 49
1.27
 74
     0
 49
-1.27
 74
     0
  0
LTYPE
  5
62
330
5
100
AcDbSymbolTableRecord
100
AcDbLinetypeTableRecord
  2
SLD-Naht
 70
     0
  3
SolidWorks Line Style
 72
    65
 73
     2
 40
0.635
 49
0.0
 74
     0
 49
-0.635
 74
     0
  0
LTYPE
  5
63
330
5
100
AcDbSymbolTableRecord
100
AcDbLinetypeTableRecord
  2
SLD-Dicke-Dünne-Kette
 70
     0
  3
SolidWorks Line Style
 72
    65
 73
     4
 40
10.16
 49
6.35
 74
     0
 49
-1.27
 74
     0
 49
1.27
 74
     0
 49
-1.27
 74
     0
  0
ENDTAB
  0
TABLE
  2
LAYER
  5
2
330
0
100
AcDbSymbolTable
 70
     5
  0
LAYER
  5
10
330
2
100
AcDbSymbolTableRecord
100
AcDbLayerTableRecord
  2
0
 70
     0
 62
     7
  6
Continuous
370
    -3
390
F
  0
LAYER
  5
64
330
2
100
AcDbSymbolTableRecord
100
AcDbLayerTableRecord
  2
FORMAT
 70
     0
 62
     7
  6
SLD-Durchgehend
370
    -3
390
F
  0
LAYER
  5
65
330
2
100
AcDbSymbolTableRecord
100
AcDbLayerTableRecord
  2
VERMASSUNG
 70
     0
 62
     7
  6
SLD-Durchgehend
370
    -3
390
F
  0
LAYER
  5
66
330
2
100
AcDbSymbolTableRecord
100
AcDbLayerTableRecord
  2
KOPF_DÜNN
 70
     0
 62
     7
  6
SLD-Durchgehend
370
    -3
390
F
  0
LAYER
  5
67
330
2
100
AcDbSymbolTableRecord
100
AcDbLayerTableRecord
  2
KOPF_DICK
 70
     0
 62
     7
  6
SLD-Durchgehend
370
    15
390
F
  0
ENDTAB
  0
TABLE
  2
STYLE
  5
3
330
0
100
AcDbSymbolTable
 70
     2
  0
STYLE
  5
11
330
3
100
AcDbSymbolTableRecord
100
AcDbTextStyleTableRecord
  2
STANDARD
 70
     0
 40
0.0
 41
1.0
 50
0.0
 71
     0
 42
2.5
  3
ISOCPEUR.TTF
  4

1001
ACAD
1000
ISOCPEUR
1071
       34
  0
STYLE
  5
68
330
3
100
AcDbSymbolTableRecord
100
AcDbTextStyleTableRecord
  2
SLDTEXTSTYLE0
 70
     0
 40
0.0
 41
1.0
 50
0.0
 71
     0
 42
0.2
  3
ISOCPEUR.TTF
  4

1001
ACAD
1000
ISOCPEUR
1071
      290
  0
ENDTAB
  0
TABLE
  2
VIEW
  5
6
330
0
100
AcDbSymbolTable
 70
     0
  0
ENDTAB
  0
TABLE
  2
UCS
  5
7
330
0
100
AcDbSymbolTable
 70
     0
  0
ENDTAB
  0
TABLE
  2
APPID
  5
9
330
0
100
AcDbSymbolTable
 70
     1
  0
APPID
  5
12
330
9
100
AcDbSymbolTableRecord
100
AcDbRegAppTableRecord
  2
ACAD
 70
     0
  0
ENDTAB
  0
TABLE
  2
DIMSTYLE
  5
A
330
0
100
AcDbSymbolTable
 70
     3
100
AcDbDimStyleTable
  0
DIMSTYLE
105
27
330
A
100
AcDbSymbolTableRecord
100
AcDbDimStyleTableRecord
  2
ISO-25
 70
     0
 41
2.5
 42
0.625
 43
3.75
 44
1.25
 73
     0
 74
     0
 77
     1
 78
     8
140
2.5
141
2.5
143
0.0393700787
147
0.625
171
     3
172
     1
271
     2
272
     2
274
     3
278
    44
283
     0
284
     8
340
11
  0
DIMSTYLE
105
286
102
{ACAD_REACTORS
330
285
330
292
330
29C
330
2A6
102
}
330
A
100
AcDbSymbolTableRecord
100
AcDbDimStyleTableRecord
  2
SLDDIMSTYLE0
 70
     0
 41
3.0
 44
0.0
 45
0.000000001
 73
     0
 74
     0
 77
     1
 78
    12
140
2.0
147
0.5
173
     1
271
     2
272
     3
284
    12
340
68
  0
DIMSTYLE
105
2B1
102
{ACAD_REACTORS
330
2B0
102
}
330
A
100
AcDbSymbolTableRecord
100
AcDbDimStyleTableRecord
  2
SLDDIMSTYLE1
 70
     0
 41
3.0
 44
0.0
 73
     0
 74
     0
 77
     1
 78
    12
140
2.0
147
0.5
173
     1
179
     1
272
     3
284
    12
340
68
  0
ENDTAB
  0
TABLE
  2
BLOCK_RECORD
  5
1
330
0
100
AcDbSymbolTable
 70
     7
  0
BLOCK_RECORD
  5
1F
330
1
100
AcDbSymbolTableRecord
100
AcDbBlockTableRecord
  2
*Model_Space
340
22
  0
BLOCK_RECORD
  5
1B
330
1
100
AcDbSymbolTableRecord
100
AcDbBlockTableRecord
  2
*Paper_Space
340
1E
  0
BLOCK_RECORD
  5
23
330
1
100
AcDbSymbolTableRecord
100
AcDbBlockTableRecord
  2
*Paper_Space0
340
26
  0
BLOCK_RECORD
  5
287
330
1
100
AcDbSymbolTableRecord
100
AcDbBlockTableRecord
  2
*D1
340
0
  0
BLOCK_RECORD
  5
293
330
1
100
AcDbSymbolTableRecord
100
AcDbBlockTableRecord
  2
*D2
340
0
  0
BLOCK_RECORD
  5
29D
330
1
100
AcDbSymbolTableRecord
100
AcDbBlockTableRecord
  2
*D3
340
0
  0
BLOCK_RECORD
  5
2A7
330
1
100
AcDbSymbolTableRecord
100
AcDbBlockTableRecord
  2
*D4
340
0
  0
BLOCK_RECORD
  5
2B2
330
1
100
AcDbSymbolTableRecord
100
AcDbBlockTableRecord
  2
*D5
340
0
  0
BLOCK_RECORD
  5
36C
330
1
100
AcDbSymbolTableRecord
100
AcDbBlockTableRecord
  2
SW_CENTERMARKSYMBOL_0
340
0
102
{BLKREFS
331
377
102
}
  0
ENDTAB
  0
ENDSEC
  0
SECTION
  2
BLOCKS
  0
BLOCK
  5
20
330
1F
100
AcDbEntity
  8
0
100
AcDbBlockBegin
  2
*Model_Space
 70
     0
 10
0.0
 20
0.0
 30
0.0
  3
*Model_Space
  1

  0
ENDBLK
  5
21
330
1F
100
AcDbEntity
  8
0
100
AcDbBlockEnd
  0
BLOCK
  5
1C
330
1B
100
AcDbEntity
 67
     1
  8
0
100
AcDbBlockBegin
  2
*Paper_Space
 70
     0
 10
0.0
 20
0.0
 30
0.0
  3
*Paper_Space
  1

  0
ENDBLK
  5
1D
330
1B
100
AcDbEntity
 67
     1
  8
0
100
AcDbBlockEnd
  0
BLOCK
  5
24
330
23
100
AcDbEntity
  8
0
100
AcDbBlockBegin
  2
*Paper_Space0
 70
     0
 10
0.0
 20
0.0
 30
0.0
  3
*Paper_Space0
  1

  0
ENDBLK
  5
25
330
23
100
AcDbEntity
  8
0
100
AcDbBlockEnd
  0
BLOCK
  5
288
330
287
100
AcDbEntity
  8
0
100
AcDbBlockBegin
  2
*D1
 70
     1
 10
0.0
 20
0.0
 30
0.0
  3
*D1
  1

  0
SOLID
  5
28A
330
287
100
AcDbEntity
  8
VERMASSUNG
100
AcDbTrace
 10
151.2952912761
 20
125.617923399
 30
0.0
 11
150.8452912761
 21
122.617923399
 31
0.0
 12
151.7452912761
 22
122.617923399
 32
0.0
 13
151.7452912761
 23
122.617923399
 33
0.0
  0
SOLID
  5
28B
330
287
100
AcDbEntity
  8
VERMASSUNG
100
AcDbTrace
 10
151.2952912761
 20
85.617923399
 30
0.0
 11
151.7452912761
 21
88.617923399
 31
0.0
 12
150.8452912761
 22
88.617923399
 32
0.0
 13
150.8452912761
 23
88.617923399
 33
0.0
  0
LINE
  5
28C
330
287
100
AcDbEntity
  8
VERMASSUNG
100
AcDbLine
 10
174.9284612109
 20
125.617923399
 30
0.0
 11
150.2952912761
 21
125.617923399
 31
0.0
  0
LINE
  5
28D
330
287
100
AcDbEntity
  8
VERMASSUNG
100
AcDbLine
 10
174.9284612109
 20
85.617923399
 30
0.0
 11
150.2952912761
 21
85.617923399
 31
0.0
  0
LINE
  5
28E
330
287
100
AcDbEntity
  8
VERMASSUNG
100
AcDbLine
 10
151.2952912761
 20
125.617923399
 30
0.0
 11
151.2952912761
 21
85.617923399
 31
0.0
  0
MTEXT
  5
28F
330
287
100
AcDbEntity
  8
VERMASSUNG
100
AcDbMText
 10
148.4952914994
 20
99.3148169474
 30
0.0
 40
2.0
 41
0.0
 71
     1
 72
     1
  1
HSK 
  7
SLDTEXTSTYLE0
 11
-7.044195017643634E-15
 21
1.0
 31
0.0
 73
     1
 44
1.0
  0
MTEXT
  5
290
330
287
100
AcDbEntity
  8
VERMASSUNG
100
AcDbMText
 10
148.6952914507
 20
105.3148169995
 30
0.0
 40
2.0
 41
0.0
 71
     1
 72
     1
  1
%%c
  7
SLDTEXTSTYLE0
 11
-7.044195017643634E-15
 21
1.0
 31
0.0
 73
     1
 44
1.0
  0
MTEXT
  5
291
330
287
100
AcDbEntity
  8
VERMASSUNG
100
AcDbMText
 10
148.6952911597
 20
108.9233896893
 30
0.0
 40
2.0
 41
0.0
 71
     1
 72
     1
  1
40
  7
SLDTEXTSTYLE0
 11
-7.044195017643634E-15
 21
1.0
 31
0.0
 73
     1
 44
1.0
  0
ENDBLK
  5
289
330
287
100
AcDbEntity
  8
0
100
AcDbBlockEnd
  0
BLOCK
  5
294
330
293
100
AcDbEntity
  8
0
100
AcDbBlockBegin
  2
*D2
 70
     1
 10
0.0
 20
0.0
 30
0.0
  3
*D2
  1

  0
SOLID
  5
296
330
293
100
AcDbEntity
  8
VERMASSUNG
100
AcDbTrace
 10
229.6284612109
 20
141.922914662
 30
0.0
 11
226.6284612109
 21
142.372914662
 31
0.0
 12
226.6284612109
 22
141.472914662
 32
0.0
 13
226.6284612109
 23
141.472914662
 33
0.0
  0
SOLID
  5
297
330
293
100
AcDbEntity
  8
VERMASSUNG
100
AcDbTrace
 10
154.7284612109
 20
141.922914662
 30
0.0
 11
157.7284612109
 21
141.472914662
 31
0.0
 12
157.7284612109
 22
142.372914662
 32
0.0
 13
157.7284612109
 23
142.372914662
 33
0.0
  0
LINE
  5
298
330
293
100
AcDbEntity
  8
VERMASSUNG
100
AcDbLine
 10
229.6284612109
 20
132.617923399
 30
0.0
 11
229.6284612109
 21
142.922914662
 31
0.0
  0
LINE
  5
299
330
293
100
AcDbEntity
  8
VERMASSUNG
100
AcDbLine
 10
154.7284612109
 20
117.547923399
 30
0.0
 11
154.7284612109
 21
142.922914662
 31
0.0
  0
LINE
  5
29A
330
293
100
AcDbEntity
  8
VERMASSUNG
100
AcDbLine
 10
229.6284612109
 20
141.922914662
 30
0.0
 11
154.7284612109
 21
141.922914662
 31
0.0
  0
MTEXT
  5
29B
330
293
100
AcDbEntity
  8
VERMASSUNG
100
AcDbMText
 10
189.6792062109
 20
144.5229147784
 30
0.0
 40
2.0
 41
0.0
 71
     1
 72
     1
  1
74.9
  7
SLDTEXTSTYLE0
 73
     1
 44
1.0
  0
ENDBLK
  5
295
330
293
100
AcDbEntity
  8
0
100
AcDbBlockEnd
  0
BLOCK
  5
29E
330
29D
100
AcDbEntity
  8
0
100
AcDbBlockBegin
  2
*D3
 70
     1
 10
0.0
 20
0.0
 30
0.0
  3
*D3
  1

  0
SOLID
  5
2A0
330
29D
100
AcDbEntity
  8
VERMASSUNG
100
AcDbTrace
 10
174.6284612109
 20
135.922914662
 30
0.0
 11
177.6284612109
 21
135.472914662
 31
0.0
 12
177.6284612109
 22
136.372914662
 32
0.0
 13
177.6284612109
 23
136.372914662
 33
0.0
  0
SOLID
  5
2A1
330
29D
100
AcDbEntity
  8
VERMASSUNG
100
AcDbTrace
 10
229.6284612109
 20
135.922914662
 30
0.0
 11
226.6284612109
 21
136.372914662
 31
0.0
 12
226.6284612109
 22
135.472914662
 32
0.0
 13
226.6284612109
 23
135.472914662
 33
0.0
  0
LINE
  5
2A2
330
29D
100
AcDbEntity
  8
VERMASSUNG
100
AcDbLine
 10
174.6284612109
 20
125.317923399
 30
0.0
 11
174.6284612109
 21
136.922914662
 31
0.0
  0
LINE
  5
2A3
330
29D
100
AcDbEntity
  8
VERMASSUNG
100
AcDbLine
 10
229.6284612109
 20
132.617923399
 30
0.0
 11
229.6284612109
 21
136.922914662
 31
0.0
  0
LINE
  5
2A4
330
29D
100
AcDbEntity
  8
VERMASSUNG
100
AcDbLine
 10
174.6284612109
 20
135.922914662
 30
0.0
 11
229.6284612109
 21
135.922914662
 31
0.0
  0
MTEXT
  5
2A5
330
29D
100
AcDbEntity
  8
VERMASSUNG
100
AcDbMText
 10
200.7285852431
 20
138.5229147784
 30
0.0
 40
2.0
 41
0.0
 71
     1
 72
     1
  1
55
  7
SLDTEXTSTYLE0
 73
     1
 44
1.0
  0
ENDBLK
  5
29F
330
29D
100
AcDbEntity
  8
0
100
AcDbBlockEnd
  0
BLOCK
  5
2A8
330
2A7
100
AcDbEntity
  8
0
100
AcDbBlockBegin
  2
*D4
 70
     1
 10
0.0
 20
0.0
 30
0.0
  3
*D4
  1

  0
SOLID
  5
2AA
330
2A7
100
AcDbEntity
  8
VERMASSUNG
100
AcDbTrace
 10
237.8124632167
 20
132.617923399
 30
0.0
 11
237.3624632167
 21
129.617923399
 31
0.0
 12
238.2624632167
 22
129.617923399
 32
0.0
 13
238.2624632167
 23
129.617923399
 33
0.0
  0
SOLID
  5
2AB
330
2A7
100
AcDbEntity
  8
VERMASSUNG
100
AcDbTrace
 10
237.8124632167
 20
105.617923399
 30
0.0
 11
238.2624632167
 21
108.617923399
 31
0.0
 12
237.3624632167
 22
108.617923399
 32
0.0
 13
237.3624632167
 23
108.617923399
 33
0.0
  0
LINE
  5
2AC
330
2A7
100
AcDbEntity
  8
VERMASSUNG
100
AcDbLine
 10
229.6284612109
 20
132.617923399
 30
0.0
 11
238.8124632167
 21
132.617923399
 31
0.0
  0
LINE
  5
2AD
330
2A7
100
AcDbEntity
  8
VERMASSUNG
100
AcDbLine
 10
229.1759599103
 20
105.617923399
 30
0.0
 11
238.8124632167
 21
105.617923399
 31
0.0
  0
LINE
  5
2AE
330
2A7
100
AcDbEntity
  8
VERMASSUNG
100
AcDbLine
 10
237.8124632167
 20
132.617923399
 30
0.0
 11
237.8124632167
 21
105.617923399
 31
0.0
  0
MTEXT
  5
2AF
330
2A7
100
AcDbEntity
  8
VERMASSUNG
100
AcDbMText
 10
235.2124631003
 20
117.7180474313
 30
0.0
 40
2.0
 41
0.0
 71
     1
 72
     1
  1
27
  7
SLDTEXTSTYLE0
 11
-7.044195017643634E-15
 21
1.0
 31
0.0
 73
     1
 44
1.0
  0
ENDBLK
  5
2A9
330
2A7
100
AcDbEntity
  8
0
100
AcDbBlockEnd
  0
BLOCK
  5
2B3
330
2B2
100
AcDbEntity
  8
0
100
AcDbBlockBegin
  2
*D5
 70
     1
 10
0.0
 20
0.0
 30
0.0
  3
*D5
  1

  0
ARC
  5
2B5
330
2B2
100
AcDbEntity
  8
VERMASSUNG
100
AcDbCircle
 10
229.6284612109
 20
132.5851508164
 30
0.0
 40
32.70427780778904
100
AcDbArc
 50
266.9592566875
 51
270.0
  0
ARC
  5
2B6
330
2B2
100
AcDbEntity
  8
VERMASSUNG
100
AcDbCircle
 10
229.6284612109
 20
132.5851508164
 30
0.0
 40
32.70427780778905
100
AcDbArc
 50
256.487972703
 51
266.9592566875
  0
ARC
  5
2B7
330
2B2
100
AcDbEntity
  8
VERMASSUNG
100
AcDbCircle
 10
229.6284612109
 20
132.5851508164
 30
0.0
 40
32.70427780778904
100
AcDbArc
 50
270.0
 51
285.5971079034
  0
SOLID
  5
2B8
330
2B2
100
AcDbEntity
  8
VERMASSUNG
100
AcDbTrace
 10
227.8936276912
 20
99.9269184762
 30
0.0
 11
224.9526519995
 21
100.670667077
 31
0.0
 12
224.8638689442
 22
99.7750569112
 32
0.0
 13
224.8638689442
 23
99.7750569112
 33
0.0
  0
SOLID
  5
2B9
330
2B2
100
AcDbEntity
  8
VERMASSUNG
100
AcDbTrace
 10
229.6284612109
 20
99.8808730086
 30
0.0
 11
232.6458985976
 21
99.56850845
 31
0.0
 12
232.6047491454
 22
100.4675672481
 32
0.0
 13
232.6047491454
 23
100.4675672481
 33
0.0
  0
LINE
  5
2BA
330
2B2
100
AcDbEntity
  8
VERMASSUNG
100
AcDbLine
 10
228.8138174769
 20
117.2494865942
 30
0.0
 11
227.8405816178
 21
98.9283264103
 31
0.0
  0
LINE
  5
2BB
330
2B2
100
AcDbEntity
  8
VERMASSUNG
100
AcDbLine
 10
229.6284612109
 20
105.617923399
 30
0.0
 11
229.6284612109
 21
98.8808730086
 31
0.0
  0
MTEXT
  5
2BC
330
2B2
100
AcDbEntity
  8
VERMASSUNG
100
AcDbMText
 10
233.8636515813
 20
102.7519487629
 30
0.0
 40
2.0
 41
0.0
 71
     1
 72
     1
  1
3°
  7
SLDTEXTSTYLE0
 11
0.9830891688438749
 21
0.1831275132301513
 31
0.0
 73
     1
 44
1.0
  0
ENDBLK
  5
2B4
330
2B2
100
AcDbEntity
  8
0
100
AcDbBlockEnd
  0
BLOCK
  5
36D
330
36C
100
AcDbEntity
  8
0
100
AcDbBlockBegin
  2
SW_CENTERMARKSYMBOL_0
 70
     0
 10
0.0
 20
0.0
 30
0.0
  3
SW_CENTERMARKSYMBOL_0
  1

  0
LINE
  5
36F
330
36C
100
AcDbEntity
  8
VERMASSUNG
 62
     0
100
AcDbLine
 10
0.0
 20
0.0
 30
0.0
 11
0.0
 21
2.5
 31
0.0
  0
LINE
  5
370
330
36C
100
AcDbEntity
  8
VERMASSUNG
 62
     0
100
AcDbLine
 10
0.0
 20
0.0
 30
0.0
 11
-2.5
 21
0.0
 31
0.0
  0
LINE
  5
371
330
36C
100
AcDbEntity
  8
VERMASSUNG
 62
     0
100
AcDbLine
 10
0.0
 20
0.0
 30
0.0
 11
0.0
 21
-2.5
 31
0.0
  0
LINE
  5
372
330
36C
100
AcDbEntity
  8
VERMASSUNG
 62
     0
100
AcDbLine
 10
0.0
 20
0.0
 30
0.0
 11
2.5
 21
0.0
 31
0.0
  0
LINE
  5
373
330
36C
100
AcDbEntity
  8
VERMASSUNG
 62
     0
100
AcDbLine
 10
0.0
 20
5.0
 30
0.0
 11
0.0
 21
28.1928244722
 31
0.0
  0
LINE
  5
374
330
36C
100
AcDbEntity
  8
VERMASSUNG
 62
     0
100
AcDbLine
 10
-5.0
 20
0.0
 30
0.0
 11
-22.5
 21
0.0
 31
0.0
  0
LINE
  5
375
330
36C
100
AcDbEntity
  8
VERMASSUNG
 62
     0
100
AcDbLine
 10
0.0
 20
-5.0
 30
0.0
 11
0.0
 21
-22.5
 31
0.0
  0
LINE
  5
376
330
36C
100
AcDbEntity
  8
VERMASSUNG
 62
     0
100
AcDbLine
 10
5.0
 20
0.0
 30
0.0
 11
22.5
 21
0.0
 31
0.0
  0
ENDBLK
  5
36E
330
36C
100
AcDbEntity
  8
0
100
AcDbBlockEnd
  0
ENDSEC
  0
SECTION
  2
ENTITIES
  0
MTEXT
  5
69
330
1F
100
AcDbEntity
  8
KOPF_DÜNN
100
AcDbMText
 10
13.8892156294
 20
23.8770940835
 30
0.0
 40
3.0
 41
0.0
 71
     1
 72
     1
  1
HA4.KVD.RUA.055
  7
SLDTEXTSTYLE0
 73
     1
 44
1.0
  0
MTEXT
  5
6A
330
1F
100
AcDbEntity
  8
VERMASSUNG
100
AcDbMText
 10
13.9329988022
 20
28.9162328764
 30
0.0
 40
3.0
 41
0.0
 71
     1
 72
     1
  1
Klemmhalter rechts_Turning tool right 93° /35°
  7
SLDTEXTSTYLE0
 73
     1
 44
1.0
  0
MTEXT
  5
6B
330
1F
100
AcDbEntity
  8
VERMASSUNG
100
AcDbMText
 10
98.8601118557
 20
13.8584013966
 30
0.0
 40
2.0
 41
0.0
 71
     1
 72
     1
  1
Datum: 02.02.2009
  7
SLDTEXTSTYLE0
 73
     1
 44
1.0
  0
MTEXT
  5
6C
330
1F
100
AcDbEntity
  8
VERMASSUNG
100
AcDbMText
 10
13.933048693
 20
18.0701447943
 30
0.0
 40
2.0
 41
0.0
 71
     1
 72
     1
  1
DIN 69893 HSK 40 A ICTM / VN.. 16 04..
  7
SLDTEXTSTYLE0
 73
     1
 44
1.0
  0
MTEXT
  5
6D
330
1F
100
AcDbEntity
  8
VERMASSUNG
100
AcDbMText
 10
13.9808475933
 20
13.9309619479
 30
0.0
 40
2.0
 41
0.0
 71
     1
 72
     1
  1
Gewicht: 369g
  7
SLDTEXTSTYLE0
 73
     1
 44
1.0
  0
LINE
  5
6E
330
1F
100
AcDbEntity
  8
0
  6
SLD-Durchgehend
 62
     7
370
    15
100
AcDbLine
 10
211.693911313
 20
102.8041853267
 30
0.0
 11
212.0392270972
 21
103.6617001216
 31
0.0
  0
LINE
  5
6F
330
1F
100
AcDbEntity
  8
0
  6
SLD-Durchgehend
 62
     7
370
    15
100
AcDbLine
 10
209.2563868155
 20
104.7823282704
 30
0.0
 11
208.8911891569
 21
103.875433181
 31
0.0
  0
LINE
  5
70
330
1F
100
AcDbEntity
  8
0
  6
SLD-Durchgehend
 62
     7
370
    15
100
AcDbLine
 10
209.3622483899
 20
112.9864577367
 30
0.0
 11
209.0419702818
 21
112.191109655
 31
0.0
  0
LINE
  5
71
330
1F
100
AcDbEntity
  8
0
  6
SLD-Durchgehend
 62
     7
370
    15
100
AcDbLine
 10
222.0285520543
 20
106.9615112781
 30
0.0
 11
222.3488301624
 21
107.7568595927
 31
0.0
  0
LINE
  5
72
330
1F
100
AcDbEntity
  8
0
  6
SLD-Durchgehend
 62
     7
370
    15
100
AcDbLine
 10
210.7310355295
 20
113.0392050534
 30
0.0
 11
210.5915234079
 21
112.6927549183
 31
0.0
  0
LINE
  5
73
330
1F
100
AcDbEntity
  8
0
  6
SLD-Durchgehend
 62
     7
370
    15
100
AcDbLine
 10
221.2590709914
 20
108.3970130119
 30
0.0
 11
221.3985831131
 21
108.7434633798
 31
0.0
  0
LINE
  5
74
330
1F
100
AcDbEntity
  8
0
  6
SLD-Durchgehend
 62
     7
370
    15
100
AcDbLine
 10
202.993542387
 20
105.715178556
 30
0.0
 11
202.5504600842
 21
104.6148787416
 31
0.0
  0
LINE
  5
75
330
1F
100
AcDbEntity
  8
0
  6
SLD-Durchgehend
 62
     7
370
    15
100
AcDbLine
 10
225.7794388224
 20
112.498844245
 30
0.0
 11
226.12550339
 21
113.3582235477
 31
0.0
  0
LINE
  5
76
330
1F
100
AcDbEntity
  8
0
  6
SLD-Durchgehend
 62
     7
370
    15
100
AcDbLine
 10
227.8258786191
 20
119.3512181915
 30
0.0
 11
223.951003014
 21
122.608102595
 31
0.0
  0
LINE
  5
77
330
1F
100
AcDbEntity
  8
0
  6
SLD-Durchgehend
 62
     7
370
    15
100
AcDbLine
 10
228.4742653956
 20
116.2996997289
 30
0.0
 11
228.8063079704
 21
117.1242517582
 31
0.0
  0
LINE
  5
78
330
1F
100
AcDbEntity
  8
0
  6
SLD-Durchgehend
 62
     7
370
    15
100
AcDbLine
 10
174.9284612251
 20
85.617923846
 30
0.0
 11
182.5784616758
 21
85.617923846
 31
0.0
  0
LINE
  5
79
330
1F
100
AcDbEntity
  8
0
  6
SLD-Durchgehend
 62
     7
370
    15
100
AcDbLine
 10
182.5939886858
 20
125.617922952
 30
0.0
 11
174.9284612251
 21
125.617922952
 31
0.0
  0
ARC
  5
7A
330
1F
100
AcDbEntity
  8
0
  6
SLD-Durchgehend
 62
     7
370
    15
100
AcDbCircle
 10
174.9284612109
 20
85.917923399
 30
0.0
 40
0.2999999999999829
100
AcDbArc
 50
180.0
 51
270.0
  0
ARC
  5
7B
330
1F
100
AcDbEntity
  8
0
  6
SLD-Durchgehend
 62
     7
370
    15
100
AcDbCircle
 10
174.9284612109
 20
125.317923399
 30
0.0
 40
0.2999999999999972
100
AcDbArc
 50
90.0
 51
180.0
  0
ARC
  5
7C
330
1F
100
AcDbEntity
  8
0
  6
SLD-Durchgehend
 62
     7
370
    15
100
AcDbCircle
 10
195.5784612109
 20
88.117923399
 30
0.0
 40
1.000000000000015
100
AcDbArc
 50
90.0
 51
143.1137328946
  0
ARC
  5
7D
330
1F
100
AcDbEntity
  8
0
  6
SLD-Durchgehend
 62
     7
370
    15
100
AcDbCircle
 10
195.5784612109
 20
123.117923399
 30
0.0
 40
1.000000000000014
100
AcDbArc
 50
216.8998129703
 51
270.0
  0
LINE
  5
7E
330
1F
100
AcDbEntity
  8
0
  6
SLD-Durchgehend
 62
     7
370
    15
100
AcDbLine
 10
195.578461944
 20
89.1179234884
 30
0.0
 11
208.8611335148
 21
89.1179234884
 31
0.0
  0
LINE
  5
7F
330
1F
100
AcDbEntity
  8
0
  6
SLD-Durchgehend
 62
     7
370
    15
100
AcDbLine
 10
206.1331965615
 20
122.1179233096
 30
0.0
 11
195.578461944
 21
122.1179233096
 31
0.0
  0
ARC
  5
80
330
1F
100
AcDbEntity
  8
0
  6
SLD-Durchgehend
 62
     7
370
    15
100
AcDbCircle
 10
174.1284544582
 20
90.1642162455
 30
0.0
 40
0.6000067526677242
100
AcDbArc
 50
33.5571153394
 51
90.0
  0
ARC
  5
81
330
1F
100
AcDbEntity
  8
0
  6
SLD-Durchgehend
 62
     7
370
    15
100
AcDbCircle
 10
174.1284544582
 20
121.0716305525
 30
0.0
 40
0.6000067526677242
100
AcDbArc
 50
270.0
 51
326.4428846606
  0
LINE
  5
82
330
1F
100
AcDbEntity
  8
0
  6
SLD-Durchgehend
 62
     7
370
    15
100
AcDbLine
 10
165.812528192
 20
120.3801443032
 30
0.0
 11
158.3284609605
 21
120.0051910407
 31
0.0
  0
LINE
  5
83
330
1F
100
AcDbEntity
  8
0
  6
SLD-Durchgehend
 62
     7
370
    15
100
AcDbLine
 10
172.6284611159
 20
120.7216239698
 30
0.0
 11
171.3937285476
 21
120.6597636617
 31
0.0
  0
LINE
  5
84
330
1F
100
AcDbEntity
  8
0
  6
SLD-Durchgehend
 62
     7
370
    15
100
AcDbLine
 10
171.3947245971
 20
90.5760337762
 30
0.0
 11
172.6284611159
 21
90.5142228282
 31
0.0
  0
LINE
  5
85
330
1F
100
AcDbEntity
  8
0
  6
SLD-Durchgehend
 62
     7
370
    15
100
AcDbLine
 10
160.8284613703
 20
91.1054049782
 30
0.0
 11
165.8129910593
 21
90.8556792117
 31
0.0
  0
LINE
  5
86
330
1F
100
AcDbEntity
  8
0
  6
SLD-Durchgehend
 62
     7
370
    15
100
AcDbLine
 10
172.6284611159
 20
90.5142228282
 30
0.0
 11
173.4851731107
 21
90.7437780104
 31
0.0
  0
LINE
  5
87
330
1F
100
AcDbEntity
  8
0
  6
SLD-Durchgehend
 62
     7
370
    15
100
AcDbLine
 10
173.4851731107
 20
120.4920687876
 30
0.0
 11
172.6284611159
 21
120.7216239698
 31
0.0
  0
ARC
  5
88
330
1F
100
AcDbEntity
  8
0
  6
SLD-Durchgehend
 62
     7
370
    15
100
AcDbCircle
 10
173.6404663003
 20
90.1642162455
 30
0.0
 40
0.6000067526677242
100
AcDbArc
 50
90.0
 51
105.0
  0
ARC
  5
89
330
1F
100
AcDbEntity
  8
0
  6
SLD-Durchgehend
 62
     7
370
    15
100
AcDbCircle
 10
173.6404663003
 20
121.0716305525
 30
0.0
 40
0.6000067526677242
100
AcDbArc
 50
255.0
 51
270.0
  0
LINE
  5
8A
330
1F
100
AcDbEntity
  8
0
  6
SLD-Durchgehend
 62
     7
370
    15
100
AcDbLine
 10
173.6404662606
 20
90.7642233349
 30
0.0
 11
174.128454435
 21
90.7642233349
 31
0.0
  0
LINE
  5
8B
330
1F
100
AcDbEntity
  8
0
  6
SLD-Durchgehend
 62
     7
370
    15
100
AcDbLine
 10
174.128454435
 20
120.4716234631
 30
0.0
 11
173.6404662606
 21
120.4716234631
 31
0.0
  0
LINE
  5
8C
330
1F
100
AcDbEntity
  8
0
  6
SLD-Durchgehend
 62
     7
370
    15
100
AcDbLine
 10
209.827060311
 20
88.3767415933
 30
0.0
 11
210.0303866555
 21
87.6179241739
 31
0.0
  0
LINE
  5
8D
330
1F
100
AcDbEntity
  8
0
  6
SLD-Durchgehend
 62
     7
370
    15
100
AcDbLine
 10
210.0303866555
 20
87.6179241739
 30
0.0
 11
214.1250208606
 21
87.6179241739
 31
0.0
  0
ARC
  5
8E
330
1F
100
AcDbEntity
  8
0
  6
SLD-Durchgehend
 62
     7
370
    15
100
AcDbCircle
 10
208.8611342229
 20
88.117923399
 30
0.0
 40
1.00000000000002
100
AcDbArc
 50
15.0
 51
90.0
  0
ARC
  5
8F
330
1F
100
AcDbEntity
  8
0
  6
SLD-Durchgehend
 62
     7
370
    15
100
AcDbCircle
 10
157.4284612109
 20
119.397923399
 30
0.0
 40
0.9000000000000199
100
AcDbArc
 50
270.0
 51
311.1792132368
  0
ARC
  5
90
330
1F
100
AcDbEntity
  8
0
  6
SLD-Durchgehend
 62
     7
370
    15
100
AcDbCircle
 10
159.9284612109
 20
91.896923399
 30
0.0
 40
0.9000000000000057
100
AcDbArc
 50
29.8499024808
 51
90.0
  0
LINE
  5
91
330
1F
100
AcDbEntity
  8
0
  6
SLD-Durchgehend
 62
     7
370
    15
100
AcDbLine
 10
155.6784608056
 20
118.4979236848
 30
0.0
 11
154.728461488
 21
117.5479234359
 31
0.0
  0
LINE
  5
92
330
1F
100
AcDbEntity
  8
0
  6
SLD-Durchgehend
 62
     7
370
    15
100
AcDbLine
 10
157.4284606268
 20
118.4979236848
 30
0.0
 11
155.6784608056
 21
118.4979236848
 31
0.0
  0
LINE
  5
93
330
1F
100
AcDbEntity
  8
0
  6
SLD-Durchgehend
 62
     7
370
    15
100
AcDbLine
 10
155.6784608056
 20
92.7969233296
 30
0.0
 11
159.9284610365
 21
92.7969233296
 31
0.0
  0
LINE
  5
94
330
1F
100
AcDbEntity
  8
0
  6
SLD-Durchgehend
 62
     7
370
    15
100
AcDbLine
 10
154.728461488
 20
93.7469235785
 30
0.0
 11
155.6784608056
 21
92.7969233296
 31
0.0
  0
ARC
  5
95
330
1F
100
AcDbEntity
  8
0
  6
SLD-Durchgehend
 62
     7
370
    15
100
AcDbCircle
 10
210.6714238648
 20
104.2324036602
 30
0.0
 40
1.487145643144302
100
AcDbArc
 50
290.5250060884
 51
281.5085951705
  0
LINE
  5
96
330
1F
100
AcDbEntity
  8
0
  6
SLD-Durchgehend
 62
     7
370
    15
100
AcDbLine
 10
211.1830287267
 20
102.9520868021
 30
0.0
 11
211.1928411414
 21
102.8396631289
 31
0.0
  0
ARC
  5
97
330
1F
100
AcDbEntity
  8
0
  6
SLD-Durchgehend
 62
     7
370
    15
100
AcDbCircle
 10
210.6873287089
 20
104.2764247432
 30
0.0
 40
1.414068417645219
100
AcDbArc
 50
290.5208871764
 51
281.5126563489
  0
LINE
  5
98
330
1F
100
AcDbEntity
  8
0
  6
SLD-Durchgehend
 62
     7
370
    15
100
AcDbLine
 10
210.9695546915
 20
102.8908064752
 30
0.0
 11
210.9681316306
 21
102.775157399
 31
0.0
  0
LINE
  5
99
330
1F
100
AcDbEntity
  8
0
  6
SLD-Durchgehend
 62
     7
370
    15
100
AcDbLine
 10
211.1012735058
 20
103.1594394869
 30
0.0
 11
211.1830287267
 21
102.9520868021
 31
0.0
  0
ARC
  5
9A
330
1F
100
AcDbEntity
  8
0
  6
SLD-Durchgehend
 62
     7
370
    15
100
AcDbCircle
 10
210.6839657619
 20
104.2742430446
 30
0.0
 40
1.190349833183913
100
AcDbArc
 50
290.5225324564
 51
281.5109316854
  0
LINE
  5
9B
330
1F
100
AcDbEntity
  8
0
  6
SLD-Durchgehend
 62
     7
370
    15
100
AcDbLine
 10
210.9215058972
 20
103.1078351359
 30
0.0
 11
210.9695546915
 21
102.8908064752
 31
0.0
  0
LINE
  5
9C
330
1F
100
AcDbEntity
  8
0
  6
SLD-Durchgehend
 62
     7
370
    15
100
AcDbLine
 10
210.9688096334
 20
102.8305000789
 30
0.0
 11
211.1012735058
 21
103.1594394869
 31
0.0
  0
ARC
  5
9D
330
1F
100
AcDbEntity
  8
0
  6
SLD-Durchgehend
 62
     7
370
    15
100
AcDbCircle
 10
209.8127776411
 20
102.1484038852
 30
0.0
 40
1.220103848774494
100
AcDbArc
 50
50.2592219684
 51
85.8720788555
  0
LINE
  5
9E
330
1F
100
AcDbEntity
  8
0
  6
SLD-Durchgehend
 62
     7
370
    15
100
AcDbLine
 10
211.1928411414
 20
102.8396631289
 30
0.0
 11
210.8601652671
 21
102.0135394926
 31
0.0
  0
LINE
  5
9F
330
1F
100
AcDbEntity
  8
0
  6
SLD-Durchgehend
 62
     7
370
    15
100
AcDbLine
 10
210.9681316306
 20
102.775157399
 30
0.0
 11
210.6319204559
 21
101.9402541849
 31
0.0
  0
ARC
  5
A0
330
1F
100
AcDbEntity
  8
0
  6
SLD-Durchgehend
 62
     7
370
    15
100
AcDbCircle
 10
216.0918328916
 20
110.4784955352
 30
0.0
 40
5.819621024085157
100
AcDbArc
 50
319.3941323357
 51
21.2349071525
  0
ARC
  5
A1
330
1F
100
AcDbEntity
  8
0
  6
SLD-Durchgehend
 62
     7
370
    15
100
AcDbCircle
 10
215.9602389618
 20
110.547905095
 30
0.0
 40
5.964794118840159
100
AcDbArc
 50
116.3871987929
 51
319.7106606593
  0
LWPOLYLINE
  5
A2
330
1F
100
AcDbEntity
  8
0
  6
SLD-Durchgehend
 62
     7
370
    15
100
AcDbPolyline
 90
       43
 70
   128
 43
0.0
 10
214.6246195425
 20
103.600899193
 10
215.4897288074
 20
103.4919123329
 10
216.3605228652
 20
103.4899220965
 10
217.2234640111
 20
103.5949594504
 10
218.0651337494
 20
103.8053910877
 10
218.8724339594
 20
104.1179441079
 10
219.6328178634
 20
104.5277574729
 10
220.3344539394
 20
105.028457793
 10
220.9664345373
 20
105.6122577809
 10
221.5189248909
 20
106.2700780155
 10
221.983338206
 20
106.9916877593
 10
222.3524511446
 20
107.7658643178
 10
222.6205193092
 20
108.5805673781
 10
222.7833740999
 20
109.4231260638
 10
222.8384860446
 20
110.2804366662
 10
222.7849946012
 20
111.1391663715
 10
222.6237342347
 20
111.9859593152
 10
222.3572157909
 20
112.807645665
 10
221.9895743419
 20
113.5914472095
 10
221.5265393843
 20
114.3251720048
 10
220.9753007282
 20
114.9974108837
 10
220.3444414426
 20
115.5977078877
 10
219.6437702169
 20
116.1167274392
 10
218.8841797997
 20
116.5463977657
 10
218.077486812
 20
116.8800347648
 10
217.2362380315
 20
117.1124509699
 10
216.3735166778
 20
117.2400319181
 10
215.5027375211
 20
117.2607929609
 10
214.637445717
 20
117.1744109295
 10
213.7911007394
 20
116.9822297222
 10
212.9768603136
 20
116.6872379533
 10
212.2073904266
 20
116.2940242491
 10
211.4946604361
 20
115.8087027422
 10
210.8497493555
 20
115.2388218022
 10
210.2826931168
 20
114.593244826
 10
209.802305757
 20
113.8820124022
 10
209.4160639335
 20
113.1161853834
 10
209.1299690892
 20
112.3076739884
 10
208.9484766711
 20
111.4690529346
 10
208.8744029988
 20
110.6133649289
 10
208.9089029123
 20
109.7539176396
 10
209.0514399697
 20
108.9040778741
 10
209.2997976233
 20
108.0770622636
  0
ARC
  5
A3
330
1F
100
AcDbEntity
  8
0
  6
SLD-Durchgehend
 62
     7
370
    15
100
AcDbCircle
 10
213.2675388899
 20
103.3868543519
 30
0.0
 40
1.373857012801428
100
AcDbArc
 50
8.9631086847
 51
130.2736419586
  0
ARC
  5
A4
330
1F
100
AcDbEntity
  8
0
  6
SLD-Durchgehend
 62
     7
370
    15
100
AcDbCircle
 10
215.9337982803
 20
110.5759770555
 30
0.0
 40
7.095381121289086
100
AcDbArc
 50
239.6435226449
 51
239.937662497
  0
ARC
  5
A5
330
1F
100
AcDbEntity
  8
0
  6
SLD-Durchgehend
 62
     7
370
    15
100
AcDbCircle
 10
211.0057395696
 20
104.7146032987
 30
0.0
 40
1.367388175882067
100
AcDbArc
 50
348.9869757156
 51
110.9108061935
  0
ARC
  5
A6
330
1F
100
AcDbEntity
  8
0
  6
SLD-Durchgehend
 62
     7
370
    15
100
AcDbCircle
 10
216.2915838318
 20
110.8725160066
 30
0.0
 40
7.560280952211031
100
AcDbArc
 50
219.9322971018
 51
220.2073737489
  0
ARC
  5
A7
330
1F
100
AcDbEntity
  8
0
  6
SLD-Durchgehend
 62
     7
370
    15
100
AcDbCircle
 10
209.3190154578
 20
106.7127586495
 30
0.0
 40
1.364438960425349
100
AcDbArc
 50
329.4734068546
 51
90.8070256353
  0
LINE
  5
A8
330
1F
100
AcDbEntity
  8
0
  6
SLD-Durchgehend
 62
     7
370
    15
100
AcDbLine
 10
214.3043414344
 20
102.8055511113
 30
0.0
 11
214.6246195425
 21
103.600899193
 31
0.0
  0
LINE
  5
A9
330
1F
100
AcDbEntity
  8
0
  6
SLD-Durchgehend
 62
     7
370
    15
100
AcDbLine
 10
212.0591424991
 20
103.6397120613
 30
0.0
 11
212.4417372634
 21
103.699594473
 31
0.0
  0
LWPOLYLINE
  5
AA
330
1F
100
AcDbEntity
  8
0
  6
SLD-Durchgehend
 62
     7
370
    15
100
AcDbPolyline
 90
        3
 70
   128
 43
0.0
 10
214.0895300199
 20
103.0545259989
 10
214.2506674518
 20
102.8883973765
 10
214.3043414344
 20
102.8055511113
  0
LINE
  5
AB
330
1F
100
AcDbEntity
  8
0
  6
SLD-Durchgehend
 62
     7
370
    15
100
AcDbLine
 10
212.3794243325
 20
104.4350602594
 30
0.0
 11
212.0591424991
 21
103.6397120613
 31
0.0
  0
LINE
  5
AC
330
1F
100
AcDbEntity
  8
0
  6
SLD-Durchgehend
 62
     7
370
    15
100
AcDbLine
 10
212.0919362296
 20
103.8176525315
 30
0.0
 11
212.3479456295
 21
104.4533882221
 31
0.0
  0
LINE
  5
AD
330
1F
100
AcDbEntity
  8
0
  6
SLD-Durchgehend
 62
     7
370
    15
100
AcDbLine
 10
210.51769933
 20
105.9919314273
 30
0.0
 11
210.3923470368
 21
105.6806408876
 31
0.0
  0
LINE
  5
AE
330
1F
100
AcDbEntity
  8
0
  6
SLD-Durchgehend
 62
     7
370
    15
100
AcDbLine
 10
210.3552282442
 20
105.6742653116
 30
0.0
 11
210.4943343093
 21
106.0197079485
 31
0.0
  0
LINE
  5
AF
330
1F
100
AcDbEntity
  8
0
  6
SLD-Durchgehend
 62
     7
370
    15
100
AcDbLine
 10
208.9795157899
 20
107.2817141819
 30
0.0
 11
209.3104147007
 21
107.0717646205
 31
0.0
  0
LINE
  5
B0
330
1F
100
AcDbEntity
  8
0
  6
SLD-Durchgehend
 62
     7
370
    15
100
AcDbLine
 10
209.2997976233
 20
108.0770622636
 30
0.0
 11
208.9795157899
 21
107.2817141819
 31
0.0
  0
ARC
  5
B1
330
1F
100
AcDbEntity
  8
0
  6
SLD-Durchgehend
 62
     7
370
    15
100
AcDbCircle
 10
215.6402577943
 20
109.5786713627
 30
0.0
 40
6.903609958663654
100
AcDbArc
 50
258.8423151071
 51
337.7220403775
  0
ARC
  5
B2
330
1F
100
AcDbEntity
  8
0
  6
SLD-Durchgehend
 62
     7
370
    15
100
AcDbCircle
 10
215.3616375805
 20
109.6556195085
 30
0.0
 40
6.809324860061793
100
AcDbArc
 50
158.1390341034
 51
200.4032769415
  0
ARC
  5
B3
330
1F
100
AcDbEntity
  8
0
  6
SLD-Durchgehend
 62
     7
370
    15
100
AcDbCircle
 10
215.618816994
 20
109.7897326704
 30
0.0
 40
7.105915563951087
100
AcDbArc
 50
239.6437406749
 51
239.937444467
  0
LWPOLYLINE
  5
B4
330
1F
100
AcDbEntity
  8
0
  6
SLD-Durchgehend
 62
     7
370
    15
100
AcDbPolyline
 90
       47
 70
   128
 43
0.0
 10
217.5816283216
 20
105.411847019
 10
218.3207482685
 20
105.6576355793
 10
219.0178432156
 20
106.0009180499
 10
219.6599305262
 20
106.4352997043
 10
220.2350445677
 20
106.9526888593
 10
220.732478856
 20
107.5434474903
 10
221.1429611434
 20
108.1965709734
 10
221.4588471343
 20
108.8998927432
 10
221.6742545952
 20
109.6403111867
 10
221.7851676633
 20
110.4040343478
 10
221.7895188023
 20
111.1768346443
 10
221.6872335066
 20
111.9443161576
 10
221.4802079488
 20
112.6921830862
 10
221.1723089804
 20
113.4065037756
 10
220.7692660977
 20
114.0739710233
 10
220.2785857608
 20
114.6821526042
 10
219.7094098319
 20
115.2197175822
 10
219.0723442127
 20
115.6766533084
 10
218.3792539527
 20
116.0444474942
 10
217.643050908
 20
116.316249331
 10
216.8774478723
 20
116.4869952179
 10
216.0967052569
 20
116.5535037569
 10
215.3153703202
 20
116.5145372204
 10
214.5479940464
 20
116.3708211086
 10
213.8088740994
 20
116.125032974
 10
213.1117791523
 20
115.7817502669
 10
212.4696918418
 20
115.3473683796
 10
211.8945740749
 20
114.8299795739
 10
211.3971435119
 20
114.2392211757
 10
210.9866574992
 20
113.5860976926
 10
210.6707715084
 20
112.8827759228
 10
210.4553677727
 20
112.1423572465
 10
210.3444547047
 20
111.3786345511
 10
210.3400998403
 20
110.6058342546
 10
210.4423888613
 20
109.8383522756
 10
210.6494106938
 20
109.090485347
 10
210.9573133876
 20
108.3761648904
 10
211.3603562702
 20
107.708697177
 10
211.8510366072
 20
107.1005161782
 10
212.4202088107
 20
106.5629507927
 10
213.05727443
 20
106.1060150666
 10
213.75036469
 20
105.7382207571
 10
214.4865714599
 20
105.4664192186
 10
215.2521744956
 20
105.2956735646
 10
216.0329171111
 20
105.2291645017
 10
216.8142520477
 20
105.2681309509
 10
217.5816283216
 20
105.411847019
  0
CIRCLE
  5
B5
330
1F
100
AcDbEntity
  8
0
  6
SLD-Durchgehend
 62
     7
370
    15
100
AcDbCircle
 10
216.2397803705
 20
111.2602367456
 30
0.0
 40
2.484483441214532
  0
ARC
  5
B6
330
1F
100
AcDbEntity
  8
0
  6
SLD-Durchgehend
 62
     7
370
    15
100
AcDbCircle
 10
212.048210936
 20
127.0933911584
 30
0.0
 40
14.48802040470136
100
AcDbArc
 50
279.9539211033
 51
289.0387995019
  0
ARC
  5
B7
330
1F
100
AcDbEntity
  8
0
  6
SLD-Durchgehend
 62
     7
370
    15
100
AcDbCircle
 10
302.7783483091
 20
88.1843703194
 30
0.0
 40
91.60172182566345
100
AcDbArc
 50
164.3963835698
 51
165.8158838899
  0
ARC
  5
B8
330
1F
100
AcDbEntity
  8
0
  6
SLD-Durchgehend
 62
     7
370
    15
100
AcDbCircle
 10
223.6319571462
 20
118.7725255793
 30
0.0
 40
12.63578590721286
100
AcDbArc
 50
220.1188973002
 51
230.5770689322
  0
ARC
  5
B9
330
1F
100
AcDbEntity
  8
0
  6
SLD-Durchgehend
 62
     7
370
    15
100
AcDbCircle
 10
213.1033621382
 20
123.2816496202
 30
0.0
 40
14.48809961950209
100
AcDbArc
 50
279.9539709155
 51
289.0387849981
  0
ARC
  5
BA
330
1F
100
AcDbEntity
  8
0
  6
SLD-Durchgehend
 62
     7
370
    15
100
AcDbCircle
 10
307.7330705501
 20
86.8488783721
 30
0.0
 40
92.73420420569285
100
AcDbArc
 50
164.4049632609
 51
165.8071284543
  0
ARC
  5
BB
330
1F
100
AcDbEntity
  8
0
  6
SLD-Durchgehend
 62
     7
370
    15
100
AcDbCircle
 10
226.4793377505
 20
121.5829255023
 30
0.0
 40
12.69574700108338
100
AcDbArc
 50
220.1436666933
 51
230.5523077798
  0
LINE
  5
BC
330
1F
100
AcDbEntity
  8
0
  6
SLD-Durchgehend
 62
     7
370
    15
100
AcDbLine
 10
217.7566536357
 20
109.562373457
 30
0.0
 11
217.9251745929
 21
110.1959834039
 31
0.0
  0
LINE
  5
BD
330
1F
100
AcDbEntity
  8
0
  6
SLD-Durchgehend
 62
     7
370
    15
100
AcDbLine
 10
217.9251745929
 20
110.1959834039
 30
0.0
 11
218.2168201198
 21
111.2925472833
 31
0.0
  0
LINE
  5
BE
330
1F
100
AcDbEntity
  8
0
  6
SLD-Durchgehend
 62
     7
370
    15
100
AcDbLine
 10
218.2168201198
 20
111.2925472833
 30
0.0
 11
218.4127964665
 21
111.779206635
 31
0.0
  0
LINE
  5
BF
330
1F
100
AcDbEntity
  8
0
  6
SLD-Durchgehend
 62
     7
370
    15
100
AcDbLine
 10
218.2168201198
 20
111.2925472833
 30
0.0
 11
217.3975840797
 21
112.101892212
 31
0.0
  0
LINE
  5
C0
330
1F
100
AcDbEntity
  8
0
  6
SLD-Durchgehend
 62
     7
370
    15
100
AcDbLine
 10
217.3975840797
 20
112.101892212
 30
0.0
 11
216.5783480395
 21
112.911236675
 31
0.0
  0
LINE
  5
C1
330
1F
100
AcDbEntity
  8
0
  6
SLD-Durchgehend
 62
     7
370
    15
100
AcDbLine
 10
216.5783480395
 20
112.911236675
 30
0.0
 11
216.7743243863
 21
113.3978960268
 31
0.0
  0
LINE
  5
C2
330
1F
100
AcDbEntity
  8
0
  6
SLD-Durchgehend
 62
     7
370
    15
100
AcDbLine
 10
216.5783480395
 20
112.911236675
 30
0.0
 11
215.4674664725
 21
112.6240177243
 31
0.0
  0
LINE
  5
C3
330
1F
100
AcDbEntity
  8
0
  6
SLD-Durchgehend
 62
     7
370
    15
100
AcDbLine
 10
215.4674664725
 20
112.6240177243
 30
0.0
 11
214.4233570089
 21
112.3540636315
 31
0.0
  0
ARC
  5
C4
330
1F
100
AcDbEntity
  8
0
  6
SLD-Durchgehend
 62
     7
370
    15
100
AcDbCircle
 10
216.0578890385
 20
110.503580853
 30
0.0
 40
5.611588168893817
100
AcDbArc
 50
284.2806838206
 51
337.951208856
  0
ARC
  5
C5
330
1F
100
AcDbEntity
  8
0
  6
SLD-Durchgehend
 62
     7
370
    15
100
AcDbCircle
 10
215.9603691267
 20
110.624695974
 30
0.0
 40
5.753379193953409
100
AcDbArc
 50
158.9335050167
 51
284.9243306087
  0
ARC
  5
C6
330
1F
100
AcDbEntity
  8
0
  6
SLD-Durchgehend
 62
     7
370
    15
100
AcDbCircle
 10
215.9505682791
 20
110.7297429693
 30
0.0
 40
1.95490772235547
100
AcDbArc
 50
104.307305368
 51
151.2622108655
  0
ARC
  5
C7
330
1F
100
AcDbEntity
  8
0
  6
SLD-Durchgehend
 62
     7
370
    15
100
AcDbCircle
 10
215.9714872824
 20
110.6586568095
 30
0.0
 40
2.028960448637182
100
AcDbArc
 50
45.3422252965
 51
104.3836407362
  0
ARC
  5
C8
330
1F
100
AcDbEntity
  8
0
  6
SLD-Durchgehend
 62
     7
370
    15
100
AcDbCircle
 10
216.0197506289
 20
110.6945048736
 30
0.0
 40
1.96955937666733
100
AcDbArc
 50
345.3381880938
 51
45.6079408463
  0
ARC
  5
C9
330
1F
100
AcDbEntity
  8
0
  6
SLD-Durchgehend
 62
     7
370
    15
100
AcDbCircle
 10
216.0577037418
 20
110.6929189155
 30
0.0
 40
1.932457575840778
100
AcDbArc
 50
320.2790757729
 51
345.098855679
  0
ARC
  5
CA
330
1F
100
AcDbEntity
  8
0
  6
SLD-Durchgehend
 62
     7
370
    15
100
AcDbCircle
 10
210.4703630862
 20
102.6990145748
 30
0.0
 40
8.062713512311275
100
AcDbArc
 50
140.2990190573
 51
168.089155278
  0
ARC
  5
CB
330
1F
100
AcDbEntity
  8
0
  6
SLD-Durchgehend
 62
     7
370
    15
100
AcDbCircle
 10
211.8407817074
 20
102.4769977845
 30
0.0
 40
9.449676568757592
100
AcDbArc
 50
168.4869267144
 51
221.0951020701
  0
ARC
  5
CC
330
1F
100
AcDbEntity
  8
0
  6
SLD-Durchgehend
 62
     7
370
    15
100
AcDbCircle
 10
209.0174714552
 20
103.9587520599
 30
0.0
 40
8.812396734216495
100
AcDbArc
 50
240.8079080956
 51
294.1794466843
  0
ARC
  5
CD
330
1F
100
AcDbEntity
  8
0
  6
SLD-Durchgehend
 62
     7
370
    15
100
AcDbCircle
 10
209.4396879094
 20
103.4726168006
 30
0.0
 40
8.198084967741702
100
AcDbArc
 50
292.8790095557
 51
320.107687101
  0
ARC
  5
CE
330
1F
100
AcDbEntity
  8
0
  6
SLD-Durchgehend
 62
     7
370
    15
100
AcDbCircle
 10
202.3249593949
 20
107.744396122
 30
0.0
 40
16.75107940728488
100
AcDbArc
 50
316.9573215017
 51
320.7752528272
  0
ARC
  5
CF
330
1F
100
AcDbEntity
  8
0
  6
SLD-Durchgehend
 62
     7
370
    15
100
AcDbCircle
 10
209.5697471847
 20
101.9257790295
 30
0.0
 40
7.516757855599705
100
AcDbArc
 50
159.0380866451
 51
311.6723149532
  0
LWPOLYLINE
  5
D0
330
1F
100
AcDbEntity
  8
0
  6
SLD-Durchgehend
 62
     7
370
    15
100
AcDbPolyline
 90
        9
 70
   128
 43
0.0
 10
204.2670030733
 20
107.8493226948
 10
204.7639661123
 20
108.4442073177
 10
205.2622497667
 20
109.0389366425
 10
205.7615597387
 20
109.6331609576
 10
206.2615998675
 20
110.2265303186
 10
206.7620814432
 20
110.8186954796
 10
207.26270458
 20
111.4093090571
 10
207.7631749798
 20
111.9980227365
 10
208.2632020702
 20
112.584490066
  0
ARC
  5
D1
330
1F
100
AcDbEntity
  8
0
  6
SLD-Durchgehend
 62
     7
370
    15
100
AcDbCircle
 10
233.0894741201
 20
91.8357717925
 30
0.0
 40
32.35510923935921
100
AcDbArc
 50
109.8235618773
 51
140.1125897209
  0
ARC
  5
D2
330
1F
100
AcDbEntity
  8
0
  6
SLD-Durchgehend
 62
     7
370
    15
100
AcDbCircle
 10
192.5406080968
 20
126.7713081229
 30
0.0
 40
36.14547204314263
100
AcDbArc
 50
318.7732447711
 51
345.4982581172
  0
LWPOLYLINE
  5
D3
330
1F
100
AcDbEntity
  8
0
  6
SLD-Durchgehend
 62
     7
370
    15
100
AcDbPolyline
 90
        9
 70
   128
 43
0.0
 10
215.7296784808
 20
98.2148020691
 10
216.2266433825
 20
98.809686692
 10
216.7249270369
 20
99.404415784
 10
217.2242351462
 20
99.9986400991
 10
217.7242771377
 20
100.5920094601
 10
218.2247549881
 20
101.1841750867
 10
218.7253781249
 20
101.7747881986
 10
219.22585225
 20
102.363501878
 10
219.7258793403
 20
102.9499694403
  0
LINE
  5
D4
330
1F
100
AcDbEntity
  8
0
  6
SLD-Durchgehend
 62
     7
370
    15
100
AcDbLine
 10
213.6479676356
 20
103.5585575435
 30
0.0
 11
213.1291203787
 21
103.7530650781
 31
0.0
  0
LINE
  5
D5
330
1F
100
AcDbEntity
  8
0
  6
SLD-Durchgehend
 62
     7
370
    15
100
AcDbLine
 10
210.1699434806
 20
106.2487907172
 30
0.0
 11
209.882690071
 21
106.72255649
 31
0.0
  0
ARC
  5
D6
330
1F
100
AcDbEntity
  8
0
  6
SLD-Durchgehend
 62
     7
370
    15
100
AcDbCircle
 10
210.3025718825
 20
103.3667842561
 30
0.0
 40
1.479460723258299
100
AcDbArc
 50
156.4252862416
 51
322.322547122
  0
LWPOLYLINE
  5
D7
330
1F
100
AcDbEntity
  8
0
  6
SLD-Durchgehend
 62
     7
370
    15
100
AcDbPolyline
 90
        3
 70
   128
 43
0.0
 10
211.7082089771
 20
102.8894341714
 10
211.653398781
 20
102.7286764863
 10
211.473511963
 20
102.462514739
  0
LINE
  5
D8
330
1F
100
AcDbEntity
  8
0
  6
SLD-Durchgehend
 62
     7
370
    15
100
AcDbLine
 10
219.2635261108
 20
101.8018186721
 30
0.0
 11
216.2914112796
 21
98.341170901
 31
0.0
  0
ARC
  5
D9
330
1F
100
AcDbEntity
  8
0
  6
SLD-Durchgehend
 62
     7
370
    15
100
AcDbCircle
 10
253.7042309505
 20
66.202024486
 30
0.0
 40
49.32183905743263
100
AcDbArc
 50
139.3360693907
 51
141.1338760014
  0
LWPOLYLINE
  5
DA
330
1F
100
AcDbEntity
  8
0
  6
SLD-Durchgehend
 62
     7
370
    15
100
AcDbPolyline
 90
        7
 70
   128
 43
0.0
 10
227.534486412
 20
117.7201408125
 10
227.6558228423
 20
118.2441597036
 10
227.7481541623
 20
118.6981496564
 10
227.805896162
 20
119.0396898589
 10
227.8319098641
 20
119.2684515543
 10
227.8258376409
 20
119.3512489251
 10
227.8255731453
 20
119.3508577696
  0
LWPOLYLINE
  5
DB
330
1F
100
AcDbEntity
  8
0
  6
SLD-Durchgehend
 62
     7
370
    15
100
AcDbPolyline
 90
        3
 70
   128
 43
0.0
 10
225.7778667499
 20
112.4994924455
 10
225.4704967727
 20
111.7569955229
 10
225.2912246277
 20
111.34592138
  0
ARC
  5
DC
330
1F
100
AcDbEntity
  8
0
  6
SLD-Durchgehend
 62
     7
370
    15
100
AcDbCircle
 10
189.9252434972
 20
127.0062672111
 30
0.0
 40
38.67814696789625
100
AcDbArc
 50
319.3342034306
 51
336.1158453781
  0
ARC
  5
DD
330
1F
100
AcDbEntity
  8
0
  6
SLD-Durchgehend
 62
     7
370
    15
100
AcDbCircle
 10
223.4865777432
 20
119.9566655622
 30
0.0
 40
2.691394803286919
100
AcDbArc
 50
80.070025475
 51
120.5874500912
  0
LINE
  5
DE
330
1F
100
AcDbEntity
  8
0
  6
SLD-Durchgehend
 62
     7
370
    15
100
AcDbLine
 10
226.4107488681
 20
114.1002883367
 30
0.0
 11
228.7496984591
 21
117.0273271553
 31
0.0
  0
LINE
  5
DF
330
1F
100
AcDbEntity
  8
0
  6
SLD-Durchgehend
 62
     7
370
    15
100
AcDbLine
 10
228.9150007655
 20
132.4703113339
 30
0.0
 11
220.1491691758
 21
121.5004732064
 31
0.0
  0
ARC
  5
E0
330
1F
100
AcDbEntity
  8
0
  6
SLD-Durchgehend
 62
     7
370
    15
100
AcDbCircle
 10
229.2264015771
 20
132.2162343135
 30
0.0
 40
0.4019024729889368
100
AcDbArc
 50
357.4732357978
 51
140.7884313072
  0
LINE
  5
E1
330
1F
100
AcDbEntity
  8
0
  6
SLD-Durchgehend
 62
     7
370
    15
100
AcDbLine
 10
228.8337410082
 20
117.2482135869
 30
0.0
 11
229.6279132952
 21
132.1985160164
 31
0.0
  0
ARC
  5
E2
330
1F
100
AcDbEntity
  8
0
  6
SLD-Durchgehend
 62
     7
370
    15
100
AcDbCircle
 10
228.4478629391
 20
117.2686005055
 30
0.0
 40
0.3864162401457358
100
AcDbArc
 50
321.362777066
 51
356.9757301882
  0
ARC
  5
E3
330
1F
100
AcDbEntity
  8
0
  6
SLD-Durchgehend
 62
     7
370
    15
100
AcDbCircle
 10
229.2265522235
 20
132.2166191128
 30
0.0
 40
0.3818093693772814
100
AcDbArc
 50
357.4734703521
 51
140.7880507457
  0
LINE
  5
E4
330
1F
100
AcDbEntity
  8
0
  6
SLD-Durchgehend
 62
     7
370
    15
100
AcDbLine
 10
228.9307214905
 20
132.4579955242
 30
0.0
 11
220.1899983575
 21
121.5195746324
 31
0.0
  0
LINE
  5
E5
330
1F
100
AcDbEntity
  8
0
  6
SLD-Durchgehend
 62
     7
370
    15
100
AcDbLine
 10
226.4301427294
 20
114.1565504647
 30
0.0
 11
228.733977734
 21
117.0396448276
 31
0.0
  0
ARC
  5
E6
330
1F
100
AcDbEntity
  8
0
  6
SLD-Durchgehend
 62
     7
370
    15
100
AcDbCircle
 10
228.447207452
 20
117.268864629
 30
0.0
 40
0.3671224754629814
100
AcDbArc
 50
321.3641295724
 51
356.9743354233
  0
LINE
  5
E7
330
1F
100
AcDbEntity
  8
0
  6
SLD-Durchgehend
 62
     7
370
    15
100
AcDbLine
 10
228.8138181557
 20
117.2494867048
 30
0.0
 11
229.6079904427
 21
132.199788203
 31
0.0
  0
LINE
  5
E8
330
1F
100
AcDbEntity
  8
0
  6
SLD-Durchgehend
 62
     7
370
    15
100
AcDbLine
 10
228.0783676197
 20
117.3272595904
 30
0.0
 11
228.4199581136
 21
117.2356640152
 31
0.0
  0
LINE
  5
E9
330
1F
100
AcDbEntity
  8
0
  6
SLD-Durchgehend
 62
     7
370
    15
100
AcDbLine
 10
228.2490417947
 20
115.9917644388
 30
0.0
 11
228.4176596095
 21
116.2027751259
 31
0.0
  0
LINE
  5
EA
330
1F
100
AcDbEntity
  8
0
  6
SLD-Durchgehend
 62
     7
370
    15
100
AcDbLine
 10
225.3994778384
 20
124.8396986327
 30
0.0
 11
223.6462705423
 21
122.6456795982
 31
0.0
  0
ARC
  5
EB
330
1F
100
AcDbEntity
  8
0
  6
SLD-Durchgehend
 62
     7
370
    15
100
AcDbCircle
 10
226.1779811792
 20
124.2045012065
 30
0.0
 40
1.004760280780275
100
AcDbArc
 50
357.4734712282
 51
140.7882631865
  0
LINE
  5
EC
330
1F
100
AcDbEntity
  8
0
  6
SLD-Durchgehend
 62
     7
370
    15
100
AcDbLine
 10
226.9647554149
 20
120.0750039122
 30
0.0
 11
227.1817647506
 21
124.1602094076
 31
0.0
  0
LINE
  5
ED
330
1F
100
AcDbEntity
  8
0
  6
SLD-Durchgehend
 62
     7
370
    15
100
AcDbLine
 10
228.0052960505
 20
129.0146836243
 30
0.0
 11
229.2141304006
 21
132.1859655134
 31
0.0
  0
LINE
  5
EE
330
1F
100
AcDbEntity
  8
0
  6
SLD-Durchgehend
 62
     7
370
    15
100
AcDbLine
 10
227.8646365394
 20
126.3667919836
 30
0.0
 11
228.0052960505
 21
129.0146836243
 31
0.0
  0
LINE
  5
EF
330
1F
100
AcDbEntity
  8
0
  6
SLD-Durchgehend
 62
     7
370
    15
100
AcDbLine
 10
228.0052960505
 20
129.0146836243
 30
0.0
 11
226.3506413092
 21
126.9439977757
 31
0.0
  0
ARC
  5
F0
330
1F
100
AcDbEntity
  8
0
  6
SLD-Durchgehend
 62
     7
370
    15
100
AcDbCircle
 10
228.1156590572
 20
116.4441408347
 30
0.0
 40
0.3866028181405362
100
AcDbArc
 50
321.3673567572
 51
338.0611838594
  0
ARC
  5
F1
330
1F
100
AcDbEntity
  8
0
  6
SLD-Durchgehend
 62
     7
370
    15
100
AcDbCircle
 10
228.9945174141
 20
120.6845411602
 30
0.0
 40
3.480038790701332
100
AcDbArc
 50
243.2154796796
 51
254.7365017283
  0
ARC
  5
F2
330
1F
100
AcDbEntity
  8
0
  6
SLD-Durchgehend
 62
     7
370
    15
100
AcDbCircle
 10
226.0984411353
 20
124.0074591038
 30
0.0
 40
2.427551476893278
100
AcDbArc
 50
59.2778253568
 51
78.9837401151
  0
LWPOLYLINE
  5
F3
330
1F
100
AcDbEntity
  8
0
  6
SLD-Durchgehend
 62
     7
370
    15
100
AcDbPolyline
 90
        8
 70
   128
 43
0.0
 10
227.3386180987
 20
126.094314938
 10
227.4978034784
 20
126.0179259978
 10
227.5953427543
 20
125.9967328212
 10
227.6695803394
 20
126.0022518388
 10
227.7371161272
 20
126.0339317075
 10
227.7819574465
 20
126.078961154
 10
227.8309152116
 20
126.1747551314
 10
227.8646365394
 20
126.3667919836
  0
LWPOLYLINE
  5
F4
330
1F
100
AcDbEntity
  8
0
  6
SLD-Durchgehend
 62
     7
370
    15
100
AcDbPolyline
 90
        8
 70
   128
 43
0.0
 10
226.3506413092
 20
126.9439977757
 10
226.2561418702
 20
126.796118652
 10
226.2239143838
 20
126.6966180108
 10
226.222774445
 20
126.6208381555
 10
226.2431182553
 20
126.5598346642
 10
226.2823790898
 20
126.5085150651
 10
226.3638735403
 20
126.4525258146
 10
226.5623160292
 20
126.3902780763
  0
LINE
  5
F5
330
1F
100
AcDbEntity
  8
0
  6
SLD-Durchgehend
 62
     7
370
    15
100
AcDbLine
 10
228.2490417947
 20
115.9917644388
 30
0.0
 11
228.4951158454
 21
116.2997090421
 31
0.0
  0
LINE
  5
F6
330
1F
100
AcDbEntity
  8
0
  6
SLD-Durchgehend
 62
     7
370
    15
100
AcDbLine
 10
228.4951158454
 20
116.2997090421
 30
0.0
 11
228.4982823421
 21
116.3593406952
 31
0.0
  0
LINE
  5
F7
330
1F
100
AcDbEntity
  8
0
  6
SLD-Durchgehend
 62
     7
370
    15
100
AcDbLine
 10
228.2942183901
 20
115.800820028
 30
0.0
 11
228.4951158454
 21
116.2997090421
 31
0.0
  0
LINE
  5
F8
330
1F
100
AcDbEntity
  8
0
  6
SLD-Durchgehend
 62
     7
370
    15
100
AcDbLine
 10
228.2349601974
 20
115.726663468
 30
0.0
 11
228.2942183901
 21
115.800820028
 31
0.0
  0
LINE
  5
F9
330
1F
100
AcDbEntity
  8
0
  6
SLD-Durchgehend
 62
     7
370
    15
100
AcDbLine
 10
194.5784617801
 20
87.0138907037
 30
0.0
 11
194.5784617801
 21
117.4679237581
 31
0.0
  0
ARC
  5
FA
330
1F
100
AcDbEntity
  8
0
  6
SLD-Durchgehend
 62
     7
370
    15
100
AcDbCircle
 10
193.9672010749
 20
87.0003455214
 30
0.0
 40
0.6114107634496216
100
AcDbArc
 50
271.0552300829
 51
1.2694334473
  0
LINE
  5
FB
330
1F
100
AcDbEntity
  8
0
  6
SLD-Durchgehend
 62
     7
370
    15
100
AcDbLine
 10
193.9784609367
 20
117.4679237581
 30
0.0
 11
194.5784617801
 21
117.4679237581
 31
0.0
  0
LINE
  5
FC
330
1F
100
AcDbEntity
  8
0
  6
SLD-Durchgehend
 62
     7
370
    15
100
AcDbLine
 10
182.5784616758
 20
117.4679237581
 30
0.0
 11
188.5933014219
 21
117.4679237581
 31
0.0
  0
LINE
  5
FD
330
1F
100
AcDbEntity
  8
0
  6
SLD-Durchgehend
 62
     7
370
    15
100
AcDbLine
 10
188.5933014219
 20
86.3890384487
 30
0.0
 11
188.5933014219
 21
117.4679237581
 31
0.0
  0
LINE
  5
FE
330
1F
100
AcDbEntity
  8
0
  6
SLD-Durchgehend
 62
     7
370
    15
100
AcDbLine
 10
188.5933014219
 20
86.3890384487
 30
0.0
 11
187.0784614821
 21
86.3890384487
 31
0.0
  0
ARC
  5
FF
330
1F
100
AcDbEntity
  8
0
  6
SLD-Durchgehend
 62
     7
370
    15
100
AcDbCircle
 10
186.5463438211
 20
75.6548076889
 30
0.0
 40
10.74741174470441
100
AcDbArc
 50
87.1620547443
 51
111.6659304651
  0
LINE
  5
100
330
1F
100
AcDbEntity
  8
0
  6
SLD-Durchgehend
 62
     7
370
    15
100
AcDbLine
 10
182.5784616758
 20
85.6429391704
 30
0.0
 11
182.5784616758
 21
85.617923846
 31
0.0
  0
LWPOLYLINE
  5
101
330
1F
100
AcDbEntity
  8
0
  6
SLD-Durchgehend
 62
     7
370
    15
100
AcDbPolyline
 90
       11
 70
   128
 43
0.0
 10
187.0784614821
 20
125.1050994895
 10
186.3444554274
 20
125.1189165912
 10
185.6104493727
 20
125.1603138796
 10
184.9385318001
 20
125.2222412429
 10
184.3083039512
 20
125.3010069183
 10
183.7621689428
 20
125.3852655343
 10
183.2949057807
 20
125.469000747
 10
182.9417575736
 20
125.5393267772
 10
182.6987280165
 20
125.5912070326
 10
182.5883839865
 20
125.6156933657
 10
182.5939886858
 20
125.6144360802
  0
LINE
  5
102
330
1F
100
AcDbEntity
  8
0
  6
SLD-Durchgehend
 62
     7
370
    15
100
AcDbLine
 10
188.5933014219
 20
125.1050994895
 30
0.0
 11
187.0784614821
 21
125.1050994895
 31
0.0
  0
LINE
  5
103
330
1F
100
AcDbEntity
  8
0
  6
SLD-Durchgehend
 62
     7
370
    15
100
AcDbLine
 10
188.5933014219
 20
121.7293326906
 30
0.0
 11
188.5933014219
 21
125.1050994895
 31
0.0
  0
LINE
  5
104
330
1F
100
AcDbEntity
  8
0
  6
SLD-Durchgehend
 62
     7
370
    15
100
AcDbLine
 10
187.0721312825
 20
121.7293326906
 30
0.0
 11
188.5933014219
 21
121.7293326906
 31
0.0
  0
ARC
  5
105
330
1F
100
AcDbEntity
  8
0
  6
SLD-Durchgehend
 62
     7
370
    15
100
AcDbCircle
 10
186.7482187717
 20
117.5709004003
 30
0.0
 40
4.171028461616027
100
AcDbArc
 50
85.5460566573
 51
181.4146934227
  0
LINE
  5
106
330
1F
100
AcDbEntity
  8
0
  6
SLD-Durchgehend
 62
     7
370
    15
100
AcDbLine
 10
189.5884615024
 20
88.1888006977
 30
0.0
 11
189.5884615024
 21
117.4679237581
 31
0.0
  0
LWPOLYLINE
  5
107
330
1F
100
AcDbEntity
  8
0
  6
SLD-Durchgehend
 62
     7
370
    15
100
AcDbPolyline
 90
        3
 70
   128
 43
0.0
 10
189.5884615024
 20
88.1888006977
 10
189.5326128815
 20
88.0873927078
 10
188.5933014219
 20
86.3890384487
  0
LINE
  5
108
330
1F
100
AcDbEntity
  8
0
  6
SLD-Durchgehend
 62
     7
370
    15
100
AcDbLine
 10
188.5933014219
 20
117.4679237581
 30
0.0
 11
189.5884615024
 21
117.4679237581
 31
0.0
  0
LINE
  5
109
330
1F
100
AcDbEntity
  8
0
  6
SLD-Durchgehend
 62
     7
370
    15
100
AcDbLine
 10
193.9784609367
 20
86.3890384487
 30
0.0
 11
192.6636215885
 21
86.3890384487
 31
0.0
  0
LINE
  5
10A
330
1F
100
AcDbEntity
  8
0
  6
SLD-Durchgehend
 62
     7
370
    15
100
AcDbLine
 10
192.6636215885
 20
86.3890384487
 30
0.0
 11
192.6636215885
 21
117.4679237581
 31
0.0
  0
LINE
  5
10B
330
1F
100
AcDbEntity
  8
0
  6
SLD-Durchgehend
 62
     7
370
    15
100
AcDbLine
 10
192.6636215885
 20
117.4679237581
 30
0.0
 11
193.9784609367
 21
117.4679237581
 31
0.0
  0
LWPOLYLINE
  5
10C
330
1F
100
AcDbEntity
  8
0
  6
SLD-Durchgehend
 62
     7
370
    15
100
AcDbPolyline
 90
        3
 70
   128
 43
0.0
 10
192.6636215885
 20
86.3890384487
 10
191.7243101288
 20
88.0873927078
 10
191.6684605767
 20
88.1888006977
  0
LINE
  5
10D
330
1F
100
AcDbEntity
  8
0
  6
SLD-Durchgehend
 62
     7
370
    15
100
AcDbLine
 10
191.6684605767
 20
88.1888006977
 30
0.0
 11
191.6684605767
 21
117.4679237581
 31
0.0
  0
LINE
  5
10E
330
1F
100
AcDbEntity
  8
0
  6
SLD-Durchgehend
 62
     7
370
    15
100
AcDbLine
 10
191.6684605767
 20
117.4679237581
 30
0.0
 11
192.6636215885
 21
117.4679237581
 31
0.0
  0
LINE
  5
10F
330
1F
100
AcDbEntity
  8
0
  6
SLD-Durchgehend
 62
     7
370
    15
100
AcDbLine
 10
174.6284612109
 20
85.9179233364
 30
0.0
 11
174.6284612109
 21
125.3179234616
 31
0.0
  0
LINE
  5
110
330
1F
100
AcDbEntity
  8
0
  6
SLD-Durchgehend
 62
     7
370
    15
100
AcDbLine
 10
191.6332379569
 20
88.7179241679
 30
0.0
 11
191.0684615959
 21
88.7179241679
 31
0.0
  0
LINE
  5
111
330
1F
100
AcDbEntity
  8
0
  6
SLD-Durchgehend
 62
     7
370
    15
100
AcDbLine
 10
191.0684615959
 20
117.4679237581
 30
0.0
 11
191.6684605767
 21
117.4679237581
 31
0.0
  0
LINE
  5
112
330
1F
100
AcDbEntity
  8
0
  6
SLD-Durchgehend
 62
     7
370
    15
100
AcDbLine
 10
190.1884614144
 20
88.7179241679
 30
0.0
 11
189.6236831908
 21
88.7179241679
 31
0.0
  0
LINE
  5
113
330
1F
100
AcDbEntity
  8
0
  6
SLD-Durchgehend
 62
     7
370
    15
100
AcDbLine
 10
189.5884615024
 20
117.4679237581
 30
0.0
 11
190.1884614144
 21
117.4679237581
 31
0.0
  0
LINE
  5
114
330
1F
100
AcDbEntity
  8
0
  6
SLD-Durchgehend
 62
     7
370
    15
100
AcDbLine
 10
194.5785232474
 20
122.5179226301
 30
0.0
 11
194.7784614404
 21
122.5179226301
 31
0.0
  0
LINE
  5
115
330
1F
100
AcDbEntity
  8
0
  6
SLD-Durchgehend
 62
     7
370
    15
100
AcDbLine
 10
194.6887322356
 20
88.7179241679
 30
0.0
 11
194.7784614404
 21
88.7179241679
 31
0.0
  0
LINE
  5
116
330
1F
100
AcDbEntity
  8
0
  6
SLD-Durchgehend
 62
     7
370
    15
100
AcDbLine
 10
194.5784617801
 20
117.4679237581
 30
0.0
 11
194.90758559
 21
117.4679237581
 31
0.0
  0
ARC
  5
117
330
1F
100
AcDbEntity
  8
0
  6
SLD-Durchgehend
 62
     7
370
    15
100
AcDbCircle
 10
196.2861060511
 20
118.4759445632
 30
0.0
 40
1.707754257787362
100
AcDbArc
 50
179.3497241651
 51
216.175534614
  0
LINE
  5
118
330
1F
100
AcDbEntity
  8
0
  6
SLD-Durchgehend
 62
     7
370
    15
100
AcDbLine
 10
191.0684615959
 20
88.7179241679
 30
0.0
 11
190.1884614144
 21
88.7179241679
 31
0.0
  0
LINE
  5
119
330
1F
100
AcDbEntity
  8
0
  6
SLD-Durchgehend
 62
     7
370
    15
100
AcDbLine
 10
190.1884614144
 20
117.4679237581
 30
0.0
 11
191.0684615959
 21
117.4679237581
 31
0.0
  0
ELLIPSE
  5
11A
330
1F
100
AcDbEntity
  8
0
  6
SLD-Durchgehend
 62
     7
370
    15
100
AcDbEllipse
 10
292.3764702454
 20
105.617923399
 30
0.0
 11
235.9609099773978
 21
-2.878844283987561
 31
0.0
210
0.0
220
0.0
230
0.9999999999999997
 40
0.068854266
 41
1.939836522058131
 42
1.967105064527168
  0
ARC
  5
11B
330
1F
100
AcDbEntity
  8
0
  6
SLD-Durchgehend
 62
     7
370
    15
100
AcDbCircle
 10
200.8117235462
 20
117.3903279326
 30
0.0
 40
4.377025392412081
100
AcDbArc
 50
81.2882432268
 51
131.8753313588
  0
ELLIPSE
  5
11C
330
1F
100
AcDbEntity
  8
0
  6
SLD-Durchgehend
 62
     7
370
    15
100
AcDbEllipse
 10
200.3850019805
 20
105.617923399
 30
0.0
 11
-0.8249710662703365
 21
16.49857054117956
 31
0.0
210
0.0
220
0.0
230
1.0
 40
0.263265937
 41
0.4119258341116628
 42
2.354274538430428
  0
ARC
  5
11D
330
1F
100
AcDbEntity
  8
0
  6
SLD-Durchgehend
 62
     7
370
    15
100
AcDbCircle
 10
201.2279959456
 20
95.4198075183
 30
0.0
 40
3.701465056216721
100
AcDbArc
 50
205.6040147032
 51
273.8213670493
  0
ELLIPSE
  5
11E
330
1F
100
AcDbEntity
  8
0
  6
SLD-Durchgehend
 62
     7
370
    15
100
AcDbEllipse
 10
292.3764702454
 20
105.617923399
 30
0.0
 11
235.9609099773978
 21
-2.878844283987561
 31
0.0
210
0.0
220
0.0
230
0.9999999999999997
 40
0.068854266
 41
4.317760357070767
 42
4.351451741052394
  0
ELLIPSE
  5
11F
330
1F
100
AcDbEntity
  8
0
  6
SLD-Durchgehend
 62
     7
370
    15
100
AcDbEllipse
 10
226.7818195841
 20
105.617923399
 30
0.0
 11
21.1238522625153
 21
-16.33139487953482
 31
0.0
210
0.0
220
0.0
230
0.9999999999999999
 40
0.1113799262
 41
2.804845444524482
 42
2.998512657379108
  0
LINE
  5
120
330
1F
100
AcDbEntity
  8
0
  6
SLD-Durchgehend
 62
     7
370
    15
100
AcDbLine
 10
160.8284613703
 20
91.1054049782
 30
0.0
 11
160.8284613703
 21
92.01434694
 31
0.0
  0
ARC
  5
121
330
1F
100
AcDbEntity
  8
0
  6
SLD-Durchgehend
 62
     7
370
    15
100
AcDbCircle
 10
157.6899207651
 20
91.0473405483
 30
0.0
 40
3.284134359664614
100
AcDbArc
 50
17.1244326527
 51
29.8895177058
  0
LWPOLYLINE
  5
122
330
1F
100
AcDbEntity
  8
0
  6
SLD-Durchgehend
 62
     7
370
    15
100
AcDbPolyline
 90
        7
 70
   128
 43
0.0
 10
159.9284610365
 20
93.3340496547
 10
159.9917760705
 20
93.3335970319
 10
160.0531502281
 20
93.3221566654
 10
160.1305533786
 20
93.2916893787
 10
160.2359166955
 20
93.2185824192
 10
160.4239898388
 20
92.9675006471
 10
160.5372256254
 20
92.6839203737
  0
ARC
  5
123
330
1F
100
AcDbEntity
  8
0
  6
SLD-Durchgehend
 62
     7
370
    15
100
AcDbCircle
 10
165.6836013191
 20
18.4655513597
 30
0.0
 40
75.08937126268326
100
AcDbArc
 50
94.395681249
 51
97.5337113535
  0
LINE
  5
124
330
1F
100
AcDbEntity
  8
0
  6
SLD-Durchgehend
 62
     7
370
    15
100
AcDbLine
 10
155.6784608056
 20
92.8873882792
 30
0.0
 11
155.8386706401
 21
92.906743025
 31
0.0
  0
LINE
  5
125
330
1F
100
AcDbEntity
  8
0
  6
SLD-Durchgehend
 62
     7
370
    15
100
AcDbLine
 10
155.669944792
 20
92.9147458799
 30
0.0
 11
155.6784608056
 21
92.8873882792
 31
0.0
  0
ELLIPSE
  5
126
330
1F
100
AcDbEntity
  8
0
  6
SLD-Durchgehend
 62
     7
370
    15
100
AcDbEllipse
 10
142.201719003
 20
104.9786257212
 30
0.0
 11
13.3735527266663
 21
-13.37146352987013
 31
0.0
210
0.0
220
0.0
230
1.0
 40
0.1761188775
 41
0.3023035477142493
 42
0.3822730435340324
  0
ELLIPSE
  5
127
330
1F
100
AcDbEntity
  8
0
  6
SLD-Durchgehend
 62
     7
370
    15
100
AcDbEllipse
 10
142.1223405723
 20
106.2570338503
 30
0.0
 11
13.36963611134306
 21
13.36754752639482
 31
0.0
210
0.0
220
0.0
230
1.0
 40
0.1761188775
 41
5.933076931846599
 42
5.976720052691193
  0
LINE
  5
128
330
1F
100
AcDbEntity
  8
0
  6
SLD-Durchgehend
 62
     7
370
    15
100
AcDbLine
 10
155.6784608056
 20
118.4835040174
 30
0.0
 11
155.5792935778
 21
118.2913591317
 31
0.0
  0
LWPOLYLINE
  5
129
330
1F
100
AcDbEntity
  8
0
  6
SLD-Durchgehend
 62
     7
370
    15
100
AcDbPolyline
 90
        3
 70
   128
 43
0.0
 10
157.4284606268
 20
118.3987173415
 10
156.5648265769
 20
118.4573459602
 10
155.6784608056
 20
118.4835040174
  0
ARC
  5
12A
330
1F
100
AcDbEntity
  8
0
  6
SLD-Durchgehend
 62
     7
370
    15
100
AcDbCircle
 10
157.273495982
 20
119.4880574333
 30
0.0
 40
1.100307173752255
100
AcDbArc
 50
278.0963186522
 51
343.4942707128
  0
LINE
  5
12B
330
1F
100
AcDbEntity
  8
0
  6
SLD-Durchgehend
 62
     7
370
    15
100
AcDbLine
 10
158.3284609605
 20
119.1754478193
 30
0.0
 11
158.3284609605
 21
120.0051910407
 31
0.0
  0
LINE
  5
12C
330
1F
100
AcDbEntity
  8
0
  6
SLD-Durchgehend
 62
     7
370
    15
100
AcDbLine
 10
172.6284611159
 20
90.5142228282
 30
0.0
 11
172.6284611159
 21
120.7216239698
 31
0.0
  0
LWPOLYLINE
  5
12D
330
1F
100
AcDbEntity
  8
0
  6
SLD-Durchgehend
 62
     7
370
    15
100
AcDbPolyline
 90
       18
 70
   128
 43
0.0
 10
165.8130040978
 20
90.8559567458
 10
165.8116052513
 20
90.8557565115
 10
165.8669053231
 20
90.8642529673
 10
166.0279337902
 20
90.8871141426
 10
166.2917039012
 20
90.920375397
 10
166.6422295038
 20
90.9576078109
 10
167.0651049008
 20
90.9904183052
 10
167.5468310368
 20
91.0115444265
 10
168.0766208683
 20
91.0148580722
 10
168.6251479787
 20
90.9973696969
 10
169.1666780625
 20
90.9582336596
 10
169.6839872402
 20
90.9006341524
 10
170.167007449
 20
90.8293777309
 10
170.5897189331
 20
90.7542060293
 10
170.9329322566
 20
90.6839610241
 10
171.1869444352
 20
90.6265375368
 10
171.3431798507
 20
90.5887388787
 10
171.3947392655
 20
90.5763252802
  0
LWPOLYLINE
  5
12E
330
1F
100
AcDbEntity
  8
0
  6
SLD-Durchgehend
 62
     7
370
    15
100
AcDbPolyline
 90
       18
 70
   128
 43
0.0
 10
171.393740422
 20
120.6595224492
 10
171.343069489
 20
120.646807102
 10
171.1881551546
 20
120.6093688659
 10
170.9301734463
 20
120.5512664444
 10
170.5878586163
 20
120.4810754559
 10
170.1660649505
 20
120.4060369334
 10
169.684896211
 20
120.335153041
 10
169.1675227721
 20
120.2776624984
 10
168.6260830265
 20
120.2385804779
 10
168.0768346068
 20
120.221061369
 10
167.5465581593
 20
120.224344281
 10
167.0637549487
 20
120.2454862348
 10
166.6411296119
 20
120.2782985918
 10
166.2902910848
 20
120.3156390391
 10
166.0274420519
 20
120.3488313756
 10
165.8663642247
 20
120.3716515727
 10
165.8116257404
 20
120.3800958745
 10
165.8125384365
 20
120.3799524508
  0
LWPOLYLINE
  5
12F
330
1F
100
AcDbEntity
  8
0
  6
SLD-Durchgehend
 62
     7
370
    15
100
AcDbPolyline
 90
       13
 70
   128
 43
0.0
 10
155.4884318848
 20
118.0060037575
 10
155.323708861
 20
117.6084361202
 10
155.2412234832
 20
117.4494537688
 10
155.1332589825
 20
117.2722007311
 10
155.0800227214
 20
117.1972870059
 10
155.0155360837
 20
117.1185259871
 10
154.9767371853
 20
117.0783645637
 10
154.93737018
 20
117.044291196
 10
154.9058542241
 20
117.0229201368
 10
154.8662879159
 20
117.0057949773
 10
154.8163094212
 20
117.0074899844
 10
154.7449812879
 20
117.1386537305
 10
154.728461488
 20
117.3961551092
  0
LWPOLYLINE
  5
130
330
1F
100
AcDbEntity
  8
0
  6
SLD-Durchgehend
 62
     7
370
    15
100
AcDbPolyline
 90
       12
 70
   128
 43
0.0
 10
154.728461488
 20
94.0704100929
 10
154.7534451474
 20
94.3223905913
 10
154.8119918098
 20
94.4017960853
 10
154.8637919714
 20
94.4024088956
 10
154.8975431015
 20
94.3881307892
 10
154.9413581033
 20
94.3585007615
 10
154.9848452796
 20
94.3197959266
 10
155.0325736989
 20
94.2689056671
 10
155.1011060019
 20
94.1831289954
 10
155.2403145124
 20
93.9695525146
 10
155.3817712356
 20
93.6991457991
 10
155.4884318848
 20
93.4509380884
  0
LINE
  5
131
330
1F
100
AcDbEntity
  8
0
  6
SLD-Durchgehend
 62
     7
370
    15
100
AcDbLine
 10
154.728461488
 20
94.0704100929
 30
0.0
 11
154.728461488
 21
117.3961551092
 31
0.0
  0
LINE
  5
132
330
1F
100
AcDbEntity
  8
0
  6
SLD-Durchgehend
 62
     7
370
    15
100
AcDbLine
 10
188.5933014219
 20
121.7293326906
 30
0.0
 11
189.5884615024
 21
119.5320111863
 31
0.0
  0
LINE
  5
133
330
1F
100
AcDbEntity
  8
0
  6
SLD-Durchgehend
 62
     7
370
    15
100
AcDbLine
 10
189.5884615024
 20
119.5320111863
 30
0.0
 11
189.5884615024
 21
119.1337702028
 31
0.0
  0
LWPOLYLINE
  5
134
330
1F
100
AcDbEntity
  8
0
  6
SLD-Durchgehend
 62
     7
370
    15
100
AcDbPolyline
 90
        6
 70
   128
 43
0.0
 10
189.5884615024
 20
119.1337702028
 10
189.6334760477
 20
118.8290153793
 10
189.7579230954
 20
118.5728225089
 10
189.9050338779
 20
118.4220674611
 10
190.0552394454
 20
118.3454056434
 10
190.1884614144
 20
118.3249342419
  0
LINE
  5
135
330
1F
100
AcDbEntity
  8
0
  6
SLD-Durchgehend
 62
     7
370
    15
100
AcDbLine
 10
190.1884614144
 20
118.3249342419
 30
0.0
 11
191.0684615959
 21
118.3249342419
 31
0.0
  0
ARC
  5
136
330
1F
100
AcDbEntity
  8
0
  6
SLD-Durchgehend
 62
     7
370
    15
100
AcDbCircle
 10
190.9429196027
 20
119.0450212439
 30
0.0
 40
0.7309487551174793
100
AcDbArc
 50
279.8897062559
 51
6.9738377009
  0
LINE
  5
137
330
1F
100
AcDbEntity
  8
0
  6
SLD-Durchgehend
 62
     7
370
    15
100
AcDbLine
 10
191.6684605767
 20
119.1337702028
 30
0.0
 11
191.6684605767
 21
119.5320111863
 31
0.0
  0
LINE
  5
138
330
1F
100
AcDbEntity
  8
0
  6
SLD-Durchgehend
 62
     7
370
    15
100
AcDbLine
 10
191.6684605767
 20
119.5320111863
 30
0.0
 11
192.6636215885
 21
121.7293326906
 31
0.0
  0
LINE
  5
139
330
1F
100
AcDbEntity
  8
0
  6
SLD-Durchgehend
 62
     7
370
    15
100
AcDbLine
 10
192.6636215885
 20
121.7293326906
 30
0.0
 11
193.9784609367
 21
121.7293326906
 31
0.0
  0
ARC
  5
13A
330
1F
100
AcDbEntity
  8
0
  6
SLD-Durchgehend
 62
     7
370
    15
100
AcDbCircle
 10
193.8828822313
 20
121.0377783105
 30
0.0
 40
0.6981280323795569
100
AcDbArc
 50
355.1028521375
 51
82.1310855252
  0
LINE
  5
13B
330
1F
100
AcDbEntity
  8
0
  6
SLD-Durchgehend
 62
     7
370
    15
100
AcDbLine
 10
194.5784617801
 20
120.9781809873
 30
0.0
 11
194.5784617801
 21
118.4953262261
 31
0.0
  0
LWPOLYLINE
  5
13C
330
1F
100
AcDbEntity
  8
0
  6
SLD-Durchgehend
 62
     7
370
    15
100
AcDbPolyline
 90
        3
 70
   128
 43
0.0
 10
189.5884615024
 20
123.3316005371
 10
188.6593852778
 20
124.9876075587
 10
188.5933014219
 20
125.1050994895
  0
LINE
  5
13D
330
1F
100
AcDbEntity
  8
0
  6
SLD-Durchgehend
 62
     7
370
    15
100
AcDbLine
 10
189.5884615024
 20
119.5320111863
 30
0.0
 11
189.5884615024
 21
123.3316005371
 31
0.0
  0
ARC
  5
13E
330
1F
100
AcDbEntity
  8
0
  6
SLD-Durchgehend
 62
     7
370
    15
100
AcDbCircle
 10
190.2151652129
 20
123.0175326786
 30
0.0
 40
0.6267108666969675
100
AcDbArc
 50
179.726192355
 51
232.8629641269
  0
LINE
  5
13F
330
1F
100
AcDbEntity
  8
0
  6
SLD-Durchgehend
 62
     7
370
    15
100
AcDbLine
 10
190.1884614144
 20
122.5179226301
 30
0.0
 11
189.8368051861
 21
122.5179226301
 31
0.0
  0
ARC
  5
140
330
1F
100
AcDbEntity
  8
0
  6
SLD-Durchgehend
 62
     7
370
    15
100
AcDbCircle
 10
193.9703566407
 20
124.4969931659
 30
0.0
 40
0.6081603245705153
100
AcDbArc
 50
359.2281322855
 51
89.2364584066
  0
LINE
  5
141
330
1F
100
AcDbEntity
  8
0
  6
SLD-Durchgehend
 62
     7
370
    15
100
AcDbLine
 10
194.5784617801
 20
120.9781809873
 30
0.0
 11
194.5784617801
 21
124.488800501
 31
0.0
  0
LINE
  5
142
330
1F
100
AcDbEntity
  8
0
  6
SLD-Durchgehend
 62
     7
370
    15
100
AcDbLine
 10
193.9784609367
 20
125.1050994895
 30
0.0
 11
192.6636215885
 21
125.1050994895
 31
0.0
  0
LINE
  5
143
330
1F
100
AcDbEntity
  8
0
  6
SLD-Durchgehend
 62
     7
370
    15
100
AcDbLine
 10
192.6636215885
 20
121.7293326906
 30
0.0
 11
192.6636215885
 21
125.1050994895
 31
0.0
  0
LINE
  5
144
330
1F
100
AcDbEntity
  8
0
  6
SLD-Durchgehend
 62
     7
370
    15
100
AcDbLine
 10
191.4201159616
 20
122.5179226301
 30
0.0
 11
191.0684615959
 21
122.5179226301
 31
0.0
  0
ARC
  5
145
330
1F
100
AcDbEntity
  8
0
  6
SLD-Durchgehend
 62
     7
370
    15
100
AcDbCircle
 10
191.0412709028
 20
123.0177735015
 30
0.0
 40
0.6271957208092599
100
AcDbArc
 50
307.1590768283
 51
0.2515960212
  0
LWPOLYLINE
  5
146
330
1F
100
AcDbEntity
  8
0
  6
SLD-Durchgehend
 62
     7
370
    15
100
AcDbPolyline
 90
        3
 70
   128
 43
0.0
 10
192.6636215885
 20
125.1050994895
 10
192.5975368013
 20
124.9876075587
 10
191.6684605767
 20
123.3316005371
  0
LINE
  5
147
330
1F
100
AcDbEntity
  8
0
  6
SLD-Durchgehend
 62
     7
370
    15
100
AcDbLine
 10
191.6684605767
 20
119.5320111863
 30
0.0
 11
191.6684605767
 21
123.3316005371
 31
0.0
  0
LINE
  5
148
330
1F
100
AcDbEntity
  8
0
  6
SLD-Durchgehend
 62
     7
370
    15
100
AcDbLine
 10
191.0684615959
 20
122.5179226301
 30
0.0
 11
190.1884614144
 21
122.5179226301
 31
0.0
  0
ARC
  5
149
330
1F
100
AcDbEntity
  8
0
  6
SLD-Durchgehend
 62
     7
370
    15
100
AcDbCircle
 10
220.7140846083
 20
104.0854061056
 30
0.0
 40
2.076772070886279
100
AcDbArc
 50
239.9474478327
 51
356.207833679
  0
LINE
  5
14A
330
1F
100
AcDbEntity
  8
0
  6
SLD-Durchgehend
 62
     7
370
    15
100
AcDbLine
 10
222.7863096286
 20
103.9480536408
 30
0.0
 11
222.9408644725
 21
106.8575257366
 31
0.0
  0
LINE
  5
14B
330
1F
100
AcDbEntity
  8
0
  6
SLD-Durchgehend
 62
     7
370
    15
100
AcDbLine
 10
226.3951212753
 20
114.0549534164
 30
0.0
 11
228.2708496441
 21
116.4023026056
 31
0.0
  0
LINE
  5
14C
330
1F
100
AcDbEntity
  8
0
  6
SLD-Durchgehend
 62
     7
370
    15
100
AcDbLine
 10
228.2708496441
 20
116.4023026056
 30
0.0
 11
227.7909875502
 21
107.3688817839
 31
0.0
  0
LINE
  5
14D
330
1F
100
AcDbEntity
  8
0
  6
SLD-Durchgehend
 62
     7
370
    15
100
AcDbLine
 10
227.7909875502
 20
107.3688817839
 30
0.0
 11
215.1120327999
 21
89.6469631396
 31
0.0
  0
ELLIPSE
  5
14E
330
1F
100
AcDbEntity
  8
0
  6
SLD-Durchgehend
 62
     7
370
    15
100
AcDbEllipse
 10
292.3764702454
 20
105.617923399
 30
0.0
 11
257.4119017935251
 21
-3.140557400713703
 31
0.0
210
0.0
220
0.0
230
0.9999999999999998
 40
0.068854266
 41
4.387605144397672
 42
4.408370068072131
  0
LINE
  5
14F
330
1F
100
AcDbEntity
  8
0
  6
SLD-Durchgehend
 62
     7
370
    15
100
AcDbLine
 10
210.0303866555
 20
89.8227912537
 30
0.0
 11
209.827060311
 21
90.6209542579
 31
0.0
  0
ARC
  5
150
330
1F
100
AcDbEntity
  8
0
  6
SLD-Durchgehend
 62
     7
370
    15
100
AcDbCircle
 10
208.7958448077
 20
90.3768173359
 30
0.0
 40
1.059720836309244
100
AcDbArc
 50
13.3193580502
 51
86.4678075891
  0
LINE
  5
151
330
1F
100
AcDbEntity
  8
0
  6
SLD-Durchgehend
 62
     7
370
    15
100
AcDbLine
 10
207.4454300691
 20
121.8094562344
 30
0.0
 11
213.1761037399
 21
117.3198313616
 31
0.0
  0
LINE
  5
152
330
1F
100
AcDbEntity
  8
0
  6
SLD-Durchgehend
 62
     7
370
    15
100
AcDbLine
 10
210.0303866555
 20
89.8227912537
 30
0.0
 11
210.0303866555
 21
87.6179241739
 31
0.0
  0
ELLIPSE
  5
153
330
1F
100
AcDbEntity
  8
0
  6
SLD-Durchgehend
 62
     7
370
    15
100
AcDbEllipse
 10
226.7861558014
 20
105.617923399
 30
0.0
 11
12.68102048670784
 21
17.99438562611785
 31
0.0
210
0.0
220
0.0
230
0.9999999999999998
 40
0.0354498044
 41
2.687177783353841
 42
4.614982120573277
  0
LINE
  5
154
330
1F
100
AcDbEntity
  8
0
  6
SLD-Durchgehend
 62
     7
370
    15
100
AcDbLine
 10
226.1877641668
 20
103.4205085296
 30
0.0
 11
226.0664798905
 21
103.4646301694
 31
0.0
  0
LINE
  5
155
330
1F
100
AcDbEntity
  8
0
  6
SLD-Durchgehend
 62
     7
370
    15
100
AcDbLine
 10
154.728461488
 20
93.799451103
 30
0.0
 11
154.728461488
 21
94.0704100929
 31
0.0
  0
LINE
  5
156
330
1F
100
AcDbEntity
  8
0
  6
SLD-Durchgehend
 62
     7
370
    15
100
AcDbLine
 10
226.4666766514
 20
104.0802386985
 30
0.0
 11
227.7909875502
 21
107.3688817839
 31
0.0
  0
ELLIPSE
  5
157
330
1F
100
AcDbEntity
  8
0
  6
SLD-Durchgehend
 62
     7
370
    15
100
AcDbEllipse
 10
227.7069294532
 20
105.617923399
 30
0.0
 11
1.817948901423421
 21
2.498870285622843
 31
0.0
210
0.0
220
0.0
230
1.0
 40
0.0413369652
 41
2.263339913539943
 42
3.668763376676097
  0
LINE
  5
158
330
1F
100
AcDbEntity
  8
0
  6
SLD-Durchgehend
 62
     7
370
    15
100
AcDbLine
 10
154.728461488
 20
117.4918373279
 30
0.0
 11
154.728461488
 21
117.3961551092
 31
0.0
  0
LINE
  5
159
330
1F
100
AcDbEntity
  8
0
  6
SLD-Durchgehend
 62
     7
370
    15
100
AcDbLine
 10
155.6784608056
 20
118.4979236848
 30
0.0
 11
155.6784608056
 21
118.4835040174
 31
0.0
  0
LINE
  5
15A
330
1F
100
AcDbEntity
  8
0
  6
SLD-Durchgehend
 62
     7
370
    15
100
AcDbLine
 10
154.728461488
 20
117.5479234359
 30
0.0
 11
154.728461488
 21
117.4918373279
 31
0.0
  0
LINE
  5
15B
330
1F
100
AcDbEntity
  8
0
  6
SLD-Durchgehend
 62
     7
370
    15
100
AcDbLine
 10
155.6784608056
 20
92.7969233296
 30
0.0
 11
155.6784608056
 21
92.8873882792
 31
0.0
  0
LINE
  5
15C
330
1F
100
AcDbEntity
  8
0
  6
SLD-Durchgehend
 62
     7
370
    15
100
AcDbLine
 10
154.728461488
 20
93.7469235785
 30
0.0
 11
154.728461488
 21
93.799451103
 31
0.0
  0
LINE
  5
15D
330
1F
100
AcDbEntity
  8
0
  6
SLD-Durchgehend
 62
     7
370
    15
100
AcDbLine
 10
222.2565733482
 20
102.6849220204
 30
0.0
 11
222.4354282607
 21
106.0518893635
 31
0.0
  0
LINE
  5
15E
330
1F
100
AcDbEntity
  8
0
  6
SLD-Gestrichelt
 62
     7
370
     0
100
AcDbLine
 10
182.5784616758
 20
85.617923846
 30
0.0
 11
182.5784616758
 21
85.6429391704
 31
0.0
  0
ARC
  5
15F
330
1F
100
AcDbEntity
  8
0
  6
SLD-Gestrichelt
 62
     7
370
     0
100
AcDbCircle
 10
186.5096837487
 20
75.8759181004
 30
0.0
 40
10.52849502866596
100
AcDbArc
 50
86.9032197167
 51
111.9247654927
  0
LINE
  5
160
330
1F
100
AcDbEntity
  8
0
  6
SLD-Gestrichelt
 62
     7
370
     0
100
AcDbLine
 10
187.0784614821
 20
86.3890384487
 30
0.0
 11
188.5933014219
 21
86.3890384487
 31
0.0
  0
LINE
  5
161
330
1F
100
AcDbEntity
  8
0
  6
SLD-Gestrichelt
 62
     7
370
     0
100
AcDbLine
 10
188.5933014219
 20
125.1050994895
 30
0.0
 11
188.5933014219
 21
86.3890384487
 31
0.0
  0
LINE
  5
162
330
1F
100
AcDbEntity
  8
0
  6
SLD-Gestrichelt
 62
     7
370
     0
100
AcDbLine
 10
187.0784614821
 20
125.1050994895
 30
0.0
 11
188.5933014219
 21
125.1050994895
 31
0.0
  0
ARC
  5
163
330
1F
100
AcDbEntity
  8
0
  6
SLD-Gestrichelt
 62
     7
370
     0
100
AcDbCircle
 10
187.1477102324
 20
145.711324016
 30
0.0
 40
20.60634088398747
100
AcDbArc
 50
257.2330230875
 51
269.8074539958
  0
CIRCLE
  5
164
330
1F
100
AcDbEntity
  8
0
  6
SLD-Gestrichelt
 62
     7
370
     0
100
AcDbCircle
 10
181.6284609198
 20
105.6179258804
 30
0.0
 40
4.999999613917557
  0
LINE
  5
165
330
1F
100
AcDbEntity
  8
0
  6
SLD-Gestrichelt
 62
     7
370
     0
100
AcDbLine
 10
174.6284612109
 20
125.3179234616
 30
0.0
 11
174.6284612109
 21
85.9179233364
 31
0.0
  0
LWPOLYLINE
  5
166
330
1F
100
AcDbEntity
  8
0
  6
SLD-Gestrichelt
 62
     7
370
     0
100
AcDbPolyline
 90
        3
 70
   128
 43
0.0
 10
191.6684605767
 20
88.5050443164
 10
191.6607045223
 20
88.6060835026
 10
191.6332379569
 20
88.7179241679
  0
LINE
  5
167
330
1F
100
AcDbEntity
  8
0
  6
SLD-Gestrichelt
 62
     7
370
     0
100
AcDbLine
 10
191.6684605767
 20
88.5050443164
 30
0.0
 11
191.6684605767
 21
117.4679237581
 31
0.0
  0
LWPOLYLINE
  5
168
330
1F
100
AcDbEntity
  8
0
  6
SLD-Gestrichelt
 62
     7
370
     0
100
AcDbPolyline
 90
        3
 70
   128
 43
0.0
 10
189.6236831908
 20
88.7179241679
 10
189.5962175568
 20
88.6060835026
 10
189.5884615024
 20
88.5050443164
  0
LINE
  5
169
330
1F
100
AcDbEntity
  8
0
  6
SLD-Gestrichelt
 62
     7
370
     0
100
AcDbLine
 10
189.5884615024
 20
88.5050443164
 30
0.0
 11
189.5884615024
 21
117.4679237581
 31
0.0
  0
LINE
  5
16A
330
1F
100
AcDbEntity
  8
0
  6
SLD-Gestrichelt
 62
     7
370
     0
100
AcDbLine
 10
194.5785232474
 20
122.5179226301
 30
0.0
 11
194.5784617801
 21
122.5294579915
 31
0.0
  0
LINE
  5
16B
330
1F
100
AcDbEntity
  8
0
  6
SLD-Gestrichelt
 62
     7
370
     0
100
AcDbLine
 10
194.5785232474
 20
122.5179226301
 30
0.0
 11
194.7784614404
 21
122.5179226301
 31
0.0
  0
LINE
  5
16C
330
1F
100
AcDbEntity
  8
0
  6
SLD-Gestrichelt
 62
     7
370
     0
100
AcDbLine
 10
194.5784617801
 20
122.5294579915
 30
0.0
 11
194.5785232474
 21
122.5179226301
 31
0.0
  0
LINE
  5
16D
330
1F
100
AcDbEntity
  8
0
  6
SLD-Gestrichelt
 62
     7
370
     0
100
AcDbLine
 10
194.5784617801
 20
122.5294579915
 30
0.0
 11
194.5784617801
 21
88.7179241679
 31
0.0
  0
LINE
  5
16E
330
1F
100
AcDbEntity
  8
0
  6
SLD-Gestrichelt
 62
     7
370
     0
100
AcDbLine
 10
194.5784617801
 20
88.7179241679
 30
0.0
 11
194.7784614404
 21
88.7179241679
 31
0.0
  0
LINE
  5
16F
330
1F
100
AcDbEntity
  8
0
  6
SLD-Gestrichelt
 62
     7
370
     0
100
AcDbLine
 10
194.6887322356
 20
88.7179241679
 30
0.0
 11
194.5784617801
 21
88.7179241679
 31
0.0
  0
LINE
  5
170
330
1F
100
AcDbEntity
  8
0
  6
SLD-Gestrichelt
 62
     7
370
     0
100
AcDbLine
 10
194.5784617801
 20
118.4953262261
 30
0.0
 11
194.5784617801
 21
122.5294579915
 31
0.0
  0
LINE
  5
171
330
1F
100
AcDbEntity
  8
0
  6
SLD-Gestrichelt
 62
     7
370
     0
100
AcDbLine
 10
194.5784617801
 20
88.7179241679
 30
0.0
 11
194.5784617801
 21
117.4679237581
 31
0.0
  0
LINE
  5
172
330
1F
100
AcDbEntity
  8
0
  6
SLD-Gestrichelt
 62
     7
370
     0
100
AcDbLine
 10
182.5784616758
 20
117.4679237581
 30
0.0
 11
187.0721312825
 21
117.4679237581
 31
0.0
  0
ARC
  5
173
330
1F
100
AcDbEntity
  8
0
  6
SLD-Gestrichelt
 62
     7
370
     0
100
AcDbCircle
 10
213.2942541285
 20
118.1429998582
 30
0.0
 40
6.624816482321133
100
AcDbArc
 50
168.1955886749
 51
227.9970538644
  0
ELLIPSE
  5
174
330
1F
100
AcDbEntity
  8
0
  6
SLD-Gestrichelt
 62
     7
370
     0
100
AcDbEllipse
 10
226.7818195841
 20
105.617923399
 30
0.0
 11
21.1238522625153
 21
-16.33139487953482
 31
0.0
210
0.0
220
0.0
230
0.9999999999999999
 40
0.1113799262
 41
2.998512657379108
 42
3.5697514887859
  0
LINE
  5
175
330
1F
100
AcDbEntity
  8
0
  6
SLD-Gestrichelt
 62
     7
370
     0
100
AcDbLine
 10
174.6284612109
 20
89.4107219926
 30
0.0
 11
174.6284612109
 21
121.8251248054
 31
0.0
  0
LWPOLYLINE
  5
176
330
1F
100
AcDbEntity
  8
0
  6
SLD-Gestrichelt
 62
     7
370
     0
100
AcDbPolyline
 90
        2
 70
   128
 43
0.0
 10
189.5884615024
 20
117.4679237581
 10
189.5884615024
 20
117.4679237581
  0
LWPOLYLINE
  5
177
330
1F
100
AcDbEntity
  8
0
  6
SLD-Gestrichelt
 62
     7
370
     0
100
AcDbPolyline
 90
        2
 70
   128
 43
0.0
 10
191.6684605767
 20
117.4679237581
 10
191.6684605767
 20
117.4679237581
  0
LWPOLYLINE
  5
178
330
1F
100
AcDbEntity
  8
0
  6
SLD-Gestrichelt
 62
     7
370
     0
100
AcDbPolyline
 90
        2
 70
   128
 43
0.0
 10
194.5784617801
 20
117.4679237581
 10
194.5784617801
 20
117.4679237581
  0
LINE
  5
179
330
1F
100
AcDbEntity
  8
0
  6
SLD-Gestrichelt
 62
     7
370
     0
100
AcDbLine
 10
155.669944792
 20
92.9147458799
 30
0.0
 11
155.6784608056
 21
92.8873882792
 31
0.0
  0
LINE
  5
17A
330
1F
100
AcDbEntity
  8
0
  6
SLD-Gestrichelt
 62
     7
370
     0
100
AcDbLine
 10
155.6784608056
 20
92.8873882792
 30
0.0
 11
155.8386706401
 21
92.906743025
 31
0.0
  0
ARC
  5
17B
330
1F
100
AcDbEntity
  8
0
  6
SLD-Gestrichelt
 62
     7
370
     0
100
AcDbCircle
 10
165.6836013191
 20
18.4655513597
 30
0.0
 40
75.08937126268326
100
AcDbArc
 50
94.395681249
 51
97.5337113535
  0
LWPOLYLINE
  5
17C
330
1F
100
AcDbEntity
  8
0
  6
SLD-Gestrichelt
 62
     7
370
     0
100
AcDbPolyline
 90
        7
 70
   128
 43
0.0
 10
159.9284610365
 20
93.3340496547
 10
159.9917760705
 20
93.3335970319
 10
160.0531502281
 20
93.3221566654
 10
160.1305533786
 20
93.2916893787
 10
160.2359166955
 20
93.2185824192
 10
160.4239898388
 20
92.9675006471
 10
160.5372256254
 20
92.6839203737
  0
ARC
  5
17D
330
1F
100
AcDbEntity
  8
0
  6
SLD-Gestrichelt
 62
     7
370
     0
100
AcDbCircle
 10
157.6899207651
 20
91.0473405483
 30
0.0
 40
3.284134359664614
100
AcDbArc
 50
17.1244326527
 51
29.8895177058
  0
LINE
  5
17E
330
1F
100
AcDbEntity
  8
0
  6
SLD-Gestrichelt
 62
     7
370
     0
100
AcDbLine
 10
160.8284613703
 20
92.01434694
 30
0.0
 11
160.8284613703
 21
91.1054049782
 31
0.0
  0
LINE
  5
17F
330
1F
100
AcDbEntity
  8
0
  6
SLD-Gestrichelt
 62
     7
370
     0
100
AcDbLine
 10
158.3284609605
 20
120.0051910407
 30
0.0
 11
158.3284609605
 21
119.1754478193
 31
0.0
  0
ARC
  5
180
330
1F
100
AcDbEntity
  8
0
  6
SLD-Gestrichelt
 62
     7
370
     0
100
AcDbCircle
 10
157.273495982
 20
119.4880574333
 30
0.0
 40
1.100307173752255
100
AcDbArc
 50
278.0963186522
 51
343.4942707128
  0
LWPOLYLINE
  5
181
330
1F
100
AcDbEntity
  8
0
  6
SLD-Gestrichelt
 62
     7
370
     0
100
AcDbPolyline
 90
        3
 70
   128
 43
0.0
 10
157.4284606268
 20
118.3987173415
 10
156.5648265769
 20
118.4573459602
 10
155.6784608056
 20
118.4835040174
  0
LINE
  5
182
330
1F
100
AcDbEntity
  8
0
  6
SLD-Gestrichelt
 62
     7
370
     0
100
AcDbLine
 10
155.6784608056
 20
118.4835040174
 30
0.0
 11
155.5792935778
 21
118.2913591317
 31
0.0
  0
ELLIPSE
  5
183
330
1F
100
AcDbEntity
  8
0
  6
SLD-Gestrichelt
 62
     7
370
     0
100
AcDbEllipse
 10
142.1223405723
 20
106.2570338503
 30
0.0
 11
13.36963611134309
 21
13.36754752639483
 31
0.0
210
0.0
220
0.0
230
1.0
 40
0.1761188775
 41
5.933076931846598
 42
5.976720052691196
  0
ELLIPSE
  5
184
330
1F
100
AcDbEntity
  8
0
  6
SLD-Gestrichelt
 62
     7
370
     0
100
AcDbEllipse
 10
142.201719003
 20
104.9786257212
 30
0.0
 11
13.37355272666627
 21
-13.37146352987013
 31
0.0
210
0.0
220
0.0
230
1.0
 40
0.1761188775
 41
0.3023035477142366
 42
0.3822730435340249
  0
LINE
  5
185
330
1F
100
AcDbEntity
  8
0
  6
SLD-Gestrichelt
 62
     7
370
     0
100
AcDbLine
 10
172.6284611159
 20
120.7216239698
 30
0.0
 11
172.6284611159
 21
90.5142228282
 31
0.0
  0
ARC
  5
186
330
1F
100
AcDbEntity
  8
0
  6
SLD-Gestrichelt
 62
     7
370
     0
100
AcDbCircle
 10
168.9582118734
 20
69.4843682696
 30
0.0
 40
21.60178524906597
100
AcDbArc
 50
97.1287248107
 51
98.3719928051
  0
LWPOLYLINE
  5
187
330
1F
100
AcDbEntity
  8
0
  6
SLD-Gestrichelt
 62
     7
370
     0
100
AcDbPolyline
 90
       16
 70
   128
 43
0.0
 10
171.3947392655
 20
90.5763252802
 10
171.3962307786
 20
90.575966721
 10
171.3402960104
 20
90.5898192129
 10
171.1792626538
 20
90.628160832
 10
170.9165938319
 20
90.6869552261
 10
170.568574651
 20
90.7583578653
 10
170.1491539952
 20
90.8329186193
 10
169.6700215925
 20
90.9025377757
 10
169.144625741
 20
90.9597098059
 10
168.5959021215
 20
90.9988104529
 10
168.0544619103
 20
91.015628276
 10
167.5333906551
 20
91.0111998371
 10
167.0478293327
 20
90.9889114253
 10
166.6349651878
 20
90.9568366758
 10
166.6220235293
 20
90.9558308474
 10
166.2774528031
 20
90.9191684029
  0
LWPOLYLINE
  5
188
330
1F
100
AcDbEntity
  8
0
  6
SLD-Gestrichelt
 62
     7
370
     0
100
AcDbPolyline
 90
       16
 70
   128
 43
0.0
 10
166.2773345251
 20
120.3166634939
 10
166.6227751066
 20
120.2800699673
 10
166.629090405
 20
120.2795791603
 10
167.048840749
 20
120.2470014966
 10
167.5345203494
 20
120.2246916644
 10
168.0563604114
 20
120.2202138654
 10
168.5974751254
 20
120.2370391391
 10
169.1472697657
 20
120.2763325698
 10
169.6718674739
 20
120.3335390589
 10
170.1513719399
 20
120.4032643861
 10
170.5699031827
 20
120.4776677466
 10
170.917620615
 20
120.5490107811
 10
171.1795313404
 20
120.6076636142
 10
171.3402671394
 20
120.6459959201
 10
171.3949134228
 20
120.6598176784
 10
171.393740422
 20
120.6595224492
  0
ARC
  5
189
330
1F
100
AcDbEntity
  8
0
  6
SLD-Gestrichelt
 62
     7
370
     0
100
AcDbCircle
 10
167.5112746129
 20
131.1171413045
 30
0.0
 40
10.87073728310231
100
AcDbArc
 50
261.009721592
 51
263.4822940933
  0
ARC
  5
18A
330
1F
100
AcDbEntity
  8
0
  6
SLD-Gestrichelt
 62
     7
370
     0
100
AcDbCircle
 10
168.6262719538
 20
80.3121420172
 30
0.0
 40
12.76430890823064
100
AcDbArc
 50
81.773666861
 51
100.2786770347
  0
ARC
  5
18B
330
1F
100
AcDbEntity
  8
0
  6
SLD-Gestrichelt
 62
     7
370
     0
100
AcDbCircle
 10
168.6262719538
 20
130.9237047807
 30
0.0
 40
12.76430890823062
100
AcDbArc
 50
259.7213229653
 51
278.226333139
  0
LWPOLYLINE
  5
18C
330
1F
100
AcDbEntity
  8
0
  6
SLD-Gestrichelt
 62
     7
370
     0
100
AcDbPolyline
 90
        6
 70
   128
 43
0.0
 10
170.452638029
 20
118.2907332829
 10
170.8110086274
 20
118.3343797154
 10
170.9233899255
 20
118.3447639621
 10
170.9282500324
 20
118.3452128596
 10
170.7895269737
 20
118.3322106651
 10
170.452638029
 20
118.2907332829
  0
LWPOLYLINE
  5
18D
330
1F
100
AcDbEntity
  8
0
  6
SLD-Gestrichelt
 62
     7
370
     0
100
AcDbPolyline
 90
        6
 70
   128
 43
0.0
 10
170.452638029
 20
92.945113515
 10
170.8110086274
 20
92.9014670826
 10
170.9233179808
 20
92.8910893551
 10
170.9282500324
 20
92.8906339384
 10
170.7895269737
 20
92.9036361329
 10
170.452638029
 20
92.945113515
  0
LINE
  5
18E
330
1F
100
AcDbEntity
  8
0
  6
SLD-Gestrichelt
 62
     7
370
     0
100
AcDbLine
 10
174.6284612109
 20
95.1179235406
 30
0.0
 11
174.6284612109
 21
116.1179232574
 31
0.0
  0
LINE
  5
18F
330
1F
100
AcDbEntity
  8
0
  6
SLD-Gestrichelt
 62
     7
370
     0
100
AcDbLine
 10
162.6311107193
 20
116.1179232574
 30
0.0
 11
162.6311107193
 21
95.1179235406
 31
0.0
  0
LINE
  5
190
330
1F
100
AcDbEntity
  8
0
  6
SLD-Gestrichelt
 62
     7
370
     0
100
AcDbLine
 10
187.0721312825
 20
117.4679237581
 30
0.0
 11
194.90758559
 21
117.4679237581
 31
0.0
  0
LINE
  5
191
330
1F
100
AcDbEntity
  8
0
  6
SLD-Gestrichelt
 62
     7
370
     0
100
AcDbLine
 10
189.5884615024
 20
119.1337702028
 30
0.0
 11
189.5884615024
 21
123.0205276213
 31
0.0
  0
LINE
  5
192
330
1F
100
AcDbEntity
  8
0
  6
SLD-Gestrichelt
 62
     7
370
     0
100
AcDbLine
 10
191.6684605767
 20
119.1337702028
 30
0.0
 11
191.6684605767
 21
123.0205276213
 31
0.0
  0
LINE
  5
193
330
1F
100
AcDbEntity
  8
0
  6
SLD-Gestrichelt
 62
     7
370
     0
100
AcDbLine
 10
154.728461488
 20
95.7529169671
 30
0.0
 11
154.728461488
 21
115.4829298309
 31
0.0
  0
LINE
  5
194
330
1F
100
AcDbEntity
  8
0
  6
SLD-Gestrichelt
 62
     7
370
     0
100
AcDbLine
 10
180.7978362431
 20
116.1179232574
 30
0.0
 11
180.7978362431
 21
95.1179235406
 31
0.0
  0
LINE
  5
195
330
1F
100
AcDbEntity
  8
0
  6
SLD-Gestrichelt
 62
     7
370
     0
100
AcDbLine
 10
182.5784616758
 20
115.4929229222
 30
0.0
 11
182.5784616758
 21
95.7429229445
 31
0.0
  0
LWPOLYLINE
  5
196
330
1F
100
AcDbEntity
  8
0
  6
SLD-Gestrichelt
 62
     7
370
     0
100
AcDbPolyline
 90
        2
 70
   128
 43
0.0
 10
182.5784616758
 20
95.7429229445
 10
182.5784616758
 20
95.7429229445
  0
LINE
  5
197
330
1F
100
AcDbEntity
  8
0
  6
SLD-Gestrichelt
 62
     7
370
     0
100
AcDbLine
 10
155.6784608056
 20
95.9200176574
 30
0.0
 11
159.9284610365
 21
95.9200176574
 31
0.0
  0
LINE
  5
198
330
1F
100
AcDbEntity
  8
0
  6
SLD-Gestrichelt
 62
     7
370
     0
100
AcDbLine
 10
155.6784608056
 20
115.3158291406
 30
0.0
 11
155.6784608056
 21
95.9200176574
 31
0.0
  0
LINE
  5
199
330
1F
100
AcDbEntity
  8
0
  6
SLD-Gestrichelt
 62
     7
370
     0
100
AcDbLine
 10
157.4284606268
 20
115.3158291406
 30
0.0
 11
155.6784608056
 21
115.3158291406
 31
0.0
  0
LWPOLYLINE
  5
19A
330
1F
100
AcDbEntity
  8
0
  6
SLD-Gestrichelt
 62
     7
370
     0
100
AcDbPolyline
 90
        6
 70
   128
 43
0.0
 10
158.3284609605
 20
115.642113348
 10
158.2726803263
 20
115.5394946388
 10
158.11151868
 20
115.4402575619
 10
157.8630045642
 20
115.3615011997
 10
157.5712621798
 20
115.3205528087
 10
157.4284606268
 20
115.3158291406
  0
LINE
  5
19B
330
1F
100
AcDbEntity
  8
0
  6
SLD-Gestrichelt
 62
     7
370
     0
100
AcDbLine
 10
158.3284609605
 20
115.642113348
 30
0.0
 11
158.3284609605
 21
116.1179232574
 31
0.0
  0
LWPOLYLINE
  5
19C
330
1F
100
AcDbEntity
  8
0
  6
SLD-Gestrichelt
 62
     7
370
     0
100
AcDbPolyline
 90
        6
 70
   128
 43
0.0
 10
158.3284609605
 20
115.642113348
 10
158.2726803263
 20
115.5394946388
 10
158.11151868
 20
115.4402575619
 10
157.8630045642
 20
115.3615011997
 10
157.5712621798
 20
115.3205528087
 10
157.4284606268
 20
115.3158291406
  0
LINE
  5
19D
330
1F
100
AcDbEntity
  8
0
  6
SLD-Gestrichelt
 62
     7
370
     0
100
AcDbLine
 10
157.4284606268
 20
115.3158291406
 30
0.0
 11
155.6784608056
 21
115.3158291406
 31
0.0
  0
LINE
  5
19E
330
1F
100
AcDbEntity
  8
0
  6
SLD-Gestrichelt
 62
     7
370
     0
100
AcDbLine
 10
155.6784608056
 20
95.9200176574
 30
0.0
 11
159.9284610365
 21
95.9200176574
 31
0.0
  0
LWPOLYLINE
  5
19F
330
1F
100
AcDbEntity
  8
0
  6
SLD-Gestrichelt
 62
     7
370
     0
100
AcDbPolyline
 90
        6
 70
   128
 43
0.0
 10
159.9284610365
 20
95.9200176574
 10
160.2104915892
 20
95.9013278759
 10
160.4604473923
 20
95.8495947696
 10
160.6613075946
 20
95.771795807
 10
160.7928708781
 20
95.6753191701
 10
160.8284613703
 20
95.59373345
  0
LINE
  5
1A0
330
1F
100
AcDbEntity
  8
0
  6
SLD-Gestrichelt
 62
     7
370
     0
100
AcDbLine
 10
160.8284613703
 20
95.59373345
 30
0.0
 11
160.8284613703
 21
95.1179235406
 31
0.0
  0
LWPOLYLINE
  5
1A1
330
1F
100
AcDbEntity
  8
0
  6
SLD-Gestrichelt
 62
     7
370
     0
100
AcDbPolyline
 90
        6
 70
   128
 43
0.0
 10
159.9284610365
 20
95.9200176574
 10
160.2104915892
 20
95.9013278759
 10
160.4604473923
 20
95.8495947696
 10
160.6613075946
 20
95.771795807
 10
160.7928708781
 20
95.6753191701
 10
160.8284613703
 20
95.59373345
  0
LINE
  5
1A2
330
1F
100
AcDbEntity
  8
0
  6
SLD-Gestrichelt
 62
     7
370
     0
100
AcDbLine
 10
155.6784608056
 20
95.9200176574
 30
0.0
 11
155.6784608056
 21
115.3158291406
 31
0.0
  0
CIRCLE
  5
1A3
330
1F
100
AcDbEntity
  8
0
  6
SLD-Gestrichelt
 62
     7
370
     0
100
AcDbCircle
 10
214.9291611265
 20
108.1481242059
 30
0.0
 40
3.079574414855602
  0
LINE
  5
1A4
330
1F
100
AcDbEntity
  8
0
  6
SLD-Gestrichelt
 62
     7
370
     0
100
AcDbLine
 10
210.4689948846
 20
99.1025564424
 30
0.0
 11
208.5453294803
 21
96.8626958481
 31
0.0
  0
ARC
  5
1A5
330
1F
100
AcDbEntity
  8
0
  6
SLD-Gestrichelt
 62
     7
370
     0
100
AcDbCircle
 10
208.5422583566
 20
100.6889285832
 30
0.0
 40
2.495774472513624
100
AcDbArc
 50
320.5337790867
 51
139.3712914161
  0
LINE
  5
1A6
330
1F
100
AcDbEntity
  8
0
  6
SLD-Gestrichelt
 62
     7
370
     0
100
AcDbLine
 10
204.7244370569
 20
100.0742024905
 30
0.0
 11
206.6481024613
 21
102.3140635505
 31
0.0
  0
ARC
  5
1A7
330
1F
100
AcDbEntity
  8
0
  6
SLD-Gestrichelt
 62
     7
370
     0
100
AcDbCircle
 10
206.6511738138
 20
98.4878308576
 30
0.0
 40
2.495774326342627
100
AcDbArc
 50
140.5337914271
 51
319.3712872597
  0
ARC
  5
1A8
330
1F
100
AcDbEntity
  8
0
  6
SLD-Gestrichelt
 62
     7
370
     0
100
AcDbCircle
 10
215.7314181294
 20
120.4115936902
 30
0.0
 40
4.009713936998973
100
AcDbArc
 50
231.745011688
 51
320.8578120666
  0
LINE
  5
1A9
330
1F
100
AcDbEntity
  8
0
  6
SLD-Gestrichelt
 62
     7
370
     0
100
AcDbLine
 10
218.8412793566
 20
117.8804735816
 30
0.0
 11
219.3628609766
 21
118.5331947333
 31
0.0
  0
LINE
  5
1AA
330
1F
100
AcDbEntity
  8
0
  6
SLD-Gestrichelt
 62
     7
370
     0
100
AcDbLine
 10
219.3628609766
 20
118.5331947333
 30
0.0
 11
218.6022833575
 21
104.2153305304
 31
0.0
  0
ARC
  5
1AB
330
1F
100
AcDbEntity
  8
0
  6
SLD-Gestrichelt
 62
     7
370
     0
100
AcDbCircle
 10
220.6923245507
 20
104.1157455974
 30
0.0
 40
2.092412327414264
100
AcDbArc
 50
177.2720708282
 51
240.8792823083
  0
LINE
  5
1AC
330
1F
100
AcDbEntity
  8
0
  6
SLD-Gestrichelt
 62
     7
370
     0
100
AcDbLine
 10
222.9408644725
 20
106.8575257366
 30
0.0
 11
223.1044419696
 21
109.9368941202
 31
0.0
  0
LINE
  5
1AD
330
1F
100
AcDbEntity
  8
0
  6
SLD-Gestrichelt
 62
     7
370
     0
100
AcDbLine
 10
223.1044419696
 20
109.9368941202
 30
0.0
 11
226.3951212753
 21
114.0549534164
 31
0.0
  0
LINE
  5
1AE
330
1F
100
AcDbEntity
  8
0
  6
SLD-Gestrichelt
 62
     7
370
     0
100
AcDbLine
 10
213.1761037399
 20
117.3198313616
 30
0.0
 11
213.2487543513
 21
117.2629135824
 31
0.0
  0
LINE
  5
1AF
330
1F
100
AcDbEntity
  8
0
  6
SLD-Gestrichelt
 62
     7
370
     0
100
AcDbLine
 10
210.0303866555
 20
87.6179241739
 30
0.0
 11
210.0303866555
 21
105.617923399
 31
0.0
  0
LINE
  5
1B0
330
1F
100
AcDbEntity
  8
0
  6
SLD-Gestrichelt
 62
     7
370
     0
100
AcDbLine
 10
210.1616509844
 20
109.8459490738
 30
0.0
 11
210.0303866555
 21
105.617923399
 31
0.0
  0
LINE
  5
1B1
330
1F
100
AcDbEntity
  8
0
  6
SLD-Gestrichelt
 62
     7
370
     0
100
AcDbLine
 10
210.1616509844
 20
109.8459490738
 30
0.0
 11
209.827060311
 21
111.4568381734
 31
0.0
  0
ARC
  5
1B2
330
1F
100
AcDbEntity
  8
0
  6
SLD-Gestrichelt
 62
     7
370
     0
100
AcDbCircle
 10
226.40821925
 20
106.0872849387
 30
0.0
 40
2.644825859908691
100
AcDbArc
 50
190.2220832848
 51
262.5760255585
  0
ARC
  5
1B3
330
1F
100
AcDbEntity
  8
0
  6
SLD-Gestrichelt
 62
     7
370
     0
100
AcDbCircle
 10
206.3858619985
 20
110.7178281788
 30
0.0
 40
3.519656460186385
100
AcDbArc
 50
12.1203898398
 51
45.3099888855
  0
ARC
  5
1B4
330
1F
100
AcDbEntity
  8
0
  6
SLD-Gestrichelt
 62
     7
370
     0
100
AcDbCircle
 10
206.614660285
 20
98.3992722452
 30
0.0
 40
1.996646156065968
100
AcDbArc
 50
140.6061377096
 51
319.2989073244
  0
LINE
  5
1B5
330
1F
100
AcDbEntity
  8
0
  6
SLD-Gestrichelt
 62
     7
370
     0
100
AcDbLine
 10
208.1283614625
 20
97.0972336061
 30
0.0
 11
210.0520268668
 21
99.337094666
 31
0.0
  0
ARC
  5
1B6
330
1F
100
AcDbEntity
  8
0
  6
SLD-Gestrichelt
 62
     7
370
     0
100
AcDbCircle
 10
206.3705124361
 20
97.7929843127
 30
0.0
 40
1.99664616008472
100
AcDbArc
 50
140.6061478182
 51
319.2988972159
  0
LINE
  5
1B7
330
1F
100
AcDbEntity
  8
0
  6
SLD-Gestrichelt
 62
     7
370
     0
100
AcDbLine
 10
206.9953144182
 20
101.9063002593
 30
0.0
 11
205.0716490139
 21
99.6664391994
 31
0.0
  0
ARC
  5
1B8
330
1F
100
AcDbEntity
  8
0
  6
SLD-Gestrichelt
 62
     7
370
     0
100
AcDbCircle
 10
208.509015291
 20
100.6042612577
 30
0.0
 40
1.996646161468567
100
AcDbArc
 50
320.6061512991
 51
139.298893735
  0
LINE
  5
1B9
330
1F
100
AcDbEntity
  8
0
  6
SLD-Gestrichelt
 62
     7
370
     0
100
AcDbLine
 10
206.7511663427
 20
101.3000120572
 30
0.0
 11
204.8275009383
 21
99.0601509973
 31
0.0
  0
LINE
  5
1BA
330
1F
100
AcDbEntity
  8
0
  6
SLD-Gestrichelt
 62
     7
370
     0
100
AcDbLine
 10
158.3284609605
 20
116.6179233394
 30
0.0
 11
158.3284609605
 21
119.1754478193
 31
0.0
  0
LINE
  5
1BB
330
1F
100
AcDbEntity
  8
0
  6
SLD-Gestrichelt
 62
     7
370
     0
100
AcDbLine
 10
160.8284613703
 20
94.6179234586
 30
0.0
 11
160.8284613703
 21
92.01434694
 31
0.0
  0
LINE
  5
1BC
330
1F
100
AcDbEntity
  8
0
  6
SLD-Gestrichelt
 62
     7
370
     0
100
AcDbLine
 10
155.6784608056
 20
116.6179233394
 30
0.0
 11
155.6784608056
 21
118.4979236848
 31
0.0
  0
LINE
  5
1BD
330
1F
100
AcDbEntity
  8
0
  6
SLD-Gestrichelt
 62
     7
370
     0
100
AcDbLine
 10
154.728461488
 20
116.6179233394
 30
0.0
 11
154.728461488
 21
117.5479234359
 31
0.0
  0
LINE
  5
1BE
330
1F
100
AcDbEntity
  8
0
  6
SLD-Gestrichelt
 62
     7
370
     0
100
AcDbLine
 10
155.6784608056
 20
94.6179234586
 30
0.0
 11
155.6784608056
 21
92.7969233296
 31
0.0
  0
LINE
  5
1BF
330
1F
100
AcDbEntity
  8
0
  6
SLD-Gestrichelt
 62
     7
370
     0
100
AcDbLine
 10
154.728461488
 20
94.6179234586
 30
0.0
 11
154.728461488
 21
93.7469235785
 31
0.0
  0
ARC
  5
1C0
330
1F
100
AcDbEntity
  8
0
  6
SLD-Gestrichelt
 62
     7
370
     0
100
AcDbCircle
 10
208.2648672911
 20
99.9979731456
 30
0.0
 40
1.996646160126629
100
AcDbArc
 50
320.6061479236
 51
139.2988971105
  0
LWPOLYLINE
  5
1C1
330
1F
100
AcDbEntity
  8
0
  6
SLD-Gestrichelt
 62
     7
370
     0
100
AcDbPolyline
 90
        3
 70
   128
 43
0.0
 10
217.9372408082
 20
117.4601574592
 10
217.9453656663
 20
117.4715559162
 10
217.9678477933
 20
117.5010648719
  0
ARC
  5
1C2
330
1F
100
AcDbEntity
  8
0
  6
SLD-Gestrichelt
 62
     7
370
     0
100
AcDbCircle
 10
150.4291442074
 20
55.6718729567
 30
0.0
 40
85.24242414325339
100
AcDbArc
 50
39.7578018429
 51
42.3086117171
  0
ARC
  5
1C3
330
1F
100
AcDbEntity
  8
0
  6
SLD-Gestrichelt
 62
     7
370
     0
100
AcDbCircle
 10
218.0413805079
 20
113.247030311
 30
0.0
 40
3.700058893708937
100
AcDbArc
 50
235.7629978155
 51
325.7852710698
  0
LINE
  5
1C4
330
1F
100
AcDbEntity
  8
0
  6
SLD-Gestrichelt
 62
     7
370
     0
100
AcDbLine
 10
187.9284609695
 20
111.8679234921
 30
0.0
 11
187.9284609695
 21
99.3679233059
 31
0.0
  0
LINE
  5
1C5
330
1F
100
AcDbEntity
  8
0
  6
SLD-Gestrichelt
 62
     7
370
     0
100
AcDbLine
 10
190.4284604479
 20
111.8679234921
 30
0.0
 11
190.4284604479
 21
99.3679233059
 31
0.0
  0
LWPOLYLINE
  5
1C6
330
1F
100
AcDbEntity
  8
0
  6
SLD-Gestrichelt
 62
     7
370
     0
100
AcDbPolyline
 90
        2
 70
   128
 43
0.0
 10
190.4284604479
 20
99.3679233059
 10
190.4284604479
 20
99.3679233059
  0
LINE
  5
1C7
330
1F
100
AcDbEntity
  8
0
  6
SLD-Gestrichelt
 62
     7
370
     0
100
AcDbLine
 10
183.0784608264
 20
111.1179233692
 30
0.0
 11
183.0784608264
 21
100.1179234288
 31
0.0
  0
LINE
  5
1C8
330
1F
100
AcDbEntity
  8
0
  6
SLD-Gestrichelt
 62
     7
370
     0
100
AcDbLine
 10
182.5784616758
 20
99.6179233468
 30
0.0
 11
182.5784616758
 21
111.6045245133
 31
0.0
  0
ARC
  5
1C9
330
1F
100
AcDbEntity
  8
0
  6
SLD-Gestrichelt
 62
     7
370
     0
100
AcDbCircle
 10
220.1627721025
 20
102.7804125036
 30
0.0
 40
2.096394830114674
100
AcDbArc
 50
176.9518108416
 51
355.737980954
  0
CIRCLE
  5
1CA
330
1F
100
AcDbEntity
  8
0
  6
SLD-Gestrichelt
 62
     7
370
     0
100
AcDbCircle
 10
214.6423935062
 20
107.4636860961
 30
0.0
 40
3.069919128196699
  0
LWPOLYLINE
  5
1CB
330
1F
100
AcDbEntity
  8
0
  6
SLD-Gestrichelt
 62
     7
370
     0
100
AcDbPolyline
 90
        2
 70
   128
 43
0.0
 10
194.5784617801
 20
88.7179241679
 10
194.5784617801
 20
88.7179241679
  0
LINE
  5
1CC
330
1F
100
AcDbEntity
  8
0
  6
SLD-Gestrichelt
 62
     7
370
     0
100
AcDbLine
 10
187.9284609695
 20
100.1179234288
 30
0.0
 11
187.9284609695
 21
111.1045258283
 31
0.0
  0
LINE
  5
1CD
330
1F
100
AcDbEntity
  8
0
  6
SLD-Gestrichelt
 62
     7
370
     0
100
AcDbLine
 10
182.5784616758
 20
85.6429391704
 30
0.0
 11
182.5784616758
 21
88.7179241679
 31
0.0
  0
LINE
  5
1CE
330
1F
100
AcDbEntity
  8
0
  6
SLD-Gestrichelt
 62
     7
370
     0
100
AcDbLine
 10
187.0784614821
 20
88.7179241679
 30
0.0
 11
182.5784616758
 21
88.7179241679
 31
0.0
  0
LINE
  5
1CF
330
1F
100
AcDbEntity
  8
0
  6
SLD-Gestrichelt
 62
     7
370
     0
100
AcDbLine
 10
194.5784617801
 20
88.7179241679
 30
0.0
 11
191.6332379569
 21
88.7179241679
 31
0.0
  0
LINE
  5
1D0
330
1F
100
AcDbEntity
  8
0
  6
SLD-Gestrichelt
 62
     7
370
     0
100
AcDbLine
 10
191.6684605767
 20
88.1888006977
 30
0.0
 11
191.6684605767
 21
88.5050443164
 31
0.0
  0
LINE
  5
1D1
330
1F
100
AcDbEntity
  8
0
  6
SLD-Gestrichelt
 62
     7
370
     0
100
AcDbLine
 10
194.5784617801
 20
88.7179241679
 30
0.0
 11
194.5784617801
 21
87.0138907037
 31
0.0
  0
LINE
  5
1D2
330
1F
100
AcDbEntity
  8
0
  6
SLD-Gestrichelt
 62
     7
370
     0
100
AcDbLine
 10
189.6236831908
 20
88.7179241679
 30
0.0
 11
187.0784614821
 21
88.7179241679
 31
0.0
  0
LINE
  5
1D3
330
1F
100
AcDbEntity
  8
0
  6
SLD-Gestrichelt
 62
     7
370
     0
100
AcDbLine
 10
189.5884615024
 20
88.5050443164
 30
0.0
 11
189.5884615024
 21
88.1888006977
 31
0.0
  0
LINE
  5
1D4
330
1F
100
AcDbEntity
  8
0
  6
SLD-Gestrichelt
 62
     7
370
     0
100
AcDbLine
 10
222.2533695985
 20
102.6246132958
 30
0.0
 11
222.2565733482
 21
102.6849220204
 31
0.0
  0
LINE
  5
1D5
330
1F
100
AcDbEntity
  8
0
  6
SLD-Gestrichelt
 62
     7
370
     0
100
AcDbLine
 10
222.4354282607
 20
106.0518893635
 30
0.0
 11
222.5715019395
 21
108.6134537752
 31
0.0
  0
LINE
  5
1D6
330
1F
100
AcDbEntity
  8
0
  6
SLD-Gestrichelt
 62
     7
370
     0
100
AcDbLine
 10
222.5715019395
 20
108.6134537752
 30
0.0
 11
223.1044419696
 21
109.9368941202
 31
0.0
  0
ELLIPSE
  5
1D7
330
1F
100
AcDbEntity
  8
0
  6
SLD-Gestrichelt
 62
     7
370
     0
100
AcDbEllipse
 10
152.6226944711
 20
105.617923399
 30
0.0
 11
12.26424774976735
 21
0.0
 31
0.0
210
0.0
220
0.0
230
1.0
 40
0.8164965809
 41
1.318982952866322
 42
1.398241670070614
  0
LINE
  5
1D8
330
1F
100
AcDbEntity
  8
0
  6
SLD-Gestrichelt
 62
     7
370
     0
100
AcDbLine
 10
154.728461488
 20
116.6179233394
 30
0.0
 11
154.728461488
 21
115.4829298309
 31
0.0
  0
ELLIPSE
  5
1D9
330
1F
100
AcDbEntity
  8
0
  6
SLD-Gestrichelt
 62
     7
370
     0
100
AcDbEllipse
 10
152.6226944711
 20
105.617923399
 30
0.0
 11
12.26424774976735
 21
-1.421085471520200E-14
 31
0.0
210
0.0
220
0.0
230
1.0
 40
0.8164965809
 41
4.884943637108988
 42
4.964202354313278
  0
LINE
  5
1DA
330
1F
100
AcDbEntity
  8
0
  6
SLD-Gestrichelt
 62
     7
370
     0
100
AcDbLine
 10
154.728461488
 20
94.6179234586
 30
0.0
 11
154.728461488
 21
95.7529169671
 31
0.0
  0
LINE
  5
1DB
330
1F
100
AcDbEntity
  8
0
  6
SLD-Gestrichelt
 62
     7
370
     0
100
AcDbLine
 10
189.8368051861
 20
122.5179226301
 30
0.0
 11
187.0784614821
 21
122.5179226301
 31
0.0
  0
LINE
  5
1DC
330
1F
100
AcDbEntity
  8
0
  6
SLD-Gestrichelt
 62
     7
370
     0
100
AcDbLine
 10
189.5884615024
 20
123.0205276213
 30
0.0
 11
189.5884615024
 21
123.3316005371
 31
0.0
  0
LINE
  5
1DD
330
1F
100
AcDbEntity
  8
0
  6
SLD-Gestrichelt
 62
     7
370
     0
100
AcDbLine
 10
187.0784614821
 20
122.5179226301
 30
0.0
 11
182.5784616758
 21
122.5179226301
 31
0.0
  0
LINE
  5
1DE
330
1F
100
AcDbEntity
  8
0
  6
SLD-Gestrichelt
 62
     7
370
     0
100
AcDbLine
 10
194.5785232474
 20
122.5179226301
 30
0.0
 11
191.4201159616
 21
122.5179226301
 31
0.0
  0
LINE
  5
1DF
330
1F
100
AcDbEntity
  8
0
  6
SLD-Gestrichelt
 62
     7
370
     0
100
AcDbLine
 10
194.5784617801
 20
122.5294579915
 30
0.0
 11
194.5784617801
 21
124.488800501
 31
0.0
  0
LINE
  5
1E0
330
1F
100
AcDbEntity
  8
0
  6
SLD-Gestrichelt
 62
     7
370
     0
100
AcDbLine
 10
191.6684605767
 20
123.3316005371
 30
0.0
 11
191.6684605767
 21
123.0205276213
 31
0.0
  0
LINE
  5
1E1
330
1F
100
AcDbEntity
  8
0
  6
SLD-Gestrichelt
 62
     7
370
     0
100
AcDbLine
 10
228.2708496441
 20
116.4023026056
 30
0.0
 11
227.737909614
 21
115.0788624934
 31
0.0
  0
LINE
  5
1E2
330
1F
100
AcDbEntity
  8
0
  6
SLD-Gestrichelt
 62
     7
370
     0
100
AcDbLine
 10
160.8284613703
 20
94.6179234586
 30
0.0
 11
160.8284613703
 21
95.59373345
 31
0.0
  0
LINE
  5
1E3
330
1F
100
AcDbEntity
  8
0
  6
SLD-Gestrichelt
 62
     7
370
     0
100
AcDbLine
 10
155.6784608056
 20
94.6179234586
 30
0.0
 11
155.6784608056
 21
95.9200176574
 31
0.0
  0
LINE
  5
1E4
330
1F
100
AcDbEntity
  8
0
  6
SLD-Gestrichelt
 62
     7
370
     0
100
AcDbLine
 10
158.3284609605
 20
116.6179233394
 30
0.0
 11
158.3284609605
 21
115.642113348
 31
0.0
  0
LINE
  5
1E5
330
1F
100
AcDbEntity
  8
0
  6
SLD-Gestrichelt
 62
     7
370
     0
100
AcDbLine
 10
155.6784608056
 20
116.6179233394
 30
0.0
 11
155.6784608056
 21
115.3158291406
 31
0.0
  0
LINE
  5
1E6
330
1F
100
AcDbEntity
  8
0
  6
SLD-Gestrichelt
 62
     7
370
     0
100
AcDbLine
 10
207.8842133869
 20
96.490945404
 30
0.0
 11
209.8078787913
 21
98.7308064639
 31
0.0
  0
LWPOLYLINE
  5
1E7
330
1F
100
AcDbEntity
  8
0
  6
SLD-Gestrichelt
 62
     7
370
     0
100
AcDbPolyline
 90
       12
 70
   128
 43
0.0
 10
221.4199327518
 20
114.6747094742
 10
221.2730184783
 20
115.2176863677
 10
221.2548651387
 20
115.8380636177
 10
221.3582158674
 20
116.3479236118
 10
221.4714609672
 20
116.6220146395
 10
221.639847814
 20
116.8873521663
 10
221.8149141063
 20
117.0718089841
 10
222.0401339819
 20
117.2252406529
 10
222.3867498924
 20
117.3348377622
 10
222.6954646994
 20
117.3336978234
 10
222.9790822257
 20
117.2590141348
 10
223.3327203085
 20
117.0684357337
  0
LWPOLYLINE
  5
1E8
330
1F
100
AcDbEntity
  8
0
  6
SLD-Gestrichelt
 62
     7
370
     0
100
AcDbPolyline
 90
       11
 70
   128
 43
0.0
 10
223.3327203085
 20
117.0684357337
 10
223.1083013703
 20
116.316197177
 10
222.9532510628
 20
115.7745446242
 10
222.8805780996
 20
115.5271732412
 10
222.848719417
 20
115.432832127
 10
222.8135303249
 20
115.355958899
 10
222.782554536
 20
115.3143772087
 10
222.7368377735
 20
115.2764416463
 10
222.5349419405
 20
115.1739793993
 10
221.7472889115
 20
114.8250398389
 10
221.4199327518
 20
114.6747094742
  0
ELLIPSE
  5
1E9
330
1F
100
AcDbEntity
  8
0
  6
SLD-Gestrichelt
 62
     7
370
     0
100
AcDbEllipse
 10
293.8525320237
 20
172.4180879614
 30
0.0
 11
87.12346081385432
 21
109.0290679220349
 31
0.0
210
0.0
220
0.0
230
0.9999999999999998
 40
0.179130553
 41
2.189957715225885
 42
2.302684583458495
  0
LINE
  5
1EA
330
1F
100
AcDbEntity
  8
0
  6
SLD-Gestrichelt
 62
     7
370
     0
100
AcDbLine
 10
228.5553761412
 20
130.4676138959
 30
0.0
 11
218.8917793919
 21
118.3742850251
 31
0.0
  0
ELLIPSE
  5
1EB
330
1F
100
AcDbEntity
  8
0
  6
SLD-Gestrichelt
 62
     7
370
     0
100
AcDbEllipse
 10
226.3984344336
 20
88.0038863323
 30
0.0
 11
2.442407332964535
 21
43.05580094300961
 31
0.0
210
0.0
220
0.0
230
1.0
 40
0.0348700908
 41
0.1680194637823212
 42
0.6682232560623598
  0
ELLIPSE
  5
1EC
330
1F
100
AcDbEntity
  8
0
  6
SLD-Gestrichelt
 62
     7
370
     0
100
AcDbEllipse
 10
216.7348403827
 20
75.9105575973
 30
0.0
 11
2.442407332964792
 21
43.05580094300993
 31
0.0
210
0.0
220
0.0
230
1.0
 40
0.0348700908
 41
6.143181781973607
 42
6.451204770962323
  0
LWPOLYLINE
  5
1ED
330
1F
100
AcDbEntity
  8
0
  6
SLD-Gestrichelt
 62
     7
370
     0
100
AcDbPolyline
 90
       52
 70
   128
 43
0.0
 10
166.4843107228
 20
91.3787975139
 10
166.7128349309
 20
91.4120988152
 10
167.0929039483
 20
91.4544358081
 10
167.4945498471
 20
91.4835983119
 10
167.8661345159
 20
91.4995863266
 10
168.176225352
 20
91.5023998521
 10
169.0025291991
 20
91.4522350929
 10
169.4540967819
 20
91.3972563274
 10
169.6800496084
 20
91.3622926153
 10
169.901223353
 20
91.3223472587
 10
170.335865545
 20
91.2305235095
 10
170.5815945406
 20
91.1691810168
 10
170.7554557015
 20
91.1221138365
 10
170.887016191
 20
91.0846504546
 10
170.8885226053
 20
91.0845098249
 10
170.8899591704
 20
91.0843766458
 10
170.7648255051
 20
91.1192323244
 10
170.6676017147
 20
91.1452525459
 10
170.6101079126
 20
91.1604098208
 10
170.5791297954
 20
91.168526297
 10
170.5630826418
 20
91.1727181799
 10
170.5549195995
 20
91.1748481146
 10
170.5508031537
 20
91.1759209982
 10
170.5487360832
 20
91.1764593027
 10
170.5477004525
 20
91.1767293862
 10
170.5471821715
 20
91.176864428
 10
170.5469227982
 20
91.1769324146
 10
170.5467933443
 20
91.1769659422
 10
170.5467281517
 20
91.176982706
 10
170.5466960211
 20
91.1769910879
 10
170.546679723
 20
91.1769957445
 10
170.5466718067
 20
91.1769976071
 10
170.5466634248
 20
91.1769994698
 10
170.4867705357
 20
91.1928636185
 10
170.3718378794
 20
91.221788635
 10
170.1877112155
 20
91.263773588
 10
169.917352463
 20
91.3188203401
 10
169.4760308255
 20
91.3943124167
 10
169.0921471109
 20
91.4450937114
 10
168.2198014696
 20
91.5002419777
 10
167.7793673825
 20
91.4994252078
 10
167.6365406838
 20
91.4949474088
 10
167.4969815303
 20
91.4883657522
 10
167.361483409
 20
91.4796811692
 10
167.1190424477
 20
91.4584172122
 10
166.931026115
 20
91.4390391833
 10
166.7229369868
 20
91.4138292126
 10
166.4888313626
 20
91.3794391952
 10
166.3747527291
 20
91.3597324095
 10
166.3668541823
 20
91.3593114517
 10
166.3604252626
 20
91.3589696563
 10
166.4843107228
 20
91.3787975139
  0
LWPOLYLINE
  5
1EE
330
1F
100
AcDbEntity
  8
0
  6
SLD-Gestrichelt
 62
     7
370
     0
100
AcDbPolyline
 90
       47
 70
   128
 43
0.0
 10
167.0893975188
 20
119.7809751309
 10
166.7128321369
 20
119.8236772022
 10
166.4868914177
 20
119.8566069058
 10
166.4843526323
 20
119.8569766409
 10
166.3605006997
 20
119.8768147431
 10
166.3331179534
 20
119.8823710135
 10
166.3290722881
 20
119.8831924401
 10
166.3743988265
 20
119.8761078692
 10
166.419197305
 20
119.8681087396
 10
166.4879410182
 20
119.8564280919
 10
166.5867478241
 20
119.841065926
 10
166.721768177
 20
119.822022242
 10
166.9536288482
 20
119.7942045681
 10
167.1571861607
 20
119.7736800812
 10
167.2431612042
 20
119.7658392764
 10
167.3114876849
 20
119.7599998839
 10
167.3604258922
 20
119.7561609722
 10
167.7784355943
 20
119.7364113457
 10
168.219222187
 20
119.7355917818
 10
168.6631133434
 20
119.7537032119
 10
169.0928241824
 20
119.7907447047
 10
169.2750579332
 20
119.8129781685
 10
169.4758757603
 20
119.8413741938
 10
169.6913246651
 20
119.8759327806
 10
169.9159354557
 20
119.9166539288
 10
170.2120694918
 20
119.9773146934
 10
170.4029328775
 20
120.021616777
 10
170.4688709815
 20
120.0382939703
 10
170.5152555023
 20
120.0504831202
 10
170.5443230112
 20
120.0581823639
 10
170.7634264258
 20
120.1160566113
 10
170.8894809362
 20
120.1510613016
 10
170.927616733
 20
120.1629356644
 10
170.9284465414
 20
120.1631936408
 10
170.8914264691
 20
120.1518175355
 10
170.7694653542
 20
120.1165585942
 10
170.5440780734
 20
120.0574168167
 10
170.2498253089
 20
119.9889236293
 10
169.902438729
 20
119.9207927264
 10
169.5066168559
 20
119.8512098915
 10
169.1051665348
 20
119.7885560966
 10
168.6826967289
 20
119.7499602265
 10
168.2162992311
 20
119.7330567218
 10
167.7846028124
 20
119.7363461531
 10
167.7834442471
 20
119.7364020325
 10
167.4653375176
 20
119.7518647812
 10
167.0893975188
 20
119.7809751309
  0
LINE
  5
1EF
330
1F
100
AcDbEntity
  8
0
  6
SLD-Gestrichelt
 62
     7
370
     0
100
AcDbLine
 10
199.7284614135
 20
108.1179233431
 30
0.0
 11
199.7284614135
 21
103.1179234549
 31
0.0
  0
ARC
  5
1F0
330
1F
100
AcDbEntity
  8
0
  6
SLD-Gestrichelt
 62
     7
370
     0
100
AcDbCircle
 10
198.3521525647
 20
105.617923399
 30
0.0
 40
2.507447557002389
100
AcDbArc
 50
303.2907851548
 51
56.7092148452
  0
LWPOLYLINE
  5
1F1
330
1F
100
AcDbEntity
  8
0
  6
SLD-Gestrichelt
 62
     7
370
     0
100
AcDbPolyline
 90
       25
 70
   128
 43
0.0
 10
199.7284614135
 20
107.7138879034
 10
199.3762519796
 20
107.6907992526
 10
199.0272556086
 20
107.6370130456
 10
198.7848789086
 20
107.5698670163
 10
198.5580552955
 20
107.4704320333
 10
198.3656496395
 20
107.3415466515
 10
198.1996041377
 20
107.1769251419
 10
198.0668031265
 20
106.9869475602
 10
197.9591440995
 20
106.7682600976
 10
197.8665836741
 20
106.4926535171
 10
197.8024621148
 20
106.1895042938
 10
197.7658425112
 20
105.8536907065
 10
197.7603346695
 20
105.5019824696
 10
197.7867302139
 20
105.1573315915
 10
197.8480578055
 20
104.8160189227
 10
197.9431849559
 20
104.5075425343
 10
198.0826691379
 20
104.2224302353
 10
198.2564967711
 20
103.9952365379
 10
198.3646829267
 20
103.8950902573
 10
198.487263604
 20
103.8069290505
 10
198.713573127
 20
103.6925868527
 10
198.9761259993
 20
103.6104731891
 10
199.1550870825
 20
103.5744463722
 10
199.3406698693
 20
103.5488536279
 10
199.7284614135
 20
103.5219588946
  0
LINE
  5
1F2
330
1F
100
AcDbEntity
  8
0
  6
SLD-Gestrichelt
 62
     7
370
     0
100
AcDbLine
 10
190.4284604479
 20
103.1179234549
 30
0.0
 11
190.4284604479
 21
108.1179233431
 31
0.0
  0
CIRCLE
  5
1F3
330
1F
100
AcDbEntity
  8
0
  6
SLD-Gestrichelt
 62
     7
370
     0
100
AcDbCircle
 10
214.6326666777
 20
107.3979685668
 30
0.0
 40
2.48344510742943
  0
LWPOLYLINE
  5
1F4
330
1F
100
AcDbEntity
  8
0
  6
SLD-Gestrichelt
 62
     7
370
     0
100
AcDbPolyline
 90
       53
 70
   128
 43
0.0
 10
211.7480286051
 20
105.7452628727
 10
211.7753685106
 20
105.617923399
 10
211.859478115
 20
105.3212504182
 10
211.9663119902
 20
105.0379245123
 10
212.0418869545
 20
104.870227892
 10
212.1212542643
 20
104.7130014329
 10
212.288113742
 20
104.4256777666
 10
212.4143042256
 20
104.2353241635
 10
212.5368774523
 20
104.0652270592
 10
212.6527786841
 20
103.9122265927
 10
212.7534732808
 20
103.778364223
 10
212.8146648993
 20
103.6876327987
 10
212.8514074375
 20
103.6109113763
 10
212.8542982628
 20
103.561280265
 10
212.822886615
 20
103.5282469518
 10
212.7547957589
 20
103.5179923917
 10
212.6490273167
 20
103.5335687618
 10
212.5004441132
 20
103.5833693738
 10
212.3307347883
 20
103.6681726971
 10
212.1036522676
 20
103.8263301295
 10
211.9162999679
 20
104.0077184723
 10
211.8819937696
 20
104.0409297846
 10
211.6913594891
 20
104.2974210275
 10
211.5938313891
 20
104.4876366784
 10
211.5338914682
 20
104.6045379178
 10
211.4320941855
 20
104.9208370084
 10
211.3779247393
 20
105.2695315436
 10
211.3756746639
 20
105.5899228529
 10
211.4179082801
 20
105.9185743495
 10
211.4991233339
 20
106.2295987201
 10
211.6176918735
 20
106.531434895
 10
211.7723808278
 20
106.8235156988
 10
211.9516194452
 20
107.0910892147
 10
212.0926403095
 20
107.270292209
 10
212.2283675362
 20
107.4271925888
 10
212.3155318786
 20
107.5248439727
 10
212.3831719746
 20
107.6042705379
 10
212.4228314151
 20
107.6601918019
 10
212.4366820444
 20
107.6967371325
 10
212.4150567342
 20
107.7178017865
 10
212.3565994789
 20
107.7044079709
 10
212.2817323198
 20
107.6651056926
 10
212.1956296851
 20
107.6017913572
 10
212.102720945
 20
107.5130826491
 10
212.0085903098
 20
107.3980861972
 10
211.9012274434
 20
107.2239232878
 10
211.8048355569
 20
106.9996088906
 10
211.7500402619
 20
106.8090378237
 10
211.7106490423
 20
106.5841202787
 10
211.6954982866
 20
106.394092755
 10
211.6958037604
 20
106.1840285245
 10
211.7129847993
 20
105.9696679283
 10
211.7480286051
 20
105.7452628727
  0
LWPOLYLINE
  5
1F5
330
1F
100
AcDbEntity
  8
0
  6
SLD-Gestrichelt
 62
     7
370
     0
100
AcDbPolyline
 90
        2
 70
   128
 43
0.0
 10
211.7753685106
 20
105.617923399
 10
211.7753685106
 20
105.617923399
  0
CIRCLE
  5
1F6
330
1F
100
AcDbEntity
  8
0
  6
SLD-Gestrichelt
 62
     7
370
     0
100
AcDbCircle
 10
213.6114677475
 20
104.8620412447
 30
0.0
 40
2.483445087290665
  0
LWPOLYLINE
  5
1F7
330
1F
100
AcDbEntity
  8
0
  6
SLD-Gestrichelt
 62
     7
370
     0
100
AcDbPolyline
 90
       54
 70
   128
 43
0.0
 10
216.4565608491
 20
105.2673882793
 10
216.5089086284
 20
105.617923399
 10
216.5119633664
 20
105.937918094
 10
216.4696962227
 20
106.2599182176
 10
216.3860858072
 20
106.5565259476
 10
216.2606292059
 20
106.8367554969
 10
216.1024533798
 20
107.0841803146
 10
215.9139909436
 20
107.3005178175
 10
215.6963445832
 20
107.4845659011
 10
215.4690422703
 20
107.6214525081
 10
215.3303869654
 20
107.6796278055
 10
215.2074374844
 20
107.7120408579
 10
215.1168682267
 20
107.7163987491
 10
215.0626950552
 20
107.6939124312
 10
215.0496602644
 20
107.6461658511
 10
215.0737554421
 20
107.5774817425
 10
215.1187308718
 20
107.5026376336
 10
215.17966172
 20
107.4163920409
 10
215.3345406641
 20
107.2093362152
 10
215.4311933209
 20
107.0762976003
 10
215.53249514
 20
106.928699154
 10
215.6374849965
 20
106.7633462069
 10
215.7431640317
 20
106.5797474864
 10
215.8566251983
 20
106.3558556768
 10
215.9648411562
 20
106.1030729022
 10
216.0441041578
 20
105.8770406514
 10
216.1121465851
 20
105.6292245191
 10
216.1531918337
 20
105.4251930316
 10
216.1810421039
 20
105.2134497138
 10
216.1929071535
 20
105.0114732632
 10
216.1895990957
 20
104.8136272864
 10
216.1668673743
 20
104.5943312045
 10
216.1260642697
 20
104.393831424
 10
216.044003575
 20
104.1473262874
 10
215.9416847517
 20
103.9441239252
 10
215.85318303
 20
103.8142349269
 10
215.7614999105
 20
103.7084819679
 10
215.6691015352
 20
103.6246532738
 10
215.5817993571
 20
103.5639797035
 10
215.5052669932
 20
103.5272597499
 10
215.5052669932
 20
103.5272597499
 10
215.4636070718
 20
103.5208266392
 10
215.4506579627
 20
103.5188270896
 10
215.4342666854
 20
103.5350525915
 10
215.4483184804
 20
103.5762456875
 10
215.4870764007
 20
103.6302807904
 10
215.5528240492
 20
103.7066158303
 10
215.6372689296
 20
103.799863921
 10
215.7375425686
 20
103.9126125095
 10
215.9049273123
 20
104.1172181419
 10
216.0749532868
 20
104.3603135902
 10
216.2299104621
 20
104.6338650328
 10
216.3611077358
 20
104.9393253913
 10
216.4565608491
 20
105.2673882793
  0
LWPOLYLINE
  5
1F8
330
1F
100
AcDbEntity
  8
0
  6
SLD-Gestrichelt
 62
     7
370
     0
100
AcDbPolyline
 90
        2
 70
   128
 43
0.0
 10
182.5784616758
 20
88.7179241679
 10
182.5784616758
 20
88.7179241679
  0
LINE
  5
1F9
330
1F
100
AcDbEntity
  8
0
  6
SLD-Gestrichelt
 62
     7
370
     0
100
AcDbLine
 10
182.5784616758
 20
85.6429391704
 30
0.0
 11
182.5784616758
 21
88.7179241679
 31
0.0
  0
LINE
  5
1FA
330
1F
100
AcDbEntity
  8
0
  6
SLD-Gestrichelt
 62
     7
370
     0
100
AcDbLine
 10
182.5784616758
 20
88.7179241679
 30
0.0
 11
187.0784614821
 21
88.7179241679
 31
0.0
  0
CIRCLE
  5
1FB
330
1F
100
AcDbEntity
  8
0
  6
SLD-Gestrichelt
 62
     7
370
     0
100
AcDbCircle
 10
223.6318817729
 20
117.5525411764
 30
0.0
 40
2.388461573060227
  0
LINE
  5
1FC
330
1F
100
AcDbEntity
  8
0
  6
SLD-Gestrichelt
 62
     7
370
     0
100
AcDbLine
 10
222.5715019395
 20
108.6134537752
 30
0.0
 11
227.737909614
 21
115.0788624934
 31
0.0
  0
LINE
  5
1FD
330
1F
100
AcDbEntity
  8
0
  6
SLD-Gestrichelt
 62
     7
370
     0
100
AcDbLine
 10
227.737909614
 20
115.0788624934
 30
0.0
 11
228.5553761412
 21
130.4676138959
 31
0.0
  0
LINE
  5
1FE
330
1F
100
AcDbEntity
  8
0
  6
SLD-Gestrichelt
 62
     7
370
     0
100
AcDbLine
 10
218.8917793919
 20
118.3742850251
 30
0.0
 11
218.0693433274
 21
102.891890069
 31
0.0
  0
LINE
  5
1FF
330
1F
100
AcDbEntity
  8
0
  6
SLD-Gestrichelt
 62
     7
370
     0
100
AcDbLine
 10
158.3284609605
 20
116.6179233394
 30
0.0
 11
158.3284609605
 21
115.642113348
 31
0.0
  0
LINE
  5
200
330
1F
100
AcDbEntity
  8
0
  6
SLD-Gestrichelt
 62
     7
370
     0
100
AcDbLine
 10
160.8284613703
 20
94.6179234586
 30
0.0
 11
160.8284613703
 21
95.59373345
 31
0.0
  0
LINE
  5
201
330
1F
100
AcDbEntity
  8
0
  6
SLD-Gestrichelt
 62
     7
370
     0
100
AcDbLine
 10
160.8284613703
 20
94.6179234586
 30
0.0
 11
160.8284613703
 21
92.01434694
 31
0.0
  0
LINE
  5
202
330
1F
100
AcDbEntity
  8
0
  6
SLD-Gestrichelt
 62
     7
370
     0
100
AcDbLine
 10
158.3284609605
 20
116.6179233394
 30
0.0
 11
158.3284609605
 21
119.1754478193
 31
0.0
  0
LINE
  5
203
330
1F
100
AcDbEntity
  8
0
  6
SLD-Gestrichelt
 62
     7
370
     0
100
AcDbLine
 10
191.6684605767
 20
123.0205276213
 30
0.0
 11
191.6684605767
 21
88.5050443164
 31
0.0
  0
ARC
  5
204
330
1F
100
AcDbEntity
  8
0
  6
SLD-Gestrichelt
 62
     7
370
     0
100
AcDbCircle
 10
191.040044561
 20
123.0183794552
 30
0.0
 40
0.6284196872648536
100
AcDbArc
 50
307.2148147453
 51
0.1958581042
  0
LWPOLYLINE
  5
205
330
1F
100
AcDbEntity
  8
0
  6
SLD-Gestrichelt
 62
     7
370
     0
100
AcDbPolyline
 90
        3
 70
   128
 43
0.0
 10
191.6332379569
 20
88.7179241679
 10
191.6607045223
 20
88.6060835026
 10
191.6684605767
 20
88.5050443164
  0
LINE
  5
206
330
1F
100
AcDbEntity
  8
0
  6
SLD-Gestrichelt
 62
     7
370
     0
100
AcDbLine
 10
191.0684615959
 20
122.5179226301
 30
0.0
 11
191.4201159616
 21
122.5179226301
 31
0.0
  0
LINE
  5
207
330
1F
100
AcDbEntity
  8
0
  6
SLD-Gestrichelt
 62
     7
370
     0
100
AcDbLine
 10
191.0684615959
 20
88.7179241679
 30
0.0
 11
191.6332379569
 21
88.7179241679
 31
0.0
  0
ARC
  5
208
330
1F
100
AcDbEntity
  8
0
  6
SLD-Gestrichelt
 62
     7
370
     0
100
AcDbCircle
 10
190.2162212867
 20
123.0180544985
 30
0.0
 40
0.6277646558949662
100
AcDbArc
 50
179.774278685
 51
232.8148777969
  0
LINE
  5
209
330
1F
100
AcDbEntity
  8
0
  6
SLD-Gestrichelt
 62
     7
370
     0
100
AcDbLine
 10
189.5884615024
 20
123.0205276213
 30
0.0
 11
189.5884615024
 21
88.5050443164
 31
0.0
  0
LWPOLYLINE
  5
20A
330
1F
100
AcDbEntity
  8
0
  6
SLD-Gestrichelt
 62
     7
370
     0
100
AcDbPolyline
 90
        3
 70
   128
 43
0.0
 10
189.5884615024
 20
88.5050443164
 10
189.5962175568
 20
88.6060835026
 10
189.6236831908
 20
88.7179241679
  0
LINE
  5
20B
330
1F
100
AcDbEntity
  8
0
  6
SLD-Gestrichelt
 62
     7
370
     0
100
AcDbLine
 10
189.8368051861
 20
122.5179226301
 30
0.0
 11
190.1884614144
 21
122.5179226301
 31
0.0
  0
LINE
  5
20C
330
1F
100
AcDbEntity
  8
0
  6
SLD-Gestrichelt
 62
     7
370
     0
100
AcDbLine
 10
189.6236831908
 20
88.7179241679
 30
0.0
 11
190.1884614144
 21
88.7179241679
 31
0.0
  0
LINE
  5
20D
330
1F
100
AcDbEntity
  8
0
  6
SLD-Gestrichelt
 62
     7
370
     0
100
AcDbLine
 10
155.6784608056
 20
116.6179233394
 30
0.0
 11
155.6784608056
 21
115.3158291406
 31
0.0
  0
LINE
  5
20E
330
1F
100
AcDbEntity
  8
0
  6
SLD-Gestrichelt
 62
     7
370
     0
100
AcDbLine
 10
155.6784608056
 20
116.6179233394
 30
0.0
 11
155.6784608056
 21
118.4906640253
 31
0.0
  0
LINE
  5
20F
330
1F
100
AcDbEntity
  8
0
  6
SLD-Gestrichelt
 62
     7
370
     0
100
AcDbLine
 10
155.6784608056
 20
94.6179234586
 30
0.0
 11
155.6784608056
 21
95.9200176574
 31
0.0
  0
LINE
  5
210
330
1F
100
AcDbEntity
  8
0
  6
SLD-Gestrichelt
 62
     7
370
     0
100
AcDbLine
 10
155.6784608056
 20
94.6179234586
 30
0.0
 11
155.6784608056
 21
92.802837228
 31
0.0
  0
ELLIPSE
  5
211
330
1F
100
AcDbEntity
  8
0
  6
SLD-Gestrichelt
 62
     7
370
     0
100
AcDbEllipse
 10
152.6226944711
 20
105.617923399
 30
0.0
 11
12.26424774976738
 21
0.0
 31
0.0
210
0.0
220
0.0
230
1.0
 40
0.8164965809
 41
1.31898295286632
 42
1.398241670070616
  0
ELLIPSE
  5
212
330
1F
100
AcDbEntity
  8
0
  6
SLD-Gestrichelt
 62
     7
370
     0
100
AcDbEllipse
 10
152.6226944711
 20
105.617923399
 30
0.0
 11
12.26424774976738
 21
0.0
 31
0.0
210
0.0
220
0.0
230
1.0
 40
0.8164965809
 41
4.884943637108984
 42
4.964202354313275
  0
LINE
  5
213
330
1F
100
AcDbEntity
  8
0
  6
SLD-Gestrichelt
 62
     7
370
     0
100
AcDbLine
 10
154.728461488
 20
115.4829298309
 30
0.0
 11
154.728461488
 21
95.7529169671
 31
0.0
  0
LINE
  5
214
330
1F
100
AcDbEntity
  8
0
  6
SLD-Gestrichelt
 62
     7
370
     0
100
AcDbLine
 10
154.728461488
 20
94.6179234586
 30
0.0
 11
154.728461488
 21
95.7529169671
 31
0.0
  0
LINE
  5
215
330
1F
100
AcDbEntity
  8
0
  6
SLD-Gestrichelt
 62
     7
370
     0
100
AcDbLine
 10
154.728461488
 20
94.6179234586
 30
0.0
 11
154.728461488
 21
93.7520998693
 31
0.0
  0
LINE
  5
216
330
1F
100
AcDbEntity
  8
0
  6
SLD-Gestrichelt
 62
     7
370
     0
100
AcDbLine
 10
154.728461488
 20
116.6179233394
 30
0.0
 11
154.728461488
 21
115.4829298309
 31
0.0
  0
LINE
  5
217
330
1F
100
AcDbEntity
  8
0
  6
SLD-Gestrichelt
 62
     7
370
     0
100
AcDbLine
 10
154.728461488
 20
116.6179233394
 30
0.0
 11
154.728461488
 21
117.5423960365
 31
0.0
  0
LINE
  5
218
330
1F
100
AcDbEntity
  8
0
  6
SLD-Gestrichelt
 62
     7
370
     0
100
AcDbLine
 10
190.1884614144
 20
122.5179226301
 30
0.0
 11
191.0684615959
 21
122.5179226301
 31
0.0
  0
LINE
  5
219
330
1F
100
AcDbEntity
  8
0
  6
SLD-Gestrichelt
 62
     7
370
     0
100
AcDbLine
 10
190.1884614144
 20
88.7179241679
 30
0.0
 11
191.0684615959
 21
88.7179241679
 31
0.0
  0
LINE
  5
21A
330
1F
100
AcDbEntity
  8
0
  6
SLD-Gestrichelt
 62
     7
370
     0
100
AcDbLine
 10
194.5784617801
 20
124.488800501
 30
0.0
 11
194.5784617801
 21
87.0138907037
 31
0.0
  0
ARC
  5
21B
330
1F
100
AcDbEntity
  8
0
  6
SLD-Gestrichelt
 62
     7
370
     0
100
AcDbCircle
 10
193.9691721233
 20
124.4958399733
 30
0.0
 40
0.6093303209641194
100
AcDbArc
 50
359.3380584991
 51
89.126532193
  0
ARC
  5
21C
330
1F
100
AcDbEntity
  8
0
  6
SLD-Gestrichelt
 62
     7
370
     0
100
AcDbCircle
 10
193.9655901118
 20
87.0018924139
 30
0.0
 40
0.6129891033281305
100
AcDbArc
 50
271.2031178686
 51
1.1215456616
  0
LINE
  5
21D
330
1F
100
AcDbEntity
  8
0
  6
SLD-Gestrichelt
 62
     7
370
     0
100
AcDbLine
 10
191.6684605767
 20
123.0205276213
 30
0.0
 11
191.6684605767
 21
123.3316005371
 31
0.0
  0
LWPOLYLINE
  5
21E
330
1F
100
AcDbEntity
  8
0
  6
SLD-Gestrichelt
 62
     7
370
     0
100
AcDbPolyline
 90
        3
 70
   128
 43
0.0
 10
191.6684605767
 20
123.3316005371
 10
192.5975368013
 20
124.9876075587
 10
192.6636215885
 20
125.1050994895
  0
LINE
  5
21F
330
1F
100
AcDbEntity
  8
0
  6
SLD-Gestrichelt
 62
     7
370
     0
100
AcDbLine
 10
194.5784617801
 20
124.488800501
 30
0.0
 11
194.5784617801
 21
122.5294579915
 31
0.0
  0
LINE
  5
220
330
1F
100
AcDbEntity
  8
0
  6
SLD-Gestrichelt
 62
     7
370
     0
100
AcDbLine
 10
192.6636215885
 20
125.1050994895
 30
0.0
 11
193.9784609367
 21
125.1050994895
 31
0.0
  0
LINE
  5
221
330
1F
100
AcDbEntity
  8
0
  6
SLD-Gestrichelt
 62
     7
370
     0
100
AcDbLine
 10
191.4201159616
 20
122.5179226301
 30
0.0
 11
194.5785232474
 21
122.5179226301
 31
0.0
  0
LWPOLYLINE
  5
222
330
1F
100
AcDbEntity
  8
0
  6
SLD-Gestrichelt
 62
     7
370
     0
100
AcDbPolyline
 90
        3
 70
   128
 43
0.0
 10
188.5933014219
 20
125.1050994895
 10
188.6593852778
 20
124.9876075587
 10
189.5884615024
 20
123.3316005371
  0
LINE
  5
223
330
1F
100
AcDbEntity
  8
0
  6
SLD-Gestrichelt
 62
     7
370
     0
100
AcDbLine
 10
189.5884615024
 20
123.3316005371
 30
0.0
 11
189.5884615024
 21
123.0205276213
 31
0.0
  0
LINE
  5
224
330
1F
100
AcDbEntity
  8
0
  6
SLD-Gestrichelt
 62
     7
370
     0
100
AcDbLine
 10
187.0784614821
 20
122.5179226301
 30
0.0
 11
189.8368051861
 21
122.5179226301
 31
0.0
  0
LINE
  5
225
330
1F
100
AcDbEntity
  8
0
  6
SLD-Gestrichelt
 62
     7
370
     0
100
AcDbLine
 10
191.6684605767
 20
123.3316005371
 30
0.0
 11
191.6684605767
 21
88.1888006977
 31
0.0
  0
LINE
  5
226
330
1F
100
AcDbEntity
  8
0
  6
SLD-Gestrichelt
 62
     7
370
     0
100
AcDbLine
 10
192.6636215885
 20
125.1050994895
 30
0.0
 11
192.6636215885
 21
86.3890384487
 31
0.0
  0
LINE
  5
227
330
1F
100
AcDbEntity
  8
0
  6
SLD-Gestrichelt
 62
     7
370
     0
100
AcDbLine
 10
189.5884615024
 20
123.3316005371
 30
0.0
 11
189.5884615024
 21
88.1888006977
 31
0.0
  0
LWPOLYLINE
  5
228
330
1F
100
AcDbEntity
  8
0
  6
SLD-Gestrichelt
 62
     7
370
     0
100
AcDbPolyline
 90
        2
 70
   128
 43
0.0
 10
194.5784617801
 20
88.7179241679
 10
194.5784617801
 20
88.7179241679
  0
CIRCLE
  5
229
330
1F
100
AcDbEntity
  8
0
  6
SLD-Gestrichelt
 62
     7
370
     0
100
AcDbCircle
 10
223.5708258483
 20
117.4135134103
 30
0.0
 40
1.640697451453063
  0
ARC
  5
22A
330
1F
100
AcDbEntity
  8
0
  6
SLD-Gestrichelt
 62
     7
370
     0
100
AcDbCircle
 10
222.8094999676
 20
115.5254307852
 30
0.0
 40
1.629301628343497
100
AcDbArc
 50
211.4758158316
 51
71.268623148
  0
LINE
  5
22B
330
1F
100
AcDbEntity
  8
0
  6
SLD-Gestrichelt
 62
     7
370
     0
100
AcDbLine
 10
189.5884615024
 20
88.1888006977
 30
0.0
 11
189.5884615024
 21
88.5050443164
 31
0.0
  0
LWPOLYLINE
  5
22C
330
1F
100
AcDbEntity
  8
0
  6
SLD-Gestrichelt
 62
     7
370
     0
100
AcDbPolyline
 90
        3
 70
   128
 43
0.0
 10
188.5933014219
 20
86.3890384487
 10
189.5326128815
 20
88.0873927078
 10
189.5884615024
 20
88.1888006977
  0
LINE
  5
22D
330
1F
100
AcDbEntity
  8
0
  6
SLD-Gestrichelt
 62
     7
370
     0
100
AcDbLine
 10
187.0784614821
 20
88.7179241679
 30
0.0
 11
189.6236831908
 21
88.7179241679
 31
0.0
  0
LINE
  5
22E
330
1F
100
AcDbEntity
  8
0
  6
SLD-Gestrichelt
 62
     7
370
     0
100
AcDbLine
 10
194.5784617801
 20
87.0138907037
 30
0.0
 11
194.5784617801
 21
88.7179241679
 31
0.0
  0
LWPOLYLINE
  5
22F
330
1F
100
AcDbEntity
  8
0
  6
SLD-Gestrichelt
 62
     7
370
     0
100
AcDbPolyline
 90
        3
 70
   128
 43
0.0
 10
191.6684605767
 20
88.1888006977
 10
191.7243101288
 20
88.0873927078
 10
192.6636215885
 20
86.3890384487
  0
LINE
  5
230
330
1F
100
AcDbEntity
  8
0
  6
SLD-Gestrichelt
 62
     7
370
     0
100
AcDbLine
 10
191.6684605767
 20
88.5050443164
 30
0.0
 11
191.6684605767
 21
88.1888006977
 31
0.0
  0
LINE
  5
231
330
1F
100
AcDbEntity
  8
0
  6
SLD-Gestrichelt
 62
     7
370
     0
100
AcDbLine
 10
192.6636215885
 20
86.3890384487
 30
0.0
 11
193.9784609367
 21
86.3890384487
 31
0.0
  0
LINE
  5
232
330
1F
100
AcDbEntity
  8
0
  6
SLD-Gestrichelt
 62
     7
370
     0
100
AcDbLine
 10
191.6332379569
 20
88.7179241679
 30
0.0
 11
194.5784617801
 21
88.7179241679
 31
0.0
  0
LINE
  5
233
330
1F
100
AcDbEntity
  8
0
  6
SLD-Gestrichelt
 62
     7
370
     0
100
AcDbLine
 10
154.728461488
 20
93.799451103
 30
0.0
 11
154.728461488
 21
94.0704100929
 31
0.0
  0
LINE
  5
234
330
1F
100
AcDbEntity
  8
0
  6
SLD-Gestrichelt
 62
     7
370
     0
100
AcDbLine
 10
154.728461488
 20
117.4918373279
 30
0.0
 11
154.728461488
 21
117.3961551092
 31
0.0
  0
LWPOLYLINE
  5
235
330
1F
100
AcDbEntity
  8
0
  6
SLD-Gestrichelt
 62
     7
370
     0
100
AcDbPolyline
 90
       13
 70
   128
 43
0.0
 10
155.4884318848
 20
118.0060037575
 10
155.323708861
 20
117.6084361202
 10
155.2412234832
 20
117.4494537688
 10
155.1332589825
 20
117.2722007311
 10
155.0800227214
 20
117.1972870059
 10
155.0155360837
 20
117.1185259871
 10
154.9767371853
 20
117.0783645637
 10
154.93737018
 20
117.044291196
 10
154.9058542241
 20
117.0229201368
 10
154.8662879159
 20
117.0057949773
 10
154.8163094212
 20
117.0074899844
 10
154.7449812879
 20
117.1386537305
 10
154.728461488
 20
117.3961551092
  0
LWPOLYLINE
  5
236
330
1F
100
AcDbEntity
  8
0
  6
SLD-Gestrichelt
 62
     7
370
     0
100
AcDbPolyline
 90
       12
 70
   128
 43
0.0
 10
154.728461488
 20
94.0704100929
 10
154.7534451474
 20
94.3223905913
 10
154.8119918098
 20
94.4017960853
 10
154.8637919714
 20
94.4024088956
 10
154.8975431015
 20
94.3881307892
 10
154.9413581033
 20
94.3585007615
 10
154.9848452796
 20
94.3197959266
 10
155.0325736989
 20
94.2689056671
 10
155.1011060019
 20
94.1831289954
 10
155.2403145124
 20
93.9695525146
 10
155.3817712356
 20
93.6991457991
 10
155.4884318848
 20
93.4509380884
  0
LINE
  5
237
330
1F
100
AcDbEntity
  8
0
  6
SLD-Gestrichelt
 62
     7
370
     0
100
AcDbLine
 10
154.728461488
 20
117.3961551092
 30
0.0
 11
154.728461488
 21
94.0704100929
 31
0.0
  0
LWPOLYLINE
  5
238
330
1F
100
AcDbEntity
  8
0
  6
SLD-Gestrichelt
 62
     7
370
     0
100
AcDbPolyline
 90
       29
 70
   128
 43
0.0
 10
219.0062165846
 20
105.617923399
 10
218.9798899581
 20
105.150629445
 10
218.9022325565
 20
104.706767567
 10
218.7771373083
 20
104.3085948029
 10
218.6108813275
 20
103.9760772535
 10
218.4117943634
 20
103.7258887361
 10
218.1898639192
 20
103.5705748643
 10
217.9562137117
 20
103.5179234739
 10
217.7225672294
 20
103.5705748643
 10
217.5006367852
 20
103.7258887361
 10
217.3015498211
 20
103.9760772535
 10
217.1352938403
 20
104.3085948029
 10
217.0101985921
 20
104.706767567
 10
216.9325411905
 20
105.150629445
 10
216.906214564
 20
105.617923399
 10
216.9325411905
 20
106.085217353
 10
217.0101985921
 20
106.529079231
 10
217.1352938403
 20
106.9272519951
 10
217.3015498211
 20
107.2597695445
 10
217.5006367852
 20
107.5099580619
 10
217.7225672294
 20
107.6652719337
 10
217.9562137117
 20
107.7179233241
 10
218.1898639192
 20
107.6652719337
 10
218.4117943634
 20
107.5099580619
 10
218.6108813275
 20
107.2597695445
 10
218.7771373083
 20
106.9272519951
 10
218.9022325565
 20
106.529079231
 10
218.9798899581
 20
106.085217353
 10
219.0062165846
 20
105.617923399
  0
ELLIPSE
  5
239
330
1F
100
AcDbEntity
  8
0
  6
SLD-Gestrichelt
 62
     7
370
     0
100
AcDbEllipse
 10
212.6284612109
 20
108.9773930369
 30
0.0
 11
-9.672834542474222
 21
11.97560850672881
 31
0.0
210
0.0
220
0.0
230
1.0
 40
0.2118456749
 41
4.884790694004092
 42
5.589943506614565
  0
ELLIPSE
  5
23A
330
1F
100
AcDbEntity
  8
0
  6
SLD-Gestrichelt
 62
     7
370
     0
100
AcDbEllipse
 10
228.8053757471
 20
105.617923399
 30
0.0
 11
4.999999999999943
 21
0.0
 31
0.0
210
0.0
220
0.0
230
1.0
 40
0.5
 41
2.052302917727226
 42
3.141592653589788
  0
LWPOLYLINE
  5
23B
330
1F
100
AcDbEntity
  8
0
  6
SLD-Gestrichelt
 62
     7
370
     0
100
AcDbPolyline
 90
       33
 70
   128
 43
0.0
 10
219.3870455612
 20
106.1377026188
 10
219.4143593897
 20
105.617923399
 10
219.3870455612
 20
105.0981441792
 10
219.3062924434
 20
104.6010817797
 10
219.1756316115
 20
104.148460289
 10
219.0007739355
 20
103.7600612897
 10
218.7893599857
 20
103.4528598818
 10
218.5506322076
 20
103.2402820117
 10
218.2950214137
 20
103.1316185533
 10
218.0336997499
 20
103.1316185533
 10
217.778088956
 20
103.2402820117
 10
217.5393611778
 20
103.4528598818
 10
217.3279472281
 20
103.7600612897
 10
217.1530895521
 20
104.148460289
 10
217.0224287202
 20
104.6010817797
 10
216.9416756024
 20
105.0981441792
 10
216.9143580486
 20
105.617923399
 10
216.9416756024
 20
106.1377026188
 10
217.0224287202
 20
106.6347650183
 10
217.1530895521
 20
107.087386509
 10
217.3279472281
 20
107.4757855083
 10
217.4000166942
 20
107.596082117
 10
217.5393611778
 20
107.7829869162
 10
217.778088956
 20
107.9955647863
 10
217.9393642236
 20
108.0770913675
 10
218.0336997499
 20
108.1042282447
 10
218.2950214137
 20
108.1042282447
 10
218.5506322076
 20
107.9955647863
 10
218.7893599857
 20
107.7829869162
 10
219.0007739355
 20
107.4757855083
 10
219.1756316115
 20
107.087386509
 10
219.3062924434
 20
106.6347650183
 10
219.3870455612
 20
106.1377026188
  0
ELLIPSE
  5
23C
330
1F
100
AcDbEntity
  8
0
  6
SLD-Gestrichelt
 62
     7
370
     0
100
AcDbEllipse
 10
226.4301832629
 20
105.617923399
 30
0.0
 11
0.1550615558895743
 21
2.499978779294395
 31
0.0
210
0.0
220
0.0
230
1.0
 40
0.0664293271
 41
4.054029584065612
 42
6.768812163696836
  0
CIRCLE
  5
23D
330
1F
100
AcDbEntity
  8
0
  6
SLD-Gestrichelt
 62
     7
370
     0
100
AcDbCircle
 10
181.6284612109
 20
105.617923399
 30
0.0
 40
5.0
  0
ELLIPSE
  5
23E
330
1F
100
AcDbEntity
  8
0
  6
SLD-Gestrichelt
 62
     7
370
     0
100
AcDbEllipse
 10
212.6284612109
 20
122.4966086264
 30
0.0
 11
0.0
 21
13.05407289332277
 31
0.0
210
0.0
220
0.0
230
1.0
 40
0.7660444431
 41
2.892338803691687
 42
3.481203520253142
  0
LINE
  5
23F
330
1F
100
AcDbEntity
  8
0
  6
SLD-Gestrichelt
 62
     7
370
     0
100
AcDbLine
 10
227.385307162
 20
121.8521760009
 30
0.0
 11
226.4897995283
 21
107.833669025
 31
0.0
  0
LINE
  5
240
330
1F
100
AcDbEntity
  8
0
  6
SLD-Gestrichelt
 62
     7
370
     0
100
AcDbLine
 10
174.6284612109
 20
89.4107219926
 30
0.0
 11
174.7226219832
 21
90.0807117275
 31
0.0
  0
LINE
  5
241
330
1F
100
AcDbEntity
  8
0
  6
SLD-Gestrichelt
 62
     7
370
     0
100
AcDbLine
 10
174.7226219832
 20
121.1551350705
 30
0.0
 11
174.6284612109
 21
121.8251248054
 31
0.0
  0
ARC
  5
242
330
1F
100
AcDbEntity
  8
0
  6
SLD-Gestrichelt
 62
     7
370
     0
100
AcDbCircle
 10
174.1284544582
 20
90.1642162455
 30
0.0
 40
0.6000067526677303
100
AcDbArc
 50
352.0
 51
0.0
  0
ARC
  5
243
330
1F
100
AcDbEntity
  8
0
  6
SLD-Gestrichelt
 62
     7
370
     0
100
AcDbCircle
 10
174.1284544582
 20
90.1642162455
 30
0.0
 40
0.6000067526677242
100
AcDbArc
 50
0.0
 51
33.5571153394
  0
ARC
  5
244
330
1F
100
AcDbEntity
  8
0
  6
SLD-Gestrichelt
 62
     7
370
     0
100
AcDbCircle
 10
174.1284544582
 20
121.0716305525
 30
0.0
 40
0.6000067526677303
100
AcDbArc
 50
348.75
 51
8.0
  0
LWPOLYLINE
  5
245
330
1F
100
AcDbEntity
  8
0
  6
SLD-Gestrichelt
 62
     7
370
     0
100
AcDbPolyline
 90
        3
 70
   128
 43
0.0
 10
174.7169322498
 20
120.954574754
 10
174.6827884181
 20
120.8420179016
 10
174.6284612109
 20
120.7399663679
  0
LINE
  5
246
330
1F
100
AcDbEntity
  8
0
  6
SLD-Gestrichelt
 62
     7
370
     0
100
AcDbLine
 10
174.7284612084
 20
90.1642159722
 30
0.0
 11
174.7284612084
 21
121.0716308258
 31
0.0
  0
LINE
  5
247
330
1F
100
AcDbEntity
  8
0
  6
SLD-Gestrichelt
 62
     7
370
     0
100
AcDbLine
 10
174.7284612084
 20
90.1642159722
 30
0.0
 11
174.7284612084
 21
121.0716308258
 31
0.0
  0
ARC
  5
248
330
1F
100
AcDbEntity
  8
0
  6
SLD-Gestrichelt
 62
     7
370
     0
100
AcDbCircle
 10
164.161089155
 20
93.267923399
 30
0.0
 40
0.3999999999999998
100
AcDbArc
 50
210.0
 51
270.0
  0
ARC
  5
249
330
1F
100
AcDbEntity
  8
0
  6
SLD-Gestrichelt
 62
     7
370
     0
100
AcDbCircle
 10
164.161089155
 20
117.967923399
 30
0.0
 40
0.3999999999999927
100
AcDbArc
 50
90.0
 51
150.0
  0
LINE
  5
24A
330
1F
100
AcDbEntity
  8
0
  6
SLD-Gestrichelt
 62
     7
370
     0
100
AcDbLine
 10
164.1610893075
 20
92.8679236374
 30
0.0
 11
166.3592359637
 21
92.8679236374
 31
0.0
  0
LINE
  5
24B
330
1F
100
AcDbEntity
  8
0
  6
SLD-Gestrichelt
 62
     7
370
     0
100
AcDbLine
 10
166.3592359637
 20
118.3679231606
 30
0.0
 11
164.1610893075
 21
118.3679231606
 31
0.0
  0
ARC
  5
24C
330
1F
100
AcDbEntity
  8
0
  6
SLD-Gestrichelt
 62
     7
370
     0
100
AcDbCircle
 10
170.4526379388
 20
97.867923399
 30
0.0
 40
5.000000000000018
100
AcDbArc
 50
275.4127476288
 51
326.6329870308
  0
ARC
  5
24D
330
1F
100
AcDbEntity
  8
0
  6
SLD-Gestrichelt
 62
     7
370
     0
100
AcDbCircle
 10
170.4526379388
 20
113.367923399
 30
0.0
 40
5.000000000000026
100
AcDbArc
 50
33.3670129692
 51
84.5893646108
  0
LINE
  5
24E
330
1F
100
AcDbEntity
  8
0
  6
SLD-Gestrichelt
 62
     7
370
     0
100
AcDbLine
 10
163.8146792193
 20
118.1679235003
 30
0.0
 11
162.6311107193
 21
116.1179232574
 31
0.0
  0
LINE
  5
24F
330
1F
100
AcDbEntity
  8
0
  6
SLD-Gestrichelt
 62
     7
370
     0
100
AcDbLine
 10
162.6311107193
 20
95.1179235406
 30
0.0
 11
163.8146792193
 21
93.0679232977
 31
0.0
  0
ARC
  5
250
330
1F
100
AcDbEntity
  8
0
  6
SLD-Gestrichelt
 62
     7
370
     0
100
AcDbCircle
 10
181.5784612109
 20
95.742923399
 30
0.0
 40
1.000000000000001
100
AcDbArc
 50
218.6821874535
 51
0.0
  0
ARC
  5
251
330
1F
100
AcDbEntity
  8
0
  6
SLD-Gestrichelt
 62
     7
370
     0
100
AcDbCircle
 10
181.5784612109
 20
115.492923399
 30
0.0
 40
1.000000000000001
100
AcDbArc
 50
0.0
 51
141.3178125465
  0
LINE
  5
252
330
1F
100
AcDbEntity
  8
0
  6
SLD-Gestrichelt
 62
     7
370
     0
100
AcDbLine
 10
160.8284613703
 20
95.1179235406
 30
0.0
 11
162.6311107193
 21
95.1179235406
 31
0.0
  0
LINE
  5
253
330
1F
100
AcDbEntity
  8
0
  6
SLD-Gestrichelt
 62
     7
370
     0
100
AcDbLine
 10
162.6311107193
 20
116.1179232574
 30
0.0
 11
158.3284609605
 21
116.1179232574
 31
0.0
  0
LINE
  5
254
330
1F
100
AcDbEntity
  8
0
  6
SLD-Gestrichelt
 62
     7
370
     0
100
AcDbLine
 10
174.6284612109
 20
95.1179235406
 30
0.0
 11
180.7978362431
 21
95.1179235406
 31
0.0
  0
LINE
  5
255
330
1F
100
AcDbEntity
  8
0
  6
SLD-Gestrichelt
 62
     7
370
     0
100
AcDbLine
 10
180.7978362431
 20
116.1179232574
 30
0.0
 11
174.6284612109
 21
116.1179232574
 31
0.0
  0
LINE
  5
256
330
1F
100
AcDbEntity
  8
0
  6
SLD-Gestrichelt
 62
     7
370
     0
100
AcDbLine
 10
204.7447790046
 20
99.1289217188
 30
0.0
 11
204.500630929
 21
98.5226335167
 31
0.0
  0
LINE
  5
257
330
1F
100
AcDbEntity
  8
0
  6
SLD-Gestrichelt
 62
     7
370
     0
100
AcDbLine
 10
210.1347506632
 20
99.2683239444
 30
0.0
 11
210.3788950135
 21
99.8746116809
 31
0.0
  0
ARC
  5
258
330
1F
100
AcDbEntity
  8
0
  6
SLD-Gestrichelt
 62
     7
370
     0
100
AcDbCircle
 10
215.770650898
 20
119.1520582143
 30
0.0
 40
2.749734767752557
100
AcDbArc
 50
279.3138060964
 51
321.7469238655
  0
LINE
  5
259
330
1F
100
AcDbEntity
  8
0
  6
SLD-Gestrichelt
 62
     7
370
     0
100
AcDbLine
 10
187.9284609695
 20
99.3679233059
 30
0.0
 11
190.4284604479
 21
99.3679233059
 31
0.0
  0
LINE
  5
25A
330
1F
100
AcDbEntity
  8
0
  6
SLD-Gestrichelt
 62
     7
370
     0
100
AcDbLine
 10
190.4284604479
 20
111.8679234921
 30
0.0
 11
187.9284609695
 21
111.8679234921
 31
0.0
  0
LINE
  5
25B
330
1F
100
AcDbEntity
  8
0
  6
SLD-Gestrichelt
 62
     7
370
     0
100
AcDbLine
 10
182.5784616758
 20
99.6179233468
 30
0.0
 11
183.0784608264
 21
100.1179234288
 31
0.0
  0
LINE
  5
25C
330
1F
100
AcDbEntity
  8
0
  6
SLD-Gestrichelt
 62
     7
370
     0
100
AcDbLine
 10
183.0784608264
 20
111.1179233692
 30
0.0
 11
182.5784616758
 21
111.6179234511
 31
0.0
  0
LINE
  5
25D
330
1F
100
AcDbEntity
  8
0
  6
SLD-Gestrichelt
 62
     7
370
     0
100
AcDbLine
 10
222.109342425
 20
101.9738118327
 30
0.0
 11
222.6422824551
 21
103.2972524106
 31
0.0
  0
LINE
  5
25E
330
1F
100
AcDbEntity
  8
0
  6
SLD-Gestrichelt
 62
     7
370
     0
100
AcDbLine
 10
217.5673418333
 20
106.3236304024
 30
0.0
 11
217.8463660766
 21
107.0165311382
 31
0.0
  0
LINE
  5
25F
330
1F
100
AcDbEntity
  8
0
  6
SLD-Gestrichelt
 62
     7
370
     0
100
AcDbLine
 10
212.0951660563
 20
109.3324962701
 30
0.0
 11
211.816141813
 21
108.6395955342
 31
0.0
  0
LINE
  5
260
330
1F
100
AcDbEntity
  8
0
  6
SLD-Gestrichelt
 62
     7
370
     0
100
AcDbLine
 10
183.0784608264
 20
100.1179234288
 30
0.0
 11
187.9284609695
 21
100.1179234288
 31
0.0
  0
LINE
  5
261
330
1F
100
AcDbEntity
  8
0
  6
SLD-Gestrichelt
 62
     7
370
     0
100
AcDbLine
 10
187.9284609695
 20
111.1179233692
 30
0.0
 11
183.0784608264
 21
111.1179233692
 31
0.0
  0
LINE
  5
262
330
1F
100
AcDbEntity
  8
0
  6
SLD-Gestrichelt
 62
     7
370
     0
100
AcDbLine
 10
182.5784616758
 20
125.617922952
 30
0.0
 11
182.5784616758
 21
122.5179226301
 31
0.0
  0
LINE
  5
263
330
1F
100
AcDbEntity
  8
0
  6
SLD-Gestrichelt
 62
     7
370
     0
100
AcDbLine
 10
219.1006787707
 20
118.918726889
 30
0.0
 11
217.9678477933
 21
117.5010648719
 31
0.0
  0
LINE
  5
264
330
1F
100
AcDbEntity
  8
0
  6
SLD-Gestrichelt
 62
     7
370
     0
100
AcDbLine
 10
171.3956405529
 20
90.5766186468
 30
0.0
 11
170.9277119608
 21
91.0724557168
 31
0.0
  0
LINE
  5
265
330
1F
100
AcDbEntity
  8
0
  6
SLD-Gestrichelt
 62
     7
370
     0
100
AcDbLine
 10
166.3298071016
 20
91.3523088373
 30
0.0
 11
165.8123335455
 21
90.8564838744
 31
0.0
  0
LINE
  5
266
330
1F
100
AcDbEntity
  8
0
  6
SLD-Gestrichelt
 62
     7
370
     0
100
AcDbLine
 10
165.8116993149
 20
120.379413215
 30
0.0
 11
166.3293852125
 21
119.8835258535
 31
0.0
  0
LINE
  5
267
330
1F
100
AcDbEntity
  8
0
  6
SLD-Gestrichelt
 62
     7
370
     0
100
AcDbLine
 10
170.9270260417
 20
120.1631731517
 30
0.0
 11
171.3949299537
 21
120.6590670324
 31
0.0
  0
LINE
  5
268
330
1F
100
AcDbEntity
  8
0
  6
SLD-Gestrichelt
 62
     7
370
     0
100
AcDbLine
 10
199.7284614135
 20
103.1179234549
 30
0.0
 11
200.2484243949
 21
103.983285923
 31
0.0
  0
LINE
  5
269
330
1F
100
AcDbEntity
  8
0
  6
SLD-Gestrichelt
 62
     7
370
     0
100
AcDbLine
 10
200.2436616112
 20
107.2604848002
 30
0.0
 11
199.7284614135
 21
108.1179233431
 31
0.0
  0
LINE
  5
26A
330
1F
100
AcDbEntity
  8
0
  6
SLD-Gestrichelt
 62
     7
370
     0
100
AcDbLine
 10
190.4284604479
 20
103.1179234549
 30
0.0
 11
199.7284614135
 21
103.1179234549
 31
0.0
  0
LINE
  5
26B
330
1F
100
AcDbEntity
  8
0
  6
SLD-Gestrichelt
 62
     7
370
     0
100
AcDbLine
 10
199.7284614135
 20
108.1179233431
 30
0.0
 11
190.4284604479
 21
108.1179233431
 31
0.0
  0
LINE
  5
26C
330
1F
100
AcDbEntity
  8
0
  6
SLD-Gestrichelt
 62
     7
370
     0
100
AcDbLine
 10
170.9284612098
 20
118.344777932
 30
0.0
 11
170.9284612098
 21
120.1629626728
 31
0.0
  0
LINE
  5
26D
330
1F
100
AcDbEntity
  8
0
  6
SLD-Gestrichelt
 62
     7
370
     0
100
AcDbLine
 10
166.3284613405
 20
119.8824203736
 30
0.0
 11
166.3284613405
 21
118.3624209068
 31
0.0
  0
LINE
  5
26E
330
1F
100
AcDbEntity
  8
0
  6
SLD-Gestrichelt
 62
     7
370
     0
100
AcDbLine
 10
170.9284612098
 20
91.0845107562
 30
0.0
 11
170.9284612098
 21
92.891068866
 31
0.0
  0
LINE
  5
26F
330
1F
100
AcDbEntity
  8
0
  6
SLD-Gestrichelt
 62
     7
370
     0
100
AcDbLine
 10
166.3284613405
 20
92.8734258912
 30
0.0
 11
166.3284613405
 21
91.359315177
 31
0.0
  0
LINE
  5
270
330
1F
100
AcDbEntity
  8
0
  6
SLD-Gestrichelt
 62
     7
370
     0
100
AcDbLine
 10
216.3248755623
 20
104.8444792093
 30
0.0
 11
216.9856265773
 21
106.4853055566
 31
0.0
  0
LINE
  5
271
330
1F
100
AcDbEntity
  8
0
  6
SLD-Gestrichelt
 62
     7
370
     0
100
AcDbLine
 10
215.9644276489
 20
103.9493783308
 30
0.0
 11
216.0520278503
 21
104.166920383
 31
0.0
  0
LINE
  5
272
330
1F
100
AcDbEntity
  8
0
  6
SLD-Gestrichelt
 62
     7
370
     0
100
AcDbLine
 10
211.5629040291
 20
106.4044932998
 30
0.0
 11
211.3263629963
 21
105.8170921012
 31
0.0
  0
LINE
  5
273
330
1F
100
AcDbEntity
  8
0
  6
SLD-Gestrichelt
 62
     7
370
     0
100
AcDbLine
 10
212.3475619246
 20
108.3530191961
 30
0.0
 11
211.8341945697
 21
107.0781900478
 31
0.0
  0
LINE
  5
274
330
1F
100
AcDbEntity
  8
0
  6
SLD-Gestrichelt
 62
     7
370
     0
100
AcDbLine
 10
212.4100350429
 20
107.7179233241
 30
0.0
 11
199.7675285329
 21
107.7179233241
 31
0.0
  0
LINE
  5
275
330
1F
100
AcDbEntity
  8
0
  6
SLD-Gestrichelt
 62
     7
370
     0
100
AcDbLine
 10
199.7676980336
 20
103.5179234739
 30
0.0
 11
212.7599590112
 21
103.5179234739
 31
0.0
  0
ARC
  5
276
330
1F
100
AcDbEntity
  8
0
  6
SLD-Gestrichelt
 62
     7
370
     0
100
AcDbCircle
 10
159.9284612109
 20
91.896923399
 30
0.0
 40
0.9000000000000057
100
AcDbArc
 50
29.8499024808
 51
90.0
  0
ARC
  5
277
330
1F
100
AcDbEntity
  8
0
  6
SLD-Gestrichelt
 62
     7
370
     0
100
AcDbCircle
 10
157.4284612109
 20
119.397923399
 30
0.0
 40
0.9000000000000057
100
AcDbArc
 50
270.0
 51
311.1792132368
  0
LINE
  5
278
330
1F
100
AcDbEntity
  8
0
  6
SLD-Gestrichelt
 62
     7
370
     0
100
AcDbLine
 10
157.4284606268
 20
118.4979236848
 30
0.0
 11
155.6784608056
 21
118.4979236848
 31
0.0
  0
LINE
  5
279
330
1F
100
AcDbEntity
  8
0
  6
SLD-Gestrichelt
 62
     7
370
     0
100
AcDbLine
 10
155.6784608056
 20
92.7969233296
 30
0.0
 11
159.9284610365
 21
92.7969233296
 31
0.0
  0
LINE
  5
27A
330
1F
100
AcDbEntity
  8
0
  6
SLD-Gestrichelt
 62
     7
370
     0
100
AcDbLine
 10
154.728461488
 20
93.7469235785
 30
0.0
 11
155.6784608056
 21
92.7969233296
 31
0.0
  0
LINE
  5
27B
330
1F
100
AcDbEntity
  8
0
  6
SLD-Gestrichelt
 62
     7
370
     0
100
AcDbLine
 10
155.6784608056
 20
118.4979236848
 30
0.0
 11
154.728461488
 21
117.5479234359
 31
0.0
  0
LINE
  5
27C
330
1F
100
AcDbEntity
  8
0
  6
SLD-Gestrichelt
 62
     7
370
     0
100
AcDbLine
 10
222.0244207074
 20
118.0141714565
 30
0.0
 11
221.4030124833
 21
116.4710370056
 31
0.0
  0
LINE
  5
27D
330
1F
100
AcDbEntity
  8
0
  6
SLD-Gestrichelt
 62
     7
370
     0
100
AcDbLine
 10
224.3356615891
 20
114.9193092413
 30
0.0
 11
225.0855438997
 21
116.7814803473
 31
0.0
  0
LINE
  5
27E
330
1F
100
AcDbEntity
  8
0
  6
SLD-Gestrichelt
 62
     7
370
     0
100
AcDbLine
 10
217.9562137117
 20
107.7179233241
 30
0.0
 11
215.1474416842
 21
107.7179233241
 31
0.0
  0
LINE
  5
27F
330
1F
100
AcDbEntity
  8
0
  6
SLD-Gestrichelt
 62
     7
370
     0
100
AcDbLine
 10
215.463558643
 20
103.5179234739
 30
0.0
 11
217.9562137117
 21
103.5179234739
 31
0.0
  0
LINE
  5
280
330
1F
100
AcDbEntity
  8
0
  6
SLD-Gestrichelt
 62
     7
370
     0
100
AcDbLine
 10
226.5845597376
 20
108.1179233431
 30
0.0
 11
218.1643605818
 21
108.1179233431
 31
0.0
  0
LINE
  5
281
330
1F
100
AcDbEntity
  8
0
  6
SLD-Gestrichelt
 62
     7
370
     0
100
AcDbLine
 10
218.1643605818
 20
103.1179234549
 30
0.0
 11
225.8929074396
 21
103.1179234549
 31
0.0
  0
LINE
  5
282
330
1F
100
AcDbEntity
  8
0
  6
SLD-Gestrichelt
 62
     7
370
     0
100
AcDbLine
 10
216.9632711102
 20
106.3104035263
 30
0.0
 11
216.9473007907
 21
106.199606699
 31
0.0
  0
LINE
  5
283
330
1F
100
AcDbEntity
  8
0
  6
SLD-Gestrichelt
 62
     7
370
     0
100
AcDbLine
 10
216.9473007907
 20
105.036240099
 30
0.0
 11
216.9632711102
 21
104.9254432717
 31
0.0
  0
LINE
  5
284
330
1F
100
AcDbEntity
  8
VERMASSUNG
100
AcDbLine
 10
229.6284612109
 20
132.617923399
 30
0.0
 11
229.6284612109
 21
105.617923399
 31
0.0
  0
DIMENSION
  5
285
330
1F
100
AcDbEntity
  8
VERMASSUNG
100
AcDbDimension
  2
*D1
 10
151.2952912761
 20
85.617923399
 30
0.0
 11
151.2952912761
 21
105.617923399
 31
0.0
 70
   160
  1
HSK %%c<>
 71
     2
 42
-1.0
  3
SLDDIMSTYLE0
100
AcDbAlignedDimension
 13
174.9284612109
 23
125.617923399
 33
0.0
 14
174.9284612109
 24
85.617923399
 34
0.0
 50
90.0
100
AcDbRotatedDimension
  0
DIMENSION
  5
292
330
1F
100
AcDbEntity
  8
VERMASSUNG
100
AcDbDimension
  2
*D2
 10
154.7284612109
 20
141.922914662
 30
0.0
 11
192.1784612109
 21
141.922914662
 31
0.0
 70
   160
 71
     2
 42
-1.0
  3
SLDDIMSTYLE0
100
AcDbAlignedDimension
 13
229.6284612109
 23
132.617923399
 33
0.0
 14
154.7284612109
 24
117.547923399
 34
0.0
100
AcDbRotatedDimension
  0
DIMENSION
  5
29C
330
1F
100
AcDbEntity
  8
VERMASSUNG
100
AcDbDimension
  2
*D3
 10
229.6284612109
 20
135.922914662
 30
0.0
 11
202.1284612109
 21
135.922914662
 31
0.0
 70
   160
 71
     2
 42
-1.0
  3
SLDDIMSTYLE0
100
AcDbAlignedDimension
 13
174.6284612109
 23
125.317923399
 33
0.0
 14
229.6284612109
 24
132.617923399
 34
0.0
100
AcDbRotatedDimension
  0
DIMENSION
  5
2A6
330
1F
100
AcDbEntity
  8
VERMASSUNG
100
AcDbDimension
  2
*D4
 10
237.8124632167
 20
105.617923399
 30
0.0
 11
237.8124632167
 21
119.117923399
 31
0.0
 70
   160
 71
     2
 42
-1.0
  3
SLDDIMSTYLE0
100
AcDbAlignedDimension
 13
229.6284612109
 23
132.617923399
 33
0.0
 14
229.1759599103
 24
105.617923399
 34
0.0
 50
90.0
100
AcDbRotatedDimension
  0
DIMENSION
  5
2B0
330
1F
100
AcDbEntity
  8
VERMASSUNG
100
AcDbDimension
  2
*D5
 10
229.6079904217
 20
132.1997883119
 30
0.0
 11
235.6175142778
 21
100.4339295287
 31
0.0
 70
   162
 71
     1
 42
-1.0
  3
SLDDIMSTYLE1
100
AcDb2LineAngularDimension
 13
229.6284612109
 23
132.617923399
 33
0.0
 14
229.6284612109
 24
105.617923399
 34
0.0
 15
228.8138174769
 25
117.2494865942
 35
0.0
 16
228.7607389733
 26
99.8923864022
 36
0.0
  0
LINE
  5
2BD
330
1F
100
AcDbEntity
  8
VERMASSUNG
  6
SLD-Punktstrich
370
     0
100
AcDbLine
 10
153.8075709095
 20
105.617923399
 30
0.0
 11
229.1759599103
 21
105.617923399
 31
0.0
  0
LINE
  5
2BE
330
1F
100
AcDbEntity
  8
0
  6
SLD-Durchgehend
 62
     7
370
    15
100
AcDbLine
 10
67.873730844
 20
102.8626402538
 30
0.0
 11
68.1062038597
 21
102.7455087449
 31
0.0
  0
LINE
  5
2BF
330
1F
100
AcDbEntity
  8
0
  6
SLD-Durchgehend
 62
     7
370
    15
100
AcDbLine
 10
79.9269541708
 20
103.7071362068
 30
0.0
 11
79.6471834724
 21
103.7564674323
 31
0.0
  0
LINE
  5
2C0
330
1F
100
AcDbEntity
  8
0
  6
SLD-Durchgehend
 62
     7
370
    15
100
AcDbLine
 10
68.1083086488
 20
102.7448025695
 30
0.0
 11
72.5293481332
 21
101.9652539096
 31
0.0
  0
LINE
  5
2C1
330
1F
100
AcDbEntity
  8
0
  6
SLD-Durchgehend
 62
     7
370
    15
100
AcDbLine
 10
79.1679546778
 20
100.7946885354
 30
0.0
 11
79.4060095754
 21
100.7527128957
 31
0.0
  0
LINE
  5
2C2
330
1F
100
AcDbEntity
  8
0
  6
SLD-Durchgehend
 62
     7
370
    15
100
AcDbLine
 10
79.4082289171
 20
100.7526570163
 30
0.0
 11
79.6667435747
 21
100.7832141756
 31
0.0
  0
LINE
  5
2C3
330
1F
100
AcDbEntity
  8
0
  6
SLD-Durchgehend
 62
     7
370
    15
100
AcDbLine
 10
80.1615319756
 20
103.5892984062
 30
0.0
 11
79.9290584941
 21
103.7064300315
 31
0.0
  0
LINE
  5
2C4
330
1F
100
AcDbEntity
  8
0
  6
SLD-Durchgehend
 62
     7
370
    15
100
AcDbLine
 10
70.0513716397
 20
117.2543677665
 30
0.0
 11
68.9005437848
 21
116.4443480945
 31
0.0
  0
LINE
  5
2C5
330
1F
100
AcDbEntity
  8
0
  6
SLD-Durchgehend
 62
     7
370
    15
100
AcDbLine
 10
66.8218653259
 20
104.6555837081
 30
0.0
 11
67.6262486336
 21
103.5008085589
 31
0.0
  0
LINE
  5
2C6
330
1F
100
AcDbEntity
  8
0
  6
SLD-Durchgehend
 62
     7
370
    15
100
AcDbLine
 10
67.6568984595
 20
103.4780044272
 30
0.0
 11
72.1675423515
 21
102.6826563454
 31
0.0
  0
LINE
  5
2C7
330
1F
100
AcDbEntity
  8
0
  6
SLD-Durchgehend
 62
     7
370
    15
100
AcDbLine
 10
74.5986165088
 20
116.4699650533
 30
0.0
 11
70.0879726168
 21
117.2653126694
 31
0.0
  0
LINE
  5
2C8
330
1F
100
AcDbEntity
  8
0
  6
SLD-Durchgehend
 62
     7
370
    15
100
AcDbLine
 10
72.1879476291
 20
102.6848533354
 30
0.0
 11
72.6096001995
 21
102.8389963019
 31
0.0
  0
LINE
  5
2C9
330
1F
100
AcDbEntity
  8
0
  6
SLD-Durchgehend
 62
     7
370
    15
100
AcDbLine
 10
75.2437203732
 20
115.9335660911
 30
0.0
 11
74.617039932
 21
116.4609209798
 31
0.0
  0
ARC
  5
2CA
330
1F
100
AcDbEntity
  8
0
  6
SLD-Durchgehend
 62
     7
370
    15
100
AcDbCircle
 10
99.6288014717
 20
105.617923399
 30
0.0
 40
2.000000000000003
100
AcDbArc
 50
3.1008534577
 51
51.2210698212
  0
ARC
  5
2CB
330
1F
100
AcDbEntity
  8
0
  6
SLD-Durchgehend
 62
     7
370
    15
100
AcDbCircle
 10
99.6288014717
 20
105.617923399
 30
0.0
 40
2.000000000000004
100
AcDbArc
 50
305.8024649867
 51
3.1008534577
  0
LINE
  5
2CC
330
1F
100
AcDbEntity
  8
0
  6
SLD-Durchgehend
 62
     7
370
    15
100
AcDbLine
 10
64.9267319199
 20
105.2286896727
 30
0.0
 11
66.8915506062
 21
104.8822393338
 31
0.0
  0
LINE
  5
2CD
330
1F
100
AcDbEntity
  8
0
  6
SLD-Durchgehend
 62
     7
370
    15
100
AcDbLine
 10
68.8885036466
 20
116.2075285963
 30
0.0
 11
66.9236868229
 21
116.5539787314
 31
0.0
  0
LINE
  5
2CE
330
1F
100
AcDbEntity
  8
0
  6
SLD-Durchgehend
 62
     7
370
    15
100
AcDbLine
 10
79.9894882907
 20
105.2635999793
 30
0.0
 11
80.3195140865
 21
105.2054075105
 31
0.0
  0
LINE
  5
2CF
330
1F
100
AcDbEntity
  8
0
  6
SLD-Durchgehend
 62
     7
370
    15
100
AcDbLine
 10
81.3961327617
 20
111.3112156443
 30
0.0
 11
81.2981785816
 21
111.3284874871
 31
0.0
  0
ARC
  5
2D0
330
1F
100
AcDbEntity
  8
0
  6
SLD-Durchgehend
 62
     7
370
    15
100
AcDbCircle
 10
81.734875403
 20
111.5593054644
 30
0.0
 40
0.4087192509806546
100
AcDbArc
 50
221.4839952046
 51
290.3483164699
  0
ARC
  5
2D1
330
1F
100
AcDbEntity
  8
0
  6
SLD-Durchgehend
 62
     7
370
    15
100
AcDbCircle
 10
80.5526205261
 20
104.8731222991
 30
0.0
 40
0.3947604770957261
100
AcDbArc
 50
58.7560851864
 51
119.0208625562
  0
LINE
  5
2D2
330
1F
100
AcDbEntity
  8
0
  6
SLD-Durchgehend
 62
     7
370
    15
100
AcDbLine
 10
72.6158167776
 20
102.9066785402
 30
0.0
 11
72.4840905127
 21
101.4725069679
 31
0.0
  0
LINE
  5
2D3
330
1F
100
AcDbEntity
  8
0
  6
SLD-Durchgehend
 62
     7
370
    15
100
AcDbLine
 10
74.0801836905
 20
95.2103088773
 30
0.0
 11
78.5211329889
 21
94.4272500626
 31
0.0
  0
LINE
  5
2D4
330
1F
100
AcDbEntity
  8
0
  6
SLD-Durchgehend
 62
     7
370
    15
100
AcDbLine
 10
91.0264310037
 20
131.7933422677
 30
0.0
 11
86.3501648941
 21
132.617894297
 31
0.0
  0
LINE
  5
2D5
330
1F
100
AcDbEntity
  8
0
  6
SLD-Durchgehend
 62
     7
370
    15
100
AcDbLine
 10
85.105409667
 20
125.54837737
 30
0.0
 11
84.8179859417
 21
125.202871596
 31
0.0
  0
LINE
  5
2D6
330
1F
100
AcDbEntity
  8
0
  6
SLD-Durchgehend
 62
     7
370
    15
100
AcDbLine
 10
82.3093946633
 20
112.6063682302
 30
0.0
 11
82.4461379629
 21
112.2256482183
 31
0.0
  0
LINE
  5
2D7
330
1F
100
AcDbEntity
  8
0
  6
SLD-Durchgehend
 62
     7
370
    15
100
AcDbLine
 10
80.7938566972
 20
105.1884112519
 30
0.0
 11
81.3485449721
 21
105.0906047155
 31
0.0
  0
LINE
  5
2D8
330
1F
100
AcDbEntity
  8
0
  6
SLD-Durchgehend
 62
     7
370
    15
100
AcDbLine
 10
93.8110426609
 20
131.0875860206
 30
0.0
 11
91.0139415023
 21
131.5807902417
 31
0.0
  0
LINE
  5
2D9
330
1F
100
AcDbEntity
  8
0
  6
SLD-Durchgehend
 62
     7
370
    15
100
AcDbLine
 10
94.0545467269
 20
130.7395246974
 30
0.0
 11
93.8132317346
 21
131.0859562061
 31
0.0
  0
LINE
  5
2DA
330
1F
100
AcDbEntity
  8
0
  6
SLD-Durchgehend
 62
     7
370
    15
100
AcDbLine
 10
68.1364047882
 20
102.775157399
 30
0.0
 11
68.1062038597
 21
102.7455087449
 31
0.0
  0
ARC
  5
2DB
330
1F
100
AcDbEntity
  8
0
  6
SLD-Durchgehend
 62
     7
370
    15
100
AcDbCircle
 10
62.8547769185
 20
104.548400946
 30
0.0
 40
5.577169970378614
100
AcDbArc
 50
342.1587443457
 51
347.7366710405
  0
LINE
  5
2DC
330
1F
100
AcDbEntity
  8
0
  6
SLD-Durchgehend
 62
     7
370
    15
100
AcDbLine
 10
67.9283845779
 20
102.9520868021
 30
0.0
 11
68.1637353805
 21
102.8396631289
 31
0.0
  0
LWPOLYLINE
  5
2DD
330
1F
100
AcDbEntity
  8
0
  6
SLD-Durchgehend
 62
     7
370
    15
100
AcDbPolyline
 90
        6
 70
   128
 43
0.0
 10
67.9024230298
 20
102.8908064752
 10
67.8700800595
 20
102.8658104758
 10
67.8572371212
 20
102.9486327595
 10
67.8648832795
 20
103.132892137
 10
67.892428076
 20
103.404393855
 10
67.89623346
 20
103.4358031745
  0
LWPOLYLINE
  5
2DE
330
1F
100
AcDbEntity
  8
0
  6
SLD-Durchgehend
 62
     7
370
    15
100
AcDbPolyline
 90
        3
 70
   128
 43
0.0
 10
68.0527254549
 20
103.4082094836
 10
67.9857242462
 20
103.1387590035
 10
67.9283845779
 20
102.9520868021
  0
LINE
  5
2DF
330
1F
100
AcDbEntity
  8
0
  6
SLD-Durchgehend
 62
     7
370
    15
100
AcDbLine
 10
67.9024230298
 20
102.8908064752
 30
0.0
 11
68.1364047882
 21
102.775157399
 31
0.0
  0
LINE
  5
2E0
330
1F
100
AcDbEntity
  8
0
  6
SLD-Durchgehend
 62
     7
370
    15
100
AcDbLine
 10
79.4341071118
 20
100.783067958
 30
0.0
 11
79.4060095754
 21
100.7527128957
 31
0.0
  0
ARC
  5
2E1
330
1F
100
AcDbEntity
  8
0
  6
SLD-Durchgehend
 62
     7
370
    15
100
AcDbCircle
 10
69.888514211
 20
103.8736534005
 30
0.0
 40
10.03982095470391
100
AcDbArc
 50
342.457825306
 51
359.0496673268
  0
LINE
  5
2E2
330
1F
100
AcDbEntity
  8
0
  6
SLD-Durchgehend
 62
     7
370
    15
100
AcDbLine
 10
68.1637353805
 20
102.8396631289
 30
0.0
 11
72.538805714
 21
102.0682200021
 31
0.0
  0
LINE
  5
2E3
330
1F
100
AcDbEntity
  8
0
  6
SLD-Durchgehend
 62
     7
370
    15
100
AcDbLine
 10
78.9844277856
 20
100.9316828265
 30
0.0
 11
79.4614367728
 21
100.8475736878
 31
0.0
  0
LINE
  5
2E4
330
1F
100
AcDbEntity
  8
0
  6
SLD-Durchgehend
 62
     7
370
    15
100
AcDbLine
 10
68.1364047882
 20
102.775157399
 30
0.0
 11
72.5325397757
 21
102.0000003907
 31
0.0
  0
LINE
  5
2E5
330
1F
100
AcDbEntity
  8
0
  6
SLD-Durchgehend
 62
     7
370
    15
100
AcDbLine
 10
79.0819833596
 20
100.8451569057
 30
0.0
 11
79.4341071118
 21
100.783067958
 31
0.0
  0
LINE
  5
2E6
330
1F
100
AcDbEntity
  8
0
  6
SLD-Durchgehend
 62
     7
370
    15
100
AcDbLine
 10
67.9591424373
 20
103.1594394869
 30
0.0
 11
67.9283845779
 21
102.9520868021
 31
0.0
  0
LWPOLYLINE
  5
2E7
330
1F
100
AcDbEntity
  8
0
  6
SLD-Durchgehend
 62
     7
370
    15
100
AcDbPolyline
 90
        5
 70
   128
 43
0.0
 10
67.9372787085
 20
103.1078351359
 10
67.9081990924
 20
103.0897088046
 10
67.8991317359
 20
103.1810224219
 10
67.9109222797
 20
103.3732751082
 10
67.9167281446
 20
103.4321894101
  0
LWPOLYLINE
  5
2E8
330
1F
100
AcDbEntity
  8
0
  6
SLD-Durchgehend
 62
     7
370
    15
100
AcDbPolyline
 90
        3
 70
   128
 43
0.0
 10
68.0322307703
 20
103.4118234809
 10
68.0128145573
 20
103.3366291947
 10
67.9591424373
 20
103.1594394869
  0
LINE
  5
2E9
330
1F
100
AcDbEntity
  8
0
  6
SLD-Durchgehend
 62
     7
370
    15
100
AcDbLine
 10
67.9372787085
 20
103.1078351359
 30
0.0
 11
67.9024230298
 21
102.8908064752
 31
0.0
  0
LINE
  5
2EA
330
1F
100
AcDbEntity
  8
0
  6
SLD-Durchgehend
 62
     7
370
    15
100
AcDbLine
 10
67.9511256126
 20
103.105393441
 30
0.0
 11
67.9372787085
 21
103.1078351359
 31
0.0
  0
LINE
  5
2EB
330
1F
100
AcDbEntity
  8
0
  6
SLD-Durchgehend
 62
     7
370
    15
100
AcDbLine
 10
79.6913276967
 20
100.8121042676
 30
0.0
 11
79.6667435747
 21
100.7832141756
 31
0.0
  0
ARC
  5
2EC
330
1F
100
AcDbEntity
  8
0
  6
SLD-Durchgehend
 62
     7
370
    15
100
AcDbCircle
 10
70.8007138843
 20
103.7261546373
 30
0.0
 40
9.361818464656562
100
AcDbArc
 50
342.2584463063
 51
359.162388826
  0
LINE
  5
2ED
330
1F
100
AcDbEntity
  8
0
  6
SLD-Durchgehend
 62
     7
370
    15
100
AcDbLine
 10
79.4614367728
 20
100.8475736878
 30
0.0
 11
79.7172911075
 21
100.8733848273
 31
0.0
  0
LINE
  5
2EE
330
1F
100
AcDbEntity
  8
0
  6
SLD-Durchgehend
 62
     7
370
    15
100
AcDbLine
 10
79.4341071118
 20
100.783067958
 30
0.0
 11
79.6913276967
 21
100.8121042676
 31
0.0
  0
LINE
  5
2EF
330
1F
100
AcDbEntity
  8
0
  6
SLD-Durchgehend
 62
     7
370
    15
100
AcDbLine
 10
79.7009044868
 20
100.8717317297
 30
0.0
 11
79.6913276967
 21
100.8121042676
 31
0.0
  0
LWPOLYLINE
  5
2F0
330
1F
100
AcDbEntity
  8
0
  6
SLD-Durchgehend
 62
     7
370
    15
100
AcDbPolyline
 90
       21
 70
   128
 43
0.0
 10
67.5359923002
 20
106.6907837219
 10
67.6808427629
 20
107.3222270631
 10
67.8294259664
 20
108.0111788749
 10
67.9790913668
 20
108.7453444186
 10
68.1271660683
 20
109.5116231288
 10
68.2710088399
 20
110.2963403962
 10
68.4080548194
 20
111.0854923888
 10
68.5358546284
 20
111.8649977423
 10
68.6521302518
 20
112.6209457568
 10
68.754806703
 20
113.3398457594
 10
68.8420511392
 20
114.0088697127
 10
68.9123063889
 20
114.6160789929
 10
68.9643188921
 20
115.1506385929
 10
68.9971591887
 20
115.6030071131
 10
69.0102442709
 20
115.965113712
 10
69.0033394453
 20
116.2304959423
 10
68.9765676466
 20
116.39441896
 10
68.9304057118
 20
116.4539565495
 10
68.8656787929
 20
116.4080460719
 10
68.7835398671
 20
116.2575080223
 10
68.770763984
 20
116.2282896391
  0
LWPOLYLINE
  5
2F1
330
1F
100
AcDbEntity
  8
0
  6
SLD-Durchgehend
 62
     7
370
    15
100
AcDbPolyline
 90
       10
 70
   128
 43
0.0
 10
66.773809081
 20
104.9030000856
 10
66.7876392212
 20
104.7644018242
 10
66.8241880444
 20
104.6524216933
 10
66.8797563371
 20
104.6455927124
 10
66.9533531722
 20
104.7440367681
 10
67.0436653849
 20
104.945997037
 10
67.1490799245
 20
105.2478695626
 10
67.267717382
 20
105.6442674424
 10
67.3974599299
 20
106.1281169229
 10
67.5359923002
 20
106.6907837219
  0
LWPOLYLINE
  5
2F2
330
1F
100
AcDbEntity
  8
0
  6
SLD-Durchgehend
 62
     7
370
    15
100
AcDbPolyline
 90
       29
 70
   128
 43
0.0
 10
67.6262486336
 20
103.5008085589
 10
67.6333769765
 20
103.4919123329
 10
67.694857305
 20
103.4899220965
 10
67.7746511605
 20
103.5949594504
 10
67.8715198842
 20
103.8053910877
 10
67.9839528707
 20
104.1179441079
 10
68.1102066842
 20
104.5277574729
 10
68.2483125088
 20
105.028457793
 10
68.3961264399
 20
105.6122577809
 10
68.5513481107
 20
106.2700780155
 10
68.7115635332
 20
106.9916877593
 10
68.8742804882
 20
107.7658643178
 10
69.0369695035
 20
108.5805673781
 10
69.1970992443
 20
109.4231260638
 10
69.3521793541
 20
110.2804366662
 10
69.4997977075
 20
111.1391663715
 10
69.6376595256
 20
111.9859593152
 10
69.7636209038
 20
112.807645665
 10
69.8757223394
 20
113.5914472095
 10
69.9722185341
 20
114.3251720048
 10
70.0516119209
 20
114.9974108837
 10
70.1126657036
 20
115.5977078877
 10
70.1544317958
 20
116.1167274392
 10
70.1762582716
 20
116.5463977657
 10
70.1778079924
 20
116.8800347648
 10
70.1590567437
 20
117.1124509699
 10
70.1202950981
 20
117.2400319181
 10
70.0621246901
 20
117.2607929609
 10
70.0513716397
 20
117.2543677665
  0
LWPOLYLINE
  5
2F3
330
1F
100
AcDbEntity
  8
0
  6
SLD-Durchgehend
 62
     7
370
    15
100
AcDbPolyline
 90
       20
 70
   128
 43
0.0
 10
73.9629432169
 20
114.9188007391
 10
73.927844463
 20
115.1133596129
 10
73.7974378821
 20
115.2947561047
 10
73.5791647416
 20
115.4602390877
 10
73.2636801508
 20
115.6064287923
 10
72.8716864791
 20
115.7080295659
 10
72.4706757423
 20
115.7354104496
 10
72.1407696214
 20
115.6787003554
 10
71.9191083294
 20
115.5516036949
 10
71.8083433416
 20
115.3728996567
 10
71.8044923228
 20
115.1611513621
 10
71.9022281077
 20
114.9380213744
 10
72.0922113937
 20
114.7277091793
 10
72.3613338155
 20
114.5534298546
 10
72.6947072503
 20
114.4359146408
 10
73.0722263065
 20
114.3955287687
 10
73.4539959189
 20
114.4511259324
 10
73.7655708176
 20
114.6025552578
 10
73.9159384352
 20
114.7700778372
 10
73.9629432169
 20
114.9188007391
  0
LWPOLYLINE
  5
2F4
330
1F
100
AcDbEntity
  8
0
  6
SLD-Durchgehend
 62
     7
370
    15
100
AcDbPolyline
 90
       27
 70
   128
 43
0.0
 10
72.1675423515
 20
102.6826563454
 10
72.2055002657
 20
102.6945737819
 10
72.2852950525
 20
102.7996113687
 10
72.3821628448
 20
103.010043006
 10
72.4945967627
 20
103.3225957933
 10
72.6208496448
 20
103.7324092747
 10
72.7589564008
 20
104.2331095948
 10
72.9067703319
 20
104.8169096164
 10
73.0619920027
 20
105.474729861
 10
73.2222074252
 20
106.1963396194
 10
73.3849243802
 20
106.9705161196
 10
73.5476124641
 20
107.7852190635
 10
73.707742205
 20
108.6277779821
 10
73.8628223148
 20
109.4850885845
 10
74.0104415995
 20
110.3438182897
 10
74.1483034176
 20
111.1906107678
 10
74.2742647958
 20
112.0122975833
 10
74.3863653001
 20
112.7960986621
 10
74.482862426
 20
113.5298243887
 10
74.5622558129
 20
114.2020632676
 10
74.6233095956
 20
114.8023602716
 10
74.6650756878
 20
115.3213798232
 10
74.6869021636
 20
115.7510492183
 10
74.6884518844
 20
116.0846862174
 10
74.6697006357
 20
116.3171033538
 10
74.6309380588
 20
116.4446833707
 10
74.5986165088
 20
116.4699650533
  0
ARC
  5
2F5
330
1F
100
AcDbEntity
  8
0
  6
SLD-Durchgehend
 62
     7
370
    15
100
AcDbCircle
 10
100.2896284473
 20
105.6237106368
 30
0.0
 40
2.655948498367303
100
AcDbArc
 50
299.817161182
 51
55.9824771129
  0
ARC
  5
2F6
330
1F
100
AcDbEntity
  8
0
  6
SLD-Durchgehend
 62
     7
370
    15
100
AcDbCircle
 10
100.4141925503
 20
105.6250310141
 30
0.0
 40
2.484242294523439
100
AcDbArc
 50
295.3716066278
 51
59.7487559825
  0
ARC
  5
2F7
330
1F
100
AcDbEntity
  8
0
  6
SLD-Durchgehend
 62
     7
370
    15
100
AcDbCircle
 10
100.5458655873
 20
105.6263157401
 30
0.0
 40
2.059007885974415
100
AcDbArc
 50
285.408537413
 51
68.6229562569
  0
LWPOLYLINE
  5
2F8
330
1F
100
AcDbEntity
  8
0
  6
SLD-Durchgehend
 62
     7
370
    15
100
AcDbPolyline
 90
       23
 70
   128
 43
0.0
 10
65.066730192
 20
105.411847019
 10
65.1625502464
 20
105.6576355793
 10
65.272578558
 20
106.0009180499
 10
65.3947643545
 20
106.4352997043
 10
65.5268296209
 20
106.9526888593
 10
65.6663175282
 20
107.5434474903
 10
65.8106259611
 20
108.1965709734
 10
65.957070848
 20
108.8998927432
 10
66.1029215512
 20
109.6403111867
 10
66.2454623339
 20
110.4040343478
 10
66.3820370641
 20
111.1768346443
 10
66.5101013687
 20
111.9443161576
 10
66.6272710618
 20
112.6921830862
 10
66.7313631234
 20
113.4065037756
 10
66.820436677
 20
114.0739710233
 10
66.8928339687
 20
114.6821526042
 10
66.9472064432
 20
115.2197175822
 10
66.9825426844
 20
115.6766533084
 10
66.998181453
 20
116.0444474942
 10
66.9938321766
 20
116.316249331
 10
66.9695768115
 20
116.4869952179
 10
66.9258679804
 20
116.5535037569
 10
66.9134422746
 20
116.5539405472
  0
LWPOLYLINE
  5
2F9
330
1F
100
AcDbEntity
  8
0
  6
SLD-Durchgehend
 62
     7
370
    15
100
AcDbPolyline
 90
        4
 70
   128
 43
0.0
 10
64.9171355721
 20
105.2322197636
 10
64.9245507625
 20
105.2291645017
 10
64.9869009462
 20
105.2681309509
 10
65.066730192
 20
105.411847019
  0
ARC
  5
2FA
330
1F
100
AcDbEntity
  8
0
  6
SLD-Durchgehend
 62
     7
370
    15
100
AcDbCircle
 10
32.685556578
 20
116.5153281019
 30
0.0
 40
36.20425550933847
100
AcDbArc
 50
341.5631484518
 51
359.5128797758
  0
LWPOLYLINE
  5
2FB
330
1F
100
AcDbEntity
  8
0
  6
SLD-Durchgehend
 62
     7
370
    15
100
AcDbPolyline
 90
        3
 70
   128
 43
0.0
 10
66.8915506062
 20
104.8822393338
 10
66.9517196324
 20
104.921680612
 10
67.0315488783
 20
105.0653966656
  0
LWPOLYLINE
  5
2FC
330
1F
100
AcDbEntity
  8
0
  6
SLD-Durchgehend
 62
     7
370
    15
100
AcDbPolyline
 90
       31
 70
   128
 43
0.0
 10
63.5871398804
 20
108.8553988072
 10
63.6536009219
 20
109.0367491986
 10
63.7334692833
 20
109.3142952002
 10
63.8232543674
 20
109.6759068012
 10
63.9190353063
 20
110.1057801559
 10
64.0166230109
 20
110.5851276941
 10
64.111752024
 20
111.0929993144
 10
64.2002667841
 20
111.607198806
 10
64.2782967147
 20
112.1052528895
 10
64.3424350378
 20
112.5653946935
 10
64.3898747471
 20
112.9675132386
 10
64.4185427186
 20
113.2940349332
 10
64.4271891174
 20
113.5306877247
 10
64.4154339638
 20
113.6671302072
 10
64.383791348
 20
113.6973991222
 10
64.3336433527
 20
113.620170129
 10
64.2671823111
 20
113.4388202033
 10
64.1873139498
 20
113.1612739689
 10
64.0975288656
 20
112.7996623679
 10
64.0017479268
 20
112.3697890132
 10
63.9041620848
 20
111.890441475
 10
63.8090312091
 20
111.3825698546
 10
63.7205164489
 20
110.868370363
 10
63.6424865183
 20
110.3703162796
 10
63.5783500579
 20
109.9101744755
 10
63.5309103486
 20
109.5080556977
 10
63.5022405145
 20
109.1815344687
 10
63.4935941157
 20
108.9448812115
 10
63.5053492692
 20
108.8084387291
 10
63.536991885
 20
108.7781702797
 10
63.5871398804
 20
108.8553988072
  0
LINE
  5
2FD
330
1F
100
AcDbEntity
  8
0
  6
SLD-Durchgehend
 62
     7
370
    15
100
AcDbLine
 10
63.8885903713
 20
110.6303299009
 30
0.0
 11
64.0779189375
 21
110.911255905
 31
0.0
  0
LINE
  5
2FE
330
1F
100
AcDbEntity
  8
0
  6
SLD-Durchgehend
 62
     7
370
    15
100
AcDbLine
 10
64.3511950579
 20
112.6534870989
 30
0.0
 11
64.3167156336
 21
112.8234576597
 31
0.0
  0
LINE
  5
2FF
330
1F
100
AcDbEntity
  8
0
  6
SLD-Durchgehend
 62
     7
370
    15
100
AcDbLine
 10
63.9787777868
 20
110.4125079862
 30
0.0
 11
63.8885903713
 21
110.6303299009
 31
0.0
  0
ARC
  5
300
330
1F
100
AcDbEntity
  8
0
  6
SLD-Durchgehend
 62
     7
370
    15
100
AcDbCircle
 10
60.973316249
 20
111.6279407331
 30
0.0
 40
20.42527231374842
100
AcDbArc
 50
341.9645101766
 51
359.1115056924
  0
LWPOLYLINE
  5
301
330
1F
100
AcDbEntity
  8
0
  6
SLD-Durchgehend
 62
     7
370
    15
100
AcDbPolyline
 90
        3
 70
   128
 43
0.0
 10
80.3195140865
 20
105.2054075105
 10
80.3389768657
 20
105.2127657156
 10
80.394991262
 20
105.3041531984
  0
LINE
  5
302
330
1F
100
AcDbEntity
  8
0
  6
SLD-Durchgehend
 62
     7
370
    15
100
AcDbLine
 10
64.3729060498
 20
112.8135497845
 30
0.0
 11
64.3167156336
 21
112.8234576597
 31
0.0
  0
LINE
  5
303
330
1F
100
AcDbEntity
  8
0
  6
SLD-Durchgehend
 62
     7
370
    15
100
AcDbLine
 10
64.020884743
 20
110.6070025987
 30
0.0
 11
63.8885903713
 21
110.6303299009
 31
0.0
  0
ARC
  5
304
330
1F
100
AcDbEntity
  8
0
  6
SLD-Durchgehend
 62
     7
370
    15
100
AcDbCircle
 10
106.0558353481
 20
95.493814019
 30
0.0
 40
34.19910286082051
100
AcDbArc
 50
139.465210173
 51
167.4071203207
  0
ARC
  5
305
330
1F
100
AcDbEntity
  8
0
  6
SLD-Durchgehend
 62
     7
370
    15
100
AcDbCircle
 10
83.3156219447
 20
115.2677400904
 30
0.0
 40
4.072653318471914
100
AcDbArc
 50
81.7592531243
 51
142.9750386823
  0
LWPOLYLINE
  5
306
330
1F
100
AcDbEntity
  8
0
  6
SLD-Durchgehend
 62
     7
370
    15
100
AcDbPolyline
 90
        9
 70
   128
 43
0.0
 10
82.7237477601
 20
113.3141873568
 10
82.8715691418
 20
114.0460276208
 10
83.01925781
 20
114.7830735124
 10
83.1667560228
 20
115.5250349245
 10
83.3140055724
 20
116.2716212846
 10
83.4609491826
 20
117.0225410885
 10
83.6075286456
 20
117.7774981759
 10
83.753686918
 20
118.5361973173
 10
83.8993667234
 20
119.298341421
  0
ARC
  5
307
330
1F
100
AcDbEntity
  8
0
  6
SLD-Durchgehend
 62
     7
370
    15
100
AcDbCircle
 10
84.2707389359
 20
110.6988187838
 30
0.0
 40
3.038640233771285
100
AcDbArc
 50
120.6043254913
 51
167.7042477407
  0
ARC
  5
308
330
1F
100
AcDbEntity
  8
0
  6
SLD-Durchgehend
 62
     7
370
    15
100
AcDbCircle
 10
-262.3575888431
 20
182.3480687098
 30
0.0
 40
350.9174847821263
100
AcDbArc
 50
346.73057073
 51
348.3265869082
  0
ARC
  5
309
330
1F
100
AcDbEntity
  8
0
  6
SLD-Durchgehend
 62
     7
370
    15
100
AcDbCircle
 10
85.351626486
 20
111.7796673413
 30
0.0
 40
11.56856550488988
100
AcDbArc
 50
114.8918024417
 51
156.6476338534
  0
ARC
  5
30A
330
1F
100
AcDbEntity
  8
0
  6
SLD-Durchgehend
 62
     7
370
    15
100
AcDbCircle
 10
91.1549872509
 20
99.757208969
 30
0.0
 40
18.74939750631092
100
AcDbArc
 50
170.1955501284
 51
184.7187322736
  0
ARC
  5
30B
330
1F
100
AcDbEntity
  8
0
  6
SLD-Durchgehend
 62
     7
370
    15
100
AcDbCircle
 10
79.1096764644
 20
98.4985000706
 30
0.0
 40
6.646593804739481
100
AcDbArc
 50
182.4463113423
 51
202.8313198666
  0
ARC
  5
30C
330
1F
100
AcDbEntity
  8
0
  6
SLD-Durchgehend
 62
     7
370
    15
100
AcDbCircle
 10
144.7673058139
 20
86.7697203787
 30
0.0
 40
73.96867969000374
100
AcDbArc
 50
161.6467843848
 51
167.1783866438
  0
LWPOLYLINE
  5
30D
330
1F
100
AcDbEntity
  8
0
  6
SLD-Durchgehend
 62
     7
370
    15
100
AcDbPolyline
 90
       10
 70
   128
 43
0.0
 10
75.2411331591
 20
115.8559450112
 10
75.3072049078
 20
115.8096741117
 10
75.4346796852
 20
115.5141468323
 10
75.5001544562
 20
115.0430596597
 10
75.492528787
 20
114.4186833105
 10
75.40633302
 20
113.6345283292
 10
75.2487979439
 20
112.7526240587
 10
75.0194280949
 20
111.748591268
 10
74.8050190118
 20
110.927122382
 10
74.5611587149
 20
110.0605439558
  0
ARC
  5
30E
330
1F
100
AcDbEntity
  8
0
  6
SLD-Durchgehend
 62
     7
370
    15
100
AcDbCircle
 10
82.7379825191
 20
116.1134629385
 30
0.0
 40
6.560084801747029
100
AcDbArc
 50
77.1733251296
 51
110.1111453396
  0
LINE
  5
30F
330
1F
100
AcDbEntity
  8
0
  6
SLD-Durchgehend
 62
     7
370
    15
100
AcDbLine
 10
84.1943375376
 20
122.5098480634
 30
0.0
 11
83.8993667234
 21
119.298341421
 31
0.0
  0
ARC
  5
310
330
1F
100
AcDbEntity
  8
0
  6
SLD-Durchgehend
 62
     7
370
    15
100
AcDbCircle
 10
80.1418027724
 20
97.9316908309
 30
0.0
 40
1.818819645552691
100
AcDbArc
 50
166.9891796984
 51
205.3971379426
  0
LINE
  5
311
330
1F
100
AcDbEntity
  8
0
  6
SLD-Durchgehend
 62
     7
370
    15
100
AcDbLine
 10
79.1909182985
 20
101.8018186721
 30
0.0
 11
78.3696766552
 21
98.341170901
 31
0.0
  0
LINE
  5
312
330
1F
100
AcDbEntity
  8
0
  6
SLD-Durchgehend
 62
     7
370
    15
100
AcDbLine
 10
79.892451929
 20
103.7132199551
 30
0.0
 11
80.0341284443
 21
105.2557286737
 31
0.0
  0
LWPOLYLINE
  5
313
330
1F
100
AcDbEntity
  8
0
  6
SLD-Durchgehend
 62
     7
370
    15
100
AcDbPolyline
 90
        5
 70
   128
 43
0.0
 10
79.5650720206
 20
100.1488582394
 10
79.5655586366
 20
100.1539381384
 10
79.61198367
 20
100.3167249426
 10
79.6645894256
 20
100.3742592572
 10
79.6752679703
 20
100.3776986315
  0
LINE
  5
314
330
1F
100
AcDbEntity
  8
0
  6
SLD-Durchgehend
 62
     7
370
    15
100
AcDbLine
 10
79.2125780676
 20
96.3110651053
 30
0.0
 11
79.5650720206
 21
100.1488582394
 31
0.0
  0
ARC
  5
315
330
1F
100
AcDbEntity
  8
0
  6
SLD-Durchgehend
 62
     7
370
    15
100
AcDbCircle
 10
80.4582975117
 20
98.0923340724
 30
0.0
 40
2.173645800643392
100
AcDbArc
 50
205.6443024692
 51
235.0332200238
  0
LWPOLYLINE
  5
316
330
1F
100
AcDbEntity
  8
0
  6
SLD-Durchgehend
 62
     7
370
    15
100
AcDbPolyline
 90
        3
 70
   128
 43
0.0
 10
79.2658767273
 20
100.8056953713
 10
79.082035048
 20
100.8451266377
 10
79.0064684656
 20
100.9277964174
  0
ARC
  5
317
330
1F
100
AcDbEntity
  8
0
  6
SLD-Durchgehend
 62
     7
370
    15
100
AcDbCircle
 10
74.1092220542
 20
96.5085629345
 30
0.0
 40
1.270235883085816
100
AcDbArc
 50
207.6292855412
 51
268.9168396723
  0
ARC
  5
318
330
1F
100
AcDbEntity
  8
0
  6
SLD-Durchgehend
 62
     7
370
    15
100
AcDbCircle
 10
74.6854446926
 20
96.9039239378
 30
0.0
 40
4.565787795221312
100
AcDbArc
 50
327.1499861458
 51
352.5391857892
  0
LINE
  5
319
330
1F
100
AcDbEntity
  8
0
  6
SLD-Durchgehend
 62
     7
370
    15
100
AcDbLine
 10
80.842205843
 20
105.3359929926
 30
0.0
 11
82.6961226371
 21
113.290449807
 31
0.0
  0
LINE
  5
31A
330
1F
100
AcDbEntity
  8
0
  6
SLD-Durchgehend
 62
     7
370
    15
100
AcDbLine
 10
82.86744315
 20
114.025520829
 30
0.0
 11
83.5670633782
 21
117.0273271553
 31
0.0
  0
LWPOLYLINE
  5
31B
330
1F
100
AcDbEntity
  8
0
  6
SLD-Durchgehend
 62
     7
370
    15
100
AcDbPolyline
 90
        9
 70
   128
 43
0.0
 10
80.8395101298
 20
105.6077892906
 10
80.818665268
 20
105.4842270667
 10
80.8022516389
 20
105.3704009962
 10
80.7918981259
 20
105.2776071581
 10
80.7886319776
 20
105.2150543826
 10
80.7927772944
 20
105.1889504295
 10
80.8039233629
 20
105.2018858015
 10
80.8209628408
 20
105.2525768453
 10
80.842205843
 20
105.3359929926
  0
LINE
  5
31C
330
1F
100
AcDbEntity
  8
0
  6
SLD-Durchgehend
 62
     7
370
    15
100
AcDbLine
 10
82.136551438
 20
112.8096205346
 30
0.0
 11
80.8395101298
 21
105.6077892906
 31
0.0
  0
LINE
  5
31D
330
1F
100
AcDbEntity
  8
0
  6
SLD-Durchgehend
 62
     7
370
    15
100
AcDbLine
 10
86.3018155173
 20
132.4703113339
 30
0.0
 11
83.9870579616
 21
122.538562601
 31
0.0
  0
LWPOLYLINE
  5
31E
330
1F
100
AcDbEntity
  8
0
  6
SLD-Durchgehend
 62
     7
370
    15
100
AcDbPolyline
 90
        9
 70
   128
 43
0.0
 10
86.3045114342
 20
132.1985160164
 10
86.3253561288
 20
132.3220783077
 10
86.3417697142
 20
132.4359045527
 10
86.3521233127
 20
132.5286978088
 10
86.3553894282
 20
132.5912510208
 10
86.3512439368
 20
132.6173541299
 10
86.3400982339
 20
132.604419922
 10
86.3230584177
 20
132.5537280343
 10
86.3018155173
 20
132.4703113339
  0
LINE
  5
31F
330
1F
100
AcDbEntity
  8
0
  6
SLD-Durchgehend
 62
     7
370
    15
100
AcDbLine
 10
83.6119792034
 20
117.2482135869
 30
0.0
 11
86.3045114342
 21
132.1985160164
 31
0.0
  0
ARC
  5
320
330
1F
100
AcDbEntity
  8
0
  6
SLD-Durchgehend
 62
     7
370
    15
100
AcDbCircle
 10
79.1048156597
 20
118.0497062124
 30
0.0
 40
4.577872173615972
100
AcDbArc
 50
347.0952676486
 51
349.9167020491
  0
LWPOLYLINE
  5
321
330
1F
100
AcDbEntity
  8
0
  6
SLD-Durchgehend
 62
     7
370
    15
100
AcDbPolyline
 90
        9
 70
   128
 43
0.0
 10
86.3033211458
 20
132.199788203
 10
86.323123603
 20
132.3171721003
 10
86.3387165113
 20
132.4253079645
 10
86.3485524273
 20
132.5134613714
 10
86.3516552376
 20
132.5728872023
 10
86.3477170201
 20
132.5976845972
 10
86.3371286027
 20
132.5853967271
 10
86.3209407794
 20
132.5372398994
 10
86.3007600233
 20
132.4579955242
  0
LINE
  5
322
330
1F
100
AcDbEntity
  8
0
  6
SLD-Durchgehend
 62
     7
370
    15
100
AcDbLine
 10
86.3007600233
 20
132.4579955242
 30
0.0
 11
83.9888165314
 21
122.5383185945
 31
0.0
  0
LINE
  5
323
330
1F
100
AcDbEntity
  8
0
  6
SLD-Durchgehend
 62
     7
370
    15
100
AcDbLine
 10
82.1382310782
 20
112.8110636189
 30
0.0
 11
80.8407003601
 21
105.6065165437
 31
0.0
  0
LWPOLYLINE
  5
324
330
1F
100
AcDbEntity
  8
0
  6
SLD-Durchgehend
 62
     7
370
    15
100
AcDbPolyline
 90
        9
 70
   128
 43
0.0
 10
80.8407003601
 20
105.6065165437
 10
80.8208976482
 20
105.48913243
 10
80.80530498
 20
105.3809976572
 10
80.7954688166
 20
105.2928435081
 10
80.7923661154
 20
105.2334183757
 10
80.796304213
 20
105.208619613
 10
80.806892885
 20
105.2209082397
 10
80.8230806683
 20
105.2690647182
 10
80.8432614972
 20
105.3483100538
  0
LINE
  5
325
330
1F
100
AcDbEntity
  8
0
  6
SLD-Durchgehend
 62
     7
370
    15
100
AcDbLine
 10
80.8432614972
 20
105.3483100538
 30
0.0
 11
82.693853004
 21
113.2884991518
 31
0.0
  0
LINE
  5
326
330
1F
100
AcDbEntity
  8
0
  6
SLD-Durchgehend
 62
     7
370
    15
100
AcDbLine
 10
82.8788884059
 20
114.0824162564
 30
0.0
 11
83.5681190324
 21
117.0396448276
 31
0.0
  0
ARC
  5
327
330
1F
100
AcDbEntity
  8
0
  6
SLD-Durchgehend
 62
     7
370
    15
100
AcDbCircle
 10
79.3288136706
 20
118.0109384507
 30
0.0
 40
4.349151785460168
100
AcDbArc
 50
347.0953374781
 51
349.9166562308
  0
LINE
  5
328
330
1F
100
AcDbEntity
  8
0
  6
SLD-Durchgehend
 62
     7
370
    15
100
AcDbLine
 10
83.6107889731
 20
117.2494867048
 30
0.0
 11
86.3033211458
 21
132.199788203
 31
0.0
  0
ARC
  5
329
330
1F
100
AcDbEntity
  8
0
  6
SLD-Durchgehend
 62
     7
370
    15
100
AcDbCircle
 10
89.7228739624
 20
131.7230731648
 30
0.0
 40
1.305449618614128
100
AcDbArc
 50
344.4889346402
 51
3.0855804188
  0
LINE
  5
32A
330
1F
100
AcDbEntity
  8
0
  6
SLD-Durchgehend
 62
     7
370
    15
100
AcDbLine
 10
88.2882450782
 20
116.4236615575
 30
0.0
 11
90.9807775711
 21
131.373963987
 31
0.0
  0
ARC
  5
32B
330
1F
100
AcDbEntity
  8
0
  6
SLD-Durchgehend
 62
     7
370
    15
100
AcDbCircle
 10
83.7809452479
 20
117.2251795442
 30
0.0
 40
4.578010795500555
100
AcDbArc
 50
347.0953395169
 51
349.9166881768
  0
LINE
  5
32C
330
1F
100
AcDbEntity
  8
0
  6
SLD-Durchgehend
 62
     7
370
    15
100
AcDbLine
 10
88.1097689812
 20
115.6297183759
 30
0.0
 11
88.2433293695
 21
116.2027751259
 31
0.0
  0
LWPOLYLINE
  5
32D
330
1F
100
AcDbEntity
  8
0
  6
SLD-Durchgehend
 62
     7
370
    15
100
AcDbPolyline
 90
        9
 70
   128
 43
0.0
 10
84.7134509199
 20
124.1602094076
 10
84.7655627253
 20
124.4691142044
 10
84.8065966815
 20
124.7536798171
 10
84.832480697
 20
124.9856648199
 10
84.8406459513
 20
125.142045056
 10
84.8302821937
 20
125.2073065541
 10
84.8024179536
 20
125.174967309
 10
84.7598184441
 20
125.0482403836
 10
84.7067111713
 20
124.8396986327
  0
LINE
  5
32E
330
1F
100
AcDbEntity
  8
0
  6
SLD-Durchgehend
 62
     7
370
    15
100
AcDbLine
 10
83.9634074905
 20
119.9955872423
 30
0.0
 11
84.7134509199
 21
124.1602094076
 31
0.0
  0
LINE
  5
32F
330
1F
100
AcDbEntity
  8
0
  6
SLD-Durchgehend
 62
     7
370
    15
100
AcDbLine
 10
82.4373104219
 20
112.9666056647
 30
0.0
 11
82.466876654
 21
113.0934625096
 31
0.0
  0
LWPOLYLINE
  5
330
330
1F
100
AcDbEntity
  8
0
  6
SLD-Durchgehend
 62
     7
370
    15
100
AcDbPolyline
 90
        7
 70
   128
 43
0.0
 10
82.3270376381
 20
112.9689064971
 10
82.3115408961
 20
112.8206408746
 10
82.3033755255
 20
112.6642587758
 10
82.3137392831
 20
112.5989991403
 10
82.3416035232
 20
112.6313374541
 10
82.3842031491
 20
112.7580653108
 10
82.4373104219
 20
112.9666056647
  0
LINE
  5
331
330
1F
100
AcDbEntity
  8
0
  6
SLD-Durchgehend
 62
     7
370
    15
100
AcDbLine
 10
84.7067111713
 20
124.8396986327
 30
0.0
 11
84.1646593139
 21
122.5139589212
 31
0.0
  0
LINE
  5
332
330
1F
100
AcDbEntity
  8
0
  6
SLD-Durchgehend
 62
     7
370
    15
100
AcDbLine
 10
88.1097689812
 20
115.6297183759
 30
0.0
 11
88.2659212761
 21
116.2997090421
 31
0.0
  0
LINE
  5
333
330
1F
100
AcDbEntity
  8
0
  6
SLD-Durchgehend
 62
     7
370
    15
100
AcDbLine
 10
88.2659212761
 20
116.2997090421
 30
0.0
 11
90.9246383776
 21
131.0622521839
 31
0.0
  0
LINE
  5
334
330
1F
100
AcDbEntity
  8
0
  6
SLD-Durchgehend
 62
     7
370
    15
100
AcDbLine
 10
91.0952585359
 20
115.800820028
 30
0.0
 11
93.7539758702
 21
130.5633631698
 31
0.0
  0
LINE
  5
335
330
1F
100
AcDbEntity
  8
0
  6
SLD-Durchgehend
 62
     7
370
    15
100
AcDbLine
 10
91.0952585359
 20
115.800820028
 30
0.0
 11
88.2659212761
 21
116.2997090421
 31
0.0
  0
LINE
  5
336
330
1F
100
AcDbEntity
  8
0
  6
SLD-Durchgehend
 62
     7
370
    15
100
AcDbLine
 10
94.0308441018
 20
130.5304874829
 30
0.0
 11
91.3888696191
 21
115.8609089605
 31
0.0
  0
LINE
  5
337
330
1F
100
AcDbEntity
  8
0
  6
SLD-Durchgehend
 62
     7
370
    15
100
AcDbLine
 10
91.3888696191
 20
115.8609089605
 30
0.0
 11
91.0952585359
 21
115.800820028
 31
0.0
  0
ARC
  5
338
330
1F
100
AcDbEntity
  8
0
  6
SLD-Durchgehend
 62
     7
370
    15
100
AcDbCircle
 10
92.1816805158
 20
130.9997404807
 30
0.0
 40
1.631728481933997
100
AcDbArc
 50
344.48845436
 51
3.086060699
  0
ARC
  5
339
330
1F
100
AcDbEntity
  8
0
  6
SLD-Durchgehend
 62
     7
370
    15
100
AcDbCircle
 10
93.1151825677
 20
130.7401763079
 30
0.0
 40
0.9393643852067551
100
AcDbArc
 50
347.1015257256
 51
359.9602555391
  0
LINE
  5
33A
330
1F
100
AcDbEntity
  8
0
  6
SLD-Durchgehend
 62
     7
370
    15
100
AcDbLine
 10
90.9391064738
 20
115.1308293618
 30
0.0
 11
91.0952585359
 21
115.800820028
 31
0.0
  0
LINE
  5
33B
330
1F
100
AcDbEntity
  8
0
  6
SLD-Durchgehend
 62
     7
370
    15
100
AcDbLine
 10
91.3888696191
 20
115.8609089605
 30
0.0
 11
91.2076756899
 21
115.0834734715
 31
0.0
  0
LINE
  5
33C
330
1F
100
AcDbEntity
  8
0
  6
SLD-Durchgehend
 62
     7
370
    15
100
AcDbLine
 10
100.7521390524
 20
104.0802386985
 30
0.0
 11
82.1013171767
 21
107.3688817839
 31
0.0
  0
LINE
  5
33D
330
1F
100
AcDbEntity
  8
0
  6
SLD-Durchgehend
 62
     7
370
    15
100
AcDbLine
 10
83.728225723
 20
116.4023026056
 30
0.0
 11
82.1013171767
 21
107.3688817839
 31
0.0
  0
LINE
  5
33E
330
1F
100
AcDbEntity
  8
0
  6
SLD-Durchgehend
 62
     7
370
    15
100
AcDbLine
 10
83.728225723
 20
116.4023026056
 30
0.0
 11
91.2338290904
 21
115.0788624934
 31
0.0
  0
LINE
  5
33F
330
1F
100
AcDbEntity
  8
0
  6
SLD-Durchgehend
 62
     7
370
    15
100
AcDbLine
 10
91.2338290904
 20
115.0788624934
 30
0.0
 11
91.3264090736
 21
115.5929125077
 31
0.0
  0
ELLIPSE
  5
340
330
1F
100
AcDbEntity
  8
0
  6
SLD-Durchgehend
 62
     7
370
    15
100
AcDbEllipse
 10
84.7043868659
 20
88.0038863323
 30
0.0
 11
7.791539352843514
 21
42.82382851549576
 31
0.0
210
0.0
220
0.0
230
1.0
 40
0.5729530612
 41
5.720810318036591
 42
6.221014110316655
  0
LINE
  5
341
330
1F
100
AcDbEntity
  8
0
  6
SLD-Durchgehend
 62
     7
370
    15
100
AcDbLine
 10
104.3785024044
 20
121.8521760009
 30
0.0
 11
104.3785024044
 21
107.833669025
 31
0.0
  0
ELLIPSE
  5
342
330
1F
100
AcDbEntity
  8
0
  6
SLD-Durchgehend
 62
     7
370
    15
100
AcDbEllipse
 10
103.0071851591
 20
105.617923399
 30
0.0
 11
2.770022597818866
 21
0.3915547084307746
 31
0.0
210
0.0
220
0.0
230
1.0
 40
0.8913813907
 41
0.932020345805231
 42
3.646802925436584
  0
LWPOLYLINE
  5
343
330
1F
100
AcDbEntity
  8
0
  6
SLD-Durchgehend
 62
     7
370
    15
100
AcDbPolyline
 90
        3
 70
   128
 43
0.0
 10
80.8497407083
 20
105.1785573352
 10
80.8430524153
 20
105.1666912087
 10
80.7947554235
 20
105.1216096082
  0
ARC
  5
344
330
1F
100
AcDbEntity
  8
0
  6
SLD-Durchgehend
 62
     7
370
    15
100
AcDbCircle
 10
47.2900328715
 20
106.4006430865
 30
0.0
 40
32.94437487549313
100
AcDbArc
 50
347.9366190958
 51
351.6161378265
  0
LINE
  5
345
330
1F
100
AcDbEntity
  8
0
  6
SLD-Durchgehend
 62
     7
370
    15
100
AcDbLine
 10
81.0596226324
 20
105.1415495156
 30
0.0
 11
80.8928115834
 21
104.2153305304
 31
0.0
  0
LWPOLYLINE
  5
346
330
1F
100
AcDbEntity
  8
0
  6
SLD-Durchgehend
 62
     7
370
    15
100
AcDbPolyline
 90
       15
 70
   128
 43
0.0
 10
80.8928115834
 20
104.2153305304
 10
80.8132314664
 20
103.7527121068
 10
80.7439089362
 20
103.3065900835
 10
80.6883201544
 20
102.8993350617
 10
80.6492525694
 20
102.5513682678
 10
80.6286647525
 20
102.280138263
 10
80.6275895406
 20
102.0992458496
 10
80.6460804847
 20
102.0177614107
 10
80.6832109188
 20
102.0397711243
 10
80.7371186633
 20
102.1641711402
 10
80.8051005547
 20
102.3847239255
 10
80.8837474865
 20
102.690369559
 10
80.969116239
 20
103.0657819635
 10
81.0569255222
 20
103.4921365488
 10
81.1427729745
 20
103.9480536408
  0
LINE
  5
347
330
1F
100
AcDbEntity
  8
0
  6
SLD-Durchgehend
 62
     7
370
    15
100
AcDbLine
 10
81.1427729745
 20
103.9480536408
 30
0.0
 11
82.2213562746
 21
109.9368941202
 31
0.0
  0
LINE
  5
348
330
1F
100
AcDbEntity
  8
0
  6
SLD-Durchgehend
 62
     7
370
    15
100
AcDbLine
 10
82.1013171767
 20
107.3688817839
 30
0.0
 11
78.0761889723
 21
89.6469631396
 31
0.0
  0
ARC
  5
349
330
1F
100
AcDbEntity
  8
0
  6
SLD-Durchgehend
 62
     7
370
    15
100
AcDbCircle
 10
86.3785031793
 20
105.617923399
 30
0.0
 40
17.99999999999987
100
AcDbArc
 50
241.3431252112
 51
242.5328676997
  0
LINE
  5
34A
330
1F
100
AcDbEntity
  8
0
  6
SLD-Durchgehend
 62
     7
370
    15
100
AcDbLine
 10
77.7463666704
 20
89.8227912537
 30
0.0
 11
77.8726670501
 21
90.6209542579
 31
0.0
  0
ARC
  5
34B
330
1F
100
AcDbEntity
  8
0
  6
SLD-Durchgehend
 62
     7
370
    15
100
AcDbCircle
 10
74.9020324198
 20
91.3045543596
 30
0.0
 40
3.048274791720686
100
AcDbArc
 50
347.0407484562
 51
2.4436874704
  0
ARC
  5
34C
330
1F
100
AcDbEntity
  8
0
  6
SLD-Durchgehend
 62
     7
370
    15
100
AcDbCircle
 10
86.3785031793
 20
105.617923399
 30
0.0
 40
16.49999999999987
100
AcDbArc
 50
237.3413136764
 51
239.2716877845
  0
LINE
  5
34D
330
1F
100
AcDbEntity
  8
0
  6
SLD-Durchgehend
 62
     7
370
    15
100
AcDbLine
 10
82.2213562746
 20
109.9368941202
 30
0.0
 11
83.728225723
 21
116.4023026056
 31
0.0
  0
ARC
  5
34E
330
1F
100
AcDbEntity
  8
0
  6
SLD-Durchgehend
 62
     7
370
    15
100
AcDbCircle
 10
86.3785031793
 20
105.617923399
 30
0.0
 40
18.00000000000002
100
AcDbArc
 50
242.5328676997
 51
352.9879199494
  0
ELLIPSE
  5
34F
330
1F
100
AcDbEntity
  8
0
  6
SLD-Durchgehend
 62
     7
370
    15
100
AcDbEllipse
 10
103.7443149158
 20
105.617923399
 30
0.0
 11
2.988813227083767
 21
1.544233910093169
 31
0.0
210
0.0
220
0.0
230
1.0
 40
0.6578019636
 41
3.138265836257098
 42
4.543689299392498
  0
ARC
  5
350
330
1F
100
AcDbEntity
  8
0
  6
SLD-Durchgehend
 62
     7
370
    15
100
AcDbCircle
 10
86.4586065316
 20
105.6130141422
 30
0.0
 40
17.91989654524682
100
AcDbArc
 50
352.9722325622
 51
0.0156965025
  0
LINE
  5
351
330
1F
100
AcDbEntity
  8
0
  6
SLD-Durchgehend
 62
     7
370
    15
100
AcDbLine
 10
104.3785024044
 20
107.833669025
 30
0.0
 11
104.3785024044
 21
105.617923399
 31
0.0
  0
ARC
  5
352
330
1F
100
AcDbEntity
  8
0
  6
SLD-Durchgehend
 62
     7
370
    15
100
AcDbCircle
 10
86.3783945188
 20
105.6177907476
 30
0.0
 40
16.49982950900839
100
AcDbArc
 50
225.6441395448
 51
237.3413812519
  0
ARC
  5
353
330
1F
100
AcDbEntity
  8
0
  6
SLD-Durchgehend
 62
     7
370
    15
100
AcDbCircle
 10
86.3785031793
 20
105.617923399
 30
0.0
 40
16.50000000000001
100
AcDbArc
 50
130.2412777125
 51
138.4169127675
  0
ARC
  5
354
330
1F
100
AcDbEntity
  8
0
  6
SLD-Durchgehend
 62
     7
370
    15
100
AcDbCircle
 10
86.3785031793
 20
105.617923399
 30
0.0
 40
16.50000000000002
100
AcDbArc
 50
191.3313569569
 51
214.937050459
  0
ARC
  5
355
330
1F
100
AcDbEntity
  8
0
  6
SLD-Durchgehend
 62
     7
370
    15
100
AcDbCircle
 10
86.3785031793
 20
105.617923399
 30
0.0
 40
16.50000000000002
100
AcDbArc
 50
218.145627178
 51
225.6441915501
  0
LINE
  5
356
330
1F
100
AcDbEntity
  8
0
  6
SLD-Durchgehend
 62
     7
370
    15
100
AcDbLine
 10
73.5011003521
 20
117.4679237581
 30
0.0
 11
74.5285028201
 21
117.4679237581
 31
0.0
  0
LINE
  5
357
330
1F
100
AcDbEntity
  8
0
  6
SLD-Durchgehend
 62
     7
370
    15
100
AcDbLine
 10
74.5285028201
 20
118.4953262261
 30
0.0
 11
74.5285028201
 21
117.4679237581
 31
0.0
  0
LINE
  5
358
330
1F
100
AcDbEntity
  8
0
  6
SLD-Durchgehend
 62
     7
370
    15
100
AcDbLine
 10
81.878503373
 20
124.488800501
 30
0.0
 11
81.878503373
 21
125.1050994895
 31
0.0
  0
ARC
  5
359
330
1F
100
AcDbEntity
  8
0
  6
SLD-Durchgehend
 62
     7
370
    15
100
AcDbCircle
 10
86.3785031793
 20
105.617923399
 30
0.0
 40
20.00000000000002
100
AcDbArc
 50
103.0028781629
 51
126.3346172154
  0
LINE
  5
35A
330
1F
100
AcDbEntity
  8
0
  6
SLD-Durchgehend
 62
     7
370
    15
100
AcDbLine
 10
74.5285028201
 20
121.7293326906
 30
0.0
 11
74.5285028201
 21
120.9781809873
 31
0.0
  0
LINE
  5
35B
330
1F
100
AcDbEntity
  8
0
  6
SLD-Durchgehend
 62
     7
370
    15
100
AcDbLine
 10
80.8785032091
 20
87.0138907037
 30
0.0
 11
80.8785032091
 21
86.3890384487
 31
0.0
  0
ARC
  5
35C
330
1F
100
AcDbEntity
  8
0
  6
SLD-Durchgehend
 62
     7
370
    15
100
AcDbCircle
 10
86.3785031793
 20
105.617923399
 30
0.0
 40
20.00000000000003
100
AcDbArc
 50
181.8540317727
 51
254.0379858372
  0
LINE
  5
35D
330
1F
100
AcDbEntity
  8
0
  6
SLD-Durchgehend
 62
     7
370
    15
100
AcDbLine
 10
70.1164263841
 20
117.2602956346
 30
0.0
 11
70.2670938876
 21
117.4679237581
 31
0.0
  0
LINE
  5
35E
330
1F
100
AcDbEntity
  8
0
  6
SLD-Durchgehend
 62
     7
370
    15
100
AcDbLine
 10
70.2670938876
 20
117.4679237581
 30
0.0
 11
71.0182455909
 21
117.4679237581
 31
0.0
  0
ARC
  5
35F
330
1F
100
AcDbEntity
  8
0
  6
SLD-Durchgehend
 62
     7
370
    15
100
AcDbCircle
 10
86.3785031793
 20
105.617923399
 30
0.0
 40
20.0
100
AcDbArc
 50
285.9620141628
 51
25.8419327632
  0
LINE
  5
360
330
1F
100
AcDbEntity
  8
0
  6
SLD-Durchgehend
 62
     7
370
    15
100
AcDbLine
 10
91.8785031494
 20
86.3890384487
 30
0.0
 11
91.8785031494
 21
87.0138907037
 31
0.0
  0
LINE
  5
361
330
1F
100
AcDbEntity
  8
0
  6
SLD-Durchgehend
 62
     7
370
    15
100
AcDbLine
 10
91.8785031494
 20
87.0138907037
 30
0.0
 11
91.8785031494
 21
88.4787866078
 31
0.0
  0
LINE
  5
362
330
1F
100
AcDbEntity
  8
0
  6
SLD-Durchgehend
 62
     7
370
    15
100
AcDbLine
 10
80.8785032091
 20
88.4787866078
 30
0.0
 11
80.8785032091
 21
87.0138907037
 31
0.0
  0
LINE
  5
363
330
1F
100
AcDbEntity
  8
0
  6
SLD-Durchgehend
 62
     7
370
    15
100
AcDbLine
 10
71.0182455909
 20
117.4679237581
 30
0.0
 11
73.5011003521
 21
117.4679237581
 31
0.0
  0
LINE
  5
364
330
1F
100
AcDbEntity
  8
0
  6
SLD-Durchgehend
 62
     7
370
    15
100
AcDbLine
 10
81.878503373
 20
122.6151620201
 30
0.0
 11
81.878503373
 21
124.488800501
 31
0.0
  0
LINE
  5
365
330
1F
100
AcDbEntity
  8
0
  6
SLD-Durchgehend
 62
     7
370
    15
100
AcDbLine
 10
74.5285028201
 20
120.9781809873
 30
0.0
 11
74.5285028201
 21
118.4953262261
 31
0.0
  0
ARC
  5
366
330
1F
100
AcDbEntity
  8
0
  6
SLD-Durchgehend
 62
     7
370
    15
100
AcDbCircle
 10
86.3746976133
 20
105.621728965
 30
0.0
 40
19.99468001395848
100
AcDbArc
 50
126.3322940084
 51
143.6677059916
  0
ARC
  5
367
330
1F
100
AcDbEntity
  8
0
  6
SLD-Durchgehend
 62
     7
370
    15
100
AcDbCircle
 10
86.3794892539
 20
105.6119901425
 30
0.0
 40
19.99402474853108
100
AcDbArc
 50
272.8640120614
 51
285.9639726697
  0
ARC
  5
368
330
1F
100
AcDbEntity
  8
0
  6
SLD-Durchgehend
 62
     7
370
    15
100
AcDbCircle
 10
86.380590261
 20
105.6305254821
 30
0.0
 40
20.01269060333513
100
AcDbArc
 50
254.0421632182
 51
267.1298520507
  0
ARC
  5
369
330
1F
100
AcDbEntity
  8
0
  6
SLD-Durchgehend
 62
     7
370
    15
100
AcDbCircle
 10
86.327798913
 20
105.8825323856
 30
0.0
 40
19.73077081278967
100
AcDbArc
 50
94.7679664923
 51
103.0323017295
  0
ARC
  5
36A
330
1F
100
AcDbEntity
  8
0
  6
SLD-Durchgehend
 62
     7
370
    15
100
AcDbCircle
 10
86.3785031793
 20
105.617923399
 30
0.0
 40
20.0
100
AcDbArc
 50
267.1340160174
 51
272.8659839826
  0
SPLINE
  5
36B
330
1F
100
AcDbEntity
  8
VERMASSUNG
100
AcDbSpline
210
0.0
220
0.0
230
1.0
 70
     8
 71
     3
 72
    74
 73
    70
 74
     0
 42
0.00000001
 43
0.00000001
 40
0.0
 40
0.0
 40
0.0
 40
0.0
 40
0.0114707292602628
 40
0.022426913775425
 40
0.032868542771422
 40
0.0427957109197993
 40
0.0522086237693327
 40
0.0611076057843495
 40
0.0694931122564282
 40
0.0773657467940676
 40
0.0847443113662126
 40
0.0917500796339378
 40
0.0984060367338248
 40
0.1047130211399864
 40
0.110672055606828
 40
0.1162843883975778
 40
0.1215515479747075
 40
0.1264754165311668
 40
0.1404388929099018
 40
0.1573129631531401
 40
0.1766577025529341
 40
0.1939168657014654
 40
0.2080832958401682
 40
0.2284394247471243
 40
0.2511549889509941
 40
0.2721936832749862
 40
0.2907241482114796
 40
0.3043057773742996
 40
0.3195061744484383
 40
0.3363212645358959
 40
0.3547484070670586
 40
0.3747865618927053
 40
0.3964363921208039
 40
0.4197003302917663
 40
0.444582622218779
 40
0.4709343782874924
 40
0.4969645256199819
 40
0.5221721256427662
 40
0.5465711301713673
 40
0.5701741790353334
 40
0.5929926040827875
 40
0.6150364348309081
 40
0.6363144060403249
 40
0.6568339675947898
 40
0.6766012971987023
 40
0.6956213165747047
 40
0.7110180157821812
 40
0.7253536952494698
 40
0.7386711322497713
 40
0.7510117547194057
 40
0.7624179945829082
 40
0.7731974839886994
 40
0.7858507079560633
 40
0.8013961113204772
 40
0.8197805964461172
 40
0.8356880256819724
 40
0.8496197485285035
 40
0.8631986649285951
 40
0.8767330392384229
 40
0.8837221569841134
 40
0.8913896542047623
 40
0.8997538389664931
 40
0.9088318973554902
 40
0.9187710542002772
 40
0.9306337122624326
 40
0.9446740616875401
 40
0.9609092816095559
 40
0.9793493915150363
 40
1.0
 40
1.0
 40
1.0
 40
1.0
 10
66.91361539899319
 20
116.5539699381975
 30
0.0
 10
66.8569032174827
 20
116.5434935739872
 30
0.0
 10
66.74602280387569
 20
116.5230107858843
 30
0.0
 10
66.58603779134862
 20
116.4814677637298
 30
0.0
 10
66.43580520073483
 20
116.434423484787
 30
0.0
 10
66.29550438500782
 20
116.3823622049445
 30
0.0
 10
66.16503913431954
 20
116.3267026551299
 30
0.0
 10
66.0442713915613
 20
116.2685293026494
 30
0.0
 10
65.9329834234148
 20
116.2089047717301
 30
0.0
 10
65.83082633609281
 20
116.1487444284232
 30
0.0
 10
65.73691437087874
 20
116.0885478295178
 30
0.0
 10
65.65028305268764
 20
116.0285659050718
 30
0.0
 10
65.57010345183663
 20
115.9689539073483
 30
0.0
 10
65.49604972399435
 20
115.910135419476
 30
0.0
 10
65.42788088172607
 20
115.8525600092141
 30
0.0
 10
65.36533706820465
 20
115.7966245737799
 30
0.0
 10
65.3081994085981
 20
115.742731292196
 30
0.0
 10
65.22302719953578
 20
115.6583141197587
 30
0.0
 10
65.10504424899797
 20
115.5300636592201
 30
0.0
 10
64.95720074859557
 20
115.3442799901407
 30
0.0
 10
64.8166468102105
 20
115.1349879668219
 30
0.0
 10
64.7013830489582
 20
114.9302690283331
 30
0.0
 10
64.60236969176962
 20
114.725725857715
 30
0.0
 10
64.51987395072909
 20
114.526588864136
 30
0.0
 10
64.45015538662426
 20
114.3332268972634
 30
0.0
 10
64.3864752849038
 20
114.1355609796222
 30
0.0
 10
64.33795154845552
 20
113.9706095462148
 30
0.0
 10
64.29724704478654
 20
113.8235451121505
 30
0.0
 10
64.25673879102328
 20
113.6703744378251
 30
0.0
 10
64.21127414506212
 20
113.49008853443
 30
0.0
 10
64.16041416750159
 20
113.2788367936337
 30
0.0
 10
64.10417284452403
 20
113.0341992619099
 30
0.0
 10
64.04264314279489
 20
112.7540375598286
 30
0.0
 10
63.97617771346565
 20
112.4372174657801
 30
0.0
 10
63.90555220329157
 20
112.0845458879263
 30
0.0
 10
63.83353607308182
 20
111.7072901780674
 30
0.0
 10
63.76350729026233
 20
111.3219965346512
 30
0.0
 10
63.69834123751271
 20
110.94524991073
 30
0.0
 10
63.63895786559437
 20
110.5840078271086
 30
0.0
 10
63.5856342857744
 20
110.2417179037427
 30
0.0
 10
63.53849110882587
 20
109.9209408735881
 30
0.0
 10
63.49751554868141
 20
109.6234399308176
 30
0.0
 10
63.46258124278271
 20
109.3502247233215
 30
0.0
 10
63.43347655645057
 20
109.1017875799319
 30
0.0
 10
63.40989845455847
 20
108.8776742171744
 30
0.0
 10
63.39248648527002
 20
108.6884576544201
 30
0.0
 10
63.38006188912617
 20
108.5281940773536
 30
0.0
 10
63.37147801206034
 20
108.3899359651979
 30
0.0
 10
63.36574389309565
 20
108.2635072571046
 30
0.0
 10
63.36255025604564
 20
108.1462264770989
 30
0.0
 10
63.36176750960844
 20
108.0346011378098
 30
0.0
 10
63.36336533194763
 20
107.9185152622928
 30
0.0
 10
63.37003627765438
 20
107.7622686510084
 30
0.0
 10
63.38732085716703
 20
107.5661659976115
 30
0.0
 10
63.41898568469642
 20
107.3539265579857
 30
0.0
 10
63.46545646774204
 20
107.1419282732832
 30
0.0
 10
63.52387934039924
 20
106.9403715185627
 30
0.0
 10
63.59289395069666
 20
106.7496110516423
 30
0.0
 10
63.66206014841634
 20
106.5919337514027
 30
0.0
 10
63.72583183122224
 20
106.4648037487863
 30
0.0
 10
63.78130672424985
 20
106.3633805866873
 30
0.0
 10
63.8456818989704
 20
106.2558379875501
 30
0.0
 10
63.92024988928643
 20
106.142425852666
 30
0.0
 10
64.0091272487273
 20
106.0198097613426
 30
0.0
 10
64.12123005309684
 20
105.881420206348
 30
0.0
 10
64.2638084107968
 20
105.7266988471619
 30
0.0
 10
64.44245433433565
 20
105.5604700427592
 30
0.0
 10
64.66040554208398
 20
105.3878006485276
 30
0.0
 10
64.82848172693923
 20
105.2859483344719
 30
0.0
 10
64.91727199818533
 20
105.232142409499
 30
0.0
  0
INSERT
  5
377
330
1F
100
AcDbEntity
  8
VERMASSUNG
100
AcDbBlockReference
  2
SW_CENTERMARKSYMBOL_0
 10
86.3785031793
 20
105.617923399
 30
0.0
  0
OLE2FRAME
  5
378
330
1F
100
AcDbEntity
  8
0
100
AcDbOle2Frame
 70
     2
  3
Bitmap
 10
13.8511154363
 20
38.264191557
 30
0.0
 11
51.6290888628
 21
31.9806341108
 31
0.0
 71
     2
 72
     0
 73
     1
 90
    12928
310
80552BED0767C5B32B40DDAF6807D121434000000000000000006FFBDDFB85D0
310
4940DDAF6807D121434000000000000000006FFBDDFB85D04940416F4BD60AFB
310
3F4000000000000000002BED0767C5B32B40416F4BD60AFB3F40000000000000
310
0000000000000100000000010000010000000100000000000100000000320000
310
D0CF11E0A1B11AE1000000000000000000000000000000003E000300FEFF0900
310
0600000000000000000000000100000001000000000000000010000002000000
310
01000000FEFFFFFF0000000000000000FFFFFFFFFFFFFFFFFFFFFFFFFFFFFFFF
310
FFFFFFFFFFFFFFFFFFFFFFFFFFFFFFFFFFFFFFFFFFFFFFFFFFFFFFFFFFFFFFFF
310
FFFFFFFFFFFFFFFFFFFFFFFFFFFFFFFFFFFFFFFFFFFFFFFFFFFFFFFFFFFFFFFF
310
FFFFFFFFFFFFFFFFFFFFFFFFFFFFFFFFFFFFFFFFFFFFFFFFFFFFFFFFFFFFFFFF
310
FFFFFFFFFFFFFFFFFFFFFFFFFFFFFFFFFFFFFFFFFFFFFFFFFFFFFFFFFFFFFFFF
310
FFFFFFFFFFFFFFFFFFFFFFFFFFFFFFFFFFFFFFFFFFFFFFFFFFFFFFFFFFFFFFFF
310
FFFFFFFFFFFFFFFFFFFFFFFFFFFFFFFFFFFFFFFFFFFFFFFFFFFFFFFFFFFFFFFF
310
FFFFFFFFFFFFFFFFFFFFFFFFFFFFFFFFFFFFFFFFFFFFFFFFFFFFFFFFFFFFFFFF
310
FFFFFFFFFFFFFFFFFFFFFFFFFFFFFFFFFFFFFFFFFFFFFFFFFFFFFFFFFFFFFFFF
310
FFFFFFFFFFFFFFFFFFFFFFFFFFFFFFFFFFFFFFFFFFFFFFFFFFFFFFFFFFFFFFFF
310
FFFFFFFFFFFFFFFFFFFFFFFFFFFFFFFFFFFFFFFFFFFFFFFFFFFFFFFFFFFFFFFF
310
FFFFFFFFFFFFFFFFFFFFFFFFFFFFFFFFFFFFFFFFFFFFFFFFFFFFFFFFFFFFFFFF
310
FFFFFFFFFFFFFFFFFFFFFFFFFFFFFFFFFFFFFFFFFFFFFFFFFFFFFFFFFFFFFFFF
310
FFFFFFFFFFFFFFFFFFFFFFFFFFFFFFFFFFFFFFFFFFFFFFFFFFFFFFFFFFFFFFFF
310
FDFFFFFFFEFFFFFFFEFFFFFFFEFFFFFF05000000060000000700000008000000
310
090000000A0000000B0000000C0000000D0000000E0000000F00000010000000
310
11000000120000001300000014000000150000001600000017000000FEFFFFFF
310
FFFFFFFFFFFFFFFFFFFFFFFFFFFFFFFFFFFFFFFFFFFFFFFFFFFFFFFFFFFFFFFF
310
FFFFFFFFFFFFFFFFFFFFFFFFFFFFFFFFFFFFFFFFFFFFFFFFFFFFFFFFFFFFFFFF
310
FFFFFFFFFFFFFFFFFFFFFFFFFFFFFFFFFFFFFFFFFFFFFFFFFFFFFFFFFFFFFFFF
310
FFFFFFFFFFFFFFFFFFFFFFFFFFFFFFFFFFFFFFFFFFFFFFFFFFFFFFFFFFFFFFFF
310
FFFFFFFFFFFFFFFFFFFFFFFFFFFFFFFFFFFFFFFFFFFFFFFFFFFFFFFFFFFFFFFF
310
FFFFFFFFFFFFFFFFFFFFFFFFFFFFFFFFFFFFFFFFFFFFFFFFFFFFFFFFFFFFFFFF
310
FFFFFFFFFFFFFFFFFFFFFFFFFFFFFFFFFFFFFFFFFFFFFFFFFFFFFFFFFFFFFFFF
310
FFFFFFFFFFFFFFFFFFFFFFFFFFFFFFFFFFFFFFFFFFFFFFFFFFFFFFFFFFFFFFFF
310
FFFFFFFFFFFFFFFFFFFFFFFFFFFFFFFFFFFFFFFFFFFFFFFFFFFFFFFFFFFFFFFF
310
FFFFFFFFFFFFFFFFFFFFFFFFFFFFFFFFFFFFFFFFFFFFFFFFFFFFFFFFFFFFFFFF
310
FFFFFFFFFFFFFFFFFFFFFFFFFFFFFFFFFFFFFFFFFFFFFFFFFFFFFFFFFFFFFFFF
310
FFFFFFFFFFFFFFFFFFFFFFFFFFFFFFFFFFFFFFFFFFFFFFFFFFFFFFFFFFFFFFFF
310
FFFFFFFFFFFFFFFFFFFFFFFFFFFFFFFFFFFFFFFFFFFFFFFFFFFFFFFFFFFFFFFF
310
52006F006F007400200045006E00740072007900000000000000000000000000
310
0000000000000000000000000000000000000000000000000000000000000000
310
16000500FFFFFFFFFFFFFFFF020000000A00030000000000C000000000000046
310
000000000000000000000000C024218F6FA8C90103000000C000000000000000
310
01004F006C006500000000000000000000000000000000000000000000000000
310
0000000000000000000000000000000000000000000000000000000000000000
310
0A000200FFFFFFFFFFFFFFFFFFFFFFFF00000000000000000000000000000000
310
0000000000000000000000000000000000000000000000001400000000000000
310
010043006F006D0070004F0062006A0000000000000000000000000000000000
310
0000000000000000000000000000000000000000000000000000000000000000
310
120002010100000003000000FFFFFFFF00000000000000000000000000000000
310
0000000000000000000000000000000000000000010000004D00000000000000
310
01004F006C006500310030004E00610074006900760065000000000000000000
310
0000000000000000000000000000000000000000000000000000000000000000
310
1A000200FFFFFFFFFFFFFFFFFFFFFFFF00000000000000000000000000000000
310
0000000000000000000000000000000000000000040000002426000000000000
310
FEFFFFFF02000000FEFFFFFFFFFFFFFFFFFFFFFFFFFFFFFFFFFFFFFFFFFFFFFF
310
FFFFFFFFFFFFFFFFFFFFFFFFFFFFFFFFFFFFFFFFFFFFFFFFFFFFFFFFFFFFFFFF
310
FFFFFFFFFFFFFFFFFFFFFFFFFFFFFFFFFFFFFFFFFFFFFFFFFFFFFFFFFFFFFFFF
310
FFFFFFFFFFFFFFFFFFFFFFFFFFFFFFFFFFFFFFFFFFFFFFFFFFFFFFFFFFFFFFFF
310
FFFFFFFFFFFFFFFFFFFFFFFFFFFFFFFFFFFFFFFFFFFFFFFFFFFFFFFFFFFFFFFF
310
FFFFFFFFFFFFFFFFFFFFFFFFFFFFFFFFFFFFFFFFFFFFFFFFFFFFFFFFFFFFFFFF
310
FFFFFFFFFFFFFFFFFFFFFFFFFFFFFFFFFFFFFFFFFFFFFFFFFFFFFFFFFFFFFFFF
310
FFFFFFFFFFFFFFFFFFFFFFFFFFFFFFFFFFFFFFFFFFFFFFFFFFFFFFFFFFFFFFFF
310
FFFFFFFFFFFFFFFFFFFFFFFFFFFFFFFFFFFFFFFFFFFFFFFFFFFFFFFFFFFFFFFF
310
FFFFFFFFFFFFFFFFFFFFFFFFFFFFFFFFFFFFFFFFFFFFFFFFFFFFFFFFFFFFFFFF
310
FFFFFFFFFFFFFFFFFFFFFFFFFFFFFFFFFFFFFFFFFFFFFFFFFFFFFFFFFFFFFFFF
310
FFFFFFFFFFFFFFFFFFFFFFFFFFFFFFFFFFFFFFFFFFFFFFFFFFFFFFFFFFFFFFFF
310
FFFFFFFFFFFFFFFFFFFFFFFFFFFFFFFFFFFFFFFFFFFFFFFFFFFFFFFFFFFFFFFF
310
FFFFFFFFFFFFFFFFFFFFFFFFFFFFFFFFFFFFFFFFFFFFFFFFFFFFFFFFFFFFFFFF
310
FFFFFFFFFFFFFFFFFFFFFFFFFFFFFFFFFFFFFFFFFFFFFFFFFFFFFFFFFFFFFFFF
310
FFFFFFFFFFFFFFFFFFFFFFFFFFFFFFFFFFFFFFFFFFFFFFFFFFFFFFFFFFFFFFFF
310
0100000200000000000000000000000000000000B80A76247500610020004600
310
65007400740020004B0075007200730069007600000000000000000000000000
310
0100FEFF030A0000FFFFFFFF0A00030000000000C00000000000004607000000
310
5042727573680007000000504272757368000700000050427275736800F439B2
310
710000000000000000000000000065007400740020004B007500720073006900
310
7600000000000000000000000000000000000000000000000000000000000000
310
00000000000000000000000057006500730074006C0069006300680000000000
310
0000000000000000000000000000000000000000000000000000000000000000
310
0000000000000000000000006476000800000000000000001EFF1F2025000000
310
1A0000000B00000005000000000000000D00000028000000BC02000000000000
310
6000000060000000200002FB1F002000FF000017000000002100240000080000
310
2B0900001C030000030000000000000000000000000000000100000000000000
310
616C000800000000E40100007001000004000000270000001500000000000000
310
00000000BC020000000000000302011250006500720070006500740075006100
310
20005400690074006C0069006E00670020004D00540000000000000000000000
310
0000000000000000000000000000000050006500720070006500740075006100
310
20260000424D0E260000000000003E00000028000000B40200006E0000000100
310
01000000000000000000130B0000130B00000200000002000000000000FFFFFF
310
FFFFFFFFFFFFFFFFFFFFFFFFFFFFFFFFFFFFFFFFFFFFFFFFFFFFFFFFFFFFFFFF
310
FFFFFFFFFFFFFFFFFFFFFFFFFFFFFFFFFFFFFFFFFFFFFFFFFFFFFFFFFFFFFFFF
310
FFFFFFFFFFFFFFFFFFFFFFFFFFFFFFFFFFFFFFFFFFFFFFFFF000FFFFFFFFFFFF
310
FFFFFFFFFFFFFFFFFFFFFFFFFFFFFFFFFFFFFFFFFFFFFFFFFFFFFFFFFFFFFFFF
310
FFFFFFFFFFFFFFFFFFFFFFFFFFFFFFFFFFFFFFFFFFFFFFFFFFFFFFFFFFFFFFFF
310
FFFFFFFFFFFFFFFFFFFFFFFFFFFFFFFFF000FFFFFFFFFFFFFFFFFFFFFFFFFFFF
310
FFFFFFFFFFFFFFFFFFFFFFFFFFFFFFFFFFFFFFFFFFFFFFFFFFFFFFFFFFFFFFFF
310
FFFFFFFFFFFFFFFFFFFFFFFFFFFFFFFFFFFFFFFFFFFFFFFFFFFFFFFFFFFFFFFF
310
FFFFFFFFFFFFFFFFF000FFFFFFFFFFFFFFFFFFFFFFFFFFFFFFFFFFFFFFFFFFFF
310
FFFFFFFFFFFFFFFFFFFFFFFFFFFFFFFFFFFFFFFFFFFFFFFFFFFFFFFFFFFFFFFF
310
FFFFFFFFFFFFFFFFFFFFFFFFFFFFFFFFFFFFFFFFFFFFFFFFFFFFFFFFFFFFFFFF
310
F000FFFFFFFFFFFFFFFFFFFFFFFFFFFFFFFFFFFFFFFFFFFFFFFFFFFFFFFFFFFF
310
FFFFFFFFFFFFFFFFFFFFFFFFFFFFFFFFFFFFFFFFFFFFFFFFFFFFFFFFFFFFFFFF
310
FFFFFFFFFFFFFFFFFFFFFFFFFFFFFFFFFFFFFFFFFFFFFFFFF000FFFFFFFFFFFF
310
FFFFFFFFFFFFFFFFFFFFFFFFFFFFFFFFFFFFFFFFFFFFFFFFFFFFFFFFFFFFFFFF
310
FFFFFFFFFFFFFFFFFFFFFFFFFFFFFFFFFFFFFFFFFFFFFFFFFFFFFFFFFFFFFFFF
310
FFFFFFFFFFFFFFFFFFFFFFFFFFFFFFFFF000FFFFFFFFFFFFFFFFFFFFFFFFFFFF
310
FFFFFFFFFFFFFFFFFFFFFFFFFFFFFFFFFFFFFFFFFFFFFFFFFFFFFFFFFFFFFFFF
310
FFFFFFFFFFFFFFFFFFFFFFFFFFFFFFFFFFFFFFFFFFFFFFFFFFFFFFFFFFFFFFFF
310
FFFFFFFFFFFFFFFFF000FFFFFFFFFFFFFFFFFFFFFFFFFFFFFFFFFFFFFFFFFFFF
310
FFFFFFFFFFFFFFFFFFFFFFFFFFFFFFFFFFFFFFFFFFFFFFFFFFFFFFFFFFFFFFFF
310
FFFFFFFFFFFFFFFFFFFFFFFFFFFFFFFFFFFFFFFFFFFFFFFFFFFFFFFFFFFFFFFF
310
F000FFFFFFFFFFFFFFFFFFFFFFFFFFFFFFFFFFFFFFFFFFFFFFFFFFFFFFFFFFFF
310
FFFFFFFFFFFFFFFFFFFFFFFFFFFFFFFFFFFFFFFFFFFFFFFFFFFFFFFFFFFFFFFF
310
FFFFFFFFFFFFFFFFFFFFFFFFFFFFFFFFFFFFFFFFFFFFFFFFF000FFFFFFFFFFFF
310
FFFFFFFFFFFFFFFFFFFFFFFFFFFFFFFFFFFFFFFFFFFFFFFFFFFFFFFFFFFFFFFF
310
FFFFFFFFFFFFFFFFFFFFFFFFFFFFFFFFFFFFFFFFFFFFFFFFFFFFFFFFFFFFFFFF
310
FFFFFFFFFFFFFFFFFFFFFFFFFFFFFFFFF000FFFFFFFFFFFFFFFFFFFFFFFFFFFF
310
FFFFFFFFFFFFFFFFFFFFFFFFFFFFFFFFFFFFFFFFFFFFFFFFFFFFFFFFFFFFFFFF
310
FFFFFFFFFFFFFFFFFFFFFFFFFFFFFFFFFFFFFFFFFFFFFFFFFFFFFFFFFFFFFFFF
310
FFFFFFFFFFFFFFFFF000FFFFFFFFFFFFFFFFFFFFFFFFFFFFFFFFFFFFFFFFFFFF
310
FFFFFFFFFFFFFFFFFFFFFFFFFFFFFFFFFFFFFFFFFFFFFFFFFFFFFFFFFFFFFFFF
310
FFFFFFFFFFFFFFFFFFFFFFFFFFFFFFFFFFFFFFFFFFFFFFFFFFFFFFFFFFFFFFFF
310
F000FFFFFFFFFFFFFFFFFFFFFFFFFFFFFFFFFFFFFFFFFFFFFFFFFFFFFFFFFFFF
310
FFFFFFFFFFFFFFFFFFFFFFFFFFFFFFFFFFFFFFFFFFFFFFFFFFFFFFFFFFFFFFFF
310
FFFFFFFFFFFFFFFFFFFFFFFFFFFFFFFFFFFFFFFFFFFFFFFFF000FFFFFFFFFFFF
310
FFFFFFFFFFFFFFFFFFFFFFFFFFFFFFFFFFFFFFFFFFFFFFFFFFFFFFFFFFFFFFFF
310
FFFFFFFFFFFFFFFFFFFFFFFFFFFFFFFFFFFFFFFFFFFFFFFFFFFFFFFFFFFFFFFF
310
FFFFFFFFFFFFFFFFFFFFFFFFFFFFFFFFF000FFFFFFFFFFFFFFFFFFFFFFFFFFFF
310
FFFFFFFFFFFFFFFFFFFFFFFFFFFFFFFFFFFFFFFFFFFFFFFFFFFFFFFFFFFFFFFF
310
FFFFFFFFFFFFFFFFFFFFFFFFFFFFFFFFFFFFFFFFFFFFFFFFFFFFFFFFFFFFFFFF
310
FFFFFFFFFFFFFFFFF000FFFFFFFFFFFFFFFFFFFFFFFFFFFFFFFFFFFFFFFFFFFF
310
FFFFFFFFFFFFFFFFFFFFFFFFFFFFFFFFFFFFFFFFFFFFFFFFFFFFFFFFFFFFFFFF
310
FFFFFFFFFFFFFFFFFFFFFFFFFFFFFFFFFFFFFFFFFFFFFFFFFFFFFFFFFFFFFFFF
310
F000FFFFFFFFFFFFFFFFFFFFFFFFFFFFFFFFFFFFFFFFFFFFFFFFFFFFFFFFFFFF
310
FFFFFFFFFFFFFFFFFFFFFFFFFFFFFFFFFFFFFFFFFFFFFFFFFFFFFFFFFFFFFFFF
310
FFFFFFFFFFFFFFFFFFFFFFFFFFFFFFFFFFFFFFFFFFFFFFFFF000FFFFFFFFFFFF
310
FFFFFFFFFFFFFFFFFFFFFFFFFFFFFFFFFFFFFFFFFFFFFFFFFFFFFFFFFFFFFFFF
310
FFFFFFFFFFFFFFFFFFFFFFFFFFFFFFFFFFFFFFFFFFFFFFFFFFFFFFFFFFFFFFFF
310
FFFFFFFFFFFFFFFFFFFFFFFFFFFFFFFFF000FFFFFFFFFFFFFFFFFFFFFFFFFFFF
310
FFFFFFFFFFFFFFFFFFFFFFFFFFFFFFFFFFFFFFFFFFFFFFFFFFFFFFFFFFFFFFFF
310
FFFFFFFFFFFFFFFFFFFFFFFFFFFFFFFFFFFFFFFFFFFFFFFFFFFFFFFFFFFFFFFF
310
FFFFFFFFFFFFFFFFF000FFFFF80003FFFFFFFFFFFFFFFFFFFFFFFFFFFFFFFFFF
310
FFFFF00007FFFFFFFFFF00007FFFFFF800000000000000007FFFFFFFFFFFFFFF
310
FFFFFFFC001FFFFFFFFFFFFFFC001FFFFFFFFFFFFFFFFFFFFFFFFFFE0007FFFF
310
F000FFFF8000007FFFFFFFF8000FFFFFC0007FFFFF80007FFFFF0000007FFFFF
310
FFF8000007FFFFF800000000000000007FFFFFF0001FFFFFFFFFFFC00001FFFF
310
FFFFFFFFC00001FFFFFFFF000000000003FFFFE000007FFFF000FFFE0000000F
310
FFFFFFF0000FFFFF80007FFFFF80007FFFFC0000001FFFFFFFC0000001FFFFF8
310
00000000000000007FFFFFF0001FFFFFFFFFFE0000003FFFFFFFFFFE0000003F
310
FFFFFF000000000003FFFF0000000FFFF000FFF800000003FFFFFFF00007FFFF
310
80007FFFFF80007FFFF000000007FFFFFF000000003FFFF80000000000000000
310
7FFFFFF0001FFFFFFFFFF80000000FFFFFFFFFF80000000FFFFFFF0000000000
310
03FFFC00000003FFF000FFE000000000FFFFFFF00007FFFF80003FFFFF80007F
310
FFC000000001FFFFFC000000001FFFF800000000000000007FFFFFF0001FFFFF
310
FFFFE000000003FFFFFFFFE000000003FFFFFF000000000003FFF000000000FF
310
F000FF80000000007FFFFFF00007FFFF80003FFFFF80007FFF8000000000FFFF
310
F80000000007FFF800000000000000007FFFFFF0001FFFFFFFFFC000000001FF
310
FFFFFFC000000001FFFFFF000000000003FFC0000000007FF000FF0000000000
310
3FFFFFE00007FFFF00003FFFFF80007FFE00000000003FFFF00000000003FFF8
310
00000000000000007FFFFFF0001FFFFFFFFF8000000000FFFFFFFF8000000000
310
FFFFFF000000000003FF80000000003FF000FE00000000001FFFFFE00003FFFF
310
00003FFFFF80007FFC00000000001FFFE00000000001FFF8000001FFFE000000
310
7FFFFFF0001FFFFFFFFE00000000003FFFFFFE00000000003FFFFF0000000000
310
03FF00000000001FF000FC00000000000FFFFFE00003FFFF00001FFFFF80007F
310
F800000000001FFFC00000000000FFF8000001FFFE0000007FFFFFF0001FFFFF
310
FFFC00000000001FFFFFFC00000000001FFFFF000000000003FE00000000000F
310
F000F8000000000007FFFFE00003FFFF00001FFFFF80007FF800000000000FFF
310
800000000000FFF8000001FFFE0000007FFFFFF0001FFFFFFFF800000000000F
310
FFFFF800000000000FFFFF000000000003FC000000000007F000F80000000000
310
03FFFFC00003FFFE00001FFFFF80007FF0000000000007FF0000000000007FF8
310
000001FFFE0000007FFFFFF0001FFFFFFFF0000000000007FFFFF00000000000
310
07FFFF000000000003F8000000000003F000F0000000000003FFFFC00001FFFE
310
00001FFFFF80007FE0000000000007FE0000000000003FF8000001FFFE000000
310
7FFFFFF0001FFFFFFFF0000000000007FFFFF0000000000007FFFF0000000000
310
03F800001F800003F000E00001FFF00001FFFFC00001FFFE00000FFFFF80007F
310
E00001FFE00003FE00001FFF00003FF8000001FFFE0000007FFFFFF0001FFFFF
310
FFE000003E000003FFFFE000003E000003FFFF000000000003F00001FFF80001
310
F000E00007FFFC0001FFFFC00001FFFE00000FFFFF80007FC0000FFFFC0003FC
310
0000FFFFC0001FF8000001FFFE0000007FFFFFF0001FFFFFFFC00003FFE00001
310
FFFFC00003FFE00001FFFF0001FFFFFFFFF00007FFFE0001F000E0000FFFFF00
310
00FFFF800001FFFC00000FFFFF80007FC0001FFFFE0001FC0001FFFFE0001FF8
310
000001FFFE0000007FFFFFF0001FFFFFFF80000FFFF80000FFFF80000FFFF800
310
00FFFF0003FFFFFFFFE0000FFFFF8000F000C0003FFFFF8000FFFF800000FFFC
310
000007FFFF80007F80003FFFFF0001FC0003FFFFF0001FF8000001FFFE000000
310
7FFFFFF0001FFFFFFF80003FFFFE0000FFFF80003FFFFE0000FFFF0003FFFFFF
310
FFE0003FFFFF8000F000C0003FFFFF8000FFFF800000FFFC000007FFFF80007F
310
80007FFFFF8001F80007FFFFF8000FF8000001FFFE0000007FFFFFF0001FFFFF
310
FF00007FFFFF00007FFF00007FFFFF00007FFF0003FFFFFFFFE0003FFFFFC000
310
F000C0007FFFFFC000FFFF000000FFFC000007FFFF80007F8000FFFFFF8000F8
310
000FFFFFF8000FF8000001FFFE0000007FFFFFF0001FFFFFFF0000FFFFFF8000
310
7FFF0000FFFFFF80007FFF0003FFFFFFFFC0007FFFFFC00070008000FFFFFFC0
310
00FFFF000000FFF8000007FFFF80007F8000FFFFFF8000F8000FFFFFF8000FF8
310
000001FFFE0000007FFFFFF0001FFFFFFE0001FFFFFFC0003FFE0001FFFFFFC0
310
003FFF0003FFFFFFFFC0007FFFFFE00070008000FFFFFFC0007FFF0000007FF8
310
000003FFFF80007F0001FFFFFF8000F8000FFFFFF8000FF8000001FFFE000000
310
7FFFFFF0001FFFFFFE0001FFFFFFC0003FFE0001FFFFFFC0003FFF0003FFFFFF
310
FFC000FFFFFFE00070008000FFFFFFC0007FFF0000007FF8000003FFFF80007F
310
0001FFFFFF8000F8001FFFFFF8000FF8000001FFFE0000007FFFFFF0001FFFFF
310
FE0003FFFFFFE0003FFE0003FFFFFFE0003FFF0003FFFFFFFFC000FFFFFFE000
310
70008000FFFFFFC0007FFE0000007FF8000003FFFF80007F0001FFFFFF8000F0
310
001FFFFFF8000FF8000001FFFE0000007FFFFFF0001FFFFFFC0003FFFFFFE000
310
1FFC0003FFFFFFE0001FFF0003FFFFFFFFC000FFFFFFC00070008000FFFFFF80
310
007FFE0000007FF0000003FFFF80007F0001FFFFFF0000F0001FFFFFF8000FF8
310
000001FFFE0000007FFFFFF0001FFFFFFC0007FFFFFFF0001FFC0007FFFFFFF0
310
001FFF0003FFFFFFFFC000FFFFFFC00070008001FFFFFF0000FFFE0000003FF0
310
000001FFFF80007F0001FFFFFF0000F8001FFFFFF0000FF8000001FFFE000000
310
7FFFFFF0001FFFFFFC0007FFFFFFF0001FFC0007FFFFFFF0001FFF0003FFFFFF
310
FFC001FFFFFF80007000FFFFFFFFFE0000FFFE0008003FF0008001FFFF80007F
310
FFFFFFFFFC0000FFFFFFFFFFE0000FF8000001FFFE0000007FFFFFF0001FFFFF
310
F8000FFFFFFFF8000FF8000FFFFFFFF8000FFF0003FFFFFFFFFFFFFFFFFF0000
310
7000FFFFFFFFFC0000FFFC0008003FF0008001FFFF80007FFFFFFFFFF80001FF
310
FFFFFFFF80000FF8000001FFFE0000007FFFFFF0001FFFFFF8000FFFFFFFF800
310
0FF8000FFFFFFFF8000FFF0003FFFFFFFFFFFFFFFFFE0000F000FFFFFFFFE000
310
00FFFC000C003FE000C001FFFF80007FFFFFFFFFC00001FFFFFFFFFE00001FF8
310
000001FFFE0000007FFFFFF0001FFFFFF8000FFFFFFFF8000FF8000FFFFFFFF8
310
000FFF0003FFFFFFFFFFFFFFFFF00000F000FFFFFFFE000001FFFC000C001FE0
310
00C000FFFF80007FFFFFFFFE000001FFFFFFFFE000001FF80FFFFFFFFFFFFFC0
310
7FFFFFF0001FFFFFF8000FFFFFFFF8000FF8000FFFFFFFF8000FFF0003FFFFFF
310
FFFFFFFFFF800000F000FFFFFFC0000001FFFC001C001FE001C000FFFF80007F
310
FFFFFF80000003FFFFFFF80000001FF80FFFFFFFFFFFFFC07FFFFFF0001FFFFF
310
F8001FFFFFFFFC000FF8001FFFFFFFFC000FFF0003FFFFFFFFFFFFFFF0000001
310
F000FFFFF800000001FFF8001C001FE001C000FFFF80007FFFFFF800000003FF
310
FFFF800000003FF80FFFFFFFFFFFFFC07FFFFFF0001FFFFFF8001FFFFFFFFC00
310
0FF8001FFFFFFFFC000FFF0003FFFFFFFFFFFFFE00000001F000FFFFC0000000
310
03FFF8001E001FC001E000FFFF80007FFFFF8000000007FFFFFC000000003FF8
310
0FFFFFFFFFFFFFC07FFFFFF0001FFFFFF8001FFFFFFFFC000FF8001FFFFFFFFC
310
000FFF0003FFFFFFFFFFFFE000000003F000FFFE0000000007FFF8001E000FC0
310
01E0007FFF80007FFFFE0000000007FFFFE0000000007FF80FFFFFFFFFFFFFC0
310
7FFFFFF0001FFFFFF0001FFFFFFFFC0007F0001FFFFFFFFC0007FF0003FFFFFF
310
FFFFFF0000000003F000FFF80000000007FFF8001E000FC003E0007FFF80007F
310
FFF0000000000FFFFF8000000000FFF80FFFFFFFFFFFFFC07FFFFFF0001FFFFF
310
F0001FFFFFFFFC0007F0001FFFFFFFFC0007FF0003FFFFFFFFFFFC0000000007
310
F000FFE0000000000FFFF0003E000FC003E0007FFF80007FFFC0000000001FFF
310
FE0000000001FFF80FFFFFFFFFFFFFC07FFFFFF0001FFFFFF0001FFFFFFFFC00
310
07F0001FFFFFFFFC0007FF0003FFFFFFFFFFF0000000000FF000FFC000000000
310
1FFFF0003F000F8003F0003FFF80007FFF80000000003FFFF80000000003FFF8
310
0FFFFFFFFFFFFFC07FFFFFF0001FFFFFF0001FFFFFFFFC0007F0001FFFFFFFFC
310
0007FF0003FFFFFFFFFFE0000000001FF000FF00000000007FFFF0003F000780
310
03F0003FFF80007FFF00000000007FFFF00000000007FFF80FFFFFFFFFFFFFC0
310
7FFFFFF0001FFFFFF0001FFFFFFFFC0007F0001FFFFFFFFC0007FF0003FFFFFF
310
FFFF80000000007FF000FE0000000000FFFFE0003F00078007F0003FFF80007F
310
FE0000000001FFFFE0000000001FFFF80FFFFFFFFFFFFFC07FFFFFF0001FFFFF
310
F0001FFFFFFFFC0007F0001FFFFFFFFC0007FF0003FFFFFFFFFF0000000000FF
310
F000FC0000000003FFFFE0007F00078007F0003FFF80007FFC0000000007FFFF
310
C0000000007FFFF80FFFFFFFFFFFFFC07FFFFFF0001FFFFFF8001FFFFFFFFC00
310
0FF8001FFFFFFFFC000FFF0003FFFFFFFFFE0000000003FFF000FC000000000F
310
FFFFE0007F80070007F8001FFF80007FF8000000001FFFFF8000000001FFFFF8
310
0FFFFFFFFFFFFFC07FFFFFF0001FFFFFF8001FFFFFFFFC000FF8001FFFFFFFFC
310
000FFF0003FFFFFFFFFC000000000FFFF000F8000000007FFFFFE0007F800700
310
07F8001FFF80007FF000000000FFFFFF800000000FFFFFF80FFFFFFFFFFFFFC0
310
7FFFFFF0001FFFFFF8000FFFFFFFF8000FF8000FFFFFFFF8000FFF0003FFFFFF
310
FFFC000000007FFFF000F800000007FFFFFFC0007F8003000FF8001FFF80007F
310
F000000007FFFFFF000000007FFFFFF80FFFFFFFFFFFFFC07FFFFFF0001FFFFF
310
F8000FFFFFFFF8000FF8000FFFFFFFF8000FFF0003FFFFFFFFF80000000FFFFF
310
F000F0000000FFFFFFFFC000FF8003000FF8001FFF80007FE0000000FFFFFFFF
310
0000000FFFFFFFF8000001FFFE0000007FFFFFF0001FFFFFF8000FFFFFFFF800
310
0FF8000FFFFFFFF8000FFF0003FFFFFFFFF8000000FFFFFFF000F000000FFFFF
310
FFFFC000FFC002000FF8000FFF80007FE000001FFFFFFFFE000001FFFFFFFFF8
310
000001FFFE0000007FFFFFF0001FFFFFF8000FFFFFFFF8000FF8000FFFFFFFF8
310
000FFF0003FFFFFFFFF000001FFFFFFFF000E00000FFFFFFFFFFC000FFC00200
310
0FFC000FFF80007FE00001FFFFFFFFFE00001FFFFFFFFFF8000001FFFE000000
310
7FFFFFF0001FFFFFFC000FFFFFFFF8001FFC000FFFFFFFF8001FFF0003FFFFFF
310
FFF00001FFFFFFFFF000E00007FFFFFFFFFF8000FFC000001FFC000FFF80007F
310
C0000FFFFFFFFFFE0000FFFFFFFFFFF8000001FFFE0000007FFFFFF0001FFFFF
310
FC0007FFFFFFF0001FFC0007FFFFFFF0001FFF0003FFFFFFFFF00007FFFFFFFF
310
F000E0001FFFFFFFFFFF8000FFC000001FFC000FFF80007FC0003FFFFFFFFFFE
310
0001FFFFFFFFFFF8000001FFFE0000007FFFFFF0001FFFFFFC0007FFFFFFF000
310
1FFC0007FFFFFFF0001FFF0003FFFFFFFFF0001FFFFFFFFFF000E0003FFFFF00
310
03FF8001FFE000001FFC0007FF80007FC0007FFFFF0007FC0003FFFFF0003FF8
310
000001FFFE0000007FFFFFF0001FFFFFFC0003FFFFFFE0001FFC0003FFFFFFE0
310
001FFF0003FFFFFFFFF0003FFFFFFFFFF000E0003FFFFF0001FF8001FFE00000
310
1FFE0007FF80007FC0007FFFFE0003FC0007FFFFE0003FF8000001FFFE000000
310
7FFFFFF0001FFFFFFE0003FFFFFFE0003FFE0003FFFFFFE0003FFF0003FFFFFF
310
FFF0003FFFFF8001F000E0003FFFFF0001FF0001FFE000001FFE0007FF80007F
310
C0007FFFFE0003FC0007FFFFE0003FF8000001FFFE0000007FFFFFF0001FFFFF
310
FE0001FFFFFFC0003FFE0001FFFFFFC0003FFF0003FFFFFFFFF0003FFFFF0001
310
F000E0003FFFFF0003FF0001FFE000003FFE0007FF80007FC0007FFFFE0003FC
310
0007FFFFE0003FF8000001FFFE0000007FFFFFF0001FFFFFFF0001FFFFFFC000
310
7FFF0001FFFFFFC0007FFF0003FFFFFFFFF0003FFFFF0001F000E0003FFFFE00
310
03FF0003FFF000003FFE0003FF80007FC0007FFFFC0003FE0007FFFFE0003FF8
310
000001FFFE0000007FFFFFF0001FFFFFFF0000FFFFFF80007FFF0000FFFFFF80
310
007FFF0003FFFFFFFFF0003FFFFF0001F000E0003FFFFE0003FF0003FFF00000
310
3FFF0003FF80007FC0007FFFFC0007FE0007FFFFC0003FF8000001FFFE000000
310
7FFFFFF0001FFFFFFF80007FFFFF0000FFFF80007FFFFF0000FFFF0003FFFFFF
310
FFF0003FFFFF0003F000E0003FFFFC0003FE0003FFF000003FFF0003FF80007F
310
E0003FFFF80007FE0003FFFFC0007FF8000001FFFE0000007FFFFFF0001FFFFF
310
FF80003FFFFE0000FFFF80003FFFFE0000FFFF0003FFFFFFFFF0001FFFFE0003
310
F000F0001FFFF80003FE0003FFF000007FFF0001FF80007FE0003FFFF00007FE
310
0001FFFF80007FF8000001FFFE0000007FFFFFF0001FFFFFFFC0000FFFF80001
310
FFFFC0000FFFF80001FFFF0003FFFFFFFFF0001FFFFC0003F000F0000FFFF000
310
07FE0007FFF800007FFF0001FF80007FE0001FFFE00007FF0000FFFE00007FF8
310
000001FFFE0000007FFFFFF0001FFFFFFFC00003FFE00001FFFFC00003FFE000
310
01FFFF0003FFFFFFFFF8000FFFF80003F000F00003FFC00007FC0007FFF80000
310
7FFF8001FF80007FF00007FF80000FFF00007FF80000FFF8000001FFFE000000
310
7F80000000000001FFE000003E000003FFFFE000003E000003FFFF0003FFFFFF
310
FFF80003FFE00007F000F800000000000FFC0007FFF800007FFF8001FF80007F
310
F000000000000FFF000000000000FFF8000001FFFE0000007F80000000000001
310
FFF0000000000007FFFFF0000000000007FFFF0003FFFFFFFFFC00007E000007
310
F000F800000000000FFC0007FFF80000FFFF8000FF80007FF800000000001FFF
310
800000000001FFF8000001FFFE0000007F80000000000001FFF800000000000F
310
FFFFF800000000000FFFFF0003FFFFFFFFFC00000000000FF000FC0000000000
310
1FFC0007FFFC0000FFFF8000FF80007FF800000000003FFFC00000000001FFF8
310
000001FFFE0000007F80000000000001FFF800000000000FFFFFF80000000000
310
0FFFFF0003FFFFFFFFFE00000000001FF000FE00000000003FF8000FFFFC0000
310
FFFF8000FF80007FFC00000000003FFFC00000000003FFF8000001FFFE000000
310
7F80000000000001FFFC00000000001FFFFFFC00000000001FFFFF0003FFFFFF
310
FFFF00000000001FF000FF00000000003FF8000FFFFC0000FFFFC000FF80007F
310
FE00000000007FFFE00000000007FFF8000001FFFE0000007F80000000000001
310
FFFE00000000003FFFFFFE00000000003FFFFF0003FFFFFFFFFF80000000003F
310
F000FF80000000007FF8000FFFFC0001FFFFC0007F80007FFF0000000000FFFF
310
F0000000000FFFF800000000000000007F80000000000001FFFF8000000000FF
310
FFFFFF8000000000FFFFFF0003FFFFFFFFFFC0000000007FF000FFC000000000
310
FFF8000FFFFE0001FFFFC0007F80007FFF8000000001FFFFF8000000001FFFF8
310
00000000000000007F80000000000001FFFFC000000001FFFFFFFFC000000001
310
FFFFFF0003FFFFFFFFFFE000000000FFF000FFE000000003FFF0001FFFFE0001
310
FFFFC0007F80007FFFC000000007FFFFFE000000003FFFF80000000000000000
310
7F80000000000001FFFFE000000003FFFFFFFFE000000003FFFFFF0003FFFFFF
310
FFFFF000000003FFF000FFF80000000FFFF0001FFFFE0001FFFFE0007F80007F
310
FFF00000000FFFFFFF00000000FFFFF800000000000000007F80000000000001
310
FFFFF80000000FFFFFFFFFF80000000FFFFFFF0003FFFFFFFFFFFC0000000FFF
310
F000FFFE0000003FFFF0001FFFFE0003FFFFE0003F80007FFFFC0000003FFFFF
310
FFC0000003FFFFF800000000000000007F80000000000001FFFFFE0000003FFF
310
FFFFFFFE0000003FFFFFFF0003FFFFFFFFFFFF0000003FFFF000FFFF800000FF
310
FFF0001FFFFF0003FFFFE0003F80007FFFFF000001FFFFFFFFF800001FFFFFF8
310
00000000000000007F80000000000001FFFFFFC00001FFFFFFFFFFFFC00001FF
310
FFFFFF0003FFFFFFFFFFFFC00000FFFFF000FFFFF8000FFFFFFFFFFFFFFFFFFF
310
FFFFFFFFFFFFFFFFFFFFF0001FFFFFFFFFFF0000FFFFFFF80000000000000000
310
7FFFFFFFFFFFFFFFFFFFFFFC001FFFFFFFFFFFFFFC001FFFFFFFFFFFFFFFFFFF
310
FFFFFFFC001FFFFFF000FFFFFFFFFFFFFFFFFFFFFFFFFFFFFFFFFFFFFFFFFFFF
310
FFFFFFFFFFFFFFFFFFFFFFFFFFFFFFFFFFFFFFFFFFFFFFFFFFFFFFFFFFFFFFFF
310
FFFFFFFFFFFFFFFFFFFFFFFFFFFFFFFFFFFFFFFFFFFFFFFFFFFFFFFFFFFFFFFF
310
F000FFFFFFFFFFFFFFFFFFFFFFFFFFFFFFFFFFFFFFFFFFFFFFFFFFFFFFFFFFFF
310
FFFFFFFFFFFFFFFFFFFFFFFFFFFFFFFFFFFFFFFFFFFFFFFFFFFFFFFFFFFFFFFF
310
FFFFFFFFFFFFFFFFFFFFFFFFFFFFFFFFFFFFFFFFFFFFFFFFF000FFFFFFFFFFFF
310
FFFFFFFFFFFFFFFFFFFFFFFFFFFFFFFFFFFFFFFFFFFFFFFFFFFFFFFFFFFFFFFF
310
FFFFFFFFFFFFFFFFFFFFFFFFFFFFFFFFFFFFFFFFFFFFFFFFFFFFFFFFFFFFFFFF
310
FFFFFFFFFFFFFFFFFFFFFFFFFFFFFFFFF000FFFFFFFFFFFFFFFFFFFFFFFFFFFF
310
FFFFFFFFFFFFFFFFFFFFFFFFFFFFFFFFFFFFFFFFFFFFFFFFFFFFFFFFFFFFFFFF
310
FFFFFFFFFFFFFFFFFFFFFFFFFFFFFFFFFFFFFFFFFFFFFFFFFFFFFFFFFFFFFFFF
310
FFFFFFFFFFFFFFFFF000FFFFFFFFFFFFFFFFFFFFFFFFFFFFFFFFFFFFFFFFFFFF
310
FFFFFFFFFFFFFFFFFFFFFFFFFFFFFFFFFFFFFFFFFFFFFFFFFFFFFFFFFFFFFFFF
310
FFFFFFFFFFFFFFFFFFFFFFFFFFFFFFFFFFFFFFFFFFFFFFFFFFFFFFFFFFFFFFFF
310
F000FFFFFFFFFFFFFFFFFFFFFFFFFFFFFFFFFFFFFFFFFFFFFFFFFFFFFFFFFFFF
310
FFFFFFFFFFFFFFFFFFFFFFFFFFFFFFFFFFFFFFFFFFFFFFFFFFFFFFFFFFFFFFFF
310
FFFFFFFFFFFFFFFFFFFFFFFFFFFFFFFFFFFFFFFFFFFFFFFFF000FFFFFFFFFFFF
310
FFFFFFFFFFFFFFFFFFFFFFFFFFFFFFFFFFFFFFFFFFFFFFFFFFFFFFFFFFFFFFFF
310
FFFFFFFFFFFFFFFFFFFFFFFFFFFFFFFFFFFFFFFFFFFFFFFFFFFFFFFFFFFFFFFF
310
FFFFFFFFFFFFFFFFFFFFFFFFFFFFFFFFF000FFFFFFFFFFFFFFFFFFFFFFFFFFFF
310
FFFFFFFFFFFFFFFFFFFFFFFFFFFFFFFFFFFFFFFFFFFFFFFFFFFFFFFFFFFFFFFF
310
FFFFFFFFFFFFFFFFFFFFFFFFFFFFFFFFFFFFFFFFFFFFFFFFFFFFFFFFFFFFFFFF
310
FFFFFFFFFFFFFFFFF000FFFFFFFFFFFFFFFFFFFFFFFFFFFFFFFFFFFFFFFFFFFF
310
FFFFFFFFFFFFFFFFFFFFFFFFFFFFFFFFFFFFFFFFFFFFFFFFFFFFFFFFFFFFFFFF
310
FFFFFFFFFFFFFFFFFFFFFFFFFFFFFFFFFFFFFFFFFFFFFFFFFFFFFFFFFFFFFFFF
310
F000FFFFFFFFFFFFFFFFFFFFFFFFFFFFFFFFFFFFFFFFFFFFFFFFFFFFFFFFFFFF
310
FFFFFFFFFFFFFFFFFFFFFFFFFFFFFFFFFFFFFFFFFFFFFFFFFFFFFFFFFFFFFFFF
310
FFFFFFFFFFFFFFFFFFFFFFFFFFFFFFFFFFFFFFFFFFFFFFFFF000FFFFFFFFFFFF
310
FFFFFFFFFFFFFFFFFFFFFFFFFFFFFFFFFFFFFFFFFFFFFFFFFFFFFFFFFFFFFFFF
310
FFFFFFFFFFFFFFFFFFFFFFFFFFFFFFFFFFFFFFFFFFFFFFFFFFFFFFFFFFFFFFFF
310
FFFFFFFFFFFFFFFFFFFFFFFFFFFFFFFFF000FFFFFFFFFFFFFFFFFFFFFFFFFFFF
310
FFFFFFFFFFFFFFFFFFFFFFFFFFFFFFFFFFFFFFFFFFFFFFFFFFFFFFFFFFFFFFFF
310
FFFFFFFFFFFFFFFFFFFFFFFFFFFFFFFFFFFFFFFFFFFFFFFFFFFFFFFFFFFFFFFF
310
FFFFFFFFFFFFFFFFF000FFFFFFFFFFFFFFFFFFFFFFFFFFFFFFFFFFFFFFFFFFFF
310
FFFFFFFFFFFFFFFFFFFFFFFFFFFFFFFFFFFFFFFFFFFFFFFFFFFFFFFFFFFFFFFF
310
FFFFFFFFFFFFFFFFFFFFFFFFFFFFFFFFFFFFFFFFFFFFFFFFFFFFFFFFFFFFFFFF
310
F000FFFFFFFFFFFFFFFFFFFFFFFFFFFFFFFFFFFFFFFFFFFFFFFFFFFFFFFFFFFF
310
FFFFFFFFFFFFFFFFFFFFFFFFFFFFFFFFFFFFFFFFFFFFFFFFFFFFFFFFFFFFFFFF
310
FFFFFFFFFFFFFFFFFFFFFFFFFFFFFFFFFFFFFFFFFFFFFFFFF000FFFFFFFFFFFF
310
FFFFFFFFFFFFFFFFFFFFFFFFFFFFFFFFFFFFFFFFFFFFFFFFFFFFFFFFFFFFFFFF
310
FFFFFFFFFFFFFFFFFFFFFFFFFFFFFFFFFFFFFFFFFFFFFFFFFFFFFFFFFFFFFFFF
310
FFFFFFFFFFFFFFFFFFFFFFFFFFFFFFFFF000FFFFFFFFFFFFFFFFFFFFFFFFFFFF
310
FFFFFFFFFFFFFFFFFFFFFFFFFFFFFFFFFFFFFFFFFFFFFFFFFFFFFFFFFFFFFFFF
310
FFFFFFFFFFFFFFFFFFFFFFFFFFFFFFFFFFFFFFFFFFFFFFFFFFFFFFFFFFFFFFFF
310
FFFFFFFFFFFFFFFFF000FFFFFFFFFFFFFFFFFFFFFFFFFFFFFFFFFFFFFFFFFFFF
310
FFFFFFFFFFFFFFFFFFFFFFFFFFFFFFFFFFFFFFFFFFFFFFFFFFFFFFFFFFFFFFFF
310
FFFFFFFFFFFFFFFFFFFFFFFFFFFFFFFFFFFFFFFFFFFFFFFFFFFFFFFFFFFFFFFF
310
F000FFFFFFFFFFFFFFFFFFFFFFFFFFFFFFFFFFFFFFFFFFFFFFFFFFFFFFFFFFFF
310
FFFFFFFFFFFFFFFFFFFFFFFFFFFFFFFFFFFFFFFFFFFFFFFFFFFFFFFFFFFFFFFF
310
FFFFFFFFFFFFFFFFFFFFFFFFFFFFFFFFFFFFFFFFFFFFFFFFF000FFFFFFFFFFFF
310
FFFFFFFFFFFFFFFFFFFFFFFFFFFFFFFFFFFFFFFFFFFFFFFFFFFFFFFFFFFFFFFF
310
FFFFFFFFFFFFFFFFFFFFFFFFFFFFFFFFFFFFFFFFFFFFFFFFFFFFFFFFFFFFFFFF
310
FFFFFFFFFFFFFFFFFFFFFFFFFFFFFFFFF000FFFFFFFFFFFFFFFFFFFFFFFFFFFF
310
FFFFFFFFFFFFFFFFFFFFFFFFFFFFFFFFFFFFFFFFFFFFFFFFFFFFFFFFFFFFFFFF
310
FFFFFFFFFFFFFFFFFFFFFFFFFFFFFFFFFFFFFFFFFFFFFFFFFFFFFFFFFFFFFFFF
310
FFFFFFFFFFFFFFFFF000FFFFFFFFFFFFFFFFFFFFFFFFFFFFFFFFFFFFFFFFFFFF
310
FFFFFFFFFFFFFFFFFFFFFFFFFFFFFFFFFFFFFFFFFFFFFFFFFFFFFFFFFFFFFFFF
310
FFFFFFFFFFFFFFFFFFFFFFFFFFFFFFFFFFFFFFFFFFFFFFFFFFFFFFFFFFFFFFFF
310
F000FFFFFFFFFFFFFFFFFFFFFFFFFFFFFFFFFFFFFFFFFFFFFFFFFFFFFFFFFFFF
310
FFFFFFFFFFFFFFFFFFFFFFFFFFFFFFFFFFFFFFFFFFFFFFFFFFFFFFFFFFFFFFFF
310
FFFFFFFFFFFFFFFFFFFFFFFFFFFFFFFFFFFFFFFFFFFFFFFFF000FFFFFFFFFFFF
310
FFFFFFFFFFFFFFFFFFFFFFFFFFFFFFFFFFFFFFFFFFFFFFFFFFFFFFFFFFFFFFFF
310
FFFFFFFFFFFFFFFFFFFFFFFFFFFFFFFFFFFFFFFFFFFFFFFFFFFFFFFFFFFFFFFF
310
FFFFFFFFFFFFFFFFFFFFFFFFFFFFFFFFF0000000000000000000000000000000
310
0000000000000000000000000000000000000000000000000000000000000000
310
4B00750072007300690076000000000000000000000000000000000000000000
310
0000000000000000000000000000000000000000000000000000000000000000
310
57006500730074006C0069006300680000000000000000000000000000000000
310
0000000000000000000000000000000000000000000000000000000000000000
310
6476000800000000000000001EFF1F20270000001C0000000B00000007000000
310
000000000A0000002700000090010000000000006000000060000000200002F0
310
1F002000FF000047000000000100240000080000D00900008E02000003000000
310
0000000000000000000000000100002000000000616C000800000000E4010000
310
7001000004000000250000000E0000000000000000000000BC02000000000000
310
03020112430061006C00690066006F0072006E00690061006E00200046004200
310
0000000000000000000000000000000000000000000000000000000000000000
310
00000000430061006C00690066006F0072006E00690061006E00200046004200
310
2000460065007400740000000000000000000000000000000000000000000000
310
0000000000000000000000000000000000000000000000000000000000000000
  1
OLE
  0
ENDSEC
  0
SECTION
  2
OBJECTS
  0
DICTIONARY
  5
C
330
0
100
AcDbDictionary
281
     1
  3
ACAD_GROUP
350
D
  3
ACAD_LAYOUT
350
1A
  3
ACAD_MLEADERSTYLE
350
37C
  3
ACAD_MLINESTYLE
350
17
  3
ACAD_PLOTSETTINGS
350
19
  3
ACAD_PLOTSTYLENAME
350
E
  3
ACAD_SCALELIST
350
3B
  3
ACAD_TABLESTYLE
350
37B
  3
ACAD_VISUALSTYLE
350
2A
  3
AcDbVariableDictionary
350
379
  0
DICTIONARY
  5
D
102
{ACAD_REACTORS
330
C
102
}
330
C
100
AcDbDictionary
281
     1
  0
DICTIONARY
  5
1A
102
{ACAD_REACTORS
330
C
102
}
330
C
100
AcDbDictionary
281
     1
  3
Layout1
350
1E
  3
Layout2
350
26
  3
Model
350
22
  0
DICTIONARY
  5
37C
102
{ACAD_REACTORS
330
C
102
}
330
C
100
AcDbDictionary
281
     1
  0
DICTIONARY
  5
17
102
{ACAD_REACTORS
330
C
102
}
330
C
100
AcDbDictionary
281
     1
  3
Standard
350
18
  0
DICTIONARY
  5
19
102
{ACAD_REACTORS
330
C
102
}
330
C
100
AcDbDictionary
281
     1
  0
ACDBDICTIONARYWDFLT
  5
E
102
{ACAD_REACTORS
330
C
102
}
330
C
100
AcDbDictionary
281
     1
  3
Normal
350
F
100
AcDbDictionaryWithDefault
340
F
  0
DICTIONARY
  5
3B
102
{ACAD_REACTORS
330
C
102
}
330
C
100
AcDbDictionary
281
     1
  3
A0
350
3C
  3
A1
350
3D
  3
A2
350
3E
  3
A3
350
3F
  3
A4
350
40
  3
A5
350
41
  3
A6
350
42
  3
A7
350
43
  3
A8
350
44
  3
A9
350
45
  3
B0
350
46
  3
B1
350
47
  3
B2
350
48
  3
B3
350
49
  3
B4
350
4A
  3
B5
350
4B
  3
B6
350
4C
  3
B7
350
4D
  3
B8
350
4E
  3
B9
350
4F
  3
C0
350
50
  3
C1
350
51
  3
C2
350
52
  3
C3
350
53
  3
C4
350
54
  3
C5
350
55
  3
C6
350
56
  3
C7
350
57
  3
C8
350
58
  3
C9
350
59
  3
D0
350
5A
  3
D1
350
5B
  3
D2
350
5C
  0
DICTIONARY
  5
37B
102
{ACAD_REACTORS
330
C
102
}
330
C
100
AcDbDictionary
281
     1
  0
DICTIONARY
  5
2A
102
{ACAD_REACTORS
330
C
102
}
330
C
100
AcDbDictionary
281
     1
  3
2dWireframe
350
2F
  3
3D Hidden
350
31
  3
3dWireframe
350
30
  3
Basic
350
32
  3
Brighten
350
36
  3
ColorChange
350
3A
  3
Conceptual
350
34
  3
Dim
350
35
  3
Facepattern
350
39
  3
Flat
350
2B
  3
FlatWithEdges
350
2C
  3
Gouraud
350
2D
  3
GouraudWithEdges
350
2E
  3
Linepattern
350
38
  3
Realistic
350
33
  3
Thicken
350
37
  0
DICTIONARY
  5
379
102
{ACAD_REACTORS
330
C
102
}
330
C
100
AcDbDictionary
281
     1
  3
CANNOSCALE
350
37A
  3
PSOLHEIGHT
350
37E
  3
PSOLWIDTH
350
37D
  0
LAYOUT
  5
1E
102
{ACAD_REACTORS
330
1A
102
}
330
1A
100
AcDbPlotSettings
  1

  2
none_device
  4

  6

 40
0.0
 41
0.0
 42
0.0
 43
0.0
 44
0.0
 45
0.0
 46
0.0
 47
0.0
 48
0.0
 49
0.0
140
0.0
141
0.0
142
1.0
143
1.0
 70
   688
 72
     0
 73
     0
 74
     5
  7

 75
    16
147
1.0
148
0.0
149
0.0
100
AcDbLayout
  1
Layout1
 70
     1
 71
     1
 10
0.0
 20
0.0
 11
420.0
 21
297.0
 12
0.0
 22
0.0
 32
0.0
 14
1.0000000000E+20
 24
1.0000000000E+20
 34
1.0000000000E+20
 15
-1.0000000000E+20
 25
-1.0000000000E+20
 35
-1.0000000000E+20
146
0.0
 13
0.0
 23
0.0
 33
0.0
 16
1.0
 26
0.0
 36
0.0
 17
0.0
 27
1.0
 37
0.0
 76
     0
330
1B
  0
LAYOUT
  5
26
102
{ACAD_REACTORS
330
1A
102
}
330
1A
100
AcDbPlotSettings
  1

  2
none_device
  4

  6

 40
0.0
 41
0.0
 42
0.0
 43
0.0
 44
0.0
 45
0.0
 46
0.0
 47
0.0
 48
0.0
 49
0.0
140
0.0
141
0.0
142
1.0
143
1.0
 70
   688
 72
     0
 73
     0
 74
     5
  7

 75
    16
147
1.0
148
0.0
149
0.0
100
AcDbLayout
  1
Layout2
 70
     1
 71
     2
 10
0.0
 20
0.0
 11
0.0
 21
0.0
 12
0.0
 22
0.0
 32
0.0
 14
0.0
 24
0.0
 34
0.0
 15
0.0
 25
0.0
 35
0.0
146
0.0
 13
0.0
 23
0.0
 33
0.0
 16
1.0
 26
0.0
 36
0.0
 17
0.0
 27
1.0
 37
0.0
 76
     0
330
23
  0
LAYOUT
  5
22
102
{ACAD_REACTORS
330
1A
102
}
330
1A
100
AcDbPlotSettings
  1

  2
none_device
  4

  6

 40
0.0
 41
0.0
 42
0.0
 43
0.0
 44
0.0
 45
0.0
 46
0.0
 47
0.0
 48
0.0
 49
0.0
140
0.0
141
0.0
142
1.0
143
1.0
 70
  1712
 72
     0
 73
     0
 74
     0
  7

 75
     0
147
1.0
148
0.0
149
0.0
100
AcDbLayout
  1
Model
 70
     1
 71
     0
 10
0.0
 20
0.0
 11
297.0
 21
210.0
 12
0.0
 22
0.0
 32
0.0
 14
0.0
 24
0.0
 34
0.0
 15
297.0
 25
210.0
 35
0.0
146
0.0
 13
0.0
 23
0.0
 33
0.0
 16
1.0
 26
0.0
 36
0.0
 17
0.0
 27
1.0
 37
0.0
 76
     0
330
1F
331
29
  0
MLINESTYLE
  5
18
102
{ACAD_REACTORS
330
17
102
}
330
17
100
AcDbMlineStyle
  2
Standard
 70
     0
  3

 62
   256
 51
90.0
 52
90.0
 71
     2
 49
0.5
 62
   256
  6
BYLAYER
 49
-0.5
 62
   256
  6
BYLAYER
  0
ACDBPLACEHOLDER
  5
F
102
{ACAD_REACTORS
330
E
102
}
330
E
  0
SCALE
  5
3C
102
{ACAD_REACTORS
330
3B
102
}
330
3B
100
AcDbScale
 70
     0
300
1:1
140
1.0
141
1.0
290
     1
  0
SCALE
  5
3D
102
{ACAD_REACTORS
330
3B
102
}
330
3B
100
AcDbScale
 70
     0
300
1:2
140
1.0
141
2.0
290
     0
  0
SCALE
  5
3E
102
{ACAD_REACTORS
330
3B
102
}
330
3B
100
AcDbScale
 70
     0
300
1:4
140
1.0
141
4.0
290
     0
  0
SCALE
  5
3F
102
{ACAD_REACTORS
330
3B
102
}
330
3B
100
AcDbScale
 70
     0
300
1:5
140
1.0
141
5.0
290
     0
  0
SCALE
  5
40
102
{ACAD_REACTORS
330
3B
102
}
330
3B
100
AcDbScale
 70
     0
300
1:8
140
1.0
141
8.0
290
     0
  0
SCALE
  5
41
102
{ACAD_REACTORS
330
3B
102
}
330
3B
100
AcDbScale
 70
     0
300
1:10
140
1.0
141
10.0
290
     0
  0
SCALE
  5
42
102
{ACAD_REACTORS
330
3B
102
}
330
3B
100
AcDbScale
 70
     0
300
1:16
140
1.0
141
16.0
290
     0
  0
SCALE
  5
43
102
{ACAD_REACTORS
330
3B
102
}
330
3B
100
AcDbScale
 70
     0
300
1:20
140
1.0
141
20.0
290
     0
  0
SCALE
  5
44
102
{ACAD_REACTORS
330
3B
102
}
330
3B
100
AcDbScale
 70
     0
300
1:30
140
1.0
141
30.0
290
     0
  0
SCALE
  5
45
102
{ACAD_REACTORS
330
3B
102
}
330
3B
100
AcDbScale
 70
     0
300
1:40
140
1.0
141
40.0
290
     0
  0
SCALE
  5
46
102
{ACAD_REACTORS
330
3B
102
}
330
3B
100
AcDbScale
 70
     0
300
1:50
140
1.0
141
50.0
290
     0
  0
SCALE
  5
47
102
{ACAD_REACTORS
330
3B
102
}
330
3B
100
AcDbScale
 70
     0
300
1:100
140
1.0
141
100.0
290
     0
  0
SCALE
  5
48
102
{ACAD_REACTORS
330
3B
102
}
330
3B
100
AcDbScale
 70
     0
300
2:1
140
2.0
141
1.0
290
     0
  0
SCALE
  5
49
102
{ACAD_REACTORS
330
3B
102
}
330
3B
100
AcDbScale
 70
     0
300
4:1
140
4.0
141
1.0
290
     0
  0
SCALE
  5
4A
102
{ACAD_REACTORS
330
3B
102
}
330
3B
100
AcDbScale
 70
     0
300
8:1
140
8.0
141
1.0
290
     0
  0
SCALE
  5
4B
102
{ACAD_REACTORS
330
3B
102
}
330
3B
100
AcDbScale
 70
     0
300
10:1
140
10.0
141
1.0
290
     0
  0
SCALE
  5
4C
102
{ACAD_REACTORS
330
3B
102
}
330
3B
100
AcDbScale
 70
     0
300
100:1
140
100.0
141
1.0
290
     0
  0
SCALE
  5
4D
102
{ACAD_REACTORS
330
3B
102
}
330
3B
100
AcDbScale
 70
     0
300
1/128" = 1'-0"
140
0.0078125
141
12.0
290
     0
  0
SCALE
  5
4E
102
{ACAD_REACTORS
330
3B
102
}
330
3B
100
AcDbScale
 70
     0
300
1/64" = 1'-0"
140
0.015625
141
12.0
290
     0
  0
SCALE
  5
4F
102
{ACAD_REACTORS
330
3B
102
}
330
3B
100
AcDbScale
 70
     0
300
1/32" = 1'-0"
140
0.03125
141
12.0
290
     0
  0
SCALE
  5
50
102
{ACAD_REACTORS
330
3B
102
}
330
3B
100
AcDbScale
 70
     0
300
1/16" = 1'-0"
140
0.0625
141
12.0
290
     0
  0
SCALE
  5
51
102
{ACAD_REACTORS
330
3B
102
}
330
3B
100
AcDbScale
 70
     0
300
3/32" = 1'-0"
140
0.09375
141
12.0
290
     0
  0
SCALE
  5
52
102
{ACAD_REACTORS
330
3B
102
}
330
3B
100
AcDbScale
 70
     0
300
1/8" = 1'-0"
140
0.125
141
12.0
290
     0
  0
SCALE
  5
53
102
{ACAD_REACTORS
330
3B
102
}
330
3B
100
AcDbScale
 70
     0
300
3/16" = 1'-0"
140
0.1875
141
12.0
290
     0
  0
SCALE
  5
54
102
{ACAD_REACTORS
330
3B
102
}
330
3B
100
AcDbScale
 70
     0
300
1/4" = 1'-0"
140
0.25
141
12.0
290
     0
  0
SCALE
  5
55
102
{ACAD_REACTORS
330
3B
102
}
330
3B
100
AcDbScale
 70
     0
300
3/8" = 1'-0"
140
0.375
141
12.0
290
     0
  0
SCALE
  5
56
102
{ACAD_REACTORS
330
3B
102
}
330
3B
100
AcDbScale
 70
     0
300
1/2" = 1'-0"
140
0.5
141
12.0
290
     0
  0
SCALE
  5
57
102
{ACAD_REACTORS
330
3B
102
}
330
3B
100
AcDbScale
 70
     0
300
3/4" = 1'-0"
140
0.75
141
12.0
290
     0
  0
SCALE
  5
58
102
{ACAD_REACTORS
330
3B
102
}
330
3B
100
AcDbScale
 70
     0
300
1" = 1'-0"
140
1.0
141
12.0
290
     0
  0
SCALE
  5
59
102
{ACAD_REACTORS
330
3B
102
}
330
3B
100
AcDbScale
 70
     0
300
1-1/2" = 1'-0"
140
1.5
141
12.0
290
     0
  0
SCALE
  5
5A
102
{ACAD_REACTORS
330
3B
102
}
330
3B
100
AcDbScale
 70
     0
300
3" = 1'-0"
140
3.0
141
12.0
290
     0
  0
SCALE
  5
5B
102
{ACAD_REACTORS
330
3B
102
}
330
3B
100
AcDbScale
 70
     0
300
6" = 1'-0"
140
6.0
141
12.0
290
     0
  0
SCALE
  5
5C
102
{ACAD_REACTORS
330
3B
102
}
330
3B
100
AcDbScale
 70
     0
300
1'-0" = 1'-0"
140
12.0
141
12.0
290
     0
  0
VISUALSTYLE
  5
2F
102
{ACAD_REACTORS
330
2A
102
}
330
2A
100
AcDbVisualStyle
  2
2dWireframe
 70
     4
 71
     0
 72
     2
 73
     0
 90
        0
 40
-0.6
 41
-30.0
 62
     5
 63
     7
 74
     1
 91
        4
 64
     7
 65
   257
 75
     1
175
     1
 42
1.0
 92
        0
 66
   257
 43
1.0
 76
     1
 77
     6
 78
     2
 67
     7
 79
     5
170
     0
171
     0
290
     0
174
     0
 93
        1
 44
0.0
173
     0
291
     0
 45
0.0
1001
ACAD
1000
AcDbSavedByObjectVersion
1070
     0
  0
VISUALSTYLE
  5
31
102
{ACAD_REACTORS
330
2A
102
}
330
2A
100
AcDbVisualStyle
  2
3D Hidden
 70
     6
 71
     1
 72
     2
 73
     2
 90
        0
 40
-0.6
 41
-30.0
 62
     5
 63
     7
 74
     2
 91
        2
 64
     7
 65
   257
 75
     2
175
     1
 42
40.0
 92
        0
 66
   257
 43
1.0
 76
     1
 77
     6
 78
     2
 67
     7
 79
     3
170
     0
171
     0
290
     0
174
     0
 93
        1
 44
0.0
173
     0
291
     0
 45
0.0
1001
ACAD
1000
AcDbSavedByObjectVersion
1070
     0
  0
VISUALSTYLE
  5
30
102
{ACAD_REACTORS
330
2A
102
}
330
2A
100
AcDbVisualStyle
  2
3dWireframe
 70
     5
 71
     0
 72
     2
 73
     0
 90
        0
 40
-0.6
 41
-30.0
 62
     5
 63
     7
 74
     1
 91
        4
 64
     7
 65
   257
 75
     1
175
     1
 42
1.0
 92
        0
 66
   257
 43
1.0
 76
     1
 77
     6
 78
     2
 67
     7
 79
     5
170
     0
171
     0
290
     0
174
     0
 93
        1
 44
0.0
173
     0
291
     0
 45
0.0
1001
ACAD
1000
AcDbSavedByObjectVersion
1070
     0
  0
VISUALSTYLE
  5
32
102
{ACAD_REACTORS
330
2A
102
}
330
2A
100
AcDbVisualStyle
  2
Basic
 70
     7
 71
     1
 72
     0
 73
     1
 90
        0
 40
-0.6
 41
-30.0
 62
     5
 63
     7
 74
     0
 91
        4
 64
     7
 65
   257
 75
     1
175
     1
 42
1.0
 92
        8
 66
     7
 43
1.0
 76
     1
 77
     6
 78
     2
 67
     7
 79
     5
170
     0
171
     0
290
     0
174
     0
 93
        1
 44
0.0
173
     0
291
     1
 45
0.0
1001
ACAD
1000
AcDbSavedByObjectVersion
1070
     0
  0
VISUALSTYLE
  5
36
102
{ACAD_REACTORS
330
2A
102
}
330
2A
100
AcDbVisualStyle
  2
Brighten
 70
    12
 71
     2
 72
     2
 73
     0
 90
        0
 40
-0.6
 41
-30.0
 62
     5
 63
     7
 74
     1
 91
        4
 64
     7
 65
   257
 75
     1
175
     1
 42
1.0
 92
        8
 66
     7
 43
1.0
 76
     1
 77
     6
 78
     2
 67
     7
 79
     5
170
     0
171
     0
290
     0
174
     0
 93
        1
 44
50.0
173
     0
291
     1
 45
0.0
1001
ACAD
1000
AcDbSavedByObjectVersion
1070
     0
  0
VISUALSTYLE
  5
3A
102
{ACAD_REACTORS
330
2A
102
}
330
2A
100
AcDbVisualStyle
  2
ColorChange
 70
    16
 71
     2
 72
     2
 73
     3
 90
        0
 40
-0.6
 41
-30.0
 62
     5
 63
     8
 74
     1
 91
        4
 64
     7
 65
   257
 75
     1
175
     1
 42
1.0
 92
        8
 66
     8
 43
1.0
 76
     1
 77
     6
 78
     2
 67
     7
 79
     5
170
     0
171
     0
290
     0
174
     0
 93
        1
 44
0.0
173
     0
291
     1
 45
0.0
1001
ACAD
1000
AcDbSavedByObjectVersion
1070
     0
  0
VISUALSTYLE
  5
34
102
{ACAD_REACTORS
330
2A
102
}
330
2A
100
AcDbVisualStyle
  2
Conceptual
 70
     9
 71
     3
 72
     2
 73
     0
 90
        0
 40
-0.6
 41
-30.0
 62
     5
 63
     7
 74
     2
 91
        2
 64
     7
 65
   257
 75
     1
175
     1
 42
40.0
 92
        8
 66
     7
 43
1.0
 76
     1
 77
     6
 78
     2
 67
     7
 79
     3
170
     0
171
     0
290
     0
174
     0
 93
        1
 44
0.0
173
     0
291
     0
 45
0.0
1001
ACAD
1000
AcDbSavedByObjectVersion
1070
     0
  0
VISUALSTYLE
  5
35
102
{ACAD_REACTORS
330
2A
102
}
330
2A
100
AcDbVisualStyle
  2
Dim
 70
    11
 71
     2
 72
     2
 73
     0
 90
        0
 40
-0.6
 41
-30.0
 62
     5
 63
     7
 74
     1
 91
        4
 64
     7
 65
   257
 75
     1
175
     1
 42
1.0
 92
        8
 66
     7
 43
1.0
 76
     1
 77
     6
 78
     2
 67
     7
 79
     5
170
     0
171
     0
290
     0
174
     0
 93
        1
 44
-50.0
173
     0
291
     1
 45
0.0
1001
ACAD
1000
AcDbSavedByObjectVersion
1070
     0
  0
VISUALSTYLE
  5
39
102
{ACAD_REACTORS
330
2A
102
}
330
2A
100
AcDbVisualStyle
  2
Facepattern
 70
    15
 71
     2
 72
     2
 73
     0
 90
        0
 40
-0.6
 41
-30.0
 62
     5
 63
     7
 74
     1
 91
        4
 64
     7
 65
   257
 75
     1
175
     1
 42
1.0
 92
        8
 66
     7
 43
1.0
 76
     1
 77
     6
 78
     2
 67
     7
 79
     5
170
     0
171
     0
290
     0
174
     0
 93
        1
 44
0.0
173
     0
291
     1
 45
0.0
1001
ACAD
1000
AcDbSavedByObjectVersion
1070
     0
  0
VISUALSTYLE
  5
2B
102
{ACAD_REACTORS
330
2A
102
}
330
2A
100
AcDbVisualStyle
  2
Flat
 70
     0
 71
     2
 72
     1
 73
     1
 90
        2
 40
-0.6
 41
30.0
 62
     5
 63
     7
 74
     0
 91
        4
 64
     7
 65
   257
 75
     1
175
     1
 42
1.0
 92
        8
 66
     7
 43
1.0
 76
     1
 77
     6
 78
     2
 67
     7
 79
     5
170
     0
171
     0
290
     0
174
     0
 93
       13
 44
0.0
173
     0
291
     1
 45
0.0
1001
ACAD
1000
AcDbSavedByObjectVersion
1070
     0
  0
VISUALSTYLE
  5
2C
102
{ACAD_REACTORS
330
2A
102
}
330
2A
100
AcDbVisualStyle
  2
FlatWithEdges
 70
     1
 71
     2
 72
     1
 73
     1
 90
        2
 40
-0.6
 41
30.0
 62
     5
 63
     7
 74
     1
 91
        4
 64
     7
 65
   257
 75
     1
175
     1
 42
1.0
 92
        0
 66
   257
 43
1.0
 76
     1
 77
     6
 78
     2
 67
     7
 79
     5
170
     0
171
     0
290
     0
174
     0
 93
       13
 44
0.0
173
     0
291
     1
 45
0.0
1001
ACAD
1000
AcDbSavedByObjectVersion
1070
     0
  0
VISUALSTYLE
  5
2D
102
{ACAD_REACTORS
330
2A
102
}
330
2A
100
AcDbVisualStyle
  2
Gouraud
 70
     2
 71
     2
 72
     2
 73
     1
 90
        2
 40
-0.6
 41
30.0
 62
     5
 63
     7
 74
     0
 91
        4
 64
     7
 65
   257
 75
     1
175
     1
 42
1.0
 92
        0
 66
     7
 43
1.0
 76
     1
 77
     6
 78
     2
 67
     7
 79
     5
170
     0
171
     0
290
     0
174
     0
 93
       13
 44
0.0
173
     0
291
     1
 45
0.0
1001
ACAD
1000
AcDbSavedByObjectVersion
1070
     0
  0
VISUALSTYLE
  5
2E
102
{ACAD_REACTORS
330
2A
102
}
330
2A
100
AcDbVisualStyle
  2
GouraudWithEdges
 70
     3
 71
     2
 72
     2
 73
     1
 90
        2
 40
-0.6
 41
30.0
 62
     5
 63
     7
 74
     1
 91
        4
 64
     7
 65
   257
 75
     1
175
     1
 42
1.0
 92
        0
 66
   257
 43
1.0
 76
     1
 77
     6
 78
     2
 67
     7
 79
     5
170
     0
171
     0
290
     0
174
     0
 93
       13
 44
0.0
173
     0
291
     1
 45
0.0
1001
ACAD
1000
AcDbSavedByObjectVersion
1070
     0
  0
VISUALSTYLE
  5
38
102
{ACAD_REACTORS
330
2A
102
}
330
2A
100
AcDbVisualStyle
  2
Linepattern
 70
    14
 71
     2
 72
     2
 73
     0
 90
        0
 40
-0.6
 41
-30.0
 62
     5
 63
     7
 74
     1
 91
        4
 64
     7
 65
   257
 75
     7
175
     7
 42
1.0
 92
        8
 66
     7
 43
1.0
 76
     1
 77
     6
 78
     2
 67
     7
 79
     5
170
     0
171
     0
290
     0
174
     0
 93
        1
 44
0.0
173
     0
291
     1
 45
0.0
1001
ACAD
1000
AcDbSavedByObjectVersion
1070
     0
  0
VISUALSTYLE
  5
33
102
{ACAD_REACTORS
330
2A
102
}
330
2A
100
AcDbVisualStyle
  2
Realistic
 70
     8
 71
     2
 72
     2
 73
     0
 90
        0
 40
-0.6
 41
-30.0
 62
     5
 63
     7
 74
     1
 91
        0
 64
     7
 65
   257
 75
     1
175
     1
 42
1.0
 92
        8
 66
     8
 43
1.0
 76
     1
 77
     6
 78
     2
 67
     7
 79
     5
170
     0
171
     0
290
     0
174
     0
 93
       13
 44
0.0
173
     0
291
     0
 45
0.0
1001
ACAD
1000
AcDbSavedByObjectVersion
1070
     0
  0
VISUALSTYLE
  5
37
102
{ACAD_REACTORS
330
2A
102
}
330
2A
100
AcDbVisualStyle
  2
Thicken
 70
    13
 71
     2
 72
     2
 73
     0
 90
        0
 40
-0.6
 41
-30.0
 62
     5
 63
     7
 74
     1
 91
        4
 64
     7
 65
   257
 75
     1
175
     1
 42
1.0
 92
       12
 66
     7
 43
1.0
 76
     1
 77
     6
 78
     2
 67
     7
 79
     5
170
     0
171
     0
290
     0
174
     0
 93
        1
 44
0.0
173
     0
291
     1
 45
0.0
1001
ACAD
1000
AcDbSavedByObjectVersion
1070
     0
  0
DICTIONARYVAR
  5
37A
102
{ACAD_REACTORS
330
379
102
}
330
379
100
DictionaryVariables
280
     0
  1
1:1
  0
DICTIONARYVAR
  5
37E
102
{ACAD_REACTORS
330
379
102
}
330
379
100
DictionaryVariables
280
     0
  1
80.000000
  0
DICTIONARYVAR
  5
37D
102
{ACAD_REACTORS
330
379
102
}
330
379
100
DictionaryVariables
280
     0
  1
5.000000
  0
ENDSEC
  0
EOF
