  0
SECTION
  2
HEADER
  9
$ACADVER
  1
AC1015
  9
$ACADMAINTVER
 70
     6
  9
$DWGCODEPAGE
  3
ANSI_1252
  9
$INSBASE
 10
0.0
 20
0.0
 30
0.0
  9
$EXTMIN
 10
0.0
 20
0.0
 30
0.0
  9
$EXTMAX
 10
297.0
 20
210.0
 30
0.0
  9
$LIMMIN
 10
0.0
 20
0.0
  9
$LIMMAX
 10
297.0
 20
210.0
  9
$ORTHOMODE
 70
     0
  9
$REGENMODE
 70
     1
  9
$FILLMODE
 70
     1
  9
$QTEXTMODE
 70
     0
  9
$MIRRTEXT
 70
     1
  9
$LTSCALE
 40
1.0
  9
$ATTMODE
 70
     1
  9
$TEXTSIZE
 40
2.0
  9
$TRACEWID
 40
1.0
  9
$TEXTSTYLE
  7
Standard
  9
$CLAYER
  8
0
  9
$CELTYPE
  6
ByLayer
  9
$CECOLOR
 62
   256
  9
$CELTSCALE
 40
1.0
  9
$DISPSILH
 70
     0
  9
$DIMSCALE
 40
1.0
  9
$DIMASZ
 40
3.0
  9
$DIMEXO
 40
0.0
  9
$DIMDLI
 40
3.75
  9
$DIMRND
 40
0.0
  9
$DIMDLE
 40
0.0
  9
$DIMEXE
 40
1.0
  9
$DIMTP
 40
0.0
  9
$DIMTM
 40
0.0
  9
$DIMTXT
 40
2.0
  9
$DIMCEN
 40
2.5
  9
$DIMTSZ
 40
0.0
  9
$DIMTOL
 70
     0
  9
$DIMLIM
 70
     0
  9
$DIMTIH
 70
     1
  9
$DIMTOH
 70
     1
  9
$DIMSE1
 70
     0
  9
$DIMSE2
 70
     0
  9
$DIMTAD
 70
     1
  9
$DIMZIN
 70
     0
  9
$DIMBLK
  1

  9
$DIMASO
 70
     1
  9
$DIMSHO
 70
     1
  9
$DIMPOST
  1

  9
$DIMAPOST
  1

  9
$DIMALT
 70
     0
  9
$DIMALTD
 70
     3
  9
$DIMALTF
 40
0.0393700787
  9
$DIMLFAC
 40
1.0
  9
$DIMTOFL
 70
     1
  9
$DIMTVP
 40
0.0
  9
$DIMTIX
 70
     0
  9
$DIMSOXD
 70
     0
  9
$DIMSAH
 70
     0
  9
$DIMBLK1
  1

  9
$DIMBLK2
  1

  9
$DIMSTYLE
  2
ISO-25
  9
$DIMCLRD
 70
     0
  9
$DIMCLRE
 70
     0
  9
$DIMCLRT
 70
     0
  9
$DIMTFAC
 40
1.0
  9
$DIMGAP
 40
1.524
  9
$DIMJUST
 70
     0
  9
$DIMSD1
 70
     0
  9
$DIMSD2
 70
     0
  9
$DIMTOLJ
 70
     0
  9
$DIMTZIN
 70
     0
  9
$DIMALTZ
 70
     0
  9
$DIMALTTZ
 70
     0
  9
$DIMUPT
 70
     0
  9
$DIMDEC
 70
     2
  9
$DIMTDEC
 70
     3
  9
$DIMALTU
 70
     2
  9
$DIMALTTD
 70
     3
  9
$DIMTXSTY
  7
Standard
  9
$DIMAUNIT
 70
     0
  9
$DIMADEC
 70
     2
  9
$DIMALTRND
 40
0.0
  9
$DIMAZIN
 70
     0
  9
$DIMDSEP
 70
    44
  9
$DIMATFIT
 70
     3
  9
$DIMFRAC
 70
     0
  9
$DIMLDRBLK
  1

  9
$DIMLUNIT
 70
     2
  9
$DIMLWD
 70
    -2
  9
$DIMLWE
 70
    -2
  9
$DIMTMOVE
 70
     0
  9
$LUNITS
 70
     2
  9
$LUPREC
 70
     2
  9
$SKETCHINC
 40
1.0
  9
$FILLETRAD
 40
10.0
  9
$AUNITS
 70
     0
  9
$AUPREC
 70
     2
  9
$MENU
  1
.
  9
$ELEVATION
 40
0.0
  9
$PELEVATION
 40
0.0
  9
$THICKNESS
 40
0.0
  9
$LIMCHECK
 70
     0
  9
$CHAMFERA
 40
10.0
  9
$CHAMFERB
 40
10.0
  9
$CHAMFERC
 40
20.0
  9
$CHAMFERD
 40
0.0
  9
$SKPOLY
 70
     0
  9
$TDCREATE
 40
2456097.373195139
  9
$TDUCREATE
 40
2456097.289861806
  9
$TDUPDATE
 40
2456097.373196574
  9
$TDUUPDATE
 40
2456097.289863241
  9
$TDINDWG
 40
0.0000000116
  9
$TDUSRTIMER
 40
0.0000000116
  9
$USRTIMER
 70
     1
  9
$ANGBASE
 50
0.0
  9
$ANGDIR
 70
     0
  9
$PDMODE
 70
     0
  9
$PDSIZE
 40
-1.0
  9
$PLINEWID
 40
0.0
  9
$SPLFRAME
 70
     0
  9
$SPLINETYPE
 70
     6
  9
$SPLINESEGS
 70
     8
  9
$HANDSEED
  5
1FC
  9
$SURFTAB1
 70
     6
  9
$SURFTAB2
 70
     6
  9
$SURFTYPE
 70
     6
  9
$SURFU
 70
     6
  9
$SURFV
 70
     6
  9
$UCSBASE
  2

  9
$UCSNAME
  2

  9
$UCSORG
 10
0.0
 20
0.0
 30
0.0
  9
$UCSXDIR
 10
1.0
 20
0.0
 30
0.0
  9
$UCSYDIR
 10
0.0
 20
1.0
 30
0.0
  9
$UCSORTHOREF
  2

  9
$UCSORTHOVIEW
 70
     0
  9
$UCSORGTOP
 10
0.0
 20
0.0
 30
0.0
  9
$UCSORGBOTTOM
 10
0.0
 20
0.0
 30
0.0
  9
$UCSORGLEFT
 10
0.0
 20
0.0
 30
0.0
  9
$UCSORGRIGHT
 10
0.0
 20
0.0
 30
0.0
  9
$UCSORGFRONT
 10
0.0
 20
0.0
 30
0.0
  9
$UCSORGBACK
 10
0.0
 20
0.0
 30
0.0
  9
$PUCSBASE
  2

  9
$PUCSNAME
  2

  9
$PUCSORG
 10
0.0
 20
0.0
 30
0.0
  9
$PUCSXDIR
 10
1.0
 20
0.0
 30
0.0
  9
$PUCSYDIR
 10
0.0
 20
1.0
 30
0.0
  9
$PUCSORTHOREF
  2

  9
$PUCSORTHOVIEW
 70
     0
  9
$PUCSORGTOP
 10
0.0
 20
0.0
 30
0.0
  9
$PUCSORGBOTTOM
 10
0.0
 20
0.0
 30
0.0
  9
$PUCSORGLEFT
 10
0.0
 20
0.0
 30
0.0
  9
$PUCSORGRIGHT
 10
0.0
 20
0.0
 30
0.0
  9
$PUCSORGFRONT
 10
0.0
 20
0.0
 30
0.0
  9
$PUCSORGBACK
 10
0.0
 20
0.0
 30
0.0
  9
$USERI1
 70
     0
  9
$USERI2
 70
     0
  9
$USERI3
 70
     0
  9
$USERI4
 70
     0
  9
$USERI5
 70
     0
  9
$USERR1
 40
0.0
  9
$USERR2
 40
0.0
  9
$USERR3
 40
0.0
  9
$USERR4
 40
0.0
  9
$USERR5
 40
0.0
  9
$WORLDVIEW
 70
     1
  9
$SHADEDGE
 70
     3
  9
$SHADEDIF
 70
    70
  9
$TILEMODE
 70
     1
  9
$MAXACTVP
 70
    64
  9
$PINSBASE
 10
0.0
 20
0.0
 30
0.0
  9
$PLIMCHECK
 70
     0
  9
$PEXTMIN
 10
1.0000000000E+20
 20
1.0000000000E+20
 30
1.0000000000E+20
  9
$PEXTMAX
 10
-1.0000000000E+20
 20
-1.0000000000E+20
 30
-1.0000000000E+20
  9
$PLIMMIN
 10
0.0
 20
0.0
  9
$PLIMMAX
 10
420.0
 20
297.0
  9
$UNITMODE
 70
     0
  9
$VISRETAIN
 70
     1
  9
$PLINEGEN
 70
     0
  9
$PSLTSCALE
 70
     1
  9
$TREEDEPTH
 70
  3020
  9
$CMLSTYLE
  2
Standard
  9
$CMLJUST
 70
     0
  9
$CMLSCALE
 40
20.0
  9
$PROXYGRAPHICS
 70
     1
  9
$MEASUREMENT
 70
     1
  9
$CELWEIGHT
370
    -1
  9
$ENDCAPS
280
     0
  9
$JOINSTYLE
280
     0
  9
$LWDISPLAY
290
     1
  9
$INSUNITS
 70
     4
  9
$HYPERLINKBASE
  1

  9
$STYLESHEET
  1

  9
$XEDIT
290
     1
  9
$CEPSNTYPE
380
     0
  9
$PSTYLEMODE
290
     1
  9
$FINGERPRINTGUID
  2
{82DFD100-92C4-41C7-8BD7-22D556691BEF}
  9
$VERSIONGUID
  2
{FAEB1C32-E019-11D5-929B-00C0DF256EC4}
  9
$EXTNAMES
290
     1
  9
$PSVPSCALE
 40
0.0
  9
$OLESTARTUP
290
     0
  0
ENDSEC
  0
SECTION
  2
CLASSES
  0
CLASS
  1
ACDBDICTIONARYWDFLT
  2
AcDbDictionaryWithDefault
  3
ObjectDBX Classes
 90
        0
280
     0
281
     0
  0
CLASS
  1
VISUALSTYLE
  2
AcDbVisualStyle
  3
ObjectDBX Classes
 90
     4095
280
     0
281
     0
  0
CLASS
  1
MATERIAL
  2
AcDbMaterial
  3
ObjectDBX Classes
 90
     1153
280
     0
281
     0
  0
CLASS
  1
ACDBPLACEHOLDER
  2
AcDbPlaceHolder
  3
ObjectDBX Classes
 90
        0
280
     0
281
     0
  0
CLASS
  1
LAYOUT
  2
AcDbLayout
  3
ObjectDBX Classes
 90
        0
280
     0
281
     0
  0
ENDSEC
  0
SECTION
  2
TABLES
  0
TABLE
  2
VPORT
  5
8
330
0
100
AcDbSymbolTable
 70
     1
  0
VPORT
  5
29
330
8
100
AcDbSymbolTableRecord
100
AcDbViewportTableRecord
  2
*Active
 70
     0
 10
0.0
 20
0.0
 11
1.0
 21
1.0
 12
148.5
 22
105.0
 13
0.0
 23
0.0
 14
10.0
 24
10.0
 15
10.0
 25
10.0
 16
0.0
 26
0.0
 36
1.0
 17
0.0
 27
0.0
 37
0.0
 40
210.0
 41
1.4142857143
 42
50.0
 43
0.0
 44
0.0
 50
0.0
 51
0.0
 71
     0
 72
  2000
 73
     1
 74
     3
 75
     0
 76
     0
 77
     0
 78
     0
281
     0
 65
     1
110
0.0
120
0.0
130
0.0
111
1.0
121
0.0
131
0.0
112
0.0
122
1.0
132
0.0
 79
     0
146
0.0
  0
ENDTAB
  0
TABLE
  2
LTYPE
  5
5
330
0
100
AcDbSymbolTable
 70
     6
  0
LTYPE
  5
14
330
5
100
AcDbSymbolTableRecord
100
AcDbLinetypeTableRecord
  2
ByBlock
 70
     0
  3

 72
    65
 73
     0
 40
0.0
  0
LTYPE
  5
15
330
5
100
AcDbSymbolTableRecord
100
AcDbLinetypeTableRecord
  2
ByLayer
 70
     0
  3

 72
    65
 73
     0
 40
0.0
  0
LTYPE
  5
16
330
5
100
AcDbSymbolTableRecord
100
AcDbLinetypeTableRecord
  2
Continuous
 70
     0
  3
Solid line
 72
    65
 73
     0
 40
0.0
  0
LTYPE
  5
3F
330
5
100
AcDbSymbolTableRecord
100
AcDbLinetypeTableRecord
  2
HIDDEN
 70
     0
  3
Hidden __ __ __ __ __ __ __ __ __ __ __ __ __ __
 72
    65
 73
     2
 40
1.905
 49
1.27
 74
     0
 49
-0.635
 74
     0
  0
LTYPE
  5
40
330
5
100
AcDbSymbolTableRecord
100
AcDbLinetypeTableRecord
  2
PHANTOM
 70
     0
  3
Phantom ______  __  __  ______  __  __  ______
 72
    65
 73
     6
 40
12.7
 49
6.35
 74
     0
 49
-1.27
 74
     0
 49
1.27
 74
     0
 49
-1.27
 74
     0
 49
1.27
 74
     0
 49
-1.27
 74
     0
  0
LTYPE
  5
41
330
5
100
AcDbSymbolTableRecord
100
AcDbLinetypeTableRecord
  2
CENTER
 70
     0
  3
Center ____ _ ____ _ ____ _ ____ _ ____ _ ____
 72
    65
 73
     4
 40
10.16
 49
6.35
 74
     0
 49
-1.27
 74
     0
 49
1.27
 74
     0
 49
-1.27
 74
     0
  0
LTYPE
  5
42
330
5
100
AcDbSymbolTableRecord
100
AcDbLinetypeTableRecord
  2
CENTERX2
 70
     0
  3
Center (2x) ________  __  ________  __  _____
 72
    65
 73
     4
 40
20.32
 49
12.7
 74
     0
 49
-2.54
 74
     0
 49
2.54
 74
     0
 49
-2.54
 74
     0
  0
LTYPE
  5
43
330
5
100
AcDbSymbolTableRecord
100
AcDbLinetypeTableRecord
  2
DOT2
 70
     0
  3
Dot (.5x) ........................................
 72
    65
 73
     2
 40
0.635
 49
0.0
 74
     0
 49
-0.635
 74
     0
  0
ENDTAB
  0
TABLE
  2
LAYER
  5
2
330
0
100
AcDbSymbolTable
 70
     5
  0
LAYER
  5
10
330
2
100
AcDbSymbolTableRecord
100
AcDbLayerTableRecord
  2
0
 70
     0
 62
     7
  6
Continuous
370
    -3
390
F
  0
LAYER
  5
44
330
2
100
AcDbSymbolTableRecord
100
AcDbLayerTableRecord
  2
FORMAT
 70
     0
 62
     7
  6
Continuous
370
    -3
390
F
  0
LAYER
  5
45
330
2
100
AcDbSymbolTableRecord
100
AcDbLayerTableRecord
  2
VERMASSUNG
 70
     0
 62
     7
  6
Continuous
370
    -3
390
F
  0
LAYER
  5
46
330
2
100
AcDbSymbolTableRecord
100
AcDbLayerTableRecord
  2
KOPF_DÜNN
 70
     0
 62
     7
  6
Continuous
370
    -3
390
F
  0
LAYER
  5
47
330
2
100
AcDbSymbolTableRecord
100
AcDbLayerTableRecord
  2
KOPF_DICK
 70
     0
 62
     7
  6
Continuous
370
    15
390
F
  0
ENDTAB
  0
TABLE
  2
STYLE
  5
3
330
0
100
AcDbSymbolTable
 70
     2
  0
STYLE
  5
11
330
3
100
AcDbSymbolTableRecord
100
AcDbTextStyleTableRecord
  2
Standard
 70
     0
 40
0.0
 41
1.0
 50
0.0
 71
     0
 42
2.0
  3
txt
  4

  0
STYLE
  5
48
330
3
100
AcDbSymbolTableRecord
100
AcDbTextStyleTableRecord
  2
SLDTEXTSTYLE0
 70
     0
 40
0.0
 41
0.7
 50
0.0
 71
     0
 42
0.2
  3
TXT
  4

  0
ENDTAB
  0
TABLE
  2
VIEW
  5
6
330
0
100
AcDbSymbolTable
 70
     0
  0
ENDTAB
  0
TABLE
  2
UCS
  5
7
330
0
100
AcDbSymbolTable
 70
     0
  0
ENDTAB
  0
TABLE
  2
APPID
  5
9
330
0
100
AcDbSymbolTable
 70
     1
  0
APPID
  5
12
330
9
100
AcDbSymbolTableRecord
100
AcDbRegAppTableRecord
  2
ACAD
 70
     0
  0
ENDTAB
  0
TABLE
  2
DIMSTYLE
  5
A
330
0
100
AcDbSymbolTable
 70
     4
100
AcDbDimStyleTable
  0
DIMSTYLE
105
27
330
A
100
AcDbSymbolTableRecord
100
AcDbDimStyleTableRecord
  2
ISO-25
 70
     0
 41
2.5
 42
0.625
 43
3.75
 44
1.25
 73
     0
 74
     0
 77
     1
 78
     8
140
2.5
141
2.5
143
0.0393700787
147
0.625
171
     3
172
     1
178
     0
271
     2
272
     2
274
     3
278
    44
283
     0
284
     8
340
11
  0
DIMSTYLE
105
12E
102
{ACAD_REACTORS
330
12D
330
1D4
102
}
330
A
100
AcDbSymbolTableRecord
100
AcDbDimStyleTableRecord
  2
SLDDIMSTYLE0
 70
     0
 41
3.0
 44
0.0
 73
     0
 74
     0
 77
     1
 78
    12
 79
     3
140
2.0
147
0.5
173
     1
178
     0
179
     2
272
     3
276
     2
284
    12
340
48
  0
DIMSTYLE
105
137
102
{ACAD_REACTORS
330
136
330
141
330
14B
330
155
102
}
330
A
100
AcDbSymbolTableRecord
100
AcDbDimStyleTableRecord
  2
SLDDIMSTYLE1
 70
     0
 41
3.0
 44
0.0
 45
0.000000001
 73
     0
 74
     0
 77
     1
 78
    12
 79
     3
140
2.0
147
0.5
173
     1
178
     0
271
     2
272
     3
276
     2
284
    12
340
48
  0
DIMSTYLE
105
1E1
102
{ACAD_REACTORS
330
1E0
102
}
330
A
100
AcDbSymbolTableRecord
100
AcDbDimStyleTableRecord
  2
SLDDIMSTYLE2
 70
     0
 41
3.0
 44
0.0
 45
0.000000001
 73
     0
 74
     0
 77
     1
 78
    12
 79
     3
140
2.0
147
0.5
172
     1
173
     1
178
     0
271
     2
272
     3
276
     2
284
    12
289
     0
340
48
  0
ENDTAB
  0
TABLE
  2
BLOCK_RECORD
  5
1
330
0
100
AcDbSymbolTable
 70
     9
  0
BLOCK_RECORD
  5
1F
330
1
100
AcDbSymbolTableRecord
100
AcDbBlockTableRecord
  2
*Model_Space
340
22
  0
BLOCK_RECORD
  5
1B
330
1
100
AcDbSymbolTableRecord
100
AcDbBlockTableRecord
  2
*Paper_Space
340
1E
  0
BLOCK_RECORD
  5
23
330
1
100
AcDbSymbolTableRecord
100
AcDbBlockTableRecord
  2
*Paper_Space0
340
26
  0
BLOCK_RECORD
  5
12F
330
1
100
AcDbSymbolTableRecord
100
AcDbBlockTableRecord
  2
_D
340
0
  0
BLOCK_RECORD
  5
138
330
1
100
AcDbSymbolTableRecord
100
AcDbBlockTableRecord
  2
_D_1
340
0
  0
BLOCK_RECORD
  5
142
330
1
100
AcDbSymbolTableRecord
100
AcDbBlockTableRecord
  2
_D_2
340
0
  0
BLOCK_RECORD
  5
14C
330
1
100
AcDbSymbolTableRecord
100
AcDbBlockTableRecord
  2
_D_3
340
0
  0
BLOCK_RECORD
  5
156
330
1
100
AcDbSymbolTableRecord
100
AcDbBlockTableRecord
  2
_D_4
340
0
  0
BLOCK_RECORD
  5
1D5
330
1
100
AcDbSymbolTableRecord
100
AcDbBlockTableRecord
  2
_D_5
340
0
  0
BLOCK_RECORD
  5
1E2
330
1
100
AcDbSymbolTableRecord
100
AcDbBlockTableRecord
  2
_D_6
340
0
  0
BLOCK_RECORD
  5
1EF
330
1
100
AcDbSymbolTableRecord
100
AcDbBlockTableRecord
  2
SW_CENTERMARKSYMBOL_0
340
0
102
{BLKREFS
331
1FA
102
}
  0
ENDTAB
  0
ENDSEC
  0
SECTION
  2
BLOCKS
  0
BLOCK
  5
20
330
1F
100
AcDbEntity
  8
0
100
AcDbBlockBegin
  2
*Model_Space
 70
     0
 10
0.0
 20
0.0
 30
0.0
  3
*Model_Space
  1

  0
ENDBLK
  5
21
330
1F
100
AcDbEntity
  8
0
100
AcDbBlockEnd
  0
BLOCK
  5
1C
330
1B
100
AcDbEntity
 67
     1
  8
0
100
AcDbBlockBegin
  2
*Paper_Space
 70
     0
 10
0.0
 20
0.0
 30
0.0
  3
*Paper_Space
  1

  0
ENDBLK
  5
1D
330
1B
100
AcDbEntity
 67
     1
  8
0
100
AcDbBlockEnd
  0
BLOCK
  5
24
330
23
100
AcDbEntity
  8
0
100
AcDbBlockBegin
  2
*Paper_Space0
 70
     0
 10
0.0
 20
0.0
 30
0.0
  3
*Paper_Space0
  1

  0
ENDBLK
  5
25
330
23
100
AcDbEntity
  8
0
100
AcDbBlockEnd
  0
BLOCK
  5
130
330
12F
100
AcDbEntity
  8
0
100
AcDbBlockBegin
  2
_D
 70
     0
 10
0.0
 20
0.0
 30
0.0
  3
_D
  1

  0
ARC
  5
132
330
12F
100
AcDbEntity
  8
VERMASSUNG
100
AcDbCircle
 10
232.631460874
 20
94.771666097
 30
0.0
 40
9.470062089060317
100
AcDbArc
 50
0.0
 51
95.0047861234
  0
SOLID
  5
133
330
12F
100
AcDbEntity
  8
VERMASSUNG
100
AcDbTrace
 10
242.1015229631
 20
94.771666097
 30
0.0
 11
242.0878621188
 21
97.8051976003
 31
0.0
 12
241.1984296367
 22
97.6676844747
 32
0.0
 13
241.1984296367
 23
97.6676844747
 33
0.0
  0
SOLID
  5
134
330
12F
100
AcDbEntity
  8
VERMASSUNG
100
AcDbTrace
 10
231.8053025234
 20
104.2056227617
 30
0.0
 11
234.7690645034
 21
103.5586181822
 31
0.0
 12
234.8284601853
 22
104.4566561285
 32
0.0
 13
234.8284601853
 23
104.4566561285
 33
0.0
  0
MTEXT
  5
135
330
12F
100
AcDbEntity
  8
VERMASSUNG
100
AcDbMText
 10
238.6325478269
 20
105.6139914181
 30
0.1
 40
2.0
 41
0.0
 71
     1
 72
     1
  1
95°
  7
SLDTEXTSTYLE0
 11
0.7373055534122274
 21
-0.6755594133068454
 31
0.0
 73
     1
 44
1.0
  0
ENDBLK
  5
131
330
12F
100
AcDbEntity
  8
0
100
AcDbBlockEnd
  0
BLOCK
  5
139
330
138
100
AcDbEntity
  8
0
100
AcDbBlockBegin
  2
_D_1
 70
     0
 10
0.0
 20
0.0
 30
0.0
  3
_D_1
  1

  0
SOLID
  5
13B
330
138
100
AcDbEntity
  8
VERMASSUNG
100
AcDbTrace
 10
177.5947177679
 20
88.7705837023
 30
0.0
 11
180.5947177679
 21
88.3205837023
 31
0.0
 12
180.5947177679
 22
89.2205837023
 32
0.0
 13
180.5947177679
 23
89.2205837023
 33
0.0
  0
SOLID
  5
13C
330
138
100
AcDbEntity
  8
VERMASSUNG
100
AcDbTrace
 10
232.5947177679
 20
88.7705837023
 30
0.0
 11
229.5947177679
 21
89.2205837023
 31
0.0
 12
229.5947177679
 22
88.3205837023
 32
0.0
 13
229.5947177679
 23
88.3205837023
 33
0.0
  0
LINE
  5
13D
330
138
100
AcDbEntity
  8
VERMASSUNG
100
AcDbLine
 10
177.5947177679
 20
102.071666097
 30
0.0
 11
177.5947177679
 21
87.7705837023
 31
0.0
  0
LINE
  5
13E
330
138
100
AcDbEntity
  8
VERMASSUNG
100
AcDbLine
 10
232.5947177679
 20
94.771666097
 30
0.0
 11
232.5947177679
 21
87.7705837023
 31
0.0
  0
LINE
  5
13F
330
138
100
AcDbEntity
  8
VERMASSUNG
100
AcDbLine
 10
177.5947177679
 20
88.7705837023
 30
0.0
 11
232.5947177679
 21
88.7705837023
 31
0.0
  0
MTEXT
  5
140
330
138
100
AcDbEntity
  8
VERMASSUNG
100
AcDbMText
 10
202.7947177169
 20
91.3487190655
 30
0.1
 40
2.0
 41
0.0
 71
     1
 72
     1
  1
55
  7
SLDTEXTSTYLE0
 73
     1
 44
1.0
  0
ENDBLK
  5
13A
330
138
100
AcDbEntity
  8
0
100
AcDbBlockEnd
  0
BLOCK
  5
143
330
142
100
AcDbEntity
  8
0
100
AcDbBlockBegin
  2
_D_2
 70
     0
 10
0.0
 20
0.0
 30
0.0
  3
_D_2
  1

  0
SOLID
  5
145
330
142
100
AcDbEntity
  8
VERMASSUNG
100
AcDbTrace
 10
157.6947177679
 20
80.8746298105
 30
0.0
 11
160.6947177679
 21
80.4246298105
 31
0.0
 12
160.6947177679
 22
81.3246298105
 32
0.0
 13
160.6947177679
 23
81.3246298105
 33
0.0
  0
SOLID
  5
146
330
142
100
AcDbEntity
  8
VERMASSUNG
100
AcDbTrace
 10
232.5947177679
 20
80.8746298105
 30
0.0
 11
229.5947177679
 21
81.3246298105
 31
0.0
 12
229.5947177679
 22
80.4246298105
 32
0.0
 13
229.5947177679
 23
80.4246298105
 33
0.0
  0
LINE
  5
147
330
142
100
AcDbEntity
  8
VERMASSUNG
100
AcDbLine
 10
157.6947177679
 20
109.900666097
 30
0.0
 11
157.6947177679
 21
79.8746298105
 31
0.0
  0
LINE
  5
148
330
142
100
AcDbEntity
  8
VERMASSUNG
100
AcDbLine
 10
232.5947177679
 20
94.771666097
 30
0.0
 11
232.5947177679
 21
79.8746298105
 31
0.0
  0
LINE
  5
149
330
142
100
AcDbEntity
  8
VERMASSUNG
100
AcDbLine
 10
157.6947177679
 20
80.8746298105
 30
0.0
 11
232.5947177679
 21
80.8746298105
 31
0.0
  0
MTEXT
  5
14A
330
142
100
AcDbEntity
  8
VERMASSUNG
100
AcDbMText
 10
191.7447177229
 20
83.4527651737
 30
0.1
 40
2.0
 41
0.0
 71
     1
 72
     1
  1
74.9
  7
SLDTEXTSTYLE0
 73
     1
 44
1.0
  0
ENDBLK
  5
144
330
142
100
AcDbEntity
  8
0
100
AcDbBlockEnd
  0
BLOCK
  5
14D
330
14C
100
AcDbEntity
  8
0
100
AcDbBlockBegin
  2
_D_3
 70
     0
 10
0.0
 20
0.0
 30
0.0
  3
_D_3
  1

  0
SOLID
  5
14F
330
14C
100
AcDbEntity
  8
VERMASSUNG
100
AcDbTrace
 10
250.1273479175
 20
94.771666097
 30
0.0
 11
250.5773479175
 21
97.771666097
 31
0.0
 12
249.6773479175
 22
97.771666097
 32
0.0
 13
249.6773479175
 23
97.771666097
 33
0.0
  0
SOLID
  5
150
330
14C
100
AcDbEntity
  8
VERMASSUNG
100
AcDbTrace
 10
250.1273479175
 20
121.771666097
 30
0.0
 11
249.6773479175
 21
118.771666097
 31
0.0
 12
250.5773479175
 22
118.771666097
 32
0.0
 13
250.5773479175
 23
118.771666097
 33
0.0
  0
LINE
  5
151
330
14C
100
AcDbEntity
  8
VERMASSUNG
100
AcDbLine
 10
232.5947177679
 20
94.771666097
 30
0.0
 11
251.1273479175
 21
94.771666097
 31
0.0
  0
LINE
  5
152
330
14C
100
AcDbEntity
  8
VERMASSUNG
100
AcDbLine
 10
232.5947177679
 20
121.771666097
 30
0.0
 11
251.1273479175
 21
121.771666097
 31
0.0
  0
LINE
  5
153
330
14C
100
AcDbEntity
  8
VERMASSUNG
100
AcDbLine
 10
250.1273479175
 20
94.771666097
 30
0.0
 11
250.1273479175
 21
121.771666097
 31
0.0
  0
MTEXT
  5
154
330
14C
100
AcDbEntity
  8
VERMASSUNG
100
AcDbMText
 10
247.5492125544
 20
105.971666046
 30
0.1
 40
2.0
 41
0.0
 71
     1
 72
     1
  1
27
  7
SLDTEXTSTYLE0
 11
9.494107596574928E-16
 21
1.0
 31
0.0
 73
     1
 44
1.0
  0
ENDBLK
  5
14E
330
14C
100
AcDbEntity
  8
0
100
AcDbBlockEnd
  0
BLOCK
  5
157
330
156
100
AcDbEntity
  8
0
100
AcDbBlockBegin
  2
_D_4
 70
     0
 10
0.0
 20
0.0
 30
0.0
  3
_D_4
  1

  0
SOLID
  5
159
330
156
100
AcDbEntity
  8
VERMASSUNG
100
AcDbTrace
 10
148.9693748765
 20
141.771666097
 30
0.0
 11
148.5193748765
 21
138.771666097
 31
0.0
 12
149.4193748765
 22
138.771666097
 32
0.0
 13
149.4193748765
 23
138.771666097
 33
0.0
  0
SOLID
  5
15A
330
156
100
AcDbEntity
  8
VERMASSUNG
100
AcDbTrace
 10
148.9693748765
 20
101.771666097
 30
0.0
 11
149.4193748765
 21
104.771666097
 31
0.0
 12
148.5193748765
 22
104.771666097
 32
0.0
 13
148.5193748765
 23
104.771666097
 33
0.0
  0
LINE
  5
15B
330
156
100
AcDbEntity
  8
VERMASSUNG
100
AcDbLine
 10
177.8947177679
 20
141.771666097
 30
0.0
 11
147.9693748765
 21
141.771666097
 31
0.0
  0
LINE
  5
15C
330
156
100
AcDbEntity
  8
VERMASSUNG
100
AcDbLine
 10
177.8947177679
 20
101.771666097
 30
0.0
 11
147.9693748765
 21
101.771666097
 31
0.0
  0
LINE
  5
15D
330
156
100
AcDbEntity
  8
VERMASSUNG
100
AcDbLine
 10
148.9693748765
 20
141.771666097
 30
0.0
 11
148.9693748765
 21
101.771666097
 31
0.0
  0
MTEXT
  5
15E
330
156
100
AcDbEntity
  8
VERMASSUNG
100
AcDbMText
 10
146.1912393874
 20
113.7666654462
 30
0.1
 40
2.0
 41
0.0
 71
     1
 72
     1
  1
HSK T
  7
SLDTEXTSTYLE0
 11
-7.044195017643634E-15
 21
1.0
 31
0.0
 73
     1
 44
1.0
  0
MTEXT
  5
15F
330
156
100
AcDbEntity
  8
VERMASSUNG
100
AcDbMText
 10
146.3912393969
 20
121.3666655743
 30
0.1
 40
2.0
 41
0.0
 71
     1
 72
     1
  1
%%c
  7
SLDTEXTSTYLE0
 11
-7.044195017643634E-15
 21
1.0
 31
0.0
 73
     1
 44
1.0
  0
MTEXT
  5
160
330
156
100
AcDbEntity
  8
VERMASSUNG
100
AcDbMText
 10
146.1912393874
 20
124.9766655886
 30
0.1
 40
2.0
 41
0.0
 71
     1
 72
     1
  1
40
  7
SLDTEXTSTYLE0
 11
-7.044195017643634E-15
 21
1.0
 31
0.0
 73
     1
 44
1.0
  0
ENDBLK
  5
158
330
156
100
AcDbEntity
  8
0
100
AcDbBlockEnd
  0
BLOCK
  5
1D6
330
1D5
100
AcDbEntity
  8
0
100
AcDbBlockBegin
  2
_D_5
 70
     0
 10
0.0
 20
0.0
 30
0.0
  3
_D_5
  1

  0
ARC
  5
1D8
330
1D5
100
AcDbEntity
  8
VERMASSUNG
100
AcDbCircle
 10
80.1216149386
 20
93.7661578175
 30
0.0
 40
58.97835191575744
100
AcDbArc
 50
90.0
 51
96.0
  0
ARC
  5
1D9
330
1D5
100
AcDbEntity
  8
VERMASSUNG
100
AcDbCircle
 10
80.1216149386
 20
93.7661578175
 30
0.0
 40
58.97835191575743
100
AcDbArc
 50
84.178072976
 51
90.0
  0
ARC
  5
1DA
330
1D5
100
AcDbEntity
  8
VERMASSUNG
100
AcDbCircle
 10
80.1216149386
 20
93.7661578175
 30
0.0
 40
58.97835191575745
100
AcDbArc
 50
96.0
 51
101.821927024
  0
SOLID
  5
1DB
330
1D5
100
AcDbEntity
  8
VERMASSUNG
100
AcDbTrace
 10
80.1216149386
 20
152.7445097332
 30
0.0
 11
83.1092126089
 21
152.2184297388
 31
0.0
 12
83.1320801915
 22
153.1181391772
 32
0.0
 13
83.1320801915
 23
153.1181391772
 33
0.0
  0
SOLID
  5
1DC
330
1D5
100
AcDbEntity
  8
VERMASSUNG
100
AcDbTrace
 10
73.9566984468
 20
152.4214201504
 30
0.0
 11
70.923669926
 21
152.4783235066
 31
0.0
 12
71.0404574825
 22
151.5859330839
 32
0.0
 13
71.0404574825
 23
151.5859330839
 33
0.0
  0
LINE
  5
1DD
330
1D5
100
AcDbEntity
  8
VERMASSUNG
100
AcDbLine
 10
80.1216149386
 20
144.271666097
 30
0.0
 11
80.1216149386
 21
153.7445097332
 31
0.0
  0
LINE
  5
1DE
330
1D5
100
AcDbEntity
  8
VERMASSUNG
100
AcDbLine
 10
74.0492059183
 20
151.5412703522
 30
0.0
 11
73.8521699835
 21
153.4159420458
 31
0.0
  0
MTEXT
  5
1DF
330
1D5
100
AcDbEntity
  8
VERMASSUNG
100
AcDbMText
 10
74.7030121169
 20
155.1231449546
 30
0.1
 40
2.0
 41
0.0
 71
     1
 72
     1
  1
6°
  7
SLDTEXTSTYLE0
 11
0.9986295347545734
 21
0.05233595624295388
 31
0.0
 73
     1
 44
1.0
  0
ENDBLK
  5
1D7
330
1D5
100
AcDbEntity
  8
0
100
AcDbBlockEnd
  0
BLOCK
  5
1E3
330
1E2
100
AcDbEntity
  8
0
100
AcDbBlockBegin
  2
_D_6
 70
     0
 10
0.0
 20
0.0
 30
0.0
  3
_D_6
  1

  0
SOLID
  5
1E5
330
1E2
100
AcDbEntity
  8
VERMASSUNG
100
AcDbTrace
 10
96.1251558732
 20
139.0224187391
 30
0.0
 11
98.3912963962
 21
141.0391257407
 31
0.0
 12
97.6998651746
 22
141.6152532143
 32
0.0
 13
97.6998651746
 23
141.6152532143
 33
0.0
  0
SOLID
  5
1E6
330
1E2
100
AcDbEntity
  8
VERMASSUNG
100
AcDbTrace
 10
64.118074004
 20
100.6095730984
 30
0.0
 11
61.8519334811
 21
98.5928660968
 31
0.0
 12
62.5433647026
 22
98.0167386231
 32
0.0
 13
62.5433647026
 23
98.0167386231
 33
0.0
  0
LINE
  5
1E7
330
1E2
100
AcDbEntity
  8
VERMASSUNG
100
AcDbLine
 10
96.1251558732
 20
139.0224187391
 30
0.0
 11
96.8934127861
 21
138.3822771017
 31
0.0
  0
LINE
  5
1E8
330
1E2
100
AcDbEntity
  8
VERMASSUNG
100
AcDbLine
 10
64.118074004
 20
100.6095730984
 30
0.0
 11
63.3498170912
 21
101.2497147358
 31
0.0
  0
LINE
  5
1E9
330
1E2
100
AcDbEntity
  8
VERMASSUNG
100
AcDbLine
 10
96.1251558732
 20
139.0224187391
 30
0.0
 11
99.9660056976
 21
143.6319602159
 31
0.0
  0
LINE
  5
1EA
330
1E2
100
AcDbEntity
  8
VERMASSUNG
100
AcDbLine
 10
96.1251558732
 20
139.0224187391
 30
0.0
 11
64.118074004
 21
100.6095730984
 31
0.0
  0
LINE
  5
1EB
330
1E2
100
AcDbEntity
  8
VERMASSUNG
100
AcDbLine
 10
64.118074004
 20
100.6095730984
 30
0.0
 11
52.7483987573
 21
86.9644185035
 31
0.0
  0
MTEXT
  5
1EC
330
1E2
100
AcDbEntity
  8
VERMASSUNG
100
AcDbMText
 10
50.7677283529
 20
88.6147903708
 30
0.1
 40
2.0
 41
0.0
 71
     1
 72
     1
  1
%%c
  7
SLDTEXTSTYLE0
 11
0.6401416373850103
 21
0.7682569128137006
 31
0.0
 73
     1
 44
1.0
  0
MTEXT
  5
1ED
330
1E2
100
AcDbEntity
  8
VERMASSUNG
100
AcDbMText
 10
52.9249882832
 20
91.5162261706
 30
0.1
 40
2.0
 41
0.0
 71
     1
 72
     1
  1
50
  7
SLDTEXTSTYLE0
 11
0.6401416373850103
 21
0.7682569128137006
 31
0.0
 73
     1
 44
1.0
  0
MTEXT
  5
1EE
330
1E2
100
AcDbEntity
  8
VERMASSUNG
100
AcDbMText
 10
56.629808373
 20
95.9625134896
 30
0.1
 40
2.0
 41
0.0
 71
     1
 72
     1
  1
min.
  7
SLDTEXTSTYLE0
 11
0.6401416373850103
 21
0.7682569128137006
 31
0.0
 73
     1
 44
1.0
  0
ENDBLK
  5
1E4
330
1E2
100
AcDbEntity
  8
0
100
AcDbBlockEnd
  0
BLOCK
  5
1F0
330
1EF
100
AcDbEntity
  8
0
100
AcDbBlockBegin
  2
SW_CENTERMARKSYMBOL_0
 70
     0
 10
0.0
 20
0.0
 30
0.0
  3
SW_CENTERMARKSYMBOL_0
  1

  0
LINE
  5
1F2
330
1EF
100
AcDbEntity
  8
VERMASSUNG
 62
     0
100
AcDbLine
 10
0.0
 20
0.0
 30
0.0
 11
0.0
 21
2.5
 31
0.0
  0
LINE
  5
1F3
330
1EF
100
AcDbEntity
  8
VERMASSUNG
 62
     0
100
AcDbLine
 10
0.0
 20
0.0
 30
0.0
 11
-2.5
 21
0.0
 31
0.0
  0
LINE
  5
1F4
330
1EF
100
AcDbEntity
  8
VERMASSUNG
 62
     0
100
AcDbLine
 10
0.0
 20
0.0
 30
0.0
 11
0.0
 21
-2.5
 31
0.0
  0
LINE
  5
1F5
330
1EF
100
AcDbEntity
  8
VERMASSUNG
 62
     0
100
AcDbLine
 10
0.0
 20
0.0
 30
0.0
 11
2.5
 21
0.0
 31
0.0
  0
LINE
  5
1F6
330
1EF
100
AcDbEntity
  8
VERMASSUNG
 62
     0
100
AcDbLine
 10
0.0
 20
5.0
 30
0.0
 11
0.0
 21
22.5
 31
0.0
  0
LINE
  5
1F7
330
1EF
100
AcDbEntity
  8
VERMASSUNG
 62
     0
100
AcDbLine
 10
-5.0
 20
0.0
 30
0.0
 11
-22.5
 21
0.0
 31
0.0
  0
LINE
  5
1F8
330
1EF
100
AcDbEntity
  8
VERMASSUNG
 62
     0
100
AcDbLine
 10
0.0
 20
-5.0
 30
0.0
 11
0.0
 21
-22.5
 31
0.0
  0
LINE
  5
1F9
330
1EF
100
AcDbEntity
  8
VERMASSUNG
 62
     0
100
AcDbLine
 10
5.0
 20
0.0
 30
0.0
 11
22.5
 21
0.0
 31
0.0
  0
ENDBLK
  5
1F1
330
1EF
100
AcDbEntity
  8
0
100
AcDbBlockEnd
  0
ENDSEC
  0
SECTION
  2
ENTITIES
  0
MTEXT
  5
49
330
1F
100
AcDbEntity
  8
KOPF_DÜNN
100
AcDbMText
 10
13.8892156294
 20
23.8442973028
 30
0.0
 40
3.0
 41
0.0
 71
     1
 72
     1
  1
HA4.PCD.LLA.055
  7
SLDTEXTSTYLE0
 73
     1
 44
1.0
  0
MTEXT
  5
4A
330
1F
100
AcDbEntity
  8
VERMASSUNG
100
AcDbMText
 10
13.9329988022
 20
28.8834360957
 30
0.0
 40
3.0
 41
0.0
 71
     1
 72
     1
  1
Klemmhalter links_Turning tool left 95° /80°
  7
SLDTEXTSTYLE0
 73
     1
 44
1.0
  0
MTEXT
  5
4B
330
1F
100
AcDbEntity
  8
VERMASSUNG
100
AcDbMText
 10
98.8601118557
 20
13.8365368179
 30
0.0
 40
2.0
 41
0.0
 71
     1
 72
     1
  1
Datum: 18.06.2012
  7
SLDTEXTSTYLE0
 73
     1
 44
1.0
  0
MTEXT
  5
4C
330
1F
100
AcDbEntity
  8
VERMASSUNG
100
AcDbMText
 10
13.933048693
 20
18.0482802738
 30
0.0
 40
2.0
 41
0.0
 71
     1
 72
     1
  1
HSK T ø40 / CN..12 04..
  7
SLDTEXTSTYLE0
 73
     1
 44
1.0
  0
MTEXT
  5
4D
330
1F
100
AcDbEntity
  8
VERMASSUNG
100
AcDbMText
 10
13.9808475933
 20
13.9090973692
 30
0.0
 40
2.0
 41
0.0
 71
     1
 72
     1
  1
Gewicht: 357g
  7
SLDTEXTSTYLE0
 73
     1
 44
1.0
  0
LINE
  5
4E
330
1F
100
AcDbEntity
  8
0
  6
Continuous
 62
     7
370
    15
100
AcDbLine
 10
223.1743076713
 20
101.0621291274
 30
0.0
 11
224.1239661248
 21
100.457797634
 31
0.0
  0
LINE
  5
4F
330
1F
100
AcDbEntity
  8
0
  6
Continuous
 62
     7
370
    15
100
AcDbLine
 10
231.4315887065
 20
107.4132620046
 30
0.0
 11
230.9340352089
 21
107.9080923149
 31
0.0
  0
LINE
  5
50
330
1F
100
AcDbEntity
  8
0
  6
Continuous
 62
     7
370
    15
100
AcDbLine
 10
219.4456385345
 20
96.2965682769
 30
0.0
 11
219.9431920321
 21
95.8017398292
 31
0.0
  0
LINE
  5
51
330
1F
100
AcDbEntity
  8
0
  6
Continuous
 62
     7
370
    15
100
AcDbLine
 10
177.8947177822
 20
101.7716665441
 30
0.0
 11
185.5447182329
 21
101.7716665441
 31
0.0
  0
LINE
  5
52
330
1F
100
AcDbEntity
  8
0
  6
Continuous
 62
     7
370
    15
100
AcDbLine
 10
185.5602452428
 20
141.77166565
 30
0.0
 11
177.8947177822
 21
141.77166565
 31
0.0
  0
ARC
  5
53
330
1F
100
AcDbEntity
  8
0
  6
Continuous
 62
     7
370
    15
100
AcDbCircle
 10
177.8947177679
 20
102.071666097
 30
0.0
 40
0.3000000000000114
100
AcDbArc
 50
180.0
 51
270.0
  0
ARC
  5
54
330
1F
100
AcDbEntity
  8
0
  6
Continuous
 62
     7
370
    15
100
AcDbCircle
 10
177.8947177679
 20
141.471666097
 30
0.0
 40
0.3000000000000114
100
AcDbArc
 50
90.0
 51
180.0
  0
ARC
  5
55
330
1F
100
AcDbEntity
  8
0
  6
Continuous
 62
     7
370
    15
100
AcDbCircle
 10
198.5447177679
 20
104.271666097
 30
0.0
 40
1.0
100
AcDbArc
 50
90.0
 51
143.1137328946
  0
ARC
  5
56
330
1F
100
AcDbEntity
  8
0
  6
Continuous
 62
     7
370
    15
100
AcDbCircle
 10
198.5447177679
 20
139.271666097
 30
0.0
 40
1.000000000000006
100
AcDbArc
 50
216.8998129703
 51
270.0
  0
LINE
  5
57
330
1F
100
AcDbEntity
  8
0
  6
Continuous
 62
     7
370
    15
100
AcDbLine
 10
211.8273900719
 20
138.2716660076
 30
0.0
 11
198.5447185011
 21
138.2716660076
 31
0.0
  0
LINE
  5
58
330
1F
100
AcDbEntity
  8
0
  6
Continuous
 62
     7
370
    15
100
AcDbLine
 10
198.5447185011
 20
105.2716661865
 30
0.0
 11
211.8273900719
 21
105.2716661865
 31
0.0
  0
ARC
  5
59
330
1F
100
AcDbEntity
  8
0
  6
Continuous
 62
     7
370
    15
100
AcDbCircle
 10
177.0947110153
 20
106.3179589436
 30
0.0
 40
0.60000675266771
100
AcDbArc
 50
33.5571153394
 51
90.0
  0
ARC
  5
5A
330
1F
100
AcDbEntity
  8
0
  6
Continuous
 62
     7
370
    15
100
AcDbCircle
 10
177.0947110153
 20
137.2253732505
 30
0.0
 40
0.6000067526676958
100
AcDbArc
 50
270.0
 51
326.4428846606
  0
LINE
  5
5B
330
1F
100
AcDbEntity
  8
0
  6
Continuous
 62
     7
370
    15
100
AcDbLine
 10
175.5947176729
 20
106.6679655263
 30
0.0
 11
176.4514296678
 21
106.8975207084
 31
0.0
  0
LINE
  5
5C
330
1F
100
AcDbEntity
  8
0
  6
Continuous
 62
     7
370
    15
100
AcDbLine
 10
176.4514296678
 20
136.6458114856
 30
0.0
 11
175.5947176729
 21
136.8753666678
 31
0.0
  0
LINE
  5
5D
330
1F
100
AcDbEntity
  8
0
  6
Continuous
 62
     7
370
    15
100
AcDbLine
 10
168.778784749
 20
136.5338870013
 30
0.0
 11
161.2947175176
 21
136.1589337388
 31
0.0
  0
LINE
  5
5E
330
1F
100
AcDbEntity
  8
0
  6
Continuous
 62
     7
370
    15
100
AcDbLine
 10
175.5947176729
 20
136.8753666678
 30
0.0
 11
174.3599851047
 21
136.8135063598
 31
0.0
  0
LINE
  5
5F
330
1F
100
AcDbEntity
  8
0
  6
Continuous
 62
     7
370
    15
100
AcDbLine
 10
174.3609811542
 20
106.7297764742
 30
0.0
 11
175.5947176729
 21
106.6679655263
 31
0.0
  0
LINE
  5
60
330
1F
100
AcDbEntity
  8
0
  6
Continuous
 62
     7
370
    15
100
AcDbLine
 10
163.7947179274
 20
107.2591476762
 30
0.0
 11
168.7792476163
 21
107.0094219097
 31
0.0
  0
ARC
  5
61
330
1F
100
AcDbEntity
  8
0
  6
Continuous
 62
     7
370
    15
100
AcDbCircle
 10
176.6067228574
 20
106.3179589436
 30
0.0
 40
0.60000675266771
100
AcDbArc
 50
90.0
 51
105.0
  0
ARC
  5
62
330
1F
100
AcDbEntity
  8
0
  6
Continuous
 62
     7
370
    15
100
AcDbCircle
 10
176.6067228574
 20
137.2253732505
 30
0.0
 40
0.6000067526677242
100
AcDbArc
 50
255.0
 51
270.0
  0
LINE
  5
63
330
1F
100
AcDbEntity
  8
0
  6
Continuous
 62
     7
370
    15
100
AcDbLine
 10
176.6067228177
 20
106.9179660329
 30
0.0
 11
177.0947109921
 21
106.9179660329
 31
0.0
  0
LINE
  5
64
330
1F
100
AcDbEntity
  8
0
  6
Continuous
 62
     7
370
    15
100
AcDbLine
 10
177.0947109921
 20
136.6253661612
 30
0.0
 11
176.6067228177
 21
136.6253661612
 31
0.0
  0
ARC
  5
65
330
1F
100
AcDbEntity
  8
0
  6
Continuous
 62
     7
370
    15
100
AcDbCircle
 10
160.3947177679
 20
135.551666097
 30
0.0
 40
0.9000000000000258
100
AcDbArc
 50
270.0
 51
311.1792132369
  0
ARC
  5
66
330
1F
100
AcDbEntity
  8
0
  6
Continuous
 62
     7
370
    15
100
AcDbCircle
 10
162.8947177679
 20
107.991666097
 30
0.0
 40
0.9000000000000147
100
AcDbArc
 50
34.6391318474
 51
90.0
  0
LINE
  5
67
330
1F
100
AcDbEntity
  8
0
  6
Continuous
 62
     7
370
    15
100
AcDbLine
 10
158.6447173626
 20
134.6516663828
 30
0.0
 11
157.6947180451
 21
133.701666134
 31
0.0
  0
LINE
  5
68
330
1F
100
AcDbEntity
  8
0
  6
Continuous
 62
     7
370
    15
100
AcDbLine
 10
160.3947171838
 20
134.6516663828
 30
0.0
 11
158.6447173626
 21
134.6516663828
 31
0.0
  0
LINE
  5
69
330
1F
100
AcDbEntity
  8
0
  6
Continuous
 62
     7
370
    15
100
AcDbLine
 10
158.7037185104
 20
108.8916658112
 30
0.0
 11
162.8947175936
 21
108.8916658112
 31
0.0
  0
LINE
  5
6A
330
1F
100
AcDbEntity
  8
0
  6
Continuous
 62
     7
370
    15
100
AcDbLine
 10
157.6947180451
 20
109.9006662765
 30
0.0
 11
158.7037185104
 21
108.8916658112
 31
0.0
  0
ARC
  5
6B
330
1F
100
AcDbEntity
  8
0
  6
Continuous
 62
     7
370
    15
100
AcDbCircle
 10
211.82739078
 20
139.271666097
 30
0.0
 40
1.000000000000003
100
AcDbArc
 50
270.0
 51
345.0
  0
ARC
  5
6C
330
1F
100
AcDbEntity
  8
0
  6
Continuous
 62
     7
370
    15
100
AcDbCircle
 10
211.82739078
 20
104.271666097
 30
0.0
 40
0.9999999999999993
100
AcDbArc
 50
15.0
 51
90.0
  0
LINE
  5
6D
330
1F
100
AcDbEntity
  8
0
  6
Continuous
 62
     7
370
    15
100
AcDbLine
 10
214.6722825141
 20
139.7716653222
 30
0.0
 11
212.9966432125
 21
139.7716653222
 31
0.0
  0
LINE
  5
6E
330
1F
100
AcDbEntity
  8
0
  6
Continuous
 62
     7
370
    15
100
AcDbLine
 10
212.9966432125
 20
139.7716653222
 30
0.0
 11
212.793316868
 21
139.0128479028
 31
0.0
  0
LINE
  5
6F
330
1F
100
AcDbEntity
  8
0
  6
Continuous
 62
     7
370
    15
100
AcDbLine
 10
212.793316868
 20
104.5304842913
 30
0.0
 11
214.7641258211
 21
97.1753176922
 31
0.0
  0
LINE
  5
70
330
1F
100
AcDbEntity
  8
0
  6
Continuous
 62
     7
370
    15
100
AcDbLine
 10
214.7680299253
 20
97.1511237943
 30
0.0
 11
219.6290941806
 21
96.6402039552
 31
0.0
  0
CIRCLE
  5
71
330
1F
100
AcDbEntity
  8
0
  6
Continuous
 62
     7
370
    15
100
AcDbCircle
 10
221.2953829905
 20
113.5912786412
 30
0.0
 40
3.485913545035343
  0
CIRCLE
  5
72
330
1F
100
AcDbEntity
  8
0
  6
Continuous
 62
     7
370
    15
100
AcDbCircle
 10
221.2791004803
 20
113.5938048578
 30
0.0
 40
1.991533323058733
  0
SPLINE
  5
73
330
1F
100
AcDbEntity
  8
0
  6
Continuous
 62
     7
370
    15
100
AcDbSpline
210
0.0
220
0.0
230
1.0
 70
     8
 71
     3
 72
    11
 73
     7
 74
     0
 42
0.00000001
 43
0.00000001
 12
1.0
 22
0.0
 32
0.0
 13
1.0
 23
0.0
 33
0.0
 40
0.0
 40
0.0
 40
0.0
 40
0.0
 40
0.1081099474861101
 40
0.4711577557584369
 40
0.8135801186582289
 40
0.9999999999999999
 40
0.9999999999999999
 40
0.9999999999999999
 40
0.9999999999999999
 10
220.5297576160248
 20
112.0428274074192
 30
0.0
 10
220.5847458552858
 20
112.0524580332619
 30
0.0
 10
220.8243920303672
 20
112.0944296016895
 30
0.0
 10
221.2915511224175
 20
112.1634710124466
 30
0.0
 10
221.8383983835321
 20
112.2157525079107
 30
0.0
 10
222.1374626639739
 20
112.2349415200225
 30
0.0
 10
222.2428845138367
 20
112.2417057552929
 30
0.0
  0
SPLINE
  5
74
330
1F
100
AcDbEntity
  8
0
  6
Continuous
 62
     7
370
    15
100
AcDbSpline
210
0.0
220
0.0
230
1.0
 70
     8
 71
     3
 72
    11
 73
     7
 74
     0
 42
0.00000001
 43
0.00000001
 12
1.0
 22
0.0
 32
0.0
 13
1.0
 23
0.0
 33
0.0
 40
0.0
 40
0.0
 40
0.0
 40
0.0
 40
0.2164494992109249
 40
0.4402994042969697
 40
0.7518912280622708
 40
1.0
 40
1.0
 40
1.0
 40
1.0
 10
222.2428845138367
 20
112.2417057552929
 30
0.0
 10
222.2851979497276
 20
112.3556735899879
 30
0.0
 10
222.3712715173932
 20
112.5875058183285
 30
0.0
 10
222.5428106074496
 20
113.0059867597834
 30
0.0
 10
222.7429592726406
 20
113.4388467774759
 30
0.0
 10
222.8819165948051
 20
113.7050412220431
 30
0.0
 10
222.9435147614296
 20
113.8230421268935
 30
0.0
  0
SPLINE
  5
75
330
1F
100
AcDbEntity
  8
0
  6
Continuous
 62
     7
370
    15
100
AcDbSpline
210
0.0
220
0.0
230
1.0
 70
     8
 71
     3
 72
    11
 73
     7
 74
     0
 42
0.00000001
 43
0.00000001
 12
1.0
 22
0.0
 32
0.0
 13
1.0
 23
0.0
 33
0.0
 40
0.0
 40
0.0
 40
0.0
 40
0.0
 40
0.2164505855070279
 40
0.4403001152673659
 40
0.7518920499257705
 40
1.0
 40
1.0
 40
1.0
 40
1.0
 10
222.9435147614296
 20
113.8230421268935
 30
0.0
 10
222.8684797261519
 20
113.9233869022175
 30
0.0
 10
222.7158447281709
 20
114.1275065447593
 30
0.0
 10
222.4444052051259
 20
114.4945625915033
 30
0.0
 10
222.1693598296815
 20
114.8722565011657
 30
0.0
 10
222.0042217527687
 20
115.1031489050043
 30
0.0
 10
221.9310181112106
 20
115.2055006162817
 30
0.0
  0
SPLINE
  5
76
330
1F
100
AcDbEntity
  8
0
  6
Continuous
 62
     7
370
    15
100
AcDbSpline
210
0.0
220
0.0
230
1.0
 70
     8
 71
     3
 72
    11
 73
     7
 74
     0
 42
0.00000001
 43
0.00000001
 12
1.0
 22
0.0
 32
0.0
 13
1.0
 23
0.0
 33
0.0
 40
0.0
 40
0.0
 40
0.0
 40
0.0
 40
0.1864199058479582
 40
0.5288422974599954
 40
0.8918901155531107
 40
0.9999999999999999
 40
0.9999999999999999
 40
0.9999999999999999
 40
0.9999999999999999
 10
221.9310181112106
 20
115.2055006162817
 30
0.0
 10
221.8255962632393
 20
115.1987365929212
 30
0.0
 10
221.5265319973819
 20
115.179548182554
 30
0.0
 10
220.9796847028473
 20
115.1272653965081
 30
0.0
 10
220.5125257662922
 20
115.0582250106654
 30
0.0
 10
220.27287945749
 20
115.0162533715939
 30
0.0
 10
220.2178912133988
 20
115.0066227340693
 30
0.0
  0
SPLINE
  5
77
330
1F
100
AcDbEntity
  8
0
  6
Continuous
 62
     7
370
    15
100
AcDbSpline
210
0.0
220
0.0
230
1.0
 70
     8
 71
     3
 72
    11
 73
     7
 74
     0
 42
0.00000001
 43
0.00000001
 12
1.0
 22
0.0
 32
0.0
 13
1.0
 23
0.0
 33
0.0
 40
0.0
 40
0.0
 40
0.0
 40
0.0
 40
0.2164504212280034
 40
0.4402999602822534
 40
0.7518914790410184
 40
1.0
 40
1.0
 40
1.0
 40
1.0
 10
220.2178912133988
 20
115.0066227340693
 30
0.0
 10
220.1642189542258
 20
114.9039501946741
 30
0.0
 10
220.0550397091678
 20
114.6950953688839
 30
0.0
 10
219.8642428625173
 20
114.2957667458952
 30
0.0
 10
219.6757064870357
 20
113.8513603132067
 30
0.0
 10
219.565925570068
 20
113.5561497661051
 30
0.0
 10
219.5172609658058
 20
113.4252863624687
 30
0.0
  0
SPLINE
  5
78
330
1F
100
AcDbEntity
  8
0
  6
Continuous
 62
     7
370
    15
100
AcDbSpline
210
0.0
220
0.0
230
1.0
 70
     8
 71
     3
 72
    11
 73
     7
 74
     0
 42
0.00000001
 43
0.00000001
 12
1.0
 22
0.0
 32
0.0
 13
1.0
 23
0.0
 33
0.0
 40
0.0
 40
0.0
 40
0.0
 40
0.0
 40
0.2164496179882957
 40
0.4403002168235974
 40
0.7518918185187826
 40
1.0
 40
1.0
 40
1.0
 40
1.0
 10
219.5172609658058
 20
113.4252863624687
 30
0.0
 10
219.5809368559177
 20
113.3362366527409
 30
0.0
 10
219.7104658820406
 20
113.1550923898605
 30
0.0
 10
219.9626537939268
 20
112.8071926918054
 30
0.0
 10
220.2493049146466
 20
112.4179500978806
 30
0.0
 10
220.4436200526746
 20
112.1580416818936
 30
0.0
 10
220.5297576160248
 20
112.0428274074192
 30
0.0
  0
LINE
  5
79
330
1F
100
AcDbEntity
  8
0
  6
Continuous
 62
     7
370
    15
100
AcDbLine
 10
222.5534060867
 20
114.2110106224
 30
0.0
 11
222.9435147614
 21
113.8230421269
 31
0.0
  0
LINE
  5
7A
330
1F
100
AcDbEntity
  8
0
  6
Continuous
 62
     7
370
    15
100
AcDbLine
 10
222.5534060867
 20
114.2110106224
 30
0.0
 11
222.0471577616
 21
114.9022396342
 31
0.0
  0
LINE
  5
7B
330
1F
100
AcDbEntity
  8
0
  6
Continuous
 62
     7
370
    15
100
AcDbLine
 10
222.0471577616
 20
114.9022396342
 30
0.0
 11
221.8300888212
 21
115.1986246617
 31
0.0
  0
LINE
  5
7C
330
1F
100
AcDbEntity
  8
0
  6
Continuous
 62
     7
370
    15
100
AcDbLine
 10
221.8527795644
 20
112.6296742508
 30
0.0
 11
222.2428845138
 21
112.2417057553
 31
0.0
  0
LINE
  5
7D
330
1F
100
AcDbEntity
  8
0
  6
Continuous
 62
     7
370
    15
100
AcDbLine
 10
221.8527795644
 20
112.6296742508
 30
0.0
 11
222.2030946882
 21
113.4203419709
 31
0.0
  0
LINE
  5
7E
330
1F
100
AcDbEntity
  8
0
  6
Continuous
 62
     7
370
    15
100
AcDbLine
 10
222.2030946882
 20
113.4203419709
 30
0.0
 11
222.5534060867
 21
114.2110106224
 31
0.0
  0
LINE
  5
7F
330
1F
100
AcDbEntity
  8
0
  6
Continuous
 62
     7
370
    15
100
AcDbLine
 10
220.2327886493
 20
112.441608558
 30
0.0
 11
220.9962161155
 21
112.5302350768
 31
0.0
  0
LINE
  5
80
330
1F
100
AcDbEntity
  8
0
  6
Continuous
 62
     7
370
    15
100
AcDbLine
 10
220.9962161155
 20
112.5302350768
 30
0.0
 11
221.8527795644
 21
112.6296742508
 31
0.0
  0
ARC
  5
81
330
1F
100
AcDbEntity
  8
0
  6
Continuous
 62
     7
370
    15
100
AcDbCircle
 10
220.8450843101
 20
114.0265947253
 30
0.0
 40
1.487190165778099
100
AcDbArc
 50
335.9427166399
 51
36.0712952631
  0
ARC
  5
82
330
1F
100
AcDbEntity
  8
0
  6
Continuous
 62
     7
370
    15
100
AcDbCircle
 10
220.8196458742
 20
114.0328882252
 30
0.0
 40
1.512991584384869
100
AcDbArc
 50
276.7018453941
 51
336.1177914023
  0
ARC
  5
83
330
1F
100
AcDbEntity
  8
0
  6
Continuous
 62
     7
370
    15
100
AcDbCircle
 10
220.8234558052
 20
114.0000878581
 30
0.0
 40
1.479970717062206
100
AcDbArc
 50
233.698207603
 51
276.7035486205
  0
ARC
  5
84
330
1F
100
AcDbEntity
  8
0
  6
Continuous
 62
     7
370
    15
100
AcDbCircle
 10
220.863169289
 20
114.0351455802
 30
0.0
 40
1.467542436042882
100
AcDbArc
 50
36.2171857481
 51
52.652235089
  0
LINE
  5
85
330
1F
100
AcDbEntity
  8
0
  6
Continuous
 62
     7
370
    15
100
AcDbLine
 10
223.1480965288
 20
101.9479118907
 30
0.0
 11
223.4427707166
 21
101.141539278
 31
0.0
  0
LINE
  5
86
330
1F
100
AcDbEntity
  8
0
  6
Continuous
 62
     7
370
    15
100
AcDbLine
 10
223.4427707166
 20
101.141539278
 30
0.0
 11
223.1328377397
 21
101.3387691849
 31
0.0
  0
ELLIPSE
  5
87
330
1F
100
AcDbEntity
  8
0
  6
Continuous
 62
     7
370
    15
100
AcDbEllipse
 10
225.3381017195
 20
102.3521127904
 30
0.0
 11
1.502644295739827
 21
1.675495476824054
 31
0.0
210
0.0
220
0.0
230
1.0
 40
0.9898983231
 41
2.867627484131774
 42
5.586798377003228
  0
ELLIPSE
  5
88
330
1F
100
AcDbEntity
  8
0
  6
Continuous
 62
     7
370
    15
100
AcDbEllipse
 10
225.3381017195
 20
102.3521127904
 30
0.0
 11
1.502644295739827
 21
1.675495476824054
 31
0.0
210
0.0
220
0.0
230
1.0
 40
0.9898983231
 41
6.009220137721593
 42
6.129087383896032
  0
LINE
  5
89
330
1F
100
AcDbEntity
  8
0
  6
Continuous
 62
     7
370
    15
100
AcDbLine
 10
227.5547684998
 20
102.6833587015
 30
0.0
 11
227.2334324093
 21
103.5626873994
 31
0.0
  0
LINE
  5
8A
330
1F
100
AcDbEntity
  8
0
  6
Continuous
 62
     7
370
    15
100
AcDbLine
 10
227.1393427522
 20
103.7389923507
 30
0.0
 11
227.1561996908
 21
103.6769662672
 31
0.0
  0
ARC
  5
8B
330
1F
100
AcDbEntity
  8
0
  6
Continuous
 62
     7
370
    15
100
AcDbCircle
 10
224.3335738813
 20
102.9215545655
 30
0.0
 40
2.882651547414101
100
AcDbArc
 50
254.5196293428
 51
284.2875114101
  0
ARC
  5
8C
330
1F
100
AcDbEntity
  8
0
  6
Continuous
 62
     7
370
    15
100
AcDbCircle
 10
224.8144976216
 20
102.47536664
 30
0.0
 40
2.814165346021254
100
AcDbArc
 50
256.8328795603
 51
13.5212747572
  0
LINE
  5
8D
330
1F
100
AcDbEntity
  8
0
  6
Continuous
 62
     7
370
    15
100
AcDbLine
 10
218.7815794618
 20
108.0064772317
 30
0.0
 11
219.8289634557
 21
96.046333077
 31
0.0
  0
ARC
  5
8E
330
1F
100
AcDbEntity
  8
0
  6
Continuous
 62
     7
370
    15
100
AcDbCircle
 10
219.1827962886
 20
108.0406119027
 30
0.0
 40
0.402666261170518
100
AcDbArc
 50
85.7633952835
 51
184.8628922189
  0
LINE
  5
8F
330
1F
100
AcDbEntity
  8
0
  6
Continuous
 62
     7
370
    15
100
AcDbLine
 10
231.184195903
 20
107.5263199085
 30
0.0
 11
219.2125433953
 21
108.4421778718
 31
0.0
  0
ARC
  5
90
330
1F
100
AcDbEntity
  8
0
  6
Continuous
 62
     7
370
    15
100
AcDbCircle
 10
231.1548105542
 20
107.1349608685
 30
0.0
 40
0.3924606947144144
100
AcDbArc
 50
4.9271231098
 51
85.705981182
  0
LINE
  5
91
330
1F
100
AcDbEntity
  8
0
  6
Continuous
 62
     7
370
    15
100
AcDbLine
 10
232.5932050021
 20
95.2085246021
 30
0.0
 11
231.5458210082
 21
107.1686687568
 31
0.0
  0
ARC
  5
92
330
1F
100
AcDbEntity
  8
0
  6
Continuous
 62
     7
370
    15
100
AcDbCircle
 10
232.1919790608
 20
95.1743969754
 30
0.0
 40
0.4026747456914213
100
AcDbArc
 50
265.764253621
 51
4.8617835708
  0
LINE
  5
93
330
1F
100
AcDbEntity
  8
0
  6
Continuous
 62
     7
370
    15
100
AcDbLine
 10
220.1905848355
 20
95.6886809939
 30
0.0
 11
232.1622373433
 21
94.7728220993
 31
0.0
  0
ARC
  5
94
330
1F
100
AcDbEntity
  8
0
  6
Continuous
 62
     7
370
    15
100
AcDbCircle
 10
220.2199692004
 20
96.0800348784
 30
0.0
 40
0.3924554800345809
100
AcDbArc
 50
184.9262968147
 51
265.7060680873
  0
ARC
  5
95
330
1F
100
AcDbEntity
  8
0
  6
Continuous
 62
     7
370
    15
100
AcDbCircle
 10
232.1922306213
 20
95.1741482484
 30
0.0
 40
0.3825362032623788
100
AcDbArc
 50
265.7632411627
 51
4.8623041917
  0
LINE
  5
96
330
1F
100
AcDbEntity
  8
0
  6
Continuous
 62
     7
370
    15
100
AcDbLine
 10
232.573390183
 20
95.2065725499
 30
0.0
 11
231.5260061891
 21
107.166717636
 31
0.0
  0
ARC
  5
97
330
1F
100
AcDbEntity
  8
0
  6
Continuous
 62
     7
370
    15
100
AcDbCircle
 10
231.1545477075
 20
107.1346959508
 30
0.0
 40
0.3728361461810236
100
AcDbArc
 50
4.9270184392
 51
85.7059861917
  0
LINE
  5
98
330
1F
100
AcDbEntity
  8
0
  6
Continuous
 62
     7
370
    15
100
AcDbLine
 10
231.1824636431
 20
107.5064855316
 30
0.0
 11
219.2108111353
 21
108.4223444262
 31
0.0
  0
ARC
  5
99
330
1F
100
AcDbEntity
  8
0
  6
Continuous
 62
     7
370
    15
100
AcDbCircle
 10
219.1825549632
 20
108.0408521496
 30
0.0
 40
0.382537277120783
100
AcDbArc
 50
85.7639808827
 51
184.862214683
  0
LINE
  5
9A
330
1F
100
AcDbEntity
  8
0
  6
Continuous
 62
     7
370
    15
100
AcDbLine
 10
218.8013942809
 20
108.0084283525
 30
0.0
 11
219.8487782748
 21
96.0482832664
 31
0.0
  0
ARC
  5
9B
330
1F
100
AcDbEntity
  8
0
  6
Continuous
 62
     7
370
    15
100
AcDbCircle
 10
220.2202281725
 20
96.0802972914
 30
0.0
 40
0.372826936139161
100
AcDbArc
 50
184.9259588737
 51
265.7072027987
  0
LINE
  5
9C
330
1F
100
AcDbEntity
  8
0
  6
Continuous
 62
     7
370
    15
100
AcDbLine
 10
220.1923208208
 20
95.7085163021
 30
0.0
 11
232.1639696033
 21
94.7926574075
 31
0.0
  0
LINE
  5
9D
330
1F
100
AcDbEntity
  8
0
  6
Continuous
 62
     7
370
    15
100
AcDbLine
 10
218.2825581999
 20
108.5421125093
 30
0.0
 11
218.284022239
 21
108.5013066107
 31
0.0
  0
LINE
  5
9E
330
1F
100
AcDbEntity
  8
0
  6
Continuous
 62
     7
370
    15
100
AcDbLine
 10
220.0184913249
 20
107.2145252177
 30
0.0
 11
219.1549392314
 21
108.0683096001
 31
0.0
  0
LINE
  5
9F
330
1F
100
AcDbEntity
  8
0
  6
Continuous
 62
     7
370
    15
100
AcDbLine
 10
220.7353675635
 20
96.7222870016
 30
0.0
 11
220.2023232252
 21
96.1081654453
 31
0.0
  0
LINE
  5
A0
330
1F
100
AcDbEntity
  8
0
  6
Continuous
 62
     7
370
    15
100
AcDbLine
 10
230.6866424055
 20
108.0211492875
 30
0.0
 11
230.4416151614
 21
108.039894017
 31
0.0
  0
LINE
  5
A1
330
1F
100
AcDbEntity
  8
0
  6
Continuous
 62
     7
370
    15
100
AcDbLine
 10
218.284022239
 20
108.5013066107
 30
0.0
 11
218.6563761802
 21
104.2493850613
 31
0.0
  0
LINE
  5
A2
330
1F
100
AcDbEntity
  8
0
  6
Continuous
 62
     7
370
    15
100
AcDbLine
 10
219.3198876352
 20
96.6727033877
 30
0.0
 11
219.3314062328
 21
96.5411615247
 31
0.0
  0
LINE
  5
A3
330
1F
100
AcDbEntity
  8
0
  6
Continuous
 62
     7
370
    15
100
AcDbLine
 10
230.5185312302
 20
106.6129336753
 30
0.0
 11
231.1265917392
 21
107.1524507055
 31
0.0
  0
ARC
  5
A4
330
1F
100
AcDbEntity
  8
0
  6
Continuous
 62
     7
370
    15
100
AcDbCircle
 10
222.0565676227
 20
105.1983782278
 30
0.0
 40
1.006678978443364
100
AcDbArc
 50
85.7638523841
 51
184.8620879131
  0
SPLINE
  5
A5
330
1F
100
AcDbEntity
  8
0
  6
Continuous
 62
     7
370
    15
100
AcDbSpline
210
0.0
220
0.0
230
1.0
 70
     8
 71
     3
 72
    11
 73
     7
 74
     0
 42
0.00000001
 43
0.00000001
 12
1.0
 22
0.0
 32
0.0
 13
1.0
 23
0.0
 33
0.0
 40
0.0
 40
0.0
 40
0.0
 40
0.0
 40
0.3367810446943942
 40
0.6790114099611562
 40
0.9923686305374745
 40
1.0
 40
1.0
 40
1.0
 40
1.0
 10
220.0184913248833
 20
107.2145252177114
 30
0.0
 10
220.0715536755989
 20
107.1620541399803
 30
0.0
 10
220.1785369578914
 20
107.0562629708107
 30
0.0
 10
220.3508832833351
 20
106.8858214446922
 30
0.0
 10
220.4607157429313
 20
106.7770971972829
 30
0.0
 10
220.5114122667144
 20
106.7269755163582
 30
0.0
 10
220.5126175553616
 20
106.7257838943596
 30
0.0
  0
LINE
  5
A6
330
1F
100
AcDbEntity
  8
0
  6
Continuous
 62
     7
370
    15
100
AcDbLine
 10
221.0535110802
 20
105.1130545014
 30
0.0
 11
221.6396929593
 21
98.4193932885
 31
0.0
  0
LINE
  5
A7
330
1F
100
AcDbEntity
  8
0
  6
Continuous
 62
     7
370
    15
100
AcDbLine
 10
228.8310268791
 20
105.6897350276
 30
0.0
 11
222.1309283645
 21
106.2023070329
 31
0.0
  0
ARC
  5
A8
330
1F
100
AcDbEntity
  8
0
  6
Continuous
 62
     7
370
    15
100
AcDbCircle
 10
228.7575682448
 20
104.7113442107
 30
0.0
 40
0.9811446179630051
100
AcDbArc
 50
4.9267886596
 51
85.7062274302
  0
LINE
  5
A9
330
1F
100
AcDbEntity
  8
0
  6
Continuous
 62
     7
370
    15
100
AcDbLine
 10
230.3212696583
 20
98.101946401
 30
0.0
 11
229.7350877793
 21
104.7956076139
 31
0.0
  0
ARC
  5
AA
330
1F
100
AcDbEntity
  8
0
  6
Continuous
 62
     7
370
    15
100
AcDbCircle
 10
229.3182165703
 20
98.016619512
 30
0.0
 40
1.006675804494138
100
AcDbArc
 50
265.7638544615
 51
4.8622839307
  0
LINE
  5
AB
330
1F
100
AcDbEntity
  8
0
  6
Continuous
 62
     7
370
    15
100
AcDbLine
 10
222.5437538595
 20
97.5252677375
 30
0.0
 11
229.2438560993
 21
97.0126938695
 31
0.0
  0
ARC
  5
AC
330
1F
100
AcDbEntity
  8
0
  6
Continuous
 62
     7
370
    15
100
AcDbCircle
 10
222.6172119774
 20
98.5036582077
 30
0.0
 40
0.9811442336999753
100
AcDbArc
 50
184.9268794561
 51
265.7062559851
  0
CIRCLE
  5
AD
330
1F
100
AcDbEntity
  8
0
  6
Continuous
 62
     7
370
    15
100
AcDbCircle
 10
225.6602764828
 20
101.6049179096
 30
0.0
 40
2.563520150833436
  0
ARC
  5
AE
330
1F
100
AcDbEntity
  8
0
  6
Continuous
 62
     7
370
    15
100
AcDbCircle
 10
225.1659156075
 20
102.1224898938
 30
0.0
 40
2.586440048476865
100
AcDbArc
 50
265.5715470902
 51
36.6632215882
  0
ARC
  5
AF
330
1F
100
AcDbEntity
  8
0
  6
Continuous
 62
     7
370
    15
100
AcDbCircle
 10
225.1579662477
 20
102.0749636941
 30
0.0
 40
2.538445501527944
100
AcDbArc
 50
233.1773820912
 51
265.6676086589
  0
LINE
  5
B0
330
1F
100
AcDbEntity
  8
0
  6
Continuous
 62
     7
370
    15
100
AcDbLine
 10
231.2095949323
 20
96.14637016
 30
0.0
 11
232.173975733
 21
95.1923065507
 31
0.0
  0
SPLINE
  5
B1
330
1F
100
AcDbEntity
  8
0
  6
Continuous
 62
     7
370
    15
100
AcDbSpline
210
0.0
220
0.0
230
1.0
 70
     8
 71
     3
 72
    11
 73
     7
 74
     0
 42
0.00000001
 43
0.00000001
 12
1.0
 22
0.0
 32
0.0
 13
1.0
 23
0.0
 33
0.0
 40
0.0
 40
0.0
 40
0.0
 40
0.0
 40
0.0081160673981915
 40
0.3263679159687722
 40
0.6627690636369371
 40
1.0
 40
1.0
 40
1.0
 40
1.0
 10
221.2285587460812
 20
97.2104211026425
 30
0.0
 10
221.2272716436272
 20
97.20932255659314
 30
0.0
 10
221.175513948066
 20
97.16514719836434
 30
0.0
 10
221.064435220681
 20
97.06523756602094
 30
0.0
 10
220.8911771000895
 20
96.8955815450084
 30
0.0
 10
220.7873467088803
 20
96.78009926692917
 30
0.0
 10
220.7353675634678
 20
96.72228700160929
 30
0.0
  0
SPLINE
  5
B2
330
1F
100
AcDbEntity
  8
0
  6
Continuous
 62
     7
370
    15
100
AcDbSpline
210
0.0
220
0.0
230
1.0
 70
     8
 71
     3
 72
    11
 73
     7
 74
     0
 42
0.00000001
 43
0.00000001
 12
1.0
 22
0.0
 32
0.0
 13
1.0
 23
0.0
 33
0.0
 40
0.0
 40
0.0
 40
0.0
 40
0.0
 40
0.3372316624727454
 40
0.6736317440035603
 40
0.991884014600688
 40
1.0
 40
1.0
 40
1.0
 40
1.0
 10
230.518531230193
 20
106.6129336753482
 30
0.0
 10
230.4613030244885
 20
106.5603414296093
 30
0.0
 10
230.3469877323472
 20
106.4552866255663
 30
0.0
 10
230.1792393193986
 20
106.2801541421318
 30
0.0
 10
230.0804752675697
 20
106.1679914633102
 30
0.0
 10
230.0368737506342
 20
106.1157089474642
 30
0.0
 10
230.0357894868668
 20
106.11440880835
 30
0.0
  0
ARC
  5
B3
330
1F
100
AcDbEntity
  8
0
  6
Continuous
 62
     7
370
    15
100
AcDbCircle
 10
230.6570736112
 20
107.6292438171
 30
0.0
 40
0.393019352408137
100
AcDbArc
 50
45.1945106731
 51
85.685277474
  0
ARC
  5
B4
330
1F
100
AcDbEntity
  8
0
  6
Continuous
 62
     7
370
    15
100
AcDbCircle
 10
219.7229860118
 20
96.5750693358
 30
0.0
 40
0.3930451157210263
100
AcDbArc
 50
184.9490308559
 51
225.1189087661
  0
SPLINE
  5
B5
330
1F
100
AcDbEntity
  8
0
  6
Continuous
 62
     7
370
    15
100
AcDbSpline
210
0.0
220
0.0
230
1.0
 70
     8
 71
     3
 72
    11
 73
     7
 74
     0
 42
0.00000001
 43
0.00000001
 12
1.0
 22
0.0
 32
0.0
 13
1.0
 23
0.0
 33
0.0
 40
0.0
 40
0.0
 40
0.0
 40
0.0
 40
0.0076264567918832
 40
0.3209869911769661
 40
0.6632135868526928
 40
0.9999999999999999
 40
0.9999999999999999
 40
0.9999999999999999
 40
0.9999999999999999
 10
230.7312229544933
 20
96.6194447749848
 30
0.0
 10
230.7322366560765
 20
96.61844160480075
 30
0.0
 10
230.7749019500657
 20
96.57621956279618
 30
0.0
 10
230.8720501527591
 20
96.48024622142043
 30
0.0
 10
231.0367404108049
 20
96.31735194422602
 30
0.0
 10
231.1522853364961
 20
96.20305885322632
 30
0.0
 10
231.2095949322994
 20
96.14637015998312
 30
0.0
  0
LINE
  5
B6
330
1F
100
AcDbEntity
  8
0
  6
Continuous
 62
     7
370
    15
100
AcDbLine
 10
197.5447183372
 20
103.1676334018
 30
0.0
 11
197.5447183372
 21
133.6216664562
 31
0.0
  0
SPLINE
  5
B7
330
1F
100
AcDbEntity
  8
0
  6
Continuous
 62
     7
370
    15
100
AcDbSpline
210
0.0
220
0.0
230
1.0
 70
     8
 71
     3
 72
    10
 73
     6
 74
     0
 42
0.00000001
 43
0.00000001
 12
1.0
 22
0.0
 32
0.0
 13
1.0
 23
0.0
 33
0.0
 40
0.0
 40
0.0
 40
0.0
 40
0.0
 40
0.5
 40
0.5
 40
1.0
 40
1.0
 40
1.0
 40
1.0
 10
197.5447177679356
 20
103.1676342759579
 30
0.0
 10
197.5447177679356
 20
103.0080021070547
 30
0.0
 10
197.4830812542303
 20
102.8469524732906
 30
0.0
 10
197.2640548879874
 20
102.613961589614
 30
0.0
 10
197.10643799994
 20
102.542781574015
 30
0.0
 10
196.9447177679356
 20
102.542781574015
 30
0.0
  0
SPLINE
  5
B8
330
1F
100
AcDbEntity
  8
0
  6
Continuous
 62
     7
370
    15
100
AcDbSpline
210
0.0
220
0.0
230
1.0
 70
    24
 71
     3
 72
    12
 73
     8
 74
     0
 42
0.00000001
 43
0.00000001
 12
1.0
 22
0.0
 32
0.0
 13
1.0
 23
0.0
 33
0.0
 40
0.0
 40
0.0
 40
0.0
 40
0.0
 40
0.249999999999998
 40
0.249999999999998
 40
0.499999999999996
 40
0.499999999999996
 40
1.0
 40
1.0
 40
1.0
 40
1.0
 10
196.9447177679356
 20
133.6216660970444
 30
0.0
 10
197.0329046333044
 20
133.6216660970444
 30
0.0
 10
197.1215920266057
 20
133.6216660970444
 30
0.0
 10
197.2758445197246
 20
133.6216660970444
 30
0.0
 10
197.3411905008005
 20
133.6216660970444
 30
0.0
 10
197.4956003707517
 20
133.6216660970444
 30
0.0
 10
197.5447177679356
 20
133.6216660970444
 30
0.0
 10
197.5447177679356
 20
133.6216660970444
 30
0.0
  0
LINE
  5
B9
330
1F
100
AcDbEntity
  8
0
  6
Continuous
 62
     7
370
    15
100
AcDbLine
 10
196.9447174938
 20
102.5427811468
 30
0.0
 11
195.6298781456
 21
102.5427811468
 31
0.0
  0
LINE
  5
BA
330
1F
100
AcDbEntity
  8
0
  6
Continuous
 62
     7
370
    15
100
AcDbLine
 10
195.6298781456
 20
102.5427811468
 30
0.0
 11
195.6298781456
 21
133.6216664562
 31
0.0
  0
LINE
  5
BB
330
1F
100
AcDbEntity
  8
0
  6
Continuous
 62
     7
370
    15
100
AcDbLine
 10
195.6298781456
 20
133.6216664562
 30
0.0
 11
196.9447174938
 21
133.6216664562
 31
0.0
  0
SPLINE
  5
BC
330
1F
100
AcDbEntity
  8
0
  6
Continuous
 62
     7
370
    15
100
AcDbSpline
210
0.0
220
0.0
230
1.0
 70
     8
 71
     3
 72
     8
 73
     4
 74
     0
 42
0.00000001
 43
0.00000001
 12
1.0
 22
0.0
 32
0.0
 13
1.0
 23
0.0
 33
0.0
 40
0.0
 40
0.0
 40
0.0
 40
0.0
 40
1.0
 40
1.0
 40
1.0
 40
1.0
 10
195.629877466829
 20
102.542781574015
 30
0.0
 10
195.2971721951237
 20
103.1421532472387
 30
0.0
 10
194.9653563945502
 20
103.7420223579437
 30
0.0
 10
194.6347177679356
 20
104.3425427090547
 30
0.0
  0
LINE
  5
BD
330
1F
100
AcDbEntity
  8
0
  6
Continuous
 62
     7
370
    15
100
AcDbLine
 10
194.6347171337
 20
104.3425433958
 30
0.0
 11
194.6347171337
 21
133.6216664562
 31
0.0
  0
SPLINE
  5
BE
330
1F
100
AcDbEntity
  8
0
  6
Continuous
 62
     7
370
    15
100
AcDbSpline
210
0.0
220
0.0
230
1.0
 70
    24
 71
     3
 72
     8
 73
     4
 74
     0
 42
0.00000001
 43
0.00000001
 12
1.0
 22
0.0
 32
0.0
 13
1.0
 23
0.0
 33
0.0
 40
0.0
 40
0.0
 40
0.0
 40
0.0
 40
1.0
 40
1.0
 40
1.0
 40
1.0
 10
194.6347177679356
 20
133.6216660970444
 30
0.0
 10
194.9583544235578
 20
133.6216660970444
 30
0.0
 10
195.2908446450745
 20
133.6216660970444
 30
0.0
 10
195.629877466829
 20
133.6216660970444
 30
0.0
  0
LINE
  5
BF
330
1F
100
AcDbEntity
  8
0
  6
Continuous
 62
     7
370
    15
100
AcDbLine
 10
192.5547180594
 20
104.3425433958
 30
0.0
 11
192.5547180594
 21
133.6216664562
 31
0.0
  0
SPLINE
  5
C0
330
1F
100
AcDbEntity
  8
0
  6
Continuous
 62
     7
370
    15
100
AcDbSpline
210
0.0
220
0.0
230
1.0
 70
     8
 71
     3
 72
     8
 73
     4
 74
     0
 42
0.00000001
 43
0.00000001
 12
1.0
 22
0.0
 32
0.0
 13
1.0
 23
0.0
 33
0.0
 40
0.0
 40
0.0
 40
0.0
 40
0.0
 40
1.0
 40
1.0
 40
1.0
 40
1.0
 10
192.5547177679356
 20
104.3425427090547
 30
0.0
 10
192.224079141321
 20
103.7420223579437
 30
0.0
 10
191.8922633407475
 20
103.1421532472387
 30
0.0
 10
191.5595580690421
 20
102.542781574015
 30
0.0
  0
LINE
  5
C1
330
1F
100
AcDbEntity
  8
0
  6
Continuous
 62
     7
370
    15
100
AcDbLine
 10
191.5595579789
 20
102.5427811468
 30
0.0
 11
191.5595579789
 21
133.6216664562
 31
0.0
  0
SPLINE
  5
C2
330
1F
100
AcDbEntity
  8
0
  6
Continuous
 62
     7
370
    15
100
AcDbSpline
210
0.0
220
0.0
230
1.0
 70
    24
 71
     3
 72
     8
 73
     4
 74
     0
 42
0.00000001
 43
0.00000001
 12
1.0
 22
0.0
 32
0.0
 13
1.0
 23
0.0
 33
0.0
 40
0.0
 40
0.0
 40
0.0
 40
0.0
 40
1.0
 40
1.0
 40
1.0
 40
1.0
 10
191.5595580690421
 20
133.6216660970444
 30
0.0
 10
191.8985908907968
 20
133.6216660970444
 30
0.0
 10
192.2310811123134
 20
133.6216660970444
 30
0.0
 10
192.5547177679356
 20
133.6216660970444
 30
0.0
  0
LINE
  5
C3
330
1F
100
AcDbEntity
  8
0
  6
Continuous
 62
     7
370
    15
100
AcDbLine
 10
185.5447182329
 20
133.6216664562
 30
0.0
 11
191.5595579789
 21
133.6216664562
 31
0.0
  0
LINE
  5
C4
330
1F
100
AcDbEntity
  8
0
  6
Continuous
 62
     7
370
    15
100
AcDbLine
 10
191.5595579789
 20
102.5427811468
 30
0.0
 11
190.0447180391
 21
102.5427811468
 31
0.0
  0
SPLINE
  5
C5
330
1F
100
AcDbEntity
  8
0
  6
Continuous
 62
     7
370
    15
100
AcDbSpline
210
0.0
220
0.0
230
1.0
 70
     8
 71
     3
 72
    22
 73
    18
 74
     0
 42
0.00000001
 43
0.00000001
 12
1.0
 22
0.0
 32
0.0
 13
1.0
 23
0.0
 33
0.0
 40
0.0
 40
0.0
 40
0.0
 40
0.0
 40
0.125
 40
0.125
 40
0.25
 40
0.25
 40
0.375
 40
0.375
 40
0.5
 40
0.5
 40
0.625
 40
0.625
 40
0.75
 40
0.75
 40
0.875
 40
0.875
 40
1.0
 40
1.0
 40
1.0
 40
1.0
 10
190.0447177679356
 20
102.542781574015
 30
0.0
 10
189.745593338895
 20
102.542781574015
 30
0.0
 10
189.4517708906462
 20
102.5342674729486
 30
0.0
 10
188.8742066143998
 20
102.5018237040667
 30
0.0
 10
188.5873889365859
 20
102.4774898153647
 30
0.0
 10
188.0429264076865
 20
102.4170297906079
 30
0.0
 10
187.7849711370652
 20
102.3811163698294
 30
0.0
 10
187.2969131937053
 20
102.3014063437602
 30
0.0
 10
187.0672148950416
 20
102.2575280425709
 30
0.0
 10
186.654795912089
 20
102.1692844202007
 30
0.0
 10
186.4692689692289
 20
102.1244760787398
 30
0.0
 10
186.1407489243281
 20
102.0371550708206
 30
0.0
 10
186.0023350374286
 20
101.9958642822449
 30
0.0
 10
185.7777428908127
 20
101.9215260589511
 30
0.0
 10
185.6906640786884
 20
101.8881159332164
 30
0.0
 10
185.5741622707334
 20
101.8330965316903
 30
0.0
 10
185.5447177679356
 20
101.811634765224
 30
0.0
 10
185.5447177679356
 20
101.7966817416062
 30
0.0
  0
LINE
  5
C6
330
1F
100
AcDbEntity
  8
0
  6
Continuous
 62
     7
370
    15
100
AcDbLine
 10
185.5447182329
 20
101.7966818684
 30
0.0
 11
185.5447182329
 21
101.7716665441
 31
0.0
  0
SPLINE
  5
C7
330
1F
100
AcDbEntity
  8
0
  6
Continuous
 62
     7
370
    15
100
AcDbSpline
210
0.0
220
0.0
230
1.0
 70
     8
 71
     3
 72
    17
 73
    13
 74
     0
 42
0.00000001
 43
0.00000001
 12
1.0
 22
0.0
 32
0.0
 13
1.0
 23
0.0
 33
0.0
 40
0.0
 40
0.0
 40
0.0
 40
0.0
 40
0.1039928149931941
 40
0.211050797947968
 40
0.315030024669631
 40
0.4219351868122974
 40
0.5275775927633417
 40
0.6362134531400181
 40
0.7429488821168505
 40
0.8528788227495517
 40
0.9578277247781112
 40
1.0
 40
1.0
 40
1.0
 40
1.0
 10
190.0447180391367
 20
141.2588421875233
 30
0.0
 10
189.7989009549117
 20
141.2615580221164
 30
0.0
 10
189.3000213757953
 20
141.267069739998
 30
0.0
 10
188.5765378322706
 20
141.3101534987735
 30
0.0
 10
187.8887424760628
 20
141.374020110955
 30
0.0
 10
187.2639971039286
 20
141.4533556269799
 30
0.0
 10
186.7080463008663
 20
141.5402944187482
 30
0.0
 10
186.2460597942991
 20
141.6242540100672
 30
0.0
 10
185.8837946630273
 20
141.6974168791582
 30
0.0
 10
185.6520156922736
 20
141.7475539194498
 30
0.0
 10
185.5424497479905
 20
141.7721740168323
 30
0.0
 10
185.556280623355
 20
141.7690688687671
 30
0.0
 10
185.5602452428158
 20
141.7681787782902
 30
0.0
  0
LINE
  5
C8
330
1F
100
AcDbEntity
  8
0
  6
Continuous
 62
     7
370
    15
100
AcDbLine
 10
191.5595579789
 20
141.2588421875
 30
0.0
 11
190.0447180391
 21
141.2588421875
 31
0.0
  0
LINE
  5
C9
330
1F
100
AcDbEntity
  8
0
  6
Continuous
 62
     7
370
    15
100
AcDbLine
 10
191.5595579789
 20
137.8830753887
 30
0.0
 11
191.5595579789
 21
141.2588421875
 31
0.0
  0
LINE
  5
CA
330
1F
100
AcDbEntity
  8
0
  6
Continuous
 62
     7
370
    15
100
AcDbLine
 10
190.0383878396
 20
137.8830753887
 30
0.0
 11
191.5595579789
 21
137.8830753887
 31
0.0
  0
SPLINE
  5
CB
330
1F
100
AcDbEntity
  8
0
  6
Continuous
 62
     7
370
    15
100
AcDbSpline
210
0.0
220
0.0
230
1.0
 70
     8
 71
     3
 72
    22
 73
    18
 74
     0
 42
0.00000001
 43
0.00000001
 12
1.0
 22
0.0
 32
0.0
 13
1.0
 23
0.0
 33
0.0
 40
0.0
 40
0.0
 40
0.0
 40
0.0
 40
0.2500000000000001
 40
0.2500000000000001
 40
0.3750000000000001
 40
0.3750000000000001
 40
0.5000000000000001
 40
0.5000000000000001
 40
0.6250000000000001
 40
0.6250000000000001
 40
0.7500000000000002
 40
0.7500000000000002
 40
0.8750000000000002
 40
0.8750000000000002
 40
0.9375000000000001
 40
0.9375000000000001
 40
1.0
 40
1.0
 40
1.0
 40
1.0
 10
185.5447177679356
 20
133.6216660970444
 30
0.0
 10
185.5666987859223
 20
134.1845387389425
 30
0.0
 10
185.645675669277
 20
134.715163622672
 30
0.0
 10
185.8920735623093
 20
135.4608746135936
 30
0.0
 10
185.9965981774003
 20
135.7024948399923
 30
0.0
 10
186.2584447727068
 20
136.1613536153182
 30
0.0
 10
186.4136613948726
 20
136.375532287788
 30
0.0
 10
186.7822531479365
 20
136.7727608469336
 30
0.0
 10
186.9983868404015
 20
136.9572056819534
 30
0.0
 10
187.4822813353884
 20
137.2782855298369
 30
0.0
 10
187.7527468803961
 20
137.417636359943
 30
0.0
 10
188.3489734459063
 20
137.6469418943686
 30
0.0
 10
188.6644667126262
 20
137.7334779038449
 30
0.0
 10
189.1651833606448
 20
137.8223675081761
 30
0.0
 10
189.3379797952599
 20
137.8451760140377
 30
0.0
 10
189.6863485680419
 20
137.875467176734
 30
0.0
 10
189.8617495969524
 20
137.8830750981219
 30
0.0
 10
190.0383882426403
 20
137.8830750981219
 30
0.0
  0
LINE
  5
CC
330
1F
100
AcDbEntity
  8
0
  6
Continuous
 62
     7
370
    15
100
AcDbLine
 10
177.5947177679
 20
102.0716660345
 30
0.0
 11
177.5947177679
 21
141.4716661596
 31
0.0
  0
SPLINE
  5
CD
330
1F
100
AcDbEntity
  8
0
  6
Continuous
 62
     7
370
    15
100
AcDbSpline
210
0.0
220
0.0
230
1.0
 70
    24
 71
     3
 72
    16
 73
    12
 74
     0
 42
0.00000001
 43
0.00000001
 12
1.0
 22
0.0
 32
0.0
 13
1.0
 23
0.0
 33
0.0
 40
0.0
 40
0.0
 40
0.0
 40
0.0
 40
0.5000000000000042
 40
0.5000000000000042
 40
0.7500000000000056
 40
0.7500000000000056
 40
0.8750000000000048
 40
0.8750000000000048
 40
0.9375000000000024
 40
0.9375000000000024
 40
1.0
 40
1.0
 40
1.0
 40
1.0
 10
194.5994953673543
 20
104.8716660970444
 30
0.0
 10
194.5695210495001
 20
104.8716660970444
 30
0.0
 10
194.5230046548949
 20
104.8716660970444
 30
0.0
 10
194.4131433491606
 20
104.8716660970444
 30
0.0
 10
194.3699906986311
 20
104.8716660970444
 30
0.0
 10
194.2812066455172
 20
104.8716660970444
 30
0.0
 10
194.2480174776387
 20
104.8716660970444
 30
0.0
 10
194.183271177289
 20
104.8716660970444
 30
0.0
 10
194.1589999663067
 20
104.8716660970444
 30
0.0
 10
194.1025386890877
 20
104.8716660970444
 30
0.0
 10
194.0697350830143
 20
104.8716660970444
 30
0.0
 10
194.0347177679356
 20
104.8716660970444
 30
0.0
  0
SPLINE
  5
CE
330
1F
100
AcDbEntity
  8
0
  6
Continuous
 62
     7
370
    15
100
AcDbSpline
210
0.0
220
0.0
230
1.0
 70
    24
 71
     3
 72
    12
 73
     8
 74
     0
 42
0.00000001
 43
0.00000001
 12
1.0
 22
0.0
 32
0.0
 13
1.0
 23
0.0
 33
0.0
 40
0.0
 40
0.0
 40
0.0
 40
0.0
 40
0.250000000000001
 40
0.250000000000001
 40
0.500000000000002
 40
0.500000000000002
 40
1.0
 40
1.0
 40
1.0
 40
1.0
 10
194.0347177679356
 20
133.6216660970444
 30
0.0
 10
194.1270207671242
 20
133.6216660970444
 30
0.0
 10
194.2197644630833
 20
133.6216660970444
 30
0.0
 10
194.3748141933768
 20
133.6216660970444
 30
0.0
 10
194.4382641649792
 20
133.6216660970444
 30
0.0
 10
194.5875242560393
 20
133.6216660970444
 30
0.0
 10
194.6347177679356
 20
133.6216660970444
 30
0.0
 10
194.6347177679356
 20
133.6216660970444
 30
0.0
  0
SPLINE
  5
CF
330
1F
100
AcDbEntity
  8
0
  6
Continuous
 62
     7
370
    15
100
AcDbSpline
210
0.0
220
0.0
230
1.0
 70
    24
 71
     3
 72
    16
 73
    12
 74
     0
 42
0.00000001
 43
0.00000001
 12
1.0
 22
0.0
 32
0.0
 13
1.0
 23
0.0
 33
0.0
 40
0.0
 40
0.0
 40
0.0
 40
0.0
 40
0.0625000000000006
 40
0.0625000000000006
 40
0.1250000000000011
 40
0.1250000000000011
 40
0.2500000000000003
 40
0.2500000000000003
 40
0.5
 40
0.5
 40
1.0
 40
1.0
 40
1.0
 40
1.0
 10
193.1547177679356
 20
104.8716660970444
 30
0.0
 10
193.1196112793215
 20
104.8716660970444
 30
0.0
 10
193.0865165942355
 20
104.8716660970444
 30
0.0
 10
193.0299168823096
 20
104.8716660970444
 30
0.0
 10
193.0056148281741
 20
104.8716660970444
 30
0.0
 10
192.9410868395331
 20
104.8716660970444
 30
0.0
 10
192.907498014017
 20
104.8716660970444
 30
0.0
 10
192.8194585996679
 20
104.8716660970444
 30
0.0
 10
192.7763508357955
 20
104.8716660970444
 30
0.0
 10
192.6659166216223
 20
104.8716660970444
 30
0.0
 10
192.6197366032449
 20
104.8716660970444
 30
0.0
 10
192.589940168517
 20
104.8716660970444
 30
0.0
  0
SPLINE
  5
D0
330
1F
100
AcDbEntity
  8
0
  6
Continuous
 62
     7
370
    15
100
AcDbSpline
210
0.0
220
0.0
230
1.0
 70
    24
 71
     3
 72
    14
 73
    10
 74
     0
 42
0.00000001
 43
0.00000001
 12
1.0
 22
0.0
 32
0.0
 13
1.0
 23
0.0
 33
0.0
 40
0.0
 40
0.0
 40
0.0
 40
0.0
 40
0.25
 40
0.25
 40
0.5
 40
0.5
 40
0.75
 40
0.75
 40
1.0
 40
1.0
 40
1.0
 40
1.0
 10
192.5547177679356
 20
133.6216660970444
 30
0.0
 10
192.5547177679356
 20
133.6216660970444
 30
0.0
 10
192.5665947791966
 20
133.6216660970444
 30
0.0
 10
192.6151232689765
 20
133.6216660970444
 30
0.0
 10
192.6515417252007
 20
133.6216660970444
 30
0.0
 10
192.7516690597293
 20
133.6216660970444
 30
0.0
 10
192.8148458711653
 20
133.6216660970444
 30
0.0
 10
192.9704163738513
 20
133.6216660970444
 30
0.0
 10
193.062292721606
 20
133.6216660970444
 30
0.0
 10
193.1547177679368
 20
133.6216660970444
 30
0.0
  0
SPLINE
  5
D1
330
1F
100
AcDbEntity
  8
0
  6
Continuous
 62
     7
370
    15
100
AcDbSpline
210
0.0
220
0.0
230
1.0
 70
    24
 71
     3
 72
    14
 73
    10
 74
     0
 42
0.00000001
 43
0.00000001
 12
1.0
 22
0.0
 32
0.0
 13
1.0
 23
0.0
 33
0.0
 40
0.0
 40
0.0
 40
0.0
 40
0.0
 40
0.1250000000000001
 40
0.1250000000000001
 40
0.2500000000000001
 40
0.2500000000000001
 40
0.5000000000000001
 40
0.5000000000000001
 40
1.0
 40
1.0
 40
1.0
 40
1.0
 10
197.7447177679213
 20
138.6716660970444
 30
0.0
 10
197.7447179771274
 20
138.6716660970444
 30
0.0
 10
197.7423416045002
 20
138.6716660970444
 30
0.0
 10
197.7331936922765
 20
138.6716660970444
 30
0.0
 10
197.7264277882817
 20
138.6716660970444
 30
0.0
 10
197.7009883620333
 20
138.6716660970444
 30
0.0
 10
197.6770953277005
 20
138.6716660970444
 30
0.0
 10
197.6021611268372
 20
138.6716660970444
 30
0.0
 10
197.5469346558417
 20
138.6716660970444
 30
0.0
 10
197.5447798910589
 20
138.6716660970444
 30
0.0
  0
SPLINE
  5
D2
330
1F
100
AcDbEntity
  8
0
  6
Continuous
 62
     7
370
    15
100
AcDbSpline
210
0.0
220
0.0
230
1.0
 70
    24
 71
     3
 72
    10
 73
     6
 74
     0
 42
0.00000001
 43
0.00000001
 12
1.0
 22
0.0
 32
0.0
 13
1.0
 23
0.0
 33
0.0
 40
0.0
 40
0.0
 40
0.0
 40
0.0
 40
0.0000106859487653
 40
0.8612514326953542
 40
1.0
 40
1.0
 40
1.0
 40
1.0
 10
197.7447179974135
 20
104.8716668659443
 30
0.0
 10
197.7447179974152
 20
104.8716668659443
 30
0.0
 10
197.7447181383514
 20
104.871666865875
 30
0.0
 10
197.7051840830116
 20
104.8716668659484
 30
0.0
 10
197.6548155574762
 20
104.8716668659448
 30
0.0
 10
197.6478269220408
 20
104.8716668659443
 30
0.0
  0
SPLINE
  5
D3
330
1F
100
AcDbEntity
  8
0
  6
Continuous
 62
     7
370
    15
100
AcDbSpline
210
0.0
220
0.0
230
1.0
 70
    24
 71
     3
 72
    12
 73
     8
 74
     0
 42
0.00000001
 43
0.00000001
 12
1.0
 22
0.0
 32
0.0
 13
1.0
 23
0.0
 33
0.0
 40
0.0
 40
0.0
 40
0.0
 40
0.0
 40
0.5
 40
0.5
 40
0.75
 40
0.75
 40
1.0
 40
1.0
 40
1.0
 40
1.0
 10
197.5447177679356
 20
133.6216660970444
 30
0.0
 10
197.5447177679356
 20
133.6216660970444
 30
0.0
 10
197.5719385160632
 20
133.6216660970444
 30
0.0
 10
197.6523849618362
 20
133.6216660970444
 30
0.0
 10
197.6858321903142
 20
133.6216660970444
 30
0.0
 10
197.7682417600885
 20
133.6216660970444
 30
0.0
 10
197.8175248569721
 20
133.6216660970444
 30
0.0
 10
197.8738414796087
 20
133.6216660970444
 30
0.0
  0
SPLINE
  5
D4
330
1F
100
AcDbEntity
  8
0
  6
Continuous
 62
     7
370
    15
100
AcDbSpline
210
0.0
220
0.0
230
1.0
 70
     8
 71
     3
 72
    10
 73
     6
 74
     0
 42
0.00000001
 43
0.00000001
 12
1.0
 22
0.0
 32
0.0
 13
1.0
 23
0.0
 33
0.0
 40
0.0
 40
0.0
 40
0.0
 40
0.0
 40
0.5
 40
0.5
 40
1.0
 40
1.0
 40
1.0
 40
1.0
 10
197.5447177679356
 20
134.6490687854751
 30
0.0
 10
197.5447177679356
 20
134.4663600733401
 30
0.0
 10
197.5716911016437
 20
134.2828517835793
 30
0.0
 10
197.6792814694294
 20
133.9345478052586
 30
0.0
 10
197.7607460137726
 20
133.7663602227157
 30
0.0
 10
197.8738414796084
 20
133.621666097043
 30
0.0
  0
LINE
  5
D5
330
1F
100
AcDbEntity
  8
0
  6
Continuous
 62
     7
370
    15
100
AcDbLine
 10
194.034718153
 20
104.8716668659
 30
0.0
 11
193.1547179715
 21
104.8716668659
 31
0.0
  0
LINE
  5
D6
330
1F
100
AcDbEntity
  8
0
  6
Continuous
 62
     7
370
    15
100
AcDbLine
 10
193.1547179715
 20
133.6216664562
 30
0.0
 11
194.034718153
 21
133.6216664562
 31
0.0
  0
SPLINE
  5
D7
330
1F
100
AcDbEntity
  8
0
  6
Continuous
 62
     7
370
    15
100
AcDbSpline
210
0.0
220
0.0
230
1.0
 70
     8
 71
     3
 72
    10
 73
     6
 74
     0
 42
0.00000001
 43
0.00000001
 12
1.0
 22
0.0
 32
0.0
 13
1.0
 23
0.0
 33
0.0
 40
0.0
 40
0.0
 40
0.0
 40
0.0
 40
0.5
 40
0.5
 40
1.0
 40
1.0
 40
1.0
 40
1.0
 10
207.1415305372148
 20
136.803320146036
 30
0.0
 10
206.9761252475336
 20
136.7957666165872
 30
0.0
 10
206.8216175725769
 20
136.7659800987306
 30
0.0
 10
206.5782004106827
 20
136.6710313584863
 30
0.0
 10
206.4928653959032
 20
136.6072102989354
 30
0.0
 10
206.4524126467977
 20
136.5352262745509
 30
0.0
  0
ELLIPSE
  5
D8
330
1F
100
AcDbEntity
  8
0
  6
Continuous
 62
     7
370
    15
100
AcDbEllipse
 10
208.0023422651
 20
121.771666097
 30
0.0
 11
0.4974151432769531
 21
16.49946846537878
 31
0.0
210
0.0
220
0.0
230
1.0
 40
0.266256518
 41
0.4709268865375368
 42
2.896158785924642
  0
SPLINE
  5
D9
330
1F
100
AcDbEntity
  8
0
  6
Continuous
 62
     7
370
    15
100
AcDbSpline
210
0.0
220
0.0
230
1.0
 70
     8
 71
     3
 72
    10
 73
     6
 74
     0
 42
0.00000001
 43
0.00000001
 12
1.0
 22
0.0
 32
0.0
 13
1.0
 23
0.0
 33
0.0
 40
0.0
 40
0.0
 40
0.0
 40
0.0
 40
0.5
 40
0.5
 40
1.0
 40
1.0
 40
1.0
 40
1.0
 10
206.4524126467977
 20
105.798833671314
 30
0.0
 10
206.4928951063899
 20
105.7583816415003
 30
0.0
 10
206.5782189254341
 20
105.7238363809798
 30
0.0
 10
206.8194942077236
 20
105.6734374308063
 30
0.0
 10
206.9759531139609
 20
105.6577060170702
 30
0.0
 10
207.1415305372148
 20
105.6537828212047
 30
0.0
  0
ELLIPSE
  5
DA
330
1F
100
AcDbEntity
  8
0
  6
Continuous
 62
     7
370
    15
100
AcDbEllipse
 10
256.5767772728
 20
121.771666097
 30
0.0
 11
156.9869077039869
 21
1.743768924240726
 31
0.0
210
0.0
220
0.0
230
1.0
 40
0.1045157088
 41
4.390876513288282
 42
4.422167872580817
  0
ELLIPSE
  5
DB
330
1F
100
AcDbEntity
  8
0
  6
Continuous
 62
     7
370
    15
100
AcDbEllipse
 10
256.5767772728
 20
121.771666097
 30
0.0
 11
156.9869077039869
 21
1.743768924240726
 31
0.0
210
0.0
220
0.0
230
1.0
 40
0.1045157088
 41
1.858695570108123
 42
1.889986929400661
  0
ELLIPSE
  5
DC
330
1F
100
AcDbEntity
  8
0
  6
Continuous
 62
     7
370
    15
100
AcDbEllipse
 10
205.1323113147
 20
114.6757605954
 30
0.0
 11
-0.1470036699799948
 21
2.684479469109605
 31
0.0
210
0.0
220
0.0
230
1.0
 40
0.2233809943
 41
0.0
 42
6.283185307179586
  0
LINE
  5
DD
330
1F
100
AcDbEntity
  8
0
  6
Continuous
 62
     7
370
    15
100
AcDbLine
 10
175.5947176729
 20
106.6679655263
 30
0.0
 11
175.5947176729
 21
136.8753666678
 31
0.0
  0
LINE
  5
DE
330
1F
100
AcDbEntity
  8
0
  6
Continuous
 62
     7
370
    15
100
AcDbLine
 10
163.7947179274
 20
107.2591476762
 30
0.0
 11
163.7947179274
 21
108.1349196532
 31
0.0
  0
SPLINE
  5
DF
330
1F
100
AcDbEntity
  8
0
  6
Continuous
 62
     7
370
    15
100
AcDbSpline
210
0.0
220
0.0
230
1.0
 70
     8
 71
     3
 72
    12
 73
     8
 74
     0
 42
0.00000001
 43
0.00000001
 12
1.0
 22
0.0
 32
0.0
 13
1.0
 23
0.0
 33
0.0
 40
0.0
 40
0.0
 40
0.0
 40
0.0
 40
0.25
 40
0.25
 40
0.5
 40
0.5
 40
1.0
 40
1.0
 40
1.0
 40
1.0
 10
163.4269826750787
 20
108.8412902341597
 30
0.0
 10
163.4524068919727
 20
108.7744046410859
 30
0.0
 10
163.4930187315419
 20
108.7099561514023
 30
0.0
 10
163.5776198778141
 20
108.5849554913244
 30
0.0
 10
163.6217166740996
 20
108.5244367461323
 30
0.0
 10
163.7377857825857
 20
108.3482306900239
 30
0.0
 10
163.7947177679356
 20
108.2378362750521
 30
0.0
 10
163.7947177679356
 20
108.1349193989589
 30
0.0
  0
SPLINE
  5
E0
330
1F
100
AcDbEntity
  8
0
  6
Continuous
 62
     7
370
    15
100
AcDbSpline
210
0.0
220
0.0
230
1.0
 70
     8
 71
     3
 72
    14
 73
    10
 74
     0
 42
0.00000001
 43
0.00000001
 12
1.0
 22
0.0
 32
0.0
 13
1.0
 23
0.0
 33
0.0
 40
0.0
 40
0.0
 40
0.0
 40
0.0
 40
0.1249999999999994
 40
0.1249999999999994
 40
0.2499999999999987
 40
0.2499999999999987
 40
0.4999999999999986
 40
0.4999999999999986
 40
1.0
 40
1.0
 40
1.0
 40
1.0
 10
162.8947177679356
 20
109.3312960495334
 30
0.0
 10
162.9437300907469
 20
109.3358211086886
 30
0.0
 10
162.9965363157424
 20
109.3277017231341
 30
0.0
 10
163.0816034074719
 20
109.2973716479826
 30
0.0
 10
163.1161875928126
 20
109.2767166909061
 30
0.0
 10
163.2047432781499
 20
109.2121805675793
 30
0.0
 10
163.2456789794711
 20
109.1649423875267
 30
0.0
 10
163.349559506374
 20
109.025146286243
 30
0.0
 10
163.3927833058062
 20
108.9312613473737
 30
0.0
 10
163.4269826750787
 20
108.8412902341597
 30
0.0
  0
SPLINE
  5
E1
330
1F
100
AcDbEntity
  8
0
  6
Continuous
 62
     7
370
    15
100
AcDbSpline
210
0.0
220
0.0
230
1.0
 70
     8
 71
     3
 72
    10
 73
     6
 74
     0
 42
0.00000001
 43
0.00000001
 12
1.0
 22
0.0
 32
0.0
 13
1.0
 23
0.0
 33
0.0
 40
0.0
 40
0.0
 40
0.0
 40
0.0
 40
0.5
 40
0.5
 40
1.0
 40
1.0
 40
1.0
 40
1.0
 10
159.9738943762368
 20
109.0050439699669
 30
0.0
 10
160.4462510967374
 20
109.0719992466792
 30
0.0
 10
160.9314250554
 20
109.1301380922558
 30
0.0
 10
161.9081061514374
 20
109.2370436899593
 30
0.0
 10
162.4002544369412
 20
109.2856447582976
 30
0.0
 10
162.8947177679356
 20
109.3312960495334
 30
0.0
  0
SPLINE
  5
E2
330
1F
100
AcDbEntity
  8
0
  6
Continuous
 62
     7
370
    15
100
AcDbSpline
210
0.0
220
0.0
230
1.0
 70
     8
 71
     3
 72
    10
 73
     6
 74
     0
 42
0.00000001
 43
0.00000001
 12
1.0
 22
0.0
 32
0.0
 13
1.0
 23
0.0
 33
0.0
 40
0.0
 40
0.0
 40
0.0
 40
0.0
 40
0.5
 40
0.5
 40
1.0
 40
1.0
 40
1.0
 40
1.0
 10
158.7037177679356
 20
108.9205992194882
 30
0.0
 10
158.9190767984929
 20
108.9276120504587
 30
0.0
 10
159.1335181368169
 20
108.936386774114
 30
0.0
 10
159.5585093554373
 20
108.9614399516618
 30
0.0
 10
159.7698820871599
 20
108.9761257844621
 30
0.0
 10
159.9738943762368
 20
109.0050439699669
 30
0.0
  0
SPLINE
  5
E3
330
1F
100
AcDbEntity
  8
0
  6
Continuous
 62
     7
370
    15
100
AcDbSpline
210
0.0
220
0.0
230
1.0
 70
     8
 71
     3
 72
     8
 73
     4
 74
     0
 42
0.00000001
 43
0.00000001
 12
1.0
 22
0.0
 32
0.0
 13
1.0
 23
0.0
 33
0.0
 40
0.0
 40
0.0
 40
0.0
 40
0.0
 40
1.0
 40
1.0
 40
1.0
 40
1.0
 10
158.6362016183665
 20
109.0684883975008
 30
0.0
 10
158.6503360629947
 20
109.0176920738676
 30
0.0
 10
158.6733934381433
 20
108.9684533233074
 30
0.0
 10
158.7037177679356
 20
108.9205992194882
 30
0.0
  0
ELLIPSE
  5
E4
330
1F
100
AcDbEntity
  8
0
  6
Continuous
 62
     7
370
    15
100
AcDbEllipse
 10
145.1679755601
 20
121.1323684193
 30
0.0
 11
13.37355272666613
 21
-13.37146352987017
 31
0.0
210
0.0
220
0.0
230
1.0
 40
0.1761188775
 41
0.3023035477142491
 42
0.3822730435340467
  0
ELLIPSE
  5
E5
330
1F
100
AcDbEntity
  8
0
  6
Continuous
 62
     7
370
    15
100
AcDbEllipse
 10
145.0885971294
 20
122.4107765484
 30
0.0
 11
13.36963611134289
 21
13.36754752639488
 31
0.0
210
0.0
220
0.0
230
1.0
 40
0.1761188775
 41
5.933076931846585
 42
5.976720052691196
  0
SPLINE
  5
E6
330
1F
100
AcDbEntity
  8
0
  6
Continuous
 62
     7
370
    15
100
AcDbSpline
210
0.0
220
0.0
230
1.0
 70
     8
 71
     3
 72
     8
 73
     4
 74
     0
 42
0.00000001
 43
0.00000001
 12
1.0
 22
0.0
 32
0.0
 13
1.0
 23
0.0
 33
0.0
 40
0.0
 40
0.0
 40
0.0
 40
0.0
 40
1.0
 40
1.0
 40
1.0
 40
1.0
 10
158.6447177679355
 20
134.6372466440228
 30
0.0
 10
158.5989528602463
 20
134.5757262648639
 30
0.0
 10
158.5645657386163
 20
134.5118314051145
 30
0.0
 10
158.5455504849433
 20
134.4451014600708
 30
0.0
  0
SPLINE
  5
E7
330
1F
100
AcDbEntity
  8
0
  6
Continuous
 62
     7
370
    15
100
AcDbSpline
210
0.0
220
0.0
230
1.0
 70
     8
 71
     3
 72
    12
 73
     8
 74
     0
 42
0.00000001
 43
0.00000001
 12
1.0
 22
0.0
 32
0.0
 13
1.0
 23
0.0
 33
0.0
 40
0.0
 40
0.0
 40
0.0
 40
0.0
 40
0.2500000000000001
 40
0.2500000000000001
 40
0.5000000000000002
 40
0.5000000000000002
 40
1.0
 40
1.0
 40
1.0
 40
1.0
 10
160.3947177679356
 20
134.5524599557036
 30
0.0
 10
160.2526753647464
 20
134.5682856838798
 30
0.0
 10
160.1085572582423
 20
134.5793068176551
 30
0.0
 10
159.8188027445697
 20
134.5978431795223
 30
0.0
 10
159.673060841211
 20
134.6051138852581
 30
0.0
 10
159.2343806020311
 20
134.6235747355861
 30
0.0
 10
158.9400049859599
 20
134.6314536024096
 30
0.0
 10
158.6447177679356
 20
134.6372466440228
 30
0.0
  0
SPLINE
  5
E8
330
1F
100
AcDbEntity
  8
0
  6
Continuous
 62
     7
370
    15
100
AcDbSpline
210
0.0
220
0.0
230
1.0
 70
     8
 71
     3
 72
    20
 73
    16
 74
     0
 42
0.00000001
 43
0.00000001
 12
1.0
 22
0.0
 32
0.0
 13
1.0
 23
0.0
 33
0.0
 40
0.0
 40
0.0
 40
0.0
 40
0.0
 40
0.2499999999999991
 40
0.2499999999999991
 40
0.4999999999999982
 40
0.4999999999999982
 40
0.7499999999999973
 40
0.7499999999999973
 40
0.8749999999999973
 40
0.8749999999999973
 40
0.9374999999999984
 40
0.9374999999999984
 40
0.9687499999999992
 40
0.9687499999999992
 40
1.0
 40
1.0
 40
1.0
 40
1.0
 10
161.2947177679365
 20
135.3291902187923
 30
0.0
 10
161.2947177679365
 20
135.2685808190949
 30
0.0
 10
161.2693227483596
 20
135.2027548536913
 30
0.0
 10
161.1830295625776
 20
135.0687070843447
 30
0.0
 10
161.1223935838944
 20
135.0000117262029
 30
0.0
 10
160.9742917896731
 20
134.8596131745485
 30
0.0
 10
160.8875221828945
 20
134.7879096699671
 30
0.0
 10
160.7388843875653
 20
134.6817462682183
 30
0.0
 10
160.6865951706791
 20
134.6462179195867
 30
0.0
 10
160.5958313423692
 20
134.5965139890713
 30
0.0
 10
160.5634653499172
 20
134.5802529910561
 30
0.0
 10
160.505776194251
 20
134.5611404227102
 30
0.0
 10
160.4847891663636
 20
134.5557492806287
 30
0.0
 10
160.4395001873731
 20
134.5500119122362
 30
0.0
 10
160.4164859185346
 20
134.5500346458896
 30
0.0
 10
160.394717767935
 20
134.5524599557025
 30
0.0
  0
LINE
  5
E9
330
1F
100
AcDbEntity
  8
0
  6
Continuous
 62
     7
370
    15
100
AcDbLine
 10
161.2947175176
 20
135.3291905174
 30
0.0
 11
161.2947175176
 21
136.1589337388
 31
0.0
  0
SPLINE
  5
EA
330
1F
100
AcDbEntity
  8
0
  6
Continuous
 62
     7
370
    15
100
AcDbSpline
210
0.0
220
0.0
230
1.0
 70
     8
 71
     3
 72
    24
 73
    20
 74
     0
 42
0.00000001
 43
0.00000001
 12
1.0
 22
0.0
 32
0.0
 13
1.0
 23
0.0
 33
0.0
 40
0.0
 40
0.0
 40
0.0
 40
0.0
 40
0.0016643193296813
 40
0.0648792890554526
 40
0.127882629835479
 40
0.1913652263153964
 40
0.2543782098387403
 40
0.3163193264594876
 40
0.3777469775702122
 40
0.4397082275190884
 40
0.5014189034197821
 40
0.562536076452263
 40
0.6237133677268287
 40
0.6863020174790898
 40
0.7490598999921412
 40
0.811592469235191
 40
0.8743360189604256
 40
0.9379727054607176
 40
1.0
 40
1.0
 40
1.0
 40
1.0
 10
168.7792606548484
 20
107.0096994438762
 30
0.0
 10
168.7787832640229
 20
107.0096310330413
 30
0.0
 10
168.7601733874149
 20
107.0069642092791
 30
0.0
 10
168.823313924224
 20
107.0166787721171
 30
0.0
 10
168.9753566813065
 20
107.0388834783251
 30
0.0
 10
169.2432821965714
 20
107.0733192298586
 30
0.0
 10
169.5925959737582
 20
107.1117822405278
 30
0.0
 10
170.0196470356823
 20
107.1460102934751
 30
0.0
 10
170.5070866640972
 20
107.1684628533153
 30
0.0
 10
171.0387370290385
 20
107.1720568410463
 30
0.0
 10
171.5898576315395
 20
107.1550432117931
 30
0.0
 10
172.1373156223262
 20
107.1150974463499
 30
0.0
 10
172.6619498520818
 20
107.0559898336932
 30
0.0
 10
173.1437382504818
 20
106.9836253962721
 30
0.0
 10
173.5686868424914
 20
106.907304724794
 30
0.0
 10
173.9149031559523
 20
106.8353207788029
 30
0.0
 10
174.1699814680834
 20
106.7769337526392
 30
0.0
 10
174.3301768602208
 20
106.7372740963326
 30
0.0
 10
174.3508109226175
 20
106.7324494208689
 30
0.0
 10
174.3609958225008
 20
106.7300679782028
 30
0.0
  0
SPLINE
  5
EB
330
1F
100
AcDbEntity
  8
0
  6
Continuous
 62
     7
370
    15
100
AcDbSpline
210
0.0
220
0.0
230
1.0
 70
     8
 71
     3
 72
    24
 73
    20
 74
     0
 42
0.00000001
 43
0.00000001
 12
1.0
 22
0.0
 32
0.0
 13
1.0
 23
0.0
 33
0.0
 40
0.0
 40
0.0
 40
0.0
 40
0.0
 40
0.0629034706215385
 40
0.1256338688179741
 40
0.1890239793713884
 40
0.2513957684939822
 40
0.3139906836130308
 40
0.3762905044722344
 40
0.4374458894592898
 40
0.498543195540241
 40
0.5603281747675228
 40
0.6223344559749604
 40
0.6838864964282686
 40
0.7458035579052691
 40
0.8089499376965126
 40
0.8723245876864573
 40
0.9353799443000518
 40
0.9988635323362688
 40
1.0
 40
1.0
 40
1.0
 40
1.0
 10
174.3599969790395
 20
136.8132651472087
 30
0.0
 10
174.3505263527646
 20
136.8108423579401
 30
0.0
 10
174.3316111576682
 20
136.8060034454581
 30
0.0
 10
174.169559861264
 20
136.7660318542807
 30
0.0
 10
173.9130346205183
 20
136.7076878587083
 30
0.0
 10
173.5669784842251
 20
136.63545276072
 30
0.0
 10
173.1430790913317
 20
136.559303509208
 30
0.0
 10
172.6620961304938
 20
136.4871842076954
 30
0.0
 10
172.1381125735138
 20
136.4282966943876
 30
0.0
 10
171.5905146883067
 20
136.3883851717834
 30
0.0
 10
171.0390383722506
 20
136.3713494241682
 30
0.0
 10
170.5065970924692
 20
136.3749128952599
 30
0.0
 10
170.0186148807832
 20
136.3973461602269
 30
0.0
 10
169.5911027271508
 20
136.4316361751038
 30
0.0
 10
169.2422011723784
 20
136.4701399698905
 30
0.0
 10
168.9749465518877
 20
136.5045959978452
 30
0.0
 10
168.8220122473669
 20
136.5266787851833
 30
0.0
 10
168.7609025962034
 20
136.536507496934
 30
0.0
 10
168.7784857598915
 20
136.5337437545379
 30
0.0
 10
168.7787949935611
 20
136.5336951488251
 30
0.0
  0
SPLINE
  5
EC
330
1F
100
AcDbEntity
  8
0
  6
Continuous
 62
     7
370
    15
100
AcDbSpline
210
0.0
220
0.0
230
1.0
 70
     8
 71
     3
 72
     8
 73
     4
 74
     0
 42
0.00000001
 43
0.00000001
 12
1.0
 22
0.0
 32
0.0
 13
1.0
 23
0.0
 33
0.0
 40
0.0
 40
0.0
 40
0.0
 40
0.0
 40
1.0
 40
1.0
 40
1.0
 40
1.0
 10
157.6947177679356
 20
110.2241528958231
 30
0.0
 10
157.6947177679356
 20
110.2733573410919
 30
0.0
 10
157.6959874779949
 20
110.321370601112
 30
0.0
 10
157.7001335895127
 20
110.3666853497976
 30
0.0
  0
LINE
  5
ED
330
1F
100
AcDbEntity
  8
0
  6
Continuous
 62
     7
370
    15
100
AcDbLine
 10
157.6947180451
 20
110.2241527909
 30
0.0
 11
157.6947180451
 21
133.5498978072
 31
0.0
  0
SPLINE
  5
EE
330
1F
100
AcDbEntity
  8
0
  6
Continuous
 62
     7
370
    15
100
AcDbSpline
210
0.0
220
0.0
230
1.0
 70
     8
 71
     3
 72
     8
 73
     4
 74
     0
 42
0.00000001
 43
0.00000001
 12
1.0
 22
0.0
 32
0.0
 13
1.0
 23
0.0
 33
0.0
 40
0.0
 40
0.0
 40
0.0
 40
0.0
 40
1.0
 40
1.0
 40
1.0
 40
1.0
 10
157.7207635795257
 20
133.2514745582997
 30
0.0
 10
157.6964445465925
 20
133.3359845453798
 30
0.0
 10
157.6947177679354
 20
133.4421148093525
 30
0.0
 10
157.6947177679354
 20
133.5498975614852
 30
0.0
  0
SPLINE
  5
EF
330
1F
100
AcDbEntity
  8
0
  6
Continuous
 62
     7
370
    15
100
AcDbSpline
210
0.0
220
0.0
230
1.0
 70
     8
 71
     3
 72
    10
 73
     6
 74
     0
 42
0.00000001
 43
0.00000001
 12
1.0
 22
0.0
 32
0.0
 13
1.0
 23
0.0
 33
0.0
 40
0.0
 40
0.0
 40
0.0
 40
0.0
 40
0.5
 40
0.5
 40
1.0
 40
1.0
 40
1.0
 40
1.0
 10
158.31080097272
 20
133.8059283426721
 30
0.0
 10
158.1694821006048
 20
133.7738317015696
 30
0.0
 10
158.036829224316
 20
133.7031887852299
 30
0.0
 10
157.8308286068419
 20
133.508304931742
 30
0.0
 10
157.757047692213
 20
133.3850981716976
 30
0.0
 10
157.7207635795262
 20
133.2514745583001
 30
0.0
  0
SPLINE
  5
F0
330
1F
100
AcDbEntity
  8
0
  6
Continuous
 62
     7
370
    15
100
AcDbSpline
210
0.0
220
0.0
230
1.0
 70
     8
 71
     3
 72
     8
 73
     4
 74
     0
 42
0.00000001
 43
0.00000001
 12
1.0
 22
0.0
 32
0.0
 13
1.0
 23
0.0
 33
0.0
 40
0.0
 40
0.0
 40
0.0
 40
0.0
 40
1.0
 40
1.0
 40
1.0
 40
1.0
 10
158.4546878143234
 20
134.1597466766572
 30
0.0
 10
158.4160044093549
 20
134.0490094881882
 30
0.0
 10
158.3700962254209
 20
133.9326644317533
 30
0.0
 10
158.31080097272
 20
133.8059283426721
 30
0.0
  0
SPLINE
  5
F1
330
1F
100
AcDbEntity
  8
0
  6
Continuous
 62
     7
370
    15
100
AcDbSpline
210
0.0
220
0.0
230
1.0
 70
     8
 71
     3
 72
     8
 73
     4
 74
     0
 42
0.00000001
 43
0.00000001
 12
1.0
 22
0.0
 32
0.0
 13
1.0
 23
0.0
 33
0.0
 40
0.0001200397899508
 40
0.0001200397899508
 40
0.0001200397899508
 40
0.0001200397899508
 40
0.0002823522261547
 40
0.0002823522261547
 40
0.0002823522261547
 40
0.0002823522261547
 10
158.4202219420186
 20
109.6900236386326
 30
0.0
 10
158.4322661294326
 20
109.6611407247283
 30
0.0
 10
158.4437341819733
 20
109.6327048801212
 30
0.0
 10
158.4546878143234
 20
109.604680512119
 30
0.0
  0
SPLINE
  5
F2
330
1F
100
AcDbEntity
  8
0
  6
Continuous
 62
     7
370
    15
100
AcDbSpline
210
0.0
220
0.0
230
1.0
 70
     8
 71
     3
 72
    10
 73
     6
 74
     0
 42
0.00000001
 43
0.00000001
 12
1.0
 22
0.0
 32
0.0
 13
1.0
 23
0.0
 33
0.0
 40
0.0
 40
0.0
 40
0.0
 40
0.0
 40
0.5
 40
0.5
 40
1.0
 40
1.0
 40
1.0
 40
1.0
 10
157.7001335895127
 20
110.3666853497977
 30
0.0
 10
157.7211280823345
 20
110.1938332951736
 30
0.0
 10
157.8024516808218
 20
110.0318840762881
 30
0.0
 10
158.0632314263617
 20
109.7845382673954
 30
0.0
 10
158.2355957467918
 20
109.7066106210883
 30
0.0
 10
158.4202219420281
 20
109.6900236386341
 30
0.0
  0
LINE
  5
F3
330
1F
100
AcDbEntity
  8
0
  6
Continuous
 62
     7
370
    15
100
AcDbLine
 10
196.9447174938
 20
141.2588421875
 30
0.0
 11
195.6298781456
 21
141.2588421875
 31
0.0
  0
LINE
  5
F4
330
1F
100
AcDbEntity
  8
0
  6
Continuous
 62
     7
370
    15
100
AcDbLine
 10
195.6298781456
 20
137.8830753887
 30
0.0
 11
196.9447174938
 21
137.8830753887
 31
0.0
  0
LINE
  5
F5
330
1F
100
AcDbEntity
  8
0
  6
Continuous
 62
     7
370
    15
100
AcDbLine
 10
195.6298781456
 20
137.8830753887
 30
0.0
 11
195.6298781456
 21
141.2588421875
 31
0.0
  0
LINE
  5
F6
330
1F
100
AcDbEntity
  8
0
  6
Continuous
 62
     7
370
    15
100
AcDbLine
 10
194.034718153
 20
138.6716653281
 30
0.0
 11
193.1547179715
 21
138.6716653281
 31
0.0
  0
LINE
  5
F7
330
1F
100
AcDbEntity
  8
0
  6
Continuous
 62
     7
370
    15
100
AcDbLine
 10
193.1547179715
 20
134.4786769399
 30
0.0
 11
194.034718153
 21
134.4786769399
 31
0.0
  0
SPLINE
  5
F8
330
1F
100
AcDbEntity
  8
0
  6
Continuous
 62
     7
370
    15
100
AcDbSpline
210
0.0
220
0.0
230
1.0
 70
     8
 71
     3
 72
     8
 73
     4
 74
     0
 42
0.00000001
 43
0.00000001
 12
1.0
 22
0.0
 32
0.0
 13
1.0
 23
0.0
 33
0.0
 40
0.0
 40
0.0
 40
0.0
 40
0.0
 40
1.0
 40
1.0
 40
1.0
 40
1.0
 10
191.5595580690421
 20
137.8830750981219
 30
0.0
 10
191.8989811103238
 20
137.1532842366025
 30
0.0
 10
192.2314918538188
 20
136.4211158811809
 30
0.0
 10
192.5547177679356
 20
135.6857539964999
 30
0.0
  0
LINE
  5
F9
330
1F
100
AcDbEntity
  8
0
  6
Continuous
 62
     7
370
    15
100
AcDbLine
 10
192.5547180594
 20
135.6857538843
 30
0.0
 11
192.5547180594
 21
135.2875129008
 31
0.0
  0
SPLINE
  5
FA
330
1F
100
AcDbEntity
  8
0
  6
Continuous
 62
     7
370
    15
100
AcDbSpline
210
0.0
220
0.0
230
1.0
 70
     8
 71
     3
 72
    12
 73
     8
 74
     0
 42
0.00000001
 43
0.00000001
 12
1.0
 22
0.0
 32
0.0
 13
1.0
 23
0.0
 33
0.0
 40
0.0
 40
0.0
 40
0.0
 40
0.0
 40
0.5000000000000013
 40
0.5000000000000013
 40
0.7500000000000007
 40
0.7500000000000007
 40
1.0
 40
1.0
 40
1.0
 40
1.0
 10
192.5547177679356
 20
135.2875132772992
 30
0.0
 10
192.5547177679356
 20
135.1030740516727
 30
0.0
 10
192.6015604623881
 20
134.9161648321654
 30
0.0
 10
192.7511124850847
 20
134.6825294795445
 30
0.0
 10
192.8152174803889
 20
134.6122798477674
 30
0.0
 10
192.9694464356955
 20
134.5100390988062
 30
0.0
 10
193.0621229436285
 20
134.4786769571957
 30
0.0
 10
193.1547177679352
 20
134.4786769571957
 30
0.0
  0
SPLINE
  5
FB
330
1F
100
AcDbEntity
  8
0
  6
Continuous
 62
     7
370
    15
100
AcDbSpline
210
0.0
220
0.0
230
1.0
 70
     8
 71
     3
 72
    12
 73
     8
 74
     0
 42
0.00000001
 43
0.00000001
 12
1.0
 22
0.0
 32
0.0
 13
1.0
 23
0.0
 33
0.0
 40
0.0
 40
0.0
 40
0.0
 40
0.0
 40
0.25
 40
0.25
 40
0.5
 40
0.5
 40
1.0
 40
1.0
 40
1.0
 40
1.0
 10
194.0347177679356
 20
134.4786769571956
 30
0.0
 10
194.1279687862687
 20
134.4786769571956
 30
0.0
 10
194.2194744950946
 20
134.509738275595
 30
0.0
 10
194.3743980296297
 20
134.6123589259756
 30
0.0
 10
194.437992847572
 20
134.6820114540543
 30
0.0
 10
194.588551804255
 20
134.9172263859561
 30
0.0
 10
194.6347177679356
 20
135.1020324753655
 30
0.0
 10
194.6347177679356
 20
135.2875132772992
 30
0.0
  0
LINE
  5
FC
330
1F
100
AcDbEntity
  8
0
  6
Continuous
 62
     7
370
    15
100
AcDbLine
 10
194.6347171337
 20
135.2875129008
 30
0.0
 11
194.6347171337
 21
135.6857538843
 31
0.0
  0
SPLINE
  5
FD
330
1F
100
AcDbEntity
  8
0
  6
Continuous
 62
     7
370
    15
100
AcDbSpline
210
0.0
220
0.0
230
1.0
 70
     8
 71
     3
 72
     8
 73
     4
 74
     0
 42
0.00000001
 43
0.00000001
 12
1.0
 22
0.0
 32
0.0
 13
1.0
 23
0.0
 33
0.0
 40
0.0
 40
0.0
 40
0.0
 40
0.0
 40
1.0
 40
1.0
 40
1.0
 40
1.0
 10
194.6347177679356
 20
135.6857539964998
 30
0.0
 10
194.9582753261905
 20
136.4218703951224
 30
0.0
 10
195.2907696464075
 20
137.153961990541
 30
0.0
 10
195.629877466829
 20
137.8830750981219
 30
0.0
  0
SPLINE
  5
FE
330
1F
100
AcDbEntity
  8
0
  6
Continuous
 62
     7
370
    15
100
AcDbSpline
210
0.0
220
0.0
230
1.0
 70
     8
 71
     3
 72
    12
 73
     8
 74
     0
 42
0.00000001
 43
0.00000001
 12
1.0
 22
0.0
 32
0.0
 13
1.0
 23
0.0
 33
0.0
 40
0.0
 40
0.0
 40
0.0
 40
0.0
 40
0.2500000000000014
 40
0.2500000000000014
 40
0.5000000000000029
 40
0.5000000000000029
 40
1.0
 40
1.0
 40
1.0
 40
1.0
 10
196.9447177679356
 20
137.8830750981219
 30
0.0
 10
197.0340061269794
 20
137.8830750981219
 30
0.0
 10
197.1220649578816
 20
137.8574504655171
 30
0.0
 10
197.2747186711307
 20
137.7689070925854
 30
0.0
 10
197.3405121644727
 20
137.7060246094707
 30
0.0
 10
197.4959528111887
 20
137.4886634215371
 30
0.0
 10
197.5447177679356
 20
137.3100164115258
 30
0.0
 10
197.5447177679356
 20
137.1319232563501
 30
0.0
  0
LINE
  5
FF
330
1F
100
AcDbEntity
  8
0
  6
Continuous
 62
     7
370
    15
100
AcDbLine
 10
197.5447183372
 20
137.1319236854
 30
0.0
 11
197.5447183372
 21
134.6490689242
 31
0.0
  0
SPLINE
  5
100
330
1F
100
AcDbEntity
  8
0
  6
Continuous
 62
     7
370
    15
100
AcDbSpline
210
0.0
220
0.0
230
1.0
 70
     8
 71
     3
 72
    10
 73
     6
 74
     0
 42
0.00000001
 43
0.00000001
 12
1.0
 22
0.0
 32
0.0
 13
1.0
 23
0.0
 33
0.0
 40
0.0
 40
0.0
 40
0.0
 40
0.0
 40
0.5
 40
0.5
 40
1.0
 40
1.0
 40
1.0
 40
1.0
 10
197.5447177679356
 20
140.6425431301873
 30
0.0
 10
197.5447177679356
 20
140.8009775730752
 30
0.0
 10
197.4825565514526
 20
140.9599982678772
 30
0.0
 10
197.262047210781
 20
141.1900060921328
 30
0.0
 10
197.1031321078359
 20
141.2588413669496
 30
0.0
 10
196.9447177679356
 20
141.2588413669496
 30
0.0
  0
LINE
  5
101
330
1F
100
AcDbEntity
  8
0
  6
Continuous
 62
     7
370
    15
100
AcDbLine
 10
197.5447183372
 20
137.1319236854
 30
0.0
 11
197.5447183372
 21
140.6425431991
 31
0.0
  0
SPLINE
  5
102
330
1F
100
AcDbEntity
  8
0
  6
Continuous
 62
     7
370
    15
100
AcDbSpline
210
0.0
220
0.0
230
1.0
 70
    24
 71
     3
 72
    12
 73
     8
 74
     0
 42
0.00000001
 43
0.00000001
 12
1.0
 22
0.0
 32
0.0
 13
1.0
 23
0.0
 33
0.0
 40
0.0
 40
0.0
 40
0.0
 40
0.0
 40
0.4999999999999974
 40
0.4999999999999974
 40
0.7499999999999987
 40
0.7499999999999987
 40
1.0
 40
1.0
 40
1.0
 40
1.0
 10
194.3863733821864
 20
138.6716660970444
 30
0.0
 10
194.3522034208359
 20
138.6716660970444
 30
0.0
 10
194.3129532797844
 20
138.6716660970444
 30
0.0
 10
194.2349532692713
 20
138.6716660970444
 30
0.0
 10
194.2055503408705
 20
138.6716660970444
 30
0.0
 10
194.1324057467219
 20
138.6716660970444
 30
0.0
 10
194.0857757687541
 20
138.6716660970444
 30
0.0
 10
194.0347177679356
 20
138.6716660970444
 30
0.0
  0
SPLINE
  5
103
330
1F
100
AcDbEntity
  8
0
  6
Continuous
 62
     7
370
    15
100
AcDbSpline
210
0.0
220
0.0
230
1.0
 70
     8
 71
     3
 72
    10
 73
     6
 74
     0
 42
0.00000001
 43
0.00000001
 12
1.0
 22
0.0
 32
0.0
 13
1.0
 23
0.0
 33
0.0
 40
0.0
 40
0.0
 40
0.0
 40
0.0
 40
0.5
 40
0.5
 40
1.0
 40
1.0
 40
1.0
 40
1.0
 10
194.6347177679356
 20
139.1742700688632
 30
0.0
 10
194.6347177679355
 20
139.0777275213876
 30
0.0
 10
194.6127771453545
 20
138.9812663211186
 30
0.0
 10
194.5266469599642
 20
138.8058637268755
 30
0.0
 10
194.4635646528218
 20
138.7294481945089
 30
0.0
 10
194.3863733821903
 20
138.671666097048
 30
0.0
  0
SPLINE
  5
104
330
1F
100
AcDbEntity
  8
0
  6
Continuous
 62
     7
370
    15
100
AcDbSpline
210
0.0
220
0.0
230
1.0
 70
     8
 71
     3
 72
     8
 73
     4
 74
     0
 42
0.00000001
 43
0.00000001
 12
1.0
 22
0.0
 32
0.0
 13
1.0
 23
0.0
 33
0.0
 40
0.0
 40
0.0
 40
0.0
 40
0.0
 40
1.0
 40
1.0
 40
1.0
 40
1.0
 10
195.629877466829
 20
141.2588413669495
 30
0.0
 10
195.2975193704393
 20
140.6680311532776
 30
0.0
 10
194.9657380989553
 20
140.0768984890324
 30
0.0
 10
194.6347177679356
 20
139.4853427925747
 30
0.0
  0
LINE
  5
105
330
1F
100
AcDbEntity
  8
0
  6
Continuous
 62
     7
370
    15
100
AcDbLine
 10
194.6347171337
 20
135.6857538843
 30
0.0
 11
194.6347171337
 21
139.4853432351
 31
0.0
  0
SPLINE
  5
106
330
1F
100
AcDbEntity
  8
0
  6
Continuous
 62
     7
370
    15
100
AcDbSpline
210
0.0
220
0.0
230
1.0
 70
     8
 71
     3
 72
    10
 73
     6
 74
     0
 42
0.00000001
 43
0.00000001
 12
1.0
 22
0.0
 32
0.0
 13
1.0
 23
0.0
 33
0.0
 40
0.0
 40
0.0
 40
0.0
 40
0.0
 40
0.5
 40
0.5
 40
1.0
 40
1.0
 40
1.0
 40
1.0
 10
192.8030621536856
 20
138.6716660970444
 30
0.0
 10
192.7257374218113
 20
138.7295480979061
 30
0.0
 10
192.6623575962748
 20
138.80662144254
 30
0.0
 10
192.5767871475018
 20
138.9811245007338
 30
0.0
 10
192.5547177679356
 20
139.0779297042143
 30
0.0
 10
192.5547177679356
 20
139.1742700688643
 30
0.0
  0
SPLINE
  5
107
330
1F
100
AcDbEntity
  8
0
  6
Continuous
 62
     7
370
    15
100
AcDbSpline
210
0.0
220
0.0
230
1.0
 70
    24
 71
     3
 72
    12
 73
     8
 74
     0
 42
0.00000001
 43
0.00000001
 12
1.0
 22
0.0
 32
0.0
 13
1.0
 23
0.0
 33
0.0
 40
0.0
 40
0.0
 40
0.0
 40
0.0
 40
0.249999999999998
 40
0.249999999999998
 40
0.499999999999996
 40
0.499999999999996
 40
1.0
 40
1.0
 40
1.0
 40
1.0
 10
193.1547177679354
 20
138.6716660970444
 30
0.0
 10
193.103428522899
 20
138.6716660970444
 30
0.0
 10
193.0562404972274
 20
138.6716660970444
 30
0.0
 10
192.9832242885324
 20
138.6716660970444
 30
0.0
 10
192.9537326809927
 20
138.6716660970444
 30
0.0
 10
192.8761506418982
 20
138.6716660970444
 30
0.0
 10
192.836989329183
 20
138.6716660970444
 30
0.0
 10
192.8030621536847
 20
138.6716660970444
 30
0.0
  0
SPLINE
  5
108
330
1F
100
AcDbEntity
  8
0
  6
Continuous
 62
     7
370
    15
100
AcDbSpline
210
0.0
220
0.0
230
1.0
 70
     8
 71
     3
 72
     8
 73
     4
 74
     0
 42
0.00000001
 43
0.00000001
 12
1.0
 22
0.0
 32
0.0
 13
1.0
 23
0.0
 33
0.0
 40
0.0
 40
0.0
 40
0.0
 40
0.0
 40
1.0
 40
1.0
 40
1.0
 40
1.0
 10
192.5547177679356
 20
139.4853427925747
 30
0.0
 10
192.2236974369159
 20
140.0768984890323
 30
0.0
 10
191.8919161654318
 20
140.6680311532775
 30
0.0
 10
191.5595580690421
 20
141.2588413669495
 30
0.0
  0
LINE
  5
109
330
1F
100
AcDbEntity
  8
0
  6
Continuous
 62
     7
370
    15
100
AcDbLine
 10
192.5547180594
 20
135.6857538843
 30
0.0
 11
192.5547180594
 21
139.4853432351
 31
0.0
  0
LINE
  5
10A
330
1F
100
AcDbEntity
  8
0
  6
Continuous
 62
     7
370
    15
100
AcDbLine
 10
157.6947180451
 20
133.6455800259
 30
0.0
 11
157.6947180451
 21
133.5498978072
 31
0.0
  0
LINE
  5
10B
330
1F
100
AcDbEntity
  8
0
  6
Continuous
 62
     7
370
    15
100
AcDbLine
 10
157.6947180451
 20
109.953193801
 30
0.0
 11
157.6947180451
 21
110.2241527909
 31
0.0
  0
SPLINE
  5
10C
330
1F
100
AcDbEntity
  8
0
  6
Continuous
 62
     7
370
    15
100
AcDbSpline
210
0.0
220
0.0
230
1.0
 70
     8
 71
     3
 72
    10
 73
     6
 74
     0
 42
0.00000001
 43
0.00000001
 12
1.0
 22
0.0
 32
0.0
 13
1.0
 23
0.0
 33
0.0
 40
0.0
 40
0.0
 40
0.0
 40
0.0
 40
0.5
 40
0.5
 40
1.0
 40
1.0
 40
1.0
 40
1.0
 10
211.8273907799567
 20
105.5512195880011
 30
0.0
 10
212.0529891893241
 20
105.5466852203245
 30
0.0
 10
212.2684178106879
 20
105.4634221867913
 30
0.0
 10
212.6144339524257
 20
105.1781050689464
 30
0.0
 10
212.7370533078118
 20
104.9836650588814
 30
0.0
 10
212.7933166062457
 20
104.7659660882775
 30
0.0
  0
SPLINE
  5
10D
330
1F
100
AcDbEntity
  8
0
  6
Continuous
 62
     7
370
    15
100
AcDbSpline
210
0.0
220
0.0
230
1.0
 70
     8
 71
     3
 72
    10
 73
     6
 74
     0
 42
0.00000001
 43
0.00000001
 12
1.0
 22
0.0
 32
0.0
 13
1.0
 23
0.0
 33
0.0
 40
0.0
 40
0.0
 40
0.0
 40
0.0
 40
0.5
 40
0.5
 40
1.0
 40
1.0
 40
1.0
 40
1.0
 10
212.7933166062457
 20
137.8153222652506
 30
0.0
 10
212.7370353405168
 20
137.5963171187705
 30
0.0
 10
212.6138630342433
 20
137.3990857443698
 30
0.0
 10
212.2707392159569
 20
137.1079831643755
 30
0.0
 10
212.0530582843001
 20
137.0183389973008
 30
0.0
 10
211.8273907799576
 20
137.0088447010579
 30
0.0
  0
SPLINE
  5
10E
330
1F
100
AcDbEntity
  8
0
  6
Continuous
 62
     7
370
    15
100
AcDbSpline
210
0.0
220
0.0
230
1.0
 70
     8
 71
     3
 72
     8
 73
     4
 74
     0
 42
0.00000001
 43
0.00000001
 12
1.0
 22
0.0
 32
0.0
 13
1.0
 23
0.0
 33
0.0
 40
0.0
 40
0.0
 40
0.0
 40
0.0
 40
1.0
 40
1.0
 40
1.0
 40
1.0
 10
212.9966415565823
 20
138.6049709971926
 30
0.0
 10
212.9287477064826
 20
138.3417845653028
 30
0.0
 10
212.8609675045618
 20
138.0785696301304
 30
0.0
 10
212.7933166062457
 20
137.8153222652506
 30
0.0
  0
ELLIPSE
  5
10F
330
1F
100
AcDbEntity
  8
0
  6
Continuous
 62
     7
370
    15
100
AcDbEllipse
 10
256.5767772728
 20
121.771666097
 30
0.0
 11
171.2584447679858
 21
1.902293371898978
 31
0.0
210
0.0
220
0.0
230
1.0
 40
0.1045157088
 41
1.811122815439743
 42
1.826934835368883
  0
LINE
  5
110
330
1F
100
AcDbEntity
  8
0
  6
Continuous
 62
     7
370
    15
100
AcDbLine
 10
229.4757740469
 20
119.0688969722
 30
0.0
 11
215.620778677
 21
138.7036637092
 31
0.0
  0
LINE
  5
111
330
1F
100
AcDbEntity
  8
0
  6
Continuous
 62
     7
370
    15
100
AcDbLine
 10
230.4793486268
 20
107.609029735
 30
0.0
 11
229.4757740469
 21
119.0688969722
 31
0.0
  0
LINE
  5
112
330
1F
100
AcDbEntity
  8
0
  6
Continuous
 62
     7
370
    15
100
AcDbLine
 10
218.2805390925
 20
108.5422661775
 30
0.0
 11
230.4793486268
 21
107.609029735
 31
0.0
  0
ARC
  5
113
330
1F
100
AcDbEntity
  8
0
  6
Continuous
 62
     7
370
    15
100
AcDbCircle
 10
218.0822416113
 20
106.2113237306
 30
0.0
 40
2.339362003227062
100
AcDbArc
 50
85.1374524966
 51
264.8721359242
  0
LINE
  5
114
330
1F
100
AcDbEntity
  8
0
  6
Continuous
 62
     7
370
    15
100
AcDbLine
 10
219.1225739093
 20
103.7857410187
 30
0.0
 11
217.8731525214
 21
103.8813245171
 31
0.0
  0
LINE
  5
115
330
1F
100
AcDbEntity
  8
0
  6
Continuous
 62
     7
370
    15
100
AcDbLine
 10
219.7466419906
 20
96.6594394916
 30
0.0
 11
219.1225739093
 21
103.7857410187
 31
0.0
  0
ELLIPSE
  5
116
330
1F
100
AcDbEntity
  8
0
  6
Continuous
 62
     7
370
    15
100
AcDbEllipse
 10
253.0858094671
 20
118.2614690647
 30
0.0
 11
215.3493833991798
 21
-20.26302228663621
 31
0.0
210
0.0
220
0.0
230
1.0
 40
0.1150714178
 41
4.544354438965891
 42
4.567785744303412
  0
SPLINE
  5
117
330
1F
100
AcDbEntity
  8
0
  6
Continuous
 62
     7
370
    15
100
AcDbSpline
210
0.0
220
0.0
230
1.0
 70
     8
 71
     3
 72
     8
 73
     4
 74
     0
 42
0.00000001
 43
0.00000001
 12
1.0
 22
0.0
 32
0.0
 13
1.0
 23
0.0
 33
0.0
 40
0.0
 40
0.0
 40
0.0
 40
0.0
 40
1.0
 40
1.0
 40
1.0
 40
1.0
 10
212.7933166062457
 20
104.7659660882775
 30
0.0
 10
213.4440848428197
 20
102.2479556063609
 30
0.0
 10
214.1057863461299
 20
99.73292745260244
 30
0.0
 10
214.7708702347467
 20
97.21882193095243
 30
0.0
  0
CIRCLE
  5
118
330
1F
100
AcDbEntity
  8
0
  6
Continuous
 62
     7
370
    15
100
AcDbCircle
 10
221.260197856
 20
113.6396830553
 30
0.0
 40
3.976283394472961
  0
LINE
  5
119
330
1F
100
AcDbEntity
  8
0
  6
Continuous
 62
     7
370
    15
100
AcDbLine
 10
158.6447173626
 20
134.6516663828
 30
0.0
 11
158.6447173626
 21
134.6372467154
 31
0.0
  0
LINE
  5
11A
330
1F
100
AcDbEntity
  8
0
  6
Continuous
 62
     7
370
    15
100
AcDbLine
 10
157.6947180451
 20
133.701666134
 30
0.0
 11
157.6947180451
 21
133.6455800259
 31
0.0
  0
LINE
  5
11B
330
1F
100
AcDbEntity
  8
0
  6
Continuous
 62
     7
370
    15
100
AcDbLine
 10
158.7037185104
 20
108.8916658112
 30
0.0
 11
158.7037185104
 21
108.9205992097
 31
0.0
  0
LINE
  5
11C
330
1F
100
AcDbEntity
  8
0
  6
Continuous
 62
     7
370
    15
100
AcDbLine
 10
157.6947180451
 20
109.9006662765
 30
0.0
 11
157.6947180451
 21
109.953193801
 31
0.0
  0
LINE
  5
11D
330
1F
100
AcDbEntity
  8
0
  6
Continuous
 62
     7
370
    15
100
AcDbLine
 10
212.9966432125
 20
138.6049714559
 30
0.0
 11
212.9966432125
 21
139.7716653222
 31
0.0
  0
ELLIPSE
  5
11E
330
1F
100
AcDbEntity
  8
0
  6
Continuous
 62
     7
370
    15
100
AcDbEllipse
 10
227.4737714047
 20
121.771666097
 30
0.0
 11
-12.80826096016648
 21
17.99807758938579
 31
0.0
210
0.0
220
0.0
230
1.0
 40
0.0205386817
 41
5.922362900018149
 42
6.26857007602807
  0
LINE
  5
11F
330
1F
100
AcDbEntity
  8
0
  6
Continuous
 62
     7
370
    15
100
AcDbLine
 10
214.7707568378
 20
97.1770946556
 30
0.0
 11
214.7708685965
 21
97.2188216323
 31
0.0
  0
ARC
  5
120
330
1F
100
AcDbEntity
  8
0
  6
Continuous
 62
     7
370
    15
100
AcDbCircle
 10
217.5564641086
 20
106.6753453172
 30
0.0
 40
2.312030293037719
100
AcDbArc
 50
233.8496956218
 51
265.6691254728
  0
LINE
  5
121
330
1F
100
AcDbEntity
  8
0
  6
Continuous
 62
     7
370
    15
100
AcDbLine
 10
218.6294721336
 20
104.5565929884
 30
0.0
 11
217.0745545895
 21
104.6755470955
 31
0.0
  0
LINE
  5
122
330
1F
100
AcDbEntity
  8
0
  6
Continuous
 62
     7
370
    15
100
AcDbLine
 10
218.6543458969
 20
104.2725694054
 30
0.0
 11
218.6312900753
 21
104.2743333304
 31
0.0
  0
LINE
  5
123
330
1F
100
AcDbEntity
  8
0
  6
Continuous
 62
     7
370
    15
100
AcDbLine
 10
218.6312900753
 20
104.2743333304
 30
0.0
 11
219.1225739093
 21
103.7857410187
 31
0.0
  0
ELLIPSE
  5
124
330
1F
100
AcDbEntity
  8
0
  6
Continuous
 62
     7
370
    15
100
AcDbEllipse
 10
217.1277663464
 20
122.0408116886
 30
0.0
 11
-2.547289797953397
 21
25.40076590679332
 31
0.0
210
0.0
220
0.0
230
1.0
 40
0.0928940858
 41
3.122312449060421
 42
3.172450420139111
  0
ARC
  5
125
330
1F
100
AcDbEntity
  8
0
  6
Continuous
 62
     7
370
    15
100
AcDbCircle
 10
217.5366992345
 20
106.4265317668
 30
0.0
 40
2.062434847763265
100
AcDbArc
 50
225.1849870457
 51
265.6946563861
  0
LINE
  5
126
330
1F
100
AcDbEntity
  8
0
  6
Continuous
 62
     7
370
    15
100
AcDbLine
 10
217.8070695967
 20
108.5303359354
 30
0.0
 11
218.2846816153
 21
108.4937973568
 31
0.0
  0
ARC
  5
127
330
1F
100
AcDbEntity
  8
0
  6
Continuous
 62
     7
370
    15
100
AcDbCircle
 10
217.2304876561
 20
106.735533503
 30
0.0
 40
2.065879744869244
100
AcDbArc
 50
234.6914019686
 51
265.671184653
  0
ARC
  5
128
330
1F
100
AcDbEntity
  8
0
  6
Continuous
 62
     7
370
    15
100
AcDbCircle
 10
224.1936120947
 20
103.0704225885
 30
0.0
 40
3.194677475379354
100
AcDbArc
 50
264.0113851174
 51
292.2351202985
  0
LWPOLYLINE
  5
129
330
1F
100
AcDbEntity
  8
0
  6
Continuous
 62
     7
370
    15
100
AcDbPolyline
 90
        3
 70
   128
 43
0.0
 10
227.4107450516
 20
103.0774757886
 10
227.3935900898
 20
103.4235012406
 10
227.391321388
 20
103.4445193285
  0
LINE
  5
12A
330
1F
100
AcDbEntity
  8
VERMASSUNG
  6
CENTERX2
100
AcDbLine
 10
232.5947177679
 20
94.771666097
 30
0.0
 11
248.8944364569
 21
94.771666097
 31
0.0
  0
LINE
  5
12B
330
1F
100
AcDbEntity
  8
VERMASSUNG
  6
CENTERX2
100
AcDbLine
 10
232.5947177679
 20
94.771666097
 30
0.0
 11
232.5947177679
 21
121.771666097
 31
0.0
  0
LINE
  5
12C
330
1F
100
AcDbEntity
  8
VERMASSUNG
  6
CENTERX2
100
AcDbLine
 10
154.9551062447
 20
121.771666097
 30
0.0
 11
232.5947177679
 21
121.771666097
 31
0.0
  0
DIMENSION
  5
12D
330
1F
100
AcDbEntity
  8
VERMASSUNG
100
AcDbDimension
  2
_D
 10
231.5458201677
 20
107.168668887
 30
0.0
 11
239.0290504629
 21
101.7539954665
 31
0.0
 70
   162
  1
<>
 71
     1
 42
-1.0
  3
SLDDIMSTYLE0
100
AcDb2LineAngularDimension
 13
232.5947177679
 23
94.771666097
 33
0.0
 14
248.8944364569
 24
94.771666097
 34
0.0
 15
232.5932039855
 25
95.208524029
 35
0.0
 16
239.0290504629
 26
101.7539954665
 36
0.0
  0
DIMENSION
  5
136
330
1F
100
AcDbEntity
  8
VERMASSUNG
100
AcDbDimension
  2
_D_1
 10
232.5947177679
 20
88.7705837023
 30
0.0
 11
205.0947177679
 21
88.7705837023
 31
0.0
 70
   160
  1
<>
 71
     2
 42
-1.0
  3
SLDDIMSTYLE1
100
AcDbAlignedDimension
 13
177.5947177679
 23
102.071666097
 33
0.0
 14
232.5947177679
 24
94.771666097
 34
0.0
100
AcDbRotatedDimension
  0
DIMENSION
  5
141
330
1F
100
AcDbEntity
  8
VERMASSUNG
100
AcDbDimension
  2
_D_2
 10
232.5947177679
 20
80.8746298105
 30
0.0
 11
195.1447177679
 21
80.8746298105
 31
0.0
 70
   160
  1
<>
 71
     2
 42
-1.0
  3
SLDDIMSTYLE1
100
AcDbAlignedDimension
 13
157.6947177679
 23
109.900666097
 33
0.0
 14
232.5947177679
 24
94.771666097
 34
0.0
 50
0.0
100
AcDbRotatedDimension
  0
DIMENSION
  5
14B
330
1F
100
AcDbEntity
  8
VERMASSUNG
100
AcDbDimension
  2
_D_3
 10
250.1273479175
 20
121.771666097
 30
0.0
 11
250.1273479175
 21
108.271666097
 31
0.0
 70
   160
  1
<>
 71
     2
 42
-1.0
  3
SLDDIMSTYLE1
100
AcDbAlignedDimension
 13
232.5947177679
 23
94.771666097
 33
0.0
 14
232.5947177679
 24
121.771666097
 34
0.0
 50
90.0
100
AcDbRotatedDimension
  0
DIMENSION
  5
155
330
1F
100
AcDbEntity
  8
VERMASSUNG
100
AcDbDimension
  2
_D_4
 10
148.9693748765
 20
101.771666097
 30
0.0
 11
148.9693748765
 21
121.771666097
 31
0.0
 70
   160
  1
HSK T%%c<>
 71
     2
 42
-1.0
  3
SLDDIMSTYLE1
100
AcDbAlignedDimension
 13
177.8947177679
 23
141.771666097
 33
0.0
 14
177.8947177679
 24
101.771666097
 34
0.0
 50
90.0
100
AcDbRotatedDimension
  0
LINE
  5
161
330
1F
100
AcDbEntity
  8
0
  6
Continuous
 62
     7
370
    15
100
AcDbLine
 10
77.0251752958
 20
117.2772966014
 30
0.0
 11
76.8462558892
 21
117.0538369255
 31
0.0
  0
LINE
  5
162
330
1F
100
AcDbEntity
  8
0
  6
Continuous
 62
     7
370
    15
100
AcDbLine
 10
77.5739024077
 20
110.1307429993
 30
0.0
 11
77.7953718472
 21
109.9493660653
 31
0.0
  0
LINE
  5
163
330
1F
100
AcDbEntity
  8
0
  6
Continuous
 62
     7
370
    15
100
AcDbLine
 10
80.079570723
 20
94.7716896111
 30
0.0
 11
84.7875619922
 21
95.2665199214
 31
0.0
  0
LINE
  5
164
330
1F
100
AcDbEntity
  8
0
  6
Continuous
 62
     7
370
    15
100
AcDbLine
 10
78.7587687057
 20
97.5370638692
 30
0.0
 11
79.1836357359
 21
96.9402947152
 31
0.0
  0
SPLINE
  5
165
330
1F
100
AcDbEntity
  8
0
  6
Continuous
 62
     7
370
    15
100
AcDbSpline
210
0.0
220
0.0
230
1.0
 70
     8
 71
     3
 72
    11
 73
     7
 74
     0
 42
0.00000001
 43
0.00000001
 12
1.0
 22
0.0
 32
0.0
 13
1.0
 23
0.0
 33
0.0
 40
0.0
 40
0.0
 40
0.0
 40
0.0
 40
0.2971514588801049
 40
0.5987373223846799
 40
0.9253448617144789
 40
1.0
 40
1.0
 40
1.0
 40
1.0
 10
79.18092721702641
 20
96.9413210326428
 30
0.0
 10
79.20749202791612
 20
96.89908028456861
 30
0.0
 10
79.26101807756672
 20
96.8139684278314
 30
0.0
 10
79.28088102526914
 20
96.72585259899901
 30
0.0
 10
79.2832945267146
 20
96.69082891867428
 30
0.0
 10
79.28336941856648
 20
96.69867953868425
 30
0.0
 10
79.28338335223606
 20
96.70014015078493
 30
0.0
  0
SPLINE
  5
166
330
1F
100
AcDbEntity
  8
0
  6
Continuous
 62
     7
370
    15
100
AcDbSpline
210
0.0
220
0.0
230
1.0
 70
     8
 71
     3
 72
    13
 73
     9
 74
     0
 42
0.00000001
 43
0.00000001
 12
1.0
 22
0.0
 32
0.0
 13
1.0
 23
0.0
 33
0.0
 40
0.0
 40
0.0
 40
0.0
 40
0.0
 40
0.1189314051219269
 40
0.3452376529785895
 40
0.5340533166247381
 40
0.7332014931288093
 40
0.9688922160022623
 40
1.0
 40
1.0
 40
1.0
 40
1.0
 10
78.13586547600215
 20
107.3399464288349
 30
0.0
 10
78.13528108681808
 20
107.3413447979067
 30
0.0
 10
78.13358470435186
 20
107.345404025626
 30
0.0
 10
78.1448599452688
 20
107.3146271745257
 30
0.0
 10
78.16435830084058
 20
107.2307666203582
 30
0.0
 10
78.16629232645333
 20
107.0872116807879
 30
0.0
 10
78.15009082541992
 20
106.9567786522475
 30
0.0
 10
78.1107006190506
 20
106.8919180541441
 30
0.0
 10
78.10610785709804
 20
106.8843555325265
 30
0.0
  0
LINE
  5
167
330
1F
100
AcDbEntity
  8
0
  6
Continuous
 62
     7
370
    15
100
AcDbLine
 10
78.091994362
 20
106.8880221495
 30
0.0
 11
77.7877233606
 21
106.1865322912
 31
0.0
  0
LINE
  5
168
330
1F
100
AcDbEntity
  8
0
  6
Continuous
 62
     7
370
    15
100
AcDbLine
 10
77.5652699787
 20
108.4746884802
 30
0.0
 11
77.266732432
 21
108.4433112913
 31
0.0
  0
LINE
  5
169
330
1F
100
AcDbEntity
  8
0
  6
Continuous
 62
     7
370
    15
100
AcDbLine
 10
84.7536236663
 20
95.964872154
 30
0.0
 11
87.4281837288
 21
96.2459806973
 31
0.0
  0
LINE
  5
16A
330
1F
100
AcDbEntity
  8
0
  6
Continuous
 62
     7
370
    15
100
AcDbLine
 10
87.4385307227
 20
96.2526359284
 30
0.0
 11
87.7007902283
 21
96.5801820779
 31
0.0
  0
LWPOLYLINE
  5
16B
330
1F
100
AcDbEntity
  8
0
  6
Continuous
 62
     7
370
    15
100
AcDbPolyline
 90
       38
 70
   128
 43
0.0
 10
76.846443085
 20
117.0540702218
 10
76.9069140926
 20
117.0722510354
 10
76.9772068281
 20
116.9904352786
 10
77.0552991573
 20
116.810976869
 10
77.1389442645
 20
116.5390385935
 10
77.2257358451
 20
116.1824430959
 10
77.3131772559
 20
115.7514488944
 10
77.398752762
 20
115.2584556179
 10
77.4800006449
 20
114.7176454464
 10
77.5545835179
 20
114.1445761235
 10
77.6203558464
 20
113.5557348528
 10
77.6754254159
 20
112.9680600637
 10
77.7182078138
 20
112.3984594518
 10
77.7474725303
 20
111.8633187065
 10
77.7623774167
 20
111.3780325899
 10
77.7624940649
 20
110.9565625587
 10
77.7478187494
 20
110.6110325703
 10
77.7187738251
 20
110.3513844931
 10
77.6761946883
 20
110.1850866029
 10
77.6213064939
 20
110.1169231036
 10
77.5556882993
 20
110.1488553607
 10
77.4812274296
 20
110.2799650902
 10
77.4000663925
 20
110.5064795041
 10
77.3145400137
 20
110.8218830699
 10
77.2271086145
 20
111.2171009803
 10
77.1402872317
 20
111.680765512
 10
77.0565739051
 20
112.1995364004
 10
76.9783768021
 20
112.7584892014
 10
76.9079455324
 20
113.3415455618
 10
76.8473061882
 20
113.9319304997
 10
76.7982033696
 20
114.5126599507
 10
76.7620494273
 20
115.0670278506
 10
76.7398848813
 20
115.5790862316
 10
76.7323469892
 20
116.0341034332
 10
76.7396525163
 20
116.4189897166
 10
76.7615916822
 20
116.7226725878
 10
76.797533283
 20
116.9364157753
 10
76.846443085
 20
117.0540702218
  0
LWPOLYLINE
  5
16C
330
1F
100
AcDbEntity
  8
0
  6
Continuous
 62
     7
370
    15
100
AcDbPolyline
 90
       29
 70
   128
 43
0.0
 10
77.018676294
 20
115.5721725585
 10
77.0655825883
 20
115.5737343864
 10
77.1216521654
 20
115.4761396968
 10
77.1840733625
 20
115.2842825899
 10
77.2497162372
 20
115.007783162
 10
77.3152892627
 20
114.6605064781
 10
77.377503939
 20
114.2598668733
 10
77.4332410339
 20
113.8259534413
 10
77.4797054157
 20
113.3805251369
 10
77.514567148
 20
112.9459169382
 10
77.5360781383
 20
112.5439217934
 10
77.5431599152
 20
112.1946981797
 10
77.535457179
 20
111.915756824
 10
77.5133561958
 20
111.7210852602
 10
77.4779650066
 20
111.6204456115
 10
77.4310587123
 20
111.6188837835
 10
77.3749891352
 20
111.7164789388
 10
77.3125679381
 20
111.9083360457
 10
77.2469250635
 20
112.1848354736
 10
77.1813522708
 20
112.5321116918
 10
77.1191373617
 20
112.9327517623
 10
77.0634004995
 20
113.3666651943
 10
77.0169361178
 20
113.8120934987
 10
76.9820743855
 20
114.2467016974
 10
76.9605631624
 20
114.6486968422
 10
76.9534816183
 20
114.9979204559
 10
76.9611843545
 20
115.2768618116
 10
76.9832853377
 20
115.4715329097
 10
77.018676294
 20
115.5721725585
  0
LINE
  5
16D
330
1F
100
AcDbEntity
  8
0
  6
Continuous
 62
     7
370
    15
100
AcDbLine
 10
77.4472953901
 20
113.6882927889
 30
0.0
 11
77.3531966526
 21
113.4252863625
 31
0.0
  0
LINE
  5
16E
330
1F
100
AcDbEntity
  8
0
  6
Continuous
 62
     7
370
    15
100
AcDbLine
 10
77.3531966526
 20
113.4252863625
 30
0.0
 11
77.4882102534
 21
113.2415019596
 31
0.0
  0
LINE
  5
16F
330
1F
100
AcDbEntity
  8
0
  6
Continuous
 62
     7
370
    15
100
AcDbLine
 10
77.4743035119
 20
113.4380147481
 30
0.0
 11
77.3531966526
 21
113.4252863625
 31
0.0
  0
LINE
  5
170
330
1F
100
AcDbEntity
  8
0
  6
Continuous
 62
     7
370
    15
100
AcDbLine
 10
77.2707636617
 20
108.0064772317
 30
0.0
 11
78.6385164513
 21
96.046333077
 31
0.0
  0
ARC
  5
171
330
1F
100
AcDbEntity
  8
0
  6
Continuous
 62
     7
370
    15
100
AcDbCircle
 10
78.1545893972
 20
108.2248306225
 30
0.0
 40
0.9103988873239525
100
AcDbArc
 50
166.1879034305
 51
193.8773125652
  0
LINE
  5
172
330
1F
100
AcDbEntity
  8
0
  6
Continuous
 62
     7
370
    15
100
AcDbLine
 10
78.6319784504
 20
107.5263199085
 30
0.0
 11
77.2705156971
 21
108.4421778718
 31
0.0
  0
ARC
  5
173
330
1F
100
AcDbEntity
  8
0
  6
Continuous
 62
     7
370
    15
100
AcDbCircle
 10
77.6393231556
 20
107.1290557992
 30
0.0
 40
1.069197505940318
100
AcDbArc
 50
2.1232511583
 51
21.8114595443
  0
LINE
  5
174
330
1F
100
AcDbEntity
  8
0
  6
Continuous
 62
     7
370
    15
100
AcDbLine
 10
80.0755393368
 20
95.2085246021
 30
0.0
 11
78.7077865945
 21
107.1686687568
 31
0.0
  0
ARC
  5
175
330
1F
100
AcDbEntity
  8
0
  6
Continuous
 62
     7
370
    15
100
AcDbCircle
 10
79.1917029824
 20
94.9901699217
 30
0.0
 40
0.9104095055075578
100
AcDbArc
 50
346.1880305753
 51
13.8772310682
  0
LINE
  5
176
330
1F
100
AcDbEntity
  8
0
  6
Continuous
 62
     7
370
    15
100
AcDbLine
 10
78.7143245954
 20
95.6886809939
 30
0.0
 11
80.075787476
 21
94.7728220993
 31
0.0
  0
ARC
  5
177
330
1F
100
AcDbEntity
  8
0
  6
Continuous
 62
     7
370
    15
100
AcDbCircle
 10
79.7069970792
 20
96.0859486435
 30
0.0
 40
1.069214779841041
100
AcDbArc
 50
182.12335674
 51
201.8112934338
  0
ARC
  5
178
330
1F
100
AcDbEntity
  8
0
  6
Continuous
 62
     7
370
    15
100
AcDbCircle
 10
79.2340251387
 20
94.999136734
 30
0.0
 40
0.8648699863350678
100
AcDbArc
 50
346.1877957778
 51
13.8774656138
  0
LINE
  5
179
330
1F
100
AcDbEntity
  8
0
  6
Continuous
 62
     7
370
    15
100
AcDbLine
 10
80.0736503381
 20
95.2065725499
 30
0.0
 11
78.7058976395
 21
107.166717636
 31
0.0
  0
ARC
  5
17A
330
1F
100
AcDbEntity
  8
0
  6
Continuous
 62
     7
370
    15
100
AcDbCircle
 10
77.6908660962
 20
107.1290862864
 30
0.0
 40
1.015728877432194
100
AcDbArc
 50
2.1232152674
 51
21.8115563724
  0
LINE
  5
17B
330
1F
100
AcDbEntity
  8
0
  6
Continuous
 62
     7
370
    15
100
AcDbLine
 10
78.6338798618
 20
107.5064855316
 30
0.0
 11
77.2724169921
 21
108.4223444262
 31
0.0
  0
ARC
  5
17C
330
1F
100
AcDbEntity
  8
0
  6
Continuous
 62
     7
370
    15
100
AcDbCircle
 10
78.1122866634
 20
108.2158648962
 30
0.0
 40
0.8648785238472068
100
AcDbArc
 50
166.1879209462
 51
193.8773755494
  0
LINE
  5
17D
330
1F
100
AcDbEntity
  8
0
  6
Continuous
 62
     7
370
    15
100
AcDbLine
 10
77.2726528496
 20
108.0084283525
 30
0.0
 11
78.6404055227
 21
96.0482832664
 31
0.0
  0
ARC
  5
17E
330
1F
100
AcDbEntity
  8
0
  6
Continuous
 62
     7
370
    15
100
AcDbCircle
 10
79.6554214992
 20
96.0859120278
 30
0.0
 40
1.015713225413324
100
AcDbArc
 50
182.1231019014
 51
201.8116958789
  0
LINE
  5
17F
330
1F
100
AcDbEntity
  8
0
  6
Continuous
 62
     7
370
    15
100
AcDbLine
 10
78.712423184
 20
95.7085163021
 30
0.0
 11
80.0738860682
 21
94.7926574075
 31
0.0
  0
LINE
  5
180
330
1F
100
AcDbEntity
  8
0
  6
Continuous
 62
     7
370
    15
100
AcDbLine
 10
84.7835307624
 20
95.7033530498
 30
0.0
 11
83.4157778565
 21
107.6634990671
 31
0.0
  0
ARC
  5
181
330
1F
100
AcDbEntity
  8
0
  6
Continuous
 62
     7
370
    15
100
AcDbCircle
 10
83.7604239104
 20
95.4754763418
 30
0.0
 40
1.048177191458781
100
AcDbArc
 50
348.5009204694
 51
12.5565354808
  0
LINE
  5
182
330
1F
100
AcDbEntity
  8
0
  6
Continuous
 62
     7
370
    15
100
AcDbLine
 10
80.0905338085
 20
94.8294409239
 30
0.0
 11
80.0738860682
 21
94.7926574075
 31
0.0
  0
LINE
  5
183
330
1F
100
AcDbEntity
  8
0
  6
Continuous
 62
     7
370
    15
100
AcDbLine
 10
78.8932924308
 20
96.1081654453
 30
0.0
 11
78.712423184
 21
95.7085163021
 31
0.0
  0
LINE
  5
184
330
1F
100
AcDbEntity
  8
0
  6
Continuous
 62
     7
370
    15
100
AcDbLine
 10
79.2478734194
 20
96.7222870016
 30
0.0
 11
78.8932924308
 21
96.1081654453
 31
0.0
  0
ARC
  5
185
330
1F
100
AcDbEntity
  8
0
  6
Continuous
 62
     7
370
    15
100
AcDbCircle
 10
82.3473248554
 20
107.6238876106
 30
0.0
 40
1.069187019642849
100
AcDbArc
 50
2.1231914981
 51
21.8115440378
  0
LINE
  5
186
330
1F
100
AcDbEntity
  8
0
  6
Continuous
 62
     7
370
    15
100
AcDbLine
 10
78.6426126408
 20
107.4942712361
 30
0.0
 11
78.6338798618
 21
107.5064855316
 31
0.0
  0
LINE
  5
187
330
1F
100
AcDbEntity
  8
0
  6
Continuous
 62
     7
370
    15
100
AcDbLine
 10
79.5313232495
 20
98.101946401
 30
0.0
 11
78.7658414021
 21
104.7956076139
 31
0.0
  0
LINE
  5
188
330
1F
100
AcDbEntity
  8
0
  6
Continuous
 62
     7
370
    15
100
AcDbLine
 10
83.3399698287
 20
108.0211492875
 30
0.0
 11
83.2633778602
 21
108.0726728463
 31
0.0
  0
LINE
  5
189
330
1F
100
AcDbEntity
  8
0
  6
Continuous
 62
     7
370
    15
100
AcDbLine
 10
77.5255397577
 20
108.0683096001
 30
0.0
 11
77.2724169921
 21
108.4223444262
 31
0.0
  0
LINE
  5
18A
330
1F
100
AcDbEntity
  8
0
  6
Continuous
 62
     7
370
    15
100
AcDbLine
 10
78.1535959952
 20
107.2663579756
 30
0.0
 11
77.5255397577
 21
108.0683096001
 31
0.0
  0
ARC
  5
18B
330
1F
100
AcDbEntity
  8
0
  6
Continuous
 62
     7
370
    15
100
AcDbCircle
 10
77.3217599835
 20
97.5560616332
 30
0.0
 40
2.275996486362234
100
AcDbArc
 50
346.1879082177
 51
13.8773505872
  0
LINE
  5
18C
330
1F
100
AcDbEntity
  8
0
  6
Continuous
 62
     7
370
    15
100
AcDbLine
 10
77.8149799127
 20
105.1130545014
 30
0.0
 11
78.5804616437
 21
98.4193932885
 31
0.0
  0
ARC
  5
18D
330
1F
100
AcDbEntity
  8
0
  6
Continuous
 62
     7
370
    15
100
AcDbCircle
 10
80.0245441389
 20
105.6589396241
 30
0.0
 40
2.275997503673774
100
AcDbArc
 50
166.1879237133
 51
193.8773534623
  0
LINE
  5
18E
330
1F
100
AcDbEntity
  8
0
  6
Continuous
 62
     7
370
    15
100
AcDbLine
 10
78.5763210999
 20
105.6897350276
 30
0.0
 11
77.8143594191
 21
106.2023070329
 31
0.0
  0
ARC
  5
18F
330
1F
100
AcDbEntity
  8
0
  6
Continuous
 62
     7
370
    15
100
AcDbCircle
 10
76.0946836858
 20
104.696575051
 30
0.0
 40
2.672992890734857
100
AcDbArc
 50
2.1232554769
 51
21.8114601924
  0
LINE
  5
190
330
1F
100
AcDbEntity
  8
0
  6
Continuous
 62
     7
370
    15
100
AcDbLine
 10
78.7699820623
 20
97.5252677375
 30
0.0
 11
79.5319435685
 21
97.0126938695
 31
0.0
  0
ARC
  5
191
330
1F
100
AcDbEntity
  8
0
  6
Continuous
 62
     7
370
    15
100
AcDbCircle
 10
81.2515899219
 20
98.5184220037
 30
0.0
 40
2.672963330337269
100
AcDbArc
 50
182.123196436
 51
201.811581935
  0
LWPOLYLINE
  5
192
330
1F
100
AcDbEntity
  8
0
  6
Continuous
 62
     7
370
    15
100
AcDbPolyline
 90
       33
 70
   128
 43
0.0
 10
78.918433018
 20
99.0489412719
 10
78.9704308529
 20
99.05995323
 10
79.0110043865
 20
99.1688676798
 10
79.0385943521
 20
99.3714955324
 10
79.0521405554
 20
99.6600527936
 10
79.0511225034
 20
100.0234492743
 10
79.0355791953
 20
100.4477207237
 10
79.0061079581
 20
100.9165596837
 10
78.9638415128
 20
101.4119525129
 10
78.9104039697
 20
101.9148611152
 10
78.847848895
 20
102.405956822
 10
78.7785802651
 20
102.8663673127
 10
78.7052601492
 20
103.2784030461
 10
78.6307061473
 20
103.6262240881
 10
78.5577832405
 20
103.8964678222
 10
78.4892938948
 20
104.0787481391
 10
78.4278700277
 20
104.1660596305
 10
78.3758723093
 20
104.1550476724
 10
78.3352987757
 20
104.0461350852
 10
78.3077088101
 20
103.84350537
 10
78.2941624904
 20
103.5549481088
 10
78.2951805424
 20
103.1915516281
 10
78.3107238505
 20
102.7672820413
 10
78.3401950877
 20
102.2984412187
 10
78.3824616494
 20
101.8030483896
 10
78.4358991925
 20
101.3001397872
 10
78.4984542672
 20
100.8090440804
 10
78.5677227806
 20
100.3486335897
 10
78.6410428966
 20
99.9365997189
 10
78.7155970149
 20
99.5887768143
 10
78.7885199217
 20
99.3185330802
 10
78.8570092675
 20
99.1362527633
 10
78.918433018
 20
99.0489412719
  0
LINE
  5
193
330
1F
100
AcDbEntity
  8
0
  6
Continuous
 62
     7
370
    15
100
AcDbLine
 10
78.8932924308
 20
96.1081654453
 30
0.0
 11
78.6404055227
 21
96.0482832664
 31
0.0
  0
LINE
  5
194
330
1F
100
AcDbEntity
  8
0
  6
Continuous
 62
     7
370
    15
100
AcDbLine
 10
77.5255397577
 20
108.0683096001
 30
0.0
 11
77.2726528496
 21
108.0084283525
 31
0.0
  0
ARC
  5
195
330
1F
100
AcDbEntity
  8
0
  6
Continuous
 62
     7
370
    15
100
AcDbCircle
 10
84.8603089345
 20
96.7683703251
 30
0.0
 40
2.620471690918915
100
AcDbArc
 50
348.5010799381
 51
12.5564483964
  0
LINE
  5
196
330
1F
100
AcDbEntity
  8
0
  6
Continuous
 62
     7
370
    15
100
AcDbLine
 10
87.4181049559
 20
97.3380644494
 30
0.0
 11
86.312408993
 21
107.006685684
 31
0.0
  0
ARC
  5
197
330
1F
100
AcDbEntity
  8
0
  6
Continuous
 62
     7
370
    15
100
AcDbCircle
 10
85.5919656463
 20
96.9205326523
 30
0.0
 40
2.136113206593649
100
AcDbArc
 50
350.8318914587
 51
11.3242676506
  0
LINE
  5
198
330
1F
100
AcDbEntity
  8
0
  6
Continuous
 62
     7
370
    15
100
AcDbLine
 10
86.5807961356
 20
107.0086042085
 30
0.0
 11
87.6864920985
 21
97.3399829739
 31
0.0
  0
ARC
  5
199
330
1F
100
AcDbEntity
  8
0
  6
Continuous
 62
     7
370
    15
100
AcDbCircle
 10
82.8525467009
 20
106.7862290471
 30
0.0
 40
3.46687874160899
100
AcDbArc
 50
3.6458624488
 51
18.1667654265
  0
LINE
  5
19A
330
1F
100
AcDbEntity
  8
0
  6
Continuous
 62
     7
370
    15
100
AcDbLine
 10
86.1620260086
 20
107.8687662879
 30
0.0
 11
86.4481320288
 21
107.6344930255
 31
0.0
  0
ARC
  5
19B
330
1F
100
AcDbEntity
  8
0
  6
Continuous
 62
     7
370
    15
100
AcDbCircle
 10
84.7109937646
 20
106.9392829937
 30
0.0
 40
1.871086940104762
100
AcDbArc
 50
2.1232162647
 51
21.8114948819
  0
SPLINE
  5
19C
330
1F
100
AcDbEntity
  8
0
  6
Continuous
 62
     7
370
    15
100
AcDbSpline
210
0.0
220
0.0
230
1.0
 70
     8
 71
     3
 72
    21
 73
    17
 74
     0
 42
0.00000001
 43
0.00000001
 12
1.0
 22
0.0
 32
0.0
 13
1.0
 23
0.0
 33
0.0
 40
0.0
 40
0.0
 40
0.0
 40
0.0
 40
0.0310808703188758
 40
0.0621636815237494
 40
0.0932562723883595
 40
0.1243664742939644
 40
0.1866064136653744
 40
0.2489276383057082
 40
0.3736683575736566
 40
0.4985977584465079
 40
0.6237062689794961
 40
0.7489814733133342
 40
0.8116556715710875
 40
0.874423713019845
 40
0.9371708544517577
 40
1.0
 40
1.0
 40
1.0
 40
1.0
 10
87.68940804304597
 20
97.2036688305403
 30
0.0
 10
87.81313535115744
 20
97.2460398331103
 30
0.0
 10
88.06059769369554
 20
97.33078448416352
 30
0.0
 10
88.42914376483421
 20
97.46539350190164
 30
0.0
 10
88.79571890113178
 20
97.60547846577195
 30
0.0
 10
89.2815729675255
 20
97.80025199159537
 30
0.0
 10
89.88335536753675
 20
98.05834507019554
 30
0.0
 10
90.83314676421848
 20
98.5021286162999
 30
0.0
 10
91.99423768900158
 20
99.11386954814023
 30
0.0
 10
93.33894649568985
 20
99.93554368642725
 30
0.0
 10
94.63041078380266
 20
100.8418299054909
 30
0.0
 10
95.65751463825414
 20
101.6643524495274
 30
0.0
 10
96.44760532527243
 20
102.3606783714314
 30
0.0
 10
97.02351802225799
 20
102.9021062686749
 30
0.0
 10
97.58387937164719
 20
103.4606391021526
 30
0.0
 10
97.9422924874531
 20
103.8475709651071
 30
0.0
 10
98.12161607123551
 20
104.0411632341527
 30
0.0
  0
SPLINE
  5
19D
330
1F
100
AcDbEntity
  8
0
  6
Continuous
 62
     7
370
    15
100
AcDbSpline
210
0.0
220
0.0
230
1.0
 70
    24
 71
     3
 72
     9
 73
     5
 74
     0
 42
0.00000001
 43
0.00000001
 12
1.0
 22
0.0
 32
0.0
 13
1.0
 23
0.0
 33
0.0
 40
0.0
 40
0.0
 40
0.0
 40
0.0
 40
0.4969220958556503
 40
1.0
 40
1.0
 40
1.0
 40
1.0
 10
98.12161493862158
 20
104.0411627748884
 30
0.0
 10
98.12161493862158
 20
103.9334024711992
 30
0.0
 10
98.12161493862158
 20
103.7165469427615
 30
0.0
 10
98.12161493862158
 20
103.5008754097431
 30
0.0
 10
98.12161493862158
 20
103.3923758269286
 30
0.0
  0
SPLINE
  5
19E
330
1F
100
AcDbEntity
  8
0
  6
Continuous
 62
     7
370
    15
100
AcDbSpline
210
0.0
220
0.0
230
1.0
 70
     8
 71
     3
 72
    21
 73
    17
 74
     0
 42
0.00000001
 43
0.00000001
 12
1.0
 22
0.0
 32
0.0
 13
1.0
 23
0.0
 33
0.0
 40
0.0
 40
0.0
 40
0.0
 40
0.0
 40
0.0320488921056276
 40
0.0636577660386046
 40
0.0948266628767666
 40
0.1255556254817104
 40
0.1890089142733873
 40
0.250977166528919
 40
0.3785352988559819
 40
0.5013392122387681
 40
0.6280120176700701
 40
0.7510221649719008
 40
0.8143437205081112
 40
0.8769463228593829
 40
0.9388312933787566
 40
1.0
 40
1.0
 40
1.0
 40
1.0
 10
98.12161488548843
 20
103.392370628922
 30
0.0
 10
98.0296625011237
 20
103.2954436328005
 30
0.0
 10
97.84702020100019
 20
103.102920408547
 30
0.0
 10
97.56932844343977
 20
102.8215519586558
 30
0.0
 10
97.29158552558232
 20
102.5480351398026
 30
0.0
 10
96.91363620239915
 20
102.1871607605239
 30
0.0
 10
96.43253031248659
 20
101.7484888323984
 30
0.0
 10
95.63159743358432
 20
101.0621542277073
 30
0.0
 10
94.60367999974365
 20
100.2612062916827
 30
0.0
 10
93.3054585244135
 20
99.3727255247828
 30
0.0
 10
91.97078812479313
 20
98.57550977159266
 30
0.0
 10
90.8094986215661
 20
97.9763033495869
 30
0.0
 10
89.86508723826987
 20
97.54311885646125
 30
0.0
 10
89.14234518624836
 20
97.2392374891478
 30
0.0
 10
88.41928579772842
 20
96.95955856180807
 30
0.0
 10
87.93311097433097
 20
96.79303653063859
 30
0.0
 10
87.69143851211717
 20
96.71026015607369
 30
0.0
  0
LINE
  5
19F
330
1F
100
AcDbEntity
  8
0
  6
Continuous
 62
     7
370
    15
100
AcDbLine
 10
86.4661009666
 20
107.9007255533
 30
0.0
 11
83.55822411
 21
107.5950952867
 31
0.0
  0
LINE
  5
1A0
330
1F
100
AcDbEntity
  8
0
  6
Continuous
 62
     7
370
    15
100
AcDbLine
 10
83.55822411
 20
107.5950952867
 30
0.0
 11
83.5007554535
 21
108.0976220468
 31
0.0
  0
LINE
  5
1A1
330
1F
100
AcDbEntity
  8
0
  6
Continuous
 62
     7
370
    15
100
AcDbLine
 10
83.5007554535
 20
108.0976220468
 30
0.0
 11
78.8521086481
 21
107.609029735
 31
0.0
  0
LINE
  5
1A2
330
1F
100
AcDbEntity
  8
0
  6
Continuous
 62
     7
370
    15
100
AcDbLine
 10
78.8521086481
 20
107.609029735
 30
0.0
 11
77.5415673536
 21
119.0688969722
 31
0.0
  0
LINE
  5
1A3
330
1F
100
AcDbEntity
  8
0
  6
Continuous
 62
     7
370
    15
100
AcDbLine
 10
98.1216141638
 20
121.2319472028
 30
0.0
 11
77.5415673536
 21
119.0688969722
 31
0.0
  0
LINE
  5
1A4
330
1F
100
AcDbEntity
  8
0
  6
Continuous
 62
     7
370
    15
100
AcDbLine
 10
98.1216141638
 20
104.0411618227
 30
0.0
 11
98.1216141638
 21
121.2319472028
 31
0.0
  0
LINE
  5
1A5
330
1F
100
AcDbEntity
  8
0
  6
Continuous
 62
     7
370
    15
100
AcDbLine
 10
86.4661009666
 20
107.9007255533
 30
0.0
 11
86.5251007173
 21
107.3848110312
 31
0.0
  0
SPLINE
  5
1A6
330
1F
100
AcDbEntity
  8
0
  6
Continuous
 62
     7
370
    15
100
AcDbSpline
210
0.0
220
0.0
230
1.0
 70
     8
 71
     3
 72
    10
 73
     6
 74
     0
 42
0.00000001
 43
0.00000001
 12
1.0
 22
0.0
 32
0.0
 13
1.0
 23
0.0
 33
0.0
 40
0.0
 40
0.0
 40
0.0
 40
0.0
 40
0.5
 40
0.5
 40
1.0
 40
1.0
 40
1.0
 40
1.0
 10
77.0971951517429
 20
105.5512195880011
 30
0.0
 10
77.12151369001889
 20
105.5466852203245
 30
0.0
 10
77.15303216898953
 20
105.4634221867913
 30
0.0
 10
77.21958829223577
 20
105.1781050689464
 30
0.0
 10
77.25298356405548
 20
104.9836650588814
 30
0.0
 10
77.2818107321059
 20
104.7659660882775
 30
0.0
  0
ARC
  5
1A7
330
1F
100
AcDbEntity
  8
0
  6
Continuous
 62
     7
370
    15
100
AcDbCircle
 10
80.1216149386
 20
121.771666097
 30
0.0
 40
16.50000000000002
100
AcDbArc
 50
257.6452090925
 51
259.4380719152
  0
ARC
  5
1A8
330
1F
100
AcDbEntity
  8
0
  6
Continuous
 62
     7
370
    15
100
AcDbCircle
 10
80.1216149386
 20
121.771666097
 30
0.0
 40
16.5
100
AcDbArc
 50
112.5619280848
 51
114.3547909075
  0
SPLINE
  5
1A9
330
1F
100
AcDbEntity
  8
0
  6
Continuous
 62
     7
370
    15
100
AcDbSpline
210
0.0
220
0.0
230
1.0
 70
     8
 71
     3
 72
    10
 73
     6
 74
     0
 42
0.00000001
 43
0.00000001
 12
1.0
 22
0.0
 32
0.0
 13
1.0
 23
0.0
 33
0.0
 40
0.0
 40
0.0
 40
0.0
 40
0.0
 40
0.5
 40
0.5
 40
1.0
 40
1.0
 40
1.0
 40
1.0
 10
73.80818342510217
 20
137.8153222652506
 30
0.0
 10
73.82525381047441
 20
137.5963171187705
 30
0.0
 10
73.83296642238692
 20
137.3990857443698
 30
0.0
 10
73.82730012061053
 20
137.1079831643755
 30
0.0
 10
73.81371688942036
 20
137.0183389973008
 30
0.0
 10
73.79086552096079
 20
137.0088447010579
 30
0.0
  0
SPLINE
  5
1AA
330
1F
100
AcDbEntity
  8
0
  6
Continuous
 62
     7
370
    15
100
AcDbSpline
210
0.0
220
0.0
230
1.0
 70
     8
 71
     3
 72
     8
 73
     4
 74
     0
 42
0.00000001
 43
0.00000001
 12
1.0
 22
0.0
 32
0.0
 13
1.0
 23
0.0
 33
0.0
 40
0.0
 40
0.0
 40
0.0
 40
0.0
 40
1.0
 40
1.0
 40
1.0
 40
1.0
 10
73.74667602607911
 20
138.6049709971926
 30
0.0
 10
73.76716279683725
 20
138.3417845653028
 30
0.0
 10
73.78766457411193
 20
138.0785696301304
 30
0.0
 10
73.80818342510217
 20
137.8153222652506
 30
0.0
  0
ARC
  5
1AB
330
1F
100
AcDbEntity
  8
0
  6
Continuous
 62
     7
370
    15
100
AcDbCircle
 10
80.1216149386
 20
121.771666097
 30
0.0
 40
18.00000000000001
100
AcDbArc
 50
109.8362100225
 51
110.74217203
  0
LINE
  5
1AC
330
1F
100
AcDbEntity
  8
0
  6
Continuous
 62
     7
370
    15
100
AcDbLine
 10
77.5415673536
 20
119.0688969722
 30
0.0
 11
74.0136303622
 21
138.7036637092
 31
0.0
  0
ARC
  5
1AD
330
1F
100
AcDbEntity
  8
0
  6
Continuous
 62
     7
370
    15
100
AcDbCircle
 10
97.4301859437
 20
108.295113756
 30
0.0
 40
20.0983498898193
100
AcDbArc
 50
183.0620122061
 51
189.9858957327
  0
LWPOLYLINE
  5
1AE
330
1F
100
AcDbEntity
  8
0
  6
Continuous
 62
     7
370
    15
100
AcDbPolyline
 90
        3
 70
   128
 43
0.0
 10
77.3859168086
 20
108.45583758
 10
77.4146450833
 20
108.5283727074
 10
77.4648128692
 20
108.5422661775
  0
SPLINE
  5
1AF
330
1F
100
AcDbEntity
  8
0
  6
Continuous
 62
     7
370
    15
100
AcDbSpline
210
0.0
220
0.0
230
1.0
 70
     8
 71
     3
 72
     8
 73
     4
 74
     0
 42
0.00000001
 43
0.00000001
 12
1.0
 22
0.0
 32
0.0
 13
1.0
 23
0.0
 33
0.0
 40
0.0
 40
0.0
 40
0.0
 40
0.0
 40
1.0
 40
1.0
 40
1.0
 40
1.0
 10
77.2818107321059
 20
104.7659660882775
 30
0.0
 10
77.61523955408683
 20
102.2479556063609
 30
0.0
 10
77.94951038313049
 20
99.73292745260244
 30
0.0
 10
78.284041700863
 20
97.21882193095243
 30
0.0
  0
LWPOLYLINE
  5
1B0
330
1F
100
AcDbEntity
  8
0
  6
Continuous
 62
     7
370
    15
100
AcDbPolyline
 90
       41
 70
   128
 43
0.0
 10
77.6687122099
 20
113.5963088521
 10
77.7282253523
 20
112.9739618549
 10
77.7759216409
 20
112.3669388393
 10
77.8106266782
 20
111.7901866013
 10
77.8314859756
 20
111.2579068789
 10
77.8379856758
 20
110.783207106
 10
77.8299658243
 20
110.3777744496
 10
77.8076240942
 20
110.051593619
 10
77.7715101987
 20
109.8126944774
 10
77.7225137837
 20
109.666961121
 10
77.6618411448
 20
109.6179819354
 10
77.5909863562
 20
109.666961121
 10
77.5116940178
 20
109.8126944774
 10
77.4259164147
 20
110.051593619
 10
77.3357657865
 20
110.3777744496
 10
77.2434621733
 20
110.783207106
 10
77.1512780022
 20
111.2579068789
 10
77.061483372
 20
111.7901866013
 10
76.9762894754
 20
112.3669388393
 10
76.8977936506
 20
112.9739618549
 10
76.8279290907
 20
113.5963088521
 10
76.7684159484
 20
114.2186567807
 10
76.7207196597
 20
114.825680262
 10
76.6860146225
 20
115.4024320343
 10
76.6651555579
 20
115.9347117567
 10
76.6586558577
 20
116.4094115296
 10
76.6666757092
 20
116.8148437203
 10
76.6890174393
 20
117.1410250166
 10
76.7251313348
 20
117.3799236925
 10
76.7741275169
 20
117.525657049
 10
76.8348001559
 20
117.5746367002
 10
76.9056551773
 20
117.525657049
 10
76.9849475157
 20
117.3799236925
 10
77.0707251188
 20
117.1410250166
 10
77.1608755142
 20
116.8148437203
 10
77.2531793602
 20
116.4094115296
 10
77.3453632985
 20
115.9347117567
 10
77.4351579286
 20
115.4024320343
 10
77.5203520581
 20
114.825680262
 10
77.59884765
 20
114.2186567807
 10
77.6687122099
 20
113.5963088521
  0
LINE
  5
1B1
330
1F
100
AcDbEntity
  8
0
  6
Continuous
 62
     7
370
    15
100
AcDbLine
 10
77.4648128692
 20
108.5422661775
 30
0.0
 11
78.8521086481
 21
107.609029735
 31
0.0
  0
ELLIPSE
  5
1B2
330
1F
100
AcDbEntity
  8
0
  6
Continuous
 62
     7
370
    15
100
AcDbEllipse
 10
80.1216149386
 20
118.2614690647
 30
0.0
 11
-21.75048845429367
 21
30.80469282832163
 31
0.0
210
0.0
220
0.0
230
1.0
 40
0.4001153713
 41
2.01278142821673
 42
2.022711355553866
  0
LINE
  5
1B3
330
1F
100
AcDbEntity
  8
0
  6
Continuous
 62
     7
370
    15
100
AcDbLine
 10
83.4122500066
 20
107.6932920763
 30
0.0
 11
83.55822411
 21
107.5950952867
 31
0.0
  0
LINE
  5
1B4
330
1F
100
AcDbEntity
  8
0
  6
Continuous
 62
     7
370
    15
100
AcDbLine
 10
98.1216141638
 20
121.2319472028
 30
0.0
 11
98.1216141638
 21
121.771666097
 31
0.0
  0
ARC
  5
1B5
330
1F
100
AcDbEntity
  8
0
  6
Continuous
 62
     7
370
    15
100
AcDbCircle
 10
80.1216149386
 20
121.771666097
 30
0.0
 40
18.0
100
AcDbArc
 50
0.0
 51
109.8362100225
  0
SPLINE
  5
1B6
330
1F
100
AcDbEntity
  8
0
  6
Continuous
 62
     7
370
    15
100
AcDbSpline
210
0.0
220
0.0
230
1.0
 70
     8
 71
     3
 72
    10
 73
     6
 74
     0
 42
0.00000001
 43
0.00000001
 12
1.0
 22
0.0
 32
0.0
 13
1.0
 23
0.0
 33
0.0
 40
0.0
 40
0.0
 40
0.0
 40
0.0
 40
0.5
 40
0.5
 40
1.0
 40
1.0
 40
1.0
 40
1.0
 10
73.31725041638768
 20
136.803320146036
 30
0.0
 10
73.30056376752394
 20
136.7957666165872
 30
0.0
 10
73.23444493864515
 20
136.7659800987306
 30
0.0
 10
73.0313767341692
 20
136.6710313584863
 30
0.0
 10
72.89786145548238
 20
136.6072102989354
 30
0.0
 10
72.75362397193697
 20
136.5352262745509
 30
0.0
  0
SPLINE
  5
1B7
330
1F
100
AcDbEntity
  8
0
  6
Continuous
 62
     7
370
    15
100
AcDbSpline
210
0.0
220
0.0
230
1.0
 70
     8
 71
     3
 72
    10
 73
     6
 74
     0
 42
0.00000001
 43
0.00000001
 12
1.0
 22
0.0
 32
0.0
 13
1.0
 23
0.0
 33
0.0
 40
0.0
 40
0.0
 40
0.0
 40
0.0
 40
0.5
 40
0.5
 40
1.0
 40
1.0
 40
1.0
 40
1.0
 10
75.9841490113258
 20
105.798833671314
 30
0.0
 10
76.14031549217391
 20
105.7583816415003
 30
0.0
 10
76.28369986994129
 20
105.7238363809798
 30
0.0
 10
76.5009154924211
 20
105.6734374308063
 30
0.0
 10
76.57328762286934
 20
105.6577060170702
 30
0.0
 10
76.59119871579372
 20
105.6537828212047
 30
0.0
  0
ELLIPSE
  5
1B8
330
1F
100
AcDbEntity
  8
0
  6
Continuous
 62
     7
370
    15
100
AcDbEllipse
 10
70.0973235934
 20
114.6757605954
 30
0.0
 11
-1.72540199708591
 21
2.404881739335281
 31
0.0
210
0.0
220
0.0
230
1.0
 40
0.6916281361
 41
0.0
 42
6.283185307179586
  0
ARC
  5
1B9
330
1F
100
AcDbEntity
  8
0
  6
Continuous
 62
     7
370
    15
100
AcDbCircle
 10
80.1216149386
 20
121.771666097
 30
0.0
 40
16.50000000000002
100
AcDbArc
 50
116.5222239123
 51
255.4777760877
  0
SPLINE
  5
1BA
330
1F
100
AcDbEntity
  8
0
  6
Continuous
 62
     7
370
    15
100
AcDbSpline
210
0.0
220
0.0
230
1.0
 70
     8
 71
     3
 72
    24
 73
    20
 74
     0
 42
0.00000001
 43
0.00000001
 12
1.0
 22
0.0
 32
0.0
 13
1.0
 23
0.0
 33
0.0
 40
0.0
 40
0.0
 40
0.0
 40
0.0
 40
0.0812639665497233
 40
0.1218959204274625
 40
0.1425112065208001
 40
0.1634645627407583
 40
0.1839831363473125
 40
0.2045662115126993
 40
0.2268006804744324
 40
0.2496484568380122
 40
0.2987909424928757
 40
0.3481962345210475
 40
0.4477658340915004
 40
0.5459803650958549
 40
0.6448200577825568
 40
0.7459251604181298
 40
0.8479875420063916
 40
0.9632677001083197
 40
1.0
 40
1.0
 40
1.0
 40
1.0
 10
68.82253286058193
 20
116.0958142639691
 30
0.0
 10
68.87174513286739
 20
116.1398950731935
 30
0.0
 10
68.94556352349309
 20
116.2060162710839
 30
0.0
 10
69.03812851605481
 20
116.2893510375133
 30
0.0
 10
69.09720246318241
 20
116.3366316130368
 30
0.0
 10
69.14717005879947
 20
116.370655779552
 30
0.0
 10
69.20648369293532
 20
116.3985307896359
 30
0.0
 10
69.27222837060629
 20
116.4131330991758
 30
0.0
 10
69.33704536327504
 20
116.4169605278461
 30
0.0
 10
69.42537490500831
 20
116.415300174041
 30
0.0
 10
69.53316578112229
 20
116.4073704001481
 30
0.0
 10
69.7025695476214
 20
116.3947430914265
 30
0.0
 10
69.90554153702767
 20
116.3851428942015
 30
0.0
 10
70.13784884985056
 20
116.3897251026234
 30
0.0
 10
70.35878779401942
 20
116.4125004495003
 30
0.0
 10
70.56781416057021
 20
116.4559457481667
 30
0.0
 10
70.76768819219633
 20
116.5267995862041
 30
0.0
 10
70.90976153455719
 20
116.6033547995744
 30
0.0
 10
70.97899587041147
 20
116.6637215467111
 30
0.0
 10
70.99572565967327
 20
116.6783085712785
 30
0.0
  0
SPLINE
  5
1BB
330
1F
100
AcDbEntity
  8
0
  6
Continuous
 62
     7
370
    15
100
AcDbSpline
210
0.0
220
0.0
230
1.0
 70
     8
 71
     3
 72
    17
 73
    13
 74
     0
 42
0.00000001
 43
0.00000001
 12
1.0
 22
0.0
 32
0.0
 13
1.0
 23
0.0
 33
0.0
 40
0.0
 40
0.0
 40
0.0
 40
0.0
 40
0.0614004616602251
 40
0.2219655711170363
 40
0.3832435341854374
 40
0.5041886643448787
 40
0.5771113695331478
 40
0.6239033539127112
 40
0.6711592731126995
 40
0.7360962943610017
 40
0.8671523388206407
 40
1.0
 40
1.0
 40
1.0
 40
1.0
 10
69.66007311457876
 20
117.2841525325174
 30
0.0
 10
69.646791681347
 20
117.2587584582947
 30
0.0
 10
69.5987786724407
 20
117.1669576796779
 30
0.0
 10
69.50845110738544
 20
117.0177655735703
 30
0.0
 10
69.39788849395994
 20
116.8527645977271
 30
0.0
 10
69.29937371127762
 20
116.7290080490022
 30
0.0
 10
69.21994249925442
 20
116.6521805262909
 30
0.0
 10
69.15009901674286
 20
116.608710306415
 30
0.0
 10
69.07150634533704
 20
116.5870950054399
 30
0.0
 10
68.95473829578836
 20
116.5890122844307
 30
0.0
 10
68.8089756593279
 20
116.6181050421174
 30
0.0
 10
68.69424113530033
 20
116.6515687535701
 30
0.0
 10
68.63648441249615
 20
116.6684142002458
 30
0.0
  0
SPLINE
  5
1BC
330
1F
100
AcDbEntity
  8
0
  6
Continuous
 62
     7
370
    15
100
AcDbSpline
210
0.0
220
0.0
230
1.0
 70
     8
 71
     3
 72
    10
 73
     6
 74
     0
 42
0.00000001
 43
0.00000001
 12
1.0
 22
0.0
 32
0.0
 13
1.0
 23
0.0
 33
0.0
 40
0.0
 40
0.0
 40
0.0
 40
0.0
 40
0.5
 40
0.5
 40
1.0
 40
1.0
 40
1.0
 40
1.0
 10
68.63648419209754
 20
116.6684141991797
 30
0.0
 10
68.64174760030296
 20
116.5706293493818
 30
0.0
 10
68.658060574173
 20
116.4742784368596
 30
0.0
 10
68.7195594965618
 20
116.2829166195528
 30
0.0
 10
68.76524559379331
 20
116.1876368967407
 30
0.0
 10
68.82253319568176
 20
116.0958142437407
 30
0.0
  0
LWPOLYLINE
  5
1BD
330
1F
100
AcDbEntity
  8
0
  6
Continuous
 62
     7
370
    15
100
AcDbPolyline
 90
        9
 70
   128
 43
0.0
 10
68.8225328606
 20
116.095814264
 10
68.8056191113
 20
116.147869608
 10
68.7867486533
 20
116.2059473494
 10
68.7659857478
 20
116.2698491165
 10
68.7434011754
 20
116.3393560486
 10
68.7190731671
 20
116.4142311239
 10
68.6930846106
 20
116.4942172976
 10
68.6655230504
 20
116.579041692
 10
68.6364844125
 20
116.6684142002
  0
SPLINE
  5
1BE
330
1F
100
AcDbEntity
  8
0
  6
Continuous
 62
     7
370
    15
100
AcDbSpline
210
0.0
220
0.0
230
1.0
 70
    24
 71
     3
 72
     9
 73
     5
 74
     0
 42
0.00000001
 43
0.00000001
 12
1.0
 22
0.0
 32
0.0
 13
1.0
 23
0.0
 33
0.0
 40
0.0
 40
0.0
 40
0.0
 40
0.0
 40
0.2459830061797917
 40
1.0
 40
1.0
 40
1.0
 40
1.0
 10
77.26595338063424
 20
104.8716668659443
 30
0.0
 10
77.12777695937761
 20
104.8716668659443
 30
0.0
 10
76.56604538530446
 20
104.8716668659443
 30
0.0
 10
76.0030194791075
 20
104.8716668659443
 30
0.0
 10
75.57848837787395
 20
104.8716668659443
 30
0.0
  0
SPLINE
  5
1BF
330
1F
100
AcDbEntity
  8
0
  6
Continuous
 62
     7
370
    15
100
AcDbSpline
210
0.0
220
0.0
230
1.0
 70
    24
 71
     3
 72
    12
 73
     8
 74
     0
 42
0.00000001
 43
0.00000001
 12
1.0
 22
0.0
 32
0.0
 13
1.0
 23
0.0
 33
0.0
 40
0.0
 40
0.0
 40
0.0
 40
0.0
 40
0.5
 40
0.5
 40
0.75
 40
0.75
 40
1.0
 40
1.0
 40
1.0
 40
1.0
 10
67.24421225019096
 20
133.6216660970444
 30
0.0
 10
67.42673895373866
 20
133.6216660970444
 30
0.0
 10
67.61132960907383
 20
133.6216660970444
 30
0.0
 10
67.87161093124834
 20
133.6216660970444
 30
0.0
 10
67.95616538405942
 20
133.6216660970444
 30
0.0
 10
68.12011333380363
 20
133.6216660970444
 30
0.0
 10
68.19956355784501
 20
133.6216660970444
 30
0.0
 10
68.27161493862336
 20
133.6216660970444
 30
0.0
  0
SPLINE
  5
1C0
330
1F
100
AcDbEntity
  8
0
  6
Continuous
 62
     7
370
    15
100
AcDbSpline
210
0.0
220
0.0
230
1.0
 70
    24
 71
     3
 72
    10
 73
     6
 74
     0
 42
0.00000001
 43
0.00000001
 12
1.0
 22
0.0
 32
0.0
 13
1.0
 23
0.0
 33
0.0
 40
0.0
 40
0.0
 40
0.0
 40
0.0
 40
0.5
 40
0.5
 40
1.0
 40
1.0
 40
1.0
 40
1.0
 10
68.27161493862157
 20
134.6490687854751
 30
0.0
 10
68.27161493862157
 20
134.4663600733401
 30
0.0
 10
68.27161493862157
 20
134.2828517835793
 30
0.0
 10
68.27161493862158
 20
133.9345478052586
 30
0.0
 10
68.27161493862157
 20
133.7663602227157
 30
0.0
 10
68.27161493862157
 20
133.621666097043
 30
0.0
  0
SPLINE
  5
1C1
330
1F
100
AcDbEntity
  8
0
  6
Continuous
 62
     7
370
    15
100
AcDbSpline
210
0.0
220
0.0
230
1.0
 70
    24
 71
     3
 72
    10
 73
     6
 74
     0
 42
0.00000001
 43
0.00000001
 12
1.0
 22
0.0
 32
0.0
 13
1.0
 23
0.0
 33
0.0
 40
0.0
 40
0.0
 40
0.0
 40
0.0
 40
0.5
 40
0.5
 40
1.0
 40
1.0
 40
1.0
 40
1.0
 10
75.62161493862158
 20
140.6425431301873
 30
0.0
 10
75.62161493862158
 20
140.8009775730752
 30
0.0
 10
75.62161493862158
 20
140.9599982678772
 30
0.0
 10
75.62161493862158
 20
141.1900060921328
 30
0.0
 10
75.62161493862158
 20
141.2588413669496
 30
0.0
 10
75.62161493862158
 20
141.2588413669496
 30
0.0
  0
ARC
  5
1C2
330
1F
100
AcDbEntity
  8
0
  6
Continuous
 62
     7
370
    15
100
AcDbCircle
 10
80.1216149386
 20
121.771666097
 30
0.0
 40
20.00000000000003
100
AcDbArc
 50
103.0028781629
 51
126.3346172154
  0
SPLINE
  5
1C3
330
1F
100
AcDbEntity
  8
0
  6
Continuous
 62
     7
370
    15
100
AcDbSpline
210
0.0
220
0.0
230
1.0
 70
    24
 71
     3
 72
    12
 73
     8
 74
     0
 42
0.00000001
 43
0.00000001
 12
1.0
 22
0.0
 32
0.0
 13
1.0
 23
0.0
 33
0.0
 40
0.0
 40
0.0
 40
0.0
 40
0.0
 40
0.2500000000000014
 40
0.2500000000000014
 40
0.5000000000000029
 40
0.5000000000000029
 40
1.0
 40
1.0
 40
1.0
 40
1.0
 10
68.27161493862157
 20
137.8830750981219
 30
0.0
 10
68.27161493862157
 20
137.8830750981219
 30
0.0
 10
68.27161493862157
 20
137.8574504655171
 30
0.0
 10
68.27161493862157
 20
137.7689070925854
 30
0.0
 10
68.27161493862157
 20
137.7060246094707
 30
0.0
 10
68.27161493862157
 20
137.4886634215371
 30
0.0
 10
68.27161493862157
 20
137.3100164115258
 30
0.0
 10
68.27161493862157
 20
137.1319232563501
 30
0.0
  0
SPLINE
  5
1C4
330
1F
100
AcDbEntity
  8
0
  6
Continuous
 62
     7
370
    15
100
AcDbSpline
210
0.0
220
0.0
230
1.0
 70
    24
 71
     3
 72
    10
 73
     6
 74
     0
 42
0.00000001
 43
0.00000001
 12
1.0
 22
0.0
 32
0.0
 13
1.0
 23
0.0
 33
0.0
 40
0.0
 40
0.0
 40
0.0
 40
0.0
 40
0.5
 40
0.5
 40
1.0
 40
1.0
 40
1.0
 40
1.0
 10
74.62161493862158
 20
103.1676342759579
 30
0.0
 10
74.62161493862158
 20
103.0080021070547
 30
0.0
 10
74.62161493862158
 20
102.8469524732906
 30
0.0
 10
74.62161493862158
 20
102.613961589614
 30
0.0
 10
74.62161493862158
 20
102.542781574015
 30
0.0
 10
74.62161493862158
 20
102.542781574015
 30
0.0
  0
ARC
  5
1C5
330
1F
100
AcDbEntity
  8
0
  6
Continuous
 62
     7
370
    15
100
AcDbCircle
 10
80.1216149386
 20
121.771666097
 30
0.0
 40
20.00000000000002
100
AcDbArc
 50
143.6653827846
 51
254.0379858372
  0
SPLINE
  5
1C6
330
1F
100
AcDbEntity
  8
0
  6
Continuous
 62
     7
370
    15
100
AcDbSpline
210
0.0
220
0.0
230
1.0
 70
    24
 71
     3
 72
    12
 73
     8
 74
     0
 42
0.00000001
 43
0.00000001
 12
1.0
 22
0.0
 32
0.0
 13
1.0
 23
0.0
 33
0.0
 40
0.0
 40
0.0
 40
0.0
 40
0.0
 40
0.249999999999998
 40
0.249999999999998
 40
0.499999999999996
 40
0.499999999999996
 40
1.0
 40
1.0
 40
1.0
 40
1.0
 10
64.0102059375441
 20
133.6216660970444
 30
0.0
 10
64.0102059375441
 20
133.6216660970444
 30
0.0
 10
64.03548608770856
 20
133.6216660970444
 30
0.0
 10
64.12509743321031
 20
133.6216660970444
 30
0.0
 10
64.18808307013632
 20
133.6216660970444
 30
0.0
 10
64.40436979189387
 20
133.6216660970444
 30
0.0
 10
64.58434954931425
 20
133.6216660970444
 30
0.0
 10
64.76135777931594
 20
133.6216660970444
 30
0.0
  0
SPLINE
  5
1C7
330
1F
100
AcDbEntity
  8
0
  6
Continuous
 62
     7
370
    15
100
AcDbSpline
210
0.0
220
0.0
230
1.0
 70
    24
 71
     3
 72
    10
 73
     6
 74
     0
 42
0.00000001
 43
0.00000001
 12
1.0
 22
0.0
 32
0.0
 13
1.0
 23
0.0
 33
0.0
 40
0.0
 40
0.0
 40
0.0
 40
0.0
 40
0.5
 40
0.5
 40
1.0
 40
1.0
 40
1.0
 40
1.0
 10
84.62161493862156
 20
141.2588413669495
 30
0.0
 10
84.62161493862156
 20
141.2588413669495
 30
0.0
 10
84.62161493862156
 20
141.1902559644437
 30
0.0
 10
84.62161493862156
 20
140.9604826951241
 30
0.0
 10
84.62161493862156
 20
140.8019844934564
 30
0.0
 10
84.62161493862156
 20
140.6425431301873
 30
0.0
  0
ARC
  5
1C8
330
1F
100
AcDbEntity
  8
0
  6
Continuous
 62
     7
370
    15
100
AcDbCircle
 10
80.1216149386
 20
121.771666097
 30
0.0
 40
20.00000000000001
100
AcDbArc
 50
334.1580672368
 51
76.9971218371
  0
LINE
  5
1C9
330
1F
100
AcDbEntity
  8
0
  6
Continuous
 62
     7
370
    15
100
AcDbLine
 10
84.6216147449
 20
140.6425431991
 30
0.0
 11
84.6216147449
 21
139.2000903064
 31
0.0
  0
LINE
  5
1CA
330
1F
100
AcDbEntity
  8
0
  6
Continuous
 62
     7
370
    15
100
AcDbLine
 10
74.6216149684
 20
104.8716668659
 30
0.0
 11
74.6216149684
 21
103.1676334018
 31
0.0
  0
LINE
  5
1CB
330
1F
100
AcDbEntity
  8
0
  6
Continuous
 62
     7
370
    15
100
AcDbLine
 10
75.5784883779
 20
104.8716668659
 30
0.0
 11
74.6216149684
 21
104.8716668659
 31
0.0
  0
LINE
  5
1CC
330
1F
100
AcDbEntity
  8
0
  6
Continuous
 62
     7
370
    15
100
AcDbLine
 10
64.7613573503
 20
133.6216664562
 30
0.0
 11
67.2442121115
 21
133.6216664562
 31
0.0
  0
LINE
  5
1CD
330
1F
100
AcDbEntity
  8
0
  6
Continuous
 62
     7
370
    15
100
AcDbLine
 10
75.6216151323
 20
139.2000903064
 30
0.0
 11
75.6216151323
 21
140.6425431991
 31
0.0
  0
LINE
  5
1CE
330
1F
100
AcDbEntity
  8
0
  6
Continuous
 62
     7
370
    15
100
AcDbLine
 10
68.2716145795
 20
137.1319236854
 30
0.0
 11
68.2716145795
 21
134.6490689242
 31
0.0
  0
SPLINE
  5
1CF
330
1F
100
AcDbEntity
  8
0
  6
Continuous
 62
     7
370
    15
100
AcDbSpline
210
0.0
220
0.0
230
1.0
 70
     8
 71
     3
 72
    22
 73
    18
 74
     0
 42
0.00000001
 43
0.00000001
 12
1.0
 22
0.0
 32
0.0
 13
1.0
 23
0.0
 33
0.0
 40
0.0
 40
0.0
 40
0.0
 40
0.0
 40
0.2500000000000001
 40
0.2500000000000001
 40
0.3750000000000001
 40
0.3750000000000001
 40
0.5000000000000001
 40
0.5000000000000001
 40
0.6250000000000001
 40
0.6250000000000001
 40
0.7500000000000002
 40
0.7500000000000002
 40
0.8750000000000002
 40
0.8750000000000002
 40
0.9375000000000001
 40
0.9375000000000001
 40
1.0
 40
1.0
 40
1.0
 40
1.0
 10
64.0102059375441
 20
133.6216660970444
 30
0.0
 10
64.42420081571058
 20
134.1845387389425
 30
0.0
 10
64.86001061701953
 20
134.715163622672
 30
0.0
 10
65.53675142000385
 20
135.4608746135936
 30
0.0
 10
65.76760654717854
 20
135.7024948399923
 30
0.0
 10
66.22764360234068
 20
136.1613536153182
 30
0.0
 10
66.45361127911919
 20
136.375532287788
 30
0.0
 10
66.89080286761991
 20
136.7727608469336
 30
0.0
 10
67.10385559191245
 20
136.9572056819534
 30
0.0
 10
67.48803173114598
 20
137.2782855298369
 30
0.0
 10
67.66214873993746
 20
137.417636359943
 30
0.0
 10
67.95566648473799
 20
137.6469418943686
 30
0.0
 10
68.0704587893354
 20
137.7334779038449
 30
0.0
 10
68.18941336543136
 20
137.8223675081761
 30
0.0
 10
68.22023144841796
 20
137.8451760140377
 30
0.0
 10
68.26125066013658
 20
137.875467176734
 30
0.0
 10
68.27161493862157
 20
137.8830750981219
 30
0.0
 10
68.27161493862157
 20
137.8830750981219
 30
0.0
  0
SPLINE
  5
1D0
330
1F
100
AcDbEntity
  8
0
  6
Continuous
 62
     7
370
    15
100
AcDbSpline
210
0.0
220
0.0
230
1.0
 70
     8
 71
     3
 72
    21
 73
    17
 74
     0
 42
0.00000001
 43
0.00000001
 12
1.0
 22
0.0
 32
0.0
 13
1.0
 23
0.0
 33
0.0
 40
0.0
 40
0.0
 40
0.0
 40
0.0
 40
0.1225904152641072
 40
0.2222496474229917
 40
0.2641897312720148
 40
0.3867173950421942
 40
0.4862257740511524
 40
0.5280737248986697
 40
0.6196522906313799
 40
0.6955272032307956
 40
0.7638426604627268
 40
0.7982007239441935
 40
0.8321215412448812
 40
0.9003439259341965
 40
0.9694106027995613
 40
1.0
 40
1.0
 40
1.0
 40
1.0
 10
74.6216149684239
 20
102.5427811467642
 30
0.0
 10
74.63160232657279
 20
102.5399097415492
 30
0.0
 10
74.64970885490537
 20
102.5347040425941
 30
0.0
 10
74.75965570848125
 20
102.5037054324558
 30
0.0
 10
74.90627321872896
 20
102.4634314319782
 30
0.0
 10
75.10124525529608
 20
102.4112500728802
 30
0.0
 10
75.35500105360467
 20
102.3474932969243
 30
0.0
 10
75.60956706291566
 20
102.2868020245883
 30
0.0
 10
75.86358281060205
 20
102.2292486230633
 30
0.0
 10
76.18179003714144
 20
102.1627406131211
 30
0.0
 10
76.44193252869482
 20
102.1125867923226
 30
0.0
 10
76.65034245076913
 20
102.0750003144501
 30
0.0
 10
76.8644642929946
 20
102.0381088141855
 30
0.0
 10
77.14415918148808
 20
101.9937853120394
 30
0.0
 10
77.42833303889704
 20
101.9525061249066
 30
0.0
 10
77.60457208169422
 20
101.9312744148855
 30
0.0
 10
77.65866859445458
 20
101.9247573488946
 30
0.0
  0
SPLINE
  5
1D1
330
1F
100
AcDbEntity
  8
0
  6
Continuous
 62
     7
370
    15
100
AcDbSpline
210
0.0
220
0.0
230
1.0
 70
     8
 71
     3
 72
    38
 73
    34
 74
     0
 42
0.00000001
 43
0.00000001
 12
1.0
 22
0.0
 32
0.0
 13
1.0
 23
0.0
 33
0.0
 40
0.0
 40
0.0
 40
0.0
 40
0.0
 40
0.0625
 40
0.0625
 40
0.1250000000000001
 40
0.1250000000000001
 40
0.1875000000000001
 40
0.1875000000000001
 40
0.2500000000000002
 40
0.2500000000000002
 40
0.3125000000000002
 40
0.3125000000000002
 40
0.3750000000000002
 40
0.3750000000000002
 40
0.4375000000000003
 40
0.4375000000000003
 40
0.5000000000000003
 40
0.5000000000000003
 40
0.5625000000000003
 40
0.5625000000000003
 40
0.6250000000000004
 40
0.6250000000000004
 40
0.6875000000000003
 40
0.6875000000000003
 40
0.7500000000000002
 40
0.7500000000000002
 40
0.8125000000000002
 40
0.8125000000000002
 40
0.8750000000000001
 40
0.8750000000000001
 40
0.9375000000000001
 40
0.9375000000000001
 40
1.0
 40
1.0
 40
1.0
 40
1.0
 10
75.62161493862158
 20
141.2588413669495
 30
0.0
 10
75.62161493862158
 20
141.2588413669495
 30
0.0
 10
75.65097536119308
 20
141.2656869342057
 30
0.0
 10
75.76582895170039
 20
141.2916710936393
 30
0.0
 10
75.85278103444492
 20
141.3111240124622
 30
0.0
 10
76.07889391832954
 20
141.3591561170016
 30
0.0
 10
76.21711924280325
 20
141.3875401339808
 30
0.0
 10
76.5435240780405
 20
141.4496961474597
 30
0.0
 10
76.73284585236578
 20
141.4835943231364
 30
0.0
 10
77.14641490588251
 20
141.5502417554622
 30
0.0
 10
77.3722609958062
 20
141.5833391728751
 30
0.0
 10
77.86369148476895
 20
141.6453451435374
 30
0.0
 10
78.12404893991923
 20
141.673511112785
 30
0.0
 10
78.66499375147741
 20
141.7203993818145
 30
0.0
 10
78.94953759338972
 20
141.7394113691344
 30
0.0
 10
79.53075076801707
 20
141.7650524056759
 30
0.0
 10
79.82331237587806
 20
141.7716095218814
 30
0.0
 10
80.41228236648777
 20
141.7717219435164
 30
0.0
 10
80.71151349983205
 20
141.7650564202844
 30
0.0
 10
81.28935584129223
 20
141.7396409095829
 30
0.0
 10
81.57032607443321
 20
141.7210100161813
 30
0.0
 10
82.11633087403152
 20
141.6738316851418
 30
0.0
 10
82.3783431737549
 20
141.6454500318883
 30
0.0
 10
82.86484501194747
 20
141.5841570807876
 30
0.0
 10
83.09321460318046
 20
141.5508054975257
 30
0.0
 10
83.51096130207046
 20
141.4835176391664
 30
0.0
 10
83.6965129430406
 20
141.4502743430169
 30
0.0
 10
84.02243965452864
 20
141.3882683710424
 30
0.0
 10
84.16386153593922
 20
141.3592533135718
 30
0.0
 10
84.389738682143
 20
141.3112784327224
 30
0.0
 10
84.47537945060057
 20
141.292124195382
 30
0.0
 10
84.59160433378652
 20
141.2658381646607
 30
0.0
 10
84.62161493862156
 20
141.2588413669495
 30
0.0
 10
84.62161493862156
 20
141.2588413669495
 30
0.0
  0
LINE
  5
1D2
330
1F
100
AcDbEntity
  8
VERMASSUNG
  6
CENTERX2
100
AcDbLine
 10
80.011246902
 20
94.816239542
 30
0.0
 11
74.0492059183
 21
151.5412703522
 31
0.0
  0
CIRCLE
  5
1D3
330
1F
100
AcDbEntity
  8
VERMASSUNG
  6
CENTERX2
100
AcDbCircle
 10
80.1216149386
 20
119.8159959187
 30
0.0
 40
25.00000000000001
  0
DIMENSION
  5
1D4
330
1F
100
AcDbEntity
  8
VERMASSUNG
100
AcDbDimension
  2
_D_5
 10
74.0492059183
 20
151.5412703522
 30
0.0
 11
77.0349264935
 21
152.6636819517
 31
0.0
 70
   162
  1
<>
 71
     1
 42
-1.0
  3
SLDDIMSTYLE0
100
AcDb2LineAngularDimension
 13
80.1216149386
 23
144.271666097
 33
0.0
 14
80.1216149386
 24
99.271666097
 34
0.0
 15
80.011246902
 25
94.816239542
 35
0.0
 16
77.0349264935
 26
152.6636819517
 36
0.0
  0
DIMENSION
  5
1E0
330
1F
100
AcDbEntity
  8
VERMASSUNG
100
AcDbDimension
  2
_D_6
 10
64.118074004
 20
100.6095730984
 30
0.0
 11
57.1685765877
 21
92.2692322756
 31
0.0
 70
   160
  1
%%c<> min. 
 71
     2
 42
-1.0
  3
SLDDIMSTYLE2
100
AcDbAlignedDimension
 13
96.1251558732
 23
139.0224187391
 33
0.0
 14
64.118074004
 24
100.6095730984
 34
0.0
 50
50.1976181468
100
AcDbRotatedDimension
  0
INSERT
  5
1FA
330
1F
100
AcDbEntity
  8
VERMASSUNG
100
AcDbBlockReference
  2
SW_CENTERMARKSYMBOL_0
 10
80.1216149386
 20
121.771666097
 30
0.0
  0
OLE2FRAME
  5
1FB
330
1F
100
AcDbEntity
  8
0
100
AcDbOle2Frame
 70
     2
  3
Paintbrush-Bild
 10
13.8511154363
 20
38.264191557
 30
0.0
 11
51.6290888628
 21
31.9806341108
 31
0.0
 71
     2
 72
     0
 73
     1
 90
    12928
310
80552BED0767C5B32B40DDAF6807D121434000000000000000006FFBDDFB85D0
310
4940DDAF6807D121434000000000000000006FFBDDFB85D04940416F4BD60AFB
310
3F4000000000000000002BED0767C5B32B40416F4BD60AFB3F40000000000000
310
0000000000000100000000010000010000000100000000000100000000320000
310
D0CF11E0A1B11AE1000000000000000000000000000000003E000300FEFF0900
310
0600000000000000000000000100000001000000000000000010000002000000
310
01000000FEFFFFFF0000000000000000FFFFFFFFFFFFFFFFFFFFFFFFFFFFFFFF
310
FFFFFFFFFFFFFFFFFFFFFFFFFFFFFFFFFFFFFFFFFFFFFFFFFFFFFFFFFFFFFFFF
310
FFFFFFFFFFFFFFFFFFFFFFFFFFFFFFFFFFFFFFFFFFFFFFFFFFFFFFFFFFFFFFFF
310
FFFFFFFFFFFFFFFFFFFFFFFFFFFFFFFFFFFFFFFFFFFFFFFFFFFFFFFFFFFFFFFF
310
FFFFFFFFFFFFFFFFFFFFFFFFFFFFFFFFFFFFFFFFFFFFFFFFFFFFFFFFFFFFFFFF
310
FFFFFFFFFFFFFFFFFFFFFFFFFFFFFFFFFFFFFFFFFFFFFFFFFFFFFFFFFFFFFFFF
310
FFFFFFFFFFFFFFFFFFFFFFFFFFFFFFFFFFFFFFFFFFFFFFFFFFFFFFFFFFFFFFFF
310
FFFFFFFFFFFFFFFFFFFFFFFFFFFFFFFFFFFFFFFFFFFFFFFFFFFFFFFFFFFFFFFF
310
FFFFFFFFFFFFFFFFFFFFFFFFFFFFFFFFFFFFFFFFFFFFFFFFFFFFFFFFFFFFFFFF
310
FFFFFFFFFFFFFFFFFFFFFFFFFFFFFFFFFFFFFFFFFFFFFFFFFFFFFFFFFFFFFFFF
310
FFFFFFFFFFFFFFFFFFFFFFFFFFFFFFFFFFFFFFFFFFFFFFFFFFFFFFFFFFFFFFFF
310
FFFFFFFFFFFFFFFFFFFFFFFFFFFFFFFFFFFFFFFFFFFFFFFFFFFFFFFFFFFFFFFF
310
FFFFFFFFFFFFFFFFFFFFFFFFFFFFFFFFFFFFFFFFFFFFFFFFFFFFFFFFFFFFFFFF
310
FFFFFFFFFFFFFFFFFFFFFFFFFFFFFFFFFFFFFFFFFFFFFFFFFFFFFFFFFFFFFFFF
310
FDFFFFFFFEFFFFFFFEFFFFFFFEFFFFFF05000000060000000700000008000000
310
090000000A0000000B0000000C0000000D0000000E0000000F00000010000000
310
11000000120000001300000014000000150000001600000017000000FEFFFFFF
310
FFFFFFFFFFFFFFFFFFFFFFFFFFFFFFFFFFFFFFFFFFFFFFFFFFFFFFFFFFFFFFFF
310
FFFFFFFFFFFFFFFFFFFFFFFFFFFFFFFFFFFFFFFFFFFFFFFFFFFFFFFFFFFFFFFF
310
FFFFFFFFFFFFFFFFFFFFFFFFFFFFFFFFFFFFFFFFFFFFFFFFFFFFFFFFFFFFFFFF
310
FFFFFFFFFFFFFFFFFFFFFFFFFFFFFFFFFFFFFFFFFFFFFFFFFFFFFFFFFFFFFFFF
310
FFFFFFFFFFFFFFFFFFFFFFFFFFFFFFFFFFFFFFFFFFFFFFFFFFFFFFFFFFFFFFFF
310
FFFFFFFFFFFFFFFFFFFFFFFFFFFFFFFFFFFFFFFFFFFFFFFFFFFFFFFFFFFFFFFF
310
FFFFFFFFFFFFFFFFFFFFFFFFFFFFFFFFFFFFFFFFFFFFFFFFFFFFFFFFFFFFFFFF
310
FFFFFFFFFFFFFFFFFFFFFFFFFFFFFFFFFFFFFFFFFFFFFFFFFFFFFFFFFFFFFFFF
310
FFFFFFFFFFFFFFFFFFFFFFFFFFFFFFFFFFFFFFFFFFFFFFFFFFFFFFFFFFFFFFFF
310
FFFFFFFFFFFFFFFFFFFFFFFFFFFFFFFFFFFFFFFFFFFFFFFFFFFFFFFFFFFFFFFF
310
FFFFFFFFFFFFFFFFFFFFFFFFFFFFFFFFFFFFFFFFFFFFFFFFFFFFFFFFFFFFFFFF
310
FFFFFFFFFFFFFFFFFFFFFFFFFFFFFFFFFFFFFFFFFFFFFFFFFFFFFFFFFFFFFFFF
310
FFFFFFFFFFFFFFFFFFFFFFFFFFFFFFFFFFFFFFFFFFFFFFFFFFFFFFFFFFFFFFFF
310
52006F006F007400200045006E00740072007900000000000000000000000000
310
0000000000000000000000000000000000000000000000000000000000000000
310
16000500FFFFFFFFFFFFFFFF020000000A00030000000000C000000000000046
310
00000000000000000000000080754A9D1F4DCD0103000000C000000000000000
310
01004F006C006500000000000000000000000000000000000000000000000000
310
0000000000000000000000000000000000000000000000000000000000000000
310
0A000200FFFFFFFFFFFFFFFFFFFFFFFF00000000000000000000000000000000
310
0000000000000000000000000000000000000000000000001400000000000000
310
010043006F006D0070004F0062006A0000000000000000000000000000000000
310
0000000000000000000000000000000000000000000000000000000000000000
310
120002010100000003000000FFFFFFFF00000000000000000000000000000000
310
0000000000000000000000000000000000000000010000004D00000000000000
310
01004F006C006500310030004E00610074006900760065000000000000000000
310
0000000000000000000000000000000000000000000000000000000000000000
310
1A000200FFFFFFFFFFFFFFFFFFFFFFFF00000000000000000000000000000000
310
0000000000000000000000000000000000000000040000002426000000000000
310
FEFFFFFF02000000FEFFFFFFFFFFFFFFFFFFFFFFFFFFFFFFFFFFFFFFFFFFFFFF
310
FFFFFFFFFFFFFFFFFFFFFFFFFFFFFFFFFFFFFFFFFFFFFFFFFFFFFFFFFFFFFFFF
310
FFFFFFFFFFFFFFFFFFFFFFFFFFFFFFFFFFFFFFFFFFFFFFFFFFFFFFFFFFFFFFFF
310
FFFFFFFFFFFFFFFFFFFFFFFFFFFFFFFFFFFFFFFFFFFFFFFFFFFFFFFFFFFFFFFF
310
FFFFFFFFFFFFFFFFFFFFFFFFFFFFFFFFFFFFFFFFFFFFFFFFFFFFFFFFFFFFFFFF
310
FFFFFFFFFFFFFFFFFFFFFFFFFFFFFFFFFFFFFFFFFFFFFFFFFFFFFFFFFFFFFFFF
310
FFFFFFFFFFFFFFFFFFFFFFFFFFFFFFFFFFFFFFFFFFFFFFFFFFFFFFFFFFFFFFFF
310
FFFFFFFFFFFFFFFFFFFFFFFFFFFFFFFFFFFFFFFFFFFFFFFFFFFFFFFFFFFFFFFF
310
FFFFFFFFFFFFFFFFFFFFFFFFFFFFFFFFFFFFFFFFFFFFFFFFFFFFFFFFFFFFFFFF
310
FFFFFFFFFFFFFFFFFFFFFFFFFFFFFFFFFFFFFFFFFFFFFFFFFFFFFFFFFFFFFFFF
310
FFFFFFFFFFFFFFFFFFFFFFFFFFFFFFFFFFFFFFFFFFFFFFFFFFFFFFFFFFFFFFFF
310
FFFFFFFFFFFFFFFFFFFFFFFFFFFFFFFFFFFFFFFFFFFFFFFFFFFFFFFFFFFFFFFF
310
FFFFFFFFFFFFFFFFFFFFFFFFFFFFFFFFFFFFFFFFFFFFFFFFFFFFFFFFFFFFFFFF
310
FFFFFFFFFFFFFFFFFFFFFFFFFFFFFFFFFFFFFFFFFFFFFFFFFFFFFFFFFFFFFFFF
310
FFFFFFFFFFFFFFFFFFFFFFFFFFFFFFFFFFFFFFFFFFFFFFFFFFFFFFFFFFFFFFFF
310
FFFFFFFFFFFFFFFFFFFFFFFFFFFFFFFFFFFFFFFFFFFFFFFFFFFFFFFFFFFFFFFF
310
0100000200000000000000000000000000000000000000000000000000000000
310
0000000000000000000000000000000000000000000000000000000000000000
310
0100FEFF030A0000FFFFFFFF0A00030000000000C00000000000004607000000
310
5042727573680007000000504272757368000700000050427275736800F439B2
310
7100000000000000000000000000000000000000000000000000000000000000
310
0000000000000000000000000000000000000000000000000000000000000000
310
0000000000000000000000000000000000000000000000000000000000000000
310
0000000000000000000000000000000000000000000000000000000000000000
310
0000000000000000000000000000000000000000000000000000000000000000
310
0000000000000000000000000000000000000000000000000000000000000000
310
0000000000000000000000000000000000000000000000000000000000000000
310
0000000000000000000000000000000000000000000000000000000000000000
310
0000000000000000000000000000000000000000000000000000000000000000
310
0000000000000000000000000000000000000000000000000000000000000000
310
0000000000000000000000000000000000000000000000000000000000000000
310
0000000000000000000000000000000000000000000000000000000000000000
310
20260000424D0E260000000000003E00000028000000B40200006E0000000100
310
01000000000000000000130B0000130B00000200000002000000000000FFFFFF
310
FFFFFFFFFFFFFFFFFFFFFFFFFFFFFFFFFFFFFFFFFFFFFFFFFFFFFFFFFFFFFFFF
310
FFFFFFFFFFFFFFFFFFFFFFFFFFFFFFFFFFFFFFFFFFFFFFFFFFFFFFFFFFFFFFFF
310
FFFFFFFFFFFFFFFFFFFFFFFFFFFFFFFFFFFFFFFFFFFFFFFFF000FFFFFFFFFFFF
310
FFFFFFFFFFFFFFFFFFFFFFFFFFFFFFFFFFFFFFFFFFFFFFFFFFFFFFFFFFFFFFFF
310
FFFFFFFFFFFFFFFFFFFFFFFFFFFFFFFFFFFFFFFFFFFFFFFFFFFFFFFFFFFFFFFF
310
FFFFFFFFFFFFFFFFFFFFFFFFFFFFFFFFF000FFFFFFFFFFFFFFFFFFFFFFFFFFFF
310
FFFFFFFFFFFFFFFFFFFFFFFFFFFFFFFFFFFFFFFFFFFFFFFFFFFFFFFFFFFFFFFF
310
FFFFFFFFFFFFFFFFFFFFFFFFFFFFFFFFFFFFFFFFFFFFFFFFFFFFFFFFFFFFFFFF
310
FFFFFFFFFFFFFFFFF000FFFFFFFFFFFFFFFFFFFFFFFFFFFFFFFFFFFFFFFFFFFF
310
FFFFFFFFFFFFFFFFFFFFFFFFFFFFFFFFFFFFFFFFFFFFFFFFFFFFFFFFFFFFFFFF
310
FFFFFFFFFFFFFFFFFFFFFFFFFFFFFFFFFFFFFFFFFFFFFFFFFFFFFFFFFFFFFFFF
310
F000FFFFFFFFFFFFFFFFFFFFFFFFFFFFFFFFFFFFFFFFFFFFFFFFFFFFFFFFFFFF
310
FFFFFFFFFFFFFFFFFFFFFFFFFFFFFFFFFFFFFFFFFFFFFFFFFFFFFFFFFFFFFFFF
310
FFFFFFFFFFFFFFFFFFFFFFFFFFFFFFFFFFFFFFFFFFFFFFFFF000FFFFFFFFFFFF
310
FFFFFFFFFFFFFFFFFFFFFFFFFFFFFFFFFFFFFFFFFFFFFFFFFFFFFFFFFFFFFFFF
310
FFFFFFFFFFFFFFFFFFFFFFFFFFFFFFFFFFFFFFFFFFFFFFFFFFFFFFFFFFFFFFFF
310
FFFFFFFFFFFFFFFFFFFFFFFFFFFFFFFFF000FFFFFFFFFFFFFFFFFFFFFFFFFFFF
310
FFFFFFFFFFFFFFFFFFFFFFFFFFFFFFFFFFFFFFFFFFFFFFFFFFFFFFFFFFFFFFFF
310
FFFFFFFFFFFFFFFFFFFFFFFFFFFFFFFFFFFFFFFFFFFFFFFFFFFFFFFFFFFFFFFF
310
FFFFFFFFFFFFFFFFF000FFFFFFFFFFFFFFFFFFFFFFFFFFFFFFFFFFFFFFFFFFFF
310
FFFFFFFFFFFFFFFFFFFFFFFFFFFFFFFFFFFFFFFFFFFFFFFFFFFFFFFFFFFFFFFF
310
FFFFFFFFFFFFFFFFFFFFFFFFFFFFFFFFFFFFFFFFFFFFFFFFFFFFFFFFFFFFFFFF
310
F000FFFFFFFFFFFFFFFFFFFFFFFFFFFFFFFFFFFFFFFFFFFFFFFFFFFFFFFFFFFF
310
FFFFFFFFFFFFFFFFFFFFFFFFFFFFFFFFFFFFFFFFFFFFFFFFFFFFFFFFFFFFFFFF
310
FFFFFFFFFFFFFFFFFFFFFFFFFFFFFFFFFFFFFFFFFFFFFFFFF000FFFFFFFFFFFF
310
FFFFFFFFFFFFFFFFFFFFFFFFFFFFFFFFFFFFFFFFFFFFFFFFFFFFFFFFFFFFFFFF
310
FFFFFFFFFFFFFFFFFFFFFFFFFFFFFFFFFFFFFFFFFFFFFFFFFFFFFFFFFFFFFFFF
310
FFFFFFFFFFFFFFFFFFFFFFFFFFFFFFFFF000FFFFFFFFFFFFFFFFFFFFFFFFFFFF
310
FFFFFFFFFFFFFFFFFFFFFFFFFFFFFFFFFFFFFFFFFFFFFFFFFFFFFFFFFFFFFFFF
310
FFFFFFFFFFFFFFFFFFFFFFFFFFFFFFFFFFFFFFFFFFFFFFFFFFFFFFFFFFFFFFFF
310
FFFFFFFFFFFFFFFFF000FFFFFFFFFFFFFFFFFFFFFFFFFFFFFFFFFFFFFFFFFFFF
310
FFFFFFFFFFFFFFFFFFFFFFFFFFFFFFFFFFFFFFFFFFFFFFFFFFFFFFFFFFFFFFFF
310
FFFFFFFFFFFFFFFFFFFFFFFFFFFFFFFFFFFFFFFFFFFFFFFFFFFFFFFFFFFFFFFF
310
F000FFFFFFFFFFFFFFFFFFFFFFFFFFFFFFFFFFFFFFFFFFFFFFFFFFFFFFFFFFFF
310
FFFFFFFFFFFFFFFFFFFFFFFFFFFFFFFFFFFFFFFFFFFFFFFFFFFFFFFFFFFFFFFF
310
FFFFFFFFFFFFFFFFFFFFFFFFFFFFFFFFFFFFFFFFFFFFFFFFF000FFFFFFFFFFFF
310
FFFFFFFFFFFFFFFFFFFFFFFFFFFFFFFFFFFFFFFFFFFFFFFFFFFFFFFFFFFFFFFF
310
FFFFFFFFFFFFFFFFFFFFFFFFFFFFFFFFFFFFFFFFFFFFFFFFFFFFFFFFFFFFFFFF
310
FFFFFFFFFFFFFFFFFFFFFFFFFFFFFFFFF000FFFFFFFFFFFFFFFFFFFFFFFFFFFF
310
FFFFFFFFFFFFFFFFFFFFFFFFFFFFFFFFFFFFFFFFFFFFFFFFFFFFFFFFFFFFFFFF
310
FFFFFFFFFFFFFFFFFFFFFFFFFFFFFFFFFFFFFFFFFFFFFFFFFFFFFFFFFFFFFFFF
310
FFFFFFFFFFFFFFFFF000FFFFFFFFFFFFFFFFFFFFFFFFFFFFFFFFFFFFFFFFFFFF
310
FFFFFFFFFFFFFFFFFFFFFFFFFFFFFFFFFFFFFFFFFFFFFFFFFFFFFFFFFFFFFFFF
310
FFFFFFFFFFFFFFFFFFFFFFFFFFFFFFFFFFFFFFFFFFFFFFFFFFFFFFFFFFFFFFFF
310
F000FFFFFFFFFFFFFFFFFFFFFFFFFFFFFFFFFFFFFFFFFFFFFFFFFFFFFFFFFFFF
310
FFFFFFFFFFFFFFFFFFFFFFFFFFFFFFFFFFFFFFFFFFFFFFFFFFFFFFFFFFFFFFFF
310
FFFFFFFFFFFFFFFFFFFFFFFFFFFFFFFFFFFFFFFFFFFFFFFFF000FFFFFFFFFFFF
310
FFFFFFFFFFFFFFFFFFFFFFFFFFFFFFFFFFFFFFFFFFFFFFFFFFFFFFFFFFFFFFFF
310
FFFFFFFFFFFFFFFFFFFFFFFFFFFFFFFFFFFFFFFFFFFFFFFFFFFFFFFFFFFFFFFF
310
FFFFFFFFFFFFFFFFFFFFFFFFFFFFFFFFF000FFFFFFFFFFFFFFFFFFFFFFFFFFFF
310
FFFFFFFFFFFFFFFFFFFFFFFFFFFFFFFFFFFFFFFFFFFFFFFFFFFFFFFFFFFFFFFF
310
FFFFFFFFFFFFFFFFFFFFFFFFFFFFFFFFFFFFFFFFFFFFFFFFFFFFFFFFFFFFFFFF
310
FFFFFFFFFFFFFFFFF000FFFFF80003FFFFFFFFFFFFFFFFFFFFFFFFFFFFFFFFFF
310
FFFFF00007FFFFFFFFFF00007FFFFFF800000000000000007FFFFFFFFFFFFFFF
310
FFFFFFFC001FFFFFFFFFFFFFFC001FFFFFFFFFFFFFFFFFFFFFFFFFFE0007FFFF
310
F000FFFF8000007FFFFFFFF8000FFFFFC0007FFFFF80007FFFFF0000007FFFFF
310
FFF8000007FFFFF800000000000000007FFFFFF0001FFFFFFFFFFFC00001FFFF
310
FFFFFFFFC00001FFFFFFFF000000000003FFFFE000007FFFF000FFFE0000000F
310
FFFFFFF0000FFFFF80007FFFFF80007FFFFC0000001FFFFFFFC0000001FFFFF8
310
00000000000000007FFFFFF0001FFFFFFFFFFE0000003FFFFFFFFFFE0000003F
310
FFFFFF000000000003FFFF0000000FFFF000FFF800000003FFFFFFF00007FFFF
310
80007FFFFF80007FFFF000000007FFFFFF000000003FFFF80000000000000000
310
7FFFFFF0001FFFFFFFFFF80000000FFFFFFFFFF80000000FFFFFFF0000000000
310
03FFFC00000003FFF000FFE000000000FFFFFFF00007FFFF80003FFFFF80007F
310
FFC000000001FFFFFC000000001FFFF800000000000000007FFFFFF0001FFFFF
310
FFFFE000000003FFFFFFFFE000000003FFFFFF000000000003FFF000000000FF
310
F000FF80000000007FFFFFF00007FFFF80003FFFFF80007FFF8000000000FFFF
310
F80000000007FFF800000000000000007FFFFFF0001FFFFFFFFFC000000001FF
310
FFFFFFC000000001FFFFFF000000000003FFC0000000007FF000FF0000000000
310
3FFFFFE00007FFFF00003FFFFF80007FFE00000000003FFFF00000000003FFF8
310
00000000000000007FFFFFF0001FFFFFFFFF8000000000FFFFFFFF8000000000
310
FFFFFF000000000003FF80000000003FF000FE00000000001FFFFFE00003FFFF
310
00003FFFFF80007FFC00000000001FFFE00000000001FFF8000001FFFE000000
310
7FFFFFF0001FFFFFFFFE00000000003FFFFFFE00000000003FFFFF0000000000
310
03FF00000000001FF000FC00000000000FFFFFE00003FFFF00001FFFFF80007F
310
F800000000001FFFC00000000000FFF8000001FFFE0000007FFFFFF0001FFFFF
310
FFFC00000000001FFFFFFC00000000001FFFFF000000000003FE00000000000F
310
F000F8000000000007FFFFE00003FFFF00001FFFFF80007FF800000000000FFF
310
800000000000FFF8000001FFFE0000007FFFFFF0001FFFFFFFF800000000000F
310
FFFFF800000000000FFFFF000000000003FC000000000007F000F80000000000
310
03FFFFC00003FFFE00001FFFFF80007FF0000000000007FF0000000000007FF8
310
000001FFFE0000007FFFFFF0001FFFFFFFF0000000000007FFFFF00000000000
310
07FFFF000000000003F8000000000003F000F0000000000003FFFFC00001FFFE
310
00001FFFFF80007FE0000000000007FE0000000000003FF8000001FFFE000000
310
7FFFFFF0001FFFFFFFF0000000000007FFFFF0000000000007FFFF0000000000
310
03F800001F800003F000E00001FFF00001FFFFC00001FFFE00000FFFFF80007F
310
E00001FFE00003FE00001FFF00003FF8000001FFFE0000007FFFFFF0001FFFFF
310
FFE000003E000003FFFFE000003E000003FFFF000000000003F00001FFF80001
310
F000E00007FFFC0001FFFFC00001FFFE00000FFFFF80007FC0000FFFFC0003FC
310
0000FFFFC0001FF8000001FFFE0000007FFFFFF0001FFFFFFFC00003FFE00001
310
FFFFC00003FFE00001FFFF0001FFFFFFFFF00007FFFE0001F000E0000FFFFF00
310
00FFFF800001FFFC00000FFFFF80007FC0001FFFFE0001FC0001FFFFE0001FF8
310
000001FFFE0000007FFFFFF0001FFFFFFF80000FFFF80000FFFF80000FFFF800
310
00FFFF0003FFFFFFFFE0000FFFFF8000F000C0003FFFFF8000FFFF800000FFFC
310
000007FFFF80007F80003FFFFF0001FC0003FFFFF0001FF8000001FFFE000000
310
7FFFFFF0001FFFFFFF80003FFFFE0000FFFF80003FFFFE0000FFFF0003FFFFFF
310
FFE0003FFFFF8000F000C0003FFFFF8000FFFF800000FFFC000007FFFF80007F
310
80007FFFFF8001F80007FFFFF8000FF8000001FFFE0000007FFFFFF0001FFFFF
310
FF00007FFFFF00007FFF00007FFFFF00007FFF0003FFFFFFFFE0003FFFFFC000
310
F000C0007FFFFFC000FFFF000000FFFC000007FFFF80007F8000FFFFFF8000F8
310
000FFFFFF8000FF8000001FFFE0000007FFFFFF0001FFFFFFF0000FFFFFF8000
310
7FFF0000FFFFFF80007FFF0003FFFFFFFFC0007FFFFFC00070008000FFFFFFC0
310
00FFFF000000FFF8000007FFFF80007F8000FFFFFF8000F8000FFFFFF8000FF8
310
000001FFFE0000007FFFFFF0001FFFFFFE0001FFFFFFC0003FFE0001FFFFFFC0
310
003FFF0003FFFFFFFFC0007FFFFFE00070008000FFFFFFC0007FFF0000007FF8
310
000003FFFF80007F0001FFFFFF8000F8000FFFFFF8000FF8000001FFFE000000
310
7FFFFFF0001FFFFFFE0001FFFFFFC0003FFE0001FFFFFFC0003FFF0003FFFFFF
310
FFC000FFFFFFE00070008000FFFFFFC0007FFF0000007FF8000003FFFF80007F
310
0001FFFFFF8000F8001FFFFFF8000FF8000001FFFE0000007FFFFFF0001FFFFF
310
FE0003FFFFFFE0003FFE0003FFFFFFE0003FFF0003FFFFFFFFC000FFFFFFE000
310
70008000FFFFFFC0007FFE0000007FF8000003FFFF80007F0001FFFFFF8000F0
310
001FFFFFF8000FF8000001FFFE0000007FFFFFF0001FFFFFFC0003FFFFFFE000
310
1FFC0003FFFFFFE0001FFF0003FFFFFFFFC000FFFFFFC00070008000FFFFFF80
310
007FFE0000007FF0000003FFFF80007F0001FFFFFF0000F0001FFFFFF8000FF8
310
000001FFFE0000007FFFFFF0001FFFFFFC0007FFFFFFF0001FFC0007FFFFFFF0
310
001FFF0003FFFFFFFFC000FFFFFFC00070008001FFFFFF0000FFFE0000003FF0
310
000001FFFF80007F0001FFFFFF0000F8001FFFFFF0000FF8000001FFFE000000
310
7FFFFFF0001FFFFFFC0007FFFFFFF0001FFC0007FFFFFFF0001FFF0003FFFFFF
310
FFC001FFFFFF80007000FFFFFFFFFE0000FFFE0008003FF0008001FFFF80007F
310
FFFFFFFFFC0000FFFFFFFFFFE0000FF8000001FFFE0000007FFFFFF0001FFFFF
310
F8000FFFFFFFF8000FF8000FFFFFFFF8000FFF0003FFFFFFFFFFFFFFFFFF0000
310
7000FFFFFFFFFC0000FFFC0008003FF0008001FFFF80007FFFFFFFFFF80001FF
310
FFFFFFFF80000FF8000001FFFE0000007FFFFFF0001FFFFFF8000FFFFFFFF800
310
0FF8000FFFFFFFF8000FFF0003FFFFFFFFFFFFFFFFFE0000F000FFFFFFFFE000
310
00FFFC000C003FE000C001FFFF80007FFFFFFFFFC00001FFFFFFFFFE00001FF8
310
000001FFFE0000007FFFFFF0001FFFFFF8000FFFFFFFF8000FF8000FFFFFFFF8
310
000FFF0003FFFFFFFFFFFFFFFFF00000F000FFFFFFFE000001FFFC000C001FE0
310
00C000FFFF80007FFFFFFFFE000001FFFFFFFFE000001FF80FFFFFFFFFFFFFC0
310
7FFFFFF0001FFFFFF8000FFFFFFFF8000FF8000FFFFFFFF8000FFF0003FFFFFF
310
FFFFFFFFFF800000F000FFFFFFC0000001FFFC001C001FE001C000FFFF80007F
310
FFFFFF80000003FFFFFFF80000001FF80FFFFFFFFFFFFFC07FFFFFF0001FFFFF
310
F8001FFFFFFFFC000FF8001FFFFFFFFC000FFF0003FFFFFFFFFFFFFFF0000001
310
F000FFFFF800000001FFF8001C001FE001C000FFFF80007FFFFFF800000003FF
310
FFFF800000003FF80FFFFFFFFFFFFFC07FFFFFF0001FFFFFF8001FFFFFFFFC00
310
0FF8001FFFFFFFFC000FFF0003FFFFFFFFFFFFFE00000001F000FFFFC0000000
310
03FFF8001E001FC001E000FFFF80007FFFFF8000000007FFFFFC000000003FF8
310
0FFFFFFFFFFFFFC07FFFFFF0001FFFFFF8001FFFFFFFFC000FF8001FFFFFFFFC
310
000FFF0003FFFFFFFFFFFFE000000003F000FFFE0000000007FFF8001E000FC0
310
01E0007FFF80007FFFFE0000000007FFFFE0000000007FF80FFFFFFFFFFFFFC0
310
7FFFFFF0001FFFFFF0001FFFFFFFFC0007F0001FFFFFFFFC0007FF0003FFFFFF
310
FFFFFF0000000003F000FFF80000000007FFF8001E000FC003E0007FFF80007F
310
FFF0000000000FFFFF8000000000FFF80FFFFFFFFFFFFFC07FFFFFF0001FFFFF
310
F0001FFFFFFFFC0007F0001FFFFFFFFC0007FF0003FFFFFFFFFFFC0000000007
310
F000FFE0000000000FFFF0003E000FC003E0007FFF80007FFFC0000000001FFF
310
FE0000000001FFF80FFFFFFFFFFFFFC07FFFFFF0001FFFFFF0001FFFFFFFFC00
310
07F0001FFFFFFFFC0007FF0003FFFFFFFFFFF0000000000FF000FFC000000000
310
1FFFF0003F000F8003F0003FFF80007FFF80000000003FFFF80000000003FFF8
310
0FFFFFFFFFFFFFC07FFFFFF0001FFFFFF0001FFFFFFFFC0007F0001FFFFFFFFC
310
0007FF0003FFFFFFFFFFE0000000001FF000FF00000000007FFFF0003F000780
310
03F0003FFF80007FFF00000000007FFFF00000000007FFF80FFFFFFFFFFFFFC0
310
7FFFFFF0001FFFFFF0001FFFFFFFFC0007F0001FFFFFFFFC0007FF0003FFFFFF
310
FFFF80000000007FF000FE0000000000FFFFE0003F00078007F0003FFF80007F
310
FE0000000001FFFFE0000000001FFFF80FFFFFFFFFFFFFC07FFFFFF0001FFFFF
310
F0001FFFFFFFFC0007F0001FFFFFFFFC0007FF0003FFFFFFFFFF0000000000FF
310
F000FC0000000003FFFFE0007F00078007F0003FFF80007FFC0000000007FFFF
310
C0000000007FFFF80FFFFFFFFFFFFFC07FFFFFF0001FFFFFF8001FFFFFFFFC00
310
0FF8001FFFFFFFFC000FFF0003FFFFFFFFFE0000000003FFF000FC000000000F
310
FFFFE0007F80070007F8001FFF80007FF8000000001FFFFF8000000001FFFFF8
310
0FFFFFFFFFFFFFC07FFFFFF0001FFFFFF8001FFFFFFFFC000FF8001FFFFFFFFC
310
000FFF0003FFFFFFFFFC000000000FFFF000F8000000007FFFFFE0007F800700
310
07F8001FFF80007FF000000000FFFFFF800000000FFFFFF80FFFFFFFFFFFFFC0
310
7FFFFFF0001FFFFFF8000FFFFFFFF8000FF8000FFFFFFFF8000FFF0003FFFFFF
310
FFFC000000007FFFF000F800000007FFFFFFC0007F8003000FF8001FFF80007F
310
F000000007FFFFFF000000007FFFFFF80FFFFFFFFFFFFFC07FFFFFF0001FFFFF
310
F8000FFFFFFFF8000FF8000FFFFFFFF8000FFF0003FFFFFFFFF80000000FFFFF
310
F000F0000000FFFFFFFFC000FF8003000FF8001FFF80007FE0000000FFFFFFFF
310
0000000FFFFFFFF8000001FFFE0000007FFFFFF0001FFFFFF8000FFFFFFFF800
310
0FF8000FFFFFFFF8000FFF0003FFFFFFFFF8000000FFFFFFF000F000000FFFFF
310
FFFFC000FFC002000FF8000FFF80007FE000001FFFFFFFFE000001FFFFFFFFF8
310
000001FFFE0000007FFFFFF0001FFFFFF8000FFFFFFFF8000FF8000FFFFFFFF8
310
000FFF0003FFFFFFFFF000001FFFFFFFF000E00000FFFFFFFFFFC000FFC00200
310
0FFC000FFF80007FE00001FFFFFFFFFE00001FFFFFFFFFF8000001FFFE000000
310
7FFFFFF0001FFFFFFC000FFFFFFFF8001FFC000FFFFFFFF8001FFF0003FFFFFF
310
FFF00001FFFFFFFFF000E00007FFFFFFFFFF8000FFC000001FFC000FFF80007F
310
C0000FFFFFFFFFFE0000FFFFFFFFFFF8000001FFFE0000007FFFFFF0001FFFFF
310
FC0007FFFFFFF0001FFC0007FFFFFFF0001FFF0003FFFFFFFFF00007FFFFFFFF
310
F000E0001FFFFFFFFFFF8000FFC000001FFC000FFF80007FC0003FFFFFFFFFFE
310
0001FFFFFFFFFFF8000001FFFE0000007FFFFFF0001FFFFFFC0007FFFFFFF000
310
1FFC0007FFFFFFF0001FFF0003FFFFFFFFF0001FFFFFFFFFF000E0003FFFFF00
310
03FF8001FFE000001FFC0007FF80007FC0007FFFFF0007FC0003FFFFF0003FF8
310
000001FFFE0000007FFFFFF0001FFFFFFC0003FFFFFFE0001FFC0003FFFFFFE0
310
001FFF0003FFFFFFFFF0003FFFFFFFFFF000E0003FFFFF0001FF8001FFE00000
310
1FFE0007FF80007FC0007FFFFE0003FC0007FFFFE0003FF8000001FFFE000000
310
7FFFFFF0001FFFFFFE0003FFFFFFE0003FFE0003FFFFFFE0003FFF0003FFFFFF
310
FFF0003FFFFF8001F000E0003FFFFF0001FF0001FFE000001FFE0007FF80007F
310
C0007FFFFE0003FC0007FFFFE0003FF8000001FFFE0000007FFFFFF0001FFFFF
310
FE0001FFFFFFC0003FFE0001FFFFFFC0003FFF0003FFFFFFFFF0003FFFFF0001
310
F000E0003FFFFF0003FF0001FFE000003FFE0007FF80007FC0007FFFFE0003FC
310
0007FFFFE0003FF8000001FFFE0000007FFFFFF0001FFFFFFF0001FFFFFFC000
310
7FFF0001FFFFFFC0007FFF0003FFFFFFFFF0003FFFFF0001F000E0003FFFFE00
310
03FF0003FFF000003FFE0003FF80007FC0007FFFFC0003FE0007FFFFE0003FF8
310
000001FFFE0000007FFFFFF0001FFFFFFF0000FFFFFF80007FFF0000FFFFFF80
310
007FFF0003FFFFFFFFF0003FFFFF0001F000E0003FFFFE0003FF0003FFF00000
310
3FFF0003FF80007FC0007FFFFC0007FE0007FFFFC0003FF8000001FFFE000000
310
7FFFFFF0001FFFFFFF80007FFFFF0000FFFF80007FFFFF0000FFFF0003FFFFFF
310
FFF0003FFFFF0003F000E0003FFFFC0003FE0003FFF000003FFF0003FF80007F
310
E0003FFFF80007FE0003FFFFC0007FF8000001FFFE0000007FFFFFF0001FFFFF
310
FF80003FFFFE0000FFFF80003FFFFE0000FFFF0003FFFFFFFFF0001FFFFE0003
310
F000F0001FFFF80003FE0003FFF000007FFF0001FF80007FE0003FFFF00007FE
310
0001FFFF80007FF8000001FFFE0000007FFFFFF0001FFFFFFFC0000FFFF80001
310
FFFFC0000FFFF80001FFFF0003FFFFFFFFF0001FFFFC0003F000F0000FFFF000
310
07FE0007FFF800007FFF0001FF80007FE0001FFFE00007FF0000FFFE00007FF8
310
000001FFFE0000007FFFFFF0001FFFFFFFC00003FFE00001FFFFC00003FFE000
310
01FFFF0003FFFFFFFFF8000FFFF80003F000F00003FFC00007FC0007FFF80000
310
7FFF8001FF80007FF00007FF80000FFF00007FF80000FFF8000001FFFE000000
310
7F80000000000001FFE000003E000003FFFFE000003E000003FFFF0003FFFFFF
310
FFF80003FFE00007F000F800000000000FFC0007FFF800007FFF8001FF80007F
310
F000000000000FFF000000000000FFF8000001FFFE0000007F80000000000001
310
FFF0000000000007FFFFF0000000000007FFFF0003FFFFFFFFFC00007E000007
310
F000F800000000000FFC0007FFF80000FFFF8000FF80007FF800000000001FFF
310
800000000001FFF8000001FFFE0000007F80000000000001FFF800000000000F
310
FFFFF800000000000FFFFF0003FFFFFFFFFC00000000000FF000FC0000000000
310
1FFC0007FFFC0000FFFF8000FF80007FF800000000003FFFC00000000001FFF8
310
000001FFFE0000007F80000000000001FFF800000000000FFFFFF80000000000
310
0FFFFF0003FFFFFFFFFE00000000001FF000FE00000000003FF8000FFFFC0000
310
FFFF8000FF80007FFC00000000003FFFC00000000003FFF8000001FFFE000000
310
7F80000000000001FFFC00000000001FFFFFFC00000000001FFFFF0003FFFFFF
310
FFFF00000000001FF000FF00000000003FF8000FFFFC0000FFFFC000FF80007F
310
FE00000000007FFFE00000000007FFF8000001FFFE0000007F80000000000001
310
FFFE00000000003FFFFFFE00000000003FFFFF0003FFFFFFFFFF80000000003F
310
F000FF80000000007FF8000FFFFC0001FFFFC0007F80007FFF0000000000FFFF
310
F0000000000FFFF800000000000000007F80000000000001FFFF8000000000FF
310
FFFFFF8000000000FFFFFF0003FFFFFFFFFFC0000000007FF000FFC000000000
310
FFF8000FFFFE0001FFFFC0007F80007FFF8000000001FFFFF8000000001FFFF8
310
00000000000000007F80000000000001FFFFC000000001FFFFFFFFC000000001
310
FFFFFF0003FFFFFFFFFFE000000000FFF000FFE000000003FFF0001FFFFE0001
310
FFFFC0007F80007FFFC000000007FFFFFE000000003FFFF80000000000000000
310
7F80000000000001FFFFE000000003FFFFFFFFE000000003FFFFFF0003FFFFFF
310
FFFFF000000003FFF000FFF80000000FFFF0001FFFFE0001FFFFE0007F80007F
310
FFF00000000FFFFFFF00000000FFFFF800000000000000007F80000000000001
310
FFFFF80000000FFFFFFFFFF80000000FFFFFFF0003FFFFFFFFFFFC0000000FFF
310
F000FFFE0000003FFFF0001FFFFE0003FFFFE0003F80007FFFFC0000003FFFFF
310
FFC0000003FFFFF800000000000000007F80000000000001FFFFFE0000003FFF
310
FFFFFFFE0000003FFFFFFF0003FFFFFFFFFFFF0000003FFFF000FFFF800000FF
310
FFF0001FFFFF0003FFFFE0003F80007FFFFF000001FFFFFFFFF800001FFFFFF8
310
00000000000000007F80000000000001FFFFFFC00001FFFFFFFFFFFFC00001FF
310
FFFFFF0003FFFFFFFFFFFFC00000FFFFF000FFFFF8000FFFFFFFFFFFFFFFFFFF
310
FFFFFFFFFFFFFFFFFFFFF0001FFFFFFFFFFF0000FFFFFFF80000000000000000
310
7FFFFFFFFFFFFFFFFFFFFFFC001FFFFFFFFFFFFFFC001FFFFFFFFFFFFFFFFFFF
310
FFFFFFFC001FFFFFF000FFFFFFFFFFFFFFFFFFFFFFFFFFFFFFFFFFFFFFFFFFFF
310
FFFFFFFFFFFFFFFFFFFFFFFFFFFFFFFFFFFFFFFFFFFFFFFFFFFFFFFFFFFFFFFF
310
FFFFFFFFFFFFFFFFFFFFFFFFFFFFFFFFFFFFFFFFFFFFFFFFFFFFFFFFFFFFFFFF
310
F000FFFFFFFFFFFFFFFFFFFFFFFFFFFFFFFFFFFFFFFFFFFFFFFFFFFFFFFFFFFF
310
FFFFFFFFFFFFFFFFFFFFFFFFFFFFFFFFFFFFFFFFFFFFFFFFFFFFFFFFFFFFFFFF
310
FFFFFFFFFFFFFFFFFFFFFFFFFFFFFFFFFFFFFFFFFFFFFFFFF000FFFFFFFFFFFF
310
FFFFFFFFFFFFFFFFFFFFFFFFFFFFFFFFFFFFFFFFFFFFFFFFFFFFFFFFFFFFFFFF
310
FFFFFFFFFFFFFFFFFFFFFFFFFFFFFFFFFFFFFFFFFFFFFFFFFFFFFFFFFFFFFFFF
310
FFFFFFFFFFFFFFFFFFFFFFFFFFFFFFFFF000FFFFFFFFFFFFFFFFFFFFFFFFFFFF
310
FFFFFFFFFFFFFFFFFFFFFFFFFFFFFFFFFFFFFFFFFFFFFFFFFFFFFFFFFFFFFFFF
310
FFFFFFFFFFFFFFFFFFFFFFFFFFFFFFFFFFFFFFFFFFFFFFFFFFFFFFFFFFFFFFFF
310
FFFFFFFFFFFFFFFFF000FFFFFFFFFFFFFFFFFFFFFFFFFFFFFFFFFFFFFFFFFFFF
310
FFFFFFFFFFFFFFFFFFFFFFFFFFFFFFFFFFFFFFFFFFFFFFFFFFFFFFFFFFFFFFFF
310
FFFFFFFFFFFFFFFFFFFFFFFFFFFFFFFFFFFFFFFFFFFFFFFFFFFFFFFFFFFFFFFF
310
F000FFFFFFFFFFFFFFFFFFFFFFFFFFFFFFFFFFFFFFFFFFFFFFFFFFFFFFFFFFFF
310
FFFFFFFFFFFFFFFFFFFFFFFFFFFFFFFFFFFFFFFFFFFFFFFFFFFFFFFFFFFFFFFF
310
FFFFFFFFFFFFFFFFFFFFFFFFFFFFFFFFFFFFFFFFFFFFFFFFF000FFFFFFFFFFFF
310
FFFFFFFFFFFFFFFFFFFFFFFFFFFFFFFFFFFFFFFFFFFFFFFFFFFFFFFFFFFFFFFF
310
FFFFFFFFFFFFFFFFFFFFFFFFFFFFFFFFFFFFFFFFFFFFFFFFFFFFFFFFFFFFFFFF
310
FFFFFFFFFFFFFFFFFFFFFFFFFFFFFFFFF000FFFFFFFFFFFFFFFFFFFFFFFFFFFF
310
FFFFFFFFFFFFFFFFFFFFFFFFFFFFFFFFFFFFFFFFFFFFFFFFFFFFFFFFFFFFFFFF
310
FFFFFFFFFFFFFFFFFFFFFFFFFFFFFFFFFFFFFFFFFFFFFFFFFFFFFFFFFFFFFFFF
310
FFFFFFFFFFFFFFFFF000FFFFFFFFFFFFFFFFFFFFFFFFFFFFFFFFFFFFFFFFFFFF
310
FFFFFFFFFFFFFFFFFFFFFFFFFFFFFFFFFFFFFFFFFFFFFFFFFFFFFFFFFFFFFFFF
310
FFFFFFFFFFFFFFFFFFFFFFFFFFFFFFFFFFFFFFFFFFFFFFFFFFFFFFFFFFFFFFFF
310
F000FFFFFFFFFFFFFFFFFFFFFFFFFFFFFFFFFFFFFFFFFFFFFFFFFFFFFFFFFFFF
310
FFFFFFFFFFFFFFFFFFFFFFFFFFFFFFFFFFFFFFFFFFFFFFFFFFFFFFFFFFFFFFFF
310
FFFFFFFFFFFFFFFFFFFFFFFFFFFFFFFFFFFFFFFFFFFFFFFFF000FFFFFFFFFFFF
310
FFFFFFFFFFFFFFFFFFFFFFFFFFFFFFFFFFFFFFFFFFFFFFFFFFFFFFFFFFFFFFFF
310
FFFFFFFFFFFFFFFFFFFFFFFFFFFFFFFFFFFFFFFFFFFFFFFFFFFFFFFFFFFFFFFF
310
FFFFFFFFFFFFFFFFFFFFFFFFFFFFFFFFF000FFFFFFFFFFFFFFFFFFFFFFFFFFFF
310
FFFFFFFFFFFFFFFFFFFFFFFFFFFFFFFFFFFFFFFFFFFFFFFFFFFFFFFFFFFFFFFF
310
FFFFFFFFFFFFFFFFFFFFFFFFFFFFFFFFFFFFFFFFFFFFFFFFFFFFFFFFFFFFFFFF
310
FFFFFFFFFFFFFFFFF000FFFFFFFFFFFFFFFFFFFFFFFFFFFFFFFFFFFFFFFFFFFF
310
FFFFFFFFFFFFFFFFFFFFFFFFFFFFFFFFFFFFFFFFFFFFFFFFFFFFFFFFFFFFFFFF
310
FFFFFFFFFFFFFFFFFFFFFFFFFFFFFFFFFFFFFFFFFFFFFFFFFFFFFFFFFFFFFFFF
310
F000FFFFFFFFFFFFFFFFFFFFFFFFFFFFFFFFFFFFFFFFFFFFFFFFFFFFFFFFFFFF
310
FFFFFFFFFFFFFFFFFFFFFFFFFFFFFFFFFFFFFFFFFFFFFFFFFFFFFFFFFFFFFFFF
310
FFFFFFFFFFFFFFFFFFFFFFFFFFFFFFFFFFFFFFFFFFFFFFFFF000FFFFFFFFFFFF
310
FFFFFFFFFFFFFFFFFFFFFFFFFFFFFFFFFFFFFFFFFFFFFFFFFFFFFFFFFFFFFFFF
310
FFFFFFFFFFFFFFFFFFFFFFFFFFFFFFFFFFFFFFFFFFFFFFFFFFFFFFFFFFFFFFFF
310
FFFFFFFFFFFFFFFFFFFFFFFFFFFFFFFFF000FFFFFFFFFFFFFFFFFFFFFFFFFFFF
310
FFFFFFFFFFFFFFFFFFFFFFFFFFFFFFFFFFFFFFFFFFFFFFFFFFFFFFFFFFFFFFFF
310
FFFFFFFFFFFFFFFFFFFFFFFFFFFFFFFFFFFFFFFFFFFFFFFFFFFFFFFFFFFFFFFF
310
FFFFFFFFFFFFFFFFF000FFFFFFFFFFFFFFFFFFFFFFFFFFFFFFFFFFFFFFFFFFFF
310
FFFFFFFFFFFFFFFFFFFFFFFFFFFFFFFFFFFFFFFFFFFFFFFFFFFFFFFFFFFFFFFF
310
FFFFFFFFFFFFFFFFFFFFFFFFFFFFFFFFFFFFFFFFFFFFFFFFFFFFFFFFFFFFFFFF
310
F000FFFFFFFFFFFFFFFFFFFFFFFFFFFFFFFFFFFFFFFFFFFFFFFFFFFFFFFFFFFF
310
FFFFFFFFFFFFFFFFFFFFFFFFFFFFFFFFFFFFFFFFFFFFFFFFFFFFFFFFFFFFFFFF
310
FFFFFFFFFFFFFFFFFFFFFFFFFFFFFFFFFFFFFFFFFFFFFFFFF000FFFFFFFFFFFF
310
FFFFFFFFFFFFFFFFFFFFFFFFFFFFFFFFFFFFFFFFFFFFFFFFFFFFFFFFFFFFFFFF
310
FFFFFFFFFFFFFFFFFFFFFFFFFFFFFFFFFFFFFFFFFFFFFFFFFFFFFFFFFFFFFFFF
310
FFFFFFFFFFFFFFFFFFFFFFFFFFFFFFFFF000FFFFFFFFFFFFFFFFFFFFFFFFFFFF
310
FFFFFFFFFFFFFFFFFFFFFFFFFFFFFFFFFFFFFFFFFFFFFFFFFFFFFFFFFFFFFFFF
310
FFFFFFFFFFFFFFFFFFFFFFFFFFFFFFFFFFFFFFFFFFFFFFFFFFFFFFFFFFFFFFFF
310
FFFFFFFFFFFFFFFFF000FFFFFFFFFFFFFFFFFFFFFFFFFFFFFFFFFFFFFFFFFFFF
310
FFFFFFFFFFFFFFFFFFFFFFFFFFFFFFFFFFFFFFFFFFFFFFFFFFFFFFFFFFFFFFFF
310
FFFFFFFFFFFFFFFFFFFFFFFFFFFFFFFFFFFFFFFFFFFFFFFFFFFFFFFFFFFFFFFF
310
F000FFFFFFFFFFFFFFFFFFFFFFFFFFFFFFFFFFFFFFFFFFFFFFFFFFFFFFFFFFFF
310
FFFFFFFFFFFFFFFFFFFFFFFFFFFFFFFFFFFFFFFFFFFFFFFFFFFFFFFFFFFFFFFF
310
FFFFFFFFFFFFFFFFFFFFFFFFFFFFFFFFFFFFFFFFFFFFFFFFF000FFFFFFFFFFFF
310
FFFFFFFFFFFFFFFFFFFFFFFFFFFFFFFFFFFFFFFFFFFFFFFFFFFFFFFFFFFFFFFF
310
FFFFFFFFFFFFFFFFFFFFFFFFFFFFFFFFFFFFFFFFFFFFFFFFFFFFFFFFFFFFFFFF
310
FFFFFFFFFFFFFFFFFFFFFFFFFFFFFFFFF0000000000000000000000000000000
310
0000000000000000000000000000000000000000000000000000000000000000
310
0000000000000000000000000000000000000000000000000000000000000000
310
0000000000000000000000000000000000000000000000000000000000000000
310
0000000000000000000000000000000000000000000000000000000000000000
310
0000000000000000000000000000000000000000000000000000000000000000
310
0000000000000000000000000000000000000000000000000000000000000000
310
0000000000000000000000000000000000000000000000000000000000000000
310
0000000000000000000000000000000000000000000000000000000000000000
310
0000000000000000000000000000000000000000000000000000000000000000
310
0000000000000000000000000000000000000000000000000000000000000000
310
0000000000000000000000000000000000000000000000000000000000000000
310
0000000000000000000000000000000000000000000000000000000000000000
310
0000000000000000000000000000000000000000000000000000000000000000
310
0000000000000000000000000000000000000000000000000000000000000000
310
0000000000000000000000000000000000000000000000000000000000000000
  1
OLE
  0
ENDSEC
  0
SECTION
  2
OBJECTS
  0
DICTIONARY
  5
C
330
0
100
AcDbDictionary
281
     1
  3
ACAD_GROUP
350
D
  3
ACAD_LAYOUT
350
1A
  3
ACAD_MLINESTYLE
350
17
  3
ACAD_PLOTSETTINGS
350
19
  3
ACAD_PLOTSTYLENAME
350
E
  0
DICTIONARY
  5
D
102
{ACAD_REACTORS
330
C
102
}
330
C
100
AcDbDictionary
281
     1
  0
DICTIONARY
  5
1A
102
{ACAD_REACTORS
330
C
102
}
330
C
100
AcDbDictionary
281
     1
  3
Layout1
350
1E
  3
Layout2
350
26
  3
Model
350
22
  0
DICTIONARY
  5
17
102
{ACAD_REACTORS
330
C
102
}
330
C
100
AcDbDictionary
281
     1
  3
Standard
350
18
  0
DICTIONARY
  5
19
102
{ACAD_REACTORS
330
C
102
}
330
C
100
AcDbDictionary
281
     1
  0
ACDBDICTIONARYWDFLT
  5
E
102
{ACAD_REACTORS
330
C
102
}
330
C
100
AcDbDictionary
281
     1
  3
Normal
350
F
100
AcDbDictionaryWithDefault
340
F
  0
LAYOUT
  5
1E
102
{ACAD_REACTORS
330
1A
102
}
330
1A
100
AcDbPlotSettings
  1

  2
none_device
  4

  6

 40
0.0
 41
0.0
 42
0.0
 43
0.0
 44
0.0
 45
0.0
 46
0.0
 47
0.0
 48
0.0
 49
0.0
140
0.0
141
0.0
142
1.0
143
1.0
 70
   688
 72
     0
 73
     0
 74
     5
  7

 75
    16
147
1.0
148
0.0
149
0.0
100
AcDbLayout
  1
Layout1
 70
     1
 71
     1
 10
0.0
 20
0.0
 11
420.0
 21
297.0
 12
0.0
 22
0.0
 32
0.0
 14
1.0000000000E+20
 24
1.0000000000E+20
 34
1.0000000000E+20
 15
-1.0000000000E+20
 25
-1.0000000000E+20
 35
-1.0000000000E+20
146
0.0
 13
0.0
 23
0.0
 33
0.0
 16
1.0
 26
0.0
 36
0.0
 17
0.0
 27
1.0
 37
0.0
 76
     0
330
1B
  0
LAYOUT
  5
26
102
{ACAD_REACTORS
330
1A
102
}
330
1A
100
AcDbPlotSettings
  1

  2
none_device
  4

  6

 40
0.0
 41
0.0
 42
0.0
 43
0.0
 44
0.0
 45
0.0
 46
0.0
 47
0.0
 48
0.0
 49
0.0
140
0.0
141
0.0
142
1.0
143
1.0
 70
   688
 72
     0
 73
     0
 74
     5
  7

 75
    16
147
1.0
148
0.0
149
0.0
100
AcDbLayout
  1
Layout2
 70
     1
 71
     2
 10
0.0
 20
0.0
 11
0.0
 21
0.0
 12
0.0
 22
0.0
 32
0.0
 14
0.0
 24
0.0
 34
0.0
 15
0.0
 25
0.0
 35
0.0
146
0.0
 13
0.0
 23
0.0
 33
0.0
 16
1.0
 26
0.0
 36
0.0
 17
0.0
 27
1.0
 37
0.0
 76
     0
330
23
  0
LAYOUT
  5
22
102
{ACAD_REACTORS
330
1A
102
}
330
1A
100
AcDbPlotSettings
  1

  2
none_device
  4

  6

 40
0.0
 41
0.0
 42
0.0
 43
0.0
 44
0.0
 45
0.0
 46
0.0
 47
0.0
 48
0.0
 49
0.0
140
0.0
141
0.0
142
1.0
143
1.0
 70
  1712
 72
     0
 73
     0
 74
     0
  7

 75
     0
147
1.0
148
0.0
149
0.0
100
AcDbLayout
  1
Model
 70
     1
 71
     0
 10
0.0
 20
0.0
 11
297.0
 21
210.0
 12
0.0
 22
0.0
 32
0.0
 14
0.0
 24
0.0
 34
0.0
 15
297.0
 25
210.0
 35
0.0
146
0.0
 13
0.0
 23
0.0
 33
0.0
 16
1.0
 26
0.0
 36
0.0
 17
0.0
 27
1.0
 37
0.0
 76
     0
330
1F
331
29
  0
MLINESTYLE
  5
18
102
{ACAD_REACTORS
330
17
102
}
330
17
100
AcDbMlineStyle
  2
Standard
 70
     0
  3

 62
   256
 51
90.0
 52
90.0
 71
     2
 49
0.5
 62
   256
  6
BYLAYER
 49
-0.5
 62
   256
  6
BYLAYER
  0
ACDBPLACEHOLDER
  5
F
102
{ACAD_REACTORS
330
E
102
}
330
E
  0
ENDSEC
  0
EOF
