  0
SECTION
  2
HEADER
  9
$ACADVER
  1
AC1015
  9
$ACADMAINTVER
 70
     6
  9
$DWGCODEPAGE
  3
ANSI_1252
  9
$INSBASE
 10
0.0
 20
0.0
 30
0.0
  9
$EXTMIN
 10
0.0
 20
0.0
 30
0.0
  9
$EXTMAX
 10
297.0
 20
210.0
 30
0.0
  9
$LIMMIN
 10
0.0
 20
0.0
  9
$LIMMAX
 10
297.0
 20
210.0
  9
$ORTHOMODE
 70
     0
  9
$REGENMODE
 70
     1
  9
$FILLMODE
 70
     1
  9
$QTEXTMODE
 70
     0
  9
$MIRRTEXT
 70
     1
  9
$LTSCALE
 40
1.0
  9
$ATTMODE
 70
     1
  9
$TEXTSIZE
 40
2.0
  9
$TRACEWID
 40
1.0
  9
$TEXTSTYLE
  7
Standard
  9
$CLAYER
  8
0
  9
$CELTYPE
  6
ByLayer
  9
$CECOLOR
 62
   256
  9
$CELTSCALE
 40
1.0
  9
$DISPSILH
 70
     0
  9
$DIMSCALE
 40
1.0
  9
$DIMASZ
 40
3.0
  9
$DIMEXO
 40
0.0
  9
$DIMDLI
 40
3.75
  9
$DIMRND
 40
0.0
  9
$DIMDLE
 40
0.0
  9
$DIMEXE
 40
1.0
  9
$DIMTP
 40
0.0
  9
$DIMTM
 40
0.0
  9
$DIMTXT
 40
2.0
  9
$DIMCEN
 40
2.5
  9
$DIMTSZ
 40
0.0
  9
$DIMTOL
 70
     0
  9
$DIMLIM
 70
     0
  9
$DIMTIH
 70
     1
  9
$DIMTOH
 70
     1
  9
$DIMSE1
 70
     0
  9
$DIMSE2
 70
     0
  9
$DIMTAD
 70
     1
  9
$DIMZIN
 70
     0
  9
$DIMBLK
  1

  9
$DIMASO
 70
     1
  9
$DIMSHO
 70
     1
  9
$DIMPOST
  1

  9
$DIMAPOST
  1

  9
$DIMALT
 70
     0
  9
$DIMALTD
 70
     3
  9
$DIMALTF
 40
0.0393700787
  9
$DIMLFAC
 40
1.0
  9
$DIMTOFL
 70
     1
  9
$DIMTVP
 40
0.0
  9
$DIMTIX
 70
     0
  9
$DIMSOXD
 70
     0
  9
$DIMSAH
 70
     0
  9
$DIMBLK1
  1

  9
$DIMBLK2
  1

  9
$DIMSTYLE
  2
ISO-25
  9
$DIMCLRD
 70
     0
  9
$DIMCLRE
 70
     0
  9
$DIMCLRT
 70
     0
  9
$DIMTFAC
 40
1.0
  9
$DIMGAP
 40
1.524
  9
$DIMJUST
 70
     0
  9
$DIMSD1
 70
     0
  9
$DIMSD2
 70
     0
  9
$DIMTOLJ
 70
     0
  9
$DIMTZIN
 70
     0
  9
$DIMALTZ
 70
     0
  9
$DIMALTTZ
 70
     0
  9
$DIMUPT
 70
     0
  9
$DIMDEC
 70
     2
  9
$DIMTDEC
 70
     3
  9
$DIMALTU
 70
     2
  9
$DIMALTTD
 70
     3
  9
$DIMTXSTY
  7
Standard
  9
$DIMAUNIT
 70
     0
  9
$DIMADEC
 70
     2
  9
$DIMALTRND
 40
0.0
  9
$DIMAZIN
 70
     0
  9
$DIMDSEP
 70
    44
  9
$DIMATFIT
 70
     3
  9
$DIMFRAC
 70
     0
  9
$DIMLDRBLK
  1

  9
$DIMLUNIT
 70
     2
  9
$DIMLWD
 70
    -2
  9
$DIMLWE
 70
    -2
  9
$DIMTMOVE
 70
     0
  9
$LUNITS
 70
     2
  9
$LUPREC
 70
     2
  9
$SKETCHINC
 40
1.0
  9
$FILLETRAD
 40
10.0
  9
$AUNITS
 70
     0
  9
$AUPREC
 70
     2
  9
$MENU
  1
.
  9
$ELEVATION
 40
0.0
  9
$PELEVATION
 40
0.0
  9
$THICKNESS
 40
0.0
  9
$LIMCHECK
 70
     0
  9
$CHAMFERA
 40
10.0
  9
$CHAMFERB
 40
10.0
  9
$CHAMFERC
 40
20.0
  9
$CHAMFERD
 40
0.0
  9
$SKPOLY
 70
     0
  9
$TDCREATE
 40
2456093.608632558
  9
$TDUCREATE
 40
2456093.525299225
  9
$TDUPDATE
 40
2456093.608634329
  9
$TDUUPDATE
 40
2456093.525300995
  9
$TDINDWG
 40
0.0000000116
  9
$TDUSRTIMER
 40
0.0000000116
  9
$USRTIMER
 70
     1
  9
$ANGBASE
 50
0.0
  9
$ANGDIR
 70
     0
  9
$PDMODE
 70
     0
  9
$PDSIZE
 40
-1.0
  9
$PLINEWID
 40
0.0
  9
$SPLFRAME
 70
     0
  9
$SPLINETYPE
 70
     6
  9
$SPLINESEGS
 70
     8
  9
$HANDSEED
  5
2F5
  9
$SURFTAB1
 70
     6
  9
$SURFTAB2
 70
     6
  9
$SURFTYPE
 70
     6
  9
$SURFU
 70
     6
  9
$SURFV
 70
     6
  9
$UCSBASE
  2

  9
$UCSNAME
  2

  9
$UCSORG
 10
0.0
 20
0.0
 30
0.0
  9
$UCSXDIR
 10
1.0
 20
0.0
 30
0.0
  9
$UCSYDIR
 10
0.0
 20
1.0
 30
0.0
  9
$UCSORTHOREF
  2

  9
$UCSORTHOVIEW
 70
     0
  9
$UCSORGTOP
 10
0.0
 20
0.0
 30
0.0
  9
$UCSORGBOTTOM
 10
0.0
 20
0.0
 30
0.0
  9
$UCSORGLEFT
 10
0.0
 20
0.0
 30
0.0
  9
$UCSORGRIGHT
 10
0.0
 20
0.0
 30
0.0
  9
$UCSORGFRONT
 10
0.0
 20
0.0
 30
0.0
  9
$UCSORGBACK
 10
0.0
 20
0.0
 30
0.0
  9
$PUCSBASE
  2

  9
$PUCSNAME
  2

  9
$PUCSORG
 10
0.0
 20
0.0
 30
0.0
  9
$PUCSXDIR
 10
1.0
 20
0.0
 30
0.0
  9
$PUCSYDIR
 10
0.0
 20
1.0
 30
0.0
  9
$PUCSORTHOREF
  2

  9
$PUCSORTHOVIEW
 70
     0
  9
$PUCSORGTOP
 10
0.0
 20
0.0
 30
0.0
  9
$PUCSORGBOTTOM
 10
0.0
 20
0.0
 30
0.0
  9
$PUCSORGLEFT
 10
0.0
 20
0.0
 30
0.0
  9
$PUCSORGRIGHT
 10
0.0
 20
0.0
 30
0.0
  9
$PUCSORGFRONT
 10
0.0
 20
0.0
 30
0.0
  9
$PUCSORGBACK
 10
0.0
 20
0.0
 30
0.0
  9
$USERI1
 70
     0
  9
$USERI2
 70
     0
  9
$USERI3
 70
     0
  9
$USERI4
 70
     0
  9
$USERI5
 70
     0
  9
$USERR1
 40
0.0
  9
$USERR2
 40
0.0
  9
$USERR3
 40
0.0
  9
$USERR4
 40
0.0
  9
$USERR5
 40
0.0
  9
$WORLDVIEW
 70
     1
  9
$SHADEDGE
 70
     3
  9
$SHADEDIF
 70
    70
  9
$TILEMODE
 70
     1
  9
$MAXACTVP
 70
    64
  9
$PINSBASE
 10
0.0
 20
0.0
 30
0.0
  9
$PLIMCHECK
 70
     0
  9
$PEXTMIN
 10
1.0000000000E+20
 20
1.0000000000E+20
 30
1.0000000000E+20
  9
$PEXTMAX
 10
-1.0000000000E+20
 20
-1.0000000000E+20
 30
-1.0000000000E+20
  9
$PLIMMIN
 10
0.0
 20
0.0
  9
$PLIMMAX
 10
420.0
 20
297.0
  9
$UNITMODE
 70
     0
  9
$VISRETAIN
 70
     1
  9
$PLINEGEN
 70
     0
  9
$PSLTSCALE
 70
     1
  9
$TREEDEPTH
 70
  3020
  9
$CMLSTYLE
  2
Standard
  9
$CMLJUST
 70
     0
  9
$CMLSCALE
 40
20.0
  9
$PROXYGRAPHICS
 70
     1
  9
$MEASUREMENT
 70
     1
  9
$CELWEIGHT
370
    -1
  9
$ENDCAPS
280
     0
  9
$JOINSTYLE
280
     0
  9
$LWDISPLAY
290
     1
  9
$INSUNITS
 70
     4
  9
$HYPERLINKBASE
  1

  9
$STYLESHEET
  1

  9
$XEDIT
290
     1
  9
$CEPSNTYPE
380
     0
  9
$PSTYLEMODE
290
     1
  9
$FINGERPRINTGUID
  2
{6A2C1FD6-AD6A-40A3-8ADB-2B5800C13B91}
  9
$VERSIONGUID
  2
{FAEB1C32-E019-11D5-929B-00C0DF256EC4}
  9
$EXTNAMES
290
     1
  9
$PSVPSCALE
 40
0.0
  9
$OLESTARTUP
290
     0
  0
ENDSEC
  0
SECTION
  2
CLASSES
  0
CLASS
  1
ACDBDICTIONARYWDFLT
  2
AcDbDictionaryWithDefault
  3
ObjectDBX Classes
 90
        0
280
     0
281
     0
  0
CLASS
  1
VISUALSTYLE
  2
AcDbVisualStyle
  3
ObjectDBX Classes
 90
     4095
280
     0
281
     0
  0
CLASS
  1
MATERIAL
  2
AcDbMaterial
  3
ObjectDBX Classes
 90
     1153
280
     0
281
     0
  0
CLASS
  1
ACDBPLACEHOLDER
  2
AcDbPlaceHolder
  3
ObjectDBX Classes
 90
        0
280
     0
281
     0
  0
CLASS
  1
LAYOUT
  2
AcDbLayout
  3
ObjectDBX Classes
 90
        0
280
     0
281
     0
  0
ENDSEC
  0
SECTION
  2
TABLES
  0
TABLE
  2
VPORT
  5
8
330
0
100
AcDbSymbolTable
 70
     1
  0
VPORT
  5
29
330
8
100
AcDbSymbolTableRecord
100
AcDbViewportTableRecord
  2
*Active
 70
     0
 10
0.0
 20
0.0
 11
1.0
 21
1.0
 12
148.5
 22
105.0
 13
0.0
 23
0.0
 14
10.0
 24
10.0
 15
10.0
 25
10.0
 16
0.0
 26
0.0
 36
1.0
 17
0.0
 27
0.0
 37
0.0
 40
210.0
 41
1.4142857143
 42
50.0
 43
0.0
 44
0.0
 50
0.0
 51
0.0
 71
     0
 72
  2000
 73
     1
 74
     3
 75
     0
 76
     0
 77
     0
 78
     0
281
     0
 65
     1
110
0.0
120
0.0
130
0.0
111
1.0
121
0.0
131
0.0
112
0.0
122
1.0
132
0.0
 79
     0
146
0.0
  0
ENDTAB
  0
TABLE
  2
LTYPE
  5
5
330
0
100
AcDbSymbolTable
 70
     6
  0
LTYPE
  5
14
330
5
100
AcDbSymbolTableRecord
100
AcDbLinetypeTableRecord
  2
ByBlock
 70
     0
  3

 72
    65
 73
     0
 40
0.0
  0
LTYPE
  5
15
330
5
100
AcDbSymbolTableRecord
100
AcDbLinetypeTableRecord
  2
ByLayer
 70
     0
  3

 72
    65
 73
     0
 40
0.0
  0
LTYPE
  5
16
330
5
100
AcDbSymbolTableRecord
100
AcDbLinetypeTableRecord
  2
Continuous
 70
     0
  3
Solid line
 72
    65
 73
     0
 40
0.0
  0
LTYPE
  5
3F
330
5
100
AcDbSymbolTableRecord
100
AcDbLinetypeTableRecord
  2
HIDDEN
 70
     0
  3
Hidden __ __ __ __ __ __ __ __ __ __ __ __ __ __
 72
    65
 73
     2
 40
1.905
 49
1.27
 74
     0
 49
-0.635
 74
     0
  0
LTYPE
  5
40
330
5
100
AcDbSymbolTableRecord
100
AcDbLinetypeTableRecord
  2
PHANTOM
 70
     0
  3
Phantom ______  __  __  ______  __  __  ______
 72
    65
 73
     6
 40
12.7
 49
6.35
 74
     0
 49
-1.27
 74
     0
 49
1.27
 74
     0
 49
-1.27
 74
     0
 49
1.27
 74
     0
 49
-1.27
 74
     0
  0
LTYPE
  5
41
330
5
100
AcDbSymbolTableRecord
100
AcDbLinetypeTableRecord
  2
CENTER
 70
     0
  3
Center ____ _ ____ _ ____ _ ____ _ ____ _ ____
 72
    65
 73
     4
 40
10.16
 49
6.35
 74
     0
 49
-1.27
 74
     0
 49
1.27
 74
     0
 49
-1.27
 74
     0
  0
LTYPE
  5
42
330
5
100
AcDbSymbolTableRecord
100
AcDbLinetypeTableRecord
  2
CENTERX2
 70
     0
  3
Center (2x) ________  __  ________  __  _____
 72
    65
 73
     4
 40
20.32
 49
12.7
 74
     0
 49
-2.54
 74
     0
 49
2.54
 74
     0
 49
-2.54
 74
     0
  0
LTYPE
  5
43
330
5
100
AcDbSymbolTableRecord
100
AcDbLinetypeTableRecord
  2
DOT2
 70
     0
  3
Dot (.5x) ........................................
 72
    65
 73
     2
 40
0.635
 49
0.0
 74
     0
 49
-0.635
 74
     0
  0
ENDTAB
  0
TABLE
  2
LAYER
  5
2
330
0
100
AcDbSymbolTable
 70
     5
  0
LAYER
  5
10
330
2
100
AcDbSymbolTableRecord
100
AcDbLayerTableRecord
  2
0
 70
     0
 62
     7
  6
Continuous
370
    -3
390
F
  0
LAYER
  5
44
330
2
100
AcDbSymbolTableRecord
100
AcDbLayerTableRecord
  2
FORMAT
 70
     0
 62
     7
  6
Continuous
370
    -3
390
F
  0
LAYER
  5
45
330
2
100
AcDbSymbolTableRecord
100
AcDbLayerTableRecord
  2
VERMASSUNG
 70
     0
 62
     7
  6
Continuous
370
    -3
390
F
  0
LAYER
  5
46
330
2
100
AcDbSymbolTableRecord
100
AcDbLayerTableRecord
  2
KOPF_DÜNN
 70
     0
 62
     7
  6
Continuous
370
    -3
390
F
  0
LAYER
  5
47
330
2
100
AcDbSymbolTableRecord
100
AcDbLayerTableRecord
  2
KOPF_DICK
 70
     0
 62
     7
  6
Continuous
370
    15
390
F
  0
ENDTAB
  0
TABLE
  2
STYLE
  5
3
330
0
100
AcDbSymbolTable
 70
     2
  0
STYLE
  5
11
330
3
100
AcDbSymbolTableRecord
100
AcDbTextStyleTableRecord
  2
Standard
 70
     0
 40
0.0
 41
1.0
 50
0.0
 71
     0
 42
2.0
  3
txt
  4

  0
STYLE
  5
48
330
3
100
AcDbSymbolTableRecord
100
AcDbTextStyleTableRecord
  2
SLDTEXTSTYLE0
 70
     0
 40
0.0
 41
0.7
 50
0.0
 71
     0
 42
0.2
  3
TXT
  4

  0
ENDTAB
  0
TABLE
  2
VIEW
  5
6
330
0
100
AcDbSymbolTable
 70
     0
  0
ENDTAB
  0
TABLE
  2
UCS
  5
7
330
0
100
AcDbSymbolTable
 70
     0
  0
ENDTAB
  0
TABLE
  2
APPID
  5
9
330
0
100
AcDbSymbolTable
 70
     1
  0
APPID
  5
12
330
9
100
AcDbSymbolTableRecord
100
AcDbRegAppTableRecord
  2
ACAD
 70
     0
  0
ENDTAB
  0
TABLE
  2
DIMSTYLE
  5
A
330
0
100
AcDbSymbolTable
 70
     5
100
AcDbDimStyleTable
  0
DIMSTYLE
105
27
330
A
100
AcDbSymbolTableRecord
100
AcDbDimStyleTableRecord
  2
ISO-25
 70
     0
 41
2.5
 42
0.625
 43
3.75
 44
1.25
 73
     0
 74
     0
 77
     1
 78
     8
140
2.5
141
2.5
143
0.0393700787
147
0.625
171
     3
172
     1
178
     0
271
     2
272
     2
274
     3
278
    44
283
     0
284
     8
340
11
  0
DIMSTYLE
105
22F
102
{ACAD_REACTORS
330
22E
102
}
330
A
100
AcDbSymbolTableRecord
100
AcDbDimStyleTableRecord
  2
SLDDIMSTYLE0
 70
     0
 41
3.0
 44
0.0
 73
     0
 74
     0
 77
     1
 78
    12
 79
     3
140
2.0
147
0.5
173
     1
178
     0
179
     1
272
     3
276
     2
284
    12
340
48
  0
DIMSTYLE
105
239
102
{ACAD_REACTORS
330
238
330
243
330
24D
330
257
102
}
330
A
100
AcDbSymbolTableRecord
100
AcDbDimStyleTableRecord
  2
SLDDIMSTYLE1
 70
     0
 41
3.0
 44
0.0
 45
0.000000001
 73
     0
 74
     0
 77
     1
 78
    12
 79
     3
140
2.0
147
0.5
173
     1
178
     0
271
     2
272
     3
276
     2
284
    12
340
48
  0
DIMSTYLE
105
2CF
102
{ACAD_REACTORS
330
2CE
102
}
330
A
100
AcDbSymbolTableRecord
100
AcDbDimStyleTableRecord
  2
SLDDIMSTYLE2
 70
     0
 41
3.0
 44
0.0
 73
     0
 74
     0
 77
     1
 78
    12
 79
     3
140
2.0
147
0.5
173
     1
178
     0
179
     2
272
     3
276
     2
284
    12
340
48
  0
DIMSTYLE
105
2DA
102
{ACAD_REACTORS
330
2D9
102
}
330
A
100
AcDbSymbolTableRecord
100
AcDbDimStyleTableRecord
  2
SLDDIMSTYLE3
 70
     0
 41
3.0
 44
0.0
 45
0.000000001
 73
     0
 74
     0
 77
     1
 78
    12
 79
     3
140
2.0
147
0.5
172
     1
173
     1
178
     0
271
     2
272
     3
276
     2
284
    12
289
     0
340
48
  0
ENDTAB
  0
TABLE
  2
BLOCK_RECORD
  5
1
330
0
100
AcDbSymbolTable
 70
     9
  0
BLOCK_RECORD
  5
1F
330
1
100
AcDbSymbolTableRecord
100
AcDbBlockTableRecord
  2
*Model_Space
340
22
  0
BLOCK_RECORD
  5
1B
330
1
100
AcDbSymbolTableRecord
100
AcDbBlockTableRecord
  2
*Paper_Space
340
1E
  0
BLOCK_RECORD
  5
23
330
1
100
AcDbSymbolTableRecord
100
AcDbBlockTableRecord
  2
*Paper_Space0
340
26
  0
BLOCK_RECORD
  5
230
330
1
100
AcDbSymbolTableRecord
100
AcDbBlockTableRecord
  2
_D
340
0
  0
BLOCK_RECORD
  5
23A
330
1
100
AcDbSymbolTableRecord
100
AcDbBlockTableRecord
  2
_D_1
340
0
  0
BLOCK_RECORD
  5
244
330
1
100
AcDbSymbolTableRecord
100
AcDbBlockTableRecord
  2
_D_2
340
0
  0
BLOCK_RECORD
  5
24E
330
1
100
AcDbSymbolTableRecord
100
AcDbBlockTableRecord
  2
_D_3
340
0
  0
BLOCK_RECORD
  5
258
330
1
100
AcDbSymbolTableRecord
100
AcDbBlockTableRecord
  2
_D_4
340
0
  0
BLOCK_RECORD
  5
2D0
330
1
100
AcDbSymbolTableRecord
100
AcDbBlockTableRecord
  2
_D_5
340
0
  0
BLOCK_RECORD
  5
2DB
330
1
100
AcDbSymbolTableRecord
100
AcDbBlockTableRecord
  2
_D_6
340
0
  0
BLOCK_RECORD
  5
2E8
330
1
100
AcDbSymbolTableRecord
100
AcDbBlockTableRecord
  2
SW_CENTERMARKSYMBOL_0
340
0
102
{BLKREFS
331
2F3
102
}
  0
ENDTAB
  0
ENDSEC
  0
SECTION
  2
BLOCKS
  0
BLOCK
  5
20
330
1F
100
AcDbEntity
  8
0
100
AcDbBlockBegin
  2
*Model_Space
 70
     0
 10
0.0
 20
0.0
 30
0.0
  3
*Model_Space
  1

  0
ENDBLK
  5
21
330
1F
100
AcDbEntity
  8
0
100
AcDbBlockEnd
  0
BLOCK
  5
1C
330
1B
100
AcDbEntity
 67
     1
  8
0
100
AcDbBlockBegin
  2
*Paper_Space
 70
     0
 10
0.0
 20
0.0
 30
0.0
  3
*Paper_Space
  1

  0
ENDBLK
  5
1D
330
1B
100
AcDbEntity
 67
     1
  8
0
100
AcDbBlockEnd
  0
BLOCK
  5
24
330
23
100
AcDbEntity
  8
0
100
AcDbBlockBegin
  2
*Paper_Space0
 70
     0
 10
0.0
 20
0.0
 30
0.0
  3
*Paper_Space0
  1

  0
ENDBLK
  5
25
330
23
100
AcDbEntity
  8
0
100
AcDbBlockEnd
  0
BLOCK
  5
231
330
230
100
AcDbEntity
  8
0
100
AcDbBlockBegin
  2
_D
 70
     0
 10
0.0
 20
0.0
 30
0.0
  3
_D
  1

  0
ARC
  5
233
330
230
100
AcDbEntity
  8
VERMASSUNG
100
AcDbCircle
 10
224.6803784567
 20
138.7852121972
 30
0.0
 40
12.15866377973671
100
AcDbArc
 50
252.5469096605
 51
0.0
  0
SOLID
  5
234
330
230
100
AcDbEntity
  8
VERMASSUNG
100
AcDbTrace
 10
221.033692876
 20
127.1862989212
 30
0.0
 11
223.9010543367
 21
126.1959766233
 31
0.0
 12
224.0654214992
 22
127.0808401359
 32
0.0
 13
224.0654214992
 23
127.0808401359
 33
0.0
  0
SOLID
  5
235
330
230
100
AcDbEntity
  8
VERMASSUNG
100
AcDbTrace
 10
236.8390422365
 20
138.7852121972
 30
0.0
 11
236.0303552025
 21
135.8614260763
 31
0.0
 12
236.9237798996
 22
135.7528336707
 32
0.0
 13
236.9237798996
 23
135.7528336707
 33
0.0
  0
LINE
  5
236
330
230
100
AcDbEntity
  8
VERMASSUNG
100
AcDbLine
 10
236.7913891514
 20
138.7852121972
 30
0.0
 11
237.8390422365
 21
138.7852121972
 31
0.0
  0
MTEXT
  5
237
330
230
100
AcDbEntity
  8
VERMASSUNG
100
AcDbMText
 10
226.8013088109
 20
128.4581516782
 30
0.1
 40
2.0
 41
0.0
 71
     1
 72
     1
  1
107.5°
  7
SLDTEXTSTYLE0
 11
0.8062024758119999
 21
0.591639728208478
 31
0.0
 73
     1
 44
1.0
  0
ENDBLK
  5
232
330
230
100
AcDbEntity
  8
0
100
AcDbBlockEnd
  0
BLOCK
  5
23B
330
23A
100
AcDbEntity
  8
0
100
AcDbBlockBegin
  2
_D_1
 70
     0
 10
0.0
 20
0.0
 30
0.0
  3
_D_1
  1

  0
SOLID
  5
23D
330
23A
100
AcDbEntity
  8
VERMASSUNG
100
AcDbTrace
 10
169.5349930221
 20
145.1131384938
 30
0.0
 11
172.5349930221
 21
144.6631384938
 31
0.0
 12
172.5349930221
 22
145.5631384938
 32
0.0
 13
172.5349930221
 23
145.5631384938
 33
0.0
  0
SOLID
  5
23E
330
23A
100
AcDbEntity
  8
VERMASSUNG
100
AcDbTrace
 10
224.5349930221
 20
145.1131384938
 30
0.0
 11
221.5349930221
 21
145.5631384938
 31
0.0
 12
221.5349930221
 22
144.6631384938
 32
0.0
 13
221.5349930221
 23
144.6631384938
 33
0.0
  0
LINE
  5
23F
330
23A
100
AcDbEntity
  8
VERMASSUNG
100
AcDbLine
 10
169.5349930221
 20
131.4852121972
 30
0.0
 11
169.5349930221
 21
146.1131384938
 31
0.0
  0
LINE
  5
240
330
23A
100
AcDbEntity
  8
VERMASSUNG
100
AcDbLine
 10
224.5349930221
 20
138.7852121972
 30
0.0
 11
224.5349930221
 21
146.1131384938
 31
0.0
  0
LINE
  5
241
330
23A
100
AcDbEntity
  8
VERMASSUNG
100
AcDbLine
 10
169.5349930221
 20
145.1131384938
 30
0.0
 11
224.5349930221
 21
145.1131384938
 31
0.0
  0
MTEXT
  5
242
330
23A
100
AcDbEntity
  8
VERMASSUNG
100
AcDbMText
 10
194.7349929711
 20
147.6912738569
 30
0.1
 40
2.0
 41
0.0
 71
     1
 72
     1
  1
55
  7
SLDTEXTSTYLE0
 73
     1
 44
1.0
  0
ENDBLK
  5
23C
330
23A
100
AcDbEntity
  8
0
100
AcDbBlockEnd
  0
BLOCK
  5
245
330
244
100
AcDbEntity
  8
0
100
AcDbBlockBegin
  2
_D_2
 70
     0
 10
0.0
 20
0.0
 30
0.0
  3
_D_2
  1

  0
SOLID
  5
247
330
244
100
AcDbEntity
  8
VERMASSUNG
100
AcDbTrace
 10
149.6349930221
 20
152.9121966851
 30
0.0
 11
152.6349930221
 21
152.4621966851
 31
0.0
 12
152.6349930221
 22
153.3621966851
 32
0.0
 13
152.6349930221
 23
153.3621966851
 33
0.0
  0
SOLID
  5
248
330
244
100
AcDbEntity
  8
VERMASSUNG
100
AcDbTrace
 10
224.5349930221
 20
152.9121966851
 30
0.0
 11
221.5349930221
 21
153.3621966851
 31
0.0
 12
221.5349930221
 22
152.4621966851
 32
0.0
 13
221.5349930221
 23
152.4621966851
 33
0.0
  0
LINE
  5
249
330
244
100
AcDbEntity
  8
VERMASSUNG
100
AcDbLine
 10
149.6349930221
 20
123.7152121972
 30
0.0
 11
149.6349930221
 21
153.9121966851
 31
0.0
  0
LINE
  5
24A
330
244
100
AcDbEntity
  8
VERMASSUNG
100
AcDbLine
 10
224.5349930221
 20
138.7852121972
 30
0.0
 11
224.5349930221
 21
153.9121966851
 31
0.0
  0
LINE
  5
24B
330
244
100
AcDbEntity
  8
VERMASSUNG
100
AcDbLine
 10
149.6349930221
 20
152.9121966851
 30
0.0
 11
224.5349930221
 21
152.9121966851
 31
0.0
  0
MTEXT
  5
24C
330
244
100
AcDbEntity
  8
VERMASSUNG
100
AcDbMText
 10
183.6849929771
 20
155.4903320482
 30
0.1
 40
2.0
 41
0.0
 71
     1
 72
     1
  1
74.9
  7
SLDTEXTSTYLE0
 73
     1
 44
1.0
  0
ENDBLK
  5
246
330
244
100
AcDbEntity
  8
0
100
AcDbBlockEnd
  0
BLOCK
  5
24F
330
24E
100
AcDbEntity
  8
0
100
AcDbBlockBegin
  2
_D_3
 70
     0
 10
0.0
 20
0.0
 30
0.0
  3
_D_3
  1

  0
SOLID
  5
251
330
24E
100
AcDbEntity
  8
VERMASSUNG
100
AcDbTrace
 10
243.0694392484
 20
138.7852121972
 30
0.0
 11
242.6194392484
 21
135.7852121972
 31
0.0
 12
243.5194392484
 22
135.7852121972
 32
0.0
 13
243.5194392484
 23
135.7852121972
 33
0.0
  0
SOLID
  5
252
330
24E
100
AcDbEntity
  8
VERMASSUNG
100
AcDbTrace
 10
243.0694392484
 20
111.7852121972
 30
0.0
 11
243.5194392484
 21
114.7852121972
 31
0.0
 12
242.6194392484
 22
114.7852121972
 32
0.0
 13
242.6194392484
 23
114.7852121972
 33
0.0
  0
LINE
  5
253
330
24E
100
AcDbEntity
  8
VERMASSUNG
100
AcDbLine
 10
224.5349930221
 20
138.7852121972
 30
0.0
 11
244.0694392484
 21
138.7852121972
 31
0.0
  0
LINE
  5
254
330
24E
100
AcDbEntity
  8
VERMASSUNG
100
AcDbLine
 10
224.5349930221
 20
111.7852121972
 30
0.0
 11
244.0694392484
 21
111.7852121972
 31
0.0
  0
LINE
  5
255
330
24E
100
AcDbEntity
  8
VERMASSUNG
100
AcDbLine
 10
243.0694392484
 20
138.7852121972
 30
0.0
 11
243.0694392484
 21
111.7852121972
 31
0.0
  0
MTEXT
  5
256
330
24E
100
AcDbEntity
  8
VERMASSUNG
100
AcDbMText
 10
240.4913038852
 20
122.9852121462
 30
0.1
 40
2.0
 41
0.0
 71
     1
 72
     1
  1
27
  7
SLDTEXTSTYLE0
 11
-7.044195017643634E-15
 21
1.0
 31
0.0
 73
     1
 44
1.0
  0
ENDBLK
  5
250
330
24E
100
AcDbEntity
  8
0
100
AcDbBlockEnd
  0
BLOCK
  5
259
330
258
100
AcDbEntity
  8
0
100
AcDbBlockBegin
  2
_D_4
 70
     0
 10
0.0
 20
0.0
 30
0.0
  3
_D_4
  1

  0
SOLID
  5
25B
330
258
100
AcDbEntity
  8
VERMASSUNG
100
AcDbTrace
 10
142.9725710026
 20
131.7852121972
 30
0.0
 11
142.5225710026
 21
128.7852121972
 31
0.0
 12
143.4225710026
 22
128.7852121972
 32
0.0
 13
143.4225710026
 23
128.7852121972
 33
0.0
  0
SOLID
  5
25C
330
258
100
AcDbEntity
  8
VERMASSUNG
100
AcDbTrace
 10
142.9725710026
 20
91.7852121972
 30
0.0
 11
143.4225710026
 21
94.7852121972
 31
0.0
 12
142.5225710026
 22
94.7852121972
 32
0.0
 13
142.5225710026
 23
94.7852121972
 33
0.0
  0
LINE
  5
25D
330
258
100
AcDbEntity
  8
VERMASSUNG
100
AcDbLine
 10
169.8349930221
 20
131.7852121972
 30
0.0
 11
141.9725710026
 21
131.7852121972
 31
0.0
  0
LINE
  5
25E
330
258
100
AcDbEntity
  8
VERMASSUNG
100
AcDbLine
 10
169.8349930221
 20
91.7852121972
 30
0.0
 11
141.9725710026
 21
91.7852121972
 31
0.0
  0
LINE
  5
25F
330
258
100
AcDbEntity
  8
VERMASSUNG
100
AcDbLine
 10
142.9725710026
 20
131.7852121972
 30
0.0
 11
142.9725710026
 21
91.7852121972
 31
0.0
  0
MTEXT
  5
260
330
258
100
AcDbEntity
  8
VERMASSUNG
100
AcDbMText
 10
140.1944355136
 20
103.7802115464
 30
0.1
 40
2.0
 41
0.0
 71
     1
 72
     1
  1
HSK T
  7
SLDTEXTSTYLE0
 11
-7.044195017643634E-15
 21
1.0
 31
0.0
 73
     1
 44
1.0
  0
MTEXT
  5
261
330
258
100
AcDbEntity
  8
VERMASSUNG
100
AcDbMText
 10
140.3944355231
 20
111.3802116745
 30
0.1
 40
2.0
 41
0.0
 71
     1
 72
     1
  1
%%c
  7
SLDTEXTSTYLE0
 11
-7.044195017643634E-15
 21
1.0
 31
0.0
 73
     1
 44
1.0
  0
MTEXT
  5
262
330
258
100
AcDbEntity
  8
VERMASSUNG
100
AcDbMText
 10
140.1944355136
 20
114.9902116888
 30
0.1
 40
2.0
 41
0.0
 71
     1
 72
     1
  1
40
  7
SLDTEXTSTYLE0
 11
-7.044195017643634E-15
 21
1.0
 31
0.0
 73
     1
 44
1.0
  0
ENDBLK
  5
25A
330
258
100
AcDbEntity
  8
0
100
AcDbBlockEnd
  0
BLOCK
  5
2D1
330
2D0
100
AcDbEntity
  8
0
100
AcDbBlockBegin
  2
_D_5
 70
     0
 10
0.0
 20
0.0
 30
0.0
  3
_D_5
  1

  0
ARC
  5
2D3
330
2D0
100
AcDbEntity
  8
VERMASSUNG
100
AcDbCircle
 10
84.454036275
 20
139.4483882783
 30
0.0
 40
59.46606202136274
100
AcDbArc
 50
260.0
 51
270.0
  0
SOLID
  5
2D4
330
2D0
100
AcDbEntity
  8
VERMASSUNG
100
AcDbTrace
 10
74.127862972
 20
80.8857493585
 30
0.0
 11
77.0275270406
 21
79.9944310714
 31
0.0
 12
77.1614249409
 22
80.884414977
 32
0.0
 13
77.1614249409
 23
80.884414977
 33
0.0
  0
SOLID
  5
2D5
330
2D0
100
AcDbEntity
  8
VERMASSUNG
100
AcDbTrace
 10
84.454036275
 20
79.9823262569
 30
0.0
 11
81.4663292159
 21
80.5077846554
 31
0.0
 12
81.4436488228
 22
79.6080704787
 32
0.0
 13
81.4436488228
 23
79.6080704787
 33
0.0
  0
LINE
  5
2D6
330
2D0
100
AcDbEntity
  8
VERMASSUNG
100
AcDbLine
 10
75.0704911858
 20
86.2316596101
 30
0.0
 11
73.9542147943
 21
79.9009416055
 31
0.0
  0
LINE
  5
2D7
330
2D0
100
AcDbEntity
  8
VERMASSUNG
100
AcDbLine
 10
84.454036275
 20
89.2852121972
 30
0.0
 11
84.454036275
 21
78.9823262569
 31
0.0
  0
MTEXT
  5
2D8
330
2D0
100
AcDbEntity
  8
VERMASSUNG
100
AcDbMText
 10
76.8062010191
 20
83.0122578674
 30
0.1
 40
2.0
 41
0.0
 71
     1
 72
     1
  1
10°
  7
SLDTEXTSTYLE0
 11
0.9961946980917471
 21
-0.08715574274764062
 31
0.0
 73
     1
 44
1.0
  0
ENDBLK
  5
2D2
330
2D0
100
AcDbEntity
  8
0
100
AcDbBlockEnd
  0
BLOCK
  5
2DC
330
2DB
100
AcDbEntity
  8
0
100
AcDbBlockBegin
  2
_D_6
 70
     0
 10
0.0
 20
0.0
 30
0.0
  3
_D_6
  1

  0
SOLID
  5
2DE
330
2DB
100
AcDbEntity
  8
VERMASSUNG
100
AcDbTrace
 10
96.954036275
 20
91.9756867475
 30
0.0
 11
98.0643248433
 21
89.1526105361
 31
0.0
 12
98.8437477067
 22
89.6026105361
 32
0.0
 13
98.8437477067
 23
89.6026105361
 33
0.0
  0
SOLID
  5
2DF
330
2DB
100
AcDbEntity
  8
VERMASSUNG
100
AcDbTrace
 10
71.954036275
 20
135.2769569367
 30
0.0
 11
70.8437477067
 21
138.100033148
 31
0.0
 12
70.0643248433
 22
137.650033148
 32
0.0
 13
70.0643248433
 23
137.650033148
 33
0.0
  0
LINE
  5
2E0
330
2DB
100
AcDbEntity
  8
VERMASSUNG
100
AcDbLine
 10
96.954036275
 20
91.9756867475
 30
0.0
 11
97.8200616788
 21
92.4756867475
 31
0.0
  0
LINE
  5
2E1
330
2DB
100
AcDbEntity
  8
VERMASSUNG
100
AcDbLine
 10
71.954036275
 20
135.2769569367
 30
0.0
 11
72.8200616788
 21
135.7769569367
 31
0.0
  0
LINE
  5
2E2
330
2DB
100
AcDbEntity
  8
VERMASSUNG
100
AcDbLine
 10
96.954036275
 20
91.9756867475
 30
0.0
 11
99.954036275
 21
86.7795343248
 31
0.0
  0
LINE
  5
2E3
330
2DB
100
AcDbEntity
  8
VERMASSUNG
100
AcDbLine
 10
96.954036275
 20
91.9756867475
 30
0.0
 11
71.954036275
 21
135.2769569367
 31
0.0
  0
LINE
  5
2E4
330
2DB
100
AcDbEntity
  8
VERMASSUNG
100
AcDbLine
 10
71.954036275
 20
135.2769569367
 30
0.0
 11
63.0330427429
 21
150.7285709884
 31
0.0
  0
MTEXT
  5
2E5
330
2DB
100
AcDbEntity
  8
VERMASSUNG
100
AcDbMText
 10
65.2657735625
 20
152.0176387282
 30
0.1
 40
2.0
 41
0.0
 71
     1
 72
     1
  1
%%c
  7
SLDTEXTSTYLE0
 11
0.4999999999999976
 21
-0.86602540378444
 31
0.0
 73
     1
 44
1.0
  0
MTEXT
  5
2E6
330
2DB
100
AcDbEntity
  8
VERMASSUNG
100
AcDbMText
 10
67.2439786587
 20
148.9912870129
 30
0.1
 40
2.0
 41
0.0
 71
     1
 72
     1
  1
50
  7
SLDTEXTSTYLE0
 11
0.4999999999999976
 21
-0.86602540378444
 31
0.0
 73
     1
 44
1.0
  0
MTEXT
  5
2E7
330
2DB
100
AcDbEntity
  8
VERMASSUNG
100
AcDbMText
 10
70.1377289425
 20
143.9791644968
 30
0.1
 40
2.0
 41
0.0
 71
     1
 72
     1
  1
min.
  7
SLDTEXTSTYLE0
 11
0.4999999999999976
 21
-0.86602540378444
 31
0.0
 73
     1
 44
1.0
  0
ENDBLK
  5
2DD
330
2DB
100
AcDbEntity
  8
0
100
AcDbBlockEnd
  0
BLOCK
  5
2E9
330
2E8
100
AcDbEntity
  8
0
100
AcDbBlockBegin
  2
SW_CENTERMARKSYMBOL_0
 70
     0
 10
0.0
 20
0.0
 30
0.0
  3
SW_CENTERMARKSYMBOL_0
  1

  0
LINE
  5
2EB
330
2E8
100
AcDbEntity
  8
VERMASSUNG
 62
     0
100
AcDbLine
 10
0.0
 20
0.0
 30
0.0
 11
0.0
 21
2.5
 31
0.0
  0
LINE
  5
2EC
330
2E8
100
AcDbEntity
  8
VERMASSUNG
 62
     0
100
AcDbLine
 10
0.0
 20
0.0
 30
0.0
 11
-2.5
 21
0.0
 31
0.0
  0
LINE
  5
2ED
330
2E8
100
AcDbEntity
  8
VERMASSUNG
 62
     0
100
AcDbLine
 10
0.0
 20
0.0
 30
0.0
 11
0.0
 21
-2.5
 31
0.0
  0
LINE
  5
2EE
330
2E8
100
AcDbEntity
  8
VERMASSUNG
 62
     0
100
AcDbLine
 10
0.0
 20
0.0
 30
0.0
 11
2.5
 21
0.0
 31
0.0
  0
LINE
  5
2EF
330
2E8
100
AcDbEntity
  8
VERMASSUNG
 62
     0
100
AcDbLine
 10
0.0
 20
5.0
 30
0.0
 11
0.0
 21
29.1569993106
 31
0.0
  0
LINE
  5
2F0
330
2E8
100
AcDbEntity
  8
VERMASSUNG
 62
     0
100
AcDbLine
 10
-5.0
 20
0.0
 30
0.0
 11
-22.5
 21
0.0
 31
0.0
  0
LINE
  5
2F1
330
2E8
100
AcDbEntity
  8
VERMASSUNG
 62
     0
100
AcDbLine
 10
0.0
 20
-5.0
 30
0.0
 11
0.0
 21
-22.5
 31
0.0
  0
LINE
  5
2F2
330
2E8
100
AcDbEntity
  8
VERMASSUNG
 62
     0
100
AcDbLine
 10
5.0
 20
0.0
 30
0.0
 11
22.5
 21
0.0
 31
0.0
  0
ENDBLK
  5
2EA
330
2E8
100
AcDbEntity
  8
0
100
AcDbBlockEnd
  0
ENDSEC
  0
SECTION
  2
ENTITIES
  0
MTEXT
  5
49
330
1F
100
AcDbEntity
  8
KOPF_DÜNN
100
AcDbMText
 10
13.8892156294
 20
23.8442973028
 30
0.0
 40
3.0
 41
0.0
 71
     1
 72
     1
  1
HA4.PDF.RHA.055
  7
SLDTEXTSTYLE0
 73
     1
 44
1.0
  0
MTEXT
  5
4A
330
1F
100
AcDbEntity
  8
VERMASSUNG
100
AcDbMText
 10
13.9329988022
 20
28.8834360957
 30
0.0
 40
3.0
 41
0.0
 71
     1
 72
     1
  1
Klemmhalter rechts_Turning tool right 107.5° /55°
  7
SLDTEXTSTYLE0
 73
     1
 44
1.0
  0
MTEXT
  5
4B
330
1F
100
AcDbEntity
  8
VERMASSUNG
100
AcDbMText
 10
98.8601118557
 20
13.8365368179
 30
0.0
 40
2.0
 41
0.0
 71
     1
 72
     1
  1
Datum: 14.06.2012
  7
SLDTEXTSTYLE0
 73
     1
 44
1.0
  0
MTEXT
  5
4C
330
1F
100
AcDbEntity
  8
VERMASSUNG
100
AcDbMText
 10
13.933048693
 20
18.0482802738
 30
0.0
 40
2.0
 41
0.0
 71
     1
 72
     1
  1
HSK T ø40 / DN..15 06..
  7
SLDTEXTSTYLE0
 73
     1
 44
1.0
  0
MTEXT
  5
4D
330
1F
100
AcDbEntity
  8
VERMASSUNG
100
AcDbMText
 10
13.9808475933
 20
13.9090973692
 30
0.0
 40
2.0
 41
0.0
 71
     1
 72
     1
  1
Gewicht: 336g
  7
SLDTEXTSTYLE0
 73
     1
 44
1.0
  0
LINE
  5
4E
330
1F
100
AcDbEntity
  8
0
  6
Continuous
 62
     7
370
    15
100
AcDbLine
 10
169.8349930364
 20
91.7852126443
 30
0.0
 11
177.4849934871
 21
91.7852126443
 31
0.0
  0
LINE
  5
4F
330
1F
100
AcDbEntity
  8
0
  6
Continuous
 62
     7
370
    15
100
AcDbLine
 10
177.500520497
 20
131.7852117502
 30
0.0
 11
169.8349930364
 21
131.7852117502
 31
0.0
  0
ARC
  5
50
330
1F
100
AcDbEntity
  8
0
  6
Continuous
 62
     7
370
    15
100
AcDbCircle
 10
169.8349930221
 20
92.0852121972
 30
0.0
 40
0.3000000000000114
100
AcDbArc
 50
180.0
 51
270.0
  0
ARC
  5
51
330
1F
100
AcDbEntity
  8
0
  6
Continuous
 62
     7
370
    15
100
AcDbCircle
 10
169.8349930221
 20
131.4852121972
 30
0.0
 40
0.3000000000000114
100
AcDbArc
 50
90.0
 51
180.0
  0
ARC
  5
52
330
1F
100
AcDbEntity
  8
0
  6
Continuous
 62
     7
370
    15
100
AcDbCircle
 10
190.4849930221
 20
94.2852121972
 30
0.0
 40
1.0
100
AcDbArc
 50
90.0
 51
143.1137328946
  0
ARC
  5
53
330
1F
100
AcDbEntity
  8
0
  6
Continuous
 62
     7
370
    15
100
AcDbCircle
 10
190.4849930221
 20
129.2852121972
 30
0.0
 40
1.000000000000011
100
AcDbArc
 50
216.8998129703
 51
270.0
  0
LINE
  5
54
330
1F
100
AcDbEntity
  8
0
  6
Continuous
 62
     7
370
    15
100
AcDbLine
 10
203.7676653261
 20
128.2852121078
 30
0.0
 11
190.4849937553
 21
128.2852121078
 31
0.0
  0
LINE
  5
55
330
1F
100
AcDbEntity
  8
0
  6
Continuous
 62
     7
370
    15
100
AcDbLine
 10
190.4849937553
 20
95.2852122866
 30
0.0
 11
203.7676653261
 21
95.2852122866
 31
0.0
  0
ARC
  5
56
330
1F
100
AcDbEntity
  8
0
  6
Continuous
 62
     7
370
    15
100
AcDbCircle
 10
169.0349862695
 20
96.3315050438
 30
0.0
 40
0.60000675266771
100
AcDbArc
 50
33.5571153394
 51
90.0
  0
ARC
  5
57
330
1F
100
AcDbEntity
  8
0
  6
Continuous
 62
     7
370
    15
100
AcDbCircle
 10
169.0349862695
 20
127.2389193507
 30
0.0
 40
0.6000067526677242
100
AcDbArc
 50
270.0
 51
326.4428846606
  0
LINE
  5
58
330
1F
100
AcDbEntity
  8
0
  6
Continuous
 62
     7
370
    15
100
AcDbLine
 10
167.5349929271
 20
96.6815116265
 30
0.0
 11
168.391704922
 21
96.9110668086
 31
0.0
  0
LINE
  5
59
330
1F
100
AcDbEntity
  8
0
  6
Continuous
 62
     7
370
    15
100
AcDbLine
 10
168.391704922
 20
126.6593575858
 30
0.0
 11
167.5349929271
 21
126.888912768
 31
0.0
  0
LINE
  5
5A
330
1F
100
AcDbEntity
  8
0
  6
Continuous
 62
     7
370
    15
100
AcDbLine
 10
160.7190600032
 20
126.5474331015
 30
0.0
 11
153.2349927718
 21
126.172479839
 31
0.0
  0
LINE
  5
5B
330
1F
100
AcDbEntity
  8
0
  6
Continuous
 62
     7
370
    15
100
AcDbLine
 10
167.5349929271
 20
126.888912768
 30
0.0
 11
166.3002603589
 21
126.8270524599
 31
0.0
  0
LINE
  5
5C
330
1F
100
AcDbEntity
  8
0
  6
Continuous
 62
     7
370
    15
100
AcDbLine
 10
166.3012564084
 20
96.7433225744
 30
0.0
 11
167.5349929271
 21
96.6815116265
 31
0.0
  0
LINE
  5
5D
330
1F
100
AcDbEntity
  8
0
  6
Continuous
 62
     7
370
    15
100
AcDbLine
 10
155.7349931816
 20
97.2726937764
 30
0.0
 11
160.7195228705
 21
97.0229680099
 31
0.0
  0
ARC
  5
5E
330
1F
100
AcDbEntity
  8
0
  6
Continuous
 62
     7
370
    15
100
AcDbCircle
 10
168.5469981116
 20
96.3315050438
 30
0.0
 40
0.60000675266771
100
AcDbArc
 50
90.0
 51
105.0
  0
ARC
  5
5F
330
1F
100
AcDbEntity
  8
0
  6
Continuous
 62
     7
370
    15
100
AcDbCircle
 10
168.5469981116
 20
127.2389193507
 30
0.0
 40
0.6000067526677096
100
AcDbArc
 50
255.0
 51
270.0
  0
LINE
  5
60
330
1F
100
AcDbEntity
  8
0
  6
Continuous
 62
     7
370
    15
100
AcDbLine
 10
168.5469980719
 20
96.9315121331
 30
0.0
 11
169.0349862463
 21
96.9315121331
 31
0.0
  0
LINE
  5
61
330
1F
100
AcDbEntity
  8
0
  6
Continuous
 62
     7
370
    15
100
AcDbLine
 10
169.0349862463
 20
126.6389122614
 30
0.0
 11
168.5469980719
 21
126.6389122614
 31
0.0
  0
LINE
  5
62
330
1F
100
AcDbEntity
  8
0
  6
Continuous
 62
     7
370
    15
100
AcDbLine
 10
204.9369184667
 20
93.7852129721
 30
0.0
 11
209.6445417399
 21
93.7852129721
 31
0.0
  0
LINE
  5
63
330
1F
100
AcDbEntity
  8
0
  6
Continuous
 62
     7
370
    15
100
AcDbLine
 10
204.7335921223
 20
94.5440303915
 30
0.0
 11
204.9369184667
 21
93.7852129721
 31
0.0
  0
ARC
  5
64
330
1F
100
AcDbEntity
  8
0
  6
Continuous
 62
     7
370
    15
100
AcDbCircle
 10
203.7676660342
 20
94.2852121972
 30
0.0
 40
1.0
100
AcDbArc
 50
15.0
 51
90.0
  0
ARC
  5
65
330
1F
100
AcDbEntity
  8
0
  6
Continuous
 62
     7
370
    15
100
AcDbCircle
 10
152.3349930221
 20
125.5652121972
 30
0.0
 40
0.9000000000000071
100
AcDbArc
 50
270.0
 51
311.1792132369
  0
ARC
  5
66
330
1F
100
AcDbEntity
  8
0
  6
Continuous
 62
     7
370
    15
100
AcDbCircle
 10
154.8349930221
 20
98.0052121972
 30
0.0
 40
0.9000000000000057
100
AcDbArc
 50
34.6391318474
 51
90.0
  0
LINE
  5
67
330
1F
100
AcDbEntity
  8
0
  6
Continuous
 62
     7
370
    15
100
AcDbLine
 10
150.5849926168
 20
124.665212483
 30
0.0
 11
149.6349932993
 21
123.7152122342
 31
0.0
  0
LINE
  5
68
330
1F
100
AcDbEntity
  8
0
  6
Continuous
 62
     7
370
    15
100
AcDbLine
 10
152.334992438
 20
124.665212483
 30
0.0
 11
150.5849926168
 21
124.665212483
 31
0.0
  0
LINE
  5
69
330
1F
100
AcDbEntity
  8
0
  6
Continuous
 62
     7
370
    15
100
AcDbLine
 10
150.6439937646
 20
98.9052119114
 30
0.0
 11
154.8349928478
 21
98.9052119114
 31
0.0
  0
LINE
  5
6A
330
1F
100
AcDbEntity
  8
0
  6
Continuous
 62
     7
370
    15
100
AcDbLine
 10
149.6349932993
 20
99.9142123767
 30
0.0
 11
150.6439937646
 21
98.9052119114
 31
0.0
  0
ARC
  5
6B
330
1F
100
AcDbEntity
  8
0
  6
Continuous
 62
     7
370
    15
100
AcDbCircle
 10
203.7676660342
 20
129.2852121972
 30
0.0
 40
1.0
100
AcDbArc
 50
270.0
 51
345.0
  0
LINE
  5
6C
330
1F
100
AcDbEntity
  8
0
  6
Continuous
 62
     7
370
    15
100
AcDbLine
 10
205.6482589239
 20
132.4399780863
 30
0.0
 11
204.7335921223
 21
129.026394003
 31
0.0
  0
LINE
  5
6D
330
1F
100
AcDbEntity
  8
0
  6
Continuous
 62
     7
370
    15
100
AcDbLine
 10
212.8878539795
 20
130.1836852365
 30
0.0
 11
212.5609225029
 21
129.7009248667
 31
0.0
  0
LINE
  5
6E
330
1F
100
AcDbEntity
  8
0
  6
Continuous
 62
     7
370
    15
100
AcDbLine
 10
219.5443889493
 20
123.5004688063
 30
0.0
 11
220.2081462736
 21
124.5970946186
 31
0.0
  0
LINE
  5
6F
330
1F
100
AcDbEntity
  8
0
  6
Continuous
 62
     7
370
    15
100
AcDbLine
 10
210.0400111074
 20
134.4777007037
 30
0.0
 11
209.7786410148
 21
134.0458762281
 31
0.0
  0
LINE
  5
70
330
1F
100
AcDbEntity
  8
0
  6
Continuous
 62
     7
370
    15
100
AcDbLine
 10
177.4849934871
 20
123.6352125564
 30
0.0
 11
183.4998332331
 21
123.6352125564
 31
0.0
  0
LINE
  5
71
330
1F
100
AcDbEntity
  8
0
  6
Continuous
 62
     7
370
    15
100
AcDbLine
 10
183.4998332331
 20
92.556327247
 30
0.0
 11
183.4998332331
 21
123.6352125564
 31
0.0
  0
LINE
  5
72
330
1F
100
AcDbEntity
  8
0
  6
Continuous
 62
     7
370
    15
100
AcDbLine
 10
183.4998332331
 20
92.556327247
 30
0.0
 11
181.9849932933
 21
92.556327247
 31
0.0
  0
SPLINE
  5
73
330
1F
100
AcDbEntity
  8
0
  6
Continuous
 62
     7
370
    15
100
AcDbSpline
210
0.0
220
0.0
230
1.0
 70
     8
 71
     3
 72
    22
 73
    18
 74
     0
 42
0.00000001
 43
0.00000001
 12
1.0
 22
0.0
 32
0.0
 13
1.0
 23
0.0
 33
0.0
 40
0.0
 40
0.0
 40
0.0
 40
0.0
 40
0.125
 40
0.125
 40
0.2500000000000001
 40
0.2500000000000001
 40
0.3750000000000001
 40
0.3750000000000001
 40
0.5000000000000001
 40
0.5000000000000001
 40
0.6250000000000001
 40
0.6250000000000001
 40
0.7500000000000002
 40
0.7500000000000002
 40
0.8750000000000002
 40
0.8750000000000002
 40
1.0
 40
1.0
 40
1.0
 40
1.0
 10
181.9849930221437
 20
92.55632767420339
 30
0.0
 10
181.6858685931031
 20
92.55632767420339
 30
0.0
 10
181.3920461448543
 20
92.54781357313696
 30
0.0
 10
180.8144818686079
 20
92.51536980425506
 30
0.0
 10
180.527664190794
 20
92.49103591555304
 30
0.0
 10
179.9832016618947
 20
92.4305758907962
 30
0.0
 10
179.7252463912733
 20
92.3946624700177
 30
0.0
 10
179.2371884479134
 20
92.31495244394857
 30
0.0
 10
179.0074901492497
 20
92.27107414275923
 30
0.0
 10
178.5950711662971
 20
92.18283052038906
 30
0.0
 10
178.409544223437
 20
92.13802217892808
 30
0.0
 10
178.0810241785362
 20
92.05070117100891
 30
0.0
 10
177.9426102916367
 20
92.00941038243324
 30
0.0
 10
177.7180181450208
 20
91.93507215913942
 30
0.0
 10
177.6309393328966
 20
91.90166203340476
 30
0.0
 10
177.5144375249415
 20
91.84664263187861
 30
0.0
 10
177.4849930221437
 20
91.82518086541238
 30
0.0
 10
177.4849930221437
 20
91.81022784179459
 30
0.0
  0
LINE
  5
74
330
1F
100
AcDbEntity
  8
0
  6
Continuous
 62
     7
370
    15
100
AcDbLine
 10
177.4849934871
 20
91.8102279686
 30
0.0
 11
177.4849934871
 21
91.7852126443
 31
0.0
  0
SPLINE
  5
75
330
1F
100
AcDbEntity
  8
0
  6
Continuous
 62
     7
370
    15
100
AcDbSpline
210
0.0
220
0.0
230
1.0
 70
     8
 71
     3
 72
    17
 73
    13
 74
     0
 42
0.00000001
 43
0.00000001
 12
1.0
 22
0.0
 32
0.0
 13
1.0
 23
0.0
 33
0.0
 40
0.0
 40
0.0
 40
0.0
 40
0.0
 40
0.1039928149931941
 40
0.211050797947968
 40
0.315030024669631
 40
0.4219351868122974
 40
0.5275775927633417
 40
0.6362134531400181
 40
0.7429488821168505
 40
0.8528788227495517
 40
0.9578277247781112
 40
1.0
 40
1.0
 40
1.0
 40
1.0
 10
181.9849932933449
 20
131.2723882877117
 30
0.0
 10
181.7391762091198
 20
131.2751041223047
 30
0.0
 10
181.2402966300034
 20
131.2806158401863
 30
0.0
 10
180.5168130864787
 20
131.3236995989619
 30
0.0
 10
179.829017730271
 20
131.3875662111434
 30
0.0
 10
179.2042723581367
 20
131.4669017271683
 30
0.0
 10
178.6483215550744
 20
131.5538405189366
 30
0.0
 10
178.1863350485072
 20
131.6378001102555
 30
0.0
 10
177.8240699172354
 20
131.7109629793466
 30
0.0
 10
177.5922909464818
 20
131.7611000196382
 30
0.0
 10
177.4827250021986
 20
131.7857201170206
 30
0.0
 10
177.4965558775631
 20
131.7826149689554
 30
0.0
 10
177.500520497024
 20
131.7817248784786
 30
0.0
  0
LINE
  5
76
330
1F
100
AcDbEntity
  8
0
  6
Continuous
 62
     7
370
    15
100
AcDbLine
 10
183.4998332331
 20
131.2723882877
 30
0.0
 11
181.9849932933
 21
131.2723882877
 31
0.0
  0
LINE
  5
77
330
1F
100
AcDbEntity
  8
0
  6
Continuous
 62
     7
370
    15
100
AcDbLine
 10
183.4998332331
 20
127.8966214889
 30
0.0
 11
183.4998332331
 21
131.2723882877
 31
0.0
  0
LINE
  5
78
330
1F
100
AcDbEntity
  8
0
  6
Continuous
 62
     7
370
    15
100
AcDbLine
 10
181.9786630938
 20
127.8966214889
 30
0.0
 11
183.4998332331
 21
127.8966214889
 31
0.0
  0
SPLINE
  5
79
330
1F
100
AcDbEntity
  8
0
  6
Continuous
 62
     7
370
    15
100
AcDbSpline
210
0.0
220
0.0
230
1.0
 70
     8
 71
     3
 72
    22
 73
    18
 74
     0
 42
0.00000001
 43
0.00000001
 12
1.0
 22
0.0
 32
0.0
 13
1.0
 23
0.0
 33
0.0
 40
0.0
 40
0.0
 40
0.0
 40
0.0
 40
0.2499999999999998
 40
0.2499999999999998
 40
0.3749999999999998
 40
0.3749999999999998
 40
0.4999999999999999
 40
0.4999999999999999
 40
0.6249999999999999
 40
0.6249999999999999
 40
0.7499999999999999
 40
0.7499999999999999
 40
0.8750000000000003
 40
0.8750000000000003
 40
0.9375000000000001
 40
0.9375000000000001
 40
1.0
 40
1.0
 40
1.0
 40
1.0
 10
177.4849930221437
 20
123.6352121972328
 30
0.0
 10
177.5069740401304
 20
124.1980848391308
 30
0.0
 10
177.5859509234851
 20
124.7287097228603
 30
0.0
 10
177.8323488165175
 20
125.4744207137819
 30
0.0
 10
177.9368734316084
 20
125.7160409401806
 30
0.0
 10
178.1987200269149
 20
126.1748997155065
 30
0.0
 10
178.3539366490808
 20
126.3890783879763
 30
0.0
 10
178.7225284021447
 20
126.7863069471219
 30
0.0
 10
178.9386620946096
 20
126.9707517821417
 30
0.0
 10
179.4225565895965
 20
127.2918316300253
 30
0.0
 10
179.6930221346042
 20
127.4311824601313
 30
0.0
 10
180.2892487001144
 20
127.6604879945569
 30
0.0
 10
180.6047419668343
 20
127.7470240040332
 30
0.0
 10
181.1054586148529
 20
127.8359136083645
 30
0.0
 10
181.278255049468
 20
127.8587221142261
 30
0.0
 10
181.62662382225
 20
127.8890132769223
 30
0.0
 10
181.8020248511605
 20
127.8966211983102
 30
0.0
 10
181.9786634968484
 20
127.8966211983102
 30
0.0
  0
LINE
  5
7A
330
1F
100
AcDbEntity
  8
0
  6
Continuous
 62
     7
370
    15
100
AcDbLine
 10
169.5349930221
 20
92.0852121346
 30
0.0
 11
169.5349930221
 21
131.4852122598
 31
0.0
  0
LINE
  5
7B
330
1F
100
AcDbEntity
  8
0
  6
Continuous
 62
     7
370
    15
100
AcDbLine
 10
188.884992748
 20
92.556327247
 30
0.0
 11
187.5701533998
 21
92.556327247
 31
0.0
  0
LINE
  5
7C
330
1F
100
AcDbEntity
  8
0
  6
Continuous
 62
     7
370
    15
100
AcDbLine
 10
187.5701533998
 20
92.556327247
 30
0.0
 11
187.5701533998
 21
123.6352125564
 31
0.0
  0
LINE
  5
7D
330
1F
100
AcDbEntity
  8
0
  6
Continuous
 62
     7
370
    15
100
AcDbLine
 10
187.5701533998
 20
123.6352125564
 30
0.0
 11
188.884992748
 21
123.6352125564
 31
0.0
  0
SPLINE
  5
7E
330
1F
100
AcDbEntity
  8
0
  6
Continuous
 62
     7
370
    15
100
AcDbSpline
210
0.0
220
0.0
230
1.0
 70
     8
 71
     3
 72
     8
 73
     4
 74
     0
 42
0.00000001
 43
0.00000001
 12
1.0
 22
0.0
 32
0.0
 13
1.0
 23
0.0
 33
0.0
 40
0.0
 40
0.0
 40
0.0
 40
0.0
 40
1.0
 40
1.0
 40
1.0
 40
1.0
 10
187.5701527210372
 20
92.55632767420336
 30
0.0
 10
187.2374474493318
 20
93.15569934742703
 30
0.0
 10
186.9056316487583
 20
93.75556845813206
 30
0.0
 10
186.5749930221437
 20
94.35608880924305
 30
0.0
  0
LINE
  5
7F
330
1F
100
AcDbEntity
  8
0
  6
Continuous
 62
     7
370
    15
100
AcDbLine
 10
186.574992388
 20
94.3560894959
 30
0.0
 11
186.574992388
 21
123.6352125564
 31
0.0
  0
SPLINE
  5
80
330
1F
100
AcDbEntity
  8
0
  6
Continuous
 62
     7
370
    15
100
AcDbSpline
210
0.0
220
0.0
230
1.0
 70
    24
 71
     3
 72
     8
 73
     4
 74
     0
 42
0.00000001
 43
0.00000001
 12
1.0
 22
0.0
 32
0.0
 13
1.0
 23
0.0
 33
0.0
 40
0.0
 40
0.0
 40
0.0
 40
0.0
 40
1.0
 40
1.0
 40
1.0
 40
1.0
 10
186.5749930221437
 20
123.6352121972328
 30
0.0
 10
186.8986296777659
 20
123.6352121972328
 30
0.0
 10
187.2311198992826
 20
123.6352121972328
 30
0.0
 10
187.5701527210372
 20
123.6352121972328
 30
0.0
  0
LINE
  5
81
330
1F
100
AcDbEntity
  8
0
  6
Continuous
 62
     7
370
    15
100
AcDbLine
 10
189.4849935914
 20
93.1811795019
 30
0.0
 11
189.4849935914
 21
123.6352125564
 31
0.0
  0
SPLINE
  5
82
330
1F
100
AcDbEntity
  8
0
  6
Continuous
 62
     7
370
    15
100
AcDbSpline
210
0.0
220
0.0
230
1.0
 70
     8
 71
     3
 72
    10
 73
     6
 74
     0
 42
0.00000001
 43
0.00000001
 12
1.0
 22
0.0
 32
0.0
 13
1.0
 23
0.0
 33
0.0
 40
0.0
 40
0.0
 40
0.0
 40
0.0
 40
0.5
 40
0.5
 40
1.0
 40
1.0
 40
1.0
 40
1.0
 10
189.4849930221437
 20
93.18118037614626
 30
0.0
 10
189.4849930221437
 20
93.02154820724303
 30
0.0
 10
189.4233565084384
 20
92.86049857347896
 30
0.0
 10
189.2043301421955
 20
92.62750768980236
 30
0.0
 10
189.0467132541481
 20
92.55632767420336
 30
0.0
 10
188.8849930221437
 20
92.55632767420336
 30
0.0
  0
SPLINE
  5
83
330
1F
100
AcDbEntity
  8
0
  6
Continuous
 62
     7
370
    15
100
AcDbSpline
210
0.0
220
0.0
230
1.0
 70
    24
 71
     3
 72
    12
 73
     8
 74
     0
 42
0.00000001
 43
0.00000001
 12
1.0
 22
0.0
 32
0.0
 13
1.0
 23
0.0
 33
0.0
 40
0.0
 40
0.0
 40
0.0
 40
0.0
 40
0.25
 40
0.25
 40
0.5
 40
0.5
 40
1.0
 40
1.0
 40
1.0
 40
1.0
 10
188.8849930221437
 20
123.6352121972328
 30
0.0
 10
188.9731798875125
 20
123.6352121972328
 30
0.0
 10
189.0618672808139
 20
123.6352121972328
 30
0.0
 10
189.2161197739327
 20
123.6352121972328
 30
0.0
 10
189.2814657550087
 20
123.6352121972328
 30
0.0
 10
189.4358756249598
 20
123.6352121972328
 30
0.0
 10
189.4849930221437
 20
123.6352121972328
 30
0.0
 10
189.4849930221437
 20
123.6352121972328
 30
0.0
  0
LINE
  5
84
330
1F
100
AcDbEntity
  8
0
  6
Continuous
 62
     7
370
    15
100
AcDbLine
 10
184.4949933136
 20
94.3560894959
 30
0.0
 11
184.4949933136
 21
123.6352125564
 31
0.0
  0
SPLINE
  5
85
330
1F
100
AcDbEntity
  8
0
  6
Continuous
 62
     7
370
    15
100
AcDbSpline
210
0.0
220
0.0
230
1.0
 70
     8
 71
     3
 72
     8
 73
     4
 74
     0
 42
0.00000001
 43
0.00000001
 12
1.0
 22
0.0
 32
0.0
 13
1.0
 23
0.0
 33
0.0
 40
0.0
 40
0.0
 40
0.0
 40
0.0
 40
1.0
 40
1.0
 40
1.0
 40
1.0
 10
184.4949930221437
 20
94.35608880924305
 30
0.0
 10
184.1643543955291
 20
93.75556845813206
 30
0.0
 10
183.8325385949556
 20
93.15569934742702
 30
0.0
 10
183.4998333232503
 20
92.55632767420336
 30
0.0
  0
SPLINE
  5
86
330
1F
100
AcDbEntity
  8
0
  6
Continuous
 62
     7
370
    15
100
AcDbSpline
210
0.0
220
0.0
230
1.0
 70
    24
 71
     3
 72
     8
 73
     4
 74
     0
 42
0.00000001
 43
0.00000001
 12
1.0
 22
0.0
 32
0.0
 13
1.0
 23
0.0
 33
0.0
 40
0.0
 40
0.0
 40
0.0
 40
0.0
 40
1.0
 40
1.0
 40
1.0
 40
1.0
 10
183.4998333232503
 20
123.6352121972328
 30
0.0
 10
183.8388661450049
 20
123.6352121972328
 30
0.0
 10
184.1713563665215
 20
123.6352121972328
 30
0.0
 10
184.4949930221437
 20
123.6352121972328
 30
0.0
  0
SPLINE
  5
87
330
1F
100
AcDbEntity
  8
0
  6
Continuous
 62
     7
370
    15
100
AcDbSpline
210
0.0
220
0.0
230
1.0
 70
    24
 71
     3
 72
    16
 73
    12
 74
     0
 42
0.00000001
 43
0.00000001
 12
1.0
 22
0.0
 32
0.0
 13
1.0
 23
0.0
 33
0.0
 40
0.0
 40
0.0
 40
0.0
 40
0.0
 40
0.5000000000000013
 40
0.5000000000000013
 40
0.750000000000002
 40
0.750000000000002
 40
0.875000000000003
 40
0.875000000000003
 40
0.9375000000000014
 40
0.9375000000000014
 40
1.0
 40
1.0
 40
1.0
 40
1.0
 10
186.5397706215624
 20
94.88521219723278
 30
0.0
 10
186.5097963037082
 20
94.88521219723278
 30
0.0
 10
186.4632799091029
 20
94.88521219723278
 30
0.0
 10
186.3534186033687
 20
94.88521219723276
 30
0.0
 10
186.3102659528392
 20
94.88521219723276
 30
0.0
 10
186.2214818997253
 20
94.88521219723278
 30
0.0
 10
186.1882927318468
 20
94.88521219723276
 30
0.0
 10
186.1235464314971
 20
94.88521219723276
 30
0.0
 10
186.0992752205149
 20
94.88521219723276
 30
0.0
 10
186.0428139432958
 20
94.88521219723278
 30
0.0
 10
186.0100103372225
 20
94.88521219723278
 30
0.0
 10
185.9749930221437
 20
94.88521219723278
 30
0.0
  0
SPLINE
  5
88
330
1F
100
AcDbEntity
  8
0
  6
Continuous
 62
     7
370
    15
100
AcDbSpline
210
0.0
220
0.0
230
1.0
 70
    24
 71
     3
 72
    12
 73
     8
 74
     0
 42
0.00000001
 43
0.00000001
 12
1.0
 22
0.0
 32
0.0
 13
1.0
 23
0.0
 33
0.0
 40
0.0
 40
0.0
 40
0.0
 40
0.0
 40
0.25
 40
0.25
 40
0.5
 40
0.5
 40
1.0
 40
1.0
 40
1.0
 40
1.0
 10
185.9749930221437
 20
123.6352121972328
 30
0.0
 10
186.0672960213324
 20
123.6352121972328
 30
0.0
 10
186.1600397172914
 20
123.6352121972328
 30
0.0
 10
186.3150894475849
 20
123.6352121972328
 30
0.0
 10
186.3785394191873
 20
123.6352121972328
 30
0.0
 10
186.5277995102475
 20
123.6352121972328
 30
0.0
 10
186.5749930221437
 20
123.6352121972328
 30
0.0
 10
186.5749930221437
 20
123.6352121972328
 30
0.0
  0
SPLINE
  5
89
330
1F
100
AcDbEntity
  8
0
  6
Continuous
 62
     7
370
    15
100
AcDbSpline
210
0.0
220
0.0
230
1.0
 70
    24
 71
     3
 72
    16
 73
    12
 74
     0
 42
0.00000001
 43
0.00000001
 12
1.0
 22
0.0
 32
0.0
 13
1.0
 23
0.0
 33
0.0
 40
0.0
 40
0.0
 40
0.0
 40
0.0
 40
0.0625000000000003
 40
0.0625000000000003
 40
0.1250000000000007
 40
0.1250000000000007
 40
0.2500000000000006
 40
0.2500000000000006
 40
0.5000000000000004
 40
0.5000000000000004
 40
1.0
 40
1.0
 40
1.0
 40
1.0
 10
185.0949930221437
 20
94.88521219723279
 30
0.0
 10
185.0598865335296
 20
94.88521219723278
 30
0.0
 10
185.0267918484436
 20
94.88521219723278
 30
0.0
 10
184.9701921365178
 20
94.88521219723276
 30
0.0
 10
184.9458900823822
 20
94.88521219723278
 30
0.0
 10
184.8813620937412
 20
94.88521219723278
 30
0.0
 10
184.8477732682251
 20
94.88521219723276
 30
0.0
 10
184.759733853876
 20
94.88521219723278
 30
0.0
 10
184.7166260900036
 20
94.88521219723278
 30
0.0
 10
184.6061918758304
 20
94.88521219723276
 30
0.0
 10
184.560011857453
 20
94.88521219723276
 30
0.0
 10
184.5302154227251
 20
94.88521219723278
 30
0.0
  0
SPLINE
  5
8A
330
1F
100
AcDbEntity
  8
0
  6
Continuous
 62
     7
370
    15
100
AcDbSpline
210
0.0
220
0.0
230
1.0
 70
    24
 71
     3
 72
    14
 73
    10
 74
     0
 42
0.00000001
 43
0.00000001
 12
1.0
 22
0.0
 32
0.0
 13
1.0
 23
0.0
 33
0.0
 40
0.0
 40
0.0
 40
0.0
 40
0.0
 40
0.25
 40
0.25
 40
0.5
 40
0.5
 40
0.75
 40
0.75
 40
1.0
 40
1.0
 40
1.0
 40
1.0
 10
184.4949930221437
 20
123.6352121972328
 30
0.0
 10
184.4949930221437
 20
123.6352121972328
 30
0.0
 10
184.5068700334047
 20
123.6352121972328
 30
0.0
 10
184.5553985231846
 20
123.6352121972328
 30
0.0
 10
184.5918169794089
 20
123.6352121972328
 30
0.0
 10
184.6919443139375
 20
123.6352121972328
 30
0.0
 10
184.7551211253734
 20
123.6352121972328
 30
0.0
 10
184.9106916280594
 20
123.6352121972328
 30
0.0
 10
185.0025679758141
 20
123.6352121972328
 30
0.0
 10
185.0949930221449
 20
123.6352121972328
 30
0.0
  0
SPLINE
  5
8B
330
1F
100
AcDbEntity
  8
0
  6
Continuous
 62
     7
370
    15
100
AcDbSpline
210
0.0
220
0.0
230
1.0
 70
    24
 71
     3
 72
    14
 73
    10
 74
     0
 42
0.00000001
 43
0.00000001
 12
1.0
 22
0.0
 32
0.0
 13
1.0
 23
0.0
 33
0.0
 40
0.0
 40
0.0
 40
0.0
 40
0.0
 40
0.1249999999999999
 40
0.1249999999999999
 40
0.2499999999999999
 40
0.2499999999999999
 40
0.5
 40
0.5
 40
1.0
 40
1.0
 40
1.0
 40
1.0
 10
189.6849930221284
 20
128.6852121972327
 30
0.0
 10
189.6849932385504
 20
128.6852121972327
 30
0.0
 10
189.6826168724777
 20
128.6852121972327
 30
0.0
 10
189.6734689703708
 20
128.6852121972327
 30
0.0
 10
189.666703070087
 20
128.6852121972327
 30
0.0
 10
189.641263650804
 20
128.6852121972327
 30
0.0
 10
189.6173706154212
 20
128.6852121972327
 30
0.0
 10
189.5424364021493
 20
128.6852121972327
 30
0.0
 10
189.4872099104722
 20
128.6852121972327
 30
0.0
 10
189.485055145267
 20
128.6852121972327
 30
0.0
  0
SPLINE
  5
8C
330
1F
100
AcDbEntity
  8
0
  6
Continuous
 62
     7
370
    15
100
AcDbSpline
210
0.0
220
0.0
230
1.0
 70
    24
 71
     3
 72
    14
 73
    10
 74
     0
 42
0.00000001
 43
0.00000001
 12
1.0
 22
0.0
 32
0.0
 13
1.0
 23
0.0
 33
0.0
 40
0.0
 40
0.0
 40
0.0
 40
0.0
 40
0.125
 40
0.125
 40
0.25
 40
0.25
 40
0.4999999999999999
 40
0.4999999999999999
 40
1.0
 40
1.0
 40
1.0
 40
1.0
 10
189.6849930221289
 20
94.88521219723278
 30
0.0
 10
189.6849932371259
 20
94.88521219723278
 30
0.0
 10
189.6825706379316
 20
94.88521219723276
 30
0.0
 10
189.6732514370935
 20
94.88521219723276
 30
0.0
 10
189.6663607793714
 20
94.88521219723278
 30
0.0
 10
189.6404823216017
 20
94.88521219723278
 30
0.0
 10
189.6162097953612
 20
94.88521219723278
 30
0.0
 10
189.5404534940226
 20
94.88521219723276
 30
0.0
 10
189.4849930221437
 20
94.88521219723278
 30
0.0
 10
189.4849930221437
 20
94.88521219723278
 30
0.0
  0
SPLINE
  5
8D
330
1F
100
AcDbEntity
  8
0
  6
Continuous
 62
     7
370
    15
100
AcDbSpline
210
0.0
220
0.0
230
1.0
 70
    24
 71
     3
 72
    12
 73
     8
 74
     0
 42
0.00000001
 43
0.00000001
 12
1.0
 22
0.0
 32
0.0
 13
1.0
 23
0.0
 33
0.0
 40
0.0
 40
0.0
 40
0.0
 40
0.0
 40
0.5000000000000022
 40
0.5000000000000022
 40
0.7500000000000011
 40
0.7500000000000011
 40
1.0
 40
1.0
 40
1.0
 40
1.0
 10
189.4849930221437
 20
123.6352121972328
 30
0.0
 10
189.4849930221437
 20
123.6352121972328
 30
0.0
 10
189.5122137702713
 20
123.6352121972328
 30
0.0
 10
189.5926602160443
 20
123.6352121972328
 30
0.0
 10
189.6261074445223
 20
123.6352121972328
 30
0.0
 10
189.7085170142966
 20
123.6352121972328
 30
0.0
 10
189.7578001111802
 20
123.6352121972328
 30
0.0
 10
189.8141167338168
 20
123.6352121972328
 30
0.0
  0
SPLINE
  5
8E
330
1F
100
AcDbEntity
  8
0
  6
Continuous
 62
     7
370
    15
100
AcDbSpline
210
0.0
220
0.0
230
1.0
 70
     8
 71
     3
 72
    10
 73
     6
 74
     0
 42
0.00000001
 43
0.00000001
 12
1.0
 22
0.0
 32
0.0
 13
1.0
 23
0.0
 33
0.0
 40
0.0
 40
0.0
 40
0.0
 40
0.0
 40
0.5
 40
0.5
 40
1.0
 40
1.0
 40
1.0
 40
1.0
 10
189.4849930221437
 20
124.6626148856634
 30
0.0
 10
189.4849930221437
 20
124.4799061735284
 30
0.0
 10
189.5119663558518
 20
124.2963978837676
 30
0.0
 10
189.6195567236375
 20
123.9480939054469
 30
0.0
 10
189.7010212679807
 20
123.779906322904
 30
0.0
 10
189.8141167338165
 20
123.6352121972313
 30
0.0
  0
LINE
  5
8F
330
1F
100
AcDbEntity
  8
0
  6
Continuous
 62
     7
370
    15
100
AcDbLine
 10
185.9749934072
 20
94.8852129661
 30
0.0
 11
185.0949932257
 21
94.8852129661
 31
0.0
  0
LINE
  5
90
330
1F
100
AcDbEntity
  8
0
  6
Continuous
 62
     7
370
    15
100
AcDbLine
 10
185.0949932257
 20
123.6352125564
 30
0.0
 11
185.9749934072
 21
123.6352125564
 31
0.0
  0
ELLIPSE
  5
91
330
1F
100
AcDbEntity
  8
0
  6
Continuous
 62
     7
370
    15
100
AcDbEllipse
 10
200.4426729539
 20
111.7852121972
 30
0.0
 11
-0.8249710662703649
 21
16.49857054117959
 31
0.0
210
0.0
220
0.0
230
1.0
 40
0.263265937
 41
0.2944431518976032
 42
2.471757220644478
  0
ELLIPSE
  5
92
330
1F
100
AcDbEntity
  8
0
  6
Continuous
 62
     7
370
    15
100
AcDbEllipse
 10
197.4483784733
 20
118.4359175002
 30
0.0
 11
0.1021341842900369
 21
2.680095477712314
 31
0.0
210
0.0
220
0.0
230
1.0
 40
0.2233299508
 41
0.0
 42
6.283185307179586
  0
ELLIPSE
  5
93
330
1F
100
AcDbEntity
  8
0
  6
Continuous
 62
     7
370
    15
100
AcDbEllipse
 10
266.2730666787
 20
111.7852121972
 30
0.0
 11
156.986727460918
 21
-2.896208653788108
 31
0.0
210
0.0
220
0.0
230
1.0
 40
0.1034726254
 41
1.982211573924321
 42
2.014989721474737
  0
SPLINE
  5
94
330
1F
100
AcDbEntity
  8
0
  6
Continuous
 62
     7
370
    15
100
AcDbSpline
210
0.0
220
0.0
230
1.0
 70
     8
 71
     3
 72
    12
 73
     8
 74
     0
 42
0.00000001
 43
0.00000001
 12
1.0
 22
0.0
 32
0.0
 13
1.0
 23
0.0
 33
0.0
 40
0.0
 40
0.0
 40
0.0
 40
0.0
 40
0.2499999999999977
 40
0.2499999999999977
 40
0.4999999999999953
 40
0.4999999999999953
 40
1.0
 40
1.0
 40
1.0
 40
1.0
 10
198.3926879010058
 20
127.510719346575
 30
0.0
 10
198.4123811714869
 20
127.5358355421946
 30
0.0
 10
198.4421632881981
 20
127.5590785643485
 30
0.0
 10
198.5231128026556
 20
127.6020249167409
 30
0.0
 10
198.5741820483764
 20
127.621417742771
 30
0.0
 10
198.7532549679686
 20
127.6705935918978
 30
0.0
 10
198.9118743428926
 20
127.6920591113856
 30
0.0
 10
199.0818057914229
 20
127.6972874462122
 30
0.0
  0
SPLINE
  5
95
330
1F
100
AcDbEntity
  8
0
  6
Continuous
 62
     7
370
    15
100
AcDbSpline
210
0.0
220
0.0
230
1.0
 70
     8
 71
     3
 72
    10
 73
     6
 74
     0
 42
0.00000001
 43
0.00000001
 12
1.0
 22
0.0
 32
0.0
 13
1.0
 23
0.0
 33
0.0
 40
0.0
 40
0.0
 40
0.0
 40
0.0
 40
0.5
 40
0.5
 40
1.0
 40
1.0
 40
1.0
 40
1.0
 10
199.0818057914229
 20
98.32577370909266
 30
0.0
 10
198.9122567340715
 20
98.33717921234899
 30
0.0
 10
198.7559420961405
 20
98.38291030794782
 30
0.0
 10
198.5133904707514
 20
98.52402221836154
 30
0.0
 10
198.4320197129504
 20
98.61560570328662
 30
0.0
 10
198.3926879010058
 20
98.71674734353452
 30
0.0
  0
ELLIPSE
  5
96
330
1F
100
AcDbEntity
  8
0
  6
Continuous
 62
     7
370
    15
100
AcDbEllipse
 10
266.2730666787
 20
111.7852121972
 30
0.0
 11
156.986727460918
 21
-2.896208653788108
 31
0.0
210
0.0
220
0.0
230
1.0
 40
0.1034726254
 41
4.272013461953575
 42
4.304791609503987
  0
LINE
  5
97
330
1F
100
AcDbEntity
  8
0
  6
Continuous
 62
     7
370
    15
100
AcDbLine
 10
167.5349929271
 20
96.6815116265
 30
0.0
 11
167.5349929271
 21
126.888912768
 31
0.0
  0
LINE
  5
98
330
1F
100
AcDbEntity
  8
0
  6
Continuous
 62
     7
370
    15
100
AcDbLine
 10
155.7349931816
 20
97.2726937764
 30
0.0
 11
155.7349931816
 21
98.1484657534
 31
0.0
  0
SPLINE
  5
99
330
1F
100
AcDbEntity
  8
0
  6
Continuous
 62
     7
370
    15
100
AcDbSpline
210
0.0
220
0.0
230
1.0
 70
     8
 71
     3
 72
    12
 73
     8
 74
     0
 42
0.00000001
 43
0.00000001
 12
1.0
 22
0.0
 32
0.0
 13
1.0
 23
0.0
 33
0.0
 40
0.0
 40
0.0
 40
0.0
 40
0.0
 40
0.2500000000000008
 40
0.2500000000000008
 40
0.5000000000000017
 40
0.5000000000000017
 40
1.0
 40
1.0
 40
1.0
 40
1.0
 10
155.3672579292868
 20
98.85483633434802
 30
0.0
 10
155.3926821461808
 20
98.78795074127423
 30
0.0
 10
155.4332939857501
 20
98.72350225159063
 30
0.0
 10
155.5178951320222
 20
98.59850159151276
 30
0.0
 10
155.5619919283078
 20
98.53798284632065
 30
0.0
 10
155.6780610367938
 20
98.36177679021222
 30
0.0
 10
155.7349930221437
 20
98.25138237524044
 30
0.0
 10
155.7349930221437
 20
98.14846549914728
 30
0.0
  0
SPLINE
  5
9A
330
1F
100
AcDbEntity
  8
0
  6
Continuous
 62
     7
370
    15
100
AcDbSpline
210
0.0
220
0.0
230
1.0
 70
     8
 71
     3
 72
    14
 73
    10
 74
     0
 42
0.00000001
 43
0.00000001
 12
1.0
 22
0.0
 32
0.0
 13
1.0
 23
0.0
 33
0.0
 40
0.0
 40
0.0
 40
0.0
 40
0.0
 40
0.1249999999999994
 40
0.1249999999999994
 40
0.2499999999999989
 40
0.2499999999999989
 40
0.4999999999999997
 40
0.4999999999999997
 40
1.0
 40
1.0
 40
1.0
 40
1.0
 10
154.8349930221437
 20
99.34484214972179
 30
0.0
 10
154.884005344955
 20
99.34936720887694
 30
0.0
 10
154.9368115699505
 20
99.34124782332242
 30
0.0
 10
155.02187866168
 20
99.31091774817098
 30
0.0
 10
155.0564628470208
 20
99.29026279109449
 30
0.0
 10
155.1450185323581
 20
99.22572666776766
 30
0.0
 10
155.1859542336793
 20
99.17848848771504
 30
0.0
 10
155.2898347605822
 20
99.03869238643134
 30
0.0
 10
155.3330585600143
 20
98.94480744756204
 30
0.0
 10
155.3672579292868
 20
98.85483633434802
 30
0.0
  0
SPLINE
  5
9B
330
1F
100
AcDbEntity
  8
0
  6
Continuous
 62
     7
370
    15
100
AcDbSpline
210
0.0
220
0.0
230
1.0
 70
     8
 71
     3
 72
    10
 73
     6
 74
     0
 42
0.00000001
 43
0.00000001
 12
1.0
 22
0.0
 32
0.0
 13
1.0
 23
0.0
 33
0.0
 40
0.0
 40
0.0
 40
0.0
 40
0.0
 40
0.5
 40
0.5
 40
1.0
 40
1.0
 40
1.0
 40
1.0
 10
151.9141696304451
 20
99.01859007015528
 30
0.0
 10
152.3867396874434
 20
99.08557558673424
 30
0.0
 10
152.8723021694371
 20
99.1437534025342
 30
0.0
 10
153.8486800631024
 20
99.25061914583955
 30
0.0
 10
154.3406782822095
 20
99.29920457714483
 30
0.0
 10
154.8349930221437
 20
99.34484214972179
 30
0.0
  0
SPLINE
  5
9C
330
1F
100
AcDbEntity
  8
0
  6
Continuous
 62
     7
370
    15
100
AcDbSpline
210
0.0
220
0.0
230
1.0
 70
     8
 71
     3
 72
    10
 73
     6
 74
     0
 42
0.00000001
 43
0.00000001
 12
1.0
 22
0.0
 32
0.0
 13
1.0
 23
0.0
 33
0.0
 40
0.0
 40
0.0
 40
0.0
 40
0.0
 40
0.5
 40
0.5
 40
1.0
 40
1.0
 40
1.0
 40
1.0
 10
150.6439930221437
 20
98.93414531967647
 30
0.0
 10
150.8593520527011
 20
98.94115815064701
 30
0.0
 10
151.073793391025
 20
98.94993287430232
 30
0.0
 10
151.4987846096456
 20
98.97498605185012
 30
0.0
 10
151.7101573413683
 20
98.98967188465046
 30
0.0
 10
151.9141696304452
 20
99.01859007015523
 30
0.0
  0
SPLINE
  5
9D
330
1F
100
AcDbEntity
  8
0
  6
Continuous
 62
     7
370
    15
100
AcDbSpline
210
0.0
220
0.0
230
1.0
 70
     8
 71
     3
 72
     8
 73
     4
 74
     0
 42
0.00000001
 43
0.00000001
 12
1.0
 22
0.0
 32
0.0
 13
1.0
 23
0.0
 33
0.0
 40
0.0
 40
0.0
 40
0.0
 40
0.0
 40
1.0
 40
1.0
 40
1.0
 40
1.0
 10
150.5764768725746
 20
99.0820344976892
 30
0.0
 10
150.5906113172028
 20
99.03123817405596
 30
0.0
 10
150.6136686923514
 20
98.98199942349572
 30
0.0
 10
150.6439930221437
 20
98.93414531967649
 30
0.0
  0
ELLIPSE
  5
9E
330
1F
100
AcDbEntity
  8
0
  6
Continuous
 62
     7
370
    15
100
AcDbEllipse
 10
137.1082508143
 20
111.1459145195
 30
0.0
 11
13.37355272666622
 21
-13.37146352987016
 31
0.0
210
0.0
220
0.0
230
1.0
 40
0.1761188775
 41
0.3023035477142442
 42
0.3822730435340318
  0
ELLIPSE
  5
9F
330
1F
100
AcDbEntity
  8
0
  6
Continuous
 62
     7
370
    15
100
AcDbEllipse
 10
137.0288723836
 20
112.4243226485
 30
0.0
 11
13.369636111343
 21
13.36754752639486
 31
0.0
210
0.0
220
0.0
230
1.0
 40
0.1761188775
 41
5.933076931846598
 42
5.976720052691196
  0
SPLINE
  5
A0
330
1F
100
AcDbEntity
  8
0
  6
Continuous
 62
     7
370
    15
100
AcDbSpline
210
0.0
220
0.0
230
1.0
 70
     8
 71
     3
 72
     8
 73
     4
 74
     0
 42
0.00000001
 43
0.00000001
 12
1.0
 22
0.0
 32
0.0
 13
1.0
 23
0.0
 33
0.0
 40
0.0
 40
0.0
 40
0.0
 40
0.0
 40
1.0
 40
1.0
 40
1.0
 40
1.0
 10
150.5849930221437
 20
124.6507927442111
 30
0.0
 10
150.5392281144544
 20
124.5892723650523
 30
0.0
 10
150.5048409928244
 20
124.5253775053028
 30
0.0
 10
150.4858257391515
 20
124.4586475602591
 30
0.0
  0
SPLINE
  5
A1
330
1F
100
AcDbEntity
  8
0
  6
Continuous
 62
     7
370
    15
100
AcDbSpline
210
0.0
220
0.0
230
1.0
 70
     8
 71
     3
 72
    12
 73
     8
 74
     0
 42
0.00000001
 43
0.00000001
 12
1.0
 22
0.0
 32
0.0
 13
1.0
 23
0.0
 33
0.0
 40
0.0
 40
0.0
 40
0.0
 40
0.0
 40
0.25
 40
0.25
 40
0.5
 40
0.5
 40
1.0
 40
1.0
 40
1.0
 40
1.0
 10
152.3349930221437
 20
124.5660060558919
 30
0.0
 10
152.1929506189545
 20
124.5818317840681
 30
0.0
 10
152.0488325124504
 20
124.5928529178435
 30
0.0
 10
151.7590779987779
 20
124.6113892797107
 30
0.0
 10
151.6133360954191
 20
124.6186599854464
 30
0.0
 10
151.1746558562392
 20
124.6371208357744
 30
0.0
 10
150.880280240168
 20
124.644999702598
 30
0.0
 10
150.5849930221437
 20
124.6507927442111
 30
0.0
  0
SPLINE
  5
A2
330
1F
100
AcDbEntity
  8
0
  6
Continuous
 62
     7
370
    15
100
AcDbSpline
210
0.0
220
0.0
230
1.0
 70
     8
 71
     3
 72
    20
 73
    16
 74
     0
 42
0.00000001
 43
0.00000001
 12
1.0
 22
0.0
 32
0.0
 13
1.0
 23
0.0
 33
0.0
 40
0.0
 40
0.0
 40
0.0
 40
0.0
 40
0.2499999999999997
 40
0.2499999999999997
 40
0.4999999999999994
 40
0.4999999999999994
 40
0.7499999999999991
 40
0.7499999999999991
 40
0.8749999999999994
 40
0.8749999999999994
 40
0.9375000000000001
 40
0.9375000000000001
 40
0.96875
 40
0.96875
 40
1.0
 40
1.0
 40
1.0
 40
1.0
 10
153.2349930221447
 20
125.3427363189806
 30
0.0
 10
153.2349930221447
 20
125.2821269192833
 30
0.0
 10
153.2095980025677
 20
125.2163009538797
 30
0.0
 10
153.1233048167858
 20
125.0822531845331
 30
0.0
 10
153.0626688381026
 20
125.0135578263913
 30
0.0
 10
152.9145670438813
 20
124.8731592747368
 30
0.0
 10
152.8277974371026
 20
124.8014557701555
 30
0.0
 10
152.6791596417734
 20
124.6952923684066
 30
0.0
 10
152.6268704248872
 20
124.6597640197751
 30
0.0
 10
152.5361065965773
 20
124.6100600892596
 30
0.0
 10
152.5037406041253
 20
124.5937990912445
 30
0.0
 10
152.4460514484591
 20
124.5746865228986
 30
0.0
 10
152.4250644205717
 20
124.569295380817
 30
0.0
 10
152.3797754415812
 20
124.5635580124245
 30
0.0
 10
152.3567611727427
 20
124.563580746078
 30
0.0
 10
152.3349930221431
 20
124.5660060558908
 30
0.0
  0
LINE
  5
A3
330
1F
100
AcDbEntity
  8
0
  6
Continuous
 62
     7
370
    15
100
AcDbLine
 10
153.2349927718
 20
125.3427366176
 30
0.0
 11
153.2349927718
 21
126.172479839
 31
0.0
  0
SPLINE
  5
A4
330
1F
100
AcDbEntity
  8
0
  6
Continuous
 62
     7
370
    15
100
AcDbSpline
210
0.0
220
0.0
230
1.0
 70
     8
 71
     3
 72
    24
 73
    20
 74
     0
 42
0.00000001
 43
0.00000001
 12
1.0
 22
0.0
 32
0.0
 13
1.0
 23
0.0
 33
0.0
 40
0.0
 40
0.0
 40
0.0
 40
0.0
 40
0.0016643193296813
 40
0.0648792890554526
 40
0.127882629835479
 40
0.1913652263153964
 40
0.2543782098387403
 40
0.3163193264594876
 40
0.3777469775702122
 40
0.4397082275190884
 40
0.5014189034197821
 40
0.562536076452263
 40
0.6237133677268287
 40
0.6863020174790898
 40
0.7490598999921412
 40
0.811592469235191
 40
0.8743360189604256
 40
0.9379727054607176
 40
1.0
 40
1.0
 40
1.0
 40
1.0
 10
160.7195359090566
 20
97.02324554406457
 30
0.0
 10
160.719058518231
 20
97.0231771332296
 30
0.0
 10
160.700448641623
 20
97.02051030946743
 30
0.0
 10
160.7635891784321
 20
97.03022487230551
 30
0.0
 10
160.9156319355147
 20
97.05242957851347
 30
0.0
 10
161.1835574507795
 20
97.08686533004689
 30
0.0
 10
161.5328712279664
 20
97.12532834071612
 30
0.0
 10
161.9599222898904
 20
97.15955639366348
 30
0.0
 10
162.4473619183054
 20
97.18200895350363
 30
0.0
 10
162.9790122832466
 20
97.18560294123463
 30
0.0
 10
163.5301328857477
 20
97.1685893119814
 30
0.0
 10
164.0775908765344
 20
97.12864354653824
 30
0.0
 10
164.6022251062899
 20
97.0695359338816
 30
0.0
 10
165.0840135046899
 20
96.99717149646044
 30
0.0
 10
165.5089620966995
 20
96.92085082498231
 30
0.0
 10
165.8551784101604
 20
96.84886687899122
 30
0.0
 10
166.1102567222916
 20
96.79047985282753
 30
0.0
 10
166.270452114429
 20
96.75082019652098
 30
0.0
 10
166.2910861768256
 20
96.74599552105725
 30
0.0
 10
166.3012710767089
 20
96.74361407839112
 30
0.0
  0
SPLINE
  5
A5
330
1F
100
AcDbEntity
  8
0
  6
Continuous
 62
     7
370
    15
100
AcDbSpline
210
0.0
220
0.0
230
1.0
 70
     8
 71
     3
 72
    24
 73
    20
 74
     0
 42
0.00000001
 43
0.00000001
 12
1.0
 22
0.0
 32
0.0
 13
1.0
 23
0.0
 33
0.0
 40
0.0
 40
0.0
 40
0.0
 40
0.0
 40
0.0629034706215385
 40
0.1256338688179741
 40
0.1890239793713884
 40
0.2513957684939822
 40
0.3139906836130308
 40
0.3762905044722344
 40
0.4374458894592898
 40
0.498543195540241
 40
0.5603281747675228
 40
0.6223344559749604
 40
0.6838864964282686
 40
0.7458035579052691
 40
0.8089499376965126
 40
0.8723245876864573
 40
0.9353799443000518
 40
0.9988635323362688
 40
1.0
 40
1.0
 40
1.0
 40
1.0
 10
166.3002722332477
 20
126.826811247397
 30
0.0
 10
166.2908016069727
 20
126.8243884581284
 30
0.0
 10
166.2718864118764
 20
126.8195495456465
 30
0.0
 10
166.1098351154722
 20
126.779577954469
 30
0.0
 10
165.8533098747264
 20
126.7212339588967
 30
0.0
 10
165.5072537384332
 20
126.6489988609084
 30
0.0
 10
165.0833543455398
 20
126.5728496093963
 30
0.0
 10
164.602371384702
 20
126.5007303078838
 30
0.0
 10
164.0783878277219
 20
126.441842794576
 30
0.0
 10
163.5307899425148
 20
126.4019312719717
 30
0.0
 10
162.9793136264587
 20
126.3848955243566
 30
0.0
 10
162.4468723466774
 20
126.3884589954482
 30
0.0
 10
161.9588901349914
 20
126.4108922604152
 30
0.0
 10
161.5313779813589
 20
126.4451822752922
 30
0.0
 10
161.1824764265865
 20
126.4836860700789
 30
0.0
 10
160.9152218060958
 20
126.5181420980335
 30
0.0
 10
160.762287501575
 20
126.5402248853716
 30
0.0
 10
160.7011778504115
 20
126.5500535971223
 30
0.0
 10
160.7187610140996
 20
126.5472898547262
 30
0.0
 10
160.7190702477693
 20
126.5472412490135
 30
0.0
  0
SPLINE
  5
A6
330
1F
100
AcDbEntity
  8
0
  6
Continuous
 62
     7
370
    15
100
AcDbSpline
210
0.0
220
0.0
230
1.0
 70
     8
 71
     3
 72
    26
 73
    22
 74
     0
 42
0.00000001
 43
0.00000001
 12
1.0
 22
0.0
 32
0.0
 13
1.0
 23
0.0
 33
0.0
 40
0.0
 40
0.0
 40
0.0
 40
0.0
 40
0.2500000000000004
 40
0.2500000000000004
 40
0.3750000000000007
 40
0.3750000000000007
 40
0.4375000000000008
 40
0.4375000000000008
 40
0.4687500000000008
 40
0.4687500000000008
 40
0.5000000000000009
 40
0.5000000000000009
 40
0.5312500000000009
 40
0.5312500000000009
 40
0.562500000000001
 40
0.562500000000001
 40
0.6250000000000011
 40
0.6250000000000011
 40
0.7500000000000006
 40
0.7500000000000006
 40
1.0
 40
1.0
 40
1.0
 40
1.0
 10
150.3949630685316
 20
124.1732927768457
 30
0.0
 10
150.3475749591031
 20
124.0376370348226
 30
0.0
 10
150.2899336571987
 20
123.8936756364933
 30
0.0
 10
150.1678858446554
 20
123.6509030632389
 30
0.0
 10
150.1218368368789
 20
123.5658634227896
 30
0.0
 10
150.0311835527133
 20
123.4254874497492
 30
0.0
 10
149.9968310524277
 20
123.3755760724104
 30
0.0
 10
149.9343958800372
 20
123.2990408075561
 30
0.0
 10
149.9111018612391
 20
123.2726363285692
 30
0.0
 10
149.8620493241126
 20
123.2250415633082
 30
0.0
 10
149.8376178744557
 20
123.2055989494563
 30
0.0
 10
149.7969882788359
 20
123.1806911717882
 30
0.0
 10
149.7808259969847
 20
123.1746213404773
 30
0.0
 10
149.7538439528816
 20
123.1689324688835
 30
0.0
 10
149.7430944300588
 20
123.1693229769642
 30
0.0
 10
149.7150584559017
 20
123.1754653237527
 30
0.0
 10
149.702197223869
 20
123.1861293301707
 30
0.0
 10
149.6711943627087
 20
123.2251421205309
 30
0.0
 10
149.6603348806395
 20
123.2611941109352
 30
0.0
 10
149.6370576247016
 20
123.3788735084343
 30
0.0
 10
149.6349930221436
 20
123.4702034087673
 30
0.0
 10
149.6349930221436
 20
123.5634436616735
 30
0.0
  0
SPLINE
  5
A7
330
1F
100
AcDbEntity
  8
0
  6
Continuous
 62
     7
370
    15
100
AcDbSpline
210
0.0
220
0.0
230
1.0
 70
     8
 71
     3
 72
    12
 73
     8
 74
     0
 42
0.00000001
 43
0.00000001
 12
1.0
 22
0.0
 32
0.0
 13
1.0
 23
0.0
 33
0.0
 40
0.0
 40
0.0
 40
0.0
 40
0.0
 40
0.2500000000000011
 40
0.2500000000000011
 40
0.5000000000000021
 40
0.5000000000000021
 40
1.0
 40
1.0
 40
1.0
 40
1.0
 10
150.029461620714
 20
100.3202960388611
 30
0.0
 10
150.0796966297592
 20
100.2494804364811
 30
0.0
 10
150.1197414689021
 20
100.1840828841533
 30
0.0
 10
150.1921939863285
 20
100.0580920806696
 30
0.0
 10
150.223488384031
 20
99.9987285445733
 30
0.0
 10
150.3090971137615
 20
99.8267313235896
 30
0.0
 10
150.3550979100451
 20
99.72021979924106
 30
0.0
 10
150.3949630685316
 20
99.61822661230735
 30
0.0
  0
SPLINE
  5
A8
330
1F
100
AcDbEntity
  8
0
  6
Continuous
 62
     7
370
    15
100
AcDbSpline
210
0.0
220
0.0
230
1.0
 70
     8
 71
     3
 72
     8
 73
     4
 74
     0
 42
0.00000001
 43
0.00000001
 12
1.0
 22
0.0
 32
0.0
 13
1.0
 23
0.0
 33
0.0
 40
0.0
 40
0.0
 40
0.0
 40
0.0
 40
1.0
 40
1.0
 40
1.0
 40
1.0
 10
149.7618379418322
 20
100.5717800350496
 30
0.0
 10
149.8284395708433
 20
100.470341636269
 30
0.0
 10
149.9203825240224
 20
100.382940404982
 30
0.0
 10
150.0294616207139
 20
100.3202960388611
 30
0.0
  0
SPLINE
  5
A9
330
1F
100
AcDbEntity
  8
0
  6
Continuous
 62
     7
370
    15
100
AcDbSpline
210
0.0
220
0.0
230
1.0
 70
     8
 71
     3
 72
    14
 73
    10
 74
     0
 42
0.00000001
 43
0.00000001
 12
1.0
 22
0.0
 32
0.0
 13
1.0
 23
0.0
 33
0.0
 40
0.0
 40
0.0
 40
0.0
 40
0.0
 40
0.5000000000000032
 40
0.5000000000000032
 40
0.750000000000003
 40
0.750000000000003
 40
0.8750000000000016
 40
0.8750000000000016
 40
1.0
 40
1.0
 40
1.0
 40
1.0
 10
149.6349930221437
 20
100.2376989960114
 30
0.0
 10
149.6349930221437
 20
100.3145105680187
 30
0.0
 10
149.6375222797435
 20
100.3889278293499
 30
0.0
 10
149.6572932262765
 20
100.4854291070515
 30
0.0
 10
149.66655482615
 20
100.5151707037263
 30
0.0
 10
149.6900162400595
 20
100.5496683299495
 30
0.0
 10
149.6994386547237
 20
100.5594989683783
 30
0.0
 10
149.724508044676
 20
100.5726767968712
 30
0.0
 10
149.7398124990688
 20
100.576275031851
 30
0.0
 10
149.7618379418275
 20
100.5717800350601
 30
0.0
  0
LINE
  5
AA
330
1F
100
AcDbEntity
  8
0
  6
Continuous
 62
     7
370
    15
100
AcDbLine
 10
149.6349932993
 20
100.2376988911
 30
0.0
 11
149.6349932993
 21
123.5634439074
 31
0.0
  0
SPLINE
  5
AB
330
1F
100
AcDbEntity
  8
0
  6
Continuous
 62
     7
370
    15
100
AcDbSpline
210
0.0
220
0.0
230
1.0
 70
     8
 71
     3
 72
     8
 73
     4
 74
     0
 42
0.00000001
 43
0.00000001
 12
1.0
 22
0.0
 32
0.0
 13
1.0
 23
0.0
 33
0.0
 40
0.0
 40
0.0
 40
0.0
 40
0.0
 40
1.0
 40
1.0
 40
1.0
 40
1.0
 10
187.5701527210372
 20
131.2723874671378
 30
0.0
 10
187.2377946246475
 20
130.6815772534659
 30
0.0
 10
186.9060133531634
 20
130.0904445892207
 30
0.0
 10
186.5749930221437
 20
129.498888892763
 30
0.0
  0
LINE
  5
AC
330
1F
100
AcDbEntity
  8
0
  6
Continuous
 62
     7
370
    15
100
AcDbLine
 10
187.5701533998
 20
127.8966214889
 30
0.0
 11
187.5701533998
 21
131.2723882877
 31
0.0
  0
SPLINE
  5
AD
330
1F
100
AcDbEntity
  8
0
  6
Continuous
 62
     7
370
    15
100
AcDbSpline
210
0.0
220
0.0
230
1.0
 70
     8
 71
     3
 72
     8
 73
     4
 74
     0
 42
0.00000001
 43
0.00000001
 12
1.0
 22
0.0
 32
0.0
 13
1.0
 23
0.0
 33
0.0
 40
0.0
 40
0.0
 40
0.0
 40
0.0
 40
1.0
 40
1.0
 40
1.0
 40
1.0
 10
186.5749930221437
 20
125.6993000966881
 30
0.0
 10
186.8985505803986
 20
126.4354164953107
 30
0.0
 10
187.2310449006156
 20
127.1675080907294
 30
0.0
 10
187.5701527210372
 20
127.8966211983102
 30
0.0
  0
LINE
  5
AE
330
1F
100
AcDbEntity
  8
0
  6
Continuous
 62
     7
370
    15
100
AcDbLine
 10
186.574992388
 20
125.6992999845
 30
0.0
 11
186.574992388
 21
129.4988893353
 31
0.0
  0
SPLINE
  5
AF
330
1F
100
AcDbEntity
  8
0
  6
Continuous
 62
     7
370
    15
100
AcDbSpline
210
0.0
220
0.0
230
1.0
 70
     8
 71
     3
 72
     8
 73
     4
 74
     0
 42
0.00000001
 43
0.00000001
 12
1.0
 22
0.0
 32
0.0
 13
1.0
 23
0.0
 33
0.0
 40
0.0
 40
0.0
 40
0.0
 40
0.0
 40
1.0
 40
1.0
 40
1.0
 40
1.0
 10
183.4998333232503
 20
127.8966211983102
 30
0.0
 10
183.8392563645319
 20
127.1668303367909
 30
0.0
 10
184.171767108027
 20
126.4346619813692
 30
0.0
 10
184.4949930221437
 20
125.6993000966882
 30
0.0
  0
LINE
  5
B0
330
1F
100
AcDbEntity
  8
0
  6
Continuous
 62
     7
370
    15
100
AcDbLine
 10
184.4949933136
 20
125.6992999845
 30
0.0
 11
184.4949933136
 21
125.301059001
 31
0.0
  0
SPLINE
  5
B1
330
1F
100
AcDbEntity
  8
0
  6
Continuous
 62
     7
370
    15
100
AcDbSpline
210
0.0
220
0.0
230
1.0
 70
     8
 71
     3
 72
    12
 73
     8
 74
     0
 42
0.00000001
 43
0.00000001
 12
1.0
 22
0.0
 32
0.0
 13
1.0
 23
0.0
 33
0.0
 40
0.0
 40
0.0
 40
0.0
 40
0.0
 40
0.500000000000002
 40
0.500000000000002
 40
0.750000000000001
 40
0.750000000000001
 40
1.0
 40
1.0
 40
1.0
 40
1.0
 10
184.4949930221437
 20
125.3010593774875
 30
0.0
 10
184.4949930221437
 20
125.1166201518611
 30
0.0
 10
184.5418357165962
 20
124.9297109323537
 30
0.0
 10
184.6913877392928
 20
124.6960755797329
 30
0.0
 10
184.755492734597
 20
124.6258259479557
 30
0.0
 10
184.9097216899036
 20
124.5235851989945
 30
0.0
 10
185.0023981978366
 20
124.4922230573841
 30
0.0
 10
185.0949930221433
 20
124.492223057384
 30
0.0
  0
LINE
  5
B2
330
1F
100
AcDbEntity
  8
0
  6
Continuous
 62
     7
370
    15
100
AcDbLine
 10
185.0949932257
 20
124.4922230401
 30
0.0
 11
185.9749934072
 21
124.4922230401
 31
0.0
  0
SPLINE
  5
B3
330
1F
100
AcDbEntity
  8
0
  6
Continuous
 62
     7
370
    15
100
AcDbSpline
210
0.0
220
0.0
230
1.0
 70
     8
 71
     3
 72
    12
 73
     8
 74
     0
 42
0.00000001
 43
0.00000001
 12
1.0
 22
0.0
 32
0.0
 13
1.0
 23
0.0
 33
0.0
 40
0.0
 40
0.0
 40
0.0
 40
0.0
 40
0.2500000000000003
 40
0.2500000000000003
 40
0.5000000000000006
 40
0.5000000000000006
 40
1.0
 40
1.0
 40
1.0
 40
1.0
 10
185.9749930221437
 20
124.4922230573839
 30
0.0
 10
186.0682440404768
 20
124.4922230573839
 30
0.0
 10
186.1597497493028
 20
124.5232843757833
 30
0.0
 10
186.3146732838378
 20
124.6259050261639
 30
0.0
 10
186.3782681017801
 20
124.6955575542427
 30
0.0
 10
186.5288270584631
 20
124.9307724861445
 30
0.0
 10
186.5749930221437
 20
125.1155785755538
 30
0.0
 10
186.5749930221437
 20
125.3010593774875
 30
0.0
  0
LINE
  5
B4
330
1F
100
AcDbEntity
  8
0
  6
Continuous
 62
     7
370
    15
100
AcDbLine
 10
187.5701533998
 20
127.8966214889
 30
0.0
 11
188.884992748
 21
127.8966214889
 31
0.0
  0
SPLINE
  5
B5
330
1F
100
AcDbEntity
  8
0
  6
Continuous
 62
     7
370
    15
100
AcDbSpline
210
0.0
220
0.0
230
1.0
 70
     8
 71
     3
 72
    12
 73
     8
 74
     0
 42
0.00000001
 43
0.00000001
 12
1.0
 22
0.0
 32
0.0
 13
1.0
 23
0.0
 33
0.0
 40
0.0
 40
0.0
 40
0.0
 40
0.0
 40
0.2500000000000014
 40
0.2500000000000014
 40
0.5000000000000029
 40
0.5000000000000029
 40
1.0
 40
1.0
 40
1.0
 40
1.0
 10
188.8849930221437
 20
127.8966211983102
 30
0.0
 10
188.9742813811875
 20
127.8966211983102
 30
0.0
 10
189.0623402120897
 20
127.8709965657055
 30
0.0
 10
189.2149939253388
 20
127.7824531927737
 30
0.0
 10
189.2807874186808
 20
127.719570709659
 30
0.0
 10
189.4362280653969
 20
127.5022095217254
 30
0.0
 10
189.4849930221437
 20
127.3235625117141
 30
0.0
 10
189.4849930221437
 20
127.1454693565384
 30
0.0
  0
LINE
  5
B6
330
1F
100
AcDbEntity
  8
0
  6
Continuous
 62
     7
370
    15
100
AcDbLine
 10
189.4849935914
 20
127.1454697856
 30
0.0
 11
189.4849935914
 21
124.6626150244
 31
0.0
  0
LINE
  5
B7
330
1F
100
AcDbEntity
  8
0
  6
Continuous
 62
     7
370
    15
100
AcDbLine
 10
186.574992388
 20
125.301059001
 30
0.0
 11
186.574992388
 21
125.6992999845
 31
0.0
  0
SPLINE
  5
B8
330
1F
100
AcDbEntity
  8
0
  6
Continuous
 62
     7
370
    15
100
AcDbSpline
210
0.0
220
0.0
230
1.0
 70
     8
 71
     3
 72
    10
 73
     6
 74
     0
 42
0.00000001
 43
0.00000001
 12
1.0
 22
0.0
 32
0.0
 13
1.0
 23
0.0
 33
0.0
 40
0.0
 40
0.0
 40
0.0
 40
0.0
 40
0.5
 40
0.5
 40
1.0
 40
1.0
 40
1.0
 40
1.0
 10
189.4849930221437
 20
130.6560892303757
 30
0.0
 10
189.4849930221437
 20
130.8145236732635
 30
0.0
 10
189.4228318056608
 20
130.9735443680655
 30
0.0
 10
189.2023224649891
 20
131.2035521923211
 30
0.0
 10
189.043407362044
 20
131.2723874671379
 30
0.0
 10
188.8849930221437
 20
131.2723874671379
 30
0.0
  0
LINE
  5
B9
330
1F
100
AcDbEntity
  8
0
  6
Continuous
 62
     7
370
    15
100
AcDbLine
 10
189.4849935914
 20
127.1454697856
 30
0.0
 11
189.4849935914
 21
130.6560892993
 31
0.0
  0
SPLINE
  5
BA
330
1F
100
AcDbEntity
  8
0
  6
Continuous
 62
     7
370
    15
100
AcDbSpline
210
0.0
220
0.0
230
1.0
 70
     8
 71
     3
 72
     8
 73
     4
 74
     0
 42
0.00000001
 43
0.00000001
 12
1.0
 22
0.0
 32
0.0
 13
1.0
 23
0.0
 33
0.0
 40
0.0
 40
0.0
 40
0.0
 40
0.0
 40
1.0
 40
1.0
 40
1.0
 40
1.0
 10
184.4949930221437
 20
129.498888892763
 30
0.0
 10
184.1639726911241
 20
130.0904445892207
 30
0.0
 10
183.8321914196399
 20
130.6815772534659
 30
0.0
 10
183.4998333232503
 20
131.2723874671378
 30
0.0
  0
LINE
  5
BB
330
1F
100
AcDbEntity
  8
0
  6
Continuous
 62
     7
370
    15
100
AcDbLine
 10
184.4949933136
 20
125.6992999845
 30
0.0
 11
184.4949933136
 21
129.4988893353
 31
0.0
  0
SPLINE
  5
BC
330
1F
100
AcDbEntity
  8
0
  6
Continuous
 62
     7
370
    15
100
AcDbSpline
210
0.0
220
0.0
230
1.0
 70
    24
 71
     3
 72
    12
 73
     8
 74
     0
 42
0.00000001
 43
0.00000001
 12
1.0
 22
0.0
 32
0.0
 13
1.0
 23
0.0
 33
0.0
 40
0.0
 40
0.0
 40
0.0
 40
0.0
 40
0.5000000000000062
 40
0.5000000000000062
 40
0.7500000000000031
 40
0.7500000000000031
 40
1.0
 40
1.0
 40
1.0
 40
1.0
 10
186.3266486363945
 20
128.6852121972327
 30
0.0
 10
186.292478675044
 20
128.6852121972327
 30
0.0
 10
186.2532285339925
 20
128.6852121972327
 30
0.0
 10
186.1752285234795
 20
128.6852121972327
 30
0.0
 10
186.1458255950786
 20
128.6852121972327
 30
0.0
 10
186.0726810009301
 20
128.6852121972327
 30
0.0
 10
186.0260510229622
 20
128.6852121972327
 30
0.0
 10
185.9749930221437
 20
128.6852121972327
 30
0.0
  0
SPLINE
  5
BD
330
1F
100
AcDbEntity
  8
0
  6
Continuous
 62
     7
370
    15
100
AcDbSpline
210
0.0
220
0.0
230
1.0
 70
     8
 71
     3
 72
    10
 73
     6
 74
     0
 42
0.00000001
 43
0.00000001
 12
1.0
 22
0.0
 32
0.0
 13
1.0
 23
0.0
 33
0.0
 40
0.0
 40
0.0
 40
0.0
 40
0.0
 40
0.5
 40
0.5
 40
1.0
 40
1.0
 40
1.0
 40
1.0
 10
186.5749930221437
 20
129.1878161690515
 30
0.0
 10
186.5749930221436
 20
129.091273621576
 30
0.0
 10
186.5530523995626
 20
128.9948124213069
 30
0.0
 10
186.4669222141723
 20
128.8194098270638
 30
0.0
 10
186.40383990703
 20
128.7429942946972
 30
0.0
 10
186.3266486363984
 20
128.6852121972363
 30
0.0
  0
LINE
  5
BE
330
1F
100
AcDbEntity
  8
0
  6
Continuous
 62
     7
370
    15
100
AcDbLine
 10
185.9749934072
 20
128.6852114283
 30
0.0
 11
185.0949932257
 21
128.6852114283
 31
0.0
  0
SPLINE
  5
BF
330
1F
100
AcDbEntity
  8
0
  6
Continuous
 62
     7
370
    15
100
AcDbSpline
210
0.0
220
0.0
230
1.0
 70
     8
 71
     3
 72
    10
 73
     6
 74
     0
 42
0.00000001
 43
0.00000001
 12
1.0
 22
0.0
 32
0.0
 13
1.0
 23
0.0
 33
0.0
 40
0.0
 40
0.0
 40
0.0
 40
0.0
 40
0.5
 40
0.5
 40
1.0
 40
1.0
 40
1.0
 40
1.0
 10
184.7433374078937
 20
128.6852121972327
 30
0.0
 10
184.6660126760194
 20
128.7430941980944
 30
0.0
 10
184.602632850483
 20
128.8201675427283
 30
0.0
 10
184.5170624017099
 20
128.9946706009222
 30
0.0
 10
184.4949930221437
 20
129.0914758044026
 30
0.0
 10
184.4949930221437
 20
129.1878161690526
 30
0.0
  0
SPLINE
  5
C0
330
1F
100
AcDbEntity
  8
0
  6
Continuous
 62
     7
370
    15
100
AcDbSpline
210
0.0
220
0.0
230
1.0
 70
    24
 71
     3
 72
    12
 73
     8
 74
     0
 42
0.00000001
 43
0.00000001
 12
1.0
 22
0.0
 32
0.0
 13
1.0
 23
0.0
 33
0.0
 40
0.0
 40
0.0
 40
0.0
 40
0.0
 40
0.2500000000000002
 40
0.2500000000000002
 40
0.5000000000000003
 40
0.5000000000000003
 40
1.0
 40
1.0
 40
1.0
 40
1.0
 10
185.0949930221435
 20
128.6852121972327
 30
0.0
 10
185.0437037771071
 20
128.6852121972327
 30
0.0
 10
184.9965157514355
 20
128.6852121972327
 30
0.0
 10
184.9234995427405
 20
128.6852121972327
 30
0.0
 10
184.8940079352008
 20
128.6852121972327
 30
0.0
 10
184.8164258961064
 20
128.6852121972328
 30
0.0
 10
184.7772645833911
 20
128.6852121972327
 30
0.0
 10
184.7433374078929
 20
128.6852121972327
 30
0.0
  0
LINE
  5
C1
330
1F
100
AcDbEntity
  8
0
  6
Continuous
 62
     7
370
    15
100
AcDbLine
 10
188.884992748
 20
131.2723882877
 30
0.0
 11
187.5701533998
 21
131.2723882877
 31
0.0
  0
CIRCLE
  5
C2
330
1F
100
AcDbEntity
  8
0
  6
Continuous
 62
     7
370
    15
100
AcDbCircle
 10
209.1630414542
 20
115.3473852716
 30
0.0
 40
3.466781597704709
  0
LINE
  5
C3
330
1F
100
AcDbEntity
  8
0
  6
Continuous
 62
     7
370
    15
100
AcDbLine
 10
209.8874194915
 20
134.0784743809
 30
0.0
 11
206.9793945546
 21
124.8290013903
 31
0.0
  0
LINE
  5
C4
330
1F
100
AcDbEntity
  8
0
  6
Continuous
 62
     7
370
    15
100
AcDbLine
 10
206.9793945546
 20
124.8290013903
 30
0.0
 11
204.003591686
 21
123.9372199782
 31
0.0
  0
ARC
  5
C5
330
1F
100
AcDbEntity
  8
0
  6
Continuous
 62
     7
370
    15
100
AcDbCircle
 10
204.6457539087
 20
121.9576708991
 30
0.0
 40
2.081102322569485
100
AcDbArc
 50
107.9729712617
 51
287.7578610031
  0
LINE
  5
C6
330
1F
100
AcDbEntity
  8
0
  6
Continuous
 62
     7
370
    15
100
AcDbLine
 10
205.2804796392
 20
119.9757248544
 30
0.0
 11
219.6899360413
 21
124.2939174556
 31
0.0
  0
LINE
  5
C7
330
1F
100
AcDbEntity
  8
0
  6
Continuous
 62
     7
370
    15
100
AcDbLine
 10
219.6899360413
 20
124.2939174556
 30
0.0
 11
210.8027456695
 21
96.0266735785
 31
0.0
  0
ELLIPSE
  5
C8
330
1F
100
AcDbEntity
  8
0
  6
Continuous
 62
     7
370
    15
100
AcDbEllipse
 10
266.2730666787
 20
111.7852121972
 30
0.0
 11
171.2582481391832
 21
-3.15950034958702
 31
0.0
210
0.0
220
0.0
230
1.0
 40
0.1034726254
 41
4.34801286772895
 42
4.384451123187008
  0
SPLINE
  5
C9
330
1F
100
AcDbEntity
  8
0
  6
Continuous
 62
     7
370
    15
100
AcDbSpline
210
0.0
220
0.0
230
1.0
 70
     8
 71
     3
 72
     8
 73
     4
 74
     0
 42
0.00000001
 43
0.00000001
 12
1.0
 22
0.0
 32
0.0
 13
1.0
 23
0.0
 33
0.0
 40
0.0
 40
0.0
 40
0.0
 40
0.0
 40
1.0
 40
1.0
 40
1.0
 40
1.0
 10
204.9369168107904
 20
96.35403101280234
 30
0.0
 10
204.8689024618255
 20
96.62571011535009
 30
0.0
 10
204.8011169475834
 20
96.89744289551436
 30
0.0
 10
204.7335918604538
 20
97.16923676390205
 30
0.0
  0
SPLINE
  5
CA
330
1F
100
AcDbEntity
  8
0
  6
Continuous
 62
     7
370
    15
100
AcDbSpline
210
0.0
220
0.0
230
1.0
 70
     8
 71
     3
 72
    12
 73
     8
 74
     0
 42
0.00000001
 43
0.00000001
 12
1.0
 22
0.0
 32
0.0
 13
1.0
 23
0.0
 33
0.0
 40
0.0
 40
0.0
 40
0.0
 40
0.0
 40
0.2500000000000022
 40
0.2500000000000022
 40
0.5000000000000043
 40
0.5000000000000043
 40
1.0
 40
1.0
 40
1.0
 40
1.0
 10
204.7335918604538
 20
97.16923676390205
 30
0.0
 10
204.7059269075248
 20
97.28059040882093
 30
0.0
 10
204.6628430326439
 20
97.38561123522858
 30
0.0
 10
204.5459933616855
 20
97.58305129117994
 30
0.0
 10
204.4733157409212
 20
97.67283984744171
 30
0.0
 10
204.2189395041949
 20
97.90397933034411
 30
0.0
 10
203.9986088290952
 20
98.00562481264578
 30
0.0
 10
203.7676660341653
 20
98.0202153148424
 30
0.0
  0
SPLINE
  5
CB
330
1F
100
AcDbEntity
  8
0
  6
Continuous
 62
     7
370
    15
100
AcDbSpline
210
0.0
220
0.0
230
1.0
 70
     8
 71
     3
 72
    10
 73
     6
 74
     0
 42
0.00000001
 43
0.00000001
 12
1.0
 22
0.0
 32
0.0
 13
1.0
 23
0.0
 33
0.0
 40
0.0
 40
0.0
 40
0.0
 40
0.0
 40
0.5
 40
0.5
 40
1.0
 40
1.0
 40
1.0
 40
1.0
 10
203.7676660341647
 20
127.8318010805411
 30
0.0
 10
203.9983953015006
 20
127.837955939442
 30
0.0
 10
204.2168271958156
 20
127.9299778687064
 30
0.0
 10
204.558866679905
 20
128.2277773537734
 30
0.0
 10
204.6782995930589
 20
128.4269836038595
 30
0.0
 10
204.7335918604538
 20
128.647521099959
 30
0.0
  0
SPLINE
  5
CC
330
1F
100
AcDbEntity
  8
0
  6
Continuous
 62
     7
370
    15
100
AcDbSpline
210
0.0
220
0.0
230
1.0
 70
     8
 71
     3
 72
     8
 73
     4
 74
     0
 42
0.00000001
 43
0.00000001
 12
1.0
 22
0.0
 32
0.0
 13
1.0
 23
0.0
 33
0.0
 40
0.0
 40
0.0
 40
0.0
 40
0.0
 40
1.0
 40
1.0
 40
1.0
 40
1.0
 10
204.7335918604538
 20
128.647521099959
 30
0.0
 10
205.0856693771219
 20
130.0518095767589
 30
0.0
 10
205.4445969796606
 20
131.4542411892277
 30
0.0
 10
205.8071173902069
 20
132.8556988931698
 30
0.0
  0
LINE
  5
CD
330
1F
100
AcDbEntity
  8
0
  6
Continuous
 62
     7
370
    15
100
AcDbLine
 10
205.8071164781
 20
132.8556981318
 30
0.0
 11
209.8874194915
 21
134.0784743809
 31
0.0
  0
LINE
  5
CE
330
1F
100
AcDbEntity
  8
0
  6
Continuous
 62
     7
370
    15
100
AcDbLine
 10
204.9369184667
 20
96.3540306696
 30
0.0
 11
204.9369184667
 21
93.7852129721
 31
0.0
  0
ELLIPSE
  5
CF
330
1F
100
AcDbEntity
  8
0
  6
Continuous
 62
     7
370
    15
100
AcDbEllipse
 10
215.4905678735
 20
111.7852121972
 30
0.0
 11
5.858367632722064
 21
17.9980924972721
 31
0.0
210
0.0
220
0.0
230
1.0
 40
0.0447296713
 41
3.156151104435568
 42
3.660530824956946
  0
LINE
  5
D0
330
1F
100
AcDbEntity
  8
0
  6
Continuous
 62
     7
370
    15
100
AcDbLine
 10
149.6349932993
 20
99.9667399012
 30
0.0
 11
149.6349932993
 21
100.2376988911
 31
0.0
  0
LINE
  5
D1
330
1F
100
AcDbEntity
  8
0
  6
Continuous
 62
     7
370
    15
100
AcDbLine
 10
149.6349932993
 20
123.6591261261
 30
0.0
 11
149.6349932993
 21
123.5634439074
 31
0.0
  0
LINE
  5
D2
330
1F
100
AcDbEntity
  8
0
  6
Continuous
 62
     7
370
    15
100
AcDbLine
 10
150.5849926168
 20
124.665212483
 30
0.0
 11
150.5849926168
 21
124.6507928156
 31
0.0
  0
LINE
  5
D3
330
1F
100
AcDbEntity
  8
0
  6
Continuous
 62
     7
370
    15
100
AcDbLine
 10
149.6349932993
 20
123.7152122342
 30
0.0
 11
149.6349932993
 21
123.6591261261
 31
0.0
  0
LINE
  5
D4
330
1F
100
AcDbEntity
  8
0
  6
Continuous
 62
     7
370
    15
100
AcDbLine
 10
150.6439937646
 20
98.9052119114
 30
0.0
 11
150.6439937646
 21
98.9341453099
 31
0.0
  0
LINE
  5
D5
330
1F
100
AcDbEntity
  8
0
  6
Continuous
 62
     7
370
    15
100
AcDbLine
 10
149.6349932993
 20
99.9142123767
 30
0.0
 11
149.6349932993
 21
99.9667399012
 31
0.0
  0
LWPOLYLINE
  5
D6
330
1F
100
AcDbEntity
  8
0
  6
Continuous
 62
     7
370
    15
100
AcDbPolyline
 90
        3
 70
   128
 43
0.0
 10
202.5580300385
 20
122.1300611653
 10
202.61335805
 20
122.1626891204
 10
203.0398404593
 20
122.3449545362
  0
LINE
  5
D7
330
1F
100
AcDbEntity
  8
0
  6
Continuous
 62
     7
370
    15
100
AcDbLine
 10
206.0156433279
 20
123.2367359483
 30
0.0
 11
206.9793945546
 21
124.8290013903
 31
0.0
  0
LINE
  5
D8
330
1F
100
AcDbEntity
  8
0
  6
Continuous
 62
     7
370
    15
100
AcDbLine
 10
203.0398404593
 20
122.3449545362
 30
0.0
 11
206.0156433279
 21
123.2367359483
 31
0.0
  0
LINE
  5
D9
330
1F
100
AcDbEntity
  8
0
  6
Continuous
 62
     7
370
    15
100
AcDbLine
 10
205.6890583033
 20
132.4290462219
 30
0.0
 11
205.8071164781
 21
132.8556981318
 31
0.0
  0
LWPOLYLINE
  5
DA
330
1F
100
AcDbEntity
  8
0
  6
Continuous
 62
     7
370
    15
100
AcDbPolyline
 90
        3
 70
   128
 43
0.0
 10
205.1040759677
 20
120.2894054734
 10
205.0599759812
 20
120.0260628396
 10
205.0625576074
 20
119.9230576315
  0
LINE
  5
DB
330
1F
100
AcDbEntity
  8
0
  6
Continuous
 62
     7
370
    15
100
AcDbLine
 10
206.3480435306
 20
123.7859126561
 30
0.0
 11
205.4051166767
 21
120.7867727064
 31
0.0
  0
LINE
  5
DC
330
1F
100
AcDbEntity
  8
0
  6
Continuous
 62
     7
370
    15
100
AcDbLine
 10
206.0470028216
 20
123.2885454231
 30
0.0
 11
205.1040759677
 21
120.2894054734
 31
0.0
  0
CIRCLE
  5
DD
330
1F
100
AcDbEntity
  8
0
  6
Continuous
 62
     7
370
    15
100
AcDbCircle
 10
209.1597366198
 20
115.3506037614
 30
0.0
 40
3.463106069054288
  0
CIRCLE
  5
DE
330
1F
100
AcDbEntity
  8
0
  6
Continuous
 62
     7
370
    15
100
AcDbCircle
 10
209.1892917386
 20
115.359523877
 30
0.0
 40
1.976859703525905
  0
SPLINE
  5
DF
330
1F
100
AcDbEntity
  8
0
  6
Continuous
 62
     7
370
    15
100
AcDbSpline
210
0.0
220
0.0
230
1.0
 70
     8
 71
     3
 72
    11
 73
     7
 74
     0
 42
0.00000001
 43
0.00000001
 12
1.0
 22
0.0
 32
0.0
 13
1.0
 23
0.0
 33
0.0
 40
0.0
 40
0.0
 40
0.0
 40
0.0
 40
0.1081106957801157
 40
0.4711586340609614
 40
0.8135810681609777
 40
1.0
 40
1.0
 40
1.0
 40
1.0
 10
208.5749326640963
 20
113.7430233795976
 30
0.0
 10
208.6295759369693
 20
113.7458295163899
 30
0.0
 10
208.8677174975405
 20
113.758058977763
 30
0.0
 10
209.3320092591894
 20
113.7993906725816
 30
0.0
 10
209.8756533370305
 20
113.8868323447554
 30
0.0
 10
210.1730157819265
 20
113.9475265231926
 30
0.0
 10
210.2778373653292
 20
113.9689214908367
 30
0.0
  0
SPLINE
  5
E0
330
1F
100
AcDbEntity
  8
0
  6
Continuous
 62
     7
370
    15
100
AcDbSpline
210
0.0
220
0.0
230
1.0
 70
     8
 71
     3
 72
    11
 73
     7
 74
     0
 42
0.00000001
 43
0.00000001
 12
1.0
 22
0.0
 32
0.0
 13
1.0
 23
0.0
 33
0.0
 40
0.0
 40
0.0
 40
0.0
 40
0.0
 40
0.2164497330734596
 40
0.440299799808006
 40
0.751891408989623
 40
0.9999999999999999
 40
0.9999999999999999
 40
0.9999999999999999
 40
0.9999999999999999
 10
210.2778373653292
 20
113.9689214908367
 30
0.0
 10
210.3150864333979
 20
114.0675901448339
 30
0.0
 10
210.3908581009385
 20
114.268300896404
 30
0.0
 10
210.543287608753
 20
114.6602781358003
 30
0.0
 10
210.722926506033
 20
115.1074115598057
 30
0.0
 10
210.8487616818901
 20
115.4115172198465
 30
0.0
 10
210.9045429522394
 20
115.5463237230515
 30
0.0
  0
SPLINE
  5
E1
330
1F
100
AcDbEntity
  8
0
  6
Continuous
 62
     7
370
    15
100
AcDbSpline
210
0.0
220
0.0
230
1.0
 70
     8
 71
     3
 72
    11
 73
     7
 74
     0
 42
0.00000001
 43
0.00000001
 12
1.0
 22
0.0
 32
0.0
 13
1.0
 23
0.0
 33
0.0
 40
0.0
 40
0.0
 40
0.0
 40
0.0
 40
0.2164498080190976
 40
0.4402995058794403
 40
0.7518920389787974
 40
1.0
 40
1.0
 40
1.0
 40
1.0
 10
210.9045429522394
 20
115.5463237230515
 30
0.0
 10
210.825145733049
 20
115.6295184421141
 30
0.0
 10
210.6636368978245
 20
115.7987521043211
 30
0.0
 10
210.3757242831693
 20
116.1323178377015
 30
0.0
 10
210.0830101439479
 20
116.5167889510883
 30
0.0
 10
209.9065638943854
 20
116.7807964951839
 30
0.0
 10
209.828347563207
 20
116.8978276111966
 30
0.0
  0
SPLINE
  5
E2
330
1F
100
AcDbEntity
  8
0
  6
Continuous
 62
     7
370
    15
100
AcDbSpline
210
0.0
220
0.0
230
1.0
 70
     8
 71
     3
 72
    11
 73
     7
 74
     0
 42
0.00000001
 43
0.00000001
 12
1.0
 22
0.0
 32
0.0
 13
1.0
 23
0.0
 33
0.0
 40
0.0
 40
0.0
 40
0.0
 40
0.0
 40
0.1864188291694093
 40
0.5288412540181088
 40
0.8918891739551025
 40
1.0
 40
1.0
 40
1.0
 40
1.0
 10
209.828347563207
 20
116.8978276111966
 30
0.0
 10
209.7235259657473
 20
116.8764327342078
 30
0.0
 10
209.4261633801344
 20
116.8157387923635
 30
0.0
 10
208.8825195731025
 20
116.7282969924268
 30
0.0
 10
208.4182274087372
 20
116.686965316452
 30
0.0
 10
208.1800861243381
 20
116.674735869082
 30
0.0
 10
208.1254428619741
 20
116.6719297327881
 30
0.0
  0
SPLINE
  5
E3
330
1F
100
AcDbEntity
  8
0
  6
Continuous
 62
     7
370
    15
100
AcDbSpline
210
0.0
220
0.0
230
1.0
 70
     8
 71
     3
 72
    11
 73
     7
 74
     0
 42
0.00000001
 43
0.00000001
 12
1.0
 22
0.0
 32
0.0
 13
1.0
 23
0.0
 33
0.0
 40
0.0
 40
0.0
 40
0.0
 40
0.0
 40
0.2164495708800113
 40
0.440299706579476
 40
0.7518914948371099
 40
1.0
 40
1.0
 40
1.0
 40
1.0
 10
208.1254428619741
 20
116.6719297327881
 30
0.0
 10
208.0768363726342
 20
116.5544964776832
 30
0.0
 10
207.9779615035033
 20
116.3156148409344
 30
0.0
 10
207.8062748128833
 20
115.8918209822214
 30
0.0
 10
207.6382428714542
 20
115.4638685949598
 30
0.0
 10
207.5415846976755
 20
115.2079660605199
 30
0.0
 10
207.4987372750639
 20
115.0945275005733
 30
0.0
  0
SPLINE
  5
E4
330
1F
100
AcDbEntity
  8
0
  6
Continuous
 62
     7
370
    15
100
AcDbSpline
210
0.0
220
0.0
230
1.0
 70
     8
 71
     3
 72
    11
 73
     7
 74
     0
 42
0.00000001
 43
0.00000001
 12
1.0
 22
0.0
 32
0.0
 13
1.0
 23
0.0
 33
0.0
 40
0.0
 40
0.0
 40
0.0
 40
0.0
 40
0.2164499601261718
 40
0.4402997609509638
 40
0.7518917000165849
 40
1.0
 40
1.0
 40
1.0
 40
1.0
 10
207.4987372750639
 20
115.0945275005733
 30
0.0
 10
207.5667770969419
 20
114.9925683226829
 30
0.0
 10
207.7051828388074
 20
114.7851642574396
 30
0.0
 10
207.9738376519327
 20
114.4197817759452
 30
0.0
 10
208.2781597257392
 20
114.0544901686135
 30
0.0
 10
208.4837825639685
 20
113.8386865123699
 30
0.0
 10
208.5749326640963
 20
113.7430233795976
 30
0.0
  0
LINE
  5
E5
330
1F
100
AcDbEntity
  8
0
  6
Continuous
 62
     7
370
    15
100
AcDbLine
 10
210.1323126251
 20
113.9400130053
 30
0.0
 11
210.2010852093
 21
114.1131088518
 31
0.0
  0
LINE
  5
E6
330
1F
100
AcDbEntity
  8
0
  6
Continuous
 62
     7
370
    15
100
AcDbLine
 10
210.2010852093
 20
114.1131088518
 30
0.0
 11
210.5144380028
 21
114.9018100844
 31
0.0
  0
LINE
  5
E7
330
1F
100
AcDbEntity
  8
0
  6
Continuous
 62
     7
370
    15
100
AcDbLine
 10
210.5144380028
 20
114.9018100844
 30
0.0
 11
210.9045429522
 21
115.5463237231
 31
0.0
  0
LINE
  5
E8
330
1F
100
AcDbEntity
  8
0
  6
Continuous
 62
     7
370
    15
100
AcDbLine
 10
210.5144380028
 20
114.9018100844
 30
0.0
 11
209.9763384456
 21
115.5775621448
 31
0.0
  0
LINE
  5
E9
330
1F
100
AcDbEntity
  8
0
  6
Continuous
 62
     7
370
    15
100
AcDbLine
 10
209.9763384456
 20
115.5775621448
 30
0.0
 11
209.4382426137
 21
116.2533142053
 31
0.0
  0
LINE
  5
EA
330
1F
100
AcDbEntity
  8
0
  6
Continuous
 62
     7
370
    15
100
AcDbLine
 10
209.4382426137
 20
116.2533142053
 30
0.0
 11
209.8283475632
 21
116.8978276112
 31
0.0
  0
LINE
  5
EB
330
1F
100
AcDbEntity
  8
0
  6
Continuous
 62
     7
370
    15
100
AcDbLine
 10
209.4382426137
 20
116.2533142053
 30
0.0
 11
208.5867902631
 21
116.1403652661
 31
0.0
  0
LINE
  5
EC
330
1F
100
AcDbEntity
  8
0
  6
Continuous
 62
     7
370
    15
100
AcDbLine
 10
208.5867902631
 20
116.1403652661
 30
0.0
 11
207.8690013284
 21
116.0451473118
 31
0.0
  0
ARC
  5
ED
330
1F
100
AcDbEntity
  8
0
  6
Continuous
 62
     7
370
    15
100
AcDbCircle
 10
208.8260321953
 20
114.6515545411
 30
0.0
 40
1.476717492148967
100
AcDbArc
 50
338.6155947088
 51
38.8343995945
  0
LWPOLYLINE
  5
EE
330
1F
100
AcDbEntity
  8
0
  6
Continuous
 62
     7
370
    15
100
AcDbPolyline
 90
        3
 70
   128
 43
0.0
 10
210.2010852093
 20
114.1131088518
 10
210.1183539624
 20
113.9396157962
 10
210.1039668912
 20
113.9145946511
  0
ARC
  5
EF
330
1F
100
AcDbEntity
  8
0
  6
Continuous
 62
     7
370
    15
100
AcDbCircle
 10
208.7768031595
 20
114.6865667219
 30
0.0
 40
1.466163397429167
100
AcDbArc
 50
97.4464043742
 51
134.9660423977
  0
ARC
  5
F0
330
1F
100
AcDbEntity
  8
0
  6
Continuous
 62
     7
370
    15
100
AcDbCircle
 10
208.7832144432
 20
114.6285490416
 30
0.0
 40
1.524523123849895
100
AcDbArc
 50
38.4988063985
 51
97.4027406263
  0
ELLIPSE
  5
F1
330
1F
100
AcDbEntity
  8
0
  6
Continuous
 62
     7
370
    15
100
AcDbEllipse
 10
214.8357005367
 20
128.8689940717
 30
0.0
 11
1.997919256371489
 21
-1.237404163304348
 31
0.0
210
0.0
220
0.0
230
1.0
 40
0.9806947386
 41
1.728688694103254
 42
3.453114417503565
  0
ELLIPSE
  5
F2
330
1F
100
AcDbEntity
  8
0
  6
Continuous
 62
     7
370
    15
100
AcDbEllipse
 10
214.8357005367
 20
128.8689940717
 30
0.0
 11
1.997919256371489
 21
-1.237404163304348
 31
0.0
210
0.0
220
0.0
230
1.0
 40
0.9806947386
 41
6.243225041291567
 42
8.011874001282852
  0
LINE
  5
F3
330
1F
100
AcDbEntity
  8
0
  6
Continuous
 62
     7
370
    15
100
AcDbLine
 10
212.7458421881
 20
129.9739830577
 30
0.0
 11
212.6237346227
 21
129.8790756994
 31
0.0
  0
LINE
  5
F4
330
1F
100
AcDbEntity
  8
0
  6
Continuous
 62
     7
370
    15
100
AcDbLine
 10
206.2315350766
 20
120.3045608857
 30
0.0
 11
219.9875569338
 21
124.426932671
 31
0.0
  0
ARC
  5
F5
330
1F
100
AcDbEntity
  8
0
  6
Continuous
 62
     7
370
    15
100
AcDbCircle
 10
206.1157561218
 20
120.6901956771
 30
0.0
 40
0.4026399865298557
100
AcDbArc
 50
163.393673688
 51
286.7113090442
  0
LINE
  5
F6
330
1F
100
AcDbEntity
  8
0
  6
Continuous
 62
     7
370
    15
100
AcDbLine
 10
210.0021919603
 20
134.3939990186
 30
0.0
 11
205.7299098367
 21
120.8052678414
 31
0.0
  0
ARC
  5
F7
330
1F
100
AcDbEntity
  8
0
  6
Continuous
 62
     7
370
    15
100
AcDbCircle
 10
210.3703335865
 20
134.2777142085
 30
0.0
 40
0.3860704780623147
100
AcDbArc
 50
106.5123015265
 51
162.470248365
  0
LINE
  5
F8
330
1F
100
AcDbEntity
  8
0
  6
Continuous
 62
     7
370
    15
100
AcDbLine
 10
224.0166223044
 20
138.7702335053
 30
0.0
 11
210.2606041724
 21
134.6478626513
 31
0.0
  0
ARC
  5
F9
330
1F
100
AcDbEntity
  8
0
  6
Continuous
 62
     7
370
    15
100
AcDbCircle
 10
224.1324019506
 20
138.3845994066
 30
0.0
 40
0.4026395218817804
100
AcDbArc
 50
343.3935511015
 51
106.7114316307
  0
LINE
  5
FA
330
1F
100
AcDbEntity
  8
0
  6
Continuous
 62
     7
370
    15
100
AcDbLine
 10
220.2459654207
 20
124.6807953724
 30
0.0
 11
224.5182475442
 21
138.2695265495
 31
0.0
  0
ARC
  5
FB
330
1F
100
AcDbEntity
  8
0
  6
Continuous
 62
     7
370
    15
100
AcDbCircle
 10
219.8778233929
 20
124.7970803388
 30
0.0
 40
0.3860709080056408
100
AcDbArc
 50
286.5129214016
 51
342.4702441839
  0
ARC
  5
FC
330
1F
100
AcDbEntity
  8
0
  6
Continuous
 62
     7
370
    15
100
AcDbCircle
 10
224.1326927716
 20
138.3850159033
 30
0.0
 40
0.3825096908283521
100
AcDbArc
 50
343.3937725565
 51
106.7113554338
  0
LINE
  5
FD
330
1F
100
AcDbEntity
  8
0
  6
Continuous
 62
     7
370
    15
100
AcDbLine
 10
224.0227019781
 20
138.7513704979
 30
0.0
 11
210.2666838462
 21
134.6289977812
 31
0.0
  0
ARC
  5
FE
330
1F
100
AcDbEntity
  8
0
  6
Continuous
 62
     7
370
    15
100
AcDbCircle
 10
210.3709150469
 20
134.2773718837
 30
0.0
 40
0.3667491172611971
100
AcDbArc
 50
106.5112141844
 51
162.4717237866
  0
LINE
  5
FF
330
1F
100
AcDbEntity
  8
0
  6
Continuous
 62
     7
370
    15
100
AcDbLine
 10
210.0211946661
 20
134.3878280752
 30
0.0
 11
205.7489125425
 21
120.7990968981
 31
0.0
  0
ARC
  5
100
330
1F
100
AcDbEntity
  8
0
  6
Continuous
 62
     7
370
    15
100
AcDbCircle
 10
206.1154648446
 20
120.6897765699
 30
0.0
 40
0.3825068944608939
100
AcDbArc
 50
163.3933478786
 51
286.7114443942
  0
LINE
  5
101
330
1F
100
AcDbEntity
  8
0
  6
Continuous
 62
     7
370
    15
100
AcDbLine
 10
206.2254554028
 20
120.3234248244
 30
0.0
 11
219.9814735348
 21
124.4457966097
 31
0.0
  0
ARC
  5
102
330
1F
100
AcDbEntity
  8
0
  6
Continuous
 62
     7
370
    15
100
AcDbCircle
 10
219.8772388582
 20
124.7974260454
 30
0.0
 40
0.3667534973481821
100
AcDbArc
 50
286.5115777172
 51
342.4713602538
  0
LINE
  5
103
330
1F
100
AcDbEntity
  8
0
  6
Continuous
 62
     7
370
    15
100
AcDbLine
 10
220.2269627149
 20
124.6869663157
 30
0.0
 11
224.4992485637
 21
138.2756974929
 31
0.0
  0
LINE
  5
104
330
1F
100
AcDbEntity
  8
0
  6
Continuous
 62
     7
370
    15
100
AcDbLine
 10
207.5498333568
 20
122.040411123
 30
0.0
 11
206.086993813
 21
120.6439571836
 31
0.0
  0
LINE
  5
105
330
1F
100
AcDbEntity
  8
0
  6
Continuous
 62
     7
370
    15
100
AcDbLine
 10
207.5498333568
 20
122.040411123
 30
0.0
 11
208.1892161066
 21
122.2320204981
 31
0.0
  0
LINE
  5
106
330
1F
100
AcDbEntity
  8
0
  6
Continuous
 62
     7
370
    15
100
AcDbLine
 10
219.4725355501
 20
125.0670083248
 30
0.0
 11
219.8430156702
 21
124.7663289689
 31
0.0
  0
LINE
  5
107
330
1F
100
AcDbEntity
  8
0
  6
Continuous
 62
     7
370
    15
100
AcDbLine
 10
206.3480435306
 20
123.7859126561
 30
0.0
 11
205.1384492213
 21
119.9385846414
 31
0.0
  0
LINE
  5
108
330
1F
100
AcDbEntity
  8
0
  6
Continuous
 62
     7
370
    15
100
AcDbLine
 10
210.6775982673
 20
133.8458337271
 30
0.0
 11
210.3592796618
 21
134.2326883607
 31
0.0
  0
LINE
  5
109
330
1F
100
AcDbEntity
  8
0
  6
Continuous
 62
     7
370
    15
100
AcDbLine
 10
207.7484099562
 20
122.6720182606
 30
0.0
 11
207.5498333568
 21
122.040411123
 31
0.0
  0
ARC
  5
10A
330
1F
100
AcDbEntity
  8
0
  6
Continuous
 62
     7
370
    15
100
AcDbCircle
 10
210.0937545502
 20
124.6021378096
 30
0.0
 40
1.006599137027873
100
AcDbArc
 50
163.3935254132
 51
286.7114146907
  0
ARC
  5
10B
330
1F
100
AcDbEntity
  8
0
  6
Continuous
 62
     7
370
    15
100
AcDbCircle
 10
208.20623137
 20
122.6828663059
 30
0.0
 40
0.1705763038166271
100
AcDbArc
 50
44.6752737138
 51
45.4547961044
  0
SPLINE
  5
10C
330
1F
100
AcDbEntity
  8
0
  6
Continuous
 62
     7
370
    15
100
AcDbSpline
210
0.0
220
0.0
230
1.0
 70
     8
 71
     3
 72
    14
 73
    10
 74
     0
 42
0.00000001
 43
0.00000001
 12
1.0
 22
0.0
 32
0.0
 13
1.0
 23
0.0
 33
0.0
 40
0.0
 40
0.0
 40
0.0
 40
0.0
 40
0.2234959307900296
 40
0.3567610299706293
 40
0.4531217469205914
 40
0.5344621009053349
 40
0.6157325897998481
 40
0.739616945910191
 40
1.0
 40
1.0
 40
1.0
 40
1.0
 10
208.1892161065935
 20
122.2320204981451
 30
0.0
 10
208.2450296356512
 20
122.251408343957
 30
0.0
 10
208.3341233924929
 20
122.2823566829997
 30
0.0
 10
208.4313309262842
 20
122.3530206283061
 30
0.0
 10
208.4809755633166
 20
122.4188547086475
 30
0.0
 10
208.5004910727624
 20
122.4851136985385
 30
0.0
 10
208.4952030865922
 20
122.5614054047261
 30
0.0
 10
208.4457843016105
 20
122.6767188462297
 30
0.0
 10
208.3752937301572
 20
122.7518719916986
 30
0.0
 10
208.3275286847948
 20
122.8027964391594
 30
0.0
  0
SPLINE
  5
10D
330
1F
100
AcDbEntity
  8
0
  6
Continuous
 62
     7
370
    15
100
AcDbSpline
210
0.0
220
0.0
230
1.0
 70
     8
 71
     3
 72
    14
 73
    10
 74
     0
 42
0.00000001
 43
0.00000001
 12
1.0
 22
0.0
 32
0.0
 13
1.0
 23
0.0
 33
0.0
 40
0.0
 40
0.0
 40
0.0
 40
0.0
 40
0.2210591162531687
 40
0.3460771807413318
 40
0.4396022079485598
 40
0.5338909076930917
 40
0.614655641185523
 40
0.7517250186561256
 40
1.0
 40
1.0
 40
1.0
 40
1.0
 10
208.3258858317732
 20
122.8044355668908
 30
0.0
 10
208.2827891879026
 20
122.844840546635
 30
0.0
 10
208.2153196111533
 20
122.9080962119737
 30
0.0
 10
208.1105732474908
 20
122.9635036040207
 30
0.0
 10
208.0277205067558
 20
122.980253509586
 30
0.0
 10
207.956026407268
 20
122.9667583239143
 30
0.0
 10
207.8855172444172
 20
122.9233433391054
 30
0.0
 10
207.8056914739911
 20
122.8284067964861
 30
0.0
 10
207.7708549272466
 20
122.7332969469714
 30
0.0
 10
207.7484099561571
 20
122.6720182605868
 30
0.0
  0
LINE
  5
10E
330
1F
100
AcDbEntity
  8
0
  6
Continuous
 62
     7
370
    15
100
AcDbLine
 10
210.3832034761
 20
123.6380521589
 30
0.0
 11
218.0819517369
 21
125.9451942899
 31
0.0
  0
LINE
  5
10F
330
1F
100
AcDbEntity
  8
0
  6
Continuous
 62
     7
370
    15
100
AcDbLine
 10
211.5201807017
 20
132.494942882
 30
0.0
 11
209.1291403765
 21
124.8898204797
 31
0.0
  0
ARC
  5
110
330
1F
100
AcDbEntity
  8
0
  6
Continuous
 62
     7
370
    15
100
AcDbCircle
 10
212.4405319263
 20
132.204233448
 30
0.0
 40
0.9651727056680462
100
AcDbArc
 50
106.5125330213
 51
162.4703442528
  0
LINE
  5
111
330
1F
100
AcDbEntity
  8
0
  6
Continuous
 62
     7
370
    15
100
AcDbLine
 10
219.8649539048
 20
135.4367431634
 30
0.0
 11
212.1662056441
 21
133.129600101
 31
0.0
  0
ARC
  5
112
330
1F
100
AcDbEntity
  8
0
  6
Continuous
 62
     7
370
    15
100
AcDbCircle
 10
220.1544021393
 20
134.4726568199
 30
0.0
 40
1.006599601675747
100
AcDbArc
 50
343.3935744479
 51
106.711365656
  0
LINE
  5
113
330
1F
100
AcDbEntity
  8
0
  6
Continuous
 62
     7
370
    15
100
AcDbLine
 10
218.7279766793
 20
126.5798524403
 30
0.0
 11
221.1190170044
 21
134.1849748426
 31
0.0
  0
ARC
  5
114
330
1F
100
AcDbEntity
  8
0
  6
Continuous
 62
     7
370
    15
100
AcDbCircle
 10
217.8076270585
 20
126.8705588837
 30
0.0
 40
0.965170275476763
100
AcDbArc
 50
286.5124764787
 51
342.4704848603
  0
CIRCLE
  5
115
330
1F
100
AcDbEntity
  8
0
  6
Continuous
 62
     7
370
    15
100
AcDbCircle
 10
215.1518460403
 20
129.510045193
 30
0.0
 40
2.542352999342826
  0
LINE
  5
116
330
1F
100
AcDbEntity
  8
0
  6
Continuous
 62
     7
370
    15
100
AcDbLine
 10
216.9272048766
 20
127.6968285822
 30
0.0
 11
216.9780439133
 21
127.904919573
 31
0.0
  0
ARC
  5
117
330
1F
100
AcDbEntity
  8
0
  6
Continuous
 62
     7
370
    15
100
AcDbCircle
 10
214.3927230256
 20
128.4705583698
 30
0.0
 40
2.50818142708977
100
AcDbArc
 50
109.05176936
 51
133.7842868932
  0
SPLINE
  5
118
330
1F
100
AcDbEntity
  8
0
  6
Continuous
 62
     7
370
    15
100
AcDbSpline
210
0.0
220
0.0
230
1.0
 70
     8
 71
     3
 72
    11
 73
     7
 74
     0
 42
0.00000001
 43
0.00000001
 12
1.0
 22
0.0
 32
0.0
 13
1.0
 23
0.0
 33
0.0
 40
0.0
 40
0.0
 40
0.0
 40
0.0
 40
0.3280437164699795
 40
0.6557032331106419
 40
0.9906949748072278
 40
0.9999999999999999
 40
0.9999999999999999
 40
0.9999999999999999
 40
0.9999999999999999
 10
219.4725355500578
 20
125.0670083247905
 30
0.0
 10
219.4168841602898
 20
125.1145052754419
 30
0.0
 10
219.3056465588181
 20
125.209443549036
 30
0.0
 10
219.1336979112617
 20
125.3845339491224
 30
0.0
 10
219.0304109757618
 20
125.5033765906797
 30
0.0
 10
218.9837858638631
 20
125.5613348831505
 30
0.0
 10
218.9825257653593
 20
125.5629012741928
 30
0.0
  0
LINE
  5
119
330
1F
100
AcDbEntity
  8
0
  6
Continuous
 62
     7
370
    15
100
AcDbLine
 10
222.5310771162
 20
136.758068242
 30
0.0
 11
224.1152977938
 21
138.3550610774
 31
0.0
  0
LINE
  5
11A
330
1F
100
AcDbEntity
  8
0
  6
Continuous
 62
     7
370
    15
100
AcDbLine
 10
222.3325005168
 20
136.1264620357
 30
0.0
 11
222.5310771162
 21
136.758068242
 31
0.0
  0
ARC
  5
11B
330
1F
100
AcDbEntity
  8
0
  6
Continuous
 62
     7
370
    15
100
AcDbCircle
 10
219.2145044958
 20
123.700447554
 30
0.0
 40
0.3857657997253798
100
AcDbArc
 50
298.1319230169
 51
328.77540181
  0
SPLINE
  5
11C
330
1F
100
AcDbEntity
  8
0
  6
Continuous
 62
     7
370
    15
100
AcDbSpline
210
0.0
220
0.0
230
1.0
 70
     8
 71
     3
 72
    11
 73
     7
 74
     0
 42
0.00000001
 43
0.00000001
 12
1.0
 22
0.0
 32
0.0
 13
1.0
 23
0.0
 33
0.0
 40
0.0
 40
0.0
 40
0.0
 40
0.0
 40
0.3280431107310632
 40
0.6557004903452396
 40
0.9906957150725633
 40
1.0
 40
1.0
 40
1.0
 40
1.0
 10
210.6775982672571
 20
133.8458337270503
 30
0.0
 10
210.7271721712813
 20
133.7882954240256
 30
0.0
 10
210.826261687609
 20
133.6732864746747
 30
0.0
 10
211.0008205039809
 20
133.5025210741264
 30
0.0
 10
211.1159851432516
 20
133.403279115455
 30
0.0
 10
211.1712299503027
 20
133.3595754327264
 30
0.0
 10
211.1727228755354
 20
133.3583943926578
 30
0.0
  0
LINE
  5
11D
330
1F
100
AcDbEntity
  8
0
  6
Continuous
 62
     7
370
    15
100
AcDbLine
 10
222.5310771162
 20
136.758068242
 30
0.0
 11
221.8916943664
 21
136.5664597981
 31
0.0
  0
LINE
  5
11E
330
1F
100
AcDbEntity
  8
0
  6
Continuous
 62
     7
370
    15
100
AcDbLine
 10
221.7550246412
 20
135.9940447294
 30
0.0
 11
221.7533855135
 21
135.9956838571
 31
0.0
  0
SPLINE
  5
11F
330
1F
100
AcDbEntity
  8
0
  6
Continuous
 62
     7
370
    15
100
AcDbSpline
210
0.0
220
0.0
230
1.0
 70
     8
 71
     3
 72
    14
 73
    10
 74
     0
 42
0.00000001
 43
0.00000001
 12
1.0
 22
0.0
 32
0.0
 13
1.0
 23
0.0
 33
0.0
 40
0.0
 40
0.0
 40
0.0
 40
0.0
 40
0.2210597755642771
 40
0.3460819599903969
 40
0.4396023729819185
 40
0.5338912452433666
 40
0.614656521977758
 40
0.7517241367313993
 40
1.0
 40
1.0
 40
1.0
 40
1.0
 10
221.7550246412157
 20
135.9940447294002
 30
0.0
 10
221.7981210517572
 20
135.953638966444
 30
0.0
 10
221.8655909937251
 20
135.8903813900573
 30
0.0
 10
221.9703390057555
 20
135.8349772706367
 30
0.0
 10
222.0531911400277
 20
135.8182253594757
 30
0.0
 10
222.1248843280137
 20
135.8317220573018
 30
0.0
 10
222.1953923551785
 20
135.8751379573608
 30
0.0
 10
222.2752201719008
 20
135.9700723564169
 30
0.0
 10
222.3100559256406
 20
136.065182683732
 30
0.0
 10
222.3325005168318
 20
136.1264620357042
 30
0.0
  0
SPLINE
  5
120
330
1F
100
AcDbEntity
  8
0
  6
Continuous
 62
     7
370
    15
100
AcDbSpline
210
0.0
220
0.0
230
1.0
 70
     8
 71
     3
 72
    14
 73
    10
 74
     0
 42
0.00000001
 43
0.00000001
 12
1.0
 22
0.0
 32
0.0
 13
1.0
 23
0.0
 33
0.0
 40
0.0
 40
0.0
 40
0.0
 40
0.0
 40
0.2234957087368033
 40
0.3567613804037443
 40
0.4531193449923512
 40
0.5344597656681885
 40
0.6157290167114113
 40
0.7396143057284195
 40
1.0
 40
1.0
 40
1.0
 40
1.0
 10
221.8916943663954
 20
136.5664597981458
 30
0.0
 10
221.835881133092
 20
136.5470718714365
 30
0.0
 10
221.7467876723242
 20
136.516123342111
 30
0.0
 10
221.6495783168969
 20
136.4454602606396
 30
0.0
 10
221.5999406824763
 20
136.3796230741998
 30
0.0
 10
221.5804179626059
 20
136.3133673824987
 30
0.0
 10
221.5857082321598
 20
136.2370751245584
 30
0.0
 10
221.6351254357765
 20
136.1217607716742
 30
0.0
 10
221.7056186423568
 20
136.0466080561161
 30
0.0
 10
221.7533855134844
 20
135.9956838571315
 30
0.0
  0
LINE
  5
121
330
1F
100
AcDbEntity
  8
0
  6
HIDDEN
 62
     7
370
     0
100
AcDbLine
 10
177.4849934871
 20
91.7852126443
 30
0.0
 11
177.4849934871
 21
91.8102279686
 31
0.0
  0
SPLINE
  5
122
330
1F
100
AcDbEntity
  8
0
  6
HIDDEN
 62
     7
370
     0
100
AcDbSpline
210
0.0
220
0.0
230
1.0
 70
     8
 71
     3
 72
    22
 73
    18
 74
     0
 42
0.00000001
 43
0.00000001
 12
1.0
 22
0.0
 32
0.0
 13
1.0
 23
0.0
 33
0.0
 40
0.0
 40
0.0
 40
0.0
 40
0.0
 40
0.125
 40
0.125
 40
0.25
 40
0.25
 40
0.375
 40
0.375
 40
0.5
 40
0.5
 40
0.625
 40
0.625
 40
0.75
 40
0.75
 40
0.875
 40
0.875
 40
1.0
 40
1.0
 40
1.0
 40
1.0
 10
177.4849930221437
 20
91.81022784179459
 30
0.0
 10
177.4849930221437
 20
91.82518343440391
 30
0.0
 10
177.5144414432739
 20
91.84657163105028
 30
0.0
 10
177.6292793094978
 20
91.90094987766558
 30
0.0
 10
177.7160921480355
 20
91.93439604127397
 30
0.0
 10
177.9417395203315
 20
92.00916031667171
 30
0.0
 10
178.0795766619956
 20
92.05025880563264
 30
0.0
 10
178.4047776219
 20
92.13681173459642
 30
0.0
 10
178.593479901808
 20
92.18246263369431
 30
0.0
 10
179.0058116220403
 20
92.27074218885916
 30
0.0
 10
179.2309585483921
 20
92.31384353886642
 30
0.0
 10
179.7209343997494
 20
92.39404771872167
 30
0.0
 10
179.9816420418713
 20
92.43034256611122
 30
0.0
 10
180.5224994225869
 20
92.49052178526094
 30
0.0
 10
180.806190048641
 20
92.51480912269203
 30
0.0
 10
181.3902724195704
 20
92.5478072170034
 30
0.0
 10
181.6858399745623
 20
92.55632767420336
 30
0.0
 10
181.9849930221437
 20
92.55632767420336
 30
0.0
  0
LINE
  5
123
330
1F
100
AcDbEntity
  8
0
  6
HIDDEN
 62
     7
370
     0
100
AcDbLine
 10
181.9849932933
 20
92.556327247
 30
0.0
 11
183.4998332331
 21
92.556327247
 31
0.0
  0
LINE
  5
124
330
1F
100
AcDbEntity
  8
0
  6
HIDDEN
 62
     7
370
     0
100
AcDbLine
 10
183.4998332331
 20
131.2723882877
 30
0.0
 11
183.4998332331
 21
92.556327247
 31
0.0
  0
LINE
  5
125
330
1F
100
AcDbEntity
  8
0
  6
HIDDEN
 62
     7
370
     0
100
AcDbLine
 10
181.9849932933
 20
131.2723882877
 30
0.0
 11
183.4998332331
 21
131.2723882877
 31
0.0
  0
SPLINE
  5
126
330
1F
100
AcDbEntity
  8
0
  6
HIDDEN
 62
     7
370
     0
100
AcDbSpline
210
0.0
220
0.0
230
1.0
 70
     8
 71
     3
 72
    17
 73
    13
 74
     0
 42
0.00000001
 43
0.00000001
 12
1.0
 22
0.0
 32
0.0
 13
1.0
 23
0.0
 33
0.0
 40
0.0
 40
0.0
 40
0.0
 40
0.0
 40
0.0659340435969183
 40
0.1690661462905225
 40
0.2751488405985667
 40
0.379123145219446
 40
0.485986792297652
 40
0.5922065347858924
 40
0.7014821075588975
 40
0.8079660909051144
 40
0.9176704333646215
 40
1.0
 40
1.0
 40
1.0
 40
1.0
 10
177.500520497024
 20
131.7817248784786
 30
0.0
 10
177.4990839517902
 20
131.7820442477032
 30
0.0
 10
177.4954004045149
 20
131.7828631649287
 30
0.0
 10
177.6292776252966
 20
131.752936108903
 30
0.0
 10
177.8789957033738
 20
131.6995086294015
 30
0.0
 10
178.2483891992921
 20
131.6259813425138
 30
0.0
 10
178.7179745110092
 20
131.5421287508372
 30
0.0
 10
179.2870220060721
 20
131.4551892946588
 30
0.0
 10
179.9326600340019
 20
131.3761643045604
 30
0.0
 10
180.6454728860334
 20
131.3141112094751
 30
0.0
 10
181.3368163161524
 20
131.2781285940951
 30
0.0
 10
181.7904917129386
 20
131.2741108090336
 30
0.0
 10
181.9849932933449
 20
131.2723882877117
 30
0.0
  0
SPLINE
  5
127
330
1F
100
AcDbEntity
  8
0
  6
HIDDEN
 62
     7
370
     0
100
AcDbSpline
210
0.0
220
0.0
230
1.0
 70
     8
 71
     3
 72
    76
 73
    72
 74
     0
 42
0.00000001
 43
0.00000001
 12
1.0
 22
0.0
 32
0.0
 13
1.0
 23
0.0
 33
0.0
 40
-0.03125
 40
-0.03125
 40
0.0
 40
0.0
 40
0.0312500000000001
 40
0.0312500000000001
 40
0.0625000000000001
 40
0.0625000000000001
 40
0.09375
 40
0.09375
 40
0.125
 40
0.125
 40
0.15625
 40
0.15625
 40
0.1875
 40
0.1875
 40
0.203125
 40
0.203125
 40
0.21875
 40
0.21875
 40
0.2500000000000001
 40
0.2500000000000001
 40
0.2812500000000001
 40
0.2812500000000001
 40
0.3125000000000002
 40
0.3125000000000002
 40
0.3437500000000003
 40
0.3437500000000003
 40
0.3750000000000003
 40
0.3750000000000003
 40
0.4062500000000004
 40
0.4062500000000004
 40
0.4375000000000004
 40
0.4375000000000004
 40
0.4687500000000006
 40
0.4687500000000006
 40
0.4843750000000005
 40
0.4843750000000005
 40
0.5000000000000004
 40
0.5000000000000004
 40
0.5312500000000006
 40
0.5312500000000006
 40
0.5625000000000004
 40
0.5625000000000004
 40
0.5937500000000004
 40
0.5937500000000004
 40
0.6250000000000003
 40
0.6250000000000003
 40
0.6562500000000003
 40
0.6562500000000003
 40
0.6875000000000003
 40
0.6875000000000003
 40
0.7187500000000002
 40
0.7187500000000002
 40
0.7343750000000003
 40
0.7343750000000003
 40
0.7500000000000003
 40
0.7500000000000003
 40
0.7812500000000003
 40
0.7812500000000003
 40
0.8125000000000002
 40
0.8125000000000002
 40
0.8437500000000002
 40
0.8437500000000002
 40
0.8750000000000001
 40
0.8750000000000001
 40
0.9062500000000001
 40
0.9062500000000001
 40
0.9375000000000001
 40
0.9375000000000001
 40
0.96875
 40
0.96875
 40
1.0
 40
1.0
 40
1.03125
 40
1.03125
 10
176.2032514432284
 20
106.7852121972328
 30
0.0
 10
176.866734601059
 20
106.7852121972328
 30
0.0
 10
177.1926578225939
 20
106.8178981658388
 30
0.0
 10
177.8334316015578
 20
106.9457092339396
 30
0.0
 10
178.1516789420775
 20
107.0424733529191
 30
0.0
 10
178.756480449286
 20
107.2938606500788
 30
0.0
 10
179.0431202877544
 20
107.4474977703406
 30
0.0
 10
179.585597901863
 20
107.8102557575216
 30
0.0
 10
179.8413664577748
 20
108.0204644129355
 30
0.0
 10
180.3005105056899
 20
108.4797153728013
 30
0.0
 10
180.5070296279453
 20
108.7305593879837
 30
0.0
 10
180.8726436213034
 20
109.2766736062419
 30
0.0
 10
181.027118505121
 20
109.5655849053798
 30
0.0
 10
181.2145043287211
 20
110.0164108802381
 30
0.0
 10
181.2697292489688
 20
110.1699231697039
 30
0.0
 10
181.3653854375749
 20
110.4835997768055
 30
0.0
 10
181.4059690313577
 20
110.6447223560972
 30
0.0
 10
181.5027090303728
 20
111.1292433703293
 30
0.0
 10
181.5347880790651
 20
111.4545434293181
 30
0.0
 10
181.5351960263509
 20
112.1096538129475
 30
0.0
 10
181.5024130227841
 20
112.4424717179106
 30
0.0
 10
181.3742426988628
 20
113.0847944788366
 30
0.0
 10
181.2794256027373
 20
113.3971481396994
 30
0.0
 10
181.0276565840683
 20
114.0042101949266
 30
0.0
 10
180.8717401796359
 20
114.2948392860177
 30
0.0
 10
180.5104091227335
 20
114.8350762696056
 30
0.0
 10
180.3022045678936
 20
115.0890580156711
 30
0.0
 10
179.839008747864
 20
115.5522747274592
 30
0.0
 10
179.5880341798893
 20
115.7582052507869
 30
0.0
 10
179.0477386343304
 20
116.1201682065729
 30
0.0
 10
178.7549532812432
 20
116.2772608943136
 30
0.0
 10
178.151575711137
 20
116.5279314023485
 30
0.0
 10
177.8399079715809
 20
116.6230814739443
 30
0.0
 10
177.3570662863165
 20
116.719899734381
 30
0.0
 10
177.1925629008584
 20
116.7445248745418
 30
0.0
 10
176.8644435141879
 20
116.7770698424389
 30
0.0
 10
176.7006537561529
 20
116.7851419276221
 30
0.0
 10
176.2100754802872
 20
116.7853513694449
 30
0.0
 10
175.8840706860651
 20
116.7537183977994
 30
0.0
 10
175.2342302436333
 20
116.6244032398263
 30
0.0
 10
174.9214208798888
 20
116.528909896885
 30
0.0
 10
174.3191028080624
 20
116.2792208179505
 30
0.0
 10
174.0266282481604
 20
116.1228023490407
 30
0.0
 10
173.4838939323592
 20
115.7598035609753
 30
0.0
 10
173.2330050251635
 20
115.5539207249267
 30
0.0
 10
172.7715749855667
 20
115.0932287299727
 30
0.0
 10
172.5613940223827
 20
114.8374431356693
 30
0.0
 10
172.1997433435191
 20
114.2974249542333
 30
0.0
 10
172.0455287153828
 20
114.0107972371245
 30
0.0
 10
171.7923407108067
 20
113.4025456771434
 30
0.0
 10
171.6966169964585
 20
113.0877653783772
 30
0.0
 10
171.6004118417061
 20
112.607732964496
 30
0.0
 10
171.5761247706565
 20
112.4459914075054
 30
0.0
 10
171.5434389633238
 20
112.1189659660728
 30
0.0
 10
171.5350789041544
 20
111.9527102133565
 30
0.0
 10
171.5348232606155
 20
111.4579669580098
 30
0.0
 10
171.5669740666541
 20
111.1325218333118
 30
0.0
 10
171.6945263564985
 20
110.4901834284264
 30
0.0
 10
171.7914851466259
 20
110.1709731761887
 30
0.0
 10
172.0417350773972
 20
109.5677209065773
 30
0.0
 10
172.1951518353158
 20
109.280552786436
 30
0.0
 10
172.559465874657
 20
108.7351754449007
 30
0.0
 10
172.7680612501398
 20
108.4813485347185
 30
0.0
 10
173.2266801563921
 20
108.0221873424495
 30
0.0
 10
173.4801431719729
 20
107.8133861926391
 30
0.0
 10
174.0249970195793
 20
107.4484588626557
 30
0.0
 10
174.31168328768
 20
107.2948761358199
 30
0.0
 10
174.913416957035
 20
107.0442507773462
 30
0.0
 10
175.2319404485104
 20
106.946822265651
 30
0.0
 10
175.8763265100678
 20
106.8179069352668
 30
0.0
 10
176.2032514432284
 20
106.7852121972328
 30
0.0
 10
176.866734601059
 20
106.7852121972328
 30
0.0
  0
LINE
  5
128
330
1F
100
AcDbEntity
  8
0
  6
HIDDEN
 62
     7
370
     0
100
AcDbLine
 10
169.5349930221
 20
131.4852122598
 30
0.0
 11
169.5349930221
 21
92.0852121346
 31
0.0
  0
SPLINE
  5
129
330
1F
100
AcDbEntity
  8
0
  6
HIDDEN
 62
     7
370
     0
100
AcDbSpline
210
0.0
220
0.0
230
1.0
 70
     8
 71
     3
 72
    10
 73
     6
 74
     0
 42
0.00000001
 43
0.00000001
 12
1.0
 22
0.0
 32
0.0
 13
1.0
 23
0.0
 33
0.0
 40
0.0
 40
0.0
 40
0.0
 40
0.0
 40
0.5
 40
0.5
 40
1.0
 40
1.0
 40
1.0
 40
1.0
 10
186.5749930221437
 20
94.67233327520447
 30
0.0
 10
186.5749930221437
 20
94.7085557646451
 30
0.0
 10
186.5720232928463
 20
94.74474896190355
 30
0.0
 10
186.5601443104984
 20
94.81638745331823
 30
0.0
 10
186.5513490826578
 20
94.85126077795984
 30
0.0
 10
186.5397706215626
 20
94.88521219723218
 30
0.0
  0
LINE
  5
12A
330
1F
100
AcDbEntity
  8
0
  6
HIDDEN
 62
     7
370
     0
100
AcDbLine
 10
186.574992388
 20
94.6723331147
 30
0.0
 11
186.574992388
 21
123.6352125564
 31
0.0
  0
SPLINE
  5
12B
330
1F
100
AcDbEntity
  8
0
  6
HIDDEN
 62
     7
370
     0
100
AcDbSpline
210
0.0
220
0.0
230
1.0
 70
     8
 71
     3
 72
    10
 73
     6
 74
     0
 42
0.00000001
 43
0.00000001
 12
1.0
 22
0.0
 32
0.0
 13
1.0
 23
0.0
 33
0.0
 40
0.0
 40
0.0
 40
0.0
 40
0.0
 40
0.5
 40
0.5
 40
1.0
 40
1.0
 40
1.0
 40
1.0
 10
184.5302154227251
 20
94.88521219723278
 30
0.0
 10
184.518503305762
 20
94.8508688600388
 30
0.0
 10
184.5097052358899
 20
94.81577632230056
 30
0.0
 10
184.4978916781178
 20
94.74410454690982
 30
0.0
 10
184.4949930221437
 20
94.70816089254457
 30
0.0
 10
184.4949930221437
 20
94.67233327520447
 30
0.0
  0
LINE
  5
12C
330
1F
100
AcDbEntity
  8
0
  6
HIDDEN
 62
     7
370
     0
100
AcDbLine
 10
184.4949933136
 20
94.6723331147
 30
0.0
 11
184.4949933136
 21
123.6352125564
 31
0.0
  0
SPLINE
  5
12D
330
1F
100
AcDbEntity
  8
0
  6
HIDDEN
 62
     7
370
     0
100
AcDbSpline
210
0.0
220
0.0
230
1.0
 70
     8
 71
     3
 72
    16
 73
    12
 74
     0
 42
0.00000001
 43
0.00000001
 12
1.0
 22
0.0
 32
0.0
 13
1.0
 23
0.0
 33
0.0
 40
0.0
 40
0.0
 40
0.0
 40
0.0
 40
0.2500000000000001
 40
0.2500000000000001
 40
0.5000000000000002
 40
0.5000000000000002
 40
0.6250000000000002
 40
0.6250000000000002
 40
0.7500000000000003
 40
0.7500000000000003
 40
1.0
 40
1.0
 40
1.0
 40
1.0
 10
190.4849930221432
 20
106.4201347066178
 30
0.0
 10
190.337537201999
 20
106.6206641984779
 30
0.0
 10
190.2272092842761
 20
106.8280261423145
 30
0.0
 10
190.0741035711837
 20
107.2807952766279
 30
0.0
 10
190.0352169332322
 20
107.5164653188244
 30
0.0
 10
190.034882481084
 20
107.8900405025215
 30
0.0
 10
190.0447979974133
 20
108.0166170377958
 30
0.0
 10
190.0833792110615
 20
108.2655623767312
 30
0.0
 10
190.1120176788666
 20
108.3891057614672
 30
0.0
 10
190.2263154764751
 20
108.7556238811112
 30
0.0
 10
190.3375264982711
 20
108.9875017338311
 30
0.0
 10
190.4849930221433
 20
109.1969440974019
 30
0.0
  0
SPLINE
  5
12E
330
1F
100
AcDbEntity
  8
0
  6
HIDDEN
 62
     7
370
     0
100
AcDbSpline
210
0.0
220
0.0
230
1.0
 70
     8
 71
     3
 72
     9
 73
     5
 74
     0
 42
0.00000001
 43
0.00000001
 12
1.0
 22
0.0
 32
0.0
 13
1.0
 23
0.0
 33
0.0
 40
0.0
 40
0.0
 40
0.0
 40
0.0
 40
0.5
 40
1.0
 40
1.0
 40
1.0
 40
1.0
 10
189.485055145267
 20
128.6852121972328
 30
0.0
 10
189.4850344325637
 20
128.6871350655667
 30
0.0
 10
189.4850033712453
 20
128.6909803545556
 30
0.0
 10
189.4849930221437
 20
128.694824748876
 30
0.0
 10
189.4849930221437
 20
128.6967467225205
 30
0.0
  0
SPLINE
  5
12F
330
1F
100
AcDbEntity
  8
0
  6
HIDDEN
 62
     7
370
     0
100
AcDbSpline
210
0.0
220
0.0
230
1.0
 70
    24
 71
     3
 72
    10
 73
     6
 74
     0
 42
0.00000001
 43
0.00000001
 12
1.0
 22
0.0
 32
0.0
 13
1.0
 23
0.0
 33
0.0
 40
0.0
 40
0.0
 40
0.0
 40
0.0
 40
0.5000000000000001
 40
0.5000000000000001
 40
1.0
 40
1.0
 40
1.0
 40
1.0
 10
189.485055145267
 20
128.6852121972327
 30
0.0
 10
189.4872084655473
 20
128.6852121972327
 30
0.0
 10
189.5424253135071
 20
128.6852121972327
 30
0.0
 10
189.6423703290721
 20
128.6852121972327
 30
0.0
 10
189.6849921482305
 20
128.6852121972327
 30
0.0
 10
189.6849930221284
 20
128.6852121972327
 30
0.0
  0
SPLINE
  5
130
330
1F
100
AcDbEntity
  8
0
  6
HIDDEN
 62
     7
370
     0
100
AcDbSpline
210
0.0
220
0.0
230
1.0
 70
     8
 71
     3
 72
     9
 73
     5
 74
     0
 42
0.00000001
 43
0.00000001
 12
1.0
 22
0.0
 32
0.0
 13
1.0
 23
0.0
 33
0.0
 40
0.0
 40
0.0
 40
0.0
 40
0.0
 40
0.5
 40
1.0
 40
1.0
 40
1.0
 40
1.0
 10
189.4849930221437
 20
128.6967467225205
 30
0.0
 10
189.4849930221437
 20
128.6948235980375
 30
0.0
 10
189.4850033836413
 20
128.6909780531926
 30
0.0
 10
189.4850344449572
 20
128.687133915015
 30
0.0
 10
189.485055145267
 20
128.6852121972327
 30
0.0
  0
LINE
  5
131
330
1F
100
AcDbEntity
  8
0
  6
HIDDEN
 62
     7
370
     0
100
AcDbLine
 10
189.4849935914
 20
128.6967467897
 30
0.0
 11
189.4849935914
 21
94.8852129661
 31
0.0
  0
SPLINE
  5
132
330
1F
100
AcDbEntity
  8
0
  6
HIDDEN
 62
     7
370
     0
100
AcDbSpline
210
0.0
220
0.0
230
1.0
 70
    24
 71
     3
 72
    10
 73
     6
 74
     0
 42
0.00000001
 43
0.00000001
 12
1.0
 22
0.0
 32
0.0
 13
1.0
 23
0.0
 33
0.0
 40
0.0
 40
0.0
 40
0.0
 40
0.0
 40
0.5
 40
0.5
 40
1.0
 40
1.0
 40
1.0
 40
1.0
 10
189.4849930221437
 20
94.88521219723278
 30
0.0
 10
189.4849930221437
 20
94.88521219723278
 30
0.0
 10
189.5404402692007
 20
94.88521219723278
 30
0.0
 10
189.6414827945825
 20
94.88521219723278
 30
0.0
 10
189.6849921539794
 20
94.88521219723278
 30
0.0
 10
189.6849930221289
 20
94.88521219723278
 30
0.0
  0
LINE
  5
133
330
1F
100
AcDbEntity
  8
0
  6
HIDDEN
 62
     7
370
     0
100
AcDbLine
 10
189.4849935914
 20
124.6626150244
 30
0.0
 11
189.4849935914
 21
128.6967467897
 31
0.0
  0
LINE
  5
134
330
1F
100
AcDbEntity
  8
0
  6
HIDDEN
 62
     7
370
     0
100
AcDbLine
 10
189.4849935914
 20
94.8852129661
 30
0.0
 11
189.4849935914
 21
123.6352125564
 31
0.0
  0
LINE
  5
135
330
1F
100
AcDbEntity
  8
0
  6
HIDDEN
 62
     7
370
     0
100
AcDbLine
 10
177.4849934871
 20
123.6352125564
 30
0.0
 11
181.9786630938
 21
123.6352125564
 31
0.0
  0
SPLINE
  5
136
330
1F
100
AcDbEntity
  8
0
  6
HIDDEN
 62
     7
370
     0
100
AcDbSpline
210
0.0
220
0.0
230
1.0
 70
     8
 71
     3
 72
    56
 73
    52
 74
     0
 42
0.00000001
 43
0.00000001
 12
1.0
 22
0.0
 32
0.0
 13
1.0
 23
0.0
 33
0.0
 40
0.0
 40
0.0
 40
0.0
 40
0.0
 40
0.0624999999999996
 40
0.0624999999999996
 40
0.1249999999999992
 40
0.1249999999999992
 40
0.1562499999999994
 40
0.1562499999999994
 40
0.1874999999999996
 40
0.1874999999999996
 40
0.2187499999999998
 40
0.2187499999999998
 40
0.2499999999999999
 40
0.2499999999999999
 40
0.2812500000000001
 40
0.2812500000000001
 40
0.3125000000000003
 40
0.3125000000000003
 40
0.3437500000000005
 40
0.3437500000000005
 40
0.3750000000000007
 40
0.3750000000000007
 40
0.4062500000000008
 40
0.4062500000000008
 40
0.4375000000000008
 40
0.4375000000000008
 40
0.5000000000000008
 40
0.5000000000000008
 40
0.5625000000000006
 40
0.5625000000000006
 40
0.6250000000000004
 40
0.6250000000000004
 40
0.6875000000000002
 40
0.6875000000000002
 40
0.7187500000000001
 40
0.7187500000000001
 40
0.75
 40
0.75
 40
0.78125
 40
0.78125
 40
0.8124999999999999
 40
0.8124999999999999
 40
0.8437499999999998
 40
0.8437499999999998
 40
0.8749999999999997
 40
0.8749999999999997
 40
0.9062499999999996
 40
0.9062499999999996
 40
0.9374999999999996
 40
0.9374999999999996
 40
1.0
 40
1.0
 40
1.0
 40
1.0
 10
190.484993022144
 20
106.4201347066182
 30
0.0
 10
190.6372672147489
 20
106.2130525688185
 30
0.0
 10
190.819367218407
 20
106.0350957184995
 30
0.0
 10
191.2428838740216
 20
105.735056615342
 30
0.0
 10
191.4763928454571
 20
105.6192514473536
 30
0.0
 10
191.8521405213673
 20
105.499215347481
 30
0.0
 10
191.9817229567311
 20
105.4684062296353
 30
0.0
 10
192.2411131521047
 20
105.4267668325224
 30
0.0
 10
192.3720379616628
 20
105.4155419177713
 30
0.0
 10
192.6363823768097
 20
105.4125041544494
 30
0.0
 10
192.7702611680703
 20
105.4209429647789
 30
0.0
 10
193.03103777229
 20
105.4569401172417
 30
0.0
 10
193.1591237801811
 20
105.4844031206756
 30
0.0
 10
193.4106961600497
 20
105.5583641027765
 30
0.0
 10
193.5349786478042
 20
105.6053711722223
 30
0.0
 10
193.770736603328
 20
105.7158269130667
 30
0.0
 10
193.8831049603709
 20
105.7793996520433
 30
0.0
 10
194.0969361289029
 20
105.9233003614217
 30
0.0
 10
194.1991830403391
 20
106.0044602127109
 30
0.0
 10
194.3866999243305
 20
106.1795410413451
 30
0.0
 10
194.4723721107904
 20
106.2734882959533
 30
0.0
 10
194.6277886533903
 20
106.4742448087888
 30
0.0
 10
194.6980253092357
 20
106.5820287561958
 30
0.0
 10
194.8189947100052
 20
106.8064529369531
 30
0.0
 10
194.8695947391017
 20
106.922406439083
 30
0.0
 10
194.9923924413181
 20
107.2814700444233
 30
0.0
 10
195.0350248951821
 20
107.5386754125073
 30
0.0
 10
195.0349611123258
 20
108.0489148792989
 30
0.0
 10
194.9922542690486
 20
108.3093648006931
 30
0.0
 10
194.8283696079687
 20
108.7995439199632
 30
0.0
 10
194.704956439464
 20
109.0362047728039
 30
0.0
 10
194.3941748166657
 20
109.4557881752501
 30
0.0
 10
194.2027964595048
 20
109.6442631570752
 30
0.0
 10
193.8824650020072
 20
109.8734237210804
 30
0.0
 10
193.7700793492235
 20
109.9413177547728
 30
0.0
 10
193.5338587060251
 20
110.0596888153379
 30
0.0
 10
193.4096757985161
 20
110.1100442081151
 30
0.0
 10
193.1584990901075
 20
110.1893755666569
 30
0.0
 10
193.030453806662
 20
110.2189597026839
 30
0.0
 10
192.7694043696756
 20
110.2577474140209
 30
0.0
 10
192.6354348385501
 20
110.266802548532
 30
0.0
 10
192.3714456272524
 20
110.2634458682851
 30
0.0
 10
192.2405303288383
 20
110.2513113651722
 30
0.0
 10
191.9808439626011
 20
110.2062825476164
 30
0.0
 10
191.8509648903473
 20
110.1729250003401
 30
0.0
 10
191.6009610209893
 20
110.0869630772993
 30
0.0
 10
191.4804381779135
 20
110.0345055961246
 30
0.0
 10
191.248183294953
 20
109.9110509847674
 30
0.0
 10
191.1355156631695
 20
109.8392991392542
 30
0.0
 10
190.8191111588325
 20
109.6008219343685
 30
0.0
 10
190.6372691274535
 20
109.4132173679318
 30
0.0
 10
190.4849930221434
 20
109.1969440974021
 30
0.0
  0
SPLINE
  5
137
330
1F
100
AcDbEntity
  8
0
  6
HIDDEN
 62
     7
370
     0
100
AcDbSpline
210
0.0
220
0.0
230
1.0
 70
     8
 71
     3
 72
    20
 73
    16
 74
     0
 42
0.00000001
 43
0.00000001
 12
1.0
 22
0.0
 32
0.0
 13
1.0
 23
0.0
 33
0.0
 40
0.0
 40
0.0
 40
0.0
 40
0.0
 40
0.125
 40
0.125
 40
0.2500000000000001
 40
0.2500000000000001
 40
0.3750000000000001
 40
0.3750000000000001
 40
0.5000000000000001
 40
0.5000000000000001
 40
0.6250000000000001
 40
0.6250000000000001
 40
0.7500000000000002
 40
0.7500000000000002
 40
1.0
 40
1.0
 40
1.0
 40
1.0
 10
203.7676660341647
 20
108.649658943032
 30
0.0
 10
203.5883629627028
 20
108.8382861318403
 30
0.0
 10
203.4298372729895
 20
109.0410117844896
 30
0.0
 10
203.1532698082255
 20
109.4744353034571
 30
0.0
 10
203.0342890268566
 20
109.7078055899366
 30
0.0
 10
202.8451536825096
 20
110.1911448100615
 30
0.0
 10
202.7749286684709
 20
110.4395447453803
 30
0.0
 10
202.6822640503318
 20
110.9497134720461
 30
0.0
 10
202.6602780335833
 20
111.2135687520993
 30
0.0
 10
202.6660398650585
 20
111.7331446171569
 30
0.0
 10
202.6930069487699
 20
111.9911933115269
 30
0.0
 10
202.7942457221777
 20
112.5038740516676
 30
0.0
 10
202.8684019370524
 20
112.7557824354269
 30
0.0
 10
203.1514414120869
 20
113.4789853561218
 30
0.0
 10
203.4254464121001
 20
113.9302420197386
 30
0.0
 10
203.7676660341647
 20
114.3238396076205
 30
0.0
  0
LINE
  5
138
330
1F
100
AcDbEntity
  8
0
  6
HIDDEN
 62
     7
370
     0
100
AcDbLine
 10
169.5349930221
 20
95.5780107909
 30
0.0
 11
169.5349930221
 21
127.979598605
 31
0.0
  0
LINE
  5
139
330
1F
100
AcDbEntity
  8
0
  6
HIDDEN
 62
     7
370
     0
100
AcDbLine
 10
167.5349929271
 20
126.888912768
 30
0.0
 11
167.5349929271
 21
96.6815116265
 31
0.0
  0
SPLINE
  5
13A
330
1F
100
AcDbEntity
  8
0
  6
HIDDEN
 62
     7
370
     0
100
AcDbSpline
210
0.0
220
0.0
230
1.0
 70
     8
 71
     3
 72
     8
 73
     4
 74
     0
 42
0.00000001
 43
0.00000001
 12
1.0
 22
0.0
 32
0.0
 13
1.0
 23
0.0
 33
0.0
 40
0.0
 40
0.0
 40
0.0
 40
0.0
 40
1.0
 40
1.0
 40
1.0
 40
1.0
 10
150.5764768725746
 20
99.0820344976892
 30
0.0
 10
150.5906113172028
 20
99.03123817405597
 30
0.0
 10
150.6136686923514
 20
98.98199942349572
 30
0.0
 10
150.6439930221437
 20
98.93414531967649
 30
0.0
  0
SPLINE
  5
13B
330
1F
100
AcDbEntity
  8
0
  6
HIDDEN
 62
     7
370
     0
100
AcDbSpline
210
0.0
220
0.0
230
1.0
 70
     8
 71
     3
 72
    10
 73
     6
 74
     0
 42
0.00000001
 43
0.00000001
 12
1.0
 22
0.0
 32
0.0
 13
1.0
 23
0.0
 33
0.0
 40
0.0
 40
0.0
 40
0.0
 40
0.0
 40
0.5
 40
0.5
 40
1.0
 40
1.0
 40
1.0
 40
1.0
 10
150.6439930221437
 20
98.93414531967647
 30
0.0
 10
150.8593520527011
 20
98.94115815064703
 30
0.0
 10
151.073793391025
 20
98.94993287430232
 30
0.0
 10
151.4987846096456
 20
98.97498605185014
 30
0.0
 10
151.7101573413683
 20
98.98967188465048
 30
0.0
 10
151.9141696304452
 20
99.01859007015524
 30
0.0
  0
SPLINE
  5
13C
330
1F
100
AcDbEntity
  8
0
  6
HIDDEN
 62
     7
370
     0
100
AcDbSpline
210
0.0
220
0.0
230
1.0
 70
     8
 71
     3
 72
    10
 73
     6
 74
     0
 42
0.00000001
 43
0.00000001
 12
1.0
 22
0.0
 32
0.0
 13
1.0
 23
0.0
 33
0.0
 40
0.0
 40
0.0
 40
0.0
 40
0.0
 40
0.5
 40
0.5
 40
1.0
 40
1.0
 40
1.0
 40
1.0
 10
151.9141696304452
 20
99.01859007015521
 30
0.0
 10
152.3867396874434
 20
99.08557558673418
 30
0.0
 10
152.8723021694371
 20
99.14375340253414
 30
0.0
 10
153.8486800631024
 20
99.2506191458395
 30
0.0
 10
154.3406782822094
 20
99.29920457714478
 30
0.0
 10
154.8349930221436
 20
99.34484214972173
 30
0.0
  0
SPLINE
  5
13D
330
1F
100
AcDbEntity
  8
0
  6
HIDDEN
 62
     7
370
     0
100
AcDbSpline
210
0.0
220
0.0
230
1.0
 70
     8
 71
     3
 72
    14
 73
    10
 74
     0
 42
0.00000001
 43
0.00000001
 12
1.0
 22
0.0
 32
0.0
 13
1.0
 23
0.0
 33
0.0
 40
0.0
 40
0.0
 40
0.0
 40
0.0
 40
0.1249999999999995
 40
0.1249999999999995
 40
0.2499999999999991
 40
0.2499999999999991
 40
0.5000000000000007
 40
0.5000000000000007
 40
1.0
 40
1.0
 40
1.0
 40
1.0
 10
154.8349930221437
 20
99.34484214972176
 30
0.0
 10
154.884005344955
 20
99.34936720887691
 30
0.0
 10
154.9368115699505
 20
99.34124782332242
 30
0.0
 10
155.02187866168
 20
99.31091774817097
 30
0.0
 10
155.0564628470207
 20
99.29026279109449
 30
0.0
 10
155.145018532358
 20
99.22572666776766
 30
0.0
 10
155.1859542336792
 20
99.17848848771503
 30
0.0
 10
155.2898347605822
 20
99.03869238643134
 30
0.0
 10
155.3330585600143
 20
98.94480744756204
 30
0.0
 10
155.3672579292868
 20
98.85483633434802
 30
0.0
  0
SPLINE
  5
13E
330
1F
100
AcDbEntity
  8
0
  6
HIDDEN
 62
     7
370
     0
100
AcDbSpline
210
0.0
220
0.0
230
1.0
 70
     8
 71
     3
 72
    12
 73
     8
 74
     0
 42
0.00000001
 43
0.00000001
 12
1.0
 22
0.0
 32
0.0
 13
1.0
 23
0.0
 33
0.0
 40
0.0
 40
0.0
 40
0.0
 40
0.0
 40
0.2499999999999997
 40
0.2499999999999997
 40
0.4999999999999993
 40
0.4999999999999993
 40
1.0
 40
1.0
 40
1.0
 40
1.0
 10
155.3672579292868
 20
98.85483633434802
 30
0.0
 10
155.3926821461808
 20
98.78795074127423
 30
0.0
 10
155.43329398575
 20
98.72350225159063
 30
0.0
 10
155.5178951320222
 20
98.59850159151276
 30
0.0
 10
155.5619919283077
 20
98.53798284632065
 30
0.0
 10
155.6780610367938
 20
98.36177679021223
 30
0.0
 10
155.7349930221437
 20
98.25138237524044
 30
0.0
 10
155.7349930221437
 20
98.14846549914728
 30
0.0
  0
LINE
  5
13F
330
1F
100
AcDbEntity
  8
0
  6
HIDDEN
 62
     7
370
     0
100
AcDbLine
 10
155.7349931816
 20
98.1484657534
 30
0.0
 11
155.7349931816
 21
97.2726937764
 31
0.0
  0
LINE
  5
140
330
1F
100
AcDbEntity
  8
0
  6
HIDDEN
 62
     7
370
     0
100
AcDbLine
 10
153.2349927718
 20
126.172479839
 30
0.0
 11
153.2349927718
 21
125.3427366176
 31
0.0
  0
SPLINE
  5
141
330
1F
100
AcDbEntity
  8
0
  6
HIDDEN
 62
     7
370
     0
100
AcDbSpline
210
0.0
220
0.0
230
1.0
 70
     8
 71
     3
 72
    20
 73
    16
 74
     0
 42
0.00000001
 43
0.00000001
 12
1.0
 22
0.0
 32
0.0
 13
1.0
 23
0.0
 33
0.0
 40
0.0
 40
0.0
 40
0.0
 40
0.0
 40
0.2499999999999996
 40
0.2499999999999996
 40
0.4999999999999992
 40
0.4999999999999992
 40
0.7499999999999989
 40
0.7499999999999989
 40
0.8749999999999996
 40
0.8749999999999996
 40
0.9374999999999999
 40
0.9374999999999999
 40
0.9687499999999999
 40
0.9687499999999999
 40
1.0
 40
1.0
 40
1.0
 40
1.0
 10
153.2349930221447
 20
125.3427363189806
 30
0.0
 10
153.2349930221447
 20
125.2821269192833
 30
0.0
 10
153.2095980025677
 20
125.2163009538797
 30
0.0
 10
153.1233048167858
 20
125.0822531845331
 30
0.0
 10
153.0626688381026
 20
125.0135578263913
 30
0.0
 10
152.9145670438813
 20
124.8731592747368
 30
0.0
 10
152.8277974371026
 20
124.8014557701555
 30
0.0
 10
152.6791596417735
 20
124.6952923684066
 30
0.0
 10
152.6268704248873
 20
124.6597640197751
 30
0.0
 10
152.5361065965774
 20
124.6100600892596
 30
0.0
 10
152.5037406041254
 20
124.5937990912445
 30
0.0
 10
152.4460514484591
 20
124.5746865228985
 30
0.0
 10
152.4250644205717
 20
124.569295380817
 30
0.0
 10
152.3797754415812
 20
124.5635580124245
 30
0.0
 10
152.3567611727427
 20
124.5635807460779
 30
0.0
 10
152.3349930221431
 20
124.5660060558908
 30
0.0
  0
SPLINE
  5
142
330
1F
100
AcDbEntity
  8
0
  6
HIDDEN
 62
     7
370
     0
100
AcDbSpline
210
0.0
220
0.0
230
1.0
 70
     8
 71
     3
 72
    12
 73
     8
 74
     0
 42
0.00000001
 43
0.00000001
 12
1.0
 22
0.0
 32
0.0
 13
1.0
 23
0.0
 33
0.0
 40
0.0
 40
0.0
 40
0.0
 40
0.0
 40
0.2500000000000014
 40
0.2500000000000014
 40
0.5000000000000028
 40
0.5000000000000028
 40
1.0
 40
1.0
 40
1.0
 40
1.0
 10
152.3349930221437
 20
124.5660060558919
 30
0.0
 10
152.1929506189545
 20
124.5818317840681
 30
0.0
 10
152.0488325124504
 20
124.5928529178435
 30
0.0
 10
151.7590779987779
 20
124.6113892797106
 30
0.0
 10
151.6133360954191
 20
124.6186599854464
 30
0.0
 10
151.1746558562393
 20
124.6371208357744
 30
0.0
 10
150.880280240168
 20
124.644999702598
 30
0.0
 10
150.5849930221437
 20
124.6507927442111
 30
0.0
  0
SPLINE
  5
143
330
1F
100
AcDbEntity
  8
0
  6
HIDDEN
 62
     7
370
     0
100
AcDbSpline
210
0.0
220
0.0
230
1.0
 70
     8
 71
     3
 72
     8
 73
     4
 74
     0
 42
0.00000001
 43
0.00000001
 12
1.0
 22
0.0
 32
0.0
 13
1.0
 23
0.0
 33
0.0
 40
0.0
 40
0.0
 40
0.0
 40
0.0
 40
1.0
 40
1.0
 40
1.0
 40
1.0
 10
150.5849930221437
 20
124.6507927442111
 30
0.0
 10
150.5392281144544
 20
124.5892723650523
 30
0.0
 10
150.5048409928244
 20
124.5253775053028
 30
0.0
 10
150.4858257391515
 20
124.4586475602591
 30
0.0
  0
ELLIPSE
  5
144
330
1F
100
AcDbEntity
  8
0
  6
HIDDEN
 62
     7
370
     0
100
AcDbEllipse
 10
137.0288723836
 20
112.4243226485
 30
0.0
 11
13.369636111343
 21
13.36754752639483
 31
0.0
210
0.0
220
0.0
230
1.0
 40
0.1761188775
 41
5.933076931846598
 42
5.976720052691196
  0
ELLIPSE
  5
145
330
1F
100
AcDbEntity
  8
0
  6
HIDDEN
 62
     7
370
     0
100
AcDbEllipse
 10
137.1082508143
 20
111.1459145195
 30
0.0
 11
13.37355272666622
 21
-13.37146352987014
 31
0.0
210
0.0
220
0.0
230
1.0
 40
0.1761188775
 41
0.3023035477142557
 42
0.3822730435340314
  0
SPLINE
  5
146
330
1F
100
AcDbEntity
  8
0
  6
HIDDEN
 62
     7
370
     0
100
AcDbSpline
210
0.0
220
0.0
230
1.0
 70
     8
 71
     3
 72
    11
 73
     7
 74
     0
 42
0.00000001
 43
0.00000001
 12
1.0
 22
0.0
 32
0.0
 13
1.0
 23
0.0
 33
0.0
 40
0.0
 40
0.0
 40
0.0
 40
0.0
 40
0.25946967059813
 40
0.3326084702733429
 40
0.6701731790694504
 40
1.0
 40
1.0
 40
1.0
 40
1.0
 10
161.1839846143722
 20
97.08645720117144
 30
0.0
 10
161.118424318586
 20
97.07796578531564
 30
0.0
 10
161.0343840157567
 20
97.06708082588378
 30
0.0
 10
160.8575103423188
 20
97.04447269279149
 30
0.0
 10
160.7556266891847
 20
97.02787721276805
 30
0.0
 10
160.7314728206333
 20
97.02477745386452
 30
0.0
 10
160.7195359090566
 20
97.02324554406457
 30
0.0
  0
SPLINE
  5
147
330
1F
100
AcDbEntity
  8
0
  6
HIDDEN
 62
     7
370
     0
100
AcDbSpline
210
0.0
220
0.0
230
1.0
 70
     8
 71
     3
 72
    22
 73
    18
 74
     0
 42
0.00000001
 43
0.00000001
 12
1.0
 22
0.0
 32
0.0
 13
1.0
 23
0.0
 33
0.0
 40
0.0
 40
0.0
 40
0.0
 40
0.0
 40
0.0022119868471047
 40
0.0799684029100432
 40
0.1575272209552896
 40
0.2358577835459358
 40
0.3136122147965963
 40
0.3900719927085506
 40
0.4660893518218608
 40
0.5423589988219177
 40
0.6186534337227994
 40
0.6937723094550358
 40
0.7691592430128827
 40
0.8459429920566703
 40
0.9207581226786524
 40
0.9231032778326366
 40
1.0
 40
1.0
 40
1.0
 40
1.0
 10
166.3012710767089
 20
96.74361407839112
 30
0.0
 10
166.3017811915103
 20
96.74349138208056
 30
0.0
 10
166.3202230127252
 20
96.73905562876179
 30
0.0
 10
166.2565760913106
 20
96.75485300287251
 30
0.0
 10
166.1041439933643
 20
96.79169954633076
 30
0.0
 10
165.8375596537977
 20
96.85198915782355
 30
0.0
 10
165.4907309278099
 20
96.92445480097899
 30
0.0
 10
165.0669338697866
 20
97.00082978404019
 30
0.0
 10
164.5836210652202
 20
97.0721234747318
 30
0.0
 10
164.0548716175382
 20
97.13000298056717
 30
0.0
 10
163.5056797934167
 20
97.1697519952286
 30
0.0
 10
162.9561965168926
 20
97.18658644025469
 30
0.0
 10
162.430672573813
 20
97.18133317210636
 30
0.0
 10
161.9424401673584
 20
97.15860253894856
 30
0.0
 10
161.6752655256142
 20
97.13445741926863
 30
0.0
 10
161.3909164739528
 20
97.11249156162228
 30
0.0
 10
161.2858965167835
 20
97.09927886723574
 30
0.0
 10
161.1839846143722
 20
97.08645720117144
 30
0.0
  0
SPLINE
  5
148
330
1F
100
AcDbEntity
  8
0
  6
HIDDEN
 62
     7
370
     0
100
AcDbSpline
210
0.0
220
0.0
230
1.0
 70
     8
 71
     3
 72
    22
 73
    18
 74
     0
 42
0.00000001
 43
0.00000001
 12
1.0
 22
0.0
 32
0.0
 13
1.0
 23
0.0
 33
0.0
 40
0.0
 40
0.0
 40
0.0
 40
0.0
 40
0.0769496979898115
 40
0.0780938880527605
 40
0.1541394023339273
 40
0.230948519945297
 40
0.3064555519845071
 40
0.3815281636167389
 40
0.4579812553650078
 40
0.5341646018648127
 40
0.6102700516631084
 40
0.6865845638039152
 40
0.7642917144352694
 40
0.8424373723746879
 40
0.9199456372638479
 40
0.9982050360904
 40
0.9999999999999999
 40
0.9999999999999999
 40
0.9999999999999999
 40
0.9999999999999999
 10
161.1838663364052
 20
126.4839522921329
 30
0.0
 10
161.2859736312615
 20
126.4711630116536
 30
0.0
 10
161.3895991926631
 20
126.4581835632072
 30
0.0
 10
161.6736568118957
 20
126.4361721242236
 30
0.0
 10
161.9410648848684
 20
126.4120353853881
 30
0.0
 10
162.4319644668867
 20
126.3891319073618
 30
0.0
 10
162.9576914025532
 20
126.3838156683824
 30
0.0
 10
163.5077580691146
 20
126.4006768107172
 30
0.0
 10
164.0569750990459
 20
126.4405685756346
 30
0.0
 10
164.585840624286
 20
126.4985942305511
 30
0.0
 10
165.0686698235666
 20
126.5698642329988
 30
0.0
 10
165.4921932739426
 20
126.646176226083
 30
0.0
 10
165.8384524139046
 20
126.7185114368937
 30
0.0
 10
166.1043005963077
 20
126.7787192085062
 30
0.0
 10
166.2577136173973
 20
126.815630657692
 30
0.0
 10
166.3184735572606
 20
126.8313941295897
 30
0.0
 10
166.3006713901014
 20
126.8269117504613
 30
0.0
 10
166.3002722332477
 20
126.826811247397
 30
0.0
  0
SPLINE
  5
149
330
1F
100
AcDbEntity
  8
0
  6
HIDDEN
 62
     7
370
     0
100
AcDbSpline
210
0.0
220
0.0
230
1.0
 70
     8
 71
     3
 72
    10
 73
     6
 74
     0
 42
0.00000001
 43
0.00000001
 12
1.0
 22
0.0
 32
0.0
 13
1.0
 23
0.0
 33
0.0
 40
0.0
 40
0.0
 40
0.0
 40
0.0
 40
0.3343825542418548
 40
0.6655473131622539
 40
0.9999999999999999
 40
0.9999999999999999
 40
0.9999999999999999
 40
0.9999999999999999
 10
160.7190702477693
 20
126.5472412490135
 30
0.0
 10
160.7287769252746
 20
126.5456673969309
 30
0.0
 10
160.7480968719988
 20
126.542534838095
 30
0.0
 10
160.9056683162133
 20
126.5184794516384
 30
0.0
 10
161.090828786044
 20
126.4954991835849
 30
0.0
 10
161.1838663364052
 20
126.4839522921329
 30
0.0
  0
SPLINE
  5
14A
330
1F
100
AcDbEntity
  8
0
  6
HIDDEN
 62
     7
370
     0
100
AcDbSpline
210
0.0
220
0.0
230
1.0
 70
     8
 71
     3
 72
    14
 73
    10
 74
     0
 42
0.00000001
 43
0.00000001
 12
1.0
 22
0.0
 32
0.0
 13
1.0
 23
0.0
 33
0.0
 40
0.0
 40
0.0
 40
0.0
 40
0.0
 40
0.5000000000000002
 40
0.5000000000000002
 40
0.7499999999999998
 40
0.7499999999999998
 40
0.8749999999999999
 40
0.8749999999999999
 40
1.0
 40
1.0
 40
1.0
 40
1.0
 10
194.6110022476839
 20
114.7440385812269
 30
0.0
 10
194.5712406077538
 20
114.4518645658257
 30
0.0
 10
194.4883105524038
 20
114.1819401140162
 30
0.0
 10
194.3011847054682
 20
113.79794002025
 30
0.0
 10
194.2282352528258
 20
113.6733761518352
 30
0.0
 10
194.0938700237716
 20
113.4943216033982
 30
0.0
 10
194.0454492365221
 20
113.4367345762636
 30
0.0
 10
193.935756478869
 20
113.3269792322138
 30
0.0
 10
193.8761485993
 20
113.2775330600603
 30
0.0
 10
193.8163507776242
 20
113.2376234165432
 30
0.0
  0
ARC
  5
14B
330
1F
100
AcDbEntity
  8
0
  6
HIDDEN
 62
     7
370
     0
100
AcDbCircle
 10
193.5567267155
 20
113.1533863619
 30
0.0
 40
0.272948409925337
100
AcDbArc
 50
308.9625447023
 51
17.9760127364
  0
SPLINE
  5
14C
330
1F
100
AcDbEntity
  8
0
  6
HIDDEN
 62
     7
370
     0
100
AcDbSpline
210
0.0
220
0.0
230
1.0
 70
     8
 71
     3
 72
    50
 73
    46
 74
     0
 42
0.00000001
 43
0.00000001
 12
1.0
 22
0.0
 32
0.0
 13
1.0
 23
0.0
 33
0.0
 40
0.0
 40
0.0
 40
0.0
 40
0.0
 40
0.0156249999999998
 40
0.0156249999999998
 40
0.0312499999999996
 40
0.0312499999999996
 40
0.0624999999999993
 40
0.0624999999999993
 40
0.0937499999999989
 40
0.0937499999999989
 40
0.1249999999999986
 40
0.1249999999999986
 40
0.1874999999999983
 40
0.1874999999999983
 40
0.2499999999999981
 40
0.2499999999999981
 40
0.3124999999999978
 40
0.3124999999999978
 40
0.3749999999999976
 40
0.3749999999999976
 40
0.4062499999999976
 40
0.4062499999999976
 40
0.4374999999999976
 40
0.4374999999999976
 40
0.4999999999999977
 40
0.4999999999999977
 40
0.5624999999999977
 40
0.5624999999999977
 40
0.6249999999999978
 40
0.6249999999999978
 40
0.6874999999999978
 40
0.6874999999999978
 40
0.7499999999999979
 40
0.7499999999999979
 40
0.7812499999999981
 40
0.7812499999999981
 40
0.8124999999999983
 40
0.8124999999999983
 40
0.8437499999999987
 40
0.8437499999999987
 40
0.874999999999999
 40
0.874999999999999
 40
0.9374999999999994
 40
0.9374999999999994
 40
1.0
 40
1.0
 40
1.0
 40
1.0
 10
193.7283602785606
 20
112.9411533424086
 30
0.0
 10
193.7697987812506
 20
112.9718565609715
 30
0.0
 10
193.8105899481467
 20
113.002708277073
 30
0.0
 10
193.8909966884962
 20
113.0641041912448
 30
0.0
 10
193.9291127551836
 20
113.0935002071315
 30
0.0
 10
194.0355202290068
 20
113.1768129498063
 30
0.0
 10
194.0945703738753
 20
113.2250325606902
 30
0.0
 10
194.2002942918463
 20
113.3189589550522
 30
0.0
 10
194.2471913799372
 20
113.3648648954855
 30
0.0
 10
194.3318427872983
 20
113.4577003722545
 30
0.0
 10
194.369793890259
 20
113.5047816909635
 30
0.0
 10
194.4728026560295
 20
113.6510525976153
 30
0.0
 10
194.5272154066839
 20
113.7551722365528
 30
0.0
 10
194.6062823202974
 20
113.9852146164996
 30
0.0
 10
194.630034511365
 20
114.109257199118
 30
0.0
 10
194.6385751917011
 20
114.3770430243249
 30
0.0
 10
194.6229243660659
 20
114.5232984303739
 30
0.0
 10
194.5407865643218
 20
114.8289673621625
 30
0.0
 10
194.4726619522446
 20
114.9924376335587
 30
0.0
 10
194.3284603154336
 20
115.2343377692759
 30
0.0
 10
194.2724604140272
 20
115.3159598977178
 30
0.0
 10
194.1496350006435
 20
115.4726552793981
 30
0.0
 10
194.0828736328972
 20
115.5479879023913
 30
0.0
 10
193.8668930343187
 20
115.7651828062197
 30
0.0
 10
193.7055496235768
 20
115.893761848567
 30
0.0
 10
193.376865878891
 20
116.1081978115756
 30
0.0
 10
193.2132417779503
 20
116.1928640025276
 30
0.0
 10
192.8877202571208
 20
116.3298119430222
 30
0.0
 10
192.7316830426286
 20
116.379456879941
 30
0.0
 10
192.4322442884656
 20
116.4518639618244
 30
0.0
 10
192.2874841324069
 20
116.4744519745222
 30
0.0
 10
192.0189458571449
 20
116.4991063413322
 30
0.0
 10
191.893569975296
 20
116.5004745941808
 30
0.0
 10
191.7317927827629
 20
116.5013632986208
 30
0.0
 10
191.6816876382966
 20
116.5013519445965
 30
0.0
 10
191.6072695164915
 20
116.5129578484479
 30
0.0
 10
191.5842683259093
 20
116.5264160084159
 30
0.0
 10
191.6036690302881
 20
116.585082453249
 30
0.0
 10
191.6438317500874
 20
116.6276683144227
 30
0.0
 10
191.7445077723182
 20
116.7119057248743
 30
0.0
 10
191.8056913405112
 20
116.7545680803946
 30
0.0
 10
191.9992715931406
 20
116.8718666427707
 30
0.0
 10
192.1442339716494
 20
116.9380716713318
 30
0.0
 10
192.4532954440329
 20
117.0355197516652
 30
0.0
 10
192.6167863487202
 20
117.0664641897106
 30
0.0
 10
192.7856745248246
 20
117.0742089696461
 30
0.0
  0
SPLINE
  5
14D
330
1F
100
AcDbEntity
  8
0
  6
HIDDEN
 62
     7
370
     0
100
AcDbSpline
210
0.0
220
0.0
230
1.0
 70
     8
 71
     3
 72
    28
 73
    24
 74
     0
 42
0.00000001
 43
0.00000001
 12
1.0
 22
0.0
 32
0.0
 13
1.0
 23
0.0
 33
0.0
 40
0.0
 40
0.0
 40
0.0
 40
0.0
 40
0.1250000000000013
 40
0.1250000000000013
 40
0.1875000000000022
 40
0.1875000000000022
 40
0.2500000000000031
 40
0.2500000000000031
 40
0.3750000000000031
 40
0.3750000000000031
 40
0.500000000000003
 40
0.500000000000003
 40
0.6250000000000027
 40
0.6250000000000027
 40
0.6875000000000023
 40
0.6875000000000023
 40
0.750000000000002
 40
0.750000000000002
 40
0.8125000000000017
 40
0.8125000000000017
 40
0.8750000000000013
 40
0.8750000000000013
 40
1.0
 40
1.0
 40
1.0
 40
1.0
 10
192.7856745248246
 20
117.0742089696461
 30
0.0
 10
192.7315453095655
 20
116.9680565733661
 30
0.0
 10
192.6877969886827
 20
116.8593676621997
 30
0.0
 10
192.6605225935279
 20
116.689112614632
 30
0.0
 10
192.6584398002404
 20
116.6309301696295
 30
0.0
 10
192.6757205706444
 20
116.5168040688372
 30
0.0
 10
192.6958970083073
 20
116.4593173256404
 30
0.0
 10
192.7896468618572
 20
116.2947417527748
 30
0.0
 10
192.8941198456261
 20
116.1945370540932
 30
0.0
 10
193.1027364095235
 20
115.9818253036668
 30
0.0
 10
193.2085611015646
 20
115.8663500121161
 30
0.0
 10
193.3952970155506
 20
115.6081316129256
 30
0.0
 10
193.4739500995073
 20
115.4688118561524
 30
0.0
 10
193.5860484303426
 20
115.2538224030752
 30
0.0
 10
193.6229017124217
 20
115.1808728131332
 30
0.0
 10
193.7038424726253
 20
115.0421434806991
 30
0.0
 10
193.7493488572213
 20
114.975210507398
 30
0.0
 10
193.8577658338937
 20
114.8662900222138
 30
0.0
 10
193.9216750298415
 20
114.8245562152997
 30
0.0
 10
194.0556769001242
 20
114.7685487892424
 30
0.0
 10
194.1262462514003
 20
114.7525618627888
 30
0.0
 10
194.334608018684
 20
114.7246290142325
 30
0.0
 10
194.4736118991893
 20
114.7301242235351
 30
0.0
 10
194.6110022476839
 20
114.7440385812269
 30
0.0
  0
SPLINE
  5
14E
330
1F
100
AcDbEntity
  8
0
  6
HIDDEN
 62
     7
370
     0
100
AcDbSpline
210
0.0
220
0.0
230
1.0
 70
     8
 71
     3
 72
    12
 73
     8
 74
     0
 42
0.00000001
 43
0.00000001
 12
1.0
 22
0.0
 32
0.0
 13
1.0
 23
0.0
 33
0.0
 40
0.0
 40
0.0
 40
0.0
 40
0.0
 40
0.4999999999999999
 40
0.4999999999999999
 40
0.7499999999999999
 40
0.7499999999999999
 40
1.0
 40
1.0
 40
1.0
 40
1.0
 10
194.5349930221437
 20
112.9911352827822
 30
0.0
 10
194.5947118794346
 20
112.7810389793321
 30
0.0
 10
194.6348992137018
 20
112.5477377686339
 30
0.0
 10
194.6350396656815
 20
112.2126988490918
 30
0.0
 10
194.6255135184119
 20
112.1066440776796
 30
0.0
 10
194.5901930542397
 20
111.9114944073064
 30
0.0
 10
194.5648768745767
 20
111.8245540543349
 30
0.0
 10
194.5349930221437
 20
111.7485504663033
 30
0.0
  0
SPLINE
  5
14F
330
1F
100
AcDbEntity
  8
0
  6
HIDDEN
 62
     7
370
     0
100
AcDbSpline
210
0.0
220
0.0
230
1.0
 70
     8
 71
     3
 72
    64
 73
    60
 74
     0
 42
0.00000001
 43
0.00000001
 12
1.0
 22
0.0
 32
0.0
 13
1.0
 23
0.0
 33
0.0
 40
0.0
 40
0.0
 40
0.0
 40
0.0
 40
0.0625000000000003
 40
0.0625000000000003
 40
0.0937500000000002
 40
0.0937500000000002
 40
0.1250000000000002
 40
0.1250000000000002
 40
0.1562500000000001
 40
0.1562500000000001
 40
0.1875
 40
0.1875
 40
0.2187499999999999
 40
0.2187499999999999
 40
0.2499999999999999
 40
0.2499999999999999
 40
0.2812499999999998
 40
0.2812499999999998
 40
0.3124999999999998
 40
0.3124999999999998
 40
0.3437499999999997
 40
0.3437499999999997
 40
0.3749999999999996
 40
0.3749999999999996
 40
0.4062499999999996
 40
0.4062499999999996
 40
0.4374999999999995
 40
0.4374999999999995
 40
0.4687499999999994
 40
0.4687499999999994
 40
0.4999999999999994
 40
0.4999999999999994
 40
0.5312499999999993
 40
0.5312499999999993
 40
0.5624999999999993
 40
0.5624999999999993
 40
0.5937499999999992
 40
0.5937499999999992
 40
0.6249999999999992
 40
0.6249999999999992
 40
0.6562499999999991
 40
0.6562499999999991
 40
0.6874999999999991
 40
0.6874999999999991
 40
0.718749999999999
 40
0.718749999999999
 40
0.7499999999999989
 40
0.7499999999999989
 40
0.7812499999999989
 40
0.7812499999999989
 40
0.8124999999999988
 40
0.8124999999999988
 40
0.8437499999999988
 40
0.8437499999999988
 40
0.8749999999999987
 40
0.8749999999999987
 40
0.9374999999999993
 40
0.9374999999999993
 40
1.0
 40
1.0
 40
1.0
 40
1.0
 10
194.5349930221437
 20
111.7485504663
 30
0.0
 10
194.4554304171124
 20
111.4914907975905
 30
0.0
 10
194.3361688128084
 20
111.2567481146394
 30
0.0
 10
194.1127720627148
 20
110.9386719689784
 30
0.0
 10
194.0320805488963
 20
110.8402932566828
 30
0.0
 10
193.8583573283462
 20
110.6572365701583
 30
0.0
 10
193.7645684839654
 20
110.5720200183131
 30
0.0
 10
193.5673126669908
 20
110.4191298200931
 30
0.0
 10
193.4638788584686
 20
110.3511748218024
 30
0.0
 10
193.2441371591693
 20
110.2333911376763
 30
0.0
 10
193.1264914734619
 20
110.1830226868679
 30
0.0
 10
192.8772208484438
 20
110.1082464994802
 30
0.0
 10
192.7462364783633
 20
110.0842858498013
 30
0.0
 10
192.4781579876616
 20
110.0710312712627
 30
0.0
 10
192.3452925119734
 20
110.0818568485357
 30
0.0
 10
192.0855090202386
 20
110.13508281004
 30
0.0
 10
191.9639988317724
 20
110.1758978690066
 30
0.0
 10
191.731672102379
 20
110.2793576484209
 30
0.0
 10
191.6215718259373
 20
110.3420205645968
 30
0.0
 10
191.4158384448519
 20
110.4822585767901
 30
0.0
 10
191.3191328811042
 20
110.5603773295987
 30
0.0
 10
191.1358695813695
 20
110.7326270433803
 30
0.0
 10
191.0491711739818
 20
110.8272475963113
 30
0.0
 10
190.8912126070812
 20
111.0273697073989
 30
0.0
 10
190.8191655076192
 20
111.1335141204342
 30
0.0
 10
190.6896534519858
 20
111.359416027078
 30
0.0
 10
190.6316665356231
 20
111.480766355537
 30
0.0
 10
190.5370827678852
 20
111.7296879925231
 30
0.0
 10
190.5000103930815
 20
111.8575149606509
 30
0.0
 10
190.4487955818912
 20
112.120741742196
 30
0.0
 10
190.4355726669947
 20
112.2524222413943
 30
0.0
 10
190.4344508318988
 20
112.5103934435553
 30
0.0
 10
190.4468872709088
 20
112.6391532065226
 30
0.0
 10
190.4957462328974
 20
112.8808443436666
 30
0.0
 10
190.5319751833536
 20
112.9951487207646
 30
0.0
 10
190.6258364333724
 20
113.2096606143317
 30
0.0
 10
190.6821810933178
 20
113.3072124110498
 30
0.0
 10
190.8115952821381
 20
113.4861638989264
 30
0.0
 10
190.884995768191
 20
113.5675269325439
 30
0.0
 10
191.0427374969185
 20
113.7112202066964
 30
0.0
 10
191.1276274832439
 20
113.7744094148491
 30
0.0
 10
191.3100338633099
 20
113.8860347131507
 30
0.0
 10
191.4082474005553
 20
113.9346528160389
 30
0.0
 10
191.6144228209182
 20
114.0162909233281
 30
0.0
 10
191.7226954601687
 20
114.049680959648
 30
0.0
 10
191.9542497437643
 20
114.1030841133465
 30
0.0
 10
192.0781354246248
 20
114.1229843386252
 30
0.0
 10
192.3352174454106
 20
114.1478376891483
 30
0.0
 10
192.4713725654758
 20
114.1529211977969
 30
0.0
 10
192.7368568367289
 20
114.1477062907444
 30
0.0
 10
192.8700354969747
 20
114.1373396803354
 30
0.0
 10
193.1183708733641
 20
114.102606457079
 30
0.0
 10
193.2367024196726
 20
114.0780410157705
 30
0.0
 10
193.4598703082268
 20
114.0148433650712
 30
0.0
 10
193.5639265487318
 20
113.9765839544144
 30
0.0
 10
193.8598045544989
 20
113.8396195154847
 30
0.0
 10
194.0369475515786
 20
113.7171292737559
 30
0.0
 10
194.3325393128454
 20
113.4082099615904
 30
0.0
 10
194.4552395243041
 20
113.2168758587861
 30
0.0
 10
194.5349930221428
 20
112.9911352827847
 30
0.0
  0
SPLINE
  5
150
330
1F
100
AcDbEntity
  8
0
  6
HIDDEN
 62
     7
370
     0
100
AcDbSpline
210
0.0
220
0.0
230
1.0
 70
     8
 71
     3
 72
     8
 73
     4
 74
     0
 42
0.00000001
 43
0.00000001
 12
1.0
 22
0.0
 32
0.0
 13
1.0
 23
0.0
 33
0.0
 40
0.0
 40
0.0
 40
0.0
 40
0.0
 40
1.0
 40
1.0
 40
1.0
 40
1.0
 10
193.8163507776248
 20
113.2376234165442
 30
0.0
 10
193.7516111012835
 20
113.1123221596386
 30
0.0
 10
193.719683047983
 20
113.0145700837923
 30
0.0
 10
193.728360278561
 20
112.9411533424102
 30
0.0
  0
LWPOLYLINE
  5
151
330
1F
100
AcDbEntity
  8
0
  6
HIDDEN
 62
     7
370
     0
100
AcDbPolyline
 90
       22
 70
   128
 43
0.0
 10
194.6110023553
 20
114.7440386851
 10
194.4896789635
 20
114.3063622442
 10
194.2716451729
 20
113.9055354436
 10
193.9676894242
 20
113.5613889349
 10
193.5928507144
 20
113.2909500887
 10
193.1656735385
 20
113.1075988672
 10
192.7072914684
 20
113.0204067015
 10
192.2403859342
 20
113.0336875942
 10
191.7880574608
 20
113.1467843809
 10
191.3726820046
 20
113.354101559
 10
191.0148138548
 20
113.6453818911
 10
190.7321574534
 20
114.0062142079
 10
190.5386975402
 20
114.4187456378
 10
190.4440062488
 20
114.8625664794
 10
190.4527681316
 20
115.3157177762
 10
190.5645510549
 20
115.7557797999
 10
190.7738211001
 20
116.160980557
 10
191.0702275479
 20
116.5112714664
 10
191.4391039307
 20
116.789322012
 10
191.862200051
 20
116.981375628
 10
192.3185835028
 20
117.077930496
 10
192.7856753016
 20
117.074208931
  0
SPLINE
  5
152
330
1F
100
AcDbEntity
  8
0
  6
HIDDEN
 62
     7
370
     0
100
AcDbSpline
210
0.0
220
0.0
230
1.0
 70
    11
 71
     3
 72
    50
 73
    46
 74
     0
 42
0.00000001
 43
0.00000001
 12
1.0
 22
0.0
 32
0.0
 13
1.0
 23
0.0
 33
0.0
 40
0.0
 40
0.0
 40
0.0
 40
0.0
 40
0.0625000000000002
 40
0.0625000000000002
 40
0.1250000000000005
 40
0.1250000000000005
 40
0.1562500000000005
 40
0.1562500000000005
 40
0.1875000000000006
 40
0.1875000000000006
 40
0.2187500000000006
 40
0.2187500000000006
 40
0.2500000000000007
 40
0.2500000000000007
 40
0.2812500000000007
 40
0.2812500000000007
 40
0.3125000000000008
 40
0.3125000000000008
 40
0.3750000000000009
 40
0.3750000000000009
 40
0.4375000000000008
 40
0.4375000000000008
 40
0.5000000000000008
 40
0.5000000000000008
 40
0.5312500000000008
 40
0.5312500000000008
 40
0.5625000000000008
 40
0.5625000000000008
 40
0.5937500000000008
 40
0.5937500000000008
 40
0.6250000000000007
 40
0.6250000000000007
 40
0.6562500000000007
 40
0.6562500000000007
 40
0.6875000000000006
 40
0.6875000000000006
 40
0.7500000000000004
 40
0.7500000000000004
 40
0.8125000000000003
 40
0.8125000000000003
 40
0.8750000000000002
 40
0.8750000000000002
 40
0.9375000000000002
 40
0.9375000000000002
 40
1.0
 40
1.0
 40
1.0
 40
1.0
 10
165.3591697500212
 20
99.11240190375288
 30
0.0
 10
165.2129149152196
 20
99.13345442957835
 30
0.0
 10
165.0414462782612
 20
99.15573565426037
 30
0.0
 10
164.6483016727512
 20
99.19657714460928
 30
0.0
 10
164.433057487186
 20
99.21433477953022
 30
0.0
 10
164.0903177006364
 20
99.23260807237384
 30
0.0
 10
163.9720713175809
 20
99.23731801138786
 30
0.0
 10
163.7362923154025
 20
99.24331710644665
 30
0.0
 10
163.6177260056966
 20
99.24467293884248
 30
0.0
 10
163.379230924896
 20
99.24397852683178
 30
0.0
 10
163.2584385313742
 20
99.24188002384044
 30
0.0
 10
163.023372565909
 20
99.23449687431463
 30
0.0
 10
162.908317053409
 20
99.2292341110437
 30
0.0
 10
162.6830972986661
 20
99.21598034899517
 30
0.0
 10
162.5720151290638
 20
99.20790127431772
 30
0.0
 10
162.3607636821282
 20
99.18996554732269
 30
0.0
 10
162.2604054476274
 20
99.18012931210924
 30
0.0
 10
161.974761490604
 20
99.14911364368781
 30
0.0
 10
161.8044827470081
 20
99.12628194946913
 30
0.0
 10
161.5283316170878
 20
99.08558467513842
 30
0.0
 10
161.4186324307031
 20
99.06725862556624
 30
0.0
 10
161.2730893495392
 20
99.04223102632129
 30
0.0
 10
161.2350827140819
 20
99.03522837695384
 30
0.0
 10
161.234948420724
 20
99.03520415148704
 30
0.0
 10
161.2440661759663
 20
99.03685873874316
 30
0.0
 10
161.2809847214799
 20
99.04344138201604
 30
0.0
 10
161.3089583765046
 20
99.04839762353872
 30
0.0
 10
161.3817299559569
 20
99.06091429623703
 30
0.0
 10
161.4266551941186
 20
99.0684988355505
 30
0.0
 10
161.5336985090741
 20
99.08580709092367
 30
0.0
 10
161.5962665500406
 20
99.09559138271639
 30
0.0
 10
161.73465745278
 20
99.11599658438247
 30
0.0
 10
161.8108409085544
 20
99.12668153930555
 30
0.0
 10
161.9771966423655
 20
99.14826527688295
 30
0.0
 10
162.0682249448103
 20
99.15925138588408
 30
0.0
 10
162.3548787614831
 20
99.1904084696502
 30
0.0
 10
162.5669308196007
 20
99.20910465668636
 30
0.0
 10
163.0201080955553
 20
99.23585193740183
 30
0.0
 10
163.2547377442953
 20
99.24355754410365
 30
0.0
 10
163.7361612937539
 20
99.24507555160183
 30
0.0
 10
163.9714666640223
 20
99.23888686336947
 30
0.0
 10
164.4313743156978
 20
99.21448152767664
 30
0.0
 10
164.645802827657
 20
99.19679837375134
 30
0.0
 10
165.0390020124224
 20
99.15602745671873
 30
0.0
 10
165.2129110840876
 20
99.13345498104732
 30
0.0
 10
165.3591697500212
 20
99.11240190375288
 30
0.0
  0
SPLINE
  5
153
330
1F
100
AcDbEntity
  8
0
  6
HIDDEN
 62
     7
370
     0
100
AcDbSpline
210
0.0
220
0.0
230
1.0
 70
    11
 71
     3
 72
    50
 73
    46
 74
     0
 42
0.00000001
 43
0.00000001
 12
1.0
 22
0.0
 32
0.0
 13
1.0
 23
0.0
 33
0.0
 40
0.0
 40
0.0
 40
0.0
 40
0.0
 40
0.0624999999999998
 40
0.0624999999999998
 40
0.1249999999999998
 40
0.1249999999999998
 40
0.1562499999999997
 40
0.1562499999999997
 40
0.1874999999999996
 40
0.1874999999999996
 40
0.2187499999999996
 40
0.2187499999999996
 40
0.2499999999999996
 40
0.2499999999999996
 40
0.2812499999999996
 40
0.2812499999999996
 40
0.3124999999999995
 40
0.3124999999999995
 40
0.3749999999999996
 40
0.3749999999999996
 40
0.4374999999999998
 40
0.4374999999999998
 40
0.5
 40
0.5
 40
0.5312500000000001
 40
0.5312500000000001
 40
0.5625000000000002
 40
0.5625000000000002
 40
0.5937500000000002
 40
0.5937500000000002
 40
0.6250000000000002
 40
0.6250000000000002
 40
0.6562500000000002
 40
0.6562500000000002
 40
0.6875000000000001
 40
0.6875000000000001
 40
0.75
 40
0.75
 40
0.8125
 40
0.8125
 40
0.875
 40
0.875
 40
0.9374999999999999
 40
0.9374999999999999
 40
1.0
 40
1.0
 40
1.0
 40
1.0
 10
165.3591697500212
 20
124.4580224907127
 30
0.0
 10
165.2129149152196
 20
124.4369699648872
 30
0.0
 10
165.0414462782612
 20
124.4146887402052
 30
0.0
 10
164.6483016727512
 20
124.3738472498562
 30
0.0
 10
164.433057487186
 20
124.3560896149353
 30
0.0
 10
164.0903177006364
 20
124.3378163220917
 30
0.0
 10
163.9720713175809
 20
124.3331063830777
 30
0.0
 10
163.7362923154025
 20
124.3271072880189
 30
0.0
 10
163.6177260056966
 20
124.325751455623
 30
0.0
 10
163.379230924896
 20
124.3264458676338
 30
0.0
 10
163.2584385313742
 20
124.3285443706251
 30
0.0
 10
163.023372565909
 20
124.3359275201509
 30
0.0
 10
162.908317053409
 20
124.3411902834218
 30
0.0
 10
162.6830972986661
 20
124.3544440454703
 30
0.0
 10
162.5720151290638
 20
124.3625231201478
 30
0.0
 10
162.3607636821282
 20
124.3804588471428
 30
0.0
 10
162.2604054476274
 20
124.3902950823563
 30
0.0
 10
161.974761490604
 20
124.4213107507777
 30
0.0
 10
161.8044827470081
 20
124.4441424449964
 30
0.0
 10
161.5283316170878
 20
124.4848397193271
 30
0.0
 10
161.4186324307031
 20
124.5031657688993
 30
0.0
 10
161.2730893495392
 20
124.5281933681442
 30
0.0
 10
161.2350827140819
 20
124.5351960175117
 30
0.0
 10
161.234948420724
 20
124.5352202429785
 30
0.0
 10
161.2440661759663
 20
124.5335656557224
 30
0.0
 10
161.2809847214799
 20
124.5269830124495
 30
0.0
 10
161.3089583765047
 20
124.5220267709268
 30
0.0
 10
161.3817299559569
 20
124.5095100982285
 30
0.0
 10
161.4266551941186
 20
124.501925558915
 30
0.0
 10
161.5336985090741
 20
124.4846173035419
 30
0.0
 10
161.5962665500406
 20
124.4748330117491
 30
0.0
 10
161.73465745278
 20
124.4544278100831
 30
0.0
 10
161.8108409085544
 20
124.44374285516
 30
0.0
 10
161.9771966423655
 20
124.4221591175826
 30
0.0
 10
162.0682249448103
 20
124.4111730085815
 30
0.0
 10
162.3548787614831
 20
124.3800159248153
 30
0.0
 10
162.5669308196008
 20
124.3613197377792
 30
0.0
 10
163.0201080955553
 20
124.3345724570637
 30
0.0
 10
163.2547377442953
 20
124.3268668503619
 30
0.0
 10
163.7361612937539
 20
124.3253488428637
 30
0.0
 10
163.9714666640223
 20
124.331537531096
 30
0.0
 10
164.4313743156979
 20
124.3559428667889
 30
0.0
 10
164.645802827657
 20
124.3736260207142
 30
0.0
 10
165.0390020124224
 20
124.4143969377468
 30
0.0
 10
165.2129110840876
 20
124.4369694134182
 30
0.0
 10
165.3591697500212
 20
124.4580224907127
 30
0.0
  0
SPLINE
  5
154
330
1F
100
AcDbEntity
  8
0
  6
HIDDEN
 62
     7
370
     0
100
AcDbSpline
210
0.0
220
0.0
230
1.0
 70
    11
 71
     3
 72
    14
 73
    10
 74
     0
 42
0.00000001
 43
0.00000001
 12
1.0
 22
0.0
 32
0.0
 13
1.0
 23
0.0
 33
0.0
 40
0.0
 40
0.0
 40
0.0
 40
0.0
 40
0.2500000000000001
 40
0.2500000000000001
 40
0.5
 40
0.5
 40
0.7499999999999999
 40
0.7499999999999999
 40
1.0
 40
1.0
 40
1.0
 40
1.0
 10
165.3591697500212
 20
124.4580224907127
 30
0.0
 10
165.513045645724
 20
124.4801720235646
 30
0.0
 10
165.6309262133531
 20
124.4929840906383
 30
0.0
 10
165.7939900032657
 20
124.5093367994687
 30
0.0
 10
165.8349065218894
 20
124.5125125621866
 30
0.0
 10
165.8350792544056
 20
124.5125272643633
 30
0.0
 10
165.7941514961718
 20
124.5093477133699
 30
0.0
 10
165.6318141307063
 20
124.4930783818924
 30
0.0
 10
165.5130438626001
 20
124.4801717668944
 30
0.0
 10
165.3591697500212
 20
124.4580224907127
 30
0.0
  0
SPLINE
  5
155
330
1F
100
AcDbEntity
  8
0
  6
HIDDEN
 62
     7
370
     0
100
AcDbSpline
210
0.0
220
0.0
230
1.0
 70
    11
 71
     3
 72
    14
 73
    10
 74
     0
 42
0.00000001
 43
0.00000001
 12
1.0
 22
0.0
 32
0.0
 13
1.0
 23
0.0
 33
0.0
 40
0.0
 40
0.0
 40
0.0
 40
0.0
 40
0.2499999999999999
 40
0.2499999999999999
 40
0.4999999999999999
 40
0.4999999999999999
 40
0.75
 40
0.75
 40
1.0
 40
1.0
 40
1.0
 40
1.0
 10
165.3591697500212
 20
99.11240190375288
 30
0.0
 10
165.513045645724
 20
99.0902523709009
 30
0.0
 10
165.6309262133531
 20
99.07744030382726
 30
0.0
 10
165.7939900032657
 20
99.0610875949968
 30
0.0
 10
165.8349065218894
 20
99.05791183227893
 30
0.0
 10
165.8350792544056
 20
99.05789713010223
 30
0.0
 10
165.7941514961718
 20
99.06107668109566
 30
0.0
 10
165.6318141307063
 20
99.07734601257312
 30
0.0
 10
165.5130438626001
 20
99.09025262757112
 30
0.0
 10
165.3591697500212
 20
99.11240190375288
 30
0.0
  0
LINE
  5
156
330
1F
100
AcDbEntity
  8
0
  6
HIDDEN
 62
     7
370
     0
100
AcDbLine
 10
169.5349930221
 20
101.2852123388
 30
0.0
 11
169.5349930221
 21
122.2852120557
 31
0.0
  0
LINE
  5
157
330
1F
100
AcDbEntity
  8
0
  6
HIDDEN
 62
     7
370
     0
100
AcDbLine
 10
157.5376425306
 20
122.2852120557
 30
0.0
 11
157.5376425306
 21
101.2852123388
 31
0.0
  0
LINE
  5
158
330
1F
100
AcDbEntity
  8
0
  6
HIDDEN
 62
     7
370
     0
100
AcDbLine
 10
181.9786630938
 20
123.6352125564
 30
0.0
 11
189.8141174013
 21
123.6352125564
 31
0.0
  0
LINE
  5
159
330
1F
100
AcDbEntity
  8
0
  6
HIDDEN
 62
     7
370
     0
100
AcDbLine
 10
186.574992388
 20
125.301059001
 30
0.0
 11
186.574992388
 21
129.1878164195
 31
0.0
  0
LINE
  5
15A
330
1F
100
AcDbEntity
  8
0
  6
HIDDEN
 62
     7
370
     0
100
AcDbLine
 10
184.4949933136
 20
125.301059001
 30
0.0
 11
184.4949933136
 21
129.1878164195
 31
0.0
  0
LINE
  5
15B
330
1F
100
AcDbEntity
  8
0
  6
HIDDEN
 62
     7
370
     0
100
AcDbLine
 10
149.6349932993
 20
101.9202057653
 30
0.0
 11
149.6349932993
 21
121.6502186292
 31
0.0
  0
LINE
  5
15C
330
1F
100
AcDbEntity
  8
0
  6
HIDDEN
 62
     7
370
     0
100
AcDbLine
 10
175.7043680543
 20
122.2852120557
 30
0.0
 11
175.7043680543
 21
101.2852123388
 31
0.0
  0
LINE
  5
15D
330
1F
100
AcDbEntity
  8
0
  6
HIDDEN
 62
     7
370
     0
100
AcDbLine
 10
177.4849934871
 20
121.6602126517
 30
0.0
 11
177.4849934871
 21
101.9102117427
 31
0.0
  0
LINE
  5
15E
330
1F
100
AcDbEntity
  8
0
  6
HIDDEN
 62
     7
370
     0
100
AcDbLine
 10
150.6439937646
 20
102.0630287387
 30
0.0
 11
154.8349928478
 21
102.0630287387
 31
0.0
  0
ARC
  5
15F
330
1F
100
AcDbEntity
  8
0
  6
HIDDEN
 62
     7
370
     0
100
AcDbCircle
 10
154.6099930221
 20
111.7852121972
 30
0.0
 40
10.50000000000001
100
AcDbArc
 50
247.4596895365
 51
247.8078280674
  0
LINE
  5
160
330
1F
100
AcDbEntity
  8
0
  6
HIDDEN
 62
     7
370
     0
100
AcDbLine
 10
150.5849926168
 20
121.4831179389
 30
0.0
 11
150.5849926168
 21
102.0873064556
 31
0.0
  0
LINE
  5
161
330
1F
100
AcDbEntity
  8
0
  6
HIDDEN
 62
     7
370
     0
100
AcDbLine
 10
152.334992438
 20
121.4831179389
 30
0.0
 11
150.5849926168
 21
121.4831179389
 31
0.0
  0
SPLINE
  5
162
330
1F
100
AcDbEntity
  8
0
  6
HIDDEN
 62
     7
370
     0
100
AcDbSpline
210
0.0
220
0.0
230
1.0
 70
     8
 71
     3
 72
    14
 73
    10
 74
     0
 42
0.00000001
 43
0.00000001
 12
1.0
 22
0.0
 32
0.0
 13
1.0
 23
0.0
 33
0.0
 40
0.0
 40
0.0
 40
0.0
 40
0.0
 40
0.25
 40
0.25
 40
0.5
 40
0.5
 40
0.75
 40
0.75
 40
1.0
 40
1.0
 40
1.0
 40
1.0
 10
153.2349930221437
 20
121.8094016906532
 30
0.0
 10
153.2349930221437
 20
121.7729298261194
 30
0.0
 10
153.2126223903397
 20
121.7351940736069
 30
0.0
 10
153.1254068590914
 20
121.6600583519074
 30
0.0
 10
153.0613856530147
 20
121.6236860656853
 30
0.0
 10
152.8979003552735
 20
121.5594625265232
 30
0.0
 10
152.7985854811002
 20
121.5319395639008
 30
0.0
 10
152.5787592103952
 20
121.4937673970137
 30
0.0
 10
152.457755648086
 20
121.483117898981
 30
0.0
 10
152.3349930221437
 20
121.483117898981
 30
0.0
  0
LINE
  5
163
330
1F
100
AcDbEntity
  8
0
  6
HIDDEN
 62
     7
370
     0
100
AcDbLine
 10
153.2349927718
 20
121.8094021463
 30
0.0
 11
153.2349927718
 21
122.2852120557
 31
0.0
  0
SPLINE
  5
164
330
1F
100
AcDbEntity
  8
0
  6
HIDDEN
 62
     7
370
     0
100
AcDbSpline
210
0.0
220
0.0
230
1.0
 70
     8
 71
     3
 72
    14
 73
    10
 74
     0
 42
0.00000001
 43
0.00000001
 12
1.0
 22
0.0
 32
0.0
 13
1.0
 23
0.0
 33
0.0
 40
0.0
 40
0.0
 40
0.0
 40
0.0
 40
0.2500000000000004
 40
0.2500000000000004
 40
0.5000000000000008
 40
0.5000000000000008
 40
0.7500000000000006
 40
0.7500000000000006
 40
1.0
 40
1.0
 40
1.0
 40
1.0
 10
153.2349930221437
 20
121.8094016906532
 30
0.0
 10
153.2349930221437
 20
121.7729298261194
 30
0.0
 10
153.2126223903397
 20
121.7351940736069
 30
0.0
 10
153.1254068590914
 20
121.6600583519074
 30
0.0
 10
153.0613856530148
 20
121.6236860656853
 30
0.0
 10
152.8979003552735
 20
121.5594625265232
 30
0.0
 10
152.7985854811002
 20
121.5319395639008
 30
0.0
 10
152.5787592103952
 20
121.4937673970137
 30
0.0
 10
152.457755648086
 20
121.483117898981
 30
0.0
 10
152.3349930221437
 20
121.483117898981
 30
0.0
  0
SPLINE
  5
165
330
1F
100
AcDbEntity
  8
0
  6
HIDDEN
 62
     7
370
     0
100
AcDbSpline
210
0.0
220
0.0
230
1.0
 70
     8
 71
     3
 72
    14
 73
    10
 74
     0
 42
0.00000001
 43
0.00000001
 12
1.0
 22
0.0
 32
0.0
 13
1.0
 23
0.0
 33
0.0
 40
0.0
 40
0.0
 40
0.0
 40
0.0
 40
0.2499999999999997
 40
0.2499999999999997
 40
0.4999999999999998
 40
0.4999999999999998
 40
0.7499999999999999
 40
0.7499999999999999
 40
1.0
 40
1.0
 40
1.0
 40
1.0
 10
154.8349930221437
 20
102.0630291090576
 30
0.0
 10
154.9574611100626
 20
102.0630291090576
 30
0.0
 10
155.0776721889314
 20
102.0526920893377
 30
0.0
 10
155.2978785081841
 20
102.0152248607597
 30
0.0
 10
155.3975339608821
 20
101.9880936924704
 30
0.0
 10
155.5605213138379
 20
101.9253266462636
 30
0.0
 10
155.6252586745843
 20
101.8892629523367
 30
0.0
 10
155.7120940247014
 20
101.8160702824686
 30
0.0
 10
155.7349930221437
 20
101.7785274969577
 30
0.0
 10
155.7349930221437
 20
101.7428198527762
 30
0.0
  0
LINE
  5
166
330
1F
100
AcDbEntity
  8
0
  6
HIDDEN
 62
     7
370
     0
100
AcDbLine
 10
155.7349931816
 20
101.7428195485
 30
0.0
 11
155.7349931816
 21
101.2852123388
 31
0.0
  0
SPLINE
  5
167
330
1F
100
AcDbEntity
  8
0
  6
HIDDEN
 62
     7
370
     0
100
AcDbSpline
210
0.0
220
0.0
230
1.0
 70
     8
 71
     3
 72
    14
 73
    10
 74
     0
 42
0.00000001
 43
0.00000001
 12
1.0
 22
0.0
 32
0.0
 13
1.0
 23
0.0
 33
0.0
 40
0.0
 40
0.0
 40
0.0
 40
0.0
 40
0.25
 40
0.25
 40
0.5
 40
0.5
 40
0.75
 40
0.75
 40
1.0
 40
1.0
 40
1.0
 40
1.0
 10
154.8349930221437
 20
102.0630291090576
 30
0.0
 10
154.9574611100626
 20
102.0630291090576
 30
0.0
 10
155.0776721889314
 20
102.0526920893377
 30
0.0
 10
155.2978785081841
 20
102.0152248607597
 30
0.0
 10
155.3975339608821
 20
101.9880936924705
 30
0.0
 10
155.5605213138379
 20
101.9253266462636
 30
0.0
 10
155.6252586745844
 20
101.8892629523367
 30
0.0
 10
155.7120940247014
 20
101.8160702824686
 30
0.0
 10
155.7349930221437
 20
101.7785274969577
 30
0.0
 10
155.7349930221437
 20
101.7428198527762
 30
0.0
  0
LINE
  5
168
330
1F
100
AcDbEntity
  8
0
  6
HIDDEN
 62
     7
370
     0
100
AcDbLine
 10
150.5849926168
 20
102.0873064556
 30
0.0
 11
150.5849926168
 21
121.4831179389
 31
0.0
  0
SPLINE
  5
169
330
1F
100
AcDbEntity
  8
0
  6
HIDDEN
 62
     7
370
     0
100
AcDbSpline
210
0.0
220
0.0
230
1.0
 70
     8
 71
     3
 72
    28
 73
    24
 74
     0
 42
0.00000001
 43
0.00000001
 12
1.0
 22
0.0
 32
0.0
 13
1.0
 23
0.0
 33
0.0
 40
0.0
 40
0.0
 40
0.0
 40
0.0
 40
0.1249999999999994
 40
0.1249999999999994
 40
0.1874999999999993
 40
0.1874999999999993
 40
0.2499999999999991
 40
0.2499999999999991
 40
0.3749999999999979
 40
0.3749999999999979
 40
0.4374999999999975
 40
0.4374999999999975
 40
0.499999999999997
 40
0.499999999999997
 40
0.6249999999999978
 40
0.6249999999999978
 40
0.7499999999999986
 40
0.7499999999999986
 40
0.8124999999999989
 40
0.8124999999999989
 40
0.8749999999999992
 40
0.8749999999999992
 40
1.0
 40
1.0
 40
1.0
 40
1.0
 10
210.9236454202886
 20
111.7852121972328
 30
0.0
 10
210.9656805260427
 20
111.4085694256269
 30
0.0
 10
210.9590693035624
 20
111.0349200680025
 30
0.0
 10
210.8770823822556
 20
110.4788606600252
 30
0.0
 10
210.8371274096378
 20
110.2930951140611
 30
0.0
 10
210.734385624803
 20
109.9332254084102
 30
0.0
 10
210.6716162860767
 20
109.758164976447
 30
0.0
 10
210.4494070791366
 20
109.2473500066897
 30
0.0
 10
210.2527563907223
 20
108.9223356219225
 30
0.0
 10
209.9035716527871
 20
108.4899565945262
 30
0.0
 10
209.7779030027041
 20
108.3540878545898
 30
0.0
 10
209.5077577597121
 20
108.0988853481924
 30
0.0
 10
209.3621139737753
 20
107.9788272494586
 30
0.0
 10
208.907387084376
 20
107.6529598360797
 30
0.0
 10
208.5795928713045
 20
107.4786407274219
 30
0.0
 10
207.8736519649302
 20
107.2158823996828
 30
0.0
 10
207.5078243325144
 20
107.1325152880298
 30
0.0
 10
206.9481610204461
 20
107.07859200665
 30
0.0
 10
206.7579053281255
 20
107.0725926640067
 30
0.0
 10
206.3817499588771
 20
107.0850826279439
 30
0.0
 10
206.195593413895
 20
107.1033265938854
 30
0.0
 10
205.6427446435241
 20
107.1932531251751
 30
0.0
 10
205.2768958085748
 20
107.3023125304057
 30
0.0
 10
204.9369168107903
 20
107.4541950820352
 30
0.0
  0
LINE
  5
16A
330
1F
100
AcDbEntity
  8
0
  6
HIDDEN
 62
     7
370
     0
100
AcDbLine
 10
204.9369184667
 20
93.7852129721
 30
0.0
 11
204.9369184667
 21
107.4541952842
 31
0.0
  0
ELLIPSE
  5
16B
330
1F
100
AcDbEntity
  8
0
  6
HIDDEN
 62
     7
370
     0
100
AcDbEllipse
 10
215.4905678735
 20
111.7852121972
 30
0.0
 11
5.858367632722064
 21
17.9980924972721
 31
0.0
210
0.0
220
0.0
230
1.0
 40
0.0447296713
 41
1.585354777640344
 42
3.156151104435568
  0
SPLINE
  5
16C
330
1F
100
AcDbEntity
  8
0
  6
HIDDEN
 62
     7
370
     0
100
AcDbSpline
210
0.0
220
0.0
230
1.0
 70
     8
 71
     3
 72
     8
 73
     4
 74
     0
 42
0.00000001
 43
0.00000001
 12
1.0
 22
0.0
 32
0.0
 13
1.0
 23
0.0
 33
0.0
 40
0.0
 40
0.0
 40
0.0
 40
0.0
 40
1.0
 40
1.0
 40
1.0
 40
1.0
 10
204.9369168107903
 20
107.4541950820352
 30
0.0
 10
204.8690119385955
 20
107.540568325949
 30
0.0
 10
204.8012265062614
 20
107.6308667543664
 30
0.0
 10
204.7335918604538
 20
107.7255019497385
 30
0.0
  0
SPLINE
  5
16D
330
1F
100
AcDbEntity
  8
0
  6
HIDDEN
 62
     7
370
     0
100
AcDbSpline
210
0.0
220
0.0
230
1.0
 70
     8
 71
     3
 72
    14
 73
    10
 74
     0
 42
0.00000001
 43
0.00000001
 12
1.0
 22
0.0
 32
0.0
 13
1.0
 23
0.0
 33
0.0
 40
0.0
 40
0.0
 40
0.0
 40
0.0
 40
0.2500000000000003
 40
0.2500000000000003
 40
0.5000000000000002
 40
0.5000000000000002
 40
0.7500000000000001
 40
0.7500000000000001
 40
1.0
 40
1.0
 40
1.0
 40
1.0
 10
204.7335918604538
 20
107.7255019497385
 30
0.0
 10
204.7000277115903
 20
107.7724653033167
 30
0.0
 10
204.6431832750083
 20
107.8304414523137
 30
0.0
 10
204.4988508983713
 20
107.9648237670032
 30
0.0
 10
204.4119100400572
 20
108.0409478903384
 30
0.0
 10
204.2299644885784
 20
108.2027900259074
 30
0.0
 10
204.1337289318206
 20
108.2896880324627
 30
0.0
 10
203.9475622130394
 20
108.4659817718767
 30
0.0
 10
203.8563368212755
 20
108.5563770981325
 30
0.0
 10
203.7676660341647
 20
108.649658943032
 30
0.0
  0
LINE
  5
16E
330
1F
100
AcDbEntity
  8
0
  6
HIDDEN
 62
     7
370
     0
100
AcDbLine
 10
150.0294624264
 20
100.3202960276
 30
0.0
 11
149.7618375713
 21
100.5717801311
 31
0.0
  0
LINE
  5
16F
330
1F
100
AcDbEntity
  8
0
  6
HIDDEN
 62
     7
370
     0
100
AcDbLine
 10
153.2349927718
 20
122.7852121376
 30
0.0
 11
153.2349927718
 21
125.3427366176
 31
0.0
  0
LINE
  5
170
330
1F
100
AcDbEntity
  8
0
  6
HIDDEN
 62
     7
370
     0
100
AcDbLine
 10
155.7349931816
 20
100.7852122568
 30
0.0
 11
155.7349931816
 21
98.1484657534
 31
0.0
  0
LINE
  5
171
330
1F
100
AcDbEntity
  8
0
  6
HIDDEN
 62
     7
370
     0
100
AcDbLine
 10
150.5849926168
 20
122.7852121376
 30
0.0
 11
150.5849926168
 21
124.665212483
 31
0.0
  0
LINE
  5
172
330
1F
100
AcDbEntity
  8
0
  6
HIDDEN
 62
     7
370
     0
100
AcDbLine
 10
149.6349932993
 20
122.7852121376
 30
0.0
 11
149.6349932993
 21
123.7152122342
 31
0.0
  0
LINE
  5
173
330
1F
100
AcDbEntity
  8
0
  6
HIDDEN
 62
     7
370
     0
100
AcDbLine
 10
150.6439937646
 20
100.7852122568
 30
0.0
 11
150.6439937646
 21
98.9052119114
 31
0.0
  0
LINE
  5
174
330
1F
100
AcDbEntity
  8
0
  6
HIDDEN
 62
     7
370
     0
100
AcDbLine
 10
149.6349932993
 20
100.7852122568
 30
0.0
 11
149.6349932993
 21
99.9142123767
 31
0.0
  0
LINE
  5
175
330
1F
100
AcDbEntity
  8
0
  6
HIDDEN
 62
     7
370
     0
100
AcDbLine
 10
182.8349927807
 20
118.0352122904
 30
0.0
 11
182.8349927807
 21
105.5352121041
 31
0.0
  0
LINE
  5
176
330
1F
100
AcDbEntity
  8
0
  6
HIDDEN
 62
     7
370
     0
100
AcDbLine
 10
185.3349922592
 20
118.0352122904
 30
0.0
 11
185.3349922592
 21
105.5352121041
 31
0.0
  0
CIRCLE
  5
177
330
1F
100
AcDbEntity
  8
0
  6
HIDDEN
 62
     7
370
     0
100
AcDbCircle
 10
208.6843640013
 20
114.55653736
 30
0.0
 40
3.466781578331233
  0
LINE
  5
178
330
1F
100
AcDbEntity
  8
0
  6
HIDDEN
 62
     7
370
     0
100
AcDbLine
 10
177.9849926377
 20
117.2852121674
 30
0.0
 11
177.9849926377
 21
106.285212227
 31
0.0
  0
LINE
  5
179
330
1F
100
AcDbEntity
  8
0
  6
HIDDEN
 62
     7
370
     0
100
AcDbLine
 10
177.4849934871
 20
105.7852121451
 30
0.0
 11
177.4849934871
 21
117.7852122494
 31
0.0
  0
LINE
  5
17A
330
1F
100
AcDbEntity
  8
0
  6
HIDDEN
 62
     7
370
     0
100
AcDbLine
 10
184.5302150021
 20
94.8852129661
 30
0.0
 11
181.9849932933
 21
94.8852129661
 31
0.0
  0
LINE
  5
17B
330
1F
100
AcDbEntity
  8
0
  6
HIDDEN
 62
     7
370
     0
100
AcDbLine
 10
184.4949933136
 20
94.6723331147
 30
0.0
 11
184.4949933136
 21
94.3560894959
 31
0.0
  0
LINE
  5
17C
330
1F
100
AcDbEntity
  8
0
  6
HIDDEN
 62
     7
370
     0
100
AcDbLine
 10
189.4849935914
 20
94.8852129661
 30
0.0
 11
186.5397697682
 21
94.8852129661
 31
0.0
  0
LINE
  5
17D
330
1F
100
AcDbEntity
  8
0
  6
HIDDEN
 62
     7
370
     0
100
AcDbLine
 10
186.574992388
 20
94.3560894959
 30
0.0
 11
186.574992388
 21
94.6723331147
 31
0.0
  0
LINE
  5
17E
330
1F
100
AcDbEntity
  8
0
  6
HIDDEN
 62
     7
370
     0
100
AcDbLine
 10
189.4849935914
 20
94.8852129661
 30
0.0
 11
189.4849935914
 21
93.1811795019
 31
0.0
  0
LINE
  5
17F
330
1F
100
AcDbEntity
  8
0
  6
HIDDEN
 62
     7
370
     0
100
AcDbLine
 10
177.4849934871
 20
91.8102279686
 30
0.0
 11
177.4849934871
 21
94.8852129661
 31
0.0
  0
LINE
  5
180
330
1F
100
AcDbEntity
  8
0
  6
HIDDEN
 62
     7
370
     0
100
AcDbLine
 10
181.9849932933
 20
94.8852129661
 30
0.0
 11
177.4849934871
 21
94.8852129661
 31
0.0
  0
LINE
  5
181
330
1F
100
AcDbEntity
  8
0
  6
HIDDEN
 62
     7
370
     0
100
AcDbLine
 10
182.8349927807
 20
106.285212227
 30
0.0
 11
182.8349927807
 21
117.2852121674
 31
0.0
  0
ARC
  5
182
330
1F
100
AcDbEntity
  8
0
  6
HIDDEN
 62
     7
370
     0
100
AcDbCircle
 10
203.6878012594
 20
120.3743116777
 30
0.0
 40
2.08783123711368
100
AcDbArc
 50
122.7600446288
 51
287.5316681313
  0
LINE
  5
183
330
1F
100
AcDbEntity
  8
0
  6
HIDDEN
 62
     7
370
     0
100
AcDbLine
 10
219.6899360413
 20
124.2939174556
 30
0.0
 11
218.7261848146
 21
122.7016520136
 31
0.0
  0
ELLIPSE
  5
184
330
1F
100
AcDbEntity
  8
0
  6
HIDDEN
 62
     7
370
     0
100
AcDbEllipse
 10
147.5292262824
 20
111.7852121972
 30
0.0
 11
12.26424774976729
 21
-2.842170943040401E-14
 31
0.0
210
0.0
220
0.0
230
1.0
 40
0.8164965809
 41
4.884943637108984
 42
4.964202354313272
  0
LINE
  5
185
330
1F
100
AcDbEntity
  8
0
  6
HIDDEN
 62
     7
370
     0
100
AcDbLine
 10
149.6349932993
 20
100.7852122568
 30
0.0
 11
149.6349932993
 21
101.9202057653
 31
0.0
  0
ELLIPSE
  5
186
330
1F
100
AcDbEntity
  8
0
  6
HIDDEN
 62
     7
370
     0
100
AcDbEllipse
 10
147.5292262824
 20
111.7852121972
 30
0.0
 11
12.26424774976726
 21
0.0
 31
0.0
210
0.0
220
0.0
230
1.0
 40
0.8164965809
 41
1.318982952866327
 42
1.398241670070618
  0
LINE
  5
187
330
1F
100
AcDbEntity
  8
0
  6
HIDDEN
 62
     7
370
     0
100
AcDbLine
 10
149.6349932993
 20
122.7852121376
 30
0.0
 11
149.6349932993
 21
121.6502186292
 31
0.0
  0
LINE
  5
188
330
1F
100
AcDbEntity
  8
0
  6
HIDDEN
 62
     7
370
     0
100
AcDbLine
 10
184.7433369974
 20
128.6852114283
 30
0.0
 11
181.9849932933
 21
128.6852114283
 31
0.0
  0
LINE
  5
189
330
1F
100
AcDbEntity
  8
0
  6
HIDDEN
 62
     7
370
     0
100
AcDbLine
 10
184.4949933136
 20
129.1878164195
 30
0.0
 11
184.4949933136
 21
129.4988893353
 31
0.0
  0
LINE
  5
18A
330
1F
100
AcDbEntity
  8
0
  6
HIDDEN
 62
     7
370
     0
100
AcDbLine
 10
189.4850550587
 20
128.6852114283
 30
0.0
 11
186.3266477728
 21
128.6852114283
 31
0.0
  0
LINE
  5
18B
330
1F
100
AcDbEntity
  8
0
  6
HIDDEN
 62
     7
370
     0
100
AcDbLine
 10
189.4849935914
 20
128.6967467897
 30
0.0
 11
189.4849935914
 21
130.6560892993
 31
0.0
  0
LINE
  5
18C
330
1F
100
AcDbEntity
  8
0
  6
HIDDEN
 62
     7
370
     0
100
AcDbLine
 10
186.574992388
 20
129.4988893353
 30
0.0
 11
186.574992388
 21
129.1878164195
 31
0.0
  0
LINE
  5
18D
330
1F
100
AcDbEntity
  8
0
  6
HIDDEN
 62
     7
370
     0
100
AcDbLine
 10
181.9849932933
 20
128.6852114283
 30
0.0
 11
177.4849934871
 21
128.6852114283
 31
0.0
  0
LINE
  5
18E
330
1F
100
AcDbEntity
  8
0
  6
HIDDEN
 62
     7
370
     0
100
AcDbLine
 10
153.2349927718
 20
122.7852121376
 30
0.0
 11
153.2349927718
 21
121.8094021463
 31
0.0
  0
LINE
  5
18F
330
1F
100
AcDbEntity
  8
0
  6
HIDDEN
 62
     7
370
     0
100
AcDbLine
 10
150.5849926168
 20
122.7852121376
 30
0.0
 11
150.5849926168
 21
121.4831179389
 31
0.0
  0
LINE
  5
190
330
1F
100
AcDbEntity
  8
0
  6
HIDDEN
 62
     7
370
     0
100
AcDbLine
 10
155.7349931816
 20
100.7852122568
 30
0.0
 11
155.7349931816
 21
101.7428195485
 31
0.0
  0
LINE
  5
191
330
1F
100
AcDbEntity
  8
0
  6
HIDDEN
 62
     7
370
     0
100
AcDbLine
 10
150.6439937646
 20
100.7852122568
 30
0.0
 11
150.6439937646
 21
102.0630287387
 31
0.0
  0
SPLINE
  5
192
330
1F
100
AcDbEntity
  8
0
  6
HIDDEN
 62
     7
370
     0
100
AcDbSpline
210
0.0
220
0.0
230
1.0
 70
     8
 71
     3
 72
    14
 73
    10
 74
     0
 42
0.00000001
 43
0.00000001
 12
1.0
 22
0.0
 32
0.0
 13
1.0
 23
0.0
 33
0.0
 40
0.0
 40
0.0
 40
0.0
 40
0.0
 40
0.25
 40
0.25
 40
0.5
 40
0.5
 40
0.75
 40
0.75
 40
1.0
 40
1.0
 40
1.0
 40
1.0
 10
203.7676660341647
 20
114.3238396076205
 30
0.0
 10
203.8505394406789
 20
114.41915492796
 30
0.0
 10
203.9372835617452
 20
114.5104919277467
 30
0.0
 10
204.1196101224863
 20
114.6839589090459
 30
0.0
 10
204.2157118688612
 20
114.7661532887648
 30
0.0
 10
204.4031073438755
 20
114.9077369396912
 30
0.0
 10
204.4929780524151
 20
114.966023878749
 30
0.0
 10
204.6441800735765
 20
115.0486605773118
 30
0.0
 10
204.7007181320959
 20
115.0707592222247
 30
0.0
 10
204.7335918604591
 20
115.0765671205487
 30
0.0
  0
SPLINE
  5
193
330
1F
100
AcDbEntity
  8
0
  6
HIDDEN
 62
     7
370
     0
100
AcDbSpline
210
0.0
220
0.0
230
1.0
 70
     8
 71
     3
 72
    36
 73
    32
 74
     0
 42
0.00000001
 43
0.00000001
 12
1.0
 22
0.0
 32
0.0
 13
1.0
 23
0.0
 33
0.0
 40
0.0
 40
0.0
 40
0.0
 40
0.0
 40
0.1249999999999991
 40
0.1249999999999991
 40
0.2499999999999981
 40
0.2499999999999981
 40
0.3124999999999977
 40
0.3124999999999977
 40
0.3749999999999972
 40
0.3749999999999972
 40
0.4374999999999967
 40
0.4374999999999967
 40
0.4687499999999963
 40
0.4687499999999963
 40
0.4999999999999961
 40
0.4999999999999961
 40
0.5312499999999958
 40
0.5312499999999958
 40
0.5624999999999956
 40
0.5624999999999956
 40
0.6249999999999962
 40
0.6249999999999962
 40
0.687499999999997
 40
0.687499999999997
 40
0.7499999999999978
 40
0.7499999999999978
 40
0.8749999999999992
 40
0.8749999999999992
 40
0.9374999999999997
 40
0.9374999999999997
 40
1.0
 40
1.0
 40
1.0
 40
1.0
 10
211.6096137986398
 20
115.4821142012286
 30
0.0
 10
211.668113916467
 20
115.5787652907715
 30
0.0
 10
211.690736845346
 20
115.7325219144495
 30
0.0
 10
211.6841972087534
 20
116.10049292983
 30
0.0
 10
211.6539817096183
 20
116.3174349918374
 30
0.0
 10
211.5517993317314
 20
116.6739531221765
 30
0.0
 10
211.5081323020051
 20
116.7982152275562
 30
0.0
 10
211.3925969196912
 20
117.0584141894989
 30
0.0
 10
211.3207875965252
 20
117.1947478849967
 30
0.0
 10
211.1315392477783
 20
117.4770312875598
 30
0.0
 10
211.0147414178155
 20
117.6238549526883
 30
0.0
 10
210.7739068231932
 20
117.8451128020655
 30
0.0
 10
210.6804925460156
 20
117.9203122423438
 30
0.0
 10
210.4669441562538
 20
118.0616309097112
 30
0.0
 10
210.3452786084147
 20
118.1281766265322
 30
0.0
 10
210.0875312361487
 20
118.2375634322674
 30
0.0
 10
209.9525147606547
 20
118.2798837521857
 30
0.0
 10
209.6945176321011
 20
118.3379707642761
 30
0.0
 10
209.5740099588255
 20
118.3541611958864
 30
0.0
 10
209.2284109697588
 20
118.3793903397278
 30
0.0
 10
209.0327312856551
 20
118.3655233974662
 30
0.0
 10
208.6727880166316
 20
118.3144819933711
 30
0.0
 10
208.5121792186591
 20
118.2762787194789
 30
0.0
 10
208.2179557650462
 20
118.1883082640075
 30
0.0
 10
208.0853006844096
 20
118.1385716361168
 30
0.0
 10
207.7192375320673
 20
117.9809759153221
 30
0.0
 10
207.5166249350822
 20
117.864746154563
 30
0.0
 10
207.2708059634728
 20
117.6929503805002
 30
0.0
 10
207.1987893362792
 20
117.6358592879131
 30
0.0
 10
207.0809443293568
 20
117.5268446236357
 30
0.0
 10
207.034752803643
 20
117.47477533222
 30
0.0
 10
207.005620954285
 20
117.426645087608
 30
0.0
  0
ELLIPSE
  5
194
330
1F
100
AcDbEntity
  8
0
  6
HIDDEN
 62
     7
370
     0
100
AcDbEllipse
 10
211.3964836509
 20
121.0237139241
 30
0.0
 11
3.440412096721786
 21
1.586775504002276
 31
0.0
210
0.0
220
0.0
230
1.0
 40
0.1360681752
 41
6.084526460036074
 42
9.226119113625778
  0
SPLINE
  5
195
330
1F
100
AcDbEntity
  8
0
  6
HIDDEN
 62
     7
370
     0
100
AcDbSpline
210
0.0
220
0.0
230
1.0
 70
     8
 71
     3
 72
    11
 73
     7
 74
     0
 42
0.00000001
 43
0.00000001
 12
1.0
 22
0.0
 32
0.0
 13
1.0
 23
0.0
 33
0.0
 40
0.0
 40
0.0
 40
0.0
 40
0.0
 40
0.2868388878419543
 40
0.5735897177598068
 40
0.864893248584386
 40
1.0
 40
1.0
 40
1.0
 40
1.0
 10
206.9582907850145
 20
130.3476594769245
 30
0.0
 10
206.6950554076071
 20
130.49992736043
 30
0.0
 10
206.1686654645716
 20
130.8044163820577
 30
0.0
 10
205.6882228686731
 20
131.368681182327
 30
0.0
 10
205.514759596464
 20
131.9075583975118
 30
0.0
 10
205.6471202486256
 20
132.3035709083606
 30
0.0
 10
205.6890583032965
 20
132.4290462219005
 30
0.0
  0
SPLINE
  5
196
330
1F
100
AcDbEntity
  8
0
  6
HIDDEN
 62
     7
370
     0
100
AcDbSpline
210
0.0
220
0.0
230
1.0
 70
     8
 71
     3
 72
     8
 73
     4
 74
     0
 42
0.00000001
 43
0.00000001
 12
1.0
 22
0.0
 32
0.0
 13
1.0
 23
0.0
 33
0.0
 40
0.0
 40
0.0
 40
0.0
 40
0.0
 40
1.0
 40
1.0
 40
1.0
 40
1.0
 10
204.7335918604538
 20
115.0765671205449
 30
0.0
 10
204.829017571472
 20
115.0934262617101
 30
0.0
 10
204.9237420129984
 20
115.1001902142906
 30
0.0
 10
205.0179531935511
 20
115.0986716237009
 30
0.0
  0
SPLINE
  5
197
330
1F
100
AcDbEntity
  8
0
  6
HIDDEN
 62
     7
370
     0
100
AcDbSpline
210
0.0
220
0.0
230
1.0
 70
     8
 71
     3
 72
    10
 73
     6
 74
     0
 42
0.00000001
 43
0.00000001
 12
1.0
 22
0.0
 32
0.0
 13
1.0
 23
0.0
 33
0.0
 40
0.0
 40
0.0
 40
0.0
 40
0.0
 40
0.5
 40
0.5
 40
1.0
 40
1.0
 40
1.0
 40
1.0
 10
206.9438193467865
 20
129.8332890065047
 30
0.0
 10
206.4818618276768
 20
127.3983608850382
 30
0.0
 10
206.063579158866
 20
124.9569761882307
 30
0.0
 10
205.3908827914027
 20
120.0499815861806
 30
0.0
 10
205.1385181528807
 20
117.5840687626447
 30
0.0
 10
205.0179531935511
 20
115.0986716237009
 30
0.0
  0
SPLINE
  5
198
330
1F
100
AcDbEntity
  8
0
  6
HIDDEN
 62
     7
370
     0
100
AcDbSpline
210
0.0
220
0.0
230
1.0
 70
     8
 71
     3
 72
     8
 73
     4
 74
     0
 42
0.00000001
 43
0.00000001
 12
1.0
 22
0.0
 32
0.0
 13
1.0
 23
0.0
 33
0.0
 40
0.0
 40
0.0
 40
0.0
 40
0.0
 40
1.0
 40
1.0
 40
1.0
 40
1.0
 10
206.9438193467865
 20
129.8332890065047
 30
0.0
 10
206.9486728977745
 20
130.0071826144813
 30
0.0
 10
206.9534964115115
 20
130.1786290766142
 30
0.0
 10
206.9582903936443
 20
130.3476595821712
 30
0.0
  0
SPLINE
  5
199
330
1F
100
AcDbEntity
  8
0
  6
HIDDEN
 62
     7
370
     0
100
AcDbSpline
210
0.0
220
0.0
230
1.0
 70
     8
 71
     3
 72
    35
 73
    31
 74
     0
 42
0.00000001
 43
0.00000001
 12
1.0
 22
0.0
 32
0.0
 13
1.0
 23
0.0
 33
0.0
 40
-0.0968759714487821
 40
-0.0666637413374084
 40
-0.0343786692022899
 40
0.0
 40
0.0402501655263774
 40
0.0744868223008614
 40
0.1027071321038525
 40
0.1249179508766861
 40
0.1620537620836248
 40
0.203686623766072
 40
0.2499064447776652
 40
0.2843401084296459
 40
0.3106265058353948
 40
0.3287516660583759
 40
0.3698185614136895
 40
0.4071583507675718
 40
0.4519490945089974
 40
0.5000414664482432
 40
0.5203026886967941
 40
0.5628788326114099
 40
0.5977565701864164
 40
0.6256573753262833
 40
0.6860513535191475
 40
0.7499481360755155
 40
0.7710338114755015
 40
0.8124324596666956
 40
0.8472054374260627
 40
0.8749589221790406
 40
0.9031240285512178
 40
0.9333362586625915
 40
0.96562133079771
 40
0.9999999999999999
 40
1.040250165526377
 40
1.074486822300861
 40
1.102707132103852
 10
161.3787668030883
 20
97.5443662852865
 30
0.0
 10
161.6174295931016
 20
97.58093374477845
 30
0.0
 10
161.9638639115413
 20
97.62134454733287
 30
0.0
 10
162.3686239981265
 20
97.65071832827967
 30
0.0
 10
162.742222417633
 20
97.66792550881497
 30
0.0
 10
163.1508532025495
 20
97.67311830686678
 30
0.0
 10
163.6409199449971
 20
97.648189991312
 30
0.0
 10
164.239310251735
 20
97.58737308895712
 30
0.0
 10
164.7744364545756
 20
97.49986031374321
 30
0.0
 10
165.1686927609446
 20
97.41610348954717
 30
0.0
 10
165.4086217865689
 20
97.3582209215654
 30
0.0
 10
165.6224035351267
 20
97.30020806153694
 30
0.0
 10
165.7901713514272
 20
97.25367386628201
 30
0.0
 10
165.8606349724435
 20
97.23161292956623
 30
0.0
 10
165.7711097801088
 20
97.26038966548752
 30
0.0
 10
165.5382732858495
 20
97.32195185478695
 30
0.0
 10
165.2188391333843
 20
97.40589252452406
 30
0.0
 10
164.8667475887884
 20
97.48088517410677
 30
0.0
 10
164.4190470305156
 20
97.55865986793593
 30
0.0
 10
163.8521734953422
 20
97.63554425831339
 30
0.0
 10
163.0993232833851
 20
97.68083346906894
 30
0.0
 10
162.4281518361239
 20
97.66335996491915
 30
0.0
 10
161.9433587461989
 20
97.6185908534371
 30
0.0
 10
161.62900204126
 20
97.58304161944625
 30
0.0
 10
161.394168088169
 20
97.54735587140404
 30
0.0
 10
161.2692297620987
 20
97.52457382103564
 30
0.0
 10
161.222405455584
 20
97.51759537012566
 30
0.0
 10
161.2539190877795
 20
97.5245539361754
 30
0.0
 10
161.3787668030883
 20
97.5443662852865
 30
0.0
 10
161.6174295931016
 20
97.58093374477845
 30
0.0
 10
161.9638639115413
 20
97.62134454733287
 30
0.0
  0
SPLINE
  5
19A
330
1F
100
AcDbEntity
  8
0
  6
HIDDEN
 62
     7
370
     0
100
AcDbSpline
210
0.0
220
0.0
230
1.0
 70
     8
 71
     3
 72
    35
 73
    31
 74
     0
 42
0.00000001
 43
0.00000001
 12
1.0
 22
0.0
 32
0.0
 13
1.0
 23
0.0
 33
0.0
 40
-0.1243198177515347
 40
-0.1014877469671309
 40
-0.0608367563980153
 40
0.0
 40
0.0343712166263974
 40
0.0666387492005671
 40
0.0968233043261481
 40
0.1249505753809243
 40
0.1526662634914465
 40
0.1874715367338337
 40
0.2288808094622375
 40
0.2500284990771094
 40
0.3139875781773871
 40
0.3744836764365422
 40
0.4023317405704667
 40
0.4371113310319799
 40
0.4795885132761254
 40
0.4997903583980334
 40
0.547990721849227
 40
0.5929884342251965
 40
0.6398023656133756
 40
0.6945155365638733
 40
0.7285101556289393
 40
0.7625224506971623
 40
0.7965528224365899
 40
0.8145532956158393
 40
0.8337228321528827
 40
0.854090428075626
 40
0.8756801822484653
 40
0.8985122530328691
 40
0.9391632436019847
 40
1.0
 40
1.034371216626397
 40
1.066638749200567
 40
1.096823304326148
 10
162.1343077080545
 20
125.931391380264
 30
0.0
 10
161.6628816515746
 20
125.982282055903
 30
0.0
 10
161.3789879480443
 20
126.0259996438923
 30
0.0
 10
161.2540367121032
 20
126.045805264143
 30
0.0
 10
161.2224247526395
 20
126.0527904376863
 30
0.0
 10
161.2689115901265
 20
126.0458474127263
 30
0.0
 10
161.3933722129337
 20
126.0230643565069
 30
0.0
 10
161.627721931977
 20
125.9873927929698
 30
0.0
 10
161.94201514761
 20
125.9518427722816
 30
0.0
 10
162.4269408294783
 20
125.9070717906783
 30
0.0
 10
163.0988953134746
 20
125.889586356489
 30
0.0
 10
163.8521726562688
 20
125.9348240718823
 30
0.0
 10
164.4186567032714
 20
126.0115557331025
 30
0.0
 10
164.8652501903028
 20
126.089167654025
 30
0.0
 10
165.2166380130629
 20
126.1639918204063
 30
0.0
 10
165.5365299404945
 20
126.2479492026057
 30
0.0
 10
165.77059940293
 20
126.3095371022886
 30
0.0
 10
165.8673638844265
 20
126.3409390787225
 30
0.0
 10
165.7618978615359
 20
126.3069177160813
 30
0.0
 10
165.4624643246069
 20
126.2241625321452
 30
0.0
 10
165.0630185021006
 20
126.1343720676178
 30
0.0
 10
164.6622531382125
 20
126.0612188497124
 30
0.0
 10
164.282304468781
 20
125.9939832705988
 30
0.0
 10
163.9513187859242
 20
125.9462444322397
 30
0.0
 10
163.6762348270793
 20
125.9214712739999
 30
0.0
 10
163.3810001676643
 20
125.9051613399487
 30
0.0
 10
163.0702655467744
 20
125.8983996013635
 30
0.0
 10
162.6736830230581
 20
125.9004239609426
 30
0.0
 10
162.1343077080545
 20
125.931391380264
 30
0.0
 10
161.6628816515746
 20
125.982282055903
 30
0.0
 10
161.3789879480443
 20
126.0259996438923
 30
0.0
  0
LINE
  5
19B
330
1F
100
AcDbEntity
  8
0
  6
HIDDEN
 62
     7
370
     0
100
AcDbLine
 10
208.9236682648
 20
132.4862089389
 30
0.0
 11
209.8874194915
 21
134.0784743809
 31
0.0
  0
LINE
  5
19C
330
1F
100
AcDbEntity
  8
0
  6
HIDDEN
 62
     7
370
     0
100
AcDbLine
 10
194.5349933947
 20
111.7485504658
 30
0.0
 11
194.5349933947
 21
109.2852122531
 31
0.0
  0
SPLINE
  5
19D
330
1F
100
AcDbEntity
  8
0
  6
HIDDEN
 62
     7
370
     0
100
AcDbSpline
210
0.0
220
0.0
230
1.0
 70
     8
 71
     3
 72
    12
 73
     8
 74
     0
 42
0.00000001
 43
0.00000001
 12
1.0
 22
0.0
 32
0.0
 13
1.0
 23
0.0
 33
0.0
 40
0.0
 40
0.0
 40
0.0
 40
0.0
 40
0.5
 40
0.5
 40
0.75
 40
0.75
 40
1.0
 40
1.0
 40
1.0
 40
1.0
 10
194.5349930221437
 20
110.5792891116832
 30
0.0
 10
194.5947118794346
 20
110.7893854151332
 30
0.0
 10
194.6348992137019
 20
111.0226866258316
 30
0.0
 10
194.6350396656816
 20
111.357725545374
 30
0.0
 10
194.6255135184119
 20
111.463780316786
 30
0.0
 10
194.5901930542397
 20
111.6589299871595
 30
0.0
 10
194.5648768745767
 20
111.7458703401309
 30
0.0
 10
194.5349930221437
 20
111.8218739281625
 30
0.0
  0
LINE
  5
19E
330
1F
100
AcDbEntity
  8
0
  6
HIDDEN
 62
     7
370
     0
100
AcDbLine
 10
194.5349933947
 20
111.8218739287
 30
0.0
 11
194.5349933947
 21
114.2852121414
 31
0.0
  0
SPLINE
  5
19F
330
1F
100
AcDbEntity
  8
0
  6
HIDDEN
 62
     7
370
     0
100
AcDbSpline
210
0.0
220
0.0
230
1.0
 70
     8
 71
     3
 72
    64
 73
    60
 74
     0
 42
0.00000001
 43
0.00000001
 12
1.0
 22
0.0
 32
0.0
 13
1.0
 23
0.0
 33
0.0
 40
0.0
 40
0.0
 40
0.0
 40
0.0
 40
0.0625000000000005
 40
0.0625000000000005
 40
0.0937500000000005
 40
0.0937500000000005
 40
0.1250000000000004
 40
0.1250000000000004
 40
0.1562500000000004
 40
0.1562500000000004
 40
0.1875000000000004
 40
0.1875000000000004
 40
0.2187500000000004
 40
0.2187500000000004
 40
0.2500000000000003
 40
0.2500000000000003
 40
0.2812500000000003
 40
0.2812500000000003
 40
0.3125000000000003
 40
0.3125000000000003
 40
0.3437500000000003
 40
0.3437500000000003
 40
0.3750000000000003
 40
0.3750000000000003
 40
0.4062500000000004
 40
0.4062500000000004
 40
0.4375000000000004
 40
0.4375000000000004
 40
0.4687500000000004
 40
0.4687500000000004
 40
0.5000000000000003
 40
0.5000000000000003
 40
0.5312500000000003
 40
0.5312500000000003
 40
0.5625000000000003
 40
0.5625000000000003
 40
0.5937500000000003
 40
0.5937500000000003
 40
0.6250000000000003
 40
0.6250000000000003
 40
0.6562500000000003
 40
0.6562500000000003
 40
0.6875000000000003
 40
0.6875000000000003
 40
0.7187500000000003
 40
0.7187500000000003
 40
0.7500000000000003
 40
0.7500000000000003
 40
0.7812500000000004
 40
0.7812500000000004
 40
0.8125000000000004
 40
0.8125000000000004
 40
0.8437500000000003
 40
0.8437500000000003
 40
0.8750000000000002
 40
0.8750000000000002
 40
0.9375000000000001
 40
0.9375000000000001
 40
1.0
 40
1.0
 40
1.0
 40
1.0
 10
194.5349930221437
 20
111.8218739281655
 30
0.0
 10
194.4554304171125
 20
112.078933596875
 30
0.0
 10
194.3361688128085
 20
112.3136762798259
 30
0.0
 10
194.112772062715
 20
112.631752425487
 30
0.0
 10
194.0320805488965
 20
112.7301311377826
 30
0.0
 10
193.8583573283464
 20
112.9131878243071
 30
0.0
 10
193.7645684839656
 20
112.9984043761523
 30
0.0
 10
193.567312666991
 20
113.1512945743723
 30
0.0
 10
193.4638788584689
 20
113.219249572663
 30
0.0
 10
193.2441371591695
 20
113.3370332567891
 30
0.0
 10
193.1264914734621
 20
113.3874017075975
 30
0.0
 10
192.8772208484441
 20
113.4621778949853
 30
0.0
 10
192.7462364783636
 20
113.4861385446642
 30
0.0
 10
192.4781579876619
 20
113.4993931232028
 30
0.0
 10
192.3452925119736
 20
113.4885675459299
 30
0.0
 10
192.0855090202388
 20
113.4353415844256
 30
0.0
 10
191.9639988317727
 20
113.394526525459
 30
0.0
 10
191.7316721023793
 20
113.2910667460447
 30
0.0
 10
191.6215718259375
 20
113.2284038298689
 30
0.0
 10
191.4158384448521
 20
113.0881658176756
 30
0.0
 10
191.3191328811045
 20
113.010047064867
 30
0.0
 10
191.1358695813697
 20
112.8377973510854
 30
0.0
 10
191.049171173982
 20
112.7431767981544
 30
0.0
 10
190.8912126070814
 20
112.5430546870668
 30
0.0
 10
190.8191655076194
 20
112.4369102740315
 30
0.0
 10
190.689653451986
 20
112.2110083673878
 30
0.0
 10
190.6316665356233
 20
112.0896580389287
 30
0.0
 10
190.5370827678854
 20
111.8407364019426
 30
0.0
 10
190.5000103930817
 20
111.7129094338149
 30
0.0
 10
190.4487955818913
 20
111.4496826522698
 30
0.0
 10
190.4355726669948
 20
111.3180021530714
 30
0.0
 10
190.4344508318989
 20
111.0600309509104
 30
0.0
 10
190.4468872709088
 20
110.9312711879431
 30
0.0
 10
190.4957462328974
 20
110.6895800507991
 30
0.0
 10
190.5319751833536
 20
110.5752756737012
 30
0.0
 10
190.6258364333724
 20
110.360763780134
 30
0.0
 10
190.6821810933178
 20
110.2632119834159
 30
0.0
 10
190.8115952821381
 20
110.0842604955392
 30
0.0
 10
190.8849957681909
 20
110.0028974619218
 30
0.0
 10
191.0427374969184
 20
109.8592041877692
 30
0.0
 10
191.1276274832438
 20
109.7960149796165
 30
0.0
 10
191.3100338633098
 20
109.6843896813149
 30
0.0
 10
191.4082474005552
 20
109.6357715784267
 30
0.0
 10
191.614422820918
 20
109.5541334711374
 30
0.0
 10
191.7226954601686
 20
109.5207434348175
 30
0.0
 10
191.9542497437641
 20
109.4673402811191
 30
0.0
 10
192.0781354246247
 20
109.4474400558403
 30
0.0
 10
192.3352174454104
 20
109.4225867053173
 30
0.0
 10
192.4713725654757
 20
109.4175031966686
 30
0.0
 10
192.7368568367287
 20
109.4227181037211
 30
0.0
 10
192.8700354969745
 20
109.4330847141301
 30
0.0
 10
193.1183708733639
 20
109.4678179373865
 30
0.0
 10
193.2367024196725
 20
109.492383378695
 30
0.0
 10
193.4598703082267
 20
109.5555810293942
 30
0.0
 10
193.5639265487316
 20
109.593840440051
 30
0.0
 10
193.8598045544987
 20
109.7308048789807
 30
0.0
 10
194.0369475515785
 20
109.8532951207095
 30
0.0
 10
194.3325393128454
 20
110.162214432875
 30
0.0
 10
194.4552395243041
 20
110.3535485356794
 30
0.0
 10
194.5349930221429
 20
110.5792891116809
 30
0.0
  0
LINE
  5
1A0
330
1F
100
AcDbEntity
  8
0
  6
HIDDEN
 62
     7
370
     0
100
AcDbLine
 10
185.3349922592
 20
109.2852122531
 30
0.0
 11
185.3349922592
 21
114.2723855012
 31
0.0
  0
LINE
  5
1A1
330
1F
100
AcDbEntity
  8
0
  6
HIDDEN
 62
     7
370
     0
100
AcDbLine
 10
207.0056205983
 20
117.4266451419
 30
0.0
 11
206.5674556786
 21
116.7027281047
 31
0.0
  0
ELLIPSE
  5
1A2
330
1F
100
AcDbEntity
  8
0
  6
HIDDEN
 62
     7
370
     0
100
AcDbEllipse
 10
207.8392082117
 20
113.069480746
 30
0.0
 11
3.738204015186938
 21
-1.921056458613734
 31
0.0
210
0.0
220
0.0
230
1.0
 40
0.8435555064
 41
1.022163896444864
 42
2.297287737683272
  0
LINE
  5
1A3
330
1F
100
AcDbEntity
  8
0
  6
HIDDEN
 62
     7
370
     0
100
AcDbLine
 10
211.1714488263
 20
114.7581973494
 30
0.0
 11
211.6096137459
 21
115.4821141538
 31
0.0
  0
ELLIPSE
  5
1A4
330
1F
100
AcDbEntity
  8
0
  6
HIDDEN
 62
     7
370
     0
100
AcDbEllipse
 10
206.7262405316
 20
111.2306889128
 30
0.0
 11
-2.220506159017987
 21
-3.6686138007381
 31
0.0
210
0.0
220
0.0
230
1.0
 40
0.9794128731
 41
2.236305277096037
 42
4.111502518157861
  0
LWPOLYLINE
  5
1A5
330
1F
100
AcDbEntity
  8
0
  6
HIDDEN
 62
     7
370
     0
100
AcDbPolyline
 90
       41
 70
   128
 43
0.0
 10
208.707005381
 20
118.6394078106
 10
209.3604324753
 20
118.576558438
 10
209.9977663154
 20
118.4134098151
 10
210.603319704
 20
118.1539796674
 10
211.162180304
 20
117.8046554708
 10
211.660586893
 20
117.374038455
 10
212.0862646396
 20
116.8727326588
 10
212.428734302
 20
116.3130813659
 10
212.6795618231
 20
115.7088648909
 10
212.8325706715
 20
115.0749618103
 10
212.8839983041
 20
114.4269801591
 10
212.8325706715
 20
113.7808755887
 10
212.6795618231
 20
113.1525575331
 10
212.428734302
 20
112.5574970649
 10
212.0862646396
 20
112.0103466822
 10
211.660586893
 20
111.5245789845
 10
211.162180304
 20
111.1121552097
 10
210.603319704
 20
110.7832305281
 10
209.9977663154
 20
110.545904274
 10
209.3604324753
 20
110.4060200889
 10
208.707005381
 20
110.3670224695
 10
208.0535820121
 20
110.4298716093
 10
207.4162444467
 20
110.5930199995
 10
206.8106910581
 20
110.8524504382
 10
206.2518304581
 20
111.2017747512
 10
205.7534275944
 20
111.632391476
 10
205.3277498478
 20
112.1336974177
 10
204.9852801854
 20
112.6933487397
 10
204.7344526643
 20
113.2975650401
 10
204.5814400906
 20
113.9314683535
 10
204.530012458
 20
114.5794500046
 10
204.5814400906
 20
115.2255545751
 10
204.7344526643
 20
115.8538727471
 10
204.9852801854
 20
116.4489329242
 10
205.3277498478
 20
116.9960835398
 10
205.7534275944
 20
117.4818511502
 10
206.2518304581
 20
117.8942747795
 10
206.8106910581
 20
118.2231997521
 10
207.4162444467
 20
118.4605258898
 10
208.0535820121
 20
118.6004100748
 10
208.707005381
 20
118.6394078106
  0
LINE
  5
1A6
330
1F
100
AcDbEntity
  8
0
  6
HIDDEN
 62
     7
370
     0
100
AcDbLine
 10
211.1714488263
 20
114.7581973494
 30
0.0
 11
212.8559133405
 21
119.1089531788
 31
0.0
  0
LINE
  5
1A7
330
1F
100
AcDbEntity
  8
0
  6
HIDDEN
 62
     7
370
     0
100
AcDbLine
 10
215.6793183083
 20
125.1117015638
 30
0.0
 11
215.3554676468
 21
124.5766539507
 31
0.0
  0
LINE
  5
1A8
330
1F
100
AcDbEntity
  8
0
  6
HIDDEN
 62
     7
370
     0
100
AcDbLine
 10
215.6793183083
 20
125.1117015638
 30
0.0
 11
214.1033007199
 21
121.3162770876
 31
0.0
  0
LINE
  5
1A9
330
1F
100
AcDbEntity
  8
0
  6
HIDDEN
 62
     7
370
     0
100
AcDbLine
 10
214.8118397588
 20
122.4868927532
 30
0.0
 11
214.1033007199
 21
121.3162770876
 31
0.0
  0
LWPOLYLINE
  5
1AA
330
1F
100
AcDbEntity
  8
0
  6
HIDDEN
 62
     7
370
     0
100
AcDbPolyline
 90
       29
 70
   128
 43
0.0
 10
192.5349930668
 20
111.3407978412
 10
193.002287894
 20
111.2897104615
 10
193.4461487824
 20
111.1390099543
 10
193.844320848
 20
110.8962531
 10
194.1768383974
 20
110.5736127504
 10
194.4270270312
 20
110.1872674337
 10
194.5823418344
 20
109.7565902312
 10
194.6349932248
 20
109.3031767671
 10
194.5823418344
 20
108.8497635358
 10
194.4270270312
 20
108.4190862168
 10
194.1768383974
 20
108.0327407838
 10
193.844320848
 20
107.7101003759
 10
193.4461487824
 20
107.4673436963
 10
193.002287894
 20
107.3166431309
 10
192.5349930668
 20
107.2655558967
 10
192.0676982397
 20
107.3166431309
 10
191.6238373513
 20
107.4673436963
 10
191.2256652856
 20
107.7101003759
 10
190.8931477363
 20
108.0327407838
 10
190.6429591025
 20
108.4190862168
 10
190.4876442993
 20
108.8497635358
 10
190.4349929089
 20
109.3031767671
 10
190.4876442993
 20
109.7565902312
 10
190.6429591025
 20
110.1872674337
 10
190.8931477363
 20
110.5736127504
 10
191.2256652856
 20
110.8962531
 10
191.6238373513
 20
111.1390099543
 10
192.0676982397
 20
111.2897104615
 10
192.5349930668
 20
111.3407978412
  0
LINE
  5
1AB
330
1F
100
AcDbEntity
  8
0
  6
HIDDEN
 62
     7
370
     0
100
AcDbLine
 10
177.4849934871
 20
94.8852129661
 30
0.0
 11
181.9849932933
 21
94.8852129661
 31
0.0
  0
LINE
  5
1AC
330
1F
100
AcDbEntity
  8
0
  6
HIDDEN
 62
     7
370
     0
100
AcDbLine
 10
155.7349931816
 20
100.7852122568
 30
0.0
 11
155.7349931816
 21
98.1484657534
 31
0.0
  0
LINE
  5
1AD
330
1F
100
AcDbEntity
  8
0
  6
HIDDEN
 62
     7
370
     0
100
AcDbLine
 10
153.2349927718
 20
122.7852121376
 30
0.0
 11
153.2349927718
 21
125.3427366176
 31
0.0
  0
ARC
  5
1AE
330
1F
100
AcDbEntity
  8
0
  6
HIDDEN
 62
     7
370
     0
100
AcDbCircle
 10
214.1398484567
 20
127.8893731016
 30
0.0
 40
3.175756066740504
100
AcDbArc
 50
298.9965502141
 51
195.2091967399
  0
LINE
  5
1AF
330
1F
100
AcDbEntity
  8
0
  6
HIDDEN
 62
     7
370
     0
100
AcDbLine
 10
207.9227609927
 20
119.464106989
 30
0.0
 11
211.0753251607
 21
127.0562323191
 31
0.0
  0
ELLIPSE
  5
1B0
330
1F
100
AcDbEntity
  8
0
  6
HIDDEN
 62
     7
370
     0
100
AcDbEllipse
 10
165.7237331168
 20
113.5852121972
 30
0.0
 11
237.8586779710878
 21
-4.388194929981935
 31
0.0
210
0.0
220
0.0
230
1.0
 40
0.1034726254
 41
1.331588331451631
 42
1.332907312128212
  0
LINE
  5
1B1
330
1F
100
AcDbEntity
  8
0
  6
HIDDEN
 62
     7
370
     0
100
AcDbLine
 10
222.8847114736
 20
135.9284945213
 30
0.0
 11
222.5216744835
 21
136.4570964509
 31
0.0
  0
LINE
  5
1B2
330
1F
100
AcDbEntity
  8
0
  6
HIDDEN
 62
     7
370
     0
100
AcDbLine
 10
208.9236682648
 20
132.4862089389
 30
0.0
 11
222.2167855496
 21
136.4698592954
 31
0.0
  0
LINE
  5
1B3
330
1F
100
AcDbEntity
  8
0
  6
HIDDEN
 62
     7
370
     0
100
AcDbLine
 10
208.9236682648
 20
132.4862089389
 30
0.0
 11
206.0156433279
 21
123.2367359483
 31
0.0
  0
LINE
  5
1B4
330
1F
100
AcDbEntity
  8
0
  6
HIDDEN
 62
     7
370
     0
100
AcDbLine
 10
204.3167246873
 20
118.3834589467
 30
0.0
 11
207.9227609927
 21
119.464106989
 31
0.0
  0
LINE
  5
1B5
330
1F
100
AcDbEntity
  8
0
  6
HIDDEN
 62
     7
370
     0
100
AcDbLine
 10
214.1033007199
 20
121.3162770876
 30
0.0
 11
218.7261848146
 21
122.7016520136
 31
0.0
  0
LINE
  5
1B6
330
1F
100
AcDbEntity
  8
0
  6
HIDDEN
 62
     7
370
     0
100
AcDbLine
 10
222.8846853966
 20
135.9284777575
 30
0.0
 11
218.7261848146
 21
122.7016520136
 31
0.0
  0
LINE
  5
1B7
330
1F
100
AcDbEntity
  8
0
  6
HIDDEN
 62
     7
370
     0
100
AcDbLine
 10
186.574992388
 20
129.1878164195
 30
0.0
 11
186.574992388
 21
94.6723331147
 31
0.0
  0
SPLINE
  5
1B8
330
1F
100
AcDbEntity
  8
0
  6
HIDDEN
 62
     7
370
     0
100
AcDbSpline
210
0.0
220
0.0
230
1.0
 70
     8
 71
     3
 72
    10
 73
     6
 74
     0
 42
0.00000001
 43
0.00000001
 12
1.0
 22
0.0
 32
0.0
 13
1.0
 23
0.0
 33
0.0
 40
0.0
 40
0.0
 40
0.0
 40
0.0
 40
0.5
 40
0.5
 40
1.0
 40
1.0
 40
1.0
 40
1.0
 10
186.3266486363937
 20
128.6852121972327
 30
0.0
 10
186.4040766409423
 20
128.7431715036198
 30
0.0
 10
186.4672562578289
 20
128.8201561587379
 30
0.0
 10
186.55255143709
 20
128.9937262916103
 30
0.0
 10
186.5749930221437
 20
129.0906275540921
 30
0.0
 10
186.5749930221437
 20
129.1878161690526
 30
0.0
  0
SPLINE
  5
1B9
330
1F
100
AcDbEntity
  8
0
  6
HIDDEN
 62
     7
370
     0
100
AcDbSpline
210
0.0
220
0.0
230
1.0
 70
     8
 71
     3
 72
    10
 73
     6
 74
     0
 42
0.00000001
 43
0.00000001
 12
1.0
 22
0.0
 32
0.0
 13
1.0
 23
0.0
 33
0.0
 40
0.0
 40
0.0
 40
0.0
 40
0.0
 40
0.5
 40
0.5
 40
1.0
 40
1.0
 40
1.0
 40
1.0
 10
186.5397706215624
 20
94.88521219723278
 30
0.0
 10
186.5514827385255
 20
94.8508688600388
 30
0.0
 10
186.5602808083976
 20
94.81577632230056
 30
0.0
 10
186.5720943661696
 20
94.74410454690984
 30
0.0
 10
186.5749930221437
 20
94.70816089254457
 30
0.0
 10
186.5749930221437
 20
94.67233327520447
 30
0.0
  0
SPLINE
  5
1BA
330
1F
100
AcDbEntity
  8
0
  6
HIDDEN
 62
     7
370
     0
100
AcDbSpline
210
0.0
220
0.0
230
1.0
 70
    24
 71
     3
 72
    12
 73
     8
 74
     0
 42
0.00000001
 43
0.00000001
 12
1.0
 22
0.0
 32
0.0
 13
1.0
 23
0.0
 33
0.0
 40
0.0
 40
0.0
 40
0.0
 40
0.0
 40
0.25
 40
0.25
 40
0.5
 40
0.5
 40
1.0
 40
1.0
 40
1.0
 40
1.0
 10
185.9749930221437
 20
128.6852121972327
 30
0.0
 10
186.0267099400532
 20
128.6852121972327
 30
0.0
 10
186.0737977281918
 20
128.6852121972327
 30
0.0
 10
186.146861722867
 20
128.6852121972327
 30
0.0
 10
186.1764906301528
 20
128.6852121972327
 30
0.0
 10
186.2550639746778
 20
128.6852121972327
 30
0.0
 10
186.2930278429102
 20
128.6852121972327
 30
0.0
 10
186.3266486363937
 20
128.6852121972327
 30
0.0
  0
SPLINE
  5
1BB
330
1F
100
AcDbEntity
  8
0
  6
HIDDEN
 62
     7
370
     0
100
AcDbSpline
210
0.0
220
0.0
230
1.0
 70
    24
 71
     3
 72
    16
 73
    12
 74
     0
 42
0.00000001
 43
0.00000001
 12
1.0
 22
0.0
 32
0.0
 13
1.0
 23
0.0
 33
0.0
 40
0.0
 40
0.0
 40
0.0
 40
0.0
 40
0.0625000000000002
 40
0.0625000000000002
 40
0.1250000000000004
 40
0.1250000000000004
 40
0.2500000000000008
 40
0.2500000000000008
 40
0.5000000000000017
 40
0.5000000000000017
 40
1.0
 40
1.0
 40
1.0
 40
1.0
 10
185.9749930221437
 20
94.88521219723278
 30
0.0
 10
186.0093223597865
 20
94.88521219723278
 30
0.0
 10
186.0433376012472
 20
94.88521219723278
 30
0.0
 10
186.0998221758034
 20
94.88521219723278
 30
0.0
 10
186.1241245586455
 20
94.88521219723278
 30
0.0
 10
186.1883898354645
 20
94.88521219723278
 30
0.0
 10
186.2217472049706
 20
94.88521219723278
 30
0.0
 10
186.3101709402881
 20
94.88521219723276
 30
0.0
 10
186.352710483897
 20
94.88521219723278
 30
0.0
 10
186.4626945689671
 20
94.88521219723278
 30
0.0
 10
186.5099212359947
 20
94.88521219723278
 30
0.0
 10
186.5397706215624
 20
94.88521219723278
 30
0.0
  0
LINE
  5
1BC
330
1F
100
AcDbEntity
  8
0
  6
HIDDEN
 62
     7
370
     0
100
AcDbLine
 10
150.6439937646
 20
100.7852122568
 30
0.0
 11
150.6439937646
 21
98.9069208884
 31
0.0
  0
LINE
  5
1BD
330
1F
100
AcDbEntity
  8
0
  6
HIDDEN
 62
     7
370
     0
100
AcDbLine
 10
149.6349932993
 20
100.7852122568
 30
0.0
 11
149.6349932993
 21
99.9193886676
 31
0.0
  0
SPLINE
  5
1BE
330
1F
100
AcDbEntity
  8
0
  6
HIDDEN
 62
     7
370
     0
100
AcDbSpline
210
0.0
220
0.0
230
1.0
 70
     8
 71
     3
 72
    10
 73
     6
 74
     0
 42
0.00000001
 43
0.00000001
 12
1.0
 22
0.0
 32
0.0
 13
1.0
 23
0.0
 33
0.0
 40
0.0
 40
0.0
 40
0.0
 40
0.0
 40
0.5
 40
0.5
 40
1.0
 40
1.0
 40
1.0
 40
1.0
 10
184.4949930221437
 20
129.1878161690526
 30
0.0
 10
184.4949930221437
 20
129.0908811038209
 30
0.0
 10
184.5174426579892
 20
128.9938218250817
 30
0.0
 10
184.6024383162573
 20
128.8206377376747
 30
0.0
 10
184.6652944001877
 20
128.7436318687892
 30
0.0
 10
184.7433374078937
 20
128.6852121972328
 30
0.0
  0
LINE
  5
1BF
330
1F
100
AcDbEntity
  8
0
  6
HIDDEN
 62
     7
370
     0
100
AcDbLine
 10
184.4949933136
 20
129.1878164195
 30
0.0
 11
184.4949933136
 21
94.6723331147
 31
0.0
  0
SPLINE
  5
1C0
330
1F
100
AcDbEntity
  8
0
  6
HIDDEN
 62
     7
370
     0
100
AcDbSpline
210
0.0
220
0.0
230
1.0
 70
     8
 71
     3
 72
    10
 73
     6
 74
     0
 42
0.00000001
 43
0.00000001
 12
1.0
 22
0.0
 32
0.0
 13
1.0
 23
0.0
 33
0.0
 40
0.0
 40
0.0
 40
0.0
 40
0.0
 40
0.5
 40
0.5
 40
1.0
 40
1.0
 40
1.0
 40
1.0
 10
184.4949930221437
 20
94.67233327520447
 30
0.0
 10
184.4949930221437
 20
94.70855576464523
 30
0.0
 10
184.4979627514411
 20
94.7447489619038
 30
0.0
 10
184.5098417337891
 20
94.81638745331867
 30
0.0
 10
184.5186369616298
 20
94.85126077796036
 30
0.0
 10
184.5302154227251
 20
94.88521219723279
 30
0.0
  0
SPLINE
  5
1C1
330
1F
100
AcDbEntity
  8
0
  6
HIDDEN
 62
     7
370
     0
100
AcDbSpline
210
0.0
220
0.0
230
1.0
 70
    24
 71
     3
 72
    12
 73
     8
 74
     0
 42
0.00000001
 43
0.00000001
 12
1.0
 22
0.0
 32
0.0
 13
1.0
 23
0.0
 33
0.0
 40
0.0
 40
0.0
 40
0.0
 40
0.0
 40
0.5
 40
0.5
 40
0.75
 40
0.75
 40
1.0
 40
1.0
 40
1.0
 40
1.0
 10
184.7433374078937
 20
128.6852121972327
 30
0.0
 10
184.7770336515527
 20
128.6852121972327
 30
0.0
 10
184.8150705263209
 20
128.6852121972327
 30
0.0
 10
184.8936308477251
 20
128.6852121972327
 30
0.0
 10
184.9232593531507
 20
128.6852121972327
 30
0.0
 10
184.9962030958963
 20
128.6852121972327
 30
0.0
 10
185.043355576153
 20
128.6852121972327
 30
0.0
 10
185.0949930221437
 20
128.6852121972327
 30
0.0
  0
SPLINE
  5
1C2
330
1F
100
AcDbEntity
  8
0
  6
HIDDEN
 62
     7
370
     0
100
AcDbSpline
210
0.0
220
0.0
230
1.0
 70
    24
 71
     3
 72
    16
 73
    12
 74
     0
 42
0.00000001
 43
0.00000001
 12
1.0
 22
0.0
 32
0.0
 13
1.0
 23
0.0
 33
0.0
 40
0.0
 40
0.0
 40
0.0
 40
0.0
 40
0.5000000000000007
 40
0.5000000000000007
 40
0.7500000000000013
 40
0.7500000000000013
 40
0.8750000000000017
 40
0.8750000000000017
 40
0.9375000000000008
 40
0.9375000000000008
 40
1.0
 40
1.0
 40
1.0
 40
1.0
 10
184.530215422725
 20
94.88521219723278
 30
0.0
 10
184.5600718618457
 20
94.88521219723278
 30
0.0
 10
184.6069937357006
 20
94.88521219723278
 30
0.0
 10
184.7174611421206
 20
94.88521219723278
 30
0.0
 10
184.7606869943316
 20
94.88521219723278
 30
0.0
 10
184.8491048948588
 20
94.88521219723278
 30
0.0
 10
184.8819782354992
 20
94.88521219723278
 30
0.0
 10
184.9462703665741
 20
94.88521219723278
 30
0.0
 10
184.9704245205814
 20
94.88521219723278
 30
0.0
 10
185.0271592912391
 20
94.88521219723278
 30
0.0
 10
185.0605303474246
 20
94.88521219723278
 30
0.0
 10
185.0949930221437
 20
94.88521219723278
 30
0.0
  0
LINE
  5
1C3
330
1F
100
AcDbEntity
  8
0
  6
HIDDEN
 62
     7
370
     0
100
AcDbLine
 10
207.9227609927
 20
119.464106989
 30
0.0
 11
207.9811251158
 21
119.5605347314
 31
0.0
  0
LINE
  5
1C4
330
1F
100
AcDbEntity
  8
0
  6
HIDDEN
 62
     7
370
     0
100
AcDbLine
 10
150.5849926168
 20
122.7852121376
 30
0.0
 11
150.5849926168
 21
124.6579528236
 31
0.0
  0
LINE
  5
1C5
330
1F
100
AcDbEntity
  8
0
  6
HIDDEN
 62
     7
370
     0
100
AcDbLine
 10
149.6349932993
 20
121.6502186292
 30
0.0
 11
149.6349932993
 21
101.9202057653
 31
0.0
  0
LINE
  5
1C6
330
1F
100
AcDbEntity
  8
0
  6
HIDDEN
 62
     7
370
     0
100
AcDbLine
 10
149.6349932993
 20
122.7852121376
 30
0.0
 11
149.6349932993
 21
123.7096848347
 31
0.0
  0
LINE
  5
1C7
330
1F
100
AcDbEntity
  8
0
  6
HIDDEN
 62
     7
370
     0
100
AcDbLine
 10
185.0949932257
 20
128.6852114283
 30
0.0
 11
185.9749934072
 21
128.6852114283
 31
0.0
  0
LINE
  5
1C8
330
1F
100
AcDbEntity
  8
0
  6
HIDDEN
 62
     7
370
     0
100
AcDbLine
 10
185.0949932257
 20
94.8852129661
 30
0.0
 11
185.9749934072
 21
94.8852129661
 31
0.0
  0
LINE
  5
1C9
330
1F
100
AcDbEntity
  8
0
  6
HIDDEN
 62
     7
370
     0
100
AcDbLine
 10
189.4849935914
 20
130.6560892993
 30
0.0
 11
189.4849935914
 21
93.1811795019
 31
0.0
  0
SPLINE
  5
1CA
330
1F
100
AcDbEntity
  8
0
  6
HIDDEN
 62
     7
370
     0
100
AcDbSpline
210
0.0
220
0.0
230
1.0
 70
     8
 71
     3
 72
    10
 73
     6
 74
     0
 42
0.00000001
 43
0.00000001
 12
1.0
 22
0.0
 32
0.0
 13
1.0
 23
0.0
 33
0.0
 40
0.0
 40
0.0
 40
0.0
 40
0.0
 40
0.5
 40
0.5
 40
1.0
 40
1.0
 40
1.0
 40
1.0
 10
188.8849930221437
 20
131.2723874671378
 30
0.0
 10
189.0454152467431
 20
131.2723874671378
 30
0.0
 10
189.2018980474104
 20
131.203802064632
 30
0.0
 10
189.4225516579777
 20
130.9740287953124
 30
0.0
 10
189.4849930221437
 20
130.8155305936447
 30
0.0
 10
189.4849930221437
 20
130.6560892303757
 30
0.0
  0
SPLINE
  5
1CB
330
1F
100
AcDbEntity
  8
0
  6
HIDDEN
 62
     7
370
     0
100
AcDbSpline
210
0.0
220
0.0
230
1.0
 70
     8
 71
     3
 72
    12
 73
     8
 74
     0
 42
0.00000001
 43
0.00000001
 12
1.0
 22
0.0
 32
0.0
 13
1.0
 23
0.0
 33
0.0
 40
0.0
 40
0.0
 40
0.0
 40
0.0
 40
0.25
 40
0.25
 40
0.5
 40
0.5
 40
1.0
 40
1.0
 40
1.0
 40
1.0
 10
188.8849930221437
 20
92.55632767420337
 30
0.0
 10
188.9647585026139
 20
92.55632767420337
 30
0.0
 10
189.045179786271
 20
92.57330327056145
 30
0.0
 10
189.1918617029336
 20
92.63777876802067
 30
0.0
 10
189.2582155124975
 20
92.68489239981525
 30
0.0
 10
189.4244195932241
 20
92.86150231380273
 30
0.0
 10
189.4849930221436
 20
93.02135118961091
 30
0.0
 10
189.4849930221437
 20
93.18118037614593
 30
0.0
  0
SPLINE
  5
1CC
330
1F
100
AcDbEntity
  8
0
  6
HIDDEN
 62
     7
370
     0
100
AcDbSpline
210
0.0
220
0.0
230
1.0
 70
     8
 71
     3
 72
     8
 73
     4
 74
     0
 42
0.00000001
 43
0.00000001
 12
1.0
 22
0.0
 32
0.0
 13
1.0
 23
0.0
 33
0.0
 40
0.0
 40
0.0
 40
0.0
 40
0.0
 40
1.0
 40
1.0
 40
1.0
 40
1.0
 10
183.4998333232503
 20
131.2723874671378
 30
0.0
 10
183.83219141964
 20
130.6815772534659
 30
0.0
 10
184.1639726911241
 20
130.0904445892207
 30
0.0
 10
184.4949930221437
 20
129.4988888927629
 30
0.0
  0
SPLINE
  5
1CD
330
1F
100
AcDbEntity
  8
0
  6
HIDDEN
 62
     7
370
     0
100
AcDbSpline
210
0.0
220
0.0
230
1.0
 70
     8
 71
     3
 72
     8
 73
     4
 74
     0
 42
0.00000001
 43
0.00000001
 12
1.0
 22
0.0
 32
0.0
 13
1.0
 23
0.0
 33
0.0
 40
0.0
 40
0.0
 40
0.0
 40
0.0
 40
1.0
 40
1.0
 40
1.0
 40
1.0
 10
186.5749930221437
 20
129.498888892763
 30
0.0
 10
186.9060133531634
 20
130.0904445892207
 30
0.0
 10
187.2377946246475
 20
130.6815772534659
 30
0.0
 10
187.5701527210372
 20
131.2723874671378
 30
0.0
  0
LINE
  5
1CE
330
1F
100
AcDbEntity
  8
0
  6
HIDDEN
 62
     7
370
     0
100
AcDbLine
 10
187.5701533998
 20
131.2723882877
 30
0.0
 11
188.884992748
 21
131.2723882877
 31
0.0
  0
LINE
  5
1CF
330
1F
100
AcDbEntity
  8
0
  6
HIDDEN
 62
     7
370
     0
100
AcDbLine
 10
186.574992388
 20
129.4988893353
 30
0.0
 11
186.574992388
 21
94.3560894959
 31
0.0
  0
LINE
  5
1D0
330
1F
100
AcDbEntity
  8
0
  6
HIDDEN
 62
     7
370
     0
100
AcDbLine
 10
187.5701533998
 20
131.2723882877
 30
0.0
 11
187.5701533998
 21
92.556327247
 31
0.0
  0
LINE
  5
1D1
330
1F
100
AcDbEntity
  8
0
  6
HIDDEN
 62
     7
370
     0
100
AcDbLine
 10
184.4949933136
 20
129.4988893353
 30
0.0
 11
184.4949933136
 21
94.3560894959
 31
0.0
  0
SPLINE
  5
1D2
330
1F
100
AcDbEntity
  8
0
  6
HIDDEN
 62
     7
370
     0
100
AcDbSpline
210
0.0
220
0.0
230
1.0
 70
     8
 71
     3
 72
     8
 73
     4
 74
     0
 42
0.00000001
 43
0.00000001
 12
1.0
 22
0.0
 32
0.0
 13
1.0
 23
0.0
 33
0.0
 40
0.0
 40
0.0
 40
0.0
 40
0.0
 40
1.0
 40
1.0
 40
1.0
 40
1.0
 10
186.5749930221437
 20
94.35608880924305
 30
0.0
 10
186.9056316487583
 20
93.75556845813206
 30
0.0
 10
187.2374474493318
 20
93.15569934742703
 30
0.0
 10
187.5701527210372
 20
92.55632767420337
 30
0.0
  0
LINE
  5
1D3
330
1F
100
AcDbEntity
  8
0
  6
HIDDEN
 62
     7
370
     0
100
AcDbLine
 10
187.5701533998
 20
92.556327247
 30
0.0
 11
188.884992748
 21
92.556327247
 31
0.0
  0
SPLINE
  5
1D4
330
1F
100
AcDbEntity
  8
0
  6
HIDDEN
 62
     7
370
     0
100
AcDbSpline
210
0.0
220
0.0
230
1.0
 70
     8
 71
     3
 72
     8
 73
     4
 74
     0
 42
0.00000001
 43
0.00000001
 12
1.0
 22
0.0
 32
0.0
 13
1.0
 23
0.0
 33
0.0
 40
0.0
 40
0.0
 40
0.0
 40
0.0
 40
1.0
 40
1.0
 40
1.0
 40
1.0
 10
183.4998333232503
 20
92.55632767420336
 30
0.0
 10
183.8325385949556
 20
93.15569934742703
 30
0.0
 10
184.1643543955291
 20
93.75556845813206
 30
0.0
 10
184.4949930221437
 20
94.35608880924305
 30
0.0
  0
LINE
  5
1D5
330
1F
100
AcDbEntity
  8
0
  6
HIDDEN
 62
     7
370
     0
100
AcDbLine
 10
149.6349932993
 20
99.9667399012
 30
0.0
 11
149.6349932993
 21
100.2376988911
 31
0.0
  0
SPLINE
  5
1D6
330
1F
100
AcDbEntity
  8
0
  6
HIDDEN
 62
     7
370
     0
100
AcDbSpline
210
0.0
220
0.0
230
1.0
 70
     8
 71
     3
 72
    10
 73
     6
 74
     0
 42
0.00000001
 43
0.00000001
 12
1.0
 22
0.0
 32
0.0
 13
1.0
 23
0.0
 33
0.0
 40
0.0
 40
0.0
 40
0.0
 40
0.0
 40
0.5
 40
0.5
 40
1.0
 40
1.0
 40
1.0
 40
1.0
 10
214.723181315113
 20
123.9764350590117
 30
0.0
 10
214.8731352439556
 20
124.0875324763138
 30
0.0
 10
215.0044971795505
 20
124.1987095404484
 30
0.0
 10
215.2224579984344
 20
124.4059425860562
 30
0.0
 10
215.3107634826373
 20
124.5027948175161
 30
0.0
 10
215.3554684436273
 20
124.5766542104221
 30
0.0
  0
ARC
  5
1D7
330
1F
100
AcDbEntity
  8
0
  6
HIDDEN
 62
     7
370
     0
100
AcDbCircle
 10
213.5599877856
 20
126.9306370026
 30
0.0
 40
3.174953261557856
100
AcDbArc
 50
291.491650823
 51
202.7141095623
  0
SPLINE
  5
1D8
330
1F
100
AcDbEntity
  8
0
  6
HIDDEN
 62
     7
370
     0
100
AcDbSpline
210
0.0
220
0.0
230
1.0
 70
     8
 71
     3
 72
    10
 73
     6
 74
     0
 42
0.00000001
 43
0.00000001
 12
1.0
 22
0.0
 32
0.0
 13
1.0
 23
0.0
 33
0.0
 40
0.0
 40
0.0
 40
0.0
 40
0.0
 40
0.5
 40
0.5
 40
1.0
 40
1.0
 40
1.0
 40
1.0
 10
210.7514755992676
 20
126.5211850967925
 30
0.0
 10
210.7068230913928
 20
126.4474123644081
 30
0.0
 10
210.676792569161
 20
126.325811766522
 30
0.0
 10
210.6368123874928
 20
126.0434002234185
 30
0.0
 10
210.6274136242677
 20
125.8807214085527
 30
0.0
 10
210.6312746499506
 20
125.7046825093364
 30
0.0
  0
LINE
  5
1D9
330
1F
100
AcDbEntity
  8
0
  6
HIDDEN
 62
     7
370
     0
100
AcDbLine
 10
210.7514744992
 20
126.521184706
 30
0.0
 11
211.0753251607
 21
127.0562323191
 31
0.0
  0
LINE
  5
1DA
330
1F
100
AcDbEntity
  8
0
  6
HIDDEN
 62
     7
370
     0
100
AcDbLine
 10
149.6349932993
 20
123.6591261261
 30
0.0
 11
149.6349932993
 21
123.5634439074
 31
0.0
  0
SPLINE
  5
1DB
330
1F
100
AcDbEntity
  8
0
  6
HIDDEN
 62
     7
370
     0
100
AcDbSpline
210
0.0
220
0.0
230
1.0
 70
     8
 71
     3
 72
     8
 73
     4
 74
     0
 42
0.00000001
 43
0.00000001
 12
1.0
 22
0.0
 32
0.0
 13
1.0
 23
0.0
 33
0.0
 40
0.0
 40
0.0
 40
0.0
 40
0.0
 40
1.0
 40
1.0
 40
1.0
 40
1.0
 10
150.0294616207037
 20
100.320296038867
 30
0.0
 10
149.9212572894576
 20
100.3824380252629
 30
0.0
 10
149.8290195413983
 20
100.4694583052519
 30
0.0
 10
149.761837941825
 20
100.5717800350606
 30
0.0
  0
SPLINE
  5
1DC
330
1F
100
AcDbEntity
  8
0
  6
HIDDEN
 62
     7
370
     0
100
AcDbSpline
210
0.0
220
0.0
230
1.0
 70
     8
 71
     3
 72
    26
 73
    22
 74
     0
 42
0.00000001
 43
0.00000001
 12
1.0
 22
0.0
 32
0.0
 13
1.0
 23
0.0
 33
0.0
 40
0.0
 40
0.0
 40
0.0
 40
0.0
 40
0.2499999999999976
 40
0.2499999999999976
 40
0.3749999999999968
 40
0.3749999999999968
 40
0.437499999999996
 40
0.437499999999996
 40
0.4687499999999955
 40
0.4687499999999955
 40
0.4999999999999951
 40
0.4999999999999951
 40
0.5312499999999946
 40
0.5312499999999946
 40
0.5624999999999942
 40
0.5624999999999942
 40
0.6249999999999949
 40
0.6249999999999949
 40
0.7499999999999963
 40
0.7499999999999963
 40
1.0
 40
1.0
 40
1.0
 40
1.0
 10
150.3949630685316
 20
124.1732927768457
 30
0.0
 10
150.3475749591031
 20
124.0376370348226
 30
0.0
 10
150.2899336571987
 20
123.8936756364934
 30
0.0
 10
150.1678858446554
 20
123.650903063239
 30
0.0
 10
150.1218368368789
 20
123.5658634227896
 30
0.0
 10
150.0311835527133
 20
123.4254874497493
 30
0.0
 10
149.9968310524277
 20
123.3755760724104
 30
0.0
 10
149.9343958800372
 20
123.2990408075561
 30
0.0
 10
149.9111018612391
 20
123.2726363285692
 30
0.0
 10
149.8620493241126
 20
123.2250415633082
 30
0.0
 10
149.8376178744557
 20
123.2055989494563
 30
0.0
 10
149.7969882788359
 20
123.1806911717882
 30
0.0
 10
149.7808259969847
 20
123.1746213404772
 30
0.0
 10
149.7538439528816
 20
123.1689324688834
 30
0.0
 10
149.7430944300587
 20
123.1693229769642
 30
0.0
 10
149.7150584559017
 20
123.1754653237526
 30
0.0
 10
149.702197223869
 20
123.1861293301706
 30
0.0
 10
149.6711943627087
 20
123.2251421205308
 30
0.0
 10
149.6603348806395
 20
123.2611941109352
 30
0.0
 10
149.6370576247016
 20
123.3788735084343
 30
0.0
 10
149.6349930221436
 20
123.4702034087673
 30
0.0
 10
149.6349930221436
 20
123.5634436616735
 30
0.0
  0
SPLINE
  5
1DD
330
1F
100
AcDbEntity
  8
0
  6
HIDDEN
 62
     7
370
     0
100
AcDbSpline
210
0.0
220
0.0
230
1.0
 70
     8
 71
     3
 72
    12
 73
     8
 74
     0
 42
0.00000001
 43
0.00000001
 12
1.0
 22
0.0
 32
0.0
 13
1.0
 23
0.0
 33
0.0
 40
0.0
 40
0.0
 40
0.0
 40
0.0
 40
0.2499999999999996
 40
0.2499999999999996
 40
0.4999999999999991
 40
0.4999999999999991
 40
1.0
 40
1.0
 40
1.0
 40
1.0
 10
150.02946162071
 20
100.3202960388667
 30
0.0
 10
150.0796966297562
 20
100.2494804364859
 30
0.0
 10
150.1197414688995
 20
100.1840828841576
 30
0.0
 10
150.1921939863268
 20
100.0580920806728
 30
0.0
 10
150.2234883840296
 20
99.998728544576
 30
0.0
 10
150.3090971137609
 20
99.82673132359099
 30
0.0
 10
150.3550979100449
 20
99.72021979924173
 30
0.0
 10
150.3949630685316
 20
99.61822661230732
 30
0.0
  0
SPLINE
  5
1DE
330
1F
100
AcDbEntity
  8
0
  6
HIDDEN
 62
     7
370
     0
100
AcDbSpline
210
0.0
220
0.0
230
1.0
 70
     8
 71
     3
 72
    14
 73
    10
 74
     0
 42
0.00000001
 43
0.00000001
 12
1.0
 22
0.0
 32
0.0
 13
1.0
 23
0.0
 33
0.0
 40
0.0
 40
0.0
 40
0.0
 40
0.0
 40
0.5
 40
0.5
 40
0.7499999999999994
 40
0.7499999999999994
 40
0.8749999999999998
 40
0.8749999999999998
 40
1.0
 40
1.0
 40
1.0
 40
1.0
 10
149.6349930221437
 20
100.2376989960114
 30
0.0
 10
149.6349930221437
 20
100.3145105680183
 30
0.0
 10
149.6375222797435
 20
100.3889278293492
 30
0.0
 10
149.6572932262762
 20
100.4854291070505
 30
0.0
 10
149.6665548261496
 20
100.5151707037252
 30
0.0
 10
149.6900162400587
 20
100.5496683299486
 30
0.0
 10
149.6994386547227
 20
100.5594989683774
 30
0.0
 10
149.7245080446745
 20
100.5726767968708
 30
0.0
 10
149.7398124990669
 20
100.5762750318508
 30
0.0
 10
149.761837941825
 20
100.5717800350606
 30
0.0
  0
LINE
  5
1DF
330
1F
100
AcDbEntity
  8
0
  6
HIDDEN
 62
     7
370
     0
100
AcDbLine
 10
149.6349932993
 20
123.5634439074
 30
0.0
 11
149.6349932993
 21
100.2376988911
 31
0.0
  0
SPLINE
  5
1E0
330
1F
100
AcDbEntity
  8
0
  6
HIDDEN
 62
     7
370
     0
100
AcDbSpline
210
0.0
220
0.0
230
1.0
 70
     8
 71
     3
 72
    25
 73
    21
 74
     0
 42
0.00000001
 43
0.00000001
 12
1.0
 22
0.0
 32
0.0
 13
1.0
 23
0.0
 33
0.0
 40
0.0
 40
0.0
 40
0.0
 40
0.0
 40
0.0420995470194557
 40
0.084113924686506
 40
0.1260581611080442
 40
0.1679473598823384
 40
0.2097966841976561
 40
0.2516213406107722
 40
0.2934365625907132
 40
0.3352575939160922
 40
0.3770996720161934
 40
0.4189780113467077
 40
0.4609077868905671
 40
0.5029041178727526
 40
0.5866271445355136
 40
0.6698341783803095
 40
0.7526489421584355
 40
0.8351969224408589
 40
0.9176048245406581
 40
1.0
 40
1.0
 40
1.0
 40
1.0
 10
220.2273377450261
 20
129.1108837791658
 30
0.0
 10
220.2716732417351
 20
129.2320283749915
 30
0.0
 10
220.36025454237
 20
129.4740724854603
 30
0.0
 10
220.4911566290183
 20
129.8297210517386
 30
0.0
 10
220.6204202458467
 20
130.1794009675055
 30
0.0
 10
220.7479166282282
 20
130.522615185865
 30
0.0
 10
220.8736801277297
 20
130.8594963817425
 30
0.0
 10
220.9977014872171
 20
131.1900088775262
 30
0.0
 10
221.119983120411
 20
131.5141620471283
 30
0.0
 10
221.2405243096887
 20
131.831953193072
 30
0.0
 10
221.359325219979
 20
132.1433829582915
 30
0.0
 10
221.4763856327604
 20
132.4484507508255
 30
0.0
 10
221.5917060010816
 20
132.747157648062
 30
0.0
 10
221.7428228657492
 20
133.136120035432
 30
0.0
 10
221.9263067596499
 20
133.6037321352463
 30
0.0
 10
222.1374219600085
 20
134.1339912930559
 30
0.0
 10
222.3390353695366
 20
134.632315255239
 30
0.0
 10
222.5309030582843
 20
135.0978931405131
 30
0.0
 10
222.7139153480024
 20
135.5336947914479
 30
0.0
 10
222.8277535841815
 20
135.7968724898787
 30
0.0
 10
222.8846683067879
 20
135.9284511773666
 30
0.0
  0
SPLINE
  5
1E1
330
1F
100
AcDbEntity
  8
0
  6
HIDDEN
 62
     7
370
     0
100
AcDbSpline
210
0.0
220
0.0
230
1.0
 70
     8
 71
     3
 72
    28
 73
    24
 74
     0
 42
0.00000001
 43
0.00000001
 12
1.0
 22
0.0
 32
0.0
 13
1.0
 23
0.0
 33
0.0
 40
0.0
 40
0.0
 40
0.0
 40
0.0
 40
0.0436921210996241
 40
0.0877698930454796
 40
0.1322345583701485
 40
0.1770873274445937
 40
0.2223293794827802
 40
0.2679618635117573
 40
0.3139858993083446
 40
0.3604025783035598
 40
0.4072129644559301
 40
0.4544180950947664
 40
0.5020189817344369
 40
0.5500166108606543
 40
0.5984119446898131
 40
0.6472059219022629
 40
0.6963994583505371
 40
0.7459934477433402
 40
0.7959887623062595
 40
0.8463862534199484
 40
0.897186752236669
 40
0.9483910702759255
 40
0.9999999999999999
 40
0.9999999999999999
 40
0.9999999999999999
 40
0.9999999999999999
 10
222.5216368345794
 20
136.4565549187292
 30
0.0
 10
222.492802756622
 20
136.3891775082954
 30
0.0
 10
222.4348800951742
 20
136.2538279771071
 30
0.0
 10
222.3442134019254
 20
136.0387815887036
 30
0.0
 10
222.2503069591842
 20
135.8136864431338
 30
0.0
 10
222.1529099400252
 20
135.5776131414273
 30
0.0
 10
222.0520904361503
 20
135.3306700376232
 30
0.0
 10
221.9478299619699
 20
135.0726922188738
 30
0.0
 10
221.8401335332592
 20
134.8035978278817
 30
0.0
 10
221.728999786697
 20
134.5232917696839
 30
0.0
 10
221.6144290901146
 20
134.2316922817029
 30
0.0
 10
221.4964213418194
 20
133.9287241624046
 30
0.0
 10
221.3749765659859
 20
133.6143210440252
 30
0.0
 10
221.2500947581095
 20
133.2884252466914
 30
0.0
 10
221.1217759004511
 20
132.9509881684523
 30
0.0
 10
220.9900200579903
 20
132.601970997134
 30
0.0
 10
220.8548269740677
 20
132.2413435790249
 30
0.0
 10
220.7161976094133
 20
131.8690904278595
 30
0.0
 10
220.5741283251387
 20
131.4851897152494
 30
0.0
 10
220.4286328568107
 20
131.0896943351809
 30
0.0
 10
220.2796593151211
 20
130.6824274085071
 30
0.0
 10
220.127403663711
 20
130.264134014675
 30
0.0
 10
220.0236273687541
 20
129.9772638876215
 30
0.0
 10
219.9715350204432
 20
129.8332643491464
 30
0.0
  0
ELLIPSE
  5
1E2
330
1F
100
AcDbEntity
  8
0
  6
HIDDEN
 62
     7
370
     0
100
AcDbEllipse
 10
146.7863978329
 20
113.5852121972
 30
0.0
 11
78.3323478835587
 21
24.79521835240363
 31
0.0
210
0.0
220
0.0
230
1.0
 40
0.0407660087
 41
5.575350458414628
 42
5.996936224941705
  0
LWPOLYLINE
  5
1E3
330
1F
100
AcDbEntity
  8
0
  6
HIDDEN
 62
     7
370
     0
100
AcDbPolyline
 90
       16
 70
   128
 43
0.0
 10
208.2519201929
 20
121.053483934
 10
208.4337702388
 20
121.3719981172
 10
208.7082794303
 20
121.634099298
 10
209.0634523327
 20
121.8283322089
 10
209.4837619359
 20
121.9462078445
 10
209.9508462841
 20
121.9825741284
 10
210.4442870612
 20
121.9358422243
 10
210.9425185615
 20
121.8080545225
 10
211.4237664635
 20
121.6047961646
 10
211.8670015032
 20
121.3349491739
 10
212.2528447205
 20
121.0103087508
 10
212.5644354517
 20
120.6450626635
 10
212.7881577606
 20
120.2551737808
 10
212.9142364854
 20
119.857682512
 10
212.9371544713
 20
119.4699603514
 10
212.8559133405
 20
119.1089531788
  0
ELLIPSE
  5
1E4
330
1F
100
AcDbEntity
  8
0
  6
HIDDEN
 62
     7
370
     0
100
AcDbEllipse
 10
212.1578504908
 20
123.5897735792
 30
0.0
 11
1.091603625900518
 21
2.745937317723844
 31
0.0
210
0.0
220
0.0
230
1.0
 40
0.8456084473
 41
5.170551878467181
 42
7.359876249010327
  0
LWPOLYLINE
  5
1E5
330
1F
100
AcDbEntity
  8
0
  6
HIDDEN
 62
     7
370
     0
100
AcDbPolyline
 90
       32
 70
   128
 43
0.0
 10
192.5349930668
 20
111.6707716067
 10
193.038238808
 20
111.6211165793
 10
193.5208818311
 20
111.4741843924
 10
193.9631631965
 20
111.2359904366
 10
194.346974268
 20
110.9162864307
 10
194.6566036338
 20
110.5281610655
 10
194.879374131
 20
110.087504276
 10
195.0061643863
 20
109.6123565369
 10
195.0317850704
 20
109.1221704994
 10
194.9551856512
 20
108.6370145351
 10
194.7795046861
 20
108.1767509607
 10
194.5119319851
 20
107.7602227599
 10
194.1634236271
 20
107.4044826821
 10
193.7482474739
 20
107.1240954482
 10
193.2834001625
 20
106.9305391432
 10
192.7879142011
 20
106.8317388565
 10
192.2820719326
 20
106.8317388565
 10
191.7865859712
 20
106.9305391432
 10
191.3217386598
 20
107.1240954482
 10
190.9065625066
 20
107.4044826821
 10
190.5580541486
 20
107.7602227599
 10
190.2904814476
 20
108.1767509607
 10
190.1148004825
 20
108.6370145351
 10
190.0382010633
 20
109.1221704994
 10
190.0638217474
 20
109.6123565369
 10
190.1906120027
 20
110.087504276
 10
190.4133824999
 20
110.5281610655
 10
190.7230118657
 20
110.9162864307
 10
191.1068229372
 20
111.2359904366
 10
191.5491043026
 20
111.4741843924
 10
192.0317473257
 20
111.6211165793
 10
192.5349930668
 20
111.6707716067
  0
LINE
  5
1E6
330
1F
100
AcDbEntity
  8
0
  6
HIDDEN
 62
     7
370
     0
100
AcDbLine
 10
208.2519201929
 20
121.053483934
 30
0.0
 11
206.5674556786
 21
116.7027281047
 31
0.0
  0
CIRCLE
  5
1E7
330
1F
100
AcDbEntity
  8
0
  6
HIDDEN
 62
     7
370
     0
100
AcDbCircle
 10
176.5349930221
 20
111.7852121972
 30
0.0
 40
4.999999999999986
  0
LINE
  5
1E8
330
1F
100
AcDbEntity
  8
0
  6
HIDDEN
 62
     7
370
     0
100
AcDbLine
 10
219.9714189762
 20
129.8332881563
 30
0.0
 11
206.9438180322
 21
129.8332881563
 31
0.0
  0
LINE
  5
1E9
330
1F
100
AcDbEntity
  8
0
  6
HIDDEN
 62
     7
370
     0
100
AcDbLine
 10
219.9719703192
 20
129.8339028292
 30
0.0
 11
220.2274730796
 21
129.1104905688
 31
0.0
  0
LINE
  5
1EA
330
1F
100
AcDbEntity
  8
0
  6
HIDDEN
 62
     7
370
     0
100
AcDbLine
 10
220.2273389692
 20
129.1108835869
 30
0.0
 11
214.6003177757
 21
111.7852121972
 31
0.0
  0
LINE
  5
1EB
330
1F
100
AcDbEntity
  8
0
  6
HIDDEN
 62
     7
370
     0
100
AcDbLine
 10
169.5349930221
 20
95.5780107909
 30
0.0
 11
169.6291537944
 21
96.2480005258
 31
0.0
  0
LINE
  5
1EC
330
1F
100
AcDbEntity
  8
0
  6
HIDDEN
 62
     7
370
     0
100
AcDbLine
 10
169.6291537944
 20
127.3224238687
 30
0.0
 11
169.5349930221
 21
127.9924136036
 31
0.0
  0
ARC
  5
1ED
330
1F
100
AcDbEntity
  8
0
  6
HIDDEN
 62
     7
370
     0
100
AcDbCircle
 10
169.0349862695
 20
96.3315050438
 30
0.0
 40
0.6000067526676983
100
AcDbArc
 50
352.0
 51
0.0
  0
ARC
  5
1EE
330
1F
100
AcDbEntity
  8
0
  6
HIDDEN
 62
     7
370
     0
100
AcDbCircle
 10
169.0349862695
 20
96.3315050438
 30
0.0
 40
0.6000067526676967
100
AcDbArc
 50
0.0
 51
33.5571153394
  0
ARC
  5
1EF
330
1F
100
AcDbEntity
  8
0
  6
HIDDEN
 62
     7
370
     0
100
AcDbCircle
 10
169.0349862695
 20
127.2389193507
 30
0.0
 40
0.600006752667703
100
AcDbArc
 50
348.75
 51
8.0
  0
LWPOLYLINE
  5
1F0
330
1F
100
AcDbEntity
  8
0
  6
HIDDEN
 62
     7
370
     0
100
AcDbPolyline
 90
        3
 70
   128
 43
0.0
 10
169.6234640611
 20
127.1218635523
 10
169.5893202293
 20
127.0093066999
 10
169.5349930221
 20
126.9072551661
  0
LINE
  5
1F1
330
1F
100
AcDbEntity
  8
0
  6
HIDDEN
 62
     7
370
     0
100
AcDbLine
 10
169.6349930196
 20
96.3315047704
 30
0.0
 11
169.6349930196
 21
127.238919624
 31
0.0
  0
LINE
  5
1F2
330
1F
100
AcDbEntity
  8
0
  6
HIDDEN
 62
     7
370
     0
100
AcDbLine
 10
169.6349930196
 20
96.3315047704
 30
0.0
 11
169.6349930196
 21
127.238919624
 31
0.0
  0
LINE
  5
1F3
330
1F
100
AcDbEntity
  8
0
  6
HIDDEN
 62
     7
370
     0
100
AcDbLine
 10
197.4398592854
 20
121.0753932976
 30
0.0
 11
191.734290346
 21
116.7017572009
 31
0.0
  0
LINE
  5
1F4
330
1F
100
AcDbEntity
  8
0
  6
HIDDEN
 62
     7
370
     0
100
AcDbLine
 10
193.7499275798
 20
112.95484264
 30
0.0
 11
197.4568987632
 21
115.7964418092
 31
0.0
  0
LINE
  5
1F5
330
1F
100
AcDbEntity
  8
0
  6
HIDDEN
 62
     7
370
     0
100
AcDbLine
 10
194.6349932248
 20
112.3246617647
 30
0.0
 11
194.6349932248
 21
114.2904769079
 31
0.0
  0
LINE
  5
1F6
330
1F
100
AcDbEntity
  8
0
  6
HIDDEN
 62
     7
370
     0
100
AcDbLine
 10
190.4349929089
 20
115.0511579037
 30
0.0
 11
190.4349929089
 21
112.385993489
 31
0.0
  0
ARC
  5
1F7
330
1F
100
AcDbEntity
  8
0
  6
HIDDEN
 62
     7
370
     0
100
AcDbCircle
 10
159.0676209663
 20
99.4352121972
 30
0.0
 40
0.4000000000000244
100
AcDbArc
 50
210.0
 51
270.0
  0
ARC
  5
1F8
330
1F
100
AcDbEntity
  8
0
  6
HIDDEN
 62
     7
370
     0
100
AcDbCircle
 10
159.0676209663
 20
124.1352121972
 30
0.0
 40
0.4000000000000244
100
AcDbArc
 50
90.0
 51
150.0
  0
LINE
  5
1F9
330
1F
100
AcDbEntity
  8
0
  6
HIDDEN
 62
     7
370
     0
100
AcDbLine
 10
159.0676211188
 20
99.0352124357
 30
0.0
 11
161.2657677749
 21
99.0352124357
 31
0.0
  0
LINE
  5
1FA
330
1F
100
AcDbEntity
  8
0
  6
HIDDEN
 62
     7
370
     0
100
AcDbLine
 10
161.2657677749
 20
124.5352119588
 30
0.0
 11
159.0676211188
 21
124.5352119588
 31
0.0
  0
ARC
  5
1FB
330
1F
100
AcDbEntity
  8
0
  6
HIDDEN
 62
     7
370
     0
100
AcDbCircle
 10
165.35916975
 20
104.0352121972
 30
0.0
 40
5.000000000000034
100
AcDbArc
 50
275.4117716626
 51
326.6329870308
  0
ARC
  5
1FC
330
1F
100
AcDbEntity
  8
0
  6
HIDDEN
 62
     7
370
     0
100
AcDbCircle
 10
165.35916975
 20
119.5352121972
 30
0.0
 40
5.000000000000034
100
AcDbArc
 50
33.3670129692
 51
84.5874625757
  0
LINE
  5
1FD
330
1F
100
AcDbEntity
  8
0
  6
HIDDEN
 62
     7
370
     0
100
AcDbLine
 10
158.7212110305
 20
124.3352122986
 30
0.0
 11
157.5376425306
 21
122.2852120557
 31
0.0
  0
LINE
  5
1FE
330
1F
100
AcDbEntity
  8
0
  6
HIDDEN
 62
     7
370
     0
100
AcDbLine
 10
157.5376425306
 20
101.2852123388
 30
0.0
 11
158.7212110305
 21
99.2352120959
 31
0.0
  0
ARC
  5
1FF
330
1F
100
AcDbEntity
  8
0
  6
HIDDEN
 62
     7
370
     0
100
AcDbCircle
 10
176.4849930221
 20
101.9102121972
 30
0.0
 40
1.0
100
AcDbArc
 50
218.6821874535
 51
0.0
  0
ARC
  5
200
330
1F
100
AcDbEntity
  8
0
  6
HIDDEN
 62
     7
370
     0
100
AcDbCircle
 10
176.4849930221
 20
121.6602121972
 30
0.0
 40
1.0
100
AcDbArc
 50
0.0
 51
141.3178125465
  0
LINE
  5
201
330
1F
100
AcDbEntity
  8
0
  6
HIDDEN
 62
     7
370
     0
100
AcDbLine
 10
169.5349930221
 20
101.2852123388
 30
0.0
 11
175.7043680543
 21
101.2852123388
 31
0.0
  0
LINE
  5
202
330
1F
100
AcDbEntity
  8
0
  6
HIDDEN
 62
     7
370
     0
100
AcDbLine
 10
175.7043680543
 20
122.2852120557
 30
0.0
 11
169.5349930221
 21
122.2852120557
 31
0.0
  0
LINE
  5
203
330
1F
100
AcDbEntity
  8
0
  6
HIDDEN
 62
     7
370
     0
100
AcDbLine
 10
155.7349931816
 20
101.2852123388
 30
0.0
 11
157.5376425306
 21
101.2852123388
 31
0.0
  0
LINE
  5
204
330
1F
100
AcDbEntity
  8
0
  6
HIDDEN
 62
     7
370
     0
100
AcDbLine
 10
157.5376425306
 20
122.2852120557
 30
0.0
 11
153.2349927718
 21
122.2852120557
 31
0.0
  0
LINE
  5
205
330
1F
100
AcDbEntity
  8
0
  6
HIDDEN
 62
     7
370
     0
100
AcDbLine
 10
182.8349927807
 20
105.5352121041
 30
0.0
 11
185.3349922592
 21
105.5352121041
 31
0.0
  0
LINE
  5
206
330
1F
100
AcDbEntity
  8
0
  6
HIDDEN
 62
     7
370
     0
100
AcDbLine
 10
185.3349922592
 20
118.0352122904
 30
0.0
 11
182.8349927807
 21
118.0352122904
 31
0.0
  0
LINE
  5
207
330
1F
100
AcDbEntity
  8
0
  6
HIDDEN
 62
     7
370
     0
100
AcDbLine
 10
211.7452105874
 20
112.7635248852
 30
0.0
 11
212.2238880391
 21
113.5543726998
 31
0.0
  0
LINE
  5
208
330
1F
100
AcDbEntity
  8
0
  6
HIDDEN
 62
     7
370
     0
100
AcDbLine
 10
206.2354093785
 20
117.1790264928
 30
0.0
 11
205.7567319269
 21
116.3881785617
 31
0.0
  0
LINE
  5
209
330
1F
100
AcDbEntity
  8
0
  6
HIDDEN
 62
     7
370
     0
100
AcDbLine
 10
177.4849934871
 20
105.7852121451
 30
0.0
 11
177.9849926377
 21
106.285212227
 31
0.0
  0
LINE
  5
20A
330
1F
100
AcDbEntity
  8
0
  6
HIDDEN
 62
     7
370
     0
100
AcDbLine
 10
177.9849926377
 20
117.2852121674
 30
0.0
 11
177.4849934871
 21
117.7852122494
 31
0.0
  0
LINE
  5
20B
330
1F
100
AcDbEntity
  8
0
  6
HIDDEN
 62
     7
370
     0
100
AcDbLine
 10
177.9849926377
 20
106.285212227
 30
0.0
 11
182.8349927807
 21
106.285212227
 31
0.0
  0
LINE
  5
20C
330
1F
100
AcDbEntity
  8
0
  6
HIDDEN
 62
     7
370
     0
100
AcDbLine
 10
182.8349927807
 20
117.2852121674
 30
0.0
 11
177.9849926377
 21
117.2852121674
 31
0.0
  0
LINE
  5
20D
330
1F
100
AcDbEntity
  8
0
  6
HIDDEN
 62
     7
370
     0
100
AcDbLine
 10
202.8454920644
 20
123.0438683563
 30
0.0
 11
201.8817408378
 21
121.4516029143
 31
0.0
  0
LINE
  5
20E
330
1F
100
AcDbEntity
  8
0
  6
HIDDEN
 62
     7
370
     0
100
AcDbLine
 10
177.4849934871
 20
131.7852117502
 30
0.0
 11
177.4849934871
 21
128.6852114283
 31
0.0
  0
LINE
  5
20F
330
1F
100
AcDbEntity
  8
0
  6
HIDDEN
 62
     7
370
     0
100
AcDbLine
 10
211.6317047173
 20
115.5252336905
 30
0.0
 11
214.8283278937
 21
122.5177474701
 31
0.0
  0
LINE
  5
210
330
1F
100
AcDbEntity
  8
0
  6
HIDDEN
 62
     7
370
     0
100
AcDbLine
 10
166.3021723641
 20
96.743907445
 30
0.0
 11
165.834243772
 21
97.239744515
 31
0.0
  0
LINE
  5
211
330
1F
100
AcDbEntity
  8
0
  6
HIDDEN
 62
     7
370
     0
100
AcDbLine
 10
161.2363389129
 20
97.5195976355
 30
0.0
 11
160.7188653568
 21
97.0237726726
 31
0.0
  0
LINE
  5
212
330
1F
100
AcDbEntity
  8
0
  6
HIDDEN
 62
     7
370
     0
100
AcDbLine
 10
160.7182311261
 20
126.5467020132
 30
0.0
 11
161.2359170238
 21
126.0508146518
 31
0.0
  0
LINE
  5
213
330
1F
100
AcDbEntity
  8
0
  6
HIDDEN
 62
     7
370
     0
100
AcDbLine
 10
165.8335578529
 20
126.3304619499
 30
0.0
 11
166.301461765
 21
126.8263558307
 31
0.0
  0
LINE
  5
214
330
1F
100
AcDbEntity
  8
0
  6
HIDDEN
 62
     7
370
     0
100
AcDbLine
 10
194.5349933947
 20
109.2852122531
 30
0.0
 11
195.4449179018
 21
111.7852121972
 31
0.0
  0
LINE
  5
215
330
1F
100
AcDbEntity
  8
0
  6
HIDDEN
 62
     7
370
     0
100
AcDbLine
 10
195.4449179018
 20
111.7852121972
 30
0.0
 11
194.5349933947
 21
114.2852121414
 31
0.0
  0
LINE
  5
216
330
1F
100
AcDbEntity
  8
0
  6
HIDDEN
 62
     7
370
     0
100
AcDbLine
 10
185.3349922592
 20
109.2852122531
 30
0.0
 11
194.5349933947
 21
109.2852122531
 31
0.0
  0
LINE
  5
217
330
1F
100
AcDbEntity
  8
0
  6
HIDDEN
 62
     7
370
     0
100
AcDbLine
 10
194.5349933947
 20
114.2852121414
 30
0.0
 11
185.3349922592
 21
114.2852121414
 31
0.0
  0
LINE
  5
218
330
1F
100
AcDbEntity
  8
0
  6
HIDDEN
 62
     7
370
     0
100
AcDbLine
 10
165.834993021
 20
124.5120667302
 30
0.0
 11
165.834993021
 21
126.330251471
 31
0.0
  0
LINE
  5
219
330
1F
100
AcDbEntity
  8
0
  6
HIDDEN
 62
     7
370
     0
100
AcDbLine
 10
161.2349931518
 20
126.0497128972
 30
0.0
 11
161.2349931518
 21
124.529709705
 31
0.0
  0
LINE
  5
21A
330
1F
100
AcDbEntity
  8
0
  6
HIDDEN
 62
     7
370
     0
100
AcDbLine
 10
165.834993021
 20
97.2399885216
 30
0.0
 11
165.834993021
 21
99.0583576643
 31
0.0
  0
LINE
  5
21B
330
1F
100
AcDbEntity
  8
0
  6
HIDDEN
 62
     7
370
     0
100
AcDbLine
 10
161.2349931518
 20
99.0407146894
 30
0.0
 11
161.2349931518
 21
97.5266058379
 31
0.0
  0
LINE
  5
21C
330
1F
100
AcDbEntity
  8
0
  6
HIDDEN
 62
     7
370
     0
100
AcDbLine
 10
210.340995937
 20
109.0916936667
 30
0.0
 11
212.3000925774
 21
112.3284227363
 31
0.0
  0
LINE
  5
21D
330
1F
100
AcDbEntity
  8
0
  6
HIDDEN
 62
     7
370
     0
100
AcDbLine
 10
205.1139181847
 20
116.6780075439
 30
0.0
 11
203.3050364251
 21
113.6894580125
 31
0.0
  0
LINE
  5
21E
330
1F
100
AcDbEntity
  8
0
  6
HIDDEN
 62
     7
370
     0
100
AcDbLine
 10
194.6349932248
 20
109.3031767671
 30
0.0
 11
194.6349932248
 21
111.2457626298
 31
0.0
  0
LINE
  5
21F
330
1F
100
AcDbEntity
  8
0
  6
HIDDEN
 62
     7
370
     0
100
AcDbLine
 10
190.4349929089
 20
111.1844309055
 30
0.0
 11
190.4349929089
 21
109.3031767671
 31
0.0
  0
ARC
  5
220
330
1F
100
AcDbEntity
  8
0
  6
HIDDEN
 62
     7
370
     0
100
AcDbCircle
 10
154.8349930221
 20
98.0052121972
 30
0.0
 40
0.8999999999999915
100
AcDbArc
 50
34.6391318474
 51
90.0
  0
ARC
  5
221
330
1F
100
AcDbEntity
  8
0
  6
HIDDEN
 62
     7
370
     0
100
AcDbCircle
 10
152.3349930221
 20
125.5652121972
 30
0.0
 40
0.9000000000000312
100
AcDbArc
 50
270.0
 51
311.1792132368
  0
LINE
  5
222
330
1F
100
AcDbEntity
  8
0
  6
HIDDEN
 62
     7
370
     0
100
AcDbLine
 10
150.6439937646
 20
98.9052119114
 30
0.0
 11
154.8349928478
 21
98.9052119114
 31
0.0
  0
LINE
  5
223
330
1F
100
AcDbEntity
  8
0
  6
HIDDEN
 62
     7
370
     0
100
AcDbLine
 10
149.6349932993
 20
99.9142123767
 30
0.0
 11
150.6439937646
 21
98.9052119114
 31
0.0
  0
LINE
  5
224
330
1F
100
AcDbEntity
  8
0
  6
HIDDEN
 62
     7
370
     0
100
AcDbLine
 10
152.334992438
 20
124.665212483
 30
0.0
 11
150.5849926168
 21
124.665212483
 31
0.0
  0
LINE
  5
225
330
1F
100
AcDbEntity
  8
0
  6
HIDDEN
 62
     7
370
     0
100
AcDbLine
 10
150.5849926168
 20
124.665212483
 30
0.0
 11
149.6349932993
 21
123.7152122342
 31
0.0
  0
LINE
  5
226
330
1F
100
AcDbEntity
  8
0
  6
HIDDEN
 62
     7
370
     0
100
AcDbLine
 10
211.390331983
 20
129.5485809826
 30
0.0
 11
210.8049733931
 21
128.5814769947
 31
0.0
  0
LINE
  5
227
330
1F
100
AcDbEntity
  8
0
  6
HIDDEN
 62
     7
370
     0
100
AcDbLine
 10
216.2801554794
 20
125.2675090366
 30
0.0
 11
216.8655140693
 21
126.2346111619
 31
0.0
  0
LINE
  5
228
330
1F
100
AcDbEntity
  8
0
  6
HIDDEN
 62
     7
370
     0
100
AcDbLine
 10
210.7282435889
 20
126.4755713203
 30
0.0
 11
208.2802361245
 21
121.1206294977
 31
0.0
  0
LINE
  5
229
330
1F
100
AcDbEntity
  8
0
  6
HIDDEN
 62
     7
370
     0
100
AcDbLine
 10
195.0349925453
 20
107.7947794841
 30
0.0
 11
195.0349925453
 21
109.2450322033
 31
0.0
  0
LINE
  5
22A
330
1F
100
AcDbEntity
  8
0
  6
HIDDEN
 62
     7
370
     0
100
AcDbLine
 10
190.0349935884
 20
109.2450322033
 30
0.0
 11
190.0349935884
 21
107.7691886023
 31
0.0
  0
LINE
  5
22B
330
1F
100
AcDbEntity
  8
VERMASSUNG
  6
CENTERX2
100
AcDbLine
 10
224.5349930221
 20
138.7852121972
 30
0.0
 11
236.7913891514
 21
138.7852121972
 31
0.0
  0
LINE
  5
22C
330
1F
100
AcDbEntity
  8
VERMASSUNG
  6
CENTERX2
100
AcDbLine
 10
224.5349930221
 20
138.7852121972
 30
0.0
 11
224.5349930221
 21
111.7852121972
 31
0.0
  0
LINE
  5
22D
330
1F
100
AcDbEntity
  8
VERMASSUNG
  6
CENTERX2
100
AcDbLine
 10
145.9874998289
 20
111.7852121972
 30
0.0
 11
224.5349930221
 21
111.7852121972
 31
0.0
  0
DIMENSION
  5
22E
330
1F
100
AcDbEntity
  8
VERMASSUNG
100
AcDbDimension
  2
_D
 10
236.7913891514
 20
138.7852121972
 30
0.0
 11
231.8739269907
 21
128.9828673554
 31
0.0
 70
   162
  1
<>
 71
     1
 42
-1.0
  3
SLDDIMSTYLE0
100
AcDb2LineAngularDimension
 13
224.5182476475
 23
138.2695271584
 33
0.0
 14
220.2459653817
 24
124.6807955842
 34
0.0
 15
224.5349930221
 25
138.7852121972
 35
0.0
 16
231.8739269907
 26
128.9828673554
 36
0.0
  0
DIMENSION
  5
238
330
1F
100
AcDbEntity
  8
VERMASSUNG
100
AcDbDimension
  2
_D_1
 10
224.5349930221
 20
145.1131384938
 30
0.0
 11
197.0349930221
 21
145.1131384938
 31
0.0
 70
   160
  1
<>
 71
     2
 42
-1.0
  3
SLDDIMSTYLE1
100
AcDbAlignedDimension
 13
169.5349930221
 23
131.4852121972
 33
0.0
 14
224.5349930221
 24
138.7852121972
 34
0.0
100
AcDbRotatedDimension
  0
DIMENSION
  5
243
330
1F
100
AcDbEntity
  8
VERMASSUNG
100
AcDbDimension
  2
_D_2
 10
224.5349930221
 20
152.9121966851
 30
0.0
 11
187.0849930221
 21
152.9121966851
 31
0.0
 70
   160
  1
<>
 71
     2
 42
-1.0
  3
SLDDIMSTYLE1
100
AcDbAlignedDimension
 13
149.6349930221
 23
123.7152121972
 33
0.0
 14
224.5349930221
 24
138.7852121972
 34
0.0
100
AcDbRotatedDimension
  0
DIMENSION
  5
24D
330
1F
100
AcDbEntity
  8
VERMASSUNG
100
AcDbDimension
  2
_D_3
 10
243.0694392484
 20
111.7852121972
 30
0.0
 11
243.0694392484
 21
125.2852121972
 31
0.0
 70
   160
  1
<>
 71
     2
 42
-1.0
  3
SLDDIMSTYLE1
100
AcDbAlignedDimension
 13
224.5349930221
 23
138.7852121972
 33
0.0
 14
224.5349930221
 24
111.7852121972
 34
0.0
 50
90.0
100
AcDbRotatedDimension
  0
DIMENSION
  5
257
330
1F
100
AcDbEntity
  8
VERMASSUNG
100
AcDbDimension
  2
_D_4
 10
142.9725710026
 20
91.7852121972
 30
0.0
 11
142.9725710026
 21
111.7852121972
 31
0.0
 70
   160
  1
HSK T%%c<>
 71
     2
 42
-1.0
  3
SLDDIMSTYLE1
100
AcDbAlignedDimension
 13
169.8349930221
 23
131.7852121972
 33
0.0
 14
169.8349930221
 24
91.7852121972
 34
0.0
 50
90.0
100
AcDbRotatedDimension
  0
LINE
  5
263
330
1F
100
AcDbEntity
  8
0
  6
Continuous
 62
     7
370
    15
100
AcDbLine
 10
93.2914717173
 20
136.8907675898
 30
0.0
 11
90.6052683917
 21
137.3644177118
 31
0.0
  0
LINE
  5
264
330
1F
100
AcDbEntity
  8
0
  6
Continuous
 62
     7
370
    15
100
AcDbLine
 10
93.5401014989
 20
136.5383625038
 30
0.0
 11
93.301329393
 21
136.8834051817
 31
0.0
  0
LINE
  5
265
330
1F
100
AcDbEntity
  8
0
  6
Continuous
 62
     7
370
    15
100
AcDbLine
 10
90.6210457003
 20
137.6902468536
 30
0.0
 11
84.4017739561
 21
138.7868722625
 31
0.0
  0
LINE
  5
266
330
1F
100
AcDbEntity
  8
0
  6
Continuous
 62
     7
370
    15
100
AcDbLine
 10
83.8404845575
 20
136.0331698789
 30
0.0
 11
83.373127082
 21
135.4651857968
 31
0.0
  0
LINE
  5
267
330
1F
100
AcDbEntity
  8
0
  6
Continuous
 62
     7
370
    15
100
AcDbLine
 10
80.2069952334
 20
123.616217999
 30
0.0
 11
80.4982369108
 21
122.7914335286
 31
0.0
  0
LINE
  5
268
330
1F
100
AcDbEntity
  8
0
  6
Continuous
 62
     7
370
    15
100
AcDbLine
 10
79.2158281251
 20
120.2879228394
 30
0.0
 11
79.5258941328
 21
120.2332498364
 31
0.0
  0
ARC
  5
269
330
1F
100
AcDbEntity
  8
0
  6
Continuous
 62
     7
370
    15
100
AcDbCircle
 10
84.454036275
 20
111.7852121972
 30
0.0
 40
18.00000000000001
100
AcDbArc
 50
241.1011707421
 51
0.0
  0
LINE
  5
26A
330
1F
100
AcDbEntity
  8
0
  6
Continuous
 62
     7
370
    15
100
AcDbLine
 10
81.6880443293
 20
124.2939174569
 30
0.0
 11
75.7552753737
 21
96.0266729635
 31
0.0
  0
LINE
  5
26B
330
1F
100
AcDbEntity
  8
0
  6
Continuous
 62
     7
370
    15
100
AcDbLine
 10
81.6880443293
 20
124.2939174569
 30
0.0
 11
90.7182310194
 21
122.7016519026
 31
0.0
  0
LINE
  5
26C
330
1F
100
AcDbEntity
  8
0
  6
Continuous
 62
     7
370
    15
100
AcDbLine
 10
90.80463163
 20
123.1133158665
 30
0.0
 11
90.7182310194
 21
122.7016519026
 31
0.0
  0
SPLINE
  5
26D
330
1F
100
AcDbEntity
  8
0
  6
Continuous
 62
     7
370
    15
100
AcDbSpline
210
0.0
220
0.0
230
1.0
 70
     8
 71
     3
 72
    25
 73
    21
 74
     0
 42
0.00000001
 43
0.00000001
 12
1.0
 22
0.0
 32
0.0
 13
1.0
 23
0.0
 33
0.0
 40
0.0
 40
0.0
 40
0.0
 40
0.0
 40
0.0420995470194557
 40
0.084113924686506
 40
0.1260581611080442
 40
0.1679473598823384
 40
0.2097966841976561
 40
0.2516213406107722
 40
0.2934365625907132
 40
0.3352575939160922
 40
0.3770996720161934
 40
0.4189780113467077
 40
0.4609077868905671
 40
0.5029041178727526
 40
0.5866271445355136
 40
0.6698341783803095
 40
0.7526489421584355
 40
0.8351969224408589
 40
0.9176048245406581
 40
1.0
 40
1.0
 40
1.0
 40
1.0
 10
102.4540362716405
 20
129.1108837791658
 30
0.0
 10
102.3531382664307
 20
129.2320283749915
 30
0.0
 10
102.1515463773941
 20
129.4740724854603
 30
0.0
 10
101.8402779643335
 20
129.8297210517386
 30
0.0
 10
101.5229433452196
 20
130.1794009675055
 30
0.0
 10
101.1988820462544
 20
130.522615185865
 30
0.0
 10
100.8682707516557
 20
130.8594963817425
 30
0.0
 10
100.5310623466799
 20
131.1900088775262
 30
0.0
 10
100.1872695841271
 20
131.5141620471283
 30
0.0
 10
99.83688926005111
 20
131.831953193072
 30
0.0
 10
99.47992226171809
 20
132.1433829582915
 30
0.0
 10
99.11636912018109
 20
132.4484507508255
 30
0.0
 10
98.74622775013583
 20
132.747157648062
 30
0.0
 10
98.24499847040042
 20
133.136120035432
 30
0.0
 10
97.60580985524368
 20
133.6037321352463
 30
0.0
 10
96.8193286309721
 20
134.1339912930559
 30
0.0
 10
96.01525482728263
 20
134.632315255239
 30
0.0
 10
95.19319563872261
 20
135.0978931405131
 30
0.0
 10
94.35465175545787
 20
135.5336947914479
 30
0.0
 10
93.78116701028945
 20
135.7968724898787
 30
0.0
 10
93.49444678090266
 20
135.9284511773666
 30
0.0
  0
LINE
  5
26E
330
1F
100
AcDbEntity
  8
0
  6
Continuous
 62
     7
370
    15
100
AcDbLine
 10
102.454036275
 20
129.1108837792
 30
0.0
 11
102.454036275
 21
111.7852121972
 31
0.0
  0
LINE
  5
26F
330
1F
100
AcDbEntity
  8
0
  6
Continuous
 62
     7
370
    15
100
AcDbLine
 10
93.4943015189
 20
135.9284947331
 30
0.0
 11
93.5487629824
 21
136.4570963515
 31
0.0
  0
SPLINE
  5
270
330
1F
100
AcDbEntity
  8
0
  6
Continuous
 62
     7
370
    15
100
AcDbSpline
210
0.0
220
0.0
230
1.0
 70
     8
 71
     3
 72
    28
 73
    24
 74
     0
 42
0.00000001
 43
0.00000001
 12
1.0
 22
0.0
 32
0.0
 13
1.0
 23
0.0
 33
0.0
 40
0.0
 40
0.0
 40
0.0
 40
0.0
 40
0.0436921210996241
 40
0.0877698930454796
 40
0.1322345583701485
 40
0.1770873274445937
 40
0.2223293794827802
 40
0.2679618635117573
 40
0.3139858993083446
 40
0.3604025783035598
 40
0.4072129644559301
 40
0.4544180950947664
 40
0.5020189817344369
 40
0.5500166108606543
 40
0.5984119446898131
 40
0.6472059219022629
 40
0.6963994583505371
 40
0.7459934477433402
 40
0.7959887623062595
 40
0.8463862534199484
 40
0.897186752236669
 40
0.9483910702759255
 40
0.9999999999999999
 40
0.9999999999999999
 40
0.9999999999999999
 40
0.9999999999999999
 10
93.54867257932031
 20
136.4565549187292
 30
0.0
 10
93.6989980746814
 20
136.3891775082954
 30
0.0
 10
94.00097592143702
 20
136.2538279771071
 30
0.0
 10
94.45015135619404
 20
136.0387815887036
 30
0.0
 10
94.89873689857711
 20
135.8136864431338
 30
0.0
 10
95.34604128009293
 20
135.5776131414273
 30
0.0
 10
95.79188155005764
 20
135.3306700376232
 30
0.0
 10
96.23592747622597
 20
135.0726922188738
 30
0.0
 10
96.67787961035202
 20
134.8035978278817
 30
0.0
 10
97.11742106080688
 20
134.5232917696839
 30
0.0
 10
97.55423070609508
 20
134.2316922817029
 30
0.0
 10
97.9879797514498
 20
133.9287241624046
 30
0.0
 10
98.41833281219583
 20
133.6143210440252
 30
0.0
 10
98.84494782805007
 20
133.2884252466914
 30
0.0
 10
99.2674761546206
 20
132.9509881684523
 30
0.0
 10
99.68556322276504
 20
132.601970997134
 30
0.0
 10
100.0988468056827
 20
132.2413435790249
 30
0.0
 10
100.5069644821237
 20
131.8690904278595
 30
0.0
 10
100.9095264094954
 20
131.4851897152494
 30
0.0
 10
101.3062192192858
 20
131.0896943351809
 30
0.0
 10
101.6964147130583
 20
130.6824274085071
 30
0.0
 10
102.0806489693181
 20
130.264134014675
 30
0.0
 10
102.3292617665182
 20
129.9772638876215
 30
0.0
 10
102.4540573610387
 20
129.8332643491464
 30
0.0
  0
LINE
  5
271
330
1F
100
AcDbEntity
  8
0
  6
Continuous
 62
     7
370
    15
100
AcDbLine
 10
102.454036275
 20
129.8339027283
 30
0.0
 11
102.454036275
 21
129.1104904955
 31
0.0
  0
LWPOLYLINE
  5
272
330
1F
100
AcDbEntity
  8
0
  6
Continuous
 62
     7
370
    15
100
AcDbPolyline
 90
       37
 70
   128
 43
0.0
 10
79.6053225951
 20
118.8135267506
 10
79.6586531941
 20
118.7501299855
 10
79.6918966277
 20
118.5839294007
 10
79.7040428112
 20
118.3199749169
 10
79.6947226888
 20
117.9662866574
 10
79.6642194478
 20
117.5336112611
 10
79.6134599137
 20
117.035095351
 10
79.5439863893
 20
116.4858860807
 10
79.4579097924
 20
115.9026708959
 10
79.3578455169
 20
115.303170495
 10
79.2468339651
 20
114.7056003943
 10
79.128248167
 20
114.1281174588
 10
79.0056912919
 20
113.5882682155
 10
78.8828871685
 20
113.1024557102
 10
78.7635671379
 20
112.6854411103
 10
78.6513566789
 20
112.3498951932
 10
78.5496652496
 20
112.1060133519
 10
78.4615826924
 20
111.9612058128
 10
78.3897853514
 20
111.9198724795
 10
78.3364547525
 20
111.9832692446
 10
78.3032113188
 20
112.1494698294
 10
78.2910651353
 20
112.4134243133
 10
78.3003852577
 20
112.7671125727
 10
78.3308884987
 20
113.199787969
 10
78.3816480328
 20
113.6983038792
 10
78.4511215572
 20
114.2475131495
 10
78.5371981541
 20
114.8307283342
 10
78.6372624296
 20
115.4302287351
 10
78.7482739814
 20
116.0277988359
 10
78.8668597795
 20
116.6052817713
 10
78.9894166546
 20
117.1451310147
 10
79.112220778
 20
117.6309435199
 10
79.2315408086
 20
118.0479581199
 10
79.3437512676
 20
118.3835040369
 10
79.4454426969
 20
118.6273858782
 10
79.5335252541
 20
118.7721934174
 10
79.6053225951
 20
118.8135267506
  0
ARC
  5
273
330
1F
100
AcDbEntity
  8
0
  6
Continuous
 62
     7
370
    15
100
AcDbCircle
 10
92.9930285224
 20
119.5926306156
 30
0.0
 40
13.75995333186756
100
AcDbArc
 50
162.0814014074
 51
174.2120567746
  0
LWPOLYLINE
  5
274
330
1F
100
AcDbEntity
  8
0
  6
Continuous
 62
     7
370
    15
100
AcDbPolyline
 90
        6
 70
   128
 43
0.0
 10
79.2471386519
 20
120.2824019487
 10
79.2465401859
 20
120.2555914092
 10
79.2522691064
 20
120.0363146197
 10
79.278939418
 20
119.9133225439
 10
79.3252137598
 20
119.8927825178
 10
79.3887717432
 20
119.9757245043
  0
ARC
  5
275
330
1F
100
AcDbEntity
  8
0
  6
Continuous
 62
     7
370
    15
100
AcDbCircle
 10
84.454036275
 20
111.7852121972
 30
0.0
 40
18.00000000000001
100
AcDbArc
 50
239.0134124916
 51
241.1011707421
  0
SPLINE
  5
276
330
1F
100
AcDbEntity
  8
0
  6
Continuous
 62
     7
370
    15
100
AcDbSpline
210
0.0
220
0.0
230
1.0
 70
     8
 71
     3
 72
     8
 73
     4
 74
     0
 42
0.00000001
 43
0.00000001
 12
1.0
 22
0.0
 32
0.0
 13
1.0
 23
0.0
 33
0.0
 40
0.0
 40
0.0
 40
0.0
 40
0.0
 40
1.0
 40
1.0
 40
1.0
 40
1.0
 10
75.1869629909105
 20
96.35403101280234
 30
0.0
 10
75.22760847203119
 20
96.62571011535009
 30
0.0
 10
75.26828784049559
 20
96.89744289551436
 30
0.0
 10
75.3090057747116
 20
97.16923676390205
 30
0.0
  0
SPLINE
  5
277
330
1F
100
AcDbEntity
  8
0
  6
Continuous
 62
     7
370
    15
100
AcDbSpline
210
0.0
220
0.0
230
1.0
 70
     8
 71
     3
 72
    12
 73
     8
 74
     0
 42
0.00000001
 43
0.00000001
 12
1.0
 22
0.0
 32
0.0
 13
1.0
 23
0.0
 33
0.0
 40
0.0
 40
0.0
 40
0.0
 40
0.0
 40
0.2500000000000022
 40
0.2500000000000022
 40
0.5000000000000043
 40
0.5000000000000043
 40
1.0
 40
1.0
 40
1.0
 40
1.0
 10
75.3090057747116
 20
97.16923676390205
 30
0.0
 10
75.32568786697298
 20
97.28059040882093
 30
0.0
 10
75.33960771819186
 20
97.38561123522858
 30
0.0
 10
75.36195087150271
 20
97.58305129117994
 30
0.0
 10
75.3700264511217
 20
97.67283984744171
 30
0.0
 10
75.38363411223222
 20
97.90397933034411
 30
0.0
 10
75.37804202146596
 20
98.00562481264578
 30
0.0
 10
75.35596720364792
 20
98.0202153148424
 30
0.0
  0
ARC
  5
278
330
1F
100
AcDbEntity
  8
0
  6
Continuous
 62
     7
370
    15
100
AcDbCircle
 10
84.454036275
 20
111.7852121972
 30
0.0
 40
16.50000000000001
100
AcDbArc
 50
234.6589672951
 51
236.53701681
  0
ARC
  5
279
330
1F
100
AcDbEntity
  8
0
  6
Continuous
 62
     7
370
    15
100
AcDbCircle
 10
84.454036275
 20
111.7852121972
 30
0.0
 40
16.5
100
AcDbArc
 50
103.46298319
 51
105.3410327049
  0
SPLINE
  5
27A
330
1F
100
AcDbEntity
  8
0
  6
Continuous
 62
     7
370
    15
100
AcDbSpline
210
0.0
220
0.0
230
1.0
 70
     8
 71
     3
 72
    10
 73
     6
 74
     0
 42
0.00000001
 43
0.00000001
 12
1.0
 22
0.0
 32
0.0
 13
1.0
 23
0.0
 33
0.0
 40
0.0
 40
0.0
 40
0.0
 40
0.0
 40
0.5
 40
0.5
 40
1.0
 40
1.0
 40
1.0
 40
1.0
 10
80.61255411184499
 20
127.8318010805411
 30
0.0
 10
80.63826410768046
 20
127.837955939442
 30
0.0
 10
80.67780233980004
 20
127.9299778687064
 30
0.0
 10
80.76681680585169
 20
128.2277773537734
 30
0.0
 10
80.81468879626374
 20
128.4269836038595
 30
0.0
 10
80.8594766095711
 20
128.647521099959
 30
0.0
  0
SPLINE
  5
27B
330
1F
100
AcDbEntity
  8
0
  6
Continuous
 62
     7
370
    15
100
AcDbSpline
210
0.0
220
0.0
230
1.0
 70
     8
 71
     3
 72
     8
 73
     4
 74
     0
 42
0.00000001
 43
0.00000001
 12
1.0
 22
0.0
 32
0.0
 13
1.0
 23
0.0
 33
0.0
 40
0.0
 40
0.0
 40
0.0
 40
0.0
 40
1.0
 40
1.0
 40
1.0
 40
1.0
 10
80.8594766095711
 20
128.647521099959
 30
0.0
 10
81.1446662541485
 20
130.0518095767589
 30
0.0
 10
81.43025956322634
 20
131.4542411892277
 30
0.0
 10
81.71606459067925
 20
132.8556988931698
 30
0.0
  0
LINE
  5
27C
330
1F
100
AcDbEntity
  8
0
  6
Continuous
 62
     7
370
    15
100
AcDbLine
 10
79.3887717432
 20
119.9757245043
 30
0.0
 11
81.6880443293
 21
124.2939174569
 31
0.0
  0
LINE
  5
27D
330
1F
100
AcDbEntity
  8
0
  6
Continuous
 62
     7
370
    15
100
AcDbLine
 10
81.7160645907
 20
132.8556988932
 30
0.0
 11
81.8474370225
 21
133.1024254068
 31
0.0
  0
SPLINE
  5
27E
330
1F
100
AcDbEntity
  8
0
  6
Continuous
 62
     7
370
    15
100
AcDbSpline
210
0.0
220
0.0
230
1.0
 70
     8
 71
     3
 72
    12
 73
     8
 74
     0
 42
0.00000001
 43
0.00000001
 12
1.0
 22
0.0
 32
0.0
 13
1.0
 23
0.0
 33
0.0
 40
0.0
 40
0.0
 40
0.0
 40
0.0
 40
0.2499999999999977
 40
0.2499999999999977
 40
0.4999999999999953
 40
0.4999999999999953
 40
1.0
 40
1.0
 40
1.0
 40
1.0
 10
79.4581955153616
 20
127.510719346575
 30
0.0
 10
79.53725426298381
 20
127.5358355421946
 30
0.0
 10
79.61248114869967
 20
127.5590785643485
 30
0.0
 10
79.75467976536538
 20
127.6020249167409
 30
0.0
 10
79.82066962720319
 20
127.621417742771
 30
0.0
 10
79.99100723176996
 20
127.6705935918978
 30
0.0
 10
80.06967636847563
 20
127.6920591113856
 30
0.0
 10
80.08873430714725
 20
127.6972874462122
 30
0.0
  0
SPLINE
  5
27F
330
1F
100
AcDbEntity
  8
0
  6
Continuous
 62
     7
370
    15
100
AcDbSpline
210
0.0
220
0.0
230
1.0
 70
     8
 71
     3
 72
    10
 73
     6
 74
     0
 42
0.00000001
 43
0.00000001
 12
1.0
 22
0.0
 32
0.0
 13
1.0
 23
0.0
 33
0.0
 40
0.0
 40
0.0
 40
0.0
 40
0.0
 40
0.5
 40
0.5
 40
1.0
 40
1.0
 40
1.0
 40
1.0
 10
74.90974397104367
 20
98.32577370909266
 30
0.0
 10
74.89365983776113
 20
98.33717921234899
 30
0.0
 10
74.82893141051392
 20
98.38291030794782
 30
0.0
 10
74.63542232352205
 20
98.52402221836154
 30
0.0
 10
74.51226013639376
 20
98.61560570328662
 30
0.0
 10
74.38104136946139
 20
98.71674734353452
 30
0.0
  0
ELLIPSE
  5
280
330
1F
100
AcDbEntity
  8
0
  6
Continuous
 62
     7
370
    15
100
AcDbEllipse
 10
74.2794857114
 20
118.4359175002
 30
0.0
 11
1.786124008288553
 21
2.383476616957921
 31
0.0
210
0.0
220
0.0
230
1.0
 40
0.686264414
 41
0.0
 42
6.283185307179586
  0
ARC
  5
281
330
1F
100
AcDbEntity
  8
0
  6
Continuous
 62
     7
370
    15
100
AcDbCircle
 10
84.454036275
 20
111.7852121972
 30
0.0
 40
16.50000000000001
100
AcDbArc
 50
107.6245465932
 51
232.3754534068
  0
SPLINE
  5
282
330
1F
100
AcDbEntity
  8
0
  6
Continuous
 62
     7
370
    15
100
AcDbSpline
210
0.0
220
0.0
230
1.0
 70
     8
 71
     3
 72
    29
 73
    25
 74
     0
 42
0.00000001
 43
0.00000001
 12
1.0
 22
0.0
 32
0.0
 13
1.0
 23
0.0
 33
0.0
 40
0.0
 40
0.0
 40
0.0
 40
0.0
 40
0.0475474319985327
 40
0.1044654835629709
 40
0.1625552910039249
 40
0.2209692273615609
 40
0.2802430779799566
 40
0.3397844361744029
 40
0.4001967722557764
 40
0.4610506462589474
 40
0.4874435757735794
 40
0.514098146617214
 40
0.5349864196700559
 40
0.5564011612826474
 40
0.5773319541705678
 40
0.5989598941658034
 40
0.6319705795533983
 40
0.6657506167913203
 40
0.7181806020370005
 40
0.7710665989359627
 40
0.8249479541789134
 40
0.8791240372438057
 40
0.9393142458447109
 40
1.0
 40
1.0
 40
1.0
 40
1.0
 10
74.88793715453735
 20
116.2775406002832
 30
0.0
 10
74.852267822498
 20
116.2982201502541
 30
0.0
 10
74.77389946771547
 20
116.3436547635817
 30
0.0
 10
74.63488389470126
 20
116.3958824273416
 30
0.0
 10
74.47634080403216
 20
116.4393097730129
 30
0.0
 10
74.30465607675997
 20
116.4699763054905
 30
0.0
 10
74.12206624985602
 20
116.489426094352
 30
0.0
 10
73.92811121568285
 20
116.4990445715232
 30
0.0
 10
73.7226924898972
 20
116.5012900624501
 30
0.0
 10
73.54501473884478
 20
116.500811029667
 30
0.0
 10
73.40007236478317
 20
116.5051412773291
 30
0.0
 10
73.3021772940823
 20
116.5121139657583
 30
0.0
 10
73.20801575841527
 20
116.5247495219541
 30
0.0
 10
73.12068668561689
 20
116.5432263568624
 30
0.0
 10
73.03451342667273
 20
116.5694883144578
 30
0.0
 10
72.93872689929945
 20
116.6075916336204
 30
0.0
 10
72.83685987590667
 20
116.6581868394306
 30
0.0
 10
72.71241478747336
 20
116.7281074908158
 30
0.0
 10
72.5789801432595
 20
116.8066967634572
 30
0.0
 10
72.43466236136089
 20
116.8871320092643
 30
0.0
 10
72.29381208733535
 20
116.9565045855901
 30
0.0
 10
72.15049809508848
 20
117.0139698966975
 30
0.0
 10
72.00474103864812
 20
117.0575042513957
 30
0.0
 10
71.90801071948923
 20
117.0686255325525
 30
0.0
 10
71.85944728111829
 20
117.0742089696461
 30
0.0
  0
SPLINE
  5
283
330
1F
100
AcDbEntity
  8
0
  6
Continuous
 62
     7
370
    15
100
AcDbSpline
210
0.0
220
0.0
230
1.0
 70
    24
 71
     3
 72
     9
 73
     5
 74
     0
 42
0.00000001
 43
0.00000001
 12
1.0
 22
0.0
 32
0.0
 13
1.0
 23
0.0
 33
0.0
 40
0.0
 40
0.0
 40
0.0
 40
0.0
 40
0.5
 40
1.0
 40
1.0
 40
1.0
 40
1.0
 10
79.95403627503208
 20
128.6852121972328
 30
0.0
 10
79.95403627503208
 20
128.6871350655667
 30
0.0
 10
79.95403627503208
 20
128.6909803545556
 30
0.0
 10
79.95403627503208
 20
128.694824748876
 30
0.0
 10
79.95403627503208
 20
128.6967467225205
 30
0.0
  0
LINE
  5
284
330
1F
100
AcDbEntity
  8
0
  6
Continuous
 62
     7
370
    15
100
AcDbLine
 10
80.8671408355
 20
128.6852121972
 30
0.0
 11
79.954036275
 21
128.6852121972
 31
0.0
  0
SPLINE
  5
285
330
1F
100
AcDbEntity
  8
0
  6
Continuous
 62
     7
370
    15
100
AcDbSpline
210
0.0
220
0.0
230
1.0
 70
    24
 71
     3
 72
    12
 73
     8
 74
     0
 42
0.00000001
 43
0.00000001
 12
1.0
 22
0.0
 32
0.0
 13
1.0
 23
0.0
 33
0.0
 40
0.0
 40
0.0
 40
0.0
 40
0.0
 40
0.5000000000000022
 40
0.5000000000000022
 40
0.7500000000000011
 40
0.7500000000000011
 40
1.0
 40
1.0
 40
1.0
 40
1.0
 10
71.57663358660149
 20
123.6352121972328
 30
0.0
 10
71.7591602901492
 20
123.6352121972328
 30
0.0
 10
71.94375094548437
 20
123.6352121972328
 30
0.0
 10
72.20403226765889
 20
123.6352121972328
 30
0.0
 10
72.28858672046997
 20
123.6352121972328
 30
0.0
 10
72.45253467021418
 20
123.6352121972328
 30
0.0
 10
72.53198489425556
 20
123.6352121972328
 30
0.0
 10
72.60403627503389
 20
123.6352121972328
 30
0.0
  0
SPLINE
  5
286
330
1F
100
AcDbEntity
  8
0
  6
Continuous
 62
     7
370
    15
100
AcDbSpline
210
0.0
220
0.0
230
1.0
 70
    24
 71
     3
 72
    10
 73
     6
 74
     0
 42
0.00000001
 43
0.00000001
 12
1.0
 22
0.0
 32
0.0
 13
1.0
 23
0.0
 33
0.0
 40
0.0
 40
0.0
 40
0.0
 40
0.0
 40
0.5
 40
0.5
 40
1.0
 40
1.0
 40
1.0
 40
1.0
 10
72.60403627503209
 20
124.6626148856634
 30
0.0
 10
72.60403627503209
 20
124.4799061735284
 30
0.0
 10
72.60403627503209
 20
124.2963978837676
 30
0.0
 10
72.60403627503209
 20
123.9480939054469
 30
0.0
 10
72.60403627503209
 20
123.779906322904
 30
0.0
 10
72.60403627503209
 20
123.6352121972313
 30
0.0
  0
SPLINE
  5
287
330
1F
100
AcDbEntity
  8
0
  6
Continuous
 62
     7
370
    15
100
AcDbSpline
210
0.0
220
0.0
230
1.0
 70
    24
 71
     3
 72
    10
 73
     6
 74
     0
 42
0.00000001
 43
0.00000001
 12
1.0
 22
0.0
 32
0.0
 13
1.0
 23
0.0
 33
0.0
 40
0.0
 40
0.0
 40
0.0
 40
0.0
 40
0.5
 40
0.5
 40
1.0
 40
1.0
 40
1.0
 40
1.0
 10
79.95403627503208
 20
130.6560892303757
 30
0.0
 10
79.95403627503208
 20
130.8145236732635
 30
0.0
 10
79.95403627503208
 20
130.9735443680655
 30
0.0
 10
79.95403627503208
 20
131.2035521923211
 30
0.0
 10
79.95403627503208
 20
131.2723874671379
 30
0.0
 10
79.95403627503208
 20
131.2723874671379
 30
0.0
  0
ARC
  5
288
330
1F
100
AcDbEntity
  8
0
  6
Continuous
 62
     7
370
    15
100
AcDbCircle
 10
84.454036275
 20
111.7852121972
 30
0.0
 40
19.99999999999999
100
AcDbArc
 50
103.0028781629
 51
126.3346172154
  0
SPLINE
  5
289
330
1F
100
AcDbEntity
  8
0
  6
Continuous
 62
     7
370
    15
100
AcDbSpline
210
0.0
220
0.0
230
1.0
 70
    24
 71
     3
 72
    12
 73
     8
 74
     0
 42
0.00000001
 43
0.00000001
 12
1.0
 22
0.0
 32
0.0
 13
1.0
 23
0.0
 33
0.0
 40
0.0
 40
0.0
 40
0.0
 40
0.0
 40
0.2500000000000014
 40
0.2500000000000014
 40
0.5000000000000029
 40
0.5000000000000029
 40
1.0
 40
1.0
 40
1.0
 40
1.0
 10
72.60403627503209
 20
127.8966211983102
 30
0.0
 10
72.60403627503209
 20
127.8966211983102
 30
0.0
 10
72.60403627503209
 20
127.8709965657055
 30
0.0
 10
72.60403627503209
 20
127.7824531927737
 30
0.0
 10
72.60403627503209
 20
127.719570709659
 30
0.0
 10
72.60403627503209
 20
127.5022095217254
 30
0.0
 10
72.60403627503209
 20
127.3235625117141
 30
0.0
 10
72.60403627503209
 20
127.1454693565384
 30
0.0
  0
ARC
  5
28A
330
1F
100
AcDbEntity
  8
0
  6
Continuous
 62
     7
370
    15
100
AcDbCircle
 10
84.454036275
 20
111.7852121972
 30
0.0
 40
20.00000000000001
100
AcDbArc
 50
143.6653827846
 51
254.0379858372
  0
SPLINE
  5
28B
330
1F
100
AcDbEntity
  8
0
  6
Continuous
 62
     7
370
    15
100
AcDbSpline
210
0.0
220
0.0
230
1.0
 70
    24
 71
     3
 72
    10
 73
     6
 74
     0
 42
0.00000001
 43
0.00000001
 12
1.0
 22
0.0
 32
0.0
 13
1.0
 23
0.0
 33
0.0
 40
0.0
 40
0.0
 40
0.0
 40
0.0
 40
0.5
 40
0.5
 40
1.0
 40
1.0
 40
1.0
 40
1.0
 10
78.9540362750321
 20
93.18118037614626
 30
0.0
 10
78.9540362750321
 20
93.02154820724303
 30
0.0
 10
78.9540362750321
 20
92.86049857347896
 30
0.0
 10
78.9540362750321
 20
92.62750768980236
 30
0.0
 10
78.9540362750321
 20
92.55632767420336
 30
0.0
 10
78.9540362750321
 20
92.55632767420336
 30
0.0
  0
SPLINE
  5
28C
330
1F
100
AcDbEntity
  8
0
  6
Continuous
 62
     7
370
    15
100
AcDbSpline
210
0.0
220
0.0
230
1.0
 70
    24
 71
     3
 72
    12
 73
     8
 74
     0
 42
0.00000001
 43
0.00000001
 12
1.0
 22
0.0
 32
0.0
 13
1.0
 23
0.0
 33
0.0
 40
0.0
 40
0.0
 40
0.0
 40
0.0
 40
0.25
 40
0.25
 40
0.5
 40
0.5
 40
1.0
 40
1.0
 40
1.0
 40
1.0
 10
68.34262727395462
 20
123.6352121972328
 30
0.0
 10
68.34262727395462
 20
123.6352121972328
 30
0.0
 10
68.3679074241191
 20
123.6352121972328
 30
0.0
 10
68.45751876962085
 20
123.6352121972328
 30
0.0
 10
68.52050440654686
 20
123.6352121972328
 30
0.0
 10
68.73679112830443
 20
123.6352121972328
 30
0.0
 10
68.9167708857248
 20
123.6352121972328
 30
0.0
 10
69.0937791157265
 20
123.6352121972328
 30
0.0
  0
ARC
  5
28D
330
1F
100
AcDbEntity
  8
0
  6
Continuous
 62
     7
370
    15
100
AcDbCircle
 10
84.454036275
 20
111.7852121972
 30
0.0
 40
20.0
100
AcDbArc
 50
285.9620141628
 51
25.8419327632
  0
SPLINE
  5
28E
330
1F
100
AcDbEntity
  8
0
  6
Continuous
 62
     7
370
    15
100
AcDbSpline
210
0.0
220
0.0
230
1.0
 70
    24
 71
     3
 72
    12
 73
     8
 74
     0
 42
0.00000001
 43
0.00000001
 12
1.0
 22
0.0
 32
0.0
 13
1.0
 23
0.0
 33
0.0
 40
0.0
 40
0.0
 40
0.0
 40
0.0
 40
0.25
 40
0.25
 40
0.5
 40
0.5
 40
1.0
 40
1.0
 40
1.0
 40
1.0
 10
89.95403627503211
 20
92.55632767420337
 30
0.0
 10
89.95403627503211
 20
92.55632767420337
 30
0.0
 10
89.95403627503211
 20
92.57330327056145
 30
0.0
 10
89.95403627503211
 20
92.63777876802067
 30
0.0
 10
89.95403627503211
 20
92.68489239981525
 30
0.0
 10
89.95403627503211
 20
92.86150231380273
 30
0.0
 10
89.95403627503211
 20
93.02135118961091
 30
0.0
 10
89.95403627503211
 20
93.18118037614593
 30
0.0
  0
LINE
  5
28F
330
1F
100
AcDbEntity
  8
0
  6
Continuous
 62
     7
370
    15
100
AcDbLine
 10
89.954036275
 20
93.1811803761
 30
0.0
 11
89.954036275
 21
94.6460756962
 31
0.0
  0
LINE
  5
290
330
1F
100
AcDbEntity
  8
0
  6
Continuous
 62
     7
370
    15
100
AcDbLine
 10
78.954036275
 20
94.6460756962
 30
0.0
 11
78.954036275
 21
93.1811803761
 31
0.0
  0
LINE
  5
291
330
1F
100
AcDbEntity
  8
0
  6
Continuous
 62
     7
370
    15
100
AcDbLine
 10
69.0937791157
 20
123.6352121972
 30
0.0
 11
71.5766335866
 21
123.6352121972
 31
0.0
  0
LINE
  5
292
330
1F
100
AcDbEntity
  8
0
  6
Continuous
 62
     7
370
    15
100
AcDbLine
 10
79.954036275
 20
128.6967467225
 30
0.0
 11
79.954036275
 21
130.6560892304
 31
0.0
  0
LINE
  5
293
330
1F
100
AcDbEntity
  8
0
  6
Continuous
 62
     7
370
    15
100
AcDbLine
 10
72.604036275
 20
127.1454693565
 30
0.0
 11
72.604036275
 21
124.6626148857
 31
0.0
  0
SPLINE
  5
294
330
1F
100
AcDbEntity
  8
0
  6
Continuous
 62
     7
370
    15
100
AcDbSpline
210
0.0
220
0.0
230
1.0
 70
     8
 71
     3
 72
    22
 73
    18
 74
     0
 42
0.00000001
 43
0.00000001
 12
1.0
 22
0.0
 32
0.0
 13
1.0
 23
0.0
 33
0.0
 40
0.0
 40
0.0
 40
0.0
 40
0.0
 40
0.2499999999999998
 40
0.2499999999999998
 40
0.3749999999999998
 40
0.3749999999999998
 40
0.4999999999999999
 40
0.4999999999999999
 40
0.6249999999999999
 40
0.6249999999999999
 40
0.7499999999999999
 40
0.7499999999999999
 40
0.8750000000000003
 40
0.8750000000000003
 40
0.9375000000000001
 40
0.9375000000000001
 40
1.0
 40
1.0
 40
1.0
 40
1.0
 10
68.34262727395462
 20
123.6352121972328
 30
0.0
 10
68.75662215212112
 20
124.1980848391308
 30
0.0
 10
69.19243195343006
 20
124.7287097228603
 30
0.0
 10
69.86917275641439
 20
125.4744207137819
 30
0.0
 10
70.10002788358906
 20
125.7160409401806
 30
0.0
 10
70.5600649387512
 20
126.1748997155065
 30
0.0
 10
70.78603261552969
 20
126.3890783879763
 30
0.0
 10
71.22322420403042
 20
126.7863069471219
 30
0.0
 10
71.43627692832298
 20
126.9707517821417
 30
0.0
 10
71.82045306755651
 20
127.2918316300253
 30
0.0
 10
71.99457007634798
 20
127.4311824601313
 30
0.0
 10
72.28808782114851
 20
127.6604879945569
 30
0.0
 10
72.40288012574592
 20
127.7470240040332
 30
0.0
 10
72.5218347018419
 20
127.8359136083645
 30
0.0
 10
72.5526527848285
 20
127.8587221142261
 30
0.0
 10
72.5936719965471
 20
127.8890132769223
 30
0.0
 10
72.60403627503209
 20
127.8966211983102
 30
0.0
 10
72.60403627503209
 20
127.8966211983102
 30
0.0
  0
SPLINE
  5
295
330
1F
100
AcDbEntity
  8
0
  6
Continuous
 62
     7
370
    15
100
AcDbSpline
210
0.0
220
0.0
230
1.0
 70
     8
 71
     3
 72
    22
 73
    18
 74
     0
 42
0.00000001
 43
0.00000001
 12
1.0
 22
0.0
 32
0.0
 13
1.0
 23
0.0
 33
0.0
 40
0.0
 40
0.0
 40
0.0
 40
0.0
 40
0.125
 40
0.125
 40
0.25
 40
0.25
 40
0.375
 40
0.375
 40
0.5
 40
0.5
 40
0.625
 40
0.625
 40
0.75
 40
0.75
 40
0.875
 40
0.875
 40
1.0
 40
1.0
 40
1.0
 40
1.0
 10
85.45403627503212
 20
91.81022784179459
 30
0.0
 10
85.75277400342978
 20
91.82518343440391
 30
0.0
 10
86.04597932826421
 20
91.84657163105028
 30
0.0
 10
86.62193440889179
 20
91.90094987766558
 30
0.0
 10
86.90767670270718
 20
91.93439604127397
 30
0.0
 10
87.45120584370083
 20
92.00916031667171
 30
0.0
 10
87.70869903192245
 20
92.05025880563264
 30
0.0
 10
88.19590402918774
 20
92.13681173459642
 30
0.0
 10
88.42604365137689
 20
92.18246263369431
 30
0.0
 10
88.83924930758039
 20
92.27074218885916
 30
0.0
 10
89.02508504827627
 20
92.31384353886642
 30
0.0
 10
89.35418162845968
 20
92.39404771872167
 30
0.0
 10
89.49414148527374
 20
92.43034256611122
 30
0.0
 10
89.71982784650339
 20
92.49052178526094
 30
0.0
 10
89.80709925484213
 20
92.51480912269203
 30
0.0
 10
89.924499468193
 20
92.5478072170034
 30
0.0
 10
89.95403627503211
 20
92.55632767420336
 30
0.0
 10
89.95403627503211
 20
92.55632767420336
 30
0.0
  0
SPLINE
  5
296
330
1F
100
AcDbEntity
  8
0
  6
Continuous
 62
     7
370
    15
100
AcDbSpline
210
0.0
220
0.0
230
1.0
 70
     8
 71
     3
 72
    22
 73
    18
 74
     0
 42
0.00000001
 43
0.00000001
 12
1.0
 22
0.0
 32
0.0
 13
1.0
 23
0.0
 33
0.0
 40
0.0
 40
0.0
 40
0.0
 40
0.0
 40
0.125
 40
0.125
 40
0.2500000000000001
 40
0.2500000000000001
 40
0.3750000000000001
 40
0.3750000000000001
 40
0.5000000000000001
 40
0.5000000000000001
 40
0.6250000000000001
 40
0.6250000000000001
 40
0.7500000000000002
 40
0.7500000000000002
 40
0.8750000000000002
 40
0.8750000000000002
 40
1.0
 40
1.0
 40
1.0
 40
1.0
 10
78.9540362750321
 20
92.55632767420339
 30
0.0
 10
78.9540362750321
 20
92.55632767420339
 30
0.0
 10
78.98356217345203
 20
92.54781357313696
 30
0.0
 10
79.09896700673869
 20
92.51536980425506
 30
0.0
 10
79.18634981180453
 20
92.49103591555304
 30
0.0
 10
79.41302323111215
 20
92.4305758907962
 30
0.0
 10
79.5514990774447
 20
92.3946624700177
 30
0.0
 10
79.87830957460848
 20
92.31495244394857
 30
0.0
 10
80.06735441058846
 20
92.27107414275923
 30
0.0
 10
80.48022269306418
 20
92.18283052038906
 30
0.0
 10
80.70569458431551
 20
92.13802217892808
 30
0.0
 10
81.1965501888632
 20
92.05070117100891
 30
0.0
 10
81.45539034680526
 20
92.00941038243324
 30
0.0
 10
81.99514317260108
 20
91.93507215913942
 30
0.0
 10
82.27924626143015
 20
91.90166203340476
 30
0.0
 10
82.86069939657206
 20
91.84664263187861
 30
0.0
 10
83.15534986220034
 20
91.82518086541238
 30
0.0
 10
83.45403627503211
 20
91.81022784179459
 30
0.0
  0
SPLINE
  5
297
330
1F
100
AcDbEntity
  8
0
  6
Continuous
 62
     7
370
    15
100
AcDbSpline
210
0.0
220
0.0
230
1.0
 70
     8
 71
     3
 72
    15
 73
    11
 74
     0
 42
0.00000001
 43
0.00000001
 12
1.0
 22
0.0
 32
0.0
 13
1.0
 23
0.0
 33
0.0
 40
0.0
 40
0.0
 40
0.0
 40
0.0
 40
0.097246958408006
 40
0.295106226512586
 40
0.3959492011201057
 40
0.4931932881789235
 40
0.6909024729737709
 40
0.7915787001144893
 40
0.8903794917185474
 40
1.0
 40
1.0
 40
1.0
 40
1.0
 10
79.9540362750321
 20
131.2723874671378
 30
0.0
 10
79.95705294062687
 20
131.2730839807601
 30
0.0
 10
79.96620733285566
 20
131.2751976253422
 30
0.0
 10
80.05189064221956
 20
131.2949119209925
 30
0.0
 10
80.19379792816298
 20
131.3263404776689
 30
0.0
 10
80.37522962190239
 20
131.3652923726956
 30
0.0
 10
80.61205181322987
 20
131.4137304262113
 30
0.0
 10
80.9031299157116
 20
131.4677340511543
 30
0.0
 10
81.14932608072549
 20
131.5116254142759
 30
0.0
 10
81.34724606518242
 20
131.5410585824885
 30
0.0
 10
81.45134333982345
 20
131.5565391445115
 30
0.0
  0
ARC
  5
298
330
1F
100
AcDbEntity
  8
0
  6
Continuous
 62
     7
370
    15
100
AcDbCircle
 10
84.454036275
 20
111.7852121972
 30
0.0
 40
20.0
100
AcDbArc
 50
267.1340160174
 51
272.8659839826
  0
LINE
  5
299
330
1F
100
AcDbEntity
  8
0
  6
Continuous
 62
     7
370
    15
100
AcDbLine
 10
87.7796788815
 20
123.8763326296
 30
0.0
 11
90.344102077
 21
136.0947719443
 31
0.0
  0
LINE
  5
29A
330
1F
100
AcDbEntity
  8
0
  6
Continuous
 62
     7
370
    15
100
AcDbLine
 10
87.5988241451
 20
123.2416744992
 30
0.0
 11
87.6035385154
 21
123.2508562277
 31
0.0
  0
LINE
  5
29B
330
1F
100
AcDbEntity
  8
0
  6
Continuous
 62
     7
370
    15
100
AcDbLine
 10
90.600387956
 20
123.378965515
 30
0.0
 11
93.1648111515
 21
135.5974048297
 31
0.0
  0
LINE
  5
29C
330
1F
100
AcDbEntity
  8
0
  6
Continuous
 62
     7
370
    15
100
AcDbLine
 10
93.4445387299
 20
135.6381622574
 30
0.0
 11
90.8801155343
 21
123.4197229427
 31
0.0
  0
ARC
  5
29D
330
1F
100
AcDbEntity
  8
0
  6
Continuous
 62
     7
370
    15
100
AcDbCircle
 10
90.4269805413
 20
136.5184072545
 30
0.0
 40
2.888591683992658
100
AcDbArc
 50
341.4071318771
 51
7.4064495462
  0
ARC
  5
29E
330
1F
100
AcDbEntity
  8
0
  6
Continuous
 62
     7
370
    15
100
AcDbCircle
 10
90.5753566881
 20
136.3979191522
 30
0.0
 40
2.968069427760354
100
AcDbArc
 50
345.168527548
 51
2.7121390965
  0
ARC
  5
29F
330
1F
100
AcDbEntity
  8
0
  6
Continuous
 62
     7
370
    15
100
AcDbCircle
 10
87.4109376803
 20
123.9396067465
 30
0.0
 40
3.238350143458362
100
AcDbArc
 50
338.5141029083
 51
350.0304034088
  0
ARC
  5
2A0
330
1F
100
AcDbEntity
  8
0
  6
Continuous
 62
     7
370
    15
100
AcDbCircle
 10
88.7300255226
 20
123.7922529215
 30
0.0
 40
2.182124112759219
100
AcDbArc
 50
338.018332802
 51
350.170375947
  0
LINE
  5
2A1
330
1F
100
AcDbEntity
  8
0
  6
Continuous
 62
     7
370
    15
100
AcDbLine
 10
90.7535172189
 20
122.9754622514
 30
0.0
 11
90.6172084266
 21
122.7194649114
 31
0.0
  0
LWPOLYLINE
  5
2A2
330
1F
100
AcDbEntity
  8
0
  6
Continuous
 62
     7
370
    15
100
AcDbPolyline
 90
       37
 70
   128
 43
0.0
 10
79.544105997
 20
118.7837569764
 10
79.613552358
 20
118.8111107844
 10
79.6642819199
 20
118.7338079018
 10
79.6947532905
 20
118.5541971379
 10
79.7040406126
 20
118.2777358746
 10
79.6918616957
 20
117.9128242477
 10
79.6585865899
 20
117.4705499122
 10
79.6052263427
 20
116.96435115
 10
79.5334022779
 20
116.4096085544
 10
79.4452967336
 20
115.8231776984
 10
79.3435867521
 20
115.2228769869
 10
79.2313627397
 20
114.6269462531
 10
79.1120345662
 20
114.0534925508
 10
78.9892279579
 20
113.5199399808
 10
78.8666743313
 20
113.0425002677
 10
78.7480974164
 20
112.6356801756
 10
78.6371001127
 20
112.3118407273
 10
78.5370550173
 20
112.0808216204
 10
78.4510019495
 20
111.9496422537
 10
78.3815555885
 20
111.9222884458
 10
78.3308260266
 20
111.9995913283
 10
78.300354656
 20
112.1792020923
 10
78.2910673339
 20
112.4556633555
 10
78.3032462508
 20
112.8205749825
 10
78.3365213566
 20
113.2628493179
 10
78.3898816038
 20
113.7690480801
 10
78.4617056686
 20
114.3237906757
 10
78.5498112129
 20
114.9102215317
 10
78.6515211944
 20
115.5105222433
 10
78.7637452068
 20
116.1064529771
 10
78.8830733803
 20
116.6799066793
 10
79.0058799886
 20
117.2134592494
 10
79.1284336152
 20
117.6908989625
 10
79.2470105301
 20
118.0977190545
 10
79.3580078338
 20
118.4215585029
 10
79.4580529292
 20
118.6525776097
 10
79.544105997
 20
118.7837569764
  0
LWPOLYLINE
  5
2A3
330
1F
100
AcDbEntity
  8
0
  6
Continuous
 62
     7
370
    15
100
AcDbPolyline
 90
       28
 70
   128
 43
0.0
 10
79.3098694154
 20
117.3193038216
 10
79.360454676
 20
117.3268260314
 10
79.3914758657
 20
117.2286773188
 10
79.4012606243
 20
117.0301489063
 10
79.3892814528
 20
116.7419435118
 10
79.3561841515
 20
116.379598363
 10
79.3037530045
 20
115.9626475804
 10
79.2348145884
 20
115.5135690888
 10
79.1530853912
 20
115.0565728258
 10
79.0629714549
 20
114.6162955784
 10
78.9693308453
 20
114.2164728068
 10
78.8772117519
 20
113.8786590601
 10
78.7915803387
 20
113.6210659649
 10
78.7170530175
 20
113.4575804317
 10
78.6576475754
 20
113.3970160077
 10
78.6165665752
 20
113.4426377369
 10
78.5960247042
 20
113.59198614
 10
78.5971293801
 20
113.8370098059
 10
78.6198210494
 20
114.1644994453
 10
78.6628763985
 20
114.5568000071
 10
78.7239743022
 20
114.9927624663
 10
78.7998209568
 20
115.4488839741
 10
78.8863274495
 20
115.9005749017
 10
78.9788301929
 20
116.3234844745
 10
79.0723423401
 20
116.6948135279
 10
79.1618226271
 20
116.9945436164
 10
79.2424471485
 20
117.2065162135
 10
79.3098694154
 20
117.3193038216
  0
LINE
  5
2A4
330
1F
100
AcDbEntity
  8
0
  6
Continuous
 62
     7
370
    15
100
AcDbLine
 10
79.198478343
 20
115.3228892583
 30
0.0
 11
79.0384116589
 21
115.0945275497
 31
0.0
  0
LINE
  5
2A5
330
1F
100
AcDbEntity
  8
0
  6
Continuous
 62
     7
370
    15
100
AcDbLine
 10
79.0384116589
 20
115.0945275497
 30
0.0
 11
79.1184263945
 21
114.8903812809
 31
0.0
  0
LINE
  5
2A6
330
1F
100
AcDbEntity
  8
0
  6
Continuous
 62
     7
370
    15
100
AcDbLine
 10
79.3840726083
 20
116.6718174587
 30
0.0
 11
79.3834358419
 21
116.6719297378
 31
0.0
  0
LINE
  5
2A7
330
1F
100
AcDbEntity
  8
0
  6
Continuous
 62
     7
370
    15
100
AcDbLine
 10
79.156362853
 20
115.0737295718
 30
0.0
 11
79.0384116589
 21
115.0945275497
 31
0.0
  0
ELLIPSE
  5
2A8
330
1F
100
AcDbEntity
  8
0
  6
Continuous
 62
     7
370
    15
100
AcDbEllipse
 10
81.9971026561
 20
128.8689940717
 30
0.0
 11
0.4087880550088698
 21
2.316979695793123
 31
0.0
210
0.0
220
0.0
230
1.0
 40
0.104426044
 41
0.3657005290221974
 42
1.398282223032949
  0
LINE
  5
2A9
330
1F
100
AcDbEntity
  8
0
  6
Continuous
 62
     7
370
    15
100
AcDbLine
 10
79.2317405463
 20
120.3045606856
 30
0.0
 11
81.4267457767
 21
124.426932332
 31
0.0
  0
LWPOLYLINE
  5
2AA
330
1F
100
AcDbEntity
  8
0
  6
Continuous
 62
     7
370
    15
100
AcDbPolyline
 90
        9
 70
   128
 43
0.0
 10
79.2664923514
 20
120.8052679434
 10
79.2460358969
 20
120.6999308316
 10
79.2284805101
 20
120.5932570704
 10
79.2151237046
 20
120.4931308883
 10
79.2069526784
 20
120.4069525842
 10
79.2045713498
 20
120.3410915729
 10
79.2081557221
 20
120.3004156238
 10
79.2174408753
 20
120.287931085
 10
79.2317405463
 20
120.3045606856
  0
LINE
  5
2AB
330
1F
100
AcDbEntity
  8
0
  6
Continuous
 62
     7
370
    15
100
AcDbLine
 10
82.11851441
 20
134.3939995177
 30
0.0
 11
79.2664923514
 21
120.8052679434
 31
0.0
  0
ARC
  5
2AC
330
1F
100
AcDbEntity
  8
0
  6
Continuous
 62
     7
370
    15
100
AcDbCircle
 10
83.3471372738
 20
134.1811252441
 30
0.0
 40
1.246928064435586
100
AcDbArc
 50
158.0183328021
 51
170.170375947
  0
LINE
  5
2AD
330
1F
100
AcDbEntity
  8
0
  6
Continuous
 62
     7
370
    15
100
AcDbLine
 10
84.3858615348
 20
138.7702344163
 30
0.0
 11
82.1908563045
 21
134.6478627699
 31
0.0
  0
LWPOLYLINE
  5
2AE
330
1F
100
AcDbEntity
  8
0
  6
Continuous
 62
     7
370
    15
100
AcDbPolyline
 90
        9
 70
   128
 43
0.0
 10
84.3511097298
 20
138.2695271584
 10
84.3715661843
 20
138.3748642703
 10
84.3891215711
 20
138.4815380315
 10
84.4024783766
 20
138.5816642135
 10
84.4106494028
 20
138.6678425176
 10
84.4130307314
 20
138.7337035289
 10
84.4094463591
 20
138.7743794781
 10
84.4001612059
 20
138.7868640168
 10
84.3858615348
 20
138.7702344163
  0
LINE
  5
2AF
330
1F
100
AcDbEntity
  8
0
  6
Continuous
 62
     7
370
    15
100
AcDbLine
 10
81.4990876712
 20
124.6807955842
 30
0.0
 11
84.3511097298
 21
138.2695271584
 31
0.0
  0
ARC
  5
2B0
330
1F
100
AcDbEntity
  8
0
  6
Continuous
 62
     7
370
    15
100
AcDbCircle
 10
80.2704648074
 20
124.8936698577
 30
0.0
 40
1.246928064432333
100
AcDbArc
 50
338.018332802
 51
350.170375947
  0
LWPOLYLINE
  5
2B1
330
1F
100
AcDbEntity
  8
0
  6
Continuous
 62
     7
370
    15
100
AcDbPolyline
 90
        9
 70
   128
 43
0.0
 10
84.3501699774
 20
138.2756982586
 10
84.3696036091
 20
138.3757685149
 10
84.3862812267
 20
138.477108588
 10
84.3989701918
 20
138.5722284609
 10
84.4067326667
 20
138.6540978498
 10
84.4089949289
 20
138.7166658106
 10
84.4055897752
 20
138.7553079623
 10
84.3967688797
 20
138.7671682741
 10
84.3831841922
 20
138.7513701536
  0
LINE
  5
2B2
330
1F
100
AcDbEntity
  8
0
  6
Continuous
 62
     7
370
    15
100
AcDbLine
 10
84.3831841922
 20
138.7513701536
 30
0.0
 11
82.188178962
 21
134.6289985068
 31
0.0
  0
ARC
  5
2B3
330
1F
100
AcDbEntity
  8
0
  6
Continuous
 62
     7
370
    15
100
AcDbCircle
 10
83.286645896
 20
134.1855978527
 30
0.0
 40
1.18458167524073
100
AcDbArc
 50
158.0183328333
 51
170.1703758211
  0
LINE
  5
2B4
330
1F
100
AcDbEntity
  8
0
  6
Continuous
 62
     7
370
    15
100
AcDbLine
 10
82.119454162
 20
134.3878284176
 30
0.0
 11
79.2674321034
 21
120.7990968433
 31
0.0
  0
LWPOLYLINE
  5
2B5
330
1F
100
AcDbEntity
  8
0
  6
Continuous
 62
     7
370
    15
100
AcDbPolyline
 90
        9
 70
   128
 43
0.0
 10
79.2674321034
 20
120.7990968433
 10
79.2479984717
 20
120.699026587
 10
79.2313208542
 20
120.5976865139
 10
79.218631889
 20
120.502566641
 10
79.2108694141
 20
120.4206972521
 10
79.2086071519
 20
120.3581292913
 10
79.2120123056
 20
120.3194871396
 10
79.2208332012
 20
120.3076268279
 10
79.2344178887
 20
120.3234249484
  0
LINE
  5
2B6
330
1F
100
AcDbEntity
  8
0
  6
Continuous
 62
     7
370
    15
100
AcDbLine
 10
79.2344178887
 20
120.3234249484
 30
0.0
 11
81.429423119
 21
124.4457965948
 31
0.0
  0
ARC
  5
2B7
330
1F
100
AcDbEntity
  8
0
  6
Continuous
 62
     7
370
    15
100
AcDbCircle
 10
80.3309561982
 20
124.8891972442
 30
0.0
 40
1.184581661210744
100
AcDbArc
 50
338.018332802
 51
350.170375947
  0
LINE
  5
2B8
330
1F
100
AcDbEntity
  8
0
  6
Continuous
 62
     7
370
    15
100
AcDbLine
 10
81.4981479188
 20
124.6869666843
 30
0.0
 11
84.3501699774
 21
138.2756982586
 31
0.0
  0
ARC
  5
2B9
330
1F
100
AcDbEntity
  8
0
  6
Continuous
 62
     7
370
    15
100
AcDbCircle
 10
89.4752492299
 20
137.5413027195
 30
0.0
 40
1.155436673597063
100
AcDbArc
 50
341.4071318771
 51
7.4064495462
  0
LINE
  5
2BA
330
1F
100
AcDbEntity
  8
0
  6
Continuous
 62
     7
370
    15
100
AcDbLine
 10
84.4086330746
 20
138.6898749809
 30
0.0
 11
84.3831841922
 21
138.7513701536
 31
0.0
  0
LINE
  5
2BB
330
1F
100
AcDbEntity
  8
0
  6
Continuous
 62
     7
370
    15
100
AcDbLine
 10
87.7183594154
 20
123.5841701753
 30
0.0
 11
90.570381474
 21
137.1729017496
 31
0.0
  0
LINE
  5
2BC
330
1F
100
AcDbEntity
  8
0
  6
Continuous
 62
     7
370
    15
100
AcDbLine
 10
82.3521858832
 20
134.232689003
 30
0.0
 11
82.188178962
 21
134.6289985068
 31
0.0
  0
LINE
  5
2BD
330
1F
100
AcDbEntity
  8
0
  6
Continuous
 62
     7
370
    15
100
AcDbLine
 10
82.5391861649
 20
133.9046114759
 30
0.0
 11
82.3521858832
 21
134.232689003
 31
0.0
  0
LWPOLYLINE
  5
2BE
330
1F
100
AcDbEntity
  8
0
  6
Continuous
 62
     7
370
    15
100
AcDbPolyline
 90
        9
 70
   128
 43
0.0
 10
83.2681080535
 20
134.1849747895
 10
83.3192491896
 20
134.4483175692
 10
83.3631376568
 20
134.7150019723
 10
83.3965296704
 20
134.9653174274
 10
83.4169572358
 20
135.1807631878
 10
83.4229105574
 20
135.3454157161
 10
83.4139496266
 20
135.447105589
 10
83.3907367435
 20
135.4783169359
 10
83.3549875659
 20
135.4367429342
  0
LWPOLYLINE
  5
2BF
330
1F
100
AcDbEntity
  8
0
  6
Continuous
 62
     7
370
    15
100
AcDbPolyline
 90
        3
 70
   128
 43
0.0
 10
83.8095529826
 20
135.9850221769
 10
83.8602105196
 20
136.0554864858
 10
83.8805395012
 20
136.0908462933
  0
LINE
  5
2C0
330
1F
100
AcDbEntity
  8
0
  6
Continuous
 62
     7
370
    15
100
AcDbLine
 10
81.6719343634
 20
126.5798527489
 30
0.0
 11
83.2681080535
 21
134.1849747895
 31
0.0
  0
LINE
  5
2C1
330
1F
100
AcDbEntity
  8
0
  6
Continuous
 62
     7
370
    15
100
AcDbLine
 10
80.262614515
 20
123.6380521677
 30
0.0
 11
81.4910796271
 21
125.9451946185
 31
0.0
  0
LWPOLYLINE
  5
2C2
330
1F
100
AcDbEntity
  8
0
  6
Continuous
 62
     7
370
    15
100
AcDbPolyline
 90
        9
 70
   128
 43
0.0
 10
80.3494940275
 20
124.8898203123
 10
80.2983528914
 20
124.6264775326
 10
80.2544644242
 20
124.3597931296
 10
80.2210724106
 20
124.1094776746
 10
80.2006448451
 20
123.8940319143
 10
80.1946915236
 20
123.7293793861
 10
80.2036524543
 20
123.6276895132
 10
80.2268653374
 20
123.5964781663
 10
80.262614515
 20
123.6380521677
  0
LINE
  5
2C3
330
1F
100
AcDbEntity
  8
0
  6
Continuous
 62
     7
370
    15
100
AcDbLine
 10
81.9456677174
 20
132.494942353
 30
0.0
 11
80.3494940275
 21
124.8898203123
 31
0.0
  0
ARC
  5
2C4
330
1F
100
AcDbEntity
  8
0
  6
Continuous
 62
     7
370
    15
100
AcDbCircle
 10
85.017224877
 20
131.9627566691
 30
0.0
 40
3.117320161086938
100
AcDbArc
 50
158.018332802
 51
170.170375947
  0
LINE
  5
2C5
330
1F
100
AcDbEntity
  8
0
  6
Continuous
 62
     7
370
    15
100
AcDbLine
 10
83.3549875659
 20
135.4367429342
 30
0.0
 11
82.1265224538
 21
133.1296004834
 31
0.0
  0
ARC
  5
2C6
330
1F
100
AcDbEntity
  8
0
  6
Continuous
 62
     7
370
    15
100
AcDbCircle
 10
78.6003772038
 20
127.1120384328
 30
0.0
 40
3.117320161086788
100
AcDbArc
 50
338.018332802
 51
350.170375947
  0
LWPOLYLINE
  5
2C7
330
1F
100
AcDbEntity
  8
0
  6
Continuous
 62
     7
370
    15
100
AcDbPolyline
 90
       32
 70
   128
 43
0.0
 10
81.9300290793
 20
128.7413256326
 10
82.0295077454
 20
129.2434204387
 10
82.119950653
 20
129.7575507023
 10
82.197655059
 20
130.26266787
 10
82.2594397358
 20
130.7380923856
 10
82.3027752114
 20
131.1643603136
 10
82.3258873265
 20
131.524020195
 10
82.3278298682
 20
131.8023475119
 10
82.3085233088
 20
131.9879475112
 10
82.268758061
 20
132.0732217073
 10
82.2101621187
 20
132.0546789645
 10
82.1351344067
 20
131.9330784248
 10
82.0467465684
 20
131.7133984286
 10
81.9486172122
 20
131.4046327009
 10
81.8447637655
 20
131.0194221467
 10
81.7394380007
 20
130.5735373315
 10
81.6369519668
 20
130.0852328319
 10
81.5415014542
 20
129.5744998915
 10
81.4569942181
 20
129.0622479769
 10
81.3868899947
 20
128.5694487418
 10
81.334058859
 20
128.1162774446
 10
81.300663724
 20
127.7212869715
 10
81.2880717905
 20
127.4006482789
 10
81.2967985736
 20
127.1674883526
 10
81.3264867979
 20
127.0313527873
 10
81.375921024
 20
126.9978149891
 10
81.4430774088
 20
127.0682479994
 10
81.5252065621
 20
127.2397682824
 10
81.6189461066
 20
127.5053537776
 10
81.7204583344
 20
127.8541313837
 10
81.8255873231
 20
128.2718221044
 10
81.9300290793
 20
128.7413256326
  0
ARC
  5
2C8
330
1F
100
AcDbEntity
  8
0
  6
Continuous
 62
     7
370
    15
100
AcDbCircle
 10
86.4897365516
 20
123.7970444489
 30
0.0
 40
1.246928064434436
100
AcDbArc
 50
338.0183328021
 51
350.170375947
  0
LINE
  5
2C9
330
1F
100
AcDbEntity
  8
0
  6
Continuous
 62
     7
370
    15
100
AcDbLine
 10
87.603698083
 20
123.2508280916
 30
0.0
 11
87.6460175209
 21
123.3303069231
 31
0.0
  0
LINE
  5
2CA
330
1F
100
AcDbEntity
  8
0
  6
Continuous
 62
     7
370
    15
100
AcDbLine
 10
79.4299949259
 20
120.690732152
 30
0.0
 11
79.2674321034
 21
120.7990968433
 31
0.0
  0
LINE
  5
2CB
330
1F
100
AcDbEntity
  8
0
  6
Continuous
 62
     7
370
    15
100
AcDbLine
 10
82.3521858832
 20
134.232689003
 30
0.0
 11
82.119454162
 21
134.3878284176
 31
0.0
  0
LINE
  5
2CC
330
1F
100
AcDbEntity
  8
VERMASSUNG
100
AcDbLine
 10
84.309009609
 20
138.6259011839
 30
0.0
 11
75.0704911858
 21
86.2316596101
 31
0.0
  0
CIRCLE
  5
2CD
330
1F
100
AcDbEntity
  8
VERMASSUNG
  6
CENTERX2
100
AcDbCircle
 10
84.454036275
 20
113.6263218421
 30
0.0
 40
25.0
  0
DIMENSION
  5
2CE
330
1F
100
AcDbEntity
  8
VERMASSUNG
100
AcDbDimension
  2
_D_5
 10
84.454036275
 20
140.9422115078
 30
0.0
 11
79.2712274713
 21
80.2086125762
 31
0.0
 70
   162
  1
<>
 71
     1
 42
-1.0
  3
SLDDIMSTYLE2
100
AcDb2LineAngularDimension
 13
75.0704911858
 23
86.2316596101
 33
0.0
 14
84.309009609
 24
138.6259011839
 34
0.0
 15
84.454036275
 25
89.2852121972
 35
0.0
 16
79.2712274713
 26
80.2086125762
 36
0.0
  0
DIMENSION
  5
2D9
330
1F
100
AcDbEntity
  8
VERMASSUNG
100
AcDbDimension
  2
_D_6
 10
71.954036275
 20
135.2769569367
 30
0.0
 11
66.4855426056
 21
144.748665813
 31
0.0
 70
   160
  1
%%c<> min. 
 71
     2
 42
-1.0
  3
SLDDIMSTYLE3
100
AcDbAlignedDimension
 13
96.954036275
 23
91.9756867475
 33
0.0
 14
71.954036275
 24
135.2769569367
 34
0.0
 50
-60.0
100
AcDbRotatedDimension
  0
INSERT
  5
2F3
330
1F
100
AcDbEntity
  8
VERMASSUNG
100
AcDbBlockReference
  2
SW_CENTERMARKSYMBOL_0
 10
84.454036275
 20
111.7852121972
 30
0.0
  0
OLE2FRAME
  5
2F4
330
1F
100
AcDbEntity
  8
0
100
AcDbOle2Frame
 70
     2
  3
Paintbrush-Bild
 10
13.8511154363
 20
38.264191557
 30
0.0
 11
51.6290888628
 21
31.9806341108
 31
0.0
 71
     2
 72
     0
 73
     1
 90
    12928
310
80552BED0767C5B32B40DDAF6807D121434000000000000000006FFBDDFB85D0
310
4940DDAF6807D121434000000000000000006FFBDDFB85D04940416F4BD60AFB
310
3F4000000000000000002BED0767C5B32B40416F4BD60AFB3F40000000000000
310
0000000000000100000000010000010000000100000000000100000000320000
310
D0CF11E0A1B11AE1000000000000000000000000000000003E000300FEFF0900
310
0600000000000000000000000100000001000000000000000010000002000000
310
01000000FEFFFFFF0000000000000000FFFFFFFFFFFFFFFFFFFFFFFFFFFFFFFF
310
FFFFFFFFFFFFFFFFFFFFFFFFFFFFFFFFFFFFFFFFFFFFFFFFFFFFFFFFFFFFFFFF
310
FFFFFFFFFFFFFFFFFFFFFFFFFFFFFFFFFFFFFFFFFFFFFFFFFFFFFFFFFFFFFFFF
310
FFFFFFFFFFFFFFFFFFFFFFFFFFFFFFFFFFFFFFFFFFFFFFFFFFFFFFFFFFFFFFFF
310
FFFFFFFFFFFFFFFFFFFFFFFFFFFFFFFFFFFFFFFFFFFFFFFFFFFFFFFFFFFFFFFF
310
FFFFFFFFFFFFFFFFFFFFFFFFFFFFFFFFFFFFFFFFFFFFFFFFFFFFFFFFFFFFFFFF
310
FFFFFFFFFFFFFFFFFFFFFFFFFFFFFFFFFFFFFFFFFFFFFFFFFFFFFFFFFFFFFFFF
310
FFFFFFFFFFFFFFFFFFFFFFFFFFFFFFFFFFFFFFFFFFFFFFFFFFFFFFFFFFFFFFFF
310
FFFFFFFFFFFFFFFFFFFFFFFFFFFFFFFFFFFFFFFFFFFFFFFFFFFFFFFFFFFFFFFF
310
FFFFFFFFFFFFFFFFFFFFFFFFFFFFFFFFFFFFFFFFFFFFFFFFFFFFFFFFFFFFFFFF
310
FFFFFFFFFFFFFFFFFFFFFFFFFFFFFFFFFFFFFFFFFFFFFFFFFFFFFFFFFFFFFFFF
310
FFFFFFFFFFFFFFFFFFFFFFFFFFFFFFFFFFFFFFFFFFFFFFFFFFFFFFFFFFFFFFFF
310
FFFFFFFFFFFFFFFFFFFFFFFFFFFFFFFFFFFFFFFFFFFFFFFFFFFFFFFFFFFFFFFF
310
FFFFFFFFFFFFFFFFFFFFFFFFFFFFFFFFFFFFFFFFFFFFFFFFFFFFFFFFFFFFFFFF
310
FDFFFFFFFEFFFFFFFEFFFFFFFEFFFFFF05000000060000000700000008000000
310
090000000A0000000B0000000C0000000D0000000E0000000F00000010000000
310
11000000120000001300000014000000150000001600000017000000FEFFFFFF
310
FFFFFFFFFFFFFFFFFFFFFFFFFFFFFFFFFFFFFFFFFFFFFFFFFFFFFFFFFFFFFFFF
310
FFFFFFFFFFFFFFFFFFFFFFFFFFFFFFFFFFFFFFFFFFFFFFFFFFFFFFFFFFFFFFFF
310
FFFFFFFFFFFFFFFFFFFFFFFFFFFFFFFFFFFFFFFFFFFFFFFFFFFFFFFFFFFFFFFF
310
FFFFFFFFFFFFFFFFFFFFFFFFFFFFFFFFFFFFFFFFFFFFFFFFFFFFFFFFFFFFFFFF
310
FFFFFFFFFFFFFFFFFFFFFFFFFFFFFFFFFFFFFFFFFFFFFFFFFFFFFFFFFFFFFFFF
310
FFFFFFFFFFFFFFFFFFFFFFFFFFFFFFFFFFFFFFFFFFFFFFFFFFFFFFFFFFFFFFFF
310
FFFFFFFFFFFFFFFFFFFFFFFFFFFFFFFFFFFFFFFFFFFFFFFFFFFFFFFFFFFFFFFF
310
FFFFFFFFFFFFFFFFFFFFFFFFFFFFFFFFFFFFFFFFFFFFFFFFFFFFFFFFFFFFFFFF
310
FFFFFFFFFFFFFFFFFFFFFFFFFFFFFFFFFFFFFFFFFFFFFFFFFFFFFFFFFFFFFFFF
310
FFFFFFFFFFFFFFFFFFFFFFFFFFFFFFFFFFFFFFFFFFFFFFFFFFFFFFFFFFFFFFFF
310
FFFFFFFFFFFFFFFFFFFFFFFFFFFFFFFFFFFFFFFFFFFFFFFFFFFFFFFFFFFFFFFF
310
FFFFFFFFFFFFFFFFFFFFFFFFFFFFFFFFFFFFFFFFFFFFFFFFFFFFFFFFFFFFFFFF
310
FFFFFFFFFFFFFFFFFFFFFFFFFFFFFFFFFFFFFFFFFFFFFFFFFFFFFFFFFFFFFFFF
310
52006F006F007400200045006E00740072007900000000000000000000000000
310
0000000000000000000000000000000000000000000000000000000000000000
310
16000500FFFFFFFFFFFFFFFF020000000A00030000000000C000000000000046
310
00000000000000000000000040DD4E502A4ACD0103000000C000000000000000
310
01004F006C006500000000000000000000000000000000000000000000000000
310
0000000000000000000000000000000000000000000000000000000000000000
310
0A000200FFFFFFFFFFFFFFFFFFFFFFFF00000000000000000000000000000000
310
0000000000000000000000000000000000000000000000001400000000000000
310
010043006F006D0070004F0062006A0000000000000000000000000000000000
310
0000000000000000000000000000000000000000000000000000000000000000
310
120002010100000003000000FFFFFFFF00000000000000000000000000000000
310
0000000000000000000000000000000000000000010000004D00000000000000
310
01004F006C006500310030004E00610074006900760065000000000000000000
310
0000000000000000000000000000000000000000000000000000000000000000
310
1A000200FFFFFFFFFFFFFFFFFFFFFFFF00000000000000000000000000000000
310
0000000000000000000000000000000000000000040000002426000000000000
310
FEFFFFFF02000000FEFFFFFFFFFFFFFFFFFFFFFFFFFFFFFFFFFFFFFFFFFFFFFF
310
FFFFFFFFFFFFFFFFFFFFFFFFFFFFFFFFFFFFFFFFFFFFFFFFFFFFFFFFFFFFFFFF
310
FFFFFFFFFFFFFFFFFFFFFFFFFFFFFFFFFFFFFFFFFFFFFFFFFFFFFFFFFFFFFFFF
310
FFFFFFFFFFFFFFFFFFFFFFFFFFFFFFFFFFFFFFFFFFFFFFFFFFFFFFFFFFFFFFFF
310
FFFFFFFFFFFFFFFFFFFFFFFFFFFFFFFFFFFFFFFFFFFFFFFFFFFFFFFFFFFFFFFF
310
FFFFFFFFFFFFFFFFFFFFFFFFFFFFFFFFFFFFFFFFFFFFFFFFFFFFFFFFFFFFFFFF
310
FFFFFFFFFFFFFFFFFFFFFFFFFFFFFFFFFFFFFFFFFFFFFFFFFFFFFFFFFFFFFFFF
310
FFFFFFFFFFFFFFFFFFFFFFFFFFFFFFFFFFFFFFFFFFFFFFFFFFFFFFFFFFFFFFFF
310
FFFFFFFFFFFFFFFFFFFFFFFFFFFFFFFFFFFFFFFFFFFFFFFFFFFFFFFFFFFFFFFF
310
FFFFFFFFFFFFFFFFFFFFFFFFFFFFFFFFFFFFFFFFFFFFFFFFFFFFFFFFFFFFFFFF
310
FFFFFFFFFFFFFFFFFFFFFFFFFFFFFFFFFFFFFFFFFFFFFFFFFFFFFFFFFFFFFFFF
310
FFFFFFFFFFFFFFFFFFFFFFFFFFFFFFFFFFFFFFFFFFFFFFFFFFFFFFFFFFFFFFFF
310
FFFFFFFFFFFFFFFFFFFFFFFFFFFFFFFFFFFFFFFFFFFFFFFFFFFFFFFFFFFFFFFF
310
FFFFFFFFFFFFFFFFFFFFFFFFFFFFFFFFFFFFFFFFFFFFFFFFFFFFFFFFFFFFFFFF
310
FFFFFFFFFFFFFFFFFFFFFFFFFFFFFFFFFFFFFFFFFFFFFFFFFFFFFFFFFFFFFFFF
310
FFFFFFFFFFFFFFFFFFFFFFFFFFFFFFFFFFFFFFFFFFFFFFFFFFFFFFFFFFFFFFFF
310
0100000200000000000000000000000000000000000000000000000000000000
310
0000000000000000000000000000000000000000000000000000000000000000
310
0100FEFF030A0000FFFFFFFF0A00030000000000C00000000000004607000000
310
5042727573680007000000504272757368000700000050427275736800F439B2
310
7100000000000000000000000000000000000000000000000000000000000000
310
0000000000000000000000000000000000000000000000000000000000000000
310
0000000000000000000000000000000000000000000000000000000000000000
310
0000000000000000000000000000000000000000000000000000000000000000
310
0000000000000000000000000000000000000000000000000000000000000000
310
0000000000000000000000000000000000000000000000000000000000000000
310
0000000000000000000000000000000000000000000000000000000000000000
310
0000000000000000000000000000000000000000000000000000000000000000
310
0000000000000000000000000000000000000000000000000000000000000000
310
0000000000000000000000000000000000000000000000000000000000000000
310
0000000000000000000000000000000000000000000000000000000000000000
310
0000000000000000000000000000000000000000000000000000000000000000
310
20260000424D0E260000000000003E00000028000000B40200006E0000000100
310
01000000000000000000130B0000130B00000200000002000000000000FFFFFF
310
FFFFFFFFFFFFFFFFFFFFFFFFFFFFFFFFFFFFFFFFFFFFFFFFFFFFFFFFFFFFFFFF
310
FFFFFFFFFFFFFFFFFFFFFFFFFFFFFFFFFFFFFFFFFFFFFFFFFFFFFFFFFFFFFFFF
310
FFFFFFFFFFFFFFFFFFFFFFFFFFFFFFFFFFFFFFFFFFFFFFFFF000FFFFFFFFFFFF
310
FFFFFFFFFFFFFFFFFFFFFFFFFFFFFFFFFFFFFFFFFFFFFFFFFFFFFFFFFFFFFFFF
310
FFFFFFFFFFFFFFFFFFFFFFFFFFFFFFFFFFFFFFFFFFFFFFFFFFFFFFFFFFFFFFFF
310
FFFFFFFFFFFFFFFFFFFFFFFFFFFFFFFFF000FFFFFFFFFFFFFFFFFFFFFFFFFFFF
310
FFFFFFFFFFFFFFFFFFFFFFFFFFFFFFFFFFFFFFFFFFFFFFFFFFFFFFFFFFFFFFFF
310
FFFFFFFFFFFFFFFFFFFFFFFFFFFFFFFFFFFFFFFFFFFFFFFFFFFFFFFFFFFFFFFF
310
FFFFFFFFFFFFFFFFF000FFFFFFFFFFFFFFFFFFFFFFFFFFFFFFFFFFFFFFFFFFFF
310
FFFFFFFFFFFFFFFFFFFFFFFFFFFFFFFFFFFFFFFFFFFFFFFFFFFFFFFFFFFFFFFF
310
FFFFFFFFFFFFFFFFFFFFFFFFFFFFFFFFFFFFFFFFFFFFFFFFFFFFFFFFFFFFFFFF
310
F000FFFFFFFFFFFFFFFFFFFFFFFFFFFFFFFFFFFFFFFFFFFFFFFFFFFFFFFFFFFF
310
FFFFFFFFFFFFFFFFFFFFFFFFFFFFFFFFFFFFFFFFFFFFFFFFFFFFFFFFFFFFFFFF
310
FFFFFFFFFFFFFFFFFFFFFFFFFFFFFFFFFFFFFFFFFFFFFFFFF000FFFFFFFFFFFF
310
FFFFFFFFFFFFFFFFFFFFFFFFFFFFFFFFFFFFFFFFFFFFFFFFFFFFFFFFFFFFFFFF
310
FFFFFFFFFFFFFFFFFFFFFFFFFFFFFFFFFFFFFFFFFFFFFFFFFFFFFFFFFFFFFFFF
310
FFFFFFFFFFFFFFFFFFFFFFFFFFFFFFFFF000FFFFFFFFFFFFFFFFFFFFFFFFFFFF
310
FFFFFFFFFFFFFFFFFFFFFFFFFFFFFFFFFFFFFFFFFFFFFFFFFFFFFFFFFFFFFFFF
310
FFFFFFFFFFFFFFFFFFFFFFFFFFFFFFFFFFFFFFFFFFFFFFFFFFFFFFFFFFFFFFFF
310
FFFFFFFFFFFFFFFFF000FFFFFFFFFFFFFFFFFFFFFFFFFFFFFFFFFFFFFFFFFFFF
310
FFFFFFFFFFFFFFFFFFFFFFFFFFFFFFFFFFFFFFFFFFFFFFFFFFFFFFFFFFFFFFFF
310
FFFFFFFFFFFFFFFFFFFFFFFFFFFFFFFFFFFFFFFFFFFFFFFFFFFFFFFFFFFFFFFF
310
F000FFFFFFFFFFFFFFFFFFFFFFFFFFFFFFFFFFFFFFFFFFFFFFFFFFFFFFFFFFFF
310
FFFFFFFFFFFFFFFFFFFFFFFFFFFFFFFFFFFFFFFFFFFFFFFFFFFFFFFFFFFFFFFF
310
FFFFFFFFFFFFFFFFFFFFFFFFFFFFFFFFFFFFFFFFFFFFFFFFF000FFFFFFFFFFFF
310
FFFFFFFFFFFFFFFFFFFFFFFFFFFFFFFFFFFFFFFFFFFFFFFFFFFFFFFFFFFFFFFF
310
FFFFFFFFFFFFFFFFFFFFFFFFFFFFFFFFFFFFFFFFFFFFFFFFFFFFFFFFFFFFFFFF
310
FFFFFFFFFFFFFFFFFFFFFFFFFFFFFFFFF000FFFFFFFFFFFFFFFFFFFFFFFFFFFF
310
FFFFFFFFFFFFFFFFFFFFFFFFFFFFFFFFFFFFFFFFFFFFFFFFFFFFFFFFFFFFFFFF
310
FFFFFFFFFFFFFFFFFFFFFFFFFFFFFFFFFFFFFFFFFFFFFFFFFFFFFFFFFFFFFFFF
310
FFFFFFFFFFFFFFFFF000FFFFFFFFFFFFFFFFFFFFFFFFFFFFFFFFFFFFFFFFFFFF
310
FFFFFFFFFFFFFFFFFFFFFFFFFFFFFFFFFFFFFFFFFFFFFFFFFFFFFFFFFFFFFFFF
310
FFFFFFFFFFFFFFFFFFFFFFFFFFFFFFFFFFFFFFFFFFFFFFFFFFFFFFFFFFFFFFFF
310
F000FFFFFFFFFFFFFFFFFFFFFFFFFFFFFFFFFFFFFFFFFFFFFFFFFFFFFFFFFFFF
310
FFFFFFFFFFFFFFFFFFFFFFFFFFFFFFFFFFFFFFFFFFFFFFFFFFFFFFFFFFFFFFFF
310
FFFFFFFFFFFFFFFFFFFFFFFFFFFFFFFFFFFFFFFFFFFFFFFFF000FFFFFFFFFFFF
310
FFFFFFFFFFFFFFFFFFFFFFFFFFFFFFFFFFFFFFFFFFFFFFFFFFFFFFFFFFFFFFFF
310
FFFFFFFFFFFFFFFFFFFFFFFFFFFFFFFFFFFFFFFFFFFFFFFFFFFFFFFFFFFFFFFF
310
FFFFFFFFFFFFFFFFFFFFFFFFFFFFFFFFF000FFFFFFFFFFFFFFFFFFFFFFFFFFFF
310
FFFFFFFFFFFFFFFFFFFFFFFFFFFFFFFFFFFFFFFFFFFFFFFFFFFFFFFFFFFFFFFF
310
FFFFFFFFFFFFFFFFFFFFFFFFFFFFFFFFFFFFFFFFFFFFFFFFFFFFFFFFFFFFFFFF
310
FFFFFFFFFFFFFFFFF000FFFFFFFFFFFFFFFFFFFFFFFFFFFFFFFFFFFFFFFFFFFF
310
FFFFFFFFFFFFFFFFFFFFFFFFFFFFFFFFFFFFFFFFFFFFFFFFFFFFFFFFFFFFFFFF
310
FFFFFFFFFFFFFFFFFFFFFFFFFFFFFFFFFFFFFFFFFFFFFFFFFFFFFFFFFFFFFFFF
310
F000FFFFFFFFFFFFFFFFFFFFFFFFFFFFFFFFFFFFFFFFFFFFFFFFFFFFFFFFFFFF
310
FFFFFFFFFFFFFFFFFFFFFFFFFFFFFFFFFFFFFFFFFFFFFFFFFFFFFFFFFFFFFFFF
310
FFFFFFFFFFFFFFFFFFFFFFFFFFFFFFFFFFFFFFFFFFFFFFFFF000FFFFFFFFFFFF
310
FFFFFFFFFFFFFFFFFFFFFFFFFFFFFFFFFFFFFFFFFFFFFFFFFFFFFFFFFFFFFFFF
310
FFFFFFFFFFFFFFFFFFFFFFFFFFFFFFFFFFFFFFFFFFFFFFFFFFFFFFFFFFFFFFFF
310
FFFFFFFFFFFFFFFFFFFFFFFFFFFFFFFFF000FFFFFFFFFFFFFFFFFFFFFFFFFFFF
310
FFFFFFFFFFFFFFFFFFFFFFFFFFFFFFFFFFFFFFFFFFFFFFFFFFFFFFFFFFFFFFFF
310
FFFFFFFFFFFFFFFFFFFFFFFFFFFFFFFFFFFFFFFFFFFFFFFFFFFFFFFFFFFFFFFF
310
FFFFFFFFFFFFFFFFF000FFFFF80003FFFFFFFFFFFFFFFFFFFFFFFFFFFFFFFFFF
310
FFFFF00007FFFFFFFFFF00007FFFFFF800000000000000007FFFFFFFFFFFFFFF
310
FFFFFFFC001FFFFFFFFFFFFFFC001FFFFFFFFFFFFFFFFFFFFFFFFFFE0007FFFF
310
F000FFFF8000007FFFFFFFF8000FFFFFC0007FFFFF80007FFFFF0000007FFFFF
310
FFF8000007FFFFF800000000000000007FFFFFF0001FFFFFFFFFFFC00001FFFF
310
FFFFFFFFC00001FFFFFFFF000000000003FFFFE000007FFFF000FFFE0000000F
310
FFFFFFF0000FFFFF80007FFFFF80007FFFFC0000001FFFFFFFC0000001FFFFF8
310
00000000000000007FFFFFF0001FFFFFFFFFFE0000003FFFFFFFFFFE0000003F
310
FFFFFF000000000003FFFF0000000FFFF000FFF800000003FFFFFFF00007FFFF
310
80007FFFFF80007FFFF000000007FFFFFF000000003FFFF80000000000000000
310
7FFFFFF0001FFFFFFFFFF80000000FFFFFFFFFF80000000FFFFFFF0000000000
310
03FFFC00000003FFF000FFE000000000FFFFFFF00007FFFF80003FFFFF80007F
310
FFC000000001FFFFFC000000001FFFF800000000000000007FFFFFF0001FFFFF
310
FFFFE000000003FFFFFFFFE000000003FFFFFF000000000003FFF000000000FF
310
F000FF80000000007FFFFFF00007FFFF80003FFFFF80007FFF8000000000FFFF
310
F80000000007FFF800000000000000007FFFFFF0001FFFFFFFFFC000000001FF
310
FFFFFFC000000001FFFFFF000000000003FFC0000000007FF000FF0000000000
310
3FFFFFE00007FFFF00003FFFFF80007FFE00000000003FFFF00000000003FFF8
310
00000000000000007FFFFFF0001FFFFFFFFF8000000000FFFFFFFF8000000000
310
FFFFFF000000000003FF80000000003FF000FE00000000001FFFFFE00003FFFF
310
00003FFFFF80007FFC00000000001FFFE00000000001FFF8000001FFFE000000
310
7FFFFFF0001FFFFFFFFE00000000003FFFFFFE00000000003FFFFF0000000000
310
03FF00000000001FF000FC00000000000FFFFFE00003FFFF00001FFFFF80007F
310
F800000000001FFFC00000000000FFF8000001FFFE0000007FFFFFF0001FFFFF
310
FFFC00000000001FFFFFFC00000000001FFFFF000000000003FE00000000000F
310
F000F8000000000007FFFFE00003FFFF00001FFFFF80007FF800000000000FFF
310
800000000000FFF8000001FFFE0000007FFFFFF0001FFFFFFFF800000000000F
310
FFFFF800000000000FFFFF000000000003FC000000000007F000F80000000000
310
03FFFFC00003FFFE00001FFFFF80007FF0000000000007FF0000000000007FF8
310
000001FFFE0000007FFFFFF0001FFFFFFFF0000000000007FFFFF00000000000
310
07FFFF000000000003F8000000000003F000F0000000000003FFFFC00001FFFE
310
00001FFFFF80007FE0000000000007FE0000000000003FF8000001FFFE000000
310
7FFFFFF0001FFFFFFFF0000000000007FFFFF0000000000007FFFF0000000000
310
03F800001F800003F000E00001FFF00001FFFFC00001FFFE00000FFFFF80007F
310
E00001FFE00003FE00001FFF00003FF8000001FFFE0000007FFFFFF0001FFFFF
310
FFE000003E000003FFFFE000003E000003FFFF000000000003F00001FFF80001
310
F000E00007FFFC0001FFFFC00001FFFE00000FFFFF80007FC0000FFFFC0003FC
310
0000FFFFC0001FF8000001FFFE0000007FFFFFF0001FFFFFFFC00003FFE00001
310
FFFFC00003FFE00001FFFF0001FFFFFFFFF00007FFFE0001F000E0000FFFFF00
310
00FFFF800001FFFC00000FFFFF80007FC0001FFFFE0001FC0001FFFFE0001FF8
310
000001FFFE0000007FFFFFF0001FFFFFFF80000FFFF80000FFFF80000FFFF800
310
00FFFF0003FFFFFFFFE0000FFFFF8000F000C0003FFFFF8000FFFF800000FFFC
310
000007FFFF80007F80003FFFFF0001FC0003FFFFF0001FF8000001FFFE000000
310
7FFFFFF0001FFFFFFF80003FFFFE0000FFFF80003FFFFE0000FFFF0003FFFFFF
310
FFE0003FFFFF8000F000C0003FFFFF8000FFFF800000FFFC000007FFFF80007F
310
80007FFFFF8001F80007FFFFF8000FF8000001FFFE0000007FFFFFF0001FFFFF
310
FF00007FFFFF00007FFF00007FFFFF00007FFF0003FFFFFFFFE0003FFFFFC000
310
F000C0007FFFFFC000FFFF000000FFFC000007FFFF80007F8000FFFFFF8000F8
310
000FFFFFF8000FF8000001FFFE0000007FFFFFF0001FFFFFFF0000FFFFFF8000
310
7FFF0000FFFFFF80007FFF0003FFFFFFFFC0007FFFFFC00070008000FFFFFFC0
310
00FFFF000000FFF8000007FFFF80007F8000FFFFFF8000F8000FFFFFF8000FF8
310
000001FFFE0000007FFFFFF0001FFFFFFE0001FFFFFFC0003FFE0001FFFFFFC0
310
003FFF0003FFFFFFFFC0007FFFFFE00070008000FFFFFFC0007FFF0000007FF8
310
000003FFFF80007F0001FFFFFF8000F8000FFFFFF8000FF8000001FFFE000000
310
7FFFFFF0001FFFFFFE0001FFFFFFC0003FFE0001FFFFFFC0003FFF0003FFFFFF
310
FFC000FFFFFFE00070008000FFFFFFC0007FFF0000007FF8000003FFFF80007F
310
0001FFFFFF8000F8001FFFFFF8000FF8000001FFFE0000007FFFFFF0001FFFFF
310
FE0003FFFFFFE0003FFE0003FFFFFFE0003FFF0003FFFFFFFFC000FFFFFFE000
310
70008000FFFFFFC0007FFE0000007FF8000003FFFF80007F0001FFFFFF8000F0
310
001FFFFFF8000FF8000001FFFE0000007FFFFFF0001FFFFFFC0003FFFFFFE000
310
1FFC0003FFFFFFE0001FFF0003FFFFFFFFC000FFFFFFC00070008000FFFFFF80
310
007FFE0000007FF0000003FFFF80007F0001FFFFFF0000F0001FFFFFF8000FF8
310
000001FFFE0000007FFFFFF0001FFFFFFC0007FFFFFFF0001FFC0007FFFFFFF0
310
001FFF0003FFFFFFFFC000FFFFFFC00070008001FFFFFF0000FFFE0000003FF0
310
000001FFFF80007F0001FFFFFF0000F8001FFFFFF0000FF8000001FFFE000000
310
7FFFFFF0001FFFFFFC0007FFFFFFF0001FFC0007FFFFFFF0001FFF0003FFFFFF
310
FFC001FFFFFF80007000FFFFFFFFFE0000FFFE0008003FF0008001FFFF80007F
310
FFFFFFFFFC0000FFFFFFFFFFE0000FF8000001FFFE0000007FFFFFF0001FFFFF
310
F8000FFFFFFFF8000FF8000FFFFFFFF8000FFF0003FFFFFFFFFFFFFFFFFF0000
310
7000FFFFFFFFFC0000FFFC0008003FF0008001FFFF80007FFFFFFFFFF80001FF
310
FFFFFFFF80000FF8000001FFFE0000007FFFFFF0001FFFFFF8000FFFFFFFF800
310
0FF8000FFFFFFFF8000FFF0003FFFFFFFFFFFFFFFFFE0000F000FFFFFFFFE000
310
00FFFC000C003FE000C001FFFF80007FFFFFFFFFC00001FFFFFFFFFE00001FF8
310
000001FFFE0000007FFFFFF0001FFFFFF8000FFFFFFFF8000FF8000FFFFFFFF8
310
000FFF0003FFFFFFFFFFFFFFFFF00000F000FFFFFFFE000001FFFC000C001FE0
310
00C000FFFF80007FFFFFFFFE000001FFFFFFFFE000001FF80FFFFFFFFFFFFFC0
310
7FFFFFF0001FFFFFF8000FFFFFFFF8000FF8000FFFFFFFF8000FFF0003FFFFFF
310
FFFFFFFFFF800000F000FFFFFFC0000001FFFC001C001FE001C000FFFF80007F
310
FFFFFF80000003FFFFFFF80000001FF80FFFFFFFFFFFFFC07FFFFFF0001FFFFF
310
F8001FFFFFFFFC000FF8001FFFFFFFFC000FFF0003FFFFFFFFFFFFFFF0000001
310
F000FFFFF800000001FFF8001C001FE001C000FFFF80007FFFFFF800000003FF
310
FFFF800000003FF80FFFFFFFFFFFFFC07FFFFFF0001FFFFFF8001FFFFFFFFC00
310
0FF8001FFFFFFFFC000FFF0003FFFFFFFFFFFFFE00000001F000FFFFC0000000
310
03FFF8001E001FC001E000FFFF80007FFFFF8000000007FFFFFC000000003FF8
310
0FFFFFFFFFFFFFC07FFFFFF0001FFFFFF8001FFFFFFFFC000FF8001FFFFFFFFC
310
000FFF0003FFFFFFFFFFFFE000000003F000FFFE0000000007FFF8001E000FC0
310
01E0007FFF80007FFFFE0000000007FFFFE0000000007FF80FFFFFFFFFFFFFC0
310
7FFFFFF0001FFFFFF0001FFFFFFFFC0007F0001FFFFFFFFC0007FF0003FFFFFF
310
FFFFFF0000000003F000FFF80000000007FFF8001E000FC003E0007FFF80007F
310
FFF0000000000FFFFF8000000000FFF80FFFFFFFFFFFFFC07FFFFFF0001FFFFF
310
F0001FFFFFFFFC0007F0001FFFFFFFFC0007FF0003FFFFFFFFFFFC0000000007
310
F000FFE0000000000FFFF0003E000FC003E0007FFF80007FFFC0000000001FFF
310
FE0000000001FFF80FFFFFFFFFFFFFC07FFFFFF0001FFFFFF0001FFFFFFFFC00
310
07F0001FFFFFFFFC0007FF0003FFFFFFFFFFF0000000000FF000FFC000000000
310
1FFFF0003F000F8003F0003FFF80007FFF80000000003FFFF80000000003FFF8
310
0FFFFFFFFFFFFFC07FFFFFF0001FFFFFF0001FFFFFFFFC0007F0001FFFFFFFFC
310
0007FF0003FFFFFFFFFFE0000000001FF000FF00000000007FFFF0003F000780
310
03F0003FFF80007FFF00000000007FFFF00000000007FFF80FFFFFFFFFFFFFC0
310
7FFFFFF0001FFFFFF0001FFFFFFFFC0007F0001FFFFFFFFC0007FF0003FFFFFF
310
FFFF80000000007FF000FE0000000000FFFFE0003F00078007F0003FFF80007F
310
FE0000000001FFFFE0000000001FFFF80FFFFFFFFFFFFFC07FFFFFF0001FFFFF
310
F0001FFFFFFFFC0007F0001FFFFFFFFC0007FF0003FFFFFFFFFF0000000000FF
310
F000FC0000000003FFFFE0007F00078007F0003FFF80007FFC0000000007FFFF
310
C0000000007FFFF80FFFFFFFFFFFFFC07FFFFFF0001FFFFFF8001FFFFFFFFC00
310
0FF8001FFFFFFFFC000FFF0003FFFFFFFFFE0000000003FFF000FC000000000F
310
FFFFE0007F80070007F8001FFF80007FF8000000001FFFFF8000000001FFFFF8
310
0FFFFFFFFFFFFFC07FFFFFF0001FFFFFF8001FFFFFFFFC000FF8001FFFFFFFFC
310
000FFF0003FFFFFFFFFC000000000FFFF000F8000000007FFFFFE0007F800700
310
07F8001FFF80007FF000000000FFFFFF800000000FFFFFF80FFFFFFFFFFFFFC0
310
7FFFFFF0001FFFFFF8000FFFFFFFF8000FF8000FFFFFFFF8000FFF0003FFFFFF
310
FFFC000000007FFFF000F800000007FFFFFFC0007F8003000FF8001FFF80007F
310
F000000007FFFFFF000000007FFFFFF80FFFFFFFFFFFFFC07FFFFFF0001FFFFF
310
F8000FFFFFFFF8000FF8000FFFFFFFF8000FFF0003FFFFFFFFF80000000FFFFF
310
F000F0000000FFFFFFFFC000FF8003000FF8001FFF80007FE0000000FFFFFFFF
310
0000000FFFFFFFF8000001FFFE0000007FFFFFF0001FFFFFF8000FFFFFFFF800
310
0FF8000FFFFFFFF8000FFF0003FFFFFFFFF8000000FFFFFFF000F000000FFFFF
310
FFFFC000FFC002000FF8000FFF80007FE000001FFFFFFFFE000001FFFFFFFFF8
310
000001FFFE0000007FFFFFF0001FFFFFF8000FFFFFFFF8000FF8000FFFFFFFF8
310
000FFF0003FFFFFFFFF000001FFFFFFFF000E00000FFFFFFFFFFC000FFC00200
310
0FFC000FFF80007FE00001FFFFFFFFFE00001FFFFFFFFFF8000001FFFE000000
310
7FFFFFF0001FFFFFFC000FFFFFFFF8001FFC000FFFFFFFF8001FFF0003FFFFFF
310
FFF00001FFFFFFFFF000E00007FFFFFFFFFF8000FFC000001FFC000FFF80007F
310
C0000FFFFFFFFFFE0000FFFFFFFFFFF8000001FFFE0000007FFFFFF0001FFFFF
310
FC0007FFFFFFF0001FFC0007FFFFFFF0001FFF0003FFFFFFFFF00007FFFFFFFF
310
F000E0001FFFFFFFFFFF8000FFC000001FFC000FFF80007FC0003FFFFFFFFFFE
310
0001FFFFFFFFFFF8000001FFFE0000007FFFFFF0001FFFFFFC0007FFFFFFF000
310
1FFC0007FFFFFFF0001FFF0003FFFFFFFFF0001FFFFFFFFFF000E0003FFFFF00
310
03FF8001FFE000001FFC0007FF80007FC0007FFFFF0007FC0003FFFFF0003FF8
310
000001FFFE0000007FFFFFF0001FFFFFFC0003FFFFFFE0001FFC0003FFFFFFE0
310
001FFF0003FFFFFFFFF0003FFFFFFFFFF000E0003FFFFF0001FF8001FFE00000
310
1FFE0007FF80007FC0007FFFFE0003FC0007FFFFE0003FF8000001FFFE000000
310
7FFFFFF0001FFFFFFE0003FFFFFFE0003FFE0003FFFFFFE0003FFF0003FFFFFF
310
FFF0003FFFFF8001F000E0003FFFFF0001FF0001FFE000001FFE0007FF80007F
310
C0007FFFFE0003FC0007FFFFE0003FF8000001FFFE0000007FFFFFF0001FFFFF
310
FE0001FFFFFFC0003FFE0001FFFFFFC0003FFF0003FFFFFFFFF0003FFFFF0001
310
F000E0003FFFFF0003FF0001FFE000003FFE0007FF80007FC0007FFFFE0003FC
310
0007FFFFE0003FF8000001FFFE0000007FFFFFF0001FFFFFFF0001FFFFFFC000
310
7FFF0001FFFFFFC0007FFF0003FFFFFFFFF0003FFFFF0001F000E0003FFFFE00
310
03FF0003FFF000003FFE0003FF80007FC0007FFFFC0003FE0007FFFFE0003FF8
310
000001FFFE0000007FFFFFF0001FFFFFFF0000FFFFFF80007FFF0000FFFFFF80
310
007FFF0003FFFFFFFFF0003FFFFF0001F000E0003FFFFE0003FF0003FFF00000
310
3FFF0003FF80007FC0007FFFFC0007FE0007FFFFC0003FF8000001FFFE000000
310
7FFFFFF0001FFFFFFF80007FFFFF0000FFFF80007FFFFF0000FFFF0003FFFFFF
310
FFF0003FFFFF0003F000E0003FFFFC0003FE0003FFF000003FFF0003FF80007F
310
E0003FFFF80007FE0003FFFFC0007FF8000001FFFE0000007FFFFFF0001FFFFF
310
FF80003FFFFE0000FFFF80003FFFFE0000FFFF0003FFFFFFFFF0001FFFFE0003
310
F000F0001FFFF80003FE0003FFF000007FFF0001FF80007FE0003FFFF00007FE
310
0001FFFF80007FF8000001FFFE0000007FFFFFF0001FFFFFFFC0000FFFF80001
310
FFFFC0000FFFF80001FFFF0003FFFFFFFFF0001FFFFC0003F000F0000FFFF000
310
07FE0007FFF800007FFF0001FF80007FE0001FFFE00007FF0000FFFE00007FF8
310
000001FFFE0000007FFFFFF0001FFFFFFFC00003FFE00001FFFFC00003FFE000
310
01FFFF0003FFFFFFFFF8000FFFF80003F000F00003FFC00007FC0007FFF80000
310
7FFF8001FF80007FF00007FF80000FFF00007FF80000FFF8000001FFFE000000
310
7F80000000000001FFE000003E000003FFFFE000003E000003FFFF0003FFFFFF
310
FFF80003FFE00007F000F800000000000FFC0007FFF800007FFF8001FF80007F
310
F000000000000FFF000000000000FFF8000001FFFE0000007F80000000000001
310
FFF0000000000007FFFFF0000000000007FFFF0003FFFFFFFFFC00007E000007
310
F000F800000000000FFC0007FFF80000FFFF8000FF80007FF800000000001FFF
310
800000000001FFF8000001FFFE0000007F80000000000001FFF800000000000F
310
FFFFF800000000000FFFFF0003FFFFFFFFFC00000000000FF000FC0000000000
310
1FFC0007FFFC0000FFFF8000FF80007FF800000000003FFFC00000000001FFF8
310
000001FFFE0000007F80000000000001FFF800000000000FFFFFF80000000000
310
0FFFFF0003FFFFFFFFFE00000000001FF000FE00000000003FF8000FFFFC0000
310
FFFF8000FF80007FFC00000000003FFFC00000000003FFF8000001FFFE000000
310
7F80000000000001FFFC00000000001FFFFFFC00000000001FFFFF0003FFFFFF
310
FFFF00000000001FF000FF00000000003FF8000FFFFC0000FFFFC000FF80007F
310
FE00000000007FFFE00000000007FFF8000001FFFE0000007F80000000000001
310
FFFE00000000003FFFFFFE00000000003FFFFF0003FFFFFFFFFF80000000003F
310
F000FF80000000007FF8000FFFFC0001FFFFC0007F80007FFF0000000000FFFF
310
F0000000000FFFF800000000000000007F80000000000001FFFF8000000000FF
310
FFFFFF8000000000FFFFFF0003FFFFFFFFFFC0000000007FF000FFC000000000
310
FFF8000FFFFE0001FFFFC0007F80007FFF8000000001FFFFF8000000001FFFF8
310
00000000000000007F80000000000001FFFFC000000001FFFFFFFFC000000001
310
FFFFFF0003FFFFFFFFFFE000000000FFF000FFE000000003FFF0001FFFFE0001
310
FFFFC0007F80007FFFC000000007FFFFFE000000003FFFF80000000000000000
310
7F80000000000001FFFFE000000003FFFFFFFFE000000003FFFFFF0003FFFFFF
310
FFFFF000000003FFF000FFF80000000FFFF0001FFFFE0001FFFFE0007F80007F
310
FFF00000000FFFFFFF00000000FFFFF800000000000000007F80000000000001
310
FFFFF80000000FFFFFFFFFF80000000FFFFFFF0003FFFFFFFFFFFC0000000FFF
310
F000FFFE0000003FFFF0001FFFFE0003FFFFE0003F80007FFFFC0000003FFFFF
310
FFC0000003FFFFF800000000000000007F80000000000001FFFFFE0000003FFF
310
FFFFFFFE0000003FFFFFFF0003FFFFFFFFFFFF0000003FFFF000FFFF800000FF
310
FFF0001FFFFF0003FFFFE0003F80007FFFFF000001FFFFFFFFF800001FFFFFF8
310
00000000000000007F80000000000001FFFFFFC00001FFFFFFFFFFFFC00001FF
310
FFFFFF0003FFFFFFFFFFFFC00000FFFFF000FFFFF8000FFFFFFFFFFFFFFFFFFF
310
FFFFFFFFFFFFFFFFFFFFF0001FFFFFFFFFFF0000FFFFFFF80000000000000000
310
7FFFFFFFFFFFFFFFFFFFFFFC001FFFFFFFFFFFFFFC001FFFFFFFFFFFFFFFFFFF
310
FFFFFFFC001FFFFFF000FFFFFFFFFFFFFFFFFFFFFFFFFFFFFFFFFFFFFFFFFFFF
310
FFFFFFFFFFFFFFFFFFFFFFFFFFFFFFFFFFFFFFFFFFFFFFFFFFFFFFFFFFFFFFFF
310
FFFFFFFFFFFFFFFFFFFFFFFFFFFFFFFFFFFFFFFFFFFFFFFFFFFFFFFFFFFFFFFF
310
F000FFFFFFFFFFFFFFFFFFFFFFFFFFFFFFFFFFFFFFFFFFFFFFFFFFFFFFFFFFFF
310
FFFFFFFFFFFFFFFFFFFFFFFFFFFFFFFFFFFFFFFFFFFFFFFFFFFFFFFFFFFFFFFF
310
FFFFFFFFFFFFFFFFFFFFFFFFFFFFFFFFFFFFFFFFFFFFFFFFF000FFFFFFFFFFFF
310
FFFFFFFFFFFFFFFFFFFFFFFFFFFFFFFFFFFFFFFFFFFFFFFFFFFFFFFFFFFFFFFF
310
FFFFFFFFFFFFFFFFFFFFFFFFFFFFFFFFFFFFFFFFFFFFFFFFFFFFFFFFFFFFFFFF
310
FFFFFFFFFFFFFFFFFFFFFFFFFFFFFFFFF000FFFFFFFFFFFFFFFFFFFFFFFFFFFF
310
FFFFFFFFFFFFFFFFFFFFFFFFFFFFFFFFFFFFFFFFFFFFFFFFFFFFFFFFFFFFFFFF
310
FFFFFFFFFFFFFFFFFFFFFFFFFFFFFFFFFFFFFFFFFFFFFFFFFFFFFFFFFFFFFFFF
310
FFFFFFFFFFFFFFFFF000FFFFFFFFFFFFFFFFFFFFFFFFFFFFFFFFFFFFFFFFFFFF
310
FFFFFFFFFFFFFFFFFFFFFFFFFFFFFFFFFFFFFFFFFFFFFFFFFFFFFFFFFFFFFFFF
310
FFFFFFFFFFFFFFFFFFFFFFFFFFFFFFFFFFFFFFFFFFFFFFFFFFFFFFFFFFFFFFFF
310
F000FFFFFFFFFFFFFFFFFFFFFFFFFFFFFFFFFFFFFFFFFFFFFFFFFFFFFFFFFFFF
310
FFFFFFFFFFFFFFFFFFFFFFFFFFFFFFFFFFFFFFFFFFFFFFFFFFFFFFFFFFFFFFFF
310
FFFFFFFFFFFFFFFFFFFFFFFFFFFFFFFFFFFFFFFFFFFFFFFFF000FFFFFFFFFFFF
310
FFFFFFFFFFFFFFFFFFFFFFFFFFFFFFFFFFFFFFFFFFFFFFFFFFFFFFFFFFFFFFFF
310
FFFFFFFFFFFFFFFFFFFFFFFFFFFFFFFFFFFFFFFFFFFFFFFFFFFFFFFFFFFFFFFF
310
FFFFFFFFFFFFFFFFFFFFFFFFFFFFFFFFF000FFFFFFFFFFFFFFFFFFFFFFFFFFFF
310
FFFFFFFFFFFFFFFFFFFFFFFFFFFFFFFFFFFFFFFFFFFFFFFFFFFFFFFFFFFFFFFF
310
FFFFFFFFFFFFFFFFFFFFFFFFFFFFFFFFFFFFFFFFFFFFFFFFFFFFFFFFFFFFFFFF
310
FFFFFFFFFFFFFFFFF000FFFFFFFFFFFFFFFFFFFFFFFFFFFFFFFFFFFFFFFFFFFF
310
FFFFFFFFFFFFFFFFFFFFFFFFFFFFFFFFFFFFFFFFFFFFFFFFFFFFFFFFFFFFFFFF
310
FFFFFFFFFFFFFFFFFFFFFFFFFFFFFFFFFFFFFFFFFFFFFFFFFFFFFFFFFFFFFFFF
310
F000FFFFFFFFFFFFFFFFFFFFFFFFFFFFFFFFFFFFFFFFFFFFFFFFFFFFFFFFFFFF
310
FFFFFFFFFFFFFFFFFFFFFFFFFFFFFFFFFFFFFFFFFFFFFFFFFFFFFFFFFFFFFFFF
310
FFFFFFFFFFFFFFFFFFFFFFFFFFFFFFFFFFFFFFFFFFFFFFFFF000FFFFFFFFFFFF
310
FFFFFFFFFFFFFFFFFFFFFFFFFFFFFFFFFFFFFFFFFFFFFFFFFFFFFFFFFFFFFFFF
310
FFFFFFFFFFFFFFFFFFFFFFFFFFFFFFFFFFFFFFFFFFFFFFFFFFFFFFFFFFFFFFFF
310
FFFFFFFFFFFFFFFFFFFFFFFFFFFFFFFFF000FFFFFFFFFFFFFFFFFFFFFFFFFFFF
310
FFFFFFFFFFFFFFFFFFFFFFFFFFFFFFFFFFFFFFFFFFFFFFFFFFFFFFFFFFFFFFFF
310
FFFFFFFFFFFFFFFFFFFFFFFFFFFFFFFFFFFFFFFFFFFFFFFFFFFFFFFFFFFFFFFF
310
FFFFFFFFFFFFFFFFF000FFFFFFFFFFFFFFFFFFFFFFFFFFFFFFFFFFFFFFFFFFFF
310
FFFFFFFFFFFFFFFFFFFFFFFFFFFFFFFFFFFFFFFFFFFFFFFFFFFFFFFFFFFFFFFF
310
FFFFFFFFFFFFFFFFFFFFFFFFFFFFFFFFFFFFFFFFFFFFFFFFFFFFFFFFFFFFFFFF
310
F000FFFFFFFFFFFFFFFFFFFFFFFFFFFFFFFFFFFFFFFFFFFFFFFFFFFFFFFFFFFF
310
FFFFFFFFFFFFFFFFFFFFFFFFFFFFFFFFFFFFFFFFFFFFFFFFFFFFFFFFFFFFFFFF
310
FFFFFFFFFFFFFFFFFFFFFFFFFFFFFFFFFFFFFFFFFFFFFFFFF000FFFFFFFFFFFF
310
FFFFFFFFFFFFFFFFFFFFFFFFFFFFFFFFFFFFFFFFFFFFFFFFFFFFFFFFFFFFFFFF
310
FFFFFFFFFFFFFFFFFFFFFFFFFFFFFFFFFFFFFFFFFFFFFFFFFFFFFFFFFFFFFFFF
310
FFFFFFFFFFFFFFFFFFFFFFFFFFFFFFFFF000FFFFFFFFFFFFFFFFFFFFFFFFFFFF
310
FFFFFFFFFFFFFFFFFFFFFFFFFFFFFFFFFFFFFFFFFFFFFFFFFFFFFFFFFFFFFFFF
310
FFFFFFFFFFFFFFFFFFFFFFFFFFFFFFFFFFFFFFFFFFFFFFFFFFFFFFFFFFFFFFFF
310
FFFFFFFFFFFFFFFFF000FFFFFFFFFFFFFFFFFFFFFFFFFFFFFFFFFFFFFFFFFFFF
310
FFFFFFFFFFFFFFFFFFFFFFFFFFFFFFFFFFFFFFFFFFFFFFFFFFFFFFFFFFFFFFFF
310
FFFFFFFFFFFFFFFFFFFFFFFFFFFFFFFFFFFFFFFFFFFFFFFFFFFFFFFFFFFFFFFF
310
F000FFFFFFFFFFFFFFFFFFFFFFFFFFFFFFFFFFFFFFFFFFFFFFFFFFFFFFFFFFFF
310
FFFFFFFFFFFFFFFFFFFFFFFFFFFFFFFFFFFFFFFFFFFFFFFFFFFFFFFFFFFFFFFF
310
FFFFFFFFFFFFFFFFFFFFFFFFFFFFFFFFFFFFFFFFFFFFFFFFF000FFFFFFFFFFFF
310
FFFFFFFFFFFFFFFFFFFFFFFFFFFFFFFFFFFFFFFFFFFFFFFFFFFFFFFFFFFFFFFF
310
FFFFFFFFFFFFFFFFFFFFFFFFFFFFFFFFFFFFFFFFFFFFFFFFFFFFFFFFFFFFFFFF
310
FFFFFFFFFFFFFFFFFFFFFFFFFFFFFFFFF000FFFFFFFFFFFFFFFFFFFFFFFFFFFF
310
FFFFFFFFFFFFFFFFFFFFFFFFFFFFFFFFFFFFFFFFFFFFFFFFFFFFFFFFFFFFFFFF
310
FFFFFFFFFFFFFFFFFFFFFFFFFFFFFFFFFFFFFFFFFFFFFFFFFFFFFFFFFFFFFFFF
310
FFFFFFFFFFFFFFFFF000FFFFFFFFFFFFFFFFFFFFFFFFFFFFFFFFFFFFFFFFFFFF
310
FFFFFFFFFFFFFFFFFFFFFFFFFFFFFFFFFFFFFFFFFFFFFFFFFFFFFFFFFFFFFFFF
310
FFFFFFFFFFFFFFFFFFFFFFFFFFFFFFFFFFFFFFFFFFFFFFFFFFFFFFFFFFFFFFFF
310
F000FFFFFFFFFFFFFFFFFFFFFFFFFFFFFFFFFFFFFFFFFFFFFFFFFFFFFFFFFFFF
310
FFFFFFFFFFFFFFFFFFFFFFFFFFFFFFFFFFFFFFFFFFFFFFFFFFFFFFFFFFFFFFFF
310
FFFFFFFFFFFFFFFFFFFFFFFFFFFFFFFFFFFFFFFFFFFFFFFFF000FFFFFFFFFFFF
310
FFFFFFFFFFFFFFFFFFFFFFFFFFFFFFFFFFFFFFFFFFFFFFFFFFFFFFFFFFFFFFFF
310
FFFFFFFFFFFFFFFFFFFFFFFFFFFFFFFFFFFFFFFFFFFFFFFFFFFFFFFFFFFFFFFF
310
FFFFFFFFFFFFFFFFFFFFFFFFFFFFFFFFF0000000000000000000000000000000
310
0000000000000000000000000000000000000000000000000000000000000000
310
0000000000000000000000000000000000000000000000000000000000000000
310
0000000000000000000000000000000000000000000000000000000000000000
310
0000000000000000000000000000000000000000000000000000000000000000
310
0000000000000000000000000000000000000000000000000000000000000000
310
0000000000000000000000000000000000000000000000000000000000000000
310
0000000000000000000000000000000000000000000000000000000000000000
310
0000000000000000000000000000000000000000000000000000000000000000
310
0000000000000000000000000000000000000000000000000000000000000000
310
0000000000000000000000000000000000000000000000000000000000000000
310
0000000000000000000000000000000000000000000000000000000000000000
310
0000000000000000000000000000000000000000000000000000000000000000
310
0000000000000000000000000000000000000000000000000000000000000000
310
0000000000000000000000000000000000000000000000000000000000000000
310
0000000000000000000000000000000000000000000000000000000000000000
  1
OLE
  0
ENDSEC
  0
SECTION
  2
OBJECTS
  0
DICTIONARY
  5
C
330
0
100
AcDbDictionary
281
     1
  3
ACAD_GROUP
350
D
  3
ACAD_LAYOUT
350
1A
  3
ACAD_MLINESTYLE
350
17
  3
ACAD_PLOTSETTINGS
350
19
  3
ACAD_PLOTSTYLENAME
350
E
  0
DICTIONARY
  5
D
102
{ACAD_REACTORS
330
C
102
}
330
C
100
AcDbDictionary
281
     1
  0
DICTIONARY
  5
1A
102
{ACAD_REACTORS
330
C
102
}
330
C
100
AcDbDictionary
281
     1
  3
Layout1
350
1E
  3
Layout2
350
26
  3
Model
350
22
  0
DICTIONARY
  5
17
102
{ACAD_REACTORS
330
C
102
}
330
C
100
AcDbDictionary
281
     1
  3
Standard
350
18
  0
DICTIONARY
  5
19
102
{ACAD_REACTORS
330
C
102
}
330
C
100
AcDbDictionary
281
     1
  0
ACDBDICTIONARYWDFLT
  5
E
102
{ACAD_REACTORS
330
C
102
}
330
C
100
AcDbDictionary
281
     1
  3
Normal
350
F
100
AcDbDictionaryWithDefault
340
F
  0
LAYOUT
  5
1E
102
{ACAD_REACTORS
330
1A
102
}
330
1A
100
AcDbPlotSettings
  1

  2
none_device
  4

  6

 40
0.0
 41
0.0
 42
0.0
 43
0.0
 44
0.0
 45
0.0
 46
0.0
 47
0.0
 48
0.0
 49
0.0
140
0.0
141
0.0
142
1.0
143
1.0
 70
   688
 72
     0
 73
     0
 74
     5
  7

 75
    16
147
1.0
148
0.0
149
0.0
100
AcDbLayout
  1
Layout1
 70
     1
 71
     1
 10
0.0
 20
0.0
 11
420.0
 21
297.0
 12
0.0
 22
0.0
 32
0.0
 14
1.0000000000E+20
 24
1.0000000000E+20
 34
1.0000000000E+20
 15
-1.0000000000E+20
 25
-1.0000000000E+20
 35
-1.0000000000E+20
146
0.0
 13
0.0
 23
0.0
 33
0.0
 16
1.0
 26
0.0
 36
0.0
 17
0.0
 27
1.0
 37
0.0
 76
     0
330
1B
  0
LAYOUT
  5
26
102
{ACAD_REACTORS
330
1A
102
}
330
1A
100
AcDbPlotSettings
  1

  2
none_device
  4

  6

 40
0.0
 41
0.0
 42
0.0
 43
0.0
 44
0.0
 45
0.0
 46
0.0
 47
0.0
 48
0.0
 49
0.0
140
0.0
141
0.0
142
1.0
143
1.0
 70
   688
 72
     0
 73
     0
 74
     5
  7

 75
    16
147
1.0
148
0.0
149
0.0
100
AcDbLayout
  1
Layout2
 70
     1
 71
     2
 10
0.0
 20
0.0
 11
0.0
 21
0.0
 12
0.0
 22
0.0
 32
0.0
 14
0.0
 24
0.0
 34
0.0
 15
0.0
 25
0.0
 35
0.0
146
0.0
 13
0.0
 23
0.0
 33
0.0
 16
1.0
 26
0.0
 36
0.0
 17
0.0
 27
1.0
 37
0.0
 76
     0
330
23
  0
LAYOUT
  5
22
102
{ACAD_REACTORS
330
1A
102
}
330
1A
100
AcDbPlotSettings
  1

  2
none_device
  4

  6

 40
0.0
 41
0.0
 42
0.0
 43
0.0
 44
0.0
 45
0.0
 46
0.0
 47
0.0
 48
0.0
 49
0.0
140
0.0
141
0.0
142
1.0
143
1.0
 70
  1712
 72
     0
 73
     0
 74
     0
  7

 75
     0
147
1.0
148
0.0
149
0.0
100
AcDbLayout
  1
Model
 70
     1
 71
     0
 10
0.0
 20
0.0
 11
297.0
 21
210.0
 12
0.0
 22
0.0
 32
0.0
 14
0.0
 24
0.0
 34
0.0
 15
297.0
 25
210.0
 35
0.0
146
0.0
 13
0.0
 23
0.0
 33
0.0
 16
1.0
 26
0.0
 36
0.0
 17
0.0
 27
1.0
 37
0.0
 76
     0
330
1F
331
29
  0
MLINESTYLE
  5
18
102
{ACAD_REACTORS
330
17
102
}
330
17
100
AcDbMlineStyle
  2
Standard
 70
     0
  3

 62
   256
 51
90.0
 52
90.0
 71
     2
 49
0.5
 62
   256
  6
BYLAYER
 49
-0.5
 62
   256
  6
BYLAYER
  0
ACDBPLACEHOLDER
  5
F
102
{ACAD_REACTORS
330
E
102
}
330
E
  0
ENDSEC
  0
EOF
