  0
SECTION
  2
HEADER
  9
$ACADVER
  1
AC1015
  9
$ACADMAINTVER
 70
     6
  9
$DWGCODEPAGE
  3
ANSI_1252
  9
$INSBASE
 10
0.0
 20
0.0
 30
0.0
  9
$EXTMIN
 10
0.0
 20
0.0
 30
0.0
  9
$EXTMAX
 10
297.0
 20
210.0
 30
0.0
  9
$LIMMIN
 10
0.0
 20
0.0
  9
$LIMMAX
 10
297.0
 20
210.0
  9
$ORTHOMODE
 70
     0
  9
$REGENMODE
 70
     1
  9
$FILLMODE
 70
     1
  9
$QTEXTMODE
 70
     0
  9
$MIRRTEXT
 70
     1
  9
$LTSCALE
 40
1.0
  9
$ATTMODE
 70
     1
  9
$TEXTSIZE
 40
2.0
  9
$TRACEWID
 40
1.0
  9
$TEXTSTYLE
  7
Standard
  9
$CLAYER
  8
0
  9
$CELTYPE
  6
ByLayer
  9
$CECOLOR
 62
   256
  9
$CELTSCALE
 40
1.0
  9
$DISPSILH
 70
     0
  9
$DIMSCALE
 40
1.0
  9
$DIMASZ
 40
3.0
  9
$DIMEXO
 40
0.0
  9
$DIMDLI
 40
3.75
  9
$DIMRND
 40
0.0
  9
$DIMDLE
 40
0.0
  9
$DIMEXE
 40
1.0
  9
$DIMTP
 40
0.0
  9
$DIMTM
 40
0.0
  9
$DIMTXT
 40
2.0
  9
$DIMCEN
 40
2.5
  9
$DIMTSZ
 40
0.0
  9
$DIMTOL
 70
     0
  9
$DIMLIM
 70
     0
  9
$DIMTIH
 70
     1
  9
$DIMTOH
 70
     1
  9
$DIMSE1
 70
     0
  9
$DIMSE2
 70
     0
  9
$DIMTAD
 70
     1
  9
$DIMZIN
 70
     0
  9
$DIMBLK
  1

  9
$DIMASO
 70
     1
  9
$DIMSHO
 70
     1
  9
$DIMPOST
  1

  9
$DIMAPOST
  1

  9
$DIMALT
 70
     0
  9
$DIMALTD
 70
     3
  9
$DIMALTF
 40
0.0393700787
  9
$DIMLFAC
 40
1.0
  9
$DIMTOFL
 70
     1
  9
$DIMTVP
 40
0.0
  9
$DIMTIX
 70
     0
  9
$DIMSOXD
 70
     0
  9
$DIMSAH
 70
     0
  9
$DIMBLK1
  1

  9
$DIMBLK2
  1

  9
$DIMSTYLE
  2
ISO-25
  9
$DIMCLRD
 70
     0
  9
$DIMCLRE
 70
     0
  9
$DIMCLRT
 70
     0
  9
$DIMTFAC
 40
1.0
  9
$DIMGAP
 40
1.524
  9
$DIMJUST
 70
     0
  9
$DIMSD1
 70
     0
  9
$DIMSD2
 70
     0
  9
$DIMTOLJ
 70
     0
  9
$DIMTZIN
 70
     0
  9
$DIMALTZ
 70
     0
  9
$DIMALTTZ
 70
     0
  9
$DIMUPT
 70
     0
  9
$DIMDEC
 70
     2
  9
$DIMTDEC
 70
     3
  9
$DIMALTU
 70
     2
  9
$DIMALTTD
 70
     3
  9
$DIMTXSTY
  7
Standard
  9
$DIMAUNIT
 70
     0
  9
$DIMADEC
 70
     2
  9
$DIMALTRND
 40
0.0
  9
$DIMAZIN
 70
     0
  9
$DIMDSEP
 70
    44
  9
$DIMATFIT
 70
     3
  9
$DIMFRAC
 70
     0
  9
$DIMLDRBLK
  1

  9
$DIMLUNIT
 70
     2
  9
$DIMLWD
 70
    -2
  9
$DIMLWE
 70
    -2
  9
$DIMTMOVE
 70
     0
  9
$LUNITS
 70
     2
  9
$LUPREC
 70
     2
  9
$SKETCHINC
 40
1.0
  9
$FILLETRAD
 40
10.0
  9
$AUNITS
 70
     0
  9
$AUPREC
 70
     2
  9
$MENU
  1
.
  9
$ELEVATION
 40
0.0
  9
$PELEVATION
 40
0.0
  9
$THICKNESS
 40
0.0
  9
$LIMCHECK
 70
     0
  9
$CHAMFERA
 40
10.0
  9
$CHAMFERB
 40
10.0
  9
$CHAMFERC
 40
20.0
  9
$CHAMFERD
 40
0.0
  9
$SKPOLY
 70
     0
  9
$TDCREATE
 40
2455685.413934676
  9
$TDUCREATE
 40
2455685.330601342
  9
$TDUPDATE
 40
2455685.413934688
  9
$TDUUPDATE
 40
2455685.330601354
  9
$TDINDWG
 40
0.0000000116
  9
$TDUSRTIMER
 40
0.0000000116
  9
$USRTIMER
 70
     1
  9
$ANGBASE
 50
0.0
  9
$ANGDIR
 70
     0
  9
$PDMODE
 70
     0
  9
$PDSIZE
 40
-1.0
  9
$PLINEWID
 40
0.0
  9
$SPLFRAME
 70
     0
  9
$SPLINETYPE
 70
     6
  9
$SPLINESEGS
 70
     8
  9
$HANDSEED
  5
2BC
  9
$SURFTAB1
 70
     6
  9
$SURFTAB2
 70
     6
  9
$SURFTYPE
 70
     6
  9
$SURFU
 70
     6
  9
$SURFV
 70
     6
  9
$UCSBASE
  2

  9
$UCSNAME
  2

  9
$UCSORG
 10
0.0
 20
0.0
 30
0.0
  9
$UCSXDIR
 10
1.0
 20
0.0
 30
0.0
  9
$UCSYDIR
 10
0.0
 20
1.0
 30
0.0
  9
$UCSORTHOREF
  2

  9
$UCSORTHOVIEW
 70
     0
  9
$UCSORGTOP
 10
0.0
 20
0.0
 30
0.0
  9
$UCSORGBOTTOM
 10
0.0
 20
0.0
 30
0.0
  9
$UCSORGLEFT
 10
0.0
 20
0.0
 30
0.0
  9
$UCSORGRIGHT
 10
0.0
 20
0.0
 30
0.0
  9
$UCSORGFRONT
 10
0.0
 20
0.0
 30
0.0
  9
$UCSORGBACK
 10
0.0
 20
0.0
 30
0.0
  9
$PUCSBASE
  2

  9
$PUCSNAME
  2

  9
$PUCSORG
 10
0.0
 20
0.0
 30
0.0
  9
$PUCSXDIR
 10
1.0
 20
0.0
 30
0.0
  9
$PUCSYDIR
 10
0.0
 20
1.0
 30
0.0
  9
$PUCSORTHOREF
  2

  9
$PUCSORTHOVIEW
 70
     0
  9
$PUCSORGTOP
 10
0.0
 20
0.0
 30
0.0
  9
$PUCSORGBOTTOM
 10
0.0
 20
0.0
 30
0.0
  9
$PUCSORGLEFT
 10
0.0
 20
0.0
 30
0.0
  9
$PUCSORGRIGHT
 10
0.0
 20
0.0
 30
0.0
  9
$PUCSORGFRONT
 10
0.0
 20
0.0
 30
0.0
  9
$PUCSORGBACK
 10
0.0
 20
0.0
 30
0.0
  9
$USERI1
 70
     0
  9
$USERI2
 70
     0
  9
$USERI3
 70
     0
  9
$USERI4
 70
     0
  9
$USERI5
 70
     0
  9
$USERR1
 40
0.0
  9
$USERR2
 40
0.0
  9
$USERR3
 40
0.0
  9
$USERR4
 40
0.0
  9
$USERR5
 40
0.0
  9
$WORLDVIEW
 70
     1
  9
$SHADEDGE
 70
     3
  9
$SHADEDIF
 70
    70
  9
$TILEMODE
 70
     1
  9
$MAXACTVP
 70
    64
  9
$PINSBASE
 10
0.0
 20
0.0
 30
0.0
  9
$PLIMCHECK
 70
     0
  9
$PEXTMIN
 10
1.0000000000E+20
 20
1.0000000000E+20
 30
1.0000000000E+20
  9
$PEXTMAX
 10
-1.0000000000E+20
 20
-1.0000000000E+20
 30
-1.0000000000E+20
  9
$PLIMMIN
 10
0.0
 20
0.0
  9
$PLIMMAX
 10
420.0
 20
297.0
  9
$UNITMODE
 70
     0
  9
$VISRETAIN
 70
     1
  9
$PLINEGEN
 70
     0
  9
$PSLTSCALE
 70
     1
  9
$TREEDEPTH
 70
  3020
  9
$CMLSTYLE
  2
Standard
  9
$CMLJUST
 70
     0
  9
$CMLSCALE
 40
20.0
  9
$PROXYGRAPHICS
 70
     1
  9
$MEASUREMENT
 70
     1
  9
$CELWEIGHT
370
    -1
  9
$ENDCAPS
280
     0
  9
$JOINSTYLE
280
     0
  9
$LWDISPLAY
290
     1
  9
$INSUNITS
 70
     4
  9
$HYPERLINKBASE
  1

  9
$STYLESHEET
  1

  9
$XEDIT
290
     1
  9
$CEPSNTYPE
380
     0
  9
$PSTYLEMODE
290
     1
  9
$FINGERPRINTGUID
  2
{E1E44A7B-C0AC-4B58-8FDC-E3BBBE79D425}
  9
$VERSIONGUID
  2
{FAEB1C32-E019-11D5-929B-00C0DF256EC4}
  9
$EXTNAMES
290
     1
  9
$PSVPSCALE
 40
0.0
  9
$OLESTARTUP
290
     0
  0
ENDSEC
  0
SECTION
  2
CLASSES
  0
CLASS
  1
ACDBDICTIONARYWDFLT
  2
AcDbDictionaryWithDefault
  3
ObjectDBX Classes
 90
        0
280
     0
281
     0
  0
CLASS
  1
VISUALSTYLE
  2
AcDbVisualStyle
  3
ObjectDBX Classes
 90
     4095
280
     0
281
     0
  0
CLASS
  1
DICTIONARYVAR
  2
AcDbDictionaryVar
  3
ObjectDBX Classes
 90
        0
280
     0
281
     0
  0
CLASS
  1
ACDBPLACEHOLDER
  2
AcDbPlaceHolder
  3
ObjectDBX Classes
 90
        0
280
     0
281
     0
  0
CLASS
  1
LAYOUT
  2
AcDbLayout
  3
ObjectDBX Classes
 90
        0
280
     0
281
     0
  0
ENDSEC
  0
SECTION
  2
TABLES
  0
TABLE
  2
VPORT
  5
8
330
0
100
AcDbSymbolTable
 70
     1
  0
VPORT
  5
29
330
8
100
AcDbSymbolTableRecord
100
AcDbViewportTableRecord
  2
*Active
 70
     0
 10
0.0
 20
0.0
 11
1.0
 21
1.0
 12
148.5
 22
105.0
 13
0.0
 23
0.0
 14
10.0
 24
10.0
 15
10.0
 25
10.0
 16
0.0
 26
0.0
 36
1.0
 17
0.0
 27
0.0
 37
0.0
 40
210.0
 41
1.4142857143
 42
50.0
 43
0.0
 44
0.0
 50
0.0
 51
0.0
 71
     0
 72
  2000
 73
     1
 74
     3
 75
     0
 76
     0
 77
     0
 78
     0
281
     0
 65
     1
110
0.0
120
0.0
130
0.0
111
1.0
121
0.0
131
0.0
112
0.0
122
1.0
132
0.0
 79
     0
146
0.0
  0
ENDTAB
  0
TABLE
  2
LTYPE
  5
5
330
0
100
AcDbSymbolTable
 70
     6
  0
LTYPE
  5
14
330
5
100
AcDbSymbolTableRecord
100
AcDbLinetypeTableRecord
  2
ByBlock
 70
     0
  3

 72
    65
 73
     0
 40
0.0
  0
LTYPE
  5
15
330
5
100
AcDbSymbolTableRecord
100
AcDbLinetypeTableRecord
  2
ByLayer
 70
     0
  3

 72
    65
 73
     0
 40
0.0
  0
LTYPE
  5
16
330
5
100
AcDbSymbolTableRecord
100
AcDbLinetypeTableRecord
  2
Continuous
 70
     0
  3
Solid line
 72
    65
 73
     0
 40
0.0
  0
LTYPE
  5
3B
330
5
100
AcDbSymbolTableRecord
100
AcDbLinetypeTableRecord
  2
HIDDEN
 70
     0
  3
Hidden __ __ __ __ __ __ __ __ __ __ __ __ __ __
 72
    65
 73
     2
 40
1.905
 49
1.27
 74
     0
 49
-0.635
 74
     0
  0
LTYPE
  5
3C
330
5
100
AcDbSymbolTableRecord
100
AcDbLinetypeTableRecord
  2
PHANTOM
 70
     0
  3
Phantom ______  __  __  ______  __  __  ______
 72
    65
 73
     6
 40
12.7
 49
6.35
 74
     0
 49
-1.27
 74
     0
 49
1.27
 74
     0
 49
-1.27
 74
     0
 49
1.27
 74
     0
 49
-1.27
 74
     0
  0
LTYPE
  5
3D
330
5
100
AcDbSymbolTableRecord
100
AcDbLinetypeTableRecord
  2
CENTER
 70
     0
  3
Center ____ _ ____ _ ____ _ ____ _ ____ _ ____
 72
    65
 73
     4
 40
10.16
 49
6.35
 74
     0
 49
-1.27
 74
     0
 49
1.27
 74
     0
 49
-1.27
 74
     0
  0
LTYPE
  5
3E
330
5
100
AcDbSymbolTableRecord
100
AcDbLinetypeTableRecord
  2
CENTERX2
 70
     0
  3
Center (2x) ________  __  ________  __  _____
 72
    65
 73
     4
 40
20.32
 49
12.7
 74
     0
 49
-2.54
 74
     0
 49
2.54
 74
     0
 49
-2.54
 74
     0
  0
LTYPE
  5
3F
330
5
100
AcDbSymbolTableRecord
100
AcDbLinetypeTableRecord
  2
DOT2
 70
     0
  3
Dot (.5x) ........................................
 72
    65
 73
     2
 40
0.635
 49
0.0
 74
     0
 49
-0.635
 74
     0
  0
ENDTAB
  0
TABLE
  2
LAYER
  5
2
330
0
100
AcDbSymbolTable
 70
     5
  0
LAYER
  5
10
330
2
100
AcDbSymbolTableRecord
100
AcDbLayerTableRecord
  2
0
 70
     0
 62
     7
  6
Continuous
370
    -3
390
F
  0
LAYER
  5
40
330
2
100
AcDbSymbolTableRecord
100
AcDbLayerTableRecord
  2
FORMAT
 70
     0
 62
     7
  6
Continuous
370
    -3
390
F
  0
LAYER
  5
41
330
2
100
AcDbSymbolTableRecord
100
AcDbLayerTableRecord
  2
VERMASSUNG
 70
     0
 62
     7
  6
Continuous
370
    -3
390
F
  0
LAYER
  5
42
330
2
100
AcDbSymbolTableRecord
100
AcDbLayerTableRecord
  2
KOPF_DÜNN
 70
     0
 62
     7
  6
Continuous
370
    -3
390
F
  0
LAYER
  5
43
330
2
100
AcDbSymbolTableRecord
100
AcDbLayerTableRecord
  2
KOPF_DICK
 70
     0
 62
     7
  6
Continuous
370
    15
390
F
  0
ENDTAB
  0
TABLE
  2
STYLE
  5
3
330
0
100
AcDbSymbolTable
 70
     2
  0
STYLE
  5
11
330
3
100
AcDbSymbolTableRecord
100
AcDbTextStyleTableRecord
  2
Standard
 70
     0
 40
0.0
 41
1.0
 50
0.0
 71
     0
 42
2.5
  3
txt
  4

  0
STYLE
  5
44
330
3
100
AcDbSymbolTableRecord
100
AcDbTextStyleTableRecord
  2
SLDTEXTSTYLE0
 70
     0
 40
0.0
 41
0.7
 50
0.0
 71
     0
 42
0.2
  3
TXT
  4

  0
ENDTAB
  0
TABLE
  2
VIEW
  5
6
330
0
100
AcDbSymbolTable
 70
     0
  0
ENDTAB
  0
TABLE
  2
UCS
  5
7
330
0
100
AcDbSymbolTable
 70
     0
  0
ENDTAB
  0
TABLE
  2
APPID
  5
9
330
0
100
AcDbSymbolTable
 70
     1
  0
APPID
  5
12
330
9
100
AcDbSymbolTableRecord
100
AcDbRegAppTableRecord
  2
ACAD
 70
     0
  0
ENDTAB
  0
TABLE
  2
DIMSTYLE
  5
A
330
0
100
AcDbSymbolTable
 70
     3
100
AcDbDimStyleTable
  0
DIMSTYLE
105
27
330
A
100
AcDbSymbolTableRecord
100
AcDbDimStyleTableRecord
  2
ISO-25
 70
     0
 41
2.5
 42
0.625
 43
3.75
 44
1.25
 73
     0
 74
     0
 77
     1
 78
     8
140
2.5
141
2.5
143
0.0393700787
147
0.625
171
     3
172
     1
271
     2
272
     2
274
     3
278
    44
283
     0
284
     8
340
11
  0
DIMSTYLE
105
166
102
{ACAD_REACTORS
330
165
330
170
330
17C
330
232
330
264
330
26E
330
278
330
282
330
28C
330
29F
102
}
330
A
100
AcDbSymbolTableRecord
100
AcDbDimStyleTableRecord
  2
SLDDIMSTYLE0
 70
     0
 41
3.0
 44
0.0
 45
0.000000001
 73
     0
 74
     0
 77
     1
 78
    12
140
2.0
147
0.5
173
     1
271
     2
272
     3
284
    12
340
44
  0
DIMSTYLE
105
297
102
{ACAD_REACTORS
330
296
102
}
330
A
100
AcDbSymbolTableRecord
100
AcDbDimStyleTableRecord
  2
SLDDIMSTYLE1
 70
     0
 41
3.0
 44
0.0
 45
0.000000001
 73
     0
 74
     0
 77
     1
 78
    12
140
2.0
147
0.5
173
     1
271
     2
272
     3
284
    12
340
44
  0
ENDTAB
  0
TABLE
  2
BLOCK_RECORD
  5
1
330
0
100
AcDbSymbolTable
 70
    13
  0
BLOCK_RECORD
  5
1F
330
1
100
AcDbSymbolTableRecord
100
AcDbBlockTableRecord
  2
*Model_Space
340
22
  0
BLOCK_RECORD
  5
1B
330
1
100
AcDbSymbolTableRecord
100
AcDbBlockTableRecord
  2
*Paper_Space
340
1E
  0
BLOCK_RECORD
  5
23
330
1
100
AcDbSymbolTableRecord
100
AcDbBlockTableRecord
  2
*Paper_Space0
340
26
  0
BLOCK_RECORD
  5
167
330
1
100
AcDbSymbolTableRecord
100
AcDbBlockTableRecord
  2
*D1
340
0
  0
BLOCK_RECORD
  5
171
330
1
100
AcDbSymbolTableRecord
100
AcDbBlockTableRecord
  2
*D2
340
0
  0
BLOCK_RECORD
  5
17D
330
1
100
AcDbSymbolTableRecord
100
AcDbBlockTableRecord
  2
*D3
340
0
  0
BLOCK_RECORD
  5
233
330
1
100
AcDbSymbolTableRecord
100
AcDbBlockTableRecord
  2
*D4
340
0
  0
BLOCK_RECORD
  5
265
330
1
100
AcDbSymbolTableRecord
100
AcDbBlockTableRecord
  2
*D5
340
0
  0
BLOCK_RECORD
  5
26F
330
1
100
AcDbSymbolTableRecord
100
AcDbBlockTableRecord
  2
*D6
340
0
  0
BLOCK_RECORD
  5
279
330
1
100
AcDbSymbolTableRecord
100
AcDbBlockTableRecord
  2
*D7
340
0
  0
BLOCK_RECORD
  5
283
330
1
100
AcDbSymbolTableRecord
100
AcDbBlockTableRecord
  2
*D8
340
0
  0
BLOCK_RECORD
  5
28D
330
1
100
AcDbSymbolTableRecord
100
AcDbBlockTableRecord
  2
*D9
340
0
  0
BLOCK_RECORD
  5
298
330
1
100
AcDbSymbolTableRecord
100
AcDbBlockTableRecord
  2
*D10
340
0
  0
BLOCK_RECORD
  5
2A0
330
1
100
AcDbSymbolTableRecord
100
AcDbBlockTableRecord
  2
*D11
340
0
  0
BLOCK_RECORD
  5
2A9
330
1
100
AcDbSymbolTableRecord
100
AcDbBlockTableRecord
  2
SW_CENTERMARKSYMBOL_0
340
0
102
{BLKREFS
331
2B4
102
}
  0
ENDTAB
  0
ENDSEC
  0
SECTION
  2
BLOCKS
  0
BLOCK
  5
20
330
1F
100
AcDbEntity
  8
0
100
AcDbBlockBegin
  2
*Model_Space
 70
     0
 10
0.0
 20
0.0
 30
0.0
  3
*Model_Space
  1

  0
ENDBLK
  5
21
330
1F
100
AcDbEntity
  8
0
100
AcDbBlockEnd
  0
BLOCK
  5
1C
330
1B
100
AcDbEntity
 67
     1
  8
0
100
AcDbBlockBegin
  2
*Paper_Space
 70
     0
 10
0.0
 20
0.0
 30
0.0
  3
*Paper_Space
  1

  0
ENDBLK
  5
1D
330
1B
100
AcDbEntity
 67
     1
  8
0
100
AcDbBlockEnd
  0
BLOCK
  5
24
330
23
100
AcDbEntity
  8
0
100
AcDbBlockBegin
  2
*Paper_Space0
 70
     0
 10
0.0
 20
0.0
 30
0.0
  3
*Paper_Space0
  1

  0
ENDBLK
  5
25
330
23
100
AcDbEntity
  8
0
100
AcDbBlockEnd
  0
BLOCK
  5
168
330
167
100
AcDbEntity
  8
0
100
AcDbBlockBegin
  2
*D1
 70
     1
 10
0.0
 20
0.0
 30
0.0
  3
*D1
  1

  0
SOLID
  5
16A
330
167
100
AcDbEntity
  8
VERMASSUNG
100
AcDbTrace
 10
159.800844346
 20
176.414513735
 30
0.0
 11
162.800844346
 21
175.964513735
 31
0.0
 12
162.800844346
 22
176.864513735
 32
0.0
 13
162.800844346
 23
176.864513735
 33
0.0
  0
SOLID
  5
16B
330
167
100
AcDbEntity
  8
VERMASSUNG
100
AcDbTrace
 10
239.800844346
 20
176.414513735
 30
0.0
 11
236.800844346
 21
176.864513735
 31
0.0
 12
236.800844346
 22
175.964513735
 32
0.0
 13
236.800844346
 23
175.964513735
 33
0.0
  0
LINE
  5
16C
330
167
100
AcDbEntity
  8
VERMASSUNG
100
AcDbLine
 10
159.800844346
 20
155.387426325
 30
0.0
 11
159.800844346
 21
177.414513735
 31
0.0
  0
LINE
  5
16D
330
167
100
AcDbEntity
  8
VERMASSUNG
100
AcDbLine
 10
239.800844346
 20
165.687426325
 30
0.0
 11
239.800844346
 21
177.414513735
 31
0.0
  0
LINE
  5
16E
330
167
100
AcDbEntity
  8
VERMASSUNG
100
AcDbLine
 10
159.800844346
 20
176.414513735
 30
0.0
 11
239.800844346
 21
176.414513735
 31
0.0
  0
MTEXT
  5
16F
330
167
100
AcDbEntity
  8
VERMASSUNG
100
AcDbMText
 10
198.4741220327
 20
178.9926490981
 30
0.0
 40
2.0
 41
0.0
 71
     1
 72
     1
  1
80
  7
SLDTEXTSTYLE0
 73
     1
 44
1.0
  0
ENDBLK
  5
169
330
167
100
AcDbEntity
  8
0
100
AcDbBlockEnd
  0
BLOCK
  5
172
330
171
100
AcDbEntity
  8
0
100
AcDbBlockBegin
  2
*D2
 70
     1
 10
0.0
 20
0.0
 30
0.0
  3
*D2
  1

  0
SOLID
  5
174
330
171
100
AcDbEntity
  8
VERMASSUNG
100
AcDbTrace
 10
133.7362822511
 20
155.687426325
 30
0.0
 11
133.2862822511
 21
152.687426325
 31
0.0
 12
134.1862822511
 22
152.687426325
 32
0.0
 13
134.1862822511
 23
152.687426325
 33
0.0
  0
SOLID
  5
175
330
171
100
AcDbEntity
  8
VERMASSUNG
100
AcDbTrace
 10
133.7362822511
 20
115.687426325
 30
0.0
 11
134.1862822511
 21
118.687426325
 31
0.0
 12
133.2862822511
 22
118.687426325
 32
0.0
 13
133.2862822511
 23
118.687426325
 33
0.0
  0
LINE
  5
176
330
171
100
AcDbEntity
  8
VERMASSUNG
100
AcDbLine
 10
160.100844346
 20
155.687426325
 30
0.0
 11
132.7362822511
 21
155.687426325
 31
0.0
  0
LINE
  5
177
330
171
100
AcDbEntity
  8
VERMASSUNG
100
AcDbLine
 10
160.100844346
 20
115.687426325
 30
0.0
 11
132.7362822511
 21
115.687426325
 31
0.0
  0
LINE
  5
178
330
171
100
AcDbEntity
  8
VERMASSUNG
100
AcDbLine
 10
133.7362822511
 20
155.687426325
 30
0.0
 11
133.7362822511
 21
115.687426325
 31
0.0
  0
MTEXT
  5
179
330
171
100
AcDbEntity
  8
VERMASSUNG
100
AcDbMText
 10
130.958146762
 20
128.165284182
 30
0.0
 40
2.0
 41
0.0
 71
     1
 72
     1
  1
HSK T 
  7
SLDTEXTSTYLE0
 11
-7.044195017643634E-15
 21
1.0
 31
0.0
 73
     1
 44
1.0
  0
MTEXT
  5
17A
330
171
100
AcDbEntity
  8
VERMASSUNG
100
AcDbMText
 10
131.1581467715
 20
136.9652841344
 30
0.0
 40
2.0
 41
0.0
 71
     1
 72
     1
  1
%%c
  7
SLDTEXTSTYLE0
 11
-7.044195017643634E-15
 21
1.0
 31
0.0
 73
     1
 44
1.0
  0
MTEXT
  5
17B
330
171
100
AcDbEntity
  8
VERMASSUNG
100
AcDbMText
 10
131.1581468879
 20
140.5740317443
 30
0.0
 40
2.0
 41
0.0
 71
     1
 72
     1
  1
40
  7
SLDTEXTSTYLE0
 11
-7.044195017643634E-15
 21
1.0
 31
0.0
 73
     1
 44
1.0
  0
ENDBLK
  5
173
330
171
100
AcDbEntity
  8
0
100
AcDbBlockEnd
  0
BLOCK
  5
17E
330
17D
100
AcDbEntity
  8
0
100
AcDbBlockBegin
  2
*D3
 70
     1
 10
0.0
 20
0.0
 30
0.0
  3
*D3
  1

  0
SOLID
  5
180
330
17D
100
AcDbEntity
  8
VERMASSUNG
100
AcDbTrace
 10
139.900844346
 20
181.687426325
 30
0.0
 11
142.900844346
 21
181.237426325
 31
0.0
 12
142.900844346
 22
182.137426325
 32
0.0
 13
142.900844346
 23
182.137426325
 33
0.0
  0
SOLID
  5
181
330
17D
100
AcDbEntity
  8
VERMASSUNG
100
AcDbTrace
 10
239.800844346
 20
181.687426325
 30
0.0
 11
236.800844346
 21
182.137426325
 31
0.0
 12
236.800844346
 22
181.237426325
 32
0.0
 13
236.800844346
 23
181.237426325
 33
0.0
  0
LINE
  5
182
330
17D
100
AcDbEntity
  8
VERMASSUNG
100
AcDbLine
 10
139.900844346
 20
147.9563655582
 30
0.0
 11
139.900844346
 21
182.687426325
 31
0.0
  0
LINE
  5
183
330
17D
100
AcDbEntity
  8
VERMASSUNG
100
AcDbLine
 10
239.800844346
 20
165.687426325
 30
0.0
 11
239.800844346
 21
182.687426325
 31
0.0
  0
LINE
  5
184
330
17D
100
AcDbEntity
  8
VERMASSUNG
100
AcDbLine
 10
139.900844346
 20
181.687426325
 30
0.0
 11
239.800844346
 21
181.687426325
 31
0.0
  0
MTEXT
  5
185
330
17D
100
AcDbEntity
  8
VERMASSUNG
100
AcDbMText
 10
187.0965037972
 20
184.2655616881
 30
0.0
 40
2.0
 41
0.0
 71
     1
 72
     1
  1
99.9
  7
SLDTEXTSTYLE0
 73
     1
 44
1.0
  0
ENDBLK
  5
17F
330
17D
100
AcDbEntity
  8
0
100
AcDbBlockEnd
  0
BLOCK
  5
234
330
233
100
AcDbEntity
  8
0
100
AcDbBlockBegin
  2
*D4
 70
     1
 10
0.0
 20
0.0
 30
0.0
  3
*D4
  1

  0
SOLID
  5
236
330
233
100
AcDbEntity
  8
VERMASSUNG
100
AcDbTrace
 10
239.800844346
 20
39.1063923485
 30
0.0
 11
236.800844346
 21
39.5563923485
 31
0.0
 12
236.800844346
 22
38.6563923485
 32
0.0
 13
236.800844346
 23
38.6563923485
 33
0.0
  0
SOLID
  5
237
330
233
100
AcDbEntity
  8
VERMASSUNG
100
AcDbTrace
 10
194.800844346
 20
39.1063923485
 30
0.0
 11
197.800844346
 21
38.6563923485
 31
0.0
 12
197.800844346
 22
39.5563923485
 32
0.0
 13
197.800844346
 23
39.5563923485
 33
0.0
  0
LINE
  5
238
330
233
100
AcDbEntity
  8
VERMASSUNG
100
AcDbLine
 10
239.800844346
 20
48.3060332368
 30
0.0
 11
239.800844346
 21
38.1063923485
 31
0.0
  0
LINE
  5
239
330
233
100
AcDbEntity
  8
VERMASSUNG
100
AcDbLine
 10
194.800844346
 20
75.3060332368
 30
0.0
 11
194.800844346
 21
38.1063923485
 31
0.0
  0
LINE
  5
23A
330
233
100
AcDbEntity
  8
VERMASSUNG
100
AcDbLine
 10
239.800844346
 20
39.1063923485
 30
0.0
 11
194.800844346
 21
39.1063923485
 31
0.0
  0
MTEXT
  5
23B
330
233
100
AcDbEntity
  8
VERMASSUNG
100
AcDbMText
 10
216.1349476501
 20
41.6845277116
 30
0.0
 40
2.0
 41
0.0
 71
     1
 72
     1
  1
45
  7
SLDTEXTSTYLE0
 73
     1
 44
1.0
  0
ENDBLK
  5
235
330
233
100
AcDbEntity
  8
0
100
AcDbBlockEnd
  0
BLOCK
  5
266
330
265
100
AcDbEntity
  8
0
100
AcDbBlockBegin
  2
*D5
 70
     1
 10
0.0
 20
0.0
 30
0.0
  3
*D5
  1

  0
SOLID
  5
268
330
265
100
AcDbEntity
  8
VERMASSUNG
100
AcDbTrace
 10
50.2084722684
 20
170.6000464495
 30
0.0
 11
53.2084722684
 21
170.1500464495
 31
0.0
 12
53.2084722684
 22
171.0500464495
 32
0.0
 13
53.2084722684
 23
171.0500464495
 33
0.0
  0
SOLID
  5
269
330
265
100
AcDbEntity
  8
VERMASSUNG
100
AcDbTrace
 10
70.2084722684
 20
170.6000464495
 30
0.0
 11
67.2084722684
 21
171.0500464495
 31
0.0
 12
67.2084722684
 22
170.1500464495
 32
0.0
 13
67.2084722684
 23
170.1500464495
 33
0.0
  0
LINE
  5
26A
330
265
100
AcDbEntity
  8
VERMASSUNG
100
AcDbLine
 10
50.2084722684
 20
166.4428181153
 30
0.0
 11
50.2084722684
 21
171.6000464495
 31
0.0
  0
LINE
  5
26B
330
265
100
AcDbEntity
  8
VERMASSUNG
100
AcDbLine
 10
70.2084722684
 20
165.687426325
 30
0.0
 11
70.2084722684
 21
171.6000464495
 31
0.0
  0
LINE
  5
26C
330
265
100
AcDbEntity
  8
VERMASSUNG
100
AcDbLine
 10
50.2084722684
 20
170.6000464495
 30
0.0
 11
70.2084722684
 21
170.6000464495
 31
0.0
  0
MTEXT
  5
26D
330
265
100
AcDbEntity
  8
VERMASSUNG
100
AcDbMText
 10
59.3978029098
 20
173.1781818127
 30
0.0
 40
2.0
 41
0.0
 71
     1
 72
     1
  1
20
  7
SLDTEXTSTYLE0
 73
     1
 44
1.0
  0
ENDBLK
  5
267
330
265
100
AcDbEntity
  8
0
100
AcDbBlockEnd
  0
BLOCK
  5
270
330
26F
100
AcDbEntity
  8
0
100
AcDbBlockBegin
  2
*D6
 70
     1
 10
0.0
 20
0.0
 30
0.0
  3
*D6
  1

  0
SOLID
  5
272
330
26F
100
AcDbEntity
  8
VERMASSUNG
100
AcDbTrace
 10
92.2084722684
 20
165.687426325
 30
0.0
 11
91.7584722684
 21
162.687426325
 31
0.0
 12
92.6584722684
 22
162.687426325
 32
0.0
 13
92.6584722684
 23
162.687426325
 33
0.0
  0
SOLID
  5
273
330
26F
100
AcDbEntity
  8
VERMASSUNG
100
AcDbTrace
 10
92.2084722684
 20
145.687426325
 30
0.0
 11
92.6584722684
 21
148.687426325
 31
0.0
 12
91.7584722684
 22
148.687426325
 32
0.0
 13
91.7584722684
 23
148.687426325
 33
0.0
  0
LINE
  5
274
330
26F
100
AcDbEntity
  8
VERMASSUNG
100
AcDbLine
 10
76.6659853791
 20
165.687426325
 30
0.0
 11
93.2084722684
 21
165.687426325
 31
0.0
  0
LINE
  5
275
330
26F
100
AcDbEntity
  8
VERMASSUNG
100
AcDbLine
 10
70.2084722684
 20
145.687426325
 30
0.0
 11
93.2084722684
 21
145.687426325
 31
0.0
  0
LINE
  5
276
330
26F
100
AcDbEntity
  8
VERMASSUNG
100
AcDbLine
 10
92.2084722684
 20
165.687426325
 30
0.0
 11
92.2084722684
 21
145.687426325
 31
0.0
  0
MTEXT
  5
277
330
26F
100
AcDbEntity
  8
VERMASSUNG
100
AcDbMText
 10
89.6303369053
 20
155.4662380799
 30
0.0
 40
2.0
 41
0.0
 71
     1
 72
     1
  1
20
  7
SLDTEXTSTYLE0
 11
-7.044195017643634E-15
 21
1.0
 31
0.0
 73
     1
 44
1.0
  0
ENDBLK
  5
271
330
26F
100
AcDbEntity
  8
0
100
AcDbBlockEnd
  0
BLOCK
  5
27A
330
279
100
AcDbEntity
  8
0
100
AcDbBlockBegin
  2
*D7
 70
     1
 10
0.0
 20
0.0
 30
0.0
  3
*D7
  1

  0
SOLID
  5
27C
330
279
100
AcDbEntity
  8
VERMASSUNG
100
AcDbTrace
 10
50.2084722684
 20
176.6000464495
 30
0.0
 11
53.2084722684
 21
176.1500464495
 31
0.0
 12
53.2084722684
 22
177.0500464495
 32
0.0
 13
53.2084722684
 23
177.0500464495
 33
0.0
  0
SOLID
  5
27D
330
279
100
AcDbEntity
  8
VERMASSUNG
100
AcDbTrace
 10
82.2084722684
 20
176.6000464495
 30
0.0
 11
79.2084722684
 21
177.0500464495
 31
0.0
 12
79.2084722684
 22
176.1500464495
 32
0.0
 13
79.2084722684
 23
176.1500464495
 33
0.0
  0
LINE
  5
27E
330
279
100
AcDbEntity
  8
VERMASSUNG
100
AcDbLine
 10
50.2084722684
 20
166.4428181153
 30
0.0
 11
50.2084722684
 21
177.6000464495
 31
0.0
  0
LINE
  5
27F
330
279
100
AcDbEntity
  8
VERMASSUNG
100
AcDbLine
 10
82.2084722684
 20
159.687426325
 30
0.0
 11
82.2084722684
 21
177.6000464495
 31
0.0
  0
LINE
  5
280
330
279
100
AcDbEntity
  8
VERMASSUNG
100
AcDbLine
 10
50.2084722684
 20
176.6000464495
 30
0.0
 11
82.2084722684
 21
176.6000464495
 31
0.0
  0
MTEXT
  5
281
330
279
100
AcDbEntity
  8
VERMASSUNG
100
AcDbMText
 10
64.4973417616
 20
179.1781818127
 30
0.0
 40
2.0
 41
0.0
 71
     1
 72
     1
  1
32
  7
SLDTEXTSTYLE0
 73
     1
 44
1.0
  0
ENDBLK
  5
27B
330
279
100
AcDbEntity
  8
0
100
AcDbBlockEnd
  0
BLOCK
  5
284
330
283
100
AcDbEntity
  8
0
100
AcDbBlockBegin
  2
*D8
 70
     1
 10
0.0
 20
0.0
 30
0.0
  3
*D8
  1

  0
SOLID
  5
286
330
283
100
AcDbEntity
  8
VERMASSUNG
100
AcDbTrace
 10
82.2084722684
 20
182.6000464495
 30
0.0
 11
79.2084722684
 21
183.0500464495
 31
0.0
 12
79.2084722684
 22
182.1500464495
 32
0.0
 13
79.2084722684
 23
182.1500464495
 33
0.0
  0
SOLID
  5
287
330
283
100
AcDbEntity
  8
VERMASSUNG
100
AcDbTrace
 10
30.2084722684
 20
182.6000464495
 30
0.0
 11
33.2084722684
 21
182.1500464495
 31
0.0
 12
33.2084722684
 22
183.0500464495
 32
0.0
 13
33.2084722684
 23
183.0500464495
 33
0.0
  0
LINE
  5
288
330
283
100
AcDbEntity
  8
VERMASSUNG
100
AcDbLine
 10
82.2084722684
 20
159.687426325
 30
0.0
 11
82.2084722684
 21
183.6000464495
 31
0.0
  0
LINE
  5
289
330
283
100
AcDbEntity
  8
VERMASSUNG
100
AcDbLine
 10
30.2084722684
 20
165.687426325
 30
0.0
 11
30.2084722684
 21
183.6000464495
 31
0.0
  0
LINE
  5
28A
330
283
100
AcDbEntity
  8
VERMASSUNG
100
AcDbLine
 10
82.2084722684
 20
182.6000464495
 30
0.0
 11
30.2084722684
 21
182.6000464495
 31
0.0
  0
MTEXT
  5
28B
330
283
100
AcDbEntity
  8
VERMASSUNG
100
AcDbMText
 10
55.1740575646
 20
185.1781818127
 30
0.0
 40
2.0
 41
0.0
 71
     1
 72
     1
  1
52
  7
SLDTEXTSTYLE0
 73
     1
 44
1.0
  0
ENDBLK
  5
285
330
283
100
AcDbEntity
  8
0
100
AcDbBlockEnd
  0
BLOCK
  5
28E
330
28D
100
AcDbEntity
  8
0
100
AcDbBlockBegin
  2
*D9
 70
     1
 10
0.0
 20
0.0
 30
0.0
  3
*D9
  1

  0
SOLID
  5
290
330
28D
100
AcDbEntity
  8
VERMASSUNG
100
AcDbTrace
 10
104.2084722684
 20
165.687426325
 30
0.0
 11
103.7584722684
 21
162.687426325
 31
0.0
 12
104.6584722684
 22
162.687426325
 32
0.0
 13
104.6584722684
 23
162.687426325
 33
0.0
  0
SOLID
  5
291
330
28D
100
AcDbEntity
  8
VERMASSUNG
100
AcDbTrace
 10
104.2084722684
 20
115.687426325
 30
0.0
 11
104.6584722684
 21
118.687426325
 31
0.0
 12
103.7584722684
 22
118.687426325
 32
0.0
 13
103.7584722684
 23
118.687426325
 33
0.0
  0
LINE
  5
292
330
28D
100
AcDbEntity
  8
VERMASSUNG
100
AcDbLine
 10
76.6659853791
 20
165.687426325
 30
0.0
 11
105.2084722684
 21
165.687426325
 31
0.0
  0
LINE
  5
293
330
28D
100
AcDbEntity
  8
VERMASSUNG
100
AcDbLine
 10
67.2084722684
 20
115.687426325
 30
0.0
 11
105.2084722684
 21
115.687426325
 31
0.0
  0
LINE
  5
294
330
28D
100
AcDbEntity
  8
VERMASSUNG
100
AcDbLine
 10
104.2084722684
 20
165.687426325
 30
0.0
 11
104.2084722684
 21
115.687426325
 31
0.0
  0
MTEXT
  5
295
330
28D
100
AcDbEntity
  8
VERMASSUNG
100
AcDbMText
 10
101.6303369053
 20
139.3790764722
 30
0.0
 40
2.0
 41
0.0
 71
     1
 72
     1
  1
50
  7
SLDTEXTSTYLE0
 11
-7.044195017643634E-15
 21
1.0
 31
0.0
 73
     1
 44
1.0
  0
ENDBLK
  5
28F
330
28D
100
AcDbEntity
  8
0
100
AcDbBlockEnd
  0
BLOCK
  5
299
330
298
100
AcDbEntity
  8
0
100
AcDbBlockBegin
  2
*D10
 70
     1
 10
0.0
 20
0.0
 30
0.0
  3
*D10
  1

  0
SOLID
  5
29B
330
298
100
AcDbEntity
  8
VERMASSUNG
100
AcDbTrace
 10
80.2269211392
 20
162.1240056687
 30
0.0
 11
82.7757163221
 21
163.7690415696
 31
0.0
 12
82.1808932869
 22
164.4444566692
 32
0.0
 13
82.1808932869
 23
164.4444566692
 33
0.0
  0
LINE
  5
29C
330
298
100
AcDbEntity
  8
VERMASSUNG
100
AcDbLine
 10
80.2269211392
 20
162.1240056687
 30
0.0
 11
92.5526828333
 21
172.9790294709
 31
0.0
  0
MTEXT
  5
29D
330
298
100
AcDbEntity
  8
VERMASSUNG
100
AcDbMText
 10
84.8497149829
 20
169.6288898635
 30
0.0
 40
2.0
 41
0.0
 71
     1
 72
     1
  1
%%c
  7
SLDTEXTSTYLE0
 11
0.7504612217681658
 21
0.6609144835924174
 31
0.0
 73
     1
 44
1.0
  0
MTEXT
  5
29E
330
298
100
AcDbEntity
  8
VERMASSUNG
100
AcDbMText
 10
87.5578881281
 20
172.0139174804
 30
0.0
 40
2.0
 41
0.0
 71
     1
 72
     1
  1
80
  7
SLDTEXTSTYLE0
 11
0.7504612217681658
 21
0.6609144835924174
 31
0.0
 73
     1
 44
1.0
  0
ENDBLK
  5
29A
330
298
100
AcDbEntity
  8
0
100
AcDbBlockEnd
  0
BLOCK
  5
2A1
330
2A0
100
AcDbEntity
  8
0
100
AcDbBlockBegin
  2
*D11
 70
     1
 10
0.0
 20
0.0
 30
0.0
  3
*D11
  1

  0
SOLID
  5
2A3
330
2A0
100
AcDbEntity
  8
VERMASSUNG
100
AcDbTrace
 10
98.2084722684
 20
165.687426325
 30
0.0
 11
97.7584722684
 21
162.687426325
 31
0.0
 12
98.6584722684
 22
162.687426325
 32
0.0
 13
98.6584722684
 23
162.687426325
 33
0.0
  0
SOLID
  5
2A4
330
2A0
100
AcDbEntity
  8
VERMASSUNG
100
AcDbTrace
 10
98.2084722684
 20
135.687426325
 30
0.0
 11
98.6584722684
 21
138.687426325
 31
0.0
 12
97.7584722684
 22
138.687426325
 32
0.0
 13
97.7584722684
 23
138.687426325
 33
0.0
  0
LINE
  5
2A5
330
2A0
100
AcDbEntity
  8
VERMASSUNG
100
AcDbLine
 10
76.6659853791
 20
165.687426325
 30
0.0
 11
99.2084722684
 21
165.687426325
 31
0.0
  0
LINE
  5
2A6
330
2A0
100
AcDbEntity
  8
VERMASSUNG
100
AcDbLine
 10
92.2719383103
 20
135.687426325
 30
0.0
 11
99.2084722684
 21
135.687426325
 31
0.0
  0
LINE
  5
2A7
330
2A0
100
AcDbEntity
  8
VERMASSUNG
100
AcDbLine
 10
98.2084722684
 20
165.687426325
 30
0.0
 11
98.2084722684
 21
135.687426325
 31
0.0
  0
MTEXT
  5
2A8
330
2A0
100
AcDbEntity
  8
VERMASSUNG
100
AcDbMText
 10
95.6303369053
 20
149.9387675838
 30
0.0
 40
2.0
 41
0.0
 71
     1
 72
     1
  1
30
  7
SLDTEXTSTYLE0
 11
-7.044195017643634E-15
 21
1.0
 31
0.0
 73
     1
 44
1.0
  0
ENDBLK
  5
2A2
330
2A0
100
AcDbEntity
  8
0
100
AcDbBlockEnd
  0
BLOCK
  5
2AA
330
2A9
100
AcDbEntity
  8
0
100
AcDbBlockBegin
  2
SW_CENTERMARKSYMBOL_0
 70
     0
 10
0.0
 20
0.0
 30
0.0
  3
SW_CENTERMARKSYMBOL_0
  1

  0
LINE
  5
2AC
330
2A9
100
AcDbEntity
  8
VERMASSUNG
 62
     0
100
AcDbLine
 10
0.0
 20
0.0
 30
0.0
 11
0.0
 21
2.5
 31
0.0
  0
LINE
  5
2AD
330
2A9
100
AcDbEntity
  8
VERMASSUNG
 62
     0
100
AcDbLine
 10
0.0
 20
0.0
 30
0.0
 11
-2.5
 21
0.0
 31
0.0
  0
LINE
  5
2AE
330
2A9
100
AcDbEntity
  8
VERMASSUNG
 62
     0
100
AcDbLine
 10
0.0
 20
0.0
 30
0.0
 11
0.0
 21
-2.5
 31
0.0
  0
LINE
  5
2AF
330
2A9
100
AcDbEntity
  8
VERMASSUNG
 62
     0
100
AcDbLine
 10
0.0
 20
0.0
 30
0.0
 11
2.5
 21
0.0
 31
0.0
  0
LINE
  5
2B0
330
2A9
100
AcDbEntity
  8
VERMASSUNG
 62
     0
100
AcDbLine
 10
0.0
 20
5.0
 30
0.0
 11
0.0
 21
30.7553917903
 31
0.0
  0
LINE
  5
2B1
330
2A9
100
AcDbEntity
  8
VERMASSUNG
 62
     0
100
AcDbLine
 10
-5.0
 20
0.0
 30
0.0
 11
-23.6375641863
 21
0.0
 31
0.0
  0
LINE
  5
2B2
330
2A9
100
AcDbEntity
  8
VERMASSUNG
 62
     0
100
AcDbLine
 10
0.0
 20
-5.0
 30
0.0
 11
0.0
 21
-21.8751417081
 31
0.0
  0
LINE
  5
2B3
330
2A9
100
AcDbEntity
  8
VERMASSUNG
 62
     0
100
AcDbLine
 10
5.0
 20
0.0
 30
0.0
 11
42.0634660419
 21
0.0
 31
0.0
  0
ENDBLK
  5
2AB
330
2A9
100
AcDbEntity
  8
0
100
AcDbBlockEnd
  0
ENDSEC
  0
SECTION
  2
ENTITIES
  0
MTEXT
  5
45
330
1F
100
AcDbEntity
  8
KOPF_DÜNN
100
AcDbMText
 10
13.8892156294
 20
23.8442973028
 30
0.0
 40
3.0
 41
0.0
 71
     1
 72
     1
  1
HA4.V20.R11.080
  7
SLDTEXTSTYLE0
 73
     1
 44
1.0
  0
MTEXT
  5
46
330
1F
100
AcDbEntity
  8
VERMASSUNG
100
AcDbMText
 10
13.9329988022
 20
28.8834360957
 30
0.0
 40
3.0
 41
0.0
 71
     1
 72
     1
  1
Werkzeughalter axial_Tool holder axial
  7
SLDTEXTSTYLE0
 73
     1
 44
1.0
  0
MTEXT
  5
47
330
1F
100
AcDbEntity
  8
VERMASSUNG
100
AcDbMText
 10
98.8601118557
 20
13.8365368179
 30
0.0
 40
2.0
 41
0.0
 71
     1
 72
     1
  1
Datum: 08.11.2006
  7
SLDTEXTSTYLE0
 73
     1
 44
1.0
  0
MTEXT
  5
48
330
1F
100
AcDbEntity
  8
VERMASSUNG
100
AcDbMText
 10
13.933048693
 20
18.0482802738
 30
0.0
 40
2.0
 41
0.0
 71
     1
 72
     1
  1
DIN 69893 HSK 40 A ICTM / 20x20
  7
SLDTEXTSTYLE0
 73
     1
 44
1.0
  0
MTEXT
  5
49
330
1F
100
AcDbEntity
  8
VERMASSUNG
100
AcDbMText
 10
13.9808475933
 20
13.9090973692
 30
0.0
 40
2.0
 41
0.0
 71
     1
 72
     1
  1
Gewicht: 944g
  7
SLDTEXTSTYLE0
 73
     1
 44
1.0
  0
LINE
  5
4A
330
1F
100
AcDbEntity
  8
0
  6
Continuous
 62
     7
370
    15
100
AcDbLine
 10
194.9994431843
 20
118.4462453701
 30
0.0
 11
195.7386665195
 21
115.687426325
 31
0.0
  0
LINE
  5
4B
330
1F
100
AcDbEntity
  8
0
  6
Continuous
 62
     7
370
    15
100
AcDbLine
 10
160.100844346
 20
115.687426325
 30
0.0
 11
167.750844346
 21
115.687426325
 31
0.0
  0
LINE
  5
4C
330
1F
100
AcDbEntity
  8
0
  6
Continuous
 62
     7
370
    15
100
AcDbLine
 10
167.7663715548
 20
155.687426325
 30
0.0
 11
160.100844346
 21
155.687426325
 31
0.0
  0
ARC
  5
4D
330
1F
100
AcDbEntity
  8
0
  6
Continuous
 62
     7
370
    15
100
AcDbCircle
 10
160.100844346
 20
115.987426325
 30
0.0
 40
0.3000000000000114
100
AcDbArc
 50
180.0
 51
270.0
  0
ARC
  5
4E
330
1F
100
AcDbEntity
  8
0
  6
Continuous
 62
     7
370
    15
100
AcDbCircle
 10
160.100844346
 20
155.387426325
 30
0.0
 40
0.3000000000000114
100
AcDbArc
 50
90.0
 51
180.0
  0
ARC
  5
4F
330
1F
100
AcDbEntity
  8
0
  6
Continuous
 62
     7
370
    15
100
AcDbCircle
 10
180.750844346
 20
118.187426325
 30
0.0
 40
1.0
100
AcDbArc
 50
90.0
 51
143.1137328946
  0
ARC
  5
50
330
1F
100
AcDbEntity
  8
0
  6
Continuous
 62
     7
370
    15
100
AcDbCircle
 10
180.750844346
 20
153.187426325
 30
0.0
 40
1.0
100
AcDbArc
 50
216.8998129703
 51
270.0
  0
ARC
  5
51
330
1F
100
AcDbEntity
  8
0
  6
Continuous
 62
     7
370
    15
100
AcDbCircle
 10
194.033517358
 20
118.187426325
 30
0.0
 40
1.0
100
AcDbArc
 50
15.0
 51
90.0
  0
LINE
  5
52
330
1F
100
AcDbEntity
  8
0
  6
Continuous
 62
     7
370
    15
100
AcDbLine
 10
180.750844346
 20
119.187426325
 30
0.0
 11
194.033517358
 21
119.187426325
 31
0.0
  0
LINE
  5
53
330
1F
100
AcDbEntity
  8
0
  6
Continuous
 62
     7
370
    15
100
AcDbLine
 10
192.2300210772
 20
152.187426325
 30
0.0
 11
180.750844346
 21
152.187426325
 31
0.0
  0
ARC
  5
54
330
1F
100
AcDbEntity
  8
0
  6
Continuous
 62
     7
370
    15
100
AcDbCircle
 10
159.3008375933
 20
120.2337191715
 30
0.0
 40
0.60000675266771
100
AcDbArc
 50
33.5571153394
 51
90.0
  0
ARC
  5
55
330
1F
100
AcDbEntity
  8
0
  6
Continuous
 62
     7
370
    15
100
AcDbCircle
 10
159.3008375933
 20
151.1411334784
 30
0.0
 40
0.6000067526677242
100
AcDbArc
 50
270.0
 51
326.4428846606
  0
LINE
  5
56
330
1F
100
AcDbEntity
  8
0
  6
Continuous
 62
     7
370
    15
100
AcDbLine
 10
157.800844346
 20
120.5837259242
 30
0.0
 11
158.6575562606
 21
120.8132811898
 31
0.0
  0
LINE
  5
57
330
1F
100
AcDbEntity
  8
0
  6
Continuous
 62
     7
370
    15
100
AcDbLine
 10
158.6575562606
 20
150.5615714601
 30
0.0
 11
157.800844346
 21
150.7911267258
 31
0.0
  0
LINE
  5
58
330
1F
100
AcDbEntity
  8
0
  6
Continuous
 62
     7
370
    15
100
AcDbLine
 10
151.0366276538
 20
150.4522381139
 30
0.0
 11
143.500844346
 21
150.07469386
 31
0.0
  0
LINE
  5
59
330
1F
100
AcDbEntity
  8
0
  6
Continuous
 62
     7
370
    15
100
AcDbLine
 10
157.800844346
 20
150.7911267258
 30
0.0
 11
156.513536099
 21
150.7266323246
 31
0.0
  0
LINE
  5
5A
330
1F
100
AcDbEntity
  8
0
  6
Continuous
 62
     7
370
    15
100
AcDbLine
 10
156.5136242442
 20
120.6482159092
 30
0.0
 11
157.800844346
 21
120.5837259242
 31
0.0
  0
LINE
  5
5B
330
1F
100
AcDbEntity
  8
0
  6
Continuous
 62
     7
370
    15
100
AcDbLine
 10
146.000844346
 20
121.1749082889
 30
0.0
 11
151.0379498686
 21
120.9225482928
 31
0.0
  0
ARC
  5
5C
330
1F
100
AcDbEntity
  8
0
  6
Continuous
 62
     7
370
    15
100
AcDbCircle
 10
158.8128494354
 20
120.2337191715
 30
0.0
 40
0.60000675266771
100
AcDbArc
 50
90.0
 51
105.0
  0
ARC
  5
5D
330
1F
100
AcDbEntity
  8
0
  6
Continuous
 62
     7
370
    15
100
AcDbCircle
 10
158.8128494354
 20
151.1411334784
 30
0.0
 40
0.6000067526677242
100
AcDbArc
 50
255.0
 51
270.0
  0
LINE
  5
5E
330
1F
100
AcDbEntity
  8
0
  6
Continuous
 62
     7
370
    15
100
AcDbLine
 10
158.8128494354
 20
120.8337259242
 30
0.0
 11
159.3008375933
 21
120.8337259242
 31
0.0
  0
LINE
  5
5F
330
1F
100
AcDbEntity
  8
0
  6
Continuous
 62
     7
370
    15
100
AcDbLine
 10
159.3008375933
 20
150.5411267258
 30
0.0
 11
158.8128494354
 21
150.5411267258
 31
0.0
  0
ARC
  5
60
330
1F
100
AcDbEntity
  8
0
  6
Continuous
 62
     7
370
    15
100
AcDbCircle
 10
142.600844346
 20
149.467426325
 30
0.0
 40
0.9000000000000071
100
AcDbArc
 50
270.0
 51
311.1792132369
  0
ARC
  5
61
330
1F
100
AcDbEntity
  8
0
  6
Continuous
 62
     7
370
    15
100
AcDbCircle
 10
145.100844346
 20
121.907426325
 30
0.0
 40
0.8999999999999915
100
AcDbArc
 50
34.6391318474
 51
90.0
  0
LINE
  5
62
330
1F
100
AcDbEntity
  8
0
  6
Continuous
 62
     7
370
    15
100
AcDbLine
 10
140.850844346
 20
148.567426325
 30
0.0
 11
139.9359015365
 21
148.0391838476
 31
0.0
  0
LINE
  5
63
330
1F
100
AcDbEntity
  8
0
  6
Continuous
 62
     7
370
    15
100
AcDbLine
 10
142.600844346
 20
148.567426325
 30
0.0
 11
140.850844346
 21
148.567426325
 31
0.0
  0
LINE
  5
64
330
1F
100
AcDbEntity
  8
0
  6
Continuous
 62
     7
370
    15
100
AcDbLine
 10
140.9530353436
 20
122.807426325
 30
0.0
 11
145.100844346
 21
122.807426325
 31
0.0
  0
LINE
  5
65
330
1F
100
AcDbEntity
  8
0
  6
Continuous
 62
     7
370
    15
100
AcDbLine
 10
139.9126494583
 20
123.4080933959
 30
0.0
 11
140.9530353436
 21
122.807426325
 31
0.0
  0
ARC
  5
66
330
1F
100
AcDbEntity
  8
0
  6
Continuous
 62
     7
370
    15
100
AcDbCircle
 10
237.800844346
 20
141.687426325
 30
0.0
 40
4.999999999999996
100
AcDbArc
 50
42.0011551314
 51
66.4218215218
  0
ARC
  5
67
330
1F
100
AcDbEntity
  8
0
  6
Continuous
 62
     7
370
    15
100
AcDbCircle
 10
237.800844346
 20
141.687426325
 30
0.0
 40
5.000000000000021
100
AcDbArc
 50
293.5781784782
 51
321.0427295384
  0
SPLINE
  5
68
330
1F
100
AcDbEntity
  8
0
  6
Continuous
 62
     7
370
    15
100
AcDbSpline
210
0.0
220
0.0
230
1.0
 70
    24
 71
     3
 72
    12
 73
     8
 74
     0
 42
0.00000001
 43
0.00000001
 40
0.0
 40
0.0
 40
0.0
 40
0.0
 40
0.4999999999999999
 40
0.4999999999999999
 40
0.7499999999999998
 40
0.7499999999999998
 40
1.0
 40
1.0
 40
1.0
 40
1.0
 10
198.4226230238396
 20
165.6874263249668
 30
0.0
 10
198.450839542672
 20
165.6874263249668
 30
0.0
 10
198.6154873249112
 20
165.6874263249668
 30
0.0
 10
199.0363029283231
 20
165.6874263249668
 30
0.0
 10
199.2050764171786
 20
165.6874263249668
 30
0.0
 10
199.5904471560202
 20
165.6874263249668
 30
0.0
 10
199.8063296077934
 20
165.6874263249668
 30
0.0
 10
200.0407281961447
 20
165.6874263249668
 30
0.0
  0
SPLINE
  5
69
330
1F
100
AcDbEntity
  8
0
  6
Continuous
 62
     7
370
    15
100
AcDbSpline
210
0.0
220
0.0
230
1.0
 70
     8
 71
     3
 72
    16
 73
    12
 74
     0
 42
0.00000001
 43
0.00000001
 40
0.0
 40
0.0
 40
0.0
 40
0.0
 40
0.2499999999999999
 40
0.2499999999999999
 40
0.4999999999999998
 40
0.4999999999999998
 40
0.7499999999999999
 40
0.7499999999999999
 40
0.8749999999999999
 40
0.8749999999999999
 40
1.0
 40
1.0
 40
1.0
 40
1.0
 10
200.0407281961447
 20
165.6874263249668
 30
0.0
 10
199.3974344678541
 20
162.8020179614235
 30
0.0
 10
198.7794890402616
 20
159.9084386989332
 30
0.0
 10
197.646984230852
 20
154.1137196250607
 30
0.0
 10
197.1315056617706
 20
151.2118520256089
 30
0.0
 10
196.2994054771068
 20
145.390460890985
 30
0.0
 10
195.9855819575237
 20
142.4706889209344
 30
0.0
 10
195.7627022417475
 20
138.0690245847801
 30
0.0
 10
195.7296563508329
 20
136.5981409062856
 30
0.0
 10
195.7519389146648
 20
133.6485270458735
 30
0.0
 10
195.8072616034923
 20
132.1697973758953
 30
0.0
 10
195.9035967843112
 20
130.6874263249668
 30
0.0
  0
SPLINE
  5
6A
330
1F
100
AcDbEntity
  8
0
  6
Continuous
 62
     7
370
    15
100
AcDbSpline
210
0.0
220
0.0
230
1.0
 70
     8
 71
     3
 72
    13
 73
     9
 74
     0
 42
0.00000001
 43
0.00000001
 40
0.0
 40
0.0
 40
0.0
 40
0.0
 40
0.2500000000000001
 40
0.2500000000000001
 40
0.4999999999999999
 40
0.7499999999999998
 40
0.7499999999999998
 40
1.0
 40
1.0
 40
1.0
 40
1.0
 10
195.9035967843112
 20
115.6874263249668
 30
0.0
 10
195.6598946910703
 20
116.9374263249668
 30
0.0
 10
195.4610692594077
 20
118.1874263249668
 30
0.0
 10
195.1888521207349
 20
120.6874263249668
 30
0.0
 10
195.0439477700381
 20
123.1874263249668
 30
0.0
 10
195.1888521207349
 20
125.6874263249668
 30
0.0
 10
195.4610692594077
 20
128.1874263249668
 30
0.0
 10
195.6598946910703
 20
129.4374263249668
 30
0.0
 10
195.9035967843112
 20
130.6874263249668
 30
0.0
  0
SPLINE
  5
6B
330
1F
100
AcDbEntity
  8
0
  6
Continuous
 62
     7
370
    15
100
AcDbSpline
210
0.0
220
0.0
230
1.0
 70
    24
 71
     3
 72
     9
 73
     5
 74
     0
 42
0.00000001
 43
0.00000001
 40
0.0
 40
0.0
 40
0.0
 40
0.0
 40
0.0212826003320007
 40
1.0
 40
1.0
 40
1.0
 40
1.0
 10
195.7445553009056
 20
115.6874263249668
 30
0.0
 10
195.743453499615
 20
115.6874263249668
 30
0.0
 10
195.6916834492735
 20
115.6874263249667
 30
0.0
 10
195.7987797607899
 20
115.6874263249668
 30
0.0
 10
195.9035967843112
 20
115.6874263249668
 30
0.0
  0
LINE
  5
6C
330
1F
100
AcDbEntity
  8
0
  6
Continuous
 62
     7
370
    15
100
AcDbLine
 10
198.4226230238
 20
165.687426325
 30
0.0
 11
194.9994431843
 21
152.8995825153
 31
0.0
  0
LINE
  5
6D
330
1F
100
AcDbEntity
  8
0
  6
Continuous
 62
     7
370
    15
100
AcDbLine
 10
200.0407281961
 20
165.687426325
 30
0.0
 11
239.800844346
 21
165.687426325
 31
0.0
  0
LINE
  5
6E
330
1F
100
AcDbEntity
  8
0
  6
Continuous
 62
     7
370
    15
100
AcDbLine
 10
239.800844346
 20
165.687426325
 30
0.0
 11
239.800844346
 21
130.687426325
 31
0.0
  0
LINE
  5
6F
330
1F
100
AcDbEntity
  8
0
  6
Continuous
 62
     7
370
    15
100
AcDbLine
 10
195.9035967843
 20
130.687426325
 30
0.0
 11
239.800844346
 21
130.687426325
 31
0.0
  0
CIRCLE
  5
70
330
1F
100
AcDbEntity
  8
0
  6
Continuous
 62
     7
370
    15
100
AcDbCircle
 10
229.800844346
 20
155.687426325
 30
0.0
 40
5.25
  0
CIRCLE
  5
71
330
1F
100
AcDbEntity
  8
0
  6
Continuous
 62
     7
370
    15
100
AcDbCircle
 10
207.800844346
 20
155.687426325
 30
0.0
 40
5.249999999999972
  0
LINE
  5
72
330
1F
100
AcDbEntity
  8
0
  6
Continuous
 62
     7
370
    15
100
AcDbLine
 10
174.760844346
 20
118.258302937
 30
0.0
 11
174.760844346
 21
147.537426325
 31
0.0
  0
SPLINE
  5
73
330
1F
100
AcDbEntity
  8
0
  6
Continuous
 62
     7
370
    15
100
AcDbSpline
210
0.0
220
0.0
230
1.0
 70
     8
 71
     3
 72
     8
 73
     4
 74
     0
 42
0.00000001
 43
0.00000001
 40
0.0
 40
0.0
 40
0.0
 40
0.0
 40
1.0
 40
1.0
 40
1.0
 40
1.0
 10
174.7608443459624
 20
118.2583029369771
 30
0.0
 10
174.4302057193478
 20
117.6577825858661
 30
0.0
 10
174.0983899187743
 20
117.0579134751611
 30
0.0
 10
173.765684647069
 20
116.4585418019374
 30
0.0
  0
LINE
  5
74
330
1F
100
AcDbEntity
  8
0
  6
Continuous
 62
     7
370
    15
100
AcDbLine
 10
173.7656846471
 20
116.4585418019
 30
0.0
 11
173.7656846471
 21
147.537426325
 31
0.0
  0
SPLINE
  5
75
330
1F
100
AcDbEntity
  8
0
  6
Continuous
 62
     7
370
    15
100
AcDbSpline
210
0.0
220
0.0
230
1.0
 70
    24
 71
     3
 72
     8
 73
     4
 74
     0
 42
0.00000001
 43
0.00000001
 40
0.0
 40
0.0
 40
0.0
 40
0.0
 40
1.0
 40
1.0
 40
1.0
 40
1.0
 10
173.765684647069
 20
147.5374263249668
 30
0.0
 10
174.1047174688236
 20
147.5374263249668
 30
0.0
 10
174.4372076903402
 20
147.5374263249668
 30
0.0
 10
174.7608443459624
 20
147.5374263249668
 30
0.0
  0
LINE
  5
76
330
1F
100
AcDbEntity
  8
0
  6
Continuous
 62
     7
370
    15
100
AcDbLine
 10
167.750844346
 20
147.537426325
 30
0.0
 11
173.7656846471
 21
147.537426325
 31
0.0
  0
LINE
  5
77
330
1F
100
AcDbEntity
  8
0
  6
Continuous
 62
     7
370
    15
100
AcDbLine
 10
173.7656846471
 20
116.4585418019
 30
0.0
 11
172.250844346
 21
116.4585418019
 31
0.0
  0
SPLINE
  5
78
330
1F
100
AcDbEntity
  8
0
  6
Continuous
 62
     7
370
    15
100
AcDbSpline
210
0.0
220
0.0
230
1.0
 70
     8
 71
     3
 72
    22
 73
    18
 74
     0
 42
0.00000001
 43
0.00000001
 40
0.0
 40
0.0
 40
0.0
 40
0.0
 40
0.125
 40
0.125
 40
0.25
 40
0.25
 40
0.375
 40
0.375
 40
0.5
 40
0.5
 40
0.625
 40
0.625
 40
0.75
 40
0.75
 40
0.875
 40
0.875
 40
1.0
 40
1.0
 40
1.0
 40
1.0
 10
172.2508443459624
 20
116.4585418019374
 30
0.0
 10
171.9517199169218
 20
116.4585418019374
 30
0.0
 10
171.657897468673
 20
116.450027700871
 30
0.0
 10
171.0803331924266
 20
116.4175839319891
 30
0.0
 10
170.7935155146127
 20
116.3932500432871
 30
0.0
 10
170.2490529857133
 20
116.3327900185302
 30
0.0
 10
169.9910977150921
 20
116.2968765977518
 30
0.0
 10
169.5030397717321
 20
116.2171665716826
 30
0.0
 10
169.2733414730684
 20
116.1732882704933
 30
0.0
 10
168.8609224901157
 20
116.0850446481231
 30
0.0
 10
168.6753955472557
 20
116.0402363066621
 30
0.0
 10
168.3468755023549
 20
115.952915298743
 30
0.0
 10
168.2084616154554
 20
115.9116245101673
 30
0.0
 10
167.9838694688395
 20
115.8372862868735
 30
0.0
 10
167.8967906567152
 20
115.8038761611388
 30
0.0
 10
167.7802888487602
 20
115.7488567596127
 30
0.0
 10
167.7508443459624
 20
115.7273949931464
 30
0.0
 10
167.7508443459624
 20
115.7124419695286
 30
0.0
  0
LINE
  5
79
330
1F
100
AcDbEntity
  8
0
  6
Continuous
 62
     7
370
    15
100
AcDbLine
 10
167.750844346
 20
115.7124419695
 30
0.0
 11
167.750844346
 21
115.687426325
 31
0.0
  0
SPLINE
  5
7A
330
1F
100
AcDbEntity
  8
0
  6
Continuous
 62
     7
370
    15
100
AcDbSpline
210
0.0
220
0.0
230
1.0
 70
     8
 71
     3
 72
    17
 73
    13
 74
     0
 42
0.00000001
 43
0.00000001
 40
0.0
 40
0.0
 40
0.0
 40
0.0
 40
0.1039928027398875
 40
0.2110507583651597
 40
0.3150299276010394
 40
0.4219351577673533
 40
0.5275775719344162
 40
0.6362134668260591
 40
0.7429488749763837
 40
0.8528788158890317
 40
0.957827725016201
 40
1.0
 40
1.0
 40
1.0
 40
1.0
 10
172.2508443459624
 20
155.1746015948719
 30
0.0
 10
172.0050273315502
 20
155.1773180723886
 30
0.0
 10
171.5061479289004
 20
155.1828310946832
 30
0.0
 10
170.7826645406639
 20
155.2259145714525
 30
0.0
 10
170.0948693013538
 20
155.2897808714011
 30
0.0
 10
169.470123680444
 20
155.3691157546877
 30
0.0
 10
168.9141726127425
 20
155.4560536716348
 30
0.0
 10
168.4521860626521
 20
155.5400153584747
 30
0.0
 10
168.0899213548006
 20
155.6131768503592
 30
0.0
 10
167.8581420848193
 20
155.6633147059261
 30
0.0
 10
167.748576647329
 20
155.6879332998321
 30
0.0
 10
167.7624070663654
 20
155.684829341676
 30
0.0
 10
167.7663715548126
 20
155.6839395923331
 30
0.0
  0
LINE
  5
7B
330
1F
100
AcDbEntity
  8
0
  6
Continuous
 62
     7
370
    15
100
AcDbLine
 10
173.7656846471
 20
155.1746015949
 30
0.0
 11
172.250844346
 21
155.1746015949
 31
0.0
  0
LINE
  5
7C
330
1F
100
AcDbEntity
  8
0
  6
Continuous
 62
     7
370
    15
100
AcDbLine
 10
173.7656846471
 20
151.798835326
 30
0.0
 11
173.7656846471
 21
155.1746015949
 31
0.0
  0
LINE
  5
7D
330
1F
100
AcDbEntity
  8
0
  6
Continuous
 62
     7
370
    15
100
AcDbLine
 10
172.2445148207
 20
151.798835326
 30
0.0
 11
173.7656846471
 21
151.798835326
 31
0.0
  0
SPLINE
  5
7E
330
1F
100
AcDbEntity
  8
0
  6
Continuous
 62
     7
370
    15
100
AcDbSpline
210
0.0
220
0.0
230
1.0
 70
     8
 71
     3
 72
    22
 73
    18
 74
     0
 42
0.00000001
 43
0.00000001
 40
0.0
 40
0.0
 40
0.0
 40
0.0
 40
0.2500000000000002
 40
0.2500000000000002
 40
0.3750000000000001
 40
0.3750000000000001
 40
0.5000000000000001
 40
0.5000000000000001
 40
0.6250000000000001
 40
0.6250000000000001
 40
0.75
 40
0.75
 40
0.875
 40
0.875
 40
0.9375000000000001
 40
0.9375000000000001
 40
1.0
 40
1.0
 40
1.0
 40
1.0
 10
167.7508443459624
 20
147.5374263249668
 30
0.0
 10
167.772825363949
 20
148.1002989668648
 30
0.0
 10
167.8518022473038
 20
148.6309238505943
 30
0.0
 10
168.0982001403361
 20
149.3766348415159
 30
0.0
 10
168.2027247554271
 20
149.6182550679146
 30
0.0
 10
168.4645713507336
 20
150.0771138432405
 30
0.0
 10
168.6197879728994
 20
150.2912925157104
 30
0.0
 10
168.9883797259633
 20
150.6885210748559
 30
0.0
 10
169.2045134184283
 20
150.8729659098757
 30
0.0
 10
169.6884079134152
 20
151.1940457577593
 30
0.0
 10
169.9588734584229
 20
151.3333965878653
 30
0.0
 10
170.5551000239331
 20
151.5627021222909
 30
0.0
 10
170.870593290653
 20
151.6492381317672
 30
0.0
 10
171.3713099386715
 20
151.7381277360985
 30
0.0
 10
171.5441063732867
 20
151.7609362419601
 30
0.0
 10
171.8924751460687
 20
151.7912274046564
 30
0.0
 10
172.0678761749791
 20
151.7988353260443
 30
0.0
 10
172.2445148206671
 20
151.7988353260443
 30
0.0
  0
LINE
  5
7F
330
1F
100
AcDbEntity
  8
0
  6
Continuous
 62
     7
370
    15
100
AcDbLine
 10
179.750844346
 20
117.0833945039
 30
0.0
 11
179.750844346
 21
147.537426325
 31
0.0
  0
SPLINE
  5
80
330
1F
100
AcDbEntity
  8
0
  6
Continuous
 62
     7
370
    15
100
AcDbSpline
210
0.0
220
0.0
230
1.0
 70
     8
 71
     3
 72
    10
 73
     6
 74
     0
 42
0.00000001
 43
0.00000001
 40
0.0
 40
0.0
 40
0.0
 40
0.0
 40
0.5
 40
0.5
 40
1.0
 40
1.0
 40
1.0
 40
1.0
 10
179.7508443459624
 20
117.0833945038803
 30
0.0
 10
179.7508443459624
 20
116.923762334977
 30
0.0
 10
179.6892078322571
 20
116.762712701213
 30
0.0
 10
179.4701814660142
 20
116.5297218175364
 30
0.0
 10
179.3125645779668
 20
116.4585418019374
 30
0.0
 10
179.1508443459624
 20
116.4585418019374
 30
0.0
  0
SPLINE
  5
81
330
1F
100
AcDbEntity
  8
0
  6
Continuous
 62
     7
370
    15
100
AcDbSpline
210
0.0
220
0.0
230
1.0
 70
    24
 71
     3
 72
    12
 73
     8
 74
     0
 42
0.00000001
 43
0.00000001
 40
0.0
 40
0.0
 40
0.0
 40
0.0
 40
0.250000000000002
 40
0.250000000000002
 40
0.500000000000004
 40
0.500000000000004
 40
1.0
 40
1.0
 40
1.0
 40
1.0
 10
179.1508443459624
 20
147.5374263249668
 30
0.0
 10
179.2390312113313
 20
147.5374263249668
 30
0.0
 10
179.3277186046325
 20
147.5374263249668
 30
0.0
 10
179.4819710977514
 20
147.5374263249668
 30
0.0
 10
179.5473170788273
 20
147.5374263249668
 30
0.0
 10
179.7017269487785
 20
147.5374263249668
 30
0.0
 10
179.7508443459624
 20
147.5374263249668
 30
0.0
 10
179.7508443459624
 20
147.5374263249668
 30
0.0
  0
LINE
  5
82
330
1F
100
AcDbEntity
  8
0
  6
Continuous
 62
     7
370
    15
100
AcDbLine
 10
179.150844346
 20
116.4585418019
 30
0.0
 11
177.8360040449
 21
116.4585418019
 31
0.0
  0
LINE
  5
83
330
1F
100
AcDbEntity
  8
0
  6
Continuous
 62
     7
370
    15
100
AcDbLine
 10
177.8360040449
 20
116.4585418019
 30
0.0
 11
177.8360040449
 21
147.537426325
 31
0.0
  0
LINE
  5
84
330
1F
100
AcDbEntity
  8
0
  6
Continuous
 62
     7
370
    15
100
AcDbLine
 10
177.8360040449
 20
147.537426325
 30
0.0
 11
179.150844346
 21
147.537426325
 31
0.0
  0
SPLINE
  5
85
330
1F
100
AcDbEntity
  8
0
  6
Continuous
 62
     7
370
    15
100
AcDbSpline
210
0.0
220
0.0
230
1.0
 70
     8
 71
     3
 72
     8
 73
     4
 74
     0
 42
0.00000001
 43
0.00000001
 40
0.0
 40
0.0
 40
0.0
 40
0.0
 40
1.0
 40
1.0
 40
1.0
 40
1.0
 10
177.8360040448558
 20
116.4585418019374
 30
0.0
 10
177.5032987731505
 20
117.0579134751611
 30
0.0
 10
177.171482972577
 20
117.6577825858661
 30
0.0
 10
176.8408443459624
 20
118.2583029369771
 30
0.0
  0
LINE
  5
86
330
1F
100
AcDbEntity
  8
0
  6
Continuous
 62
     7
370
    15
100
AcDbLine
 10
176.840844346
 20
118.258302937
 30
0.0
 11
176.840844346
 21
147.537426325
 31
0.0
  0
SPLINE
  5
87
330
1F
100
AcDbEntity
  8
0
  6
Continuous
 62
     7
370
    15
100
AcDbSpline
210
0.0
220
0.0
230
1.0
 70
    24
 71
     3
 72
     8
 73
     4
 74
     0
 42
0.00000001
 43
0.00000001
 40
0.0
 40
0.0
 40
0.0
 40
0.0
 40
1.0
 40
1.0
 40
1.0
 40
1.0
 10
176.8408443459624
 20
147.5374263249668
 30
0.0
 10
177.1644810015846
 20
147.5374263249668
 30
0.0
 10
177.4969712231012
 20
147.5374263249668
 30
0.0
 10
177.8360040448559
 20
147.5374263249668
 30
0.0
  0
CIRCLE
  5
88
330
1F
100
AcDbEntity
  8
0
  6
Continuous
 62
     7
370
    15
100
AcDbCircle
 10
207.800844346
 20
155.687426325
 30
0.0
 40
4.249999999999972
  0
LINE
  5
89
330
1F
100
AcDbEntity
  8
0
  6
Continuous
 62
     7
370
    15
100
AcDbLine
 10
195.9035967843
 20
115.687426325
 30
0.0
 11
239.800844346
 21
115.687426325
 31
0.0
  0
LINE
  5
8A
330
1F
100
AcDbEntity
  8
0
  6
Continuous
 62
     7
370
    15
100
AcDbLine
 10
239.800844346
 20
130.687426325
 30
0.0
 11
239.800844346
 21
115.687426325
 31
0.0
  0
LINE
  5
8B
330
1F
100
AcDbEntity
  8
0
  6
Continuous
 62
     7
370
    15
100
AcDbLine
 10
159.800844346
 20
115.987426325
 30
0.0
 11
159.800844346
 21
155.387426325
 31
0.0
  0
CIRCLE
  5
8C
330
1F
100
AcDbEntity
  8
0
  6
Continuous
 62
     7
370
    15
100
AcDbCircle
 10
229.800844346
 20
155.687426325
 30
0.0
 40
4.25
  0
SPLINE
  5
8D
330
1F
100
AcDbEntity
  8
0
  6
Continuous
 62
     7
370
    15
100
AcDbSpline
210
0.0
220
0.0
230
1.0
 70
    24
 71
     3
 72
    16
 73
    12
 74
     0
 42
0.00000001
 43
0.00000001
 40
0.0
 40
0.0
 40
0.0
 40
0.0
 40
0.5000000000000001
 40
0.5000000000000001
 40
0.7499999999999993
 40
0.7499999999999993
 40
0.8749999999999983
 40
0.8749999999999983
 40
0.9374999999999991
 40
0.9374999999999991
 40
1.0
 40
1.0
 40
1.0
 40
1.0
 10
176.8056219453811
 20
118.7874263249668
 30
0.0
 10
176.7755855258545
 20
118.7874263249668
 30
0.0
 10
176.7289514286497
 20
118.7874263249668
 30
0.0
 10
176.618567017071
 20
118.7874263249668
 30
0.0
 10
176.5752293685504
 20
118.7874263249668
 30
0.0
 10
176.4867477341658
 20
118.7874263249668
 30
0.0
 10
176.4533722295491
 20
118.7874263249668
 30
0.0
 10
176.3888800200986
 20
118.7874263249668
 30
0.0
 10
176.364675682912
 20
118.7874263249668
 30
0.0
 10
176.3089218731016
 20
118.7874263249668
 30
0.0
 10
176.2753378470334
 20
118.7874263249668
 30
0.0
 10
176.2408443459624
 20
118.7874263249668
 30
0.0
  0
SPLINE
  5
8E
330
1F
100
AcDbEntity
  8
0
  6
Continuous
 62
     7
370
    15
100
AcDbSpline
210
0.0
220
0.0
230
1.0
 70
    24
 71
     3
 72
    12
 73
     8
 74
     0
 42
0.00000001
 43
0.00000001
 40
0.0
 40
0.0
 40
0.0
 40
0.0
 40
0.249999999999999
 40
0.249999999999999
 40
0.499999999999998
 40
0.499999999999998
 40
1.0
 40
1.0
 40
1.0
 40
1.0
 10
176.2408443459624
 20
147.5374263249668
 30
0.0
 10
176.3335024354686
 20
147.5374263249668
 30
0.0
 10
176.4255658450264
 20
147.5374263249668
 30
0.0
 10
176.5797233955171
 20
147.5374263249668
 30
0.0
 10
176.6442123288818
 20
147.5374263249668
 30
0.0
 10
176.7942638778314
 20
147.5374263249668
 30
0.0
 10
176.8408443459624
 20
147.5374263249668
 30
0.0
 10
176.8408443459624
 20
147.5374263249668
 30
0.0
  0
SPLINE
  5
8F
330
1F
100
AcDbEntity
  8
0
  6
Continuous
 62
     7
370
    15
100
AcDbSpline
210
0.0
220
0.0
230
1.0
 70
    24
 71
     3
 72
    16
 73
    12
 74
     0
 42
0.00000001
 43
0.00000001
 40
0.0
 40
0.0
 40
0.0
 40
0.0
 40
0.0624999999999997
 40
0.0624999999999997
 40
0.1249999999999994
 40
0.1249999999999994
 40
0.2499999999999988
 40
0.2499999999999988
 40
0.499999999999999
 40
0.499999999999999
 40
1.0
 40
1.0
 40
1.0
 40
1.0
 10
175.3608443459358
 20
118.7874263249668
 30
0.0
 10
175.3263656787506
 20
118.7874263249668
 30
0.0
 10
175.2925455019138
 20
118.7874263249668
 30
0.0
 10
175.2360234347301
 20
118.7874263249668
 30
0.0
 10
175.2116973552038
 20
118.7874263249668
 30
0.0
 10
175.1472444556526
 20
118.7874263249668
 30
0.0
 10
175.1136161802939
 20
118.7874263249668
 30
0.0
 10
175.0255388647691
 20
118.7874263249668
 30
0.0
 10
174.9827194115015
 20
118.7874263249668
 30
0.0
 10
174.8720627773044
 20
118.7874263249668
 30
0.0
 10
174.8258301913604
 20
118.7874263249668
 30
0.0
 10
174.7960667465438
 20
118.7874263249668
 30
0.0
  0
SPLINE
  5
90
330
1F
100
AcDbEntity
  8
0
  6
Continuous
 62
     7
370
    15
100
AcDbSpline
210
0.0
220
0.0
230
1.0
 70
    24
 71
     3
 72
    12
 73
     8
 74
     0
 42
0.00000001
 43
0.00000001
 40
0.0
 40
0.0
 40
0.0
 40
0.0
 40
0.5000000000000013
 40
0.5000000000000013
 40
0.7500000000000007
 40
0.7500000000000007
 40
1.0
 40
1.0
 40
1.0
 40
1.0
 10
174.7608443459624
 20
147.5374263249668
 30
0.0
 10
174.7608443459624
 20
147.5374263249668
 30
0.0
 10
174.8078404434707
 20
147.5374263249668
 30
0.0
 10
174.957346381471
 20
147.5374263249668
 30
0.0
 10
175.0218650040294
 20
147.5374263249668
 30
0.0
 10
175.1763046967584
 20
147.5374263249668
 30
0.0
 10
175.2672430847614
 20
147.5374263249668
 30
0.0
 10
175.3608443459624
 20
147.5374263249668
 30
0.0
  0
SPLINE
  5
91
330
1F
100
AcDbEntity
  8
0
  6
Continuous
 62
     7
370
    15
100
AcDbSpline
210
0.0
220
0.0
230
1.0
 70
    24
 71
     3
 72
    14
 73
    10
 74
     0
 42
0.00000001
 43
0.00000001
 40
0.0
 40
0.0
 40
0.0
 40
0.0
 40
0.1250000000000001
 40
0.1250000000000001
 40
0.2500000000000001
 40
0.2500000000000001
 40
0.5000000000000001
 40
0.5000000000000001
 40
1.0
 40
1.0
 40
1.0
 40
1.0
 10
179.9508443459376
 20
152.5874263249668
 30
0.0
 10
179.950844621883
 20
152.5874263249668
 30
0.0
 10
179.9484683098782
 20
152.5874263249668
 30
0.0
 10
179.9393204912238
 20
152.5874263249668
 30
0.0
 10
179.932554621552
 20
152.5874263249668
 30
0.0
 10
179.9071152597265
 20
152.5874263249668
 30
0.0
 10
179.8832222156823
 20
152.5874263249668
 30
0.0
 10
179.8082879000538
 20
152.5874263249668
 30
0.0
 10
179.7530612377749
 20
152.5874263249668
 30
0.0
 10
179.7509064690857
 20
152.5874263249668
 30
0.0
  0
SPLINE
  5
92
330
1F
100
AcDbEntity
  8
0
  6
Continuous
 62
     7
370
    15
100
AcDbSpline
210
0.0
220
0.0
230
1.0
 70
    24
 71
     3
 72
    14
 73
    10
 74
     0
 42
0.00000001
 43
0.00000001
 40
0.0
 40
0.0
 40
0.0
 40
0.0
 40
0.1250000000000001
 40
0.1250000000000001
 40
0.2500000000000002
 40
0.2500000000000002
 40
0.5000000000000001
 40
0.5000000000000001
 40
1.0
 40
1.0
 40
1.0
 40
1.0
 10
179.9508443459369
 20
118.7874263249668
 30
0.0
 10
179.9508446282649
 20
118.7874263249668
 30
0.0
 10
179.9484220902241
 20
118.7874263249668
 30
0.0
 10
179.9391029836251
 20
118.7874263249668
 30
0.0
 10
179.9322123603777
 20
118.7874263249668
 30
0.0
 10
179.9063339669418
 20
118.7874263249668
 30
0.0
 10
179.8820614301954
 20
118.7874263249668
 30
0.0
 10
179.806305011477
 20
118.7874263249668
 30
0.0
 10
179.7508443459624
 20
118.7874263249668
 30
0.0
 10
179.7508443459624
 20
118.7874263249668
 30
0.0
  0
SPLINE
  5
93
330
1F
100
AcDbEntity
  8
0
  6
Continuous
 62
     7
370
    15
100
AcDbSpline
210
0.0
220
0.0
230
1.0
 70
    24
 71
     3
 72
    12
 73
     8
 74
     0
 42
0.00000001
 43
0.00000001
 40
0.0
 40
0.0
 40
0.0
 40
0.0
 40
0.5
 40
0.5
 40
0.75
 40
0.75
 40
1.0
 40
1.0
 40
1.0
 40
1.0
 10
179.7508443459624
 20
147.5374263249668
 30
0.0
 10
179.7508443459624
 20
147.5374263249668
 30
0.0
 10
179.77806509409
 20
147.5374263249668
 30
0.0
 10
179.8585115398629
 20
147.5374263249668
 30
0.0
 10
179.891958768341
 20
147.5374263249668
 30
0.0
 10
179.9743683381153
 20
147.5374263249668
 30
0.0
 10
180.0236514349989
 20
147.5374263249668
 30
0.0
 10
180.0799680576355
 20
147.5374263249668
 30
0.0
  0
SPLINE
  5
94
330
1F
100
AcDbEntity
  8
0
  6
Continuous
 62
     7
370
    15
100
AcDbSpline
210
0.0
220
0.0
230
1.0
 70
     8
 71
     3
 72
    10
 73
     6
 74
     0
 42
0.00000001
 43
0.00000001
 40
0.0
 40
0.0
 40
0.0
 40
0.0
 40
0.5
 40
0.5
 40
1.0
 40
1.0
 40
1.0
 40
1.0
 10
179.7508443459624
 20
148.5648290133974
 30
0.0
 10
179.7508443459624
 20
148.3821203012624
 30
0.0
 10
179.7778176796705
 20
148.1986120115016
 30
0.0
 10
179.8854080474562
 20
147.850308033181
 30
0.0
 10
179.9668725917994
 20
147.6821204506381
 30
0.0
 10
180.0799680576352
 20
147.5374263249654
 30
0.0
  0
LINE
  5
95
330
1F
100
AcDbEntity
  8
0
  6
Continuous
 62
     7
370
    15
100
AcDbLine
 10
176.240844346
 20
118.787426325
 30
0.0
 11
175.3608443459
 21
118.787426325
 31
0.0
  0
LINE
  5
96
330
1F
100
AcDbEntity
  8
0
  6
Continuous
 62
     7
370
    15
100
AcDbLine
 10
175.360844346
 20
147.537426325
 30
0.0
 11
176.240844346
 21
147.537426325
 31
0.0
  0
SPLINE
  5
97
330
1F
100
AcDbEntity
  8
0
  6
Continuous
 62
     7
370
    15
100
AcDbSpline
210
0.0
220
0.0
230
1.0
 70
     8
 71
     3
 72
     8
 73
     4
 74
     0
 42
0.00000001
 43
0.00000001
 40
0.0
 40
0.0
 40
0.0
 40
0.0
 40
1.0
 40
1.0
 40
1.0
 40
1.0
 10
194.8008443459624
 20
152.5164859633284
 30
0.0
 10
194.894422200167
 20
152.6286587374988
 30
0.0
 10
194.9616946550271
 20
152.7584655220101
 30
0.0
 10
194.9994431842725
 20
152.8995825152737
 30
0.0
  0
SPLINE
  5
98
330
1F
100
AcDbEntity
  8
0
  6
Continuous
 62
     7
370
    15
100
AcDbSpline
210
0.0
220
0.0
230
1.0
 70
     8
 71
     3
 72
    12
 73
     8
 74
     0
 42
0.00000001
 43
0.00000001
 40
0.0
 40
0.0
 40
0.0
 40
0.0
 40
0.2499999999999946
 40
0.2499999999999946
 40
0.4999999999999891
 40
0.4999999999999891
 40
1.0
 40
1.0
 40
1.0
 40
1.0
 10
194.0335173579834
 20
152.161437936277
 30
0.0
 10
194.1059454802391
 20
152.160642426462
 30
0.0
 10
194.1775001021284
 20
152.1677472413992
 30
0.0
 10
194.3188091733451
 20
152.1977046284354
 30
0.0
 10
194.3891628907011
 20
152.221000233578
 30
0.0
 10
194.5870969397105
 20
152.3121755905827
 30
0.0
 10
194.7062813521148
 20
152.4031322917371
 30
0.0
 10
194.8008443459624
 20
152.5164859633284
 30
0.0
  0
SPLINE
  5
99
330
1F
100
AcDbEntity
  8
0
  6
Continuous
 62
     7
370
    15
100
AcDbSpline
210
0.0
220
0.0
230
1.0
 70
     8
 71
     3
 72
     9
 73
     5
 74
     0
 42
0.00000001
 43
0.00000001
 40
0.0
 40
0.0
 40
0.0
 40
0.0
 40
0.4252285340518754
 40
1.0
 40
1.0
 40
1.0
 40
1.0
 10
192.2300210772081
 20
152.1830304298129
 30
0.0
 10
192.4514951789932
 20
152.1822622338333
 30
0.0
 10
192.9723306452184
 20
152.1804556853113
 30
0.0
 10
193.6461977654396
 20
152.1683791717056
 30
0.0
 10
194.0335173579834
 20
152.161437936277
 30
0.0
  0
LINE
  5
9A
330
1F
100
AcDbEntity
  8
0
  6
Continuous
 62
     7
370
    15
100
AcDbLine
 10
157.800844346
 20
120.5837259242
 30
0.0
 11
157.800844346
 21
150.7911267258
 31
0.0
  0
LINE
  5
9B
330
1F
100
AcDbEntity
  8
0
  6
Continuous
 62
     7
370
    15
100
AcDbLine
 10
146.000844346
 20
121.1749082889
 30
0.0
 11
146.000844346
 21
122.0506796269
 31
0.0
  0
SPLINE
  5
9C
330
1F
100
AcDbEntity
  8
0
  6
Continuous
 62
     7
370
    15
100
AcDbSpline
210
0.0
220
0.0
230
1.0
 70
     8
 71
     3
 72
    12
 73
     8
 74
     0
 42
0.00000001
 43
0.00000001
 40
0.0
 40
0.0
 40
0.0
 40
0.0
 40
0.25
 40
0.25
 40
0.5
 40
0.5
 40
1.0
 40
1.0
 40
1.0
 40
1.0
 10
145.6331092531055
 20
122.7570504620821
 30
0.0
 10
145.6585334699995
 20
122.6901648690083
 30
0.0
 10
145.6991453095687
 20
122.6257163793247
 30
0.0
 10
145.7837464558409
 20
122.5007157192468
 30
0.0
 10
145.8278432521265
 20
122.4401969740547
 30
0.0
 10
145.9439123606125
 20
122.2639909179463
 30
0.0
 10
146.0008443459624
 20
122.1535965029745
 30
0.0
 10
146.0008443459624
 20
122.0506796268813
 30
0.0
  0
SPLINE
  5
9D
330
1F
100
AcDbEntity
  8
0
  6
Continuous
 62
     7
370
    15
100
AcDbSpline
210
0.0
220
0.0
230
1.0
 70
     8
 71
     3
 72
    14
 73
    10
 74
     0
 42
0.00000001
 43
0.00000001
 40
0.0
 40
0.0
 40
0.0
 40
0.0
 40
0.1249999999999997
 40
0.1249999999999997
 40
0.2499999999999994
 40
0.2499999999999994
 40
0.4999999999999997
 40
0.4999999999999997
 40
1.0
 40
1.0
 40
1.0
 40
1.0
 10
145.1008443459624
 20
123.2470562774558
 30
0.0
 10
145.1498566687738
 20
123.251581336611
 30
0.0
 10
145.2026628937692
 20
123.2434619510564
 30
0.0
 10
145.2877299854987
 20
123.213131875905
 30
0.0
 10
145.3223141708395
 20
123.1924769188285
 30
0.0
 10
145.4108698561767
 20
123.1279407955017
 30
0.0
 10
145.4518055574979
 20
123.080702615449
 30
0.0
 10
145.5556860844009
 20
122.9409065141654
 30
0.0
 10
145.598909883833
 20
122.8470215752961
 30
0.0
 10
145.6331092531055
 20
122.7570504620821
 30
0.0
  0
SPLINE
  5
9E
330
1F
100
AcDbEntity
  8
0
  6
Continuous
 62
     7
370
    15
100
AcDbSpline
210
0.0
220
0.0
230
1.0
 70
     8
 71
     3
 72
    10
 73
     6
 74
     0
 42
0.00000001
 43
0.00000001
 40
0.0
 40
0.0
 40
0.0
 40
0.0
 40
0.5
 40
0.5
 40
1.0
 40
1.0
 40
1.0
 40
1.0
 10
142.1800209542639
 20
122.9208041978893
 30
0.0
 10
142.6532971650151
 20
122.9878898098366
 30
0.0
 10
143.1363839175205
 20
123.0457580800637
 30
0.0
 10
144.1120486987309
 20
123.1525772397777
 30
0.0
 10
144.6049663611116
 20
123.2012743784051
 30
0.0
 10
145.1008443459624
 20
123.2470562774558
 30
0.0
  0
SPLINE
  5
9F
330
1F
100
AcDbEntity
  8
0
  6
Continuous
 62
     7
370
    15
100
AcDbSpline
210
0.0
220
0.0
230
1.0
 70
     8
 71
     3
 72
    10
 73
     6
 74
     0
 42
0.00000001
 43
0.00000001
 40
0.0
 40
0.0
 40
0.0
 40
0.0
 40
0.5
 40
0.5
 40
1.0
 40
1.0
 40
1.0
 40
1.0
 10
140.953035343609
 20
122.8377926255249
 30
0.0
 10
141.1610947802521
 20
122.8448270426958
 30
0.0
 10
141.3682526435467
 20
122.8535762346997
 30
0.0
 10
141.7787752105305
 20
122.8783189738855
 30
0.0
 10
141.9828964882589
 20
122.8928623425175
 30
0.0
 10
142.1800209542639
 20
122.9208041978893
 30
0.0
  0
SPLINE
  5
A0
330
1F
100
AcDbEntity
  8
0
  6
Continuous
 62
     7
370
    15
100
AcDbSpline
210
0.0
220
0.0
230
1.0
 70
     8
 71
     3
 72
     8
 73
     4
 74
     0
 42
0.00000001
 43
0.00000001
 40
0.0
 40
0.0
 40
0.0
 40
0.0
 40
1.0
 40
1.0
 40
1.0
 40
1.0
 10
140.8354967112277
 20
122.9845726422232
 30
0.0
 10
140.8610916430879
 20
122.9329933620453
 30
0.0
 10
140.9018768206605
 20
122.8843406029707
 30
0.0
 10
140.953035343609
 20
122.8377926255249
 30
0.0
  0
ELLIPSE
  5
A1
330
1F
100
AcDbEntity
  8
0
  6
Continuous
 62
     7
370
    15
100
AcDbEllipse
 10
118.3027533288
 20
134.617189568
 30
0.0
 11
22.65236303891439
 21
-12.66569662468557
 31
0.0
210
0.0
220
0.0
230
1.0
 40
0.1509348161
 41
0.2169868258380913
 42
0.2660379696714064
  0
ELLIPSE
  5
A2
330
1F
100
AcDbEntity
  8
0
  6
Continuous
 62
     7
370
    15
100
AcDbEllipse
 10
118.1645704217
 20
136.7570985615
 30
0.0
 11
22.64041454007862
 21
12.6590158178702
 31
0.0
210
0.0
220
0.0
230
1.0
 40
0.1509348161
 41
6.058252762347556
 42
6.06184659666818
  0
SPLINE
  5
A3
330
1F
100
AcDbEntity
  8
0
  6
Continuous
 62
     7
370
    15
100
AcDbSpline
210
0.0
220
0.0
230
1.0
 70
     8
 71
     3
 72
     8
 73
     4
 74
     0
 42
0.00000001
 43
0.00000001
 40
0.0
 40
0.0
 40
0.0
 40
0.0
 40
1.0
 40
1.0
 40
1.0
 40
1.0
 10
140.8508443459624
 20
148.5530068719451
 30
0.0
 10
140.7715470183309
 20
148.4921205760204
 30
0.0
 10
140.7079498239862
 20
148.4275903866599
 30
0.0
 10
140.6721232785268
 20
148.3570865918531
 30
0.0
  0
SPLINE
  5
A4
330
1F
100
AcDbEntity
  8
0
  6
Continuous
 62
     7
370
    15
100
AcDbSpline
210
0.0
220
0.0
230
1.0
 70
     8
 71
     3
 72
    12
 73
     8
 74
     0
 42
0.00000001
 43
0.00000001
 40
0.0
 40
0.0
 40
0.0
 40
0.0
 40
0.2499999999999986
 40
0.2499999999999986
 40
0.4999999999999971
 40
0.4999999999999971
 40
1.0
 40
1.0
 40
1.0
 40
1.0
 10
142.6008443459624
 20
148.468220183626
 30
0.0
 10
142.4588019427732
 20
148.4840459118022
 30
0.0
 10
142.314683836269
 20
148.4950670455775
 30
0.0
 10
142.0249293225966
 20
148.5136034074447
 30
0.0
 10
141.8791874192378
 20
148.5208741131805
 30
0.0
 10
141.4405071800579
 20
148.5393349635085
 30
0.0
 10
141.1461315639868
 20
148.547213830332
 30
0.0
 10
140.8508443459624
 20
148.5530068719451
 30
0.0
  0
SPLINE
  5
A5
330
1F
100
AcDbEntity
  8
0
  6
Continuous
 62
     7
370
    15
100
AcDbSpline
210
0.0
220
0.0
230
1.0
 70
     8
 71
     3
 72
    20
 73
    16
 74
     0
 42
0.00000001
 43
0.00000001
 40
0.0
 40
0.0
 40
0.0
 40
0.0
 40
0.2499999999999996
 40
0.2499999999999996
 40
0.4999999999999991
 40
0.4999999999999991
 40
0.7499999999999987
 40
0.7499999999999987
 40
0.8749999999999971
 40
0.8749999999999971
 40
0.9374999999999983
 40
0.9374999999999983
 40
0.9687499999999991
 40
0.9687499999999991
 40
1.0
 40
1.0
 40
1.0
 40
1.0
 10
143.5008443459633
 20
149.2449504467147
 30
0.0
 10
143.5008443459633
 20
149.1843410470173
 30
0.0
 10
143.4754493263864
 20
149.1185150816137
 30
0.0
 10
143.3891561406045
 20
148.9844673122671
 30
0.0
 10
143.3285201619212
 20
148.9157719541253
 30
0.0
 10
143.1804183677
 20
148.7753734024709
 30
0.0
 10
143.0936487609213
 20
148.7036698978895
 30
0.0
 10
142.9450109655921
 20
148.5975064961407
 30
0.0
 10
142.8927217487059
 20
148.5619781475092
 30
0.0
 10
142.801957920396
 20
148.5122742169936
 30
0.0
 10
142.769591927944
 20
148.4960132189785
 30
0.0
 10
142.7119027722778
 20
148.4769006506326
 30
0.0
 10
142.6909157443904
 20
148.471509508551
 30
0.0
 10
142.6456267653999
 20
148.4657721401585
 30
0.0
 10
142.6226124965614
 20
148.465794873812
 30
0.0
 10
142.6008443459618
 20
148.4682201836249
 30
0.0
  0
LINE
  5
A6
330
1F
100
AcDbEntity
  8
0
  6
Continuous
 62
     7
370
    15
100
AcDbLine
 10
143.500844346
 20
149.2449504467
 30
0.0
 11
143.500844346
 21
150.07469386
 31
0.0
  0
SPLINE
  5
A7
330
1F
100
AcDbEntity
  8
0
  6
Continuous
 62
     7
370
    15
100
AcDbSpline
210
0.0
220
0.0
230
1.0
 70
     8
 71
     3
 72
    18
 73
    14
 74
     0
 42
0.00000001
 43
0.00000001
 40
0.0
 40
0.0
 40
0.0
 40
0.0
 40
0.0647987051964542
 40
0.1911457418934265
 40
0.3159453219936808
 40
0.3775977181147657
 40
0.4397856484594751
 40
0.5017220926046717
 40
0.5630628839447039
 40
0.6866516283643247
 40
0.8118021582222679
 40
0.9380327414081012
 40
0.9999999999999999
 40
0.9999999999999999
 40
0.9999999999999999
 40
0.9999999999999999
 10
151.0384908026004
 20
120.9333453356937
 30
0.0
 10
151.027845847158
 20
120.9319106116302
 30
0.0
 10
150.9964449434009
 20
120.9276784067629
 30
0.0
 10
151.415328138868
 20
120.9884945093769
 30
0.0
 10
152.0598915249011
 20
121.0540472608425
 30
0.0
 10
152.7135532521424
 20
121.0842492653242
 30
0.0
 10
153.2447380558019
 20
121.0878258829009
 30
0.0
 10
153.7961454822364
 20
121.0707447093691
 30
0.0
 10
154.5270472904496
 20
121.0177273403902
 30
0.0
 10
155.3889189607484
 20
120.8999432094907
 30
0.0
 10
156.1552230842374
 20
120.7474007188285
 30
0.0
 10
156.5557025241007
 20
120.6482080529371
 30
0.0
 10
156.5244450532833
 20
120.656153849001
 30
0.0
 10
156.5141530129561
 20
120.6587701340485
 30
0.0
  0
SPLINE
  5
A8
330
1F
100
AcDbEntity
  8
0
  6
Continuous
 62
     7
370
    15
100
AcDbSpline
210
0.0
220
0.0
230
1.0
 70
     8
 71
     3
 72
    18
 73
    14
 74
     0
 42
0.00000001
 43
0.00000001
 40
0.0
 40
0.0
 40
0.0
 40
0.0
 40
0.0628581874978233
 40
0.1888210925071208
 40
0.31364295319105
 40
0.4369193488098552
 40
0.4982390280780538
 40
0.5602488697629576
 40
0.6224807882813211
 40
0.6842568515517148
 40
0.8091590186753609
 40
0.935452681076069
 40
1.0
 40
1.0
 40
1.0
 40
1.0
 10
156.5140732670546
 20
150.715910450921
 30
0.0
 10
156.5247333006204
 20
150.718553943299
 30
0.0
 10
156.5567552100037
 20
150.7264947882184
 30
0.0
 10
156.1512814185471
 20
150.6268014343322
 30
0.0
 10
155.3883444646031
 20
150.4743833647807
 30
0.0
 10
154.5269418685058
 20
150.3571041597708
 30
0.0
 10
153.796815029934
 20
150.3042062142114
 30
0.0
 10
153.2450351577925
 20
150.2871007174553
 30
0.0
 10
152.7130677014172
 20
150.2906452826375
 30
0.0
 10
152.0584480688811
 20
150.3208363527541
 30
0.0
 10
151.4140419416946
 20
150.3864995140991
 30
0.0
 10
150.9966089499952
 20
150.4473246963608
 30
0.0
 10
151.0269219880012
 20
150.4428379053003
 30
0.0
 10
151.0371746356147
 20
150.4413203573841
 30
0.0
  0
LINE
  5
A9
330
1F
100
AcDbEntity
  8
0
  6
Continuous
 62
     7
370
    15
100
AcDbLine
 10
139.900844346
 20
123.4465858613
 30
0.0
 11
139.900844346
 21
147.9563655582
 31
0.0
  0
SPLINE
  5
AA
330
1F
100
AcDbEntity
  8
0
  6
Continuous
 62
     7
370
    15
100
AcDbSpline
210
0.0
220
0.0
230
1.0
 70
     8
 71
     3
 72
     9
 73
     5
 74
     0
 42
0.00000001
 43
0.00000001
 40
0.0
 40
0.0
 40
0.0
 40
0.0
 40
0.3103166847784393
 40
1.0
 40
1.0
 40
1.0
 40
1.0
 10
140.0259156405839
 20
148.0064984069006
 30
0.0
 10
140.018084495383
 20
148.0184997504416
 30
0.0
 10
139.9928485168324
 20
148.0571742533918
 30
0.0
 10
139.9637675741132
 20
148.0385218365904
 30
0.0
 10
139.943710933129
 20
148.025657575934
 30
0.0
  0
SPLINE
  5
AB
330
1F
100
AcDbEntity
  8
0
  6
Continuous
 62
     7
370
    15
100
AcDbSpline
210
0.0
220
0.0
230
1.0
 70
     8
 71
     3
 72
     8
 73
     4
 74
     0
 42
0.00000001
 43
0.00000001
 40
0.0
 40
0.0
 40
0.0
 40
0.0
 40
1.0
 40
1.0
 40
1.0
 40
1.0
 10
139.9179977017399
 20
148.0206664209124
 30
0.0
 10
139.9072304125535
 20
148.0047716344542
 30
0.0
 10
139.9008443459624
 20
147.9829280488737
 30
0.0
 10
139.9008443459624
 20
147.9563655582484
 30
0.0
  0
SPLINE
  5
AC
330
1F
100
AcDbEntity
  8
0
  6
Continuous
 62
     7
370
    15
100
AcDbSpline
210
0.0
220
0.0
230
1.0
 70
     8
 71
     3
 72
    22
 73
    18
 74
     0
 42
0.00000001
 43
0.00000001
 40
0.0
 40
0.0
 40
0.0
 40
0.0
 40
0.2499999999999997
 40
0.2499999999999997
 40
0.3749999999999991
 40
0.3749999999999991
 40
0.4374999999999988
 40
0.4374999999999988
 40
0.4999999999999985
 40
0.4999999999999985
 40
0.5624999999999982
 40
0.5624999999999982
 40
0.624999999999998
 40
0.624999999999998
 40
0.7499999999999987
 40
0.7499999999999987
 40
1.0
 40
1.0
 40
1.0
 40
1.0
 10
140.6608143923523
 20
148.3350427283551
 30
0.0
 10
140.6288471049037
 20
148.2733121005963
 30
0.0
 10
140.5913380204982
 20
148.2092244017315
 30
0.0
 10
140.5138884015656
 20
148.1050598279237
 30
0.0
 10
140.4845014743378
 20
148.0688567983351
 30
0.0
 10
140.4291995065011
 20
148.0123079825919
 30
0.0
 10
140.4087709998742
 20
147.9929267732419
 30
0.0
 10
140.3601829676357
 20
147.953300307282
 30
0.0
 10
140.3317712412756
 20
147.9331847354831
 30
0.0
 10
140.2725631569994
 20
147.9018051050452
 30
0.0
 10
140.2450184737201
 20
147.8924718747141
 30
0.0
 10
140.2006768279257
 20
147.8838409077215
 30
0.0
 10
140.1832139635079
 20
147.8838123638612
 30
0.0
 10
140.1378895912707
 20
147.8889917476139
 30
0.0
 10
140.1172964785803
 20
147.8992625277648
 30
0.0
 10
140.0644763871742
 20
147.9364223698828
 30
0.0
 10
140.0430885165071
 20
147.9702520855803
 30
0.0
 10
140.0259156405818
 20
148.0064984068993
 30
0.0
  0
SPLINE
  5
AD
330
1F
100
AcDbEntity
  8
0
  6
Continuous
 62
     7
370
    15
100
AcDbSpline
210
0.0
220
0.0
230
1.0
 70
     8
 71
     3
 72
    24
 73
    20
 74
     0
 42
0.00000001
 43
0.00000001
 40
0.0
 40
0.0
 40
0.0
 40
0.0
 40
0.2499999999999973
 40
0.2499999999999973
 40
0.3749999999999957
 40
0.3749999999999957
 40
0.499999999999994
 40
0.499999999999994
 40
0.562499999999994
 40
0.562499999999994
 40
0.624999999999994
 40
0.624999999999994
 40
0.687499999999994
 40
0.687499999999994
 40
0.749999999999994
 40
0.749999999999994
 40
0.874999999999997
 40
0.874999999999997
 40
1.0
 40
1.0
 40
1.0
 40
1.0
 10
139.962291404757
 20
123.4583142780551
 30
0.0
 10
139.9736735344837
 20
123.5087119568002
 30
0.0
 10
139.9884980192289
 20
123.5570600283767
 30
0.0
 10
140.0235318738058
 20
123.6219626182781
 30
0.0
 10
140.0374206913108
 20
123.6423763578657
 30
0.0
 10
140.073117032741
 20
123.6779471977568
 30
0.0
 10
140.0943541093795
 20
123.6934571550991
 30
0.0
 10
140.140881545626
 20
123.7068707758452
 30
0.0
 10
140.158736215066
 20
123.7096303286881
 30
0.0
 10
140.2038695115976
 20
123.7074044382145
 30
0.0
 10
140.232293018157
 20
123.7020637239434
 30
0.0
 10
140.3001714203542
 20
123.6745418396819
 30
0.0
 10
140.3390639105221
 20
123.6515044215898
 30
0.0
 10
140.4041802145614
 20
123.603681471178
 30
0.0
 10
140.431826197633
 20
123.5791577321338
 30
0.0
 10
140.5058332102112
 20
123.507488807875
 30
0.0
 10
140.5424576091375
 20
123.4634134742755
 30
0.0
 10
140.6080395725803
 20
123.3774964422669
 30
0.0
 10
140.6359185939694
 20
123.3361123766776
 30
0.0
 10
140.6608143923505
 20
123.2959707353181
 30
0.0
  0
SPLINE
  5
AE
330
1F
100
AcDbEntity
  8
0
  6
Continuous
 62
     7
370
    15
100
AcDbSpline
210
0.0
220
0.0
230
1.0
 70
     8
 71
     3
 72
     9
 73
     5
 74
     0
 42
0.00000001
 43
0.00000001
 40
0.0
 40
0.0
 40
0.0
 40
0.0
 40
0.4719347591702031
 40
1.0
 40
1.0
 40
1.0
 40
1.0
 10
139.9215193398955
 20
123.4234564815061
 30
0.0
 10
139.9272098848337
 20
123.4147306157761
 30
0.0
 10
139.9392677907785
 20
123.3962410564451
 30
0.0
 10
139.9543349576533
 20
123.4368631581401
 30
0.0
 10
139.9622914047577
 20
123.4583142780547
 30
0.0
  0
SPLINE
  5
AF
330
1F
100
AcDbEntity
  8
0
  6
Continuous
 62
     7
370
    15
100
AcDbSpline
210
0.0
220
0.0
230
1.0
 70
     8
 71
     3
 72
    10
 73
     6
 74
     0
 42
0.00000001
 43
0.00000001
 40
0.0
 40
0.0
 40
0.0
 40
0.0
 40
0.5
 40
0.5
 40
1.0
 40
1.0
 40
1.0
 40
1.0
 10
179.7508443459624
 20
154.5583033581097
 30
0.0
 10
179.7508443459624
 20
154.7167378009975
 30
0.0
 10
179.6886831294794
 20
154.8757584957995
 30
0.0
 10
179.4681737888078
 20
155.1057663200552
 30
0.0
 10
179.3092586858627
 20
155.1746015948719
 30
0.0
 10
179.1508443459624
 20
155.1746015948719
 30
0.0
  0
LINE
  5
B0
330
1F
100
AcDbEntity
  8
0
  6
Continuous
 62
     7
370
    15
100
AcDbLine
 10
179.750844346
 20
151.0476834843
 30
0.0
 11
179.750844346
 21
154.5583033581
 31
0.0
  0
SPLINE
  5
B1
330
1F
100
AcDbEntity
  8
0
  6
Continuous
 62
     7
370
    15
100
AcDbSpline
210
0.0
220
0.0
230
1.0
 70
     8
 71
     3
 72
    12
 73
     8
 74
     0
 42
0.00000001
 43
0.00000001
 40
0.0
 40
0.0
 40
0.0
 40
0.0
 40
0.25
 40
0.25
 40
0.5
 40
0.5
 40
1.0
 40
1.0
 40
1.0
 40
1.0
 10
179.1508443459624
 20
151.7988353260443
 30
0.0
 10
179.2401327050061
 20
151.7988353260443
 30
0.0
 10
179.3281915359084
 20
151.7732106934395
 30
0.0
 10
179.4808452491575
 20
151.6846673205077
 30
0.0
 10
179.5466387424995
 20
151.6217848373931
 30
0.0
 10
179.7020793892155
 20
151.4044236494595
 30
0.0
 10
179.7508443459624
 20
151.2257766394481
 30
0.0
 10
179.7508443459624
 20
151.0476834842725
 30
0.0
  0
SPLINE
  5
B2
330
1F
100
AcDbEntity
  8
0
  6
Continuous
 62
     7
370
    15
100
AcDbSpline
210
0.0
220
0.0
230
1.0
 70
     8
 71
     3
 72
     8
 73
     4
 74
     0
 42
0.00000001
 43
0.00000001
 40
0.0
 40
0.0
 40
0.0
 40
0.0
 40
1.0
 40
1.0
 40
1.0
 40
1.0
 10
174.7608443459624
 20
153.401103020497
 30
0.0
 10
174.4298240149427
 20
153.9926587169547
 30
0.0
 10
174.0980427434586
 20
154.5837913811999
 30
0.0
 10
173.765684647069
 20
155.1746015948719
 30
0.0
  0
SPLINE
  5
B3
330
1F
100
AcDbEntity
  8
0
  6
Continuous
 62
     7
370
    15
100
AcDbSpline
210
0.0
220
0.0
230
1.0
 70
     8
 71
     3
 72
     8
 73
     4
 74
     0
 42
0.00000001
 43
0.00000001
 40
0.0
 40
0.0
 40
0.0
 40
0.0
 40
1.0
 40
1.0
 40
1.0
 40
1.0
 10
173.765684647069
 20
151.7988353260443
 30
0.0
 10
174.1051076883506
 20
151.0690444645249
 30
0.0
 10
174.4376184318456
 20
150.3368761091032
 30
0.0
 10
174.7608443459623
 20
149.6015142244223
 30
0.0
  0
LINE
  5
B4
330
1F
100
AcDbEntity
  8
0
  6
Continuous
 62
     7
370
    15
100
AcDbLine
 10
174.760844346
 20
149.6015142244
 30
0.0
 11
174.760844346
 21
153.4011030205
 31
0.0
  0
SPLINE
  5
B5
330
1F
100
AcDbEntity
  8
0
  6
Continuous
 62
     7
370
    15
100
AcDbSpline
210
0.0
220
0.0
230
1.0
 70
     8
 71
     3
 72
     8
 73
     4
 74
     0
 42
0.00000001
 43
0.00000001
 40
0.0
 40
0.0
 40
0.0
 40
0.0
 40
1.0
 40
1.0
 40
1.0
 40
1.0
 10
177.8360040448558
 20
155.1746015948719
 30
0.0
 10
177.5036459484662
 20
154.5837913811999
 30
0.0
 10
177.171864676982
 20
153.9926587169547
 30
0.0
 10
176.8408443459624
 20
153.401103020497
 30
0.0
  0
LINE
  5
B6
330
1F
100
AcDbEntity
  8
0
  6
Continuous
 62
     7
370
    15
100
AcDbLine
 10
177.8360040449
 20
151.798835326
 30
0.0
 11
177.8360040449
 21
155.1746015949
 31
0.0
  0
SPLINE
  5
B7
330
1F
100
AcDbEntity
  8
0
  6
Continuous
 62
     7
370
    15
100
AcDbSpline
210
0.0
220
0.0
230
1.0
 70
     8
 71
     3
 72
     8
 73
     4
 74
     0
 42
0.00000001
 43
0.00000001
 40
0.0
 40
0.0
 40
0.0
 40
0.0
 40
1.0
 40
1.0
 40
1.0
 40
1.0
 10
176.8408443459624
 20
149.6015142244222
 30
0.0
 10
177.1644019042173
 20
150.3376306230448
 30
0.0
 10
177.4968962244343
 20
151.0697222184634
 30
0.0
 10
177.8360040448558
 20
151.7988353260443
 30
0.0
  0
LINE
  5
B8
330
1F
100
AcDbEntity
  8
0
  6
Continuous
 62
     7
370
    15
100
AcDbLine
 10
176.840844346
 20
149.6015142244
 30
0.0
 11
176.840844346
 21
153.4011030205
 31
0.0
  0
LINE
  5
B9
330
1F
100
AcDbEntity
  8
0
  6
Continuous
 62
     7
370
    15
100
AcDbLine
 10
176.240844346
 20
152.587426325
 30
0.0
 11
175.360844346
 21
152.587426325
 31
0.0
  0
LINE
  5
BA
330
1F
100
AcDbEntity
  8
0
  6
Continuous
 62
     7
370
    15
100
AcDbLine
 10
175.360844346
 20
148.3944371851
 30
0.0
 11
176.240844346
 21
148.3944371851
 31
0.0
  0
SPLINE
  5
BB
330
1F
100
AcDbEntity
  8
0
  6
Continuous
 62
     7
370
    15
100
AcDbSpline
210
0.0
220
0.0
230
1.0
 70
    24
 71
     3
 72
    12
 73
     8
 74
     0
 42
0.00000001
 43
0.00000001
 40
0.0
 40
0.0
 40
0.0
 40
0.0
 40
0.5
 40
0.5
 40
0.75
 40
0.75
 40
1.0
 40
1.0
 40
1.0
 40
1.0
 10
176.5924999602124
 20
152.5874263249668
 30
0.0
 10
176.5583542119214
 20
152.5874263249668
 30
0.0
 10
176.5191610535164
 20
152.5874263249668
 30
0.0
 10
176.4413133948626
 20
152.5874263249668
 30
0.0
 10
176.4119089360774
 20
152.5874263249668
 30
0.0
 10
176.3389014147715
 20
152.5874263249668
 30
0.0
 10
176.2919960969636
 20
152.5874263249668
 30
0.0
 10
176.2408443459624
 20
152.5874263249668
 30
0.0
  0
SPLINE
  5
BC
330
1F
100
AcDbEntity
  8
0
  6
Continuous
 62
     7
370
    15
100
AcDbSpline
210
0.0
220
0.0
230
1.0
 70
     8
 71
     3
 72
    10
 73
     6
 74
     0
 42
0.00000001
 43
0.00000001
 40
0.0
 40
0.0
 40
0.0
 40
0.0
 40
0.5
 40
0.5
 40
1.0
 40
1.0
 40
1.0
 40
1.0
 10
176.8408443459624
 20
153.0900302967855
 30
0.0
 10
176.8408443459622
 20
152.993487749309
 30
0.0
 10
176.8189037233808
 20
152.8970265490389
 30
0.0
 10
176.7327735379889
 20
152.7216239547946
 30
0.0
 10
176.6696912308453
 20
152.6452084224275
 30
0.0
 10
176.5924999602124
 20
152.5874263249668
 30
0.0
  0
SPLINE
  5
BD
330
1F
100
AcDbEntity
  8
0
  6
Continuous
 62
     7
370
    15
100
AcDbSpline
210
0.0
220
0.0
230
1.0
 70
     8
 71
     3
 72
    12
 73
     8
 74
     0
 42
0.00000001
 43
0.00000001
 40
0.0
 40
0.0
 40
0.0
 40
0.0
 40
0.25
 40
0.25
 40
0.5
 40
0.5
 40
1.0
 40
1.0
 40
1.0
 40
1.0
 10
176.2408443459624
 20
148.3944371851181
 30
0.0
 10
176.3333863126842
 20
148.3944371851181
 30
0.0
 10
176.4255956898286
 20
148.4254705320343
 30
0.0
 10
176.5807326502055
 20
148.5282813978591
 30
0.0
 10
176.6445425476665
 20
148.5984542122048
 30
0.0
 10
176.7936689834676
 20
148.8313666957328
 30
0.0
 10
176.8408443459624
 20
149.0181620578027
 30
0.0
 10
176.8408443459624
 20
149.2032735052215
 30
0.0
  0
LINE
  5
BE
330
1F
100
AcDbEntity
  8
0
  6
Continuous
 62
     7
370
    15
100
AcDbLine
 10
179.150844346
 20
155.1746015949
 30
0.0
 11
177.8360040449
 21
155.1746015949
 31
0.0
  0
LINE
  5
BF
330
1F
100
AcDbEntity
  8
0
  6
Continuous
 62
     7
370
    15
100
AcDbLine
 10
177.8360040449
 20
151.798835326
 30
0.0
 11
179.150844346
 21
151.798835326
 31
0.0
  0
SPLINE
  5
C0
330
1F
100
AcDbEntity
  8
0
  6
Continuous
 62
     7
370
    15
100
AcDbSpline
210
0.0
220
0.0
230
1.0
 70
     8
 71
     3
 72
    12
 73
     8
 74
     0
 42
0.00000001
 43
0.00000001
 40
0.0
 40
0.0
 40
0.0
 40
0.0
 40
0.5000000000000032
 40
0.5000000000000032
 40
0.7500000000000016
 40
0.7500000000000016
 40
1.0
 40
1.0
 40
1.0
 40
1.0
 10
174.7608443459624
 20
149.2032735052215
 30
0.0
 10
174.7608443459624
 20
149.0175074286435
 30
0.0
 10
174.807390091219
 20
148.8323341166532
 30
0.0
 10
174.9574910396087
 20
148.5979235133097
 30
0.0
 10
175.0214278559027
 20
148.5278276158976
 30
0.0
 10
175.1767955876324
 20
148.4251470980934
 30
0.0
 10
175.2680388705503
 20
148.394437185118
 30
0.0
 10
175.3608443459624
 20
148.394437185118
 30
0.0
  0
LINE
  5
C1
330
1F
100
AcDbEntity
  8
0
  6
Continuous
 62
     7
370
    15
100
AcDbLine
 10
179.750844346
 20
151.0476834843
 30
0.0
 11
179.750844346
 21
148.5648290134
 31
0.0
  0
LINE
  5
C2
330
1F
100
AcDbEntity
  8
0
  6
Continuous
 62
     7
370
    15
100
AcDbLine
 10
176.840844346
 20
149.2032735052
 30
0.0
 11
176.840844346
 21
149.6015142244
 31
0.0
  0
LINE
  5
C3
330
1F
100
AcDbEntity
  8
0
  6
Continuous
 62
     7
370
    15
100
AcDbLine
 10
174.760844346
 20
149.6015142244
 30
0.0
 11
174.760844346
 21
149.2032735052
 31
0.0
  0
SPLINE
  5
C4
330
1F
100
AcDbEntity
  8
0
  6
Continuous
 62
     7
370
    15
100
AcDbSpline
210
0.0
220
0.0
230
1.0
 70
     8
 71
     3
 72
    10
 73
     6
 74
     0
 42
0.00000001
 43
0.00000001
 40
0.0
 40
0.0
 40
0.0
 40
0.0
 40
0.5
 40
0.5
 40
1.0
 40
1.0
 40
1.0
 40
1.0
 10
175.0091887317124
 20
152.5874263249668
 30
0.0
 10
174.9318639998381
 20
152.6453083258285
 30
0.0
 10
174.8684841743016
 20
152.7223816704623
 30
0.0
 10
174.7829137255286
 20
152.8968847286562
 30
0.0
 10
174.7608443459624
 20
152.9936899321367
 30
0.0
 10
174.7608443459624
 20
153.0900302967867
 30
0.0
  0
SPLINE
  5
C5
330
1F
100
AcDbEntity
  8
0
  6
Continuous
 62
     7
370
    15
100
AcDbSpline
210
0.0
220
0.0
230
1.0
 70
    24
 71
     3
 72
    12
 73
     8
 74
     0
 42
0.00000001
 43
0.00000001
 40
0.0
 40
0.0
 40
0.0
 40
0.0
 40
0.2499999999999989
 40
0.2499999999999989
 40
0.4999999999999978
 40
0.4999999999999978
 40
1.0
 40
1.0
 40
1.0
 40
1.0
 10
175.3608443459624
 20
152.5874263249668
 30
0.0
 10
175.3092521456878
 20
152.5874263249668
 30
0.0
 10
175.2623471368932
 20
152.5874263249668
 30
0.0
 10
175.1890134110168
 20
152.5874263249668
 30
0.0
 10
175.1597835815678
 20
152.5874263249668
 30
0.0
 10
175.0815508015048
 20
152.5874263249668
 30
0.0
 10
175.0431166435972
 20
152.5874263249668
 30
0.0
 10
175.0091887317124
 20
152.5874263249668
 30
0.0
  0
LINE
  5
C6
330
1F
100
AcDbEntity
  8
0
  6
Continuous
 62
     7
370
    15
100
AcDbLine
 10
140.850844346
 20
148.567426325
 30
0.0
 11
140.850844346
 21
148.5530068719
 31
0.0
  0
LINE
  5
C7
330
1F
100
AcDbEntity
  8
0
  6
Continuous
 62
     7
370
    15
100
AcDbLine
 10
140.9530353436
 20
122.807426325
 30
0.0
 11
140.9530353436
 21
122.8377926255
 31
0.0
  0
LWPOLYLINE
  5
C8
330
1F
100
AcDbEntity
  8
0
  6
Continuous
 62
     7
370
    15
100
AcDbPolyline
 90
       32
 70
   128
 43
0.0
 10
241.7193468567
 20
138.6842241357
 10
241.6949760323
 20
138.5546765298
 10
241.6665384954
 20
138.5575118389
 10
241.6351984822
 20
138.6926139853
 10
241.6022390564
 20
138.9544518711
 10
241.5690095809
 20
139.3323058225
 10
241.5368704743
 20
139.8107064545
 10
241.5071375153
 20
140.3700679888
 10
241.4810279748
 20
140.9874900985
 10
241.4596107805
 20
141.63769545
 10
241.4437627548
 20
142.2940645598
 10
241.4341327177
 20
142.9297255993
 10
241.4311149241
 20
143.518654531
 10
241.4348329229
 20
144.0367405351
 10
241.4451344986
 20
144.4627731098
 10
241.4615979036
 20
144.7793104314
 10
241.4835491242
 20
144.9733934249
 10
241.5100894748
 20
145.0370763095
 10
241.5401323903
 20
144.9677519007
 10
241.5724479103
 20
144.7682583477
 10
241.6057130335
 20
144.4467629401
 10
241.6385658819
 20
144.0164277376
 10
241.6696614561
 20
143.4948707141
 10
241.6977266995
 20
142.9034444753
 10
241.7216126178
 20
142.2663620809
 10
241.7403413187
 20
141.6097057591
 10
241.753146047
 20
140.9603590967
 10
241.7595025757
 20
140.3449064225
 10
241.7591506676
 20
139.7885444412
 10
241.7521047299
 20
139.3140506777
 10
241.7386532242
 20
138.9408509625
 10
241.7193468567
 20
138.6842241357
  0
LWPOLYLINE
  5
C9
330
1F
100
AcDbEntity
  8
0
  6
Continuous
 62
     7
370
    15
100
AcDbPolyline
 90
       29
 70
   128
 43
0.0
 10
241.6907997765
 20
139.4005380068
 10
241.6698440042
 20
139.2962153141
 10
241.6451674758
 20
139.3168536921
 10
241.6180075756
 20
139.4614182462
 10
241.5897262142
 20
139.7226599061
 10
241.5617415373
 20
140.0874789242
 10
241.5354568134
 20
140.5375817515
 10
241.5121900683
 20
141.0503983527
 10
241.4931079938
 20
141.6002139622
 10
241.4791674447
 20
142.1594585295
 10
241.4710674585
 20
142.7000891968
 10
241.4692142022
 20
143.1949964849
 10
241.4737006059
 20
143.6193636758
 10
241.4843017025
 20
143.9519112266
 10
241.5004859088
 20
144.1759638146
 10
241.5214416811
 20
144.2802865073
 10
241.5461182095
 20
144.2596481294
 10
241.5732781097
 20
144.1150835752
 10
241.6015594711
 20
143.8538419153
 10
241.629544148
 20
143.4890228972
 10
241.6558288719
 20
143.0389200699
 10
241.679095617
 20
142.5261034687
 10
241.6981776915
 20
141.9762878592
 10
241.7121182406
 20
141.4170432919
 10
241.7202182268
 20
140.8764126246
 10
241.7220714831
 20
140.3815053365
 10
241.7175850794
 20
139.9571381456
 10
241.7069839828
 20
139.6245905948
 10
241.6907997765
 20
139.4005380068
  0
CIRCLE
  5
CA
330
1F
100
AcDbEntity
  8
0
  6
Continuous
 62
     7
370
    15
100
AcDbCircle
 10
229.800844346
 20
155.687426325
 30
0.0
 40
4.171999999999973
  0
LINE
  5
CB
330
1F
100
AcDbEntity
  8
0
  6
Continuous
 62
     7
370
    15
100
AcDbLine
 10
232.6101388448
 20
156.3516535093
 30
0.0
 11
230.6302539798
 21
158.4524603198
 31
0.0
  0
LINE
  5
CC
330
1F
100
AcDbEntity
  8
0
  6
Continuous
 62
     7
370
    15
100
AcDbLine
 10
227.8209594811
 20
157.7882331355
 30
0.0
 11
230.6302539798
 21
158.4524603198
 31
0.0
  0
LINE
  5
CD
330
1F
100
AcDbEntity
  8
0
  6
Continuous
 62
     7
370
    15
100
AcDbLine
 10
226.9915498472
 20
155.0231991406
 30
0.0
 11
227.8209594811
 21
157.7882331355
 31
0.0
  0
LINE
  5
CE
330
1F
100
AcDbEntity
  8
0
  6
Continuous
 62
     7
370
    15
100
AcDbLine
 10
231.7807292109
 20
153.5866195145
 30
0.0
 11
228.9714347121
 21
152.9223923301
 31
0.0
  0
LINE
  5
CF
330
1F
100
AcDbEntity
  8
0
  6
Continuous
 62
     7
370
    15
100
AcDbLine
 10
231.7807292109
 20
153.5866195145
 30
0.0
 11
232.6101388448
 21
156.3516535093
 31
0.0
  0
LINE
  5
D0
330
1F
100
AcDbEntity
  8
0
  6
Continuous
 62
     7
370
    15
100
AcDbLine
 10
226.9915498472
 20
155.0231991406
 30
0.0
 11
228.9714347121
 21
152.9223923301
 31
0.0
  0
LINE
  5
D1
330
1F
100
AcDbEntity
  8
0
  6
Continuous
 62
     7
370
    15
100
AcDbLine
 10
210.0024289249
 20
157.5546056615
 30
0.0
 11
207.2846118966
 21
158.5276441672
 31
0.0
  0
LINE
  5
D2
330
1F
100
AcDbEntity
  8
0
  6
Continuous
 62
     7
370
    15
100
AcDbLine
 10
205.0830273176
 20
156.6604648307
 30
0.0
 11
207.2846118966
 21
158.5276441672
 31
0.0
  0
LINE
  5
D3
330
1F
100
AcDbEntity
  8
0
  6
Continuous
 62
     7
370
    15
100
AcDbLine
 10
205.599259767
 20
153.8202469884
 30
0.0
 11
205.0830273176
 21
156.6604648307
 31
0.0
  0
LINE
  5
D4
330
1F
100
AcDbEntity
  8
0
  6
Continuous
 62
     7
370
    15
100
AcDbLine
 10
205.599259767
 20
153.8202469884
 30
0.0
 11
208.3170767954
 21
152.8472084827
 31
0.0
  0
LINE
  5
D5
330
1F
100
AcDbEntity
  8
0
  6
Continuous
 62
     7
370
    15
100
AcDbLine
 10
210.5186613743
 20
154.7143878193
 30
0.0
 11
208.3170767954
 21
152.8472084827
 31
0.0
  0
LINE
  5
D6
330
1F
100
AcDbEntity
  8
0
  6
Continuous
 62
     7
370
    15
100
AcDbLine
 10
210.5186613743
 20
154.7143878193
 30
0.0
 11
210.0024289249
 21
157.5546056615
 31
0.0
  0
CIRCLE
  5
D7
330
1F
100
AcDbEntity
  8
0
  6
Continuous
 62
     7
370
    15
100
AcDbCircle
 10
207.800844346
 20
155.687426325
 30
0.0
 40
4.17199999999998
  0
SPLINE
  5
D8
330
1F
100
AcDbEntity
  8
0
  6
HIDDEN
 62
     7
370
     0
100
AcDbSpline
210
0.0
220
0.0
230
1.0
 70
     8
 71
     3
 72
    12
 73
     8
 74
     0
 42
0.00000001
 43
0.00000001
 40
0.0
 40
0.0
 40
0.0
 40
0.0
 40
0.5
 40
0.5
 40
0.75
 40
0.75
 40
1.0
 40
1.0
 40
1.0
 40
1.0
 10
199.0580933226325
 20
130.6874263249668
 30
0.0
 10
198.5031032373885
 20
128.2028247733321
 30
0.0
 10
198.0459087514219
 20
125.7128605738474
 30
0.0
 10
197.6059538202208
 20
121.9644337480466
 30
0.0
 10
197.5005554363988
 20
120.7126960059025
 30
0.0
 10
197.3847317693096
 20
118.2040126462369
 30
0.0
 10
197.3744547962956
 20
116.9470588960831
 30
0.0
 10
197.4130299777984
 20
115.6874263249668
 30
0.0
  0
SPLINE
  5
D9
330
1F
100
AcDbEntity
  8
0
  6
HIDDEN
 62
     7
370
     0
100
AcDbSpline
210
0.0
220
0.0
230
1.0
 70
     8
 71
     3
 72
    12
 73
     8
 74
     0
 42
0.00000001
 43
0.00000001
 40
0.0
 40
0.0
 40
0.0
 40
0.0
 40
0.5
 40
0.5
 40
0.75
 40
0.75
 40
1.0
 40
1.0
 40
1.0
 40
1.0
 10
201.0976503680938
 20
159.6874263249668
 30
0.0
 10
200.3226556994682
 20
154.8668938601241
 30
0.0
 10
199.6949217594628
 20
150.0420285942506
 30
0.0
 10
199.1409677779269
 20
142.7933250951355
 30
0.0
 10
199.0213923180858
 20
140.3751758908944
 30
0.0
 10
198.9297171813278
 20
135.5345383539138
 30
0.0
 10
198.9577985949311
 20
133.112044693011
 30
0.0
 10
199.0580933226325
 20
130.6874263249668
 30
0.0
  0
LINE
  5
DA
330
1F
100
AcDbEntity
  8
0
  6
HIDDEN
 62
     7
370
     0
100
AcDbLine
 10
201.0976503681
 20
159.687426325
 30
0.0
 11
201.0976503681
 21
165.687426325
 31
0.0
  0
LINE
  5
DB
330
1F
100
AcDbEntity
  8
0
  6
HIDDEN
 62
     7
370
     0
100
AcDbLine
 10
173.7656846471
 20
151.798835326
 30
0.0
 11
173.7656846471
 21
147.537426325
 31
0.0
  0
LINE
  5
DC
330
1F
100
AcDbEntity
  8
0
  6
HIDDEN
 62
     7
370
     0
100
AcDbLine
 10
231.800844346
 20
147.687426325
 30
0.0
 11
231.800844346
 21
135.687426325
 31
0.0
  0
LINE
  5
DD
330
1F
100
AcDbEntity
  8
0
  6
HIDDEN
 62
     7
370
     0
100
AcDbLine
 10
179.750844346
 20
148.5648290134
 30
0.0
 11
179.750844346
 21
147.537426325
 31
0.0
  0
SPLINE
  5
DE
330
1F
100
AcDbEntity
  8
0
  6
HIDDEN
 62
     7
370
     0
100
AcDbSpline
210
0.0
220
0.0
230
1.0
 70
     8
 71
     3
 72
    12
 73
     8
 74
     0
 42
0.00000001
 43
0.00000001
 40
0.0
 40
0.0
 40
0.0
 40
0.0
 40
0.5000000000000034
 40
0.5000000000000034
 40
0.7500000000000017
 40
0.7500000000000017
 40
1.0
 40
1.0
 40
1.0
 40
1.0
 10
192.0203854002101
 20
145.6874263249668
 30
0.0
 10
192.2532512267533
 20
145.9829376329889
 30
0.0
 10
192.5288019117804
 20
146.2422037653198
 30
0.0
 10
193.0313928039114
 20
146.5650598042257
 30
0.0
 10
193.2093722926237
 20
146.6584865002211
 30
0.0
 10
193.5884824630905
 20
146.8158136674298
 30
0.0
 10
193.7925138578883
 20
146.8802134754546
 30
0.0
 10
194.0008443459624
 20
146.9259259948738
 30
0.0
  0
LINE
  5
DF
330
1F
100
AcDbEntity
  8
0
  6
HIDDEN
 62
     7
370
     0
100
AcDbLine
 10
194.000844346
 20
150.6665751148
 30
0.0
 11
194.000844346
 21
146.9259259949
 31
0.0
  0
SPLINE
  5
E0
330
1F
100
AcDbEntity
  8
0
  6
HIDDEN
 62
     7
370
     0
100
AcDbSpline
210
0.0
220
0.0
230
1.0
 70
     8
 71
     3
 72
    16
 73
    12
 74
     0
 42
0.00000001
 43
0.00000001
 40
0.0
 40
0.0
 40
0.0
 40
0.0
 40
0.0512191929895788
 40
0.1905666292846491
 40
0.3371724122664739
 40
0.4945758853505871
 40
0.5728136534981781
 40
0.6535328418039839
 40
0.8046847930946509
 40
0.9505063792925156
 40
1.0
 40
1.0
 40
1.0
 40
1.0
 10
194.0008443459624
 20
150.6665751148441
 30
0.0
 10
193.8512809754044
 20
150.6831825659063
 30
0.0
 10
193.2948140393189
 20
150.7449724104005
 30
0.0
 10
192.3928715586369
 20
150.954989987613
 30
0.0
 10
191.4696250789973
 20
151.3114066079349
 30
0.0
 10
190.9761539028173
 20
151.6230602593866
 30
0.0
 10
190.8009591205029
 20
151.8375430388046
 30
0.0
 10
190.78607201252
 20
152.0120660738336
 30
0.0
 10
191.082030000547
 20
152.1457465106188
 30
0.0
 10
191.6252250858953
 20
152.1897485383329
 30
0.0
 10
192.1077479398734
 20
152.1843886468274
 30
0.0
 10
192.2300210772081
 20
152.1830304298129
 30
0.0
  0
SPLINE
  5
E1
330
1F
100
AcDbEntity
  8
0
  6
HIDDEN
 62
     7
370
     0
100
AcDbSpline
210
0.0
220
0.0
230
1.0
 70
     8
 71
     3
 72
    26
 73
    22
 74
     0
 42
0.00000001
 43
0.00000001
 40
0.0
 40
0.0
 40
0.0
 40
0.0
 40
0.1249999999999993
 40
0.1249999999999993
 40
0.2499999999999987
 40
0.2499999999999987
 40
0.374999999999998
 40
0.374999999999998
 40
0.4374999999999977
 40
0.4374999999999977
 40
0.4999999999999973
 40
0.4999999999999973
 40
0.562499999999997
 40
0.562499999999997
 40
0.6249999999999967
 40
0.6249999999999967
 40
0.7499999999999978
 40
0.7499999999999978
 40
0.8749999999999989
 40
0.8749999999999989
 40
1.0
 40
1.0
 40
1.0
 40
1.0
 10
209.9008443459624
 20
134.6970149429077
 30
0.0
 10
210.0045684780885
 20
134.6584777260392
 30
0.0
 10
210.1119817821924
 20
134.6601030766601
 30
0.0
 10
210.3422519834215
 20
134.7424019507097
 30
0.0
 10
210.4592080399398
 20
134.8211905248884
 30
0.0
 10
210.6982139273616
 20
135.045037793355
 30
0.0
 10
210.8168760832903
 20
135.1853554957928
 30
0.0
 10
210.9793165281545
 20
135.4328751582395
 30
0.0
 10
211.0301656788299
 20
135.5205145395239
 30
0.0
 10
211.1105966460931
 20
135.7079666760029
 30
0.0
 10
211.1386120793246
 20
135.8072575706653
 30
0.0
 10
211.1383808602779
 20
136.009104175959
 30
0.0
 10
211.1101048709308
 20
136.1061981483582
 30
0.0
 10
211.0292633437042
 20
136.2954949666847
 30
0.0
 10
210.9784955493661
 20
136.3872031361909
 30
0.0
 10
210.8171702674485
 20
136.6671217789824
 30
0.0
 10
210.696675132319
 20
136.861103218162
 30
0.0
 10
210.4609692245841
 20
137.2523531865021
 30
0.0
 10
210.3411838962884
 20
137.4542571907874
 30
0.0
 10
210.1147751101636
 20
137.8316620848698
 30
0.0
 10
210.0045507174286
 20
138.0126242755948
 30
0.0
 10
209.9008443459624
 20
138.1705490089103
 30
0.0
  0
SPLINE
  5
E2
330
1F
100
AcDbEntity
  8
0
  6
HIDDEN
 62
     7
370
     0
100
AcDbSpline
210
0.0
220
0.0
230
1.0
 70
     8
 71
     3
 72
    46
 73
    42
 74
     0
 42
0.00000001
 43
0.00000001
 40
0.0
 40
0.0
 40
0.0
 40
0.0
 40
0.1249999999999982
 40
0.1249999999999982
 40
0.1874999999999973
 40
0.1874999999999973
 40
0.2499999999999963
 40
0.2499999999999963
 40
0.2812499999999967
 40
0.2812499999999967
 40
0.3124999999999971
 40
0.3124999999999971
 40
0.3437499999999974
 40
0.3437499999999974
 40
0.3749999999999978
 40
0.3749999999999978
 40
0.4062499999999982
 40
0.4062499999999982
 40
0.4374999999999986
 40
0.4374999999999986
 40
0.499999999999999
 40
0.499999999999999
 40
0.5312499999999992
 40
0.5312499999999992
 40
0.5624999999999994
 40
0.5624999999999994
 40
0.5937499999999997
 40
0.5937499999999997
 40
0.6249999999999998
 40
0.6249999999999998
 40
0.65625
 40
0.65625
 40
0.6875000000000002
 40
0.6875000000000002
 40
0.7500000000000006
 40
0.7500000000000006
 40
0.8125000000000009
 40
0.8125000000000009
 40
0.8750000000000011
 40
0.8750000000000011
 40
1.0
 40
1.0
 40
1.0
 40
1.0
 10
209.9008443459624
 20
134.6970149429077
 30
0.0
 10
209.4186618709443
 20
134.6263796632187
 30
0.0
 10
208.9348575557299
 20
134.5720807234553
 30
0.0
 10
208.2031332185096
 20
134.5438762821647
 30
0.0
 10
207.9584153122627
 20
134.5436776364751
 30
0.0
 10
207.4734755274993
 20
134.5781073142664
 30
0.0
 10
207.2292015886462
 20
134.6129859593633
 30
0.0
 10
206.8822438752897
 20
134.7176348947138
 30
0.0
 10
206.7700887862107
 20
134.7612540644946
 30
0.0
 10
206.554790766658
 20
134.8723008974131
 30
0.0
 10
206.4543261865316
 20
134.9387015653074
 30
0.0
 10
206.2721569218248
 20
135.0919273333516
 30
0.0
 10
206.1891239820821
 20
135.1798591258013
 30
0.0
 10
206.0416235972422
 20
135.3736864998256
 30
0.0
 10
205.9784924753735
 20
135.4772664410083
 30
0.0
 10
205.8686280751955
 20
135.6952679988654
 30
0.0
 10
205.8219510574415
 20
135.81008220722
 30
0.0
 10
205.744797134403
 20
136.0401756358315
 30
0.0
 10
205.7137428632348
 20
136.1565192118323
 30
0.0
 10
205.639574337206
 20
136.5079592917211
 30
0.0
 10
205.6170178682314
 20
136.7347073431494
 30
0.0
 10
205.6180711433364
 20
137.0525935253582
 30
0.0
 10
205.6243985255193
 20
137.1526615204887
 30
0.0
 10
205.6491761195243
 20
137.3414862212191
 30
0.0
 10
205.6678656306056
 20
137.4309876249426
 30
0.0
 10
205.718543251355
 20
137.5945711769139
 30
0.0
 10
205.7501997890679
 20
137.6681839969764
 30
0.0
 10
205.8286503064875
 20
137.8001680597648
 30
0.0
 10
205.87614107009
 20
137.8590720037533
 30
0.0
 10
205.9876535358592
 20
137.958655085867
 30
0.0
 10
206.0513889594926
 20
137.9995038475834
 30
0.0
 10
206.1989067413581
 20
138.0663075293911
 30
0.0
 10
206.2840739206154
 20
138.092361602888
 30
0.0
 10
206.5618006292012
 20
138.1503513475782
 30
0.0
 10
206.7840059689397
 20
138.1649497026779
 30
0.0
 10
207.2468963876409
 20
138.1809006507816
 30
0.0
 10
207.4914544616676
 20
138.1825467518538
 30
0.0
 10
207.9754741516402
 20
138.1845786547779
 30
0.0
 10
208.2168593328866
 20
138.1844945493415
 30
0.0
 10
208.9400435145693
 20
138.1827893529507
 30
0.0
 10
209.4215817663868
 20
138.1794189071078
 30
0.0
 10
209.9008443459626
 20
138.1705490089105
 30
0.0
  0
SPLINE
  5
E3
330
1F
100
AcDbEntity
  8
0
  6
HIDDEN
 62
     7
370
     0
100
AcDbSpline
210
0.0
220
0.0
230
1.0
 70
     8
 71
     3
 72
    15
 73
    11
 74
     0
 42
0.00000001
 43
0.00000001
 40
0.0
 40
0.0
 40
0.0
 40
0.0
 40
0.1360947735241135
 40
0.2722233357654698
 40
0.4072157760377
 40
0.5405337467915902
 40
0.6745283740158747
 40
0.8104813460031202
 40
0.9466524579120685
 40
0.9999999999999999
 40
0.9999999999999999
 40
0.9999999999999999
 40
0.9999999999999999
 10
155.6250210738399
 20
123.0146160314869
 30
0.0
 10
155.4471208794834
 20
123.0385585350282
 30
0.0
 10
155.0912763228777
 20
123.0864494863986
 30
0.0
 10
154.3569530445833
 20
123.1421595545617
 30
0.0
 10
153.5775442895323
 20
123.1526105108203
 30
0.0
 10
152.8257581253343
 20
123.1154088881879
 30
0.0
 10
152.1784643878955
 20
123.0460547171079
 30
0.0
 10
151.7226649846254
 20
122.9772472931238
 30
0.0
 10
151.4964419524039
 20
122.9366512604572
 30
0.0
 10
151.5238924835934
 20
122.9415551433599
 30
0.0
 10
151.5316195243732
 20
122.9429355357067
 30
0.0
  0
SPLINE
  5
E4
330
1F
100
AcDbEntity
  8
0
  6
HIDDEN
 62
     7
370
     0
100
AcDbSpline
210
0.0
220
0.0
230
1.0
 70
     8
 71
     3
 72
    15
 73
    11
 74
     0
 42
0.00000001
 43
0.00000001
 40
0.0
 40
0.0
 40
0.0
 40
0.0
 40
0.0809850960727092
 40
0.2142994397980854
 40
0.3489242712273683
 40
0.4852277082876073
 40
0.6209655403931881
 40
0.7547097265114834
 40
0.8881684693202379
 40
1.0
 40
1.0
 40
1.0
 40
1.0
 10
151.5316195243732
 20
148.4319171142269
 30
0.0
 10
151.5286562911862
 20
148.4324254228528
 30
0.0
 10
151.5208151050574
 20
148.4337704882913
 30
0.0
 10
151.7923049935292
 20
148.386045590687
 30
0.0
 10
152.286288737169
 20
148.3148831921811
 30
0.0
 10
152.9646659179786
 20
148.2487895023489
 30
0.0
 10
153.7363063555936
 20
148.2202465865315
 30
0.0
 10
154.506674869883
 20
148.2408018013454
 30
0.0
 10
155.1681870944761
 20
148.2980668271011
 30
0.0
 10
155.4819650000228
 20
148.3407683506258
 30
0.0
 10
155.6250210738399
 20
148.3602366184467
 30
0.0
  0
SPLINE
  5
E5
330
1F
100
AcDbEntity
  8
0
  6
HIDDEN
 62
     7
370
     0
100
AcDbSpline
210
0.0
220
0.0
230
1.0
 70
     8
 71
     3
 72
     9
 73
     5
 74
     0
 42
0.00000001
 43
0.00000001
 40
0.0
 40
0.0
 40
0.0
 40
0.0
 40
0.5111544796650559
 40
0.9999999999999999
 40
0.9999999999999999
 40
0.9999999999999999
 40
0.9999999999999999
 10
155.6250210738399
 20
148.3602366184467
 30
0.0
 10
155.7650225210849
 20
148.3775808828916
 30
0.0
 10
156.0389151559237
 20
148.4115124341837
 30
0.0
 10
156.0769159514304
 20
148.4133451474385
 30
0.0
 10
156.095492470083
 20
148.4142410611032
 30
0.0
  0
SPLINE
  5
E6
330
1F
100
AcDbEntity
  8
0
  6
HIDDEN
 62
     7
370
     0
100
AcDbSpline
210
0.0
220
0.0
230
1.0
 70
     8
 71
     3
 72
    10
 73
     6
 74
     0
 42
0.00000001
 43
0.00000001
 40
0.0
 40
0.0
 40
0.0
 40
0.0
 40
0.0222582211580406
 40
0.5336176849032225
 40
1.0
 40
1.0
 40
1.0
 40
1.0
 10
156.0955101583222
 20
122.9606099543895
 30
0.0
 10
156.0972856583493
 20
122.9604468393142
 30
0.0
 10
156.1398514234807
 20
122.9565363251603
 30
0.0
 10
156.0004076220701
 20
122.9664073505476
 30
0.0
 10
155.7462527935755
 20
122.9990469565587
 30
0.0
 10
155.6250210738399
 20
123.0146160314869
 30
0.0
  0
LINE
  5
E7
330
1F
100
AcDbEntity
  8
0
  6
HIDDEN
 62
     7
370
     0
100
AcDbLine
 10
147.8034940768
 20
125.187426325
 30
0.0
 11
147.8034940768
 21
146.187426325
 31
0.0
  0
LINE
  5
E8
330
1F
100
AcDbEntity
  8
0
  6
HIDDEN
 62
     7
370
     0
100
AcDbLine
 10
165.9702195962
 20
125.187426325
 30
0.0
 11
165.9702195962
 21
146.187426325
 31
0.0
  0
LINE
  5
E9
330
1F
100
AcDbEntity
  8
0
  6
HIDDEN
 62
     7
370
     0
100
AcDbLine
 10
167.750844346
 20
125.812426325
 30
0.0
 11
167.750844346
 21
145.5624263173
 31
0.0
  0
SPLINE
  5
EA
330
1F
100
AcDbEntity
  8
0
  6
HIDDEN
 62
     7
370
     0
100
AcDbSpline
210
0.0
220
0.0
230
1.0
 70
     8
 71
     3
 72
    14
 73
    10
 74
     0
 42
0.00000001
 43
0.00000001
 40
0.0
 40
0.0
 40
0.0
 40
0.0
 40
0.2499999999999999
 40
0.2499999999999999
 40
0.4999999999999998
 40
0.4999999999999998
 40
0.7499999999999997
 40
0.7499999999999997
 40
1.0
 40
1.0
 40
1.0
 40
1.0
 10
143.5008443459624
 20
145.7116158183872
 30
0.0
 10
143.5008443459624
 20
145.6751439538534
 30
0.0
 10
143.4784737141583
 20
145.6374082013409
 30
0.0
 10
143.3912581829101
 20
145.5622724796414
 30
0.0
 10
143.3272369768334
 20
145.5259001934193
 30
0.0
 10
143.1637516790922
 20
145.4616766542572
 30
0.0
 10
143.064436804919
 20
145.4341536916348
 30
0.0
 10
142.8446105342139
 20
145.3959815247477
 30
0.0
 10
142.7236069719047
 20
145.385332026715
 30
0.0
 10
142.6008443459624
 20
145.385332026715
 30
0.0
  0
LINE
  5
EB
330
1F
100
AcDbEntity
  8
0
  6
HIDDEN
 62
     7
370
     0
100
AcDbLine
 10
142.600844346
 20
145.3853320267
 30
0.0
 11
140.850844346
 21
145.3853320267
 31
0.0
  0
ELLIPSE
  5
EC
330
1F
100
AcDbEntity
  8
0
  6
HIDDEN
 62
     7
370
     0
100
AcDbEllipse
 10
147.8223488464
 20
135.687426325
 30
0.0
 11
18.18653347947307
 21
0.0
 31
0.0
210
0.0
220
0.0
230
1.0
 40
0.5773502692
 41
4.318986348374604
 42
4.325062511992181
  0
LINE
  5
ED
330
1F
100
AcDbEntity
  8
0
  6
HIDDEN
 62
     7
370
     0
100
AcDbLine
 10
140.9530353436
 20
125.9652432368
 30
0.0
 11
145.100844346
 21
125.9652432368
 31
0.0
  0
SPLINE
  5
EE
330
1F
100
AcDbEntity
  8
0
  6
HIDDEN
 62
     7
370
     0
100
AcDbSpline
210
0.0
220
0.0
230
1.0
 70
     8
 71
     3
 72
    14
 73
    10
 74
     0
 42
0.00000001
 43
0.00000001
 40
0.0
 40
0.0
 40
0.0
 40
0.0
 40
0.25
 40
0.25
 40
0.5
 40
0.5
 40
0.75
 40
0.75
 40
1.0
 40
1.0
 40
1.0
 40
1.0
 10
145.1008443459624
 20
125.9652432367916
 30
0.0
 10
145.2233124338813
 20
125.9652432367916
 30
0.0
 10
145.3435235127501
 20
125.9549062170717
 30
0.0
 10
145.5637298320028
 20
125.9174389884937
 30
0.0
 10
145.6633852847008
 20
125.8903078202045
 30
0.0
 10
145.8263726376566
 20
125.8275407739977
 30
0.0
 10
145.891109998403
 20
125.7914770800707
 30
0.0
 10
145.9779453485201
 20
125.7182844102027
 30
0.0
 10
146.0008443459624
 20
125.6807416246917
 30
0.0
 10
146.0008443459624
 20
125.6450339805102
 30
0.0
  0
LINE
  5
EF
330
1F
100
AcDbEntity
  8
0
  6
HIDDEN
 62
     7
370
     0
100
AcDbLine
 10
140.850844346
 20
125.9895206232
 30
0.0
 11
140.850844346
 21
145.3853320267
 31
0.0
  0
LINE
  5
F0
330
1F
100
AcDbEntity
  8
0
  6
HIDDEN
 62
     7
370
     0
100
AcDbLine
 10
143.500844346
 20
146.687426325
 30
0.0
 11
143.500844346
 21
149.2449504467
 31
0.0
  0
LINE
  5
F1
330
1F
100
AcDbEntity
  8
0
  6
HIDDEN
 62
     7
370
     0
100
AcDbLine
 10
146.000844346
 20
124.687426325
 30
0.0
 11
146.000844346
 21
122.0506796269
 31
0.0
  0
LINE
  5
F2
330
1F
100
AcDbEntity
  8
0
  6
HIDDEN
 62
     7
370
     0
100
AcDbLine
 10
140.850844346
 20
146.687426325
 30
0.0
 11
140.850844346
 21
148.5530068719
 31
0.0
  0
LINE
  5
F3
330
1F
100
AcDbEntity
  8
0
  6
HIDDEN
 62
     7
370
     0
100
AcDbLine
 10
140.9530353436
 20
124.687426325
 30
0.0
 11
140.9530353436
 21
122.8377926255
 31
0.0
  0
LINE
  5
F4
330
1F
100
AcDbEntity
  8
0
  6
HIDDEN
 62
     7
370
     0
100
AcDbLine
 10
175.600844346
 20
129.437426325
 30
0.0
 11
175.600844346
 21
141.937426325
 31
0.0
  0
LINE
  5
F5
330
1F
100
AcDbEntity
  8
0
  6
HIDDEN
 62
     7
370
     0
100
AcDbLine
 10
173.100844346
 20
129.437426325
 30
0.0
 11
173.100844346
 21
141.937426325
 31
0.0
  0
LINE
  5
F6
330
1F
100
AcDbEntity
  8
0
  6
HIDDEN
 62
     7
370
     0
100
AcDbLine
 10
168.250844346
 20
130.187426325
 30
0.0
 11
168.250844346
 21
141.187426325
 31
0.0
  0
LINE
  5
F7
330
1F
100
AcDbEntity
  8
0
  6
HIDDEN
 62
     7
370
     0
100
AcDbLine
 10
174.7960667465
 20
118.787426325
 30
0.0
 11
172.250844346
 21
118.787426325
 31
0.0
  0
LINE
  5
F8
330
1F
100
AcDbEntity
  8
0
  6
HIDDEN
 62
     7
370
     0
100
AcDbLine
 10
167.750844346
 20
115.7124419695
 30
0.0
 11
167.750844346
 21
118.787426325
 31
0.0
  0
LINE
  5
F9
330
1F
100
AcDbEntity
  8
0
  6
HIDDEN
 62
     7
370
     0
100
AcDbLine
 10
172.250844346
 20
118.787426325
 30
0.0
 11
167.750844346
 21
118.787426325
 31
0.0
  0
LINE
  5
FA
330
1F
100
AcDbEntity
  8
0
  6
HIDDEN
 62
     7
370
     0
100
AcDbLine
 10
179.750844346
 20
118.787426325
 30
0.0
 11
176.8056219454
 21
118.787426325
 31
0.0
  0
SPLINE
  5
FB
330
1F
100
AcDbEntity
  8
0
  6
HIDDEN
 62
     7
370
     0
100
AcDbSpline
210
0.0
220
0.0
230
1.0
 70
     8
 71
     3
 72
     8
 73
     4
 74
     0
 42
0.00000001
 43
0.00000001
 40
0.0000002426067713
 40
0.0000002426067713
 40
0.0000002426067713
 40
0.0000002426067713
 40
0.0011546267702572
 40
0.0011546267702572
 40
0.0011546267702572
 40
0.0011546267702572
 10
139.9008443459624
 20
125.6299799946748
 30
0.0
 10
140.2180565823105
 20
125.7478874735817
 30
0.0
 10
140.5347508236404
 20
125.8676730779189
 30
0.0
 10
140.8508443459624
 20
125.9895206232186
 30
0.0
  0
SPLINE
  5
FC
330
1F
100
AcDbEntity
  8
0
  6
HIDDEN
 62
     7
370
     0
100
AcDbSpline
210
0.0
220
0.0
230
1.0
 70
     8
 71
     3
 72
     8
 73
     4
 74
     0
 42
0.00000001
 43
0.00000001
 40
0.0000002434653511
 40
0.0000002434653511
 40
0.0000002434653511
 40
0.0000002434653511
 40
0.001154627628837
 40
0.001154627628837
 40
0.001154627628837
 40
0.001154627628837
 10
140.8508443459624
 20
145.385332026715
 30
0.0
 10
140.5347508236404
 20
145.5071795720147
 30
0.0
 10
140.2180565823105
 20
145.6269651763519
 30
0.0
 10
139.9008443459624
 20
145.7448726552588
 30
0.0
  0
LINE
  5
FD
330
1F
100
AcDbEntity
  8
0
  6
HIDDEN
 62
     7
370
     0
100
AcDbLine
 10
179.7509064691
 20
152.587426325
 30
0.0
 11
176.5924999602
 21
152.587426325
 31
0.0
  0
LINE
  5
FE
330
1F
100
AcDbEntity
  8
0
  6
HIDDEN
 62
     7
370
     0
100
AcDbLine
 10
175.0091887317
 20
152.587426325
 30
0.0
 11
172.250844346
 21
152.587426325
 31
0.0
  0
LINE
  5
FF
330
1F
100
AcDbEntity
  8
0
  6
HIDDEN
 62
     7
370
     0
100
AcDbLine
 10
172.250844346
 20
152.587426325
 30
0.0
 11
167.750844346
 21
152.587426325
 31
0.0
  0
LINE
  5
100
330
1F
100
AcDbEntity
  8
0
  6
HIDDEN
 62
     7
370
     0
100
AcDbLine
 10
140.850844346
 20
146.687426325
 30
0.0
 11
140.850844346
 21
145.3853320267
 31
0.0
  0
LINE
  5
101
330
1F
100
AcDbEntity
  8
0
  6
HIDDEN
 62
     7
370
     0
100
AcDbLine
 10
143.500844346
 20
146.687426325
 30
0.0
 11
143.500844346
 21
145.7116158184
 31
0.0
  0
LINE
  5
102
330
1F
100
AcDbEntity
  8
0
  6
HIDDEN
 62
     7
370
     0
100
AcDbLine
 10
140.9530353436
 20
124.687426325
 30
0.0
 11
140.9530353436
 21
125.9652432368
 31
0.0
  0
LINE
  5
103
330
1F
100
AcDbEntity
  8
0
  6
HIDDEN
 62
     7
370
     0
100
AcDbLine
 10
146.000844346
 20
124.687426325
 30
0.0
 11
146.000844346
 21
125.6450339805
 31
0.0
  0
LINE
  5
104
330
1F
100
AcDbEntity
  8
0
  6
HIDDEN
 62
     7
370
     0
100
AcDbLine
 10
236.7264541625
 20
137.262426325
 30
0.0
 11
236.7264541625
 21
134.112426325
 31
0.0
  0
SPLINE
  5
105
330
1F
100
AcDbEntity
  8
0
  6
HIDDEN
 62
     7
370
     0
100
AcDbSpline
210
0.0
220
0.0
230
1.0
 70
     8
 71
     3
 72
    10
 73
     6
 74
     0
 42
0.00000001
 43
0.00000001
 40
0.0
 40
0.0
 40
0.0
 40
0.0
 40
0.3400730362577959
 40
0.6293644246946748
 40
0.9999999999999999
 40
0.9999999999999999
 40
0.9999999999999999
 40
0.9999999999999999
 10
151.8852180910145
 20
121.4816016602315
 30
0.0
 10
152.0047029197593
 20
121.4960782556073
 30
0.0
 10
152.2258304202814
 20
121.5228697184662
 30
0.0
 10
152.6948063830417
 20
121.5594932674764
 30
0.0
 10
153.0577668236919
 20
121.5659031143715
 30
0.0
 10
153.2616167330373
 20
121.5695030844016
 30
0.0
  0
SPLINE
  5
106
330
1F
100
AcDbEntity
  8
0
  6
HIDDEN
 62
     7
370
     0
100
AcDbSpline
210
0.0
220
0.0
230
1.0
 70
     8
 71
     3
 72
    37
 73
    33
 74
     0
 42
0.00000001
 43
0.00000001
 40
0.0
 40
0.0
 40
0.0
 40
0.0
 40
0.0182586628885279
 40
0.1154090050457524
 40
0.2139294914360246
 40
0.2660910631538326
 40
0.2931604263273462
 40
0.3069445071363225
 40
0.3138990523725434
 40
0.3173919625395292
 40
0.319142327921936
 40
0.3200184882700956
 40
0.3204568128667062
 40
0.3206760362715556
 40
0.3207856632507231
 40
0.320840480559505
 40
0.3208678901686975
 40
0.3208815952119939
 40
0.3208884477933174
 40
0.3208918740988977
 40
0.320893587255418
 40
0.3208953004144242
 40
0.3331446396631055
 40
0.4256258219800607
 40
0.5299897819765862
 40
0.6308653701080229
 40
0.6837256450692067
 40
0.7381615964001534
 40
0.7733808346553752
 40
0.8425286720566825
 40
0.9464647028916731
 40
1.0
 40
1.0
 40
1.0
 40
1.0
 10
155.6598726464937
 20
121.2621760521783
 30
0.0
 10
155.6919800013619
 20
121.2542172587461
 30
0.0
 10
155.8949235521912
 20
121.2039114703659
 30
0.0
 10
156.1069308413618
 20
121.1391364006492
 30
0.0
 10
156.1152957134385
 20
121.1391204070163
 30
0.0
 10
155.9708555582342
 20
121.1798436439778
 30
0.0
 10
155.8593637801384
 20
121.2096666232985
 30
0.0
 10
155.7928513336023
 20
121.2272042650142
 30
0.0
 10
155.756868663302
 20
121.2366309246044
 30
0.0
 10
155.7381881483261
 20
121.2415110465065
 30
0.0
 10
155.728675116253
 20
121.2439928886968
 30
0.0
 10
155.7238753163436
 20
121.2452442834187
 30
0.0
 10
155.7214645875844
 20
121.2458726010784
 30
0.0
 10
155.7202565147655
 20
121.2461874153625
 30
0.0
 10
155.7196518011174
 20
121.2463449864029
 30
0.0
 10
155.7193492749655
 20
121.2464238129028
 30
0.0
 10
155.7191979695555
 20
121.2464632363988
 30
0.0
 10
155.7191223062665
 20
121.2464829507076
 30
0.0
 10
155.7190844719763
 20
121.2464928085033
 30
0.0
 10
155.7190655541694
 20
121.2464977375599
 30
0.0
 10
155.7190547438015
 20
121.2465005542127
 30
0.0
 10
155.6997251803971
 20
121.2515368724726
 30
0.0
 10
155.5291536991973
 20
121.2976893980084
 30
0.0
 10
155.0909361623086
 20
121.3946521420654
 30
0.0
 10
154.2881065307318
 20
121.5271035597846
 30
0.0
 10
153.5232050634671
 20
121.5735523570768
 30
0.0
 10
152.9417364599573
 20
121.5718659319812
 30
0.0
 10
152.5743776475767
 20
121.5545661401692
 30
0.0
 10
152.2083884903973
 20
121.5206389925565
 30
0.0
 10
151.8131985416794
 20
121.4767109822439
 30
0.0
 10
151.5155170025988
 20
121.4230529340759
 30
0.0
 10
151.5332180732487
 20
121.4273528021414
 30
0.0
 10
151.5392358803552
 20
121.4288146220004
 30
0.0
  0
LINE
  5
107
330
1F
100
AcDbEntity
  8
0
  6
HIDDEN
 62
     7
370
     0
100
AcDbLine
 10
151.885215715
 20
149.8931799634
 30
0.0
 11
151.674762746
 21
149.9238523997
 31
0.0
  0
SPLINE
  5
108
330
1F
100
AcDbEntity
  8
0
  6
HIDDEN
 62
     7
370
     0
100
AcDbSpline
210
0.0
220
0.0
230
1.0
 70
     8
 71
     3
 72
    32
 73
    28
 74
     0
 42
0.00000001
 43
0.00000001
 40
0.0
 40
0.0
 40
0.0
 40
0.0
 40
0.0077123945712008
 40
0.0638473621960428
 40
0.099178617029803
 40
0.1408144244440724
 40
0.1887575526818296
 40
0.2785607791671497
 40
0.2937323388244756
 40
0.3054074654707177
 40
0.3135859226015962
 40
0.3786909626362943
 40
0.4419331805041485
 40
0.5034196539765182
 40
0.5632669472176821
 40
0.5893531123938218
 40
0.6189058686391875
 40
0.6519297069743233
 40
0.6884275089241827
 40
0.7414885015945617
 40
0.7805737007737493
 40
0.7954662034135079
 40
0.8065152109058997
 40
0.8137204611087677
 40
0.8791933076126717
 40
0.9417028499699142
 40
1.0
 40
1.0
 40
1.0
 40
1.0
 10
151.5054788224816
 20
149.951878845152
 30
0.0
 10
151.5039477334078
 20
149.9521826428124
 30
0.0
 10
151.4912725522116
 20
149.9546976437085
 30
0.0
 10
151.5322702055529
 20
149.9484866874234
 30
0.0
 10
151.6101302804104
 20
149.934074497602
 30
0.0
 10
151.7224359061132
 20
149.9156997070188
 30
0.0
 10
151.9366189600686
 20
149.8844120657459
 30
0.0
 10
152.1880532610055
 20
149.856018794169
 30
0.0
 10
152.4084049394124
 20
149.8359108528346
 30
0.0
 10
152.4767519947635
 20
149.8300136541364
 30
0.0
 10
152.6461957978462
 20
149.8166746015378
 30
0.0
 10
152.9408272687818
 20
149.8030040271839
 30
0.0
 10
153.3848258499502
 20
149.801796557247
 30
0.0
 10
153.8319141079186
 20
149.8196722900732
 30
0.0
 10
154.187164529777
 20
149.8499180986103
 30
0.0
 10
154.4562777070175
 20
149.8830418570385
 30
0.0
 10
154.657385587673
 20
149.9116142332283
 30
0.0
 10
154.87321189385
 20
149.9462475243569
 30
0.0
 10
155.1251182374375
 20
149.9922422466182
 30
0.0
 10
155.3655880064628
 20
150.0416304902796
 30
0.0
 10
155.5402390074325
 20
150.0821008094489
 30
0.0
 10
155.6362373473058
 20
150.1063933478205
 30
0.0
 10
155.6826229270742
 20
150.1186520880877
 30
0.0
 10
155.7952456295267
 20
150.1485157960855
 30
0.0
 10
155.9463042024338
 20
150.1877745855674
 30
0.0
 10
156.0776708846088
 20
150.2247642242965
 30
0.0
 10
156.0927318571903
 20
150.229940412207
 30
0.0
 10
156.0999997639663
 20
150.2324382622618
 30
0.0
  0
LINE
  5
109
330
1F
100
AcDbEntity
  8
0
  6
HIDDEN
 62
     7
370
     0
100
AcDbLine
 10
152.164362258
 20
149.8615251635
 30
0.0
 11
151.885215715
 21
149.8931799634
 31
0.0
  0
LINE
  5
10A
330
1F
100
AcDbEntity
  8
0
  6
HIDDEN
 62
     7
370
     0
100
AcDbLine
 10
209.900844346
 20
134.6970149429
 30
0.0
 11
209.900844346
 21
133.187426325
 31
0.0
  0
LINE
  5
10B
330
1F
100
AcDbEntity
  8
0
  6
HIDDEN
 62
     7
370
     0
100
AcDbLine
 10
209.900844346
 20
134.6970149429
 30
0.0
 11
209.900844346
 21
138.1705490089
 31
0.0
  0
LINE
  5
10C
330
1F
100
AcDbEntity
  8
0
  6
HIDDEN
 62
     7
370
     0
100
AcDbLine
 10
209.900844346
 20
138.187426325
 30
0.0
 11
209.900844346
 21
138.1705490089
 31
0.0
  0
LINE
  5
10D
330
1F
100
AcDbEntity
  8
0
  6
HIDDEN
 62
     7
370
     0
100
AcDbLine
 10
234.8101710199
 20
137.262426325
 30
0.0
 11
234.8101710199
 21
134.112426325
 31
0.0
  0
LINE
  5
10E
330
1F
100
AcDbEntity
  8
0
  6
HIDDEN
 62
     7
370
     0
100
AcDbLine
 10
239.800844346
 20
145.687426325
 30
0.0
 11
194.800844346
 21
145.687426325
 31
0.0
  0
LINE
  5
10F
330
1F
100
AcDbEntity
  8
0
  6
HIDDEN
 62
     7
370
     0
100
AcDbLine
 10
194.800844346
 20
145.687426325
 30
0.0
 11
194.800844346
 21
149.8046965342
 31
0.0
  0
SPLINE
  5
110
330
1F
100
AcDbEntity
  8
0
  6
HIDDEN
 62
     7
370
     0
100
AcDbSpline
210
0.0
220
0.0
230
1.0
 70
     8
 71
     3
 72
     8
 73
     4
 74
     0
 42
0.00000001
 43
0.00000001
 40
0.0
 40
0.0
 40
0.0
 40
0.0
 40
1.0
 40
1.0
 40
1.0
 40
1.0
 10
194.0008443459624
 20
150.6665751148441
 30
0.0
 10
194.2605926125929
 20
150.3755503775429
 30
0.0
 10
194.5266043805472
 20
150.0877394387086
 30
0.0
 10
194.8008443459624
 20
149.8046965342423
 30
0.0
  0
LINE
  5
111
330
1F
100
AcDbEntity
  8
0
  6
HIDDEN
 62
     7
370
     0
100
AcDbLine
 10
194.800844346
 20
145.687426325
 30
0.0
 11
190.800844346
 21
145.687426325
 31
0.0
  0
LINE
  5
112
330
1F
100
AcDbEntity
  8
0
  6
HIDDEN
 62
     7
370
     0
100
AcDbLine
 10
176.840844346
 20
149.2032735052
 30
0.0
 11
176.840844346
 21
147.537426325
 31
0.0
  0
LINE
  5
113
330
1F
100
AcDbEntity
  8
0
  6
HIDDEN
 62
     7
370
     0
100
AcDbLine
 10
174.760844346
 20
149.2032735052
 30
0.0
 11
174.760844346
 21
147.537426325
 31
0.0
  0
LINE
  5
114
330
1F
100
AcDbEntity
  8
0
  6
HIDDEN
 62
     7
370
     0
100
AcDbLine
 10
177.8360040449
 20
151.798835326
 30
0.0
 11
177.8360040449
 21
147.537426325
 31
0.0
  0
SPLINE
  5
115
330
1F
100
AcDbEntity
  8
0
  6
HIDDEN
 62
     7
370
     0
100
AcDbSpline
210
0.0
220
0.0
230
1.0
 70
     8
 71
     3
 72
     8
 73
     4
 74
     0
 42
0.00000001
 43
0.00000001
 40
0.0
 40
0.0
 40
0.0
 40
0.0
 40
1.0
 40
1.0
 40
1.0
 40
1.0
 10
194.8008443459624
 20
145.9000321707682
 30
0.0
 10
194.5504836528137
 20
146.2572242572151
 30
0.0
 10
194.2845720769556
 20
146.6001398544733
 30
0.0
 10
194.0008443459624
 20
146.9259259948738
 30
0.0
  0
CIRCLE
  5
116
330
1F
100
AcDbEntity
  8
0
  6
HIDDEN
 62
     7
370
     0
100
AcDbCircle
 10
166.800844346
 20
135.687426325
 30
0.0
 40
5.0
  0
LINE
  5
117
330
1F
100
AcDbEntity
  8
0
  6
HIDDEN
 62
     7
370
     0
100
AcDbLine
 10
239.800844346
 20
159.687426325
 30
0.0
 11
201.0976503681
 21
159.687426325
 31
0.0
  0
LWPOLYLINE
  5
118
330
1F
100
AcDbEntity
  8
0
  6
HIDDEN
 62
     7
370
     0
100
AcDbPolyline
 90
       34
 70
   128
 43
0.0
 10
234.367928776
 20
138.2498790621
 10
234.3434103644
 20
138.1147924573
 10
234.3149632047
 20
138.105405666
 10
234.2836154515
 20
138.2220579513
 10
234.2505000941
 20
138.4605331957
 10
234.216814008
 20
138.8122122825
 10
234.183774696
 20
139.2643846133
 10
234.1525762849
 20
139.8007075018
 10
234.1243463666
 20
140.4017968415
 10
234.1001052439
 20
141.0459276976
 10
234.0807290541
 20
141.7098195026
 10
234.0669181032
 20
142.369477477
 10
234.059171555
 20
143.0010598628
 10
234.05776939
 20
143.581739627
 10
234.0627622859
 20
144.0905294901
 10
234.0739697865
 20
144.5090404607
 10
234.0909868236
 20
144.8221464619
 10
234.1131983571
 20
145.0185310271
 10
234.1398016043
 20
145.0910963063
 10
234.1698350545
 20
145.0372196014
 10
234.2022132207
 20
144.8588481569
 10
234.2357658714
 20
144.5624287814
 10
234.2692803266
 20
144.1586748435
 10
234.3015452864
 20
143.6621790625
 10
234.3313946111
 20
143.0908860896
 10
234.3577494684
 20
142.4654439412
 10
234.3796573251
 20
141.8084577262
 10
234.3963263742
 20
141.1436726382
 10
234.4071541527
 20
140.4951157422
 10
234.4117493166
 20
139.8862275744
 10
234.4099457847
 20
139.3390149396
 10
234.4018087413
 20
138.8732555281
 10
234.3876322803
 20
138.5057830986
 10
234.367928776
 20
138.2498790621
  0
LWPOLYLINE
  5
119
330
1F
100
AcDbEntity
  8
0
  6
HIDDEN
 62
     7
370
     0
100
AcDbPolyline
 90
       26
 70
   128
 43
0.0
 10
235.7128455907
 20
139.6241474042
 10
235.6929011422
 20
139.5330224589
 10
235.6691874662
 20
139.5736474068
 10
235.6431945802
 20
139.7434696331
 10
235.6165557129
 20
140.0318185828
 10
235.5909446823
 20
140.4205762309
 10
235.5679707235
 20
140.8853155046
 10
235.549077375
 20
141.3968351261
 10
235.5354517753
 20
141.9229944364
 10
235.5279500708
 20
142.430732911
 10
235.5270436214
 20
142.8881474741
 10
235.5327893826
 20
143.2664970865
 10
235.544826327
 20
143.5420086506
 10
235.5623981292
 20
143.6973707615
 10
235.5844006882
 20
143.7228214465
 10
235.6094515023
 20
143.6167615453
 10
235.6359765367
 20
143.3858551918
 10
235.662309126
 20
143.0446110811
 10
235.6867946968
 20
142.6144708359
 10
235.7078947305
 20
142.1224617497
 10
235.7242834345
 20
141.5994985629
 10
235.7349310461
 20
141.0784409758
 10
235.7391685369
 20
140.5920289529
 10
235.7367296497
 20
140.1708255505
 10
235.7277676287
 20
139.8412965274
 10
235.7128455907
 20
139.6241474042
  0
LWPOLYLINE
  5
11A
330
1F
100
AcDbEntity
  8
0
  6
HIDDEN
 62
     7
370
     0
100
AcDbPolyline
 90
       26
 70
   128
 43
0.0
 10
241.2760876106
 20
139.7719580383
 10
241.2561431621
 20
139.680833093
 10
241.2324294861
 20
139.7214580409
 10
241.2064366002
 20
139.8912802672
 10
241.1797977329
 20
140.1796292169
 10
241.1541867022
 20
140.568386865
 10
241.1312127435
 20
141.0331261387
 10
241.1123193949
 20
141.5446457602
 10
241.0986937952
 20
142.0708050705
 10
241.0911920908
 20
142.578543545
 10
241.0902856414
 20
143.0359581081
 10
241.0960314025
 20
143.4143077205
 10
241.108068347
 20
143.6898192846
 10
241.1256401491
 20
143.8451813956
 10
241.1476427081
 20
143.8706320805
 10
241.1726935222
 20
143.7645721794
 10
241.1992185567
 20
143.5336658258
 10
241.225551146
 20
143.1924217152
 10
241.2500367167
 20
142.76228147
 10
241.2711367504
 20
142.2702723838
 10
241.2875254544
 20
141.747309197
 10
241.2981730661
 20
141.2262516099
 10
241.3024105569
 20
140.7398395869
 10
241.2999716696
 20
140.3186361845
 10
241.2910096486
 20
139.9891071615
 10
241.2760876106
 20
139.7719580383
  0
LINE
  5
11B
330
1F
100
AcDbEntity
  8
0
  6
HIDDEN
 62
     7
370
     0
100
AcDbLine
 10
231.800844346
 20
135.687426325
 30
0.0
 11
231.800844346
 21
147.687426325
 31
0.0
  0
LINE
  5
11C
330
1F
100
AcDbEntity
  8
0
  6
HIDDEN
 62
     7
370
     0
100
AcDbLine
 10
234.2301301317
 20
138.187426325
 30
0.0
 11
234.2301301317
 21
145.187426325
 31
0.0
  0
CIRCLE
  5
11D
330
1F
100
AcDbEntity
  8
0
  6
HIDDEN
 62
     7
370
     0
100
AcDbCircle
 10
229.800844346
 20
155.687426325
 30
0.0
 40
4.99999999999999
  0
CIRCLE
  5
11E
330
1F
100
AcDbEntity
  8
0
  6
HIDDEN
 62
     7
370
     0
100
AcDbCircle
 10
229.800844346
 20
155.687426325
 30
0.0
 40
3.499999999999993
  0
CIRCLE
  5
11F
330
1F
100
AcDbEntity
  8
0
  6
HIDDEN
 62
     7
370
     0
100
AcDbCircle
 10
207.800844346
 20
155.687426325
 30
0.0
 40
5.000000000000009
  0
CIRCLE
  5
120
330
1F
100
AcDbEntity
  8
0
  6
HIDDEN
 62
     7
370
     0
100
AcDbCircle
 10
207.800844346
 20
155.687426325
 30
0.0
 40
3.500000000000007
  0
LINE
  5
121
330
1F
100
AcDbEntity
  8
0
  6
HIDDEN
 62
     7
370
     0
100
AcDbLine
 10
239.800844346
 20
147.687426325
 30
0.0
 11
231.800844346
 21
147.687426325
 31
0.0
  0
LINE
  5
122
330
1F
100
AcDbEntity
  8
0
  6
HIDDEN
 62
     7
370
     0
100
AcDbLine
 10
231.800844346
 20
135.687426325
 30
0.0
 11
239.800844346
 21
135.687426325
 31
0.0
  0
LINE
  5
123
330
1F
100
AcDbEntity
  8
0
  6
HIDDEN
 62
     7
370
     0
100
AcDbLine
 10
159.800844346
 20
119.4802256399
 30
0.0
 11
159.8950051215
 21
120.1502143711
 31
0.0
  0
LINE
  5
124
330
1F
100
AcDbEntity
  8
0
  6
HIDDEN
 62
     7
370
     0
100
AcDbLine
 10
159.8950051215
 20
151.2246382788
 30
0.0
 11
159.800844346
 21
151.89462701
 31
0.0
  0
ARC
  5
125
330
1F
100
AcDbEntity
  8
0
  6
HIDDEN
 62
     7
370
     0
100
AcDbCircle
 10
159.3008375933
 20
120.2337191715
 30
0.0
 40
0.6000067526677062
100
AcDbArc
 50
352.0
 51
0.0
  0
ARC
  5
126
330
1F
100
AcDbEntity
  8
0
  6
HIDDEN
 62
     7
370
     0
100
AcDbCircle
 10
159.3008375933
 20
120.2337191715
 30
0.0
 40
0.6000067526676967
100
AcDbArc
 50
0.0
 51
33.5571153394
  0
ARC
  5
127
330
1F
100
AcDbEntity
  8
0
  6
HIDDEN
 62
     7
370
     0
100
AcDbCircle
 10
159.3008375933
 20
151.1411334784
 30
0.0
 40
0.6000067526677081
100
AcDbArc
 50
348.75
 51
8.0
  0
LWPOLYLINE
  5
128
330
1F
100
AcDbEntity
  8
0
  6
HIDDEN
 62
     7
370
     0
100
AcDbPolyline
 90
        3
 70
   128
 43
0.0
 10
159.8893153845
 20
151.0240779678
 10
159.8551715515
 20
150.9115208349
 10
159.800844346
 20
150.8094689634
  0
LINE
  5
129
330
1F
100
AcDbEntity
  8
0
  6
HIDDEN
 62
     7
370
     0
100
AcDbLine
 10
159.900844346
 20
120.2337191715
 30
0.0
 11
159.900844346
 21
151.1411334784
 31
0.0
  0
LINE
  5
12A
330
1F
100
AcDbEntity
  8
0
  6
HIDDEN
 62
     7
370
     0
100
AcDbLine
 10
210.169609032
 20
134.6838499794
 30
0.0
 11
231.800844346
 21
139.7272553206
 31
0.0
  0
LINE
  5
12B
330
1F
100
AcDbEntity
  8
0
  6
HIDDEN
 62
     7
370
     0
100
AcDbLine
 10
231.800844346
 20
144.0399021748
 30
0.0
 11
206.3550518863
 21
138.1071182289
 31
0.0
  0
LINE
  5
12C
330
1F
100
AcDbEntity
  8
0
  6
HIDDEN
 62
     7
370
     0
100
AcDbLine
 10
149.3334722901
 20
122.937426325
 30
0.0
 11
151.5316195244
 21
122.937426325
 31
0.0
  0
LINE
  5
12D
330
1F
100
AcDbEntity
  8
0
  6
HIDDEN
 62
     7
370
     0
100
AcDbLine
 10
151.5316195244
 20
148.437426325
 30
0.0
 11
149.3334722901
 21
148.437426325
 31
0.0
  0
ARC
  5
12E
330
1F
100
AcDbEntity
  8
0
  6
HIDDEN
 62
     7
370
     0
100
AcDbCircle
 10
149.3334722901
 20
123.337426325
 30
0.0
 40
0.3999999999999998
100
AcDbArc
 50
210.0
 51
270.0
  0
ARC
  5
12F
330
1F
100
AcDbEntity
  8
0
  6
HIDDEN
 62
     7
370
     0
100
AcDbCircle
 10
149.3334722901
 20
148.037426325
 30
0.0
 40
0.4000000000000057
100
AcDbArc
 50
90.0
 51
150.0
  0
ARC
  5
130
330
1F
100
AcDbEntity
  8
0
  6
HIDDEN
 62
     7
370
     0
100
AcDbCircle
 10
155.6250210738
 20
127.937426325
 30
0.0
 40
4.999999999999986
100
AcDbArc
 50
275.3872896071
 51
326.6329870308
  0
ARC
  5
131
330
1F
100
AcDbEntity
  8
0
  6
HIDDEN
 62
     7
370
     0
100
AcDbCircle
 10
155.6250210738
 20
143.437426325
 30
0.0
 40
4.999999999999986
100
AcDbArc
 50
33.3670129692
 51
84.6102326627
  0
LINE
  5
132
330
1F
100
AcDbEntity
  8
0
  6
HIDDEN
 62
     7
370
     0
100
AcDbLine
 10
148.9870621286
 20
148.237426325
 30
0.0
 11
147.8034940768
 21
146.187426325
 31
0.0
  0
LINE
  5
133
330
1F
100
AcDbEntity
  8
0
  6
HIDDEN
 62
     7
370
     0
100
AcDbLine
 10
147.8034940768
 20
125.187426325
 30
0.0
 11
148.9870621286
 21
123.137426325
 31
0.0
  0
ARC
  5
134
330
1F
100
AcDbEntity
  8
0
  6
HIDDEN
 62
     7
370
     0
100
AcDbCircle
 10
166.750844346
 20
125.812426325
 30
0.0
 40
1.000000000000019
100
AcDbArc
 50
218.6821874535
 51
0.0
  0
ARC
  5
135
330
1F
100
AcDbEntity
  8
0
  6
HIDDEN
 62
     7
370
     0
100
AcDbCircle
 10
166.750844346
 20
145.562426325
 30
0.0
 40
1.000000000000028
100
AcDbArc
 50
0.0
 51
141.3178125465
  0
LINE
  5
136
330
1F
100
AcDbEntity
  8
0
  6
HIDDEN
 62
     7
370
     0
100
AcDbLine
 10
146.000844346
 20
125.187426325
 30
0.0
 11
147.8034940768
 21
125.187426325
 31
0.0
  0
LINE
  5
137
330
1F
100
AcDbEntity
  8
0
  6
HIDDEN
 62
     7
370
     0
100
AcDbLine
 10
147.8034940768
 20
146.187426325
 30
0.0
 11
143.500844346
 21
146.187426325
 31
0.0
  0
LINE
  5
138
330
1F
100
AcDbEntity
  8
0
  6
HIDDEN
 62
     7
370
     0
100
AcDbLine
 10
159.800844346
 20
125.187426325
 30
0.0
 11
165.9702195962
 21
125.187426325
 31
0.0
  0
LINE
  5
139
330
1F
100
AcDbEntity
  8
0
  6
HIDDEN
 62
     7
370
     0
100
AcDbLine
 10
165.9702195962
 20
146.187426325
 30
0.0
 11
159.800844346
 21
146.187426325
 31
0.0
  0
LINE
  5
13A
330
1F
100
AcDbEntity
  8
0
  6
HIDDEN
 62
     7
370
     0
100
AcDbLine
 10
173.100844346
 20
129.437426325
 30
0.0
 11
175.600844346
 21
129.437426325
 31
0.0
  0
LINE
  5
13B
330
1F
100
AcDbEntity
  8
0
  6
HIDDEN
 62
     7
370
     0
100
AcDbLine
 10
175.600844346
 20
141.937426325
 30
0.0
 11
173.100844346
 21
141.937426325
 31
0.0
  0
LINE
  5
13C
330
1F
100
AcDbEntity
  8
0
  6
HIDDEN
 62
     7
370
     0
100
AcDbLine
 10
167.750844346
 20
129.687426325
 30
0.0
 11
168.250844346
 21
130.187426325
 31
0.0
  0
LINE
  5
13D
330
1F
100
AcDbEntity
  8
0
  6
HIDDEN
 62
     7
370
     0
100
AcDbLine
 10
168.250844346
 20
141.187426325
 30
0.0
 11
167.750844346
 21
141.687426325
 31
0.0
  0
LINE
  5
13E
330
1F
100
AcDbEntity
  8
0
  6
HIDDEN
 62
     7
370
     0
100
AcDbLine
 10
168.250844346
 20
130.187426325
 30
0.0
 11
173.100844346
 21
130.187426325
 31
0.0
  0
LINE
  5
13F
330
1F
100
AcDbEntity
  8
0
  6
HIDDEN
 62
     7
370
     0
100
AcDbLine
 10
173.100844346
 20
141.187426325
 30
0.0
 11
168.250844346
 21
141.187426325
 31
0.0
  0
LINE
  5
140
330
1F
100
AcDbEntity
  8
0
  6
HIDDEN
 62
     7
370
     0
100
AcDbLine
 10
167.750844346
 20
155.687426325
 30
0.0
 11
167.750844346
 21
152.587426325
 31
0.0
  0
LINE
  5
141
330
1F
100
AcDbEntity
  8
0
  6
HIDDEN
 62
     7
370
     0
100
AcDbLine
 10
239.800844346
 20
139.037426325
 30
0.0
 11
236.7264541625
 21
137.262426325
 31
0.0
  0
LINE
  5
142
330
1F
100
AcDbEntity
  8
0
  6
HIDDEN
 62
     7
370
     0
100
AcDbLine
 10
236.7264541625
 20
134.112426325
 30
0.0
 11
239.800844346
 21
132.337426325
 31
0.0
  0
LINE
  5
143
330
1F
100
AcDbEntity
  8
0
  6
HIDDEN
 62
     7
370
     0
100
AcDbLine
 10
156.5680235904
 20
120.6461217115
 30
0.0
 11
156.1000950023
 21
121.1419581924
 31
0.0
  0
LINE
  5
144
330
1F
100
AcDbEntity
  8
0
  6
HIDDEN
 62
     7
370
     0
100
AcDbLine
 10
151.5021899871
 20
121.4218119061
 30
0.0
 11
150.9847162712
 21
120.9259865933
 31
0.0
  0
LINE
  5
145
330
1F
100
AcDbEntity
  8
0
  6
HIDDEN
 62
     7
370
     0
100
AcDbLine
 10
150.9840820393
 20
150.4489159979
 30
0.0
 11
151.5017682873
 21
149.9530289513
 31
0.0
  0
LINE
  5
146
330
1F
100
AcDbEntity
  8
0
  6
HIDDEN
 62
     7
370
     0
100
AcDbLine
 10
156.0994091223
 20
150.2326764844
 30
0.0
 11
156.5673130185
 21
150.7285703571
 31
0.0
  0
LINE
  5
147
330
1F
100
AcDbEntity
  8
0
  6
HIDDEN
 62
     7
370
     0
100
AcDbLine
 10
175.600844346
 20
133.187426325
 30
0.0
 11
209.900844346
 21
133.187426325
 31
0.0
  0
LINE
  5
148
330
1F
100
AcDbEntity
  8
0
  6
HIDDEN
 62
     7
370
     0
100
AcDbLine
 10
209.900844346
 20
138.187426325
 30
0.0
 11
175.600844346
 21
138.187426325
 31
0.0
  0
LINE
  5
149
330
1F
100
AcDbEntity
  8
0
  6
HIDDEN
 62
     7
370
     0
100
AcDbLine
 10
209.900844346
 20
133.187426325
 30
0.0
 11
211.4029958935
 21
135.687426325
 31
0.0
  0
LINE
  5
14A
330
1F
100
AcDbEntity
  8
0
  6
HIDDEN
 62
     7
370
     0
100
AcDbLine
 10
210.2743509631
 20
137.5658069255
 30
0.0
 11
209.900844346
 21
138.187426325
 31
0.0
  0
LINE
  5
14B
330
1F
100
AcDbEntity
  8
0
  6
HIDDEN
 62
     7
370
     0
100
AcDbLine
 10
211.4029958935
 20
135.687426325
 30
0.0
 11
210.2743509631
 21
137.5658069255
 31
0.0
  0
LINE
  5
14C
330
1F
100
AcDbEntity
  8
0
  6
HIDDEN
 62
     7
370
     0
100
AcDbLine
 10
156.100844346
 20
121.1540136749
 30
0.0
 11
156.100844346
 21
122.9605718648
 31
0.0
  0
LINE
  5
14D
330
1F
100
AcDbEntity
  8
0
  6
HIDDEN
 62
     7
370
     0
100
AcDbLine
 10
151.500844346
 20
122.9429291465
 30
0.0
 11
151.500844346
 21
121.4288183134
 31
0.0
  0
LINE
  5
14E
330
1F
100
AcDbEntity
  8
0
  6
HIDDEN
 62
     7
370
     0
100
AcDbLine
 10
156.100844346
 20
148.4142807851
 30
0.0
 11
156.100844346
 21
150.2324659304
 31
0.0
  0
LINE
  5
14F
330
1F
100
AcDbEntity
  8
0
  6
HIDDEN
 62
     7
370
     0
100
AcDbLine
 10
151.500844346
 20
149.9519235935
 30
0.0
 11
151.500844346
 21
148.4319235035
 31
0.0
  0
LINE
  5
150
330
1F
100
AcDbEntity
  8
0
  6
HIDDEN
 62
     7
370
     0
100
AcDbLine
 10
236.7264541625
 20
137.262426325
 30
0.0
 11
234.8101710199
 21
137.262426325
 31
0.0
  0
LINE
  5
151
330
1F
100
AcDbEntity
  8
0
  6
HIDDEN
 62
     7
370
     0
100
AcDbLine
 10
234.8101710199
 20
134.112426325
 30
0.0
 11
236.7264541625
 21
134.112426325
 31
0.0
  0
LINE
  5
152
330
1F
100
AcDbEntity
  8
0
  6
HIDDEN
 62
     7
370
     0
100
AcDbLine
 10
234.8101710199
 20
137.262426325
 30
0.0
 11
233.900844346
 21
135.687426325
 31
0.0
  0
LINE
  5
153
330
1F
100
AcDbEntity
  8
0
  6
HIDDEN
 62
     7
370
     0
100
AcDbLine
 10
233.900844346
 20
135.687426325
 30
0.0
 11
234.8101710199
 21
134.112426325
 31
0.0
  0
LINE
  5
154
330
1F
100
AcDbEntity
  8
0
  6
HIDDEN
 62
     7
370
     0
100
AcDbLine
 10
190.800844346
 20
151.90840732
 30
0.0
 11
190.800844346
 21
145.687426325
 31
0.0
  0
ARC
  5
155
330
1F
100
AcDbEntity
  8
0
  6
HIDDEN
 62
     7
370
     0
100
AcDbCircle
 10
237.800844346
 20
141.687426325
 30
0.0
 40
5.00000000000002
100
AcDbArc
 50
225.8945127504
 51
271.5219423349
  0
ARC
  5
156
330
1F
100
AcDbEntity
  8
0
  6
HIDDEN
 62
     7
370
     0
100
AcDbCircle
 10
237.800844346
 20
141.687426325
 30
0.0
 40
4.999999999999999
100
AcDbArc
 50
66.4218215218
 51
137.1493719193
  0
ARC
  5
157
330
1F
100
AcDbEntity
  8
0
  6
HIDDEN
 62
     7
370
     0
100
AcDbCircle
 10
237.800844346
 20
141.687426325
 30
0.0
 40
5.000000000000021
100
AcDbArc
 50
271.5219423349
 51
293.5781784782
  0
LINE
  5
158
330
1F
100
AcDbEntity
  8
0
  6
HIDDEN
 62
     7
370
     0
100
AcDbLine
 10
234.3340918251
 20
138.0973444143
 30
0.0
 11
235.6925434201
 21
139.5326266156
 31
0.0
  0
LINE
  5
159
330
1F
100
AcDbEntity
  8
0
  6
HIDDEN
 62
     7
370
     0
100
AcDbLine
 10
235.5810962655
 20
143.7272334337
 30
0.0
 11
234.1483465674
 21
145.0883557779
 31
0.0
  0
LINE
  5
15A
330
1F
100
AcDbEntity
  8
0
  6
HIDDEN
 62
     7
370
     0
100
AcDbLine
 10
241.5246551594
 20
144.2849171344
 30
0.0
 11
241.1365261323
 21
143.8748365055
 31
0.0
  0
LINE
  5
15B
330
1F
100
AcDbEntity
  8
0
  6
HIDDEN
 62
     7
370
     0
100
AcDbLine
 10
241.2479732869
 20
139.6802296874
 30
0.0
 11
241.6573303435
 21
139.291337589
 31
0.0
  0
LINE
  5
15C
330
1F
100
AcDbEntity
  8
0
  6
HIDDEN
 62
     7
370
     0
100
AcDbLine
 10
235.6886893066
 20
139.5305670672
 30
0.0
 11
241.2519313266
 21
139.6783777013
 31
0.0
  0
LINE
  5
15D
330
1F
100
AcDbEntity
  8
0
  6
HIDDEN
 62
     7
370
     0
100
AcDbLine
 10
241.1403802458
 20
143.8768960538
 30
0.0
 11
235.5771382258
 21
143.7290854197
 31
0.0
  0
LINE
  5
15E
330
1F
100
AcDbEntity
  8
0
  6
HIDDEN
 62
     7
370
     0
100
AcDbLine
 10
231.800844346
 20
135.687426325
 30
0.0
 11
239.800844346
 21
135.687426325
 31
0.0
  0
LINE
  5
15F
330
1F
100
AcDbEntity
  8
0
  6
HIDDEN
 62
     7
370
     0
100
AcDbLine
 10
239.800844346
 20
147.687426325
 30
0.0
 11
231.800844346
 21
147.687426325
 31
0.0
  0
ARC
  5
160
330
1F
100
AcDbEntity
  8
0
  6
HIDDEN
 62
     7
370
     0
100
AcDbCircle
 10
237.800844346
 20
141.687426325
 30
0.0
 40
5.000000000000036
100
AcDbArc
 50
224.4270040008
 51
270.0
  0
ARC
  5
161
330
1F
100
AcDbEntity
  8
0
  6
HIDDEN
 62
     7
370
     0
100
AcDbCircle
 10
237.800844346
 20
141.687426325
 30
0.0
 40
5.000000000000016
100
AcDbArc
 50
66.4218215218
 51
135.5729959992
  0
ARC
  5
162
330
1F
100
AcDbEntity
  8
0
  6
HIDDEN
 62
     7
370
     0
100
AcDbCircle
 10
237.800844346
 20
141.687426325
 30
0.0
 40
5.000000000000028
100
AcDbArc
 50
270.0
 51
293.5781784782
  0
LINE
  5
163
330
1F
100
AcDbEntity
  8
0
  6
HIDDEN
 62
     7
370
     0
100
AcDbLine
 10
231.800844346
 20
138.187426325
 30
0.0
 11
234.2301301317
 21
138.187426325
 31
0.0
  0
LINE
  5
164
330
1F
100
AcDbEntity
  8
0
  6
HIDDEN
 62
     7
370
     0
100
AcDbLine
 10
234.2301301317
 20
145.187426325
 30
0.0
 11
231.800844346
 21
145.187426325
 31
0.0
  0
DIMENSION
  5
165
330
1F
100
AcDbEntity
  8
VERMASSUNG
100
AcDbDimension
  2
*D1
 10
239.800844346
 20
176.414513735
 30
0.0
 11
199.8735001476
 21
176.414513735
 31
0.0
 70
   160
 71
     2
 42
-1.0
  3
SLDDIMSTYLE0
100
AcDbAlignedDimension
 13
159.800844346
 23
155.387426325
 33
0.0
 14
239.800844346
 24
165.687426325
 34
0.0
100
AcDbRotatedDimension
  0
DIMENSION
  5
170
330
1F
100
AcDbEntity
  8
VERMASSUNG
100
AcDbDimension
  2
*D2
 10
133.7362822511
 20
115.687426325
 30
0.0
 11
133.7362822511
 21
135.8688258938
 31
0.0
 70
   160
  1
HSK T %%c<>
 71
     2
 42
-1.0
  3
SLDDIMSTYLE0
100
AcDbAlignedDimension
 13
160.100844346
 23
155.687426325
 33
0.0
 14
160.100844346
 24
115.687426325
 34
0.0
 50
90.0
100
AcDbRotatedDimension
  0
DIMENSION
  5
17C
330
1F
100
AcDbEntity
  8
VERMASSUNG
100
AcDbDimension
  2
*D3
 10
239.800844346
 20
181.687426325
 30
0.0
 11
189.4961007637
 21
181.687426325
 31
0.0
 70
   160
 71
     2
 42
-1.0
  3
SLDDIMSTYLE0
100
AcDbAlignedDimension
 13
139.900844346
 23
147.9563655582
 33
0.0
 14
239.800844346
 24
165.687426325
 34
0.0
100
AcDbRotatedDimension
  0
LINE
  5
186
330
1F
100
AcDbEntity
  8
VERMASSUNG
  6
CENTERX2
 62
     7
370
     0
100
AcDbLine
 10
137.8190360057
 20
135.687426325
 30
0.0
 11
241.800844346
 21
135.687426325
 31
0.0
  0
LINE
  5
187
330
1F
100
AcDbEntity
  8
VERMASSUNG
  6
CENTERX2
 62
     7
370
     0
100
AcDbLine
 10
232.235414615
 20
141.5395575653
 30
0.0
 11
243.5949372962
 21
141.841370473
 31
0.0
  0
LINE
  5
188
330
1F
100
AcDbEntity
  8
0
  6
Continuous
 62
     7
370
    15
100
AcDbLine
 10
198.9540568286
 20
100.3060332368
 30
0.0
 11
194.9994431843
 21
85.5472141917
 31
0.0
  0
LINE
  5
189
330
1F
100
AcDbEntity
  8
0
  6
Continuous
 62
     7
370
    15
100
AcDbLine
 10
194.9994431843
 20
51.0648522819
 30
0.0
 11
195.7386665195
 21
48.3060332368
 31
0.0
  0
LINE
  5
18A
330
1F
100
AcDbEntity
  8
0
  6
Continuous
 62
     7
370
    15
100
AcDbLine
 10
160.100844346
 20
48.3060332368
 30
0.0
 11
173.7656846471
 21
48.3060332368
 31
0.0
  0
LINE
  5
18B
330
1F
100
AcDbEntity
  8
0
  6
Continuous
 62
     7
370
    15
100
AcDbLine
 10
161.800844346
 20
88.3060332368
 30
0.0
 11
160.100844346
 21
88.3060332368
 31
0.0
  0
LINE
  5
18C
330
1F
100
AcDbEntity
  8
0
  6
Continuous
 62
     7
370
    15
100
AcDbLine
 10
173.7656846471
 20
88.3060332368
 30
0.0
 11
171.7912897312
 21
88.3060332368
 31
0.0
  0
ARC
  5
18D
330
1F
100
AcDbEntity
  8
0
  6
Continuous
 62
     7
370
    15
100
AcDbCircle
 10
160.100844346
 20
48.6060332368
 30
0.0
 40
0.3000000000000114
100
AcDbArc
 50
180.0
 51
270.0
  0
ARC
  5
18E
330
1F
100
AcDbEntity
  8
0
  6
Continuous
 62
     7
370
    15
100
AcDbCircle
 10
160.100844346
 20
88.0060332368
 30
0.0
 40
0.3000000000000114
100
AcDbArc
 50
90.0
 51
180.0
  0
ARC
  5
18F
330
1F
100
AcDbEntity
  8
0
  6
Continuous
 62
     7
370
    15
100
AcDbCircle
 10
179.150844346
 20
87.7060332368
 30
0.0
 40
0.6000000000000085
100
AcDbArc
 50
0.0
 51
90.0
  0
LINE
  5
190
330
1F
100
AcDbEntity
  8
0
  6
Continuous
 62
     7
370
    15
100
AcDbLine
 10
179.150844346
 20
88.3060332368
 30
0.0
 11
177.8360040449
 21
88.3060332368
 31
0.0
  0
LINE
  5
191
330
1F
100
AcDbEntity
  8
0
  6
Continuous
 62
     7
370
    15
100
AcDbLine
 10
177.8360040449
 20
88.3060332368
 30
0.0
 11
176.840844346
 21
86.5823660766
 31
0.0
  0
LINE
  5
192
330
1F
100
AcDbEntity
  8
0
  6
Continuous
 62
     7
370
    15
100
AcDbLine
 10
174.760844346
 20
86.5823660766
 30
0.0
 11
173.7656846471
 21
88.3060332368
 31
0.0
  0
ARC
  5
193
330
1F
100
AcDbEntity
  8
0
  6
Continuous
 62
     7
370
    15
100
AcDbCircle
 10
176.240844346
 20
86.2810332368
 30
0.0
 40
0.5999999999999943
100
AcDbArc
 50
270.0
 51
0.0
  0
ARC
  5
194
330
1F
100
AcDbEntity
  8
0
  6
Continuous
 62
     7
370
    15
100
AcDbCircle
 10
175.360844346
 20
86.2810332368
 30
0.0
 40
0.5999999999999943
100
AcDbArc
 50
180.0
 51
270.0
  0
ARC
  5
195
330
1F
100
AcDbEntity
  8
0
  6
Continuous
 62
     7
370
    15
100
AcDbCircle
 10
194.033517358
 20
85.8060332368
 30
0.0
 40
1.0
100
AcDbArc
 50
270.0
 51
345.0
  0
ARC
  5
196
330
1F
100
AcDbEntity
  8
0
  6
Continuous
 62
     7
370
    15
100
AcDbCircle
 10
194.033517358
 20
50.8060332368
 30
0.0
 40
1.0
100
AcDbArc
 50
15.0
 51
90.0
  0
ARC
  5
197
330
1F
100
AcDbEntity
  8
0
  6
Continuous
 62
     7
370
    15
100
AcDbCircle
 10
180.750844346
 20
50.8060332368
 30
0.0
 40
1.0
100
AcDbArc
 50
90.0
 51
180.0
  0
ARC
  5
198
330
1F
100
AcDbEntity
  8
0
  6
Continuous
 62
     7
370
    15
100
AcDbCircle
 10
180.750844346
 20
85.8060332368
 30
0.0
 40
1.0
100
AcDbArc
 50
180.0
 51
270.0
  0
LINE
  5
199
330
1F
100
AcDbEntity
  8
0
  6
Continuous
 62
     7
370
    15
100
AcDbLine
 10
176.240844346
 20
85.6810332368
 30
0.0
 11
175.360844346
 21
85.6810332368
 31
0.0
  0
LINE
  5
19A
330
1F
100
AcDbEntity
  8
0
  6
Continuous
 62
     7
370
    15
100
AcDbLine
 10
180.750844346
 20
51.8060332368
 30
0.0
 11
194.033517358
 21
51.8060332368
 31
0.0
  0
LINE
  5
19B
330
1F
100
AcDbEntity
  8
0
  6
Continuous
 62
     7
370
    15
100
AcDbLine
 10
194.033517358
 20
84.8060332368
 30
0.0
 11
180.750844346
 21
84.8060332368
 31
0.0
  0
ARC
  5
19C
330
1F
100
AcDbEntity
  8
0
  6
Continuous
 62
     7
370
    15
100
AcDbCircle
 10
159.3008375933
 20
52.8523260833
 30
0.0
 40
0.60000675266771
100
AcDbArc
 50
33.5571153394
 51
90.0
  0
ARC
  5
19D
330
1F
100
AcDbEntity
  8
0
  6
Continuous
 62
     7
370
    15
100
AcDbCircle
 10
159.3008375933
 20
83.7597403902
 30
0.0
 40
0.60000675266771
100
AcDbArc
 50
270.0
 51
326.4428846606
  0
LINE
  5
19E
330
1F
100
AcDbEntity
  8
0
  6
Continuous
 62
     7
370
    15
100
AcDbLine
 10
157.800844346
 20
83.4097336376
 30
0.0
 11
140.6608143924
 21
82.551014702
 31
0.0
  0
LINE
  5
19F
330
1F
100
AcDbEntity
  8
0
  6
Continuous
 62
     7
370
    15
100
AcDbLine
 10
140.6608143924
 20
54.0610517715
 30
0.0
 11
157.800844346
 21
53.202332836
 31
0.0
  0
LINE
  5
1A0
330
1F
100
AcDbEntity
  8
0
  6
Continuous
 62
     7
370
    15
100
AcDbLine
 10
157.800844346
 20
53.202332836
 30
0.0
 11
158.6575562606
 21
53.4318881017
 31
0.0
  0
LINE
  5
1A1
330
1F
100
AcDbEntity
  8
0
  6
Continuous
 62
     7
370
    15
100
AcDbLine
 10
158.6575562606
 20
83.1801783719
 30
0.0
 11
157.800844346
 21
83.4097336376
 31
0.0
  0
ARC
  5
1A2
330
1F
100
AcDbEntity
  8
0
  6
Continuous
 62
     7
370
    15
100
AcDbCircle
 10
158.8128494354
 20
52.8523260833
 30
0.0
 40
0.6000067526677096
100
AcDbArc
 50
90.0
 51
105.0
  0
ARC
  5
1A3
330
1F
100
AcDbEntity
  8
0
  6
Continuous
 62
     7
370
    15
100
AcDbCircle
 10
158.8128494354
 20
83.7597403902
 30
0.0
 40
0.60000675266771
100
AcDbArc
 50
255.0
 51
270.0
  0
LINE
  5
1A4
330
1F
100
AcDbEntity
  8
0
  6
Continuous
 62
     7
370
    15
100
AcDbLine
 10
158.8128494354
 20
53.452332836
 30
0.0
 11
159.3008375933
 21
53.452332836
 31
0.0
  0
LINE
  5
1A5
330
1F
100
AcDbEntity
  8
0
  6
Continuous
 62
     7
370
    15
100
AcDbLine
 10
159.3008375933
 20
83.1597336376
 30
0.0
 11
158.8128494354
 21
83.1597336376
 31
0.0
  0
ARC
  5
1A6
330
1F
100
AcDbEntity
  8
0
  6
Continuous
 62
     7
370
    15
100
AcDbCircle
 10
140.700844346
 20
81.7520168279
 30
0.0
 40
0.8000000000000114
100
AcDbArc
 50
92.8681319407
 51
180.0
  0
ARC
  5
1A7
330
1F
100
AcDbEntity
  8
0
  6
Continuous
 62
     7
370
    15
100
AcDbCircle
 10
140.700844346
 20
54.8600496456
 30
0.0
 40
0.8000000000000114
100
AcDbArc
 50
180.0
 51
267.1318680593
  0
ARC
  5
1A8
330
1F
100
AcDbEntity
  8
0
  6
Continuous
 62
     7
370
    15
100
AcDbCircle
 10
175.360844346
 20
50.3310332368
 30
0.0
 40
0.6000000000000085
100
AcDbArc
 50
90.0
 51
180.0
  0
ARC
  5
1A9
330
1F
100
AcDbEntity
  8
0
  6
Continuous
 62
     7
370
    15
100
AcDbCircle
 10
176.240844346
 20
50.3310332368
 30
0.0
 40
0.6000000000000085
100
AcDbArc
 50
0.0
 51
90.0
  0
LINE
  5
1AA
330
1F
100
AcDbEntity
  8
0
  6
Continuous
 62
     7
370
    15
100
AcDbLine
 10
175.360844346
 20
50.9310332368
 30
0.0
 11
176.240844346
 21
50.9310332368
 31
0.0
  0
LINE
  5
1AB
330
1F
100
AcDbEntity
  8
0
  6
Continuous
 62
     7
370
    15
100
AcDbLine
 10
176.840844346
 20
50.0297003969
 30
0.0
 11
177.8360040449
 21
48.3060332368
 31
0.0
  0
ARC
  5
1AC
330
1F
100
AcDbEntity
  8
0
  6
Continuous
 62
     7
370
    15
100
AcDbCircle
 10
179.150844346
 20
48.9060332368
 30
0.0
 40
0.6000000000000085
100
AcDbArc
 50
270.0
 51
0.0
  0
LINE
  5
1AD
330
1F
100
AcDbEntity
  8
0
  6
Continuous
 62
     7
370
    15
100
AcDbLine
 10
177.8360040449
 20
48.3060332368
 30
0.0
 11
179.150844346
 21
48.3060332368
 31
0.0
  0
LINE
  5
1AE
330
1F
100
AcDbEntity
  8
0
  6
Continuous
 62
     7
370
    15
100
AcDbLine
 10
173.7656846471
 20
48.3060332368
 30
0.0
 11
174.760844346
 21
50.0297003969
 31
0.0
  0
ARC
  5
1AF
330
1F
100
AcDbEntity
  8
0
  6
Continuous
 62
     7
370
    15
100
AcDbCircle
 10
237.800844346
 20
56.3060332368
 30
0.0
 40
4.999999999999996
100
AcDbArc
 50
38.0460169123
 51
66.4218215218
  0
ARC
  5
1B0
330
1F
100
AcDbEntity
  8
0
  6
Continuous
 62
     7
370
    15
100
AcDbCircle
 10
237.800844346
 20
56.3060332368
 30
0.0
 40
4.999999999999996
100
AcDbArc
 50
293.5781784782
 51
317.0100151415
  0
LINE
  5
1B1
330
1F
100
AcDbEntity
  8
0
  6
Continuous
 62
     7
370
    15
100
AcDbLine
 10
234.300844346
 20
67.3060332368
 30
0.0
 11
233.300844346
 21
68.3060332368
 31
0.0
  0
LINE
  5
1B2
330
1F
100
AcDbEntity
  8
0
  6
Continuous
 62
     7
370
    15
100
AcDbLine
 10
226.300844346
 20
68.3060332368
 30
0.0
 11
225.300844346
 21
67.3060332368
 31
0.0
  0
LINE
  5
1B3
330
1F
100
AcDbEntity
  8
0
  6
Continuous
 62
     7
370
    15
100
AcDbLine
 10
212.300844346
 20
67.3060332368
 30
0.0
 11
211.300844346
 21
68.3060332368
 31
0.0
  0
LINE
  5
1B4
330
1F
100
AcDbEntity
  8
0
  6
Continuous
 62
     7
370
    15
100
AcDbLine
 10
204.300844346
 20
68.3060332368
 30
0.0
 11
203.300844346
 21
67.3060332368
 31
0.0
  0
SPLINE
  5
1B5
330
1F
100
AcDbEntity
  8
0
  6
Continuous
 62
     7
370
    15
100
AcDbSpline
210
0.0
220
0.0
230
1.0
 70
     8
 71
     3
 72
    12
 73
     8
 74
     0
 42
0.00000001
 43
0.00000001
 40
0.0
 40
0.0
 40
0.0
 40
0.0
 40
0.4999999999999999
 40
0.4999999999999999
 40
0.7499999999999998
 40
0.7499999999999998
 40
1.0
 40
1.0
 40
1.0
 40
1.0
 10
198.4226230238396
 20
67.30603323676976
 30
0.0
 10
198.450839542672
 20
64.14511417580383
 30
0.0
 10
198.6154873249112
 20
60.97919071331163
 30
0.0
 10
199.0363029283231
 20
56.22392879324852
 30
0.0
 10
199.2050764171786
 20
54.63731620890797
 30
0.0
 10
199.5904471560202
 20
51.46432011896915
 30
0.0
 10
199.8063296077934
 20
49.88307872350725
 30
0.0
 10
200.0407281961447
 20
48.30603323676976
 30
0.0
  0
SPLINE
  5
1B6
330
1F
100
AcDbEntity
  8
0
  6
Continuous
 62
     7
370
    15
100
AcDbSpline
210
0.0
220
0.0
230
1.0
 70
    24
 71
     3
 72
    14
 73
    10
 74
     0
 42
0.00000001
 43
0.00000001
 40
0.0
 40
0.0
 40
0.0
 40
0.0
 40
0.0836453022887489
 40
0.2089859920619667
 40
0.3343399568756431
 40
0.461816895549058
 40
0.5893029842630783
 40
0.8448016865533311
 40
1.0
 40
1.0
 40
1.0
 40
1.0
 10
195.7601643832054
 20
48.30603323676986
 30
0.0
 10
195.7599957585143
 20
48.30603323676985
 30
0.0
 10
195.7595744533437
 20
48.30603323676985
 30
0.0
 10
195.9790335344418
 20
48.30603323676985
 30
0.0
 10
196.3650368970725
 20
48.30603323676982
 30
0.0
 10
196.8975794468556
 20
48.30603323676981
 30
0.0
 10
197.7520113383387
 20
48.30603323676979
 30
0.0
 10
198.8110161798672
 20
48.30603323676976
 30
0.0
 10
199.7034763739275
 20
48.30603323676976
 30
0.0
 10
200.0407281961447
 20
48.30603323676976
 30
0.0
  0
SPLINE
  5
1B7
330
1F
100
AcDbEntity
  8
0
  6
Continuous
 62
     7
370
    15
100
AcDbSpline
210
0.0
220
0.0
230
1.0
 70
    24
 71
     3
 72
    11
 73
     7
 74
     0
 42
0.00000001
 43
0.00000001
 40
0.0
 40
0.0
 40
0.0
 40
0.0
 40
0.3001771497126563
 40
0.6008157073671013
 40
0.9035491124913241
 40
1.0
 40
1.0
 40
1.0
 40
1.0
 10
201.0976503680938
 20
100.3060332367698
 30
0.0
 10
200.7333235951699
 20
100.3060332367698
 30
0.0
 10
200.0041100357881
 20
100.3060332367698
 30
0.0
 10
199.2894289731337
 20
100.3060332367698
 30
0.0
 10
198.9322312777067
 20
100.3060332367698
 30
0.0
 10
198.9888552499093
 20
100.3060332367699
 30
0.0
 10
199.0025367310547
 20
100.3060332367699
 30
0.0
  0
LINE
  5
1B8
330
1F
100
AcDbEntity
  8
0
  6
Continuous
 62
     7
370
    15
100
AcDbLine
 10
201.0976503681
 20
100.3060332368
 30
0.0
 11
201.0976503681
 21
94.7635463474
 31
0.0
  0
SPLINE
  5
1B9
330
1F
100
AcDbEntity
  8
0
  6
Continuous
 62
     7
370
    15
100
AcDbSpline
210
0.0
220
0.0
230
1.0
 70
     8
 71
     3
 72
     8
 73
     4
 74
     0
 42
0.00000001
 43
0.00000001
 40
0.0
 40
0.0
 40
0.0
 40
0.0
 40
1.0
 40
1.0
 40
1.0
 40
1.0
 10
201.0976503680938
 20
94.76354634741566
 30
0.0
 10
200.716679532964
 20
92.61398299736051
 30
0.0
 10
200.36086977955
 20
90.45996190493072
 30
0.0
 10
200.0407281961447
 20
88.30603323676975
 30
0.0
  0
SPLINE
  5
1BA
330
1F
100
AcDbEntity
  8
0
  6
Continuous
 62
     7
370
    15
100
AcDbSpline
210
0.0
220
0.0
230
1.0
 70
    24
 71
     3
 72
    12
 73
     8
 74
     0
 42
0.00000001
 43
0.00000001
 40
0.0
 40
0.0
 40
0.0
 40
0.0
 40
0.25
 40
0.25
 40
0.5
 40
0.5
 40
1.0
 40
1.0
 40
1.0
 40
1.0
 10
196.3712087587705
 20
88.30603323676982
 30
0.0
 10
196.5724061293103
 20
88.3060332367698
 30
0.0
 10
196.8135567182327
 20
88.30603323676982
 30
0.0
 10
197.3521354274618
 20
88.30603323676979
 30
0.0
 10
197.6496692238673
 20
88.30603323676979
 30
0.0
 10
198.5979696841755
 20
88.30603323676978
 30
0.0
 10
199.3027168990514
 20
88.30603323676976
 30
0.0
 10
200.0407281961447
 20
88.30603323676975
 30
0.0
  0
SPLINE
  5
1BB
330
1F
100
AcDbEntity
  8
0
  6
Continuous
 62
     7
370
    15
100
AcDbSpline
210
0.0
220
0.0
230
1.0
 70
     8
 71
     3
 72
     8
 73
     4
 74
     0
 42
0.00000001
 43
0.00000001
 40
0.0
 40
0.0
 40
0.0
 40
0.0
 40
1.0
 40
1.0
 40
1.0
 40
1.0
 10
196.3712087587705
 20
88.30603323676982
 30
0.0
 10
195.8962954935763
 20
86.32442930888415
 30
0.0
 10
195.4337054896664
 20
84.34042464440611
 30
0.0
 10
194.9994431842724
 20
82.35090136429257
 30
0.0
  0
LINE
  5
1BC
330
1F
100
AcDbEntity
  8
0
  6
Continuous
 62
     7
370
    15
100
AcDbLine
 10
198.4226230238
 20
67.3060332368
 30
0.0
 11
194.9994431843
 21
67.3060332368
 31
0.0
  0
LINE
  5
1BD
330
1F
100
AcDbEntity
  8
0
  6
Continuous
 62
     7
370
    15
100
AcDbLine
 10
201.0976503681
 20
94.7635463474
 30
0.0
 11
239.800844346
 21
94.7635463474
 31
0.0
  0
LINE
  5
1BE
330
1F
100
AcDbEntity
  8
0
  6
Continuous
 62
     7
370
    15
100
AcDbLine
 10
239.800844346
 20
100.3060332368
 30
0.0
 11
201.0976503681
 21
100.3060332368
 31
0.0
  0
LINE
  5
1BF
330
1F
100
AcDbEntity
  8
0
  6
Continuous
 62
     7
370
    15
100
AcDbLine
 10
239.800844346
 20
100.3060332368
 30
0.0
 11
239.800844346
 21
94.7635463474
 31
0.0
  0
LINE
  5
1C0
330
1F
100
AcDbEntity
  8
0
  6
Continuous
 62
     7
370
    15
100
AcDbLine
 10
200.0407281961
 20
88.3060332368
 30
0.0
 11
239.800844346
 21
88.3060332368
 31
0.0
  0
LINE
  5
1C1
330
1F
100
AcDbEntity
  8
0
  6
Continuous
 62
     7
370
    15
100
AcDbLine
 10
239.800844346
 20
94.7635463474
 30
0.0
 11
239.800844346
 21
88.3060332368
 31
0.0
  0
LINE
  5
1C2
330
1F
100
AcDbEntity
  8
0
  6
Continuous
 62
     7
370
    15
100
AcDbLine
 10
200.0407281961
 20
48.3060332368
 30
0.0
 11
239.800844346
 21
48.3060332368
 31
0.0
  0
LINE
  5
1C3
330
1F
100
AcDbEntity
  8
0
  6
Continuous
 62
     7
370
    15
100
AcDbLine
 10
239.800844346
 20
67.3060332368
 30
0.0
 11
198.4226230238
 21
67.3060332368
 31
0.0
  0
LINE
  5
1C4
330
1F
100
AcDbEntity
  8
0
  6
Continuous
 62
     7
370
    15
100
AcDbLine
 10
239.800844346
 20
67.3060332368
 30
0.0
 11
239.800844346
 21
48.3060332368
 31
0.0
  0
LINE
  5
1C5
330
1F
100
AcDbEntity
  8
0
  6
Continuous
 62
     7
370
    15
100
AcDbLine
 10
167.750844346
 20
52.1946242357
 30
0.0
 11
173.7656846471
 21
52.1946242357
 31
0.0
  0
LINE
  5
1C6
330
1F
100
AcDbEntity
  8
0
  6
Continuous
 62
     7
370
    15
100
AcDbLine
 10
173.7656846471
 20
48.3060332368
 30
0.0
 11
173.7656846471
 21
52.1946242357
 31
0.0
  0
LINE
  5
1C7
330
1F
100
AcDbEntity
  8
0
  6
Continuous
 62
     7
370
    15
100
AcDbLine
 10
173.7656846471
 20
72.8060332368
 30
0.0
 11
173.7656846471
 21
88.3060332368
 31
0.0
  0
LINE
  5
1C8
330
1F
100
AcDbEntity
  8
0
  6
Continuous
 62
     7
370
    15
100
AcDbLine
 10
172.250844346
 20
72.8060332368
 30
0.0
 11
173.7656846471
 21
72.8060332368
 31
0.0
  0
SPLINE
  5
1C9
330
1F
100
AcDbEntity
  8
0
  6
Continuous
 62
     7
370
    15
100
AcDbSpline
210
0.0
220
0.0
230
1.0
 70
     8
 71
     3
 72
    38
 73
    34
 74
     0
 42
0.00000001
 43
0.00000001
 40
0.0
 40
0.0
 40
0.0
 40
0.0
 40
0.0625
 40
0.0625
 40
0.125
 40
0.125
 40
0.1875
 40
0.1875
 40
0.25
 40
0.25
 40
0.3125
 40
0.3125
 40
0.375
 40
0.375
 40
0.4375
 40
0.4375
 40
0.5
 40
0.5
 40
0.5625
 40
0.5625
 40
0.625
 40
0.625
 40
0.6875
 40
0.6875
 40
0.75
 40
0.75
 40
0.8125
 40
0.8125
 40
0.875
 40
0.875
 40
0.9375
 40
0.9375
 40
1.0
 40
1.0
 40
1.0
 40
1.0
 10
172.2508443459624
 20
63.80603323676979
 30
0.0
 10
171.9525713726086
 20
63.80603323676979
 30
0.0
 10
171.6594796130548
 20
63.83539365934129
 30
0.0
 10
171.0831719112711
 20
63.9502472498486
 30
0.0
 10
170.7969092757947
 20
64.03719933259313
 30
0.0
 10
170.2525258423698
 20
64.26331221647776
 30
0.0
 10
169.9944815090515
 20
64.40153754095147
 30
0.0
 10
169.506117459024
 20
64.72794237618872
 30
0.0
 10
169.2756529271736
 20
64.917264150514
 30
0.0
 10
168.8620828223985
 20
65.33083320403071
 30
0.0
 10
168.6761420982366
 20
65.55667929395442
 30
0.0
 10
168.3470993569406
 20
66.04810978291715
 30
0.0
 10
168.2078846894927
 20
66.30846723806746
 30
0.0
 10
167.9830524789455
 20
66.84941204962563
 30
0.0
 10
167.8960703444612
 20
67.13395589153795
 30
0.0
 10
167.779971786914
 20
67.71516906616529
 30
0.0
 10
167.751095791217
 20
68.00773067402626
 30
0.0
 10
167.7505961393353
 20
68.59670066463599
 30
0.0
 10
167.7799601964265
 20
68.89593179798027
 30
0.0
 10
167.8950244948529
 20
69.47377413944045
 30
0.0
 10
167.9801831045289
 20
69.75474437258141
 30
0.0
 10
168.2062900156155
 20
70.30074917217974
 30
0.0
 10
168.346646134483
 20
70.56276147190313
 30
0.0
 10
168.6716999277295
 20
71.04926331009567
 30
0.0
 10
168.8586814656852
 20
71.27763290132867
 30
0.0
 10
169.2760326206068
 20
71.69537960021869
 30
0.0
 10
169.5020700734968
 20
71.88093124118883
 30
0.0
 10
169.9882745064356
 20
72.20685795267686
 30
0.0
 10
170.2516473795696
 20
72.34827983408742
 30
0.0
 10
170.7949371463275
 20
72.57415698029122
 30
0.0
 10
171.0753394327598
 20
72.65979774874879
 30
0.0
 10
171.6539590690089
 20
72.77602263193475
 30
0.0
 10
171.9525670966465
 20
72.80603323676979
 30
0.0
 10
172.2508443459624
 20
72.80603323676979
 30
0.0
  0
LINE
  5
1CA
330
1F
100
AcDbEntity
  8
0
  6
Continuous
 62
     7
370
    15
100
AcDbLine
 10
173.7656846471
 20
63.8060332368
 30
0.0
 11
172.250844346
 21
63.8060332368
 31
0.0
  0
LINE
  5
1CB
330
1F
100
AcDbEntity
  8
0
  6
Continuous
 62
     7
370
    15
100
AcDbLine
 10
173.7656846471
 20
56.4560332368
 30
0.0
 11
173.7656846471
 21
63.8060332368
 31
0.0
  0
LINE
  5
1CC
330
1F
100
AcDbEntity
  8
0
  6
Continuous
 62
     7
370
    15
100
AcDbLine
 10
172.2445148207
 20
56.4560332368
 30
0.0
 11
173.7656846471
 21
56.4560332368
 31
0.0
  0
SPLINE
  5
1CD
330
1F
100
AcDbEntity
  8
0
  6
Continuous
 62
     7
370
    15
100
AcDbSpline
210
0.0
220
0.0
230
1.0
 70
     8
 71
     3
 72
    22
 73
    18
 74
     0
 42
0.00000001
 43
0.00000001
 40
0.0
 40
0.0
 40
0.0
 40
0.0
 40
0.2500000000000002
 40
0.2500000000000002
 40
0.3750000000000001
 40
0.3750000000000001
 40
0.5000000000000001
 40
0.5000000000000001
 40
0.6250000000000001
 40
0.6250000000000001
 40
0.75
 40
0.75
 40
0.875
 40
0.875
 40
0.9375000000000001
 40
0.9375000000000001
 40
1.0
 40
1.0
 40
1.0
 40
1.0
 10
167.7508443459624
 20
52.19462423569235
 30
0.0
 10
167.772825363949
 20
52.60861911385885
 30
0.0
 10
167.8518022473038
 20
53.04442891516776
 30
0.0
 10
168.0982001403361
 20
53.7211697181521
 30
0.0
 10
168.2027247554271
 20
53.95202484532678
 30
0.0
 10
168.4645713507336
 20
54.41206190048891
 30
0.0
 10
168.6197879728994
 20
54.6380295772674
 30
0.0
 10
168.9883797259633
 20
55.07522116576813
 30
0.0
 10
169.2045134184283
 20
55.28827389006069
 30
0.0
 10
169.6884079134152
 20
55.67245002929422
 30
0.0
 10
169.9588734584229
 20
55.84656703808569
 30
0.0
 10
170.5551000239331
 20
56.14008478288621
 30
0.0
 10
170.870593290653
 20
56.25487708748364
 30
0.0
 10
171.3713099386715
 20
56.37383166357961
 30
0.0
 10
171.5441063732867
 20
56.4046497465662
 30
0.0
 10
171.8924751460687
 20
56.44566895828481
 30
0.0
 10
172.0678761749791
 20
56.4560332367698
 30
0.0
 10
172.2445148206671
 20
56.4560332367698
 30
0.0
  0
SPLINE
  5
1CE
330
1F
100
AcDbEntity
  8
0
  6
Continuous
 62
     7
370
    15
100
AcDbSpline
210
0.0
220
0.0
230
1.0
 70
     8
 71
     3
 72
    26
 73
    22
 74
     0
 42
0.00000001
 43
0.00000001
 40
0.0
 40
0.0
 40
0.0
 40
0.0
 40
0.0089489653779111
 40
0.0624605810686228
 40
0.1136953645155223
 40
0.1663676437832996
 40
0.2185295327734715
 40
0.2721329349514676
 40
0.3255351397087889
 40
0.3805011936789284
 40
0.4335375879903607
 40
0.4882022286046977
 40
0.5397419964491961
 40
0.5927970863953014
 40
0.6440787287140946
 40
0.6967754787214075
 40
0.7493950443928272
 40
0.8034862981576014
 40
0.85699408481054
 40
0.9121035133041223
 40
1.0
 40
1.0
 40
1.0
 40
1.0
 10
171.791289731152
 20
88.3036531874002
 30
0.0
 10
171.7943121418481
 20
88.30440597495715
 30
0.0
 10
171.8154074886657
 20
88.30966016315008
 30
0.0
 10
171.7212965033584
 20
88.2860907155725
 30
0.0
 10
171.5038756995154
 20
88.23326243462007
 30
0.0
 10
171.1516191639708
 20
88.15232576143853
 30
0.0
 10
170.680353139678
 20
88.05350744205965
 30
0.0
 10
170.1001235146142
 20
87.94669165426731
 30
0.0
 10
169.4165454873086
 20
87.8423907420896
 30
0.0
 10
168.6586426720758
 20
87.75452804730014
 30
0.0
 10
167.8394100468511
 20
87.69282575986949
 30
0.0
 10
167.0057733548722
 20
87.66594345730886
 30
0.0
 10
166.1666678670921
 20
87.6755264772394
 30
0.0
 10
165.3632095536752
 20
87.7189260908827
 30
0.0
 10
164.5950583783584
 20
87.79159481809306
 30
0.0
 10
163.8894368907204
 20
87.88481145465902
 30
0.0
 10
163.2522143816496
 20
87.99051682092148
 30
0.0
 10
162.7092374322451
 20
88.09659779319742
 30
0.0
 10
162.2772195608021
 20
88.19113350055797
 30
0.0
 10
161.8963382292012
 20
88.2816982763743
 30
0.0
 10
161.8371955349024
 20
88.29676976655392
 30
0.0
 10
161.8008443459624
 20
88.30603323676986
 30
0.0
  0
LINE
  5
1CF
330
1F
100
AcDbEntity
  8
0
  6
Continuous
 62
     7
370
    15
100
AcDbLine
 10
159.800844346
 20
48.6060332368
 30
0.0
 11
159.800844346
 21
88.0060332368
 31
0.0
  0
SPLINE
  5
1D0
330
1F
100
AcDbEntity
  8
0
  6
Continuous
 62
     7
370
    15
100
AcDbSpline
210
0.0
220
0.0
230
1.0
 70
    24
 71
     3
 72
    10
 73
     6
 74
     0
 42
0.00000001
 43
0.00000001
 40
0.0
 40
0.0
 40
0.0
 40
0.0
 40
0.5
 40
0.5
 40
1.0
 40
1.0
 40
1.0
 40
1.0
 10
179.7508443459624
 20
63.80603323676979
 30
0.0
 10
179.7508443459624
 20
63.80603323676979
 30
0.0
 10
179.6886831294794
 20
63.80603323676979
 30
0.0
 10
179.4681737888078
 20
63.80603323676979
 30
0.0
 10
179.3092586858627
 20
63.80603323676979
 30
0.0
 10
179.1508443459624
 20
63.80603323676979
 30
0.0
  0
LINE
  5
1D1
330
1F
100
AcDbEntity
  8
0
  6
Continuous
 62
     7
370
    15
100
AcDbLine
 10
179.750844346
 20
56.4560332368
 30
0.0
 11
179.750844346
 21
63.8060332368
 31
0.0
  0
SPLINE
  5
1D2
330
1F
100
AcDbEntity
  8
0
  6
Continuous
 62
     7
370
    15
100
AcDbSpline
210
0.0
220
0.0
230
1.0
 70
    24
 71
     3
 72
    12
 73
     8
 74
     0
 42
0.00000001
 43
0.00000001
 40
0.0
 40
0.0
 40
0.0
 40
0.0
 40
0.25
 40
0.25
 40
0.5
 40
0.5
 40
1.0
 40
1.0
 40
1.0
 40
1.0
 10
179.1508443459624
 20
56.4560332367698
 30
0.0
 10
179.2401327050061
 20
56.4560332367698
 30
0.0
 10
179.3281915359084
 20
56.45603323676979
 30
0.0
 10
179.4808452491575
 20
56.4560332367698
 30
0.0
 10
179.5466387424995
 20
56.4560332367698
 30
0.0
 10
179.7020793892155
 20
56.45603323676979
 30
0.0
 10
179.7508443459624
 20
56.4560332367698
 30
0.0
 10
179.7508443459624
 20
56.4560332367698
 30
0.0
  0
LINE
  5
1D3
330
1F
100
AcDbEntity
  8
0
  6
Continuous
 62
     7
370
    15
100
AcDbLine
 10
179.750844346
 20
72.8060332368
 30
0.0
 11
179.750844346
 21
87.7060332368
 31
0.0
  0
SPLINE
  5
1D4
330
1F
100
AcDbEntity
  8
0
  6
Continuous
 62
     7
370
    15
100
AcDbSpline
210
0.0
220
0.0
230
1.0
 70
    24
 71
     3
 72
    10
 73
     6
 74
     0
 42
0.00000001
 43
0.00000001
 40
0.0
 40
0.0
 40
0.0
 40
0.0
 40
0.5
 40
0.5
 40
1.0
 40
1.0
 40
1.0
 40
1.0
 10
179.1508443459624
 20
72.80603323676979
 30
0.0
 10
179.3112665705618
 20
72.80603323676979
 30
0.0
 10
179.4677493712291
 20
72.80603323676979
 30
0.0
 10
179.6884029817964
 20
72.80603323676979
 30
0.0
 10
179.7508443459624
 20
72.80603323676979
 30
0.0
 10
179.7508443459624
 20
72.80603323676979
 30
0.0
  0
LINE
  5
1D5
330
1F
100
AcDbEntity
  8
0
  6
Continuous
 62
     7
370
    15
100
AcDbLine
 10
177.8360040449
 20
72.8060332368
 30
0.0
 11
177.8360040449
 21
88.3060332368
 31
0.0
  0
LINE
  5
1D6
330
1F
100
AcDbEntity
  8
0
  6
Continuous
 62
     7
370
    15
100
AcDbLine
 10
177.8360040449
 20
72.8060332368
 30
0.0
 11
179.150844346
 21
72.8060332368
 31
0.0
  0
LINE
  5
1D7
330
1F
100
AcDbEntity
  8
0
  6
Continuous
 62
     7
370
    15
100
AcDbLine
 10
176.840844346
 20
72.8060332368
 30
0.0
 11
176.840844346
 21
86.5823660766
 31
0.0
  0
SPLINE
  5
1D8
330
1F
100
AcDbEntity
  8
0
  6
Continuous
 62
     7
370
    15
100
AcDbSpline
210
0.0
220
0.0
230
1.0
 70
    24
 71
     3
 72
     8
 73
     4
 74
     0
 42
0.00000001
 43
0.00000001
 40
0.0
 40
0.0
 40
0.0
 40
0.0
 40
1.0
 40
1.0
 40
1.0
 40
1.0
 10
176.8408443459624
 20
72.80603323676979
 30
0.0
 10
177.171864676982
 20
72.80603323676979
 30
0.0
 10
177.5036459484662
 20
72.80603323676979
 30
0.0
 10
177.8360040448558
 20
72.80603323676979
 30
0.0
  0
LINE
  5
1D9
330
1F
100
AcDbEntity
  8
0
  6
Continuous
 62
     7
370
    15
100
AcDbLine
 10
174.760844346
 20
72.8060332368
 30
0.0
 11
174.760844346
 21
86.5823660766
 31
0.0
  0
SPLINE
  5
1DA
330
1F
100
AcDbEntity
  8
0
  6
Continuous
 62
     7
370
    15
100
AcDbSpline
210
0.0
220
0.0
230
1.0
 70
    24
 71
     3
 72
     8
 73
     4
 74
     0
 42
0.00000001
 43
0.00000001
 40
0.0
 40
0.0
 40
0.0
 40
0.0
 40
1.0
 40
1.0
 40
1.0
 40
1.0
 10
173.765684647069
 20
72.80603323676979
 30
0.0
 10
174.0980427434586
 20
72.80603323676979
 30
0.0
 10
174.4298240149427
 20
72.80603323676979
 30
0.0
 10
174.7608443459624
 20
72.80603323676979
 30
0.0
  0
LINE
  5
1DB
330
1F
100
AcDbEntity
  8
0
  6
Continuous
 62
     7
370
    15
100
AcDbLine
 10
177.8360040449
 20
56.4560332368
 30
0.0
 11
179.150844346
 21
56.4560332368
 31
0.0
  0
LINE
  5
1DC
330
1F
100
AcDbEntity
  8
0
  6
Continuous
 62
     7
370
    15
100
AcDbLine
 10
177.8360040449
 20
56.4560332368
 30
0.0
 11
177.8360040449
 21
63.8060332368
 31
0.0
  0
LINE
  5
1DD
330
1F
100
AcDbEntity
  8
0
  6
Continuous
 62
     7
370
    15
100
AcDbLine
 10
179.150844346
 20
63.8060332368
 30
0.0
 11
177.8360040449
 21
63.8060332368
 31
0.0
  0
SPLINE
  5
1DE
330
1F
100
AcDbEntity
  8
0
  6
Continuous
 62
     7
370
    15
100
AcDbSpline
210
0.0
220
0.0
230
1.0
 70
    24
 71
     3
 72
     8
 73
     4
 74
     0
 42
0.00000001
 43
0.00000001
 40
0.0
 40
0.0
 40
0.0
 40
0.0
 40
1.0
 40
1.0
 40
1.0
 40
1.0
 10
176.8408443459624
 20
56.4560332367698
 30
0.0
 10
177.1644019042173
 20
56.4560332367698
 30
0.0
 10
177.4968962244343
 20
56.4560332367698
 30
0.0
 10
177.8360040448558
 20
56.4560332367698
 30
0.0
  0
LINE
  5
1DF
330
1F
100
AcDbEntity
  8
0
  6
Continuous
 62
     7
370
    15
100
AcDbLine
 10
176.840844346
 20
56.4560332368
 30
0.0
 11
176.840844346
 21
63.8060332368
 31
0.0
  0
SPLINE
  5
1E0
330
1F
100
AcDbEntity
  8
0
  6
Continuous
 62
     7
370
    15
100
AcDbSpline
210
0.0
220
0.0
230
1.0
 70
    24
 71
     3
 72
     8
 73
     4
 74
     0
 42
0.00000001
 43
0.00000001
 40
0.0
 40
0.0
 40
0.0
 40
0.0
 40
1.0
 40
1.0
 40
1.0
 40
1.0
 10
177.8360040448558
 20
63.80603323676979
 30
0.0
 10
177.5036459484662
 20
63.8060332367698
 30
0.0
 10
177.171864676982
 20
63.8060332367698
 30
0.0
 10
176.8408443459624
 20
63.8060332367698
 30
0.0
  0
SPLINE
  5
1E1
330
1F
100
AcDbEntity
  8
0
  6
Continuous
 62
     7
370
    15
100
AcDbSpline
210
0.0
220
0.0
230
1.0
 70
    24
 71
     3
 72
     8
 73
     4
 74
     0
 42
0.00000001
 43
0.00000001
 40
0.0
 40
0.0
 40
0.0
 40
0.0
 40
1.0
 40
1.0
 40
1.0
 40
1.0
 10
174.7608443459624
 20
63.8060332367698
 30
0.0
 10
174.4298240149427
 20
63.8060332367698
 30
0.0
 10
174.0980427434586
 20
63.8060332367698
 30
0.0
 10
173.765684647069
 20
63.80603323676979
 30
0.0
  0
LINE
  5
1E2
330
1F
100
AcDbEntity
  8
0
  6
Continuous
 62
     7
370
    15
100
AcDbLine
 10
174.760844346
 20
56.4560332368
 30
0.0
 11
174.760844346
 21
63.8060332368
 31
0.0
  0
SPLINE
  5
1E3
330
1F
100
AcDbEntity
  8
0
  6
Continuous
 62
     7
370
    15
100
AcDbSpline
210
0.0
220
0.0
230
1.0
 70
    24
 71
     3
 72
     8
 73
     4
 74
     0
 42
0.00000001
 43
0.00000001
 40
0.0
 40
0.0
 40
0.0
 40
0.0
 40
1.0
 40
1.0
 40
1.0
 40
1.0
 10
173.765684647069
 20
56.4560332367698
 30
0.0
 10
174.1051076883506
 20
56.4560332367698
 30
0.0
 10
174.4376184318456
 20
56.4560332367698
 30
0.0
 10
174.7608443459623
 20
56.4560332367698
 30
0.0
  0
SPLINE
  5
1E4
330
1F
100
AcDbEntity
  8
0
  6
Continuous
 62
     7
370
    15
100
AcDbSpline
210
0.0
220
0.0
230
1.0
 70
     8
 71
     3
 72
    14
 73
    10
 74
     0
 42
0.00000001
 43
0.00000001
 40
0.0
 40
0.0
 40
0.0
 40
0.0
 40
0.1250000000000006
 40
0.1250000000000006
 40
0.2500000000000013
 40
0.2500000000000013
 40
0.5000000000000026
 40
0.5000000000000026
 40
1.0
 40
1.0
 40
1.0
 40
1.0
 10
176.2408443459624
 20
72.34095888664291
 30
0.0
 10
176.2662855770469
 20
72.34095888664291
 30
0.0
 10
176.2918998796742
 20
72.348450328509
 30
0.0
 10
176.3373763202014
 20
72.3726086265426
 30
0.0
 10
176.3573795219409
 20
72.38863031087566
 30
0.0
 10
176.4125247139137
 20
72.44260029697082
 30
0.0
 10
176.4419589324358
 20
72.48521658212178
 30
0.0
 10
176.5198719450145
 20
72.61662977085214
 30
0.0
 10
176.5584480455352
 20
72.71030482799655
 30
0.0
 10
176.5924999602131
 20
72.80603323676947
 30
0.0
  0
SPLINE
  5
1E5
330
1F
100
AcDbEntity
  8
0
  6
Continuous
 62
     7
370
    15
100
AcDbSpline
210
0.0
220
0.0
230
1.0
 70
    24
 71
     3
 72
    10
 73
     6
 74
     0
 42
0.00000001
 43
0.00000001
 40
0.0
 40
0.0
 40
0.0
 40
0.0
 40
0.5
 40
0.5
 40
1.0
 40
1.0
 40
1.0
 40
1.0
 10
176.5924999602124
 20
72.80603323676979
 30
0.0
 10
176.669927964761
 20
72.80603323676979
 30
0.0
 10
176.7331075816475
 20
72.80603323676979
 30
0.0
 10
176.8184027609087
 20
72.80603323676979
 30
0.0
 10
176.8408443459624
 20
72.80603323676979
 30
0.0
 10
176.8408443459624
 20
72.80603323676979
 30
0.0
  0
SPLINE
  5
1E6
330
1F
100
AcDbEntity
  8
0
  6
Continuous
 62
     7
370
    15
100
AcDbSpline
210
0.0
220
0.0
230
1.0
 70
     8
 71
     3
 72
    12
 73
     8
 74
     0
 42
0.00000001
 43
0.00000001
 40
0.0
 40
0.0
 40
0.0
 40
0.0
 40
0.4999999999999982
 40
0.4999999999999982
 40
0.7499999999999991
 40
0.7499999999999991
 40
1.0
 40
1.0
 40
1.0
 40
1.0
 10
175.0091887317123
 20
72.80603323676982
 30
0.0
 10
175.0431400571881
 20
72.71058760928432
 30
0.0
 10
175.0818859153904
 20
72.61640557503611
 30
0.0
 10
175.1600812623981
 20
72.48467787931577
 30
0.0
 10
175.1895899540829
 20
72.44215637531127
 30
0.0
 10
175.2624651154885
 20
72.37088838686428
 30
0.0
 10
175.3092617496229
 20
72.34095888664243
 30
0.0
 10
175.3608443459624
 20
72.34095888664244
 30
0.0
  0
SPLINE
  5
1E7
330
1F
100
AcDbEntity
  8
0
  6
Continuous
 62
     7
370
    15
100
AcDbSpline
210
0.0
220
0.0
230
1.0
 70
    24
 71
     3
 72
    10
 73
     6
 74
     0
 42
0.00000001
 43
0.00000001
 40
0.0
 40
0.0
 40
0.0
 40
0.0
 40
0.5
 40
0.5
 40
1.0
 40
1.0
 40
1.0
 40
1.0
 10
174.7608443459624
 20
72.80603323676979
 30
0.0
 10
174.7608443459624
 20
72.80603323676979
 30
0.0
 10
174.7832939818079
 20
72.80603323676979
 30
0.0
 10
174.8682896400759
 20
72.80603323676979
 30
0.0
 10
174.9311457240064
 20
72.80603323676979
 30
0.0
 10
175.0091887317123
 20
72.80603323676979
 30
0.0
  0
SPLINE
  5
1E8
330
1F
100
AcDbEntity
  8
0
  6
Continuous
 62
     7
370
    15
100
AcDbSpline
210
0.0
220
0.0
230
1.0
 70
     8
 71
     3
 72
    12
 73
     8
 74
     0
 42
0.00000001
 43
0.00000001
 40
0.0
 40
0.0
 40
0.0
 40
0.0
 40
0.2499999999999989
 40
0.2499999999999989
 40
0.4999999999999978
 40
0.4999999999999978
 40
1.0
 40
1.0
 40
1.0
 40
1.0
 10
175.3608443459624
 20
64.27110758689714
 30
0.0
 10
175.3092521456878
 20
64.27110758689714
 30
0.0
 10
175.2623471368932
 20
64.24115674153092
 30
0.0
 10
175.1890134110168
 20
64.1692513437696
 30
0.0
 10
175.1597835815678
 20
64.12695171718583
 30
0.0
 10
175.0815508015048
 20
63.99496601634024
 30
0.0
 10
175.0431166435972
 20
63.90141304282272
 30
0.0
 10
175.0091887317124
 20
63.8060332367698
 30
0.0
  0
SPLINE
  5
1E9
330
1F
100
AcDbEntity
  8
0
  6
Continuous
 62
     7
370
    15
100
AcDbSpline
210
0.0
220
0.0
230
1.0
 70
    24
 71
     3
 72
    12
 73
     8
 74
     0
 42
0.00000001
 43
0.00000001
 40
0.0
 40
0.0
 40
0.0
 40
0.0
 40
0.5000000000000032
 40
0.5000000000000032
 40
0.7500000000000016
 40
0.7500000000000016
 40
1.0
 40
1.0
 40
1.0
 40
1.0
 10
174.7608443459624
 20
56.45603323676981
 30
0.0
 10
174.7608443459624
 20
56.4560332367698
 30
0.0
 10
174.807390091219
 20
56.4560332367698
 30
0.0
 10
174.9574910396087
 20
56.45603323676981
 30
0.0
 10
175.0214278559027
 20
56.45603323676981
 30
0.0
 10
175.1767955876324
 20
56.45603323676981
 30
0.0
 10
175.2680388705503
 20
56.45603323676981
 30
0.0
 10
175.3608443459624
 20
56.45603323676981
 30
0.0
  0
SPLINE
  5
1EA
330
1F
100
AcDbEntity
  8
0
  6
Continuous
 62
     7
370
    15
100
AcDbSpline
210
0.0
220
0.0
230
1.0
 70
    24
 71
     3
 72
    10
 73
     6
 74
     0
 42
0.00000001
 43
0.00000001
 40
0.0
 40
0.0
 40
0.0
 40
0.0
 40
0.5
 40
0.5
 40
1.0
 40
1.0
 40
1.0
 40
1.0
 10
175.0091887317124
 20
63.8060332367698
 30
0.0
 10
174.9318639998381
 20
63.8060332367698
 30
0.0
 10
174.8684841743016
 20
63.8060332367698
 30
0.0
 10
174.7829137255286
 20
63.8060332367698
 30
0.0
 10
174.7608443459624
 20
63.8060332367698
 30
0.0
 10
174.7608443459624
 20
63.8060332367698
 30
0.0
  0
SPLINE
  5
1EB
330
1F
100
AcDbEntity
  8
0
  6
Continuous
 62
     7
370
    15
100
AcDbSpline
210
0.0
220
0.0
230
1.0
 70
     8
 71
     3
 72
    12
 73
     8
 74
     0
 42
0.00000001
 43
0.00000001
 40
0.0
 40
0.0
 40
0.0
 40
0.0
 40
0.5
 40
0.5
 40
0.75
 40
0.75
 40
1.0
 40
1.0
 40
1.0
 40
1.0
 10
176.5924999602124
 20
63.8060332367698
 30
0.0
 10
176.5583542119214
 20
63.90202543518694
 30
0.0
 10
176.5191610535164
 20
63.99691211633699
 30
0.0
 10
176.4413133948626
 20
64.12779782568926
 30
0.0
 10
176.4119089360774
 20
64.17016479462852
 30
0.0
 10
176.3389014147715
 20
64.24142357682054
 30
0.0
 10
176.2919960969636
 20
64.27110758689714
 30
0.0
 10
176.2408443459624
 20
64.27110758689714
 30
0.0
  0
SPLINE
  5
1EC
330
1F
100
AcDbEntity
  8
0
  6
Continuous
 62
     7
370
    15
100
AcDbSpline
210
0.0
220
0.0
230
1.0
 70
    24
 71
     3
 72
    12
 73
     8
 74
     0
 42
0.00000001
 43
0.00000001
 40
0.0
 40
0.0
 40
0.0
 40
0.0
 40
0.25
 40
0.25
 40
0.5
 40
0.5
 40
1.0
 40
1.0
 40
1.0
 40
1.0
 10
176.2408443459624
 20
56.45603323676981
 30
0.0
 10
176.3333863126842
 20
56.45603323676981
 30
0.0
 10
176.4255956898286
 20
56.4560332367698
 30
0.0
 10
176.5807326502055
 20
56.45603323676981
 30
0.0
 10
176.6445425476665
 20
56.45603323676981
 30
0.0
 10
176.7936689834676
 20
56.45603323676981
 30
0.0
 10
176.8408443459624
 20
56.45603323676981
 30
0.0
 10
176.8408443459624
 20
56.45603323676981
 30
0.0
  0
SPLINE
  5
1ED
330
1F
100
AcDbEntity
  8
0
  6
Continuous
 62
     7
370
    15
100
AcDbSpline
210
0.0
220
0.0
230
1.0
 70
    24
 71
     3
 72
    10
 73
     6
 74
     0
 42
0.00000001
 43
0.00000001
 40
0.0
 40
0.0
 40
0.0
 40
0.0
 40
0.5
 40
0.5
 40
1.0
 40
1.0
 40
1.0
 40
1.0
 10
176.8408443459624
 20
63.8060332367698
 30
0.0
 10
176.8408443459622
 20
63.8060332367698
 30
0.0
 10
176.8189037233808
 20
63.8060332367698
 30
0.0
 10
176.7327735379889
 20
63.8060332367698
 30
0.0
 10
176.6696912308453
 20
63.8060332367698
 30
0.0
 10
176.5924999602124
 20
63.8060332367698
 30
0.0
  0
SPLINE
  5
1EE
330
1F
100
AcDbEntity
  8
0
  6
Continuous
 62
     7
370
    15
100
AcDbSpline
210
0.0
220
0.0
230
1.0
 70
     8
 71
     3
 72
    14
 73
    10
 74
     0
 42
0.00000001
 43
0.00000001
 40
0.0
 40
0.0
 40
0.0
 40
0.0
 40
0.25
 40
0.25
 40
0.5
 40
0.5
 40
0.75
 40
0.75
 40
1.0
 40
1.0
 40
1.0
 40
1.0
 10
194.9994431842725
 20
82.35090136429257
 30
0.0
 10
194.9736617167403
 20
82.23278650787128
 30
0.0
 10
194.9341927396308
 20
82.12040429048915
 30
0.0
 10
194.8262542639816
 20
81.90778593097468
 30
0.0
 10
194.7566282069979
 20
81.8068512155328
 30
0.0
 10
194.590685406925
 20
81.63439084849065
 30
0.0
 10
194.4920700059704
 20
81.56072964148007
 30
0.0
 10
194.274762319176
 20
81.45891212455224
 30
0.0
 10
194.1551488801202
 20
81.43043798517651
 30
0.0
 10
194.0335173579834
 20
81.43043798517651
 30
0.0
  0
SPLINE
  5
1EF
330
1F
100
AcDbEntity
  8
0
  6
Continuous
 62
     7
370
    15
100
AcDbSpline
210
0.0
220
0.0
230
1.0
 70
     8
 71
     3
 72
    12
 73
     8
 74
     0
 42
0.00000001
 43
0.00000001
 40
0.0
 40
0.0
 40
0.0
 40
0.0
 40
0.2499999999999946
 40
0.2499999999999946
 40
0.4999999999999891
 40
0.4999999999999891
 40
1.0
 40
1.0
 40
1.0
 40
1.0
 10
194.0335173579834
 20
67.38032192625305
 30
0.0
 10
194.1059454802391
 20
67.36616498793042
 30
0.0
 10
194.1775001021284
 20
67.35425753733693
 30
0.0
 10
194.3188091733451
 20
67.3345434259672
 30
0.0
 10
194.3891628907011
 20
67.3267237190397
 30
0.0
 10
194.5870969397105
 20
67.30955285018939
 30
0.0
 10
194.7062813521148
 20
67.30603323676979
 30
0.0
 10
194.8008443459624
 20
67.30603323676979
 30
0.0
  0
SPLINE
  5
1F0
330
1F
100
AcDbEntity
  8
0
  6
Continuous
 62
     7
370
    15
100
AcDbSpline
210
0.0
220
0.0
230
1.0
 70
    24
 71
     3
 72
     8
 73
     4
 74
     0
 42
0.00000001
 43
0.00000001
 40
0.0
 40
0.0
 40
0.0
 40
0.0
 40
1.0
 40
1.0
 40
1.0
 40
1.0
 10
194.8008443459624
 20
67.30603323676979
 30
0.0
 10
194.894422200167
 20
67.30603323676979
 30
0.0
 10
194.9616946550271
 20
67.30603323676979
 30
0.0
 10
194.9994431842725
 20
67.30603323676979
 30
0.0
  0
SPLINE
  5
1F1
330
1F
100
AcDbEntity
  8
0
  6
Continuous
 62
     7
370
    15
100
AcDbSpline
210
0.0
220
0.0
230
1.0
 70
     8
 71
     3
 72
    18
 73
    14
 74
     0
 42
0.00000001
 43
0.00000001
 40
0.0
 40
0.0
 40
0.0
 40
0.0
 40
0.25
 40
0.25
 40
0.5
 40
0.5
 40
0.5625
 40
0.5625
 40
0.625
 40
0.625
 40
0.75
 40
0.75
 40
1.0
 40
1.0
 40
1.0
 40
1.0
 10
179.7509064690857
 20
72.8060332367698
 30
0.0
 10
179.7530496746754
 20
72.05880928046818
 30
0.0
 10
179.8077717246102
 20
71.3128408830849
 30
0.0
 10
179.9073176608351
 20
69.82066772466689
 30
0.0
 10
179.9501320174445
 20
69.07437504627008
 30
0.0
 10
179.9510099818881
 20
68.14042699400957
 30
0.0
 10
179.948793051016
 20
67.95009920574174
 30
0.0
 10
179.9398919978849
 20
67.57302539066117
 30
0.0
 10
179.9332169340659
 20
67.38457316419122
 30
0.0
 10
179.9079488299807
 20
66.81941606581887
 30
0.0
 10
179.8840317079551
 20
66.44291312343007
 30
0.0
 10
179.8087993259171
 20
65.31354250776437
 30
0.0
 10
179.7530714517567
 20
64.56084972498998
 30
0.0
 10
179.7509064690857
 20
63.8060332367698
 30
0.0
  0
SPLINE
  5
1F2
330
1F
100
AcDbEntity
  8
0
  6
Continuous
 62
     7
370
    15
100
AcDbSpline
210
0.0
220
0.0
230
1.0
 70
     8
 71
     3
 72
    12
 73
     8
 74
     0
 42
0.00000001
 43
0.00000001
 40
0.0
 40
0.0
 40
0.0
 40
0.0
 40
0.5
 40
0.5
 40
0.75
 40
0.75
 40
1.0
 40
1.0
 40
1.0
 40
1.0
 10
179.7508443459624
 20
55.4286305483392
 30
0.0
 10
179.7508443459624
 20
55.6111572518869
 30
0.0
 10
179.77806509409
 20
55.79574790722207
 30
0.0
 10
179.8585115398629
 20
56.05602922939659
 30
0.0
 10
179.891958768341
 20
56.14058368220767
 30
0.0
 10
179.9743683381153
 20
56.30453163195188
 30
0.0
 10
180.0236514349989
 20
56.38398185599326
 30
0.0
 10
180.0799680576355
 20
56.4560332367716
 30
0.0
  0
SPLINE
  5
1F3
330
1F
100
AcDbEntity
  8
0
  6
Continuous
 62
     7
370
    15
100
AcDbSpline
210
0.0
220
0.0
230
1.0
 70
    24
 71
     3
 72
    10
 73
     6
 74
     0
 42
0.00000001
 43
0.00000001
 40
0.0
 40
0.0
 40
0.0
 40
0.0
 40
0.5
 40
0.5
 40
1.0
 40
1.0
 40
1.0
 40
1.0
 10
179.7508443459624
 20
56.45603323676981
 30
0.0
 10
179.7508443459624
 20
56.45603323676981
 30
0.0
 10
179.7778176796705
 20
56.45603323676981
 30
0.0
 10
179.8854080474562
 20
56.45603323676981
 30
0.0
 10
179.9668725917994
 20
56.45603323676981
 30
0.0
 10
180.0799680576352
 20
56.45603323676981
 30
0.0
  0
LINE
  5
1F4
330
1F
100
AcDbEntity
  8
0
  6
Continuous
 62
     7
370
    15
100
AcDbLine
 10
175.360844346
 20
72.3409588866
 30
0.0
 11
176.240844346
 21
72.3409588866
 31
0.0
  0
LINE
  5
1F5
330
1F
100
AcDbEntity
  8
0
  6
Continuous
 62
     7
370
    15
100
AcDbLine
 10
176.240844346
 20
64.2711075869
 30
0.0
 11
175.360844346
 21
64.2711075869
 31
0.0
  0
LINE
  5
1F6
330
1F
100
AcDbEntity
  8
0
  6
Continuous
 62
     7
370
    15
100
AcDbLine
 10
175.360844346
 20
56.4560332368
 30
0.0
 11
176.240844346
 21
56.4560332368
 31
0.0
  0
SPLINE
  5
1F7
330
1F
100
AcDbEntity
  8
0
  6
Continuous
 62
     7
370
    15
100
AcDbSpline
210
0.0
220
0.0
230
1.0
 70
     8
 71
     3
 72
    12
 73
     8
 74
     0
 42
0.00000001
 43
0.00000001
 40
0.0
 40
0.0
 40
0.0
 40
0.0
 40
0.5000000000000034
 40
0.5000000000000034
 40
0.7500000000000017
 40
0.7500000000000017
 40
1.0
 40
1.0
 40
1.0
 40
1.0
 10
192.0203854002101
 20
81.43043798517652
 30
0.0
 10
192.2532512267533
 20
81.20527630075196
 30
0.0
 10
192.5288019117804
 20
80.99174922195759
 30
0.0
 10
193.0313928039114
 20
80.71358211271482
 30
0.0
 10
193.2093722926237
 20
80.63068569791214
 30
0.0
 10
193.5884824630905
 20
80.48881677802603
 30
0.0
 10
193.7925138578883
 20
80.4293749311206
 30
0.0
 10
194.0008443459624
 20
80.38684964831673
 30
0.0
  0
LINE
  5
1F8
330
1F
100
AcDbEntity
  8
0
  6
Continuous
 62
     7
370
    15
100
AcDbLine
 10
194.000844346
 20
75.2252168252
 30
0.0
 11
194.000844346
 21
80.3868496483
 31
0.0
  0
LINE
  5
1F9
330
1F
100
AcDbEntity
  8
0
  6
Continuous
 62
     7
370
    15
100
AcDbLine
 10
192.0203854002
 20
81.4304379852
 30
0.0
 11
194.033517358
 21
81.4304379852
 31
0.0
  0
SPLINE
  5
1FA
330
1F
100
AcDbEntity
  8
0
  6
Continuous
 62
     7
370
    15
100
AcDbSpline
210
0.0
220
0.0
230
1.0
 70
     8
 71
     3
 72
    38
 73
    34
 74
     0
 42
0.00000001
 43
0.00000001
 40
0.0
 40
0.0
 40
0.0
 40
0.0
 40
0.0625000000000002
 40
0.0625000000000002
 40
0.1250000000000004
 40
0.1250000000000004
 40
0.1875000000000006
 40
0.1875000000000006
 40
0.2500000000000008
 40
0.2500000000000008
 40
0.3125000000000009
 40
0.3125000000000009
 40
0.375000000000001
 40
0.375000000000001
 40
0.4375000000000011
 40
0.4375000000000011
 40
0.5000000000000013
 40
0.5000000000000013
 40
0.5625000000000014
 40
0.5625000000000014
 40
0.6250000000000016
 40
0.6250000000000016
 40
0.6875000000000013
 40
0.6875000000000013
 40
0.750000000000001
 40
0.750000000000001
 40
0.8125000000000008
 40
0.8125000000000008
 40
0.8750000000000006
 40
0.8750000000000006
 40
0.9375000000000003
 40
0.9375000000000003
 40
1.0
 40
1.0
 40
1.0
 40
1.0
 10
194.0008443459624
 20
75.22521682522289
 30
0.0
 10
193.7750220123383
 20
75.17912103439758
 30
0.0
 10
193.5507587893446
 20
75.11261240438093
 30
0.0
 10
193.1232404088191
 20
74.9444949842995
 30
0.0
 10
192.9196897529784
 20
74.84336404451378
 30
0.0
 10
192.5318491943856
 20
74.60801943423347
 30
0.0
 10
192.3466716727624
 20
74.47266855428632
 30
0.0
 10
192.0072918852667
 20
74.17772392230079
 30
0.0
 10
191.8514954500496
 20
74.01741575766735
 30
0.0
 10
191.5670050622881
 20
73.67088789864984
 30
0.0
 10
191.4382741329393
 20
73.48387860115722
 30
0.0
 10
191.2167145514724
 20
73.09597806411593
 30
0.0
 10
191.1225353097478
 20
72.89366122124443
 30
0.0
 10
190.9678295080915
 20
72.47158771239356
 30
0.0
 10
190.9073738073114
 20
72.25043590558506
 30
0.0
 10
190.8258114730432
 20
71.8061561170913
 30
0.0
 10
190.8038307263531
 20
71.58126519866656
 30
0.0
 10
190.798421977661
 20
71.12579535531277
 30
0.0
 10
190.8155797047732
 20
70.89325177915394
 30
0.0
 10
190.8889923741611
 20
70.43992877264388
 30
0.0
 10
190.9449042484082
 20
70.2174592625889
 30
0.0
 10
191.0956965807721
 20
69.78118984438636
 30
0.0
 10
191.1917338761669
 20
69.5659267706503
 30
0.0
 10
191.4167063737466
 20
69.16097867298234
 30
0.0
 10
191.5459875580996
 20
68.96939421740692
 30
0.0
 10
191.8383902214037
 20
68.60828599579425
 30
0.0
 10
192.0024536865417
 20
68.43850456917842
 30
0.0
 10
192.3523509216325
 20
68.13450507306
 30
0.0
 10
192.5394875629185
 20
67.99839580936731
 30
0.0
 10
192.9384798751057
 20
67.75838635058408
 30
0.0
 10
193.1501823061173
 20
67.65515743273886
 30
0.0
 10
193.5823281810129
 20
67.48912379823173
 30
0.0
 10
193.8046998395418
 20
67.42504703294958
 30
0.0
 10
194.0335173579834
 20
67.38032192625305
 30
0.0
  0
ELLIPSE
  5
1FB
330
1F
100
AcDbEntity
  8
0
  6
Continuous
 62
     7
370
    15
100
AcDbEllipse
 10
118.1645704217
 20
67.9167043823
 30
0.0
 11
22.50115792418138
 21
-6.146971432587691
 31
0.0
210
0.0
220
0.0
230
1.0
 40
0.5128213654
 41
6.281635036199156
 42
6.285228870519778
  0
SPLINE
  5
1FC
330
1F
100
AcDbEntity
  8
0
  6
Continuous
 62
     7
370
    15
100
AcDbSpline
210
0.0
220
0.0
230
1.0
 70
     8
 71
     3
 72
     8
 73
     4
 74
     0
 42
0.00000001
 43
0.00000001
 40
0.0
 40
0.0
 40
0.0
 40
0.0
 40
1.0
 40
1.0
 40
1.0
 40
1.0
 10
140.8508443459624
 20
62.16863439267623
 30
0.0
 10
140.7715470183309
 20
62.05022802766853
 30
0.0
 10
140.7079498239862
 20
61.92655685077746
 30
0.0
 10
140.6721232785268
 20
61.79332659828643
 30
0.0
  0
SPLINE
  5
1FD
330
1F
100
AcDbEntity
  8
0
  6
Continuous
 62
     7
370
    15
100
AcDbSpline
210
0.0
220
0.0
230
1.0
 70
     8
 71
     3
 72
    12
 73
     8
 74
     0
 42
0.00000001
 43
0.00000001
 40
0.0
 40
0.0
 40
0.0
 40
0.0
 40
0.2499999999999986
 40
0.2499999999999986
 40
0.4999999999999971
 40
0.4999999999999971
 40
1.0
 40
1.0
 40
1.0
 40
1.0
 10
142.6008443459624
 20
61.79839467763031
 30
0.0
 10
142.4588019427732
 20
61.84515962341347
 30
0.0
 10
142.314683836269
 20
61.88321407324243
 30
0.0
 10
142.0249293225966
 20
61.95294962363626
 30
0.0
 10
141.8791874192378
 20
61.9841880953166
 30
0.0
 10
141.4405071800579
 20
62.07179616302555
 30
0.0
 10
141.1461315639868
 20
62.12213078039102
 30
0.0
 10
140.8508443459624
 20
62.16863439267624
 30
0.0
  0
SPLINE
  5
1FE
330
1F
100
AcDbEntity
  8
0
  6
Continuous
 62
     7
370
    15
100
AcDbSpline
210
0.0
220
0.0
230
1.0
 70
     8
 71
     3
 72
    20
 73
    16
 74
     0
 42
0.00000001
 43
0.00000001
 40
0.0
 40
0.0
 40
0.0
 40
0.0
 40
0.2499999999999996
 40
0.2499999999999996
 40
0.4999999999999991
 40
0.4999999999999991
 40
0.7499999999999987
 40
0.7499999999999987
 40
0.8749999999999971
 40
0.8749999999999971
 40
0.9374999999999983
 40
0.9374999999999983
 40
0.9687499999999991
 40
0.9687499999999991
 40
1.0
 40
1.0
 40
1.0
 40
1.0
 10
143.5008443459633
 20
63.49074437586959
 30
0.0
 10
143.5008443459633
 20
63.32009762504348
 30
0.0
 10
143.4754493263864
 20
63.14913296276586
 30
0.0
 10
143.3891561406045
 20
62.8240541067693
 30
0.0
 10
143.3285201619212
 20
62.66834619136398
 30
0.0
 10
143.1804183677
 20
62.36760223572625
 30
0.0
 10
143.0936487609213
 20
62.22263691902737
 30
0.0
 10
142.9450109655921
 20
62.01885278887573
 30
0.0
 10
142.8927217487059
 20
61.95243017265581
 30
0.0
 10
142.801957920396
 20
61.86308304096117
 30
0.0
 10
142.769591927944
 20
61.8344550796239
 30
0.0
 10
142.7119027722778
 20
61.80317399984351
 30
0.0
 10
142.6909157443904
 20
61.79490841755833
 30
0.0
 10
142.6456267653999
 20
61.78864819919171
 30
0.0
 10
142.6226124965614
 20
61.79122789954105
 30
0.0
 10
142.6008443459618
 20
61.79839467762812
 30
0.0
  0
LINE
  5
1FF
330
1F
100
AcDbEntity
  8
0
  6
Continuous
 62
     7
370
    15
100
AcDbLine
 10
143.500844346
 20
63.4907443759
 30
0.0
 11
143.500844346
 21
73.1213220977
 31
0.0
  0
SPLINE
  5
200
330
1F
100
AcDbEntity
  8
0
  6
Continuous
 62
     7
370
    15
100
AcDbSpline
210
0.0
220
0.0
230
1.0
 70
     8
 71
     3
 72
    20
 73
    16
 74
     0
 42
0.00000001
 43
0.00000001
 40
0.0
 40
0.0
 40
0.0
 40
0.0
 40
0.2499999999999986
 40
0.2499999999999986
 40
0.4999999999999971
 40
0.4999999999999971
 40
0.7499999999999957
 40
0.7499999999999957
 40
0.8749999999999962
 40
0.8749999999999962
 40
0.9374999999999981
 40
0.9374999999999981
 40
0.9687499999999991
 40
0.9687499999999991
 40
1.0
 40
1.0
 40
1.0
 40
1.0
 10
143.5008443459633
 20
73.12132209767003
 30
0.0
 10
143.5008443459633
 20
73.29196884849615
 30
0.0
 10
143.4754493263864
 20
73.46293351077377
 30
0.0
 10
143.3891561406045
 20
73.78801236677029
 30
0.0
 10
143.3285201619212
 20
73.94372028217563
 30
0.0
 10
143.1804183677
 20
74.24446423781336
 30
0.0
 10
143.0936487609214
 20
74.38942955451225
 30
0.0
 10
142.9450109655921
 20
74.59321368466388
 30
0.0
 10
142.8927217487059
 20
74.6596363008838
 30
0.0
 10
142.801957920396
 20
74.74898343257844
 30
0.0
 10
142.769591927944
 20
74.77761139391572
 30
0.0
 10
142.7119027722778
 20
74.80889247369612
 30
0.0
 10
142.6909157443904
 20
74.81715805598127
 30
0.0
 10
142.6456267653999
 20
74.8234182743479
 30
0.0
 10
142.6226124965614
 20
74.82083857399857
 30
0.0
 10
142.6008443459618
 20
74.8136717959115
 30
0.0
  0
SPLINE
  5
201
330
1F
100
AcDbEntity
  8
0
  6
Continuous
 62
     7
370
    15
100
AcDbSpline
210
0.0
220
0.0
230
1.0
 70
     8
 71
     3
 72
    12
 73
     8
 74
     0
 42
0.00000001
 43
0.00000001
 40
0.0
 40
0.0
 40
0.0
 40
0.0
 40
0.2499999999999986
 40
0.2499999999999986
 40
0.4999999999999971
 40
0.4999999999999971
 40
1.0
 40
1.0
 40
1.0
 40
1.0
 10
142.6008443459624
 20
74.81367179590933
 30
0.0
 10
142.4588019427732
 20
74.76690685012616
 30
0.0
 10
142.314683836269
 20
74.7288524002972
 30
0.0
 10
142.0249293225966
 20
74.65911684990337
 30
0.0
 10
141.8791874192378
 20
74.62787837822302
 30
0.0
 10
141.4405071800579
 20
74.54027031051407
 30
0.0
 10
141.1461315639868
 20
74.48993569314858
 30
0.0
 10
140.8508443459624
 20
74.44343208086339
 30
0.0
  0
SPLINE
  5
202
330
1F
100
AcDbEntity
  8
0
  6
Continuous
 62
     7
370
    15
100
AcDbSpline
210
0.0
220
0.0
230
1.0
 70
     8
 71
     3
 72
     8
 73
     4
 74
     0
 42
0.00000001
 43
0.00000001
 40
0.0
 40
0.0
 40
0.0
 40
0.0
 40
1.0
 40
1.0
 40
1.0
 40
1.0
 10
140.8508443459624
 20
74.44343208086339
 30
0.0
 10
140.7715470183309
 20
74.56183844587108
 30
0.0
 10
140.7079498239862
 20
74.68550962276217
 30
0.0
 10
140.6721232785268
 20
74.81873987525319
 30
0.0
  0
ELLIPSE
  5
203
330
1F
100
AcDbEntity
  8
0
  6
Continuous
 62
     7
370
    15
100
AcDbEllipse
 10
118.1645704217
 20
68.6953620913
 30
0.0
 11
22.50115792418138
 21
6.146971432587591
 31
0.0
210
0.0
220
0.0
230
1.0
 40
0.5128213654
 41
6.28114174383945
 42
6.284735578160074
  0
LINE
  5
204
330
1F
100
AcDbEntity
  8
0
  6
Continuous
 62
     7
370
    15
100
AcDbLine
 10
157.800844346
 20
53.202332836
 30
0.0
 11
157.800844346
 21
83.4097336376
 31
0.0
  0
SPLINE
  5
205
330
1F
100
AcDbEntity
  8
0
  6
Continuous
 62
     7
370
    15
100
AcDbSpline
210
0.0
220
0.0
230
1.0
 70
     8
 71
     3
 72
    37
 73
    33
 74
     0
 42
0.00000001
 43
0.00000001
 40
-0.1266254246229652
 40
-0.094308920265689
 40
-0.0468438588499061
 40
0.0
 40
0.0312188406311963
 40
0.0625350707077963
 40
0.0936968928322773
 40
0.1243304270014221
 40
0.1547877422614909
 40
0.1858051167351422
 40
0.2167130688430307
 40
0.2475893961677336
 40
0.2785505527457038
 40
0.3100767087838524
 40
0.3417807687005669
 40
0.3732262309390787
 40
0.405698089259428
 40
0.4531468073849095
 40
0.5000655009397584
 40
0.5312623534105079
 40
0.5625708117516035
 40
0.5937316548361127
 40
0.6243200789887791
 40
0.6548794701783404
 40
0.6857828120135693
 40
0.7167968284790122
 40
0.7475836640619914
 40
0.7785530845197332
 40
0.8101373721414882
 40
0.8418358242958499
 40
0.8733745753770348
 40
0.905691079734311
 40
0.953156141150094
 40
1.0
 40
1.031218840631196
 40
1.062535070707796
 40
1.093696892832277
 10
151.0600913774097
 20
69.15407562855448
 30
0.0
 10
151.3772810357468
 20
69.84196290174236
 30
0.0
 10
151.7818959761196
 20
70.35538667331738
 30
0.0
 10
152.210397054927
 20
70.71690449517811
 30
0.0
 10
152.6962571241876
 20
70.99059188941838
 30
0.0
 10
153.2239546105363
 20
71.15745684153453
 30
0.0
 10
153.7734962210041
 20
71.21384653461608
 30
0.0
 10
154.3228593714399
 20
71.154372636101
 30
0.0
 10
154.851673508343
 20
70.99173882495637
 30
0.0
 10
155.3345620323952
 20
70.72518605257535
 30
0.0
 10
155.757896936222
 20
70.36717948897012
 30
0.0
 10
156.1048642497456
 20
69.92796932891355
 30
0.0
 10
156.3680557840576
 20
69.42916434088225
 30
0.0
 10
156.5325881647885
 20
68.88119729051586
 30
0.0
 10
156.5933977214458
 20
68.21697765309483
 30
0.0
 10
156.4900530063311
 20
67.45786779805613
 30
0.0
 10
156.1746533502019
 20
66.77143366333085
 30
0.0
 10
155.7731906738575
 20
66.2601909739836
 30
0.0
 10
155.3491827899956
 20
65.9002334204611
 30
0.0
 10
154.8682285812415
 20
65.62726302606565
 30
0.0
 10
154.3442373985
 20
65.45858529227431
 30
0.0
 10
153.7966424123344
 20
65.39863252232558
 30
0.0
 10
153.2451620474553
 20
65.45446119015392
 30
0.0
 10
152.7127343360634
 20
65.61414695639986
 30
0.0
 10
152.2247024435424
 20
65.88061661677953
 30
0.0
 10
151.7973773234632
 20
66.24038514012237
 30
0.0
 10
151.44776036581
 20
66.68231115950603
 30
0.0
 10
151.1831918772901
 20
67.18375874327486
 30
0.0
 10
151.0192863292158
 20
67.7323125001469
 30
0.0
 10
150.9578751532513
 20
68.39603699972677
 30
0.0
 10
151.0600913774097
 20
69.15407562855448
 30
0.0
 10
151.3772810357468
 20
69.84196290174236
 30
0.0
 10
151.7818959761196
 20
70.35538667331738
 30
0.0
  0
SPLINE
  5
206
330
1F
100
AcDbEntity
  8
0
  6
Continuous
 62
     7
370
    15
100
AcDbSpline
210
0.0
220
0.0
230
1.0
 70
     8
 71
     3
 72
    35
 73
    31
 74
     0
 42
0.00000001
 43
0.00000001
 40
-0.1243197192419421
 40
-0.1014876450686309
 40
-0.0608470324374216
 40
0.0
 40
0.0343752282034998
 40
0.06664410493777
 40
0.0968273219162002
 40
0.1249505624682888
 40
0.152666254694978
 40
0.1874715331004942
 40
0.2288808119705798
 40
0.2500285047284304
 40
0.3139875933197626
 40
0.3744837005593567
 40
0.4023317688239968
 40
0.4371113644499154
 40
0.4795885530026773
 40
0.499790401118691
 40
0.5479907717246938
 40
0.5929884907782011
 40
0.6398024291144515
 40
0.6945156081854151
 40
0.728510232295924
 40
0.7625225324122133
 40
0.7965529092023899
 40
0.8145533850530493
 40
0.833722924435114
 40
0.8540905233807928
 40
0.8756802807580579
 40
0.898512354931369
 40
0.9391529675625784
 40
1.0
 40
1.0343752282035
 40
1.06664410493777
 40
1.0968273219162
 10
152.4002028391643
 20
70.18087344746847
 30
0.0
 10
151.9287416063723
 20
69.70251177651087
 30
0.0
 10
151.6448198475697
 20
69.15415096521228
 30
0.0
 10
151.5198768020032
 20
68.70102695043022
 30
0.0
 10
151.4882793386751
 20
68.26265385776287
 30
0.0
 10
151.5347684556711
 20
67.84811575995435
 30
0.0
 10
151.6592235360441
 20
67.42728249405724
 30
0.0
 10
151.8935732560525
 20
66.98117974365542
 30
0.0
 10
152.2078664713801
 20
66.62590478027664
 30
0.0
 10
152.6927921532934
 20
66.25665742623715
 30
0.0
 10
153.3647466372758
 20
65.98550670144608
 30
0.0
 10
154.1180239800686
 20
65.99692783409338
 30
0.0
 10
154.6845080270787
 20
66.16671875888197
 30
0.0
 10
155.1311015141305
 20
66.40227550924627
 30
0.0
 10
155.4824893368962
 20
66.71481700002816
 30
0.0
 10
155.8023812643246
 20
67.13612871752697
 30
0.0
 10
156.0364507267504
 20
67.63745784907515
 30
0.0
 10
156.1332152082437
 20
68.31476186083022
 30
0.0
 10
156.0277491853572
 20
69.02395197349057
 30
0.0
 10
155.7283156484158
 20
69.61527784448533
 30
0.0
 10
155.3288698259407
 20
70.04804691329197
 30
0.0
 10
154.9281044619501
 20
70.33067597513896
 30
0.0
 10
154.5481557928436
 20
70.49221573241833
 30
0.0
 10
154.217170109286
 20
70.57330728652693
 30
0.0
 10
153.9420861528301
 20
70.60762835878157
 30
0.0
 10
153.6468514835965
 20
70.60757683322197
 30
0.0
 10
153.336116902716
 20
70.5662680337292
 30
0.0
 10
152.9395825841376
 20
70.45562075330467
 30
0.0
 10
152.4002028391643
 20
70.18087344746847
 30
0.0
 10
151.9287416063723
 20
69.70251177651087
 30
0.0
 10
151.6448198475697
 20
69.15415096521228
 30
0.0
  0
SPLINE
  5
207
330
1F
100
AcDbEntity
  8
0
  6
Continuous
 62
     7
370
    15
100
AcDbSpline
210
0.0
220
0.0
230
1.0
 70
     8
 71
     3
 72
     8
 73
     4
 74
     0
 42
0.00000001
 43
0.00000001
 40
0.0
 40
0.0
 40
0.0
 40
0.0
 40
1.0
 40
1.0
 40
1.0
 40
1.0
 10
194.8008443459624
 20
80.30603323676982
 30
0.0
 10
194.5504836528137
 20
80.30603323676982
 30
0.0
 10
194.2845720769556
 20
80.32893396774914
 30
0.0
 10
194.0008443459624
 20
80.38684964831673
 30
0.0
  0
LINE
  5
208
330
1F
100
AcDbEntity
  8
0
  6
Continuous
 62
     7
370
    15
100
AcDbLine
 10
194.800844346
 20
80.3060332368
 30
0.0
 11
194.800844346
 21
75.3060332368
 31
0.0
  0
SPLINE
  5
209
330
1F
100
AcDbEntity
  8
0
  6
Continuous
 62
     7
370
    15
100
AcDbSpline
210
0.0
220
0.0
230
1.0
 70
     8
 71
     3
 72
     8
 73
     4
 74
     0
 42
0.00000001
 43
0.00000001
 40
0.0
 40
0.0
 40
0.0
 40
0.0
 40
1.0
 40
1.0
 40
1.0
 40
1.0
 10
194.0008443459624
 20
75.22521682522289
 30
0.0
 10
194.2605926125929
 20
75.27823771812432
 30
0.0
 10
194.5266043805472
 20
75.30603323676979
 30
0.0
 10
194.8008443459624
 20
75.30603323676979
 30
0.0
  0
ARC
  5
20A
330
1F
100
AcDbEntity
  8
0
  6
Continuous
 62
     7
370
    15
100
AcDbCircle
 10
142.600844346
 20
65.1810332368
 30
0.0
 40
0.9000000000000057
100
AcDbArc
 50
270.0
 51
0.0
  0
ARC
  5
20B
330
1F
100
AcDbEntity
  8
0
  6
Continuous
 62
     7
370
    15
100
AcDbCircle
 10
142.600844346
 20
71.4310332368
 30
0.0
 40
0.8999999999999915
100
AcDbArc
 50
0.0
 51
90.0
  0
LINE
  5
20C
330
1F
100
AcDbEntity
  8
0
  6
Continuous
 62
     7
370
    15
100
AcDbLine
 10
140.850844346
 20
72.3310332368
 30
0.0
 11
142.600844346
 21
72.3310332368
 31
0.0
  0
LINE
  5
20D
330
1F
100
AcDbEntity
  8
0
  6
Continuous
 62
     7
370
    15
100
AcDbLine
 10
140.850844346
 20
72.3310332368
 30
0.0
 11
140.850844346
 21
74.4434320809
 31
0.0
  0
LINE
  5
20E
330
1F
100
AcDbEntity
  8
0
  6
Continuous
 62
     7
370
    15
100
AcDbLine
 10
139.900844346
 20
72.8795159925
 30
0.0
 11
140.850844346
 21
72.3310332368
 31
0.0
  0
LINE
  5
20F
330
1F
100
AcDbEntity
  8
0
  6
Continuous
 62
     7
370
    15
100
AcDbLine
 10
139.900844346
 20
72.8795159925
 30
0.0
 11
139.900844346
 21
73.8076334425
 31
0.0
  0
SPLINE
  5
210
330
1F
100
AcDbEntity
  8
0
  6
Continuous
 62
     7
370
    15
100
AcDbSpline
210
0.0
220
0.0
230
1.0
 70
     8
 71
     3
 72
    10
 73
     6
 74
     0
 42
0.00000001
 43
0.00000001
 40
0.0
 40
0.0
 40
0.0
 40
0.0
 40
0.5
 40
0.5
 40
1.0
 40
1.0
 40
1.0
 40
1.0
 10
140.0259156405818
 20
74.69113621144514
 30
0.0
 10
140.0067002097975
 20
74.5472686480767
 30
0.0
 10
139.9723677620211
 20
74.39635913019902
 30
0.0
 10
139.9201928521675
 20
74.1002920887008
 30
0.0
 10
139.9008443459624
 20
73.95074385979734
 30
0.0
 10
139.9008443459624
 20
73.80763344248793
 30
0.0
  0
LINE
  5
211
330
1F
100
AcDbEntity
  8
0
  6
Continuous
 62
     7
370
    15
100
AcDbLine
 10
140.850844346
 20
64.2810332368
 30
0.0
 11
140.850844346
 21
62.1686343927
 31
0.0
  0
LINE
  5
212
330
1F
100
AcDbEntity
  8
0
  6
Continuous
 62
     7
370
    15
100
AcDbLine
 10
140.850844346
 20
64.2810332368
 30
0.0
 11
142.600844346
 21
64.2810332368
 31
0.0
  0
SPLINE
  5
213
330
1F
100
AcDbEntity
  8
0
  6
Continuous
 62
     7
370
    15
100
AcDbSpline
210
0.0
220
0.0
230
1.0
 70
     8
 71
     3
 72
    10
 73
     6
 74
     0
 42
0.00000001
 43
0.00000001
 40
0.0
 40
0.0
 40
0.0
 40
0.0
 40
0.5
 40
0.5
 40
1.0
 40
1.0
 40
1.0
 40
1.0
 10
140.0259156405818
 20
61.92093026209449
 30
0.0
 10
140.0067002097975
 20
62.06479782546294
 30
0.0
 10
139.9723677620211
 20
62.2157073433406
 30
0.0
 10
139.9201928521675
 20
62.51177438483883
 30
0.0
 10
139.9008443459624
 20
62.66132261374229
 30
0.0
 10
139.9008443459624
 20
62.80443303105169
 30
0.0
  0
LINE
  5
214
330
1F
100
AcDbEntity
  8
0
  6
Continuous
 62
     7
370
    15
100
AcDbLine
 10
139.900844346
 20
63.732550481
 30
0.0
 11
139.900844346
 21
62.8044330311
 31
0.0
  0
LINE
  5
215
330
1F
100
AcDbEntity
  8
0
  6
Continuous
 62
     7
370
    15
100
AcDbLine
 10
139.900844346
 20
63.732550481
 30
0.0
 11
140.850844346
 21
64.2810332368
 31
0.0
  0
LINE
  5
216
330
1F
100
AcDbEntity
  8
0
  6
Continuous
 62
     7
370
    15
100
AcDbLine
 10
151.8496920498
 20
69.5104672636
 30
0.0
 11
152.2977257879
 21
70.0415077285
 31
0.0
  0
SPLINE
  5
217
330
1F
100
AcDbEntity
  8
0
  6
Continuous
 62
     7
370
    15
100
AcDbSpline
210
0.0
220
0.0
230
1.0
 70
     8
 71
     3
 72
    22
 73
    18
 74
     0
 42
0.00000001
 43
0.00000001
 40
0.0
 40
0.0
 40
0.0
 40
0.0
 40
0.2500000000000006
 40
0.2500000000000006
 40
0.3750000000000007
 40
0.3750000000000007
 40
0.4375000000000007
 40
0.4375000000000007
 40
0.5000000000000008
 40
0.5000000000000008
 40
0.5625000000000008
 40
0.5625000000000008
 40
0.6250000000000009
 40
0.6250000000000009
 40
0.7500000000000011
 40
0.7500000000000011
 40
1.0
 40
1.0
 40
1.0
 40
1.0
 10
140.6608143923523
 20
74.86021482245192
 30
0.0
 10
140.6288471049037
 20
74.97585565279304
 30
0.0
 10
140.5913380204983
 20
75.08861760111851
 30
0.0
 10
140.5138884015656
 20
75.24406786933389
 30
0.0
 10
140.4845014743377
 20
75.29392800108836
 30
0.0
 10
140.4291995065011
 20
75.35594159667566
 30
0.0
 10
140.4087709998742
 20
75.37470650199798
 30
0.0
 10
140.3601829676357
 20
75.40155984481203
 30
0.0
 10
140.3317712412756
 20
75.40886624640561
 30
0.0
 10
140.2725631569994
 20
75.39513431768373
 30
0.0
 10
140.2450184737201
 20
75.3742800996647
 30
0.0
 10
140.2006768279257
 20
75.32314216090934
 30
0.0
 10
140.1832139635079
 20
75.2937422345782
 30
0.0
 10
140.1378895912707
 20
75.20300176852594
 30
0.0
 10
140.1172964785803
 20
75.14002063746342
 30
0.0
 10
140.0644763871742
 20
74.94876136605389
 30
0.0
 10
140.0430885165071
 20
74.81971099299103
 30
0.0
 10
140.0259156405818
 20
74.69113621144531
 30
0.0
  0
LINE
  5
218
330
1F
100
AcDbEntity
  8
0
  6
Continuous
 62
     7
370
    15
100
AcDbLine
 10
139.900844346
 20
73.8076334425
 30
0.0
 11
139.900844346
 21
81.7520168279
 31
0.0
  0
LINE
  5
219
330
1F
100
AcDbEntity
  8
0
  6
Continuous
 62
     7
370
    15
100
AcDbLine
 10
139.900844346
 20
54.8600496456
 30
0.0
 11
139.900844346
 21
62.8044330311
 31
0.0
  0
SPLINE
  5
21A
330
1F
100
AcDbEntity
  8
0
  6
Continuous
 62
     7
370
    15
100
AcDbSpline
210
0.0
220
0.0
230
1.0
 70
     8
 71
     3
 72
    22
 73
    18
 74
     0
 42
0.00000001
 43
0.00000001
 40
0.0
 40
0.0
 40
0.0
 40
0.0
 40
0.2499999999999997
 40
0.2499999999999997
 40
0.3749999999999991
 40
0.3749999999999991
 40
0.4374999999999988
 40
0.4374999999999988
 40
0.4999999999999985
 40
0.4999999999999985
 40
0.5624999999999982
 40
0.5624999999999982
 40
0.624999999999998
 40
0.624999999999998
 40
0.7499999999999987
 40
0.7499999999999987
 40
1.0
 40
1.0
 40
1.0
 40
1.0
 10
140.6608143923523
 20
61.75185165108769
 30
0.0
 10
140.6288471049037
 20
61.63621082074658
 30
0.0
 10
140.5913380204982
 20
61.52344887242112
 30
0.0
 10
140.5138884015656
 20
61.36799860420573
 30
0.0
 10
140.4845014743378
 20
61.31813847245127
 30
0.0
 10
140.4291995065011
 20
61.25612487686396
 30
0.0
 10
140.4087709998742
 20
61.23735997154165
 30
0.0
 10
140.3601829676357
 20
61.21050662872759
 30
0.0
 10
140.3317712412756
 20
61.20320022713402
 30
0.0
 10
140.2725631569994
 20
61.2169321558559
 30
0.0
 10
140.2450184737201
 20
61.23778637387492
 30
0.0
 10
140.2006768279257
 20
61.28892431263028
 30
0.0
 10
140.1832139635079
 20
61.31832423896142
 30
0.0
 10
140.1378895912707
 20
61.40906470501368
 30
0.0
 10
140.1172964785803
 20
61.4720458360762
 30
0.0
 10
140.0644763871742
 20
61.66330510748574
 30
0.0
 10
140.0430885165071
 20
61.79235548054859
 30
0.0
 10
140.0259156405818
 20
61.92093026209431
 30
0.0
  0
SPLINE
  5
21B
330
1F
100
AcDbEntity
  8
0
  6
Continuous
 62
     7
370
    15
100
AcDbSpline
210
0.0
220
0.0
230
1.0
 70
     8
 71
     3
 72
    12
 73
     8
 74
     0
 42
0.00000001
 43
0.00000001
 40
0.0
 40
0.0
 40
0.0
 40
0.0
 40
0.5000000000000013
 40
0.5000000000000013
 40
0.7500000000000007
 40
0.7500000000000007
 40
1.0
 40
1.0
 40
1.0
 40
1.0
 10
174.7608443459624
 20
54.79018605651508
 30
0.0
 10
174.7608443459624
 20
54.97474748822516
 30
0.0
 10
174.8078404434707
 20
55.16187123345998
 30
0.0
 10
174.957346381471
 20
55.395288880918
 30
0.0
 10
175.0218650040294
 20
55.46591441195108
 30
0.0
 10
175.1763046967584
 20
55.56799447740779
 30
0.0
 10
175.2672430847614
 20
55.59902237661863
 30
0.0
 10
175.3608443459624
 20
55.59902237661863
 30
0.0
  0
SPLINE
  5
21C
330
1F
100
AcDbEntity
  8
0
  6
Continuous
 62
     7
370
    15
100
AcDbSpline
210
0.0
220
0.0
230
1.0
 70
     8
 71
     3
 72
    12
 73
     8
 74
     0
 42
0.00000001
 43
0.00000001
 40
0.0
 40
0.0
 40
0.0
 40
0.0
 40
0.249999999999999
 40
0.249999999999999
 40
0.499999999999998
 40
0.499999999999998
 40
1.0
 40
1.0
 40
1.0
 40
1.0
 10
176.2408443459624
 20
55.59902237661858
 30
0.0
 10
176.3335024354686
 20
55.59902237661858
 30
0.0
 10
176.4255658450264
 20
55.56788403092551
 30
0.0
 10
176.5797233955171
 20
55.46597094619111
 30
0.0
 10
176.6442123288818
 20
55.3955124170467
 30
0.0
 10
176.7942638778314
 20
55.1611810936602
 30
0.0
 10
176.8408443459624
 20
54.97639588711255
 30
0.0
 10
176.8408443459624
 20
54.79018605651508
 30
0.0
  0
LINE
  5
21D
330
1F
100
AcDbEntity
  8
0
  6
Continuous
 62
     7
370
    15
100
AcDbLine
 10
175.360844346
 20
55.5990223766
 30
0.0
 11
176.240844346
 21
55.5990223766
 31
0.0
  0
LINE
  5
21E
330
1F
100
AcDbEntity
  8
0
  6
Continuous
 62
     7
370
    15
100
AcDbLine
 10
177.8360040449
 20
48.3060332368
 30
0.0
 11
177.8360040449
 21
52.1946242357
 31
0.0
  0
LINE
  5
21F
330
1F
100
AcDbEntity
  8
0
  6
Continuous
 62
     7
370
    15
100
AcDbLine
 10
176.840844346
 20
50.0297003969
 30
0.0
 11
176.840844346
 21
54.3919453373
 31
0.0
  0
SPLINE
  5
220
330
1F
100
AcDbEntity
  8
0
  6
Continuous
 62
     7
370
    15
100
AcDbSpline
210
0.0
220
0.0
230
1.0
 70
     8
 71
     3
 72
     8
 73
     4
 74
     0
 42
0.00000001
 43
0.00000001
 40
0.0
 40
0.0
 40
0.0
 40
0.0
 40
1.0
 40
1.0
 40
1.0
 40
1.0
 10
176.8408443459624
 20
54.39194533731445
 30
0.0
 10
177.1644810015846
 20
53.65564898656992
 30
0.0
 10
177.4969712231012
 20
52.92357608921813
 30
0.0
 10
177.8360040448559
 20
52.1946242356923
 30
0.0
  0
SPLINE
  5
221
330
1F
100
AcDbEntity
  8
0
  6
Continuous
 62
     7
370
    15
100
AcDbSpline
210
0.0
220
0.0
230
1.0
 70
     8
 71
     3
 72
    12
 73
     8
 74
     0
 42
0.00000001
 43
0.00000001
 40
0.0
 40
0.0
 40
0.0
 40
0.0
 40
0.250000000000002
 40
0.250000000000002
 40
0.500000000000004
 40
0.500000000000004
 40
1.0
 40
1.0
 40
1.0
 40
1.0
 10
179.1508443459624
 20
52.19462423569235
 30
0.0
 10
179.2390312113313
 20
52.19462423569235
 30
0.0
 10
179.3277186046325
 20
52.2199043858568
 30
0.0
 10
179.4819710977514
 20
52.30951573135856
 30
0.0
 10
179.5473170788273
 20
52.37250136828457
 30
0.0
 10
179.7017269487785
 20
52.58878809004213
 30
0.0
 10
179.7508443459624
 20
52.76876784746251
 30
0.0
 10
179.7508443459624
 20
52.94577607746421
 30
0.0
  0
LINE
  5
222
330
1F
100
AcDbEntity
  8
0
  6
Continuous
 62
     7
370
    15
100
AcDbLine
 10
179.750844346
 20
48.9060332368
 30
0.0
 11
179.750844346
 21
52.9457760775
 31
0.0
  0
LINE
  5
223
330
1F
100
AcDbEntity
  8
0
  6
Continuous
 62
     7
370
    15
100
AcDbLine
 10
177.8360040449
 20
52.1946242357
 30
0.0
 11
179.150844346
 21
52.1946242357
 31
0.0
  0
LINE
  5
224
330
1F
100
AcDbEntity
  8
0
  6
Continuous
 62
     7
370
    15
100
AcDbLine
 10
174.760844346
 20
50.0297003969
 30
0.0
 11
174.760844346
 21
54.3919453373
 31
0.0
  0
SPLINE
  5
225
330
1F
100
AcDbEntity
  8
0
  6
Continuous
 62
     7
370
    15
100
AcDbSpline
210
0.0
220
0.0
230
1.0
 70
     8
 71
     3
 72
     8
 73
     4
 74
     0
 42
0.00000001
 43
0.00000001
 40
0.0
 40
0.0
 40
0.0
 40
0.0
 40
1.0
 40
1.0
 40
1.0
 40
1.0
 10
173.765684647069
 20
52.19462423569235
 30
0.0
 10
174.1047174688236
 20
52.92357608921817
 30
0.0
 10
174.4372076903402
 20
53.65564898656994
 30
0.0
 10
174.7608443459624
 20
54.39194533731445
 30
0.0
  0
LINE
  5
226
330
1F
100
AcDbEntity
  8
0
  6
Continuous
 62
     7
370
    15
100
AcDbLine
 10
174.760844346
 20
54.3919453373
 30
0.0
 11
174.760844346
 21
54.7901860565
 31
0.0
  0
LINE
  5
227
330
1F
100
AcDbEntity
  8
0
  6
Continuous
 62
     7
370
    15
100
AcDbLine
 10
176.840844346
 20
54.7901860565
 30
0.0
 11
176.840844346
 21
54.3919453373
 31
0.0
  0
LINE
  5
228
330
1F
100
AcDbEntity
  8
0
  6
Continuous
 62
     7
370
    15
100
AcDbLine
 10
179.750844346
 20
52.9457760775
 30
0.0
 11
179.750844346
 21
55.4286305483
 31
0.0
  0
LINE
  5
229
330
1F
100
AcDbEntity
  8
0
  6
Continuous
 62
     7
370
    15
100
AcDbLine
 10
140.9530353436
 20
72.2720332368
 30
0.0
 11
142.9213423959
 21
72.2720332368
 31
0.0
  0
LINE
  5
22A
330
1F
100
AcDbEntity
  8
0
  6
Continuous
 62
     7
370
    15
100
AcDbLine
 10
140.850844346
 20
72.3310332368
 30
0.0
 11
140.9530353436
 21
72.2720332368
 31
0.0
  0
LINE
  5
22B
330
1F
100
AcDbEntity
  8
0
  6
Continuous
 62
     7
370
    15
100
AcDbLine
 10
140.850844346
 20
64.2810332368
 30
0.0
 11
140.9530353436
 21
64.3400332368
 31
0.0
  0
LINE
  5
22C
330
1F
100
AcDbEntity
  8
0
  6
Continuous
 62
     7
370
    15
100
AcDbLine
 10
140.9530353436
 20
64.3400332368
 30
0.0
 11
142.9213423959
 21
64.3400332368
 31
0.0
  0
LINE
  5
22D
330
1F
100
AcDbEntity
  8
0
  6
Continuous
 62
     7
370
    15
100
AcDbLine
 10
239.800844346
 20
88.3060332368
 30
0.0
 11
239.800844346
 21
67.3060332368
 31
0.0
  0
LWPOLYLINE
  5
22E
330
1F
100
AcDbEntity
  8
0
  6
Continuous
 62
     7
370
    15
100
AcDbPolyline
 90
       32
 70
   128
 43
0.0
 10
241.7193468567
 20
57.0973073257
 10
241.6949760323
 20
56.4530608886
 10
241.6665384954
 20
55.7960880897
 10
241.6351984822
 20
55.1532854725
 10
241.6022390564
 20
54.5509694517
 10
241.5690095809
 20
54.0137989161
 10
241.5368704743
 20
53.5637656904
 10
241.5071375153
 20
53.2192941877
 10
241.4810279748
 20
52.994487112
 10
241.4596107805
 20
52.8985480912
 10
241.4437627548
 20
52.9354048801
 10
241.4341327177
 20
53.1035485575
 10
241.4311149241
 20
53.3960953015
 10
241.4348329229
 20
53.801068214
 10
241.4451344986
 20
54.3018876564
 10
241.4615979036
 20
54.8780500218
 10
241.4835491242
 20
55.5059671554
 10
241.5100894748
 20
56.1599320559
 10
241.5401323903
 20
56.8131713234
 10
241.5724479103
 20
57.4389412655
 10
241.6057130335
 20
58.0116227874
 10
241.6385658819
 20
58.5077702402
 10
241.6696614561
 20
58.9070712889
 10
241.6977266995
 20
59.1931785017
 10
241.7216126178
 20
59.3543786157
 10
241.7403413187
 20
59.3840720791
 10
241.753146047
 20
59.2810432383
 10
241.7595025757
 20
59.049510106
 10
241.7591506676
 20
58.6989516758
 10
241.7521047299
 20
58.2437198511
 10
241.7386532242
 20
57.7024518762
 10
241.7193468567
 20
57.0973073257
  0
LWPOLYLINE
  5
22F
330
1F
100
AcDbEntity
  8
0
  6
Continuous
 62
     7
370
    15
100
AcDbPolyline
 90
       29
 70
   128
 43
0.0
 10
241.6907997765
 20
56.8768997438
 10
241.6698440042
 20
56.3272828507
 10
241.6451674758
 20
55.768385522
 10
241.6180075756
 20
55.2282332035
 10
241.5897262142
 20
54.7339113878
 10
241.5617415373
 20
54.310207435
 10
241.5354568134
 20
53.9783676304
 10
241.5121900683
 20
53.7550318075
 10
241.4931079938
 20
53.6513989571
 10
241.4791674447
 20
53.6726656629
 10
241.4710674585
 20
53.8177655236
 10
241.4692142022
 20
54.0794226263
 10
241.4737006059
 20
54.4445163912
 10
241.4843017025
 20
54.8947394925
 10
241.5004859088
 20
55.4075158638
 10
241.5214416811
 20
55.9571327569
 10
241.5461182095
 20
56.5160300856
 10
241.5732781097
 20
57.0561824041
 10
241.6015594711
 20
57.5505042198
 10
241.629544148
 20
57.9742081726
 10
241.6558288719
 20
58.3060479772
 10
241.679095617
 20
58.5293838001
 10
241.6981776915
 20
58.6330166505
 10
241.7121182406
 20
58.6117499446
 10
241.7202182268
 20
58.4666500839
 10
241.7220714831
 20
58.2049929813
 10
241.7175850794
 20
57.8398992164
 10
241.7069839828
 20
57.3896761151
 10
241.6907997765
 20
56.8768997438
  0
LINE
  5
230
330
1F
100
AcDbEntity
  8
0
  6
Continuous
 62
     7
370
    15
100
AcDbLine
 10
233.300844346
 20
68.3060332368
 30
0.0
 11
226.300844346
 21
68.3060332368
 31
0.0
  0
LINE
  5
231
330
1F
100
AcDbEntity
  8
0
  6
Continuous
 62
     7
370
    15
100
AcDbLine
 10
211.300844346
 20
68.3060332368
 30
0.0
 11
204.300844346
 21
68.3060332368
 31
0.0
  0
DIMENSION
  5
232
330
1F
100
AcDbEntity
  8
VERMASSUNG
100
AcDbDimension
  2
*D4
 10
194.800844346
 20
39.1063923485
 30
0.0
 11
217.6341155808
 21
39.1063923485
 31
0.0
 70
   160
 71
     2
 42
-1.0
  3
SLDDIMSTYLE0
100
AcDbAlignedDimension
 13
239.800844346
 23
48.3060332368
 33
0.0
 14
194.800844346
 24
75.3060332368
 34
0.0
100
AcDbRotatedDimension
  0
LINE
  5
23C
330
1F
100
AcDbEntity
  8
VERMASSUNG
  6
CENTERX2
 62
     7
370
     0
100
AcDbLine
 10
137.8190360057
 20
68.3060332368
 30
0.0
 11
241.800844346
 21
68.3060332368
 31
0.0
  0
LINE
  5
23D
330
1F
100
AcDbEntity
  8
0
  6
Continuous
 62
     7
370
    15
100
AcDbLine
 10
49.2084722684
 20
151.187426325
 30
0.0
 11
50.2084722684
 21
152.187426325
 31
0.0
  0
LINE
  5
23E
330
1F
100
AcDbEntity
  8
0
  6
Continuous
 62
     7
370
    15
100
AcDbLine
 10
50.2084722684
 20
159.187426325
 30
0.0
 11
49.2084722684
 21
160.187426325
 31
0.0
  0
LINE
  5
23F
330
1F
100
AcDbEntity
  8
0
  6
Continuous
 62
     7
370
    15
100
AcDbLine
 10
70.2084722684
 20
145.687426325
 30
0.0
 11
70.2084722684
 21
165.687426325
 31
0.0
  0
LINE
  5
240
330
1F
100
AcDbEntity
  8
0
  6
Continuous
 62
     7
370
    15
100
AcDbLine
 10
76.6659853791
 20
165.687426325
 30
0.0
 11
70.2084722684
 21
165.687426325
 31
0.0
  0
ARC
  5
241
330
1F
100
AcDbEntity
  8
0
  6
Continuous
 62
     7
370
    15
100
AcDbCircle
 10
50.2084722684
 20
135.687426325
 30
0.0
 40
40.00000000000002
100
AcDbArc
 50
36.8698976458
 51
48.5903778907
  0
LINE
  5
242
330
1F
100
AcDbEntity
  8
0
  6
Continuous
 62
     7
370
    15
100
AcDbLine
 10
67.2084722684
 20
115.687426325
 30
0.0
 11
82.2084722684
 21
130.687426325
 31
0.0
  0
LINE
  5
243
330
1F
100
AcDbEntity
  8
0
  6
Continuous
 62
     7
370
    15
100
AcDbLine
 10
45.2084722684
 20
115.687426325
 30
0.0
 11
67.2084722684
 21
115.687426325
 31
0.0
  0
LINE
  5
244
330
1F
100
AcDbEntity
  8
0
  6
Continuous
 62
     7
370
    15
100
AcDbLine
 10
30.2084722684
 20
130.687426325
 30
0.0
 11
45.2084722684
 21
115.687426325
 31
0.0
  0
LINE
  5
245
330
1F
100
AcDbEntity
  8
0
  6
Continuous
 62
     7
370
    15
100
AcDbLine
 10
30.2084722684
 20
165.687426325
 30
0.0
 11
30.2084722684
 21
130.687426325
 31
0.0
  0
LINE
  5
246
330
1F
100
AcDbEntity
  8
0
  6
Continuous
 62
     7
370
    15
100
AcDbLine
 10
49.2084722684
 20
165.687426325
 30
0.0
 11
30.2084722684
 21
165.687426325
 31
0.0
  0
LINE
  5
247
330
1F
100
AcDbEntity
  8
0
  6
Continuous
 62
     7
370
    15
100
AcDbLine
 10
49.2084722684
 20
145.687426325
 30
0.0
 11
49.2084722684
 21
165.687426325
 31
0.0
  0
LINE
  5
248
330
1F
100
AcDbEntity
  8
0
  6
Continuous
 62
     7
370
    15
100
AcDbLine
 10
70.2084722684
 20
145.687426325
 30
0.0
 11
49.2084722684
 21
145.687426325
 31
0.0
  0
CIRCLE
  5
249
330
1F
100
AcDbEntity
  8
0
  6
Continuous
 62
     7
370
    15
100
AcDbCircle
 10
50.2084722684
 20
135.687426325
 30
0.0
 40
3.349999999999994
  0
CIRCLE
  5
24A
330
1F
100
AcDbEntity
  8
0
  6
Continuous
 62
     7
370
    15
100
AcDbCircle
 10
38.2084722684
 20
141.687426325
 30
0.0
 40
6.0
  0
LINE
  5
24B
330
1F
100
AcDbEntity
  8
0
  6
Continuous
 62
     7
370
    15
100
AcDbLine
 10
82.2084722684
 20
130.687426325
 30
0.0
 11
82.2084722684
 21
159.687426325
 31
0.0
  0
CIRCLE
  5
24C
330
1F
100
AcDbEntity
  8
0
  6
Continuous
 62
     7
370
    15
100
AcDbCircle
 10
50.2084722684
 20
135.687426325
 30
0.0
 40
1.575000000000017
  0
ELLIPSE
  5
24D
330
1F
100
AcDbEntity
  8
0
  6
Continuous
 62
     7
370
    15
100
AcDbEllipse
 10
39.4764214609
 20
141.8835787477
 30
0.0
 11
2.006661946372269
 21
-1.158546814910579
 31
7.105427357601002E-15
210
-4.347457647962663E-15
220
-1.396965963913751E-15
230
0.9999999999999997
 40
0.906307787
 41
2.6878509586218
 42
4.936152290182068
  0
SPLINE
  5
24E
330
1F
100
AcDbEntity
  8
0
  6
Continuous
 62
     7
370
    15
100
AcDbSpline
210
0.0
220
0.0
230
1.0
 70
     8
 71
     3
 72
    12
 73
     8
 74
     0
 42
0.00000001
 43
0.00000001
 40
0.0
 40
0.0
 40
0.0
 40
0.0
 40
0.5000000000000034
 40
0.5000000000000034
 40
0.7500000000000017
 40
0.7500000000000017
 40
1.0
 40
1.0
 40
1.0
 40
1.0
 10
63.3328770168535
 20
145.6874263249668
 30
0.0
 10
63.10771533242894
 20
145.9829376329889
 30
0.0
 10
62.89418825363457
 20
146.2422037653198
 30
0.0
 10
62.61602114439179
 20
146.5650598042257
 30
0.0
 10
62.53312472958913
 20
146.6584865002211
 30
0.0
 10
62.39125580970302
 20
146.8158136674298
 30
0.0
 10
62.3318139627976
 20
146.8802134754546
 30
0.0
 10
62.28928867999371
 20
146.9259259948738
 30
0.0
  0
LINE
  5
24F
330
1F
100
AcDbEntity
  8
0
  6
Continuous
 62
     7
370
    15
100
AcDbLine
 10
62.2084722684
 20
145.687426325
 30
0.0
 11
62.2084722684
 21
145.9000321708
 31
0.0
  0
SPLINE
  5
250
330
1F
100
AcDbEntity
  8
0
  6
Continuous
 62
     7
370
    15
100
AcDbSpline
210
0.0
220
0.0
230
1.0
 70
     8
 71
     3
 72
     8
 73
     4
 74
     0
 42
0.00000001
 43
0.00000001
 40
0.0
 40
0.0
 40
0.0
 40
0.0
 40
1.0
 40
1.0
 40
1.0
 40
1.0
 10
62.2084722684468
 20
145.9000321707682
 30
0.0
 10
62.2084722684468
 20
146.2572242572151
 30
0.0
 10
62.23137299942613
 20
146.6001398544733
 30
0.0
 10
62.28928867999371
 20
146.9259259948738
 30
0.0
  0
LINE
  5
251
330
1F
100
AcDbEntity
  8
0
  6
Continuous
 62
     7
370
    15
100
AcDbLine
 10
57.2084722684
 20
145.687426325
 30
0.0
 11
57.2084722684
 21
149.8046965342
 31
0.0
  0
ARC
  5
252
330
1F
100
AcDbEntity
  8
0
  6
Continuous
 62
     7
370
    15
100
AcDbCircle
 10
50.2084722684
 20
135.687426325
 30
0.0
 40
15.75745278151574
100
AcDbArc
 50
40.3994609784
 51
63.6256441794
  0
ARC
  5
253
330
1F
100
AcDbEntity
  8
0
  6
Continuous
 62
     7
370
    15
100
AcDbCircle
 10
50.2084722684
 20
135.687426325
 30
0.0
 40
16.50000000000002
100
AcDbArc
 50
42.931319197
 51
65.206792577
  0
SPLINE
  5
254
330
1F
100
AcDbEntity
  8
0
  6
Continuous
 62
     7
370
    15
100
AcDbSpline
210
0.0
220
0.0
230
1.0
 70
     8
 71
     3
 72
     8
 73
     4
 74
     0
 42
0.00000001
 43
0.00000001
 40
0.0
 40
0.0
 40
0.0
 40
0.0
 40
1.0
 40
1.0
 40
1.0
 40
1.0
 10
57.12765585689989
 20
150.6665751148441
 30
0.0
 10
57.18067674980132
 20
150.3755503775429
 30
0.0
 10
57.20847226844679
 20
150.0877394387086
 30
0.0
 10
57.20847226844679
 20
149.8046965342423
 30
0.0
  0
SPLINE
  5
255
330
1F
100
AcDbEntity
  8
0
  6
Continuous
 62
     7
370
    15
100
AcDbSpline
210
0.0
220
0.0
230
1.0
 70
     8
 71
     3
 72
    16
 73
    12
 74
     0
 42
0.00000001
 43
0.00000001
 40
0.0
 40
0.0
 40
0.0
 40
0.0
 40
0.0513063013370966
 40
0.1908907254525134
 40
0.3377458405059057
 40
0.4954170092648943
 40
0.5737878361800884
 40
0.6546443033982684
 40
0.806053318417052
 40
0.9521229030050653
 40
1.0
 40
1.0
 40
1.0
 40
1.0
 10
57.12765585689989
 20
150.6665751148441
 30
0.0
 10
57.09155122384066
 20
150.6831825650444
 30
0.0
 10
56.95721997373572
 20
150.7449724063317
 30
0.0
 10
56.4829194899505
 20
150.9549900412023
 30
0.0
 10
55.55540000890719
 20
151.3114063955566
 30
0.0
 10
54.53106273024611
 20
151.6230609309349
 30
0.0
 10
53.61370835070493
 20
151.8375418704866
 30
0.0
 10
52.68687976437423
 20
152.0120723943242
 30
0.0
 10
51.58199419823212
 20
152.1456998597629
 30
0.0
 10
50.64244956020974
 20
152.1896503222395
 30
0.0
 10
50.30192945904572
 20
152.1843998693384
 30
0.0
 10
50.21786968664284
 20
152.183103758259
 30
0.0
  0
SPLINE
  5
256
330
1F
100
AcDbEntity
  8
0
  6
Continuous
 62
     7
370
    15
100
AcDbSpline
210
0.0
220
0.0
230
1.0
 70
    24
 71
     3
 72
    14
 73
    10
 74
     0
 42
0.00000001
 43
0.00000001
 40
0.0
 40
0.0
 40
0.0
 40
0.0
 40
0.5
 40
0.5
 40
0.75
 40
0.75
 40
0.875
 40
0.875
 40
1.0
 40
1.0
 40
1.0
 40
1.0
 10
54.70847226844685
 20
152.5874263249668
 30
0.0
 10
53.95771747513366
 20
152.5874263249668
 30
0.0
 10
53.20822982913763
 20
152.5874263249668
 30
0.0
 10
52.0838104982347
 20
152.5874263249668
 30
0.0
 10
51.70897805453847
 20
152.5874263249668
 30
0.0
 10
51.14648074830285
 20
152.5874263249668
 30
0.0
 10
50.95894079860192
 20
152.5874263249668
 30
0.0
 10
50.58377554935026
 20
152.5874263249668
 30
0.0
 10
50.39807028226135
 20
152.5874263249668
 30
0.0
 10
50.20847226844685
 20
152.5874263249668
 30
0.0
  0
SPLINE
  5
257
330
1F
100
AcDbEntity
  8
0
  6
Continuous
 62
     7
370
    15
100
AcDbSpline
210
0.0
220
0.0
230
1.0
 70
    24
 71
     3
 72
     9
 73
     5
 74
     0
 42
0.00000001
 43
0.00000001
 40
0.0
 40
0.0
 40
0.0
 40
0.0
 40
0.5
 40
1.0
 40
1.0
 40
1.0
 40
1.0
 10
54.70847226844685
 20
152.5989608502546
 30
0.0
 10
54.70847226844685
 20
152.5970377257715
 30
0.0
 10
54.70847226844685
 20
152.5931921809266
 30
0.0
 10
54.70847226844685
 20
152.5893480427491
 30
0.0
 10
54.70847226844685
 20
152.5874263249668
 30
0.0
  0
ARC
  5
258
330
1F
100
AcDbEntity
  8
0
  6
Continuous
 62
     7
370
    15
100
AcDbCircle
 10
50.2084722684
 20
135.687426325
 30
0.0
 40
20.0
100
AcDbArc
 50
197.1144331639
 51
252.8855668361
  0
SPLINE
  5
259
330
1F
100
AcDbEntity
  8
0
  6
Continuous
 62
     7
370
    15
100
AcDbSpline
210
0.0
220
0.0
230
1.0
 70
    24
 71
     3
 72
    10
 73
     6
 74
     0
 42
0.00000001
 43
0.00000001
 40
0.0
 40
0.0
 40
0.0
 40
0.0
 40
0.5
 40
0.5
 40
1.0
 40
1.0
 40
1.0
 40
1.0
 10
54.70847226844685
 20
155.1746015948719
 30
0.0
 10
54.70847226844685
 20
155.1746015948719
 30
0.0
 10
54.70847226844685
 20
155.106016192366
 30
0.0
 10
54.70847226844685
 20
154.8762429230464
 30
0.0
 10
54.70847226844685
 20
154.7177447213787
 30
0.0
 10
54.70847226844685
 20
154.5583033581097
 30
0.0
  0
ARC
  5
25A
330
1F
100
AcDbEntity
  8
0
  6
Continuous
 62
     7
370
    15
100
AcDbCircle
 10
50.2084722684
 20
135.687426325
 30
0.0
 40
20.00000000000001
100
AcDbArc
 50
30.0
 51
76.9971218371
  0
LINE
  5
25B
330
1F
100
AcDbEntity
  8
0
  6
Continuous
 62
     7
370
    15
100
AcDbLine
 10
54.7084722684
 20
154.5583033581
 30
0.0
 11
54.7084722684
 21
152.5989608503
 31
0.0
  0
SPLINE
  5
25C
330
1F
100
AcDbEntity
  8
0
  6
Continuous
 62
     7
370
    15
100
AcDbSpline
210
0.0
220
0.0
230
1.0
 70
     8
 71
     3
 72
    17
 73
    13
 74
     0
 42
0.00000001
 43
0.00000001
 40
0.0
 40
0.0
 40
0.0
 40
0.0
 40
0.0659321100112124
 40
0.1690644277450609
 40
0.2751473426015504
 40
0.3791219034759717
 40
0.4859857143759375
 40
0.592205756647697
 40
0.7014815006151798
 40
0.8079657768140923
 40
0.9176703452824222
 40
1.0
 40
1.0
 40
1.0
 40
1.0
 10
50.20847226844674
 20
155.6839395306255
 30
0.0
 10
50.36442574454203
 20
155.6842583465321
 30
0.0
 10
50.76432474954002
 20
155.6850758606206
 30
0.0
 10
51.40506869777863
 20
155.6551517935713
 30
0.0
 10
52.10123915235523
 20
155.6017231673684
 30
0.0
 10
52.75227264813416
 20
155.5281949156277
 30
0.0
 10
53.3334993929728
 20
155.4443416328567
 30
0.0
 10
53.8366012467049
 20
155.3574044305232
 30
0.0
 10
54.23776642959913
 20
155.2783779592965
 30
0.0
 10
54.52589741449631
 20
155.2163248225399
 30
0.0
 10
54.68369326046369
 20
155.1803437007258
 30
0.0
 10
54.70103671538833
 20
155.1763246554873
 30
0.0
 10
54.70847226844688
 20
155.1746015948719
 30
0.0
  0
CIRCLE
  5
25D
330
1F
100
AcDbEntity
  8
0
  6
Continuous
 62
     7
370
    15
100
AcDbCircle
 10
38.0405724188
 20
141.7878260446
 30
0.0
 40
3.248439541316273
  0
CIRCLE
  5
25E
330
1F
100
AcDbEntity
  8
0
  6
Continuous
 62
     7
370
    15
100
AcDbCircle
 10
38.0415682882
 20
141.7878385191
 30
0.0
 40
2.498701468314899
  0
CIRCLE
  5
25F
330
1F
100
AcDbEntity
  8
0
  6
Continuous
 62
     7
370
    15
100
AcDbCircle
 10
38.0592596563
 20
141.7774439797
 30
0.0
 40
2.099069917907335
  0
ARC
  5
260
330
1F
100
AcDbEntity
  8
0
  6
Continuous
 62
     7
370
    15
100
AcDbCircle
 10
38.3039547989
 20
141.6286626373
 30
0.0
 40
2.1001380717131
100
AcDbArc
 50
62.3007310146
 51
234.4797316558
  0
CIRCLE
  5
261
330
1F
100
AcDbEntity
  8
0
  6
Continuous
 62
     7
370
    15
100
AcDbCircle
 10
38.2084722684
 20
141.687426325
 30
0.0
 40
4.582575694955864
  0
CIRCLE
  5
262
330
1F
100
AcDbEntity
  8
0
  6
Continuous
 62
     7
370
    15
100
AcDbCircle
 10
38.2084722684
 20
141.687426325
 30
0.0
 40
6.000000000000028
  0
LINE
  5
263
330
1F
100
AcDbEntity
  8
0
  6
Continuous
 62
     7
370
    15
100
AcDbLine
 10
50.2084722684
 20
152.187426325
 30
0.0
 11
50.2084722684
 21
159.187426325
 31
0.0
  0
DIMENSION
  5
264
330
1F
100
AcDbEntity
  8
VERMASSUNG
100
AcDbDimension
  2
*D5
 10
70.2084722684
 20
170.6000464495
 30
0.0
 11
60.7971810246
 21
170.6000464495
 31
0.0
 70
   160
 71
     2
 42
-1.0
  3
SLDDIMSTYLE0
100
AcDbAlignedDimension
 13
50.2084722684
 23
166.4428181153
 33
0.0
 14
70.2084722684
 24
165.687426325
 34
0.0
100
AcDbRotatedDimension
  0
DIMENSION
  5
26E
330
1F
100
AcDbEntity
  8
VERMASSUNG
100
AcDbDimension
  2
*D6
 10
92.2084722684
 20
145.687426325
 30
0.0
 11
92.2084722684
 21
156.8656161947
 31
0.0
 70
   160
 71
     2
 42
-1.0
  3
SLDDIMSTYLE0
100
AcDbAlignedDimension
 13
76.6659853791
 23
165.687426325
 33
0.0
 14
70.2084722684
 24
145.687426325
 34
0.0
 50
90.0
100
AcDbRotatedDimension
  0
DIMENSION
  5
278
330
1F
100
AcDbEntity
  8
VERMASSUNG
100
AcDbDimension
  2
*D7
 10
82.2084722684
 20
176.6000464495
 30
0.0
 11
65.8967198764
 21
176.6000464495
 31
0.0
 70
   160
 71
     2
 42
-1.0
  3
SLDDIMSTYLE0
100
AcDbAlignedDimension
 13
50.2084722684
 23
166.4428181153
 33
0.0
 14
82.2084722684
 24
159.687426325
 34
0.0
100
AcDbRotatedDimension
  0
DIMENSION
  5
282
330
1F
100
AcDbEntity
  8
VERMASSUNG
100
AcDbDimension
  2
*D8
 10
30.2084722684
 20
182.6000464495
 30
0.0
 11
56.5734356794
 21
182.6000464495
 31
0.0
 70
   160
 71
     2
 42
-1.0
  3
SLDDIMSTYLE0
100
AcDbAlignedDimension
 13
82.2084722684
 23
159.687426325
 33
0.0
 14
30.2084722684
 24
165.687426325
 34
0.0
100
AcDbRotatedDimension
  0
DIMENSION
  5
28C
330
1F
100
AcDbEntity
  8
VERMASSUNG
100
AcDbDimension
  2
*D9
 10
104.2084722684
 20
115.687426325
 30
0.0
 11
104.2084722684
 21
140.7784545871
 31
0.0
 70
   160
 71
     2
 42
-1.0
  3
SLDDIMSTYLE0
100
AcDbAlignedDimension
 13
76.6659853791
 23
165.687426325
 33
0.0
 14
67.2084722684
 24
115.687426325
 34
0.0
 50
90.0
100
AcDbRotatedDimension
  0
DIMENSION
  5
296
330
1F
100
AcDbEntity
  8
VERMASSUNG
100
AcDbDimension
  2
*D10
 10
20.1900233977
 20
109.2508469813
 30
0.0
 11
88.9832465224
 21
169.8355076043
 31
0.0
 70
   163
  1
<>
 71
     1
 42
-1.0
  3
SLDDIMSTYLE1
100
AcDbDiametricDimension
 15
80.2269211392
 25
162.1240056687
 35
0.0
 40
0.0
  0
DIMENSION
  5
29F
330
1F
100
AcDbEntity
  8
VERMASSUNG
100
AcDbDimension
  2
*D11
 10
98.2084722684
 20
135.687426325
 30
0.0
 11
98.2084722684
 21
151.3381456987
 31
0.0
 70
   160
 71
     2
 42
-1.0
  3
SLDDIMSTYLE0
100
AcDbAlignedDimension
 13
76.6659853791
 23
165.687426325
 33
0.0
 14
92.2719383103
 24
135.687426325
 34
0.0
 50
90.0
100
AcDbRotatedDimension
  0
INSERT
  5
2B4
330
1F
100
AcDbEntity
  8
VERMASSUNG
100
AcDbBlockReference
  2
SW_CENTERMARKSYMBOL_0
 10
50.2084722684
 20
135.687426325
 30
0.0
  0
LINE
  5
2B5
330
1F
100
AcDbEntity
  8
VERMASSUNG
  6
CENTERX2
 62
     7
370
     0
100
AcDbLine
 10
40.0657012395
 20
140.5444148998
 30
0.0
 11
36.3413716663
 21
142.8365131384
 31
0.0
  0
OLE2FRAME
  5
2B6
330
1F
100
AcDbEntity
  8
0
100
AcDbOle2Frame
 70
     2
  3
Bitmap Image
 10
13.8511154363
 20
38.264191557
 30
0.0
 11
51.6290888628
 21
31.9806341108
 31
0.0
 71
     2
 72
     0
 73
     1
 90
    12928
310
80552BED0767C5B32B40DDAF6807D121434000000000000000006FFBDDFB85D0
310
4940DDAF6807D121434000000000000000006FFBDDFB85D04940416F4BD60AFB
310
3F4000000000000000002BED0767C5B32B40416F4BD60AFB3F40000000000000
310
0000000000000100000000010000010000000100000000000100000000320000
310
D0CF11E0A1B11AE1000000000000000000000000000000003E000300FEFF0900
310
0600000000000000000000000100000001000000000000000010000002000000
310
01000000FEFFFFFF0000000000000000FFFFFFFFFFFFFFFFFFFFFFFFFFFFFFFF
310
FFFFFFFFFFFFFFFFFFFFFFFFFFFFFFFFFFFFFFFFFFFFFFFFFFFFFFFFFFFFFFFF
310
FFFFFFFFFFFFFFFFFFFFFFFFFFFFFFFFFFFFFFFFFFFFFFFFFFFFFFFFFFFFFFFF
310
FFFFFFFFFFFFFFFFFFFFFFFFFFFFFFFFFFFFFFFFFFFFFFFFFFFFFFFFFFFFFFFF
310
FFFFFFFFFFFFFFFFFFFFFFFFFFFFFFFFFFFFFFFFFFFFFFFFFFFFFFFFFFFFFFFF
310
FFFFFFFFFFFFFFFFFFFFFFFFFFFFFFFFFFFFFFFFFFFFFFFFFFFFFFFFFFFFFFFF
310
FFFFFFFFFFFFFFFFFFFFFFFFFFFFFFFFFFFFFFFFFFFFFFFFFFFFFFFFFFFFFFFF
310
FFFFFFFFFFFFFFFFFFFFFFFFFFFFFFFFFFFFFFFFFFFFFFFFFFFFFFFFFFFFFFFF
310
FFFFFFFFFFFFFFFFFFFFFFFFFFFFFFFFFFFFFFFFFFFFFFFFFFFFFFFFFFFFFFFF
310
FFFFFFFFFFFFFFFFFFFFFFFFFFFFFFFFFFFFFFFFFFFFFFFFFFFFFFFFFFFFFFFF
310
FFFFFFFFFFFFFFFFFFFFFFFFFFFFFFFFFFFFFFFFFFFFFFFFFFFFFFFFFFFFFFFF
310
FFFFFFFFFFFFFFFFFFFFFFFFFFFFFFFFFFFFFFFFFFFFFFFFFFFFFFFFFFFFFFFF
310
FFFFFFFFFFFFFFFFFFFFFFFFFFFFFFFFFFFFFFFFFFFFFFFFFFFFFFFFFFFFFFFF
310
FFFFFFFFFFFFFFFFFFFFFFFFFFFFFFFFFFFFFFFFFFFFFFFFFFFFFFFFFFFFFFFF
310
FDFFFFFFFEFFFFFFFEFFFFFFFEFFFFFF05000000060000000700000008000000
310
090000000A0000000B0000000C0000000D0000000E0000000F00000010000000
310
11000000120000001300000014000000150000001600000017000000FEFFFFFF
310
FFFFFFFFFFFFFFFFFFFFFFFFFFFFFFFFFFFFFFFFFFFFFFFFFFFFFFFFFFFFFFFF
310
FFFFFFFFFFFFFFFFFFFFFFFFFFFFFFFFFFFFFFFFFFFFFFFFFFFFFFFFFFFFFFFF
310
FFFFFFFFFFFFFFFFFFFFFFFFFFFFFFFFFFFFFFFFFFFFFFFFFFFFFFFFFFFFFFFF
310
FFFFFFFFFFFFFFFFFFFFFFFFFFFFFFFFFFFFFFFFFFFFFFFFFFFFFFFFFFFFFFFF
310
FFFFFFFFFFFFFFFFFFFFFFFFFFFFFFFFFFFFFFFFFFFFFFFFFFFFFFFFFFFFFFFF
310
FFFFFFFFFFFFFFFFFFFFFFFFFFFFFFFFFFFFFFFFFFFFFFFFFFFFFFFFFFFFFFFF
310
FFFFFFFFFFFFFFFFFFFFFFFFFFFFFFFFFFFFFFFFFFFFFFFFFFFFFFFFFFFFFFFF
310
FFFFFFFFFFFFFFFFFFFFFFFFFFFFFFFFFFFFFFFFFFFFFFFFFFFFFFFFFFFFFFFF
310
FFFFFFFFFFFFFFFFFFFFFFFFFFFFFFFFFFFFFFFFFFFFFFFFFFFFFFFFFFFFFFFF
310
FFFFFFFFFFFFFFFFFFFFFFFFFFFFFFFFFFFFFFFFFFFFFFFFFFFFFFFFFFFFFFFF
310
FFFFFFFFFFFFFFFFFFFFFFFFFFFFFFFFFFFFFFFFFFFFFFFFFFFFFFFFFFFFFFFF
310
FFFFFFFFFFFFFFFFFFFFFFFFFFFFFFFFFFFFFFFFFFFFFFFFFFFFFFFFFFFFFFFF
310
FFFFFFFFFFFFFFFFFFFFFFFFFFFFFFFFFFFFFFFFFFFFFFFFFFFFFFFFFFFFFFFF
310
52006F006F007400200045006E00740072007900000000000000000000000000
310
0000000000000000000000000000000000000000000000000000000000000000
310
16000500FFFFFFFFFFFFFFFF020000000A00030000000000C000000000000046
310
000000000000000000000000F0042B8D6709CC0103000000C000000000000000
310
01004F006C006500000000000000000000000000000000000000000000000000
310
0000000000000000000000000000000000000000000000000000000000000000
310
0A000200FFFFFFFFFFFFFFFFFFFFFFFF00000000000000000000000000000000
310
0000000000000000000000000000000000000000000000001400000000000000
310
010043006F006D0070004F0062006A0000000000000000000000000000000000
310
0000000000000000000000000000000000000000000000000000000000000000
310
120002010100000003000000FFFFFFFF00000000000000000000000000000000
310
0000000000000000000000000000000000000000010000004D00000000000000
310
01004F006C006500310030004E00610074006900760065000000000000000000
310
0000000000000000000000000000000000000000000000000000000000000000
310
1A000200FFFFFFFFFFFFFFFFFFFFFFFF00000000000000000000000000000000
310
0000000000000000000000000000000000000000040000002426000000000000
310
FEFFFFFF02000000FEFFFFFFFFFFFFFFFFFFFFFFFFFFFFFFFFFFFFFFFFFFFFFF
310
FFFFFFFFFFFFFFFFFFFFFFFFFFFFFFFFFFFFFFFFFFFFFFFFFFFFFFFFFFFFFFFF
310
FFFFFFFFFFFFFFFFFFFFFFFFFFFFFFFFFFFFFFFFFFFFFFFFFFFFFFFFFFFFFFFF
310
FFFFFFFFFFFFFFFFFFFFFFFFFFFFFFFFFFFFFFFFFFFFFFFFFFFFFFFFFFFFFFFF
310
FFFFFFFFFFFFFFFFFFFFFFFFFFFFFFFFFFFFFFFFFFFFFFFFFFFFFFFFFFFFFFFF
310
FFFFFFFFFFFFFFFFFFFFFFFFFFFFFFFFFFFFFFFFFFFFFFFFFFFFFFFFFFFFFFFF
310
FFFFFFFFFFFFFFFFFFFFFFFFFFFFFFFFFFFFFFFFFFFFFFFFFFFFFFFFFFFFFFFF
310
FFFFFFFFFFFFFFFFFFFFFFFFFFFFFFFFFFFFFFFFFFFFFFFFFFFFFFFFFFFFFFFF
310
FFFFFFFFFFFFFFFFFFFFFFFFFFFFFFFFFFFFFFFFFFFFFFFFFFFFFFFFFFFFFFFF
310
FFFFFFFFFFFFFFFFFFFFFFFFFFFFFFFFFFFFFFFFFFFFFFFFFFFFFFFFFFFFFFFF
310
FFFFFFFFFFFFFFFFFFFFFFFFFFFFFFFFFFFFFFFFFFFFFFFFFFFFFFFFFFFFFFFF
310
FFFFFFFFFFFFFFFFFFFFFFFFFFFFFFFFFFFFFFFFFFFFFFFFFFFFFFFFFFFFFFFF
310
FFFFFFFFFFFFFFFFFFFFFFFFFFFFFFFFFFFFFFFFFFFFFFFFFFFFFFFFFFFFFFFF
310
FFFFFFFFFFFFFFFFFFFFFFFFFFFFFFFFFFFFFFFFFFFFFFFFFFFFFFFFFFFFFFFF
310
FFFFFFFFFFFFFFFFFFFFFFFFFFFFFFFFFFFFFFFFFFFFFFFFFFFFFFFFFFFFFFFF
310
FFFFFFFFFFFFFFFFFFFFFFFFFFFFFFFFFFFFFFFFFFFFFFFFFFFFFFFFFFFFFFFF
310
010000020000000000000000000000000000000061007200650064005C003100
310
30002E0030005C0044004C004C005300680061007200650064005C003B004300
310
0100FEFF030A0000FFFFFFFF0A00030000000000C00000000000004607000000
310
5042727573680007000000504272757368000700000050427275736800F439B2
310
71000000000000000000000000004100540049002E004100430045005C004300
310
6F00720065002D005300740061007400690063003B0043003A005C0050007200
310
6F006700720061006D002000460069006C006500730020002800780038003600
310
29005C0043006F006D006D006F006E002000460069006C00650073005C004100
310
750074006F006400650073006B0020005300680061007200650064005C003B00
310
43003A005C00500072006F006700720061006D002000460069006C0065007300
310
5C004E006F0072006D0061006E005C004E0070006D005C00420069006E000000
310
43003A005C00500072006F006700720061006D002000460069006C0065007300
310
5C0053006F006C006900640057006F0072006B007300200043006F0072007000
310
5C0053006F006C006900640057006F0072006B00730020002800320029005C00
310
730065007400750070005C0069003300380036005C0073007700610063007400
310
770069007A002E006500780065000000220043003A005C00500072006F006700
310
20260000424D0E260000000000003E00000028000000B40200006E0000000100
310
01000000000000000000130B0000130B00000200000002000000000000FFFFFF
310
FFFFFFFFFFFFFFFFFFFFFFFFFFFFFFFFFFFFFFFFFFFFFFFFFFFFFFFFFFFFFFFF
310
FFFFFFFFFFFFFFFFFFFFFFFFFFFFFFFFFFFFFFFFFFFFFFFFFFFFFFFFFFFFFFFF
310
FFFFFFFFFFFFFFFFFFFFFFFFFFFFFFFFFFFFFFFFFFFFFFFFF000FFFFFFFFFFFF
310
FFFFFFFFFFFFFFFFFFFFFFFFFFFFFFFFFFFFFFFFFFFFFFFFFFFFFFFFFFFFFFFF
310
FFFFFFFFFFFFFFFFFFFFFFFFFFFFFFFFFFFFFFFFFFFFFFFFFFFFFFFFFFFFFFFF
310
FFFFFFFFFFFFFFFFFFFFFFFFFFFFFFFFF000FFFFFFFFFFFFFFFFFFFFFFFFFFFF
310
FFFFFFFFFFFFFFFFFFFFFFFFFFFFFFFFFFFFFFFFFFFFFFFFFFFFFFFFFFFFFFFF
310
FFFFFFFFFFFFFFFFFFFFFFFFFFFFFFFFFFFFFFFFFFFFFFFFFFFFFFFFFFFFFFFF
310
FFFFFFFFFFFFFFFFF000FFFFFFFFFFFFFFFFFFFFFFFFFFFFFFFFFFFFFFFFFFFF
310
FFFFFFFFFFFFFFFFFFFFFFFFFFFFFFFFFFFFFFFFFFFFFFFFFFFFFFFFFFFFFFFF
310
FFFFFFFFFFFFFFFFFFFFFFFFFFFFFFFFFFFFFFFFFFFFFFFFFFFFFFFFFFFFFFFF
310
F000FFFFFFFFFFFFFFFFFFFFFFFFFFFFFFFFFFFFFFFFFFFFFFFFFFFFFFFFFFFF
310
FFFFFFFFFFFFFFFFFFFFFFFFFFFFFFFFFFFFFFFFFFFFFFFFFFFFFFFFFFFFFFFF
310
FFFFFFFFFFFFFFFFFFFFFFFFFFFFFFFFFFFFFFFFFFFFFFFFF000FFFFFFFFFFFF
310
FFFFFFFFFFFFFFFFFFFFFFFFFFFFFFFFFFFFFFFFFFFFFFFFFFFFFFFFFFFFFFFF
310
FFFFFFFFFFFFFFFFFFFFFFFFFFFFFFFFFFFFFFFFFFFFFFFFFFFFFFFFFFFFFFFF
310
FFFFFFFFFFFFFFFFFFFFFFFFFFFFFFFFF000FFFFFFFFFFFFFFFFFFFFFFFFFFFF
310
FFFFFFFFFFFFFFFFFFFFFFFFFFFFFFFFFFFFFFFFFFFFFFFFFFFFFFFFFFFFFFFF
310
FFFFFFFFFFFFFFFFFFFFFFFFFFFFFFFFFFFFFFFFFFFFFFFFFFFFFFFFFFFFFFFF
310
FFFFFFFFFFFFFFFFF000FFFFFFFFFFFFFFFFFFFFFFFFFFFFFFFFFFFFFFFFFFFF
310
FFFFFFFFFFFFFFFFFFFFFFFFFFFFFFFFFFFFFFFFFFFFFFFFFFFFFFFFFFFFFFFF
310
FFFFFFFFFFFFFFFFFFFFFFFFFFFFFFFFFFFFFFFFFFFFFFFFFFFFFFFFFFFFFFFF
310
F000FFFFFFFFFFFFFFFFFFFFFFFFFFFFFFFFFFFFFFFFFFFFFFFFFFFFFFFFFFFF
310
FFFFFFFFFFFFFFFFFFFFFFFFFFFFFFFFFFFFFFFFFFFFFFFFFFFFFFFFFFFFFFFF
310
FFFFFFFFFFFFFFFFFFFFFFFFFFFFFFFFFFFFFFFFFFFFFFFFF000FFFFFFFFFFFF
310
FFFFFFFFFFFFFFFFFFFFFFFFFFFFFFFFFFFFFFFFFFFFFFFFFFFFFFFFFFFFFFFF
310
FFFFFFFFFFFFFFFFFFFFFFFFFFFFFFFFFFFFFFFFFFFFFFFFFFFFFFFFFFFFFFFF
310
FFFFFFFFFFFFFFFFFFFFFFFFFFFFFFFFF000FFFFFFFFFFFFFFFFFFFFFFFFFFFF
310
FFFFFFFFFFFFFFFFFFFFFFFFFFFFFFFFFFFFFFFFFFFFFFFFFFFFFFFFFFFFFFFF
310
FFFFFFFFFFFFFFFFFFFFFFFFFFFFFFFFFFFFFFFFFFFFFFFFFFFFFFFFFFFFFFFF
310
FFFFFFFFFFFFFFFFF000FFFFFFFFFFFFFFFFFFFFFFFFFFFFFFFFFFFFFFFFFFFF
310
FFFFFFFFFFFFFFFFFFFFFFFFFFFFFFFFFFFFFFFFFFFFFFFFFFFFFFFFFFFFFFFF
310
FFFFFFFFFFFFFFFFFFFFFFFFFFFFFFFFFFFFFFFFFFFFFFFFFFFFFFFFFFFFFFFF
310
F000FFFFFFFFFFFFFFFFFFFFFFFFFFFFFFFFFFFFFFFFFFFFFFFFFFFFFFFFFFFF
310
FFFFFFFFFFFFFFFFFFFFFFFFFFFFFFFFFFFFFFFFFFFFFFFFFFFFFFFFFFFFFFFF
310
FFFFFFFFFFFFFFFFFFFFFFFFFFFFFFFFFFFFFFFFFFFFFFFFF000FFFFFFFFFFFF
310
FFFFFFFFFFFFFFFFFFFFFFFFFFFFFFFFFFFFFFFFFFFFFFFFFFFFFFFFFFFFFFFF
310
FFFFFFFFFFFFFFFFFFFFFFFFFFFFFFFFFFFFFFFFFFFFFFFFFFFFFFFFFFFFFFFF
310
FFFFFFFFFFFFFFFFFFFFFFFFFFFFFFFFF000FFFFFFFFFFFFFFFFFFFFFFFFFFFF
310
FFFFFFFFFFFFFFFFFFFFFFFFFFFFFFFFFFFFFFFFFFFFFFFFFFFFFFFFFFFFFFFF
310
FFFFFFFFFFFFFFFFFFFFFFFFFFFFFFFFFFFFFFFFFFFFFFFFFFFFFFFFFFFFFFFF
310
FFFFFFFFFFFFFFFFF000FFFFFFFFFFFFFFFFFFFFFFFFFFFFFFFFFFFFFFFFFFFF
310
FFFFFFFFFFFFFFFFFFFFFFFFFFFFFFFFFFFFFFFFFFFFFFFFFFFFFFFFFFFFFFFF
310
FFFFFFFFFFFFFFFFFFFFFFFFFFFFFFFFFFFFFFFFFFFFFFFFFFFFFFFFFFFFFFFF
310
F000FFFFFFFFFFFFFFFFFFFFFFFFFFFFFFFFFFFFFFFFFFFFFFFFFFFFFFFFFFFF
310
FFFFFFFFFFFFFFFFFFFFFFFFFFFFFFFFFFFFFFFFFFFFFFFFFFFFFFFFFFFFFFFF
310
FFFFFFFFFFFFFFFFFFFFFFFFFFFFFFFFFFFFFFFFFFFFFFFFF000FFFFFFFFFFFF
310
FFFFFFFFFFFFFFFFFFFFFFFFFFFFFFFFFFFFFFFFFFFFFFFFFFFFFFFFFFFFFFFF
310
FFFFFFFFFFFFFFFFFFFFFFFFFFFFFFFFFFFFFFFFFFFFFFFFFFFFFFFFFFFFFFFF
310
FFFFFFFFFFFFFFFFFFFFFFFFFFFFFFFFF000FFFFFFFFFFFFFFFFFFFFFFFFFFFF
310
FFFFFFFFFFFFFFFFFFFFFFFFFFFFFFFFFFFFFFFFFFFFFFFFFFFFFFFFFFFFFFFF
310
FFFFFFFFFFFFFFFFFFFFFFFFFFFFFFFFFFFFFFFFFFFFFFFFFFFFFFFFFFFFFFFF
310
FFFFFFFFFFFFFFFFF000FFFFF80003FFFFFFFFFFFFFFFFFFFFFFFFFFFFFFFFFF
310
FFFFF00007FFFFFFFFFF00007FFFFFF800000000000000007FFFFFFFFFFFFFFF
310
FFFFFFFC001FFFFFFFFFFFFFFC001FFFFFFFFFFFFFFFFFFFFFFFFFFE0007FFFF
310
F000FFFF8000007FFFFFFFF8000FFFFFC0007FFFFF80007FFFFF0000007FFFFF
310
FFF8000007FFFFF800000000000000007FFFFFF0001FFFFFFFFFFFC00001FFFF
310
FFFFFFFFC00001FFFFFFFF000000000003FFFFE000007FFFF000FFFE0000000F
310
FFFFFFF0000FFFFF80007FFFFF80007FFFFC0000001FFFFFFFC0000001FFFFF8
310
00000000000000007FFFFFF0001FFFFFFFFFFE0000003FFFFFFFFFFE0000003F
310
FFFFFF000000000003FFFF0000000FFFF000FFF800000003FFFFFFF00007FFFF
310
80007FFFFF80007FFFF000000007FFFFFF000000003FFFF80000000000000000
310
7FFFFFF0001FFFFFFFFFF80000000FFFFFFFFFF80000000FFFFFFF0000000000
310
03FFFC00000003FFF000FFE000000000FFFFFFF00007FFFF80003FFFFF80007F
310
FFC000000001FFFFFC000000001FFFF800000000000000007FFFFFF0001FFFFF
310
FFFFE000000003FFFFFFFFE000000003FFFFFF000000000003FFF000000000FF
310
F000FF80000000007FFFFFF00007FFFF80003FFFFF80007FFF8000000000FFFF
310
F80000000007FFF800000000000000007FFFFFF0001FFFFFFFFFC000000001FF
310
FFFFFFC000000001FFFFFF000000000003FFC0000000007FF000FF0000000000
310
3FFFFFE00007FFFF00003FFFFF80007FFE00000000003FFFF00000000003FFF8
310
00000000000000007FFFFFF0001FFFFFFFFF8000000000FFFFFFFF8000000000
310
FFFFFF000000000003FF80000000003FF000FE00000000001FFFFFE00003FFFF
310
00003FFFFF80007FFC00000000001FFFE00000000001FFF8000001FFFE000000
310
7FFFFFF0001FFFFFFFFE00000000003FFFFFFE00000000003FFFFF0000000000
310
03FF00000000001FF000FC00000000000FFFFFE00003FFFF00001FFFFF80007F
310
F800000000001FFFC00000000000FFF8000001FFFE0000007FFFFFF0001FFFFF
310
FFFC00000000001FFFFFFC00000000001FFFFF000000000003FE00000000000F
310
F000F8000000000007FFFFE00003FFFF00001FFFFF80007FF800000000000FFF
310
800000000000FFF8000001FFFE0000007FFFFFF0001FFFFFFFF800000000000F
310
FFFFF800000000000FFFFF000000000003FC000000000007F000F80000000000
310
03FFFFC00003FFFE00001FFFFF80007FF0000000000007FF0000000000007FF8
310
000001FFFE0000007FFFFFF0001FFFFFFFF0000000000007FFFFF00000000000
310
07FFFF000000000003F8000000000003F000F0000000000003FFFFC00001FFFE
310
00001FFFFF80007FE0000000000007FE0000000000003FF8000001FFFE000000
310
7FFFFFF0001FFFFFFFF0000000000007FFFFF0000000000007FFFF0000000000
310
03F800001F800003F000E00001FFF00001FFFFC00001FFFE00000FFFFF80007F
310
E00001FFE00003FE00001FFF00003FF8000001FFFE0000007FFFFFF0001FFFFF
310
FFE000003E000003FFFFE000003E000003FFFF000000000003F00001FFF80001
310
F000E00007FFFC0001FFFFC00001FFFE00000FFFFF80007FC0000FFFFC0003FC
310
0000FFFFC0001FF8000001FFFE0000007FFFFFF0001FFFFFFFC00003FFE00001
310
FFFFC00003FFE00001FFFF0001FFFFFFFFF00007FFFE0001F000E0000FFFFF00
310
00FFFF800001FFFC00000FFFFF80007FC0001FFFFE0001FC0001FFFFE0001FF8
310
000001FFFE0000007FFFFFF0001FFFFFFF80000FFFF80000FFFF80000FFFF800
310
00FFFF0003FFFFFFFFE0000FFFFF8000F000C0003FFFFF8000FFFF800000FFFC
310
000007FFFF80007F80003FFFFF0001FC0003FFFFF0001FF8000001FFFE000000
310
7FFFFFF0001FFFFFFF80003FFFFE0000FFFF80003FFFFE0000FFFF0003FFFFFF
310
FFE0003FFFFF8000F000C0003FFFFF8000FFFF800000FFFC000007FFFF80007F
310
80007FFFFF8001F80007FFFFF8000FF8000001FFFE0000007FFFFFF0001FFFFF
310
FF00007FFFFF00007FFF00007FFFFF00007FFF0003FFFFFFFFE0003FFFFFC000
310
F000C0007FFFFFC000FFFF000000FFFC000007FFFF80007F8000FFFFFF8000F8
310
000FFFFFF8000FF8000001FFFE0000007FFFFFF0001FFFFFFF0000FFFFFF8000
310
7FFF0000FFFFFF80007FFF0003FFFFFFFFC0007FFFFFC00070008000FFFFFFC0
310
00FFFF000000FFF8000007FFFF80007F8000FFFFFF8000F8000FFFFFF8000FF8
310
000001FFFE0000007FFFFFF0001FFFFFFE0001FFFFFFC0003FFE0001FFFFFFC0
310
003FFF0003FFFFFFFFC0007FFFFFE00070008000FFFFFFC0007FFF0000007FF8
310
000003FFFF80007F0001FFFFFF8000F8000FFFFFF8000FF8000001FFFE000000
310
7FFFFFF0001FFFFFFE0001FFFFFFC0003FFE0001FFFFFFC0003FFF0003FFFFFF
310
FFC000FFFFFFE00070008000FFFFFFC0007FFF0000007FF8000003FFFF80007F
310
0001FFFFFF8000F8001FFFFFF8000FF8000001FFFE0000007FFFFFF0001FFFFF
310
FE0003FFFFFFE0003FFE0003FFFFFFE0003FFF0003FFFFFFFFC000FFFFFFE000
310
70008000FFFFFFC0007FFE0000007FF8000003FFFF80007F0001FFFFFF8000F0
310
001FFFFFF8000FF8000001FFFE0000007FFFFFF0001FFFFFFC0003FFFFFFE000
310
1FFC0003FFFFFFE0001FFF0003FFFFFFFFC000FFFFFFC00070008000FFFFFF80
310
007FFE0000007FF0000003FFFF80007F0001FFFFFF0000F0001FFFFFF8000FF8
310
000001FFFE0000007FFFFFF0001FFFFFFC0007FFFFFFF0001FFC0007FFFFFFF0
310
001FFF0003FFFFFFFFC000FFFFFFC00070008001FFFFFF0000FFFE0000003FF0
310
000001FFFF80007F0001FFFFFF0000F8001FFFFFF0000FF8000001FFFE000000
310
7FFFFFF0001FFFFFFC0007FFFFFFF0001FFC0007FFFFFFF0001FFF0003FFFFFF
310
FFC001FFFFFF80007000FFFFFFFFFE0000FFFE0008003FF0008001FFFF80007F
310
FFFFFFFFFC0000FFFFFFFFFFE0000FF8000001FFFE0000007FFFFFF0001FFFFF
310
F8000FFFFFFFF8000FF8000FFFFFFFF8000FFF0003FFFFFFFFFFFFFFFFFF0000
310
7000FFFFFFFFFC0000FFFC0008003FF0008001FFFF80007FFFFFFFFFF80001FF
310
FFFFFFFF80000FF8000001FFFE0000007FFFFFF0001FFFFFF8000FFFFFFFF800
310
0FF8000FFFFFFFF8000FFF0003FFFFFFFFFFFFFFFFFE0000F000FFFFFFFFE000
310
00FFFC000C003FE000C001FFFF80007FFFFFFFFFC00001FFFFFFFFFE00001FF8
310
000001FFFE0000007FFFFFF0001FFFFFF8000FFFFFFFF8000FF8000FFFFFFFF8
310
000FFF0003FFFFFFFFFFFFFFFFF00000F000FFFFFFFE000001FFFC000C001FE0
310
00C000FFFF80007FFFFFFFFE000001FFFFFFFFE000001FF80FFFFFFFFFFFFFC0
310
7FFFFFF0001FFFFFF8000FFFFFFFF8000FF8000FFFFFFFF8000FFF0003FFFFFF
310
FFFFFFFFFF800000F000FFFFFFC0000001FFFC001C001FE001C000FFFF80007F
310
FFFFFF80000003FFFFFFF80000001FF80FFFFFFFFFFFFFC07FFFFFF0001FFFFF
310
F8001FFFFFFFFC000FF8001FFFFFFFFC000FFF0003FFFFFFFFFFFFFFF0000001
310
F000FFFFF800000001FFF8001C001FE001C000FFFF80007FFFFFF800000003FF
310
FFFF800000003FF80FFFFFFFFFFFFFC07FFFFFF0001FFFFFF8001FFFFFFFFC00
310
0FF8001FFFFFFFFC000FFF0003FFFFFFFFFFFFFE00000001F000FFFFC0000000
310
03FFF8001E001FC001E000FFFF80007FFFFF8000000007FFFFFC000000003FF8
310
0FFFFFFFFFFFFFC07FFFFFF0001FFFFFF8001FFFFFFFFC000FF8001FFFFFFFFC
310
000FFF0003FFFFFFFFFFFFE000000003F000FFFE0000000007FFF8001E000FC0
310
01E0007FFF80007FFFFE0000000007FFFFE0000000007FF80FFFFFFFFFFFFFC0
310
7FFFFFF0001FFFFFF0001FFFFFFFFC0007F0001FFFFFFFFC0007FF0003FFFFFF
310
FFFFFF0000000003F000FFF80000000007FFF8001E000FC003E0007FFF80007F
310
FFF0000000000FFFFF8000000000FFF80FFFFFFFFFFFFFC07FFFFFF0001FFFFF
310
F0001FFFFFFFFC0007F0001FFFFFFFFC0007FF0003FFFFFFFFFFFC0000000007
310
F000FFE0000000000FFFF0003E000FC003E0007FFF80007FFFC0000000001FFF
310
FE0000000001FFF80FFFFFFFFFFFFFC07FFFFFF0001FFFFFF0001FFFFFFFFC00
310
07F0001FFFFFFFFC0007FF0003FFFFFFFFFFF0000000000FF000FFC000000000
310
1FFFF0003F000F8003F0003FFF80007FFF80000000003FFFF80000000003FFF8
310
0FFFFFFFFFFFFFC07FFFFFF0001FFFFFF0001FFFFFFFFC0007F0001FFFFFFFFC
310
0007FF0003FFFFFFFFFFE0000000001FF000FF00000000007FFFF0003F000780
310
03F0003FFF80007FFF00000000007FFFF00000000007FFF80FFFFFFFFFFFFFC0
310
7FFFFFF0001FFFFFF0001FFFFFFFFC0007F0001FFFFFFFFC0007FF0003FFFFFF
310
FFFF80000000007FF000FE0000000000FFFFE0003F00078007F0003FFF80007F
310
FE0000000001FFFFE0000000001FFFF80FFFFFFFFFFFFFC07FFFFFF0001FFFFF
310
F0001FFFFFFFFC0007F0001FFFFFFFFC0007FF0003FFFFFFFFFF0000000000FF
310
F000FC0000000003FFFFE0007F00078007F0003FFF80007FFC0000000007FFFF
310
C0000000007FFFF80FFFFFFFFFFFFFC07FFFFFF0001FFFFFF8001FFFFFFFFC00
310
0FF8001FFFFFFFFC000FFF0003FFFFFFFFFE0000000003FFF000FC000000000F
310
FFFFE0007F80070007F8001FFF80007FF8000000001FFFFF8000000001FFFFF8
310
0FFFFFFFFFFFFFC07FFFFFF0001FFFFFF8001FFFFFFFFC000FF8001FFFFFFFFC
310
000FFF0003FFFFFFFFFC000000000FFFF000F8000000007FFFFFE0007F800700
310
07F8001FFF80007FF000000000FFFFFF800000000FFFFFF80FFFFFFFFFFFFFC0
310
7FFFFFF0001FFFFFF8000FFFFFFFF8000FF8000FFFFFFFF8000FFF0003FFFFFF
310
FFFC000000007FFFF000F800000007FFFFFFC0007F8003000FF8001FFF80007F
310
F000000007FFFFFF000000007FFFFFF80FFFFFFFFFFFFFC07FFFFFF0001FFFFF
310
F8000FFFFFFFF8000FF8000FFFFFFFF8000FFF0003FFFFFFFFF80000000FFFFF
310
F000F0000000FFFFFFFFC000FF8003000FF8001FFF80007FE0000000FFFFFFFF
310
0000000FFFFFFFF8000001FFFE0000007FFFFFF0001FFFFFF8000FFFFFFFF800
310
0FF8000FFFFFFFF8000FFF0003FFFFFFFFF8000000FFFFFFF000F000000FFFFF
310
FFFFC000FFC002000FF8000FFF80007FE000001FFFFFFFFE000001FFFFFFFFF8
310
000001FFFE0000007FFFFFF0001FFFFFF8000FFFFFFFF8000FF8000FFFFFFFF8
310
000FFF0003FFFFFFFFF000001FFFFFFFF000E00000FFFFFFFFFFC000FFC00200
310
0FFC000FFF80007FE00001FFFFFFFFFE00001FFFFFFFFFF8000001FFFE000000
310
7FFFFFF0001FFFFFFC000FFFFFFFF8001FFC000FFFFFFFF8001FFF0003FFFFFF
310
FFF00001FFFFFFFFF000E00007FFFFFFFFFF8000FFC000001FFC000FFF80007F
310
C0000FFFFFFFFFFE0000FFFFFFFFFFF8000001FFFE0000007FFFFFF0001FFFFF
310
FC0007FFFFFFF0001FFC0007FFFFFFF0001FFF0003FFFFFFFFF00007FFFFFFFF
310
F000E0001FFFFFFFFFFF8000FFC000001FFC000FFF80007FC0003FFFFFFFFFFE
310
0001FFFFFFFFFFF8000001FFFE0000007FFFFFF0001FFFFFFC0007FFFFFFF000
310
1FFC0007FFFFFFF0001FFF0003FFFFFFFFF0001FFFFFFFFFF000E0003FFFFF00
310
03FF8001FFE000001FFC0007FF80007FC0007FFFFF0007FC0003FFFFF0003FF8
310
000001FFFE0000007FFFFFF0001FFFFFFC0003FFFFFFE0001FFC0003FFFFFFE0
310
001FFF0003FFFFFFFFF0003FFFFFFFFFF000E0003FFFFF0001FF8001FFE00000
310
1FFE0007FF80007FC0007FFFFE0003FC0007FFFFE0003FF8000001FFFE000000
310
7FFFFFF0001FFFFFFE0003FFFFFFE0003FFE0003FFFFFFE0003FFF0003FFFFFF
310
FFF0003FFFFF8001F000E0003FFFFF0001FF0001FFE000001FFE0007FF80007F
310
C0007FFFFE0003FC0007FFFFE0003FF8000001FFFE0000007FFFFFF0001FFFFF
310
FE0001FFFFFFC0003FFE0001FFFFFFC0003FFF0003FFFFFFFFF0003FFFFF0001
310
F000E0003FFFFF0003FF0001FFE000003FFE0007FF80007FC0007FFFFE0003FC
310
0007FFFFE0003FF8000001FFFE0000007FFFFFF0001FFFFFFF0001FFFFFFC000
310
7FFF0001FFFFFFC0007FFF0003FFFFFFFFF0003FFFFF0001F000E0003FFFFE00
310
03FF0003FFF000003FFE0003FF80007FC0007FFFFC0003FE0007FFFFE0003FF8
310
000001FFFE0000007FFFFFF0001FFFFFFF0000FFFFFF80007FFF0000FFFFFF80
310
007FFF0003FFFFFFFFF0003FFFFF0001F000E0003FFFFE0003FF0003FFF00000
310
3FFF0003FF80007FC0007FFFFC0007FE0007FFFFC0003FF8000001FFFE000000
310
7FFFFFF0001FFFFFFF80007FFFFF0000FFFF80007FFFFF0000FFFF0003FFFFFF
310
FFF0003FFFFF0003F000E0003FFFFC0003FE0003FFF000003FFF0003FF80007F
310
E0003FFFF80007FE0003FFFFC0007FF8000001FFFE0000007FFFFFF0001FFFFF
310
FF80003FFFFE0000FFFF80003FFFFE0000FFFF0003FFFFFFFFF0001FFFFE0003
310
F000F0001FFFF80003FE0003FFF000007FFF0001FF80007FE0003FFFF00007FE
310
0001FFFF80007FF8000001FFFE0000007FFFFFF0001FFFFFFFC0000FFFF80001
310
FFFFC0000FFFF80001FFFF0003FFFFFFFFF0001FFFFC0003F000F0000FFFF000
310
07FE0007FFF800007FFF0001FF80007FE0001FFFE00007FF0000FFFE00007FF8
310
000001FFFE0000007FFFFFF0001FFFFFFFC00003FFE00001FFFFC00003FFE000
310
01FFFF0003FFFFFFFFF8000FFFF80003F000F00003FFC00007FC0007FFF80000
310
7FFF8001FF80007FF00007FF80000FFF00007FF80000FFF8000001FFFE000000
310
7F80000000000001FFE000003E000003FFFFE000003E000003FFFF0003FFFFFF
310
FFF80003FFE00007F000F800000000000FFC0007FFF800007FFF8001FF80007F
310
F000000000000FFF000000000000FFF8000001FFFE0000007F80000000000001
310
FFF0000000000007FFFFF0000000000007FFFF0003FFFFFFFFFC00007E000007
310
F000F800000000000FFC0007FFF80000FFFF8000FF80007FF800000000001FFF
310
800000000001FFF8000001FFFE0000007F80000000000001FFF800000000000F
310
FFFFF800000000000FFFFF0003FFFFFFFFFC00000000000FF000FC0000000000
310
1FFC0007FFFC0000FFFF8000FF80007FF800000000003FFFC00000000001FFF8
310
000001FFFE0000007F80000000000001FFF800000000000FFFFFF80000000000
310
0FFFFF0003FFFFFFFFFE00000000001FF000FE00000000003FF8000FFFFC0000
310
FFFF8000FF80007FFC00000000003FFFC00000000003FFF8000001FFFE000000
310
7F80000000000001FFFC00000000001FFFFFFC00000000001FFFFF0003FFFFFF
310
FFFF00000000001FF000FF00000000003FF8000FFFFC0000FFFFC000FF80007F
310
FE00000000007FFFE00000000007FFF8000001FFFE0000007F80000000000001
310
FFFE00000000003FFFFFFE00000000003FFFFF0003FFFFFFFFFF80000000003F
310
F000FF80000000007FF8000FFFFC0001FFFFC0007F80007FFF0000000000FFFF
310
F0000000000FFFF800000000000000007F80000000000001FFFF8000000000FF
310
FFFFFF8000000000FFFFFF0003FFFFFFFFFFC0000000007FF000FFC000000000
310
FFF8000FFFFE0001FFFFC0007F80007FFF8000000001FFFFF8000000001FFFF8
310
00000000000000007F80000000000001FFFFC000000001FFFFFFFFC000000001
310
FFFFFF0003FFFFFFFFFFE000000000FFF000FFE000000003FFF0001FFFFE0001
310
FFFFC0007F80007FFFC000000007FFFFFE000000003FFFF80000000000000000
310
7F80000000000001FFFFE000000003FFFFFFFFE000000003FFFFFF0003FFFFFF
310
FFFFF000000003FFF000FFF80000000FFFF0001FFFFE0001FFFFE0007F80007F
310
FFF00000000FFFFFFF00000000FFFFF800000000000000007F80000000000001
310
FFFFF80000000FFFFFFFFFF80000000FFFFFFF0003FFFFFFFFFFFC0000000FFF
310
F000FFFE0000003FFFF0001FFFFE0003FFFFE0003F80007FFFFC0000003FFFFF
310
FFC0000003FFFFF800000000000000007F80000000000001FFFFFE0000003FFF
310
FFFFFFFE0000003FFFFFFF0003FFFFFFFFFFFF0000003FFFF000FFFF800000FF
310
FFF0001FFFFF0003FFFFE0003F80007FFFFF000001FFFFFFFFF800001FFFFFF8
310
00000000000000007F80000000000001FFFFFFC00001FFFFFFFFFFFFC00001FF
310
FFFFFF0003FFFFFFFFFFFFC00000FFFFF000FFFFF8000FFFFFFFFFFFFFFFFFFF
310
FFFFFFFFFFFFFFFFFFFFF0001FFFFFFFFFFF0000FFFFFFF80000000000000000
310
7FFFFFFFFFFFFFFFFFFFFFFC001FFFFFFFFFFFFFFC001FFFFFFFFFFFFFFFFFFF
310
FFFFFFFC001FFFFFF000FFFFFFFFFFFFFFFFFFFFFFFFFFFFFFFFFFFFFFFFFFFF
310
FFFFFFFFFFFFFFFFFFFFFFFFFFFFFFFFFFFFFFFFFFFFFFFFFFFFFFFFFFFFFFFF
310
FFFFFFFFFFFFFFFFFFFFFFFFFFFFFFFFFFFFFFFFFFFFFFFFFFFFFFFFFFFFFFFF
310
F000FFFFFFFFFFFFFFFFFFFFFFFFFFFFFFFFFFFFFFFFFFFFFFFFFFFFFFFFFFFF
310
FFFFFFFFFFFFFFFFFFFFFFFFFFFFFFFFFFFFFFFFFFFFFFFFFFFFFFFFFFFFFFFF
310
FFFFFFFFFFFFFFFFFFFFFFFFFFFFFFFFFFFFFFFFFFFFFFFFF000FFFFFFFFFFFF
310
FFFFFFFFFFFFFFFFFFFFFFFFFFFFFFFFFFFFFFFFFFFFFFFFFFFFFFFFFFFFFFFF
310
FFFFFFFFFFFFFFFFFFFFFFFFFFFFFFFFFFFFFFFFFFFFFFFFFFFFFFFFFFFFFFFF
310
FFFFFFFFFFFFFFFFFFFFFFFFFFFFFFFFF000FFFFFFFFFFFFFFFFFFFFFFFFFFFF
310
FFFFFFFFFFFFFFFFFFFFFFFFFFFFFFFFFFFFFFFFFFFFFFFFFFFFFFFFFFFFFFFF
310
FFFFFFFFFFFFFFFFFFFFFFFFFFFFFFFFFFFFFFFFFFFFFFFFFFFFFFFFFFFFFFFF
310
FFFFFFFFFFFFFFFFF000FFFFFFFFFFFFFFFFFFFFFFFFFFFFFFFFFFFFFFFFFFFF
310
FFFFFFFFFFFFFFFFFFFFFFFFFFFFFFFFFFFFFFFFFFFFFFFFFFFFFFFFFFFFFFFF
310
FFFFFFFFFFFFFFFFFFFFFFFFFFFFFFFFFFFFFFFFFFFFFFFFFFFFFFFFFFFFFFFF
310
F000FFFFFFFFFFFFFFFFFFFFFFFFFFFFFFFFFFFFFFFFFFFFFFFFFFFFFFFFFFFF
310
FFFFFFFFFFFFFFFFFFFFFFFFFFFFFFFFFFFFFFFFFFFFFFFFFFFFFFFFFFFFFFFF
310
FFFFFFFFFFFFFFFFFFFFFFFFFFFFFFFFFFFFFFFFFFFFFFFFF000FFFFFFFFFFFF
310
FFFFFFFFFFFFFFFFFFFFFFFFFFFFFFFFFFFFFFFFFFFFFFFFFFFFFFFFFFFFFFFF
310
FFFFFFFFFFFFFFFFFFFFFFFFFFFFFFFFFFFFFFFFFFFFFFFFFFFFFFFFFFFFFFFF
310
FFFFFFFFFFFFFFFFFFFFFFFFFFFFFFFFF000FFFFFFFFFFFFFFFFFFFFFFFFFFFF
310
FFFFFFFFFFFFFFFFFFFFFFFFFFFFFFFFFFFFFFFFFFFFFFFFFFFFFFFFFFFFFFFF
310
FFFFFFFFFFFFFFFFFFFFFFFFFFFFFFFFFFFFFFFFFFFFFFFFFFFFFFFFFFFFFFFF
310
FFFFFFFFFFFFFFFFF000FFFFFFFFFFFFFFFFFFFFFFFFFFFFFFFFFFFFFFFFFFFF
310
FFFFFFFFFFFFFFFFFFFFFFFFFFFFFFFFFFFFFFFFFFFFFFFFFFFFFFFFFFFFFFFF
310
FFFFFFFFFFFFFFFFFFFFFFFFFFFFFFFFFFFFFFFFFFFFFFFFFFFFFFFFFFFFFFFF
310
F000FFFFFFFFFFFFFFFFFFFFFFFFFFFFFFFFFFFFFFFFFFFFFFFFFFFFFFFFFFFF
310
FFFFFFFFFFFFFFFFFFFFFFFFFFFFFFFFFFFFFFFFFFFFFFFFFFFFFFFFFFFFFFFF
310
FFFFFFFFFFFFFFFFFFFFFFFFFFFFFFFFFFFFFFFFFFFFFFFFF000FFFFFFFFFFFF
310
FFFFFFFFFFFFFFFFFFFFFFFFFFFFFFFFFFFFFFFFFFFFFFFFFFFFFFFFFFFFFFFF
310
FFFFFFFFFFFFFFFFFFFFFFFFFFFFFFFFFFFFFFFFFFFFFFFFFFFFFFFFFFFFFFFF
310
FFFFFFFFFFFFFFFFFFFFFFFFFFFFFFFFF000FFFFFFFFFFFFFFFFFFFFFFFFFFFF
310
FFFFFFFFFFFFFFFFFFFFFFFFFFFFFFFFFFFFFFFFFFFFFFFFFFFFFFFFFFFFFFFF
310
FFFFFFFFFFFFFFFFFFFFFFFFFFFFFFFFFFFFFFFFFFFFFFFFFFFFFFFFFFFFFFFF
310
FFFFFFFFFFFFFFFFF000FFFFFFFFFFFFFFFFFFFFFFFFFFFFFFFFFFFFFFFFFFFF
310
FFFFFFFFFFFFFFFFFFFFFFFFFFFFFFFFFFFFFFFFFFFFFFFFFFFFFFFFFFFFFFFF
310
FFFFFFFFFFFFFFFFFFFFFFFFFFFFFFFFFFFFFFFFFFFFFFFFFFFFFFFFFFFFFFFF
310
F000FFFFFFFFFFFFFFFFFFFFFFFFFFFFFFFFFFFFFFFFFFFFFFFFFFFFFFFFFFFF
310
FFFFFFFFFFFFFFFFFFFFFFFFFFFFFFFFFFFFFFFFFFFFFFFFFFFFFFFFFFFFFFFF
310
FFFFFFFFFFFFFFFFFFFFFFFFFFFFFFFFFFFFFFFFFFFFFFFFF000FFFFFFFFFFFF
310
FFFFFFFFFFFFFFFFFFFFFFFFFFFFFFFFFFFFFFFFFFFFFFFFFFFFFFFFFFFFFFFF
310
FFFFFFFFFFFFFFFFFFFFFFFFFFFFFFFFFFFFFFFFFFFFFFFFFFFFFFFFFFFFFFFF
310
FFFFFFFFFFFFFFFFFFFFFFFFFFFFFFFFF000FFFFFFFFFFFFFFFFFFFFFFFFFFFF
310
FFFFFFFFFFFFFFFFFFFFFFFFFFFFFFFFFFFFFFFFFFFFFFFFFFFFFFFFFFFFFFFF
310
FFFFFFFFFFFFFFFFFFFFFFFFFFFFFFFFFFFFFFFFFFFFFFFFFFFFFFFFFFFFFFFF
310
FFFFFFFFFFFFFFFFF000FFFFFFFFFFFFFFFFFFFFFFFFFFFFFFFFFFFFFFFFFFFF
310
FFFFFFFFFFFFFFFFFFFFFFFFFFFFFFFFFFFFFFFFFFFFFFFFFFFFFFFFFFFFFFFF
310
FFFFFFFFFFFFFFFFFFFFFFFFFFFFFFFFFFFFFFFFFFFFFFFFFFFFFFFFFFFFFFFF
310
F000FFFFFFFFFFFFFFFFFFFFFFFFFFFFFFFFFFFFFFFFFFFFFFFFFFFFFFFFFFFF
310
FFFFFFFFFFFFFFFFFFFFFFFFFFFFFFFFFFFFFFFFFFFFFFFFFFFFFFFFFFFFFFFF
310
FFFFFFFFFFFFFFFFFFFFFFFFFFFFFFFFFFFFFFFFFFFFFFFFF000FFFFFFFFFFFF
310
FFFFFFFFFFFFFFFFFFFFFFFFFFFFFFFFFFFFFFFFFFFFFFFFFFFFFFFFFFFFFFFF
310
FFFFFFFFFFFFFFFFFFFFFFFFFFFFFFFFFFFFFFFFFFFFFFFFFFFFFFFFFFFFFFFF
310
FFFFFFFFFFFFFFFFFFFFFFFFFFFFFFFFF000FFFFFFFFFFFFFFFFFFFFFFFFFFFF
310
FFFFFFFFFFFFFFFFFFFFFFFFFFFFFFFFFFFFFFFFFFFFFFFFFFFFFFFFFFFFFFFF
310
FFFFFFFFFFFFFFFFFFFFFFFFFFFFFFFFFFFFFFFFFFFFFFFFFFFFFFFFFFFFFFFF
310
FFFFFFFFFFFFFFFFF000FFFFFFFFFFFFFFFFFFFFFFFFFFFFFFFFFFFFFFFFFFFF
310
FFFFFFFFFFFFFFFFFFFFFFFFFFFFFFFFFFFFFFFFFFFFFFFFFFFFFFFFFFFFFFFF
310
FFFFFFFFFFFFFFFFFFFFFFFFFFFFFFFFFFFFFFFFFFFFFFFFFFFFFFFFFFFFFFFF
310
F000FFFFFFFFFFFFFFFFFFFFFFFFFFFFFFFFFFFFFFFFFFFFFFFFFFFFFFFFFFFF
310
FFFFFFFFFFFFFFFFFFFFFFFFFFFFFFFFFFFFFFFFFFFFFFFFFFFFFFFFFFFFFFFF
310
FFFFFFFFFFFFFFFFFFFFFFFFFFFFFFFFFFFFFFFFFFFFFFFFF000FFFFFFFFFFFF
310
FFFFFFFFFFFFFFFFFFFFFFFFFFFFFFFFFFFFFFFFFFFFFFFFFFFFFFFFFFFFFFFF
310
FFFFFFFFFFFFFFFFFFFFFFFFFFFFFFFFFFFFFFFFFFFFFFFFFFFFFFFFFFFFFFFF
310
FFFFFFFFFFFFFFFFFFFFFFFFFFFFFFFFF0000000000000000000000000000000
310
0000000001000000010000000100000001000000010000000100000001000000
310
0100000001000000000000000100000001000000010000000100000001000000
310
0100000001000000010000000100000001000000010000000100000001000000
310
0100000001000000010000000100000001000000010000000100000001000000
310
0100000001000000010000000100000001000000010000000100000001000000
310
0100000001000000010000000100000001000000010000000100000001000000
310
0100000001000000010000000000000001000000000000000100000001000000
310
0100000001000000010000000100000001000000010000000000000001000000
310
0000000001000000010000000100000001000000010000000100000001000000
310
0100000000000000010000000100000001000000010000000100000001000000
310
0100000001000000000000000100000000000000010000000100000001000000
310
0100000001000000010000000100000001000000000000000100000000000000
310
0100000001000000010000000100000001000000010000000100000001000000
310
0000000001000000010000000100000000000000010000000100000001000000
310
0100000001000000010000000100000001000000000000000100000000000000
  1
OLE
  0
ENDSEC
  0
SECTION
  2
OBJECTS
  0
DICTIONARY
  5
C
330
0
100
AcDbDictionary
281
     1
  3
ACAD_GROUP
350
D
  3
ACAD_LAYOUT
350
1A
  3
ACAD_MLEADERSTYLE
350
2B8
  3
ACAD_MLINESTYLE
350
17
  3
ACAD_PLOTSETTINGS
350
19
  3
ACAD_PLOTSTYLENAME
350
E
  3
ACAD_TABLESTYLE
350
2B7
  3
ACAD_VISUALSTYLE
350
2A
  3
AcDbVariableDictionary
350
2B9
  0
DICTIONARY
  5
D
102
{ACAD_REACTORS
330
C
102
}
330
C
100
AcDbDictionary
281
     1
  0
DICTIONARY
  5
1A
102
{ACAD_REACTORS
330
C
102
}
330
C
100
AcDbDictionary
281
     1
  3
Layout1
350
1E
  3
Layout2
350
26
  3
Model
350
22
  0
DICTIONARY
  5
2B8
102
{ACAD_REACTORS
330
C
102
}
330
C
100
AcDbDictionary
281
     1
  0
DICTIONARY
  5
17
102
{ACAD_REACTORS
330
C
102
}
330
C
100
AcDbDictionary
281
     1
  3
Standard
350
18
  0
DICTIONARY
  5
19
102
{ACAD_REACTORS
330
C
102
}
330
C
100
AcDbDictionary
281
     1
  0
ACDBDICTIONARYWDFLT
  5
E
102
{ACAD_REACTORS
330
C
102
}
330
C
100
AcDbDictionary
281
     1
  3
Normal
350
F
100
AcDbDictionaryWithDefault
340
F
  0
DICTIONARY
  5
2B7
102
{ACAD_REACTORS
330
C
102
}
330
C
100
AcDbDictionary
281
     1
  0
DICTIONARY
  5
2A
102
{ACAD_REACTORS
330
C
102
}
330
C
100
AcDbDictionary
281
     1
  3
2dWireframe
350
2F
  3
3D Hidden
350
31
  3
3dWireframe
350
30
  3
Basic
350
32
  3
Brighten
350
36
  3
ColorChange
350
3A
  3
Conceptual
350
34
  3
Dim
350
35
  3
Facepattern
350
39
  3
Flat
350
2B
  3
FlatWithEdges
350
2C
  3
Gouraud
350
2D
  3
GouraudWithEdges
350
2E
  3
Linepattern
350
38
  3
Realistic
350
33
  3
Thicken
350
37
  0
DICTIONARY
  5
2B9
102
{ACAD_REACTORS
330
C
102
}
330
C
100
AcDbDictionary
281
     1
  3
PSOLHEIGHT
350
2BB
  3
PSOLWIDTH
350
2BA
  0
LAYOUT
  5
1E
102
{ACAD_REACTORS
330
1A
102
}
330
1A
100
AcDbPlotSettings
  1

  2
none_device
  4

  6

 40
0.0
 41
0.0
 42
0.0
 43
0.0
 44
0.0
 45
0.0
 46
0.0
 47
0.0
 48
0.0
 49
0.0
140
0.0
141
0.0
142
1.0
143
1.0
 70
   688
 72
     0
 73
     0
 74
     5
  7

 75
    16
147
1.0
148
0.0
149
0.0
100
AcDbLayout
  1
Layout1
 70
     1
 71
     1
 10
0.0
 20
0.0
 11
420.0
 21
297.0
 12
0.0
 22
0.0
 32
0.0
 14
1.0000000000E+20
 24
1.0000000000E+20
 34
1.0000000000E+20
 15
-1.0000000000E+20
 25
-1.0000000000E+20
 35
-1.0000000000E+20
146
0.0
 13
0.0
 23
0.0
 33
0.0
 16
1.0
 26
0.0
 36
0.0
 17
0.0
 27
1.0
 37
0.0
 76
     0
330
1B
  0
LAYOUT
  5
26
102
{ACAD_REACTORS
330
1A
102
}
330
1A
100
AcDbPlotSettings
  1

  2
none_device
  4

  6

 40
0.0
 41
0.0
 42
0.0
 43
0.0
 44
0.0
 45
0.0
 46
0.0
 47
0.0
 48
0.0
 49
0.0
140
0.0
141
0.0
142
1.0
143
1.0
 70
   688
 72
     0
 73
     0
 74
     5
  7

 75
    16
147
1.0
148
0.0
149
0.0
100
AcDbLayout
  1
Layout2
 70
     1
 71
     2
 10
0.0
 20
0.0
 11
0.0
 21
0.0
 12
0.0
 22
0.0
 32
0.0
 14
0.0
 24
0.0
 34
0.0
 15
0.0
 25
0.0
 35
0.0
146
0.0
 13
0.0
 23
0.0
 33
0.0
 16
1.0
 26
0.0
 36
0.0
 17
0.0
 27
1.0
 37
0.0
 76
     0
330
23
  0
LAYOUT
  5
22
102
{ACAD_REACTORS
330
1A
102
}
330
1A
100
AcDbPlotSettings
  1

  2
none_device
  4

  6

 40
0.0
 41
0.0
 42
0.0
 43
0.0
 44
0.0
 45
0.0
 46
0.0
 47
0.0
 48
0.0
 49
0.0
140
0.0
141
0.0
142
1.0
143
1.0
 70
  1712
 72
     0
 73
     0
 74
     0
  7

 75
     0
147
1.0
148
0.0
149
0.0
100
AcDbLayout
  1
Model
 70
     1
 71
     0
 10
0.0
 20
0.0
 11
297.0
 21
210.0
 12
0.0
 22
0.0
 32
0.0
 14
0.0
 24
0.0
 34
0.0
 15
297.0
 25
210.0
 35
0.0
146
0.0
 13
0.0
 23
0.0
 33
0.0
 16
1.0
 26
0.0
 36
0.0
 17
0.0
 27
1.0
 37
0.0
 76
     0
330
1F
331
29
  0
MLINESTYLE
  5
18
102
{ACAD_REACTORS
330
17
102
}
330
17
100
AcDbMlineStyle
  2
Standard
 70
     0
  3

 62
   256
 51
90.0
 52
90.0
 71
     2
 49
0.5
 62
   256
  6
BYLAYER
 49
-0.5
 62
   256
  6
BYLAYER
  0
ACDBPLACEHOLDER
  5
F
102
{ACAD_REACTORS
330
E
102
}
330
E
  0
VISUALSTYLE
  5
2F
102
{ACAD_REACTORS
330
2A
102
}
330
2A
100
AcDbVisualStyle
  2
2dWireframe
 70
     4
 71
     0
 72
     2
 73
     0
 90
        0
 40
-0.6
 41
-30.0
 62
     5
 63
     7
 74
     1
 91
        4
 64
     7
 65
   257
 75
     1
175
     1
 42
1.0
 92
        0
 66
   257
 43
1.0
 76
     1
 77
     6
 78
     2
 67
     7
 79
     5
170
     0
171
     0
290
     0
174
     0
 93
        1
 44
0.0
173
     0
291
     0
 45
0.0
1001
ACAD
1000
AcDbSavedByObjectVersion
1070
     0
  0
VISUALSTYLE
  5
31
102
{ACAD_REACTORS
330
2A
102
}
330
2A
100
AcDbVisualStyle
  2
3D Hidden
 70
     6
 71
     1
 72
     2
 73
     2
 90
        0
 40
-0.6
 41
-30.0
 62
     5
 63
     7
 74
     2
 91
        2
 64
     7
 65
   257
 75
     2
175
     1
 42
40.0
 92
        0
 66
   257
 43
1.0
 76
     1
 77
     6
 78
     2
 67
     7
 79
     3
170
     0
171
     0
290
     0
174
     0
 93
        1
 44
0.0
173
     0
291
     0
 45
0.0
1001
ACAD
1000
AcDbSavedByObjectVersion
1070
     0
  0
VISUALSTYLE
  5
30
102
{ACAD_REACTORS
330
2A
102
}
330
2A
100
AcDbVisualStyle
  2
3dWireframe
 70
     5
 71
     0
 72
     2
 73
     0
 90
        0
 40
-0.6
 41
-30.0
 62
     5
 63
     7
 74
     1
 91
        4
 64
     7
 65
   257
 75
     1
175
     1
 42
1.0
 92
        0
 66
   257
 43
1.0
 76
     1
 77
     6
 78
     2
 67
     7
 79
     5
170
     0
171
     0
290
     0
174
     0
 93
        1
 44
0.0
173
     0
291
     0
 45
0.0
1001
ACAD
1000
AcDbSavedByObjectVersion
1070
     0
  0
VISUALSTYLE
  5
32
102
{ACAD_REACTORS
330
2A
102
}
330
2A
100
AcDbVisualStyle
  2
Basic
 70
     7
 71
     1
 72
     0
 73
     1
 90
        0
 40
-0.6
 41
-30.0
 62
     5
 63
     7
 74
     0
 91
        4
 64
     7
 65
   257
 75
     1
175
     1
 42
1.0
 92
        8
 66
     7
 43
1.0
 76
     1
 77
     6
 78
     2
 67
     7
 79
     5
170
     0
171
     0
290
     0
174
     0
 93
        1
 44
0.0
173
     0
291
     1
 45
0.0
1001
ACAD
1000
AcDbSavedByObjectVersion
1070
     0
  0
VISUALSTYLE
  5
36
102
{ACAD_REACTORS
330
2A
102
}
330
2A
100
AcDbVisualStyle
  2
Brighten
 70
    12
 71
     2
 72
     2
 73
     0
 90
        0
 40
-0.6
 41
-30.0
 62
     5
 63
     7
 74
     1
 91
        4
 64
     7
 65
   257
 75
     1
175
     1
 42
1.0
 92
        8
 66
     7
 43
1.0
 76
     1
 77
     6
 78
     2
 67
     7
 79
     5
170
     0
171
     0
290
     0
174
     0
 93
        1
 44
50.0
173
     0
291
     1
 45
0.0
1001
ACAD
1000
AcDbSavedByObjectVersion
1070
     0
  0
VISUALSTYLE
  5
3A
102
{ACAD_REACTORS
330
2A
102
}
330
2A
100
AcDbVisualStyle
  2
ColorChange
 70
    16
 71
     2
 72
     2
 73
     3
 90
        0
 40
-0.6
 41
-30.0
 62
     5
 63
     8
 74
     1
 91
        4
 64
     7
 65
   257
 75
     1
175
     1
 42
1.0
 92
        8
 66
     8
 43
1.0
 76
     1
 77
     6
 78
     2
 67
     7
 79
     5
170
     0
171
     0
290
     0
174
     0
 93
        1
 44
0.0
173
     0
291
     1
 45
0.0
1001
ACAD
1000
AcDbSavedByObjectVersion
1070
     0
  0
VISUALSTYLE
  5
34
102
{ACAD_REACTORS
330
2A
102
}
330
2A
100
AcDbVisualStyle
  2
Conceptual
 70
     9
 71
     3
 72
     2
 73
     0
 90
        0
 40
-0.6
 41
-30.0
 62
     5
 63
     7
 74
     2
 91
        2
 64
     7
 65
   257
 75
     1
175
     1
 42
40.0
 92
        8
 66
     7
 43
1.0
 76
     1
 77
     6
 78
     2
 67
     7
 79
     3
170
     0
171
     0
290
     0
174
     0
 93
        1
 44
0.0
173
     0
291
     0
 45
0.0
1001
ACAD
1000
AcDbSavedByObjectVersion
1070
     0
  0
VISUALSTYLE
  5
35
102
{ACAD_REACTORS
330
2A
102
}
330
2A
100
AcDbVisualStyle
  2
Dim
 70
    11
 71
     2
 72
     2
 73
     0
 90
        0
 40
-0.6
 41
-30.0
 62
     5
 63
     7
 74
     1
 91
        4
 64
     7
 65
   257
 75
     1
175
     1
 42
1.0
 92
        8
 66
     7
 43
1.0
 76
     1
 77
     6
 78
     2
 67
     7
 79
     5
170
     0
171
     0
290
     0
174
     0
 93
        1
 44
-50.0
173
     0
291
     1
 45
0.0
1001
ACAD
1000
AcDbSavedByObjectVersion
1070
     0
  0
VISUALSTYLE
  5
39
102
{ACAD_REACTORS
330
2A
102
}
330
2A
100
AcDbVisualStyle
  2
Facepattern
 70
    15
 71
     2
 72
     2
 73
     0
 90
        0
 40
-0.6
 41
-30.0
 62
     5
 63
     7
 74
     1
 91
        4
 64
     7
 65
   257
 75
     1
175
     1
 42
1.0
 92
        8
 66
     7
 43
1.0
 76
     1
 77
     6
 78
     2
 67
     7
 79
     5
170
     0
171
     0
290
     0
174
     0
 93
        1
 44
0.0
173
     0
291
     1
 45
0.0
1001
ACAD
1000
AcDbSavedByObjectVersion
1070
     0
  0
VISUALSTYLE
  5
2B
102
{ACAD_REACTORS
330
2A
102
}
330
2A
100
AcDbVisualStyle
  2
Flat
 70
     0
 71
     2
 72
     1
 73
     1
 90
        2
 40
-0.6
 41
30.0
 62
     5
 63
     7
 74
     0
 91
        4
 64
     7
 65
   257
 75
     1
175
     1
 42
1.0
 92
        8
 66
     7
 43
1.0
 76
     1
 77
     6
 78
     2
 67
     7
 79
     5
170
     0
171
     0
290
     0
174
     0
 93
       13
 44
0.0
173
     0
291
     1
 45
0.0
1001
ACAD
1000
AcDbSavedByObjectVersion
1070
     0
  0
VISUALSTYLE
  5
2C
102
{ACAD_REACTORS
330
2A
102
}
330
2A
100
AcDbVisualStyle
  2
FlatWithEdges
 70
     1
 71
     2
 72
     1
 73
     1
 90
        2
 40
-0.6
 41
30.0
 62
     5
 63
     7
 74
     1
 91
        4
 64
     7
 65
   257
 75
     1
175
     1
 42
1.0
 92
        0
 66
   257
 43
1.0
 76
     1
 77
     6
 78
     2
 67
     7
 79
     5
170
     0
171
     0
290
     0
174
     0
 93
       13
 44
0.0
173
     0
291
     1
 45
0.0
1001
ACAD
1000
AcDbSavedByObjectVersion
1070
     0
  0
VISUALSTYLE
  5
2D
102
{ACAD_REACTORS
330
2A
102
}
330
2A
100
AcDbVisualStyle
  2
Gouraud
 70
     2
 71
     2
 72
     2
 73
     1
 90
        2
 40
-0.6
 41
30.0
 62
     5
 63
     7
 74
     0
 91
        4
 64
     7
 65
   257
 75
     1
175
     1
 42
1.0
 92
        0
 66
     7
 43
1.0
 76
     1
 77
     6
 78
     2
 67
     7
 79
     5
170
     0
171
     0
290
     0
174
     0
 93
       13
 44
0.0
173
     0
291
     1
 45
0.0
1001
ACAD
1000
AcDbSavedByObjectVersion
1070
     0
  0
VISUALSTYLE
  5
2E
102
{ACAD_REACTORS
330
2A
102
}
330
2A
100
AcDbVisualStyle
  2
GouraudWithEdges
 70
     3
 71
     2
 72
     2
 73
     1
 90
        2
 40
-0.6
 41
30.0
 62
     5
 63
     7
 74
     1
 91
        4
 64
     7
 65
   257
 75
     1
175
     1
 42
1.0
 92
        0
 66
   257
 43
1.0
 76
     1
 77
     6
 78
     2
 67
     7
 79
     5
170
     0
171
     0
290
     0
174
     0
 93
       13
 44
0.0
173
     0
291
     1
 45
0.0
1001
ACAD
1000
AcDbSavedByObjectVersion
1070
     0
  0
VISUALSTYLE
  5
38
102
{ACAD_REACTORS
330
2A
102
}
330
2A
100
AcDbVisualStyle
  2
Linepattern
 70
    14
 71
     2
 72
     2
 73
     0
 90
        0
 40
-0.6
 41
-30.0
 62
     5
 63
     7
 74
     1
 91
        4
 64
     7
 65
   257
 75
     7
175
     7
 42
1.0
 92
        8
 66
     7
 43
1.0
 76
     1
 77
     6
 78
     2
 67
     7
 79
     5
170
     0
171
     0
290
     0
174
     0
 93
        1
 44
0.0
173
     0
291
     1
 45
0.0
1001
ACAD
1000
AcDbSavedByObjectVersion
1070
     0
  0
VISUALSTYLE
  5
33
102
{ACAD_REACTORS
330
2A
102
}
330
2A
100
AcDbVisualStyle
  2
Realistic
 70
     8
 71
     2
 72
     2
 73
     0
 90
        0
 40
-0.6
 41
-30.0
 62
     5
 63
     7
 74
     1
 91
        0
 64
     7
 65
   257
 75
     1
175
     1
 42
1.0
 92
        8
 66
     8
 43
1.0
 76
     1
 77
     6
 78
     2
 67
     7
 79
     5
170
     0
171
     0
290
     0
174
     0
 93
       13
 44
0.0
173
     0
291
     0
 45
0.0
1001
ACAD
1000
AcDbSavedByObjectVersion
1070
     0
  0
VISUALSTYLE
  5
37
102
{ACAD_REACTORS
330
2A
102
}
330
2A
100
AcDbVisualStyle
  2
Thicken
 70
    13
 71
     2
 72
     2
 73
     0
 90
        0
 40
-0.6
 41
-30.0
 62
     5
 63
     7
 74
     1
 91
        4
 64
     7
 65
   257
 75
     1
175
     1
 42
1.0
 92
       12
 66
     7
 43
1.0
 76
     1
 77
     6
 78
     2
 67
     7
 79
     5
170
     0
171
     0
290
     0
174
     0
 93
        1
 44
0.0
173
     0
291
     1
 45
0.0
1001
ACAD
1000
AcDbSavedByObjectVersion
1070
     0
  0
DICTIONARYVAR
  5
2BB
102
{ACAD_REACTORS
330
2B9
102
}
330
2B9
100
DictionaryVariables
280
     0
  1
80.000000
  0
DICTIONARYVAR
  5
2BA
102
{ACAD_REACTORS
330
2B9
102
}
330
2B9
100
DictionaryVariables
280
     0
  1
5.000000
  0
ENDSEC
  0
EOF
