  0
SECTION
  2
HEADER
  9
$ACADVER
  1
AC1015
  9
$ACADMAINTVER
 70
     6
  9
$DWGCODEPAGE
  3
ANSI_1252
  9
$INSBASE
 10
0.0
 20
0.0
 30
0.0
  9
$EXTMIN
 10
0.0
 20
0.0
 30
0.0
  9
$EXTMAX
 10
297.0
 20
210.0
 30
0.0
  9
$LIMMIN
 10
0.0
 20
0.0
  9
$LIMMAX
 10
297.0
 20
210.0
  9
$ORTHOMODE
 70
     0
  9
$REGENMODE
 70
     1
  9
$FILLMODE
 70
     1
  9
$QTEXTMODE
 70
     0
  9
$MIRRTEXT
 70
     1
  9
$LTSCALE
 40
1.0
  9
$ATTMODE
 70
     1
  9
$TEXTSIZE
 40
2.0
  9
$TRACEWID
 40
1.0
  9
$TEXTSTYLE
  7
Standard
  9
$CLAYER
  8
0
  9
$CELTYPE
  6
ByLayer
  9
$CECOLOR
 62
   256
  9
$CELTSCALE
 40
1.0
  9
$DISPSILH
 70
     0
  9
$DIMSCALE
 40
1.0
  9
$DIMASZ
 40
3.0
  9
$DIMEXO
 40
0.0
  9
$DIMDLI
 40
3.75
  9
$DIMRND
 40
0.0
  9
$DIMDLE
 40
0.0
  9
$DIMEXE
 40
1.0
  9
$DIMTP
 40
0.0
  9
$DIMTM
 40
0.0
  9
$DIMTXT
 40
2.0
  9
$DIMCEN
 40
2.5
  9
$DIMTSZ
 40
0.0
  9
$DIMTOL
 70
     0
  9
$DIMLIM
 70
     0
  9
$DIMTIH
 70
     1
  9
$DIMTOH
 70
     1
  9
$DIMSE1
 70
     0
  9
$DIMSE2
 70
     0
  9
$DIMTAD
 70
     1
  9
$DIMZIN
 70
     0
  9
$DIMBLK
  1

  9
$DIMASO
 70
     1
  9
$DIMSHO
 70
     1
  9
$DIMPOST
  1

  9
$DIMAPOST
  1

  9
$DIMALT
 70
     0
  9
$DIMALTD
 70
     3
  9
$DIMALTF
 40
0.0393700787
  9
$DIMLFAC
 40
1.0
  9
$DIMTOFL
 70
     1
  9
$DIMTVP
 40
0.0
  9
$DIMTIX
 70
     0
  9
$DIMSOXD
 70
     0
  9
$DIMSAH
 70
     0
  9
$DIMBLK1
  1

  9
$DIMBLK2
  1

  9
$DIMSTYLE
  2
ISO-25
  9
$DIMCLRD
 70
     0
  9
$DIMCLRE
 70
     0
  9
$DIMCLRT
 70
     0
  9
$DIMTFAC
 40
1.0
  9
$DIMGAP
 40
1.524
  9
$DIMJUST
 70
     0
  9
$DIMSD1
 70
     0
  9
$DIMSD2
 70
     0
  9
$DIMTOLJ
 70
     0
  9
$DIMTZIN
 70
     0
  9
$DIMALTZ
 70
     0
  9
$DIMALTTZ
 70
     0
  9
$DIMUPT
 70
     0
  9
$DIMDEC
 70
     2
  9
$DIMTDEC
 70
     3
  9
$DIMALTU
 70
     2
  9
$DIMALTTD
 70
     3
  9
$DIMTXSTY
  7
Standard
  9
$DIMAUNIT
 70
     0
  9
$DIMADEC
 70
     2
  9
$DIMALTRND
 40
0.0
  9
$DIMAZIN
 70
     0
  9
$DIMDSEP
 70
    44
  9
$DIMATFIT
 70
     3
  9
$DIMFRAC
 70
     0
  9
$DIMLDRBLK
  1

  9
$DIMLUNIT
 70
     2
  9
$DIMLWD
 70
    -2
  9
$DIMLWE
 70
    -2
  9
$DIMTMOVE
 70
     0
  9
$LUNITS
 70
     2
  9
$LUPREC
 70
     2
  9
$SKETCHINC
 40
1.0
  9
$FILLETRAD
 40
10.0
  9
$AUNITS
 70
     0
  9
$AUPREC
 70
     2
  9
$MENU
  1
.
  9
$ELEVATION
 40
0.0
  9
$PELEVATION
 40
0.0
  9
$THICKNESS
 40
0.0
  9
$LIMCHECK
 70
     0
  9
$CHAMFERA
 40
10.0
  9
$CHAMFERB
 40
10.0
  9
$CHAMFERC
 40
20.0
  9
$CHAMFERD
 40
0.0
  9
$SKPOLY
 70
     0
  9
$TDCREATE
 40
2455685.523411423
  9
$TDUCREATE
 40
2455685.44007809
  9
$TDUPDATE
 40
2455685.523411435
  9
$TDUUPDATE
 40
2455685.440078102
  9
$TDINDWG
 40
0.0000000116
  9
$TDUSRTIMER
 40
0.0000000116
  9
$USRTIMER
 70
     1
  9
$ANGBASE
 50
0.0
  9
$ANGDIR
 70
     0
  9
$PDMODE
 70
     0
  9
$PDSIZE
 40
-1.0
  9
$PLINEWID
 40
0.0
  9
$SPLFRAME
 70
     0
  9
$SPLINETYPE
 70
     6
  9
$SPLINESEGS
 70
     8
  9
$HANDSEED
  5
33A
  9
$SURFTAB1
 70
     6
  9
$SURFTAB2
 70
     6
  9
$SURFTYPE
 70
     6
  9
$SURFU
 70
     6
  9
$SURFV
 70
     6
  9
$UCSBASE
  2

  9
$UCSNAME
  2

  9
$UCSORG
 10
0.0
 20
0.0
 30
0.0
  9
$UCSXDIR
 10
1.0
 20
0.0
 30
0.0
  9
$UCSYDIR
 10
0.0
 20
1.0
 30
0.0
  9
$UCSORTHOREF
  2

  9
$UCSORTHOVIEW
 70
     0
  9
$UCSORGTOP
 10
0.0
 20
0.0
 30
0.0
  9
$UCSORGBOTTOM
 10
0.0
 20
0.0
 30
0.0
  9
$UCSORGLEFT
 10
0.0
 20
0.0
 30
0.0
  9
$UCSORGRIGHT
 10
0.0
 20
0.0
 30
0.0
  9
$UCSORGFRONT
 10
0.0
 20
0.0
 30
0.0
  9
$UCSORGBACK
 10
0.0
 20
0.0
 30
0.0
  9
$PUCSBASE
  2

  9
$PUCSNAME
  2

  9
$PUCSORG
 10
0.0
 20
0.0
 30
0.0
  9
$PUCSXDIR
 10
1.0
 20
0.0
 30
0.0
  9
$PUCSYDIR
 10
0.0
 20
1.0
 30
0.0
  9
$PUCSORTHOREF
  2

  9
$PUCSORTHOVIEW
 70
     0
  9
$PUCSORGTOP
 10
0.0
 20
0.0
 30
0.0
  9
$PUCSORGBOTTOM
 10
0.0
 20
0.0
 30
0.0
  9
$PUCSORGLEFT
 10
0.0
 20
0.0
 30
0.0
  9
$PUCSORGRIGHT
 10
0.0
 20
0.0
 30
0.0
  9
$PUCSORGFRONT
 10
0.0
 20
0.0
 30
0.0
  9
$PUCSORGBACK
 10
0.0
 20
0.0
 30
0.0
  9
$USERI1
 70
     0
  9
$USERI2
 70
     0
  9
$USERI3
 70
     0
  9
$USERI4
 70
     0
  9
$USERI5
 70
     0
  9
$USERR1
 40
0.0
  9
$USERR2
 40
0.0
  9
$USERR3
 40
0.0
  9
$USERR4
 40
0.0
  9
$USERR5
 40
0.0
  9
$WORLDVIEW
 70
     1
  9
$SHADEDGE
 70
     3
  9
$SHADEDIF
 70
    70
  9
$TILEMODE
 70
     1
  9
$MAXACTVP
 70
    64
  9
$PINSBASE
 10
0.0
 20
0.0
 30
0.0
  9
$PLIMCHECK
 70
     0
  9
$PEXTMIN
 10
1.0000000000E+20
 20
1.0000000000E+20
 30
1.0000000000E+20
  9
$PEXTMAX
 10
-1.0000000000E+20
 20
-1.0000000000E+20
 30
-1.0000000000E+20
  9
$PLIMMIN
 10
0.0
 20
0.0
  9
$PLIMMAX
 10
420.0
 20
297.0
  9
$UNITMODE
 70
     0
  9
$VISRETAIN
 70
     1
  9
$PLINEGEN
 70
     0
  9
$PSLTSCALE
 70
     1
  9
$TREEDEPTH
 70
  3020
  9
$CMLSTYLE
  2
Standard
  9
$CMLJUST
 70
     0
  9
$CMLSCALE
 40
20.0
  9
$PROXYGRAPHICS
 70
     1
  9
$MEASUREMENT
 70
     1
  9
$CELWEIGHT
370
    -1
  9
$ENDCAPS
280
     0
  9
$JOINSTYLE
280
     0
  9
$LWDISPLAY
290
     1
  9
$INSUNITS
 70
     4
  9
$HYPERLINKBASE
  1

  9
$STYLESHEET
  1

  9
$XEDIT
290
     1
  9
$CEPSNTYPE
380
     0
  9
$PSTYLEMODE
290
     1
  9
$FINGERPRINTGUID
  2
{8B7CFFAA-B3B2-46E3-81CB-C3505BFC8C7C}
  9
$VERSIONGUID
  2
{FAEB1C32-E019-11D5-929B-00C0DF256EC4}
  9
$EXTNAMES
290
     1
  9
$PSVPSCALE
 40
0.0
  9
$OLESTARTUP
290
     0
  0
ENDSEC
  0
SECTION
  2
CLASSES
  0
CLASS
  1
ACDBDICTIONARYWDFLT
  2
AcDbDictionaryWithDefault
  3
ObjectDBX Classes
 90
        0
280
     0
281
     0
  0
CLASS
  1
VISUALSTYLE
  2
AcDbVisualStyle
  3
ObjectDBX Classes
 90
     4095
280
     0
281
     0
  0
CLASS
  1
DICTIONARYVAR
  2
AcDbDictionaryVar
  3
ObjectDBX Classes
 90
        0
280
     0
281
     0
  0
CLASS
  1
ACDBPLACEHOLDER
  2
AcDbPlaceHolder
  3
ObjectDBX Classes
 90
        0
280
     0
281
     0
  0
CLASS
  1
LAYOUT
  2
AcDbLayout
  3
ObjectDBX Classes
 90
        0
280
     0
281
     0
  0
ENDSEC
  0
SECTION
  2
TABLES
  0
TABLE
  2
VPORT
  5
8
330
0
100
AcDbSymbolTable
 70
     1
  0
VPORT
  5
29
330
8
100
AcDbSymbolTableRecord
100
AcDbViewportTableRecord
  2
*Active
 70
     0
 10
0.0
 20
0.0
 11
1.0
 21
1.0
 12
148.5
 22
105.0
 13
0.0
 23
0.0
 14
10.0
 24
10.0
 15
10.0
 25
10.0
 16
0.0
 26
0.0
 36
1.0
 17
0.0
 27
0.0
 37
0.0
 40
210.0
 41
1.4142857143
 42
50.0
 43
0.0
 44
0.0
 50
0.0
 51
0.0
 71
     0
 72
  2000
 73
     1
 74
     3
 75
     0
 76
     0
 77
     0
 78
     0
281
     0
 65
     1
110
0.0
120
0.0
130
0.0
111
1.0
121
0.0
131
0.0
112
0.0
122
1.0
132
0.0
 79
     0
146
0.0
  0
ENDTAB
  0
TABLE
  2
LTYPE
  5
5
330
0
100
AcDbSymbolTable
 70
     6
  0
LTYPE
  5
14
330
5
100
AcDbSymbolTableRecord
100
AcDbLinetypeTableRecord
  2
ByBlock
 70
     0
  3

 72
    65
 73
     0
 40
0.0
  0
LTYPE
  5
15
330
5
100
AcDbSymbolTableRecord
100
AcDbLinetypeTableRecord
  2
ByLayer
 70
     0
  3

 72
    65
 73
     0
 40
0.0
  0
LTYPE
  5
16
330
5
100
AcDbSymbolTableRecord
100
AcDbLinetypeTableRecord
  2
Continuous
 70
     0
  3
Solid line
 72
    65
 73
     0
 40
0.0
  0
LTYPE
  5
3B
330
5
100
AcDbSymbolTableRecord
100
AcDbLinetypeTableRecord
  2
HIDDEN
 70
     0
  3
Hidden __ __ __ __ __ __ __ __ __ __ __ __ __ __
 72
    65
 73
     2
 40
1.905
 49
1.27
 74
     0
 49
-0.635
 74
     0
  0
LTYPE
  5
3C
330
5
100
AcDbSymbolTableRecord
100
AcDbLinetypeTableRecord
  2
PHANTOM
 70
     0
  3
Phantom ______  __  __  ______  __  __  ______
 72
    65
 73
     6
 40
12.7
 49
6.35
 74
     0
 49
-1.27
 74
     0
 49
1.27
 74
     0
 49
-1.27
 74
     0
 49
1.27
 74
     0
 49
-1.27
 74
     0
  0
LTYPE
  5
3D
330
5
100
AcDbSymbolTableRecord
100
AcDbLinetypeTableRecord
  2
CENTER
 70
     0
  3
Center ____ _ ____ _ ____ _ ____ _ ____ _ ____
 72
    65
 73
     4
 40
10.16
 49
6.35
 74
     0
 49
-1.27
 74
     0
 49
1.27
 74
     0
 49
-1.27
 74
     0
  0
LTYPE
  5
3E
330
5
100
AcDbSymbolTableRecord
100
AcDbLinetypeTableRecord
  2
CENTERX2
 70
     0
  3
Center (2x) ________  __  ________  __  _____
 72
    65
 73
     4
 40
20.32
 49
12.7
 74
     0
 49
-2.54
 74
     0
 49
2.54
 74
     0
 49
-2.54
 74
     0
  0
LTYPE
  5
3F
330
5
100
AcDbSymbolTableRecord
100
AcDbLinetypeTableRecord
  2
DOT2
 70
     0
  3
Dot (.5x) ........................................
 72
    65
 73
     2
 40
0.635
 49
0.0
 74
     0
 49
-0.635
 74
     0
  0
ENDTAB
  0
TABLE
  2
LAYER
  5
2
330
0
100
AcDbSymbolTable
 70
     5
  0
LAYER
  5
10
330
2
100
AcDbSymbolTableRecord
100
AcDbLayerTableRecord
  2
0
 70
     0
 62
     7
  6
Continuous
370
    -3
390
F
  0
LAYER
  5
40
330
2
100
AcDbSymbolTableRecord
100
AcDbLayerTableRecord
  2
FORMAT
 70
     0
 62
     7
  6
Continuous
370
    -3
390
F
  0
LAYER
  5
41
330
2
100
AcDbSymbolTableRecord
100
AcDbLayerTableRecord
  2
VERMASSUNG
 70
     0
 62
     7
  6
Continuous
370
    -3
390
F
  0
LAYER
  5
42
330
2
100
AcDbSymbolTableRecord
100
AcDbLayerTableRecord
  2
KOPF_DÜNN
 70
     0
 62
     7
  6
Continuous
370
    -3
390
F
  0
LAYER
  5
43
330
2
100
AcDbSymbolTableRecord
100
AcDbLayerTableRecord
  2
KOPF_DICK
 70
     0
 62
     7
  6
Continuous
370
    15
390
F
  0
ENDTAB
  0
TABLE
  2
STYLE
  5
3
330
0
100
AcDbSymbolTable
 70
     2
  0
STYLE
  5
11
330
3
100
AcDbSymbolTableRecord
100
AcDbTextStyleTableRecord
  2
Standard
 70
     0
 40
0.0
 41
1.0
 50
0.0
 71
     0
 42
2.5
  3
txt
  4

  0
STYLE
  5
44
330
3
100
AcDbSymbolTableRecord
100
AcDbTextStyleTableRecord
  2
SLDTEXTSTYLE0
 70
     0
 40
0.0
 41
0.7
 50
0.0
 71
     0
 42
0.2
  3
TXT
  4

  0
ENDTAB
  0
TABLE
  2
VIEW
  5
6
330
0
100
AcDbSymbolTable
 70
     0
  0
ENDTAB
  0
TABLE
  2
UCS
  5
7
330
0
100
AcDbSymbolTable
 70
     0
  0
ENDTAB
  0
TABLE
  2
APPID
  5
9
330
0
100
AcDbSymbolTable
 70
     1
  0
APPID
  5
12
330
9
100
AcDbSymbolTableRecord
100
AcDbRegAppTableRecord
  2
ACAD
 70
     0
  0
ENDTAB
  0
TABLE
  2
DIMSTYLE
  5
A
330
0
100
AcDbSymbolTable
 70
     3
100
AcDbDimStyleTable
  0
DIMSTYLE
105
27
330
A
100
AcDbSymbolTableRecord
100
AcDbDimStyleTableRecord
  2
ISO-25
 70
     0
 41
2.5
 42
0.625
 43
3.75
 44
1.25
 73
     0
 74
     0
 77
     1
 78
     8
140
2.5
141
2.5
143
0.0393700787
147
0.625
171
     3
172
     1
271
     2
272
     2
274
     3
278
    44
283
     0
284
     8
340
11
  0
DIMSTYLE
105
1BB
102
{ACAD_REACTORS
330
1BA
330
1C7
330
1D1
330
225
330
22E
330
237
330
241
330
24B
330
255
330
329
102
}
330
A
100
AcDbSymbolTableRecord
100
AcDbDimStyleTableRecord
  2
SLDDIMSTYLE0
 70
     0
 41
3.0
 44
0.0
 45
0.000000001
 73
     0
 74
     0
 77
     1
 78
    12
140
2.0
147
0.5
173
     1
271
     2
272
     3
284
    12
340
44
  0
DIMSTYLE
105
260
102
{ACAD_REACTORS
330
25F
102
}
330
A
100
AcDbSymbolTableRecord
100
AcDbDimStyleTableRecord
  2
SLDDIMSTYLE1
 70
     0
 41
3.0
 44
0.0
 45
0.000000001
 73
     0
 74
     0
 77
     1
 78
    12
140
2.0
147
0.5
173
     1
271
     2
272
     3
284
    12
340
44
  0
ENDTAB
  0
TABLE
  2
BLOCK_RECORD
  5
1
330
0
100
AcDbSymbolTable
 70
    13
  0
BLOCK_RECORD
  5
1F
330
1
100
AcDbSymbolTableRecord
100
AcDbBlockTableRecord
  2
*Model_Space
340
22
  0
BLOCK_RECORD
  5
1B
330
1
100
AcDbSymbolTableRecord
100
AcDbBlockTableRecord
  2
*Paper_Space
340
1E
  0
BLOCK_RECORD
  5
23
330
1
100
AcDbSymbolTableRecord
100
AcDbBlockTableRecord
  2
*Paper_Space0
340
26
  0
BLOCK_RECORD
  5
1BC
330
1
100
AcDbSymbolTableRecord
100
AcDbBlockTableRecord
  2
*D1
340
0
  0
BLOCK_RECORD
  5
1C8
330
1
100
AcDbSymbolTableRecord
100
AcDbBlockTableRecord
  2
*D2
340
0
  0
BLOCK_RECORD
  5
1D2
330
1
100
AcDbSymbolTableRecord
100
AcDbBlockTableRecord
  2
*D3
340
0
  0
BLOCK_RECORD
  5
226
330
1
100
AcDbSymbolTableRecord
100
AcDbBlockTableRecord
  2
*D4
340
0
  0
BLOCK_RECORD
  5
22F
330
1
100
AcDbSymbolTableRecord
100
AcDbBlockTableRecord
  2
*D5
340
0
  0
BLOCK_RECORD
  5
238
330
1
100
AcDbSymbolTableRecord
100
AcDbBlockTableRecord
  2
*D6
340
0
  0
BLOCK_RECORD
  5
242
330
1
100
AcDbSymbolTableRecord
100
AcDbBlockTableRecord
  2
*D7
340
0
  0
BLOCK_RECORD
  5
24C
330
1
100
AcDbSymbolTableRecord
100
AcDbBlockTableRecord
  2
*D8
340
0
  0
BLOCK_RECORD
  5
256
330
1
100
AcDbSymbolTableRecord
100
AcDbBlockTableRecord
  2
*D9
340
0
  0
BLOCK_RECORD
  5
261
330
1
100
AcDbSymbolTableRecord
100
AcDbBlockTableRecord
  2
*D10
340
0
  0
BLOCK_RECORD
  5
268
330
1
100
AcDbSymbolTableRecord
100
AcDbBlockTableRecord
  2
SW_CENTERMARKSYMBOL_0
340
0
102
{BLKREFS
331
273
102
}
  0
BLOCK_RECORD
  5
32A
330
1
100
AcDbSymbolTableRecord
100
AcDbBlockTableRecord
  2
*D12
340
0
  0
ENDTAB
  0
ENDSEC
  0
SECTION
  2
BLOCKS
  0
BLOCK
  5
20
330
1F
100
AcDbEntity
  8
0
100
AcDbBlockBegin
  2
*Model_Space
 70
     0
 10
0.0
 20
0.0
 30
0.0
  3
*Model_Space
  1

  0
ENDBLK
  5
21
330
1F
100
AcDbEntity
  8
0
100
AcDbBlockEnd
  0
BLOCK
  5
1C
330
1B
100
AcDbEntity
 67
     1
  8
0
100
AcDbBlockBegin
  2
*Paper_Space
 70
     0
 10
0.0
 20
0.0
 30
0.0
  3
*Paper_Space
  1

  0
ENDBLK
  5
1D
330
1B
100
AcDbEntity
 67
     1
  8
0
100
AcDbBlockEnd
  0
BLOCK
  5
24
330
23
100
AcDbEntity
  8
0
100
AcDbBlockBegin
  2
*Paper_Space0
 70
     0
 10
0.0
 20
0.0
 30
0.0
  3
*Paper_Space0
  1

  0
ENDBLK
  5
25
330
23
100
AcDbEntity
  8
0
100
AcDbBlockEnd
  0
BLOCK
  5
1BD
330
1BC
100
AcDbEntity
  8
0
100
AcDbBlockBegin
  2
*D1
 70
     1
 10
0.0
 20
0.0
 30
0.0
  3
*D1
  1

  0
SOLID
  5
1BF
330
1BC
100
AcDbEntity
  8
VERMASSUNG
100
AcDbTrace
 10
141.952706288
 20
163.310280963
 30
0.0
 11
141.502706288
 21
160.310280963
 31
0.0
 12
142.4027062879
 22
160.310280963
 32
0.0
 13
142.4027062879
 23
160.310280963
 33
0.0
  0
SOLID
  5
1C0
330
1BC
100
AcDbEntity
  8
VERMASSUNG
100
AcDbTrace
 10
141.952706288
 20
123.310280963
 30
0.0
 11
142.4027062879
 21
126.310280963
 31
0.0
 12
141.502706288
 22
126.310280963
 32
0.0
 13
141.502706288
 23
126.310280963
 33
0.0
  0
LINE
  5
1C1
330
1BC
100
AcDbEntity
  8
VERMASSUNG
100
AcDbLine
 10
165.7162927548
 20
163.310280963
 30
0.0
 11
140.952706288
 21
163.310280963
 31
0.0
  0
LINE
  5
1C2
330
1BC
100
AcDbEntity
  8
VERMASSUNG
100
AcDbLine
 10
165.7162927548
 20
123.310280963
 30
0.0
 11
140.952706288
 21
123.310280963
 31
0.0
  0
LINE
  5
1C3
330
1BC
100
AcDbEntity
  8
VERMASSUNG
100
AcDbLine
 10
141.952706288
 20
163.310280963
 30
0.0
 11
141.952706288
 21
123.310280963
 31
0.0
  0
MTEXT
  5
1C4
330
1BC
100
AcDbEntity
  8
VERMASSUNG
100
AcDbMText
 10
139.1745707989
 20
135.6067392512
 30
0.0
 40
2.0
 41
0.0
 71
     1
 72
     1
  1
HSK T 
  7
SLDTEXTSTYLE0
 11
-7.044195017643634E-15
 21
1.0
 31
0.0
 73
     1
 44
1.0
  0
MTEXT
  5
1C5
330
1BC
100
AcDbEntity
  8
VERMASSUNG
100
AcDbMText
 10
139.3745708084
 20
144.4067392035
 30
0.0
 40
2.0
 41
0.0
 71
     1
 72
     1
  1
%%c
  7
SLDTEXTSTYLE0
 11
-7.044195017643634E-15
 21
1.0
 31
0.0
 73
     1
 44
1.0
  0
MTEXT
  5
1C6
330
1BC
100
AcDbEntity
  8
VERMASSUNG
100
AcDbMText
 10
139.3745709248
 20
148.0154868135
 30
0.0
 40
2.0
 41
0.0
 71
     1
 72
     1
  1
40
  7
SLDTEXTSTYLE0
 11
-7.044195017643634E-15
 21
1.0
 31
0.0
 73
     1
 44
1.0
  0
ENDBLK
  5
1BE
330
1BC
100
AcDbEntity
  8
0
100
AcDbBlockEnd
  0
BLOCK
  5
1C9
330
1C8
100
AcDbEntity
  8
0
100
AcDbBlockBegin
  2
*D2
 70
     1
 10
0.0
 20
0.0
 30
0.0
  3
*D2
  1

  0
SOLID
  5
1CB
330
1C8
100
AcDbEntity
  8
VERMASSUNG
100
AcDbTrace
 10
165.4162927548
 20
179.7887192087
 30
0.0
 11
168.4162927548
 21
179.3387192087
 31
0.0
 12
168.4162927548
 22
180.2387192087
 32
0.0
 13
168.4162927548
 23
180.2387192087
 33
0.0
  0
SOLID
  5
1CC
330
1C8
100
AcDbEntity
  8
VERMASSUNG
100
AcDbTrace
 10
245.4162927548
 20
179.7887192087
 30
0.0
 11
242.4162927548
 21
180.2387192087
 31
0.0
 12
242.4162927548
 22
179.3387192087
 32
0.0
 13
242.4162927548
 23
179.3387192087
 33
0.0
  0
LINE
  5
1CD
330
1C8
100
AcDbEntity
  8
VERMASSUNG
100
AcDbLine
 10
165.4162927548
 20
163.010280963
 30
0.0
 11
165.4162927548
 21
180.7887192087
 31
0.0
  0
LINE
  5
1CE
330
1C8
100
AcDbEntity
  8
VERMASSUNG
100
AcDbLine
 10
245.4162927548
 20
173.310280963
 30
0.0
 11
245.4162927548
 21
180.7887192087
 31
0.0
  0
LINE
  5
1CF
330
1C8
100
AcDbEntity
  8
VERMASSUNG
100
AcDbLine
 10
165.4162927548
 20
179.7887192087
 30
0.0
 11
245.4162927548
 21
179.7887192087
 31
0.0
  0
MTEXT
  5
1D0
330
1C8
100
AcDbEntity
  8
VERMASSUNG
100
AcDbMText
 10
204.01691464
 20
182.3668545718
 30
0.0
 40
2.0
 41
0.0
 71
     1
 72
     1
  1
80
  7
SLDTEXTSTYLE0
 73
     1
 44
1.0
  0
ENDBLK
  5
1CA
330
1C8
100
AcDbEntity
  8
0
100
AcDbBlockEnd
  0
BLOCK
  5
1D3
330
1D2
100
AcDbEntity
  8
0
100
AcDbBlockBegin
  2
*D3
 70
     1
 10
0.0
 20
0.0
 30
0.0
  3
*D3
  1

  0
SOLID
  5
1D5
330
1D2
100
AcDbEntity
  8
VERMASSUNG
100
AcDbTrace
 10
145.5162927548
 20
185.7887192087
 30
0.0
 11
148.5162927548
 21
185.3387192087
 31
0.0
 12
148.5162927548
 22
186.2387192087
 32
0.0
 13
148.5162927548
 23
186.2387192087
 33
0.0
  0
SOLID
  5
1D6
330
1D2
100
AcDbEntity
  8
VERMASSUNG
100
AcDbTrace
 10
245.4162927548
 20
185.7887192087
 30
0.0
 11
242.4162927548
 21
186.2387192087
 31
0.0
 12
242.4162927548
 22
185.3387192087
 32
0.0
 13
242.4162927548
 23
185.3387192087
 33
0.0
  0
LINE
  5
1D7
330
1D2
100
AcDbEntity
  8
VERMASSUNG
100
AcDbLine
 10
145.5162927548
 20
155.5792201963
 30
0.0
 11
145.5162927548
 21
186.7887192087
 31
0.0
  0
LINE
  5
1D8
330
1D2
100
AcDbEntity
  8
VERMASSUNG
100
AcDbLine
 10
245.4162927548
 20
173.310280963
 30
0.0
 11
245.4162927548
 21
186.7887192087
 31
0.0
  0
LINE
  5
1D9
330
1D2
100
AcDbEntity
  8
VERMASSUNG
100
AcDbLine
 10
145.5162927548
 20
185.7887192087
 30
0.0
 11
245.4162927548
 21
185.7887192087
 31
0.0
  0
MTEXT
  5
1DA
330
1D2
100
AcDbEntity
  8
VERMASSUNG
100
AcDbMText
 10
193.0666957884
 20
188.3668545718
 30
0.0
 40
2.0
 41
0.0
 71
     1
 72
     1
  1
99.9
  7
SLDTEXTSTYLE0
 73
     1
 44
1.0
  0
ENDBLK
  5
1D4
330
1D2
100
AcDbEntity
  8
0
100
AcDbBlockEnd
  0
BLOCK
  5
227
330
226
100
AcDbEntity
  8
0
100
AcDbBlockBegin
  2
*D4
 70
     1
 10
0.0
 20
0.0
 30
0.0
  3
*D4
  1

  0
SOLID
  5
229
330
226
100
AcDbEntity
  8
VERMASSUNG
100
AcDbTrace
 10
69.4426526586
 20
180.3711712843
 30
0.0
 11
72.4426526586
 21
179.9211712843
 31
0.0
 12
72.4426526586
 22
180.8211712843
 32
0.0
 13
72.4426526586
 23
180.8211712843
 33
0.0
  0
SOLID
  5
22A
330
226
100
AcDbEntity
  8
VERMASSUNG
100
AcDbTrace
 10
89.4426526586
 20
180.3711712843
 30
0.0
 11
86.4426526586
 21
180.8211712843
 31
0.0
 12
86.4426526586
 22
179.9211712843
 32
0.0
 13
86.4426526586
 23
179.9211712843
 33
0.0
  0
LINE
  5
22B
330
226
100
AcDbEntity
  8
VERMASSUNG
100
AcDbLine
 10
89.4426526586
 20
173.310280963
 30
0.0
 11
89.4426526586
 21
181.3711712843
 31
0.0
  0
LINE
  5
22C
330
226
100
AcDbEntity
  8
VERMASSUNG
100
AcDbLine
 10
69.4426526586
 20
180.3711712843
 30
0.0
 11
89.4426526586
 21
180.3711712843
 31
0.0
  0
MTEXT
  5
22D
330
226
100
AcDbEntity
  8
VERMASSUNG
100
AcDbMText
 10
78.0432745438
 20
182.9493066474
 30
0.0
 40
2.0
 41
0.0
 71
     1
 72
     1
  1
20
  7
SLDTEXTSTYLE0
 73
     1
 44
1.0
  0
ENDBLK
  5
228
330
226
100
AcDbEntity
  8
0
100
AcDbBlockEnd
  0
BLOCK
  5
230
330
22F
100
AcDbEntity
  8
0
100
AcDbBlockBegin
  2
*D5
 70
     1
 10
0.0
 20
0.0
 30
0.0
  3
*D5
  1

  0
SOLID
  5
232
330
22F
100
AcDbEntity
  8
VERMASSUNG
100
AcDbTrace
 10
69.4426526586
 20
185.7438122006
 30
0.0
 11
72.4426526586
 21
185.2938122006
 31
0.0
 12
72.4426526586
 22
186.1938122006
 32
0.0
 13
72.4426526586
 23
186.1938122006
 33
0.0
  0
SOLID
  5
233
330
22F
100
AcDbEntity
  8
VERMASSUNG
100
AcDbTrace
 10
101.4426526586
 20
185.7438122006
 30
0.0
 11
98.4426526586
 21
186.1938122006
 31
0.0
 12
98.4426526586
 22
185.2938122006
 32
0.0
 13
98.4426526586
 23
185.2938122006
 33
0.0
  0
LINE
  5
234
330
22F
100
AcDbEntity
  8
VERMASSUNG
100
AcDbLine
 10
101.4426526586
 20
167.310280963
 30
0.0
 11
101.4426526586
 21
186.7438122006
 31
0.0
  0
LINE
  5
235
330
22F
100
AcDbEntity
  8
VERMASSUNG
100
AcDbLine
 10
69.4426526586
 20
185.7438122006
 30
0.0
 11
101.4426526586
 21
185.7438122006
 31
0.0
  0
MTEXT
  5
236
330
22F
100
AcDbEntity
  8
VERMASSUNG
100
AcDbMText
 10
84.0432745438
 20
188.3219475637
 30
0.0
 40
2.0
 41
0.0
 71
     1
 72
     1
  1
32
  7
SLDTEXTSTYLE0
 73
     1
 44
1.0
  0
ENDBLK
  5
231
330
22F
100
AcDbEntity
  8
0
100
AcDbBlockEnd
  0
BLOCK
  5
239
330
238
100
AcDbEntity
  8
0
100
AcDbBlockBegin
  2
*D6
 70
     1
 10
0.0
 20
0.0
 30
0.0
  3
*D6
  1

  0
SOLID
  5
23B
330
238
100
AcDbEntity
  8
VERMASSUNG
100
AcDbTrace
 10
37.4426526586
 20
190.9584342665
 30
0.0
 11
40.4426526586
 21
190.5084342665
 31
0.0
 12
40.4426526586
 22
191.4084342665
 32
0.0
 13
40.4426526586
 23
191.4084342665
 33
0.0
  0
SOLID
  5
23C
330
238
100
AcDbEntity
  8
VERMASSUNG
100
AcDbTrace
 10
101.4426526586
 20
190.9584342665
 30
0.0
 11
98.4426526586
 21
191.4084342665
 31
0.0
 12
98.4426526586
 22
190.5084342665
 32
0.0
 13
98.4426526586
 23
190.5084342665
 33
0.0
  0
LINE
  5
23D
330
238
100
AcDbEntity
  8
VERMASSUNG
100
AcDbLine
 10
37.4426526586
 20
148.310280963
 30
0.0
 11
37.4426526586
 21
191.9584342665
 31
0.0
  0
LINE
  5
23E
330
238
100
AcDbEntity
  8
VERMASSUNG
100
AcDbLine
 10
101.4426526586
 20
167.310280963
 30
0.0
 11
101.4426526586
 21
191.9584342665
 31
0.0
  0
LINE
  5
23F
330
238
100
AcDbEntity
  8
VERMASSUNG
100
AcDbLine
 10
37.4426526586
 20
190.9584342665
 30
0.0
 11
101.4426526586
 21
190.9584342665
 31
0.0
  0
MTEXT
  5
240
330
238
100
AcDbEntity
  8
VERMASSUNG
100
AcDbMText
 10
67.9434847279
 20
193.5365696296
 30
0.0
 40
2.0
 41
0.0
 71
     1
 72
     1
  1
64
  7
SLDTEXTSTYLE0
 73
     1
 44
1.0
  0
ENDBLK
  5
23A
330
238
100
AcDbEntity
  8
0
100
AcDbBlockEnd
  0
BLOCK
  5
243
330
242
100
AcDbEntity
  8
0
100
AcDbBlockBegin
  2
*D7
 70
     1
 10
0.0
 20
0.0
 30
0.0
  3
*D7
  1

  0
SOLID
  5
245
330
242
100
AcDbEntity
  8
VERMASSUNG
100
AcDbTrace
 10
109.9143620709
 20
173.310280963
 30
0.0
 11
109.4643620709
 21
170.310280963
 31
0.0
 12
110.3643620709
 22
170.310280963
 32
0.0
 13
110.3643620709
 23
170.310280963
 33
0.0
  0
SOLID
  5
246
330
242
100
AcDbEntity
  8
VERMASSUNG
100
AcDbTrace
 10
109.9143620709
 20
153.310280963
 30
0.0
 11
110.3643620709
 21
156.310280963
 31
0.0
 12
109.4643620709
 22
156.310280963
 32
0.0
 13
109.4643620709
 23
156.310280963
 33
0.0
  0
LINE
  5
247
330
242
100
AcDbEntity
  8
VERMASSUNG
100
AcDbLine
 10
95.9001657692
 20
173.310280963
 30
0.0
 11
110.9143620709
 21
173.310280963
 31
0.0
  0
LINE
  5
248
330
242
100
AcDbEntity
  8
VERMASSUNG
100
AcDbLine
 10
89.4426526586
 20
153.310280963
 30
0.0
 11
110.9143620709
 21
153.310280963
 31
0.0
  0
LINE
  5
249
330
242
100
AcDbEntity
  8
VERMASSUNG
100
AcDbLine
 10
109.9143620709
 20
173.310280963
 30
0.0
 11
109.9143620709
 21
153.310280963
 31
0.0
  0
MTEXT
  5
24A
330
242
100
AcDbEntity
  8
VERMASSUNG
100
AcDbMText
 10
107.3362267078
 20
161.9109028482
 30
0.0
 40
2.0
 41
0.0
 71
     1
 72
     1
  1
20
  7
SLDTEXTSTYLE0
 11
-7.044195017643634E-15
 21
1.0
 31
0.0
 73
     1
 44
1.0
  0
ENDBLK
  5
244
330
242
100
AcDbEntity
  8
0
100
AcDbBlockEnd
  0
BLOCK
  5
24D
330
24C
100
AcDbEntity
  8
0
100
AcDbBlockBegin
  2
*D8
 70
     1
 10
0.0
 20
0.0
 30
0.0
  3
*D8
  1

  0
SOLID
  5
24F
330
24C
100
AcDbEntity
  8
VERMASSUNG
100
AcDbTrace
 10
117.4426526586
 20
173.310280963
 30
0.0
 11
116.9926526586
 21
170.310280963
 31
0.0
 12
117.8926526586
 22
170.310280963
 32
0.0
 13
117.8926526586
 23
170.310280963
 33
0.0
  0
SOLID
  5
250
330
24C
100
AcDbEntity
  8
VERMASSUNG
100
AcDbTrace
 10
117.4426526586
 20
143.310280963
 30
0.0
 11
117.8926526586
 21
146.310280963
 31
0.0
 12
116.9926526586
 22
146.310280963
 32
0.0
 13
116.9926526586
 23
146.310280963
 33
0.0
  0
LINE
  5
251
330
24C
100
AcDbEntity
  8
VERMASSUNG
100
AcDbLine
 10
95.9001657692
 20
173.310280963
 30
0.0
 11
118.4426526586
 21
173.310280963
 31
0.0
  0
LINE
  5
252
330
24C
100
AcDbEntity
  8
VERMASSUNG
100
AcDbLine
 10
111.9426526586
 20
143.310280963
 30
0.0
 11
118.4426526586
 21
143.310280963
 31
0.0
  0
LINE
  5
253
330
24C
100
AcDbEntity
  8
VERMASSUNG
100
AcDbLine
 10
117.4426526586
 20
173.310280963
 30
0.0
 11
117.4426526586
 21
143.310280963
 31
0.0
  0
MTEXT
  5
254
330
24C
100
AcDbEntity
  8
VERMASSUNG
100
AcDbMText
 10
114.8645172955
 20
156.9109028482
 30
0.0
 40
2.0
 41
0.0
 71
     1
 72
     1
  1
30
  7
SLDTEXTSTYLE0
 11
-7.044195017643634E-15
 21
1.0
 31
0.0
 73
     1
 44
1.0
  0
ENDBLK
  5
24E
330
24C
100
AcDbEntity
  8
0
100
AcDbBlockEnd
  0
BLOCK
  5
257
330
256
100
AcDbEntity
  8
0
100
AcDbBlockBegin
  2
*D9
 70
     1
 10
0.0
 20
0.0
 30
0.0
  3
*D9
  1

  0
SOLID
  5
259
330
256
100
AcDbEntity
  8
VERMASSUNG
100
AcDbTrace
 10
123.4426526586
 20
173.310280963
 30
0.0
 11
122.9926526586
 21
170.310280963
 31
0.0
 12
123.8926526586
 22
170.310280963
 32
0.0
 13
123.8926526586
 23
170.310280963
 33
0.0
  0
SOLID
  5
25A
330
256
100
AcDbEntity
  8
VERMASSUNG
100
AcDbTrace
 10
123.4426526586
 20
113.310280963
 30
0.0
 11
123.8926526586
 21
116.310280963
 31
0.0
 12
122.9926526586
 22
116.310280963
 32
0.0
 13
122.9926526586
 23
116.310280963
 33
0.0
  0
LINE
  5
25B
330
256
100
AcDbEntity
  8
VERMASSUNG
100
AcDbLine
 10
95.9001657692
 20
173.310280963
 30
0.0
 11
124.4426526586
 21
173.310280963
 31
0.0
  0
LINE
  5
25C
330
256
100
AcDbEntity
  8
VERMASSUNG
100
AcDbLine
 10
95.9001657692
 20
113.310280963
 30
0.0
 11
124.4426526586
 21
113.310280963
 31
0.0
  0
LINE
  5
25D
330
256
100
AcDbEntity
  8
VERMASSUNG
100
AcDbLine
 10
123.4426526586
 20
173.310280963
 30
0.0
 11
123.4426526586
 21
113.310280963
 31
0.0
  0
MTEXT
  5
25E
330
256
100
AcDbEntity
  8
VERMASSUNG
100
AcDbMText
 10
120.8645172955
 20
141.9109028482
 30
0.0
 40
2.0
 41
0.0
 71
     1
 72
     1
  1
60
  7
SLDTEXTSTYLE0
 11
-7.932373437343760E-15
 21
1.0
 31
0.0
 73
     1
 44
1.0
  0
ENDBLK
  5
258
330
256
100
AcDbEntity
  8
0
100
AcDbBlockEnd
  0
BLOCK
  5
262
330
261
100
AcDbEntity
  8
0
100
AcDbBlockBegin
  2
*D10
 70
     1
 10
0.0
 20
0.0
 30
0.0
  3
*D10
  1

  0
SOLID
  5
264
330
261
100
AcDbEntity
  8
VERMASSUNG
100
AcDbTrace
 10
39.2870804402
 20
117.0302226644
 30
0.0
 11
36.7297618679
 21
115.3984684795
 31
0.0
 12
37.3210631796
 22
114.7199681046
 32
0.0
 13
37.3210631796
 23
114.7199681046
 33
0.0
  0
LINE
  5
265
330
261
100
AcDbEntity
  8
VERMASSUNG
100
AcDbLine
 10
39.2870804402
 20
117.0302226644
 30
0.0
 11
29.6914880447
 21
108.6678302768
 31
0.0
  0
MTEXT
  5
266
330
261
100
AcDbEntity
  8
VERMASSUNG
100
AcDbMText
 10
29.195425596
 20
111.6533277253
 30
0.0
 40
2.0
 41
0.0
 71
     1
 72
     1
  1
%%c
  7
SLDTEXTSTYLE0
 11
0.7538893054606666
 21
0.6570014574656846
 31
0.0
 73
     1
 44
1.0
  0
MTEXT
  5
267
330
261
100
AcDbEntity
  8
VERMASSUNG
100
AcDbMText
 10
31.9159695918
 20
114.0242344897
 30
0.0
 40
2.0
 41
0.0
 71
     1
 72
     1
  1
80
  7
SLDTEXTSTYLE0
 11
0.7538893054606666
 21
0.6570014574656846
 31
0.0
 73
     1
 44
1.0
  0
ENDBLK
  5
263
330
261
100
AcDbEntity
  8
0
100
AcDbBlockEnd
  0
BLOCK
  5
269
330
268
100
AcDbEntity
  8
0
100
AcDbBlockBegin
  2
SW_CENTERMARKSYMBOL_0
 70
     0
 10
0.0
 20
0.0
 30
0.0
  3
SW_CENTERMARKSYMBOL_0
  1

  0
LINE
  5
26B
330
268
100
AcDbEntity
  8
VERMASSUNG
 62
     0
100
AcDbLine
 10
0.0
 20
0.0
 30
0.0
 11
0.0
 21
2.5
 31
0.0
  0
LINE
  5
26C
330
268
100
AcDbEntity
  8
VERMASSUNG
 62
     0
100
AcDbLine
 10
0.0
 20
0.0
 30
0.0
 11
-2.5
 21
0.0
 31
0.0
  0
LINE
  5
26D
330
268
100
AcDbEntity
  8
VERMASSUNG
 62
     0
100
AcDbLine
 10
0.0
 20
0.0
 30
0.0
 11
0.0
 21
-2.5
 31
0.0
  0
LINE
  5
26E
330
268
100
AcDbEntity
  8
VERMASSUNG
 62
     0
100
AcDbLine
 10
0.0
 20
0.0
 30
0.0
 11
2.5
 21
0.0
 31
0.0
  0
LINE
  5
26F
330
268
100
AcDbEntity
  8
VERMASSUNG
 62
     0
100
AcDbLine
 10
0.0
 20
5.0
 30
0.0
 11
0.0
 21
45.1198516958
 31
0.0
  0
LINE
  5
270
330
268
100
AcDbEntity
  8
VERMASSUNG
 62
     0
100
AcDbLine
 10
-5.0
 20
0.0
 30
0.0
 11
-42.5
 21
0.0
 31
0.0
  0
LINE
  5
271
330
268
100
AcDbEntity
  8
VERMASSUNG
 62
     0
100
AcDbLine
 10
0.0
 20
-5.0
 30
0.0
 11
0.0
 21
-42.5
 31
0.0
  0
LINE
  5
272
330
268
100
AcDbEntity
  8
VERMASSUNG
 62
     0
100
AcDbLine
 10
5.0
 20
0.0
 30
0.0
 11
42.5
 21
0.0
 31
0.0
  0
ENDBLK
  5
26A
330
268
100
AcDbEntity
  8
0
100
AcDbBlockEnd
  0
BLOCK
  5
32B
330
32A
100
AcDbEntity
  8
0
100
AcDbBlockBegin
  2
*D12
 70
     1
 10
0.0
 20
0.0
 30
0.0
  3
*D12
  1

  0
SOLID
  5
32D
330
32A
100
AcDbEntity
  8
VERMASSUNG
100
AcDbTrace
 10
200.4162927548
 20
99.6484208411
 30
0.0
 11
203.4162927548
 21
99.1984208411
 31
0.0
 12
203.4162927548
 22
100.0984208411
 32
0.0
 13
203.4162927548
 23
100.0984208411
 33
0.0
  0
SOLID
  5
32E
330
32A
100
AcDbEntity
  8
VERMASSUNG
100
AcDbTrace
 10
245.4162927548
 20
99.6484208411
 30
0.0
 11
242.4162927548
 21
100.0984208411
 31
0.0
 12
242.4162927548
 22
99.1984208411
 32
0.0
 13
242.4162927548
 23
99.1984208411
 33
0.0
  0
LINE
  5
32F
330
32A
100
AcDbEntity
  8
VERMASSUNG
100
AcDbLine
 10
200.4162927548
 20
73.7859810494
 30
0.0
 11
200.4162927548
 21
100.6484208411
 31
0.0
  0
LINE
  5
330
330
32A
100
AcDbEntity
  8
VERMASSUNG
100
AcDbLine
 10
245.4162927548
 20
93.7859810494
 30
0.0
 11
245.4162927548
 21
100.6484208411
 31
0.0
  0
LINE
  5
331
330
32A
100
AcDbEntity
  8
VERMASSUNG
100
AcDbLine
 10
200.4162927548
 20
99.6484208411
 30
0.0
 11
245.4162927548
 21
99.6484208411
 31
0.0
  0
MTEXT
  5
332
330
32A
100
AcDbEntity
  8
VERMASSUNG
100
AcDbMText
 10
221.4171248242
 20
102.2265562042
 30
0.0
 40
2.0
 41
0.0
 71
     1
 72
     1
  1
45
  7
SLDTEXTSTYLE0
 73
     1
 44
1.0
  0
ENDBLK
  5
32C
330
32A
100
AcDbEntity
  8
0
100
AcDbBlockEnd
  0
ENDSEC
  0
SECTION
  2
ENTITIES
  0
MTEXT
  5
45
330
1F
100
AcDbEntity
  8
KOPF_DÜNN
100
AcDbMText
 10
13.8892156294
 20
23.8442973028
 30
0.0
 40
3.0
 41
0.0
 71
     1
 72
     1
  1
HA4.V20.R21.080
  7
SLDTEXTSTYLE0
 73
     1
 44
1.0
  0
MTEXT
  5
46
330
1F
100
AcDbEntity
  8
VERMASSUNG
100
AcDbMText
 10
13.9329988022
 20
28.8834360957
 30
0.0
 40
3.0
 41
0.0
 71
     1
 72
     1
  1
Werkzeughalter axial doppelt_Tool holder axial double
  7
SLDTEXTSTYLE0
 73
     1
 44
1.0
  0
MTEXT
  5
47
330
1F
100
AcDbEntity
  8
VERMASSUNG
100
AcDbMText
 10
98.8601118557
 20
13.8365368179
 30
0.0
 40
2.0
 41
0.0
 71
     1
 72
     1
  1
Datum: 03.05.2011
  7
SLDTEXTSTYLE0
 73
     1
 44
1.0
  0
MTEXT
  5
48
330
1F
100
AcDbEntity
  8
VERMASSUNG
100
AcDbMText
 10
13.933048693
 20
18.0482802738
 30
0.0
 40
2.0
 41
0.0
 71
     1
 72
     1
  1
DIN 69893 HSK 40 A ICTM / 20x20
  7
SLDTEXTSTYLE0
 73
     1
 44
1.0
  0
MTEXT
  5
49
330
1F
100
AcDbEntity
  8
VERMASSUNG
100
AcDbMText
 10
13.9808475933
 20
13.9090973692
 30
0.0
 40
2.0
 41
0.0
 71
     1
 72
     1
  1
Gewicht: 1204g
  7
SLDTEXTSTYLE0
 73
     1
 44
1.0
  0
ARC
  5
4A
330
1F
100
AcDbEntity
  8
0
  6
Continuous
 62
     7
370
    15
100
AcDbCircle
 10
243.4162927548
 20
149.310280963
 30
0.0
 40
5.000000000000035
100
AcDbArc
 50
42.0011551314
 51
66.4218215218
  0
ARC
  5
4B
330
1F
100
AcDbEntity
  8
0
  6
Continuous
 62
     7
370
    15
100
AcDbCircle
 10
243.4162927548
 20
149.310280963
 30
0.0
 40
5.000000000000016
100
AcDbArc
 50
293.5781784782
 51
321.0427295384
  0
ARC
  5
4C
330
1F
100
AcDbEntity
  8
0
  6
Continuous
 62
     7
370
    15
100
AcDbCircle
 10
243.4162927548
 20
137.310280963
 30
0.0
 40
5.000000000000016
100
AcDbArc
 50
38.9572704617
 51
66.4218215218
  0
ARC
  5
4D
330
1F
100
AcDbEntity
  8
0
  6
Continuous
 62
     7
370
    15
100
AcDbCircle
 10
243.4162927548
 20
137.310280963
 30
0.0
 40
5.000000000000021
100
AcDbArc
 50
293.5781784782
 51
317.9988448686
  0
LINE
  5
4E
330
1F
100
AcDbEntity
  8
0
  6
Continuous
 62
     7
370
    15
100
AcDbLine
 10
165.7162927548
 20
123.310280963
 30
0.0
 11
173.3662927548
 21
123.310280963
 31
0.0
  0
LINE
  5
4F
330
1F
100
AcDbEntity
  8
0
  6
Continuous
 62
     7
370
    15
100
AcDbLine
 10
173.3690228904
 20
163.310280963
 30
0.0
 11
165.7162927548
 21
163.310280963
 31
0.0
  0
ARC
  5
50
330
1F
100
AcDbEntity
  8
0
  6
Continuous
 62
     7
370
    15
100
AcDbCircle
 10
165.7162927548
 20
123.610280963
 30
0.0
 40
0.3000000000000114
100
AcDbArc
 50
180.0
 51
270.0
  0
ARC
  5
51
330
1F
100
AcDbEntity
  8
0
  6
Continuous
 62
     7
370
    15
100
AcDbCircle
 10
165.7162927548
 20
163.010280963
 30
0.0
 40
0.3000000000000114
100
AcDbArc
 50
90.0
 51
180.0
  0
ARC
  5
52
330
1F
100
AcDbEntity
  8
0
  6
Continuous
 62
     7
370
    15
100
AcDbCircle
 10
186.3662927548
 20
125.810280963
 30
0.0
 40
1.0
100
AcDbArc
 50
90.0
 51
143.1142427467
  0
ARC
  5
53
330
1F
100
AcDbEntity
  8
0
  6
Continuous
 62
     7
370
    15
100
AcDbCircle
 10
186.3662927548
 20
160.810280963
 30
0.0
 40
1.000000000000012
100
AcDbArc
 50
216.8994515981
 51
270.0
  0
LINE
  5
54
330
1F
100
AcDbEntity
  8
0
  6
Continuous
 62
     7
370
    15
100
AcDbLine
 10
186.3662927548
 20
126.810280963
 30
0.0
 11
197.7854192891
 21
126.810280963
 31
0.0
  0
LINE
  5
55
330
1F
100
AcDbEntity
  8
0
  6
Continuous
 62
     7
370
    15
100
AcDbLine
 10
197.7738913551
 20
159.810280963
 30
0.0
 11
186.3662927548
 21
159.810280963
 31
0.0
  0
ARC
  5
56
330
1F
100
AcDbEntity
  8
0
  6
Continuous
 62
     7
370
    15
100
AcDbCircle
 10
164.9162860022
 20
127.8565738096
 30
0.0
 40
0.6000067526676958
100
AcDbArc
 50
33.5571153394
 51
90.0
  0
ARC
  5
57
330
1F
100
AcDbEntity
  8
0
  6
Continuous
 62
     7
370
    15
100
AcDbCircle
 10
164.9162860022
 20
158.7639881165
 30
0.0
 40
0.6000067526677242
100
AcDbArc
 50
270.0
 51
326.4428846606
  0
LINE
  5
58
330
1F
100
AcDbEntity
  8
0
  6
Continuous
 62
     7
370
    15
100
AcDbLine
 10
156.6520760627
 20
158.075092752
 30
0.0
 11
149.1162927548
 21
157.6975484981
 31
0.0
  0
LINE
  5
59
330
1F
100
AcDbEntity
  8
0
  6
Continuous
 62
     7
370
    15
100
AcDbLine
 10
163.4162927548
 20
158.4139813638
 30
0.0
 11
162.1289845079
 21
158.3494869627
 31
0.0
  0
LINE
  5
5A
330
1F
100
AcDbEntity
  8
0
  6
Continuous
 62
     7
370
    15
100
AcDbLine
 10
162.1290726531
 20
128.2710705473
 30
0.0
 11
163.4162927548
 21
128.2065805622
 31
0.0
  0
LINE
  5
5B
330
1F
100
AcDbEntity
  8
0
  6
Continuous
 62
     7
370
    15
100
AcDbLine
 10
151.6162927548
 20
128.797762927
 30
0.0
 11
156.6533982775
 21
128.5454029308
 31
0.0
  0
LINE
  5
5C
330
1F
100
AcDbEntity
  8
0
  6
Continuous
 62
     7
370
    15
100
AcDbLine
 10
163.4162927548
 20
128.2065805622
 30
0.0
 11
164.2730046695
 21
128.4361358279
 31
0.0
  0
LINE
  5
5D
330
1F
100
AcDbEntity
  8
0
  6
Continuous
 62
     7
370
    15
100
AcDbLine
 10
164.2730046695
 20
158.1844260982
 30
0.0
 11
163.4162927548
 21
158.4139813638
 31
0.0
  0
ARC
  5
5E
330
1F
100
AcDbEntity
  8
0
  6
Continuous
 62
     7
370
    15
100
AcDbCircle
 10
164.4282978443
 20
127.8565738096
 30
0.0
 40
0.600006752667717
100
AcDbArc
 50
90.0
 51
105.0
  0
ARC
  5
5F
330
1F
100
AcDbEntity
  8
0
  6
Continuous
 62
     7
370
    15
100
AcDbCircle
 10
164.4282978443
 20
158.7639881165
 30
0.0
 40
0.6000067526677242
100
AcDbArc
 50
255.0
 51
270.0
  0
LINE
  5
60
330
1F
100
AcDbEntity
  8
0
  6
Continuous
 62
     7
370
    15
100
AcDbLine
 10
164.4282978443
 20
128.4565805622
 30
0.0
 11
164.9162860022
 21
128.4565805622
 31
0.0
  0
LINE
  5
61
330
1F
100
AcDbEntity
  8
0
  6
Continuous
 62
     7
370
    15
100
AcDbLine
 10
164.9162860022
 20
158.1639813638
 30
0.0
 11
164.4282978443
 21
158.1639813638
 31
0.0
  0
ARC
  5
62
330
1F
100
AcDbEntity
  8
0
  6
Continuous
 62
     7
370
    15
100
AcDbCircle
 10
148.2162927548
 20
157.090280963
 30
0.0
 40
0.9000000000000057
100
AcDbArc
 50
270.0
 51
311.1792132368
  0
ARC
  5
63
330
1F
100
AcDbEntity
  8
0
  6
Continuous
 62
     7
370
    15
100
AcDbCircle
 10
150.7162927548
 20
129.530280963
 30
0.0
 40
0.8999999999999914
100
AcDbArc
 50
34.6391318474
 51
90.0
  0
LINE
  5
64
330
1F
100
AcDbEntity
  8
0
  6
Continuous
 62
     7
370
    15
100
AcDbLine
 10
146.4662927548
 20
156.190280963
 30
0.0
 11
145.5547889649
 21
155.6640240046
 31
0.0
  0
LINE
  5
65
330
1F
100
AcDbEntity
  8
0
  6
Continuous
 62
     7
370
    15
100
AcDbLine
 10
148.2162927548
 20
156.190280963
 30
0.0
 11
146.4662927548
 21
156.190280963
 31
0.0
  0
LINE
  5
66
330
1F
100
AcDbEntity
  8
0
  6
Continuous
 62
     7
370
    15
100
AcDbLine
 10
146.5684837525
 20
130.430280963
 30
0.0
 11
150.7162927548
 21
130.430280963
 31
0.0
  0
LINE
  5
67
330
1F
100
AcDbEntity
  8
0
  6
Continuous
 62
     7
370
    15
100
AcDbLine
 10
145.5311783138
 20
131.0291695373
 30
0.0
 11
146.5684837525
 21
130.430280963
 31
0.0
  0
LWPOLYLINE
  5
68
330
1F
100
AcDbEntity
  8
0
  6
Continuous
 62
     7
370
    15
100
AcDbPolyline
 90
       31
 70
   128
 43
0.0
 10
247.3347952655
 20
146.3070787737
 10
247.3095359864
 20
146.1754785814
 10
247.2799741999
 20
146.1852908138
 10
247.2474018981
 20
146.3360866292
 10
247.2132426468
 20
146.6212755271
 10
247.1789893691
 20
147.028393384
 10
247.1461390978
 20
147.539647196
 10
247.1161275473
 20
148.1326927182
 10
247.0902663663
 20
148.7816110157
 10
247.0696858126
 20
149.4580412449
 10
247.0552853551
 20
150.132420159
 10
247.0476943629
 20
150.7752741633
 10
247.0472445989
 20
151.3585074532
 10
247.0539557197
 20
151.8566299352
 10
247.0675344174
 20
152.2478712666
 10
247.0873872375
 20
152.5151323238
 10
247.1126465167
 20
152.6467325162
 10
247.1422083031
 20
152.6369202838
 10
247.174780605
 20
152.4861244683
 10
247.2089398563
 20
152.2009355705
 10
247.2431931339
 20
151.7938177136
 10
247.2760434052
 20
151.2825639016
 10
247.3060549558
 20
150.6895183793
 10
247.3319161367
 20
150.0406000818
 10
247.3524966904
 20
149.3641698526
 10
247.3668971479
 20
148.6897909386
 10
247.3744881401
 20
148.0469369342
 10
247.3749379042
 20
147.4637036443
 10
247.3682267833
 20
146.9655811623
 10
247.3546480857
 20
146.5743398309
 10
247.3347952655
 20
146.3070787737
  0
LWPOLYLINE
  5
69
330
1F
100
AcDbEntity
  8
0
  6
Continuous
 62
     7
370
    15
100
AcDbPolyline
 90
       28
 70
   128
 43
0.0
 10
247.3062481854
 20
147.0233926449
 10
247.2844376837
 20
146.9175932451
 10
247.2586730569
 20
146.946219739
 10
247.2303432826
 20
147.107728865
 10
247.2009756263
 20
147.3934136241
 10
247.172153306
 20
147.7878726772
 10
247.1454301405
 20
148.2698406345
 10
247.1222467824
 20
148.8133344788
 10
247.1038530527
 20
149.3890543162
 10
247.091240562
 20
149.9659629412
 10
247.085089253
 20
150.5129590606
 10
247.0857307444
 20
151.000553972
 10
247.0931304531
 20
151.4024613075
 10
247.106889459
 20
151.6970141385
 10
247.1262660106
 20
151.8683330458
 10
247.1502155128
 20
151.9071821827
 10
247.1774468419
 20
151.8114671822
 10
247.2064919498
 20
151.5863480647
 10
247.2357850072
 20
151.2439610602
 10
247.2637468179
 20
150.8027643406
 10
247.2888699534
 20
150.2865429353
 10
247.3098000189
 20
149.7231264739
 10
247.3254086692
 20
149.1428888837
 10
247.334854438
 20
148.5771109233
 10
247.3376281013
 20
148.0562938291
 10
247.3335801303
 20
147.6085149853
 10
247.3229287521
 20
147.2579142654
 10
247.3062481854
 20
147.0233926449
  0
LWPOLYLINE
  5
6A
330
1F
100
AcDbEntity
  8
0
  6
Continuous
 62
     7
370
    15
100
AcDbPolyline
 90
        3
 70
   128
 43
0.0
 10
247.3347952655
 20
140.3134831523
 10
247.3095359864
 20
140.4450833447
 10
247.3043681262
 20
140.4539841784
  0
ARC
  5
6B
330
1F
100
AcDbEntity
  8
0
  6
Continuous
 62
     7
370
    15
100
AcDbCircle
 10
213.1061634827
 20
138.2293690653
 30
0.0
 40
34.29202188925776
100
AcDbArc
 50
352.8557637442
 51
3.4843257303
  0
LINE
  5
6C
330
1F
100
AcDbEntity
  8
0
  6
Continuous
 62
     7
370
    15
100
AcDbLine
 10
215.6178773338
 20
165.1774602996
 30
0.0
 11
212.9000603055
 21
166.1504988053
 31
0.0
  0
LINE
  5
6D
330
1F
100
AcDbEntity
  8
0
  6
Continuous
 62
     7
370
    15
100
AcDbLine
 10
210.6984757265
 20
164.2833194687
 30
0.0
 11
212.9000603055
 21
166.1504988053
 31
0.0
  0
LINE
  5
6E
330
1F
100
AcDbEntity
  8
0
  6
Continuous
 62
     7
370
    15
100
AcDbLine
 10
211.2147081759
 20
161.4431016265
 30
0.0
 11
210.6984757265
 21
164.2833194687
 31
0.0
  0
LINE
  5
6F
330
1F
100
AcDbEntity
  8
0
  6
Continuous
 62
     7
370
    15
100
AcDbLine
 10
216.1341097832
 20
162.3372424573
 30
0.0
 11
215.6178773338
 21
165.1774602996
 31
0.0
  0
CIRCLE
  5
70
330
1F
100
AcDbEntity
  8
0
  6
Continuous
 62
     7
370
    15
100
AcDbCircle
 10
213.4162927548
 20
163.310280963
 30
0.0
 40
4.172000000000009
  0
LINE
  5
71
330
1F
100
AcDbEntity
  8
0
  6
Continuous
 62
     7
370
    15
100
AcDbLine
 10
211.2147081759
 20
161.4431016265
 30
0.0
 11
213.9325252042
 21
160.4700631208
 31
0.0
  0
LINE
  5
72
330
1F
100
AcDbEntity
  8
0
  6
Continuous
 62
     7
370
    15
100
AcDbLine
 10
216.1341097832
 20
162.3372424573
 30
0.0
 11
213.9325252042
 21
160.4700631208
 31
0.0
  0
CIRCLE
  5
73
330
1F
100
AcDbEntity
  8
0
  6
Continuous
 62
     7
370
    15
100
AcDbCircle
 10
235.4162927548
 20
163.310280963
 30
0.0
 40
4.172000000000009
  0
LINE
  5
74
330
1F
100
AcDbEntity
  8
0
  6
Continuous
 62
     7
370
    15
100
AcDbLine
 10
238.2255872536
 20
163.9745081474
 30
0.0
 11
236.2457023887
 21
166.0753149579
 31
0.0
  0
LINE
  5
75
330
1F
100
AcDbEntity
  8
0
  6
Continuous
 62
     7
370
    15
100
AcDbLine
 10
232.6069982561
 20
162.6460537787
 30
0.0
 11
233.4364078899
 21
165.4110877735
 31
0.0
  0
LINE
  5
76
330
1F
100
AcDbEntity
  8
0
  6
Continuous
 62
     7
370
    15
100
AcDbLine
 10
233.4364078899
 20
165.4110877735
 30
0.0
 11
236.2457023887
 21
166.0753149579
 31
0.0
  0
LINE
  5
77
330
1F
100
AcDbEntity
  8
0
  6
Continuous
 62
     7
370
    15
100
AcDbLine
 10
237.3961776198
 20
161.2094741525
 30
0.0
 11
238.2255872536
 21
163.9745081474
 31
0.0
  0
LINE
  5
78
330
1F
100
AcDbEntity
  8
0
  6
Continuous
 62
     7
370
    15
100
AcDbLine
 10
237.3961776198
 20
161.2094741525
 30
0.0
 11
234.586883121
 21
160.5452469682
 31
0.0
  0
LINE
  5
79
330
1F
100
AcDbEntity
  8
0
  6
Continuous
 62
     7
370
    15
100
AcDbLine
 10
232.6069982561
 20
162.6460537787
 30
0.0
 11
234.586883121
 21
160.5452469682
 31
0.0
  0
LINE
  5
7A
330
1F
100
AcDbEntity
  8
0
  6
Continuous
 62
     7
370
    15
100
AcDbLine
 10
204.0380714327
 20
173.310280963
 30
0.0
 11
200.6148915932
 21
160.5224371533
 31
0.0
  0
SPLINE
  5
7B
330
1F
100
AcDbEntity
  8
0
  6
Continuous
 62
     7
370
    15
100
AcDbSpline
210
0.0
220
0.0
230
1.0
 70
    24
 71
     3
 72
    16
 73
    12
 74
     0
 42
0.00000001
 43
0.00000001
 40
0.0
 40
0.0
 40
0.0
 40
0.0
 40
0.2499999999999996
 40
0.2499999999999996
 40
0.4999999999999993
 40
0.4999999999999993
 40
0.6249999999999993
 40
0.6249999999999993
 40
0.7499999999999993
 40
0.7499999999999993
 40
1.0
 40
1.0
 40
1.0
 40
1.0
 10
204.0380714327212
 20
173.3102809630379
 30
0.0
 10
204.0570128475275
 20
173.3102809630379
 30
0.0
 10
204.1368045266543
 20
173.3102809630379
 30
0.0
 10
204.4086287483937
 20
173.3102809630379
 30
0.0
 10
204.6003815214193
 20
173.3102809630379
 30
0.0
 10
204.9569958974594
 20
173.3102809630379
 30
0.0
 10
205.087411658326
 20
173.3102809630379
 30
0.0
 10
205.367477024169
 20
173.3102809630379
 30
0.0
 10
205.5171887521211
 20
173.3102809630379
 30
0.0
 10
205.9912146522236
 20
173.3102809630379
 30
0.0
 10
206.3402496107497
 20
173.3102809630379
 30
0.0
 10
206.7130987769754
 20
173.3102809630379
 30
0.0
  0
LINE
  5
7C
330
1F
100
AcDbEntity
  8
0
  6
Continuous
 62
     7
370
    15
100
AcDbLine
 10
206.713098777
 20
173.310280963
 30
0.0
 11
206.713098777
 21
172.8229900898
 31
0.0
  0
SPLINE
  5
7D
330
1F
100
AcDbEntity
  8
0
  6
Continuous
 62
     7
370
    15
100
AcDbSpline
210
0.0
220
0.0
230
1.0
 70
     8
 71
     3
 72
    10
 73
     6
 74
     0
 42
0.00000001
 43
0.00000001
 40
0.0
 40
0.0
 40
0.0
 40
0.0
 40
0.5
 40
0.5
 40
1.0
 40
1.0
 40
1.0
 40
1.0
 10
203.7100207161157
 20
153.3102809630379
 30
0.0
 10
204.014451133417
 20
156.5815243357563
 30
0.0
 10
204.4487892964518
 20
159.8405226319236
 30
0.0
 10
205.4785734603036
 20
166.3433332336502
 30
0.0
 10
206.0736941091813
 20
169.5887350486012
 30
0.0
 10
206.7130987769755
 20
172.8229900897853
 30
0.0
  0
SPLINE
  5
7E
330
1F
100
AcDbEntity
  8
0
  6
Continuous
 62
     7
370
    15
100
AcDbSpline
210
0.0
220
0.0
230
1.0
 70
     8
 71
     3
 72
     8
 73
     4
 74
     0
 42
0.00000001
 43
0.00000001
 40
0.0
 40
0.0
 40
0.0
 40
0.0
 40
1.0
 40
1.0
 40
1.0
 40
1.0
 10
204.6735417315141
 20
148.3102809630379
 30
0.0
 10
204.3023321767852
 20
149.9721265710649
 30
0.0
 10
203.9745613719713
 20
151.6381575906069
 30
0.0
 10
203.7100207161157
 20
153.3102809630379
 30
0.0
  0
SPLINE
  5
7F
330
1F
100
AcDbEntity
  8
0
  6
Continuous
 62
     7
370
    15
100
AcDbSpline
210
0.0
220
0.0
230
1.0
 70
     8
 71
     3
 72
    14
 73
    10
 74
     0
 42
0.00000001
 43
0.00000001
 40
0.0
 40
0.0
 40
0.0
 40
0.0
 40
0.125
 40
0.125
 40
0.25
 40
0.25
 40
0.5
 40
0.5
 40
1.0
 40
1.0
 40
1.0
 40
1.0
 10
204.6735417315141
 20
148.3102809630379
 30
0.0
 10
204.6233277633196
 20
147.096361623436
 30
0.0
 10
204.590931840215
 20
145.8803769312021
 30
0.0
 10
204.5633765448046
 20
143.4440913264192
 30
0.0
 10
204.5682785624919
 20
142.2251343854982
 30
0.0
 10
204.6383693552431
 20
138.5777983182724
 30
0.0
 10
204.7593562151076
 20
136.1543152599736
 30
0.0
 10
205.3160486316044
 20
128.904930721216
 30
0.0
 10
205.9430848496964
 20
124.0998327949393
 30
0.0
 10
206.7130987769754
 20
119.3102809630379
 30
0.0
  0
LINE
  5
80
330
1F
100
AcDbEntity
  8
0
  6
Continuous
 62
     7
370
    15
100
AcDbLine
 10
206.713098777
 20
119.310280963
 30
0.0
 11
206.713098777
 21
113.310280963
 31
0.0
  0
SPLINE
  5
81
330
1F
100
AcDbEntity
  8
0
  6
Continuous
 62
     7
370
    15
100
AcDbSpline
210
0.0
220
0.0
230
1.0
 70
    24
 71
     3
 72
     8
 73
     4
 74
     0
 42
0.00000001
 43
0.00000001
 40
0.0
 40
0.0
 40
0.0
 40
0.0
 40
1.0
 40
1.0
 40
1.0
 40
1.0
 10
205.6561766050264
 20
113.3102809630379
 30
0.0
 10
205.9771908241812
 20
113.3102809630379
 30
0.0
 10
206.3327647158791
 20
113.3102809630379
 30
0.0
 10
206.7130987769754
 20
113.3102809630379
 30
0.0
  0
SPLINE
  5
82
330
1F
100
AcDbEntity
  8
0
  6
Continuous
 62
     7
370
    15
100
AcDbSpline
210
0.0
220
0.0
230
1.0
 70
     8
 71
     3
 72
    12
 73
     8
 74
     0
 42
0.00000001
 43
0.00000001
 40
0.0
 40
0.0
 40
0.0
 40
0.0
 40
0.2499999999999997
 40
0.2499999999999997
 40
0.4999999999999996
 40
0.4999999999999996
 40
1.0
 40
1.0
 40
1.0
 40
1.0
 10
201.9866571676522
 20
133.3102809630381
 30
0.0
 10
202.1878553829583
 20
131.6312578531183
 30
0.0
 10
202.4290053971233
 20
129.9557564015188
 30
0.0
 10
202.9675786467387
 20
126.6097138521364
 30
0.0
 10
203.2651082336787
 20
124.9383554873468
 30
0.0
 10
204.2134120932959
 20
119.9381138660067
 30
0.0
 10
204.9181622458873
 20
116.6205461041785
 30
0.0
 10
205.6561766050263
 20
113.3102809630381
 30
0.0
  0
SPLINE
  5
83
330
1F
100
AcDbEntity
  8
0
  6
Continuous
 62
     7
370
    15
100
AcDbSpline
210
0.0
220
0.0
230
1.0
 70
    24
 71
     3
 72
     8
 73
     4
 74
     0
 42
0.00000001
 43
0.00000001
 40
0.0
 40
0.0
 40
0.0
 40
0.0
 40
1.0
 40
1.0
 40
1.0
 40
1.0
 10
201.9866571676522
 20
133.3102809630381
 30
0.0
 10
201.5117436550542
 20
133.3102809630381
 30
0.0
 10
201.0491536039746
 20
133.310280963038
 30
0.0
 10
200.6148915931541
 20
133.310280963038
 30
0.0
  0
LINE
  5
84
330
1F
100
AcDbEntity
  8
0
  6
Continuous
 62
     7
370
    15
100
AcDbLine
 10
204.6735417315
 20
148.310280963
 30
0.0
 11
245.4162927548
 21
148.310280963
 31
0.0
  0
LINE
  5
85
330
1F
100
AcDbEntity
  8
0
  6
Continuous
 62
     7
370
    15
100
AcDbLine
 10
245.4162927548
 20
148.310280963
 30
0.0
 11
245.4162927548
 21
119.310280963
 31
0.0
  0
LINE
  5
86
330
1F
100
AcDbEntity
  8
0
  6
Continuous
 62
     7
370
    15
100
AcDbLine
 10
245.4162927548
 20
119.310280963
 30
0.0
 11
206.713098777
 21
119.310280963
 31
0.0
  0
LINE
  5
87
330
1F
100
AcDbEntity
  8
0
  6
Continuous
 62
     7
370
    15
100
AcDbLine
 10
206.713098777
 20
113.310280963
 30
0.0
 11
245.4162927548
 21
113.310280963
 31
0.0
  0
LINE
  5
88
330
1F
100
AcDbEntity
  8
0
  6
Continuous
 62
     7
370
    15
100
AcDbLine
 10
245.4162927548
 20
119.310280963
 30
0.0
 11
245.4162927548
 21
113.310280963
 31
0.0
  0
LINE
  5
89
330
1F
100
AcDbEntity
  8
0
  6
Continuous
 62
     7
370
    15
100
AcDbLine
 10
203.7100207161
 20
153.310280963
 30
0.0
 11
245.4162927548
 21
153.310280963
 31
0.0
  0
LINE
  5
8A
330
1F
100
AcDbEntity
  8
0
  6
Continuous
 62
     7
370
    15
100
AcDbLine
 10
245.4162927548
 20
153.310280963
 30
0.0
 11
245.4162927548
 21
148.310280963
 31
0.0
  0
LINE
  5
8B
330
1F
100
AcDbEntity
  8
0
  6
Continuous
 62
     7
370
    15
100
AcDbLine
 10
206.713098777
 20
172.8229900898
 30
0.0
 11
245.4162927548
 21
172.8229900898
 31
0.0
  0
CIRCLE
  5
8C
330
1F
100
AcDbEntity
  8
0
  6
Continuous
 62
     7
370
    15
100
AcDbCircle
 10
235.4162927548
 20
163.310280963
 30
0.0
 40
4.249999999999972
  0
CIRCLE
  5
8D
330
1F
100
AcDbEntity
  8
0
  6
Continuous
 62
     7
370
    15
100
AcDbCircle
 10
213.4162927548
 20
163.310280963
 30
0.0
 40
4.249999999999972
  0
LINE
  5
8E
330
1F
100
AcDbEntity
  8
0
  6
Continuous
 62
     7
370
    15
100
AcDbLine
 10
245.4162927548
 20
172.8229900898
 30
0.0
 11
245.4162927548
 21
153.310280963
 31
0.0
  0
LINE
  5
8F
330
1F
100
AcDbEntity
  8
0
  6
Continuous
 62
     7
370
    15
100
AcDbLine
 10
245.4162927548
 20
173.310280963
 30
0.0
 11
206.713098777
 21
173.310280963
 31
0.0
  0
LINE
  5
90
330
1F
100
AcDbEntity
  8
0
  6
Continuous
 62
     7
370
    15
100
AcDbLine
 10
245.4162927548
 20
173.310280963
 30
0.0
 11
245.4162927548
 21
172.8229900898
 31
0.0
  0
LINE
  5
91
330
1F
100
AcDbEntity
  8
0
  6
Continuous
 62
     7
370
    15
100
AcDbLine
 10
180.3762927548
 20
125.881157575
 30
0.0
 11
180.3762927548
 21
155.160280963
 31
0.0
  0
SPLINE
  5
92
330
1F
100
AcDbEntity
  8
0
  6
Continuous
 62
     7
370
    15
100
AcDbSpline
210
0.0
220
0.0
230
1.0
 70
     8
 71
     3
 72
     8
 73
     4
 74
     0
 42
0.00000001
 43
0.00000001
 40
0.0
 40
0.0
 40
0.0
 40
0.0
 40
1.0
 40
1.0
 40
1.0
 40
1.0
 10
180.376292754844
 20
125.8811575750482
 30
0.0
 10
180.0456541282294
 20
125.2806372239372
 30
0.0
 10
179.7138383276559
 20
124.6807681132322
 30
0.0
 10
179.3811330559506
 20
124.0813964400085
 30
0.0
  0
LINE
  5
93
330
1F
100
AcDbEntity
  8
0
  6
Continuous
 62
     7
370
    15
100
AcDbLine
 10
179.381133056
 20
124.08139644
 30
0.0
 11
179.381133056
 21
155.160280963
 31
0.0
  0
SPLINE
  5
94
330
1F
100
AcDbEntity
  8
0
  6
Continuous
 62
     7
370
    15
100
AcDbSpline
210
0.0
220
0.0
230
1.0
 70
    24
 71
     3
 72
     8
 73
     4
 74
     0
 42
0.00000001
 43
0.00000001
 40
0.0
 40
0.0
 40
0.0
 40
0.0
 40
1.0
 40
1.0
 40
1.0
 40
1.0
 10
179.3811330559506
 20
155.1602809630379
 30
0.0
 10
179.7201658777052
 20
155.1602809630379
 30
0.0
 10
180.0526560992218
 20
155.1602809630379
 30
0.0
 10
180.376292754844
 20
155.1602809630379
 30
0.0
  0
LINE
  5
95
330
1F
100
AcDbEntity
  8
0
  6
Continuous
 62
     7
370
    15
100
AcDbLine
 10
184.7662927548
 20
124.08139644
 30
0.0
 11
183.4514524537
 21
124.08139644
 31
0.0
  0
LINE
  5
96
330
1F
100
AcDbEntity
  8
0
  6
Continuous
 62
     7
370
    15
100
AcDbLine
 10
183.4514524537
 20
124.08139644
 30
0.0
 11
183.4514524537
 21
155.160280963
 31
0.0
  0
LINE
  5
97
330
1F
100
AcDbEntity
  8
0
  6
Continuous
 62
     7
370
    15
100
AcDbLine
 10
183.4514524537
 20
155.160280963
 30
0.0
 11
184.7662927548
 21
155.160280963
 31
0.0
  0
LINE
  5
98
330
1F
100
AcDbEntity
  8
0
  6
Continuous
 62
     7
370
    15
100
AcDbLine
 10
173.3662927548
 20
155.160280963
 30
0.0
 11
179.381133056
 21
155.160280963
 31
0.0
  0
LINE
  5
99
330
1F
100
AcDbEntity
  8
0
  6
Continuous
 62
     7
370
    15
100
AcDbLine
 10
179.381133056
 20
124.08139644
 30
0.0
 11
177.8662927548
 21
124.08139644
 31
0.0
  0
SPLINE
  5
9A
330
1F
100
AcDbEntity
  8
0
  6
Continuous
 62
     7
370
    15
100
AcDbSpline
210
0.0
220
0.0
230
1.0
 70
     8
 71
     3
 72
    22
 73
    18
 74
     0
 42
0.00000001
 43
0.00000001
 40
0.0
 40
0.0
 40
0.0
 40
0.0
 40
0.125
 40
0.125
 40
0.25
 40
0.25
 40
0.375
 40
0.375
 40
0.5
 40
0.5
 40
0.625
 40
0.625
 40
0.75
 40
0.75
 40
0.875
 40
0.875
 40
1.0
 40
1.0
 40
1.0
 40
1.0
 10
177.8662927548441
 20
124.0813964400085
 30
0.0
 10
177.5671683258034
 20
124.0813964400085
 30
0.0
 10
177.2733458775546
 20
124.0728823389421
 30
0.0
 10
176.6957816013083
 20
124.0404385700602
 30
0.0
 10
176.4089639234943
 20
124.0161046813582
 30
0.0
 10
175.864501394595
 20
123.9556446566014
 30
0.0
 10
175.6065461239737
 20
123.9197312358229
 30
0.0
 10
175.1184881806138
 20
123.8400212097537
 30
0.0
 10
174.88878988195
 20
123.7961429085644
 30
0.0
 10
174.4763708989974
 20
123.7078992861942
 30
0.0
 10
174.2908439561373
 20
123.6630909447332
 30
0.0
 10
173.9623239112365
 20
123.5757699368141
 30
0.0
 10
173.823910024337
 20
123.5344791482384
 30
0.0
 10
173.5993178777211
 20
123.4601409249446
 30
0.0
 10
173.5122390655969
 20
123.4267307992099
 30
0.0
 10
173.3957372576418
 20
123.3717113976838
 30
0.0
 10
173.366292754844
 20
123.3502496312175
 30
0.0
 10
173.366292754844
 20
123.3352966075997
 30
0.0
  0
LINE
  5
9B
330
1F
100
AcDbEntity
  8
0
  6
Continuous
 62
     7
370
    15
100
AcDbLine
 10
173.3662927548
 20
123.3352966076
 30
0.0
 11
173.3662927548
 21
123.310280963
 31
0.0
  0
SPLINE
  5
9C
330
1F
100
AcDbEntity
  8
0
  6
Continuous
 62
     7
370
    15
100
AcDbSpline
210
0.0
220
0.0
230
1.0
 70
     8
 71
     3
 72
    23
 73
    19
 74
     0
 42
0.00000001
 43
0.00000001
 40
0.0
 40
0.0
 40
0.0
 40
0.0
 40
0.1043170427682946
 40
0.1572805064168253
 40
0.2110251695774014
 40
0.3153112019277979
 40
0.3682233737558351
 40
0.4218791681928238
 40
0.4745354418244286
 40
0.5279259428869107
 40
0.5816891044724245
 40
0.6362192602246435
 40
0.6894145455484739
 40
0.7429866864633728
 40
0.7977613504460291
 40
0.8529581024232185
 40
0.9582419977691378
 40
0.9999999999999999
 40
0.9999999999999999
 40
0.9999999999999999
 40
0.9999999999999999
 10
177.8662927548441
 20
162.797456232943
 30
0.0
 10
177.6194908646439
 20
162.8000699337224
 30
0.0
 10
177.2473836303396
 20
162.8040106530076
 30
0.0
 10
176.7594105818039
 20
162.8278398928543
 30
0.0
 10
176.2822379736895
 20
162.8591862908869
 30
0.0
 10
175.8252795353868
 20
162.9020044971132
 30
0.0
 10
175.3992516731245
 20
162.9521696665405
 30
0.0
 10
175.0947546841347
 20
162.992834848716
 30
0.0
 10
174.8087583275744
 20
163.0352394427886
 30
0.0
 10
174.5437319974119
 20
163.0781421503271
 30
0.0
 10
174.2990333572406
 20
163.1208284257122
 30
0.0
 10
174.0799719129615
 20
163.1615444934747
 30
0.0
 10
173.8879087104105
 20
163.1991610083952
 30
0.0
 10
173.7235516789394
 20
163.2327573825309
 30
0.0
 10
173.5868800699817
 20
163.2616897410279
 30
0.0
 10
173.4497347777614
 20
163.2915228329618
 30
0.0
 10
173.3732175386588
 20
163.3087249010547
 30
0.0
 10
173.3699506458514
 20
163.3094587754128
 30
0.0
 10
173.3690228904335
 20
163.3096671862644
 30
0.0
  0
LINE
  5
9D
330
1F
100
AcDbEntity
  8
0
  6
Continuous
 62
     7
370
    15
100
AcDbLine
 10
179.381133056
 20
162.7974562329
 30
0.0
 11
177.8662927548
 21
162.7974562329
 31
0.0
  0
LINE
  5
9E
330
1F
100
AcDbEntity
  8
0
  6
Continuous
 62
     7
370
    15
100
AcDbLine
 10
179.381133056
 20
159.4216899641
 30
0.0
 11
179.381133056
 21
162.7974562329
 31
0.0
  0
LINE
  5
9F
330
1F
100
AcDbEntity
  8
0
  6
Continuous
 62
     7
370
    15
100
AcDbLine
 10
177.8599632295
 20
159.4216899641
 30
0.0
 11
179.381133056
 21
159.4216899641
 31
0.0
  0
SPLINE
  5
A0
330
1F
100
AcDbEntity
  8
0
  6
Continuous
 62
     7
370
    15
100
AcDbSpline
210
0.0
220
0.0
230
1.0
 70
     8
 71
     3
 72
    22
 73
    18
 74
     0
 42
0.00000001
 43
0.00000001
 40
0.0
 40
0.0
 40
0.0
 40
0.0
 40
0.2500000000000002
 40
0.2500000000000002
 40
0.3750000000000001
 40
0.3750000000000001
 40
0.5000000000000001
 40
0.5000000000000001
 40
0.6250000000000001
 40
0.6250000000000001
 40
0.75
 40
0.75
 40
0.875
 40
0.875
 40
0.9375000000000001
 40
0.9375000000000001
 40
1.0
 40
1.0
 40
1.0
 40
1.0
 10
173.366292754844
 20
155.1602809630379
 30
0.0
 10
173.3882737728307
 20
155.7231536049359
 30
0.0
 10
173.4672506561854
 20
156.2537784886655
 30
0.0
 10
173.7136485492178
 20
156.999489479587
 30
0.0
 10
173.8181731643087
 20
157.2411097059858
 30
0.0
 10
174.0800197596153
 20
157.6999684813117
 30
0.0
 10
174.2352363817811
 20
157.9141471537815
 30
0.0
 10
174.603828134845
 20
158.311375712927
 30
0.0
 10
174.8199618273099
 20
158.4958205479468
 30
0.0
 10
175.3038563222968
 20
158.8169003958305
 30
0.0
 10
175.5743218673045
 20
158.9562512259365
 30
0.0
 10
176.1705484328147
 20
159.1855567603621
 30
0.0
 10
176.4860416995347
 20
159.2720927698384
 30
0.0
 10
176.9867583475532
 20
159.3609823741696
 30
0.0
 10
177.1595547821683
 20
159.3837908800312
 30
0.0
 10
177.5079235549504
 20
159.4140820427275
 30
0.0
 10
177.6833245838608
 20
159.4216899641154
 30
0.0
 10
177.8599632295488
 20
159.4216899641154
 30
0.0
  0
SPLINE
  5
A1
330
1F
100
AcDbEntity
  8
0
  6
Continuous
 62
     7
370
    15
100
AcDbSpline
210
0.0
220
0.0
230
1.0
 70
     8
 71
     3
 72
     8
 73
     4
 74
     0
 42
0.00000001
 43
0.00000001
 40
0.0
 40
0.0
 40
0.0
 40
0.0
 40
1.0
 40
1.0
 40
1.0
 40
1.0
 10
183.4514524537375
 20
124.0813964400085
 30
0.0
 10
183.1187471820321
 20
124.6807681132322
 30
0.0
 10
182.7869313814586
 20
125.2806372239372
 30
0.0
 10
182.456292754844
 20
125.8811575750482
 30
0.0
  0
LINE
  5
A2
330
1F
100
AcDbEntity
  8
0
  6
Continuous
 62
     7
370
    15
100
AcDbLine
 10
182.4562927548
 20
125.881157575
 30
0.0
 11
182.4562927548
 21
155.160280963
 31
0.0
  0
SPLINE
  5
A3
330
1F
100
AcDbEntity
  8
0
  6
Continuous
 62
     7
370
    15
100
AcDbSpline
210
0.0
220
0.0
230
1.0
 70
    24
 71
     3
 72
     8
 73
     4
 74
     0
 42
0.00000001
 43
0.00000001
 40
0.0
 40
0.0
 40
0.0
 40
0.0
 40
1.0
 40
1.0
 40
1.0
 40
1.0
 10
182.456292754844
 20
155.1602809630379
 30
0.0
 10
182.7799294104663
 20
155.1602809630379
 30
0.0
 10
183.1124196319829
 20
155.1602809630379
 30
0.0
 10
183.4514524537375
 20
155.1602809630379
 30
0.0
  0
LINE
  5
A4
330
1F
100
AcDbEntity
  8
0
  6
Continuous
 62
     7
370
    15
100
AcDbLine
 10
185.3662927548
 20
124.706249142
 30
0.0
 11
185.3662927548
 21
155.160280963
 31
0.0
  0
SPLINE
  5
A5
330
1F
100
AcDbEntity
  8
0
  6
Continuous
 62
     7
370
    15
100
AcDbSpline
210
0.0
220
0.0
230
1.0
 70
     8
 71
     3
 72
    10
 73
     6
 74
     0
 42
0.00000001
 43
0.00000001
 40
0.0
 40
0.0
 40
0.0
 40
0.0
 40
0.5
 40
0.5
 40
1.0
 40
1.0
 40
1.0
 40
1.0
 10
185.366292754844
 20
124.7062491419514
 30
0.0
 10
185.366292754844
 20
124.5466169730482
 30
0.0
 10
185.3046562411387
 20
124.3855673392841
 30
0.0
 10
185.0856298748959
 20
124.1525764556075
 30
0.0
 10
184.9280129868484
 20
124.0813964400085
 30
0.0
 10
184.766292754844
 20
124.0813964400085
 30
0.0
  0
SPLINE
  5
A6
330
1F
100
AcDbEntity
  8
0
  6
Continuous
 62
     7
370
    15
100
AcDbSpline
210
0.0
220
0.0
230
1.0
 70
    24
 71
     3
 72
    12
 73
     8
 74
     0
 42
0.00000001
 43
0.00000001
 40
0.0
 40
0.0
 40
0.0
 40
0.0
 40
0.250000000000002
 40
0.250000000000002
 40
0.500000000000004
 40
0.500000000000004
 40
1.0
 40
1.0
 40
1.0
 40
1.0
 10
184.766292754844
 20
155.1602809630379
 30
0.0
 10
184.8544796202129
 20
155.1602809630379
 30
0.0
 10
184.9431670135142
 20
155.1602809630379
 30
0.0
 10
185.097419506633
 20
155.1602809630379
 30
0.0
 10
185.162765487709
 20
155.1602809630379
 30
0.0
 10
185.3171753576601
 20
155.1602809630379
 30
0.0
 10
185.3662927548441
 20
155.1602809630379
 30
0.0
 10
185.3662927548441
 20
155.1602809630379
 30
0.0
  0
LINE
  5
A7
330
1F
100
AcDbEntity
  8
0
  6
Continuous
 62
     7
370
    15
100
AcDbLine
 10
165.4162927548
 20
123.610280963
 30
0.0
 11
165.4162927548
 21
163.010280963
 31
0.0
  0
SPLINE
  5
A8
330
1F
100
AcDbEntity
  8
0
  6
Continuous
 62
     7
370
    15
100
AcDbSpline
210
0.0
220
0.0
230
1.0
 70
    24
 71
     3
 72
    16
 73
    12
 74
     0
 42
0.00000001
 43
0.00000001
 40
0.0
 40
0.0
 40
0.0
 40
0.0
 40
0.5000000000000001
 40
0.5000000000000001
 40
0.7499999999999993
 40
0.7499999999999993
 40
0.8749999999999983
 40
0.8749999999999983
 40
0.9374999999999991
 40
0.9374999999999991
 40
1.0
 40
1.0
 40
1.0
 40
1.0
 10
182.4210703542628
 20
126.4102809630379
 30
0.0
 10
182.3910339347362
 20
126.4102809630379
 30
0.0
 10
182.3443998375314
 20
126.4102809630379
 30
0.0
 10
182.2340154259527
 20
126.4102809630379
 30
0.0
 10
182.1906777774321
 20
126.4102809630379
 30
0.0
 10
182.1021961430474
 20
126.4102809630379
 30
0.0
 10
182.0688206384308
 20
126.4102809630379
 30
0.0
 10
182.0043284289802
 20
126.4102809630379
 30
0.0
 10
181.9801240917936
 20
126.4102809630379
 30
0.0
 10
181.9243702819832
 20
126.4102809630379
 30
0.0
 10
181.890786255915
 20
126.4102809630379
 30
0.0
 10
181.856292754844
 20
126.4102809630379
 30
0.0
  0
SPLINE
  5
A9
330
1F
100
AcDbEntity
  8
0
  6
Continuous
 62
     7
370
    15
100
AcDbSpline
210
0.0
220
0.0
230
1.0
 70
    24
 71
     3
 72
    12
 73
     8
 74
     0
 42
0.00000001
 43
0.00000001
 40
0.0
 40
0.0
 40
0.0
 40
0.0
 40
0.249999999999999
 40
0.249999999999999
 40
0.499999999999998
 40
0.499999999999998
 40
1.0
 40
1.0
 40
1.0
 40
1.0
 10
181.856292754844
 20
155.1602809630379
 30
0.0
 10
181.9489508443503
 20
155.1602809630379
 30
0.0
 10
182.041014253908
 20
155.1602809630379
 30
0.0
 10
182.1951718043988
 20
155.1602809630379
 30
0.0
 10
182.2596607377635
 20
155.1602809630379
 30
0.0
 10
182.409712286713
 20
155.1602809630379
 30
0.0
 10
182.456292754844
 20
155.1602809630379
 30
0.0
 10
182.456292754844
 20
155.1602809630379
 30
0.0
  0
SPLINE
  5
AA
330
1F
100
AcDbEntity
  8
0
  6
Continuous
 62
     7
370
    15
100
AcDbSpline
210
0.0
220
0.0
230
1.0
 70
    24
 71
     3
 72
    16
 73
    12
 74
     0
 42
0.00000001
 43
0.00000001
 40
0.0
 40
0.0
 40
0.0
 40
0.0
 40
0.0624999999999997
 40
0.0624999999999997
 40
0.1249999999999994
 40
0.1249999999999994
 40
0.2499999999999988
 40
0.2499999999999988
 40
0.499999999999999
 40
0.499999999999999
 40
1.0
 40
1.0
 40
1.0
 40
1.0
 10
180.9762927548175
 20
126.4102809630379
 30
0.0
 10
180.9418140876323
 20
126.4102809630379
 30
0.0
 10
180.9079939107954
 20
126.4102809630379
 30
0.0
 10
180.8514718436118
 20
126.4102809630379
 30
0.0
 10
180.8271457640854
 20
126.4102809630379
 30
0.0
 10
180.7626928645342
 20
126.4102809630379
 30
0.0
 10
180.7290645891756
 20
126.4102809630379
 30
0.0
 10
180.6409872736508
 20
126.4102809630379
 30
0.0
 10
180.5981678203831
 20
126.4102809630379
 30
0.0
 10
180.4875111861861
 20
126.4102809630379
 30
0.0
 10
180.4412786002421
 20
126.4102809630379
 30
0.0
 10
180.4115151554254
 20
126.4102809630379
 30
0.0
  0
SPLINE
  5
AB
330
1F
100
AcDbEntity
  8
0
  6
Continuous
 62
     7
370
    15
100
AcDbSpline
210
0.0
220
0.0
230
1.0
 70
    24
 71
     3
 72
    12
 73
     8
 74
     0
 42
0.00000001
 43
0.00000001
 40
0.0
 40
0.0
 40
0.0
 40
0.0
 40
0.5000000000000013
 40
0.5000000000000013
 40
0.7500000000000007
 40
0.7500000000000007
 40
1.0
 40
1.0
 40
1.0
 40
1.0
 10
180.376292754844
 20
155.1602809630379
 30
0.0
 10
180.376292754844
 20
155.1602809630379
 30
0.0
 10
180.4232888523524
 20
155.1602809630379
 30
0.0
 10
180.5727947903526
 20
155.1602809630379
 30
0.0
 10
180.6373134129111
 20
155.1602809630379
 30
0.0
 10
180.7917531056401
 20
155.1602809630379
 30
0.0
 10
180.882691493643
 20
155.1602809630379
 30
0.0
 10
180.9762927548441
 20
155.1602809630379
 30
0.0
  0
SPLINE
  5
AC
330
1F
100
AcDbEntity
  8
0
  6
Continuous
 62
     7
370
    15
100
AcDbSpline
210
0.0
220
0.0
230
1.0
 70
    24
 71
     3
 72
    10
 73
     6
 74
     0
 42
0.00000001
 43
0.00000001
 40
0.0
 40
0.0
 40
0.0
 40
0.0
 40
0.5
 40
0.5
 40
1.0
 40
1.0
 40
1.0
 40
1.0
 10
185.566292754844
 20
160.2102809630379
 30
0.0
 10
185.566292754844
 20
160.2102809630379
 30
0.0
 10
185.5236472900257
 20
160.2102809630379
 30
0.0
 10
185.4237355018861
 20
160.2102809630379
 30
0.0
 10
185.3685096305047
 20
160.2102809630379
 30
0.0
 10
185.3663548779674
 20
160.2102809630379
 30
0.0
  0
SPLINE
  5
AD
330
1F
100
AcDbEntity
  8
0
  6
Continuous
 62
     7
370
    15
100
AcDbSpline
210
0.0
220
0.0
230
1.0
 70
    24
 71
     3
 72
     9
 73
     5
 74
     0
 42
0.00000001
 43
0.00000001
 40
0.0
 40
0.0
 40
0.0
 40
0.0
 40
0.6072596485471999
 40
1.0
 40
1.0
 40
1.0
 40
1.0
 10
185.566292754844
 20
126.4102809630379
 30
0.0
 10
185.5625586250198
 20
126.4102809630379
 30
0.0
 10
185.5564094764091
 20
126.4102809630379
 30
0.0
 10
185.5227716302034
 20
126.4102809630379
 30
0.0
 10
185.5095606906625
 20
126.4102809630379
 30
0.0
  0
SPLINE
  5
AE
330
1F
100
AcDbEntity
  8
0
  6
Continuous
 62
     7
370
    15
100
AcDbSpline
210
0.0
220
0.0
230
1.0
 70
    24
 71
     3
 72
    12
 73
     8
 74
     0
 42
0.00000001
 43
0.00000001
 40
0.0
 40
0.0
 40
0.0
 40
0.0
 40
0.5
 40
0.5
 40
0.75
 40
0.75
 40
1.0
 40
1.0
 40
1.0
 40
1.0
 10
185.366292754844
 20
155.1602809630379
 30
0.0
 10
185.366292754844
 20
155.1602809630379
 30
0.0
 10
185.3935135029717
 20
155.1602809630379
 30
0.0
 10
185.4739599487446
 20
155.1602809630379
 30
0.0
 10
185.5074071772226
 20
155.1602809630379
 30
0.0
 10
185.5898167469969
 20
155.1602809630379
 30
0.0
 10
185.6390998438805
 20
155.1602809630379
 30
0.0
 10
185.6954164665171
 20
155.1602809630379
 30
0.0
  0
SPLINE
  5
AF
330
1F
100
AcDbEntity
  8
0
  6
Continuous
 62
     7
370
    15
100
AcDbSpline
210
0.0
220
0.0
230
1.0
 70
     8
 71
     3
 72
    10
 73
     6
 74
     0
 42
0.00000001
 43
0.00000001
 40
0.0
 40
0.0
 40
0.0
 40
0.0
 40
0.5
 40
0.5
 40
1.0
 40
1.0
 40
1.0
 40
1.0
 10
185.366292754844
 20
156.1876836514685
 30
0.0
 10
185.366292754844
 20
156.0049749393336
 30
0.0
 10
185.3932660885521
 20
155.8214666495728
 30
0.0
 10
185.5008564563379
 20
155.4731626712521
 30
0.0
 10
185.582321000681
 20
155.3049750887092
 30
0.0
 10
185.6954164665169
 20
155.1602809630365
 30
0.0
  0
LINE
  5
B0
330
1F
100
AcDbEntity
  8
0
  6
Continuous
 62
     7
370
    15
100
AcDbLine
 10
181.8562927548
 20
126.410280963
 30
0.0
 11
180.9762927548
 21
126.410280963
 31
0.0
  0
LINE
  5
B1
330
1F
100
AcDbEntity
  8
0
  6
Continuous
 62
     7
370
    15
100
AcDbLine
 10
180.9762927548
 20
155.160280963
 30
0.0
 11
181.8562927548
 21
155.160280963
 31
0.0
  0
SPLINE
  5
B2
330
1F
100
AcDbEntity
  8
0
  6
Continuous
 62
     7
370
    15
100
AcDbSpline
210
0.0
220
0.0
230
1.0
 70
     8
 71
     3
 72
    12
 73
     8
 74
     0
 42
0.00000001
 43
0.00000001
 40
0.0
 40
0.0
 40
0.0
 40
0.0
 40
0.2499999999999946
 40
0.2499999999999946
 40
0.4999999999999891
 40
0.4999999999999891
 40
1.0
 40
1.0
 40
1.0
 40
1.0
 10
199.6489657668651
 20
159.7842925743481
 30
0.0
 10
199.7213938891208
 20
159.7834970645332
 30
0.0
 10
199.7929485110101
 20
159.7906018794702
 30
0.0
 10
199.9342575822267
 20
159.8205592665066
 30
0.0
 10
200.0046112995828
 20
159.8438548716491
 30
0.0
 10
200.2025453485921
 20
159.9350302286538
 30
0.0
 10
200.3217297609964
 20
160.0259869298082
 30
0.0
 10
200.4162927548441
 20
160.1393406013995
 30
0.0
  0
SPLINE
  5
B3
330
1F
100
AcDbEntity
  8
0
  6
Continuous
 62
     7
370
    15
100
AcDbSpline
210
0.0
220
0.0
230
1.0
 70
     8
 71
     3
 72
     8
 73
     4
 74
     0
 42
0.00000001
 43
0.00000001
 40
0.0
 40
0.0
 40
0.0
 40
0.0
 40
1.0
 40
1.0
 40
1.0
 40
1.0
 10
200.4162927548441
 20
160.1393406013995
 30
0.0
 10
200.5098706090487
 20
160.2515133755699
 30
0.0
 10
200.5771430639087
 20
160.3813201600812
 30
0.0
 10
200.6148915931541
 20
160.5224371533448
 30
0.0
  0
SPLINE
  5
B4
330
1F
100
AcDbEntity
  8
0
  6
Continuous
 62
     7
370
    15
100
AcDbSpline
210
0.0
220
0.0
230
1.0
 70
    24
 71
     3
 72
    12
 73
     8
 74
     0
 42
0.00000001
 43
0.00000001
 40
0.0
 40
0.0
 40
0.0
 40
0.0
 40
0.2500000000000007
 40
0.2500000000000007
 40
0.5000000000000013
 40
0.5000000000000013
 40
1.0
 40
1.0
 40
1.0
 40
1.0
 10
199.6489657668652
 20
133.310280963038
 30
0.0
 10
199.7693047159811
 20
133.310280963038
 30
0.0
 10
199.8897944270504
 20
133.310280963038
 30
0.0
 10
200.1059667361205
 20
133.310280963038
 30
0.0
 10
200.2046371615872
 20
133.310280963038
 30
0.0
 10
200.4542785596198
 20
133.310280963038
 30
0.0
 10
200.5639341538775
 20
133.310280963038
 30
0.0
 10
200.6148915931541
 20
133.310280963038
 30
0.0
  0
SPLINE
  5
B5
330
1F
100
AcDbEntity
  8
0
  6
Continuous
 62
     7
370
    15
100
AcDbSpline
210
0.0
220
0.0
230
1.0
 70
     8
 71
     3
 72
    13
 73
     9
 74
     0
 42
0.00000001
 43
0.00000001
 40
0.0
 40
0.0
 40
0.0
 40
0.0
 40
0.1228725288223408
 40
0.2812540817739462
 40
0.4407643078339651
 40
0.5787125510189453
 40
0.858209093216707
 40
1.0
 40
1.0
 40
1.0
 40
1.0
 10
197.7738913551088
 20
159.810059104301
 30
0.0
 10
197.83943312475
 20
159.8099693222763
 30
0.0
 10
197.9894576291283
 20
159.8097638120523
 30
0.0
 10
198.2450935744135
 20
159.806528840716
 30
0.0
 10
198.5221396197846
 20
159.8020651108261
 30
0.0
 10
198.8884344842959
 20
159.7955351630262
 30
0.0
 10
199.260991819292
 20
159.788988340046
 30
0.0
 10
199.5512685684707
 20
159.7854750330051
 30
0.0
 10
199.6489657668651
 20
159.7842925743481
 30
0.0
  0
SPLINE
  5
B6
330
1F
100
AcDbEntity
  8
0
  6
Continuous
 62
     7
370
    15
100
AcDbSpline
210
0.0
220
0.0
230
1.0
 70
     8
 71
     3
 72
    12
 73
     8
 74
     0
 42
0.00000001
 43
0.00000001
 40
0.0
 40
0.0
 40
0.0
 40
0.0
 40
0.499999999999997
 40
0.499999999999997
 40
0.7499999999999984
 40
0.7499999999999984
 40
1.0
 40
1.0
 40
1.0
 40
1.0
 10
197.6358338090917
 20
133.310280963038
 30
0.0
 10
197.8685599137276
 20
133.014946964861
 30
0.0
 10
198.1438979536864
 20
132.7558309431002
 30
0.0
 10
198.6461128036991
 20
132.4330650052145
 30
0.0
 10
198.823963611567
 20
132.3396450445907
 30
0.0
 10
199.2028139415541
 20
132.1822889200574
 30
0.0
 10
199.405604060919
 20
132.1180112573647
 30
0.0
 10
199.616292754844
 20
132.071781293131
 30
0.0
  0
LINE
  5
B7
330
1F
100
AcDbEntity
  8
0
  6
Continuous
 62
     7
370
    15
100
AcDbLine
 10
199.6162927548
 20
128.3311321732
 30
0.0
 11
199.6162927548
 21
132.0717812931
 31
0.0
  0
SPLINE
  5
B8
330
1F
100
AcDbEntity
  8
0
  6
Continuous
 62
     7
370
    15
100
AcDbSpline
210
0.0
220
0.0
230
1.0
 70
     8
 71
     3
 72
    38
 73
    34
 74
     0
 42
0.00000001
 43
0.00000001
 40
0.0
 40
0.0
 40
0.0
 40
0.0
 40
0.0624999999999995
 40
0.0624999999999995
 40
0.124999999999999
 40
0.124999999999999
 40
0.1874999999999985
 40
0.1874999999999985
 40
0.249999999999998
 40
0.249999999999998
 40
0.3124999999999975
 40
0.3124999999999975
 40
0.374999999999997
 40
0.374999999999997
 40
0.4374999999999971
 40
0.4374999999999971
 40
0.4999999999999973
 40
0.4999999999999973
 40
0.5624999999999974
 40
0.5624999999999974
 40
0.6249999999999977
 40
0.6249999999999977
 40
0.687499999999998
 40
0.687499999999998
 40
0.7499999999999984
 40
0.7499999999999984
 40
0.8124999999999988
 40
0.8124999999999988
 40
0.8749999999999992
 40
0.8749999999999992
 40
0.9374999999999996
 40
0.9374999999999996
 40
1.0
 40
1.0
 40
1.0
 40
1.0
 10
199.616292754844
 20
128.3311321731607
 30
0.0
 10
199.3876653362411
 20
128.3095750694421
 30
0.0
 10
199.167512741671
 20
128.2795039521958
 30
0.0
 10
198.7427933623103
 20
128.2051371550143
 30
0.0
 10
198.5369800172748
 20
128.1605008331686
 30
0.0
 10
198.146701745594
 20
128.0605129526813
 30
0.0
 10
197.9648611084209
 20
128.0059749675567
 30
0.0
 10
197.6259355500466
 20
127.8907429407911
 30
0.0
 10
197.4677311309673
 20
127.8295240929905
 30
0.0
 10
197.1825501372961
 20
127.7057821400557
 30
0.0
 10
197.0560646491814
 20
127.6436278941872
 30
0.0
 10
196.8343137231826
 20
127.5208298622772
 30
0.0
 10
196.7384329173565
 20
127.459688707683
 30
0.0
 10
196.5830935398615
 20
127.3431242421213
 30
0.0
 10
196.5238611806714
 20
127.2880813926981
 30
0.0
 10
196.441996502968
 20
127.1853898850108
 30
0.0
 10
196.4193526681862
 20
127.1374427227236
 30
0.0
 10
196.413814867031
 20
127.051148878687
 30
0.0
 10
196.4306870654162
 20
127.0133984969727
 30
0.0
 10
196.503242006174
 20
126.9480013907429
 30
0.0
 10
196.5594381412774
 20
126.9202118303297
 30
0.0
 10
196.7112779798244
 20
126.874815358979
 30
0.0
 10
196.8053960528433
 20
126.8574986882355
 30
0.0
 10
197.0291946124134
 20
126.8314493284515
 30
0.0
 10
197.1602073522681
 20
126.8226892448298
 30
0.0
 10
197.4535982509325
 20
126.8120563019693
 30
0.0
 10
197.6143991475946
 20
126.8101397243195
 30
0.0
 10
197.9636121189344
 20
126.8104380746605
 30
0.0
 10
198.1540684385253
 20
126.8127011345469
 30
0.0
 10
198.5528143166692
 20
126.8189152657811
 30
0.0
 10
198.7606241722911
 20
126.8228234238504
 30
0.0
 10
199.1929200268427
 20
126.8302281579678
 30
0.0
 10
199.4187945990391
 20
126.8337412808983
 30
0.0
 10
199.6489657668651
 20
126.8362693517278
 30
0.0
  0
LINE
  5
B9
330
1F
100
AcDbEntity
  8
0
  6
Continuous
 62
     7
370
    15
100
AcDbLine
 10
197.6358338091
 20
133.310280963
 30
0.0
 11
199.6489657669
 21
133.310280963
 31
0.0
  0
LINE
  5
BA
330
1F
100
AcDbEntity
  8
0
  6
Continuous
 62
     7
370
    15
100
AcDbLine
 10
151.6162927548
 20
128.797762927
 30
0.0
 11
151.6162927548
 21
129.673534265
 31
0.0
  0
SPLINE
  5
BB
330
1F
100
AcDbEntity
  8
0
  6
Continuous
 62
     7
370
    15
100
AcDbSpline
210
0.0
220
0.0
230
1.0
 70
     8
 71
     3
 72
    12
 73
     8
 74
     0
 42
0.00000001
 43
0.00000001
 40
0.0
 40
0.0
 40
0.0
 40
0.0
 40
0.25
 40
0.25
 40
0.5
 40
0.5
 40
1.0
 40
1.0
 40
1.0
 40
1.0
 10
151.2485576619872
 20
130.3799051001532
 30
0.0
 10
151.2739818788811
 20
130.3130195070794
 30
0.0
 10
151.3145937184504
 20
130.2485710173958
 30
0.0
 10
151.3991948647225
 20
130.1235703573179
 30
0.0
 10
151.4432916610081
 20
130.0630516121258
 30
0.0
 10
151.5593607694942
 20
129.8868455560174
 30
0.0
 10
151.6162927548441
 20
129.7764511410456
 30
0.0
 10
151.6162927548441
 20
129.6735342649524
 30
0.0
  0
SPLINE
  5
BC
330
1F
100
AcDbEntity
  8
0
  6
Continuous
 62
     7
370
    15
100
AcDbSpline
210
0.0
220
0.0
230
1.0
 70
     8
 71
     3
 72
    14
 73
    10
 74
     0
 42
0.00000001
 43
0.00000001
 40
0.0
 40
0.0
 40
0.0
 40
0.0
 40
0.1249999999999997
 40
0.1249999999999997
 40
0.2499999999999994
 40
0.2499999999999994
 40
0.4999999999999997
 40
0.4999999999999997
 40
1.0
 40
1.0
 40
1.0
 40
1.0
 10
150.7162927548441
 20
130.8699109155269
 30
0.0
 10
150.7653050776554
 20
130.8744359746821
 30
0.0
 10
150.8181113026509
 20
130.8663165891275
 30
0.0
 10
150.9031783943804
 20
130.8359865139761
 30
0.0
 10
150.9377625797211
 20
130.8153315568996
 30
0.0
 10
151.0263182650584
 20
130.7507954335728
 30
0.0
 10
151.0672539663796
 20
130.7035572535202
 30
0.0
 10
151.1711344932825
 20
130.5637611522365
 30
0.0
 10
151.2143582927146
 20
130.4698762133672
 30
0.0
 10
151.2485576619872
 20
130.3799051001532
 30
0.0
  0
SPLINE
  5
BD
330
1F
100
AcDbEntity
  8
0
  6
Continuous
 62
     7
370
    15
100
AcDbSpline
210
0.0
220
0.0
230
1.0
 70
     8
 71
     3
 72
    10
 73
     6
 74
     0
 42
0.00000001
 43
0.00000001
 40
0.0
 40
0.0
 40
0.0
 40
0.0
 40
0.5
 40
0.5
 40
1.0
 40
1.0
 40
1.0
 40
1.0
 10
147.7954693631456
 20
130.5436588359604
 30
0.0
 10
148.2687455738967
 20
130.6107444479077
 30
0.0
 10
148.7518323264022
 20
130.6686127181348
 30
0.0
 10
149.7274971076126
 20
130.7754318778489
 30
0.0
 10
150.2204147699932
 20
130.8241290164762
 30
0.0
 10
150.7162927548441
 20
130.8699109155269
 30
0.0
  0
SPLINE
  5
BE
330
1F
100
AcDbEntity
  8
0
  6
Continuous
 62
     7
370
    15
100
AcDbSpline
210
0.0
220
0.0
230
1.0
 70
     8
 71
     3
 72
    10
 73
     6
 74
     0
 42
0.00000001
 43
0.00000001
 40
0.0
 40
0.0
 40
0.0
 40
0.0
 40
0.5
 40
0.5
 40
1.0
 40
1.0
 40
1.0
 40
1.0
 10
146.5684837524906
 20
130.460647263596
 30
0.0
 10
146.7765431891337
 20
130.4676816807669
 30
0.0
 10
146.9837010524284
 20
130.4764308727708
 30
0.0
 10
147.3942236194122
 20
130.5011736119566
 30
0.0
 10
147.5983448971405
 20
130.5157169805886
 30
0.0
 10
147.7954693631456
 20
130.5436588359604
 30
0.0
  0
SPLINE
  5
BF
330
1F
100
AcDbEntity
  8
0
  6
Continuous
 62
     7
370
    15
100
AcDbSpline
210
0.0
220
0.0
230
1.0
 70
     8
 71
     3
 72
     8
 73
     4
 74
     0
 42
0.00000001
 43
0.00000001
 40
0.0
 40
0.0
 40
0.0
 40
0.0
 40
1.0
 40
1.0
 40
1.0
 40
1.0
 10
146.4509451201094
 20
130.6074272802942
 30
0.0
 10
146.4765400519696
 20
130.5558480001164
 30
0.0
 10
146.5173252295421
 20
130.5071952410418
 30
0.0
 10
146.5684837524906
 20
130.460647263596
 30
0.0
  0
ELLIPSE
  5
C0
330
1F
100
AcDbEntity
  8
0
  6
Continuous
 62
     7
370
    15
100
AcDbEllipse
 10
123.9182017377
 20
142.2400442061
 30
0.0
 11
22.65236303891436
 21
-12.66569662468555
 31
0.0
210
0.0
220
0.0
230
1.0
 40
0.1509348161
 41
0.216986825838092
 42
0.2660379696714033
  0
ELLIPSE
  5
C1
330
1F
100
AcDbEntity
  8
0
  6
Continuous
 62
     7
370
    15
100
AcDbEllipse
 10
123.7800188306
 20
144.3799531995
 30
0.0
 11
22.64041454007862
 21
12.6590158178702
 31
0.0
210
0.0
220
0.0
230
1.0
 40
0.1509348161
 41
6.058252762347558
 42
6.061846596668175
  0
SPLINE
  5
C2
330
1F
100
AcDbEntity
  8
0
  6
Continuous
 62
     7
370
    15
100
AcDbSpline
210
0.0
220
0.0
230
1.0
 70
     8
 71
     3
 72
     8
 73
     4
 74
     0
 42
0.00000001
 43
0.00000001
 40
0.0
 40
0.0
 40
0.0
 40
0.0
 40
1.0
 40
1.0
 40
1.0
 40
1.0
 10
146.466292754844
 20
156.1758615100163
 30
0.0
 10
146.3869954272126
 20
156.1149752140915
 30
0.0
 10
146.3233982328678
 20
156.050445024731
 30
0.0
 10
146.2875716874085
 20
155.9799412299243
 30
0.0
  0
SPLINE
  5
C3
330
1F
100
AcDbEntity
  8
0
  6
Continuous
 62
     7
370
    15
100
AcDbSpline
210
0.0
220
0.0
230
1.0
 70
     8
 71
     3
 72
    12
 73
     8
 74
     0
 42
0.00000001
 43
0.00000001
 40
0.0
 40
0.0
 40
0.0
 40
0.0
 40
0.2499999999999986
 40
0.2499999999999986
 40
0.4999999999999971
 40
0.4999999999999971
 40
1.0
 40
1.0
 40
1.0
 40
1.0
 10
148.2162927548441
 20
156.0910748216971
 30
0.0
 10
148.0742503516549
 20
156.1069005498733
 30
0.0
 10
147.9301322451507
 20
156.1179216836486
 30
0.0
 10
147.6403777314782
 20
156.1364580455158
 30
0.0
 10
147.4946358281194
 20
156.1437287512516
 30
0.0
 10
147.0559555889396
 20
156.1621896015796
 30
0.0
 10
146.7615799728684
 20
156.1700684684031
 30
0.0
 10
146.466292754844
 20
156.1758615100163
 30
0.0
  0
SPLINE
  5
C4
330
1F
100
AcDbEntity
  8
0
  6
Continuous
 62
     7
370
    15
100
AcDbSpline
210
0.0
220
0.0
230
1.0
 70
     8
 71
     3
 72
    20
 73
    16
 74
     0
 42
0.00000001
 43
0.00000001
 40
0.0
 40
0.0
 40
0.0
 40
0.0
 40
0.2499999999999996
 40
0.2499999999999996
 40
0.4999999999999991
 40
0.4999999999999991
 40
0.7499999999999987
 40
0.7499999999999987
 40
0.8749999999999971
 40
0.8749999999999971
 40
0.9374999999999983
 40
0.9374999999999983
 40
0.9687499999999991
 40
0.9687499999999991
 40
1.0
 40
1.0
 40
1.0
 40
1.0
 10
149.116292754845
 20
156.8678050847858
 30
0.0
 10
149.116292754845
 20
156.8071956850884
 30
0.0
 10
149.0908977352681
 20
156.7413697196849
 30
0.0
 10
149.0046045494861
 20
156.6073219503382
 30
0.0
 10
148.9439685708029
 20
156.5386265921964
 30
0.0
 10
148.7958667765816
 20
156.398228040542
 30
0.0
 10
148.709097169803
 20
156.3265245359606
 30
0.0
 10
148.5604593744738
 20
156.2203611342118
 30
0.0
 10
148.5081701575876
 20
156.1848327855803
 30
0.0
 10
148.4174063292777
 20
156.1351288550647
 30
0.0
 10
148.3850403368257
 20
156.1188678570497
 30
0.0
 10
148.3273511811595
 20
156.0997552887037
 30
0.0
 10
148.306364153272
 20
156.0943641466222
 30
0.0
 10
148.2610751742815
 20
156.0886267782297
 30
0.0
 10
148.238060905443
 20
156.0886495118831
 30
0.0
 10
148.2162927548434
 20
156.091074821696
 30
0.0
  0
LINE
  5
C5
330
1F
100
AcDbEntity
  8
0
  6
Continuous
 62
     7
370
    15
100
AcDbLine
 10
149.1162927548
 20
156.8678050848
 30
0.0
 11
149.1162927548
 21
157.6975484981
 31
0.0
  0
LINE
  5
C6
330
1F
100
AcDbEntity
  8
0
  6
Continuous
 62
     7
370
    15
100
AcDbLine
 10
163.4162927548
 20
128.2065805622
 30
0.0
 11
163.4162927548
 21
158.4139813638
 31
0.0
  0
SPLINE
  5
C7
330
1F
100
AcDbEntity
  8
0
  6
Continuous
 62
     7
370
    15
100
AcDbSpline
210
0.0
220
0.0
230
1.0
 70
     8
 71
     3
 72
    18
 73
    14
 74
     0
 42
0.00000001
 43
0.00000001
 40
0.0
 40
0.0
 40
0.0
 40
0.0
 40
0.0647987051964542
 40
0.1911457418934265
 40
0.3159453219936808
 40
0.3775977181147657
 40
0.4397856484594751
 40
0.5017220926046717
 40
0.5630628839447039
 40
0.6866516283643247
 40
0.8118021582222679
 40
0.9380327414081012
 40
0.9999999999999999
 40
0.9999999999999999
 40
0.9999999999999999
 40
0.9999999999999999
 10
156.6539392114821
 20
128.5561999737648
 30
0.0
 10
156.6432942560396
 20
128.5547652497013
 30
0.0
 10
156.6118933522825
 20
128.550533044834
 30
0.0
 10
157.0307765477497
 20
128.611349147448
 30
0.0
 10
157.6753399337827
 20
128.6769018989137
 30
0.0
 10
158.3290016610241
 20
128.7071039033953
 30
0.0
 10
158.8601864646836
 20
128.710680520972
 30
0.0
 10
159.411593891118
 20
128.6935993474402
 30
0.0
 10
160.1424956993313
 20
128.6405819784613
 30
0.0
 10
161.00436736963
 20
128.5227978475618
 30
0.0
 10
161.7706714931191
 20
128.3702553568996
 30
0.0
 10
162.1711509329823
 20
128.2710626910082
 30
0.0
 10
162.139893462165
 20
128.2790084870721
 30
0.0
 10
162.1296014218378
 20
128.2816247721196
 30
0.0
  0
SPLINE
  5
C8
330
1F
100
AcDbEntity
  8
0
  6
Continuous
 62
     7
370
    15
100
AcDbSpline
210
0.0
220
0.0
230
1.0
 70
     8
 71
     3
 72
    18
 73
    14
 74
     0
 42
0.00000001
 43
0.00000001
 40
0.0
 40
0.0
 40
0.0
 40
0.0
 40
0.0628581874978233
 40
0.1888210925071208
 40
0.31364295319105
 40
0.4369193488098552
 40
0.4982390280780538
 40
0.5602488697629576
 40
0.6224807882813211
 40
0.6842568515517148
 40
0.8091590186753609
 40
0.935452681076069
 40
1.0
 40
1.0
 40
1.0
 40
1.0
 10
162.1295216759362
 20
158.3387650889921
 30
0.0
 10
162.140181709502
 20
158.3414085813701
 30
0.0
 10
162.1722036188853
 20
158.3493494262895
 30
0.0
 10
161.7667298274288
 20
158.2496560724033
 30
0.0
 10
161.0037928734847
 20
158.0972380028518
 30
0.0
 10
160.1423902773875
 20
157.9799587978419
 30
0.0
 10
159.4122634388156
 20
157.9270608522826
 30
0.0
 10
158.8604835666742
 20
157.9099553555264
 30
0.0
 10
158.3285161102989
 20
157.9134999207086
 30
0.0
 10
157.6738964777627
 20
157.9436909908252
 30
0.0
 10
157.0294903505762
 20
158.0093541521702
 30
0.0
 10
156.6120573588769
 20
158.0701793344319
 30
0.0
 10
156.6423703968829
 20
158.0656925433714
 30
0.0
 10
156.6526230444964
 20
158.0641749954552
 30
0.0
  0
LINE
  5
C9
330
1F
100
AcDbEntity
  8
0
  6
Continuous
 62
     7
370
    15
100
AcDbLine
 10
145.5162927548
 20
131.0694404993
 30
0.0
 11
145.5162927548
 21
155.5792201963
 31
0.0
  0
SPLINE
  5
CA
330
1F
100
AcDbEntity
  8
0
  6
Continuous
 62
     7
370
    15
100
AcDbSpline
210
0.0
220
0.0
230
1.0
 70
     8
 71
     3
 72
    10
 73
     6
 74
     0
 42
0.00000001
 43
0.00000001
 40
0.0
 40
0.0
 40
0.0
 40
0.0
 40
0.3102672586781492
 40
0.8019709540837424
 40
1.0
 40
1.0
 40
1.0
 40
1.0
 10
145.6413640494656
 20
155.6293530449717
 30
0.0
 10
145.6338666229509
 20
155.6406106963618
 30
0.0
 10
145.6144874647349
 20
155.6697091886247
 30
0.0
 10
145.5788980870206
 20
155.6785903918336
 30
0.0
 10
145.5619319534579
 20
155.6642160643808
 30
0.0
 10
145.557060809838
 20
155.6600890537568
 30
0.0
  0
SPLINE
  5
CB
330
1F
100
AcDbEntity
  8
0
  6
Continuous
 62
     7
370
    15
100
AcDbSpline
210
0.0
220
0.0
230
1.0
 70
     8
 71
     3
 72
     8
 73
     4
 74
     0
 42
0.00000001
 43
0.00000001
 40
0.0
 40
0.0
 40
0.0
 40
0.0
 40
1.0
 40
1.0
 40
1.0
 40
1.0
 10
145.5334461106215
 20
155.6435210589836
 30
0.0
 10
145.5226788214351
 20
155.6276262725254
 30
0.0
 10
145.5162927548441
 20
155.6057826869448
 30
0.0
 10
145.5162927548441
 20
155.5792201963195
 30
0.0
  0
SPLINE
  5
CC
330
1F
100
AcDbEntity
  8
0
  6
Continuous
 62
     7
370
    15
100
AcDbSpline
210
0.0
220
0.0
230
1.0
 70
     8
 71
     3
 72
    22
 73
    18
 74
     0
 42
0.00000001
 43
0.00000001
 40
0.0
 40
0.0
 40
0.0
 40
0.0
 40
0.2499999999999997
 40
0.2499999999999997
 40
0.3749999999999991
 40
0.3749999999999991
 40
0.4374999999999988
 40
0.4374999999999988
 40
0.4999999999999985
 40
0.4999999999999985
 40
0.5624999999999982
 40
0.5624999999999982
 40
0.624999999999998
 40
0.624999999999998
 40
0.7499999999999987
 40
0.7499999999999987
 40
1.0
 40
1.0
 40
1.0
 40
1.0
 10
146.276262801234
 20
155.9578973664262
 30
0.0
 10
146.2442955137853
 20
155.8961667386675
 30
0.0
 10
146.2067864293799
 20
155.8320790398026
 30
0.0
 10
146.1293368104472
 20
155.7279144659948
 30
0.0
 10
146.0999498832194
 20
155.6917114364062
 30
0.0
 10
146.0446479153827
 20
155.635162620663
 30
0.0
 10
146.0242194087558
 20
155.615781411313
 30
0.0
 10
145.9756313765173
 20
155.5761549453532
 30
0.0
 10
145.9472196501573
 20
155.5560393735542
 30
0.0
 10
145.8880115658811
 20
155.5246597431163
 30
0.0
 10
145.8604668826018
 20
155.5153265127852
 30
0.0
 10
145.8161252368074
 20
155.5066955457926
 30
0.0
 10
145.7986623723895
 20
155.5066670019323
 30
0.0
 10
145.7533380001523
 20
155.511846385685
 30
0.0
 10
145.732744887462
 20
155.5221171658359
 30
0.0
 10
145.6799247960558
 20
155.559277007954
 30
0.0
 10
145.6585369253887
 20
155.5931067236514
 30
0.0
 10
145.6413640494634
 20
155.6293530449704
 30
0.0
  0
SPLINE
  5
CD
330
1F
100
AcDbEntity
  8
0
  6
Continuous
 62
     7
370
    15
100
AcDbSpline
210
0.0
220
0.0
230
1.0
 70
     8
 71
     3
 72
    24
 73
    20
 74
     0
 42
0.00000001
 43
0.00000001
 40
0.0
 40
0.0
 40
0.0
 40
0.0
 40
0.2499999999999973
 40
0.2499999999999973
 40
0.3749999999999957
 40
0.3749999999999957
 40
0.499999999999994
 40
0.499999999999994
 40
0.562499999999994
 40
0.562499999999994
 40
0.624999999999994
 40
0.624999999999994
 40
0.687499999999994
 40
0.687499999999994
 40
0.749999999999994
 40
0.749999999999994
 40
0.874999999999997
 40
0.874999999999997
 40
1.0
 40
1.0
 40
1.0
 40
1.0
 10
145.5777398136386
 20
131.0811689161262
 30
0.0
 10
145.5891219433654
 20
131.1315665948713
 30
0.0
 10
145.6039464281106
 20
131.1799146664478
 30
0.0
 10
145.6389802826875
 20
131.2448172563492
 30
0.0
 10
145.6528691001924
 20
131.2652309959369
 30
0.0
 10
145.6885654416227
 20
131.3008018358279
 30
0.0
 10
145.7098025182612
 20
131.3163117931702
 30
0.0
 10
145.7563299545077
 20
131.3297254139163
 30
0.0
 10
145.7741846239476
 20
131.3324849667593
 30
0.0
 10
145.8193179204792
 20
131.3302590762856
 30
0.0
 10
145.8477414270386
 20
131.3249183620145
 30
0.0
 10
145.9156198292359
 20
131.297396477753
 30
0.0
 10
145.9545123194038
 20
131.2743590596609
 30
0.0
 10
146.019628623443
 20
131.2265361092492
 30
0.0
 10
146.0472746065146
 20
131.2020123702049
 30
0.0
 10
146.1212816190928
 20
131.1303434459461
 30
0.0
 10
146.1579060180191
 20
131.0862681123466
 30
0.0
 10
146.2234879814619
 20
131.000351080338
 30
0.0
 10
146.2513670028511
 20
130.9589670147487
 30
0.0
 10
146.2762628012321
 20
130.9188253733892
 30
0.0
  0
SPLINE
  5
CE
330
1F
100
AcDbEntity
  8
0
  6
Continuous
 62
     7
370
    15
100
AcDbSpline
210
0.0
220
0.0
230
1.0
 70
     8
 71
     3
 72
    10
 73
     6
 74
     0
 42
0.00000001
 43
0.00000001
 40
0.0
 40
0.0
 40
0.0
 40
0.0
 40
0.5
 40
0.5
 40
1.0
 40
1.0
 40
1.0
 40
1.0
 10
145.5162927548441
 20
131.0694404993234
 30
0.0
 10
145.516292754844
 20
131.0419389729913
 30
0.0
 10
145.5269400282025
 20
131.0263630635796
 30
0.0
 10
145.5534150019892
 20
131.0270633630625
 30
0.0
 10
145.5692792673686
 20
131.043707395026
 30
0.0
 10
145.5777398136386
 20
131.0811689161262
 30
0.0
  0
LINE
  5
CF
330
1F
100
AcDbEntity
  8
0
  6
Continuous
 62
     7
370
    15
100
AcDbLine
 10
200.4162927548
 20
133.310280963
 30
0.0
 11
200.4162927548
 21
133.0976751172
 31
0.0
  0
SPLINE
  5
D0
330
1F
100
AcDbEntity
  8
0
  6
Continuous
 62
     7
370
    15
100
AcDbSpline
210
0.0
220
0.0
230
1.0
 70
     8
 71
     3
 72
     8
 73
     4
 74
     0
 42
0.00000001
 43
0.00000001
 40
0.0
 40
0.0
 40
0.0
 40
0.0
 40
1.0
 40
1.0
 40
1.0
 40
1.0
 10
200.4162927548441
 20
133.0976751172366
 30
0.0
 10
200.1663024221687
 20
132.741011427754
 30
0.0
 10
199.8992220579852
 20
132.3966506506445
 30
0.0
 10
199.616292754844
 20
132.071781293131
 30
0.0
  0
LINE
  5
D1
330
1F
100
AcDbEntity
  8
0
  6
Continuous
 62
     7
370
    15
100
AcDbLine
 10
200.4162927548
 20
133.0976751172
 30
0.0
 11
200.4162927548
 21
129.1930107538
 31
0.0
  0
SPLINE
  5
D2
330
1F
100
AcDbEntity
  8
0
  6
Continuous
 62
     7
370
    15
100
AcDbSpline
210
0.0
220
0.0
230
1.0
 70
     8
 71
     3
 72
     8
 73
     4
 74
     0
 42
0.00000001
 43
0.00000001
 40
0.0
 40
0.0
 40
0.0
 40
0.0
 40
1.0
 40
1.0
 40
1.0
 40
1.0
 10
199.616292754844
 20
128.3311321731607
 30
0.0
 10
199.8756771502856
 20
128.6217492252882
 30
0.0
 10
200.142409885299
 20
128.9103364077304
 30
0.0
 10
200.4162927548441
 20
129.1930107537625
 30
0.0
  0
SPLINE
  5
D3
330
1F
100
AcDbEntity
  8
0
  6
Continuous
 62
     7
370
    15
100
AcDbSpline
210
0.0
220
0.0
230
1.0
 70
     8
 71
     3
 72
     8
 73
     4
 74
     0
 42
0.00000001
 43
0.00000001
 40
0.0
 40
0.0
 40
0.0
 40
0.0
 40
1.0
 40
1.0
 40
1.0
 40
1.0
 10
180.376292754844
 20
161.0239576585682
 30
0.0
 10
180.0452724238244
 20
161.6155133550258
 30
0.0
 10
179.7134911523403
 20
162.206646019271
 30
0.0
 10
179.3811330559506
 20
162.797456232943
 30
0.0
  0
LINE
  5
D4
330
1F
100
AcDbEntity
  8
0
  6
Continuous
 62
     7
370
    15
100
AcDbLine
 10
180.3762927548
 20
157.2243688625
 30
0.0
 11
180.3762927548
 21
161.0239576586
 31
0.0
  0
SPLINE
  5
D5
330
1F
100
AcDbEntity
  8
0
  6
Continuous
 62
     7
370
    15
100
AcDbSpline
210
0.0
220
0.0
230
1.0
 70
     8
 71
     3
 72
     8
 73
     4
 74
     0
 42
0.00000001
 43
0.00000001
 40
0.0
 40
0.0
 40
0.0
 40
0.0
 40
1.0
 40
1.0
 40
1.0
 40
1.0
 10
179.3811330559506
 20
159.4216899641154
 30
0.0
 10
179.7205560972322
 20
158.691899102596
 30
0.0
 10
180.0530668407273
 20
157.9597307471743
 30
0.0
 10
180.376292754844
 20
157.2243688624933
 30
0.0
  0
LINE
  5
D6
330
1F
100
AcDbEntity
  8
0
  6
Continuous
 62
     7
370
    15
100
AcDbLine
 10
184.7662927548
 20
162.7974562329
 30
0.0
 11
183.4514524537
 21
162.7974562329
 31
0.0
  0
LINE
  5
D7
330
1F
100
AcDbEntity
  8
0
  6
Continuous
 62
     7
370
    15
100
AcDbLine
 10
183.4514524537
 20
159.4216899641
 30
0.0
 11
184.7662927548
 21
159.4216899641
 31
0.0
  0
LINE
  5
D8
330
1F
100
AcDbEntity
  8
0
  6
Continuous
 62
     7
370
    15
100
AcDbLine
 10
183.4514524537
 20
159.4216899641
 30
0.0
 11
183.4514524537
 21
162.7974562329
 31
0.0
  0
LINE
  5
D9
330
1F
100
AcDbEntity
  8
0
  6
Continuous
 62
     7
370
    15
100
AcDbLine
 10
181.8562927548
 20
160.210280963
 30
0.0
 11
180.9762927548
 21
160.210280963
 31
0.0
  0
LINE
  5
DA
330
1F
100
AcDbEntity
  8
0
  6
Continuous
 62
     7
370
    15
100
AcDbLine
 10
180.9762927548
 20
156.0172918232
 30
0.0
 11
181.8562927548
 21
156.0172918232
 31
0.0
  0
SPLINE
  5
DB
330
1F
100
AcDbEntity
  8
0
  6
Continuous
 62
     7
370
    15
100
AcDbSpline
210
0.0
220
0.0
230
1.0
 70
     8
 71
     3
 72
     8
 73
     4
 74
     0
 42
0.00000001
 43
0.00000001
 40
0.0
 40
0.0
 40
0.0
 40
0.0
 40
1.0
 40
1.0
 40
1.0
 40
1.0
 10
183.4514524537375
 20
162.797456232943
 30
0.0
 10
183.1190943573478
 20
162.206646019271
 30
0.0
 10
182.7873130858637
 20
161.6155133550258
 30
0.0
 10
182.456292754844
 20
161.0239576585682
 30
0.0
  0
SPLINE
  5
DC
330
1F
100
AcDbEntity
  8
0
  6
Continuous
 62
     7
370
    15
100
AcDbSpline
210
0.0
220
0.0
230
1.0
 70
     8
 71
     3
 72
     8
 73
     4
 74
     0
 42
0.00000001
 43
0.00000001
 40
0.0
 40
0.0
 40
0.0
 40
0.0
 40
1.0
 40
1.0
 40
1.0
 40
1.0
 10
182.456292754844
 20
157.2243688624933
 30
0.0
 10
182.779850313099
 20
157.9604852611158
 30
0.0
 10
183.1123446333159
 20
158.6925768565345
 30
0.0
 10
183.4514524537375
 20
159.4216899641154
 30
0.0
  0
LINE
  5
DD
330
1F
100
AcDbEntity
  8
0
  6
Continuous
 62
     7
370
    15
100
AcDbLine
 10
182.4562927548
 20
157.2243688625
 30
0.0
 11
182.4562927548
 21
161.0239576586
 31
0.0
  0
LINE
  5
DE
330
1F
100
AcDbEntity
  8
0
  6
Continuous
 62
     7
370
    15
100
AcDbLine
 10
180.3762927548
 20
157.2243688625
 30
0.0
 11
180.3762927548
 21
156.8261281433
 31
0.0
  0
SPLINE
  5
DF
330
1F
100
AcDbEntity
  8
0
  6
Continuous
 62
     7
370
    15
100
AcDbSpline
210
0.0
220
0.0
230
1.0
 70
     8
 71
     3
 72
    12
 73
     8
 74
     0
 42
0.00000001
 43
0.00000001
 40
0.0
 40
0.0
 40
0.0
 40
0.0
 40
0.5000000000000032
 40
0.5000000000000032
 40
0.7500000000000016
 40
0.7500000000000016
 40
1.0
 40
1.0
 40
1.0
 40
1.0
 10
180.376292754844
 20
156.8261281432927
 30
0.0
 10
180.376292754844
 20
156.6403620667145
 30
0.0
 10
180.4228385001007
 20
156.4551887547243
 30
0.0
 10
180.5729394484903
 20
156.2207781513808
 30
0.0
 10
180.6368762647844
 20
156.1506822539687
 30
0.0
 10
180.7922439965141
 20
156.0480017361646
 30
0.0
 10
180.883487279432
 20
156.0172918231891
 30
0.0
 10
180.9762927548441
 20
156.0172918231891
 30
0.0
  0
SPLINE
  5
E0
330
1F
100
AcDbEntity
  8
0
  6
Continuous
 62
     7
370
    15
100
AcDbSpline
210
0.0
220
0.0
230
1.0
 70
     8
 71
     3
 72
    12
 73
     8
 74
     0
 42
0.00000001
 43
0.00000001
 40
0.0
 40
0.0
 40
0.0
 40
0.0
 40
0.25
 40
0.25
 40
0.5
 40
0.5
 40
1.0
 40
1.0
 40
1.0
 40
1.0
 10
181.856292754844
 20
156.0172918231892
 30
0.0
 10
181.9488347215659
 20
156.0172918231892
 30
0.0
 10
182.0410440987103
 20
156.0483251701054
 30
0.0
 10
182.1961810590871
 20
156.1511360359303
 30
0.0
 10
182.2599909565482
 20
156.2213088502759
 30
0.0
 10
182.4091173923493
 20
156.4542213338039
 30
0.0
 10
182.456292754844
 20
156.6410166958738
 30
0.0
 10
182.456292754844
 20
156.8261281432927
 30
0.0
  0
LINE
  5
E1
330
1F
100
AcDbEntity
  8
0
  6
Continuous
 62
     7
370
    15
100
AcDbLine
 10
182.4562927548
 20
156.8261281433
 30
0.0
 11
182.4562927548
 21
157.2243688625
 31
0.0
  0
SPLINE
  5
E2
330
1F
100
AcDbEntity
  8
0
  6
Continuous
 62
     7
370
    15
100
AcDbSpline
210
0.0
220
0.0
230
1.0
 70
     8
 71
     3
 72
    12
 73
     8
 74
     0
 42
0.00000001
 43
0.00000001
 40
0.0
 40
0.0
 40
0.0
 40
0.0
 40
0.25
 40
0.25
 40
0.5
 40
0.5
 40
1.0
 40
1.0
 40
1.0
 40
1.0
 10
184.766292754844
 20
159.4216899641154
 30
0.0
 10
184.8555811138878
 20
159.4216899641154
 30
0.0
 10
184.94363994479
 20
159.3960653315106
 30
0.0
 10
185.0962936580392
 20
159.3075219585788
 30
0.0
 10
185.1620871513812
 20
159.2446394754642
 30
0.0
 10
185.3175277980972
 20
159.0272782875306
 30
0.0
 10
185.366292754844
 20
158.8486312775192
 30
0.0
 10
185.366292754844
 20
158.6705381223435
 30
0.0
  0
LINE
  5
E3
330
1F
100
AcDbEntity
  8
0
  6
Continuous
 62
     7
370
    15
100
AcDbLine
 10
185.3662927548
 20
158.6705381223
 30
0.0
 11
185.3662927548
 21
156.1876836515
 31
0.0
  0
SPLINE
  5
E4
330
1F
100
AcDbEntity
  8
0
  6
Continuous
 62
     7
370
    15
100
AcDbSpline
210
0.0
220
0.0
230
1.0
 70
    24
 71
     3
 72
    12
 73
     8
 74
     0
 42
0.00000001
 43
0.00000001
 40
0.0
 40
0.0
 40
0.0
 40
0.0
 40
0.5
 40
0.5
 40
0.75
 40
0.75
 40
1.0
 40
1.0
 40
1.0
 40
1.0
 10
182.2079483690941
 20
160.2102809630379
 30
0.0
 10
182.1738026208031
 20
160.2102809630379
 30
0.0
 10
182.1346094623981
 20
160.2102809630379
 30
0.0
 10
182.0567618037443
 20
160.2102809630379
 30
0.0
 10
182.027357344959
 20
160.2102809630379
 30
0.0
 10
181.9543498236531
 20
160.2102809630379
 30
0.0
 10
181.9074445058453
 20
160.2102809630379
 30
0.0
 10
181.856292754844
 20
160.2102809630379
 30
0.0
  0
SPLINE
  5
E5
330
1F
100
AcDbEntity
  8
0
  6
Continuous
 62
     7
370
    15
100
AcDbSpline
210
0.0
220
0.0
230
1.0
 70
     8
 71
     3
 72
    10
 73
     6
 74
     0
 42
0.00000001
 43
0.00000001
 40
0.0
 40
0.0
 40
0.0
 40
0.0
 40
0.5
 40
0.5
 40
1.0
 40
1.0
 40
1.0
 40
1.0
 10
182.456292754844
 20
160.7128849348566
 30
0.0
 10
182.4562927548439
 20
160.6163423873801
 30
0.0
 10
182.4343521322624
 20
160.51988118711
 30
0.0
 10
182.3482219468706
 20
160.3444785928657
 30
0.0
 10
182.2851396397269
 20
160.2680630604987
 30
0.0
 10
182.2079483690941
 20
160.2102809630379
 30
0.0
  0
SPLINE
  5
E6
330
1F
100
AcDbEntity
  8
0
  6
Continuous
 62
     7
370
    15
100
AcDbSpline
210
0.0
220
0.0
230
1.0
 70
     8
 71
     3
 72
    10
 73
     6
 74
     0
 42
0.00000001
 43
0.00000001
 40
0.0
 40
0.0
 40
0.0
 40
0.0
 40
0.5
 40
0.5
 40
1.0
 40
1.0
 40
1.0
 40
1.0
 10
185.3662927548441
 20
162.1811579961808
 30
0.0
 10
185.3662927548441
 20
162.3395924390686
 30
0.0
 10
185.3041315383611
 20
162.4986131338706
 30
0.0
 10
185.0836221976895
 20
162.7286209581263
 30
0.0
 10
184.9247070947443
 20
162.797456232943
 30
0.0
 10
184.766292754844
 20
162.797456232943
 30
0.0
  0
LINE
  5
E7
330
1F
100
AcDbEntity
  8
0
  6
Continuous
 62
     7
370
    15
100
AcDbLine
 10
185.3662927548
 20
158.6705381223
 30
0.0
 11
185.3662927548
 21
162.1811579962
 31
0.0
  0
SPLINE
  5
E8
330
1F
100
AcDbEntity
  8
0
  6
Continuous
 62
     7
370
    15
100
AcDbSpline
210
0.0
220
0.0
230
1.0
 70
     8
 71
     3
 72
    10
 73
     6
 74
     0
 42
0.00000001
 43
0.00000001
 40
0.0
 40
0.0
 40
0.0
 40
0.0
 40
0.5
 40
0.5
 40
1.0
 40
1.0
 40
1.0
 40
1.0
 10
180.624637140594
 20
160.2102809630379
 30
0.0
 10
180.5473124087198
 20
160.2681629638996
 30
0.0
 10
180.4839325831833
 20
160.3452363085335
 30
0.0
 10
180.3983621344102
 20
160.5197393667273
 30
0.0
 10
180.376292754844
 20
160.6165445702078
 30
0.0
 10
180.376292754844
 20
160.7128849348578
 30
0.0
  0
SPLINE
  5
E9
330
1F
100
AcDbEntity
  8
0
  6
Continuous
 62
     7
370
    15
100
AcDbSpline
210
0.0
220
0.0
230
1.0
 70
    24
 71
     3
 72
    12
 73
     8
 74
     0
 42
0.00000001
 43
0.00000001
 40
0.0
 40
0.0
 40
0.0
 40
0.0
 40
0.2499999999999989
 40
0.2499999999999989
 40
0.4999999999999978
 40
0.4999999999999978
 40
1.0
 40
1.0
 40
1.0
 40
1.0
 10
180.9762927548441
 20
160.2102809630379
 30
0.0
 10
180.9247005545695
 20
160.2102809630379
 30
0.0
 10
180.8777955457749
 20
160.2102809630379
 30
0.0
 10
180.8044618198984
 20
160.2102809630379
 30
0.0
 10
180.7752319904494
 20
160.2102809630379
 30
0.0
 10
180.6969992103865
 20
160.2102809630379
 30
0.0
 10
180.6585650524788
 20
160.2102809630379
 30
0.0
 10
180.624637140594
 20
160.2102809630379
 30
0.0
  0
SPLINE
  5
EA
330
1F
100
AcDbEntity
  8
0
  6
Continuous
 62
     7
370
    15
100
AcDbSpline
210
0.0
220
0.0
230
1.0
 70
     8
 71
     3
 72
    12
 73
     8
 74
     0
 42
0.00000001
 43
0.00000001
 40
0.0
 40
0.0
 40
0.0
 40
0.0
 40
0.2500000000000054
 40
0.2500000000000054
 40
0.5000000000000108
 40
0.5000000000000108
 40
1.0
 40
1.0
 40
1.0
 40
1.0
 10
199.6489657668651
 20
126.8362693517278
 30
0.0
 10
199.72139192035
 20
126.8370648399188
 30
0.0
 10
199.7929463300907
 20
126.8299604492758
 30
0.0
 10
199.9342582120572
 20
126.8000025857278
 30
0.0
 10
200.0046122915846
 20
126.7767066625691
 30
0.0
 10
200.2025455434147
 20
126.6855314774925
 30
0.0
 10
200.3217324736853
 20
126.5945717445499
 30
0.0
 10
200.4162927548459
 20
126.481221324687
 30
0.0
  0
LINE
  5
EB
330
1F
100
AcDbEntity
  8
0
  6
Continuous
 62
     7
370
    15
100
AcDbLine
 10
146.4662927548
 20
156.190280963
 30
0.0
 11
146.4662927548
 21
156.17586151
 31
0.0
  0
LINE
  5
EC
330
1F
100
AcDbEntity
  8
0
  6
Continuous
 62
     7
370
    15
100
AcDbLine
 10
146.5684837525
 20
130.430280963
 30
0.0
 11
146.5684837525
 21
130.4606472636
 31
0.0
  0
LINE
  5
ED
330
1F
100
AcDbEntity
  8
0
  6
Continuous
 62
     7
370
    15
100
AcDbLine
 10
204.0380714327
 20
113.310280963
 30
0.0
 11
200.6148915932
 21
126.0981247727
 31
0.0
  0
LINE
  5
EE
330
1F
100
AcDbEntity
  8
0
  6
Continuous
 62
     7
370
    15
100
AcDbLine
 10
205.5888477398
 20
113.310280963
 30
0.0
 11
204.0380714327
 21
113.310280963
 31
0.0
  0
SPLINE
  5
EF
330
1F
100
AcDbEntity
  8
0
  6
Continuous
 62
     7
370
    15
100
AcDbSpline
210
0.0
220
0.0
230
1.0
 70
     8
 71
     3
 72
    10
 73
     6
 74
     0
 42
0.00000001
 43
0.00000001
 40
0.0
 40
0.0
 40
0.0
 40
0.0
 40
0.5
 40
0.5
 40
1.0
 40
1.0
 40
1.0
 40
1.0
 10
200.41629275484
 20
126.4812213246812
 30
0.0
 10
200.4629323574006
 20
126.4253139345211
 30
0.0
 10
200.5033024990964
 20
126.3644360790401
 30
0.0
 10
200.5696076329112
 20
126.2365214157796
 30
0.0
 10
200.5961471681608
 20
126.1681978841448
 30
0.0
 10
200.6148915931541
 20
126.098124772731
 30
0.0
  0
LWPOLYLINE
  5
F0
330
1F
100
AcDbEntity
  8
0
  6
HIDDEN
 62
     7
370
     0
100
AcDbPolyline
 90
       32
 70
   128
 43
0.0
 10
239.9833771849
 20
145.8727337002
 10
239.9571316817
 20
145.7332208938
 10
239.926506642
 20
145.7362743037
 10
239.8927558585
 20
145.8817689228
 10
239.8572610923
 20
146.1637481845
 10
239.8214755033
 20
146.5706678245
 10
239.7868641577
 20
147.085868505
 10
239.754844048
 20
147.6882578497
 10
239.7267260814
 20
148.3531739679
 10
239.7036614106
 20
149.0533951156
 10
239.6865943059
 20
149.7602541569
 10
239.6762234968
 20
150.4448121995
 10
239.6729735652
 20
151.0790433566
 10
239.6769775639
 20
151.6369821303
 10
239.6880715685
 20
152.0957864416
 10
239.7058013893
 20
152.4366727879
 10
239.7294411653
 20
152.6456852424
 10
239.7580230813
 20
152.7142668105
 10
239.7903769904
 20
152.6396097548
 10
239.8251783195
 20
152.4247705439
 10
239.8610022984
 20
152.0785447203
 10
239.896382289
 20
151.61510681
 10
239.9298698304
 20
151.0534300154
 10
239.9600939387
 20
150.4165094505
 10
239.9858172353
 20
149.7304207181
 10
240.0059866056
 20
149.0232523715
 10
240.019776313
 20
148.3239559659
 10
240.0266218054
 20
147.6611607783
 10
240.0262428274
 20
147.0620017215
 10
240.0186548945
 20
146.5510084377
 10
240.0041686576
 20
146.1491010521
 10
239.9833771849
 20
145.8727337002
  0
LWPOLYLINE
  5
F1
330
1F
100
AcDbEntity
  8
0
  6
HIDDEN
 62
     7
370
     0
100
AcDbPolyline
 90
       25
 70
   128
 43
0.0
 10
241.3282939996
 20
147.2470020423
 10
241.3074270881
 20
147.1549288441
 10
241.2825350004
 20
147.2058139806
 10
241.2553140912
 20
147.3961897137
 10
241.2276194203
 20
147.713082252
 10
241.201338334
 20
148.1348958925
 10
241.1782618447
 20
148.6328847329
 10
241.159962577
 20
149.1731116564
 10
241.1476875959
 20
149.7187610912
 10
241.142273421
 20
150.23264793
 10
241.1440890193
 20
150.6797516338
 10
241.153010661
 20
151.0296028243
 10
241.1684303507
 20
151.2583597208
 10
241.1892972621
 20
151.350432919
 10
241.2141893498
 20
151.2995477825
 10
241.2414102591
 20
151.1091720494
 10
241.2691049299
 20
150.7922795111
 10
241.2953860163
 20
150.3704658706
 10
241.3184625056
 20
149.8724770303
 10
241.3367617732
 20
149.3322501067
 10
241.3490367543
 20
148.7866006719
 10
241.3544509292
 20
148.2727138331
 10
241.3526353309
 20
147.8256101293
 10
241.3437136893
 20
147.4757589389
 10
241.3282939996
 20
147.2470020423
  0
LWPOLYLINE
  5
F2
330
1F
100
AcDbEntity
  8
0
  6
HIDDEN
 62
     7
370
     0
100
AcDbPolyline
 90
       25
 70
   128
 43
0.0
 10
246.8915360195
 20
147.3948126764
 10
246.870669108
 20
147.3027394782
 10
246.8457770204
 20
147.3536246147
 10
246.8185561111
 20
147.5440003478
 10
246.7908614403
 20
147.8608928861
 10
246.7645803539
 20
148.2827065266
 10
246.7415038646
 20
148.7806953669
 10
246.723204597
 20
149.3209222905
 10
246.7109296158
 20
149.8665717253
 10
246.7055154409
 20
150.3804585641
 10
246.7073310393
 20
150.8275622679
 10
246.7162526809
 20
151.1774134583
 10
246.7316723706
 20
151.4061703549
 10
246.7525392821
 20
151.4982435531
 10
246.7774313698
 20
151.4473584166
 10
246.804652279
 20
151.2569826835
 10
246.8323469498
 20
150.9400901452
 10
246.8586280362
 20
150.5182765047
 10
246.8817045255
 20
150.0202876643
 10
246.9000037932
 20
149.4800607408
 10
246.9122787743
 20
148.934411306
 10
246.9176929492
 20
148.4205244672
 10
246.9158773508
 20
147.9734207634
 10
246.9069557092
 20
147.6235695729
 10
246.8915360195
 20
147.3948126764
  0
ARC
  5
F3
330
1F
100
AcDbEntity
  8
0
  6
HIDDEN
 62
     7
370
     0
100
AcDbCircle
 10
274.6209838033
 20
136.4811987204
 30
0.0
 40
27.6039945722682
100
AcDbArc
 50
171.7252172852
 51
185.2308980451
  0
LWPOLYLINE
  5
F4
330
1F
100
AcDbEntity
  8
0
  6
HIDDEN
 62
     7
370
     0
100
AcDbPolyline
 90
       32
 70
   128
 43
0.0
 10
239.9833771849
 20
140.7478282259
 10
239.9571316817
 20
140.8873410323
 10
239.926506642
 20
140.8842876224
 10
239.8927558585
 20
140.7387930032
 10
239.8572610923
 20
140.4568137416
 10
239.8214755033
 20
140.0498941016
 10
239.7868641577
 20
139.534693421
 10
239.754844048
 20
138.9323040764
 10
239.7267260814
 20
138.2673879582
 10
239.7036614106
 20
137.5671668104
 10
239.6865943059
 20
136.8603077692
 10
239.6762234968
 20
136.1757497266
 10
239.6729735652
 20
135.5415185694
 10
239.6769775639
 20
134.9835797958
 10
239.6880715685
 20
134.5247754845
 10
239.7058013893
 20
134.1838891381
 10
239.7294411653
 20
133.9748766837
 10
239.7580230813
 20
133.9062951156
 10
239.7903769904
 20
133.9809521713
 10
239.8251783195
 20
134.1957913822
 10
239.8610022984
 20
134.5420172058
 10
239.896382289
 20
135.0054551161
 10
239.9298698304
 20
135.5671319107
 10
239.9600939387
 20
136.2040524755
 10
239.9858172353
 20
136.8901412079
 10
240.0059866056
 20
137.5973095546
 10
240.019776313
 20
138.2966059602
 10
240.0266218054
 20
138.9594011478
 10
240.0262428274
 20
139.5585602046
 10
240.0186548945
 20
140.0695534883
 10
240.0041686576
 20
140.471460874
 10
239.9833771849
 20
140.7478282259
  0
LWPOLYLINE
  5
F5
330
1F
100
AcDbEntity
  8
0
  6
HIDDEN
 62
     7
370
     0
100
AcDbPolyline
 90
       25
 70
   128
 43
0.0
 10
241.3282939996
 20
139.3735598838
 10
241.3074270881
 20
139.465633082
 10
241.2825350004
 20
139.4147479455
 10
241.2553140912
 20
139.2243722123
 10
241.2276194203
 20
138.9074796741
 10
241.201338334
 20
138.4856660335
 10
241.1782618447
 20
137.9876771932
 10
241.159962577
 20
137.4474502696
 10
241.1476875959
 20
136.9018008348
 10
241.142273421
 20
136.3879139961
 10
241.1440890193
 20
135.9408102922
 10
241.153010661
 20
135.5909591018
 10
241.1684303507
 20
135.3622022053
 10
241.1892972621
 20
135.2701290071
 10
241.2141893498
 20
135.3210141435
 10
241.2414102591
 20
135.5113898767
 10
241.2691049299
 20
135.8282824149
 10
241.2953860163
 20
136.2500960555
 10
241.3184625056
 20
136.7480848958
 10
241.3367617732
 20
137.2883118194
 10
241.3490367543
 20
137.8339612542
 10
241.3544509292
 20
138.3478480929
 10
241.3526353309
 20
138.7949517968
 10
241.3437136893
 20
139.1448029872
 10
241.3282939996
 20
139.3735598838
  0
LWPOLYLINE
  5
F6
330
1F
100
AcDbEntity
  8
0
  6
HIDDEN
 62
     7
370
     0
100
AcDbPolyline
 90
       25
 70
   128
 43
0.0
 10
246.8915360195
 20
139.2257492497
 10
246.870669108
 20
139.3178224479
 10
246.8457770204
 20
139.2669373114
 10
246.8185561111
 20
139.0765615783
 10
246.7908614403
 20
138.75966904
 10
246.7645803539
 20
138.3378553995
 10
246.7415038646
 20
137.8398665591
 10
246.723204597
 20
137.2996396355
 10
246.7109296158
 20
136.7539902008
 10
246.7055154409
 20
136.240103362
 10
246.7073310393
 20
135.7929996582
 10
246.7162526809
 20
135.4431484677
 10
246.7316723706
 20
135.2143915712
 10
246.7525392821
 20
135.122318373
 10
246.7774313698
 20
135.1732035095
 10
246.804652279
 20
135.3635792426
 10
246.8323469498
 20
135.6804717809
 10
246.8586280362
 20
136.1022854214
 10
246.8817045255
 20
136.6002742617
 10
246.9000037932
 20
137.1405011853
 10
246.9122787743
 20
137.6861506201
 10
246.9176929492
 20
138.2000374588
 10
246.9158773508
 20
138.6471411627
 10
246.9069557092
 20
138.9969923531
 10
246.8915360195
 20
139.2257492497
  0
LWPOLYLINE
  5
F7
330
1F
100
AcDbEntity
  8
0
  6
HIDDEN
 62
     7
370
     0
100
AcDbPolyline
 90
       28
 70
   128
 43
0.0
 10
247.3062481854
 20
139.5971692812
 10
247.2844376837
 20
139.702968681
 10
247.2586730569
 20
139.6743421871
 10
247.2303432826
 20
139.5128330611
 10
247.2009756263
 20
139.227148302
 10
247.172153306
 20
138.8326892489
 10
247.1454301405
 20
138.3507212915
 10
247.1222467824
 20
137.8072274473
 10
247.1038530527
 20
137.2315076099
 10
247.091240562
 20
136.6545989848
 10
247.085089253
 20
136.1076028654
 10
247.0857307444
 20
135.6200079541
 10
247.0931304531
 20
135.2181006186
 10
247.106889459
 20
134.9235477876
 10
247.1262660106
 20
134.7522288803
 10
247.1502155128
 20
134.7133797433
 10
247.1774468419
 20
134.8090947439
 10
247.2064919498
 20
135.0342138613
 10
247.2357850072
 20
135.3766008659
 10
247.2637468179
 20
135.8177975855
 10
247.2888699534
 20
136.3340189908
 10
247.3098000189
 20
136.8974354522
 10
247.3254086692
 20
137.4776730424
 10
247.334854438
 20
138.0434510028
 10
247.3376281013
 20
138.564268097
 10
247.3335801303
 20
139.0120469408
 10
247.3229287521
 20
139.3626476607
 10
247.3062481854
 20
139.5971692812
  0
LINE
  5
F8
330
1F
100
AcDbEntity
  8
0
  6
HIDDEN
 62
     7
370
     0
100
AcDbLine
 10
237.4162927548
 20
131.310280963
 30
0.0
 11
237.4162927548
 21
143.310280963
 31
0.0
  0
LINE
  5
F9
330
1F
100
AcDbEntity
  8
0
  6
HIDDEN
 62
     7
370
     0
100
AcDbLine
 10
239.8455785406
 20
133.810280963
 30
0.0
 11
239.8455785406
 21
140.810280963
 31
0.0
  0
LINE
  5
FA
330
1F
100
AcDbEntity
  8
0
  6
HIDDEN
 62
     7
370
     0
100
AcDbLine
 10
237.4162927548
 20
143.310280963
 30
0.0
 11
237.4162927548
 21
155.310280963
 31
0.0
  0
LINE
  5
FB
330
1F
100
AcDbEntity
  8
0
  6
HIDDEN
 62
     7
370
     0
100
AcDbLine
 10
239.8455785406
 20
145.810280963
 30
0.0
 11
239.8455785406
 21
152.810280963
 31
0.0
  0
CIRCLE
  5
FC
330
1F
100
AcDbEntity
  8
0
  6
HIDDEN
 62
     7
370
     0
100
AcDbCircle
 10
213.4162927548
 20
163.310280963
 30
0.0
 40
5.000000000000004
  0
CIRCLE
  5
FD
330
1F
100
AcDbEntity
  8
0
  6
HIDDEN
 62
     7
370
     0
100
AcDbCircle
 10
213.4162927548
 20
163.310280963
 30
0.0
 40
3.500000000000002
  0
CIRCLE
  5
FE
330
1F
100
AcDbEntity
  8
0
  6
HIDDEN
 62
     7
370
     0
100
AcDbCircle
 10
235.4162927548
 20
163.310280963
 30
0.0
 40
4.99999999999999
  0
CIRCLE
  5
FF
330
1F
100
AcDbEntity
  8
0
  6
HIDDEN
 62
     7
370
     0
100
AcDbCircle
 10
235.4162927548
 20
163.310280963
 30
0.0
 40
3.499999999999974
  0
CIRCLE
  5
100
330
1F
100
AcDbEntity
  8
0
  6
HIDDEN
 62
     7
370
     0
100
AcDbCircle
 10
213.4162927548
 20
123.310280963
 30
0.0
 40
4.999999999999976
  0
CIRCLE
  5
101
330
1F
100
AcDbEntity
  8
0
  6
HIDDEN
 62
     7
370
     0
100
AcDbCircle
 10
213.4162927548
 20
123.310280963
 30
0.0
 40
3.499999999999988
  0
LINE
  5
102
330
1F
100
AcDbEntity
  8
0
  6
HIDDEN
 62
     7
370
     0
100
AcDbLine
 10
215.6178773338
 20
121.4431016265
 30
0.0
 11
212.9000603055
 21
120.4700631208
 31
0.0
  0
LINE
  5
103
330
1F
100
AcDbEntity
  8
0
  6
HIDDEN
 62
     7
370
     0
100
AcDbLine
 10
210.6984757265
 20
122.3372424573
 30
0.0
 11
212.9000603055
 21
120.4700631208
 31
0.0
  0
LINE
  5
104
330
1F
100
AcDbEntity
  8
0
  6
HIDDEN
 62
     7
370
     0
100
AcDbLine
 10
216.1341097832
 20
124.2833194687
 30
0.0
 11
215.6178773338
 21
121.4431016265
 31
0.0
  0
LINE
  5
105
330
1F
100
AcDbEntity
  8
0
  6
HIDDEN
 62
     7
370
     0
100
AcDbLine
 10
211.2147081759
 20
125.1774602996
 30
0.0
 11
210.6984757265
 21
122.3372424573
 31
0.0
  0
LINE
  5
106
330
1F
100
AcDbEntity
  8
0
  6
HIDDEN
 62
     7
370
     0
100
AcDbLine
 10
216.1341097832
 20
124.2833194687
 30
0.0
 11
213.9325252042
 21
126.1504988053
 31
0.0
  0
LINE
  5
107
330
1F
100
AcDbEntity
  8
0
  6
HIDDEN
 62
     7
370
     0
100
AcDbLine
 10
211.2147081759
 20
125.1774602996
 30
0.0
 11
213.9325252042
 21
126.1504988053
 31
0.0
  0
CIRCLE
  5
108
330
1F
100
AcDbEntity
  8
0
  6
HIDDEN
 62
     7
370
     0
100
AcDbCircle
 10
213.4162927548
 20
123.310280963
 30
0.0
 40
4.172000000000009
  0
CIRCLE
  5
109
330
1F
100
AcDbEntity
  8
0
  6
HIDDEN
 62
     7
370
     0
100
AcDbCircle
 10
235.4162927548
 20
123.310280963
 30
0.0
 40
4.99999999999999
  0
CIRCLE
  5
10A
330
1F
100
AcDbEntity
  8
0
  6
HIDDEN
 62
     7
370
     0
100
AcDbCircle
 10
235.4162927548
 20
123.310280963
 30
0.0
 40
3.500000000000001
  0
LINE
  5
10B
330
1F
100
AcDbEntity
  8
0
  6
HIDDEN
 62
     7
370
     0
100
AcDbLine
 10
233.4364078899
 20
121.2094741525
 30
0.0
 11
236.2457023887
 21
120.5452469682
 31
0.0
  0
LINE
  5
10C
330
1F
100
AcDbEntity
  8
0
  6
HIDDEN
 62
     7
370
     0
100
AcDbLine
 10
238.2255872536
 20
122.6460537787
 30
0.0
 11
236.2457023887
 21
120.5452469682
 31
0.0
  0
LINE
  5
10D
330
1F
100
AcDbEntity
  8
0
  6
HIDDEN
 62
     7
370
     0
100
AcDbLine
 10
232.6069982561
 20
123.9745081474
 30
0.0
 11
233.4364078899
 21
121.2094741525
 31
0.0
  0
LINE
  5
10E
330
1F
100
AcDbEntity
  8
0
  6
HIDDEN
 62
     7
370
     0
100
AcDbLine
 10
237.3961776198
 20
125.4110877735
 30
0.0
 11
238.2255872536
 21
122.6460537787
 31
0.0
  0
LINE
  5
10F
330
1F
100
AcDbEntity
  8
0
  6
HIDDEN
 62
     7
370
     0
100
AcDbLine
 10
232.6069982561
 20
123.9745081474
 30
0.0
 11
234.586883121
 21
126.0753149579
 31
0.0
  0
LINE
  5
110
330
1F
100
AcDbEntity
  8
0
  6
HIDDEN
 62
     7
370
     0
100
AcDbLine
 10
237.3961776198
 20
125.4110877735
 30
0.0
 11
234.586883121
 21
126.0753149579
 31
0.0
  0
CIRCLE
  5
111
330
1F
100
AcDbEntity
  8
0
  6
HIDDEN
 62
     7
370
     0
100
AcDbCircle
 10
235.4162927548
 20
123.310280963
 30
0.0
 40
4.172000000000009
  0
LINE
  5
112
330
1F
100
AcDbEntity
  8
0
  6
HIDDEN
 62
     7
370
     0
100
AcDbLine
 10
201.9866571677
 20
133.310280963
 30
0.0
 11
245.4162927548
 21
133.310280963
 31
0.0
  0
LINE
  5
113
330
1F
100
AcDbEntity
  8
0
  6
HIDDEN
 62
     7
370
     0
100
AcDbLine
 10
179.381133056
 20
159.4216899641
 30
0.0
 11
179.381133056
 21
155.160280963
 31
0.0
  0
LINE
  5
114
330
1F
100
AcDbEntity
  8
0
  6
HIDDEN
 62
     7
370
     0
100
AcDbLine
 10
237.4162927548
 20
155.310280963
 30
0.0
 11
237.4162927548
 21
143.310280963
 31
0.0
  0
LINE
  5
115
330
1F
100
AcDbEntity
  8
0
  6
HIDDEN
 62
     7
370
     0
100
AcDbLine
 10
185.3662927548
 20
156.1876836515
 30
0.0
 11
185.3662927548
 21
155.160280963
 31
0.0
  0
SPLINE
  5
116
330
1F
100
AcDbEntity
  8
0
  6
HIDDEN
 62
     7
370
     0
100
AcDbSpline
210
0.0
220
0.0
230
1.0
 70
     8
 71
     3
 72
    12
 73
     8
 74
     0
 42
0.00000001
 43
0.00000001
 40
0.0
 40
0.0
 40
0.0
 40
0.0
 40
0.4999999999999966
 40
0.4999999999999966
 40
0.7499999999999982
 40
0.7499999999999982
 40
1.0
 40
1.0
 40
1.0
 40
1.0
 10
197.6358338090917
 20
153.3102809630379
 30
0.0
 10
197.868699635635
 20
153.60579227106
 30
0.0
 10
198.1442503206621
 20
153.8650584033909
 30
0.0
 10
198.646841212793
 20
154.1879144422968
 30
0.0
 10
198.8248207015054
 20
154.2813411382922
 30
0.0
 10
199.2039308719721
 20
154.4386683055008
 30
0.0
 10
199.4079622667699
 20
154.5030681135257
 30
0.0
 10
199.616292754844
 20
154.5487806329449
 30
0.0
  0
LINE
  5
117
330
1F
100
AcDbEntity
  8
0
  6
HIDDEN
 62
     7
370
     0
100
AcDbLine
 10
199.6162927548
 20
158.2894297529
 30
0.0
 11
199.6162927548
 21
154.5487806329
 31
0.0
  0
SPLINE
  5
118
330
1F
100
AcDbEntity
  8
0
  6
HIDDEN
 62
     7
370
     0
100
AcDbSpline
210
0.0
220
0.0
230
1.0
 70
     8
 71
     3
 72
    33
 73
    29
 74
     0
 42
0.00000001
 43
0.00000001
 40
0.0
 40
0.0
 40
0.0
 40
0.0
 40
0.0256422793403072
 40
0.0513838833621541
 40
0.0858859292901598
 40
0.1559750262813581
 40
0.1916159114078489
 40
0.2279377829044465
 40
0.2644845812802827
 40
0.3017206588331953
 40
0.3391883357093874
 40
0.3781300731759871
 40
0.4173351869635372
 40
0.4573791040829735
 40
0.4977181585549591
 40
0.5368355849338466
 40
0.5762422947233864
 40
0.6165867132346451
 40
0.6572660242370956
 40
0.6946157557379787
 40
0.7322411670559154
 40
0.7707464443588871
 40
0.8095593771276884
 40
0.845625186080416
 40
0.9189862361521355
 40
0.9563660503107074
 40
0.9924515772094036
 40
1.0
 40
1.0
 40
1.0
 40
1.0
 10
199.616292754844
 20
158.2894297529152
 30
0.0
 10
199.5412765754811
 20
158.2970912696898
 30
0.0
 10
199.3909536435957
 20
158.3124439799189
 30
0.0
 10
199.1451264356571
 20
158.3459788592296
 30
0.0
 10
198.7812644875606
 20
158.4064066344285
 30
0.0
 10
198.4106145585485
 20
158.4889774554221
 30
0.0
 10
198.0637638230488
 20
158.5852025897371
 30
0.0
 10
197.8144978759893
 20
158.6640843632868
 30
0.0
 10
197.5790462847158
 20
158.7482528074025
 30
0.0
 10
197.3601291638581
 20
158.8361636647432
 30
0.0
 10
197.1572709550465
 20
158.9275346427254
 30
0.0
 10
196.9736137591407
 20
159.0207308300408
 30
0.0
 10
196.8107863558227
 20
159.1148183048522
 30
0.0
 10
196.6727594150877
 20
159.2074176496819
 30
0.0
 10
196.5630681997229
 20
159.2959886072082
 30
0.0
 10
196.482776409349
 20
159.3790082613278
 30
0.0
 10
196.4318471775708
 20
159.4560254766135
 30
0.0
 10
196.4112307384381
 20
159.5270142477028
 30
0.0
 10
196.4224697297267
 20
159.5890791040784
 30
0.0
 10
196.4633560545834
 20
159.642025214147
 30
0.0
 10
196.5316529592606
 20
159.686549327193
 30
0.0
 10
196.6295347874411
 20
159.7240111491635
 30
0.0
 10
196.7542702023414
 20
159.7535263185447
 30
0.0
 10
196.9519426586893
 20
159.7831805166681
 30
0.0
 10
197.1957300270026
 20
159.8007319082256
 30
0.0
 10
197.4848904820639
 20
159.8084745738747
 30
0.0
 10
197.6552237515532
 20
159.810531184053
 30
0.0
 10
197.7563901491313
 20
159.8101287270517
 30
0.0
 10
197.7738913551088
 20
159.810059104301
 30
0.0
  0
SPLINE
  5
119
330
1F
100
AcDbEntity
  8
0
  6
HIDDEN
 62
     7
370
     0
100
AcDbSpline
210
0.0
220
0.0
230
1.0
 70
     8
 71
     3
 72
    26
 73
    22
 74
     0
 42
0.00000001
 43
0.00000001
 40
0.0
 40
0.0
 40
0.0
 40
0.0
 40
0.1249999999999993
 40
0.1249999999999993
 40
0.2499999999999987
 40
0.2499999999999987
 40
0.374999999999998
 40
0.374999999999998
 40
0.4374999999999977
 40
0.4374999999999977
 40
0.4999999999999973
 40
0.4999999999999973
 40
0.562499999999997
 40
0.562499999999997
 40
0.6249999999999967
 40
0.6249999999999967
 40
0.7499999999999978
 40
0.7499999999999978
 40
0.8749999999999989
 40
0.8749999999999989
 40
1.0
 40
1.0
 40
1.0
 40
1.0
 10
215.516292754844
 20
142.3198695809788
 30
0.0
 10
215.6200168869701
 20
142.2813323641103
 30
0.0
 10
215.727430191074
 20
142.2829577147312
 30
0.0
 10
215.9577003923032
 20
142.3652565887808
 30
0.0
 10
216.0746564488215
 20
142.4440451629595
 30
0.0
 10
216.3136623362433
 20
142.6678924314262
 30
0.0
 10
216.4323244921719
 20
142.808210133864
 30
0.0
 10
216.5947649370362
 20
143.0557297963106
 30
0.0
 10
216.6456140877116
 20
143.143369177595
 30
0.0
 10
216.7260450549748
 20
143.330821314074
 30
0.0
 10
216.7540604882062
 20
143.4301122087363
 30
0.0
 10
216.7538292691595
 20
143.6319588140301
 30
0.0
 10
216.7255532798124
 20
143.7290527864293
 30
0.0
 10
216.6447117525859
 20
143.9183496047559
 30
0.0
 10
216.5939439582477
 20
144.0100577742621
 30
0.0
 10
216.4326186763301
 20
144.2899764170535
 30
0.0
 10
216.3121235412007
 20
144.4839578562331
 30
0.0
 10
216.0764176334658
 20
144.8752078245733
 30
0.0
 10
215.9566323051701
 20
145.0771118288585
 30
0.0
 10
215.7302235190452
 20
145.4545167229409
 30
0.0
 10
215.6199991263102
 20
145.6354789136659
 30
0.0
 10
215.516292754844
 20
145.7934036469814
 30
0.0
  0
SPLINE
  5
11A
330
1F
100
AcDbEntity
  8
0
  6
HIDDEN
 62
     7
370
     0
100
AcDbSpline
210
0.0
220
0.0
230
1.0
 70
     8
 71
     3
 72
    46
 73
    42
 74
     0
 42
0.00000001
 43
0.00000001
 40
0.0
 40
0.0
 40
0.0
 40
0.0
 40
0.1249999999999999
 40
0.1249999999999999
 40
0.1874999999999998
 40
0.1874999999999998
 40
0.2499999999999997
 40
0.2499999999999997
 40
0.2812499999999997
 40
0.2812499999999997
 40
0.3124999999999997
 40
0.3124999999999997
 40
0.3437499999999996
 40
0.3437499999999996
 40
0.3749999999999996
 40
0.3749999999999996
 40
0.4062499999999996
 40
0.4062499999999996
 40
0.4374999999999995
 40
0.4374999999999995
 40
0.4999999999999998
 40
0.4999999999999998
 40
0.53125
 40
0.53125
 40
0.5625000000000001
 40
0.5625000000000001
 40
0.5937500000000002
 40
0.5937500000000002
 40
0.6250000000000003
 40
0.6250000000000003
 40
0.6562500000000003
 40
0.6562500000000003
 40
0.6875000000000004
 40
0.6875000000000004
 40
0.7500000000000007
 40
0.7500000000000007
 40
0.812500000000001
 40
0.812500000000001
 40
0.8750000000000012
 40
0.8750000000000012
 40
1.0
 40
1.0
 40
1.0
 40
1.0
 10
215.516292754844
 20
142.3198695809788
 30
0.0
 10
215.034110279826
 20
142.2492343012898
 30
0.0
 10
214.5503059646116
 20
142.1949353615264
 30
0.0
 10
213.8185816273912
 20
142.1667309202358
 30
0.0
 10
213.5738637211443
 20
142.1665322745462
 30
0.0
 10
213.0889239363809
 20
142.2009619523375
 30
0.0
 10
212.8446499975279
 20
142.2358405974344
 30
0.0
 10
212.4976922841713
 20
142.3404895327849
 30
0.0
 10
212.3855371950923
 20
142.3841087025657
 30
0.0
 10
212.1702391755397
 20
142.4951555354842
 30
0.0
 10
212.0697745954132
 20
142.5615562033785
 30
0.0
 10
211.8876053307064
 20
142.7147819714227
 30
0.0
 10
211.8045723909638
 20
142.8027137638724
 30
0.0
 10
211.6570720061238
 20
142.9965411378967
 30
0.0
 10
211.5939408842551
 20
143.1001210790793
 30
0.0
 10
211.4840764840771
 20
143.3181226369365
 30
0.0
 10
211.4373994663231
 20
143.4329368452911
 30
0.0
 10
211.3602455432846
 20
143.6630302739026
 30
0.0
 10
211.3291912721164
 20
143.7793738499034
 30
0.0
 10
211.2550227460876
 20
144.1308139297922
 30
0.0
 10
211.232466277113
 20
144.3575619812205
 30
0.0
 10
211.233519552218
 20
144.6754481634293
 30
0.0
 10
211.239846934401
 20
144.7755161585598
 30
0.0
 10
211.2646245284059
 20
144.9643408592902
 30
0.0
 10
211.2833140394872
 20
145.0538422630136
 30
0.0
 10
211.3339916602366
 20
145.217425814985
 30
0.0
 10
211.3656481979495
 20
145.2910386350475
 30
0.0
 10
211.4440987153692
 20
145.4230226978358
 30
0.0
 10
211.4915894789717
 20
145.4819266418244
 30
0.0
 10
211.6031019447408
 20
145.5815097239382
 30
0.0
 10
211.6668373683742
 20
145.6223584856545
 30
0.0
 10
211.8143551502397
 20
145.6891621674623
 30
0.0
 10
211.899522329497
 20
145.7152162409591
 30
0.0
 10
212.1772490380829
 20
145.7732059856493
 30
0.0
 10
212.3994543778213
 20
145.7878043407491
 30
0.0
 10
212.8623447965226
 20
145.8037552888527
 30
0.0
 10
213.1069028705493
 20
145.8054013899249
 30
0.0
 10
213.5909225605218
 20
145.807433292849
 30
0.0
 10
213.8323077417683
 20
145.8073491874126
 30
0.0
 10
214.555491923451
 20
145.8056439910218
 30
0.0
 10
215.0370301752684
 20
145.8022735451789
 30
0.0
 10
215.5162927548442
 20
145.7934036469817
 30
0.0
  0
SPLINE
  5
11B
330
1F
100
AcDbEntity
  8
0
  6
HIDDEN
 62
     7
370
     0
100
AcDbSpline
210
0.0
220
0.0
230
1.0
 70
     8
 71
     3
 72
    31
 73
    27
 74
     0
 42
0.00000001
 43
0.00000001
 40
0.0
 40
0.0
 40
0.0
 40
0.0
 40
0.0334384199819033
 40
0.0671079476467012
 40
0.1015058262407165
 40
0.1361557766349348
 40
0.2034565335335876
 40
0.237624157511651
 40
0.2722999464168117
 40
0.339033810000513
 40
0.372919275468903
 40
0.4073120397812633
 40
0.4732335550657421
 40
0.5066905248967449
 40
0.5406290607315273
 40
0.6068944801472754
 40
0.6405161086503041
 40
0.674612559983078
 40
0.7418357234474435
 40
0.7759543224565909
 40
0.8105693939402183
 40
0.8440134696376017
 40
0.8779455647811867
 40
0.9121268418654508
 40
0.9468218932486674
 40
1.0
 40
1.0
 40
1.0
 40
1.0
 10
161.2404694827215
 20
130.637470669558
 30
0.0
 10
161.2005144591551
 20
130.6431214579686
 30
0.0
 10
161.1203282652151
 20
130.654462089883
 30
0.0
 10
160.9837701387582
 20
130.6721209313972
 30
0.0
 10
160.8352272338566
 20
130.6897459324876
 30
0.0
 10
160.6240445206384
 20
130.7122210302245
 30
0.0
 10
160.3947166762607
 20
130.7323189470979
 30
0.0
 10
160.1524034160907
 20
130.7483217846552
 30
0.0
 10
159.9038603446672
 20
130.7610635994425
 30
0.0
 10
159.6473591438755
 20
130.7684660008245
 30
0.0
 10
159.3894407395591
 20
130.7699264782078
 30
0.0
 10
159.1333216696393
 20
130.7673882983402
 30
0.0
 10
158.8807516978706
 20
130.7590539123291
 30
0.0
 10
158.6378913493433
 20
130.745747719418
 30
0.0
 10
158.4017640984316
 20
130.7294178179434
 30
0.0
 10
158.178413173733
 20
130.7092505177749
 30
0.0
 10
157.973098414868
 20
130.6869749777917
 30
0.0
 10
157.7798585219164
 20
130.6637336404564
 30
0.0
 10
157.607989907355
 20
130.6401340881986
 30
0.0
 10
157.4618298932421
 20
130.6182000324861
 30
0.0
 10
157.3659496260043
 20
130.6030434351466
 30
0.0
 10
157.2848914928607
 20
130.5896818076584
 30
0.0
 10
157.218956846293
 20
130.5784422255042
 30
0.0
 10
157.1687118352575
 20
130.5696573786257
 30
0.0
 10
157.1255190944987
 20
130.5619543807252
 30
0.0
 10
157.1229011944752
 20
130.5614745359663
 30
0.0
 10
157.1213169226695
 20
130.5611841488179
 30
0.0
  0
SPLINE
  5
11C
330
1F
100
AcDbEntity
  8
0
  6
HIDDEN
 62
     7
370
     0
100
AcDbSpline
210
0.0
220
0.0
230
1.0
 70
     8
 71
     3
 72
    31
 73
    27
 74
     0
 42
0.00000001
 43
0.00000001
 40
0.0
 40
0.0
 40
0.0
 40
0.0
 40
0.0468648371178907
 40
0.0810815400948367
 40
0.1138410289497591
 40
0.1804561079679685
 40
0.2143858842883878
 40
0.247470686600455
 40
0.3147385183199046
 40
0.348997989056246
 40
0.382482504990744
 40
0.4161998688659022
 40
0.4506554623658727
 40
0.4853683247074654
 40
0.5187039444152399
 40
0.5865380796026061
 40
0.6211239618004742
 40
0.6539792442951178
 40
0.7208135791534122
 40
0.754871193178917
 40
0.7876695502457998
 40
0.854355118298311
 40
0.8883158005396523
 40
0.9159131706862558
 40
0.9717348843213314
 40
1.0
 40
1.0
 40
1.0
 40
1.0
 10
157.1230767778769
 20
156.0590602294687
 30
0.0
 10
157.1230911504362
 20
156.0590544173654
 30
0.0
 10
157.1231160166112
 20
156.0590443617605
 30
0.0
 10
157.1604408986227
 20
156.052370504774
 30
0.0
 10
157.2209950194736
 20
156.0417377000804
 30
0.0
 10
157.3129041612621
 20
156.0260695383333
 30
0.0
 10
157.4330822982859
 20
156.006837255017
 30
0.0
 10
157.5721179200776
 20
155.9856315825292
 30
0.0
 10
157.7378140327345
 20
155.9623661264761
 30
0.0
 10
157.9266441316481
 20
155.9389940102645
 30
0.0
 10
158.0791079636529
 20
155.9218833684285
 30
0.0
 10
158.2412997580165
 20
155.9056706751741
 30
0.0
 10
158.414023250329
 20
155.8906834561453
 30
0.0
 10
158.5935631405193
 20
155.8776359105771
 30
0.0
 10
158.8394383399966
 20
155.8633116172063
 30
0.0
 10
159.0949543470739
 20
155.8540503808818
 30
0.0
 10
159.3528727620721
 20
155.8507798028989
 30
0.0
 10
159.6094571012862
 20
155.8514704444524
 30
0.0
 10
159.8637065114351
 20
155.8580019482123
 30
0.0
 10
160.1100461406917
 20
155.8698499149554
 30
0.0
 10
160.349562399129
 20
155.8848283093931
 30
0.0
 10
160.5771170945454
 20
155.9039225785833
 30
0.0
 10
160.7791791070982
 20
155.9246926763875
 30
0.0
 10
160.9536888293959
 20
155.9445558303642
 30
0.0
 10
161.1067370279409
 20
155.9641386641762
 30
0.0
 10
161.2068255319682
 20
155.978323228559
 30
0.0
 10
161.2404694827215
 20
155.9830912565178
 30
0.0
  0
SPLINE
  5
11D
330
1F
100
AcDbEntity
  8
0
  6
HIDDEN
 62
     7
370
     0
100
AcDbSpline
210
0.0
220
0.0
230
1.0
 70
     8
 71
     3
 72
    14
 73
    10
 74
     0
 42
0.00000001
 43
0.00000001
 40
0.0
 40
0.0
 40
0.0
 40
0.0
 40
0.1253577597707889
 40
0.2515946048469911
 40
0.3805906237888368
 40
0.5105358436965632
 40
0.6359433846315838
 40
0.8909896224829397
 40
1.0
 40
1.0
 40
1.0
 40
1.0
 10
161.2404694827215
 20
155.9830912565178
 30
0.0
 10
161.2775157118822
 20
155.9882672021485
 30
0.0
 10
161.3518679610274
 20
155.9986553903074
 30
0.0
 10
161.4480164898194
 20
156.0104459880525
 30
0.0
 10
161.5320188466919
 20
156.0199310233064
 30
0.0
 10
161.6007207037238
 20
156.0269974636325
 30
0.0
 10
161.6711793428117
 20
156.0337294157418
 30
0.0
 10
161.711871309544
 20
156.0372110554842
 30
0.0
 10
161.7144074614197
 20
156.0374276546387
 30
0.0
 10
161.7151668676816
 20
156.0374925114621
 30
0.0
  0
SPLINE
  5
11E
330
1F
100
AcDbEntity
  8
0
  6
HIDDEN
 62
     7
370
     0
100
AcDbSpline
210
0.0
220
0.0
230
1.0
 70
     8
 71
     3
 72
    15
 73
    11
 74
     0
 42
0.00000001
 43
0.00000001
 40
0.0
 40
0.0
 40
0.0
 40
0.0
 40
0.0207954014732704
 40
0.1466224742145248
 40
0.273322053943544
 40
0.402776225680631
 40
0.5331841308170964
 40
0.6481931078238455
 40
0.8814854455071172
 40
1.0
 40
1.0
 40
1.0
 40
1.0
 10
161.7151722495426
 20
130.5830689544989
 30
0.0
 10
161.7155309144609
 20
130.5830383100307
 30
0.0
 10
161.7180597590136
 20
130.582822244582
 30
0.0
 10
161.7073256172365
 20
130.5837348878018
 30
0.0
 10
161.6821878208857
 20
130.5859251815222
 30
0.0
 10
161.6391393167275
 20
130.589857168718
 30
0.0
 10
161.5823647383597
 20
130.5953943714471
 30
0.0
 10
161.4913901405546
 20
130.6050359805062
 30
0.0
 10
161.3795579839164
 20
130.6180311640163
 30
0.0
 10
161.2755178775395
 20
130.6325721807582
 30
0.0
 10
161.2404694827215
 20
130.637470669558
 30
0.0
  0
LINE
  5
11F
330
1F
100
AcDbEntity
  8
0
  6
HIDDEN
 62
     7
370
     0
100
AcDbLine
 10
153.4189424857
 20
132.810280963
 30
0.0
 11
153.4189424857
 21
153.810280963
 31
0.0
  0
LINE
  5
120
330
1F
100
AcDbEntity
  8
0
  6
HIDDEN
 62
     7
370
     0
100
AcDbLine
 10
171.585668005
 20
132.810280963
 30
0.0
 11
171.585668005
 21
153.810280963
 31
0.0
  0
LINE
  5
121
330
1F
100
AcDbEntity
  8
0
  6
HIDDEN
 62
     7
370
     0
100
AcDbLine
 10
173.3662927548
 20
133.435280963
 30
0.0
 11
173.3662927548
 21
153.1852809589
 31
0.0
  0
SPLINE
  5
122
330
1F
100
AcDbEntity
  8
0
  6
HIDDEN
 62
     7
370
     0
100
AcDbSpline
210
0.0
220
0.0
230
1.0
 70
     8
 71
     3
 72
    14
 73
    10
 74
     0
 42
0.00000001
 43
0.00000001
 40
0.0
 40
0.0
 40
0.0
 40
0.0
 40
0.2499999999999999
 40
0.2499999999999999
 40
0.4999999999999998
 40
0.4999999999999998
 40
0.7499999999999997
 40
0.7499999999999997
 40
1.0
 40
1.0
 40
1.0
 40
1.0
 10
149.1162927548441
 20
153.3344704564583
 30
0.0
 10
149.1162927548441
 20
153.2979985919245
 30
0.0
 10
149.09392212304
 20
153.260262839412
 30
0.0
 10
149.0067065917918
 20
153.1851271177126
 30
0.0
 10
148.9426853857151
 20
153.1487548314905
 30
0.0
 10
148.7792000879738
 20
153.0845312923284
 30
0.0
 10
148.6798852138006
 20
153.0570083297059
 30
0.0
 10
148.4600589430955
 20
153.0188361628188
 30
0.0
 10
148.3390553807864
 20
153.0081866647861
 30
0.0
 10
148.2162927548441
 20
153.0081866647861
 30
0.0
  0
LINE
  5
123
330
1F
100
AcDbEntity
  8
0
  6
HIDDEN
 62
     7
370
     0
100
AcDbLine
 10
148.2162927548
 20
153.0081866648
 30
0.0
 11
146.4662927548
 21
153.0081866648
 31
0.0
  0
ELLIPSE
  5
124
330
1F
100
AcDbEntity
  8
0
  6
HIDDEN
 62
     7
370
     0
100
AcDbEllipse
 10
153.4377972553
 20
143.310280963
 30
0.0
 11
18.18653347947307
 21
0.0
 31
0.0
210
0.0
220
0.0
230
1.0
 40
0.5773502692
 41
4.318986348374604
 42
4.32506251199218
  0
LINE
  5
125
330
1F
100
AcDbEntity
  8
0
  6
HIDDEN
 62
     7
370
     0
100
AcDbLine
 10
146.5684837525
 20
133.5880978749
 30
0.0
 11
150.7162927548
 21
133.5880978749
 31
0.0
  0
SPLINE
  5
126
330
1F
100
AcDbEntity
  8
0
  6
HIDDEN
 62
     7
370
     0
100
AcDbSpline
210
0.0
220
0.0
230
1.0
 70
     8
 71
     3
 72
    14
 73
    10
 74
     0
 42
0.00000001
 43
0.00000001
 40
0.0
 40
0.0
 40
0.0
 40
0.0
 40
0.25
 40
0.25
 40
0.5
 40
0.5
 40
0.75
 40
0.75
 40
1.0
 40
1.0
 40
1.0
 40
1.0
 10
150.7162927548441
 20
133.5880978748627
 30
0.0
 10
150.838760842763
 20
133.5880978748627
 30
0.0
 10
150.9589719216318
 20
133.5777608551428
 30
0.0
 10
151.1791782408845
 20
133.5402936265648
 30
0.0
 10
151.2788336935825
 20
133.5131624582756
 30
0.0
 10
151.4418210465382
 20
133.4503954120688
 30
0.0
 10
151.5065584072847
 20
133.4143317181419
 30
0.0
 10
151.5933937574017
 20
133.3411390482738
 30
0.0
 10
151.6162927548441
 20
133.3035962627628
 30
0.0
 10
151.6162927548441
 20
133.2678886185814
 30
0.0
  0
LINE
  5
127
330
1F
100
AcDbEntity
  8
0
  6
HIDDEN
 62
     7
370
     0
100
AcDbLine
 10
146.4662927548
 20
133.6123752613
 30
0.0
 11
146.4662927548
 21
153.0081866648
 31
0.0
  0
LINE
  5
128
330
1F
100
AcDbEntity
  8
0
  6
HIDDEN
 62
     7
370
     0
100
AcDbLine
 10
196.4162927548
 20
133.310280963
 30
0.0
 11
197.6358338091
 21
133.310280963
 31
0.0
  0
LINE
  5
129
330
1F
100
AcDbEntity
  8
0
  6
HIDDEN
 62
     7
370
     0
100
AcDbLine
 10
149.1162927548
 20
154.310280963
 30
0.0
 11
149.1162927548
 21
156.8678050848
 31
0.0
  0
LINE
  5
12A
330
1F
100
AcDbEntity
  8
0
  6
HIDDEN
 62
     7
370
     0
100
AcDbLine
 10
151.6162927548
 20
132.310280963
 30
0.0
 11
151.6162927548
 21
129.673534265
 31
0.0
  0
LINE
  5
12B
330
1F
100
AcDbEntity
  8
0
  6
HIDDEN
 62
     7
370
     0
100
AcDbLine
 10
146.4662927548
 20
154.310280963
 30
0.0
 11
146.4662927548
 21
156.17586151
 31
0.0
  0
LINE
  5
12C
330
1F
100
AcDbEntity
  8
0
  6
HIDDEN
 62
     7
370
     0
100
AcDbLine
 10
146.5684837525
 20
132.310280963
 30
0.0
 11
146.5684837525
 21
130.4606472636
 31
0.0
  0
LINE
  5
12D
330
1F
100
AcDbEntity
  8
0
  6
HIDDEN
 62
     7
370
     0
100
AcDbLine
 10
178.7162927548
 20
137.060280963
 30
0.0
 11
178.7162927548
 21
149.560280963
 31
0.0
  0
LINE
  5
12E
330
1F
100
AcDbEntity
  8
0
  6
HIDDEN
 62
     7
370
     0
100
AcDbLine
 10
181.2162927548
 20
137.060280963
 30
0.0
 11
181.2162927548
 21
149.560280963
 31
0.0
  0
LINE
  5
12F
330
1F
100
AcDbEntity
  8
0
  6
HIDDEN
 62
     7
370
     0
100
AcDbLine
 10
173.8662927548
 20
137.810280963
 30
0.0
 11
173.8662927548
 21
148.810280963
 31
0.0
  0
LINE
  5
130
330
1F
100
AcDbEntity
  8
0
  6
HIDDEN
 62
     7
370
     0
100
AcDbLine
 10
180.4115151554
 20
126.410280963
 30
0.0
 11
177.8662927548
 21
126.410280963
 31
0.0
  0
LINE
  5
131
330
1F
100
AcDbEntity
  8
0
  6
HIDDEN
 62
     7
370
     0
100
AcDbLine
 10
173.3662927548
 20
123.3352966076
 30
0.0
 11
173.3662927548
 21
126.410280963
 31
0.0
  0
LINE
  5
132
330
1F
100
AcDbEntity
  8
0
  6
HIDDEN
 62
     7
370
     0
100
AcDbLine
 10
177.8662927548
 20
126.410280963
 30
0.0
 11
173.3662927548
 21
126.410280963
 31
0.0
  0
LINE
  5
133
330
1F
100
AcDbEntity
  8
0
  6
HIDDEN
 62
     7
370
     0
100
AcDbLine
 10
185.3662927548
 20
126.410280963
 30
0.0
 11
182.4210703543
 21
126.410280963
 31
0.0
  0
SPLINE
  5
134
330
1F
100
AcDbEntity
  8
0
  6
HIDDEN
 62
     7
370
     0
100
AcDbSpline
210
0.0
220
0.0
230
1.0
 70
     8
 71
     3
 72
     8
 73
     4
 74
     0
 42
0.00000001
 43
0.00000001
 40
0.0000002426067713
 40
0.0000002426067713
 40
0.0000002426067713
 40
0.0000002426067713
 40
0.0011546267702572
 40
0.0011546267702572
 40
0.0011546267702572
 40
0.0011546267702572
 10
145.5162927548441
 20
133.2528346327459
 30
0.0
 10
145.8335049911921
 20
133.3707421116528
 30
0.0
 10
146.1501992325221
 20
133.4905277159901
 30
0.0
 10
146.466292754844
 20
133.6123752612897
 30
0.0
  0
SPLINE
  5
135
330
1F
100
AcDbEntity
  8
0
  6
HIDDEN
 62
     7
370
     0
100
AcDbSpline
210
0.0
220
0.0
230
1.0
 70
     8
 71
     3
 72
     8
 73
     4
 74
     0
 42
0.00000001
 43
0.00000001
 40
0.0000002434653511
 40
0.0000002434653511
 40
0.0000002434653511
 40
0.0000002434653511
 40
0.001154627628837
 40
0.001154627628837
 40
0.001154627628837
 40
0.001154627628837
 10
146.466292754844
 20
153.0081866647861
 30
0.0
 10
146.1501992325221
 20
153.1300342100858
 30
0.0
 10
145.8335049911921
 20
153.249819814423
 30
0.0
 10
145.5162927548441
 20
153.36772729333
 30
0.0
  0
LINE
  5
136
330
1F
100
AcDbEntity
  8
0
  6
HIDDEN
 62
     7
370
     0
100
AcDbLine
 10
185.366354878
 20
160.210280963
 30
0.0
 11
182.2079483691
 21
160.210280963
 31
0.0
  0
LINE
  5
137
330
1F
100
AcDbEntity
  8
0
  6
HIDDEN
 62
     7
370
     0
100
AcDbLine
 10
180.6246371406
 20
160.210280963
 30
0.0
 11
177.8662927548
 21
160.210280963
 31
0.0
  0
LINE
  5
138
330
1F
100
AcDbEntity
  8
0
  6
HIDDEN
 62
     7
370
     0
100
AcDbLine
 10
177.8662927548
 20
160.210280963
 30
0.0
 11
173.3662927548
 21
160.210280963
 31
0.0
  0
LINE
  5
139
330
1F
100
AcDbEntity
  8
0
  6
HIDDEN
 62
     7
370
     0
100
AcDbLine
 10
146.4662927548
 20
154.310280963
 30
0.0
 11
146.4662927548
 21
153.0081866648
 31
0.0
  0
LINE
  5
13A
330
1F
100
AcDbEntity
  8
0
  6
HIDDEN
 62
     7
370
     0
100
AcDbLine
 10
149.1162927548
 20
154.310280963
 30
0.0
 11
149.1162927548
 21
153.3344704565
 31
0.0
  0
LINE
  5
13B
330
1F
100
AcDbEntity
  8
0
  6
HIDDEN
 62
     7
370
     0
100
AcDbLine
 10
151.6162927548
 20
132.310280963
 30
0.0
 11
151.6162927548
 21
133.2678886186
 31
0.0
  0
LINE
  5
13C
330
1F
100
AcDbEntity
  8
0
  6
HIDDEN
 62
     7
370
     0
100
AcDbLine
 10
146.5684837525
 20
132.310280963
 30
0.0
 11
146.5684837525
 21
133.5880978749
 31
0.0
  0
LINE
  5
13D
330
1F
100
AcDbEntity
  8
0
  6
HIDDEN
 62
     7
370
     0
100
AcDbLine
 10
242.3419025714
 20
144.885280963
 30
0.0
 11
242.3419025714
 21
141.735280963
 31
0.0
  0
SPLINE
  5
13E
330
1F
100
AcDbEntity
  8
0
  6
HIDDEN
 62
     7
370
     0
100
AcDbSpline
210
0.0
220
0.0
230
1.0
 70
     8
 71
     3
 72
    10
 73
     6
 74
     0
 42
0.00000001
 43
0.00000001
 40
0.0
 40
0.0
 40
0.0
 40
0.0
 40
0.3400730362577959
 40
0.6293644246946748
 40
0.9999999999999999
 40
0.9999999999999999
 40
0.9999999999999999
 40
0.9999999999999999
 10
157.5006664998961
 20
129.1044562983026
 30
0.0
 10
157.6201513286409
 20
129.1189328936784
 30
0.0
 10
157.8412788291631
 20
129.1457243565373
 30
0.0
 10
158.3102547919234
 20
129.1823479055475
 30
0.0
 10
158.6732152325735
 20
129.1887577524426
 30
0.0
 10
158.877065141919
 20
129.1923577224727
 30
0.0
  0
SPLINE
  5
13F
330
1F
100
AcDbEntity
  8
0
  6
HIDDEN
 62
     7
370
     0
100
AcDbSpline
210
0.0
220
0.0
230
1.0
 70
     8
 71
     3
 72
    35
 73
    31
 74
     0
 42
0.00000001
 43
0.00000001
 40
0.0
 40
0.0
 40
0.0
 40
0.0
 40
0.0576506806195743
 40
0.1201821459988438
 40
0.1526329884558312
 40
0.1691573903000588
 40
0.1774945222220028
 40
0.1816818345284915
 40
0.1837801783610581
 40
0.1848305222957469
 40
0.1853559872776328
 40
0.1856187930233037
 40
0.1857502142099491
 40
0.1858159293817394
 40
0.1858487881122537
 40
0.1858652177636654
 40
0.1858734326609101
 40
0.1858775401274169
 40
0.1858795938651421
 40
0.1858816476058473
 40
0.2005661961714409
 40
0.3114329446193655
 40
0.4365448064066554
 40
0.5574747964188402
 40
0.6208438695663324
 40
0.686101868777974
 40
0.7283228085448018
 40
0.8112174656288217
 40
0.9358163245163127
 40
0.9999999999999999
 40
0.9999999999999999
 40
0.9999999999999999
 40
0.9999999999999999
 10
161.6763542248056
 20
128.7768676040116
 30
0.0
 10
161.6855983377351
 20
128.7743569775208
 30
0.0
 10
161.7048691827241
 20
128.7691231714977
 30
0.0
 10
161.5842103235229
 20
128.8033089384596
 30
0.0
 10
161.4750057260255
 20
128.8324648121184
 30
0.0
 10
161.4082822360457
 20
128.8500640092164
 30
0.0
 10
161.3723186389464
 20
128.8594851056953
 30
0.0
 10
161.3536364177251
 20
128.8643657252608
 30
0.0
 10
161.3441235375198
 20
128.8668475231555
 30
0.0
 10
161.339323724127
 20
128.8680989218101
 30
0.0
 10
161.3369129965635
 20
128.8687272391211
 30
0.0
 10
161.3357049236386
 20
128.8690420534362
 30
0.0
 10
161.3351002099998
 20
128.8691996244738
 30
0.0
 10
161.334797683847
 20
128.8692784509739
 30
0.0
 10
161.3346463784371
 20
128.8693178744699
 30
0.0
 10
161.3345707151482
 20
128.8693375887787
 30
0.0
 10
161.3345328808579
 20
128.8693474465744
 30
0.0
 10
161.3345139630511
 20
128.869352375631
 30
0.0
 10
161.3345031526832
 20
128.8693551922838
 30
0.0
 10
161.3151735892799
 20
128.8743915105386
 30
0.0
 10
161.1446021080826
 20
128.9205440360998
 30
0.0
 10
160.7063845709467
 20
129.0175067800819
 30
0.0
 10
159.9035549405908
 20
129.1499581980393
 30
0.0
 10
159.1386534695615
 20
129.1964069946314
 30
0.0
 10
158.5571848739837
 20
129.1947205710051
 30
0.0
 10
158.1898260392068
 20
129.1774207750455
 30
0.0
 10
157.8238369544686
 20
129.1434936408483
 30
0.0
 10
157.4286464047449
 20
129.0995655192338
 30
0.0
 10
157.1309619670792
 20
129.0459069634072
 30
0.0
 10
157.1486648650201
 20
129.0502071990123
 30
0.0
 10
157.1546836265562
 20
129.0516692247633
 30
0.0
  0
LINE
  5
140
330
1F
100
AcDbEntity
  8
0
  6
HIDDEN
 62
     7
370
     0
100
AcDbLine
 10
157.5006641239
 20
157.5160346015
 30
0.0
 11
157.2902111549
 21
157.5467070378
 31
0.0
  0
SPLINE
  5
141
330
1F
100
AcDbEntity
  8
0
  6
HIDDEN
 62
     7
370
     0
100
AcDbSpline
210
0.0
220
0.0
230
1.0
 70
     8
 71
     3
 72
    31
 73
    27
 74
     0
 42
0.00000001
 43
0.00000001
 40
0.0
 40
0.0
 40
0.0
 40
0.0
 40
0.0076949602571197
 40
0.0638461593351699
 40
0.0991876302184601
 40
0.1408354766467062
 40
0.1887924676633261
 40
0.2786216607952893
 40
0.2937976073164736
 40
0.3054761098312675
 40
0.3136569317670057
 40
0.3787807969557146
 40
0.4420413013416437
 40
0.5035455536577418
 40
0.5634101517728725
 40
0.5989638890599955
 40
0.6406804262516378
 40
0.6885668121781294
 40
0.7416431474603624
 40
0.7807396481439144
 40
0.7956364569580592
 40
0.8066886592763447
 40
0.8138959928808154
 40
0.8793877708901499
 40
0.9419153879119866
 40
0.9999999999999999
 40
0.9999999999999999
 40
0.9999999999999999
 40
0.9999999999999999
 10
157.1209169762964
 20
157.5747355640878
 30
0.0
 10
157.1193902052002
 20
157.5750385181422
 30
0.0
 10
157.1067223723045
 20
157.5775521702187
 30
0.0
 10
157.1477203355875
 20
157.5713410385454
 30
0.0
 10
157.2255782467651
 20
157.5569292094498
 30
0.0
 10
157.3378844608381
 20
157.5385543207804
 30
0.0
 10
157.5520672832585
 20
157.5072667180715
 30
0.0
 10
157.8035016769647
 20
157.4788734312095
 30
0.0
 10
158.0238533466448
 20
157.4587654911072
 30
0.0
 10
158.0922004071815
 20
157.452868291805
 30
0.0
 10
158.2616441726767
 20
157.4395292434679
 30
0.0
 10
158.5562769093481
 20
157.4258585258438
 30
0.0
 10
159.0002700712486
 20
157.4246516692937
 30
0.0
 10
159.4473774526459
 20
157.4425252376184
 30
0.0
 10
159.8253581261727
 20
157.4747181461331
 30
0.0
 10
160.143771526432
 20
157.515255305323
 30
0.0
 10
160.4226559517544
 20
157.5574737607602
 30
0.0
 10
160.719356424477
 20
157.6106958057913
 30
0.0
 10
160.9810270214421
 20
157.6644926129207
 30
0.0
 10
161.1556853872084
 20
157.7049539837481
 30
0.0
 10
161.2516890387959
 20
157.7292490961057
 30
0.0
 10
161.2980633821134
 20
157.741504254237
 30
0.0
 10
161.4107735919892
 20
157.7713950613731
 30
0.0
 10
161.5584429116523
 20
157.8096059367617
 30
0.0
 10
161.7037803972571
 20
157.8509194680699
 30
0.0
 10
161.6865796012038
 20
157.8461147177024
 30
0.0
 10
161.6782960169127
 20
157.8438008390573
 30
0.0
  0
LINE
  5
142
330
1F
100
AcDbEntity
  8
0
  6
HIDDEN
 62
     7
370
     0
100
AcDbLine
 10
157.7798106669
 20
157.4843798015
 30
0.0
 11
157.5006641239
 21
157.5160346015
 31
0.0
  0
LINE
  5
143
330
1F
100
AcDbEntity
  8
0
  6
HIDDEN
 62
     7
370
     0
100
AcDbLine
 10
215.5162927548
 20
142.319869581
 30
0.0
 11
215.5162927548
 21
140.810280963
 31
0.0
  0
LINE
  5
144
330
1F
100
AcDbEntity
  8
0
  6
HIDDEN
 62
     7
370
     0
100
AcDbLine
 10
215.5162927548
 20
144.3006923451
 30
0.0
 11
215.5162927548
 21
145.793403647
 31
0.0
  0
LINE
  5
145
330
1F
100
AcDbEntity
  8
0
  6
HIDDEN
 62
     7
370
     0
100
AcDbLine
 10
215.5162927548
 20
145.810280963
 30
0.0
 11
215.5162927548
 21
145.793403647
 31
0.0
  0
SPLINE
  5
146
330
1F
100
AcDbEntity
  8
0
  6
HIDDEN
 62
     7
370
     0
100
AcDbSpline
210
0.0
220
0.0
230
1.0
 70
     8
 71
     3
 72
    46
 73
    42
 74
     0
 42
0.00000001
 43
0.00000001
 40
0.0
 40
0.0
 40
0.0
 40
0.0
 40
0.1249999999999998
 40
0.1249999999999998
 40
0.1874999999999997
 40
0.1874999999999997
 40
0.2499999999999996
 40
0.2499999999999996
 40
0.2812499999999995
 40
0.2812499999999995
 40
0.3124999999999994
 40
0.3124999999999994
 40
0.3437499999999994
 40
0.3437499999999994
 40
0.3749999999999993
 40
0.3749999999999993
 40
0.4062499999999993
 40
0.4062499999999993
 40
0.4374999999999992
 40
0.4374999999999992
 40
0.4999999999999996
 40
0.4999999999999996
 40
0.5312499999999997
 40
0.5312499999999997
 40
0.5624999999999999
 40
0.5624999999999999
 40
0.59375
 40
0.59375
 40
0.6250000000000002
 40
0.6250000000000002
 40
0.6562500000000003
 40
0.6562500000000003
 40
0.6875000000000006
 40
0.6875000000000006
 40
0.7500000000000008
 40
0.7500000000000008
 40
0.812500000000001
 40
0.812500000000001
 40
0.8750000000000012
 40
0.8750000000000012
 40
1.0
 40
1.0
 40
1.0
 40
1.0
 10
215.5162927548442
 20
144.300692345097
 30
0.0
 10
215.0341102798261
 20
144.371327624786
 30
0.0
 10
214.5503059646116
 20
144.4256265645494
 30
0.0
 10
213.8185816273912
 20
144.45383100584
 30
0.0
 10
213.5738637211443
 20
144.4540296515296
 30
0.0
 10
213.0889239363809
 20
144.4195999737383
 30
0.0
 10
212.8446499975279
 20
144.3847213286414
 30
0.0
 10
212.4976922841713
 20
144.2800723932909
 30
0.0
 10
212.3855371950923
 20
144.2364532235101
 30
0.0
 10
212.1702391755397
 20
144.1254063905916
 30
0.0
 10
212.0697745954132
 20
144.0590057226973
 30
0.0
 10
211.8876053307064
 20
143.9057799546531
 30
0.0
 10
211.8045723909637
 20
143.8178481622034
 30
0.0
 10
211.6570720061238
 20
143.6240207881792
 30
0.0
 10
211.5939408842551
 20
143.5204408469965
 30
0.0
 10
211.4840764840771
 20
143.3024392891393
 30
0.0
 10
211.4373994663231
 20
143.1876250807847
 30
0.0
 10
211.3602455432846
 20
142.9575316521732
 30
0.0
 10
211.3291912721164
 20
142.8411880761725
 30
0.0
 10
211.2550227460876
 20
142.4897479962836
 30
0.0
 10
211.232466277113
 20
142.2629999448553
 30
0.0
 10
211.233519552218
 20
141.9451137626465
 30
0.0
 10
211.239846934401
 20
141.845045767516
 30
0.0
 10
211.264624528406
 20
141.6562210667856
 30
0.0
 10
211.2833140394873
 20
141.5667196630622
 30
0.0
 10
211.3339916602366
 20
141.4031361110908
 30
0.0
 10
211.3656481979495
 20
141.3295232910283
 30
0.0
 10
211.4440987153692
 20
141.19753922824
 30
0.0
 10
211.4915894789717
 20
141.1386352842514
 30
0.0
 10
211.6031019447408
 20
141.0390522021377
 30
0.0
 10
211.6668373683742
 20
140.9982034404213
 30
0.0
 10
211.8143551502397
 20
140.9313997586136
 30
0.0
 10
211.899522329497
 20
140.9053456851167
 30
0.0
 10
212.1772490380829
 20
140.8473559404265
 30
0.0
 10
212.3994543778213
 20
140.8327575853268
 30
0.0
 10
212.8623447965226
 20
140.8168066372231
 30
0.0
 10
213.1069028705493
 20
140.8151605361509
 30
0.0
 10
213.5909225605218
 20
140.8131286332268
 30
0.0
 10
213.8323077417683
 20
140.8132127386633
 30
0.0
 10
214.555491923451
 20
140.814917935054
 30
0.0
 10
215.0370301752685
 20
140.818288380897
 30
0.0
 10
215.5162927548444
 20
140.8271582790942
 30
0.0
  0
SPLINE
  5
147
330
1F
100
AcDbEntity
  8
0
  6
HIDDEN
 62
     7
370
     0
100
AcDbSpline
210
0.0
220
0.0
230
1.0
 70
     8
 71
     3
 72
    26
 73
    22
 74
     0
 42
0.00000001
 43
0.00000001
 40
0.0
 40
0.0
 40
0.0
 40
0.0
 40
0.1249999999999994
 40
0.1249999999999994
 40
0.2499999999999987
 40
0.2499999999999987
 40
0.3749999999999981
 40
0.3749999999999981
 40
0.4374999999999977
 40
0.4374999999999977
 40
0.4999999999999973
 40
0.4999999999999973
 40
0.562499999999997
 40
0.562499999999997
 40
0.6249999999999967
 40
0.6249999999999967
 40
0.7499999999999978
 40
0.7499999999999978
 40
0.874999999999999
 40
0.874999999999999
 40
1.0
 40
1.0
 40
1.0
 40
1.0
 10
215.516292754844
 20
144.300692345097
 30
0.0
 10
215.6200168869701
 20
144.3392295619655
 30
0.0
 10
215.727430191074
 20
144.3376042113446
 30
0.0
 10
215.9577003923032
 20
144.255305337295
 30
0.0
 10
216.0746564488215
 20
144.1765167631163
 30
0.0
 10
216.3136623362433
 20
143.9526694946497
 30
0.0
 10
216.4323244921719
 20
143.8123517922119
 30
0.0
 10
216.5947649370362
 20
143.5648321297653
 30
0.0
 10
216.6456140877116
 20
143.4771927484808
 30
0.0
 10
216.7260450549748
 20
143.2897406120019
 30
0.0
 10
216.7540604882062
 20
143.1904497173395
 30
0.0
 10
216.7538292691595
 20
142.9886031120458
 30
0.0
 10
216.7255532798124
 20
142.8915091396465
 30
0.0
 10
216.6447117525859
 20
142.70221232132
 30
0.0
 10
216.5939439582477
 20
142.6105041518138
 30
0.0
 10
216.4326186763301
 20
142.3305855090223
 30
0.0
 10
216.3121235412007
 20
142.1366040698427
 30
0.0
 10
216.0764176334658
 20
141.7453541015026
 30
0.0
 10
215.9566323051701
 20
141.5434500972173
 30
0.0
 10
215.7302235190452
 20
141.1660452031349
 30
0.0
 10
215.6199991263102
 20
140.9850830124099
 30
0.0
 10
215.516292754844
 20
140.8271582790945
 30
0.0
  0
LINE
  5
148
330
1F
100
AcDbEntity
  8
0
  6
HIDDEN
 62
     7
370
     0
100
AcDbLine
 10
240.4256194288
 20
144.885280963
 30
0.0
 11
240.4256194288
 21
141.735280963
 31
0.0
  0
CIRCLE
  5
149
330
1F
100
AcDbEntity
  8
0
  6
HIDDEN
 62
     7
370
     0
100
AcDbCircle
 10
213.4162927548
 20
163.310280963
 30
0.0
 40
5.25
  0
CIRCLE
  5
14A
330
1F
100
AcDbEntity
  8
0
  6
HIDDEN
 62
     7
370
     0
100
AcDbCircle
 10
235.4162927548
 20
163.310280963
 30
0.0
 40
5.25
  0
LINE
  5
14B
330
1F
100
AcDbEntity
  8
0
  6
HIDDEN
 62
     7
370
     0
100
AcDbLine
 10
203.7100207161
 20
153.310280963
 30
0.0
 11
200.4162927548
 21
153.310280963
 31
0.0
  0
LINE
  5
14C
330
1F
100
AcDbEntity
  8
0
  6
HIDDEN
 62
     7
370
     0
100
AcDbLine
 10
200.4162927548
 20
153.310280963
 30
0.0
 11
200.4162927548
 21
157.4275511723
 31
0.0
  0
SPLINE
  5
14D
330
1F
100
AcDbEntity
  8
0
  6
HIDDEN
 62
     7
370
     0
100
AcDbSpline
210
0.0
220
0.0
230
1.0
 70
     8
 71
     3
 72
     8
 73
     4
 74
     0
 42
0.00000001
 43
0.00000001
 40
0.0
 40
0.0
 40
0.0
 40
0.0
 40
1.0
 40
1.0
 40
1.0
 40
1.0
 10
199.616292754844
 20
158.2894297529152
 30
0.0
 10
199.8760410214746
 20
157.9984050156141
 30
0.0
 10
200.1420527894289
 20
157.7105940767797
 30
0.0
 10
200.4162927548441
 20
157.4275511723134
 30
0.0
  0
LINE
  5
14E
330
1F
100
AcDbEntity
  8
0
  6
HIDDEN
 62
     7
370
     0
100
AcDbLine
 10
200.4162927548
 20
153.310280963
 30
0.0
 11
196.4162927548
 21
153.310280963
 31
0.0
  0
CIRCLE
  5
14F
330
1F
100
AcDbEntity
  8
0
  6
HIDDEN
 62
     7
370
     0
100
AcDbCircle
 10
235.4162927548
 20
123.310280963
 30
0.0
 40
5.249999999999986
  0
CIRCLE
  5
150
330
1F
100
AcDbEntity
  8
0
  6
HIDDEN
 62
     7
370
     0
100
AcDbCircle
 10
213.4162927548
 20
123.310280963
 30
0.0
 40
5.249999999999986
  0
CIRCLE
  5
151
330
1F
100
AcDbEntity
  8
0
  6
HIDDEN
 62
     7
370
     0
100
AcDbCircle
 10
213.4162927548
 20
123.310280963
 30
0.0
 40
4.249999999999972
  0
CIRCLE
  5
152
330
1F
100
AcDbEntity
  8
0
  6
HIDDEN
 62
     7
370
     0
100
AcDbCircle
 10
235.4162927548
 20
123.310280963
 30
0.0
 40
4.249999999999972
  0
LINE
  5
153
330
1F
100
AcDbEntity
  8
0
  6
HIDDEN
 62
     7
370
     0
100
AcDbLine
 10
182.4562927548
 20
156.8261281433
 30
0.0
 11
182.4562927548
 21
155.160280963
 31
0.0
  0
LINE
  5
154
330
1F
100
AcDbEntity
  8
0
  6
HIDDEN
 62
     7
370
     0
100
AcDbLine
 10
180.3762927548
 20
156.8261281433
 30
0.0
 11
180.3762927548
 21
155.160280963
 31
0.0
  0
LINE
  5
155
330
1F
100
AcDbEntity
  8
0
  6
HIDDEN
 62
     7
370
     0
100
AcDbLine
 10
183.4514524537
 20
159.4216899641
 30
0.0
 11
183.4514524537
 21
155.160280963
 31
0.0
  0
LINE
  5
156
330
1F
100
AcDbEntity
  8
0
  6
HIDDEN
 62
     7
370
     0
100
AcDbLine
 10
237.4162927548
 20
143.310280963
 30
0.0
 11
237.4162927548
 21
131.310280963
 31
0.0
  0
SPLINE
  5
157
330
1F
100
AcDbEntity
  8
0
  6
HIDDEN
 62
     7
370
     0
100
AcDbSpline
210
0.0
220
0.0
230
1.0
 70
     8
 71
     3
 72
     8
 73
     4
 74
     0
 42
0.00000001
 43
0.00000001
 40
0.0
 40
0.0
 40
0.0
 40
0.0
 40
1.0
 40
1.0
 40
1.0
 40
1.0
 10
200.4162927548441
 20
153.5228868088393
 30
0.0
 10
200.1659320616953
 20
153.8800788952861
 30
0.0
 10
199.9000204858373
 20
154.2229944925444
 30
0.0
 10
199.616292754844
 20
154.5487806329449
 30
0.0
  0
CIRCLE
  5
158
330
1F
100
AcDbEntity
  8
0
  6
HIDDEN
 62
     7
370
     0
100
AcDbCircle
 10
172.4162927548
 20
143.310280963
 30
0.0
 40
5.0
  0
SPLINE
  5
159
330
1F
100
AcDbEntity
  8
0
  6
HIDDEN
 62
     7
370
     0
100
AcDbSpline
210
0.0
220
0.0
230
1.0
 70
     8
 71
     3
 72
    12
 73
     8
 74
     0
 42
0.00000001
 43
0.00000001
 40
0.0
 40
0.0
 40
0.0
 40
0.0
 40
0.25
 40
0.25
 40
0.5
 40
0.5
 40
1.0
 40
1.0
 40
1.0
 40
1.0
 10
201.9866571676522
 20
153.3102809630379
 30
0.0
 10
202.187854538192
 20
154.9892970232819
 30
0.0
 10
202.4290051271144
 20
156.664804934492
 30
0.0
 10
202.9675838363434
 20
160.0108792284108
 30
0.0
 10
203.265117632749
 20
161.6822578074823
 30
0.0
 10
204.2134180930572
 20
166.6824760775233
 30
0.0
 10
204.9181653079331
 20
170.0000295562961
 30
0.0
 10
205.6561766050263
 20
173.3102809630379
 30
0.0
  0
LINE
  5
15A
330
1F
100
AcDbEntity
  8
0
  6
HIDDEN
 62
     7
370
     0
100
AcDbLine
 10
206.713098777
 20
167.310280963
 30
0.0
 11
206.713098777
 21
172.8229900898
 31
0.0
  0
LINE
  5
15B
330
1F
100
AcDbEntity
  8
0
  6
HIDDEN
 62
     7
370
     0
100
AcDbLine
 10
206.713098777
 20
113.7975718363
 30
0.0
 11
245.4162927548
 21
113.7975718363
 31
0.0
  0
SPLINE
  5
15C
330
1F
100
AcDbEntity
  8
0
  6
HIDDEN
 62
     7
370
     0
100
AcDbSpline
210
0.0
220
0.0
230
1.0
 70
     8
 71
     3
 72
    10
 73
     6
 74
     0
 42
0.00000001
 43
0.00000001
 40
0.0
 40
0.0
 40
0.0
 40
0.0
 40
0.5
 40
0.5
 40
1.0
 40
1.0
 40
1.0
 40
1.0
 10
203.7100207161157
 20
133.3102809630379
 30
0.0
 10
204.014451133417
 20
130.0390375903195
 30
0.0
 10
204.4487892964518
 20
126.7800392941522
 30
0.0
 10
205.4785734603036
 20
120.2772286924256
 30
0.0
 10
206.0736941091813
 20
117.0318268774746
 30
0.0
 10
206.7130987769755
 20
113.7975718362905
 30
0.0
  0
SPLINE
  5
15D
330
1F
100
AcDbEntity
  8
0
  6
HIDDEN
 62
     7
370
     0
100
AcDbSpline
210
0.0
220
0.0
230
1.0
 70
     8
 71
     3
 72
     8
 73
     4
 74
     0
 42
0.00000001
 43
0.00000001
 40
0.0
 40
0.0
 40
0.0
 40
0.0
 40
1.0
 40
1.0
 40
1.0
 40
1.0
 10
204.6735417315141
 20
138.310280963038
 30
0.0
 10
204.3023321767852
 20
136.6484353550109
 30
0.0
 10
203.9745613719713
 20
134.9824043354689
 30
0.0
 10
203.7100207161157
 20
133.3102809630379
 30
0.0
  0
LINE
  5
15E
330
1F
100
AcDbEntity
  8
0
  6
HIDDEN
 62
     7
370
     0
100
AcDbLine
 10
204.6735417315
 20
138.310280963
 30
0.0
 11
245.4162927548
 21
138.310280963
 31
0.0
  0
LINE
  5
15F
330
1F
100
AcDbEntity
  8
0
  6
HIDDEN
 62
     7
370
     0
100
AcDbLine
 10
245.4162927548
 20
167.310280963
 30
0.0
 11
206.713098777
 21
167.310280963
 31
0.0
  0
SPLINE
  5
160
330
1F
100
AcDbEntity
  8
0
  6
HIDDEN
 62
     7
370
     0
100
AcDbSpline
210
0.0
220
0.0
230
1.0
 70
     8
 71
     3
 72
    13
 73
     9
 74
     0
 42
0.00000001
 43
0.00000001
 40
0.0
 40
0.0
 40
0.0
 40
0.0
 40
0.1802389514509631
 40
0.3605310216204924
 40
0.5410311062821115
 40
0.7216272802287084
 40
0.9033658957338252
 40
1.0
 40
1.0
 40
1.0
 40
1.0
 10
206.7130987769754
 20
167.3102809630379
 30
0.0
 10
206.5266876583804
 20
166.1181977837136
 30
0.0
 10
206.1538104834553
 20
163.7336801029427
 30
0.0
 10
205.6719161728364
 20
160.1438861956418
 30
0.0
 10
205.2583039217242
 20
156.543100262955
 30
0.0
 10
204.9352946698087
 20
152.9235233019029
 30
0.0
 10
204.7263685934161
 20
149.8574186749638
 30
0.0
 10
204.6704523888806
 20
147.9947073983568
 30
0.0
 10
204.6510416781483
 20
147.3480871552909
 30
0.0
  0
LINE
  5
161
330
1F
100
AcDbEntity
  8
0
  6
HIDDEN
 62
     7
370
     0
100
AcDbLine
 10
204.6513176908
 20
139.1535802372
 30
0.0
 11
204.6735417315
 21
138.310280963
 31
0.0
  0
ARC
  5
162
330
1F
100
AcDbEntity
  8
0
  6
HIDDEN
 62
     7
370
     0
100
AcDbCircle
 10
243.4162927548
 20
149.310280963
 30
0.0
 40
5.000000000000002
100
AcDbArc
 50
225.8945127504
 51
271.5219423349
  0
ARC
  5
163
330
1F
100
AcDbEntity
  8
0
  6
HIDDEN
 62
     7
370
     0
100
AcDbCircle
 10
243.4162927548
 20
149.310280963
 30
0.0
 40
5.000000000000021
100
AcDbArc
 50
66.4218215218
 51
137.1493719193
  0
ARC
  5
164
330
1F
100
AcDbEntity
  8
0
  6
HIDDEN
 62
     7
370
     0
100
AcDbCircle
 10
243.4162927548
 20
149.310280963
 30
0.0
 40
4.999999999999993
100
AcDbArc
 50
271.5219423349
 51
293.5781784782
  0
LINE
  5
165
330
1F
100
AcDbEntity
  8
0
  6
HIDDEN
 62
     7
370
     0
100
AcDbLine
 10
239.949540234
 20
145.7201990524
 30
0.0
 11
241.307991829
 21
147.1554812536
 31
0.0
  0
LINE
  5
166
330
1F
100
AcDbEntity
  8
0
  6
HIDDEN
 62
     7
370
     0
100
AcDbLine
 10
241.1965446744
 20
151.3500880718
 30
0.0
 11
239.7637949763
 21
152.711210416
 31
0.0
  0
LINE
  5
167
330
1F
100
AcDbEntity
  8
0
  6
HIDDEN
 62
     7
370
     0
100
AcDbLine
 10
247.1401035683
 20
151.9077717725
 30
0.0
 11
246.7519745412
 21
151.4976911436
 31
0.0
  0
LINE
  5
168
330
1F
100
AcDbEntity
  8
0
  6
HIDDEN
 62
     7
370
     0
100
AcDbLine
 10
246.8634216958
 20
147.3030843254
 30
0.0
 11
247.2727787524
 21
146.9141922271
 31
0.0
  0
LINE
  5
169
330
1F
100
AcDbEntity
  8
0
  6
HIDDEN
 62
     7
370
     0
100
AcDbLine
 10
241.3041377155
 20
147.1534217053
 30
0.0
 11
246.8673797354
 21
147.3012323394
 31
0.0
  0
LINE
  5
16A
330
1F
100
AcDbEntity
  8
0
  6
HIDDEN
 62
     7
370
     0
100
AcDbLine
 10
246.7558286547
 20
151.4997506919
 30
0.0
 11
241.1925866347
 21
151.3519400578
 31
0.0
  0
ARC
  5
16B
330
1F
100
AcDbEntity
  8
0
  6
HIDDEN
 62
     7
370
     0
100
AcDbCircle
 10
243.4162927548
 20
137.310280963
 30
0.0
 40
4.999999999999993
100
AcDbArc
 50
222.8506280807
 51
268.4780576651
  0
ARC
  5
16C
330
1F
100
AcDbEntity
  8
0
  6
HIDDEN
 62
     7
370
     0
100
AcDbCircle
 10
243.4162927548
 20
137.310280963
 30
0.0
 40
5.000000000000002
100
AcDbArc
 50
66.4218215218
 51
134.1054872496
  0
ARC
  5
16D
330
1F
100
AcDbEntity
  8
0
  6
HIDDEN
 62
     7
370
     0
100
AcDbCircle
 10
243.4162927548
 20
137.310280963
 30
0.0
 40
5.000000000000021
100
AcDbArc
 50
268.4780576651
 51
293.5781784782
  0
LINE
  5
16E
330
1F
100
AcDbEntity
  8
0
  6
HIDDEN
 62
     7
370
     0
100
AcDbLine
 10
239.7637949763
 20
133.9093515101
 30
0.0
 11
241.1965446744
 21
135.2704738543
 31
0.0
  0
LINE
  5
16F
330
1F
100
AcDbEntity
  8
0
  6
HIDDEN
 62
     7
370
     0
100
AcDbLine
 10
241.307991829
 20
139.4650806724
 30
0.0
 11
239.949540234
 21
140.9003628737
 31
0.0
  0
LINE
  5
170
330
1F
100
AcDbEntity
  8
0
  6
HIDDEN
 62
     7
370
     0
100
AcDbLine
 10
247.2727787524
 20
139.706369699
 30
0.0
 11
246.8634216958
 21
139.3174776007
 31
0.0
  0
LINE
  5
171
330
1F
100
AcDbEntity
  8
0
  6
HIDDEN
 62
     7
370
     0
100
AcDbLine
 10
246.7519745412
 20
135.1228707825
 30
0.0
 11
247.1401035683
 21
134.7127901536
 31
0.0
  0
LINE
  5
172
330
1F
100
AcDbEntity
  8
0
  6
HIDDEN
 62
     7
370
     0
100
AcDbLine
 10
241.1925866347
 20
135.2686218683
 30
0.0
 11
246.7558286547
 21
135.1208112342
 31
0.0
  0
LINE
  5
173
330
1F
100
AcDbEntity
  8
0
  6
HIDDEN
 62
     7
370
     0
100
AcDbLine
 10
246.8673797354
 20
139.3193295867
 30
0.0
 11
241.3041377155
 21
139.4671402208
 31
0.0
  0
LINE
  5
174
330
1F
100
AcDbEntity
  8
0
  6
HIDDEN
 62
     7
370
     0
100
AcDbLine
 10
237.4162927548
 20
131.310280963
 30
0.0
 11
245.4162927548
 21
131.310280963
 31
0.0
  0
ARC
  5
175
330
1F
100
AcDbEntity
  8
0
  6
HIDDEN
 62
     7
370
     0
100
AcDbCircle
 10
243.4162927548
 20
137.310280963
 30
0.0
 40
5.0
100
AcDbArc
 50
224.4270040008
 51
270.0
  0
ARC
  5
176
330
1F
100
AcDbEntity
  8
0
  6
HIDDEN
 62
     7
370
     0
100
AcDbCircle
 10
243.4162927548
 20
137.310280963
 30
0.0
 40
4.999999999999996
100
AcDbArc
 50
66.4218215218
 51
135.5729959992
  0
ARC
  5
177
330
1F
100
AcDbEntity
  8
0
  6
HIDDEN
 62
     7
370
     0
100
AcDbCircle
 10
243.4162927548
 20
137.310280963
 30
0.0
 40
5.0
100
AcDbArc
 50
270.0
 51
293.5781784782
  0
LINE
  5
178
330
1F
100
AcDbEntity
  8
0
  6
HIDDEN
 62
     7
370
     0
100
AcDbLine
 10
237.4162927548
 20
133.810280963
 30
0.0
 11
239.8455785406
 21
133.810280963
 31
0.0
  0
LINE
  5
179
330
1F
100
AcDbEntity
  8
0
  6
HIDDEN
 62
     7
370
     0
100
AcDbLine
 10
239.8455785406
 20
140.810280963
 30
0.0
 11
237.4162927548
 21
140.810280963
 31
0.0
  0
LINE
  5
17A
330
1F
100
AcDbEntity
  8
0
  6
HIDDEN
 62
     7
370
     0
100
AcDbLine
 10
237.4162927548
 20
143.310280963
 30
0.0
 11
245.4162927548
 21
143.310280963
 31
0.0
  0
LINE
  5
17B
330
1F
100
AcDbEntity
  8
0
  6
HIDDEN
 62
     7
370
     0
100
AcDbLine
 10
245.4162927548
 20
155.310280963
 30
0.0
 11
237.4162927548
 21
155.310280963
 31
0.0
  0
ARC
  5
17C
330
1F
100
AcDbEntity
  8
0
  6
HIDDEN
 62
     7
370
     0
100
AcDbCircle
 10
243.4162927548
 20
149.310280963
 30
0.0
 40
5.0
100
AcDbArc
 50
224.4270040008
 51
270.0
  0
ARC
  5
17D
330
1F
100
AcDbEntity
  8
0
  6
HIDDEN
 62
     7
370
     0
100
AcDbCircle
 10
243.4162927548
 20
149.310280963
 30
0.0
 40
5.000000000000021
100
AcDbArc
 50
66.4218215218
 51
135.5729959992
  0
ARC
  5
17E
330
1F
100
AcDbEntity
  8
0
  6
HIDDEN
 62
     7
370
     0
100
AcDbCircle
 10
243.4162927548
 20
149.310280963
 30
0.0
 40
5.0
100
AcDbArc
 50
270.0
 51
293.5781784782
  0
LINE
  5
17F
330
1F
100
AcDbEntity
  8
0
  6
HIDDEN
 62
     7
370
     0
100
AcDbLine
 10
237.4162927548
 20
145.810280963
 30
0.0
 11
239.8455785406
 21
145.810280963
 31
0.0
  0
LINE
  5
180
330
1F
100
AcDbEntity
  8
0
  6
HIDDEN
 62
     7
370
     0
100
AcDbLine
 10
239.8455785406
 20
152.810280963
 30
0.0
 11
237.4162927548
 21
152.810280963
 31
0.0
  0
LINE
  5
181
330
1F
100
AcDbEntity
  8
0
  6
HIDDEN
 62
     7
370
     0
100
AcDbLine
 10
245.4162927548
 20
155.310280963
 30
0.0
 11
237.4162927548
 21
155.310280963
 31
0.0
  0
LINE
  5
182
330
1F
100
AcDbEntity
  8
0
  6
HIDDEN
 62
     7
370
     0
100
AcDbLine
 10
237.4162927548
 20
143.310280963
 30
0.0
 11
245.4162927548
 21
143.310280963
 31
0.0
  0
LINE
  5
183
330
1F
100
AcDbEntity
  8
0
  6
HIDDEN
 62
     7
370
     0
100
AcDbLine
 10
165.4162927548
 20
127.103080278
 30
0.0
 11
165.5104535304
 21
127.7730690092
 31
0.0
  0
LINE
  5
184
330
1F
100
AcDbEntity
  8
0
  6
HIDDEN
 62
     7
370
     0
100
AcDbLine
 10
165.5104535304
 20
158.8474929169
 30
0.0
 11
165.4162927548
 21
159.5174816481
 31
0.0
  0
ARC
  5
185
330
1F
100
AcDbEntity
  8
0
  6
HIDDEN
 62
     7
370
     0
100
AcDbCircle
 10
164.9162860022
 20
127.8565738096
 30
0.0
 40
0.6000067526677062
100
AcDbArc
 50
352.0
 51
0.0
  0
ARC
  5
186
330
1F
100
AcDbEntity
  8
0
  6
HIDDEN
 62
     7
370
     0
100
AcDbCircle
 10
164.9162860022
 20
127.8565738096
 30
0.0
 40
0.6000067526676958
100
AcDbArc
 50
0.0
 51
33.5571153394
  0
ARC
  5
187
330
1F
100
AcDbEntity
  8
0
  6
HIDDEN
 62
     7
370
     0
100
AcDbCircle
 10
164.9162860022
 20
158.7639881165
 30
0.0
 40
0.6000067526677042
100
AcDbArc
 50
348.75
 51
8.0
  0
LWPOLYLINE
  5
188
330
1F
100
AcDbEntity
  8
0
  6
HIDDEN
 62
     7
370
     0
100
AcDbPolyline
 90
        3
 70
   128
 43
0.0
 10
165.5047637933
 20
158.6469326059
 10
165.4706199603
 20
158.534375473
 10
165.4162927548
 20
158.4323236015
  0
LINE
  5
189
330
1F
100
AcDbEntity
  8
0
  6
HIDDEN
 62
     7
370
     0
100
AcDbLine
 10
165.5162927548
 20
127.8565738096
 30
0.0
 11
165.5162927548
 21
158.7639881165
 31
0.0
  0
LINE
  5
18A
330
1F
100
AcDbEntity
  8
0
  6
HIDDEN
 62
     7
370
     0
100
AcDbLine
 10
215.7794772283
 20
142.3054035696
 30
0.0
 11
237.4162927548
 21
147.3501099586
 31
0.0
  0
LINE
  5
18B
330
1F
100
AcDbEntity
  8
0
  6
HIDDEN
 62
     7
370
     0
100
AcDbLine
 10
237.4162927548
 20
151.6627568129
 30
0.0
 11
211.9602464032
 21
145.7275821328
 31
0.0
  0
LINE
  5
18C
330
1F
100
AcDbEntity
  8
0
  6
HIDDEN
 62
     7
370
     0
100
AcDbLine
 10
154.948920699
 20
130.560280963
 30
0.0
 11
157.1213169227
 21
130.560280963
 31
0.0
  0
LINE
  5
18D
330
1F
100
AcDbEntity
  8
0
  6
HIDDEN
 62
     7
370
     0
100
AcDbLine
 10
157.1230767779
 20
156.060280963
 30
0.0
 11
154.948920699
 21
156.060280963
 31
0.0
  0
ARC
  5
18E
330
1F
100
AcDbEntity
  8
0
  6
HIDDEN
 62
     7
370
     0
100
AcDbCircle
 10
154.948920699
 20
130.960280963
 30
0.0
 40
0.4000000000000069
100
AcDbArc
 50
210.0
 51
270.0
  0
ARC
  5
18F
330
1F
100
AcDbEntity
  8
0
  6
HIDDEN
 62
     7
370
     0
100
AcDbCircle
 10
154.948920699
 20
155.660280963
 30
0.0
 40
0.4000000000000069
100
AcDbArc
 50
90.0
 51
150.0
  0
ARC
  5
190
330
1F
100
AcDbEntity
  8
0
  6
HIDDEN
 62
     7
370
     0
100
AcDbCircle
 10
161.2404694827
 20
135.560280963
 30
0.0
 40
4.999999999999995
100
AcDbArc
 50
275.438919899
 51
326.6329870308
  0
ARC
  5
191
330
1F
100
AcDbEntity
  8
0
  6
HIDDEN
 62
     7
370
     0
100
AcDbCircle
 10
161.2404694827
 20
151.060280963
 30
0.0
 40
5.00000000000001
100
AcDbArc
 50
33.3670129692
 51
84.5512203899
  0
LINE
  5
192
330
1F
100
AcDbEntity
  8
0
  6
HIDDEN
 62
     7
370
     0
100
AcDbLine
 10
154.6025105375
 20
155.860280963
 30
0.0
 11
153.4189424857
 21
153.810280963
 31
0.0
  0
LINE
  5
193
330
1F
100
AcDbEntity
  8
0
  6
HIDDEN
 62
     7
370
     0
100
AcDbLine
 10
153.4189424857
 20
132.810280963
 30
0.0
 11
154.6025105375
 21
130.760280963
 31
0.0
  0
ARC
  5
194
330
1F
100
AcDbEntity
  8
0
  6
HIDDEN
 62
     7
370
     0
100
AcDbCircle
 10
172.3662927548
 20
133.435280963
 30
0.0
 40
1.0
100
AcDbArc
 50
218.6821874535
 51
0.0
  0
ARC
  5
195
330
1F
100
AcDbEntity
  8
0
  6
HIDDEN
 62
     7
370
     0
100
AcDbCircle
 10
172.3662927548
 20
153.185280963
 30
0.0
 40
1.00000000000001
100
AcDbArc
 50
0.0
 51
141.3178125465
  0
LINE
  5
196
330
1F
100
AcDbEntity
  8
0
  6
HIDDEN
 62
     7
370
     0
100
AcDbLine
 10
151.6162927548
 20
132.810280963
 30
0.0
 11
153.4189424857
 21
132.810280963
 31
0.0
  0
LINE
  5
197
330
1F
100
AcDbEntity
  8
0
  6
HIDDEN
 62
     7
370
     0
100
AcDbLine
 10
153.4189424857
 20
153.810280963
 30
0.0
 11
149.1162927548
 21
153.810280963
 31
0.0
  0
LINE
  5
198
330
1F
100
AcDbEntity
  8
0
  6
HIDDEN
 62
     7
370
     0
100
AcDbLine
 10
165.4162927548
 20
132.810280963
 30
0.0
 11
171.585668005
 21
132.810280963
 31
0.0
  0
LINE
  5
199
330
1F
100
AcDbEntity
  8
0
  6
HIDDEN
 62
     7
370
     0
100
AcDbLine
 10
171.585668005
 20
153.810280963
 30
0.0
 11
165.4162927548
 21
153.810280963
 31
0.0
  0
LINE
  5
19A
330
1F
100
AcDbEntity
  8
0
  6
HIDDEN
 62
     7
370
     0
100
AcDbLine
 10
196.4162927548
 20
133.310280963
 30
0.0
 11
196.4162927548
 21
127.0861927804
 31
0.0
  0
LINE
  5
19B
330
1F
100
AcDbEntity
  8
0
  6
HIDDEN
 62
     7
370
     0
100
AcDbLine
 10
178.7162927548
 20
137.060280963
 30
0.0
 11
181.2162927548
 21
137.060280963
 31
0.0
  0
LINE
  5
19C
330
1F
100
AcDbEntity
  8
0
  6
HIDDEN
 62
     7
370
     0
100
AcDbLine
 10
181.2162927548
 20
149.560280963
 30
0.0
 11
178.7162927548
 21
149.560280963
 31
0.0
  0
LINE
  5
19D
330
1F
100
AcDbEntity
  8
0
  6
HIDDEN
 62
     7
370
     0
100
AcDbLine
 10
173.3662927548
 20
137.310280963
 30
0.0
 11
173.8662927548
 21
137.810280963
 31
0.0
  0
LINE
  5
19E
330
1F
100
AcDbEntity
  8
0
  6
HIDDEN
 62
     7
370
     0
100
AcDbLine
 10
173.8662927548
 20
148.810280963
 30
0.0
 11
173.3662927548
 21
149.310280963
 31
0.0
  0
LINE
  5
19F
330
1F
100
AcDbEntity
  8
0
  6
HIDDEN
 62
     7
370
     0
100
AcDbLine
 10
173.8662927548
 20
137.810280963
 30
0.0
 11
178.7162927548
 21
137.810280963
 31
0.0
  0
LINE
  5
1A0
330
1F
100
AcDbEntity
  8
0
  6
HIDDEN
 62
     7
370
     0
100
AcDbLine
 10
178.7162927548
 20
148.810280963
 30
0.0
 11
173.8662927548
 21
148.810280963
 31
0.0
  0
LINE
  5
1A1
330
1F
100
AcDbEntity
  8
0
  6
HIDDEN
 62
     7
370
     0
100
AcDbLine
 10
173.3662927548
 20
163.310280963
 30
0.0
 11
173.3662927548
 21
160.210280963
 31
0.0
  0
LINE
  5
1A2
330
1F
100
AcDbEntity
  8
0
  6
HIDDEN
 62
     7
370
     0
100
AcDbLine
 10
245.4162927548
 20
146.660280963
 30
0.0
 11
242.3419025714
 21
144.885280963
 31
0.0
  0
LINE
  5
1A3
330
1F
100
AcDbEntity
  8
0
  6
HIDDEN
 62
     7
370
     0
100
AcDbLine
 10
242.3419025714
 20
141.735280963
 30
0.0
 11
245.4162927548
 21
139.960280963
 31
0.0
  0
LINE
  5
1A4
330
1F
100
AcDbEntity
  8
0
  6
HIDDEN
 62
     7
370
     0
100
AcDbLine
 10
162.1834719993
 20
128.2689763496
 30
0.0
 11
161.7155434111
 21
128.7648128305
 31
0.0
  0
LINE
  5
1A5
330
1F
100
AcDbEntity
  8
0
  6
HIDDEN
 62
     7
370
     0
100
AcDbLine
 10
157.117638396
 20
129.0446665442
 30
0.0
 11
156.6001646801
 21
128.5488412314
 31
0.0
  0
LINE
  5
1A6
330
1F
100
AcDbEntity
  8
0
  6
HIDDEN
 62
     7
370
     0
100
AcDbLine
 10
156.5995304482
 20
158.071770636
 30
0.0
 11
157.1172166962
 21
157.5758835894
 31
0.0
  0
LINE
  5
1A7
330
1F
100
AcDbEntity
  8
0
  6
HIDDEN
 62
     7
370
     0
100
AcDbLine
 10
161.7148575312
 20
157.8555311225
 30
0.0
 11
162.1827614274
 21
158.3514249952
 31
0.0
  0
LINE
  5
1A8
330
1F
100
AcDbEntity
  8
0
  6
HIDDEN
 62
     7
370
     0
100
AcDbLine
 10
181.2162927548
 20
140.810280963
 30
0.0
 11
215.5162927548
 21
140.810280963
 31
0.0
  0
LINE
  5
1A9
330
1F
100
AcDbEntity
  8
0
  6
HIDDEN
 62
     7
370
     0
100
AcDbLine
 10
215.5162927548
 20
145.810280963
 30
0.0
 11
181.2162927548
 21
145.810280963
 31
0.0
  0
LINE
  5
1AA
330
1F
100
AcDbEntity
  8
0
  6
HIDDEN
 62
     7
370
     0
100
AcDbLine
 10
216.4332292166
 20
142.336319503
 30
0.0
 11
217.0184443024
 21
143.310280963
 31
0.0
  0
LINE
  5
1AB
330
1F
100
AcDbEntity
  8
0
  6
HIDDEN
 62
     7
370
     0
100
AcDbLine
 10
215.5162927548
 20
140.810280963
 30
0.0
 11
215.8289076903
 21
141.3305595861
 31
0.0
  0
LINE
  5
1AC
330
1F
100
AcDbEntity
  8
0
  6
HIDDEN
 62
     7
370
     0
100
AcDbLine
 10
215.8289076903
 20
145.29000234
 30
0.0
 11
215.5162927548
 21
145.810280963
 31
0.0
  0
LINE
  5
1AD
330
1F
100
AcDbEntity
  8
0
  6
HIDDEN
 62
     7
370
     0
100
AcDbLine
 10
217.0184443024
 20
143.310280963
 30
0.0
 11
216.4332292166
 21
144.2842424231
 31
0.0
  0
LINE
  5
1AE
330
1F
100
AcDbEntity
  8
0
  6
HIDDEN
 62
     7
370
     0
100
AcDbLine
 10
161.7162927548
 20
128.776868313
 30
0.0
 11
161.7162927548
 21
130.5830684777
 31
0.0
  0
LINE
  5
1AF
330
1F
100
AcDbEntity
  8
0
  6
HIDDEN
 62
     7
370
     0
100
AcDbLine
 10
157.1162927548
 20
130.5611819796
 30
0.0
 11
157.1162927548
 21
129.0516729515
 31
0.0
  0
LINE
  5
1B0
330
1F
100
AcDbEntity
  8
0
  6
HIDDEN
 62
     7
370
     0
100
AcDbLine
 10
161.7162927548
 20
156.0374934484
 30
0.0
 11
161.7162927548
 21
157.843801541
 31
0.0
  0
LINE
  5
1B1
330
1F
100
AcDbEntity
  8
0
  6
HIDDEN
 62
     7
370
     0
100
AcDbLine
 10
157.1162927548
 20
157.5747782316
 30
0.0
 11
157.1162927548
 21
156.0590615308
 31
0.0
  0
LINE
  5
1B2
330
1F
100
AcDbEntity
  8
0
  6
HIDDEN
 62
     7
370
     0
100
AcDbLine
 10
242.3419025714
 20
144.885280963
 30
0.0
 11
240.4256194288
 21
144.885280963
 31
0.0
  0
LINE
  5
1B3
330
1F
100
AcDbEntity
  8
0
  6
HIDDEN
 62
     7
370
     0
100
AcDbLine
 10
240.4256194288
 20
141.735280963
 30
0.0
 11
242.3419025714
 21
141.735280963
 31
0.0
  0
LINE
  5
1B4
330
1F
100
AcDbEntity
  8
0
  6
HIDDEN
 62
     7
370
     0
100
AcDbLine
 10
240.4256194288
 20
144.885280963
 30
0.0
 11
239.5162927548
 21
143.310280963
 31
0.0
  0
LINE
  5
1B5
330
1F
100
AcDbEntity
  8
0
  6
HIDDEN
 62
     7
370
     0
100
AcDbLine
 10
239.5162927548
 20
143.310280963
 30
0.0
 11
240.4256194288
 21
141.735280963
 31
0.0
  0
LINE
  5
1B6
330
1F
100
AcDbEntity
  8
0
  6
HIDDEN
 62
     7
370
     0
100
AcDbLine
 10
196.4162927548
 20
159.5347363155
 30
0.0
 11
196.4162927548
 21
153.310280963
 31
0.0
  0
LINE
  5
1B7
330
1F
100
AcDbEntity
  8
0
  6
HIDDEN
 62
     7
370
     0
100
AcDbLine
 10
211.9602464032
 20
140.8929797933
 30
0.0
 11
237.4162927548
 21
134.9578051132
 31
0.0
  0
LINE
  5
1B8
330
1F
100
AcDbEntity
  8
0
  6
HIDDEN
 62
     7
370
     0
100
AcDbLine
 10
237.4162927548
 20
139.2704519674
 30
0.0
 11
215.7794772283
 21
144.3151583565
 31
0.0
  0
LINE
  5
1B9
330
1F
100
AcDbEntity
  8
0
  6
HIDDEN
 62
     7
370
     0
100
AcDbLine
 10
237.4162927548
 20
131.310280963
 30
0.0
 11
245.4162927548
 21
131.310280963
 31
0.0
  0
DIMENSION
  5
1BA
330
1F
100
AcDbEntity
  8
VERMASSUNG
100
AcDbDimension
  2
*D1
 10
141.952706288
 20
123.310280963
 30
0.0
 11
141.952706288
 21
143.310280963
 31
0.0
 70
   160
  1
HSK T %%c<>
 71
     2
 42
-1.0
  3
SLDDIMSTYLE0
100
AcDbAlignedDimension
 13
165.7162927548
 23
163.310280963
 33
0.0
 14
165.7162927548
 24
123.310280963
 34
0.0
 50
90.0
100
AcDbRotatedDimension
  0
DIMENSION
  5
1C7
330
1F
100
AcDbEntity
  8
VERMASSUNG
100
AcDbDimension
  2
*D2
 10
245.4162927548
 20
179.7887192087
 30
0.0
 11
205.4162927548
 21
179.7887192087
 31
0.0
 70
   160
 71
     2
 42
-1.0
  3
SLDDIMSTYLE0
100
AcDbAlignedDimension
 13
165.4162927548
 23
163.010280963
 33
0.0
 14
245.4162927548
 24
173.310280963
 34
0.0
100
AcDbRotatedDimension
  0
DIMENSION
  5
1D1
330
1F
100
AcDbEntity
  8
VERMASSUNG
100
AcDbDimension
  2
*D3
 10
245.4162927548
 20
185.7887192087
 30
0.0
 11
195.4662927548
 21
185.7887192087
 31
0.0
 70
   160
 71
     2
 42
-1.0
  3
SLDDIMSTYLE0
100
AcDbAlignedDimension
 13
145.5162927548
 23
155.5792201963
 33
0.0
 14
245.4162927548
 24
173.310280963
 34
0.0
100
AcDbRotatedDimension
  0
LINE
  5
1DB
330
1F
100
AcDbEntity
  8
VERMASSUNG
  6
CENTERX2
370
     0
100
AcDbLine
 10
143.4344844146
 20
143.310280963
 30
0.0
 11
250.3414842152
 21
143.310280963
 31
0.0
  0
LINE
  5
1DC
330
1F
100
AcDbEntity
  8
0
  6
Continuous
 62
     7
370
    15
100
AcDbLine
 10
68.4426526111
 20
158.8102807097
 30
0.0
 11
69.4426526586
 21
159.8102808736
 31
0.0
  0
LINE
  5
1DD
330
1F
100
AcDbEntity
  8
0
  6
Continuous
 62
     7
370
    15
100
AcDbLine
 10
69.4426526586
 20
166.8102801584
 30
0.0
 11
68.4426526111
 21
167.8102803223
 31
0.0
  0
LINE
  5
1DE
330
1F
100
AcDbEntity
  8
0
  6
Continuous
 62
     7
370
    15
100
AcDbLine
 10
70.4426527061
 20
127.8102812164
 30
0.0
 11
69.4426526586
 21
126.8102810524
 31
0.0
  0
LINE
  5
1DF
330
1F
100
AcDbEntity
  8
0
  6
Continuous
 62
     7
370
    15
100
AcDbLine
 10
69.4426526586
 20
119.8102817677
 30
0.0
 11
70.4426527061
 21
118.8102816038
 31
0.0
  0
CIRCLE
  5
1E0
330
1F
100
AcDbEntity
  8
0
  6
Continuous
 62
     7
370
    15
100
AcDbCircle
 10
57.2747917699
 20
149.4106093756
 30
0.0
 40
3.248359764470245
  0
CIRCLE
  5
1E1
330
1F
100
AcDbEntity
  8
0
  6
Continuous
 62
     7
370
    15
100
AcDbCircle
 10
57.2756957634
 20
149.4108292158
 30
0.0
 40
2.498847040076645
  0
CIRCLE
  5
1E2
330
1F
100
AcDbEntity
  8
0
  6
Continuous
 62
     7
370
    15
100
AcDbCircle
 10
57.2935024237
 20
149.4001823883
 30
0.0
 40
2.098940401850603
  0
ARC
  5
1E3
330
1F
100
AcDbEntity
  8
0
  6
Continuous
 62
     7
370
    15
100
AcDbCircle
 10
57.5382418032
 20
149.2514519839
 30
0.0
 40
2.100146548921798
100
AcDbArc
 50
62.3041336342
 51
234.4763337409
  0
CIRCLE
  5
1E4
330
1F
100
AcDbEntity
  8
0
  6
Continuous
 62
     7
370
    15
100
AcDbCircle
 10
81.6105135473
 20
137.2099525505
 30
0.0
 40
3.248359764470276
  0
CIRCLE
  5
1E5
330
1F
100
AcDbEntity
  8
0
  6
Continuous
 62
     7
370
    15
100
AcDbCircle
 10
81.6096095538
 20
137.2097327103
 30
0.0
 40
2.498847040076639
  0
CIRCLE
  5
1E6
330
1F
100
AcDbEntity
  8
0
  6
Continuous
 62
     7
370
    15
100
AcDbCircle
 10
81.5918028935
 20
137.2203795378
 30
0.0
 40
2.09894040185063
  0
ARC
  5
1E7
330
1F
100
AcDbEntity
  8
0
  6
Continuous
 62
     7
370
    15
100
AcDbCircle
 10
81.347063514
 20
137.3691099422
 30
0.0
 40
2.100146548921793
100
AcDbArc
 50
242.3041336342
 51
54.4763337409
  0
CIRCLE
  5
1E8
330
1F
100
AcDbEntity
  8
0
  6
Continuous
 62
     7
370
    15
100
AcDbCircle
 10
81.4426526586
 20
137.310280963
 30
0.0
 40
4.582575694955835
  0
CIRCLE
  5
1E9
330
1F
100
AcDbEntity
  8
0
  6
Continuous
 62
     7
370
    15
100
AcDbCircle
 10
81.4426526586
 20
137.310280963
 30
0.0
 40
6.0
  0
CIRCLE
  5
1EA
330
1F
100
AcDbEntity
  8
0
  6
Continuous
 62
     7
370
    15
100
AcDbCircle
 10
57.4426526586
 20
149.310280963
 30
0.0
 40
4.582575694955835
  0
CIRCLE
  5
1EB
330
1F
100
AcDbEntity
  8
0
  6
Continuous
 62
     7
370
    15
100
AcDbCircle
 10
57.4426526586
 20
149.310280963
 30
0.0
 40
6.0
  0
LINE
  5
1EC
330
1F
100
AcDbEntity
  8
0
  6
Continuous
 62
     7
370
    15
100
AcDbLine
 10
69.4426526586
 20
159.8102808736
 30
0.0
 11
69.4426526586
 21
166.8102801584
 31
0.0
  0
LINE
  5
1ED
330
1F
100
AcDbEntity
  8
0
  6
Continuous
 62
     7
370
    15
100
AcDbLine
 10
69.4426526586
 20
126.8102810524
 30
0.0
 11
69.4426526586
 21
119.8102817677
 31
0.0
  0
LINE
  5
1EE
330
1F
100
AcDbEntity
  8
0
  6
Continuous
 62
     7
370
    15
100
AcDbLine
 10
49.4426531056
 20
133.3102811866
 30
0.0
 11
49.4426531056
 21
113.3102816336
 31
0.0
  0
LINE
  5
1EF
330
1F
100
AcDbEntity
  8
0
  6
Continuous
 62
     7
370
    15
100
AcDbLine
 10
42.9851399074
 20
113.3102816336
 30
0.0
 11
49.4426531056
 21
113.3102816336
 31
0.0
  0
ARC
  5
1F0
330
1F
100
AcDbEntity
  8
0
  6
Continuous
 62
     7
370
    15
100
AcDbCircle
 10
69.4426526586
 20
143.310280963
 30
0.0
 40
40.0
100
AcDbArc
 50
216.8698976458
 51
228.5903778907
  0
LINE
  5
1F1
330
1F
100
AcDbEntity
  8
0
  6
Continuous
 62
     7
370
    15
100
AcDbLine
 10
37.4426511387
 20
148.3102808513
 30
0.0
 11
37.4426511387
 21
119.3102807544
 31
0.0
  0
LINE
  5
1F2
330
1F
100
AcDbEntity
  8
0
  6
Continuous
 62
     7
370
    15
100
AcDbLine
 10
42.4426519582
 20
153.3102807395
 30
0.0
 11
37.4426511387
 21
148.3102808513
 31
0.0
  0
LINE
  5
1F3
330
1F
100
AcDbEntity
  8
0
  6
Continuous
 62
     7
370
    15
100
AcDbLine
 10
42.4426519582
 20
172.8229899697
 30
0.0
 11
42.4426519582
 21
153.3102807395
 31
0.0
  0
ARC
  5
1F4
330
1F
100
AcDbEntity
  8
0
  6
Continuous
 62
     7
370
    15
100
AcDbCircle
 10
69.4426526586
 20
143.310280963
 30
0.0
 40
40.00000000000001
100
AcDbArc
 50
131.4096221093
 51
132.4541502044
  0
LINE
  5
1F5
330
1F
100
AcDbEntity
  8
0
  6
Continuous
 62
     7
370
    15
100
AcDbLine
 10
68.4426526111
 20
173.3102802925
 30
0.0
 11
42.9851399074
 21
173.3102802925
 31
0.0
  0
LINE
  5
1F6
330
1F
100
AcDbEntity
  8
0
  6
Continuous
 62
     7
370
    15
100
AcDbLine
 10
68.4426526111
 20
153.3102807395
 30
0.0
 11
68.4426526111
 21
173.3102802925
 31
0.0
  0
LINE
  5
1F7
330
1F
100
AcDbEntity
  8
0
  6
Continuous
 62
     7
370
    15
100
AcDbLine
 10
89.4426522116
 20
153.3102807395
 30
0.0
 11
68.4426526111
 21
153.3102807395
 31
0.0
  0
LINE
  5
1F8
330
1F
100
AcDbEntity
  8
0
  6
Continuous
 62
     7
370
    15
100
AcDbLine
 10
89.4426522116
 20
153.3102807395
 30
0.0
 11
89.4426522116
 21
173.3102802925
 31
0.0
  0
LINE
  5
1F9
330
1F
100
AcDbEntity
  8
0
  6
Continuous
 62
     7
370
    15
100
AcDbLine
 10
95.9001654098
 20
173.3102802925
 30
0.0
 11
89.4426522116
 21
173.3102802925
 31
0.0
  0
ARC
  5
1FA
330
1F
100
AcDbEntity
  8
0
  6
Continuous
 62
     7
370
    15
100
AcDbCircle
 10
69.4426526586
 20
143.310280963
 30
0.0
 40
40.00000000000003
100
AcDbArc
 50
36.8698976458
 51
48.5903778907
  0
LINE
  5
1FB
330
1F
100
AcDbEntity
  8
0
  6
Continuous
 62
     7
370
    15
100
AcDbLine
 10
101.4426541785
 20
138.3102810748
 30
0.0
 11
101.4426541785
 21
167.3102811717
 31
0.0
  0
LINE
  5
1FC
330
1F
100
AcDbEntity
  8
0
  6
Continuous
 62
     7
370
    15
100
AcDbLine
 10
96.442653359
 20
113.7975719564
 30
0.0
 11
96.442653359
 21
133.3102811866
 31
0.0
  0
ARC
  5
1FD
330
1F
100
AcDbEntity
  8
0
  6
Continuous
 62
     7
370
    15
100
AcDbCircle
 10
69.4426526586
 20
143.310280963
 30
0.0
 40
40.00000000000001
100
AcDbArc
 50
311.4096221093
 51
312.4541502044
  0
LINE
  5
1FE
330
1F
100
AcDbEntity
  8
0
  6
Continuous
 62
     7
370
    15
100
AcDbLine
 10
70.4426527061
 20
113.3102816336
 30
0.0
 11
95.9001654098
 21
113.3102816336
 31
0.0
  0
LINE
  5
1FF
330
1F
100
AcDbEntity
  8
0
  6
Continuous
 62
     7
370
    15
100
AcDbLine
 10
70.4426527061
 20
133.3102811866
 30
0.0
 11
70.4426527061
 21
113.3102816336
 31
0.0
  0
LINE
  5
200
330
1F
100
AcDbEntity
  8
0
  6
Continuous
 62
     7
370
    15
100
AcDbLine
 10
49.4426531056
 20
133.3102811866
 30
0.0
 11
70.4426527061
 21
133.3102811866
 31
0.0
  0
CIRCLE
  5
201
330
1F
100
AcDbEntity
  8
0
  6
Continuous
 62
     7
370
    15
100
AcDbCircle
 10
57.4426526586
 20
149.310280963
 30
0.0
 40
6.0
  0
CIRCLE
  5
202
330
1F
100
AcDbEntity
  8
0
  6
Continuous
 62
     7
370
    15
100
AcDbCircle
 10
69.4426526586
 20
143.310280963
 30
0.0
 40
3.349999999999994
  0
CIRCLE
  5
203
330
1F
100
AcDbEntity
  8
0
  6
Continuous
 62
     7
370
    15
100
AcDbCircle
 10
81.4426526586
 20
137.310280963
 30
0.0
 40
6.000000000000028
  0
LINE
  5
204
330
1F
100
AcDbEntity
  8
0
  6
Continuous
 62
     7
370
    15
100
AcDbLine
 10
96.442653359
 20
133.3102811866
 30
0.0
 11
101.4426541785
 21
138.3102810748
 31
0.0
  0
CIRCLE
  5
205
330
1F
100
AcDbEntity
  8
0
  6
Continuous
 62
     7
370
    15
100
AcDbCircle
 10
69.4426526586
 20
143.310280963
 30
0.0
 40
1.574999999999989
  0
ELLIPSE
  5
206
330
1F
100
AcDbEntity
  8
0
  6
Continuous
 62
     7
370
    15
100
AcDbEllipse
 10
80.1747034662
 20
137.1141285403
 30
0.0
 11
-2.006661946372262
 21
1.158546814910636
 31
-7.105427357601002E-15
210
-4.347457647962699E-15
220
-1.396965963913718E-15
230
0.9999999999999998
 40
0.906307787
 41
2.68785095862214
 42
4.936152290182196
  0
ELLIPSE
  5
207
330
1F
100
AcDbEntity
  8
0
  6
Continuous
 62
     7
370
    15
100
AcDbEllipse
 10
58.710601851
 20
149.5064333857
 30
0.0
 11
2.006661946372276
 21
-1.158546814910608
 31
7.105427357601002E-15
210
-4.347457647962661E-15
220
-1.396965963913738E-15
230
1.0
 40
0.906307787
 41
2.687850958619658
 42
4.936152290183561
  0
SPLINE
  5
208
330
1F
100
AcDbEntity
  8
0
  6
Continuous
 62
     7
370
    15
100
AcDbSpline
210
0.0
220
0.0
230
1.0
 70
     8
 71
     3
 72
    12
 73
     8
 74
     0
 42
0.00000001
 43
0.00000001
 40
0.0
 40
0.0
 40
0.0
 40
0.0
 40
0.4999999999999966
 40
0.4999999999999966
 40
0.7499999999999982
 40
0.7499999999999982
 40
1.0
 40
1.0
 40
1.0
 40
1.0
 10
82.56705740700562
 20
153.3102809630379
 30
0.0
 10
82.34189572258107
 20
153.60579227106
 30
0.0
 10
82.1283686437867
 20
153.8650584033909
 30
0.0
 10
81.85020153454393
 20
154.1879144422968
 30
0.0
 10
81.76730511974125
 20
154.2813411382922
 30
0.0
 10
81.62543619985516
 20
154.4386683055008
 30
0.0
 10
81.56599435294974
 20
154.5030681135257
 30
0.0
 10
81.52346907014585
 20
154.5487806329449
 30
0.0
  0
LINE
  5
209
330
1F
100
AcDbEntity
  8
0
  6
Continuous
 62
     7
370
    15
100
AcDbLine
 10
81.4426527629
 20
153.3102807395
 30
0.0
 11
81.4426527629
 21
153.5228867821
 31
0.0
  0
SPLINE
  5
20A
330
1F
100
AcDbEntity
  8
0
  6
Continuous
 62
     7
370
    15
100
AcDbSpline
210
0.0
220
0.0
230
1.0
 70
     8
 71
     3
 72
     8
 73
     4
 74
     0
 42
0.00000001
 43
0.00000001
 40
0.0
 40
0.0
 40
0.0
 40
0.0
 40
1.0
 40
1.0
 40
1.0
 40
1.0
 10
81.44265265859893
 20
153.5228868088393
 30
0.0
 10
81.44265265859893
 20
153.8800788952861
 30
0.0
 10
81.46555338957826
 20
154.2229944925444
 30
0.0
 10
81.52346907014585
 20
154.5487806329449
 30
0.0
  0
LINE
  5
20B
330
1F
100
AcDbEntity
  8
0
  6
Continuous
 62
     7
370
    15
100
AcDbLine
 10
76.4426528747
 20
153.3102807395
 30
0.0
 11
76.4426528747
 21
157.4275507398
 31
0.0
  0
ARC
  5
20C
330
1F
100
AcDbEntity
  8
0
  6
Continuous
 62
     7
370
    15
100
AcDbCircle
 10
69.4426526586
 20
143.310280963
 30
0.0
 40
15.75745278151573
100
AcDbArc
 50
40.3994609784
 51
63.6256441794
  0
ARC
  5
20D
330
1F
100
AcDbEntity
  8
0
  6
Continuous
 62
     7
370
    15
100
AcDbCircle
 10
69.4426526586
 20
143.310280963
 30
0.0
 40
16.50000000000002
100
AcDbArc
 50
42.931319197
 51
65.206792577
  0
SPLINE
  5
20E
330
1F
100
AcDbEntity
  8
0
  6
Continuous
 62
     7
370
    15
100
AcDbSpline
210
0.0
220
0.0
230
1.0
 70
     8
 71
     3
 72
     8
 73
     4
 74
     0
 42
0.00000001
 43
0.00000001
 40
0.0
 40
0.0
 40
0.0
 40
0.0
 40
1.0
 40
1.0
 40
1.0
 40
1.0
 10
76.36183624705203
 20
158.2894297529152
 30
0.0
 10
76.41485713995345
 20
157.9984050156141
 30
0.0
 10
76.44265265859893
 20
157.7105940767797
 30
0.0
 10
76.44265265859893
 20
157.4275511723134
 30
0.0
  0
SPLINE
  5
20F
330
1F
100
AcDbEntity
  8
0
  6
Continuous
 62
     7
370
    15
100
AcDbSpline
210
0.0
220
0.0
230
1.0
 70
     8
 71
     3
 72
    15
 73
    11
 74
     0
 42
0.00000001
 43
0.00000001
 40
0.0
 40
0.0
 40
0.0
 40
0.0
 40
0.0513552200837893
 40
0.1910725806451704
 40
0.3380675721829304
 40
0.4958888105200523
 40
0.6546438274328029
 40
0.8061970020395101
 40
0.952405688962653
 40
1.0
 40
1.0
 40
1.0
 40
1.0
 10
76.36183642693094
 20
158.2894301779613
 30
0.0
 10
76.32572788056916
 20
158.3060379037849
 30
0.0
 10
76.19138217772857
 20
158.3678287212828
 30
0.0
 10
75.71733854291125
 20
158.577813181561
 30
0.0
 10
74.7886361202377
 20
158.9343851534839
 30
0.0
 10
73.55441202216761
 20
159.3107179598915
 30
0.0
 10
72.14784441956043
 20
159.6078061134712
 30
0.0
 10
70.81629529974164
 20
159.7684572800601
 30
0.0
 10
69.87737680009927
 20
159.8124931932835
 30
0.0
 10
69.53735679597261
 20
159.8072581917026
 30
0.0
 10
69.4538543837002
 20
159.8059725754008
 30
0.0
  0
LINE
  5
210
330
1F
100
AcDbEntity
  8
0
  6
Continuous
 62
     7
370
    15
100
AcDbLine
 10
62.4426524425
 20
133.3102811866
 30
0.0
 11
62.4426524425
 21
129.1930111863
 31
0.0
  0
SPLINE
  5
211
330
1F
100
AcDbEntity
  8
0
  6
Continuous
 62
     7
370
    15
100
AcDbSpline
210
0.0
220
0.0
230
1.0
 70
     8
 71
     3
 72
    14
 73
    10
 74
     0
 42
0.00000001
 43
0.00000001
 40
0.0
 40
0.0
 40
0.0
 40
0.0
 40
0.1424399925675184
 40
0.2881467321945091
 40
0.442748094933239
 40
0.6021345862366317
 40
0.7559310153537854
 40
0.9029247420954284
 40
1.0
 40
1.0
 40
1.0
 40
1.0
 10
62.52346889026693
 20
128.3311317481145
 30
0.0
 10
62.64883485822224
 20
128.2735211628205
 30
0.0
 10
62.90244196212325
 20
128.1569787396354
 30
0.0
 10
63.75813310652316
 20
127.8079442862051
 30
0.0
 10
64.90183497938418
 20
127.4284438197913
 30
0.0
 10
66.27624246774474
 20
127.0952444030633
 30
0.0
 10
67.65520447371134
 20
126.8898096956402
 30
0.0
 10
68.77551710799597
 20
126.8130749463603
 30
0.0
 10
69.2567954616764
 20
126.8150579301793
 30
0.0
 10
69.44821765477126
 20
126.8158466361508
 30
0.0
  0
SPLINE
  5
212
330
1F
100
AcDbEntity
  8
0
  6
Continuous
 62
     7
370
    15
100
AcDbSpline
210
0.0
220
0.0
230
1.0
 70
     8
 71
     3
 72
     8
 73
     4
 74
     0
 42
0.00000001
 43
0.00000001
 40
0.0
 40
0.0
 40
0.0
 40
0.0
 40
1.0
 40
1.0
 40
1.0
 40
1.0
 10
62.52346907014574
 20
128.3311321731607
 30
0.0
 10
62.47052245213973
 20
128.6217492252882
 30
0.0
 10
62.44265265859882
 20
128.9103364077304
 30
0.0
 10
62.44265265859882
 20
129.1930107537625
 30
0.0
  0
ARC
  5
213
330
1F
100
AcDbEntity
  8
0
  6
Continuous
 62
     7
370
    15
100
AcDbCircle
 10
69.4426526586
 20
143.310280963
 30
0.0
 40
16.50000000000001
100
AcDbArc
 50
222.931319197
 51
245.206792577
  0
SPLINE
  5
214
330
1F
100
AcDbEntity
  8
0
  6
Continuous
 62
     7
370
    15
100
AcDbSpline
210
0.0
220
0.0
230
1.0
 70
     8
 71
     3
 72
     8
 73
     4
 74
     0
 42
0.00000001
 43
0.00000001
 40
0.0
 40
0.0
 40
0.0
 40
0.0
 40
1.0
 40
1.0
 40
1.0
 40
1.0
 10
57.44265265859885
 20
133.0976751172366
 30
0.0
 10
57.44265265859885
 20
132.741011427754
 30
0.0
 10
57.41958894921668
 20
132.3966506506445
 30
0.0
 10
57.36183624705193
 20
132.071781293131
 30
0.0
  0
ARC
  5
215
330
1F
100
AcDbEntity
  8
0
  6
Continuous
 62
     7
370
    15
100
AcDbCircle
 10
69.4426526586
 20
143.310280963
 30
0.0
 40
15.75745278151572
100
AcDbArc
 50
220.3994609784
 51
243.6256441794
  0
LINE
  5
216
330
1F
100
AcDbEntity
  8
0
  6
Continuous
 62
     7
370
    15
100
AcDbLine
 10
57.4426525543
 20
133.3102811866
 30
0.0
 11
57.4426525543
 21
133.0976751439
 31
0.0
  0
SPLINE
  5
217
330
1F
100
AcDbEntity
  8
0
  6
Continuous
 62
     7
370
    15
100
AcDbSpline
210
0.0
220
0.0
230
1.0
 70
     8
 71
     3
 72
    12
 73
     8
 74
     0
 42
0.00000001
 43
0.00000001
 40
0.0
 40
0.0
 40
0.0
 40
0.0
 40
0.499999999999997
 40
0.499999999999997
 40
0.7499999999999984
 40
0.7499999999999984
 40
1.0
 40
1.0
 40
1.0
 40
1.0
 10
56.31824791019218
 20
133.310280963038
 30
0.0
 10
56.54327449527437
 20
133.014946964861
 30
0.0
 10
56.75666620526201
 20
132.7558309431002
 30
0.0
 10
57.03473825341884
 20
132.4330650052145
 30
0.0
 10
57.11762240891906
 20
132.3396450445907
 30
0.0
 10
57.25950790028597
 20
132.1822889200574
 30
0.0
 10
57.31882959749445
 20
132.1180112573647
 30
0.0
 10
57.36183624705193
 20
132.071781293131
 30
0.0
  0
SPLINE
  5
218
330
1F
100
AcDbEntity
  8
0
  6
Continuous
 62
     7
370
    15
100
AcDbSpline
210
0.0
220
0.0
230
1.0
 70
    24
 71
     3
 72
    14
 73
    10
 74
     0
 42
0.00000001
 43
0.00000001
 40
0.0
 40
0.0
 40
0.0
 40
0.0
 40
0.5
 40
0.5
 40
0.75
 40
0.75
 40
0.875
 40
0.875
 40
1.0
 40
1.0
 40
1.0
 40
1.0
 10
73.94265265859897
 20
160.2102809630379
 30
0.0
 10
73.1918978652858
 20
160.2102809630379
 30
0.0
 10
72.44241021928975
 20
160.2102809630379
 30
0.0
 10
71.31799088838683
 20
160.2102809630379
 30
0.0
 10
70.9431584446906
 20
160.2102809630379
 30
0.0
 10
70.38066113845498
 20
160.2102809630379
 30
0.0
 10
70.19312118875403
 20
160.2102809630379
 30
0.0
 10
69.8179559395024
 20
160.2102809630379
 30
0.0
 10
69.63225067241348
 20
160.2102809630379
 30
0.0
 10
69.44265265859897
 20
160.2102809630379
 30
0.0
  0
SPLINE
  5
219
330
1F
100
AcDbEntity
  8
0
  6
Continuous
 62
     7
370
    15
100
AcDbSpline
210
0.0
220
0.0
230
1.0
 70
    24
 71
     3
 72
     9
 73
     5
 74
     0
 42
0.00000001
 43
0.00000001
 40
0.0
 40
0.0
 40
0.0
 40
0.0
 40
0.5
 40
1.0
 40
1.0
 40
1.0
 40
1.0
 10
73.94265265859897
 20
160.2218154883257
 30
0.0
 10
73.94265265859897
 20
160.2198923638426
 30
0.0
 10
73.94265265859897
 20
160.2160468189977
 30
0.0
 10
73.94265265859897
 20
160.2122026808202
 30
0.0
 10
73.94265265859897
 20
160.2102809630379
 30
0.0
  0
SPLINE
  5
21A
330
1F
100
AcDbEntity
  8
0
  6
Continuous
 62
     7
370
    15
100
AcDbSpline
210
0.0
220
0.0
230
1.0
 70
    24
 71
     3
 72
    10
 73
     6
 74
     0
 42
0.00000001
 43
0.00000001
 40
0.0
 40
0.0
 40
0.0
 40
0.0
 40
0.5
 40
0.5
 40
1.0
 40
1.0
 40
1.0
 40
1.0
 10
69.44265265859897
 20
126.4102809630379
 30
0.0
 10
68.68420665770505
 20
126.4102809630379
 30
0.0
 10
67.92741581118605
 20
126.4102809630379
 30
0.0
 10
66.41437385976077
 20
126.4102809630379
 30
0.0
 10
65.65804937973677
 20
126.4102809630379
 30
0.0
 10
64.89952598195875
 20
126.4102809630379
 30
0.0
  0
SPLINE
  5
21B
330
1F
100
AcDbEntity
  8
0
  6
Continuous
 62
     7
370
    15
100
AcDbSpline
210
0.0
220
0.0
230
1.0
 70
    24
 71
     3
 72
    10
 73
     6
 74
     0
 42
0.00000001
 43
0.00000001
 40
0.0
 40
0.0
 40
0.0
 40
0.0
 40
0.5
 40
0.5
 40
1.0
 40
1.0
 40
1.0
 40
1.0
 10
63.94265265859898
 20
124.7062491419514
 30
0.0
 10
63.94265265859898
 20
124.5466169730482
 30
0.0
 10
63.94265265859898
 20
124.3855673392841
 30
0.0
 10
63.94265265859898
 20
124.1525764556075
 30
0.0
 10
63.94265265859898
 20
124.0813964400085
 30
0.0
 10
63.94265265859898
 20
124.0813964400085
 30
0.0
  0
ARC
  5
21C
330
1F
100
AcDbEntity
  8
0
  6
Continuous
 62
     7
370
    15
100
AcDbCircle
 10
69.4426526586
 20
143.310280963
 30
0.0
 40
19.99999999999998
100
AcDbArc
 50
210.0
 51
254.0379858372
  0
SPLINE
  5
21D
330
1F
100
AcDbEntity
  8
0
  6
Continuous
 62
     7
370
    15
100
AcDbSpline
210
0.0
220
0.0
230
1.0
 70
    24
 71
     3
 72
    10
 73
     6
 74
     0
 42
0.00000001
 43
0.00000001
 40
0.0
 40
0.0
 40
0.0
 40
0.0
 40
0.5
 40
0.5
 40
1.0
 40
1.0
 40
1.0
 40
1.0
 10
73.94265265859897
 20
162.797456232943
 30
0.0
 10
73.94265265859897
 20
162.797456232943
 30
0.0
 10
73.94265265859897
 20
162.7288708304372
 30
0.0
 10
73.94265265859897
 20
162.4990975611175
 30
0.0
 10
73.94265265859897
 20
162.3405993594499
 30
0.0
 10
73.94265265859897
 20
162.1811579961808
 30
0.0
  0
ARC
  5
21E
330
1F
100
AcDbEntity
  8
0
  6
Continuous
 62
     7
370
    15
100
AcDbCircle
 10
69.4426526586
 20
143.310280963
 30
0.0
 40
20.00000000000002
100
AcDbArc
 50
30.0
 51
76.9971218371
  0
LINE
  5
21F
330
1F
100
AcDbEntity
  8
0
  6
Continuous
 62
     7
370
    15
100
AcDbLine
 10
73.9426524649
 20
162.1811580651
 30
0.0
 11
73.9426524649
 21
160.2218155555
 31
0.0
  0
LINE
  5
220
330
1F
100
AcDbEntity
  8
0
  6
Continuous
 62
     7
370
    15
100
AcDbLine
 10
63.9426526884
 20
126.4102817319
 30
0.0
 11
63.9426526884
 21
124.7062482677
 31
0.0
  0
LINE
  5
221
330
1F
100
AcDbEntity
  8
0
  6
Continuous
 62
     7
370
    15
100
AcDbLine
 10
64.8995260979
 20
126.4102817319
 30
0.0
 11
63.9426526884
 21
126.4102817319
 31
0.0
  0
SPLINE
  5
222
330
1F
100
AcDbEntity
  8
0
  6
Continuous
 62
     7
370
    15
100
AcDbSpline
210
0.0
220
0.0
230
1.0
 70
     8
 71
     3
 72
    22
 73
    18
 74
     0
 42
0.00000001
 43
0.00000001
 40
0.0
 40
0.0
 40
0.0
 40
0.0
 40
0.125
 40
0.125
 40
0.25
 40
0.25
 40
0.375
 40
0.375
 40
0.5
 40
0.5
 40
0.625
 40
0.625
 40
0.75
 40
0.75
 40
0.875
 40
0.875
 40
1.0
 40
1.0
 40
1.0
 40
1.0
 10
63.94265265859899
 20
124.0813964400085
 30
0.0
 10
63.94265265859899
 20
124.0813964400085
 30
0.0
 10
63.97217855701892
 20
124.0728823389421
 30
0.0
 10
64.08758339030558
 20
124.0404385700602
 30
0.0
 10
64.17496619537143
 20
124.0161046813582
 30
0.0
 10
64.40163961467904
 20
123.9556446566014
 30
0.0
 10
64.5401154610116
 20
123.9197312358229
 30
0.0
 10
64.86692595817539
 20
123.8400212097537
 30
0.0
 10
65.05597079415537
 20
123.7961429085644
 30
0.0
 10
65.46883907663108
 20
123.7078992861942
 30
0.0
 10
65.69431096788242
 20
123.6630909447332
 30
0.0
 10
66.1851665724301
 20
123.5757699368141
 30
0.0
 10
66.44400673037218
 20
123.5344791482384
 30
0.0
 10
66.98375955616801
 20
123.4601409249446
 30
0.0
 10
67.26786264499707
 20
123.4267307992099
 30
0.0
 10
67.84931578013898
 20
123.3717113976838
 30
0.0
 10
68.14396624576726
 20
123.3502496312175
 30
0.0
 10
68.44265265859902
 20
123.3352966075997
 30
0.0
  0
SPLINE
  5
223
330
1F
100
AcDbEntity
  8
0
  6
Continuous
 62
     7
370
    15
100
AcDbSpline
210
0.0
220
0.0
230
1.0
 70
     8
 71
     3
 72
    14
 73
    10
 74
     0
 42
0.00000001
 43
0.00000001
 40
0.0
 40
0.0
 40
0.0
 40
0.0
 40
0.0661997739169276
 40
0.2751205953285258
 40
0.4856831301379043
 40
0.7008677950741843
 40
0.8091891643694509
 40
0.9174976560762397
 40
0.9999999999999999
 40
0.9999999999999999
 40
0.9999999999999999
 40
0.9999999999999999
 10
69.44265265859879
 20
163.2982124380812
 30
0.0
 10
69.59849114937924
 20
163.3016565932822
 30
0.0
 10
70.24614258112607
 20
163.3159702075627
 30
0.0
 10
71.37126928401447
 20
163.2279824909742
 30
0.0
 10
72.61955543492661
 20
163.0681582605878
 30
0.0
 10
73.38171585151494
 20
162.9204609962462
 30
0.0
 10
73.76036150538734
 20
162.8392707076406
 30
0.0
 10
73.91819767379495
 20
162.8030947820156
 30
0.0
 10
73.93527053918133
 20
162.7991588588096
 30
0.0
 10
73.9426524648839
 20
162.7974570535168
 30
0.0
  0
ARC
  5
224
330
1F
100
AcDbEntity
  8
0
  6
Continuous
 62
     7
370
    15
100
AcDbCircle
 10
69.4426526586
 20
143.310280963
 30
0.0
 40
19.99999999999999
100
AcDbArc
 50
267.1340160174
 51
270.0
  0
DIMENSION
  5
225
330
1F
100
AcDbEntity
  8
VERMASSUNG
100
AcDbDimension
  2
*D4
 10
89.4426526586
 20
180.3711712843
 30
0.0
 11
79.4426526586
 21
180.3711712843
 31
0.0
 70
   160
 71
     2
 42
-1.0
  3
SLDDIMSTYLE0
100
AcDbAlignedDimension
 13
69.4426526586
 23
185.810280963
 33
0.0
 14
89.4426526586
 24
173.310280963
 34
0.0
100
AcDbRotatedDimension
  0
DIMENSION
  5
22E
330
1F
100
AcDbEntity
  8
VERMASSUNG
100
AcDbDimension
  2
*D5
 10
101.4426526586
 20
185.7438122006
 30
0.0
 11
85.4426526586
 21
185.7438122006
 31
0.0
 70
   160
 71
     2
 42
-1.0
  3
SLDDIMSTYLE0
100
AcDbAlignedDimension
 13
69.4426526586
 23
185.810280963
 33
0.0
 14
101.4426526586
 24
167.310280963
 34
0.0
100
AcDbRotatedDimension
  0
DIMENSION
  5
237
330
1F
100
AcDbEntity
  8
VERMASSUNG
100
AcDbDimension
  2
*D6
 10
101.4426526586
 20
190.9584342665
 30
0.0
 11
69.4426526586
 21
190.9584342665
 31
0.0
 70
   160
 71
     2
 42
-1.0
  3
SLDDIMSTYLE0
100
AcDbAlignedDimension
 13
37.4426526586
 23
148.310280963
 33
0.0
 14
101.4426526586
 24
167.310280963
 34
0.0
100
AcDbRotatedDimension
  0
DIMENSION
  5
241
330
1F
100
AcDbEntity
  8
VERMASSUNG
100
AcDbDimension
  2
*D7
 10
109.9143620709
 20
153.310280963
 30
0.0
 11
109.9143620709
 21
163.310280963
 31
0.0
 70
   160
 71
     2
 42
-1.0
  3
SLDDIMSTYLE0
100
AcDbAlignedDimension
 13
95.9001657692
 23
173.310280963
 33
0.0
 14
89.4426526586
 24
153.310280963
 34
0.0
 50
90.0
100
AcDbRotatedDimension
  0
DIMENSION
  5
24B
330
1F
100
AcDbEntity
  8
VERMASSUNG
100
AcDbDimension
  2
*D8
 10
117.4426526586
 20
143.310280963
 30
0.0
 11
117.4426526586
 21
158.310280963
 31
0.0
 70
   160
 71
     2
 42
-1.0
  3
SLDDIMSTYLE0
100
AcDbAlignedDimension
 13
95.9001657692
 23
173.310280963
 33
0.0
 14
111.9426526586
 24
143.310280963
 34
0.0
 50
90.0
100
AcDbRotatedDimension
  0
DIMENSION
  5
255
330
1F
100
AcDbEntity
  8
VERMASSUNG
100
AcDbDimension
  2
*D9
 10
123.4426526586
 20
113.310280963
 30
0.0
 11
123.4426526586
 21
143.310280963
 31
0.0
 70
   160
 71
     2
 42
-1.0
  3
SLDDIMSTYLE0
100
AcDbAlignedDimension
 13
95.9001657692
 23
173.310280963
 33
0.0
 14
95.9001657692
 24
113.310280963
 34
0.0
 50
90.0
100
AcDbRotatedDimension
  0
DIMENSION
  5
25F
330
1F
100
AcDbEntity
  8
VERMASSUNG
100
AcDbDimension
  2
*D10
 10
99.598224877
 20
169.5903392617
 30
0.0
 11
33.2752295876
 21
111.7910001755
 31
0.0
 70
   163
  1
<>
 71
     1
 42
-1.0
  3
SLDDIMSTYLE1
100
AcDbDiametricDimension
 15
39.2870804402
 25
117.0302226644
 35
0.0
 40
0.0
  0
INSERT
  5
273
330
1F
100
AcDbEntity
  8
VERMASSUNG
100
AcDbBlockReference
  2
SW_CENTERMARKSYMBOL_0
 10
69.4426526586
 20
143.310280963
 30
0.0
  0
ARC
  5
274
330
1F
100
AcDbEntity
  8
0
  6
Continuous
 62
     7
370
    15
100
AcDbCircle
 10
243.4162927548
 20
49.7859810494
 30
0.0
 40
5.0
100
AcDbArc
 50
38.0460169123
 51
66.4218215218
  0
ARC
  5
275
330
1F
100
AcDbEntity
  8
0
  6
Continuous
 62
     7
370
    15
100
AcDbCircle
 10
243.4162927548
 20
49.7859810494
 30
0.0
 40
5.000000000000025
100
AcDbArc
 50
293.5781784782
 51
317.0100151415
  0
ARC
  5
276
330
1F
100
AcDbEntity
  8
0
  6
Continuous
 62
     7
370
    15
100
AcDbCircle
 10
243.4162927548
 20
73.7859810494
 30
0.0
 40
5.000000000000015
100
AcDbArc
 50
42.9899848585
 51
66.4218215218
  0
ARC
  5
277
330
1F
100
AcDbEntity
  8
0
  6
Continuous
 62
     7
370
    15
100
AcDbCircle
 10
243.4162927548
 20
73.7859810494
 30
0.0
 40
5.000000000000004
100
AcDbArc
 50
293.5781784782
 51
321.9539830877
  0
LINE
  5
278
330
1F
100
AcDbEntity
  8
0
  6
Continuous
 62
     7
370
    15
100
AcDbLine
 10
217.9162927548
 20
60.7859810494
 30
0.0
 11
216.9162927548
 21
61.7859810494
 31
0.0
  0
LINE
  5
279
330
1F
100
AcDbEntity
  8
0
  6
Continuous
 62
     7
370
    15
100
AcDbLine
 10
209.9162927548
 20
61.7859810494
 30
0.0
 11
208.9162927548
 21
60.7859810494
 31
0.0
  0
LINE
  5
27A
330
1F
100
AcDbEntity
  8
0
  6
Continuous
 62
     7
370
    15
100
AcDbLine
 10
239.9162927548
 20
60.7859810494
 30
0.0
 11
238.9162927548
 21
61.7859810494
 31
0.0
  0
LINE
  5
27B
330
1F
100
AcDbEntity
  8
0
  6
Continuous
 62
     7
370
    15
100
AcDbLine
 10
231.9162927548
 20
61.7859810494
 30
0.0
 11
230.9162927548
 21
60.7859810494
 31
0.0
  0
LINE
  5
27C
330
1F
100
AcDbEntity
  8
0
  6
Continuous
 62
     7
370
    15
100
AcDbLine
 10
204.5695052375
 20
93.7859810494
 30
0.0
 11
200.6148915932
 21
79.0271620043
 31
0.0
  0
LINE
  5
27D
330
1F
100
AcDbEntity
  8
0
  6
Continuous
 62
     7
370
    15
100
AcDbLine
 10
200.6148915932
 20
44.5448000945
 30
0.0
 11
204.5695052375
 21
29.7859810494
 31
0.0
  0
LINE
  5
27E
330
1F
100
AcDbEntity
  8
0
  6
Continuous
 62
     7
370
    15
100
AcDbLine
 10
165.7162927548
 20
41.7859810494
 30
0.0
 11
179.381133056
 21
41.7859810494
 31
0.0
  0
LINE
  5
27F
330
1F
100
AcDbEntity
  8
0
  6
Continuous
 62
     7
370
    15
100
AcDbLine
 10
167.4162927548
 20
81.7859810494
 30
0.0
 11
165.7162927548
 21
81.7859810494
 31
0.0
  0
LINE
  5
280
330
1F
100
AcDbEntity
  8
0
  6
Continuous
 62
     7
370
    15
100
AcDbLine
 10
179.381133056
 20
81.7859810494
 30
0.0
 11
177.4065289271
 21
81.7859810494
 31
0.0
  0
ARC
  5
281
330
1F
100
AcDbEntity
  8
0
  6
Continuous
 62
     7
370
    15
100
AcDbCircle
 10
165.7162927548
 20
42.0859810494
 30
0.0
 40
0.3000000000000114
100
AcDbArc
 50
180.0
 51
270.0
  0
ARC
  5
282
330
1F
100
AcDbEntity
  8
0
  6
Continuous
 62
     7
370
    15
100
AcDbCircle
 10
165.7162927548
 20
81.4859810494
 30
0.0
 40
0.3000000000000114
100
AcDbArc
 50
90.0
 51
180.0
  0
ARC
  5
283
330
1F
100
AcDbEntity
  8
0
  6
Continuous
 62
     7
370
    15
100
AcDbCircle
 10
184.7662927548
 20
81.1859810494
 30
0.0
 40
0.5999999999999943
100
AcDbArc
 50
0.0
 51
90.0
  0
LINE
  5
284
330
1F
100
AcDbEntity
  8
0
  6
Continuous
 62
     7
370
    15
100
AcDbLine
 10
184.7662927548
 20
81.7859810494
 30
0.0
 11
183.4514524537
 21
81.7859810494
 31
0.0
  0
LINE
  5
285
330
1F
100
AcDbEntity
  8
0
  6
Continuous
 62
     7
370
    15
100
AcDbLine
 10
180.3762927548
 20
80.0623138893
 30
0.0
 11
179.381133056
 21
81.7859810494
 31
0.0
  0
LINE
  5
286
330
1F
100
AcDbEntity
  8
0
  6
Continuous
 62
     7
370
    15
100
AcDbLine
 10
183.4514524537
 20
81.7859810494
 30
0.0
 11
182.4562927548
 21
80.0623138893
 31
0.0
  0
ARC
  5
287
330
1F
100
AcDbEntity
  8
0
  6
Continuous
 62
     7
370
    15
100
AcDbCircle
 10
181.8562927548
 20
79.7609810494
 30
0.0
 40
0.6000000000000085
100
AcDbArc
 50
270.0
 51
0.0
  0
ARC
  5
288
330
1F
100
AcDbEntity
  8
0
  6
Continuous
 62
     7
370
    15
100
AcDbCircle
 10
180.9762927548
 20
79.7609810494
 30
0.0
 40
0.6000000000000227
100
AcDbArc
 50
180.0
 51
270.0
  0
ARC
  5
289
330
1F
100
AcDbEntity
  8
0
  6
Continuous
 62
     7
370
    15
100
AcDbCircle
 10
199.6489657669
 20
44.2859810494
 30
0.0
 40
1.0
100
AcDbArc
 50
15.0
 51
90.0
  0
ARC
  5
28A
330
1F
100
AcDbEntity
  8
0
  6
Continuous
 62
     7
370
    15
100
AcDbCircle
 10
186.3662927548
 20
44.2859810494
 30
0.0
 40
1.0
100
AcDbArc
 50
90.0
 51
180.0
  0
ARC
  5
28B
330
1F
100
AcDbEntity
  8
0
  6
Continuous
 62
     7
370
    15
100
AcDbCircle
 10
186.3662927548
 20
79.2859810494
 30
0.0
 40
1.0
100
AcDbArc
 50
180.0
 51
270.0
  0
LINE
  5
28C
330
1F
100
AcDbEntity
  8
0
  6
Continuous
 62
     7
370
    15
100
AcDbLine
 10
181.8562927548
 20
79.1609810494
 30
0.0
 11
180.9762927548
 21
79.1609810494
 31
0.0
  0
LINE
  5
28D
330
1F
100
AcDbEntity
  8
0
  6
Continuous
 62
     7
370
    15
100
AcDbLine
 10
186.3662927548
 20
45.2859810494
 30
0.0
 11
199.6489657669
 21
45.2859810494
 31
0.0
  0
LINE
  5
28E
330
1F
100
AcDbEntity
  8
0
  6
Continuous
 62
     7
370
    15
100
AcDbLine
 10
199.6489657669
 20
78.2859810494
 30
0.0
 11
186.3662927548
 21
78.2859810494
 31
0.0
  0
ARC
  5
28F
330
1F
100
AcDbEntity
  8
0
  6
Continuous
 62
     7
370
    15
100
AcDbCircle
 10
164.9162860022
 20
46.332273896
 30
0.0
 40
0.6000067526677171
100
AcDbArc
 50
33.5571153394
 51
90.0
  0
ARC
  5
290
330
1F
100
AcDbEntity
  8
0
  6
Continuous
 62
     7
370
    15
100
AcDbCircle
 10
164.9162860022
 20
77.2396882029
 30
0.0
 40
0.60000675266771
100
AcDbArc
 50
270.0
 51
326.4428846606
  0
LINE
  5
291
330
1F
100
AcDbEntity
  8
0
  6
Continuous
 62
     7
370
    15
100
AcDbLine
 10
163.4162927548
 20
76.8896814502
 30
0.0
 11
146.2762628012
 21
76.0309625147
 31
0.0
  0
LINE
  5
292
330
1F
100
AcDbEntity
  8
0
  6
Continuous
 62
     7
370
    15
100
AcDbLine
 10
146.2762628012
 20
47.5409995842
 30
0.0
 11
163.4162927548
 21
46.6822806486
 31
0.0
  0
LINE
  5
293
330
1F
100
AcDbEntity
  8
0
  6
Continuous
 62
     7
370
    15
100
AcDbLine
 10
163.4162927548
 20
46.6822806486
 30
0.0
 11
164.2730046695
 21
46.9118359143
 31
0.0
  0
LINE
  5
294
330
1F
100
AcDbEntity
  8
0
  6
Continuous
 62
     7
370
    15
100
AcDbLine
 10
164.2730046695
 20
76.6601261845
 30
0.0
 11
163.4162927548
 21
76.8896814502
 31
0.0
  0
ARC
  5
295
330
1F
100
AcDbEntity
  8
0
  6
Continuous
 62
     7
370
    15
100
AcDbCircle
 10
164.4282978443
 20
46.332273896
 30
0.0
 40
0.600006752667717
100
AcDbArc
 50
90.0
 51
105.0
  0
ARC
  5
296
330
1F
100
AcDbEntity
  8
0
  6
Continuous
 62
     7
370
    15
100
AcDbCircle
 10
164.4282978443
 20
77.2396882029
 30
0.0
 40
0.600006752667717
100
AcDbArc
 50
255.0
 51
270.0
  0
LINE
  5
297
330
1F
100
AcDbEntity
  8
0
  6
Continuous
 62
     7
370
    15
100
AcDbLine
 10
164.4282978443
 20
46.9322806486
 30
0.0
 11
164.9162860022
 21
46.9322806486
 31
0.0
  0
LINE
  5
298
330
1F
100
AcDbEntity
  8
0
  6
Continuous
 62
     7
370
    15
100
AcDbLine
 10
164.9162860022
 20
76.6396814502
 30
0.0
 11
164.4282978443
 21
76.6396814502
 31
0.0
  0
ARC
  5
299
330
1F
100
AcDbEntity
  8
0
  6
Continuous
 62
     7
370
    15
100
AcDbCircle
 10
146.3162927548
 20
75.2319646406
 30
0.0
 40
0.8000000000000028
100
AcDbArc
 50
92.8681319407
 51
180.0
  0
ARC
  5
29A
330
1F
100
AcDbEntity
  8
0
  6
Continuous
 62
     7
370
    15
100
AcDbCircle
 10
146.3162927548
 20
48.3399974583
 30
0.0
 40
0.7999999999999957
100
AcDbArc
 50
180.0
 51
267.1318680593
  0
LINE
  5
29B
330
1F
100
AcDbEntity
  8
0
  6
Continuous
 62
     7
370
    15
100
AcDbLine
 10
180.9762927548
 20
44.4109810494
 30
0.0
 11
181.8562927548
 21
44.4109810494
 31
0.0
  0
ARC
  5
29C
330
1F
100
AcDbEntity
  8
0
  6
Continuous
 62
     7
370
    15
100
AcDbCircle
 10
180.9762927548
 20
43.8109810494
 30
0.0
 40
0.6000000000000227
100
AcDbArc
 50
90.0
 51
180.0
  0
ARC
  5
29D
330
1F
100
AcDbEntity
  8
0
  6
Continuous
 62
     7
370
    15
100
AcDbCircle
 10
181.8562927548
 20
43.8109810494
 30
0.0
 40
0.6000000000000014
100
AcDbArc
 50
0.0
 51
90.0
  0
LINE
  5
29E
330
1F
100
AcDbEntity
  8
0
  6
Continuous
 62
     7
370
    15
100
AcDbLine
 10
182.4562927548
 20
43.5096482096
 30
0.0
 11
183.4514524537
 21
41.7859810494
 31
0.0
  0
ARC
  5
29F
330
1F
100
AcDbEntity
  8
0
  6
Continuous
 62
     7
370
    15
100
AcDbCircle
 10
184.7662927548
 20
42.3859810494
 30
0.0
 40
0.6000000000000014
100
AcDbArc
 50
270.0
 51
0.0
  0
LINE
  5
2A0
330
1F
100
AcDbEntity
  8
0
  6
Continuous
 62
     7
370
    15
100
AcDbLine
 10
179.381133056
 20
41.7859810494
 30
0.0
 11
180.3762927548
 21
43.5096482096
 31
0.0
  0
LINE
  5
2A1
330
1F
100
AcDbEntity
  8
0
  6
Continuous
 62
     7
370
    15
100
AcDbLine
 10
183.4514524537
 20
41.7859810494
 30
0.0
 11
184.7662927548
 21
41.7859810494
 31
0.0
  0
ARC
  5
2A2
330
1F
100
AcDbEntity
  8
0
  6
Continuous
 62
     7
370
    15
100
AcDbCircle
 10
199.6489657669
 20
79.2859810494
 30
0.0
 40
0.999999999999992
100
AcDbArc
 50
270.0
 51
345.0
  0
LWPOLYLINE
  5
2A3
330
1F
100
AcDbEntity
  8
0
  6
Continuous
 62
     7
370
    15
100
AcDbPolyline
 90
       31
 70
   128
 43
0.0
 10
247.3347952655
 20
50.5772551384
 10
247.3095359864
 20
49.9111655853
 10
247.2799741999
 20
49.2324449098
 10
247.2474018981
 20
48.5707564622
 10
247.2132426468
 20
47.9550192028
 10
247.1789893691
 20
47.4121438045
 10
247.1461390978
 20
46.9658565272
 10
247.1161275473
 20
46.6356622665
 10
247.0902663663
 20
46.4359920959
 10
247.0696858126
 20
46.37557256
 10
247.0552853551
 20
46.4570442826
 10
247.0476943629
 20
46.6768465583
 10
247.0472445989
 20
47.0253729731
 10
247.0539557197
 20
47.4873912501
 10
247.0675344174
 20
48.0427089736
 10
247.0873872375
 20
48.6670560945
 10
247.1126465167
 20
49.3331456476
 10
247.1422083031
 20
50.0118663231
 10
247.174780605
 20
50.6735547707
 10
247.2089398563
 20
51.2892920301
 10
247.2431931339
 20
51.8321674284
 10
247.2760434052
 20
52.2784547057
 10
247.3060549558
 20
52.6086489664
 10
247.3319161367
 20
52.808319137
 10
247.3524966904
 20
52.8687386729
 10
247.3668971479
 20
52.7872669503
 10
247.3744881401
 20
52.5674646746
 10
247.3749379042
 20
52.2189382598
 10
247.3682267833
 20
51.7569199828
 10
247.3546480857
 20
51.2016022593
 10
247.3347952655
 20
50.5772551384
  0
LWPOLYLINE
  5
2A4
330
1F
100
AcDbEntity
  8
0
  6
Continuous
 62
     7
370
    15
100
AcDbPolyline
 90
       28
 70
   128
 43
0.0
 10
247.3062481854
 20
50.3568475564
 10
247.2844376837
 20
49.7865231691
 10
247.2586730569
 20
49.2073376845
 10
247.2303432826
 20
48.6505151419
 10
247.2009756263
 20
48.1460739889
 10
247.172153306
 20
47.7212087784
 10
247.1454301405
 20
47.398824104
 10
247.1222467824
 20
47.196299807
 10
247.1038530527
 20
47.1245540245
 10
247.091240562
 20
47.1874545904
 10
247.085089253
 20
47.3816105188
 10
247.0857307444
 20
47.6965548133
 10
247.0931304531
 20
48.1153087455
 10
247.106889459
 20
48.6152971826
 10
247.1262660106
 20
49.1695656185
 10
247.1502155128
 20
49.7482332983
 10
247.1774468419
 20
50.3201040976
 10
247.2064919498
 20
50.8543483137
 10
247.2357850072
 20
51.3221647025
 10
247.2637468179
 20
51.6983331615
 10
247.2888699534
 20
51.9625743516
 10
247.3098000189
 20
52.1006429619
 10
247.3254086692
 20
52.1050956779
 10
247.334854438
 20
51.9756924524
 10
247.3376281013
 20
51.719409447
 10
247.3335801303
 20
51.3500629447
 10
247.3229287521
 20
50.8875645111
 10
247.3062481854
 20
50.3568475564
  0
ARC
  5
2A5
330
1F
100
AcDbEntity
  8
0
  6
Continuous
 62
     7
370
    15
100
AcDbCircle
 10
204.9825006439
 20
72.470245938
 30
0.0
 40
42.35554177530503
100
AcDbArc
 50
0.7094743633
 51
6.4051190898
  0
ARC
  5
2A6
330
1F
100
AcDbEntity
  8
0
  6
Continuous
 62
     7
370
    15
100
AcDbCircle
 10
226.6627681446
 20
71.6773282962
 30
0.0
 40
20.71396127821298
100
AcDbArc
 50
357.30814984
 51
3.6463915714
  0
LINE
  5
2A7
330
1F
100
AcDbEntity
  8
0
  6
Continuous
 62
     7
370
    15
100
AcDbLine
 10
216.9162927548
 20
61.7859810494
 30
0.0
 11
209.9162927548
 21
61.7859810494
 31
0.0
  0
LINE
  5
2A8
330
1F
100
AcDbEntity
  8
0
  6
Continuous
 62
     7
370
    15
100
AcDbLine
 10
238.9162927548
 20
61.7859810494
 30
0.0
 11
231.9162927548
 21
61.7859810494
 31
0.0
  0
SPLINE
  5
2A9
330
1F
100
AcDbEntity
  8
0
  6
Continuous
 62
     7
370
    15
100
AcDbSpline
210
0.0
220
0.0
230
1.0
 70
    24
 71
     3
 72
    14
 73
    10
 74
     0
 42
0.00000001
 43
0.00000001
 40
0.0
 40
0.0
 40
0.0
 40
0.0
 40
0.1500592930974347
 40
0.3001628105830725
 40
0.4504395120968336
 40
0.6007962134666855
 40
0.7521040631388136
 40
0.9035349113278128
 40
1.0
 40
1.0
 40
1.0
 40
1.0
 10
206.7130987769754
 20
93.78598104942562
 30
0.0
 10
206.5267119299489
 20
93.78598104942562
 30
0.0
 10
206.153883305314
 20
93.78598104942562
 30
0.0
 10
205.6716246451606
 20
93.78598104942564
 30
0.0
 10
205.2593987943972
 20
93.78598104942564
 30
0.0
 10
204.9311939476957
 20
93.78598104942567
 30
0.0
 10
204.7029784146395
 20
93.78598104942567
 30
0.0
 10
204.5798513674318
 20
93.78598104942569
 30
0.0
 10
204.5817594589996
 20
93.7859810494257
 30
0.0
 10
204.5825019650068
 20
93.7859810494257
 30
0.0
  0
LINE
  5
2AA
330
1F
100
AcDbEntity
  8
0
  6
Continuous
 62
     7
370
    15
100
AcDbLine
 10
206.713098777
 20
93.7859810494
 30
0.0
 11
206.713098777
 21
88.2434941601
 31
0.0
  0
SPLINE
  5
2AB
330
1F
100
AcDbEntity
  8
0
  6
Continuous
 62
     7
370
    15
100
AcDbSpline
210
0.0
220
0.0
230
1.0
 70
     8
 71
     3
 72
     8
 73
     4
 74
     0
 42
0.00000001
 43
0.00000001
 40
0.0
 40
0.0
 40
0.0
 40
0.0
 40
1.0
 40
1.0
 40
1.0
 40
1.0
 10
206.7130987769755
 20
88.2434941600715
 30
0.0
 10
206.3322758613894
 20
86.09476542096459
 30
0.0
 10
205.9763562928554
 20
83.94016608606569
 30
0.0
 10
205.6561766050264
 20
81.78598104942562
 30
0.0
  0
SPLINE
  5
2AC
330
1F
100
AcDbEntity
  8
0
  6
Continuous
 62
     7
370
    15
100
AcDbSpline
210
0.0
220
0.0
230
1.0
 70
    24
 71
     3
 72
    12
 73
     8
 74
     0
 42
0.00000001
 43
0.00000001
 40
0.0
 40
0.0
 40
0.0
 40
0.0
 40
0.25
 40
0.25
 40
0.5
 40
0.5
 40
1.0
 40
1.0
 40
1.0
 40
1.0
 10
201.9866571676522
 20
81.78598104942567
 30
0.0
 10
202.187854538192
 20
81.78598104942567
 30
0.0
 10
202.4290051271144
 20
81.78598104942567
 30
0.0
 10
202.9675838363434
 20
81.78598104942564
 30
0.0
 10
203.265117632749
 20
81.78598104942564
 30
0.0
 10
204.2134180930572
 20
81.78598104942563
 30
0.0
 10
204.9181653079331
 20
81.78598104942562
 30
0.0
 10
205.6561766050263
 20
81.78598104942562
 30
0.0
  0
SPLINE
  5
2AD
330
1F
100
AcDbEntity
  8
0
  6
Continuous
 62
     7
370
    15
100
AcDbSpline
210
0.0
220
0.0
230
1.0
 70
     8
 71
     3
 72
     8
 73
     4
 74
     0
 42
0.00000001
 43
0.00000001
 40
0.0
 40
0.0
 40
0.0
 40
0.0
 40
1.0
 40
1.0
 40
1.0
 40
1.0
 10
201.9866571676522
 20
81.78598104942569
 30
0.0
 10
201.511743902458
 20
79.80437712154
 30
0.0
 10
201.0491538985481
 20
77.82037245706195
 30
0.0
 10
200.6148915931541
 20
75.83084917694843
 30
0.0
  0
LINE
  5
2AE
330
1F
100
AcDbEntity
  8
0
  6
Continuous
 62
     7
370
    15
100
AcDbLine
 10
206.713098777
 20
88.2434941601
 30
0.0
 11
245.4162927548
 21
88.2434941601
 31
0.0
  0
LINE
  5
2AF
330
1F
100
AcDbEntity
  8
0
  6
Continuous
 62
     7
370
    15
100
AcDbLine
 10
245.4162927548
 20
93.7859810494
 30
0.0
 11
206.713098777
 21
93.7859810494
 31
0.0
  0
LINE
  5
2B0
330
1F
100
AcDbEntity
  8
0
  6
Continuous
 62
     7
370
    15
100
AcDbLine
 10
245.4162927548
 20
93.7859810494
 30
0.0
 11
245.4162927548
 21
88.2434941601
 31
0.0
  0
LINE
  5
2B1
330
1F
100
AcDbEntity
  8
0
  6
Continuous
 62
     7
370
    15
100
AcDbLine
 10
205.656176605
 20
81.7859810494
 30
0.0
 11
245.4162927548
 21
81.7859810494
 31
0.0
  0
LINE
  5
2B2
330
1F
100
AcDbEntity
  8
0
  6
Continuous
 62
     7
370
    15
100
AcDbLine
 10
245.4162927548
 20
88.2434941601
 30
0.0
 11
245.4162927548
 21
81.7859810494
 31
0.0
  0
LINE
  5
2B3
330
1F
100
AcDbEntity
  8
0
  6
Continuous
 62
     7
370
    15
100
AcDbLine
 10
204.0380714327
 20
60.7859810494
 30
0.0
 11
200.6148915932
 21
60.7859810494
 31
0.0
  0
SPLINE
  5
2B4
330
1F
100
AcDbEntity
  8
0
  6
Continuous
 62
     7
370
    15
100
AcDbSpline
210
0.0
220
0.0
230
1.0
 70
     8
 71
     3
 72
    16
 73
    12
 74
     0
 42
0.00000001
 43
0.00000001
 40
0.0
 40
0.0
 40
0.0
 40
0.0
 40
0.2499999999999996
 40
0.2499999999999996
 40
0.4999999999999993
 40
0.4999999999999993
 40
0.6249999999999993
 40
0.6249999999999993
 40
0.7499999999999993
 40
0.7499999999999993
 40
1.0
 40
1.0
 40
1.0
 40
1.0
 10
204.0380714327212
 20
60.78598104942559
 30
0.0
 10
204.0570128475275
 20
58.66409353174751
 30
0.0
 10
204.1368045266543
 20
56.54021996233921
 30
0.0
 10
204.4086287483937
 20
52.28880946784753
 30
0.0
 10
204.6003815214193
 20
50.16128167397958
 30
0.0
 10
204.9569958974594
 20
46.96773842009698
 30
0.0
 10
205.087411658326
 20
45.90220130125902
 30
0.0
 10
205.367477024169
 20
43.77705521709068
 30
0.0
 10
205.5171887521211
 20
42.71671540727033
 30
0.0
 10
205.9912146522236
 20
39.54143897729061
 30
0.0
 10
206.3402496107497
 20
37.43220614893573
 30
0.0
 10
206.7130987769754
 20
35.32846793877968
 30
0.0
  0
LINE
  5
2B5
330
1F
100
AcDbEntity
  8
0
  6
Continuous
 62
     7
370
    15
100
AcDbLine
 10
206.713098777
 20
35.3284679388
 30
0.0
 11
206.713098777
 21
34.7859810494
 31
0.0
  0
SPLINE
  5
2B6
330
1F
100
AcDbEntity
  8
0
  6
Continuous
 62
     7
370
    15
100
AcDbSpline
210
0.0
220
0.0
230
1.0
 70
    24
 71
     3
 72
    10
 73
     6
 74
     0
 42
0.00000001
 43
0.00000001
 40
0.0
 40
0.0
 40
0.0
 40
0.0
 40
0.5
 40
0.5
 40
1.0
 40
1.0
 40
1.0
 40
1.0
 10
203.7100207161157
 20
34.78598104942565
 30
0.0
 10
204.014451133417
 20
34.78598104942564
 30
0.0
 10
204.4487892964518
 20
34.78598104942563
 30
0.0
 10
205.4785734603036
 20
34.78598104942561
 30
0.0
 10
206.0736941091813
 20
34.7859810494256
 30
0.0
 10
206.7130987769755
 20
34.78598104942559
 30
0.0
  0
SPLINE
  5
2B7
330
1F
100
AcDbEntity
  8
0
  6
Continuous
 62
     7
370
    15
100
AcDbSpline
210
0.0
220
0.0
230
1.0
 70
     8
 71
     3
 72
     8
 73
     4
 74
     0
 42
0.00000001
 43
0.00000001
 40
0.0
 40
0.0
 40
0.0
 40
0.0
 40
1.0
 40
1.0
 40
1.0
 40
1.0
 10
204.6735417315141
 20
29.78598104942568
 30
0.0
 10
204.3023321767852
 20
31.4478266574527
 30
0.0
 10
203.9745613719713
 20
33.11385767699466
 30
0.0
 10
203.7100207161157
 20
34.78598104942565
 30
0.0
  0
SPLINE
  5
2B8
330
1F
100
AcDbEntity
  8
0
  6
Continuous
 62
     7
370
    15
100
AcDbSpline
210
0.0
220
0.0
230
1.0
 70
    24
 71
     3
 72
     9
 73
     5
 74
     0
 42
0.00000001
 43
0.00000001
 40
0.0
 40
0.0
 40
0.0
 40
0.0
 40
0.1239000576523564
 40
1.0
 40
1.0
 40
1.0
 40
1.0
 10
204.5759496359111
 20
29.78598104942569
 30
0.0
 10
204.5739384445878
 20
29.78598104942569
 30
0.0
 10
204.5577060766505
 20
29.78598104942568
 30
0.0
 10
204.6194488720362
 20
29.78598104942568
 30
0.0
 10
204.6735417315141
 20
29.78598104942568
 30
0.0
  0
LINE
  5
2B9
330
1F
100
AcDbEntity
  8
0
  6
Continuous
 62
     7
370
    15
100
AcDbLine
 10
245.4162927548
 20
35.3284679388
 30
0.0
 11
206.713098777
 21
35.3284679388
 31
0.0
  0
LINE
  5
2BA
330
1F
100
AcDbEntity
  8
0
  6
Continuous
 62
     7
370
    15
100
AcDbLine
 10
245.4162927548
 20
60.7859810494
 30
0.0
 11
204.0380714327
 21
60.7859810494
 31
0.0
  0
LINE
  5
2BB
330
1F
100
AcDbEntity
  8
0
  6
Continuous
 62
     7
370
    15
100
AcDbLine
 10
245.4162927548
 20
60.7859810494
 30
0.0
 11
245.4162927548
 21
35.3284679388
 31
0.0
  0
LINE
  5
2BC
330
1F
100
AcDbEntity
  8
0
  6
Continuous
 62
     7
370
    15
100
AcDbLine
 10
206.713098777
 20
34.7859810494
 30
0.0
 11
245.4162927548
 21
34.7859810494
 31
0.0
  0
LINE
  5
2BD
330
1F
100
AcDbEntity
  8
0
  6
Continuous
 62
     7
370
    15
100
AcDbLine
 10
245.4162927548
 20
35.3284679388
 30
0.0
 11
245.4162927548
 21
34.7859810494
 31
0.0
  0
LINE
  5
2BE
330
1F
100
AcDbEntity
  8
0
  6
Continuous
 62
     7
370
    15
100
AcDbLine
 10
173.3662927548
 20
45.6745720483
 30
0.0
 11
179.381133056
 21
45.6745720483
 31
0.0
  0
LINE
  5
2BF
330
1F
100
AcDbEntity
  8
0
  6
Continuous
 62
     7
370
    15
100
AcDbLine
 10
179.381133056
 20
41.7859810494
 30
0.0
 11
179.381133056
 21
45.6745720483
 31
0.0
  0
LINE
  5
2C0
330
1F
100
AcDbEntity
  8
0
  6
Continuous
 62
     7
370
    15
100
AcDbLine
 10
179.381133056
 20
66.2859810494
 30
0.0
 11
179.381133056
 21
81.7859810494
 31
0.0
  0
LINE
  5
2C1
330
1F
100
AcDbEntity
  8
0
  6
Continuous
 62
     7
370
    15
100
AcDbLine
 10
177.8662927548
 20
66.2859810494
 30
0.0
 11
179.381133056
 21
66.2859810494
 31
0.0
  0
SPLINE
  5
2C2
330
1F
100
AcDbEntity
  8
0
  6
Continuous
 62
     7
370
    15
100
AcDbSpline
210
0.0
220
0.0
230
1.0
 70
     8
 71
     3
 72
    38
 73
    34
 74
     0
 42
0.00000001
 43
0.00000001
 40
0.0
 40
0.0
 40
0.0
 40
0.0
 40
0.0625
 40
0.0625
 40
0.125
 40
0.125
 40
0.1875
 40
0.1875
 40
0.25
 40
0.25
 40
0.3125
 40
0.3125
 40
0.375
 40
0.375
 40
0.4375
 40
0.4375
 40
0.5
 40
0.5
 40
0.5625
 40
0.5625
 40
0.625
 40
0.625
 40
0.6875
 40
0.6875
 40
0.75
 40
0.75
 40
0.8125
 40
0.8125
 40
0.875
 40
0.875
 40
0.9375
 40
0.9375
 40
1.0
 40
1.0
 40
1.0
 40
1.0
 10
177.8662927548441
 20
57.28598104942564
 30
0.0
 10
177.5680197814903
 20
57.28598104942564
 30
0.0
 10
177.2749280219365
 20
57.31534147199714
 30
0.0
 10
176.6986203201527
 20
57.43019506250445
 30
0.0
 10
176.4123576846764
 20
57.51714714524898
 30
0.0
 10
175.8679742512514
 20
57.74326002913361
 30
0.0
 10
175.6099299179332
 20
57.8814853536073
 30
0.0
 10
175.1215658679056
 20
58.20789018884457
 30
0.0
 10
174.8911013360552
 20
58.39721196316984
 30
0.0
 10
174.4775312312802
 20
58.81078101668657
 30
0.0
 10
174.2915905071182
 20
59.03662710661026
 30
0.0
 10
173.9625477658223
 20
59.528057595573
 30
0.0
 10
173.8233330983744
 20
59.7884150507233
 30
0.0
 10
173.5985008878271
 20
60.32935986228147
 30
0.0
 10
173.5115187533429
 20
60.61390370419379
 30
0.0
 10
173.3954201957956
 20
61.19511687882114
 30
0.0
 10
173.3665442000986
 20
61.48767848668212
 30
0.0
 10
173.3660445482169
 20
62.07664847729183
 30
0.0
 10
173.3954086053082
 20
62.37587961063611
 30
0.0
 10
173.5104729037346
 20
62.95372195209629
 30
0.0
 10
173.5956315134106
 20
63.23469218523726
 30
0.0
 10
173.8217384244971
 20
63.78069698483557
 30
0.0
 10
173.9620945433646
 20
64.04270928455898
 30
0.0
 10
174.2871483366112
 20
64.52921112275152
 30
0.0
 10
174.4741298745668
 20
64.75758071398452
 30
0.0
 10
174.8914810294885
 20
65.17532741287454
 30
0.0
 10
175.1175184823785
 20
65.36087905384467
 30
0.0
 10
175.6037229153173
 20
65.6868057653327
 30
0.0
 10
175.8670957884513
 20
65.82822764674327
 30
0.0
 10
176.4103855552091
 20
66.05410479294707
 30
0.0
 10
176.6907878416415
 20
66.13974556140464
 30
0.0
 10
177.2694074778905
 20
66.2559704445906
 30
0.0
 10
177.5680155055282
 20
66.28598104942564
 30
0.0
 10
177.8662927548441
 20
66.28598104942564
 30
0.0
  0
LINE
  5
2C3
330
1F
100
AcDbEntity
  8
0
  6
Continuous
 62
     7
370
    15
100
AcDbLine
 10
179.381133056
 20
57.2859810494
 30
0.0
 11
177.8662927548
 21
57.2859810494
 31
0.0
  0
LINE
  5
2C4
330
1F
100
AcDbEntity
  8
0
  6
Continuous
 62
     7
370
    15
100
AcDbLine
 10
179.381133056
 20
49.9359810494
 30
0.0
 11
179.381133056
 21
57.2859810494
 31
0.0
  0
LINE
  5
2C5
330
1F
100
AcDbEntity
  8
0
  6
Continuous
 62
     7
370
    15
100
AcDbLine
 10
177.8599632295
 20
49.9359810494
 30
0.0
 11
179.381133056
 21
49.9359810494
 31
0.0
  0
SPLINE
  5
2C6
330
1F
100
AcDbEntity
  8
0
  6
Continuous
 62
     7
370
    15
100
AcDbSpline
210
0.0
220
0.0
230
1.0
 70
     8
 71
     3
 72
    22
 73
    18
 74
     0
 42
0.00000001
 43
0.00000001
 40
0.0
 40
0.0
 40
0.0
 40
0.0
 40
0.2500000000000002
 40
0.2500000000000002
 40
0.3750000000000001
 40
0.3750000000000001
 40
0.5000000000000001
 40
0.5000000000000001
 40
0.6250000000000001
 40
0.6250000000000001
 40
0.75
 40
0.75
 40
0.875
 40
0.875
 40
0.9375000000000001
 40
0.9375000000000001
 40
1.0
 40
1.0
 40
1.0
 40
1.0
 10
173.366292754844
 20
45.6745720483482
 30
0.0
 10
173.3882737728307
 20
46.08856692651469
 30
0.0
 10
173.4672506561854
 20
46.52437672782361
 30
0.0
 10
173.7136485492178
 20
47.20111753080795
 30
0.0
 10
173.8181731643087
 20
47.43197265798263
 30
0.0
 10
174.0800197596153
 20
47.89200971314476
 30
0.0
 10
174.2352363817811
 20
48.11797738992325
 30
0.0
 10
174.603828134845
 20
48.55516897842398
 30
0.0
 10
174.8199618273099
 20
48.76822170271653
 30
0.0
 10
175.3038563222968
 20
49.15239784195006
 30
0.0
 10
175.5743218673045
 20
49.32651485074153
 30
0.0
 10
176.1705484328147
 20
49.62003259554206
 30
0.0
 10
176.4860416995347
 20
49.73482490013948
 30
0.0
 10
176.9867583475532
 20
49.85377947623545
 30
0.0
 10
177.1595547821683
 20
49.88459755922204
 30
0.0
 10
177.5079235549504
 20
49.92561677094066
 30
0.0
 10
177.6833245838608
 20
49.93598104942565
 30
0.0
 10
177.8599632295488
 20
49.93598104942565
 30
0.0
  0
SPLINE
  5
2C7
330
1F
100
AcDbEntity
  8
0
  6
Continuous
 62
     7
370
    15
100
AcDbSpline
210
0.0
220
0.0
230
1.0
 70
     8
 71
     3
 72
    38
 73
    34
 74
     0
 42
0.00000001
 43
0.00000001
 40
0.0
 40
0.0
 40
0.0
 40
0.0
 40
0.0091379361160599
 40
0.0356021613450922
 40
0.0624638613246755
 40
0.1138403589176791
 40
0.139906649729805
 40
0.1663375284202263
 40
0.2186409031630619
 40
0.2451711592633385
 40
0.2720686700601859
 40
0.2986802497528523
 40
0.3256733620571899
 40
0.3528614425041121
 40
0.3804527935675694
 40
0.4336532864708865
 40
0.4606793812241283
 40
0.4881255543165495
 40
0.5398165146147781
 40
0.5660598995922693
 40
0.5926894130742829
 40
0.6441099265125654
 40
0.6701924254455363
 40
0.6966336139550465
 40
0.7493980654985722
 40
0.7761662858875279
 40
0.8033109712855449
 40
0.8299739128429435
 40
0.8568254260828002
 40
0.8842797165819823
 40
0.9119462534132785
 40
0.95563735229776
 40
1.0
 40
1.0
 40
1.0
 40
1.0
 10
177.4065289271493
 20
81.7835488574928
 30
0.0
 10
177.4098197812579
 20
81.78436828725161
 30
0.0
 10
177.4226412233703
 20
81.78756085394426
 30
0.0
 10
177.3871247463036
 20
81.7786908924178
 30
0.0
 10
177.3076492081682
 20
81.7590079211451
 30
0.0
 10
177.1546667555592
 20
81.7217908595664
 30
0.0
 10
176.9433130873509
 20
81.67276574337708
 30
0.0
 10
176.689147941296
 20
81.61594096179358
 30
0.0
 10
176.3749586273792
 20
81.55005847239713
 30
0.0
 10
176.00756571834
 20
81.48039517109632
 30
0.0
 10
175.7043730444103
 20
81.42724228205647
 30
0.0
 10
175.3762650386844
 20
81.37485937722163
 30
0.0
 10
175.0257917807398
 20
81.32482564962413
 30
0.0
 10
174.6517173396422
 20
81.27825087527421
 30
0.0
 10
174.1356048067004
 20
81.22402739616282
 30
0.0
 10
173.5915862590807
 20
81.18310219311337
 30
0.0
 10
173.033626756825
 20
81.15917911663003
 30
0.0
 10
172.4771829206757
 20
81.14752179296947
 30
0.0
 10
171.9210158321779
 20
81.15391442953913
 30
0.0
 10
171.3792518300806
 20
81.17722698188014
 30
0.0
 10
170.8488275089985
 20
81.21114418868312
 30
0.0
 10
170.3386535403638
 20
81.2594372201228
 30
0.0
 10
169.8603425076958
 20
81.31779905547344
 30
0.0
 10
169.3994107523951
 20
81.38224259979945
 30
0.0
 10
168.975053607122
 20
81.45266907676012
 30
0.0
 10
168.597627492601
 20
81.5232135264828
 30
0.0
 10
168.3393323522436
 20
81.57493170817374
 30
0.0
 10
168.1094812432665
 20
81.62367590079072
 30
0.0
 10
167.9090786816779
 20
81.66823610101899
 30
0.0
 10
167.7386000079895
 20
81.70766312575715
 30
0.0
 10
167.5758320068682
 20
81.74649247971396
 30
0.0
 10
167.444379184343
 20
81.77892755894935
 30
0.0
 10
167.425702378054
 20
81.78361796202438
 30
0.0
 10
167.4162927548441
 20
81.78598104942569
 30
0.0
  0
LINE
  5
2C8
330
1F
100
AcDbEntity
  8
0
  6
Continuous
 62
     7
370
    15
100
AcDbLine
 10
165.4162927548
 20
42.0859810494
 30
0.0
 11
165.4162927548
 21
81.4859810494
 31
0.0
  0
SPLINE
  5
2C9
330
1F
100
AcDbEntity
  8
0
  6
Continuous
 62
     7
370
    15
100
AcDbSpline
210
0.0
220
0.0
230
1.0
 70
    24
 71
     3
 72
    10
 73
     6
 74
     0
 42
0.00000001
 43
0.00000001
 40
0.0
 40
0.0
 40
0.0
 40
0.0
 40
0.5
 40
0.5
 40
1.0
 40
1.0
 40
1.0
 40
1.0
 10
185.3662927548441
 20
57.28598104942564
 30
0.0
 10
185.3662927548441
 20
57.28598104942564
 30
0.0
 10
185.3041315383611
 20
57.28598104942564
 30
0.0
 10
185.0836221976895
 20
57.28598104942564
 30
0.0
 10
184.9247070947443
 20
57.28598104942564
 30
0.0
 10
184.766292754844
 20
57.28598104942564
 30
0.0
  0
LINE
  5
2CA
330
1F
100
AcDbEntity
  8
0
  6
Continuous
 62
     7
370
    15
100
AcDbLine
 10
185.3662927548
 20
49.9359810494
 30
0.0
 11
185.3662927548
 21
57.2859810494
 31
0.0
  0
SPLINE
  5
2CB
330
1F
100
AcDbEntity
  8
0
  6
Continuous
 62
     7
370
    15
100
AcDbSpline
210
0.0
220
0.0
230
1.0
 70
    24
 71
     3
 72
    12
 73
     8
 74
     0
 42
0.00000001
 43
0.00000001
 40
0.0
 40
0.0
 40
0.0
 40
0.0
 40
0.25
 40
0.25
 40
0.5
 40
0.5
 40
1.0
 40
1.0
 40
1.0
 40
1.0
 10
184.766292754844
 20
49.93598104942565
 30
0.0
 10
184.8555811138878
 20
49.93598104942565
 30
0.0
 10
184.94363994479
 20
49.93598104942564
 30
0.0
 10
185.0962936580392
 20
49.93598104942565
 30
0.0
 10
185.1620871513812
 20
49.93598104942565
 30
0.0
 10
185.3175277980972
 20
49.93598104942564
 30
0.0
 10
185.366292754844
 20
49.93598104942565
 30
0.0
 10
185.366292754844
 20
49.93598104942565
 30
0.0
  0
LINE
  5
2CC
330
1F
100
AcDbEntity
  8
0
  6
Continuous
 62
     7
370
    15
100
AcDbLine
 10
185.3662927548
 20
66.2859810494
 30
0.0
 11
185.3662927548
 21
81.1859810494
 31
0.0
  0
SPLINE
  5
2CD
330
1F
100
AcDbEntity
  8
0
  6
Continuous
 62
     7
370
    15
100
AcDbSpline
210
0.0
220
0.0
230
1.0
 70
    24
 71
     3
 72
    10
 73
     6
 74
     0
 42
0.00000001
 43
0.00000001
 40
0.0
 40
0.0
 40
0.0
 40
0.0
 40
0.5
 40
0.5
 40
1.0
 40
1.0
 40
1.0
 40
1.0
 10
184.766292754844
 20
66.28598104942564
 30
0.0
 10
184.9267149794435
 20
66.28598104942564
 30
0.0
 10
185.0831977801107
 20
66.28598104942564
 30
0.0
 10
185.3038513906781
 20
66.28598104942564
 30
0.0
 10
185.3662927548441
 20
66.28598104942564
 30
0.0
 10
185.3662927548441
 20
66.28598104942564
 30
0.0
  0
LINE
  5
2CE
330
1F
100
AcDbEntity
  8
0
  6
Continuous
 62
     7
370
    15
100
AcDbLine
 10
183.4514524537
 20
66.2859810494
 30
0.0
 11
183.4514524537
 21
81.7859810494
 31
0.0
  0
LINE
  5
2CF
330
1F
100
AcDbEntity
  8
0
  6
Continuous
 62
     7
370
    15
100
AcDbLine
 10
183.4514524537
 20
66.2859810494
 30
0.0
 11
184.7662927548
 21
66.2859810494
 31
0.0
  0
LINE
  5
2D0
330
1F
100
AcDbEntity
  8
0
  6
Continuous
 62
     7
370
    15
100
AcDbLine
 10
180.3762927548
 20
66.2859810494
 30
0.0
 11
180.3762927548
 21
80.0623138893
 31
0.0
  0
SPLINE
  5
2D1
330
1F
100
AcDbEntity
  8
0
  6
Continuous
 62
     7
370
    15
100
AcDbSpline
210
0.0
220
0.0
230
1.0
 70
    24
 71
     3
 72
     8
 73
     4
 74
     0
 42
0.00000001
 43
0.00000001
 40
0.0
 40
0.0
 40
0.0
 40
0.0
 40
1.0
 40
1.0
 40
1.0
 40
1.0
 10
179.3811330559506
 20
66.28598104942564
 30
0.0
 10
179.7134911523403
 20
66.28598104942564
 30
0.0
 10
180.0452724238244
 20
66.28598104942564
 30
0.0
 10
180.376292754844
 20
66.28598104942564
 30
0.0
  0
LINE
  5
2D2
330
1F
100
AcDbEntity
  8
0
  6
Continuous
 62
     7
370
    15
100
AcDbLine
 10
182.4562927548
 20
66.2859810494
 30
0.0
 11
182.4562927548
 21
80.0623138893
 31
0.0
  0
SPLINE
  5
2D3
330
1F
100
AcDbEntity
  8
0
  6
Continuous
 62
     7
370
    15
100
AcDbSpline
210
0.0
220
0.0
230
1.0
 70
    24
 71
     3
 72
     8
 73
     4
 74
     0
 42
0.00000001
 43
0.00000001
 40
0.0
 40
0.0
 40
0.0
 40
0.0
 40
1.0
 40
1.0
 40
1.0
 40
1.0
 10
182.456292754844
 20
66.28598104942564
 30
0.0
 10
182.7873130858637
 20
66.28598104942564
 30
0.0
 10
183.1190943573478
 20
66.28598104942564
 30
0.0
 10
183.4514524537375
 20
66.28598104942564
 30
0.0
  0
LINE
  5
2D4
330
1F
100
AcDbEntity
  8
0
  6
Continuous
 62
     7
370
    15
100
AcDbLine
 10
183.4514524537
 20
49.9359810494
 30
0.0
 11
184.7662927548
 21
49.9359810494
 31
0.0
  0
LINE
  5
2D5
330
1F
100
AcDbEntity
  8
0
  6
Continuous
 62
     7
370
    15
100
AcDbLine
 10
183.4514524537
 20
49.9359810494
 30
0.0
 11
183.4514524537
 21
57.2859810494
 31
0.0
  0
LINE
  5
2D6
330
1F
100
AcDbEntity
  8
0
  6
Continuous
 62
     7
370
    15
100
AcDbLine
 10
184.7662927548
 20
57.2859810494
 30
0.0
 11
183.4514524537
 21
57.2859810494
 31
0.0
  0
SPLINE
  5
2D7
330
1F
100
AcDbEntity
  8
0
  6
Continuous
 62
     7
370
    15
100
AcDbSpline
210
0.0
220
0.0
230
1.0
 70
    24
 71
     3
 72
     8
 73
     4
 74
     0
 42
0.00000001
 43
0.00000001
 40
0.0
 40
0.0
 40
0.0
 40
0.0
 40
1.0
 40
1.0
 40
1.0
 40
1.0
 10
180.376292754844
 20
57.28598104942564
 30
0.0
 10
180.0452724238244
 20
57.28598104942564
 30
0.0
 10
179.7134911523403
 20
57.28598104942564
 30
0.0
 10
179.3811330559506
 20
57.28598104942564
 30
0.0
  0
LINE
  5
2D8
330
1F
100
AcDbEntity
  8
0
  6
Continuous
 62
     7
370
    15
100
AcDbLine
 10
180.3762927548
 20
49.9359810494
 30
0.0
 11
180.3762927548
 21
57.2859810494
 31
0.0
  0
SPLINE
  5
2D9
330
1F
100
AcDbEntity
  8
0
  6
Continuous
 62
     7
370
    15
100
AcDbSpline
210
0.0
220
0.0
230
1.0
 70
    24
 71
     3
 72
     8
 73
     4
 74
     0
 42
0.00000001
 43
0.00000001
 40
0.0
 40
0.0
 40
0.0
 40
0.0
 40
1.0
 40
1.0
 40
1.0
 40
1.0
 10
179.3811330559506
 20
49.93598104942565
 30
0.0
 10
179.7205560972322
 20
49.93598104942565
 30
0.0
 10
180.0530668407273
 20
49.93598104942565
 30
0.0
 10
180.376292754844
 20
49.93598104942565
 30
0.0
  0
SPLINE
  5
2DA
330
1F
100
AcDbEntity
  8
0
  6
Continuous
 62
     7
370
    15
100
AcDbSpline
210
0.0
220
0.0
230
1.0
 70
    24
 71
     3
 72
     8
 73
     4
 74
     0
 42
0.00000001
 43
0.00000001
 40
0.0
 40
0.0
 40
0.0
 40
0.0
 40
1.0
 40
1.0
 40
1.0
 40
1.0
 10
182.456292754844
 20
49.93598104942565
 30
0.0
 10
182.779850313099
 20
49.93598104942565
 30
0.0
 10
183.1123446333159
 20
49.93598104942565
 30
0.0
 10
183.4514524537375
 20
49.93598104942565
 30
0.0
  0
LINE
  5
2DB
330
1F
100
AcDbEntity
  8
0
  6
Continuous
 62
     7
370
    15
100
AcDbLine
 10
182.4562927548
 20
49.9359810494
 30
0.0
 11
182.4562927548
 21
57.2859810494
 31
0.0
  0
SPLINE
  5
2DC
330
1F
100
AcDbEntity
  8
0
  6
Continuous
 62
     7
370
    15
100
AcDbSpline
210
0.0
220
0.0
230
1.0
 70
    24
 71
     3
 72
     8
 73
     4
 74
     0
 42
0.00000001
 43
0.00000001
 40
0.0
 40
0.0
 40
0.0
 40
0.0
 40
1.0
 40
1.0
 40
1.0
 40
1.0
 10
183.4514524537375
 20
57.28598104942564
 30
0.0
 10
183.1190943573478
 20
57.28598104942564
 30
0.0
 10
182.7873130858637
 20
57.28598104942564
 30
0.0
 10
182.456292754844
 20
57.28598104942564
 30
0.0
  0
SPLINE
  5
2DD
330
1F
100
AcDbEntity
  8
0
  6
Continuous
 62
     7
370
    15
100
AcDbSpline
210
0.0
220
0.0
230
1.0
 70
     8
 71
     3
 72
    14
 73
    10
 74
     0
 42
0.00000001
 43
0.00000001
 40
0.0
 40
0.0
 40
0.0
 40
0.0
 40
0.1250000000000006
 40
0.1250000000000006
 40
0.2500000000000013
 40
0.2500000000000013
 40
0.5000000000000026
 40
0.5000000000000026
 40
1.0
 40
1.0
 40
1.0
 40
1.0
 10
181.856292754844
 20
65.82090669929876
 30
0.0
 10
181.8817339859285
 20
65.82090669929876
 30
0.0
 10
181.9073482885559
 20
65.82839814116484
 30
0.0
 10
181.9528247290831
 20
65.85255643919845
 30
0.0
 10
181.9728279308225
 20
65.8685781235315
 30
0.0
 10
182.0279731227953
 20
65.92254810962666
 30
0.0
 10
182.0574073413175
 20
65.96516439477763
 30
0.0
 10
182.1353203538962
 20
66.096577583508
 30
0.0
 10
182.1738964544168
 20
66.1902526406524
 30
0.0
 10
182.2079483690948
 20
66.28598104942532
 30
0.0
  0
SPLINE
  5
2DE
330
1F
100
AcDbEntity
  8
0
  6
Continuous
 62
     7
370
    15
100
AcDbSpline
210
0.0
220
0.0
230
1.0
 70
    24
 71
     3
 72
    10
 73
     6
 74
     0
 42
0.00000001
 43
0.00000001
 40
0.0
 40
0.0
 40
0.0
 40
0.0
 40
0.5
 40
0.5
 40
1.0
 40
1.0
 40
1.0
 40
1.0
 10
182.2079483690941
 20
66.28598104942564
 30
0.0
 10
182.2853763736427
 20
66.28598104942564
 30
0.0
 10
182.3485559905292
 20
66.28598104942564
 30
0.0
 10
182.4338511697904
 20
66.28598104942564
 30
0.0
 10
182.456292754844
 20
66.28598104942564
 30
0.0
 10
182.456292754844
 20
66.28598104942564
 30
0.0
  0
SPLINE
  5
2DF
330
1F
100
AcDbEntity
  8
0
  6
Continuous
 62
     7
370
    15
100
AcDbSpline
210
0.0
220
0.0
230
1.0
 70
     8
 71
     3
 72
    12
 73
     8
 74
     0
 42
0.00000001
 43
0.00000001
 40
0.0
 40
0.0
 40
0.0
 40
0.0
 40
0.4999999999999982
 40
0.4999999999999982
 40
0.7499999999999991
 40
0.7499999999999991
 40
1.0
 40
1.0
 40
1.0
 40
1.0
 10
180.624637140594
 20
66.28598104942567
 30
0.0
 10
180.6585884660698
 20
66.19053542194015
 30
0.0
 10
180.697334324272
 20
66.09635338769196
 30
0.0
 10
180.7755296712797
 20
65.96462569197162
 30
0.0
 10
180.8050383629645
 20
65.92210418796712
 30
0.0
 10
180.8779135243702
 20
65.85083619952013
 30
0.0
 10
180.9247101585045
 20
65.82090669929828
 30
0.0
 10
180.9762927548441
 20
65.82090669929829
 30
0.0
  0
SPLINE
  5
2E0
330
1F
100
AcDbEntity
  8
0
  6
Continuous
 62
     7
370
    15
100
AcDbSpline
210
0.0
220
0.0
230
1.0
 70
    24
 71
     3
 72
    10
 73
     6
 74
     0
 42
0.00000001
 43
0.00000001
 40
0.0
 40
0.0
 40
0.0
 40
0.0
 40
0.5
 40
0.5
 40
1.0
 40
1.0
 40
1.0
 40
1.0
 10
180.376292754844
 20
66.28598104942564
 30
0.0
 10
180.376292754844
 20
66.28598104942564
 30
0.0
 10
180.3987423906895
 20
66.28598104942564
 30
0.0
 10
180.4837380489576
 20
66.28598104942564
 30
0.0
 10
180.546594132888
 20
66.28598104942564
 30
0.0
 10
180.624637140594
 20
66.28598104942564
 30
0.0
  0
SPLINE
  5
2E1
330
1F
100
AcDbEntity
  8
0
  6
Continuous
 62
     7
370
    15
100
AcDbSpline
210
0.0
220
0.0
230
1.0
 70
     8
 71
     3
 72
    12
 73
     8
 74
     0
 42
0.00000001
 43
0.00000001
 40
0.0
 40
0.0
 40
0.0
 40
0.0
 40
0.2499999999999989
 40
0.2499999999999989
 40
0.4999999999999978
 40
0.4999999999999978
 40
1.0
 40
1.0
 40
1.0
 40
1.0
 10
180.9762927548441
 20
57.75105539955299
 30
0.0
 10
180.9247005545695
 20
57.75105539955299
 30
0.0
 10
180.8777955457749
 20
57.72110455418677
 30
0.0
 10
180.8044618198984
 20
57.64919915642545
 30
0.0
 10
180.7752319904494
 20
57.60689952984168
 30
0.0
 10
180.6969992103865
 20
57.47491382899608
 30
0.0
 10
180.6585650524788
 20
57.38136085547857
 30
0.0
 10
180.624637140594
 20
57.28598104942564
 30
0.0
  0
SPLINE
  5
2E2
330
1F
100
AcDbEntity
  8
0
  6
Continuous
 62
     7
370
    15
100
AcDbSpline
210
0.0
220
0.0
230
1.0
 70
    24
 71
     3
 72
    12
 73
     8
 74
     0
 42
0.00000001
 43
0.00000001
 40
0.0
 40
0.0
 40
0.0
 40
0.0
 40
0.5000000000000032
 40
0.5000000000000032
 40
0.7500000000000016
 40
0.7500000000000016
 40
1.0
 40
1.0
 40
1.0
 40
1.0
 10
180.376292754844
 20
49.93598104942566
 30
0.0
 10
180.376292754844
 20
49.93598104942565
 30
0.0
 10
180.4228385001007
 20
49.93598104942565
 30
0.0
 10
180.5729394484903
 20
49.93598104942566
 30
0.0
 10
180.6368762647844
 20
49.93598104942566
 30
0.0
 10
180.7922439965141
 20
49.93598104942566
 30
0.0
 10
180.883487279432
 20
49.93598104942566
 30
0.0
 10
180.9762927548441
 20
49.93598104942566
 30
0.0
  0
SPLINE
  5
2E3
330
1F
100
AcDbEntity
  8
0
  6
Continuous
 62
     7
370
    15
100
AcDbSpline
210
0.0
220
0.0
230
1.0
 70
    24
 71
     3
 72
    10
 73
     6
 74
     0
 42
0.00000001
 43
0.00000001
 40
0.0
 40
0.0
 40
0.0
 40
0.0
 40
0.5
 40
0.5
 40
1.0
 40
1.0
 40
1.0
 40
1.0
 10
180.624637140594
 20
57.28598104942564
 30
0.0
 10
180.5473124087198
 20
57.28598104942564
 30
0.0
 10
180.4839325831833
 20
57.28598104942564
 30
0.0
 10
180.3983621344102
 20
57.28598104942564
 30
0.0
 10
180.376292754844
 20
57.28598104942564
 30
0.0
 10
180.376292754844
 20
57.28598104942564
 30
0.0
  0
SPLINE
  5
2E4
330
1F
100
AcDbEntity
  8
0
  6
Continuous
 62
     7
370
    15
100
AcDbSpline
210
0.0
220
0.0
230
1.0
 70
     8
 71
     3
 72
    12
 73
     8
 74
     0
 42
0.00000001
 43
0.00000001
 40
0.0
 40
0.0
 40
0.0
 40
0.0
 40
0.5
 40
0.5
 40
0.75
 40
0.75
 40
1.0
 40
1.0
 40
1.0
 40
1.0
 10
182.2079483690941
 20
57.28598104942564
 30
0.0
 10
182.1738026208031
 20
57.38197324784279
 30
0.0
 10
182.1346094623981
 20
57.47685992899284
 30
0.0
 10
182.0567618037443
 20
57.60774563834511
 30
0.0
 10
182.027357344959
 20
57.65011260728436
 30
0.0
 10
181.9543498236531
 20
57.72137138947639
 30
0.0
 10
181.9074445058453
 20
57.751055399553
 30
0.0
 10
181.856292754844
 20
57.751055399553
 30
0.0
  0
SPLINE
  5
2E5
330
1F
100
AcDbEntity
  8
0
  6
Continuous
 62
     7
370
    15
100
AcDbSpline
210
0.0
220
0.0
230
1.0
 70
    24
 71
     3
 72
    12
 73
     8
 74
     0
 42
0.00000001
 43
0.00000001
 40
0.0
 40
0.0
 40
0.0
 40
0.0
 40
0.25
 40
0.25
 40
0.5
 40
0.5
 40
1.0
 40
1.0
 40
1.0
 40
1.0
 10
181.856292754844
 20
49.93598104942566
 30
0.0
 10
181.9488347215659
 20
49.93598104942566
 30
0.0
 10
182.0410440987103
 20
49.93598104942565
 30
0.0
 10
182.1961810590871
 20
49.93598104942566
 30
0.0
 10
182.2599909565482
 20
49.93598104942566
 30
0.0
 10
182.4091173923493
 20
49.93598104942566
 30
0.0
 10
182.456292754844
 20
49.93598104942566
 30
0.0
 10
182.456292754844
 20
49.93598104942566
 30
0.0
  0
SPLINE
  5
2E6
330
1F
100
AcDbEntity
  8
0
  6
Continuous
 62
     7
370
    15
100
AcDbSpline
210
0.0
220
0.0
230
1.0
 70
    24
 71
     3
 72
    10
 73
     6
 74
     0
 42
0.00000001
 43
0.00000001
 40
0.0
 40
0.0
 40
0.0
 40
0.0
 40
0.5
 40
0.5
 40
1.0
 40
1.0
 40
1.0
 40
1.0
 10
182.456292754844
 20
57.28598104942564
 30
0.0
 10
182.4562927548439
 20
57.28598104942564
 30
0.0
 10
182.4343521322624
 20
57.28598104942564
 30
0.0
 10
182.3482219468706
 20
57.28598104942564
 30
0.0
 10
182.2851396397269
 20
57.28598104942564
 30
0.0
 10
182.2079483690941
 20
57.28598104942564
 30
0.0
  0
SPLINE
  5
2E7
330
1F
100
AcDbEntity
  8
0
  6
Continuous
 62
     7
370
    15
100
AcDbSpline
210
0.0
220
0.0
230
1.0
 70
     8
 71
     3
 72
    12
 73
     8
 74
     0
 42
0.00000001
 43
0.00000001
 40
0.0
 40
0.0
 40
0.0
 40
0.0
 40
0.2499999999999946
 40
0.2499999999999946
 40
0.4999999999999891
 40
0.4999999999999891
 40
1.0
 40
1.0
 40
1.0
 40
1.0
 10
199.6489657668651
 20
60.8602697389089
 30
0.0
 10
199.7213938891208
 20
60.84611280058626
 30
0.0
 10
199.7929485110101
 20
60.83420534999279
 30
0.0
 10
199.9342575822267
 20
60.81449123862306
 30
0.0
 10
200.0046112995828
 20
60.80667153169556
 30
0.0
 10
200.2025453485921
 20
60.78950066284523
 30
0.0
 10
200.3217297609964
 20
60.78598104942564
 30
0.0
 10
200.4162927548441
 20
60.78598104942564
 30
0.0
  0
SPLINE
  5
2E8
330
1F
100
AcDbEntity
  8
0
  6
Continuous
 62
     7
370
    15
100
AcDbSpline
210
0.0
220
0.0
230
1.0
 70
    24
 71
     3
 72
     8
 73
     4
 74
     0
 42
0.00000001
 43
0.00000001
 40
0.0
 40
0.0
 40
0.0
 40
0.0
 40
1.0
 40
1.0
 40
1.0
 40
1.0
 10
200.4162927548441
 20
60.78598104942564
 30
0.0
 10
200.5098706090487
 20
60.78598104942564
 30
0.0
 10
200.5771430639087
 20
60.78598104942564
 30
0.0
 10
200.6148915931541
 20
60.78598104942564
 30
0.0
  0
SPLINE
  5
2E9
330
1F
100
AcDbEntity
  8
0
  6
Continuous
 62
     7
370
    15
100
AcDbSpline
210
0.0
220
0.0
230
1.0
 70
     8
 71
     3
 72
    18
 73
    14
 74
     0
 42
0.00000001
 43
0.00000001
 40
0.0
 40
0.0
 40
0.0
 40
0.0
 40
0.25
 40
0.25
 40
0.5
 40
0.5
 40
0.5625
 40
0.5625
 40
0.625
 40
0.625
 40
0.75
 40
0.75
 40
1.0
 40
1.0
 40
1.0
 40
1.0
 10
185.3663548779674
 20
66.28598104942566
 30
0.0
 10
185.368498083557
 20
65.53875709312402
 30
0.0
 10
185.4232201334919
 20
64.79278869574075
 30
0.0
 10
185.5227660697167
 20
63.30061553732273
 30
0.0
 10
185.5655804263262
 20
62.55432285892593
 30
0.0
 10
185.5664583907698
 20
61.62037480666542
 30
0.0
 10
185.5642414598977
 20
61.43004701839759
 30
0.0
 10
185.5553404067666
 20
61.05297320331702
 30
0.0
 10
185.5486653429475
 20
60.86452097684707
 30
0.0
 10
185.5233972388624
 20
60.29936387847471
 30
0.0
 10
185.4994801168367
 20
59.92286093608593
 30
0.0
 10
185.4242477347988
 20
58.79349032042021
 30
0.0
 10
185.3685198606383
 20
58.04079753764582
 30
0.0
 10
185.3663548779674
 20
57.28598104942564
 30
0.0
  0
SPLINE
  5
2EA
330
1F
100
AcDbEntity
  8
0
  6
Continuous
 62
     7
370
    15
100
AcDbSpline
210
0.0
220
0.0
230
1.0
 70
     8
 71
     3
 72
    12
 73
     8
 74
     0
 42
0.00000001
 43
0.00000001
 40
0.0
 40
0.0
 40
0.0
 40
0.0
 40
0.5
 40
0.5
 40
0.75
 40
0.75
 40
1.0
 40
1.0
 40
1.0
 40
1.0
 10
185.366292754844
 20
48.90857836099505
 30
0.0
 10
185.366292754844
 20
49.09110506454275
 30
0.0
 10
185.3935135029717
 20
49.27569571987792
 30
0.0
 10
185.4739599487446
 20
49.53597704205243
 30
0.0
 10
185.5074071772226
 20
49.62053149486351
 30
0.0
 10
185.5898167469969
 20
49.78447944460773
 30
0.0
 10
185.6390998438805
 20
49.8639296686491
 30
0.0
 10
185.6954164665171
 20
49.93598104942745
 30
0.0
  0
SPLINE
  5
2EB
330
1F
100
AcDbEntity
  8
0
  6
Continuous
 62
     7
370
    15
100
AcDbSpline
210
0.0
220
0.0
230
1.0
 70
    24
 71
     3
 72
    10
 73
     6
 74
     0
 42
0.00000001
 43
0.00000001
 40
0.0
 40
0.0
 40
0.0
 40
0.0
 40
0.5
 40
0.5
 40
1.0
 40
1.0
 40
1.0
 40
1.0
 10
185.366292754844
 20
49.93598104942566
 30
0.0
 10
185.366292754844
 20
49.93598104942566
 30
0.0
 10
185.3932660885521
 20
49.93598104942566
 30
0.0
 10
185.5008564563379
 20
49.93598104942566
 30
0.0
 10
185.582321000681
 20
49.93598104942566
 30
0.0
 10
185.6954164665169
 20
49.93598104942566
 30
0.0
  0
LINE
  5
2EC
330
1F
100
AcDbEntity
  8
0
  6
Continuous
 62
     7
370
    15
100
AcDbLine
 10
180.9762927548
 20
65.8209066993
 30
0.0
 11
181.8562927548
 21
65.8209066993
 31
0.0
  0
LINE
  5
2ED
330
1F
100
AcDbEntity
  8
0
  6
Continuous
 62
     7
370
    15
100
AcDbLine
 10
181.8562927548
 20
57.7510553996
 30
0.0
 11
180.9762927548
 21
57.7510553996
 31
0.0
  0
LINE
  5
2EE
330
1F
100
AcDbEntity
  8
0
  6
Continuous
 62
     7
370
    15
100
AcDbLine
 10
180.9762927548
 20
49.9359810494
 30
0.0
 11
181.8562927548
 21
49.9359810494
 31
0.0
  0
LINE
  5
2EF
330
1F
100
AcDbEntity
  8
0
  6
Continuous
 62
     7
370
    15
100
AcDbLine
 10
197.6358338091
 20
74.9103857978
 30
0.0
 11
199.6489657669
 21
74.9103857978
 31
0.0
  0
SPLINE
  5
2F0
330
1F
100
AcDbEntity
  8
0
  6
Continuous
 62
     7
370
    15
100
AcDbSpline
210
0.0
220
0.0
230
1.0
 70
     8
 71
     3
 72
    12
 73
     8
 74
     0
 42
0.00000001
 43
0.00000001
 40
0.0
 40
0.0
 40
0.0
 40
0.0
 40
0.4999999999999966
 40
0.4999999999999966
 40
0.7499999999999982
 40
0.7499999999999982
 40
1.0
 40
1.0
 40
1.0
 40
1.0
 10
197.6358338090917
 20
74.91038579783235
 30
0.0
 10
197.868699635635
 20
74.6852241134078
 30
0.0
 10
198.1442503206621
 20
74.47169703461344
 30
0.0
 10
198.646841212793
 20
74.19352992537067
 30
0.0
 10
198.8248207015054
 20
74.11063351056798
 30
0.0
 10
199.2039308719721
 20
73.96876459068189
 30
0.0
 10
199.4079622667699
 20
73.90932274377647
 30
0.0
 10
199.616292754844
 20
73.86679746097258
 30
0.0
  0
LINE
  5
2F1
330
1F
100
AcDbEntity
  8
0
  6
Continuous
 62
     7
370
    15
100
AcDbLine
 10
199.6162927548
 20
68.7051646379
 30
0.0
 11
199.6162927548
 21
73.866797461
 31
0.0
  0
SPLINE
  5
2F2
330
1F
100
AcDbEntity
  8
0
  6
Continuous
 62
     7
370
    15
100
AcDbSpline
210
0.0
220
0.0
230
1.0
 70
     8
 71
     3
 72
    38
 73
    34
 74
     0
 42
0.00000001
 43
0.00000001
 40
0.0
 40
0.0
 40
0.0
 40
0.0
 40
0.0625000000000002
 40
0.0625000000000002
 40
0.1250000000000004
 40
0.1250000000000004
 40
0.1875000000000006
 40
0.1875000000000006
 40
0.2500000000000008
 40
0.2500000000000008
 40
0.3125000000000009
 40
0.3125000000000009
 40
0.375000000000001
 40
0.375000000000001
 40
0.4375000000000011
 40
0.4375000000000011
 40
0.5000000000000012
 40
0.5000000000000012
 40
0.5625000000000013
 40
0.5625000000000013
 40
0.6250000000000014
 40
0.6250000000000014
 40
0.6875000000000012
 40
0.6875000000000012
 40
0.7500000000000009
 40
0.7500000000000009
 40
0.8125000000000007
 40
0.8125000000000007
 40
0.8750000000000004
 40
0.8750000000000004
 40
0.9375000000000002
 40
0.9375000000000002
 40
1.0
 40
1.0
 40
1.0
 40
1.0
 10
199.616292754844
 20
68.70516463787874
 30
0.0
 10
199.39047042122
 20
68.65906884705345
 30
0.0
 10
199.1662071982263
 20
68.59256021703679
 30
0.0
 10
198.7386888177007
 20
68.42444279695533
 30
0.0
 10
198.5351381618601
 20
68.32331185716964
 30
0.0
 10
198.1472976032673
 20
68.08796724688932
 30
0.0
 10
197.9621200816441
 20
67.95261636694218
 30
0.0
 10
197.6227402941483
 20
67.65767173495664
 30
0.0
 10
197.4669438589312
 20
67.4973635703232
 30
0.0
 10
197.1824534711697
 20
67.1508357113057
 30
0.0
 10
197.0537225418209
 20
66.96382641381307
 30
0.0
 10
196.8321629603541
 20
66.57592587677178
 30
0.0
 10
196.7379837186294
 20
66.37360903390028
 30
0.0
 10
196.5832779169732
 20
65.9515355250494
 30
0.0
 10
196.522822216193
 20
65.73038371824093
 30
0.0
 10
196.4412598819249
 20
65.28610392974716
 30
0.0
 10
196.4192791352347
 20
65.06121301132241
 30
0.0
 10
196.4138703865426
 20
64.60574316796861
 30
0.0
 10
196.4310281136548
 20
64.37319959180981
 30
0.0
 10
196.5044407830428
 20
63.91987658529974
 30
0.0
 10
196.5603526572899
 20
63.69740707524475
 30
0.0
 10
196.7111449896537
 20
63.26113765704221
 30
0.0
 10
196.8071822850486
 20
63.04587458330614
 30
0.0
 10
197.0321547826283
 20
62.64092648563818
 30
0.0
 10
197.1614359669812
 20
62.44934203006277
 30
0.0
 10
197.4538386302854
 20
62.08823380845009
 30
0.0
 10
197.6179020954234
 20
61.91845238183428
 30
0.0
 10
197.9677993305142
 20
61.61445288571585
 30
0.0
 10
198.1549359718001
 20
61.47834362202316
 30
0.0
 10
198.5539282839874
 20
61.23833416323993
 30
0.0
 10
198.7656307149989
 20
61.1351052453947
 30
0.0
 10
199.1977765898945
 20
60.96907161088757
 30
0.0
 10
199.4201482484235
 20
60.90499484560542
 30
0.0
 10
199.6489657668651
 20
60.8602697389089
 30
0.0
  0
ELLIPSE
  5
2F3
330
1F
100
AcDbEntity
  8
0
  6
Continuous
 62
     7
370
    15
100
AcDbEllipse
 10
123.7800188306
 20
61.3966521949
 30
0.0
 11
22.50115792418138
 21
-6.146971432587691
 31
0.0
210
0.0
220
0.0
230
1.0
 40
0.5128213654
 41
6.281635036199156
 42
6.28522887051978
  0
SPLINE
  5
2F4
330
1F
100
AcDbEntity
  8
0
  6
Continuous
 62
     7
370
    15
100
AcDbSpline
210
0.0
220
0.0
230
1.0
 70
     8
 71
     3
 72
     8
 73
     4
 74
     0
 42
0.00000001
 43
0.00000001
 40
0.0
 40
0.0
 40
0.0
 40
0.0
 40
1.0
 40
1.0
 40
1.0
 40
1.0
 10
146.466292754844
 20
55.64858220533208
 30
0.0
 10
146.3869954272126
 20
55.53017584032438
 30
0.0
 10
146.3233982328678
 20
55.4065046634333
 30
0.0
 10
146.2875716874085
 20
55.27327441094229
 30
0.0
  0
SPLINE
  5
2F5
330
1F
100
AcDbEntity
  8
0
  6
Continuous
 62
     7
370
    15
100
AcDbSpline
210
0.0
220
0.0
230
1.0
 70
     8
 71
     3
 72
    12
 73
     8
 74
     0
 42
0.00000001
 43
0.00000001
 40
0.0
 40
0.0
 40
0.0
 40
0.0
 40
0.2499999999999986
 40
0.2499999999999986
 40
0.4999999999999971
 40
0.4999999999999971
 40
1.0
 40
1.0
 40
1.0
 40
1.0
 10
148.2162927548441
 20
55.27834249028615
 30
0.0
 10
148.0742503516549
 20
55.32510743606931
 30
0.0
 10
147.9301322451507
 20
55.36316188589827
 30
0.0
 10
147.6403777314782
 20
55.43289743629211
 30
0.0
 10
147.4946358281194
 20
55.46413590797246
 30
0.0
 10
147.0559555889396
 20
55.55174397568139
 30
0.0
 10
146.7615799728684
 20
55.60207859304688
 30
0.0
 10
146.466292754844
 20
55.64858220533208
 30
0.0
  0
SPLINE
  5
2F6
330
1F
100
AcDbEntity
  8
0
  6
Continuous
 62
     7
370
    15
100
AcDbSpline
210
0.0
220
0.0
230
1.0
 70
     8
 71
     3
 72
    20
 73
    16
 74
     0
 42
0.00000001
 43
0.00000001
 40
0.0
 40
0.0
 40
0.0
 40
0.0
 40
0.2499999999999996
 40
0.2499999999999996
 40
0.4999999999999991
 40
0.4999999999999991
 40
0.7499999999999987
 40
0.7499999999999987
 40
0.8749999999999971
 40
0.8749999999999971
 40
0.9374999999999983
 40
0.9374999999999983
 40
0.9687499999999991
 40
0.9687499999999991
 40
1.0
 40
1.0
 40
1.0
 40
1.0
 10
149.116292754845
 20
56.97069218852543
 30
0.0
 10
149.116292754845
 20
56.80004543769932
 30
0.0
 10
149.0908977352681
 20
56.62908077542171
 30
0.0
 10
149.0046045494861
 20
56.30400191942515
 30
0.0
 10
148.9439685708029
 20
56.14829400401982
 30
0.0
 10
148.7958667765816
 20
55.8475500483821
 30
0.0
 10
148.709097169803
 20
55.70258473168322
 30
0.0
 10
148.5604593744738
 20
55.49880060153158
 30
0.0
 10
148.5081701575876
 20
55.43237798531165
 30
0.0
 10
148.4174063292777
 20
55.34303085361702
 30
0.0
 10
148.3850403368257
 20
55.31440289227974
 30
0.0
 10
148.3273511811595
 20
55.28312181249936
 30
0.0
 10
148.306364153272
 20
55.27485623021418
 30
0.0
 10
148.2610751742815
 20
55.26859601184756
 30
0.0
 10
148.238060905443
 20
55.2711757121969
 30
0.0
 10
148.2162927548434
 20
55.27834249028397
 30
0.0
  0
LINE
  5
2F7
330
1F
100
AcDbEntity
  8
0
  6
Continuous
 62
     7
370
    15
100
AcDbLine
 10
149.1162927548
 20
56.9706921885
 30
0.0
 11
149.1162927548
 21
66.6012699103
 31
0.0
  0
SPLINE
  5
2F8
330
1F
100
AcDbEntity
  8
0
  6
Continuous
 62
     7
370
    15
100
AcDbSpline
210
0.0
220
0.0
230
1.0
 70
     8
 71
     3
 72
    20
 73
    16
 74
     0
 42
0.00000001
 43
0.00000001
 40
0.0
 40
0.0
 40
0.0
 40
0.0
 40
0.2499999999999986
 40
0.2499999999999986
 40
0.4999999999999971
 40
0.4999999999999971
 40
0.7499999999999957
 40
0.7499999999999957
 40
0.8749999999999962
 40
0.8749999999999962
 40
0.9374999999999981
 40
0.9374999999999981
 40
0.9687499999999991
 40
0.9687499999999991
 40
1.0
 40
1.0
 40
1.0
 40
1.0
 10
149.116292754845
 20
66.60126991032588
 30
0.0
 10
149.116292754845
 20
66.77191666115199
 30
0.0
 10
149.0908977352681
 20
66.94288132342962
 30
0.0
 10
149.0046045494861
 20
67.26796017942615
 30
0.0
 10
148.9439685708029
 20
67.42366809483148
 30
0.0
 10
148.7958667765816
 20
67.72441205046921
 30
0.0
 10
148.709097169803
 20
67.86937736716808
 30
0.0
 10
148.5604593744738
 20
68.07316149731973
 30
0.0
 10
148.5081701575876
 20
68.13958411353966
 30
0.0
 10
148.4174063292777
 20
68.22893124523428
 30
0.0
 10
148.3850403368257
 20
68.25755920657156
 30
0.0
 10
148.3273511811595
 20
68.28884028635196
 30
0.0
 10
148.306364153272
 20
68.29710586863712
 30
0.0
 10
148.2610751742815
 20
68.30336608700374
 30
0.0
 10
148.238060905443
 20
68.30078638665442
 30
0.0
 10
148.2162927548434
 20
68.29361960856735
 30
0.0
  0
SPLINE
  5
2F9
330
1F
100
AcDbEntity
  8
0
  6
Continuous
 62
     7
370
    15
100
AcDbSpline
210
0.0
220
0.0
230
1.0
 70
     8
 71
     3
 72
    12
 73
     8
 74
     0
 42
0.00000001
 43
0.00000001
 40
0.0
 40
0.0
 40
0.0
 40
0.0
 40
0.2499999999999986
 40
0.2499999999999986
 40
0.4999999999999971
 40
0.4999999999999971
 40
1.0
 40
1.0
 40
1.0
 40
1.0
 10
148.2162927548441
 20
68.29361960856517
 30
0.0
 10
148.0742503516549
 20
68.246854662782
 30
0.0
 10
147.9301322451507
 20
68.20880021295305
 30
0.0
 10
147.6403777314782
 20
68.1390646625592
 30
0.0
 10
147.4946358281194
 20
68.10782619087887
 30
0.0
 10
147.0559555889396
 20
68.02021812316993
 30
0.0
 10
146.7615799728684
 20
67.96988350580443
 30
0.0
 10
146.466292754844
 20
67.92337989351924
 30
0.0
  0
SPLINE
  5
2FA
330
1F
100
AcDbEntity
  8
0
  6
Continuous
 62
     7
370
    15
100
AcDbSpline
210
0.0
220
0.0
230
1.0
 70
     8
 71
     3
 72
     8
 73
     4
 74
     0
 42
0.00000001
 43
0.00000001
 40
0.0
 40
0.0
 40
0.0
 40
0.0
 40
1.0
 40
1.0
 40
1.0
 40
1.0
 10
146.466292754844
 20
67.92337989351924
 30
0.0
 10
146.3869954272126
 20
68.04178625852694
 30
0.0
 10
146.3233982328678
 20
68.16545743541802
 30
0.0
 10
146.2875716874085
 20
68.29868768790904
 30
0.0
  0
ELLIPSE
  5
2FB
330
1F
100
AcDbEntity
  8
0
  6
Continuous
 62
     7
370
    15
100
AcDbEllipse
 10
123.7800188306
 20
62.1753099039
 30
0.0
 11
22.50115792418139
 21
6.146971432587598
 31
0.0
210
0.0
220
0.0
230
1.0
 40
0.5128213654
 41
6.281141743839449
 42
6.284735578160072
  0
LINE
  5
2FC
330
1F
100
AcDbEntity
  8
0
  6
Continuous
 62
     7
370
    15
100
AcDbLine
 10
163.4162927548
 20
46.6822806486
 30
0.0
 11
163.4162927548
 21
76.8896814502
 31
0.0
  0
SPLINE
  5
2FD
330
1F
100
AcDbEntity
  8
0
  6
Continuous
 62
     7
370
    15
100
AcDbSpline
210
0.0
220
0.0
230
1.0
 70
     8
 71
     3
 72
    37
 73
    33
 74
     0
 42
0.00000001
 43
0.00000001
 40
-0.1266254246229652
 40
-0.094308920265689
 40
-0.0468438588499061
 40
0.0
 40
0.0312188406311963
 40
0.0625350707077963
 40
0.0936968928322773
 40
0.1243304270014221
 40
0.1547877422614909
 40
0.1858051167351422
 40
0.2167130688430307
 40
0.2475893961677336
 40
0.2785505527457038
 40
0.3100767087838524
 40
0.3417807687005669
 40
0.3732262309390787
 40
0.405698089259428
 40
0.4531468073849095
 40
0.5000655009397584
 40
0.5312623534105079
 40
0.5625708117516035
 40
0.5937316548361127
 40
0.6243200789887791
 40
0.6548794701783404
 40
0.6857828120135693
 40
0.7167968284790122
 40
0.7475836640619914
 40
0.7785530845197332
 40
0.8101373721414882
 40
0.8418358242958499
 40
0.8733745753770348
 40
0.905691079734311
 40
0.953156141150094
 40
1.0
 40
1.031218840631196
 40
1.062535070707796
 40
1.093696892832277
 10
156.6755397862914
 20
62.63402344121033
 30
0.0
 10
156.9927294446285
 20
63.32191071439821
 30
0.0
 10
157.3973443850013
 20
63.83533448597323
 30
0.0
 10
157.8258454638087
 20
64.19685230783398
 30
0.0
 10
158.3117055330692
 20
64.47053970207422
 30
0.0
 10
158.8394030194179
 20
64.63740465419038
 30
0.0
 10
159.3889446298858
 20
64.69379434727193
 30
0.0
 10
159.9383077803216
 20
64.63432044875685
 30
0.0
 10
160.4671219172247
 20
64.47168663761221
 30
0.0
 10
160.9500104412769
 20
64.2051338652312
 30
0.0
 10
161.3733453451036
 20
63.84712730162597
 30
0.0
 10
161.7203126586273
 20
63.40791714156939
 30
0.0
 10
161.9835041929393
 20
62.9091121535381
 30
0.0
 10
162.1480365736701
 20
62.3611451031717
 30
0.0
 10
162.2088461303275
 20
61.69692546575068
 30
0.0
 10
162.1055014152127
 20
60.93781561071197
 30
0.0
 10
161.7901017590836
 20
60.2513814759867
 30
0.0
 10
161.3886390827391
 20
59.74013878663945
 30
0.0
 10
160.9646311988772
 20
59.38018123311695
 30
0.0
 10
160.4836769901231
 20
59.10721083872151
 30
0.0
 10
159.9596858073817
 20
58.93853310493016
 30
0.0
 10
159.4120908212161
 20
58.87858033498143
 30
0.0
 10
158.8606104563369
 20
58.93440900280978
 30
0.0
 10
158.328182744945
 20
59.09409476905571
 30
0.0
 10
157.8401508524241
 20
59.36056442943538
 30
0.0
 10
157.4128257323448
 20
59.72033295277821
 30
0.0
 10
157.0632087746916
 20
60.16225897216187
 30
0.0
 10
156.7986402861718
 20
60.66370655593071
 30
0.0
 10
156.6347347380974
 20
61.21226031280275
 30
0.0
 10
156.573323562133
 20
61.87598481238263
 30
0.0
 10
156.6755397862914
 20
62.63402344121033
 30
0.0
 10
156.9927294446285
 20
63.32191071439821
 30
0.0
 10
157.3973443850013
 20
63.83533448597323
 30
0.0
  0
SPLINE
  5
2FE
330
1F
100
AcDbEntity
  8
0
  6
Continuous
 62
     7
370
    15
100
AcDbSpline
210
0.0
220
0.0
230
1.0
 70
     8
 71
     3
 72
    35
 73
    31
 74
     0
 42
0.00000001
 43
0.00000001
 40
-0.1243197192419421
 40
-0.1014876450686309
 40
-0.0608470324374216
 40
0.0
 40
0.0343752282034998
 40
0.06664410493777
 40
0.0968273219162002
 40
0.1249505624682888
 40
0.152666254694978
 40
0.1874715331004942
 40
0.2288808119705798
 40
0.2500285047284304
 40
0.3139875933197626
 40
0.3744837005593567
 40
0.4023317688239968
 40
0.4371113644499154
 40
0.4795885530026773
 40
0.499790401118691
 40
0.5479907717246938
 40
0.5929884907782011
 40
0.6398024291144515
 40
0.6945156081854151
 40
0.728510232295924
 40
0.7625225324122133
 40
0.7965529092023899
 40
0.8145533850530493
 40
0.833722924435114
 40
0.8540905233807928
 40
0.8756802807580579
 40
0.898512354931369
 40
0.9391529675625784
 40
1.0
 40
1.0343752282035
 40
1.06664410493777
 40
1.0968273219162
 10
158.015651248046
 20
63.66082126012432
 30
0.0
 10
157.5441900152539
 20
63.18245958916673
 30
0.0
 10
157.2602682564513
 20
62.63409877786813
 30
0.0
 10
157.1353252108848
 20
62.18097476308607
 30
0.0
 10
157.1037277475568
 20
61.74260167041872
 30
0.0
 10
157.1502168645528
 20
61.3280635726102
 30
0.0
 10
157.2746719449258
 20
60.90723030671309
 30
0.0
 10
157.5090216649341
 20
60.46112755631126
 30
0.0
 10
157.8233148802617
 20
60.10585259293248
 30
0.0
 10
158.3082405621751
 20
59.736605238893
 30
0.0
 10
158.9801950461575
 20
59.46545451410192
 30
0.0
 10
159.7334723889503
 20
59.47687564674923
 30
0.0
 10
160.2999564359604
 20
59.64666657153782
 30
0.0
 10
160.7465499230122
 20
59.88222332190212
 30
0.0
 10
161.0979377457779
 20
60.19476481268401
 30
0.0
 10
161.4178296732062
 20
60.61607653018282
 30
0.0
 10
161.6518991356321
 20
61.11740566173099
 30
0.0
 10
161.7486636171254
 20
61.79470967348606
 30
0.0
 10
161.6431975942388
 20
62.50389978614643
 30
0.0
 10
161.3437640572974
 20
63.09522565714118
 30
0.0
 10
160.9443182348224
 20
63.52799472594782
 30
0.0
 10
160.5435528708317
 20
63.81062378779481
 30
0.0
 10
160.1636042017252
 20
63.97216354507418
 30
0.0
 10
159.8326185181677
 20
64.05325509918278
 30
0.0
 10
159.5575345617118
 20
64.08757617143742
 30
0.0
 10
159.2622998924782
 20
64.08752464587782
 30
0.0
 10
158.9515653115976
 20
64.04621584638505
 30
0.0
 10
158.5550309930193
 20
63.9355685659605
 30
0.0
 10
158.015651248046
 20
63.66082126012432
 30
0.0
 10
157.5441900152539
 20
63.18245958916673
 30
0.0
 10
157.2602682564513
 20
62.63409877786813
 30
0.0
  0
SPLINE
  5
2FF
330
1F
100
AcDbEntity
  8
0
  6
Continuous
 62
     7
370
    15
100
AcDbSpline
210
0.0
220
0.0
230
1.0
 70
     8
 71
     3
 72
     8
 73
     4
 74
     0
 42
0.00000001
 43
0.00000001
 40
0.0
 40
0.0
 40
0.0
 40
0.0
 40
1.0
 40
1.0
 40
1.0
 40
1.0
 10
200.4162927548441
 20
73.78598104942567
 30
0.0
 10
200.1659320616953
 20
73.78598104942567
 30
0.0
 10
199.9000204858373
 20
73.808881780405
 30
0.0
 10
199.616292754844
 20
73.86679746097258
 30
0.0
  0
LINE
  5
300
330
1F
100
AcDbEntity
  8
0
  6
Continuous
 62
     7
370
    15
100
AcDbLine
 10
200.4162927548
 20
73.7859810494
 30
0.0
 11
200.4162927548
 21
68.7859810494
 31
0.0
  0
SPLINE
  5
301
330
1F
100
AcDbEntity
  8
0
  6
Continuous
 62
     7
370
    15
100
AcDbSpline
210
0.0
220
0.0
230
1.0
 70
     8
 71
     3
 72
     8
 73
     4
 74
     0
 42
0.00000001
 43
0.00000001
 40
0.0
 40
0.0
 40
0.0
 40
0.0
 40
1.0
 40
1.0
 40
1.0
 40
1.0
 10
199.616292754844
 20
68.70516463787874
 30
0.0
 10
199.8760410214746
 20
68.75818553078018
 30
0.0
 10
200.1420527894289
 20
68.78598104942566
 30
0.0
 10
200.4162927548441
 20
68.78598104942566
 30
0.0
  0
ARC
  5
302
330
1F
100
AcDbEntity
  8
0
  6
Continuous
 62
     7
370
    15
100
AcDbCircle
 10
148.2162927548
 20
58.6609810494
 30
0.0
 40
0.9000000000000057
100
AcDbArc
 50
270.0
 51
0.0
  0
ARC
  5
303
330
1F
100
AcDbEntity
  8
0
  6
Continuous
 62
     7
370
    15
100
AcDbCircle
 10
148.2162927548
 20
64.9109810494
 30
0.0
 40
0.9000000000000057
100
AcDbArc
 50
0.0
 51
90.0
  0
LINE
  5
304
330
1F
100
AcDbEntity
  8
0
  6
Continuous
 62
     7
370
    15
100
AcDbLine
 10
146.4662927548
 20
65.8109810494
 30
0.0
 11
148.2162927548
 21
65.8109810494
 31
0.0
  0
LINE
  5
305
330
1F
100
AcDbEntity
  8
0
  6
Continuous
 62
     7
370
    15
100
AcDbLine
 10
146.4662927548
 20
65.8109810494
 30
0.0
 11
146.4662927548
 21
67.9233798935
 31
0.0
  0
LINE
  5
306
330
1F
100
AcDbEntity
  8
0
  6
Continuous
 62
     7
370
    15
100
AcDbLine
 10
145.5162927548
 20
66.3594638052
 30
0.0
 11
146.4662927548
 21
65.8109810494
 31
0.0
  0
LINE
  5
307
330
1F
100
AcDbEntity
  8
0
  6
Continuous
 62
     7
370
    15
100
AcDbLine
 10
145.5162927548
 20
66.3594638052
 30
0.0
 11
145.5162927548
 21
67.2875812551
 31
0.0
  0
SPLINE
  5
308
330
1F
100
AcDbEntity
  8
0
  6
Continuous
 62
     7
370
    15
100
AcDbSpline
210
0.0
220
0.0
230
1.0
 70
     8
 71
     3
 72
    10
 73
     6
 74
     0
 42
0.00000001
 43
0.00000001
 40
0.0
 40
0.0
 40
0.0
 40
0.0
 40
0.5
 40
0.5
 40
1.0
 40
1.0
 40
1.0
 40
1.0
 10
145.6413640494634
 20
68.17108402410099
 30
0.0
 10
145.6221486186791
 20
68.02721646073253
 30
0.0
 10
145.5878161709027
 20
67.87630694285488
 30
0.0
 10
145.5356412610492
 20
67.58023990135665
 30
0.0
 10
145.516292754844
 20
67.4306916724532
 30
0.0
 10
145.5162927548441
 20
67.28758125514378
 30
0.0
  0
LINE
  5
309
330
1F
100
AcDbEntity
  8
0
  6
Continuous
 62
     7
370
    15
100
AcDbLine
 10
146.4662927548
 20
57.7609810494
 30
0.0
 11
146.4662927548
 21
55.6485822053
 31
0.0
  0
LINE
  5
30A
330
1F
100
AcDbEntity
  8
0
  6
Continuous
 62
     7
370
    15
100
AcDbLine
 10
146.4662927548
 20
57.7609810494
 30
0.0
 11
148.2162927548
 21
57.7609810494
 31
0.0
  0
SPLINE
  5
30B
330
1F
100
AcDbEntity
  8
0
  6
Continuous
 62
     7
370
    15
100
AcDbSpline
210
0.0
220
0.0
230
1.0
 70
     8
 71
     3
 72
    10
 73
     6
 74
     0
 42
0.00000001
 43
0.00000001
 40
0.0
 40
0.0
 40
0.0
 40
0.0
 40
0.5
 40
0.5
 40
1.0
 40
1.0
 40
1.0
 40
1.0
 10
145.6413640494634
 20
55.40087807475033
 30
0.0
 10
145.6221486186791
 20
55.54474563811878
 30
0.0
 10
145.5878161709027
 20
55.69565515599645
 30
0.0
 10
145.5356412610492
 20
55.99172219749468
 30
0.0
 10
145.516292754844
 20
56.14127042639813
 30
0.0
 10
145.5162927548441
 20
56.28438084370754
 30
0.0
  0
LINE
  5
30C
330
1F
100
AcDbEntity
  8
0
  6
Continuous
 62
     7
370
    15
100
AcDbLine
 10
145.5162927548
 20
57.2124982937
 30
0.0
 11
145.5162927548
 21
56.2843808437
 31
0.0
  0
LINE
  5
30D
330
1F
100
AcDbEntity
  8
0
  6
Continuous
 62
     7
370
    15
100
AcDbLine
 10
145.5162927548
 20
57.2124982937
 30
0.0
 11
146.4662927548
 21
57.7609810494
 31
0.0
  0
LINE
  5
30E
330
1F
100
AcDbEntity
  8
0
  6
Continuous
 62
     7
370
    15
100
AcDbLine
 10
157.4778092716
 20
63.014845075
 30
0.0
 11
157.547375049
 21
63.1130306757
 31
0.0
  0
SPLINE
  5
30F
330
1F
100
AcDbEntity
  8
0
  6
Continuous
 62
     7
370
    15
100
AcDbSpline
210
0.0
220
0.0
230
1.0
 70
     8
 71
     3
 72
    22
 73
    18
 74
     0
 42
0.00000001
 43
0.00000001
 40
0.0
 40
0.0
 40
0.0
 40
0.0
 40
0.2500000000000006
 40
0.2500000000000006
 40
0.3750000000000007
 40
0.3750000000000007
 40
0.4375000000000007
 40
0.4375000000000007
 40
0.5000000000000008
 40
0.5000000000000008
 40
0.5625000000000008
 40
0.5625000000000008
 40
0.6250000000000009
 40
0.6250000000000009
 40
0.7500000000000011
 40
0.7500000000000011
 40
1.0
 40
1.0
 40
1.0
 40
1.0
 10
146.276262801234
 20
68.34016263510777
 30
0.0
 10
146.2442955137853
 20
68.45580346544888
 30
0.0
 10
146.2067864293799
 20
68.56856541377437
 30
0.0
 10
146.1293368104472
 20
68.72401568198974
 30
0.0
 10
146.0999498832194
 20
68.77387581374421
 30
0.0
 10
146.0446479153827
 20
68.83588940933151
 30
0.0
 10
146.0242194087558
 20
68.85465431465381
 30
0.0
 10
145.9756313765173
 20
68.88150765746788
 30
0.0
 10
145.9472196501573
 20
68.88881405906146
 30
0.0
 10
145.8880115658811
 20
68.87508213033958
 30
0.0
 10
145.8604668826018
 20
68.85422791232055
 30
0.0
 10
145.8161252368074
 20
68.80308997356518
 30
0.0
 10
145.7986623723895
 20
68.77369004723406
 30
0.0
 10
145.7533380001523
 20
68.68294958118179
 30
0.0
 10
145.7327448874619
 20
68.61996845011926
 30
0.0
 10
145.6799247960558
 20
68.42870917870974
 30
0.0
 10
145.6585369253887
 20
68.29965880564689
 30
0.0
 10
145.6413640494634
 20
68.17108402410116
 30
0.0
  0
LINE
  5
310
330
1F
100
AcDbEntity
  8
0
  6
Continuous
 62
     7
370
    15
100
AcDbLine
 10
145.5162927548
 20
67.2875812551
 30
0.0
 11
145.5162927548
 21
75.2319646406
 31
0.0
  0
LINE
  5
311
330
1F
100
AcDbEntity
  8
0
  6
Continuous
 62
     7
370
    15
100
AcDbLine
 10
145.5162927548
 20
48.3399974583
 30
0.0
 11
145.5162927548
 21
56.2843808437
 31
0.0
  0
SPLINE
  5
312
330
1F
100
AcDbEntity
  8
0
  6
Continuous
 62
     7
370
    15
100
AcDbSpline
210
0.0
220
0.0
230
1.0
 70
     8
 71
     3
 72
    22
 73
    18
 74
     0
 42
0.00000001
 43
0.00000001
 40
0.0
 40
0.0
 40
0.0
 40
0.0
 40
0.2499999999999997
 40
0.2499999999999997
 40
0.3749999999999991
 40
0.3749999999999991
 40
0.4374999999999988
 40
0.4374999999999988
 40
0.4999999999999985
 40
0.4999999999999985
 40
0.5624999999999982
 40
0.5624999999999982
 40
0.624999999999998
 40
0.624999999999998
 40
0.7499999999999987
 40
0.7499999999999987
 40
1.0
 40
1.0
 40
1.0
 40
1.0
 10
146.276262801234
 20
55.23179946374355
 30
0.0
 10
146.2442955137853
 20
55.11615863340243
 30
0.0
 10
146.2067864293799
 20
55.00339668507697
 30
0.0
 10
146.1293368104472
 20
54.84794641686158
 30
0.0
 10
146.0999498832194
 20
54.79808628510711
 30
0.0
 10
146.0446479153827
 20
54.73607268951982
 30
0.0
 10
146.0242194087558
 20
54.7173077841975
 30
0.0
 10
145.9756313765173
 20
54.69045444138344
 30
0.0
 10
145.9472196501573
 20
54.68314803978987
 30
0.0
 10
145.8880115658811
 20
54.69687996851174
 30
0.0
 10
145.8604668826018
 20
54.71773418653077
 30
0.0
 10
145.8161252368074
 20
54.76887212528613
 30
0.0
 10
145.7986623723895
 20
54.79827205161726
 30
0.0
 10
145.7533380001523
 20
54.88901251766953
 30
0.0
 10
145.732744887462
 20
54.95199364873204
 30
0.0
 10
145.6799247960558
 20
55.14325292014159
 30
0.0
 10
145.6585369253887
 20
55.27230329320444
 30
0.0
 10
145.6413640494634
 20
55.40087807475016
 30
0.0
  0
LINE
  5
313
330
1F
100
AcDbEntity
  8
0
  6
Continuous
 62
     7
370
    15
100
AcDbLine
 10
180.9762927548
 20
49.0789701893
 30
0.0
 11
181.8562927548
 21
49.0789701893
 31
0.0
  0
SPLINE
  5
314
330
1F
100
AcDbEntity
  8
0
  6
Continuous
 62
     7
370
    15
100
AcDbSpline
210
0.0
220
0.0
230
1.0
 70
     8
 71
     3
 72
    12
 73
     8
 74
     0
 42
0.00000001
 43
0.00000001
 40
0.0
 40
0.0
 40
0.0
 40
0.0
 40
0.5000000000000013
 40
0.5000000000000013
 40
0.7500000000000007
 40
0.7500000000000007
 40
1.0
 40
1.0
 40
1.0
 40
1.0
 10
180.376292754844
 20
48.27013386917092
 30
0.0
 10
180.376292754844
 20
48.45469530088101
 30
0.0
 10
180.4232888523524
 20
48.64181904611583
 30
0.0
 10
180.5727947903526
 20
48.87523669357384
 30
0.0
 10
180.6373134129111
 20
48.94586222460693
 30
0.0
 10
180.7917531056401
 20
49.04794229006364
 30
0.0
 10
180.882691493643
 20
49.07897018927448
 30
0.0
 10
180.9762927548441
 20
49.07897018927448
 30
0.0
  0
SPLINE
  5
315
330
1F
100
AcDbEntity
  8
0
  6
Continuous
 62
     7
370
    15
100
AcDbSpline
210
0.0
220
0.0
230
1.0
 70
     8
 71
     3
 72
    12
 73
     8
 74
     0
 42
0.00000001
 43
0.00000001
 40
0.0
 40
0.0
 40
0.0
 40
0.0
 40
0.249999999999999
 40
0.249999999999999
 40
0.499999999999998
 40
0.499999999999998
 40
1.0
 40
1.0
 40
1.0
 40
1.0
 10
181.856292754844
 20
49.07897018927443
 30
0.0
 10
181.9489508443503
 20
49.07897018927443
 30
0.0
 10
182.041014253908
 20
49.04783184358135
 30
0.0
 10
182.1951718043988
 20
48.94591875884696
 30
0.0
 10
182.2596607377635
 20
48.87546022970255
 30
0.0
 10
182.409712286713
 20
48.64112890631604
 30
0.0
 10
182.456292754844
 20
48.4563436997684
 30
0.0
 10
182.456292754844
 20
48.27013386917092
 30
0.0
  0
LINE
  5
316
330
1F
100
AcDbEntity
  8
0
  6
Continuous
 62
     7
370
    15
100
AcDbLine
 10
183.4514524537
 20
41.7859810494
 30
0.0
 11
183.4514524537
 21
45.6745720483
 31
0.0
  0
LINE
  5
317
330
1F
100
AcDbEntity
  8
0
  6
Continuous
 62
     7
370
    15
100
AcDbLine
 10
182.4562927548
 20
43.5096482096
 30
0.0
 11
182.4562927548
 21
47.87189315
 31
0.0
  0
SPLINE
  5
318
330
1F
100
AcDbEntity
  8
0
  6
Continuous
 62
     7
370
    15
100
AcDbSpline
210
0.0
220
0.0
230
1.0
 70
     8
 71
     3
 72
     8
 73
     4
 74
     0
 42
0.00000001
 43
0.00000001
 40
0.0
 40
0.0
 40
0.0
 40
0.0
 40
1.0
 40
1.0
 40
1.0
 40
1.0
 10
182.456292754844
 20
47.87189314997029
 30
0.0
 10
182.7799294104663
 20
47.13559679922577
 30
0.0
 10
183.1124196319829
 20
46.40352390187398
 30
0.0
 10
183.4514524537375
 20
45.67457204834815
 30
0.0
  0
SPLINE
  5
319
330
1F
100
AcDbEntity
  8
0
  6
Continuous
 62
     7
370
    15
100
AcDbSpline
210
0.0
220
0.0
230
1.0
 70
     8
 71
     3
 72
    12
 73
     8
 74
     0
 42
0.00000001
 43
0.00000001
 40
0.0
 40
0.0
 40
0.0
 40
0.0
 40
0.250000000000002
 40
0.250000000000002
 40
0.500000000000004
 40
0.500000000000004
 40
1.0
 40
1.0
 40
1.0
 40
1.0
 10
184.766292754844
 20
45.6745720483482
 30
0.0
 10
184.8544796202129
 20
45.6745720483482
 30
0.0
 10
184.9431670135142
 20
45.69985219851265
 30
0.0
 10
185.097419506633
 20
45.7894635440144
 30
0.0
 10
185.162765487709
 20
45.85244918094042
 30
0.0
 10
185.3171753576601
 20
46.06873590269798
 30
0.0
 10
185.3662927548441
 20
46.24871566011836
 30
0.0
 10
185.3662927548441
 20
46.42572389012005
 30
0.0
  0
LINE
  5
31A
330
1F
100
AcDbEntity
  8
0
  6
Continuous
 62
     7
370
    15
100
AcDbLine
 10
185.3662927548
 20
42.3859810494
 30
0.0
 11
185.3662927548
 21
46.4257238901
 31
0.0
  0
SPLINE
  5
31B
330
1F
100
AcDbEntity
  8
0
  6
Continuous
 62
     7
370
    15
100
AcDbSpline
210
0.0
220
0.0
230
1.0
 70
     8
 71
     3
 72
     8
 73
     4
 74
     0
 42
0.00000001
 43
0.00000001
 40
0.0
 40
0.0
 40
0.0
 40
0.0
 40
1.0
 40
1.0
 40
1.0
 40
1.0
 10
179.3811330559506
 20
45.6745720483482
 30
0.0
 10
179.7201658777052
 20
46.40352390187402
 30
0.0
 10
180.0526560992218
 20
47.13559679922579
 30
0.0
 10
180.376292754844
 20
47.8718931499703
 30
0.0
  0
LINE
  5
31C
330
1F
100
AcDbEntity
  8
0
  6
Continuous
 62
     7
370
    15
100
AcDbLine
 10
180.3762927548
 20
43.5096482096
 30
0.0
 11
180.3762927548
 21
47.87189315
 31
0.0
  0
LINE
  5
31D
330
1F
100
AcDbEntity
  8
0
  6
Continuous
 62
     7
370
    15
100
AcDbLine
 10
183.4514524537
 20
45.6745720483
 30
0.0
 11
184.7662927548
 21
45.6745720483
 31
0.0
  0
LINE
  5
31E
330
1F
100
AcDbEntity
  8
0
  6
Continuous
 62
     7
370
    15
100
AcDbLine
 10
182.4562927548
 20
48.2701338692
 30
0.0
 11
182.4562927548
 21
47.87189315
 31
0.0
  0
LINE
  5
31F
330
1F
100
AcDbEntity
  8
0
  6
Continuous
 62
     7
370
    15
100
AcDbLine
 10
180.3762927548
 20
47.87189315
 30
0.0
 11
180.3762927548
 21
48.2701338692
 31
0.0
  0
LINE
  5
320
330
1F
100
AcDbEntity
  8
0
  6
Continuous
 62
     7
370
    15
100
AcDbLine
 10
185.3662927548
 20
46.4257238901
 30
0.0
 11
185.3662927548
 21
48.908578361
 31
0.0
  0
LINE
  5
321
330
1F
100
AcDbEntity
  8
0
  6
Continuous
 62
     7
370
    15
100
AcDbLine
 10
146.5684837525
 20
65.7519810494
 30
0.0
 11
148.5367908048
 21
65.7519810494
 31
0.0
  0
LINE
  5
322
330
1F
100
AcDbEntity
  8
0
  6
Continuous
 62
     7
370
    15
100
AcDbLine
 10
146.4662927548
 20
65.8109810494
 30
0.0
 11
146.5684837525
 21
65.7519810494
 31
0.0
  0
LINE
  5
323
330
1F
100
AcDbEntity
  8
0
  6
Continuous
 62
     7
370
    15
100
AcDbLine
 10
146.4662927548
 20
57.7609810494
 30
0.0
 11
146.5684837525
 21
57.8199810494
 31
0.0
  0
LINE
  5
324
330
1F
100
AcDbEntity
  8
0
  6
Continuous
 62
     7
370
    15
100
AcDbLine
 10
146.5684837525
 20
57.8199810494
 30
0.0
 11
148.5367908048
 21
57.8199810494
 31
0.0
  0
SPLINE
  5
325
330
1F
100
AcDbEntity
  8
0
  6
Continuous
 62
     7
370
    15
100
AcDbSpline
210
0.0
220
0.0
230
1.0
 70
     8
 71
     3
 72
    14
 73
    10
 74
     0
 42
0.00000001
 43
0.00000001
 40
0.0
 40
0.0
 40
0.0
 40
0.0
 40
0.25
 40
0.25
 40
0.5
 40
0.5
 40
0.75
 40
0.75
 40
1.0
 40
1.0
 40
1.0
 40
1.0
 10
200.6148915931541
 20
75.8308491769484
 30
0.0
 10
200.589110125622
 20
75.71273432052713
 30
0.0
 10
200.5496411485125
 20
75.60035210314501
 30
0.0
 10
200.4417026728633
 20
75.38773374363053
 30
0.0
 10
200.3720766158795
 20
75.28679902818865
 30
0.0
 10
200.2061338158067
 20
75.1143386611465
 30
0.0
 10
200.107518414852
 20
75.04067745413592
 30
0.0
 10
199.8902107280576
 20
74.93885993720808
 30
0.0
 10
199.7705972890019
 20
74.91038579783235
 30
0.0
 10
199.6489657668651
 20
74.91038579783235
 30
0.0
  0
LINE
  5
326
330
1F
100
AcDbEntity
  8
0
  6
Continuous
 62
     7
370
    15
100
AcDbLine
 10
245.4162927548
 20
81.7859810494
 30
0.0
 11
245.4162927548
 21
60.7859810494
 31
0.0
  0
LINE
  5
327
330
1F
100
AcDbEntity
  8
0
  6
Continuous
 62
     7
370
    15
100
AcDbLine
 10
204.6735417315
 20
29.7859810494
 30
0.0
 11
245.4162927548
 21
29.7859810494
 31
0.0
  0
LINE
  5
328
330
1F
100
AcDbEntity
  8
0
  6
Continuous
 62
     7
370
    15
100
AcDbLine
 10
245.4162927548
 20
34.7859810494
 30
0.0
 11
245.4162927548
 21
29.7859810494
 31
0.0
  0
DIMENSION
  5
329
330
1F
100
AcDbEntity
  8
VERMASSUNG
100
AcDbDimension
  2
*D12
 10
245.4162927548
 20
99.6484208411
 30
0.0
 11
222.9162927548
 21
99.6484208411
 31
0.0
 70
   160
 71
     2
 42
-1.0
  3
SLDDIMSTYLE0
100
AcDbAlignedDimension
 13
200.4162927548
 23
73.7859810494
 33
0.0
 14
245.4162927548
 24
93.7859810494
 34
0.0
100
AcDbRotatedDimension
  0
LINE
  5
333
330
1F
100
AcDbEntity
  8
VERMASSUNG
  6
CENTERX2
370
     0
100
AcDbLine
 10
143.4344844146
 20
61.7859810494
 30
0.0
 11
251.0376922325
 21
61.7859810494
 31
0.0
  0
OLE2FRAME
  5
334
330
1F
100
AcDbEntity
  8
0
100
AcDbOle2Frame
 70
     2
  3
Bitmap Image
 10
13.8511154363
 20
38.264191557
 30
0.0
 11
51.6290888628
 21
31.9806341108
 31
0.0
 71
     2
 72
     0
 73
     1
 90
    12928
310
80552BED0767C5B32B40DDAF6807D121434000000000000000006FFBDDFB85D0
310
4940DDAF6807D121434000000000000000006FFBDDFB85D04940416F4BD60AFB
310
3F4000000000000000002BED0767C5B32B40416F4BD60AFB3F40000000000000
310
0000000000000100000000010000010000000100000000000100000000320000
310
D0CF11E0A1B11AE1000000000000000000000000000000003E000300FEFF0900
310
0600000000000000000000000100000001000000000000000010000002000000
310
01000000FEFFFFFF0000000000000000FFFFFFFFFFFFFFFFFFFFFFFFFFFFFFFF
310
FFFFFFFFFFFFFFFFFFFFFFFFFFFFFFFFFFFFFFFFFFFFFFFFFFFFFFFFFFFFFFFF
310
FFFFFFFFFFFFFFFFFFFFFFFFFFFFFFFFFFFFFFFFFFFFFFFFFFFFFFFFFFFFFFFF
310
FFFFFFFFFFFFFFFFFFFFFFFFFFFFFFFFFFFFFFFFFFFFFFFFFFFFFFFFFFFFFFFF
310
FFFFFFFFFFFFFFFFFFFFFFFFFFFFFFFFFFFFFFFFFFFFFFFFFFFFFFFFFFFFFFFF
310
FFFFFFFFFFFFFFFFFFFFFFFFFFFFFFFFFFFFFFFFFFFFFFFFFFFFFFFFFFFFFFFF
310
FFFFFFFFFFFFFFFFFFFFFFFFFFFFFFFFFFFFFFFFFFFFFFFFFFFFFFFFFFFFFFFF
310
FFFFFFFFFFFFFFFFFFFFFFFFFFFFFFFFFFFFFFFFFFFFFFFFFFFFFFFFFFFFFFFF
310
FFFFFFFFFFFFFFFFFFFFFFFFFFFFFFFFFFFFFFFFFFFFFFFFFFFFFFFFFFFFFFFF
310
FFFFFFFFFFFFFFFFFFFFFFFFFFFFFFFFFFFFFFFFFFFFFFFFFFFFFFFFFFFFFFFF
310
FFFFFFFFFFFFFFFFFFFFFFFFFFFFFFFFFFFFFFFFFFFFFFFFFFFFFFFFFFFFFFFF
310
FFFFFFFFFFFFFFFFFFFFFFFFFFFFFFFFFFFFFFFFFFFFFFFFFFFFFFFFFFFFFFFF
310
FFFFFFFFFFFFFFFFFFFFFFFFFFFFFFFFFFFFFFFFFFFFFFFFFFFFFFFFFFFFFFFF
310
FFFFFFFFFFFFFFFFFFFFFFFFFFFFFFFFFFFFFFFFFFFFFFFFFFFFFFFFFFFFFFFF
310
FDFFFFFFFEFFFFFFFEFFFFFFFEFFFFFF05000000060000000700000008000000
310
090000000A0000000B0000000C0000000D0000000E0000000F00000010000000
310
11000000120000001300000014000000150000001600000017000000FEFFFFFF
310
FFFFFFFFFFFFFFFFFFFFFFFFFFFFFFFFFFFFFFFFFFFFFFFFFFFFFFFFFFFFFFFF
310
FFFFFFFFFFFFFFFFFFFFFFFFFFFFFFFFFFFFFFFFFFFFFFFFFFFFFFFFFFFFFFFF
310
FFFFFFFFFFFFFFFFFFFFFFFFFFFFFFFFFFFFFFFFFFFFFFFFFFFFFFFFFFFFFFFF
310
FFFFFFFFFFFFFFFFFFFFFFFFFFFFFFFFFFFFFFFFFFFFFFFFFFFFFFFFFFFFFFFF
310
FFFFFFFFFFFFFFFFFFFFFFFFFFFFFFFFFFFFFFFFFFFFFFFFFFFFFFFFFFFFFFFF
310
FFFFFFFFFFFFFFFFFFFFFFFFFFFFFFFFFFFFFFFFFFFFFFFFFFFFFFFFFFFFFFFF
310
FFFFFFFFFFFFFFFFFFFFFFFFFFFFFFFFFFFFFFFFFFFFFFFFFFFFFFFFFFFFFFFF
310
FFFFFFFFFFFFFFFFFFFFFFFFFFFFFFFFFFFFFFFFFFFFFFFFFFFFFFFFFFFFFFFF
310
FFFFFFFFFFFFFFFFFFFFFFFFFFFFFFFFFFFFFFFFFFFFFFFFFFFFFFFFFFFFFFFF
310
FFFFFFFFFFFFFFFFFFFFFFFFFFFFFFFFFFFFFFFFFFFFFFFFFFFFFFFFFFFFFFFF
310
FFFFFFFFFFFFFFFFFFFFFFFFFFFFFFFFFFFFFFFFFFFFFFFFFFFFFFFFFFFFFFFF
310
FFFFFFFFFFFFFFFFFFFFFFFFFFFFFFFFFFFFFFFFFFFFFFFFFFFFFFFFFFFFFFFF
310
FFFFFFFFFFFFFFFFFFFFFFFFFFFFFFFFFFFFFFFFFFFFFFFFFFFFFFFFFFFFFFFF
310
52006F006F007400200045006E00740072007900000000000000000000000000
310
0000000000000000000000000000000000000000000000000000000000000000
310
16000500FFFFFFFFFFFFFFFF020000000A00030000000000C000000000000046
310
00000000000000000000000070D004937D09CC0103000000C000000000000000
310
01004F006C006500000000000000000000000000000000000000000000000000
310
0000000000000000000000000000000000000000000000000000000000000000
310
0A000200FFFFFFFFFFFFFFFFFFFFFFFF00000000000000000000000000000000
310
0000000000000000000000000000000000000000000000001400000000000000
310
010043006F006D0070004F0062006A0000000000000000000000000000000000
310
0000000000000000000000000000000000000000000000000000000000000000
310
120002010100000003000000FFFFFFFF00000000000000000000000000000000
310
0000000000000000000000000000000000000000010000004D00000000000000
310
01004F006C006500310030004E00610074006900760065000000000000000000
310
0000000000000000000000000000000000000000000000000000000000000000
310
1A000200FFFFFFFFFFFFFFFFFFFFFFFF00000000000000000000000000000000
310
0000000000000000000000000000000000000000040000002426000000000000
310
FEFFFFFF02000000FEFFFFFFFFFFFFFFFFFFFFFFFFFFFFFFFFFFFFFFFFFFFFFF
310
FFFFFFFFFFFFFFFFFFFFFFFFFFFFFFFFFFFFFFFFFFFFFFFFFFFFFFFFFFFFFFFF
310
FFFFFFFFFFFFFFFFFFFFFFFFFFFFFFFFFFFFFFFFFFFFFFFFFFFFFFFFFFFFFFFF
310
FFFFFFFFFFFFFFFFFFFFFFFFFFFFFFFFFFFFFFFFFFFFFFFFFFFFFFFFFFFFFFFF
310
FFFFFFFFFFFFFFFFFFFFFFFFFFFFFFFFFFFFFFFFFFFFFFFFFFFFFFFFFFFFFFFF
310
FFFFFFFFFFFFFFFFFFFFFFFFFFFFFFFFFFFFFFFFFFFFFFFFFFFFFFFFFFFFFFFF
310
FFFFFFFFFFFFFFFFFFFFFFFFFFFFFFFFFFFFFFFFFFFFFFFFFFFFFFFFFFFFFFFF
310
FFFFFFFFFFFFFFFFFFFFFFFFFFFFFFFFFFFFFFFFFFFFFFFFFFFFFFFFFFFFFFFF
310
FFFFFFFFFFFFFFFFFFFFFFFFFFFFFFFFFFFFFFFFFFFFFFFFFFFFFFFFFFFFFFFF
310
FFFFFFFFFFFFFFFFFFFFFFFFFFFFFFFFFFFFFFFFFFFFFFFFFFFFFFFFFFFFFFFF
310
FFFFFFFFFFFFFFFFFFFFFFFFFFFFFFFFFFFFFFFFFFFFFFFFFFFFFFFFFFFFFFFF
310
FFFFFFFFFFFFFFFFFFFFFFFFFFFFFFFFFFFFFFFFFFFFFFFFFFFFFFFFFFFFFFFF
310
FFFFFFFFFFFFFFFFFFFFFFFFFFFFFFFFFFFFFFFFFFFFFFFFFFFFFFFFFFFFFFFF
310
FFFFFFFFFFFFFFFFFFFFFFFFFFFFFFFFFFFFFFFFFFFFFFFFFFFFFFFFFFFFFFFF
310
FFFFFFFFFFFFFFFFFFFFFFFFFFFFFFFFFFFFFFFFFFFFFFFFFFFFFFFFFFFFFFFF
310
FFFFFFFFFFFFFFFFFFFFFFFFFFFFFFFFFFFFFFFFFFFFFFFFFFFFFFFFFFFFFFFF
310
0100000200000000000000000000000000000000000000000000000000000000
310
0000000000000000000000000000000000000000000000000000000000000000
310
0100FEFF030A0000FFFFFFFF0A00030000000000C00000000000004607000000
310
5042727573680007000000504272757368000700000050427275736800F439B2
310
7100000000000000000000000000000000000000000000000000000000000000
310
0000000000000000000000000000000000000000000000000000000000000000
310
0000000000000000000000000000000000000000000000000000000000000000
310
0000000000000000000000000000000000000000000000000000000000000000
310
0000000000000000000000000000000000000000000000000000000000000000
310
0000000000000000000000000000000000000000000000000000000000000000
310
0000000000000000000000000000000000000000000000000000000000000000
310
0000000000000000000000000000000000000000000000000000000000000000
310
0000000000000000000000000000000000000000000000000000000000000000
310
0000000000000000000000000000000000000000000000000000000000000000
310
0000000000000000000000000000000000000000000000000000000000000000
310
0000000000000000000000000000000000000000000000000000000000000000
310
20260000424D0E260000000000003E00000028000000B40200006E0000000100
310
01000000000000000000130B0000130B00000200000002000000000000FFFFFF
310
FFFFFFFFFFFFFFFFFFFFFFFFFFFFFFFFFFFFFFFFFFFFFFFFFFFFFFFFFFFFFFFF
310
FFFFFFFFFFFFFFFFFFFFFFFFFFFFFFFFFFFFFFFFFFFFFFFFFFFFFFFFFFFFFFFF
310
FFFFFFFFFFFFFFFFFFFFFFFFFFFFFFFFFFFFFFFFFFFFFFFFF000FFFFFFFFFFFF
310
FFFFFFFFFFFFFFFFFFFFFFFFFFFFFFFFFFFFFFFFFFFFFFFFFFFFFFFFFFFFFFFF
310
FFFFFFFFFFFFFFFFFFFFFFFFFFFFFFFFFFFFFFFFFFFFFFFFFFFFFFFFFFFFFFFF
310
FFFFFFFFFFFFFFFFFFFFFFFFFFFFFFFFF000FFFFFFFFFFFFFFFFFFFFFFFFFFFF
310
FFFFFFFFFFFFFFFFFFFFFFFFFFFFFFFFFFFFFFFFFFFFFFFFFFFFFFFFFFFFFFFF
310
FFFFFFFFFFFFFFFFFFFFFFFFFFFFFFFFFFFFFFFFFFFFFFFFFFFFFFFFFFFFFFFF
310
FFFFFFFFFFFFFFFFF000FFFFFFFFFFFFFFFFFFFFFFFFFFFFFFFFFFFFFFFFFFFF
310
FFFFFFFFFFFFFFFFFFFFFFFFFFFFFFFFFFFFFFFFFFFFFFFFFFFFFFFFFFFFFFFF
310
FFFFFFFFFFFFFFFFFFFFFFFFFFFFFFFFFFFFFFFFFFFFFFFFFFFFFFFFFFFFFFFF
310
F000FFFFFFFFFFFFFFFFFFFFFFFFFFFFFFFFFFFFFFFFFFFFFFFFFFFFFFFFFFFF
310
FFFFFFFFFFFFFFFFFFFFFFFFFFFFFFFFFFFFFFFFFFFFFFFFFFFFFFFFFFFFFFFF
310
FFFFFFFFFFFFFFFFFFFFFFFFFFFFFFFFFFFFFFFFFFFFFFFFF000FFFFFFFFFFFF
310
FFFFFFFFFFFFFFFFFFFFFFFFFFFFFFFFFFFFFFFFFFFFFFFFFFFFFFFFFFFFFFFF
310
FFFFFFFFFFFFFFFFFFFFFFFFFFFFFFFFFFFFFFFFFFFFFFFFFFFFFFFFFFFFFFFF
310
FFFFFFFFFFFFFFFFFFFFFFFFFFFFFFFFF000FFFFFFFFFFFFFFFFFFFFFFFFFFFF
310
FFFFFFFFFFFFFFFFFFFFFFFFFFFFFFFFFFFFFFFFFFFFFFFFFFFFFFFFFFFFFFFF
310
FFFFFFFFFFFFFFFFFFFFFFFFFFFFFFFFFFFFFFFFFFFFFFFFFFFFFFFFFFFFFFFF
310
FFFFFFFFFFFFFFFFF000FFFFFFFFFFFFFFFFFFFFFFFFFFFFFFFFFFFFFFFFFFFF
310
FFFFFFFFFFFFFFFFFFFFFFFFFFFFFFFFFFFFFFFFFFFFFFFFFFFFFFFFFFFFFFFF
310
FFFFFFFFFFFFFFFFFFFFFFFFFFFFFFFFFFFFFFFFFFFFFFFFFFFFFFFFFFFFFFFF
310
F000FFFFFFFFFFFFFFFFFFFFFFFFFFFFFFFFFFFFFFFFFFFFFFFFFFFFFFFFFFFF
310
FFFFFFFFFFFFFFFFFFFFFFFFFFFFFFFFFFFFFFFFFFFFFFFFFFFFFFFFFFFFFFFF
310
FFFFFFFFFFFFFFFFFFFFFFFFFFFFFFFFFFFFFFFFFFFFFFFFF000FFFFFFFFFFFF
310
FFFFFFFFFFFFFFFFFFFFFFFFFFFFFFFFFFFFFFFFFFFFFFFFFFFFFFFFFFFFFFFF
310
FFFFFFFFFFFFFFFFFFFFFFFFFFFFFFFFFFFFFFFFFFFFFFFFFFFFFFFFFFFFFFFF
310
FFFFFFFFFFFFFFFFFFFFFFFFFFFFFFFFF000FFFFFFFFFFFFFFFFFFFFFFFFFFFF
310
FFFFFFFFFFFFFFFFFFFFFFFFFFFFFFFFFFFFFFFFFFFFFFFFFFFFFFFFFFFFFFFF
310
FFFFFFFFFFFFFFFFFFFFFFFFFFFFFFFFFFFFFFFFFFFFFFFFFFFFFFFFFFFFFFFF
310
FFFFFFFFFFFFFFFFF000FFFFFFFFFFFFFFFFFFFFFFFFFFFFFFFFFFFFFFFFFFFF
310
FFFFFFFFFFFFFFFFFFFFFFFFFFFFFFFFFFFFFFFFFFFFFFFFFFFFFFFFFFFFFFFF
310
FFFFFFFFFFFFFFFFFFFFFFFFFFFFFFFFFFFFFFFFFFFFFFFFFFFFFFFFFFFFFFFF
310
F000FFFFFFFFFFFFFFFFFFFFFFFFFFFFFFFFFFFFFFFFFFFFFFFFFFFFFFFFFFFF
310
FFFFFFFFFFFFFFFFFFFFFFFFFFFFFFFFFFFFFFFFFFFFFFFFFFFFFFFFFFFFFFFF
310
FFFFFFFFFFFFFFFFFFFFFFFFFFFFFFFFFFFFFFFFFFFFFFFFF000FFFFFFFFFFFF
310
FFFFFFFFFFFFFFFFFFFFFFFFFFFFFFFFFFFFFFFFFFFFFFFFFFFFFFFFFFFFFFFF
310
FFFFFFFFFFFFFFFFFFFFFFFFFFFFFFFFFFFFFFFFFFFFFFFFFFFFFFFFFFFFFFFF
310
FFFFFFFFFFFFFFFFFFFFFFFFFFFFFFFFF000FFFFFFFFFFFFFFFFFFFFFFFFFFFF
310
FFFFFFFFFFFFFFFFFFFFFFFFFFFFFFFFFFFFFFFFFFFFFFFFFFFFFFFFFFFFFFFF
310
FFFFFFFFFFFFFFFFFFFFFFFFFFFFFFFFFFFFFFFFFFFFFFFFFFFFFFFFFFFFFFFF
310
FFFFFFFFFFFFFFFFF000FFFFFFFFFFFFFFFFFFFFFFFFFFFFFFFFFFFFFFFFFFFF
310
FFFFFFFFFFFFFFFFFFFFFFFFFFFFFFFFFFFFFFFFFFFFFFFFFFFFFFFFFFFFFFFF
310
FFFFFFFFFFFFFFFFFFFFFFFFFFFFFFFFFFFFFFFFFFFFFFFFFFFFFFFFFFFFFFFF
310
F000FFFFFFFFFFFFFFFFFFFFFFFFFFFFFFFFFFFFFFFFFFFFFFFFFFFFFFFFFFFF
310
FFFFFFFFFFFFFFFFFFFFFFFFFFFFFFFFFFFFFFFFFFFFFFFFFFFFFFFFFFFFFFFF
310
FFFFFFFFFFFFFFFFFFFFFFFFFFFFFFFFFFFFFFFFFFFFFFFFF000FFFFFFFFFFFF
310
FFFFFFFFFFFFFFFFFFFFFFFFFFFFFFFFFFFFFFFFFFFFFFFFFFFFFFFFFFFFFFFF
310
FFFFFFFFFFFFFFFFFFFFFFFFFFFFFFFFFFFFFFFFFFFFFFFFFFFFFFFFFFFFFFFF
310
FFFFFFFFFFFFFFFFFFFFFFFFFFFFFFFFF000FFFFFFFFFFFFFFFFFFFFFFFFFFFF
310
FFFFFFFFFFFFFFFFFFFFFFFFFFFFFFFFFFFFFFFFFFFFFFFFFFFFFFFFFFFFFFFF
310
FFFFFFFFFFFFFFFFFFFFFFFFFFFFFFFFFFFFFFFFFFFFFFFFFFFFFFFFFFFFFFFF
310
FFFFFFFFFFFFFFFFF000FFFFF80003FFFFFFFFFFFFFFFFFFFFFFFFFFFFFFFFFF
310
FFFFF00007FFFFFFFFFF00007FFFFFF800000000000000007FFFFFFFFFFFFFFF
310
FFFFFFFC001FFFFFFFFFFFFFFC001FFFFFFFFFFFFFFFFFFFFFFFFFFE0007FFFF
310
F000FFFF8000007FFFFFFFF8000FFFFFC0007FFFFF80007FFFFF0000007FFFFF
310
FFF8000007FFFFF800000000000000007FFFFFF0001FFFFFFFFFFFC00001FFFF
310
FFFFFFFFC00001FFFFFFFF000000000003FFFFE000007FFFF000FFFE0000000F
310
FFFFFFF0000FFFFF80007FFFFF80007FFFFC0000001FFFFFFFC0000001FFFFF8
310
00000000000000007FFFFFF0001FFFFFFFFFFE0000003FFFFFFFFFFE0000003F
310
FFFFFF000000000003FFFF0000000FFFF000FFF800000003FFFFFFF00007FFFF
310
80007FFFFF80007FFFF000000007FFFFFF000000003FFFF80000000000000000
310
7FFFFFF0001FFFFFFFFFF80000000FFFFFFFFFF80000000FFFFFFF0000000000
310
03FFFC00000003FFF000FFE000000000FFFFFFF00007FFFF80003FFFFF80007F
310
FFC000000001FFFFFC000000001FFFF800000000000000007FFFFFF0001FFFFF
310
FFFFE000000003FFFFFFFFE000000003FFFFFF000000000003FFF000000000FF
310
F000FF80000000007FFFFFF00007FFFF80003FFFFF80007FFF8000000000FFFF
310
F80000000007FFF800000000000000007FFFFFF0001FFFFFFFFFC000000001FF
310
FFFFFFC000000001FFFFFF000000000003FFC0000000007FF000FF0000000000
310
3FFFFFE00007FFFF00003FFFFF80007FFE00000000003FFFF00000000003FFF8
310
00000000000000007FFFFFF0001FFFFFFFFF8000000000FFFFFFFF8000000000
310
FFFFFF000000000003FF80000000003FF000FE00000000001FFFFFE00003FFFF
310
00003FFFFF80007FFC00000000001FFFE00000000001FFF8000001FFFE000000
310
7FFFFFF0001FFFFFFFFE00000000003FFFFFFE00000000003FFFFF0000000000
310
03FF00000000001FF000FC00000000000FFFFFE00003FFFF00001FFFFF80007F
310
F800000000001FFFC00000000000FFF8000001FFFE0000007FFFFFF0001FFFFF
310
FFFC00000000001FFFFFFC00000000001FFFFF000000000003FE00000000000F
310
F000F8000000000007FFFFE00003FFFF00001FFFFF80007FF800000000000FFF
310
800000000000FFF8000001FFFE0000007FFFFFF0001FFFFFFFF800000000000F
310
FFFFF800000000000FFFFF000000000003FC000000000007F000F80000000000
310
03FFFFC00003FFFE00001FFFFF80007FF0000000000007FF0000000000007FF8
310
000001FFFE0000007FFFFFF0001FFFFFFFF0000000000007FFFFF00000000000
310
07FFFF000000000003F8000000000003F000F0000000000003FFFFC00001FFFE
310
00001FFFFF80007FE0000000000007FE0000000000003FF8000001FFFE000000
310
7FFFFFF0001FFFFFFFF0000000000007FFFFF0000000000007FFFF0000000000
310
03F800001F800003F000E00001FFF00001FFFFC00001FFFE00000FFFFF80007F
310
E00001FFE00003FE00001FFF00003FF8000001FFFE0000007FFFFFF0001FFFFF
310
FFE000003E000003FFFFE000003E000003FFFF000000000003F00001FFF80001
310
F000E00007FFFC0001FFFFC00001FFFE00000FFFFF80007FC0000FFFFC0003FC
310
0000FFFFC0001FF8000001FFFE0000007FFFFFF0001FFFFFFFC00003FFE00001
310
FFFFC00003FFE00001FFFF0001FFFFFFFFF00007FFFE0001F000E0000FFFFF00
310
00FFFF800001FFFC00000FFFFF80007FC0001FFFFE0001FC0001FFFFE0001FF8
310
000001FFFE0000007FFFFFF0001FFFFFFF80000FFFF80000FFFF80000FFFF800
310
00FFFF0003FFFFFFFFE0000FFFFF8000F000C0003FFFFF8000FFFF800000FFFC
310
000007FFFF80007F80003FFFFF0001FC0003FFFFF0001FF8000001FFFE000000
310
7FFFFFF0001FFFFFFF80003FFFFE0000FFFF80003FFFFE0000FFFF0003FFFFFF
310
FFE0003FFFFF8000F000C0003FFFFF8000FFFF800000FFFC000007FFFF80007F
310
80007FFFFF8001F80007FFFFF8000FF8000001FFFE0000007FFFFFF0001FFFFF
310
FF00007FFFFF00007FFF00007FFFFF00007FFF0003FFFFFFFFE0003FFFFFC000
310
F000C0007FFFFFC000FFFF000000FFFC000007FFFF80007F8000FFFFFF8000F8
310
000FFFFFF8000FF8000001FFFE0000007FFFFFF0001FFFFFFF0000FFFFFF8000
310
7FFF0000FFFFFF80007FFF0003FFFFFFFFC0007FFFFFC00070008000FFFFFFC0
310
00FFFF000000FFF8000007FFFF80007F8000FFFFFF8000F8000FFFFFF8000FF8
310
000001FFFE0000007FFFFFF0001FFFFFFE0001FFFFFFC0003FFE0001FFFFFFC0
310
003FFF0003FFFFFFFFC0007FFFFFE00070008000FFFFFFC0007FFF0000007FF8
310
000003FFFF80007F0001FFFFFF8000F8000FFFFFF8000FF8000001FFFE000000
310
7FFFFFF0001FFFFFFE0001FFFFFFC0003FFE0001FFFFFFC0003FFF0003FFFFFF
310
FFC000FFFFFFE00070008000FFFFFFC0007FFF0000007FF8000003FFFF80007F
310
0001FFFFFF8000F8001FFFFFF8000FF8000001FFFE0000007FFFFFF0001FFFFF
310
FE0003FFFFFFE0003FFE0003FFFFFFE0003FFF0003FFFFFFFFC000FFFFFFE000
310
70008000FFFFFFC0007FFE0000007FF8000003FFFF80007F0001FFFFFF8000F0
310
001FFFFFF8000FF8000001FFFE0000007FFFFFF0001FFFFFFC0003FFFFFFE000
310
1FFC0003FFFFFFE0001FFF0003FFFFFFFFC000FFFFFFC00070008000FFFFFF80
310
007FFE0000007FF0000003FFFF80007F0001FFFFFF0000F0001FFFFFF8000FF8
310
000001FFFE0000007FFFFFF0001FFFFFFC0007FFFFFFF0001FFC0007FFFFFFF0
310
001FFF0003FFFFFFFFC000FFFFFFC00070008001FFFFFF0000FFFE0000003FF0
310
000001FFFF80007F0001FFFFFF0000F8001FFFFFF0000FF8000001FFFE000000
310
7FFFFFF0001FFFFFFC0007FFFFFFF0001FFC0007FFFFFFF0001FFF0003FFFFFF
310
FFC001FFFFFF80007000FFFFFFFFFE0000FFFE0008003FF0008001FFFF80007F
310
FFFFFFFFFC0000FFFFFFFFFFE0000FF8000001FFFE0000007FFFFFF0001FFFFF
310
F8000FFFFFFFF8000FF8000FFFFFFFF8000FFF0003FFFFFFFFFFFFFFFFFF0000
310
7000FFFFFFFFFC0000FFFC0008003FF0008001FFFF80007FFFFFFFFFF80001FF
310
FFFFFFFF80000FF8000001FFFE0000007FFFFFF0001FFFFFF8000FFFFFFFF800
310
0FF8000FFFFFFFF8000FFF0003FFFFFFFFFFFFFFFFFE0000F000FFFFFFFFE000
310
00FFFC000C003FE000C001FFFF80007FFFFFFFFFC00001FFFFFFFFFE00001FF8
310
000001FFFE0000007FFFFFF0001FFFFFF8000FFFFFFFF8000FF8000FFFFFFFF8
310
000FFF0003FFFFFFFFFFFFFFFFF00000F000FFFFFFFE000001FFFC000C001FE0
310
00C000FFFF80007FFFFFFFFE000001FFFFFFFFE000001FF80FFFFFFFFFFFFFC0
310
7FFFFFF0001FFFFFF8000FFFFFFFF8000FF8000FFFFFFFF8000FFF0003FFFFFF
310
FFFFFFFFFF800000F000FFFFFFC0000001FFFC001C001FE001C000FFFF80007F
310
FFFFFF80000003FFFFFFF80000001FF80FFFFFFFFFFFFFC07FFFFFF0001FFFFF
310
F8001FFFFFFFFC000FF8001FFFFFFFFC000FFF0003FFFFFFFFFFFFFFF0000001
310
F000FFFFF800000001FFF8001C001FE001C000FFFF80007FFFFFF800000003FF
310
FFFF800000003FF80FFFFFFFFFFFFFC07FFFFFF0001FFFFFF8001FFFFFFFFC00
310
0FF8001FFFFFFFFC000FFF0003FFFFFFFFFFFFFE00000001F000FFFFC0000000
310
03FFF8001E001FC001E000FFFF80007FFFFF8000000007FFFFFC000000003FF8
310
0FFFFFFFFFFFFFC07FFFFFF0001FFFFFF8001FFFFFFFFC000FF8001FFFFFFFFC
310
000FFF0003FFFFFFFFFFFFE000000003F000FFFE0000000007FFF8001E000FC0
310
01E0007FFF80007FFFFE0000000007FFFFE0000000007FF80FFFFFFFFFFFFFC0
310
7FFFFFF0001FFFFFF0001FFFFFFFFC0007F0001FFFFFFFFC0007FF0003FFFFFF
310
FFFFFF0000000003F000FFF80000000007FFF8001E000FC003E0007FFF80007F
310
FFF0000000000FFFFF8000000000FFF80FFFFFFFFFFFFFC07FFFFFF0001FFFFF
310
F0001FFFFFFFFC0007F0001FFFFFFFFC0007FF0003FFFFFFFFFFFC0000000007
310
F000FFE0000000000FFFF0003E000FC003E0007FFF80007FFFC0000000001FFF
310
FE0000000001FFF80FFFFFFFFFFFFFC07FFFFFF0001FFFFFF0001FFFFFFFFC00
310
07F0001FFFFFFFFC0007FF0003FFFFFFFFFFF0000000000FF000FFC000000000
310
1FFFF0003F000F8003F0003FFF80007FFF80000000003FFFF80000000003FFF8
310
0FFFFFFFFFFFFFC07FFFFFF0001FFFFFF0001FFFFFFFFC0007F0001FFFFFFFFC
310
0007FF0003FFFFFFFFFFE0000000001FF000FF00000000007FFFF0003F000780
310
03F0003FFF80007FFF00000000007FFFF00000000007FFF80FFFFFFFFFFFFFC0
310
7FFFFFF0001FFFFFF0001FFFFFFFFC0007F0001FFFFFFFFC0007FF0003FFFFFF
310
FFFF80000000007FF000FE0000000000FFFFE0003F00078007F0003FFF80007F
310
FE0000000001FFFFE0000000001FFFF80FFFFFFFFFFFFFC07FFFFFF0001FFFFF
310
F0001FFFFFFFFC0007F0001FFFFFFFFC0007FF0003FFFFFFFFFF0000000000FF
310
F000FC0000000003FFFFE0007F00078007F0003FFF80007FFC0000000007FFFF
310
C0000000007FFFF80FFFFFFFFFFFFFC07FFFFFF0001FFFFFF8001FFFFFFFFC00
310
0FF8001FFFFFFFFC000FFF0003FFFFFFFFFE0000000003FFF000FC000000000F
310
FFFFE0007F80070007F8001FFF80007FF8000000001FFFFF8000000001FFFFF8
310
0FFFFFFFFFFFFFC07FFFFFF0001FFFFFF8001FFFFFFFFC000FF8001FFFFFFFFC
310
000FFF0003FFFFFFFFFC000000000FFFF000F8000000007FFFFFE0007F800700
310
07F8001FFF80007FF000000000FFFFFF800000000FFFFFF80FFFFFFFFFFFFFC0
310
7FFFFFF0001FFFFFF8000FFFFFFFF8000FF8000FFFFFFFF8000FFF0003FFFFFF
310
FFFC000000007FFFF000F800000007FFFFFFC0007F8003000FF8001FFF80007F
310
F000000007FFFFFF000000007FFFFFF80FFFFFFFFFFFFFC07FFFFFF0001FFFFF
310
F8000FFFFFFFF8000FF8000FFFFFFFF8000FFF0003FFFFFFFFF80000000FFFFF
310
F000F0000000FFFFFFFFC000FF8003000FF8001FFF80007FE0000000FFFFFFFF
310
0000000FFFFFFFF8000001FFFE0000007FFFFFF0001FFFFFF8000FFFFFFFF800
310
0FF8000FFFFFFFF8000FFF0003FFFFFFFFF8000000FFFFFFF000F000000FFFFF
310
FFFFC000FFC002000FF8000FFF80007FE000001FFFFFFFFE000001FFFFFFFFF8
310
000001FFFE0000007FFFFFF0001FFFFFF8000FFFFFFFF8000FF8000FFFFFFFF8
310
000FFF0003FFFFFFFFF000001FFFFFFFF000E00000FFFFFFFFFFC000FFC00200
310
0FFC000FFF80007FE00001FFFFFFFFFE00001FFFFFFFFFF8000001FFFE000000
310
7FFFFFF0001FFFFFFC000FFFFFFFF8001FFC000FFFFFFFF8001FFF0003FFFFFF
310
FFF00001FFFFFFFFF000E00007FFFFFFFFFF8000FFC000001FFC000FFF80007F
310
C0000FFFFFFFFFFE0000FFFFFFFFFFF8000001FFFE0000007FFFFFF0001FFFFF
310
FC0007FFFFFFF0001FFC0007FFFFFFF0001FFF0003FFFFFFFFF00007FFFFFFFF
310
F000E0001FFFFFFFFFFF8000FFC000001FFC000FFF80007FC0003FFFFFFFFFFE
310
0001FFFFFFFFFFF8000001FFFE0000007FFFFFF0001FFFFFFC0007FFFFFFF000
310
1FFC0007FFFFFFF0001FFF0003FFFFFFFFF0001FFFFFFFFFF000E0003FFFFF00
310
03FF8001FFE000001FFC0007FF80007FC0007FFFFF0007FC0003FFFFF0003FF8
310
000001FFFE0000007FFFFFF0001FFFFFFC0003FFFFFFE0001FFC0003FFFFFFE0
310
001FFF0003FFFFFFFFF0003FFFFFFFFFF000E0003FFFFF0001FF8001FFE00000
310
1FFE0007FF80007FC0007FFFFE0003FC0007FFFFE0003FF8000001FFFE000000
310
7FFFFFF0001FFFFFFE0003FFFFFFE0003FFE0003FFFFFFE0003FFF0003FFFFFF
310
FFF0003FFFFF8001F000E0003FFFFF0001FF0001FFE000001FFE0007FF80007F
310
C0007FFFFE0003FC0007FFFFE0003FF8000001FFFE0000007FFFFFF0001FFFFF
310
FE0001FFFFFFC0003FFE0001FFFFFFC0003FFF0003FFFFFFFFF0003FFFFF0001
310
F000E0003FFFFF0003FF0001FFE000003FFE0007FF80007FC0007FFFFE0003FC
310
0007FFFFE0003FF8000001FFFE0000007FFFFFF0001FFFFFFF0001FFFFFFC000
310
7FFF0001FFFFFFC0007FFF0003FFFFFFFFF0003FFFFF0001F000E0003FFFFE00
310
03FF0003FFF000003FFE0003FF80007FC0007FFFFC0003FE0007FFFFE0003FF8
310
000001FFFE0000007FFFFFF0001FFFFFFF0000FFFFFF80007FFF0000FFFFFF80
310
007FFF0003FFFFFFFFF0003FFFFF0001F000E0003FFFFE0003FF0003FFF00000
310
3FFF0003FF80007FC0007FFFFC0007FE0007FFFFC0003FF8000001FFFE000000
310
7FFFFFF0001FFFFFFF80007FFFFF0000FFFF80007FFFFF0000FFFF0003FFFFFF
310
FFF0003FFFFF0003F000E0003FFFFC0003FE0003FFF000003FFF0003FF80007F
310
E0003FFFF80007FE0003FFFFC0007FF8000001FFFE0000007FFFFFF0001FFFFF
310
FF80003FFFFE0000FFFF80003FFFFE0000FFFF0003FFFFFFFFF0001FFFFE0003
310
F000F0001FFFF80003FE0003FFF000007FFF0001FF80007FE0003FFFF00007FE
310
0001FFFF80007FF8000001FFFE0000007FFFFFF0001FFFFFFFC0000FFFF80001
310
FFFFC0000FFFF80001FFFF0003FFFFFFFFF0001FFFFC0003F000F0000FFFF000
310
07FE0007FFF800007FFF0001FF80007FE0001FFFE00007FF0000FFFE00007FF8
310
000001FFFE0000007FFFFFF0001FFFFFFFC00003FFE00001FFFFC00003FFE000
310
01FFFF0003FFFFFFFFF8000FFFF80003F000F00003FFC00007FC0007FFF80000
310
7FFF8001FF80007FF00007FF80000FFF00007FF80000FFF8000001FFFE000000
310
7F80000000000001FFE000003E000003FFFFE000003E000003FFFF0003FFFFFF
310
FFF80003FFE00007F000F800000000000FFC0007FFF800007FFF8001FF80007F
310
F000000000000FFF000000000000FFF8000001FFFE0000007F80000000000001
310
FFF0000000000007FFFFF0000000000007FFFF0003FFFFFFFFFC00007E000007
310
F000F800000000000FFC0007FFF80000FFFF8000FF80007FF800000000001FFF
310
800000000001FFF8000001FFFE0000007F80000000000001FFF800000000000F
310
FFFFF800000000000FFFFF0003FFFFFFFFFC00000000000FF000FC0000000000
310
1FFC0007FFFC0000FFFF8000FF80007FF800000000003FFFC00000000001FFF8
310
000001FFFE0000007F80000000000001FFF800000000000FFFFFF80000000000
310
0FFFFF0003FFFFFFFFFE00000000001FF000FE00000000003FF8000FFFFC0000
310
FFFF8000FF80007FFC00000000003FFFC00000000003FFF8000001FFFE000000
310
7F80000000000001FFFC00000000001FFFFFFC00000000001FFFFF0003FFFFFF
310
FFFF00000000001FF000FF00000000003FF8000FFFFC0000FFFFC000FF80007F
310
FE00000000007FFFE00000000007FFF8000001FFFE0000007F80000000000001
310
FFFE00000000003FFFFFFE00000000003FFFFF0003FFFFFFFFFF80000000003F
310
F000FF80000000007FF8000FFFFC0001FFFFC0007F80007FFF0000000000FFFF
310
F0000000000FFFF800000000000000007F80000000000001FFFF8000000000FF
310
FFFFFF8000000000FFFFFF0003FFFFFFFFFFC0000000007FF000FFC000000000
310
FFF8000FFFFE0001FFFFC0007F80007FFF8000000001FFFFF8000000001FFFF8
310
00000000000000007F80000000000001FFFFC000000001FFFFFFFFC000000001
310
FFFFFF0003FFFFFFFFFFE000000000FFF000FFE000000003FFF0001FFFFE0001
310
FFFFC0007F80007FFFC000000007FFFFFE000000003FFFF80000000000000000
310
7F80000000000001FFFFE000000003FFFFFFFFE000000003FFFFFF0003FFFFFF
310
FFFFF000000003FFF000FFF80000000FFFF0001FFFFE0001FFFFE0007F80007F
310
FFF00000000FFFFFFF00000000FFFFF800000000000000007F80000000000001
310
FFFFF80000000FFFFFFFFFF80000000FFFFFFF0003FFFFFFFFFFFC0000000FFF
310
F000FFFE0000003FFFF0001FFFFE0003FFFFE0003F80007FFFFC0000003FFFFF
310
FFC0000003FFFFF800000000000000007F80000000000001FFFFFE0000003FFF
310
FFFFFFFE0000003FFFFFFF0003FFFFFFFFFFFF0000003FFFF000FFFF800000FF
310
FFF0001FFFFF0003FFFFE0003F80007FFFFF000001FFFFFFFFF800001FFFFFF8
310
00000000000000007F80000000000001FFFFFFC00001FFFFFFFFFFFFC00001FF
310
FFFFFF0003FFFFFFFFFFFFC00000FFFFF000FFFFF8000FFFFFFFFFFFFFFFFFFF
310
FFFFFFFFFFFFFFFFFFFFF0001FFFFFFFFFFF0000FFFFFFF80000000000000000
310
7FFFFFFFFFFFFFFFFFFFFFFC001FFFFFFFFFFFFFFC001FFFFFFFFFFFFFFFFFFF
310
FFFFFFFC001FFFFFF000FFFFFFFFFFFFFFFFFFFFFFFFFFFFFFFFFFFFFFFFFFFF
310
FFFFFFFFFFFFFFFFFFFFFFFFFFFFFFFFFFFFFFFFFFFFFFFFFFFFFFFFFFFFFFFF
310
FFFFFFFFFFFFFFFFFFFFFFFFFFFFFFFFFFFFFFFFFFFFFFFFFFFFFFFFFFFFFFFF
310
F000FFFFFFFFFFFFFFFFFFFFFFFFFFFFFFFFFFFFFFFFFFFFFFFFFFFFFFFFFFFF
310
FFFFFFFFFFFFFFFFFFFFFFFFFFFFFFFFFFFFFFFFFFFFFFFFFFFFFFFFFFFFFFFF
310
FFFFFFFFFFFFFFFFFFFFFFFFFFFFFFFFFFFFFFFFFFFFFFFFF000FFFFFFFFFFFF
310
FFFFFFFFFFFFFFFFFFFFFFFFFFFFFFFFFFFFFFFFFFFFFFFFFFFFFFFFFFFFFFFF
310
FFFFFFFFFFFFFFFFFFFFFFFFFFFFFFFFFFFFFFFFFFFFFFFFFFFFFFFFFFFFFFFF
310
FFFFFFFFFFFFFFFFFFFFFFFFFFFFFFFFF000FFFFFFFFFFFFFFFFFFFFFFFFFFFF
310
FFFFFFFFFFFFFFFFFFFFFFFFFFFFFFFFFFFFFFFFFFFFFFFFFFFFFFFFFFFFFFFF
310
FFFFFFFFFFFFFFFFFFFFFFFFFFFFFFFFFFFFFFFFFFFFFFFFFFFFFFFFFFFFFFFF
310
FFFFFFFFFFFFFFFFF000FFFFFFFFFFFFFFFFFFFFFFFFFFFFFFFFFFFFFFFFFFFF
310
FFFFFFFFFFFFFFFFFFFFFFFFFFFFFFFFFFFFFFFFFFFFFFFFFFFFFFFFFFFFFFFF
310
FFFFFFFFFFFFFFFFFFFFFFFFFFFFFFFFFFFFFFFFFFFFFFFFFFFFFFFFFFFFFFFF
310
F000FFFFFFFFFFFFFFFFFFFFFFFFFFFFFFFFFFFFFFFFFFFFFFFFFFFFFFFFFFFF
310
FFFFFFFFFFFFFFFFFFFFFFFFFFFFFFFFFFFFFFFFFFFFFFFFFFFFFFFFFFFFFFFF
310
FFFFFFFFFFFFFFFFFFFFFFFFFFFFFFFFFFFFFFFFFFFFFFFFF000FFFFFFFFFFFF
310
FFFFFFFFFFFFFFFFFFFFFFFFFFFFFFFFFFFFFFFFFFFFFFFFFFFFFFFFFFFFFFFF
310
FFFFFFFFFFFFFFFFFFFFFFFFFFFFFFFFFFFFFFFFFFFFFFFFFFFFFFFFFFFFFFFF
310
FFFFFFFFFFFFFFFFFFFFFFFFFFFFFFFFF000FFFFFFFFFFFFFFFFFFFFFFFFFFFF
310
FFFFFFFFFFFFFFFFFFFFFFFFFFFFFFFFFFFFFFFFFFFFFFFFFFFFFFFFFFFFFFFF
310
FFFFFFFFFFFFFFFFFFFFFFFFFFFFFFFFFFFFFFFFFFFFFFFFFFFFFFFFFFFFFFFF
310
FFFFFFFFFFFFFFFFF000FFFFFFFFFFFFFFFFFFFFFFFFFFFFFFFFFFFFFFFFFFFF
310
FFFFFFFFFFFFFFFFFFFFFFFFFFFFFFFFFFFFFFFFFFFFFFFFFFFFFFFFFFFFFFFF
310
FFFFFFFFFFFFFFFFFFFFFFFFFFFFFFFFFFFFFFFFFFFFFFFFFFFFFFFFFFFFFFFF
310
F000FFFFFFFFFFFFFFFFFFFFFFFFFFFFFFFFFFFFFFFFFFFFFFFFFFFFFFFFFFFF
310
FFFFFFFFFFFFFFFFFFFFFFFFFFFFFFFFFFFFFFFFFFFFFFFFFFFFFFFFFFFFFFFF
310
FFFFFFFFFFFFFFFFFFFFFFFFFFFFFFFFFFFFFFFFFFFFFFFFF000FFFFFFFFFFFF
310
FFFFFFFFFFFFFFFFFFFFFFFFFFFFFFFFFFFFFFFFFFFFFFFFFFFFFFFFFFFFFFFF
310
FFFFFFFFFFFFFFFFFFFFFFFFFFFFFFFFFFFFFFFFFFFFFFFFFFFFFFFFFFFFFFFF
310
FFFFFFFFFFFFFFFFFFFFFFFFFFFFFFFFF000FFFFFFFFFFFFFFFFFFFFFFFFFFFF
310
FFFFFFFFFFFFFFFFFFFFFFFFFFFFFFFFFFFFFFFFFFFFFFFFFFFFFFFFFFFFFFFF
310
FFFFFFFFFFFFFFFFFFFFFFFFFFFFFFFFFFFFFFFFFFFFFFFFFFFFFFFFFFFFFFFF
310
FFFFFFFFFFFFFFFFF000FFFFFFFFFFFFFFFFFFFFFFFFFFFFFFFFFFFFFFFFFFFF
310
FFFFFFFFFFFFFFFFFFFFFFFFFFFFFFFFFFFFFFFFFFFFFFFFFFFFFFFFFFFFFFFF
310
FFFFFFFFFFFFFFFFFFFFFFFFFFFFFFFFFFFFFFFFFFFFFFFFFFFFFFFFFFFFFFFF
310
F000FFFFFFFFFFFFFFFFFFFFFFFFFFFFFFFFFFFFFFFFFFFFFFFFFFFFFFFFFFFF
310
FFFFFFFFFFFFFFFFFFFFFFFFFFFFFFFFFFFFFFFFFFFFFFFFFFFFFFFFFFFFFFFF
310
FFFFFFFFFFFFFFFFFFFFFFFFFFFFFFFFFFFFFFFFFFFFFFFFF000FFFFFFFFFFFF
310
FFFFFFFFFFFFFFFFFFFFFFFFFFFFFFFFFFFFFFFFFFFFFFFFFFFFFFFFFFFFFFFF
310
FFFFFFFFFFFFFFFFFFFFFFFFFFFFFFFFFFFFFFFFFFFFFFFFFFFFFFFFFFFFFFFF
310
FFFFFFFFFFFFFFFFFFFFFFFFFFFFFFFFF000FFFFFFFFFFFFFFFFFFFFFFFFFFFF
310
FFFFFFFFFFFFFFFFFFFFFFFFFFFFFFFFFFFFFFFFFFFFFFFFFFFFFFFFFFFFFFFF
310
FFFFFFFFFFFFFFFFFFFFFFFFFFFFFFFFFFFFFFFFFFFFFFFFFFFFFFFFFFFFFFFF
310
FFFFFFFFFFFFFFFFF000FFFFFFFFFFFFFFFFFFFFFFFFFFFFFFFFFFFFFFFFFFFF
310
FFFFFFFFFFFFFFFFFFFFFFFFFFFFFFFFFFFFFFFFFFFFFFFFFFFFFFFFFFFFFFFF
310
FFFFFFFFFFFFFFFFFFFFFFFFFFFFFFFFFFFFFFFFFFFFFFFFFFFFFFFFFFFFFFFF
310
F000FFFFFFFFFFFFFFFFFFFFFFFFFFFFFFFFFFFFFFFFFFFFFFFFFFFFFFFFFFFF
310
FFFFFFFFFFFFFFFFFFFFFFFFFFFFFFFFFFFFFFFFFFFFFFFFFFFFFFFFFFFFFFFF
310
FFFFFFFFFFFFFFFFFFFFFFFFFFFFFFFFFFFFFFFFFFFFFFFFF000FFFFFFFFFFFF
310
FFFFFFFFFFFFFFFFFFFFFFFFFFFFFFFFFFFFFFFFFFFFFFFFFFFFFFFFFFFFFFFF
310
FFFFFFFFFFFFFFFFFFFFFFFFFFFFFFFFFFFFFFFFFFFFFFFFFFFFFFFFFFFFFFFF
310
FFFFFFFFFFFFFFFFFFFFFFFFFFFFFFFFF000FFFFFFFFFFFFFFFFFFFFFFFFFFFF
310
FFFFFFFFFFFFFFFFFFFFFFFFFFFFFFFFFFFFFFFFFFFFFFFFFFFFFFFFFFFFFFFF
310
FFFFFFFFFFFFFFFFFFFFFFFFFFFFFFFFFFFFFFFFFFFFFFFFFFFFFFFFFFFFFFFF
310
FFFFFFFFFFFFFFFFF000FFFFFFFFFFFFFFFFFFFFFFFFFFFFFFFFFFFFFFFFFFFF
310
FFFFFFFFFFFFFFFFFFFFFFFFFFFFFFFFFFFFFFFFFFFFFFFFFFFFFFFFFFFFFFFF
310
FFFFFFFFFFFFFFFFFFFFFFFFFFFFFFFFFFFFFFFFFFFFFFFFFFFFFFFFFFFFFFFF
310
F000FFFFFFFFFFFFFFFFFFFFFFFFFFFFFFFFFFFFFFFFFFFFFFFFFFFFFFFFFFFF
310
FFFFFFFFFFFFFFFFFFFFFFFFFFFFFFFFFFFFFFFFFFFFFFFFFFFFFFFFFFFFFFFF
310
FFFFFFFFFFFFFFFFFFFFFFFFFFFFFFFFFFFFFFFFFFFFFFFFF000FFFFFFFFFFFF
310
FFFFFFFFFFFFFFFFFFFFFFFFFFFFFFFFFFFFFFFFFFFFFFFFFFFFFFFFFFFFFFFF
310
FFFFFFFFFFFFFFFFFFFFFFFFFFFFFFFFFFFFFFFFFFFFFFFFFFFFFFFFFFFFFFFF
310
FFFFFFFFFFFFFFFFFFFFFFFFFFFFFFFFF0000000000000000000000000000000
310
0000000001000000010000000100000001000000010000000100000001000000
310
0100000001000000010000000100000001000000010000000100000001000000
310
0100000001000000010000000100000001000000010000000100000001000000
310
0100000001000000010000000100000001000000010000000100000001000000
310
0100000001000000000000000100000001000000010000000100000001000000
310
0100000000000000010000000100000001000000010000000100000001000000
310
0100000001000000000000000100000001000000010000000100000001000000
310
0100000000000000010000000100000001000000010000000100000001000000
310
0100000001000000010000000100000001000000010000000100000001000000
310
0100000001000000000000000100000001000000010000000100000001000000
310
0100000000000000010000000100000001000000010000000100000001000000
310
0100000001000000010000000100000001000000010000000100000001000000
310
0100000001000000010000000000000001000000000000000100000001000000
310
0100000001000000010000000100000001000000010000000100000001000000
310
0100000001000000010000000100000001000000010000000000000001000000
  1
OLE
  0
ENDSEC
  0
SECTION
  2
OBJECTS
  0
DICTIONARY
  5
C
330
0
100
AcDbDictionary
281
     1
  3
ACAD_GROUP
350
D
  3
ACAD_LAYOUT
350
1A
  3
ACAD_MLEADERSTYLE
350
336
  3
ACAD_MLINESTYLE
350
17
  3
ACAD_PLOTSETTINGS
350
19
  3
ACAD_PLOTSTYLENAME
350
E
  3
ACAD_TABLESTYLE
350
335
  3
ACAD_VISUALSTYLE
350
2A
  3
AcDbVariableDictionary
350
337
  0
DICTIONARY
  5
D
102
{ACAD_REACTORS
330
C
102
}
330
C
100
AcDbDictionary
281
     1
  0
DICTIONARY
  5
1A
102
{ACAD_REACTORS
330
C
102
}
330
C
100
AcDbDictionary
281
     1
  3
Layout1
350
1E
  3
Layout2
350
26
  3
Model
350
22
  0
DICTIONARY
  5
336
102
{ACAD_REACTORS
330
C
102
}
330
C
100
AcDbDictionary
281
     1
  0
DICTIONARY
  5
17
102
{ACAD_REACTORS
330
C
102
}
330
C
100
AcDbDictionary
281
     1
  3
Standard
350
18
  0
DICTIONARY
  5
19
102
{ACAD_REACTORS
330
C
102
}
330
C
100
AcDbDictionary
281
     1
  0
ACDBDICTIONARYWDFLT
  5
E
102
{ACAD_REACTORS
330
C
102
}
330
C
100
AcDbDictionary
281
     1
  3
Normal
350
F
100
AcDbDictionaryWithDefault
340
F
  0
DICTIONARY
  5
335
102
{ACAD_REACTORS
330
C
102
}
330
C
100
AcDbDictionary
281
     1
  0
DICTIONARY
  5
2A
102
{ACAD_REACTORS
330
C
102
}
330
C
100
AcDbDictionary
281
     1
  3
2dWireframe
350
2F
  3
3D Hidden
350
31
  3
3dWireframe
350
30
  3
Basic
350
32
  3
Brighten
350
36
  3
ColorChange
350
3A
  3
Conceptual
350
34
  3
Dim
350
35
  3
Facepattern
350
39
  3
Flat
350
2B
  3
FlatWithEdges
350
2C
  3
Gouraud
350
2D
  3
GouraudWithEdges
350
2E
  3
Linepattern
350
38
  3
Realistic
350
33
  3
Thicken
350
37
  0
DICTIONARY
  5
337
102
{ACAD_REACTORS
330
C
102
}
330
C
100
AcDbDictionary
281
     1
  3
PSOLHEIGHT
350
339
  3
PSOLWIDTH
350
338
  0
LAYOUT
  5
1E
102
{ACAD_REACTORS
330
1A
102
}
330
1A
100
AcDbPlotSettings
  1

  2
none_device
  4

  6

 40
0.0
 41
0.0
 42
0.0
 43
0.0
 44
0.0
 45
0.0
 46
0.0
 47
0.0
 48
0.0
 49
0.0
140
0.0
141
0.0
142
1.0
143
1.0
 70
   688
 72
     0
 73
     0
 74
     5
  7

 75
    16
147
1.0
148
0.0
149
0.0
100
AcDbLayout
  1
Layout1
 70
     1
 71
     1
 10
0.0
 20
0.0
 11
420.0
 21
297.0
 12
0.0
 22
0.0
 32
0.0
 14
1.0000000000E+20
 24
1.0000000000E+20
 34
1.0000000000E+20
 15
-1.0000000000E+20
 25
-1.0000000000E+20
 35
-1.0000000000E+20
146
0.0
 13
0.0
 23
0.0
 33
0.0
 16
1.0
 26
0.0
 36
0.0
 17
0.0
 27
1.0
 37
0.0
 76
     0
330
1B
  0
LAYOUT
  5
26
102
{ACAD_REACTORS
330
1A
102
}
330
1A
100
AcDbPlotSettings
  1

  2
none_device
  4

  6

 40
0.0
 41
0.0
 42
0.0
 43
0.0
 44
0.0
 45
0.0
 46
0.0
 47
0.0
 48
0.0
 49
0.0
140
0.0
141
0.0
142
1.0
143
1.0
 70
   688
 72
     0
 73
     0
 74
     5
  7

 75
    16
147
1.0
148
0.0
149
0.0
100
AcDbLayout
  1
Layout2
 70
     1
 71
     2
 10
0.0
 20
0.0
 11
0.0
 21
0.0
 12
0.0
 22
0.0
 32
0.0
 14
0.0
 24
0.0
 34
0.0
 15
0.0
 25
0.0
 35
0.0
146
0.0
 13
0.0
 23
0.0
 33
0.0
 16
1.0
 26
0.0
 36
0.0
 17
0.0
 27
1.0
 37
0.0
 76
     0
330
23
  0
LAYOUT
  5
22
102
{ACAD_REACTORS
330
1A
102
}
330
1A
100
AcDbPlotSettings
  1

  2
none_device
  4

  6

 40
0.0
 41
0.0
 42
0.0
 43
0.0
 44
0.0
 45
0.0
 46
0.0
 47
0.0
 48
0.0
 49
0.0
140
0.0
141
0.0
142
1.0
143
1.0
 70
  1712
 72
     0
 73
     0
 74
     0
  7

 75
     0
147
1.0
148
0.0
149
0.0
100
AcDbLayout
  1
Model
 70
     1
 71
     0
 10
0.0
 20
0.0
 11
297.0
 21
210.0
 12
0.0
 22
0.0
 32
0.0
 14
0.0
 24
0.0
 34
0.0
 15
297.0
 25
210.0
 35
0.0
146
0.0
 13
0.0
 23
0.0
 33
0.0
 16
1.0
 26
0.0
 36
0.0
 17
0.0
 27
1.0
 37
0.0
 76
     0
330
1F
331
29
  0
MLINESTYLE
  5
18
102
{ACAD_REACTORS
330
17
102
}
330
17
100
AcDbMlineStyle
  2
Standard
 70
     0
  3

 62
   256
 51
90.0
 52
90.0
 71
     2
 49
0.5
 62
   256
  6
BYLAYER
 49
-0.5
 62
   256
  6
BYLAYER
  0
ACDBPLACEHOLDER
  5
F
102
{ACAD_REACTORS
330
E
102
}
330
E
  0
VISUALSTYLE
  5
2F
102
{ACAD_REACTORS
330
2A
102
}
330
2A
100
AcDbVisualStyle
  2
2dWireframe
 70
     4
 71
     0
 72
     2
 73
     0
 90
        0
 40
-0.6
 41
-30.0
 62
     5
 63
     7
 74
     1
 91
        4
 64
     7
 65
   257
 75
     1
175
     1
 42
1.0
 92
        0
 66
   257
 43
1.0
 76
     1
 77
     6
 78
     2
 67
     7
 79
     5
170
     0
171
     0
290
     0
174
     0
 93
        1
 44
0.0
173
     0
291
     0
 45
0.0
1001
ACAD
1000
AcDbSavedByObjectVersion
1070
     0
  0
VISUALSTYLE
  5
31
102
{ACAD_REACTORS
330
2A
102
}
330
2A
100
AcDbVisualStyle
  2
3D Hidden
 70
     6
 71
     1
 72
     2
 73
     2
 90
        0
 40
-0.6
 41
-30.0
 62
     5
 63
     7
 74
     2
 91
        2
 64
     7
 65
   257
 75
     2
175
     1
 42
40.0
 92
        0
 66
   257
 43
1.0
 76
     1
 77
     6
 78
     2
 67
     7
 79
     3
170
     0
171
     0
290
     0
174
     0
 93
        1
 44
0.0
173
     0
291
     0
 45
0.0
1001
ACAD
1000
AcDbSavedByObjectVersion
1070
     0
  0
VISUALSTYLE
  5
30
102
{ACAD_REACTORS
330
2A
102
}
330
2A
100
AcDbVisualStyle
  2
3dWireframe
 70
     5
 71
     0
 72
     2
 73
     0
 90
        0
 40
-0.6
 41
-30.0
 62
     5
 63
     7
 74
     1
 91
        4
 64
     7
 65
   257
 75
     1
175
     1
 42
1.0
 92
        0
 66
   257
 43
1.0
 76
     1
 77
     6
 78
     2
 67
     7
 79
     5
170
     0
171
     0
290
     0
174
     0
 93
        1
 44
0.0
173
     0
291
     0
 45
0.0
1001
ACAD
1000
AcDbSavedByObjectVersion
1070
     0
  0
VISUALSTYLE
  5
32
102
{ACAD_REACTORS
330
2A
102
}
330
2A
100
AcDbVisualStyle
  2
Basic
 70
     7
 71
     1
 72
     0
 73
     1
 90
        0
 40
-0.6
 41
-30.0
 62
     5
 63
     7
 74
     0
 91
        4
 64
     7
 65
   257
 75
     1
175
     1
 42
1.0
 92
        8
 66
     7
 43
1.0
 76
     1
 77
     6
 78
     2
 67
     7
 79
     5
170
     0
171
     0
290
     0
174
     0
 93
        1
 44
0.0
173
     0
291
     1
 45
0.0
1001
ACAD
1000
AcDbSavedByObjectVersion
1070
     0
  0
VISUALSTYLE
  5
36
102
{ACAD_REACTORS
330
2A
102
}
330
2A
100
AcDbVisualStyle
  2
Brighten
 70
    12
 71
     2
 72
     2
 73
     0
 90
        0
 40
-0.6
 41
-30.0
 62
     5
 63
     7
 74
     1
 91
        4
 64
     7
 65
   257
 75
     1
175
     1
 42
1.0
 92
        8
 66
     7
 43
1.0
 76
     1
 77
     6
 78
     2
 67
     7
 79
     5
170
     0
171
     0
290
     0
174
     0
 93
        1
 44
50.0
173
     0
291
     1
 45
0.0
1001
ACAD
1000
AcDbSavedByObjectVersion
1070
     0
  0
VISUALSTYLE
  5
3A
102
{ACAD_REACTORS
330
2A
102
}
330
2A
100
AcDbVisualStyle
  2
ColorChange
 70
    16
 71
     2
 72
     2
 73
     3
 90
        0
 40
-0.6
 41
-30.0
 62
     5
 63
     8
 74
     1
 91
        4
 64
     7
 65
   257
 75
     1
175
     1
 42
1.0
 92
        8
 66
     8
 43
1.0
 76
     1
 77
     6
 78
     2
 67
     7
 79
     5
170
     0
171
     0
290
     0
174
     0
 93
        1
 44
0.0
173
     0
291
     1
 45
0.0
1001
ACAD
1000
AcDbSavedByObjectVersion
1070
     0
  0
VISUALSTYLE
  5
34
102
{ACAD_REACTORS
330
2A
102
}
330
2A
100
AcDbVisualStyle
  2
Conceptual
 70
     9
 71
     3
 72
     2
 73
     0
 90
        0
 40
-0.6
 41
-30.0
 62
     5
 63
     7
 74
     2
 91
        2
 64
     7
 65
   257
 75
     1
175
     1
 42
40.0
 92
        8
 66
     7
 43
1.0
 76
     1
 77
     6
 78
     2
 67
     7
 79
     3
170
     0
171
     0
290
     0
174
     0
 93
        1
 44
0.0
173
     0
291
     0
 45
0.0
1001
ACAD
1000
AcDbSavedByObjectVersion
1070
     0
  0
VISUALSTYLE
  5
35
102
{ACAD_REACTORS
330
2A
102
}
330
2A
100
AcDbVisualStyle
  2
Dim
 70
    11
 71
     2
 72
     2
 73
     0
 90
        0
 40
-0.6
 41
-30.0
 62
     5
 63
     7
 74
     1
 91
        4
 64
     7
 65
   257
 75
     1
175
     1
 42
1.0
 92
        8
 66
     7
 43
1.0
 76
     1
 77
     6
 78
     2
 67
     7
 79
     5
170
     0
171
     0
290
     0
174
     0
 93
        1
 44
-50.0
173
     0
291
     1
 45
0.0
1001
ACAD
1000
AcDbSavedByObjectVersion
1070
     0
  0
VISUALSTYLE
  5
39
102
{ACAD_REACTORS
330
2A
102
}
330
2A
100
AcDbVisualStyle
  2
Facepattern
 70
    15
 71
     2
 72
     2
 73
     0
 90
        0
 40
-0.6
 41
-30.0
 62
     5
 63
     7
 74
     1
 91
        4
 64
     7
 65
   257
 75
     1
175
     1
 42
1.0
 92
        8
 66
     7
 43
1.0
 76
     1
 77
     6
 78
     2
 67
     7
 79
     5
170
     0
171
     0
290
     0
174
     0
 93
        1
 44
0.0
173
     0
291
     1
 45
0.0
1001
ACAD
1000
AcDbSavedByObjectVersion
1070
     0
  0
VISUALSTYLE
  5
2B
102
{ACAD_REACTORS
330
2A
102
}
330
2A
100
AcDbVisualStyle
  2
Flat
 70
     0
 71
     2
 72
     1
 73
     1
 90
        2
 40
-0.6
 41
30.0
 62
     5
 63
     7
 74
     0
 91
        4
 64
     7
 65
   257
 75
     1
175
     1
 42
1.0
 92
        8
 66
     7
 43
1.0
 76
     1
 77
     6
 78
     2
 67
     7
 79
     5
170
     0
171
     0
290
     0
174
     0
 93
       13
 44
0.0
173
     0
291
     1
 45
0.0
1001
ACAD
1000
AcDbSavedByObjectVersion
1070
     0
  0
VISUALSTYLE
  5
2C
102
{ACAD_REACTORS
330
2A
102
}
330
2A
100
AcDbVisualStyle
  2
FlatWithEdges
 70
     1
 71
     2
 72
     1
 73
     1
 90
        2
 40
-0.6
 41
30.0
 62
     5
 63
     7
 74
     1
 91
        4
 64
     7
 65
   257
 75
     1
175
     1
 42
1.0
 92
        0
 66
   257
 43
1.0
 76
     1
 77
     6
 78
     2
 67
     7
 79
     5
170
     0
171
     0
290
     0
174
     0
 93
       13
 44
0.0
173
     0
291
     1
 45
0.0
1001
ACAD
1000
AcDbSavedByObjectVersion
1070
     0
  0
VISUALSTYLE
  5
2D
102
{ACAD_REACTORS
330
2A
102
}
330
2A
100
AcDbVisualStyle
  2
Gouraud
 70
     2
 71
     2
 72
     2
 73
     1
 90
        2
 40
-0.6
 41
30.0
 62
     5
 63
     7
 74
     0
 91
        4
 64
     7
 65
   257
 75
     1
175
     1
 42
1.0
 92
        0
 66
     7
 43
1.0
 76
     1
 77
     6
 78
     2
 67
     7
 79
     5
170
     0
171
     0
290
     0
174
     0
 93
       13
 44
0.0
173
     0
291
     1
 45
0.0
1001
ACAD
1000
AcDbSavedByObjectVersion
1070
     0
  0
VISUALSTYLE
  5
2E
102
{ACAD_REACTORS
330
2A
102
}
330
2A
100
AcDbVisualStyle
  2
GouraudWithEdges
 70
     3
 71
     2
 72
     2
 73
     1
 90
        2
 40
-0.6
 41
30.0
 62
     5
 63
     7
 74
     1
 91
        4
 64
     7
 65
   257
 75
     1
175
     1
 42
1.0
 92
        0
 66
   257
 43
1.0
 76
     1
 77
     6
 78
     2
 67
     7
 79
     5
170
     0
171
     0
290
     0
174
     0
 93
       13
 44
0.0
173
     0
291
     1
 45
0.0
1001
ACAD
1000
AcDbSavedByObjectVersion
1070
     0
  0
VISUALSTYLE
  5
38
102
{ACAD_REACTORS
330
2A
102
}
330
2A
100
AcDbVisualStyle
  2
Linepattern
 70
    14
 71
     2
 72
     2
 73
     0
 90
        0
 40
-0.6
 41
-30.0
 62
     5
 63
     7
 74
     1
 91
        4
 64
     7
 65
   257
 75
     7
175
     7
 42
1.0
 92
        8
 66
     7
 43
1.0
 76
     1
 77
     6
 78
     2
 67
     7
 79
     5
170
     0
171
     0
290
     0
174
     0
 93
        1
 44
0.0
173
     0
291
     1
 45
0.0
1001
ACAD
1000
AcDbSavedByObjectVersion
1070
     0
  0
VISUALSTYLE
  5
33
102
{ACAD_REACTORS
330
2A
102
}
330
2A
100
AcDbVisualStyle
  2
Realistic
 70
     8
 71
     2
 72
     2
 73
     0
 90
        0
 40
-0.6
 41
-30.0
 62
     5
 63
     7
 74
     1
 91
        0
 64
     7
 65
   257
 75
     1
175
     1
 42
1.0
 92
        8
 66
     8
 43
1.0
 76
     1
 77
     6
 78
     2
 67
     7
 79
     5
170
     0
171
     0
290
     0
174
     0
 93
       13
 44
0.0
173
     0
291
     0
 45
0.0
1001
ACAD
1000
AcDbSavedByObjectVersion
1070
     0
  0
VISUALSTYLE
  5
37
102
{ACAD_REACTORS
330
2A
102
}
330
2A
100
AcDbVisualStyle
  2
Thicken
 70
    13
 71
     2
 72
     2
 73
     0
 90
        0
 40
-0.6
 41
-30.0
 62
     5
 63
     7
 74
     1
 91
        4
 64
     7
 65
   257
 75
     1
175
     1
 42
1.0
 92
       12
 66
     7
 43
1.0
 76
     1
 77
     6
 78
     2
 67
     7
 79
     5
170
     0
171
     0
290
     0
174
     0
 93
        1
 44
0.0
173
     0
291
     1
 45
0.0
1001
ACAD
1000
AcDbSavedByObjectVersion
1070
     0
  0
DICTIONARYVAR
  5
339
102
{ACAD_REACTORS
330
337
102
}
330
337
100
DictionaryVariables
280
     0
  1
80.000000
  0
DICTIONARYVAR
  5
338
102
{ACAD_REACTORS
330
337
102
}
330
337
100
DictionaryVariables
280
     0
  1
5.000000
  0
ENDSEC
  0
EOF
