  0
SECTION
  2
HEADER
  9
$ACADVER
  1
AC1015
  9
$ACADMAINTVER
 70
     6
  9
$DWGCODEPAGE
  3
ANSI_1252
  9
$INSBASE
 10
0.0
 20
0.0
 30
0.0
  9
$EXTMIN
 10
0.0
 20
0.0
 30
0.0
  9
$EXTMAX
 10
297.0
 20
210.0
 30
0.0
  9
$LIMMIN
 10
0.0
 20
0.0
  9
$LIMMAX
 10
297.0
 20
210.0
  9
$ORTHOMODE
 70
     0
  9
$REGENMODE
 70
     1
  9
$FILLMODE
 70
     1
  9
$QTEXTMODE
 70
     0
  9
$MIRRTEXT
 70
     1
  9
$LTSCALE
 40
1.0
  9
$ATTMODE
 70
     1
  9
$TEXTSIZE
 40
2.0
  9
$TRACEWID
 40
1.0
  9
$TEXTSTYLE
  7
Standard
  9
$CLAYER
  8
0
  9
$CELTYPE
  6
ByLayer
  9
$CECOLOR
 62
   256
  9
$CELTSCALE
 40
1.0
  9
$DISPSILH
 70
     0
  9
$DIMSCALE
 40
1.0
  9
$DIMASZ
 40
3.0
  9
$DIMEXO
 40
0.0
  9
$DIMDLI
 40
3.75
  9
$DIMRND
 40
0.0
  9
$DIMDLE
 40
0.0
  9
$DIMEXE
 40
1.0
  9
$DIMTP
 40
0.0
  9
$DIMTM
 40
0.0
  9
$DIMTXT
 40
2.0
  9
$DIMCEN
 40
2.5
  9
$DIMTSZ
 40
0.0
  9
$DIMTOL
 70
     0
  9
$DIMLIM
 70
     0
  9
$DIMTIH
 70
     1
  9
$DIMTOH
 70
     1
  9
$DIMSE1
 70
     0
  9
$DIMSE2
 70
     0
  9
$DIMTAD
 70
     1
  9
$DIMZIN
 70
     0
  9
$DIMBLK
  1

  9
$DIMASO
 70
     1
  9
$DIMSHO
 70
     1
  9
$DIMPOST
  1

  9
$DIMAPOST
  1

  9
$DIMALT
 70
     0
  9
$DIMALTD
 70
     3
  9
$DIMALTF
 40
0.0393700787
  9
$DIMLFAC
 40
1.0
  9
$DIMTOFL
 70
     1
  9
$DIMTVP
 40
0.0
  9
$DIMTIX
 70
     0
  9
$DIMSOXD
 70
     0
  9
$DIMSAH
 70
     0
  9
$DIMBLK1
  1

  9
$DIMBLK2
  1

  9
$DIMSTYLE
  2
ISO-25
  9
$DIMCLRD
 70
     0
  9
$DIMCLRE
 70
     0
  9
$DIMCLRT
 70
     0
  9
$DIMTFAC
 40
1.0
  9
$DIMGAP
 40
1.524
  9
$DIMJUST
 70
     0
  9
$DIMSD1
 70
     0
  9
$DIMSD2
 70
     0
  9
$DIMTOLJ
 70
     0
  9
$DIMTZIN
 70
     0
  9
$DIMALTZ
 70
     0
  9
$DIMALTTZ
 70
     0
  9
$DIMUPT
 70
     0
  9
$DIMDEC
 70
     2
  9
$DIMTDEC
 70
     3
  9
$DIMALTU
 70
     2
  9
$DIMALTTD
 70
     3
  9
$DIMTXSTY
  7
Standard
  9
$DIMAUNIT
 70
     0
  9
$DIMADEC
 70
     2
  9
$DIMALTRND
 40
0.0
  9
$DIMAZIN
 70
     0
  9
$DIMDSEP
 70
    44
  9
$DIMATFIT
 70
     3
  9
$DIMFRAC
 70
     0
  9
$DIMLDRBLK
  1

  9
$DIMLUNIT
 70
     2
  9
$DIMLWD
 70
    -2
  9
$DIMLWE
 70
    -2
  9
$DIMTMOVE
 70
     0
  9
$LUNITS
 70
     2
  9
$LUPREC
 70
     2
  9
$SKETCHINC
 40
1.0
  9
$FILLETRAD
 40
10.0
  9
$AUNITS
 70
     0
  9
$AUPREC
 70
     2
  9
$MENU
  1
.
  9
$ELEVATION
 40
0.0
  9
$PELEVATION
 40
0.0
  9
$THICKNESS
 40
0.0
  9
$LIMCHECK
 70
     0
  9
$CHAMFERA
 40
0.0
  9
$CHAMFERB
 40
0.0
  9
$CHAMFERC
 40
0.0
  9
$CHAMFERD
 40
0.0
  9
$SKPOLY
 70
     0
  9
$TDCREATE
 40
2458166.652343079
  9
$TDUCREATE
 40
2458166.610676412
  9
$TDUPDATE
 40
2458166.652344757
  9
$TDUUPDATE
 40
2458166.61067809
  9
$TDINDWG
 40
0.0000000116
  9
$TDUSRTIMER
 40
0.0000000116
  9
$USRTIMER
 70
     1
  9
$ANGBASE
 50
0.0
  9
$ANGDIR
 70
     0
  9
$PDMODE
 70
     0
  9
$PDSIZE
 40
-1.0
  9
$PLINEWID
 40
0.0
  9
$SPLFRAME
 70
     0
  9
$SPLINETYPE
 70
     6
  9
$SPLINESEGS
 70
     8
  9
$HANDSEED
  5
27D
  9
$SURFTAB1
 70
     6
  9
$SURFTAB2
 70
     6
  9
$SURFTYPE
 70
     6
  9
$SURFU
 70
     6
  9
$SURFV
 70
     6
  9
$UCSBASE
  2

  9
$UCSNAME
  2

  9
$UCSORG
 10
0.0
 20
0.0
 30
0.0
  9
$UCSXDIR
 10
1.0
 20
0.0
 30
0.0
  9
$UCSYDIR
 10
0.0
 20
1.0
 30
0.0
  9
$UCSORTHOREF
  2

  9
$UCSORTHOVIEW
 70
     0
  9
$UCSORGTOP
 10
0.0
 20
0.0
 30
0.0
  9
$UCSORGBOTTOM
 10
0.0
 20
0.0
 30
0.0
  9
$UCSORGLEFT
 10
0.0
 20
0.0
 30
0.0
  9
$UCSORGRIGHT
 10
0.0
 20
0.0
 30
0.0
  9
$UCSORGFRONT
 10
0.0
 20
0.0
 30
0.0
  9
$UCSORGBACK
 10
0.0
 20
0.0
 30
0.0
  9
$PUCSBASE
  2

  9
$PUCSNAME
  2

  9
$PUCSORG
 10
0.0
 20
0.0
 30
0.0
  9
$PUCSXDIR
 10
1.0
 20
0.0
 30
0.0
  9
$PUCSYDIR
 10
0.0
 20
1.0
 30
0.0
  9
$PUCSORTHOREF
  2

  9
$PUCSORTHOVIEW
 70
     0
  9
$PUCSORGTOP
 10
0.0
 20
0.0
 30
0.0
  9
$PUCSORGBOTTOM
 10
0.0
 20
0.0
 30
0.0
  9
$PUCSORGLEFT
 10
0.0
 20
0.0
 30
0.0
  9
$PUCSORGRIGHT
 10
0.0
 20
0.0
 30
0.0
  9
$PUCSORGFRONT
 10
0.0
 20
0.0
 30
0.0
  9
$PUCSORGBACK
 10
0.0
 20
0.0
 30
0.0
  9
$USERI1
 70
     0
  9
$USERI2
 70
     0
  9
$USERI3
 70
     0
  9
$USERI4
 70
     0
  9
$USERI5
 70
     0
  9
$USERR1
 40
0.0
  9
$USERR2
 40
0.0
  9
$USERR3
 40
0.0
  9
$USERR4
 40
0.0
  9
$USERR5
 40
0.0
  9
$WORLDVIEW
 70
     1
  9
$SHADEDGE
 70
     3
  9
$SHADEDIF
 70
    70
  9
$TILEMODE
 70
     1
  9
$MAXACTVP
 70
    64
  9
$PINSBASE
 10
0.0
 20
0.0
 30
0.0
  9
$PLIMCHECK
 70
     0
  9
$PEXTMIN
 10
1.0000000000E+20
 20
1.0000000000E+20
 30
1.0000000000E+20
  9
$PEXTMAX
 10
-1.0000000000E+20
 20
-1.0000000000E+20
 30
-1.0000000000E+20
  9
$PLIMMIN
 10
0.0
 20
0.0
  9
$PLIMMAX
 10
420.0
 20
297.0
  9
$UNITMODE
 70
     0
  9
$VISRETAIN
 70
     1
  9
$PLINEGEN
 70
     0
  9
$PSLTSCALE
 70
     1
  9
$TREEDEPTH
 70
  3020
  9
$CMLSTYLE
  2
Standard
  9
$CMLJUST
 70
     0
  9
$CMLSCALE
 40
20.0
  9
$PROXYGRAPHICS
 70
     1
  9
$MEASUREMENT
 70
     1
  9
$CELWEIGHT
370
    -1
  9
$ENDCAPS
280
     0
  9
$JOINSTYLE
280
     0
  9
$LWDISPLAY
290
     1
  9
$INSUNITS
 70
     4
  9
$HYPERLINKBASE
  1

  9
$STYLESHEET
  1

  9
$XEDIT
290
     1
  9
$CEPSNTYPE
380
     0
  9
$PSTYLEMODE
290
     1
  9
$FINGERPRINTGUID
  2
{1BACC266-09BC-4E48-BDE8-993B51F4CCAD}
  9
$VERSIONGUID
  2
{FAEB1C32-E019-11D5-929B-00C0DF256EC4}
  9
$EXTNAMES
290
     1
  9
$PSVPSCALE
 40
0.0
  9
$OLESTARTUP
290
     0
  0
ENDSEC
  0
SECTION
  2
CLASSES
  0
CLASS
  1
ACDBDICTIONARYWDFLT
  2
AcDbDictionaryWithDefault
  3
ObjectDBX Classes
 90
        0
280
     0
281
     0
  0
CLASS
  1
VISUALSTYLE
  2
AcDbVisualStyle
  3
ObjectDBX Classes
 90
     4095
280
     0
281
     0
  0
CLASS
  1
MATERIAL
  2
AcDbMaterial
  3
ObjectDBX Classes
 90
     1153
280
     0
281
     0
  0
CLASS
  1
SCALE
  2
AcDbScale
  3
ObjectDBX Classes
 90
     1153
280
     0
281
     0
  0
CLASS
  1
TABLESTYLE
  2
AcDbTableStyle
  3
ObjectDBX Classes
 90
     4095
280
     0
281
     0
  0
CLASS
  1
MLEADERSTYLE
  2
AcDbMLeaderStyle
  3
ACDB_MLEADERSTYLE_CLASS
 90
     4095
280
     0
281
     0
  0
CLASS
  1
SUN
  2
AcDbSun
  3
SCENEOE
 90
     1153
280
     0
281
     0
  0
CLASS
  1
ACDBPLACEHOLDER
  2
AcDbPlaceHolder
  3
ObjectDBX Classes
 90
        0
280
     0
281
     0
  0
CLASS
  1
LAYOUT
  2
AcDbLayout
  3
ObjectDBX Classes
 90
        0
280
     0
281
     0
  0
ENDSEC
  0
SECTION
  2
TABLES
  0
TABLE
  2
VPORT
  5
8
330
0
100
AcDbSymbolTable
 70
     1
  0
VPORT
  5
29
330
8
100
AcDbSymbolTableRecord
100
AcDbViewportTableRecord
  2
*Active
 70
     0
 10
0.0
 20
0.0
 11
1.0
 21
1.0
 12
148.5
 22
105.0
 13
0.0
 23
0.0
 14
10.0
 24
10.0
 15
10.0
 25
10.0
 16
0.0
 26
0.0
 36
1.0
 17
0.0
 27
0.0
 37
0.0
 40
210.0
 41
1.4142857143
 42
50.0
 43
0.0
 44
0.0
 50
0.0
 51
0.0
 71
     0
 72
  2000
 73
     1
 74
     3
 75
     0
 76
     0
 77
     0
 78
     0
281
     0
 65
     1
110
0.0
120
0.0
130
0.0
111
1.0
121
0.0
131
0.0
112
0.0
122
1.0
132
0.0
 79
     0
146
0.0
  0
ENDTAB
  0
TABLE
  2
LTYPE
  5
5
330
0
100
AcDbSymbolTable
 70
     6
  0
LTYPE
  5
14
330
5
100
AcDbSymbolTableRecord
100
AcDbLinetypeTableRecord
  2
ByBlock
 70
     0
  3

 72
    65
 73
     0
 40
0.0
  0
LTYPE
  5
15
330
5
100
AcDbSymbolTableRecord
100
AcDbLinetypeTableRecord
  2
ByLayer
 70
     0
  3

 72
    65
 73
     0
 40
0.0
  0
LTYPE
  5
16
330
5
100
AcDbSymbolTableRecord
100
AcDbLinetypeTableRecord
  2
Continuous
 70
     0
  3
Solid line
 72
    65
 73
     0
 40
0.0
  0
LTYPE
  5
6E
330
5
100
AcDbSymbolTableRecord
100
AcDbLinetypeTableRecord
  2
HIDDEN
 70
     0
  3
Hidden __ __ __ __ __ __ __ __ __ __ __ __ __ __
 72
    65
 73
     2
 40
1.905
 49
1.27
 74
     0
 49
-0.635
 74
     0
  0
LTYPE
  5
6F
330
5
100
AcDbSymbolTableRecord
100
AcDbLinetypeTableRecord
  2
PHANTOM
 70
     0
  3
Phantom ______  __  __  ______  __  __  ______
 72
    65
 73
     6
 40
12.7
 49
6.35
 74
     0
 49
-1.27
 74
     0
 49
1.27
 74
     0
 49
-1.27
 74
     0
 49
1.27
 74
     0
 49
-1.27
 74
     0
  0
LTYPE
  5
70
330
5
100
AcDbSymbolTableRecord
100
AcDbLinetypeTableRecord
  2
CENTER
 70
     0
  3
Center ____ _ ____ _ ____ _ ____ _ ____ _ ____
 72
    65
 73
     4
 40
10.16
 49
6.35
 74
     0
 49
-1.27
 74
     0
 49
1.27
 74
     0
 49
-1.27
 74
     0
  0
LTYPE
  5
71
330
5
100
AcDbSymbolTableRecord
100
AcDbLinetypeTableRecord
  2
CENTERX2
 70
     0
  3
Center (2x) ________  __  ________  __  _____
 72
    65
 73
     4
 40
20.32
 49
12.7
 74
     0
 49
-2.54
 74
     0
 49
2.54
 74
     0
 49
-2.54
 74
     0
  0
LTYPE
  5
72
330
5
100
AcDbSymbolTableRecord
100
AcDbLinetypeTableRecord
  2
DOT2
 70
     0
  3
Dot (.5x) ........................................
 72
    65
 73
     2
 40
0.635
 49
0.0
 74
     0
 49
-0.635
 74
     0
  0
ENDTAB
  0
TABLE
  2
LAYER
  5
2
330
0
100
AcDbSymbolTable
 70
     5
  0
LAYER
  5
10
330
2
100
AcDbSymbolTableRecord
100
AcDbLayerTableRecord
  2
0
 70
     0
 62
     7
  6
Continuous
370
    -3
390
F
  0
LAYER
  5
73
330
2
100
AcDbSymbolTableRecord
100
AcDbLayerTableRecord
  2
FORMAT
 70
     0
 62
     7
  6
Continuous
370
    -3
390
F
  0
LAYER
  5
74
330
2
100
AcDbSymbolTableRecord
100
AcDbLayerTableRecord
  2
VERMASSUNG
 70
     0
 62
     7
  6
Continuous
370
    -3
390
F
  0
LAYER
  5
75
330
2
100
AcDbSymbolTableRecord
100
AcDbLayerTableRecord
  2
KOPF_DÜNN
 70
     0
 62
     7
  6
Continuous
370
    -3
390
F
  0
LAYER
  5
76
330
2
100
AcDbSymbolTableRecord
100
AcDbLayerTableRecord
  2
KOPF_DICK
 70
     0
 62
     7
  6
Continuous
370
    25
390
F
  0
ENDTAB
  0
TABLE
  2
STYLE
  5
3
330
0
100
AcDbSymbolTable
 70
     3
  0
STYLE
  5
11
330
3
100
AcDbSymbolTableRecord
100
AcDbTextStyleTableRecord
  2
Standard
 70
     0
 40
0.0
 41
1.0
 50
0.0
 71
     0
 42
2.0
  3
txt
  4

  0
STYLE
  5
77
330
3
100
AcDbSymbolTableRecord
100
AcDbTextStyleTableRecord
  2
SLDTEXTSTYLE0
 70
     0
 40
0.0
 41
0.7
 50
0.0
 71
     0
 42
2.0
  3
TXT
  4

  0
STYLE
  5
7B
330
3
100
AcDbSymbolTableRecord
100
AcDbTextStyleTableRecord
  2
SLDTEXTSTYLE1
 70
     0
 40
0.0
 41
0.6473684211
 50
0.0
 71
     0
 42
2.0
  3
TXT
  4

  0
ENDTAB
  0
TABLE
  2
VIEW
  5
6
330
0
100
AcDbSymbolTable
 70
     0
  0
ENDTAB
  0
TABLE
  2
UCS
  5
7
330
0
100
AcDbSymbolTable
 70
     0
  0
ENDTAB
  0
TABLE
  2
APPID
  5
9
330
0
100
AcDbSymbolTable
 70
     1
  0
APPID
  5
12
330
9
100
AcDbSymbolTableRecord
100
AcDbRegAppTableRecord
  2
ACAD
 70
     0
  0
ENDTAB
  0
TABLE
  2
DIMSTYLE
  5
A
330
0
100
AcDbSymbolTable
 70
     2
100
AcDbDimStyleTable
  0
DIMSTYLE
105
27
330
A
100
AcDbSymbolTableRecord
100
AcDbDimStyleTableRecord
  2
ISO-25
 70
     0
 41
2.5
 42
0.625
 43
3.75
 44
1.25
 73
     0
 74
     0
 77
     1
 78
     8
140
2.5
141
2.5
143
0.0393700787
147
0.625
171
     3
172
     1
178
     0
271
     2
272
     2
274
     3
278
    44
283
     0
284
     8
340
11
  0
DIMSTYLE
105
231
102
{ACAD_REACTORS
330
230
330
23D
330
247
330
251
330
25B
330
265
330
270
102
}
330
A
100
AcDbSymbolTableRecord
100
AcDbDimStyleTableRecord
  2
SLDDIMSTYLE0
 70
     0
 41
3.0
 44
0.0
 45
0.000000001
 73
     0
 74
     0
 77
     1
 78
    12
 79
     3
140
2.0
147
0.5
173
     1
178
     0
271
     2
272
     3
276
     2
284
    12
340
77
  0
ENDTAB
  0
TABLE
  2
BLOCK_RECORD
  5
1
330
0
100
AcDbSymbolTable
 70
     8
  0
BLOCK_RECORD
  5
1F
330
1
100
AcDbSymbolTableRecord
100
AcDbBlockTableRecord
  2
*Model_Space
340
22
  0
BLOCK_RECORD
  5
1B
330
1
100
AcDbSymbolTableRecord
100
AcDbBlockTableRecord
  2
*Paper_Space
340
1E
  0
BLOCK_RECORD
  5
23
330
1
100
AcDbSymbolTableRecord
100
AcDbBlockTableRecord
  2
*Paper_Space0
340
26
  0
BLOCK_RECORD
  5
232
330
1
100
AcDbSymbolTableRecord
100
AcDbBlockTableRecord
  2
_D
340
0
  0
BLOCK_RECORD
  5
23E
330
1
100
AcDbSymbolTableRecord
100
AcDbBlockTableRecord
  2
_D_1
340
0
  0
BLOCK_RECORD
  5
248
330
1
100
AcDbSymbolTableRecord
100
AcDbBlockTableRecord
  2
_D_2
340
0
  0
BLOCK_RECORD
  5
252
330
1
100
AcDbSymbolTableRecord
100
AcDbBlockTableRecord
  2
_D_3
340
0
  0
BLOCK_RECORD
  5
25C
330
1
100
AcDbSymbolTableRecord
100
AcDbBlockTableRecord
  2
_D_4
340
0
  0
BLOCK_RECORD
  5
266
330
1
100
AcDbSymbolTableRecord
100
AcDbBlockTableRecord
  2
_D_5
340
0
  0
BLOCK_RECORD
  5
271
330
1
100
AcDbSymbolTableRecord
100
AcDbBlockTableRecord
  2
_D_6
340
0
  0
ENDTAB
  0
ENDSEC
  0
SECTION
  2
BLOCKS
  0
BLOCK
  5
20
330
1F
100
AcDbEntity
  8
0
100
AcDbBlockBegin
  2
*Model_Space
 70
     0
 10
0.0
 20
0.0
 30
0.0
  3
*Model_Space
  1

  0
ENDBLK
  5
21
330
1F
100
AcDbEntity
  8
0
100
AcDbBlockEnd
  0
BLOCK
  5
1C
330
1B
100
AcDbEntity
 67
     1
  8
0
100
AcDbBlockBegin
  2
*Paper_Space
 70
     0
 10
0.0
 20
0.0
 30
0.0
  3
*Paper_Space
  1

  0
ENDBLK
  5
1D
330
1B
100
AcDbEntity
 67
     1
  8
0
100
AcDbBlockEnd
  0
BLOCK
  5
24
330
23
100
AcDbEntity
  8
0
100
AcDbBlockBegin
  2
*Paper_Space0
 70
     0
 10
0.0
 20
0.0
 30
0.0
  3
*Paper_Space0
  1

  0
ENDBLK
  5
25
330
23
100
AcDbEntity
  8
0
100
AcDbBlockEnd
  0
BLOCK
  5
233
330
232
100
AcDbEntity
  8
0
100
AcDbBlockBegin
  2
_D
 70
     0
 10
0.0
 20
0.0
 30
0.0
  3
_D
  1

  0
SOLID
  5
235
330
232
100
AcDbEntity
  8
VERMASSUNG
100
AcDbTrace
 10
81.0367828946
 20
138.7459522928
 30
0.0
 11
80.5867828946
 21
135.7459522928
 31
0.0
 12
81.4867828946
 22
135.7459522928
 32
0.0
 13
81.4867828946
 23
135.7459522928
 33
0.0
  0
SOLID
  5
236
330
232
100
AcDbEntity
  8
VERMASSUNG
100
AcDbTrace
 10
81.0367828946
 20
75.7459522928
 30
0.0
 11
81.4867828946
 21
78.7459522928
 31
0.0
 12
80.5867828946
 22
78.7459522928
 32
0.0
 13
80.5867828946
 23
78.7459522928
 33
0.0
  0
LINE
  5
237
330
232
100
AcDbEntity
  8
VERMASSUNG
100
AcDbLine
 10
120.0051947843
 20
138.7459522928
 30
0.0
 11
80.0367828946
 21
138.7459522928
 31
0.0
  0
LINE
  5
238
330
232
100
AcDbEntity
  8
VERMASSUNG
100
AcDbLine
 10
120.0051947843
 20
75.7459522928
 30
0.0
 11
80.0367828946
 21
75.7459522928
 31
0.0
  0
LINE
  5
239
330
232
100
AcDbEntity
  8
VERMASSUNG
100
AcDbLine
 10
81.0367828946
 20
138.7459522928
 30
0.0
 11
81.0367828946
 21
75.7459522928
 31
0.0
  0
MTEXT
  5
23A
330
232
100
AcDbEntity
  8
VERMASSUNG
100
AcDbMText
 10
78.2586476384
 20
99.0113731503
 30
0.0
 40
2.0
 41
0.0
 71
     1
 72
     1
  1
HSK A
  7
SLDTEXTSTYLE0
 11
-7.044195017643634E-15
 21
1.0
 31
0.0
 73
     1
 44
1.0
  0
MTEXT
  5
23B
330
232
100
AcDbEntity
  8
VERMASSUNG
100
AcDbMText
 10
78.4586475897
 20
108.0113727629
 30
0.0
 40
2.0
 41
0.0
 71
     1
 72
     1
  1
%%c
  7
SLDTEXTSTYLE0
 11
-7.044195017643634E-15
 21
1.0
 31
0.0
 73
     1
 44
1.0
  0
MTEXT
  5
23C
330
232
100
AcDbEntity
  8
VERMASSUNG
100
AcDbMText
 10
78.4586472986
 20
111.6194934511
 30
0.0
 40
2.0
 41
0.0
 71
     1
 72
     1
  1
63
  7
SLDTEXTSTYLE0
 11
-7.044195017643634E-15
 21
1.0
 31
0.0
 73
     1
 44
1.0
  0
ENDBLK
  5
234
330
232
100
AcDbEntity
  8
0
100
AcDbBlockEnd
  0
BLOCK
  5
23F
330
23E
100
AcDbEntity
  8
0
100
AcDbBlockBegin
  2
_D_1
 70
     0
 10
0.0
 20
0.0
 30
0.0
  3
_D_1
  1

  0
SOLID
  5
241
330
23E
100
AcDbEntity
  8
VERMASSUNG
100
AcDbTrace
 10
87.8051947843
 20
158.0179205996
 30
0.0
 11
90.8051947843
 21
157.5679205996
 31
0.0
 12
90.8051947843
 22
158.4679205996
 32
0.0
 13
90.8051947843
 23
158.4679205996
 33
0.0
  0
SOLID
  5
242
330
23E
100
AcDbEntity
  8
VERMASSUNG
100
AcDbTrace
 10
198.7051947843
 20
158.0179205996
 30
0.0
 11
195.7051947843
 21
158.4679205996
 31
0.0
 12
195.7051947843
 22
157.5679205996
 32
0.0
 13
195.7051947843
 23
157.5679205996
 33
0.0
  0
LINE
  5
243
330
23E
100
AcDbEntity
  8
VERMASSUNG
100
AcDbLine
 10
87.8051947843
 20
126.9366300393
 30
0.0
 11
87.8051947843
 21
159.0179205996
 31
0.0
  0
LINE
  5
244
330
23E
100
AcDbEntity
  8
VERMASSUNG
100
AcDbLine
 10
198.7051947843
 20
97.0459522928
 30
0.0
 11
198.7051947843
 21
159.0179205996
 31
0.0
  0
LINE
  5
245
330
23E
100
AcDbEntity
  8
VERMASSUNG
100
AcDbLine
 10
87.8051947843
 20
158.0179205996
 30
0.0
 11
198.7051947843
 21
158.0179205996
 31
0.0
  0
MTEXT
  5
246
330
23E
100
AcDbEntity
  8
VERMASSUNG
100
AcDbMText
 10
146.3880071358
 20
160.5960561956
 30
0.0
 40
2.0
 41
0.0
 71
     1
 72
     1
  1
110.9
  7
SLDTEXTSTYLE0
 73
     1
 44
1.0
  0
ENDBLK
  5
240
330
23E
100
AcDbEntity
  8
0
100
AcDbBlockEnd
  0
BLOCK
  5
249
330
248
100
AcDbEntity
  8
0
100
AcDbBlockBegin
  2
_D_2
 70
     0
 10
0.0
 20
0.0
 30
0.0
  3
_D_2
  1

  0
SOLID
  5
24B
330
248
100
AcDbEntity
  8
VERMASSUNG
100
AcDbTrace
 10
119.7051947843
 20
152.0179205996
 30
0.0
 11
122.7051947843
 21
151.5679205996
 31
0.0
 12
122.7051947843
 22
152.4679205996
 32
0.0
 13
122.7051947843
 23
152.4679205996
 33
0.0
  0
SOLID
  5
24C
330
248
100
AcDbEntity
  8
VERMASSUNG
100
AcDbTrace
 10
179.7051947843
 20
152.0179205996
 30
0.0
 11
176.7051947843
 21
152.4679205996
 31
0.0
 12
176.7051947843
 22
151.5679205996
 32
0.0
 13
176.7051947843
 23
151.5679205996
 33
0.0
  0
LINE
  5
24D
330
248
100
AcDbEntity
  8
VERMASSUNG
100
AcDbLine
 10
119.7051947843
 20
138.4459522928
 30
0.0
 11
119.7051947843
 21
153.0179205996
 31
0.0
  0
LINE
  5
24E
330
248
100
AcDbEntity
  8
VERMASSUNG
100
AcDbLine
 10
179.7051947843
 20
130.4459522928
 30
0.0
 11
179.7051947843
 21
153.0179205996
 31
0.0
  0
LINE
  5
24F
330
248
100
AcDbEntity
  8
VERMASSUNG
100
AcDbLine
 10
119.7051947843
 20
152.0179205996
 30
0.0
 11
179.7051947843
 21
152.0179205996
 31
0.0
  0
MTEXT
  5
250
330
248
100
AcDbEntity
  8
VERMASSUNG
100
AcDbMText
 10
149.2159642758
 20
154.5960561956
 30
0.0
 40
2.0
 41
0.0
 71
     1
 72
     1
  1
60
  7
SLDTEXTSTYLE0
 73
     1
 44
1.0
  0
ENDBLK
  5
24A
330
248
100
AcDbEntity
  8
0
100
AcDbBlockEnd
  0
BLOCK
  5
253
330
252
100
AcDbEntity
  8
0
100
AcDbBlockBegin
  2
_D_3
 70
     0
 10
0.0
 20
0.0
 30
0.0
  3
_D_3
  1

  0
SOLID
  5
255
330
252
100
AcDbEntity
  8
VERMASSUNG
100
AcDbTrace
 10
198.7051947843
 20
146.0179205996
 30
0.0
 11
195.7051947843
 21
146.4679205996
 31
0.0
 12
195.7051947843
 22
145.5679205996
 32
0.0
 13
195.7051947843
 23
145.5679205996
 33
0.0
  0
SOLID
  5
256
330
252
100
AcDbEntity
  8
VERMASSUNG
100
AcDbTrace
 10
179.7051947843
 20
146.0179205996
 30
0.0
 11
182.7051947843
 21
145.5679205996
 31
0.0
 12
182.7051947843
 22
146.4679205996
 32
0.0
 13
182.7051947843
 23
146.4679205996
 33
0.0
  0
LINE
  5
257
330
252
100
AcDbEntity
  8
VERMASSUNG
100
AcDbLine
 10
198.7051947843
 20
97.0459522928
 30
0.0
 11
198.7051947843
 21
147.0179205996
 31
0.0
  0
LINE
  5
258
330
252
100
AcDbEntity
  8
VERMASSUNG
100
AcDbLine
 10
179.7051947843
 20
130.4459522928
 30
0.0
 11
179.7051947843
 21
147.0179205996
 31
0.0
  0
LINE
  5
259
330
252
100
AcDbEntity
  8
VERMASSUNG
100
AcDbLine
 10
198.7051947843
 20
146.0179205996
 30
0.0
 11
179.7051947843
 21
146.0179205996
 31
0.0
  0
MTEXT
  5
25A
330
252
100
AcDbEntity
  8
VERMASSUNG
100
AcDbMText
 10
188.0053526791
 20
148.5960561956
 30
0.0
 40
2.0
 41
0.0
 71
     1
 72
     1
  1
19
  7
SLDTEXTSTYLE0
 73
     1
 44
1.0
  0
ENDBLK
  5
254
330
252
100
AcDbEntity
  8
0
100
AcDbBlockEnd
  0
BLOCK
  5
25D
330
25C
100
AcDbEntity
  8
0
100
AcDbBlockBegin
  2
_D_4
 70
     0
 10
0.0
 20
0.0
 30
0.0
  3
_D_4
  1

  0
SOLID
  5
25F
330
25C
100
AcDbEntity
  8
VERMASSUNG
100
AcDbTrace
 10
145.6551947843
 20
146.0179205996
 30
0.0
 11
148.6551947843
 21
145.5679205996
 31
0.0
 12
148.6551947843
 22
146.4679205996
 32
0.0
 13
148.6551947843
 23
146.4679205996
 33
0.0
  0
SOLID
  5
260
330
25C
100
AcDbEntity
  8
VERMASSUNG
100
AcDbTrace
 10
179.7051947843
 20
146.0179205996
 30
0.0
 11
176.7051947843
 21
146.4679205996
 31
0.0
 12
176.7051947843
 22
145.5679205996
 32
0.0
 13
176.7051947843
 23
145.5679205996
 33
0.0
  0
LINE
  5
261
330
25C
100
AcDbEntity
  8
VERMASSUNG
100
AcDbLine
 10
145.6551947843
 20
137.0923926166
 30
0.0
 11
145.6551947843
 21
147.0179205996
 31
0.0
  0
LINE
  5
262
330
25C
100
AcDbEntity
  8
VERMASSUNG
100
AcDbLine
 10
179.7051947843
 20
130.4459522928
 30
0.0
 11
179.7051947843
 21
147.0179205996
 31
0.0
  0
LINE
  5
263
330
25C
100
AcDbEntity
  8
VERMASSUNG
100
AcDbLine
 10
145.6551947843
 20
146.0179205996
 30
0.0
 11
179.7051947843
 21
146.0179205996
 31
0.0
  0
MTEXT
  5
264
330
25C
100
AcDbEntity
  8
VERMASSUNG
100
AcDbMText
 10
159.2994128935
 20
148.5960561956
 30
0.0
 40
2.0
 41
0.0
 71
     1
 72
     1
  1
34.05
  7
SLDTEXTSTYLE0
 73
     1
 44
1.0
  0
ENDBLK
  5
25E
330
25C
100
AcDbEntity
  8
0
100
AcDbBlockEnd
  0
BLOCK
  5
267
330
266
100
AcDbEntity
  8
0
100
AcDbBlockBegin
  2
_D_5
 70
     0
 10
0.0
 20
0.0
 30
0.0
  3
_D_5
  1

  0
SOLID
  5
269
330
266
100
AcDbEntity
  8
VERMASSUNG
100
AcDbTrace
 10
226.5871477535
 20
118.2459522928
 30
0.0
 11
226.1371477535
 21
115.2459522928
 31
0.0
 12
227.0371477535
 22
115.2459522928
 32
0.0
 13
227.0371477535
 23
115.2459522928
 33
0.0
  0
SOLID
  5
26A
330
266
100
AcDbEntity
  8
VERMASSUNG
100
AcDbTrace
 10
226.5871477535
 20
96.2459522928
 30
0.0
 11
227.0371477535
 21
99.2459522928
 31
0.0
 12
226.1371477535
 22
99.2459522928
 32
0.0
 13
226.1371477535
 23
99.2459522928
 33
0.0
  0
LINE
  5
26B
330
266
100
AcDbEntity
  8
VERMASSUNG
100
AcDbLine
 10
197.9051947843
 20
118.2459522928
 30
0.0
 11
227.5871477535
 21
118.2459522928
 31
0.0
  0
LINE
  5
26C
330
266
100
AcDbEntity
  8
VERMASSUNG
100
AcDbLine
 10
197.9051947843
 20
96.2459522928
 30
0.0
 11
227.5871477535
 21
96.2459522928
 31
0.0
  0
LINE
  5
26D
330
266
100
AcDbEntity
  8
VERMASSUNG
100
AcDbLine
 10
226.5871477535
 20
118.2459522928
 30
0.0
 11
226.5871477535
 21
96.2459522928
 31
0.0
  0
MTEXT
  5
26E
330
266
100
AcDbEntity
  8
VERMASSUNG
100
AcDbMText
 10
224.0090122157
 20
103.5104934511
 30
0.0
 40
2.0
 41
0.0
 71
     1
 72
     1
  1
%%c
  7
SLDTEXTSTYLE0
 11
-7.044195017643634E-15
 21
1.0
 31
0.0
 73
     1
 44
1.0
  0
MTEXT
  5
26F
330
266
100
AcDbEntity
  8
VERMASSUNG
100
AcDbMText
 10
224.0090121575
 20
107.1203731503
 30
0.0
 40
2.0
 41
0.0
 71
     1
 72
     1
  1
22
  7
SLDTEXTSTYLE0
 11
-7.044195017643634E-15
 21
1.0
 31
0.0
 73
     1
 44
1.0
  0
ENDBLK
  5
268
330
266
100
AcDbEntity
  8
0
100
AcDbBlockEnd
  0
BLOCK
  5
272
330
271
100
AcDbEntity
  8
0
100
AcDbBlockBegin
  2
_D_6
 70
     0
 10
0.0
 20
0.0
 30
0.0
  3
_D_6
  1

  0
SOLID
  5
274
330
271
100
AcDbEntity
  8
VERMASSUNG
100
AcDbTrace
 10
232.5871477535
 20
131.2459522928
 30
0.0
 11
232.1371477535
 21
128.2459522928
 31
0.0
 12
233.0371477535
 22
128.2459522928
 32
0.0
 13
233.0371477535
 23
128.2459522928
 33
0.0
  0
SOLID
  5
275
330
271
100
AcDbEntity
  8
VERMASSUNG
100
AcDbTrace
 10
232.5871477535
 20
83.2459522928
 30
0.0
 11
233.0371477535
 21
86.2459522928
 31
0.0
 12
232.1371477535
 22
86.2459522928
 32
0.0
 13
232.1371477535
 23
86.2459522928
 33
0.0
  0
LINE
  5
276
330
271
100
AcDbEntity
  8
VERMASSUNG
100
AcDbLine
 10
178.9051947843
 20
131.2459522928
 30
0.0
 11
233.5871477535
 21
131.2459522928
 31
0.0
  0
LINE
  5
277
330
271
100
AcDbEntity
  8
VERMASSUNG
100
AcDbLine
 10
178.9051947843
 20
83.2459522928
 30
0.0
 11
233.5871477535
 21
83.2459522928
 31
0.0
  0
LINE
  5
278
330
271
100
AcDbEntity
  8
VERMASSUNG
100
AcDbLine
 10
232.5871477535
 20
131.2459522928
 30
0.0
 11
232.5871477535
 21
83.2459522928
 31
0.0
  0
MTEXT
  5
279
330
271
100
AcDbEntity
  8
VERMASSUNG
100
AcDbMText
 10
230.0090122157
 20
103.4104107443
 30
0.0
 40
2.0
 41
0.0
 71
     1
 72
     1
  1
%%c
  7
SLDTEXTSTYLE0
 11
-7.044195017643634E-15
 21
1.0
 31
0.0
 73
     1
 44
1.0
  0
MTEXT
  5
27A
330
271
100
AcDbEntity
  8
VERMASSUNG
100
AcDbMText
 10
230.0090121575
 20
107.0202904436
 30
0.0
 40
2.0
 41
0.0
 71
     1
 72
     1
  1
48
  7
SLDTEXTSTYLE0
 11
-7.044195017643634E-15
 21
1.0
 31
0.0
 73
     1
 44
1.0
  0
ENDBLK
  5
273
330
271
100
AcDbEntity
  8
0
100
AcDbBlockEnd
  0
ENDSEC
  0
SECTION
  2
ENTITIES
  0
MTEXT
  5
78
330
1F
100
AcDbEntity
  8
KOPF_DÜNN
100
AcDbMText
 10
13.8892156294
 20
23.8442973028
 30
0.0
 40
3.0
 41
0.0
 71
     1
 72
     1
  1
HA6.D22.K01.060
  7
SLDTEXTSTYLE0
 73
     1
 44
1.0
  0
MTEXT
  5
79
330
1F
100
AcDbEntity
  8
VERMASSUNG
100
AcDbMText
 10
13.9329988022
 20
28.8834360957
 30
0.0
 40
3.0
 41
0.0
 71
     1
 72
     1
  1
Fräsdorn_Milling arbor ø22
  7
SLDTEXTSTYLE0
 73
     1
 44
1.0
  0
MTEXT
  5
7A
330
1F
100
AcDbEntity
  8
VERMASSUNG
100
AcDbMText
 10
98.8601118557
 20
13.8365368761
 30
0.0
 40
2.0
 41
0.0
 71
     1
 72
     1
  1
Datum: 12.10.2006
  7
SLDTEXTSTYLE0
 73
     1
 44
1.0
  0
MTEXT
  5
7C
330
1F
100
AcDbEntity
  8
VERMASSUNG
100
AcDbMText
 10
13.933048693
 20
18.0482802738
 30
0.0
 40
2.0
 41
0.0
 71
     1
 72
     1
  1
DIN 69 893 HSK A 63
  7
SLDTEXTSTYLE1
 73
     1
 44
1.0
  0
MTEXT
  5
7D
330
1F
100
AcDbEntity
  8
VERMASSUNG
100
AcDbMText
 10
13.9808475933
 20
13.9090974274
 30
0.0
 40
2.0
 41
0.0
 71
     1
 72
     1
  1
Gewicht: 1163g
  7
SLDTEXTSTYLE0
 73
     1
 44
1.0
  0
LINE
  5
7E
330
1F
100
AcDbEntity
  8
0
  6
Continuous
 62
     7
370
    25
100
AcDbLine
 10
179.7051934432
 20
84.7459513988
 30
0.0
 11
184.8051940929
 21
84.7459513988
 31
0.0
  0
LINE
  5
7F
330
1F
100
AcDbEntity
  8
0
  6
Continuous
 62
     7
370
    25
100
AcDbLine
 10
184.8051940929
 20
94.7459521066
 30
0.0
 11
179.7051934432
 21
94.7459521066
 31
0.0
  0
ARC
  5
80
330
1F
100
AcDbEntity
  8
0
  6
Continuous
 62
     7
370
    25
100
AcDbCircle
 10
184.8051947843
 20
85.2459522928
 30
0.0
 40
0.5
100
AcDbArc
 50
270.0
 51
0.0
  0
ARC
  5
81
330
1F
100
AcDbEntity
  8
0
  6
Continuous
 62
     7
370
    25
100
AcDbCircle
 10
184.8051947843
 20
94.2459522928
 30
0.0
 40
0.5
100
AcDbArc
 50
0.0
 51
90.0
  0
LINE
  5
82
330
1F
100
AcDbEntity
  8
0
  6
Continuous
 62
     7
370
    25
100
AcDbLine
 10
179.7051934432
 20
119.7459524791
 30
0.0
 11
184.8051940929
 21
119.7459524791
 31
0.0
  0
LINE
  5
83
330
1F
100
AcDbEntity
  8
0
  6
Continuous
 62
     7
370
    25
100
AcDbLine
 10
184.8051940929
 20
129.7459531869
 30
0.0
 11
179.7051934432
 21
129.7459531869
 31
0.0
  0
ARC
  5
84
330
1F
100
AcDbEntity
  8
0
  6
Continuous
 62
     7
370
    25
100
AcDbCircle
 10
184.8051947843
 20
120.2459522928
 30
0.0
 40
0.5
100
AcDbArc
 50
270.0
 51
0.0
  0
ARC
  5
85
330
1F
100
AcDbEntity
  8
0
  6
Continuous
 62
     7
370
    25
100
AcDbCircle
 10
184.8051947843
 20
129.2459522928
 30
0.0
 40
0.5
100
AcDbArc
 50
0.0
 51
90.0
  0
LINE
  5
86
330
1F
100
AcDbEntity
  8
0
  6
Continuous
 62
     7
370
    25
100
AcDbLine
 10
212.2051959764
 20
115.2459526728
 30
0.0
 11
203.7051936519
 21
115.2459526728
 31
0.0
  0
LINE
  5
87
330
1F
100
AcDbEntity
  8
0
  6
Continuous
 62
     7
370
    25
100
AcDbLine
 10
203.7051936519
 20
99.2459519129
 30
0.0
 11
212.2051959764
 21
99.2459519129
 31
0.0
  0
ARC
  5
88
330
1F
100
AcDbEntity
  8
0
  6
Continuous
 62
     7
370
    25
100
AcDbCircle
 10
212.2051947843
 20
113.7459522928
 30
0.0
 40
1.500000000000014
100
AcDbArc
 50
0.0
 51
90.0
  0
ARC
  5
89
330
1F
100
AcDbEntity
  8
0
  6
Continuous
 62
     7
370
    25
100
AcDbCircle
 10
212.2051947843
 20
100.7459522928
 30
0.0
 40
1.5
100
AcDbArc
 50
270.0
 51
0.0
  0
ARC
  5
8A
330
1F
100
AcDbEntity
  8
0
  6
Continuous
 62
     7
370
    25
100
AcDbCircle
 10
203.3051947843
 20
101.8459522928
 30
0.0
 40
0.4000000000000341
100
AcDbArc
 50
0.0
 51
90.0
  0
ARC
  5
8B
330
1F
100
AcDbEntity
  8
0
  6
Continuous
 62
     7
370
    25
100
AcDbCircle
 10
203.3051947843
 20
112.6459522928
 30
0.0
 40
0.4000000000000341
100
AcDbArc
 50
270.0
 51
0.0
  0
LINE
  5
8C
330
1F
100
AcDbEntity
  8
0
  6
Continuous
 62
     7
370
    25
100
AcDbLine
 10
203.3051943313
 20
112.2459521811
 30
0.0
 11
198.7051984202
 21
112.2459521811
 31
0.0
  0
LINE
  5
8D
330
1F
100
AcDbEntity
  8
0
  6
Continuous
 62
     7
370
    25
100
AcDbLine
 10
198.7051984202
 20
102.2459524046
 30
0.0
 11
203.3051943313
 21
102.2459524046
 31
0.0
  0
LINE
  5
8E
330
1F
100
AcDbEntity
  8
0
  6
Continuous
 62
     7
370
    25
100
AcDbLine
 10
120.0051947986
 20
75.7459517862
 30
0.0
 11
124.6551947575
 21
75.7459517862
 31
0.0
  0
LINE
  5
8F
330
1F
100
AcDbEntity
  8
0
  6
Continuous
 62
     7
370
    25
100
AcDbLine
 10
124.6831833292
 20
138.7459527995
 30
0.0
 11
120.0051947986
 21
138.7459527995
 31
0.0
  0
ARC
  5
90
330
1F
100
AcDbEntity
  8
0
  6
Continuous
 62
     7
370
    25
100
AcDbCircle
 10
120.0051947843
 20
76.0459522928
 30
0.0
 40
0.3000000000000114
100
AcDbArc
 50
180.0
 51
270.0
  0
ARC
  5
91
330
1F
100
AcDbEntity
  8
0
  6
Continuous
 62
     7
370
    25
100
AcDbCircle
 10
120.0051947843
 20
138.4459522928
 30
0.0
 40
0.3000000000000114
100
AcDbArc
 50
90.0
 51
180.0
  0
ARC
  5
92
330
1F
100
AcDbEntity
  8
0
  6
Continuous
 62
     7
370
    25
100
AcDbCircle
 10
148.6551947843
 20
80.2459522928
 30
0.0
 40
3.000000000000014
100
AcDbArc
 50
90.0
 51
168.4626212438
  0
ARC
  5
93
330
1F
100
AcDbEntity
  8
0
  6
Continuous
 62
     7
370
    25
100
AcDbCircle
 10
148.6551947843
 20
134.2459522928
 30
0.0
 40
3.0
100
AcDbArc
 50
191.5455781598
 51
270.0
  0
ARC
  5
94
330
1F
100
AcDbEntity
  8
0
  6
Continuous
 62
     7
370
    25
100
AcDbCircle
 10
119.2051880317
 20
82.6755146785
 30
0.0
 40
0.6000067526677124
100
AcDbArc
 50
33.5571153394
 51
90.0
  0
ARC
  5
95
330
1F
100
AcDbEntity
  8
0
  6
Continuous
 62
     7
370
    25
100
AcDbCircle
 10
119.2051880317
 20
131.8163899072
 30
0.0
 40
0.6000067526677045
100
AcDbArc
 50
270.0
 51
326.4428846606
  0
LINE
  5
96
330
1F
100
AcDbEntity
  8
0
  6
Continuous
 62
     7
370
    25
100
AcDbLine
 10
117.7051946893
 20
83.0255210693
 30
0.0
 11
118.5619076155
 21
83.2550771828
 31
0.0
  0
LINE
  5
97
330
1F
100
AcDbEntity
  8
0
  6
Continuous
 62
     7
370
    25
100
AcDbLine
 10
118.5619076155
 20
131.2368274029
 30
0.0
 11
117.7051946893
 21
131.4663835164
 31
0.0
  0
LINE
  5
98
330
1F
100
AcDbEntity
  8
0
  6
Continuous
 62
     7
370
    25
100
AcDbLine
 10
106.4736863505
 20
130.9036821421
 30
0.0
 11
93.9051939082
 21
130.2739981856
 31
0.0
  0
LINE
  5
99
330
1F
100
AcDbEntity
  8
0
  6
Continuous
 62
     7
370
    25
100
AcDbLine
 10
117.7051946893
 20
131.4663835164
 30
0.0
 11
114.8881932628
 21
131.3252508934
 31
0.0
  0
LINE
  5
9A
330
1F
100
AcDbEntity
  8
0
  6
Continuous
 62
     7
370
    25
100
AcDbLine
 10
114.8882491421
 20
83.1666518296
 30
0.0
 11
117.7051946893
 21
83.0255210693
 31
0.0
  0
LINE
  5
9B
330
1F
100
AcDbEntity
  8
0
  6
Continuous
 62
     7
370
    25
100
AcDbLine
 10
97.9051945638
 20
84.0175062712
 30
0.0
 11
106.4740886819
 21
83.5882019545
 31
0.0
  0
LINE
  5
9C
330
1F
100
AcDbEntity
  8
0
  6
Continuous
 62
     7
370
    25
100
AcDbLine
 10
148.6551949661
 20
83.2459520842
 30
0.0
 11
178.9051948022
 21
83.2459520842
 31
0.0
  0
LINE
  5
9D
330
1F
100
AcDbEntity
  8
0
  6
Continuous
 62
     7
370
    25
100
AcDbLine
 10
178.9051948022
 20
131.2459525015
 30
0.0
 11
148.6551949661
 21
131.2459525015
 31
0.0
  0
ARC
  5
9E
330
1F
100
AcDbEntity
  8
0
  6
Continuous
 62
     7
370
    25
100
AcDbCircle
 10
178.9051947843
 20
84.0459522928
 30
0.0
 40
0.8000000000000114
100
AcDbArc
 50
270.0
 51
0.0
  0
ARC
  5
9F
330
1F
100
AcDbEntity
  8
0
  6
Continuous
 62
     7
370
    25
100
AcDbCircle
 10
178.9051947843
 20
130.4459522928
 30
0.0
 40
0.8000000000000114
100
AcDbArc
 50
360.0
 51
90.0
  0
ARC
  5
A0
330
1F
100
AcDbEntity
  8
0
  6
Continuous
 62
     7
370
    25
100
AcDbCircle
 10
118.7171989848
 20
82.6755214311
 30
0.0
 40
0.6000000000000085
100
AcDbArc
 50
90.0
 51
105.0
  0
ARC
  5
A1
330
1F
100
AcDbEntity
  8
0
  6
Continuous
 62
     7
370
    25
100
AcDbCircle
 10
118.7171989848
 20
131.8163831546
 30
0.0
 40
0.5999999999999934
100
AcDbArc
 50
255.0
 51
270.0
  0
LINE
  5
A2
330
1F
100
AcDbEntity
  8
0
  6
Continuous
 62
     7
370
    25
100
AcDbLine
 10
118.7171990192
 20
83.275521576
 30
0.0
 11
119.2051880085
 21
83.275521576
 31
0.0
  0
LINE
  5
A3
330
1F
100
AcDbEntity
  8
0
  6
Continuous
 62
     7
370
    25
100
AcDbLine
 10
119.2051880085
 20
131.2163830097
 30
0.0
 11
118.7171990192
 21
131.2163830097
 31
0.0
  0
LINE
  5
A4
330
1F
100
AcDbEntity
  8
0
  6
Continuous
 62
     7
370
    25
100
AcDbLine
 10
89.088531388
 20
86.3759521689
 30
0.0
 11
96.5051950794
 21
86.3759521689
 31
0.0
  0
ARC
  5
A5
330
1F
100
AcDbEntity
  8
0
  6
Continuous
 62
     7
370
    25
100
AcDbCircle
 10
180.1051947843
 20
95.9959522928
 30
0.0
 40
0.600000000000016
100
AcDbArc
 50
90.0
 51
131.8103148958
  0
ARC
  5
A6
330
1F
100
AcDbEntity
  8
0
  6
Continuous
 62
     7
370
    25
100
AcDbCircle
 10
180.1051947843
 20
118.4959522928
 30
0.0
 40
0.600000000000016
100
AcDbArc
 50
228.1896851042
 51
270.0
  0
LINE
  5
A7
330
1F
100
AcDbEntity
  8
0
  6
Continuous
 62
     7
370
    25
100
AcDbLine
 10
182.2051947843
 20
96.2459523525
 30
0.0
 11
197.9051923286
 21
96.2459523525
 31
0.0
  0
LINE
  5
A8
330
1F
100
AcDbEntity
  8
0
  6
Continuous
 62
     7
370
    25
100
AcDbLine
 10
197.9051923286
 20
118.2459522332
 30
0.0
 11
182.2051947843
 21
118.2459522332
 31
0.0
  0
ARC
  5
A9
330
1F
100
AcDbEntity
  8
0
  6
Continuous
 62
     7
370
    25
100
AcDbCircle
 10
197.9051947843
 20
97.0459522928
 30
0.0
 40
0.7999999999999972
100
AcDbArc
 50
270.0
 51
0.0
  0
ARC
  5
AA
330
1F
100
AcDbEntity
  8
0
  6
Continuous
 62
     7
370
    25
100
AcDbCircle
 10
197.9051947843
 20
117.4459522928
 30
0.0
 40
0.7999999999999972
100
AcDbArc
 50
0.0
 51
90.0
  0
LINE
  5
AB
330
1F
100
AcDbEntity
  8
0
  6
Continuous
 62
     7
370
    25
100
AcDbLine
 10
182.2051947843
 20
118.2459522332
 30
0.0
 11
180.9752752911
 21
117.916397221
 31
0.0
  0
LINE
  5
AC
330
1F
100
AcDbEntity
  8
0
  6
Continuous
 62
     7
370
    25
100
AcDbLine
 10
180.9752752911
 20
96.5755073647
 30
0.0
 11
182.2051947843
 21
96.2459523525
 31
0.0
  0
ARC
  5
AD
330
1F
100
AcDbEntity
  8
0
  6
Continuous
 62
     7
370
    25
100
AcDbCircle
 10
180.8199855031
 20
95.9959522928
 30
0.0
 40
0.6000000000000085
100
AcDbArc
 50
75.0
 51
90.0
  0
ARC
  5
AE
330
1F
100
AcDbEntity
  8
0
  6
Continuous
 62
     7
370
    25
100
AcDbCircle
 10
180.8199855031
 20
118.4959522928
 30
0.0
 40
0.6000000000000085
100
AcDbArc
 50
270.0
 51
285.0
  0
LINE
  5
AF
330
1F
100
AcDbEntity
  8
0
  6
Continuous
 62
     7
370
    25
100
AcDbLine
 10
180.105196489
 20
96.5959526892
 30
0.0
 11
180.8199865651
 21
96.5959526892
 31
0.0
  0
LINE
  5
B0
330
1F
100
AcDbEntity
  8
0
  6
Continuous
 62
     7
370
    25
100
AcDbLine
 10
180.8199865651
 20
117.8959518965
 30
0.0
 11
180.105196489
 21
117.8959518965
 31
0.0
  0
ARC
  5
B1
330
1F
100
AcDbEntity
  8
0
  6
Continuous
 62
     7
370
    25
100
AcDbCircle
 10
96.5051947843
 20
84.9759522928
 30
0.0
 40
1.399999999999998
100
AcDbArc
 50
42.2465410162
 51
90.0
  0
LINE
  5
B2
330
1F
100
AcDbEntity
  8
0
  6
Continuous
 62
     7
370
    25
100
AcDbLine
 10
87.8062268626
 20
87.5249192412
 30
0.0
 11
88.9463575464
 21
86.3847885575
 31
0.0
  0
LINE
  5
B3
330
1F
100
AcDbEntity
  8
0
  6
Continuous
 62
     7
370
    25
100
AcDbLine
 10
88.9463575464
 20
128.1071160282
 30
0.0
 11
87.8150967788
 21
126.975853398
 31
0.0
  0
ARC
  5
B4
330
1F
100
AcDbEntity
  8
0
  6
Continuous
 62
     7
370
    25
100
AcDbCircle
 10
92.5051947843
 20
129.5159522928
 30
0.0
 40
1.400000000000034
100
AcDbArc
 50
270.0
 51
301.7485287426
  0
LINE
  5
B5
330
1F
100
AcDbEntity
  8
0
  6
Continuous
 62
     7
370
    25
100
AcDbLine
 10
92.5051944237
 20
128.1159524168
 30
0.0
 11
89.0794603061
 21
128.1159524168
 31
0.0
  0
LINE
  5
B6
330
1F
100
AcDbEntity
  8
0
  6
Continuous
 62
     7
370
    25
100
AcDbLine
 10
185.3051951062
 20
85.2459524121
 30
0.0
 11
185.3051951062
 21
94.2459520246
 31
0.0
  0
LINE
  5
B7
330
1F
100
AcDbEntity
  8
0
  6
Continuous
 62
     7
370
    25
100
AcDbLine
 10
185.3051951062
 20
120.2459525611
 30
0.0
 11
185.3051951062
 21
129.2459521736
 31
0.0
  0
LINE
  5
B8
330
1F
100
AcDbEntity
  8
0
  6
Continuous
 62
     7
370
    25
100
AcDbLine
 10
203.7051936519
 20
115.2459526728
 30
0.0
 11
203.7051936519
 21
99.2459519129
 31
0.0
  0
LINE
  5
B9
330
1F
100
AcDbEntity
  8
0
  6
Continuous
 62
     7
370
    25
100
AcDbLine
 10
213.7051915657
 20
113.745952427
 30
0.0
 11
213.7051915657
 21
100.7459521587
 31
0.0
  0
LINE
  5
BA
330
1F
100
AcDbEntity
  8
0
  6
Continuous
 62
     7
370
    25
100
AcDbLine
 10
145.0551954936
 20
77.05903466
 30
0.0
 11
141.0971267056
 21
77.05903466
 31
0.0
  0
LINE
  5
BB
330
1F
100
AcDbEntity
  8
0
  6
Continuous
 62
     7
370
    25
100
AcDbLine
 10
141.0971267056
 20
77.05903466
 30
0.0
 11
141.0971267056
 21
127.0959530319
 31
0.0
  0
LINE
  5
BC
330
1F
100
AcDbEntity
  8
0
  6
Continuous
 62
     7
370
    25
100
AcDbLine
 10
141.0971267056
 20
127.0959530319
 30
0.0
 11
145.0551954936
 21
127.0959530319
 31
0.0
  0
LINE
  5
BD
330
1F
100
AcDbEntity
  8
0
  6
Continuous
 62
     7
370
    25
100
AcDbLine
 10
124.6551947575
 20
127.0959530319
 30
0.0
 11
134.3132622447
 21
127.0959530319
 31
0.0
  0
LINE
  5
BE
330
1F
100
AcDbEntity
  8
0
  6
Continuous
 62
     7
370
    25
100
AcDbLine
 10
134.3132622447
 20
77.05903466
 30
0.0
 11
134.3132622447
 21
127.0959530319
 31
0.0
  0
LINE
  5
BF
330
1F
100
AcDbEntity
  8
0
  6
Continuous
 62
     7
370
    25
100
AcDbLine
 10
134.3132622447
 20
77.05903466
 30
0.0
 11
132.6551951375
 21
77.05903466
 31
0.0
  0
SPLINE
  5
C0
330
1F
100
AcDbEntity
  8
0
  6
Continuous
 62
     7
370
    25
100
AcDbSpline
210
0.0
220
0.0
230
1.0
 70
     8
 71
     3
 72
    28
 73
    24
 74
     0
 42
0.000000001
 43
0.00000001
 40
0.0
 40
0.0
 40
0.0
 40
0.0
 40
0.1250000000000001
 40
0.1250000000000001
 40
0.1875000000000001
 40
0.1875000000000001
 40
0.2500000000000001
 40
0.2500000000000001
 40
0.3749999999999999
 40
0.3749999999999999
 40
0.4375
 40
0.4375
 40
0.4999999999999999
 40
0.4999999999999999
 40
0.6249999999999999
 40
0.6249999999999999
 40
0.7499999999999997
 40
0.7499999999999997
 40
0.8124999999999998
 40
0.8124999999999998
 40
0.8749999999999998
 40
0.8749999999999998
 40
1.0
 40
1.0
 40
1.0
 40
1.0
 10
132.6551947843402
 20
77.05903459660192
 30
0.0
 10
132.1234870268472
 20
77.05903459660193
 30
0.0
 10
131.6012484615369
 20
77.04324988265171
 30
0.0
 10
130.8313779752619
 20
76.9982544685755
 30
0.0
 10
130.5770184030706
 20
76.97969947349978
 30
0.0
 10
130.0728968223721
 20
76.93584675105326
 30
0.0
 10
129.8231740049441
 20
76.91050214410107
 30
0.0
 10
129.0975840534977
 20
76.82710006635097
 30
0.0
 10
128.6392237919162
 20
76.76123450719987
 30
0.0
 10
127.9887258485223
 20
76.6522641667081
 30
0.0
 10
127.7770437977298
 20
76.61402453094144
 30
0.0
 10
127.3729723085918
 20
76.53626579352208
 30
0.0
 10
127.180465794771
 20
76.49676483134674
 30
0.0
 10
126.6306308237497
 20
76.37785708898073
 30
0.0
 10
126.3007020454409
 20
76.29803940755613
 30
0.0
 10
125.7162307768722
 20
76.14469624576006
 30
0.0
 10
125.4699536388588
 20
76.0733624924908
 30
0.0
 10
125.1701108461607
 20
75.97941898541619
 30
0.0
 10
125.0816539890885
 20
75.95022519205625
 30
0.0
 10
124.9282926357834
 20
75.89675861779286
 30
0.0
 10
124.8632044215572
 20
75.87239928351767
 30
0.0
 10
124.7076104056164
 20
75.80880913807292
 30
0.0
 10
124.6551947843402
 20
75.77870620298367
 30
0.0
 10
124.6551947843402
 20
75.76182930998677
 30
0.0
  0
LINE
  5
C1
330
1F
100
AcDbEntity
  8
0
  6
Continuous
 62
     7
370
    25
100
AcDbLine
 10
124.6551947575
 20
75.7618289735
 30
0.0
 11
124.6551947575
 21
75.7459517862
 31
0.0
  0
SPLINE
  5
C2
330
1F
100
AcDbEntity
  8
0
  6
Continuous
 62
     7
370
    25
100
AcDbSpline
210
0.0
220
0.0
230
1.0
 70
     8
 71
     3
 72
    17
 73
    13
 74
     0
 42
0.000000001
 43
0.00000001
 40
0.0
 40
0.0
 40
0.0
 40
0.0
 40
0.1034797280380778
 40
0.2100239090909901
 40
0.3134862262879433
 40
0.4198361712144981
 40
0.5254127947779869
 40
0.6339610881168427
 40
0.7409508662120068
 40
0.8511696072047016
 40
0.9558996557845765
 40
1.0
 40
1.0
 40
1.0
 40
1.0
 10
132.6551951374977
 20
137.7131477292075
 30
0.0
 10
132.2199466457718
 20
137.7185957208452
 30
0.0
 10
131.3365601951948
 20
137.7296530411738
 30
0.0
 10
130.055732332972
 20
137.8160118015489
 30
0.0
 10
128.8383161375301
 20
137.9438829446819
 30
0.0
 10
127.7305095212043
 20
138.1028273520003
 30
0.0
 10
126.7422710418754
 20
138.2773219249849
 30
0.0
 10
125.9175479420596
 20
138.4464883581718
 30
0.0
 10
125.268594284561
 20
138.5943691666395
 30
0.0
 10
124.8515589810814
 20
138.6961599181621
 30
0.0
 10
124.6529622382034
 20
138.7465168177966
 30
0.0
 10
124.6762753551913
 20
138.7406072128211
 30
0.0
 10
124.6831833291917
 20
138.73885612147
 30
0.0
  0
LINE
  5
C3
330
1F
100
AcDbEntity
  8
0
  6
Continuous
 62
     7
370
    25
100
AcDbLine
 10
134.3132622447
 20
137.7131477292
 30
0.0
 11
132.6551951375
 21
137.7131477292
 31
0.0
  0
LINE
  5
C4
330
1F
100
AcDbEntity
  8
0
  6
Continuous
 62
     7
370
    25
100
AcDbLine
 10
134.3132622447
 20
131.704641908
 30
0.0
 11
134.3132622447
 21
137.7131477292
 31
0.0
  0
LINE
  5
C5
330
1F
100
AcDbEntity
  8
0
  6
Continuous
 62
     7
370
    25
100
AcDbLine
 10
131.9008154702
 20
131.704641908
 30
0.0
 11
134.3132622447
 21
131.704641908
 31
0.0
  0
SPLINE
  5
C6
330
1F
100
AcDbEntity
  8
0
  6
Continuous
 62
     7
370
    25
100
AcDbSpline
210
0.0
220
0.0
230
1.0
 70
     8
 71
     3
 72
    20
 73
    16
 74
     0
 42
0.000000001
 43
0.00000001
 40
0.0
 40
0.0
 40
0.0
 40
0.0
 40
0.2499999999999997
 40
0.2499999999999997
 40
0.3749999999999997
 40
0.3749999999999997
 40
0.4999999999999998
 40
0.4999999999999998
 40
0.6249999999999998
 40
0.6249999999999998
 40
0.7499999999999999
 40
0.7499999999999999
 40
0.8749999999999999
 40
0.8749999999999999
 40
1.0
 40
1.0
 40
1.0
 40
1.0
 10
124.6551947843402
 20
127.0959522928491
 30
0.0
 10
124.9035685186282
 20
127.7498147211465
 30
0.0
 10
125.2231386109735
 20
128.3536005031436
 30
0.0
 10
125.8454448441782
 20
129.1804392393122
 30
0.0
 10
126.0768691046089
 20
129.4428678772652
 30
0.0
 10
126.5980834442587
 20
129.9395305313701
 30
0.0
 10
126.8847039268937
 20
130.1701174103917
 30
0.0
 10
127.5041886682013
 20
130.5866716349743
 30
0.0
 10
127.8384890476883
 20
130.7741694369418
 30
0.0
 10
128.5637495203131
 20
131.1055664145782
 30
0.0
 10
128.9456645777036
 20
131.2450704020735
 30
0.0
 10
129.7404527538752
 20
131.4705239095445
 30
0.0
 10
130.1546109480816
 20
131.5571500210881
 30
0.0
 10
131.020157288663
 20
131.6751308099422
 30
0.0
 10
131.4580449036748
 20
131.7046419552165
 30
0.0
 10
131.9008151300294
 20
131.7046419552165
 30
0.0
  0
SPLINE
  5
C7
330
1F
100
AcDbEntity
  8
0
  6
Continuous
 62
     7
370
    25
100
AcDbSpline
210
0.0
220
0.0
230
1.0
 70
    11
 71
     3
 72
    70
 73
    66
 74
     0
 42
0.000000001
 43
0.00000001
 40
0.0
 40
0.0
 40
0.0
 40
0.0
 40
0.0312499999999999
 40
0.0312499999999999
 40
0.0624999999999998
 40
0.0624999999999998
 40
0.0937499999999997
 40
0.0937499999999997
 40
0.1249999999999996
 40
0.1249999999999996
 40
0.1562499999999994
 40
0.1562499999999994
 40
0.1874999999999993
 40
0.1874999999999993
 40
0.2187499999999992
 40
0.2187499999999992
 40
0.2499999999999991
 40
0.2499999999999991
 40
0.281249999999999
 40
0.281249999999999
 40
0.3124999999999989
 40
0.3124999999999989
 40
0.3437499999999988
 40
0.3437499999999988
 40
0.3749999999999987
 40
0.3749999999999987
 40
0.4062499999999986
 40
0.4062499999999986
 40
0.4374999999999984
 40
0.4374999999999984
 40
0.4687499999999983
 40
0.4687499999999983
 40
0.4999999999999982
 40
0.4999999999999982
 40
0.5312499999999983
 40
0.5312499999999983
 40
0.5624999999999984
 40
0.5624999999999984
 40
0.5937499999999986
 40
0.5937499999999986
 40
0.6249999999999987
 40
0.6249999999999987
 40
0.6562499999999988
 40
0.6562499999999988
 40
0.6874999999999989
 40
0.6874999999999989
 40
0.718749999999999
 40
0.718749999999999
 40
0.7499999999999991
 40
0.7499999999999991
 40
0.7812499999999992
 40
0.7812499999999992
 40
0.8124999999999993
 40
0.8124999999999993
 40
0.8437499999999994
 40
0.8437499999999994
 40
0.8749999999999996
 40
0.8749999999999996
 40
0.9062499999999997
 40
0.9062499999999997
 40
0.9374999999999998
 40
0.9374999999999998
 40
0.9687499999999999
 40
0.9687499999999999
 40
1.0
 40
1.0
 40
1.0
 40
1.0
 10
127.7051947843402
 20
117.8668591788324
 30
0.0
 10
127.44064944568
 20
117.8668591788324
 30
0.0
 10
127.1805787783029
 20
117.8915364736176
 30
0.0
 10
126.6690040984675
 20
117.9880081466595
 30
0.0
 10
126.4148288147273
 20
118.0609890626396
 30
0.0
 10
125.9305581846656
 20
118.2507296655782
 30
0.0
 10
125.7009170927844
 20
118.366590323972
 30
0.0
 10
125.266312744551
 20
118.6392081699296
 30
0.0
 10
125.0607469679043
 20
118.7972472519834
 30
0.0
 10
124.6921898273091
 20
119.1407901029541
 30
0.0
 10
124.5267088445736
 20
119.3275525470558
 30
0.0
 10
124.2342843351385
 20
119.7310957214526
 30
0.0
 10
124.110183358512
 20
119.9445927178817
 30
0.0
 10
123.9106041617623
 20
120.3839760318042
 30
0.0
 10
123.833670575904
 20
120.6131160189498
 30
0.0
 10
123.7308135173837
 20
121.0790901417099
 30
0.0
 10
123.7053406079245
 20
121.311972587386
 30
0.0
 10
123.7050501973568
 20
121.7773701224658
 30
0.0
 10
123.7310748311325
 20
122.0122458798602
 30
0.0
 10
123.8332231156245
 20
122.4637390271064
 30
0.0
 10
123.9087995632077
 20
122.6817855025178
 30
0.0
 10
124.1092970943526
 20
123.1028800275556
 30
0.0
 10
124.234425935861
 20
123.3048014120739
 30
0.0
 10
124.5237847368825
 20
123.6768308945928
 30
0.0
 10
124.689195723938
 20
123.8494591981732
 30
0.0
 10
125.0621862820858
 20
124.1667772027192
 30
0.0
 10
125.2639193151749
 20
124.3065641362208
 30
0.0
 10
125.6967785660028
 20
124.5507403897727
 30
0.0
 10
125.9306970988922
 20
124.6559699008141
 30
0.0
 10
126.4148808340348
 20
124.8241270471893
 30
0.0
 10
126.6641964599903
 20
124.8873779377831
 30
0.0
 10
127.1772289844181
 20
124.9729571468857
 30
0.0
 10
127.4425228073227
 20
124.9948293118081
 30
0.0
 10
127.9648574271924
 20
124.9949929614521
 30
0.0
 10
128.2246110896742
 20
124.9739912693561
 30
0.0
 10
128.7412229053194
 20
124.8885889142784
 30
0.0
 10
128.9935889458197
 20
124.8245827309915
 30
0.0
 10
129.4751140673525
 20
124.6577682109503
 30
0.0
 10
129.7079647994661
 20
124.5536350475512
 30
0.0
 10
130.1450546479049
 20
124.3076483950562
 30
0.0
 10
130.346375636562
 20
124.1678985641073
 30
0.0
 10
130.7154616618619
 20
123.8547604943827
 30
0.0
 10
130.8844464129136
 20
123.6793043351126
 30
0.0
 10
131.1749024695728
 20
123.3064640710124
 30
0.0
 10
131.297974280935
 20
123.1083422609015
 30
0.0
 10
131.499310522357
 20
122.6876309181678
 30
0.0
 10
131.5765230682992
 20
122.4656408975003
 30
0.0
 10
131.6787266111993
 20
122.0157759577919
 30
0.0
 10
131.7049549626516
 20
121.7855205446751
 30
0.0
 10
131.7054313619687
 20
121.3142046021261
 30
0.0
 10
131.6796889494707
 20
121.0809671864119
 30
0.0
 10
131.5783781731069
 20
120.6192906469139
 30
0.0
 10
131.5015455337159
 20
120.3883932598017
 30
0.0
 10
131.3011416945008
 20
119.9461172460101
 30
0.0
 10
131.1784701962087
 20
119.7350548147242
 30
0.0
 10
130.8885229070445
 20
119.3335563039915
 30
0.0
 10
130.7199519276792
 20
119.1426497819156
 30
0.0
 10
130.3516823335661
 20
118.7989244499185
 30
0.0
 10
130.1506204762958
 20
118.6437872637044
 30
0.0
 10
129.7135895577108
 20
118.3687099036247
 30
0.0
 10
129.4814413445812
 20
118.2515936742027
 30
0.0
 10
129.0004310630824
 20
118.0626671891381
 30
0.0
 10
128.7483309802519
 20
117.9895922187439
 30
0.0
 10
128.2312614939929
 20
117.8915401596093
 30
0.0
 10
127.9697401230003
 20
117.8668591788324
 30
0.0
 10
127.7051947843402
 20
117.8668591788324
 30
0.0
  0
SPLINE
  5
C8
330
1F
100
AcDbEntity
  8
0
  6
Continuous
 62
     7
370
    25
100
AcDbSpline
210
0.0
220
0.0
230
1.0
 70
    11
 71
     3
 72
    70
 73
    66
 74
     0
 42
0.000000001
 43
0.00000001
 40
0.0
 40
0.0
 40
0.0
 40
0.0
 40
0.0312500000000003
 40
0.0312500000000003
 40
0.0625000000000006
 40
0.0625000000000006
 40
0.0937500000000009
 40
0.0937500000000009
 40
0.1250000000000012
 40
0.1250000000000012
 40
0.1562500000000014
 40
0.1562500000000014
 40
0.1875000000000017
 40
0.1875000000000017
 40
0.2187500000000021
 40
0.2187500000000021
 40
0.2500000000000023
 40
0.2500000000000023
 40
0.2812500000000024
 40
0.2812500000000024
 40
0.3125000000000026
 40
0.3125000000000026
 40
0.3437500000000027
 40
0.3437500000000027
 40
0.3750000000000028
 40
0.3750000000000028
 40
0.4062500000000029
 40
0.4062500000000029
 40
0.4375000000000031
 40
0.4375000000000031
 40
0.4687500000000032
 40
0.4687500000000032
 40
0.5000000000000033
 40
0.5000000000000033
 40
0.5312500000000032
 40
0.5312500000000032
 40
0.562500000000003
 40
0.562500000000003
 40
0.5937500000000029
 40
0.5937500000000029
 40
0.6250000000000027
 40
0.6250000000000027
 40
0.6562500000000026
 40
0.6562500000000026
 40
0.6875000000000024
 40
0.6875000000000024
 40
0.7187500000000022
 40
0.7187500000000022
 40
0.7500000000000021
 40
0.7500000000000021
 40
0.7812500000000019
 40
0.7812500000000019
 40
0.8125000000000016
 40
0.8125000000000016
 40
0.8437500000000013
 40
0.8437500000000013
 40
0.875000000000001
 40
0.875000000000001
 40
0.9062500000000008
 40
0.9062500000000008
 40
0.9375000000000006
 40
0.9375000000000006
 40
0.9687500000000002
 40
0.9687500000000002
 40
1.0
 40
1.0
 40
1.0
 40
1.0
 10
127.7051947843402
 20
132.3049156876283
 30
0.0
 10
127.44064944568
 20
132.3049156876283
 30
0.0
 10
127.1805787783029
 20
132.320816128043
 30
0.0
 10
126.6690040984675
 20
132.3827604782173
 30
0.0
 10
126.4148288147273
 20
132.4295627123086
 30
0.0
 10
125.9305581846656
 20
132.5505396957637
 30
0.0
 10
125.7009170927844
 20
132.6241420235705
 30
0.0
 10
125.266312744551
 20
132.7959662945487
 30
0.0
 10
125.0607469679043
 20
132.894969717476
 30
0.0
 10
124.6921898273091
 20
133.1080661313889
 30
0.0
 10
124.5267088445736
 20
133.2229658475186
 30
0.0
 10
124.2342843351385
 20
133.4683327462089
 30
0.0
 10
124.110183358512
 20
133.5967726466791
 30
0.0
 10
123.9106041617623
 20
133.8576647947651
 30
0.0
 10
123.833670575904
 20
133.9920459661045
 30
0.0
 10
123.7308135173837
 20
134.2613659172109
 30
0.0
 10
123.7053406079245
 20
134.394047181429
 30
0.0
 10
123.7050501973568
 20
134.65523365556
 30
0.0
 10
123.7310748311325
 20
134.7849986937247
 30
0.0
 10
123.8332231156245
 20
135.0305813279974
 30
0.0
 10
123.9087995632077
 20
135.1472428653063
 30
0.0
 10
124.1092970943526
 20
135.3691480554608
 30
0.0
 10
124.234425935861
 20
135.4737593093838
 30
0.0
 10
124.5237847368825
 20
135.6638057209919
 30
0.0
 10
124.689195723938
 20
135.7505653924416
 30
0.0
 10
125.0621862820858
 20
135.9080697681931
 30
0.0
 10
125.2639193151749
 20
135.9763950329804
 30
0.0
 10
125.6967785660028
 20
136.0946247565995
 30
0.0
 10
125.9306970988922
 20
136.1449196727034
 30
0.0
 10
126.4148808340348
 20
136.224785209593
 30
0.0
 10
126.6641964599903
 20
136.2545263373926
 30
0.0
 10
127.1772289844181
 20
136.2946790789008
 30
0.0
 10
127.4425228073227
 20
136.3048773483107
 30
0.0
 10
127.9648574271924
 20
136.3049538066954
 30
0.0
 10
128.2246110896742
 20
136.2951627950864
 30
0.0
 10
128.7412229053194
 20
136.2550959563476
 30
0.0
 10
128.9935889458197
 20
136.2249987894908
 30
0.0
 10
129.4751140673525
 20
136.1457765796606
 30
0.0
 10
129.7079647994661
 20
136.0960191001973
 30
0.0
 10
130.1450546479048
 20
135.9769271577468
 30
0.0
 10
130.346375636562
 20
135.9086118961995
 30
0.0
 10
130.7154616618619
 20
135.753210929266
 30
0.0
 10
130.8844464129136
 20
135.6650585871991
 30
0.0
 10
131.1749024695728
 20
135.4746191980828
 30
0.0
 10
131.297974280935
 20
135.3719946203837
 30
0.0
 10
131.499310522357
 20
135.1503542737756
 30
0.0
 10
131.5765230682992
 20
135.0316001982281
 30
0.0
 10
131.6787266111993
 20
134.7869342593104
 30
0.0
 10
131.7049549626516
 20
134.6597775338619
 30
0.0
 10
131.7054313619687
 20
134.3953293880063
 30
0.0
 10
131.6796889494707
 20
134.2624287077492
 30
0.0
 10
131.5783781731069
 20
133.9956364342671
 30
0.0
 10
131.5015455337159
 20
133.8602725327985
 30
0.0
 10
131.3011416945008
 20
133.597692737496
 30
0.0
 10
131.1784701962087
 20
133.4707175777422
 30
0.0
 10
130.8885229070445
 20
133.2266381916598
 30
0.0
 10
130.7199519276792
 20
133.1092130669059
 30
0.0
 10
130.3516823335661
 20
132.8960166059575
 30
0.0
 10
130.1506204762958
 20
132.7988424875326
 30
0.0
 10
129.7135895577108
 20
132.6254876003185
 30
0.0
 10
129.4814413445812
 20
132.5510880486617
 30
0.0
 10
129.0004310630824
 20
132.4306351691571
 30
0.0
 10
128.7483309802519
 20
132.3837767938911
 30
0.0
 10
128.2312614939929
 20
132.3208192969074
 30
0.0
 10
127.9697401230003
 20
132.3049156876283
 30
0.0
 10
127.7051947843402
 20
132.3049156876283
 30
0.0
  0
LINE
  5
C9
330
1F
100
AcDbEntity
  8
0
  6
Continuous
 62
     7
370
    25
100
AcDbLine
 10
135.7951948326
 20
79.7481149729
 30
0.0
 11
135.7951948326
 21
127.0959530319
 31
0.0
  0
SPLINE
  5
CA
330
1F
100
AcDbEntity
  8
0
  6
Continuous
 62
     7
370
    25
100
AcDbSpline
210
0.0
220
0.0
230
1.0
 70
     8
 71
     3
 72
     8
 73
     4
 74
     0
 42
0.000000001
 43
0.00000001
 40
0.0
 40
0.0
 40
0.0
 40
0.0
 40
1.0
 40
1.0
 40
1.0
 40
1.0
 10
135.7951947843402
 20
79.74811513379422
 30
0.0
 10
135.302855661559
 20
78.85084509958752
 30
0.0
 10
134.8087416135169
 20
77.95456068453527
 30
0.0
 10
134.3132619528511
 20
77.05903459660192
 30
0.0
  0
SPLINE
  5
CB
330
1F
100
AcDbEntity
  8
0
  6
Continuous
 62
     7
370
    25
100
AcDbSpline
210
0.0
220
0.0
230
1.0
 70
    24
 71
     3
 72
     8
 73
     4
 74
     0
 42
0.000000001
 43
0.00000001
 40
0.0
 40
0.0
 40
0.0
 40
0.0
 40
1.0
 40
1.0
 40
1.0
 40
1.0
 10
134.3132619528511
 20
127.0959522928491
 30
0.0
 10
134.8199420610017
 20
127.0959522928491
 30
0.0
 10
135.3152427899753
 20
127.0959522928491
 30
0.0
 10
135.7951947843402
 20
127.0959522928491
 30
0.0
  0
LINE
  5
CC
330
1F
100
AcDbEntity
  8
0
  6
Continuous
 62
     7
370
    25
100
AcDbLine
 10
145.6551944744
 20
77.6856750544
 30
0.0
 11
145.6551944744
 21
127.0959530319
 31
0.0
  0
SPLINE
  5
CD
330
1F
100
AcDbEntity
  8
0
  6
Continuous
 62
     7
370
    25
100
AcDbSpline
210
0.0
220
0.0
230
1.0
 70
     8
 71
     3
 72
    10
 73
     6
 74
     0
 42
0.000000001
 43
0.00000001
 40
0.0
 40
0.0
 40
0.0
 40
0.0
 40
0.5
 40
0.5
 40
1.0
 40
1.0
 40
1.0
 40
1.0
 10
145.6551947843402
 20
77.68567489225623
 30
0.0
 10
145.6551947843402
 20
77.52578762406257
 30
0.0
 10
145.5938851331044
 20
77.36466036854797
 30
0.0
 10
145.3747854955692
 20
77.13056137019313
 30
0.0
 10
145.2167372892558
 20
77.05903459660192
 30
0.0
 10
145.0551947843402
 20
77.05903459660192
 30
0.0
  0
SPLINE
  5
CE
330
1F
100
AcDbEntity
  8
0
  6
Continuous
 62
     7
370
    25
100
AcDbSpline
210
0.0
220
0.0
230
1.0
 70
    24
 71
     3
 72
    12
 73
     8
 74
     0
 42
0.000000001
 43
0.00000001
 40
0.0
 40
0.0
 40
0.0
 40
0.0
 40
0.2500000000000033
 40
0.2500000000000033
 40
0.5000000000000067
 40
0.5000000000000067
 40
1.0
 40
1.0
 40
1.0
 40
1.0
 10
145.0551947843402
 20
127.0959522928491
 30
0.0
 10
145.1454338520272
 20
127.0959522928491
 30
0.0
 10
145.2363319661337
 20
127.0959522928491
 30
0.0
 10
145.3909290026222
 20
127.0959522928491
 30
0.0
 10
145.4559074187303
 20
127.0959522928491
 30
0.0
 10
145.6077424466666
 20
127.0959522928491
 30
0.0
 10
145.6551947843402
 20
127.0959522928491
 30
0.0
 10
145.6551947843402
 20
127.0959522928491
 30
0.0
  0
SPLINE
  5
CF
330
1F
100
AcDbEntity
  8
0
  6
Continuous
 62
     7
370
    25
100
AcDbSpline
210
0.0
220
0.0
230
1.0
 70
     8
 71
     3
 72
     8
 73
     4
 74
     0
 42
0.000000001
 43
0.00000001
 40
0.0
 40
0.0
 40
0.0
 40
0.0
 40
1.0
 40
1.0
 40
1.0
 40
1.0
 10
141.0971276158292
 20
77.05903459660192
 30
0.0
 10
140.6016479551635
 20
77.95456068453528
 30
0.0
 10
140.1075339071214
 20
78.85084509958753
 30
0.0
 10
139.6151947843402
 20
79.74811513379423
 30
0.0
  0
LINE
  5
D0
330
1F
100
AcDbEntity
  8
0
  6
Continuous
 62
     7
370
    25
100
AcDbLine
 10
139.615195049
 20
79.7481149729
 30
0.0
 11
139.615195049
 21
127.0959530319
 31
0.0
  0
SPLINE
  5
D1
330
1F
100
AcDbEntity
  8
0
  6
Continuous
 62
     7
370
    25
100
AcDbSpline
210
0.0
220
0.0
230
1.0
 70
    24
 71
     3
 72
     8
 73
     4
 74
     0
 42
0.000000001
 43
0.00000001
 40
0.0
 40
0.0
 40
0.0
 40
0.0
 40
1.0
 40
1.0
 40
1.0
 40
1.0
 10
139.6151947843401
 20
127.0959522928491
 30
0.0
 10
140.0951467787051
 20
127.0959522928491
 30
0.0
 10
140.5904475076787
 20
127.0959522928491
 30
0.0
 10
141.0971276158293
 20
127.0959522928491
 30
0.0
  0
LINE
  5
D2
330
1F
100
AcDbEntity
  8
0
  6
Continuous
 62
     7
370
    25
100
AcDbLine
 10
119.7051947843
 20
76.0459531392
 30
0.0
 11
119.7051947843
 21
138.4459514465
 31
0.0
  0
ARC
  5
D3
330
1F
100
AcDbEntity
  8
0
  6
Continuous
 62
     7
370
    25
100
AcDbCircle
 10
127.704338595
 20
119.1592311251
 30
0.0
 40
4.108853357196259
100
AcDbArc
 50
19.3411491829
 51
160.2641681717
  0
SPLINE
  5
D4
330
1F
100
AcDbEntity
  8
0
  6
Continuous
 62
     7
370
    25
100
AcDbSpline
210
0.0
220
0.0
230
1.0
 70
    24
 71
     3
 72
    14
 73
    10
 74
     0
 42
0.000000001
 43
0.00000001
 40
0.0
 40
0.0
 40
0.0
 40
0.0
 40
0.5000000000000013
 40
0.5000000000000013
 40
0.750000000000002
 40
0.750000000000002
 40
0.875000000000001
 40
0.875000000000001
 40
1.0
 40
1.0
 40
1.0
 40
1.0
 10
139.5175199820079
 20
80.84595229284908
 30
0.0
 10
139.4707352769597
 20
80.84595229284908
 30
0.0
 10
139.40868408018
 20
80.84595229284909
 30
0.0
 10
139.2652924416294
 20
80.84595229284908
 30
0.0
 10
139.2091487880783
 20
80.84595229284908
 30
0.0
 10
139.0961977659421
 20
80.84595229284908
 30
0.0
 10
139.053197003904
 20
80.84595229284908
 30
0.0
 10
138.9491342935975
 20
80.84595229284908
 30
0.0
 10
138.8838020552406
 20
80.84595229284909
 30
0.0
 10
138.8151947843402
 20
80.84595229284908
 30
0.0
  0
SPLINE
  5
D5
330
1F
100
AcDbEntity
  8
0
  6
Continuous
 62
     7
370
    25
100
AcDbSpline
210
0.0
220
0.0
230
1.0
 70
    24
 71
     3
 72
    12
 73
     8
 74
     0
 42
0.000000001
 43
0.00000001
 40
0.0
 40
0.0
 40
0.0
 40
0.0
 40
0.5000000000000017
 40
0.5000000000000017
 40
0.7500000000000008
 40
0.7500000000000008
 40
1.0
 40
1.0
 40
1.0
 40
1.0
 10
139.2208972526492
 20
133.6459522928491
 30
0.0
 10
139.1778117030383
 20
133.6459522928491
 30
0.0
 10
139.1286595012889
 20
133.6459522928491
 30
0.0
 10
139.032186907001
 20
133.6459522928491
 30
0.0
 10
138.9960853218664
 20
133.6459522928491
 30
0.0
 10
138.9129795640052
 20
133.6459522928491
 30
0.0
 10
138.8649829670389
 20
133.6459522928491
 30
0.0
 10
138.8151947843402
 20
133.6459522928491
 30
0.0
  0
SPLINE
  5
D6
330
1F
100
AcDbEntity
  8
0
  6
Continuous
 62
     7
370
    25
100
AcDbSpline
210
0.0
220
0.0
230
1.0
 70
     8
 71
     3
 72
    10
 73
     6
 74
     0
 42
0.000000001
 43
0.00000001
 40
0.0
 40
0.0
 40
0.0
 40
0.0
 40
0.5
 40
0.5
 40
1.0
 40
1.0
 40
1.0
 40
1.0
 10
139.6151947843401
 20
134.3656061438849
 30
0.0
 10
139.6151947843402
 20
134.2218360860669
 30
0.0
 10
139.5791457256213
 20
134.0794167235717
 30
0.0
 10
139.4436368648473
 20
133.8295224302145
 30
0.0
 10
139.3437608717511
 20
133.7214920939663
 30
0.0
 10
139.2208972526492
 20
133.6459522928491
 30
0.0
  0
SPLINE
  5
D7
330
1F
100
AcDbEntity
  8
0
  6
Continuous
 62
     7
370
    25
100
AcDbSpline
210
0.0
220
0.0
230
1.0
 70
     8
 71
     3
 72
    10
 73
     6
 74
     0
 42
0.000000001
 43
0.00000001
 40
0.0
 40
0.0
 40
0.0
 40
0.0
 40
0.5
 40
0.5
 40
1.0
 40
1.0
 40
1.0
 40
1.0
 10
139.58904716118
 20
127.0959522928491
 30
0.0
 10
139.5977368040917
 20
127.1428311421672
 30
0.0
 10
139.6042758688422
 20
127.1902536075685
 30
0.0
 10
139.6130345032352
 20
127.2861904061552
 30
0.0
 10
139.6151947843402
 20
127.3341056941657
 30
0.0
 10
139.6151947843402
 20
127.3818189243103
 30
0.0
  0
SPLINE
  5
D8
330
1F
100
AcDbEntity
  8
0
  6
Continuous
 62
     7
370
    25
100
AcDbSpline
210
0.0
220
0.0
230
1.0
 70
     8
 71
     3
 72
    10
 73
     6
 74
     0
 42
0.000000001
 43
0.00000001
 40
0.0
 40
0.0
 40
0.0
 40
0.0
 40
0.5
 40
0.5
 40
1.0
 40
1.0
 40
1.0
 40
1.0
 10
136.1894923160311
 20
133.6459522928491
 30
0.0
 10
136.0679520523626
 20
133.7206784600609
 30
0.0
 10
135.9666176920137
 20
133.8296234759776
 30
0.0
 10
135.8309787491253
 20
134.0800539567392
 30
0.0
 10
135.7951947843402
 20
134.2224733188382
 30
0.0
 10
135.7951947843402
 20
134.3656061438849
 30
0.0
  0
SPLINE
  5
D9
330
1F
100
AcDbEntity
  8
0
  6
Continuous
 62
     7
370
    25
100
AcDbSpline
210
0.0
220
0.0
230
1.0
 70
    24
 71
     3
 72
    12
 73
     8
 74
     0
 42
0.000000001
 43
0.00000001
 40
0.0
 40
0.0
 40
0.0
 40
0.0
 40
0.2500000000000037
 40
0.2500000000000037
 40
0.5000000000000074
 40
0.5000000000000074
 40
1.0
 40
1.0
 40
1.0
 40
1.0
 10
136.5951947843402
 20
133.6459522928491
 30
0.0
 10
136.5453181020227
 20
133.6459522928491
 30
0.0
 10
136.4973149086191
 20
133.6459522928491
 30
0.0
 10
136.4142668059071
 20
133.6459522928491
 30
0.0
 10
136.3781372264393
 20
133.6459522928491
 30
0.0
 10
136.2822251954951
 20
133.6459522928491
 30
0.0
 10
136.2324665275263
 20
133.6459522928491
 30
0.0
 10
136.1894923160311
 20
133.6459522928491
 30
0.0
  0
SPLINE
  5
DA
330
1F
100
AcDbEntity
  8
0
  6
Continuous
 62
     7
370
    25
100
AcDbSpline
210
0.0
220
0.0
230
1.0
 70
    24
 71
     3
 72
    14
 73
    10
 74
     0
 42
0.000000001
 43
0.00000001
 40
0.0
 40
0.0
 40
0.0
 40
0.0
 40
0.1249999999999991
 40
0.1249999999999991
 40
0.2499999999999982
 40
0.2499999999999982
 40
0.4999999999999998
 40
0.4999999999999998
 40
1.0
 40
1.0
 40
1.0
 40
1.0
 10
136.5951947843402
 20
80.84595229284908
 30
0.0
 10
136.5267569364537
 20
80.84595229284908
 30
0.0
 10
136.4612068976886
 20
80.84595229284909
 30
0.0
 10
136.3567802582807
 20
80.84595229284909
 30
0.0
 10
136.3142356485193
 20
80.84595229284909
 30
0.0
 10
136.201626187979
 20
80.84595229284908
 30
0.0
 10
136.1460871409595
 20
80.84595229284908
 30
0.0
 10
136.0034754454957
 20
80.84595229284908
 30
0.0
 10
135.9400700905
 20
80.84595229284908
 30
0.0
 10
135.8928695866724
 20
80.84595229284908
 30
0.0
  0
SPLINE
  5
DB
330
1F
100
AcDbEntity
  8
0
  6
Continuous
 62
     7
370
    25
100
AcDbSpline
210
0.0
220
0.0
230
1.0
 70
     8
 71
     3
 72
    10
 73
     6
 74
     0
 42
0.000000001
 43
0.00000001
 40
0.0
 40
0.0
 40
0.0
 40
0.0
 40
0.5
 40
0.5
 40
1.0
 40
1.0
 40
1.0
 40
1.0
 10
135.7951947843402
 20
127.3818189243105
 30
0.0
 10
135.7951947843402
 20
127.3340474163171
 30
0.0
 10
135.7973560279373
 20
127.2863376942555
 30
0.0
 10
135.8060274017975
 20
127.1910425767072
 30
0.0
 10
135.8125565847535
 20
127.1433500127406
 30
0.0
 10
135.8213424075003
 20
127.0959522928491
 30
0.0
  0
LINE
  5
DC
330
1F
100
AcDbEntity
  8
0
  6
Continuous
 62
     7
370
    25
100
AcDbLine
 10
138.8151945453
 20
133.6459521498
 30
0.0
 11
136.5951953363
 21
133.6459521498
 31
0.0
  0
LINE
  5
DD
330
1F
100
AcDbEntity
  8
0
  6
Continuous
 62
     7
370
    25
100
AcDbLine
 10
138.8151945453
 20
80.8459524359
 30
0.0
 11
136.5951953363
 21
80.8459524359
 31
0.0
  0
LINE
  5
DE
330
1F
100
AcDbEntity
  8
0
  6
Continuous
 62
     7
370
    25
100
AcDbLine
 10
117.7051946893
 20
83.0255210693
 30
0.0
 11
117.7051946893
 21
131.4663835164
 31
0.0
  0
LINE
  5
DF
330
1F
100
AcDbEntity
  8
0
  6
Continuous
 62
     7
370
    25
100
AcDbLine
 10
97.9051945638
 20
84.0175062712
 30
0.0
 11
97.9051945638
 21
85.2822143878
 31
0.0
  0
SPLINE
  5
E0
330
1F
100
AcDbEntity
  8
0
  6
Continuous
 62
     7
370
    25
100
AcDbSpline
210
0.0
220
0.0
230
1.0
 70
     8
 71
     3
 72
    14
 73
    10
 74
     0
 42
0.000000001
 43
0.00000001
 40
0.0
 40
0.0
 40
0.0
 40
0.0
 40
0.25
 40
0.25
 40
0.5
 40
0.5
 40
0.75
 40
0.75
 40
1.0
 40
1.0
 40
1.0
 40
1.0
 10
97.12690766642446
 20
86.41280096928914
 30
0.0
 10
97.18353434162654
 20
86.30510351545227
 30
0.0
 10
97.27805700191625
 20
86.20231393373295
 30
0.0
 10
97.46110197747849
 20
86.0039566215128
 30
0.0
 10
97.55272855443322
 20
85.90789711283456
 30
0.0
 10
97.7115818721264
 20
85.72036807012532
 30
0.0
 10
97.77947247974811
 20
85.62895909734175
 30
0.0
 10
97.87638950545569
 20
85.45058287643161
 30
0.0
 10
97.90519478434075
 20
85.36336097018543
 30
0.0
 10
97.90519478434075
 20
85.28221476165118
 30
0.0
  0
SPLINE
  5
E1
330
1F
100
AcDbEntity
  8
0
  6
Continuous
 62
     7
370
    25
100
AcDbSpline
210
0.0
220
0.0
230
1.0
 70
     8
 71
     3
 72
    14
 73
    10
 74
     0
 42
0.000000001
 43
0.00000001
 40
0.0
 40
0.0
 40
0.0
 40
0.0
 40
0.1249999999999975
 40
0.1249999999999975
 40
0.249999999999995
 40
0.249999999999995
 40
0.4999999999999953
 40
0.4999999999999953
 40
1.0
 40
1.0
 40
1.0
 40
1.0
 10
96.50519478434016
 20
86.85948283156846
 30
0.0
 10
96.55373919299734
 20
86.86523114484875
 30
0.0
 10
96.60665454778226
 20
86.8621302561925
 30
0.0
 10
96.70194989276528
 20
86.83993541203019
 30
0.0
 10
96.74220089005024
 20
86.82270318493431
 30
0.0
 10
96.84647090356322
 20
86.76637526848226
 30
0.0
 10
96.89679287871652
 20
86.72218892253646
 30
0.0
 10
97.02447582624191
 20
86.59118102368583
 30
0.0
 10
97.08056127330418
 20
86.50094650345554
 30
0.0
 10
97.12690766642591
 20
86.41280096928966
 30
0.0
  0
SPLINE
  5
E2
330
1F
100
AcDbEntity
  8
0
  6
Continuous
 62
     7
370
    25
100
AcDbSpline
210
0.0
220
0.0
230
1.0
 70
     8
 71
     3
 72
     8
 73
     4
 74
     0
 42
0.000000001
 43
0.00000001
 40
0.0
 40
0.0
 40
0.0
 40
0.0
 40
1.0
 40
1.0
 40
1.0
 40
1.0
 10
94.23666969139394
 20
86.54963754498567
 30
0.0
 10
94.97124671787691
 20
86.66826255605461
 30
0.0
 10
95.73472178727256
 20
86.76824842819089
 30
0.0
 10
96.50519478434018
 20
86.85948283156844
 30
0.0
  0
SPLINE
  5
E3
330
1F
100
AcDbEntity
  8
0
  6
Continuous
 62
     7
370
    25
100
AcDbSpline
210
0.0
220
0.0
230
1.0
 70
     8
 71
     3
 72
    14
 73
    10
 74
     0
 42
0.000000001
 43
0.00000001
 40
0.0
 40
0.0
 40
0.0
 40
0.0
 40
0.500000000000001
 40
0.500000000000001
 40
0.7500000000000004
 40
0.7500000000000004
 40
0.8750000000000003
 40
0.8750000000000003
 40
1.0
 40
1.0
 40
1.0
 40
1.0
 10
88.95519478434016
 20
86.37601452745402
 30
0.0
 10
89.84734091489373
 20
86.37529230125337
 30
0.0
 10
90.73731735068735
 20
86.37987850771083
 30
0.0
 10
92.06391251776296
 20
86.40760351210236
 30
0.0
 10
92.50475944626169
 20
86.42021004972652
 30
0.0
 10
93.1611996836841
 20
86.45122619773399
 30
0.0
 10
93.379213340276
 20
86.46356937036076
 30
0.0
 10
93.81192219395876
 20
86.49659342552404
 30
0.0
 10
94.02719865912356
 20
86.51581059066248
 30
0.0
 10
94.23666969139396
 20
86.54963754498567
 30
0.0
  0
SPLINE
  5
E4
330
1F
100
AcDbEntity
  8
0
  6
Continuous
 62
     7
370
    25
100
AcDbSpline
210
0.0
220
0.0
230
1.0
 70
     8
 71
     3
 72
     8
 73
     4
 74
     0
 42
0.000000001
 43
0.00000001
 40
0.0000005163856998
 40
0.0000005163856998
 40
0.0000005163856998
 40
0.0000005163856998
 40
0.000026289209185
 40
0.000026289209185
 40
0.000026289209185
 40
0.000026289209185
 10
88.94514985393256
 20
86.38599840055079
 30
0.0
 10
88.94847759214039
 20
86.38266415368167
 30
0.0
 10
88.951826045116
 20
86.37933619640637
 30
0.0
 10
88.95519478434015
 20
86.376014527454
 30
0.0
  0
SPLINE
  5
E5
330
1F
100
AcDbEntity
  8
0
  6
Continuous
 62
     7
370
    25
100
AcDbSpline
210
0.0
220
0.0
230
1.0
 70
     8
 71
     3
 72
     8
 73
     4
 74
     0
 42
0.000000001
 43
0.00000001
 40
0.0000005099763573
 40
0.0000005099763573
 40
0.0000005099763573
 40
0.0000005099763573
 40
0.0000262827998699
 40
0.0000262827998699
 40
0.0000262827998699
 40
0.0000262827998699
 10
88.95519478434015
 20
128.1158900582442
 30
0.0
 10
88.95182604511241
 20
128.1125683892883
 30
0.0
 10
88.94847759213326
 20
128.1092404320094
 30
0.0
 10
88.94514985392193
 20
128.1059061851367
 30
0.0
  0
SPLINE
  5
E6
330
1F
100
AcDbEntity
  8
0
  6
Continuous
 62
     7
370
    25
100
AcDbSpline
210
0.0
220
0.0
230
1.0
 70
     8
 71
     3
 72
    10
 73
     6
 74
     0
 42
0.000000001
 43
0.00000001
 40
0.0
 40
0.0
 40
0.0
 40
0.0
 40
0.5
 40
0.5
 40
1.0
 40
1.0
 40
1.0
 40
1.0
 10
92.50519478434018
 20
128.0690396846768
 30
0.0
 10
91.91760923724958
 20
128.0901052049132
 30
0.0
 10
91.3268628437892
 20
128.1008636907855
 30
0.0
 10
90.14284367849034
 20
128.1142284713211
 30
0.0
 10
89.54942969028487
 20
128.1163711139857
 30
0.0
 10
88.95519478434018
 20
128.1158900582441
 30
0.0
  0
SPLINE
  5
E7
330
1F
100
AcDbEntity
  8
0
  6
Continuous
 62
     7
370
    25
100
AcDbSpline
210
0.0
220
0.0
230
1.0
 70
     8
 71
     3
 72
    18
 73
    14
 74
     0
 42
0.000000001
 43
0.00000001
 40
0.0
 40
0.0
 40
0.0
 40
0.0
 40
0.2500000000000009
 40
0.2500000000000009
 40
0.500000000000001
 40
0.500000000000001
 40
0.7500000000000011
 40
0.7500000000000011
 40
0.875000000000001
 40
0.875000000000001
 40
0.9375000000000006
 40
0.9375000000000006
 40
1.0
 40
1.0
 40
1.0
 40
1.0
 10
93.90519478434018
 20
129.0900599652121
 30
0.0
 10
93.90519478434018
 20
129.0068530563549
 30
0.0
 10
93.86934568440192
 20
128.9181164010413
 30
0.0
 10
93.744473948368
 20
128.7359912104811
 30
0.0
 10
93.65407353072013
 20
128.6408611618545
 30
0.0
 10
93.43183087597795
 20
128.4516796527301
 30
0.0
 10
93.30206608953218
 20
128.3567344846354
 30
0.0
 10
93.06142863222065
 20
128.2184557770555
 30
0.0
 10
92.97366133408322
 20
128.1727453437531
 30
0.0
 10
92.81913724687641
 20
128.1149220385316
 30
0.0
 10
92.76252636082167
 20
128.0972072744938
 30
0.0
 10
92.63848232991506
 20
128.0726679712608
 30
0.0
 10
92.57076765489676
 20
128.0666888327226
 30
0.0
 10
92.50519478434018
 20
128.0690396846768
 30
0.0
  0
LINE
  5
E8
330
1F
100
AcDbEntity
  8
0
  6
Continuous
 62
     7
370
    25
100
AcDbLine
 10
93.9051939082
 20
129.0900599505
 30
0.0
 11
93.9051939082
 21
130.2739981856
 31
0.0
  0
SPLINE
  5
E9
330
1F
100
AcDbEntity
  8
0
  6
Continuous
 62
     7
370
    25
100
AcDbSpline
210
0.0
220
0.0
230
1.0
 70
     8
 71
     3
 72
    24
 73
    20
 74
     0
 42
0.000000001
 43
0.00000001
 40
0.0
 40
0.0
 40
0.0
 40
0.0
 40
0.0010489815523775
 40
0.0637843212772741
 40
0.1272220630088516
 40
0.1903789073370505
 40
0.2526748662763491
 40
0.3146354150030102
 40
0.3770891884518245
 40
0.4393540587943444
 40
0.5008133488401828
 40
0.5621845177353679
 40
0.6248438462901906
 40
0.6874304788646655
 40
0.7496743245911356
 40
0.811984857412469
 40
0.8750960476811308
 40
0.9384412548145236
 40
1.0
 40
1.0
 40
1.0
 40
1.0
 10
106.4741007890671
 20
83.58844409840252
 30
0.0
 10
106.4736541233163
 20
83.58838545343605
 30
0.0
 10
106.4464941873927
 20
83.58481949045535
 30
0.0
 10
106.5421241105246
 20
83.59768409993056
 30
0.0
 10
106.775677286545
 20
83.62691858227062
 30
0.0
 10
107.1712332387795
 20
83.67353779301203
 30
0.0
 10
107.6982732391495
 20
83.7237185924372
 30
0.0
 10
108.3418036809857
 20
83.76809726588024
 30
0.0
 10
109.0804775152555
 20
83.79504046239104
 30
0.0
 10
109.8779921853743
 20
83.79851221069318
 30
0.0
 10
110.7045712351389
 20
83.77088676439975
 30
0.0
 10
111.5300940565576
 20
83.71240562142111
 30
0.0
 10
112.3222205274732
 20
83.62696255802253
 30
0.0
 10
113.0547929063105
 20
83.52522738953002
 30
0.0
 10
113.6904330881313
 20
83.41738373848209
 30
0.0
 10
114.2123440186775
 20
83.31575234320727
 30
0.0
 10
114.5939728563164
 20
83.23327037891475
 30
0.0
 10
114.8447875322498
 20
83.17711827140785
 30
0.0
 10
114.8739088479571
 20
83.17026942049498
 30
0.0
 10
114.8882612493007
 20
83.16689397351887
 30
0.0
  0
SPLINE
  5
EA
330
1F
100
AcDbEntity
  8
0
  6
Continuous
 62
     7
370
    25
100
AcDbSpline
210
0.0
220
0.0
230
1.0
 70
     8
 71
     3
 72
    24
 73
    20
 74
     0
 42
0.000000001
 43
0.00000001
 40
0.0
 40
0.0
 40
0.0
 40
0.0
 40
0.061438429114026
 40
0.1250736777967296
 40
0.1884253375120635
 40
0.2508623992448768
 40
0.3129665476325514
 40
0.3753451442328022
 40
0.4377328732174486
 40
0.499092717251918
 40
0.560580729454827
 40
0.622946985474185
 40
0.6854686070210457
 40
0.7475477863222202
 40
0.8098225081553685
 40
0.873068419947611
 40
0.936404185690527
 40
0.9991757203144552
 40
1.0
 40
1.0
 40
1.0
 40
1.0
 10
114.8882067669301
 20
131.3249808098569
 30
0.0
 10
114.873605958478
 20
131.3216126519839
 30
0.0
 10
114.8438822686269
 20
131.3147559028996
 30
0.0
 10
114.591144268641
 20
131.2584180830034
 30
0.0
 10
114.2081489696199
 20
131.1755602701182
 30
0.0
 10
113.6857930127369
 20
131.0736535218972
 30
0.0
 10
113.0510086680353
 20
130.9658149520081
 30
0.0
 10
112.3207849314211
 20
130.8643486987791
 30
0.0
 10
111.53031683651
 20
130.7792866202119
 30
0.0
 10
110.7058331090523
 20
130.7210852632553
 30
0.0
 10
109.8787967285722
 20
130.6935008155708
 30
0.0
 10
109.0804722695818
 20
130.696994744105
 30
0.0
 10
108.3406485185821
 20
130.7239484027786
 30
0.0
 10
107.6963936471225
 20
130.768303903392
 30
0.0
 10
107.168986790025
 20
130.8185090871148
 30
0.0
 10
106.7743215497119
 20
130.86511654716
 30
0.0
 10
106.5417928641237
 20
130.8943197239983
 30
0.0
 10
106.4464136354574
 20
130.9070778627155
 30
0.0
 10
106.4733465797842
 20
130.9035380327967
 30
0.0
 10
106.4736956637471
 20
130.9034921522632
 30
0.0
  0
SPLINE
  5
EB
330
1F
100
AcDbEntity
  8
0
  6
Continuous
 62
     7
370
    25
100
AcDbSpline
210
0.0
220
0.0
230
1.0
 70
    11
 71
     3
 72
    70
 73
    66
 74
     0
 42
0.000000001
 43
0.00000001
 40
0.0
 40
0.0
 40
0.0
 40
0.0
 40
0.03125
 40
0.03125
 40
0.0625
 40
0.0625
 40
0.09375
 40
0.09375
 40
0.125
 40
0.125
 40
0.15625
 40
0.15625
 40
0.1875
 40
0.1875
 40
0.21875
 40
0.21875
 40
0.25
 40
0.25
 40
0.28125
 40
0.28125
 40
0.3125
 40
0.3125
 40
0.34375
 40
0.34375
 40
0.375
 40
0.375
 40
0.40625
 40
0.40625
 40
0.4375
 40
0.4375
 40
0.46875
 40
0.46875
 40
0.5
 40
0.5
 40
0.53125
 40
0.53125
 40
0.5625
 40
0.5625
 40
0.59375
 40
0.59375
 40
0.625
 40
0.625
 40
0.65625
 40
0.65625
 40
0.6875
 40
0.6875
 40
0.71875
 40
0.71875
 40
0.75
 40
0.75
 40
0.78125
 40
0.78125
 40
0.8125
 40
0.8125
 40
0.84375
 40
0.84375
 40
0.875
 40
0.875
 40
0.90625
 40
0.90625
 40
0.9375
 40
0.9375
 40
0.96875
 40
0.96875
 40
1.0
 40
1.0
 40
1.0
 40
1.0
 10
156.1667935808655
 20
90.45622552308868
 30
0.0
 10
156.1867898440778
 20
90.61267706613671
 30
0.0
 10
156.2318616898768
 20
90.766428447698
 30
0.0
 10
156.3687366610191
 20
91.06848372251345
 30
0.0
 10
156.4618456670126
 20
91.21772693736156
 30
0.0
 10
156.6852283823608
 20
91.49695725009464
 30
0.0
 10
156.8165336496546
 20
91.62911399520034
 30
0.0
 10
157.1137353901042
 20
91.87503303508734
 30
0.0
 10
157.2761457522932
 20
91.98610146305904
 30
0.0
 10
157.6263367047158
 20
92.18545523707955
 30
0.0
 10
157.8158002630481
 20
92.27415360951238
 30
0.0
 10
158.2069107383768
 20
92.42254298437099
 30
0.0
 10
158.4095645565539
 20
92.4830670127567
 30
0.0
 10
158.8287823662436
 20
92.57671137048887
 30
0.0
 10
159.0450357727508
 20
92.60940399514878
 30
0.0
 10
159.4758691064261
 20
92.6448569220666
 30
0.0
 10
159.6923843119252
 20
92.64811292061201
 30
0.0
 10
160.1276562873693
 20
92.62506407283301
 30
0.0
 10
160.3445975754611
 20
92.59857590208449
 30
0.0
 10
160.7648735945307
 20
92.51787459847932
 30
0.0
 10
160.9700489628499
 20
92.46360427551369
 30
0.0
 10
161.3699431709213
 20
92.32630894916089
 30
0.0
 10
161.562329307218
 20
92.24377634471345
 30
0.0
 10
161.9206695241905
 20
92.05624214915333
 30
0.0
 10
162.08839509752
 20
91.95068765481223
 30
0.0
 10
162.3987574077592
 20
91.71472939726782
 30
0.0
 10
162.5383024814982
 20
91.58626940173559
 30
0.0
 10
162.7776154543859
 20
91.31581740983563
 30
0.0
 10
162.8790056883601
 20
91.17238034004794
 30
0.0
 10
163.038783683532
 20
90.87090682607398
 30
0.0
 10
163.0943709924454
 20
90.71838187456432
 30
0.0
 10
163.1570155845221
 20
90.41029288891586
 30
0.0
 10
163.1634546423149
 20
90.25269870202344
 30
0.0
 10
163.1249457492142
 20
89.94960399084907
 30
0.0
 10
163.0809075343394
 20
89.80293154203788
 30
0.0
 10
162.9433189311547
 20
89.5188786462317
 30
0.0
 10
162.8519416845583
 20
89.38616958009234
 30
0.0
 10
162.6290747147166
 20
89.13872398720629
 30
0.0
 10
162.4960102399886
 20
89.02309172799205
 30
0.0
 10
162.2015143711284
 20
88.8164106250286
 30
0.0
 10
162.0392710398391
 20
88.72409891395846
 30
0.0
 10
161.6857324992738
 20
88.5596791048607
 30
0.0
 10
161.4989365769986
 20
88.48970253546177
 30
0.0
 10
161.1084507008325
 20
88.37196819502773
 30
0.0
 10
160.9025999116383
 20
88.32382461510372
 30
0.0
 10
160.4827670520413
 20
88.25091594027884
 30
0.0
 10
160.2698463416527
 20
88.22607666988094
 30
0.0
 10
159.8381732078746
 20
88.19850868220225
 30
0.0
 10
159.6173768023877
 20
88.19595471155564
 30
0.0
 10
159.1832350800613
 20
88.21359745317754
 30
0.0
 10
158.9692782409765
 20
88.23351808525805
 30
0.0
 10
158.5476070005981
 20
88.295964135171
 30
0.0
 10
158.3379962833745
 20
88.33911934005157
 30
0.0
 10
157.9398404217416
 20
88.4469302451799
 30
0.0
 10
157.7501743717105
 20
88.51149717744451
 30
0.0
 10
157.3903236736148
 20
88.66371067942066
 30
0.0
 10
157.2186235992633
 20
88.75254589701385
 30
0.0
 10
156.9106964284937
 20
88.94906625367288
 30
0.0
 10
156.7729412274623
 20
89.0570337682072
 30
0.0
 10
156.5321036126946
 20
89.29491337254733
 30
0.0
 10
156.428992715926
 20
89.426019383139
 30
0.0
 10
156.2717845262422
 20
89.69900965208508
 30
0.0
 10
156.2157978326756
 20
89.84230956629017
 30
0.0
 10
156.1527632082905
 20
90.14421804244948
 30
0.0
 10
156.1467973176532
 20
90.29977398004064
 30
0.0
 10
156.1667935808655
 20
90.45622552308868
 30
0.0
  0
SPLINE
  5
EC
330
1F
100
AcDbEntity
  8
0
  6
Continuous
 62
     7
370
    25
100
AcDbSpline
210
0.0
220
0.0
230
1.0
 70
    11
 71
     3
 72
    68
 73
    64
 74
     0
 42
0.000000001
 43
0.00000001
 40
0.0
 40
0.0
 40
0.0
 40
0.0
 40
0.03125
 40
0.03125
 40
0.0625
 40
0.0625
 40
0.09375
 40
0.09375
 40
0.125
 40
0.125
 40
0.15625
 40
0.15625
 40
0.1875
 40
0.1875
 40
0.21875
 40
0.21875
 40
0.25
 40
0.25
 40
0.28125
 40
0.28125
 40
0.3125
 40
0.3125
 40
0.34375
 40
0.34375
 40
0.375
 40
0.375
 40
0.40625
 40
0.40625
 40
0.4375
 40
0.4375
 40
0.46875
 40
0.46875
 40
0.5
 40
0.5
 40
0.53125
 40
0.53125
 40
0.5625
 40
0.5625
 40
0.625
 40
0.625
 40
0.65625
 40
0.65625
 40
0.6875
 40
0.6875
 40
0.71875
 40
0.71875
 40
0.75
 40
0.75
 40
0.78125
 40
0.78125
 40
0.8125
 40
0.8125
 40
0.84375
 40
0.84375
 40
0.875
 40
0.875
 40
0.90625
 40
0.90625
 40
0.9375
 40
0.9375
 40
0.96875
 40
0.96875
 40
1.0
 40
1.0
 40
1.0
 40
1.0
 10
156.9631028120488
 20
125.5731882407163
 30
0.0
 10
157.1118703343412
 20
125.6774484703842
 30
0.0
 10
157.2740781966302
 20
125.7692160580281
 30
0.0
 10
157.6227704711038
 20
125.9313140412753
 30
0.0
 10
157.8110420645928
 20
126.0021050497318
 30
0.0
 10
158.2034899302732
 20
126.1203770720375
 30
0.0
 10
158.4061184390614
 20
126.1676794506093
 30
0.0
 10
158.8236368442354
 20
126.2404052989878
 30
0.0
 10
159.0403788789648
 20
126.265816672876
 30
0.0
 10
159.4723381344057
 20
126.2934044274256
 30
0.0
 10
159.6886129623137
 20
126.2959565157956
 30
0.0
 10
160.1217511336548
 20
126.2786950206218
 30
0.0
 10
160.3400565681028
 20
126.258499097015
 30
0.0
 10
160.7615205006354
 20
126.1961707179688
 30
0.0
 10
160.9664279362202
 20
126.1541233606174
 30
0.0
 10
161.3642732439279
 20
126.0469424555484
 30
0.0
 10
161.5583528606223
 20
125.9810774602835
 30
0.0
 10
161.9179279351245
 20
125.8292146398828
 30
0.0
 10
162.0853988051349
 20
125.742888505804
 30
0.0
 10
162.3941096704177
 20
125.5469151595842
 30
0.0
 10
162.5356119671328
 20
125.4363503984017
 30
0.0
 10
162.7758852293885
 20
125.199690843699
 30
0.0
 10
162.8767720091342
 20
125.0725423086312
 30
0.0
 10
163.0364415454068
 20
124.7979682750934
 30
0.0
 10
163.0934849007191
 20
124.6521922036097
 30
0.0
 10
163.1566941105602
 20
124.3547691195102
 30
0.0
 10
163.1635968093223
 20
124.1995129200034
 30
0.0
 10
163.1256925180716
 20
123.8886414255138
 30
0.0
 10
163.0818206484987
 20
123.73484393686
 30
0.0
 10
162.9459124265096
 20
123.4308323319599
 30
0.0
 10
162.8538836492081
 20
123.2820435012136
 30
0.0
 10
162.6318934057893
 20
123.0022343982587
 30
0.0
 10
162.4995376068006
 20
122.8682323205885
 30
0.0
 10
162.2046938483189
 20
122.6228171483852
 30
0.0
 10
162.0427893308766
 20
122.5112613076479
 30
0.0
 10
161.6916079249249
 20
122.3101833340094
 30
0.0
 10
161.5029496357187
 20
122.2214314598912
 30
0.0
 10
160.9177314190621
 20
121.9979047832066
 30
0.0
 10
160.4895994329392
 20
121.9017601854653
 30
0.0
 10
159.8432906048585
 20
121.8473782651118
 30
0.0
 10
159.6245579526521
 20
121.8437146138492
 30
0.0
 10
159.1878709098333
 20
121.8663056604099
 30
0.0
 10
158.9735388390624
 20
121.8922033478581
 30
0.0
 10
158.5527229494691
 20
121.9722965434575
 30
0.0
 10
158.3448292789563
 20
122.0269788088517
 30
0.0
 10
157.9439410196436
 20
122.1641805712057
 30
0.0
 10
157.7538902911161
 20
122.2454450372661
 30
0.0
 10
157.3947305747515
 20
122.4326832748671
 30
0.0
 10
157.2241138597424
 20
122.5398028902486
 30
0.0
 10
156.9136264506671
 20
122.7754643322335
 30
0.0
 10
156.7755863557974
 20
122.9021621225015
 30
0.0
 10
156.5351543937522
 20
123.1729273003398
 30
0.0
 10
156.4317328184612
 20
123.3192170561652
 30
0.0
 10
156.2730122440534
 20
123.6179968730675
 30
0.0
 10
156.2169469556277
 20
123.7702364052091
 30
0.0
 10
156.1534207342746
 20
124.0801218407094
 30
0.0
 10
156.1469400344112
 20
124.2375148196695
 30
0.0
 10
156.1849487257642
 20
124.5401130419543
 30
0.0
 10
156.2296299581933
 20
124.6891713172448
 30
0.0
 10
156.3665292175992
 20
124.9720149823904
 30
0.0
 10
156.4573857371804
 20
125.1044533624246
 30
0.0
 10
156.6812981803096
 20
125.3532639527782
 30
0.0
 10
156.8143352897563
 20
125.4689280110485
 30
0.0
 10
156.9631028120488
 20
125.5731882407163
 30
0.0
  0
SPLINE
  5
ED
330
1F
100
AcDbEntity
  8
0
  6
Continuous
 62
     7
370
    25
100
AcDbSpline
210
0.0
220
0.0
230
1.0
 70
    11
 71
     3
 72
    82
 73
    78
 74
     0
 42
0.000000001
 43
0.00000001
 40
0.0
 40
0.0
 40
0.0
 40
0.0
 40
0.0312500000000001
 40
0.0312500000000001
 40
0.0468749999999998
 40
0.0468749999999998
 40
0.0624999999999995
 40
0.0624999999999995
 40
0.0937499999999996
 40
0.0937499999999996
 40
0.1249999999999996
 40
0.1249999999999996
 40
0.1562499999999996
 40
0.1562499999999996
 40
0.1874999999999997
 40
0.1874999999999997
 40
0.2187499999999996
 40
0.2187499999999996
 40
0.2499999999999995
 40
0.2499999999999995
 40
0.2656249999999994
 40
0.2656249999999994
 40
0.2812499999999993
 40
0.2812499999999993
 40
0.3124999999999992
 40
0.3124999999999992
 40
0.3281249999999992
 40
0.3281249999999992
 40
0.3437499999999992
 40
0.3437499999999992
 40
0.3749999999999992
 40
0.3749999999999992
 40
0.4062499999999991
 40
0.4062499999999991
 40
0.4374999999999991
 40
0.4374999999999991
 40
0.4687499999999991
 40
0.4687499999999991
 40
0.499999999999999
 40
0.499999999999999
 40
0.531249999999999
 40
0.531249999999999
 40
0.5624999999999989
 40
0.5624999999999989
 40
0.5937499999999989
 40
0.5937499999999989
 40
0.6249999999999988
 40
0.6249999999999988
 40
0.6406249999999989
 40
0.6406249999999989
 40
0.6562499999999989
 40
0.6562499999999989
 40
0.6874999999999989
 40
0.6874999999999989
 40
0.7187499999999989
 40
0.7187499999999989
 40
0.749999999999999
 40
0.749999999999999
 40
0.7812499999999991
 40
0.7812499999999991
 40
0.7968749999999991
 40
0.7968749999999991
 40
0.8124999999999991
 40
0.8124999999999991
 40
0.8437499999999992
 40
0.8437499999999992
 40
0.8593749999999994
 40
0.8593749999999994
 40
0.8749999999999997
 40
0.8749999999999997
 40
0.9062499999999998
 40
0.9062499999999998
 40
0.9374999999999999
 40
0.9374999999999999
 40
0.9687499999999999
 40
0.9687499999999999
 40
1.0
 40
1.0
 40
1.0
 40
1.0
 10
155.9051947843402
 20
96.52139156849043
 30
0.0
 10
155.5503527561248
 20
96.52139156849044
 30
0.0
 10
155.2010175486834
 20
96.55056291391206
 30
0.0
 10
154.6849675961489
 20
96.63670241445713
 30
0.0
 10
154.5142857101722
 20
96.67253352960178
 30
0.0
 10
154.1756511821806
 20
96.75885513264296
 30
0.0
 10
154.006833330393
 20
96.80968192216133
 30
0.0
 10
153.5132081982641
 20
96.98230683916609
 30
0.0
 10
153.20015991398
 20
97.12390775352546
 30
0.0
 10
152.6059459463204
 20
97.46125299778701
 30
0.0
 10
152.3219664332981
 20
97.65975204260371
 30
0.0
 10
151.8080854903512
 20
98.10122654851257
 30
0.0
 10
151.5768592847764
 20
98.34395156873049
 30
0.0
 10
151.1669904812763
 20
98.87597585812782
 30
0.0
 10
150.9882638530625
 20
99.16745413120941
 30
0.0
 10
150.7028860821538
 20
99.77263754052387
 30
0.0
 10
150.5934167425955
 20
100.0892489452218
 30
0.0
 10
150.4441975901412
 20
100.7527290938955
 30
0.0
 10
150.4066772556351
 20
101.0922377321118
 30
0.0
 10
150.4058271197434
 20
101.6018454132042
 30
0.0
 10
150.4147164513259
 20
101.7723614721479
 30
0.0
 10
150.4512473408969
 20
102.1147019104016
 30
0.0
 10
150.4791149137786
 20
102.2870581443625
 30
0.0
 10
150.5890534193232
 20
102.7937796195521
 30
0.0
 10
150.6973569456777
 20
103.1218104116324
 30
0.0
 10
150.9114822017036
 20
103.5990722209077
 30
0.0
 10
150.9920473713189
 20
103.7564436512474
 30
0.0
 10
151.1674332374193
 20
104.0598633632037
 30
0.0
 10
151.2623863916585
 20
104.2064418122302
 30
0.0
 10
151.568339568379
 20
104.631180336797
 30
0.0
 10
151.8019666284486
 20
104.8960607704286
 30
0.0
 10
152.3187610767952
 20
105.3775395420225
 30
0.0
 10
152.5971737712849
 20
105.590369244148
 30
0.0
 10
153.1922479720256
 20
105.962405603495
 30
0.0
 10
153.5120204199658
 20
106.1223564469194
 30
0.0
 10
154.1669336683954
 20
106.376547986258
 30
0.0
 10
154.5038256085094
 20
106.4725307684227
 30
0.0
 10
155.1964381645296
 20
106.6023223033151
 30
0.0
 10
155.5513218767824
 20
106.6351486098418
 30
0.0
 10
156.2517755706347
 20
106.6355939400196
 30
0.0
 10
156.6008756757912
 20
106.6040269534636
 30
0.0
 10
157.2967428793518
 20
106.4750927031259
 30
0.0
 10
157.6366643029273
 20
106.3786081243363
 30
0.0
 10
158.2891609165183
 20
106.126492369651
 30
0.0
 10
158.6048508610379
 20
105.969801283876
 30
0.0
 10
159.2061917471027
 20
105.5956438582561
 30
0.0
 10
159.4843857609777
 20
105.3831180655909
 30
0.0
 10
159.8684722207949
 20
105.0270001964343
 30
0.0
 10
159.9909285679085
 20
104.9020295064908
 30
0.0
 10
160.2242910618067
 20
104.6391501223349
 30
0.0
 10
160.3355824389771
 20
104.500571022901
 30
0.0
 10
160.6441398164977
 20
104.0744252848499
 30
0.0
 10
160.818799721801
 20
103.7742276082884
 30
0.0
 10
161.1054654869918
 20
103.1418839788533
 30
0.0
 10
161.2174774743063
 20
102.8065095495227
 30
0.0
 10
161.3654130369431
 20
102.1345504945393
 30
0.0
 10
161.4034427374882
 20
101.7947799634246
 30
0.0
 10
161.4051010826095
 20
101.1075939911998
 30
0.0
 10
161.3681542523506
 20
100.767742465819
 30
0.0
 10
161.2592781030637
 20
100.2744586780333
 30
0.0
 10
161.2140112547161
 20
100.1121759266466
 30
0.0
 10
161.1052225703816
 20
99.79189613545013
 30
0.0
 10
161.0414857641189
 20
99.63374399852214
 30
0.0
 10
160.8273756286301
 20
99.17649329811432
 30
0.0
 10
160.6532136535407
 20
98.8906161466527
 30
0.0
 10
160.3457495419596
 20
98.48873207290657
 30
0.0
 10
160.2349303176451
 20
98.35878782600656
 30
0.0
 10
160.0021556529008
 20
98.11291548593232
 30
0.0
 10
159.8798647385535
 20
97.99642274584383
 30
0.0
 10
159.4958229142981
 20
97.66537022910366
 30
0.0
 10
159.2153582807155
 20
97.46811973616654
 30
0.0
 10
158.6152953548805
 20
97.12613093898884
 30
0.0
 10
158.3015089380247
 20
96.98424709765088
 30
0.0
 10
157.6476237052369
 20
96.75473247517671
 30
0.0
 10
157.3043401983737
 20
96.66681507852326
 30
0.0
 10
156.611026184161
 20
96.55059458302443
 30
0.0
 10
156.2600368125556
 20
96.52139156849043
 30
0.0
 10
155.9051947843402
 20
96.52139156849043
 30
0.0
  0
LINE
  5
EE
330
1F
100
AcDbEntity
  8
0
  6
Continuous
 62
     7
370
    25
100
AcDbLine
 10
179.7051934432
 20
84.0459525879
 30
0.0
 11
179.7051934432
 21
130.4459519978
 31
0.0
  0
SPLINE
  5
EF
330
1F
100
AcDbEntity
  8
0
  6
Continuous
 62
     7
370
    25
100
AcDbSpline
210
0.0
220
0.0
230
1.0
 70
     8
 71
     3
 72
     9
 73
     5
 74
     0
 42
0.000000001
 43
0.00000001
 40
0.0
 40
0.0
 40
0.0
 40
0.0
 40
0.7009339503679092
 40
0.9999999999999999
 40
0.9999999999999999
 40
0.9999999999999999
 40
0.9999999999999999
 10
87.82597835176875
 20
87.54467259304668
 30
0.0
 10
87.8351190227186
 20
87.52684330928578
 30
0.0
 10
87.84815972497739
 20
87.501406841625
 30
0.0
 10
87.86332318824567
 20
87.55528620109854
 30
0.0
 10
87.86785806530406
 20
87.571399688293
 30
0.0
  0
LINE
  5
F0
330
1F
100
AcDbEntity
  8
0
  6
Continuous
 62
     7
370
    25
100
AcDbLine
 10
87.8051949572
 20
87.5552747692
 30
0.0
 11
87.8051949572
 21
126.9366298165
 31
0.0
  0
SPLINE
  5
F1
330
1F
100
AcDbEntity
  8
0
  6
Continuous
 62
     7
370
    25
100
AcDbSpline
210
0.0
220
0.0
230
1.0
 70
     8
 71
     3
 72
    10
 73
     6
 74
     0
 42
0.000000001
 43
0.00000001
 40
0.0
 40
0.0
 40
0.0
 40
0.0
 40
0.5
 40
0.5
 40
1.0
 40
1.0
 40
1.0
 40
1.0
 10
87.86785815906357
 20
126.9205048376298
 30
0.0
 10
87.85895386995482
 20
126.966246356843
 30
0.0
 10
87.84243848976183
 20
126.983437196312
 30
0.0
 10
87.81533054370024
 20
126.9831139193763
 30
0.0
 10
87.80519478434017
 20
126.9652363770798
 30
0.0
 10
87.80519478434017
 20
126.9366300393272
 30
0.0
  0
SPLINE
  5
F2
330
1F
100
AcDbEntity
  8
0
  6
Continuous
 62
     7
370
    25
100
AcDbSpline
210
0.0
220
0.0
230
1.0
 70
     8
 71
     3
 72
    26
 73
    22
 74
     0
 42
0.000000001
 43
0.00000001
 40
0.0
 40
0.0
 40
0.0
 40
0.0
 40
0.2500000000000165
 40
0.2500000000000165
 40
0.3750000000000256
 40
0.3750000000000256
 40
0.4375000000000291
 40
0.4375000000000291
 40
0.4687500000000291
 40
0.4687500000000291
 40
0.5000000000000292
 40
0.5000000000000292
 40
0.5312500000000293
 40
0.5312500000000293
 40
0.5625000000000293
 40
0.5625000000000293
 40
0.625000000000026
 40
0.625000000000026
 40
0.7500000000000173
 40
0.7500000000000173
 40
1.0
 40
1.0
 40
1.0
 40
1.0
 10
88.62934843044468
 20
127.6360716264469
 30
0.0
 10
88.5907479075762
 20
127.5182969300915
 30
0.0
 10
88.54445090502195
 20
127.3939072439295
 30
0.0
 10
88.45051155658803
 20
127.1886879115761
 30
0.0
 10
88.41520008967457
 20
127.1171150451296
 30
0.0
 10
88.3490201139289
 20
127.0011618125292
 30
0.0
 10
88.32448174726066
 20
126.9605772777189
 30
0.0
 10
88.28110900170688
 20
126.8964355958472
 30
0.0
 10
88.26560060028167
 20
126.8745691705621
 30
0.0
 10
88.23055795569465
 20
126.8289749022189
 30
0.0
 10
88.21100766497489
 20
126.8053046112515
 30
0.0
 10
88.16908038460427
 20
126.7606880519116
 30
0.0
 10
88.14642827437264
 20
126.7398080393937
 30
0.0
 10
88.10545456028599
 20
126.7089346256428
 30
0.0
 10
88.08785526039058
 20
126.6990957558104
 30
0.0
 10
88.04322827453443
 20
126.6801061401143
 30
0.0
 10
88.0226690518811
 20
126.6797818154608
 30
0.0
 10
87.97154361238444
 20
126.6890052563371
 30
0.0
 10
87.95063219939588
 20
126.710252152554
 30
0.0
 10
87.89918229183496
 20
126.7842210313848
 30
0.0
 10
87.88151699253041
 20
126.8503391246995
 30
0.0
 10
87.86785815906357
 20
126.9205048376298
 30
0.0
  0
SPLINE
  5
F3
330
1F
100
AcDbEntity
  8
0
  6
Continuous
 62
     7
370
    25
100
AcDbSpline
210
0.0
220
0.0
230
1.0
 70
     8
 71
     3
 72
    10
 73
     6
 74
     0
 42
0.000000001
 43
0.00000001
 40
0.0
 40
0.0
 40
0.0
 40
0.0
 40
0.5
 40
0.5
 40
1.0
 40
1.0
 40
1.0
 40
1.0
 10
88.94514985392196
 20
128.1059061851367
 30
0.0
 10
88.87759059900371
 20
128.038214792327
 30
0.0
 10
88.81395394366723
 20
127.9635076275733
 30
0.0
 10
88.70373318909537
 20
127.8045414951467
 30
0.0
 10
88.65691689587274
 20
127.7201862291387
 30
0.0
 10
88.62934843044468
 20
127.6360716264469
 30
0.0
  0
SPLINE
  5
F4
330
1F
100
AcDbEntity
  8
0
  6
Continuous
 62
     7
370
    25
100
AcDbSpline
210
0.0
220
0.0
230
1.0
 70
     8
 71
     3
 72
    10
 73
     6
 74
     0
 42
0.000000001
 43
0.00000001
 40
0.0
 40
0.0
 40
0.0
 40
0.0
 40
0.5
 40
0.5
 40
1.0
 40
1.0
 40
1.0
 40
1.0
 10
88.62934843044472
 20
86.85583295925112
 30
0.0
 10
88.65682584519868
 20
86.77199616278322
 30
0.0
 10
88.70353447548811
 20
86.68768567519407
 30
0.0
 10
88.81381293823407
 20
86.52856444470738
 30
0.0
 10
88.87770047684796
 20
86.45357970061774
 30
0.0
 10
88.94514985393258
 20
86.38599840055079
 30
0.0
  0
SPLINE
  5
F5
330
1F
100
AcDbEntity
  8
0
  6
Continuous
 62
     7
370
    25
100
AcDbSpline
210
0.0
220
0.0
230
1.0
 70
     8
 71
     3
 72
    24
 73
    20
 74
     0
 42
0.000000001
 43
0.00000001
 40
0.0
 40
0.0
 40
0.0
 40
0.0
 40
0.25
 40
0.25
 40
0.374999999999999
 40
0.374999999999999
 40
0.4374999999999993
 40
0.4374999999999993
 40
0.4687499999999994
 40
0.4687499999999994
 40
0.4999999999999995
 40
0.4999999999999995
 40
0.5624999999999971
 40
0.5624999999999971
 40
0.6249999999999947
 40
0.6249999999999947
 40
0.7499999999999947
 40
0.7499999999999947
 40
1.0
 40
1.0
 40
1.0
 40
1.0
 10
87.86785815906357
 20
87.57139974806834
 30
0.0
 10
87.88161127773381
 20
87.64204980605864
 30
0.0
 10
87.89938384513968
 20
87.70864791882354
 30
0.0
 10
87.95163493669503
 20
87.78274593905675
 30
0.0
 10
87.97267001227658
 20
87.80400374621831
 30
0.0
 10
88.02557041990502
 20
87.81214967236455
 30
0.0
 10
88.04667609278295
 20
87.81120986896879
 30
0.0
 10
88.0927282614609
 20
87.79019387739145
 30
0.0
 10
88.11109873344431
 20
87.77928507128382
 30
0.0
 10
88.15265036851
 20
87.74665016033644
 30
0.0
 10
88.1752170412669
 20
87.72515817996509
 30
0.0
 10
88.23799805772691
 20
87.65669223637877
 30
0.0
 10
88.27112781869482
 20
87.61061777817368
 30
0.0
 10
88.32804550517983
 20
87.52560988983902
 30
0.0
 10
88.35223153068361
 20
87.48532958865762
 30
0.0
 10
88.41743948106337
 20
87.37039336219168
 30
0.0
 10
88.4521555412546
 20
87.29981037704468
 30
0.0
 10
88.54537081158549
 20
87.09560461796607
 30
0.0
 10
88.59104334694618
 20
86.97270623563871
 30
0.0
 10
88.62934843044471
 20
86.85583295925115
 30
0.0
  0
SPLINE
  5
F6
330
1F
100
AcDbEntity
  8
0
  6
Continuous
 62
     7
370
    25
100
AcDbSpline
210
0.0
220
0.0
230
1.0
 70
     8
 71
     3
 72
     8
 73
     4
 74
     0
 42
0.000000001
 43
0.00000001
 40
0.0
 40
0.0
 40
0.0
 40
0.0
 40
1.0
 40
1.0
 40
1.0
 40
1.0
 10
134.3132619528511
 20
131.7046419552165
 30
0.0
 10
134.8203487946104
 20
130.5734916010529
 30
0.0
 10
135.3159166337503
 20
129.437107190285
 30
0.0
 10
135.7951947843402
 20
128.2960959604324
 30
0.0
  0
LINE
  5
F7
330
1F
100
AcDbEntity
  8
0
  6
Continuous
 62
     7
370
    25
100
AcDbLine
 10
135.7951948326
 20
128.2960962798
 30
0.0
 11
135.7951948326
 21
127.3818187709
 31
0.0
  0
SPLINE
  5
F8
330
1F
100
AcDbEntity
  8
0
  6
Continuous
 62
     7
370
    25
100
AcDbSpline
210
0.0
220
0.0
230
1.0
 70
     8
 71
     3
 72
     8
 73
     4
 74
     0
 42
0.000000001
 43
0.00000001
 40
0.0
 40
0.0
 40
0.0
 40
0.0
 40
1.0
 40
1.0
 40
1.0
 40
1.0
 10
141.0971276158292
 20
137.7131477660133
 30
0.0
 10
140.6019875864649
 20
136.8264681178331
 30
0.0
 10
140.1079048811859
 20
135.9392054821471
 30
0.0
 10
139.6151947843401
 20
135.0511864840207
 30
0.0
  0
LINE
  5
F9
330
1F
100
AcDbEntity
  8
0
  6
Continuous
 62
     7
370
    25
100
AcDbLine
 10
141.0971267056
 20
131.704641908
 30
0.0
 11
141.0971267056
 21
137.7131477292
 31
0.0
  0
SPLINE
  5
FA
330
1F
100
AcDbEntity
  8
0
  6
Continuous
 62
     7
370
    25
100
AcDbSpline
210
0.0
220
0.0
230
1.0
 70
     8
 71
     3
 72
     8
 73
     4
 74
     0
 42
0.000000001
 43
0.00000001
 40
0.0
 40
0.0
 40
0.0
 40
0.0
 40
1.0
 40
1.0
 40
1.0
 40
1.0
 10
139.6151947843401
 20
128.2960959604324
 30
0.0
 10
140.09447293493
 20
129.437107190285
 30
0.0
 10
140.5900407740699
 20
130.5734916010529
 30
0.0
 10
141.0971276158292
 20
131.7046419552165
 30
0.0
  0
LINE
  5
FB
330
1F
100
AcDbEntity
  8
0
  6
Continuous
 62
     7
370
    25
100
AcDbLine
 10
139.615195049
 20
128.2960962798
 30
0.0
 11
139.615195049
 21
135.0511856671
 31
0.0
  0
LINE
  5
FC
330
1F
100
AcDbEntity
  8
0
  6
Continuous
 62
     7
370
    25
100
AcDbLine
 10
145.0551954936
 20
137.7131477292
 30
0.0
 11
141.0971267056
 21
137.7131477292
 31
0.0
  0
LINE
  5
FD
330
1F
100
AcDbEntity
  8
0
  6
Continuous
 62
     7
370
    25
100
AcDbLine
 10
141.0971267056
 20
131.704641908
 30
0.0
 11
145.0551954936
 21
131.704641908
 31
0.0
  0
SPLINE
  5
FE
330
1F
100
AcDbEntity
  8
0
  6
Continuous
 62
     7
370
    25
100
AcDbSpline
210
0.0
220
0.0
230
1.0
 70
     8
 71
     3
 72
    10
 73
     6
 74
     0
 42
0.000000001
 43
0.00000001
 40
0.0
 40
0.0
 40
0.0
 40
0.0
 40
0.5
 40
0.5
 40
1.0
 40
1.0
 40
1.0
 40
1.0
 10
145.6551947843402
 20
137.092392616613
 30
0.0
 10
145.6551947843402
 20
137.2527978829638
 30
0.0
 10
145.5929569532333
 20
137.4118596959524
 30
0.0
 10
145.3738220294907
 20
137.6427721615827
 30
0.0
 10
145.2162333344989
 20
137.7131477660133
 30
0.0
 10
145.0551947843402
 20
137.7131477660133
 30
0.0
  0
SPLINE
  5
FF
330
1F
100
AcDbEntity
  8
0
  6
Continuous
 62
     7
370
    25
100
AcDbSpline
210
0.0
220
0.0
230
1.0
 70
     8
 71
     3
 72
    12
 73
     8
 74
     0
 42
0.000000001
 43
0.00000001
 40
0.0
 40
0.0
 40
0.0
 40
0.0
 40
0.250000000000002
 40
0.250000000000002
 40
0.500000000000004
 40
0.500000000000004
 40
1.0
 40
1.0
 40
1.0
 40
1.0
 10
145.0551947843402
 20
131.7046419552165
 30
0.0
 10
145.1463945061658
 20
131.7046419552165
 30
0.0
 10
145.2369895153018
 20
131.6764222566287
 30
0.0
 10
145.3904022417485
 20
131.5819792493805
 30
0.0
 10
145.4556111090722
 20
131.5156922726752
 30
0.0
 10
145.6083956384121
 20
131.2900674493869
 30
0.0
 10
145.6551947843402
 20
131.1076411863544
 30
0.0
 10
145.6551947843402
 20
130.9269045541075
 30
0.0
  0
LINE
  5
100
330
1F
100
AcDbEntity
  8
0
  6
Continuous
 62
     7
370
    25
100
AcDbLine
 10
145.6551944744
 20
130.9269037391
 30
0.0
 11
145.6551944744
 21
137.0923932935
 31
0.0
  0
LINE
  5
101
330
1F
100
AcDbEntity
  8
0
  6
Continuous
 62
     7
370
    25
100
AcDbLine
 10
139.615195049
 20
127.3818187709
 30
0.0
 11
139.615195049
 21
128.2960962798
 31
0.0
  0
LINE
  5
102
330
1F
100
AcDbEntity
  8
0
  6
Continuous
 62
     7
370
    25
100
AcDbLine
 10
145.6551944744
 20
130.9269037391
 30
0.0
 11
145.6551944744
 21
127.0959530319
 31
0.0
  0
SPLINE
  5
103
330
1F
100
AcDbEntity
  8
0
  6
Continuous
 62
     7
370
    25
100
AcDbSpline
210
0.0
220
0.0
230
1.0
 70
     8
 71
     3
 72
     8
 73
     4
 74
     0
 42
0.000000001
 43
0.00000001
 40
0.0
 40
0.0
 40
0.0
 40
0.0
 40
1.0
 40
1.0
 40
1.0
 40
1.0
 10
135.7951947843402
 20
135.0511864840207
 30
0.0
 10
135.3024846874944
 20
135.9392054821471
 30
0.0
 10
134.8084019822154
 20
136.8264681178331
 30
0.0
 10
134.3132619528511
 20
137.7131477660133
 30
0.0
  0
LINE
  5
104
330
1F
100
AcDbEntity
  8
0
  6
Continuous
 62
     7
370
    25
100
AcDbLine
 10
135.7951948326
 20
128.2960962798
 30
0.0
 11
135.7951948326
 21
135.0511856671
 31
0.0
  0
ARC
  5
105
330
1F
100
AcDbEntity
  8
0
  6
Continuous
 62
     7
370
    25
100
AcDbCircle
 10
127.7053635542
 20
125.9506262391
 30
0.0
 40
7.250403788658842
100
AcDbArc
 50
70.9612634514
 51
109.0861039665
  0
LWPOLYLINE
  5
106
330
1F
100
AcDbEntity
  8
0
  6
Continuous
 62
     7
370
    25
100
AcDbPolyline
 90
       26
 70
   128
 43
0.0
 10
159.6551930439
 20
122.0404994036
 10
160.2769179177
 20
122.0960378941
 10
160.8595793974
 20
122.2591609056
 10
161.3665616047
 20
122.5196201648
 10
161.7660133075
 20
122.8610495399
 10
162.0328372251
 20
123.2619960155
 10
162.1502621006
 20
123.6972682472
 10
162.1109118592
 20
124.1395123597
 10
161.9172638189
 20
124.5609451379
 10
161.5814773273
 20
124.9350834932
 10
161.1246561539
 20
125.2384208437
 10
160.5755073857
 20
125.4518948789
 10
159.9685272109
 20
125.5620945539
 10
159.3418626022
 20
125.5620945539
 10
158.7348824274
 20
125.4518948789
 10
158.1857299339
 20
125.2384208437
 10
157.7289124858
 20
124.9350834932
 10
157.3931259941
 20
124.5609451379
 10
157.1994779538
 20
124.1395123597
 10
157.1601277124
 20
123.6972682472
 10
157.2775525879
 20
123.2619960155
 10
157.5443765056
 20
122.8610495399
 10
157.9438282084
 20
122.5196201648
 10
158.4508104157
 20
122.2591609056
 10
159.0334718954
 20
122.0960378941
 10
159.6551930439
 20
122.0404994036
  0
LWPOLYLINE
  5
107
330
1F
100
AcDbEntity
  8
0
  6
Continuous
 62
     7
370
    25
100
AcDbPolyline
 90
       26
 70
   128
 43
0.0
 10
159.6551930439
 20
88.9158699955
 10
160.2769179177
 20
88.9714084859
 10
160.8595793974
 20
89.1345314975
 10
161.3665616047
 20
89.3949907567
 10
161.7660133075
 20
89.7364210631
 10
162.0328372251
 20
90.13736847
 10
162.1502621006
 20
90.5726388391
 10
162.1109118592
 20
91.0148848142
 10
161.9172638189
 20
91.4363157298
 10
161.5814773273
 20
91.8104550164
 10
161.1246561539
 20
92.1137914355
 10
160.5755073857
 20
92.3272664021
 10
159.9685272109
 20
92.4374651458
 10
159.3418626022
 20
92.4374651458
 10
158.7348824274
 20
92.3272664021
 10
158.1857299339
 20
92.1137914355
 10
157.7289124858
 20
91.8104550164
 10
157.3931259941
 20
91.4363157298
 10
157.1994779538
 20
91.0148848142
 10
157.1601277124
 20
90.5726388391
 10
157.2775525879
 20
90.13736847
 10
157.5443765056
 20
89.7364210631
 10
157.9438282084
 20
89.3949907567
 10
158.4508104157
 20
89.1345314975
 10
159.0334718954
 20
88.9714084859
 10
159.6551930439
 20
88.9158699955
  0
LINE
  5
108
330
1F
100
AcDbEntity
  8
0
  6
Continuous
 62
     7
370
    25
100
AcDbLine
 10
182.2051947843
 20
96.2459523525
 30
0.0
 11
182.2051947843
 21
118.2459522332
 31
0.0
  0
LINE
  5
109
330
1F
100
AcDbEntity
  8
0
  6
Continuous
 62
     7
370
    25
100
AcDbLine
 10
198.7051984202
 20
97.0459519248
 30
0.0
 11
198.7051984202
 21
117.4459526609
 31
0.0
  0
LINE
  5
10A
330
1F
100
AcDbEntity
  8
0
  6
HIDDEN
 62
     7
370
    18
100
AcDbLine
 10
178.8020787668
 20
85.7459515627
 30
0.0
 11
178.8020787668
 21
93.7459519427
 31
0.0
  0
LINE
  5
10B
330
1F
100
AcDbEntity
  8
0
  6
HIDDEN
 62
     7
370
    18
100
AcDbLine
 10
175.3051934671
 20
86.245952576
 30
0.0
 11
175.3051934671
 21
93.2459518607
 31
0.0
  0
SPLINE
  5
10C
330
1F
100
AcDbEntity
  8
0
  6
HIDDEN
 62
     7
370
    18
100
AcDbSpline
210
0.0
220
0.0
230
1.0
 70
     8
 71
     3
 72
    10
 73
     6
 74
     0
 42
0.000000001
 43
0.00000001
 40
0.0
 40
0.0
 40
0.0
 40
0.0
 40
0.4395945817495909
 40
0.7571241603051293
 40
1.0
 40
1.0
 40
1.0
 40
1.0
 10
185.3051951062052
 20
89.76233604507591
 30
0.0
 10
185.1723018749017
 20
90.04446771838482
 30
0.0
 10
184.9434167149426
 20
90.53038978184458
 30
0.0
 10
185.0473007917569
 20
91.22990884533613
 30
0.0
 10
185.2272195558552
 20
91.57849357333791
 30
0.0
 10
185.3051951062052
 20
91.72956778811361
 30
0.0
  0
LINE
  5
10D
330
1F
100
AcDbEntity
  8
0
  6
HIDDEN
 62
     7
370
    18
100
AcDbLine
 10
182.4911033642
 20
89.7459522183
 30
0.0
 11
185.3051951062
 21
89.7459522183
 31
0.0
  0
SPLINE
  5
10E
330
1F
100
AcDbEntity
  8
0
  6
HIDDEN
 62
     7
370
    18
100
AcDbSpline
210
0.0
220
0.0
230
1.0
 70
     8
 71
     3
 72
    10
 73
     6
 74
     0
 42
0.000000001
 43
0.00000001
 40
0.0
 40
0.0
 40
0.0
 40
0.0
 40
0.4395944420415739
 40
0.7571239196827025
 40
1.0
 40
1.0
 40
1.0
 40
1.0
 10
185.3051951062053
 20
87.76233571725037
 30
0.0
 10
185.1723018571759
 20
88.04446740896707
 30
0.0
 10
184.9434166666871
 20
88.53038950413101
 30
0.0
 10
185.0473009445425
 20
89.22990861544768
 30
0.0
 10
185.2272195617178
 20
89.57849384671358
 30
0.0
 10
185.3051951062052
 20
89.72956839161064
 30
0.0
  0
LINE
  5
10F
330
1F
100
AcDbEntity
  8
0
  6
HIDDEN
 62
     7
370
    18
100
AcDbLine
 10
168.9051931631
 20
87.2459527399
 30
0.0
 11
168.9051931631
 21
92.2459526281
 31
0.0
  0
LINE
  5
110
330
1F
100
AcDbEntity
  8
0
  6
HIDDEN
 62
     7
370
    18
100
AcDbLine
 10
168.3051941823
 20
87.8459517206
 30
0.0
 11
168.3051941823
 21
91.645952716
 31
0.0
  0
LINE
  5
111
330
1F
100
AcDbEntity
  8
0
  6
HIDDEN
 62
     7
370
    18
100
AcDbLine
 10
172.8901436459
 20
87.2459527399
 30
0.0
 11
172.8901436459
 21
92.2459526281
 31
0.0
  0
SPLINE
  5
112
330
1F
100
AcDbEntity
  8
0
  6
HIDDEN
 62
     7
370
    18
100
AcDbSpline
210
0.0
220
0.0
230
1.0
 70
    24
 71
     3
 72
     9
 73
     5
 74
     0
 42
0.000000001
 43
0.00000001
 40
0.0
 40
0.0
 40
0.0
 40
0.0
 40
0.7720793451099097
 40
1.0
 40
1.0
 40
1.0
 40
1.0
 10
182.4911033641665
 20
87.74595189051773
 30
0.0
 10
182.3994422003603
 20
87.74595189051773
 30
0.0
 10
182.2807223247583
 20
87.74595189051773
 30
0.0
 10
182.3296812942895
 20
87.74595189051773
 30
0.0
 10
182.3408400546878
 20
87.74595189051773
 30
0.0
  0
SPLINE
  5
113
330
1F
100
AcDbEntity
  8
0
  6
HIDDEN
 62
     7
370
    18
100
AcDbSpline
210
0.0
220
0.0
230
1.0
 70
    24
 71
     3
 72
     9
 73
     5
 74
     0
 42
0.000000001
 43
0.00000001
 40
0.0
 40
0.0
 40
0.0
 40
0.0
 40
0.2279206548900903
 40
1.0
 40
1.0
 40
1.0
 40
1.0
 10
182.3408400546878
 20
91.74595254616882
 30
0.0
 10
182.3296812942895
 20
91.74595254616882
 30
0.0
 10
182.2807223247583
 20
91.74595254616882
 30
0.0
 10
182.3994422003603
 20
91.74595254616882
 30
0.0
 10
182.4911033641665
 20
91.74595254616882
 30
0.0
  0
SPLINE
  5
114
330
1F
100
AcDbEntity
  8
0
  6
HIDDEN
 62
     7
370
    18
100
AcDbSpline
210
0.0
220
0.0
230
1.0
 70
     8
 71
     3
 72
     9
 73
     5
 74
     0
 42
0.000000001
 43
0.00000001
 40
0.0
 40
0.0
 40
0.0
 40
0.0
 40
0.5371622518740843
 40
1.0
 40
1.0
 40
1.0
 40
1.0
 10
182.4911033641665
 20
89.74595221834328
 30
0.0
 10
182.3937865504489
 20
89.38683600234728
 30
0.0
 10
182.2126181727788
 20
88.71829271818487
 30
0.0
 10
182.40299143307
 20
88.05359779291865
 30
0.0
 10
182.4911033641665
 20
87.74595189051773
 30
0.0
  0
SPLINE
  5
115
330
1F
100
AcDbEntity
  8
0
  6
HIDDEN
 62
     7
370
    18
100
AcDbSpline
210
0.0
220
0.0
230
1.0
 70
     8
 71
     3
 72
     9
 73
     5
 74
     0
 42
0.000000001
 43
0.00000001
 40
0.0
 40
0.0
 40
0.0
 40
0.0
 40
0.5371622518740843
 40
1.0
 40
1.0
 40
1.0
 40
1.0
 10
182.4911033641665
 20
91.74595254616882
 30
0.0
 10
182.3937865504489
 20
91.38683633017284
 30
0.0
 10
182.2126181727788
 20
90.71829304601042
 30
0.0
 10
182.40299143307
 20
90.0535981207442
 30
0.0
 10
182.4911033641665
 20
89.74595221834328
 30
0.0
  0
LINE
  5
116
330
1F
100
AcDbEntity
  8
0
  6
HIDDEN
 62
     7
370
    18
100
AcDbLine
 10
182.4911033642
 20
91.7459525462
 30
0.0
 11
185.3051951062
 21
91.7459525462
 31
0.0
  0
LINE
  5
117
330
1F
100
AcDbEntity
  8
0
  6
HIDDEN
 62
     7
370
    18
100
AcDbLine
 10
182.4911033642
 20
87.7459518905
 30
0.0
 11
185.3051951062
 21
87.7459518905
 31
0.0
  0
LINE
  5
118
330
1F
100
AcDbEntity
  8
0
  6
HIDDEN
 62
     7
370
    18
100
AcDbLine
 10
178.8020787668
 20
120.745952643
 30
0.0
 11
178.8020787668
 21
128.745953023
 31
0.0
  0
LINE
  5
119
330
1F
100
AcDbEntity
  8
0
  6
HIDDEN
 62
     7
370
    18
100
AcDbLine
 10
175.3051934671
 20
121.245952725
 30
0.0
 11
175.3051934671
 21
128.2459520097
 31
0.0
  0
SPLINE
  5
11A
330
1F
100
AcDbEntity
  8
0
  6
HIDDEN
 62
     7
370
    18
100
AcDbSpline
210
0.0
220
0.0
230
1.0
 70
     8
 71
     3
 72
    10
 73
     6
 74
     0
 42
0.000000001
 43
0.00000001
 40
0.0
 40
0.0
 40
0.0
 40
0.0
 40
0.4395944420415739
 40
0.7571239196827025
 40
1.0
 40
1.0
 40
1.0
 40
1.0
 10
185.3051951062053
 20
124.7623361940875
 30
0.0
 10
185.1723018571759
 20
125.0444678858042
 30
0.0
 10
184.9434166666871
 20
125.5303899809682
 30
0.0
 10
185.0473009445425
 20
126.2299090922848
 30
0.0
 10
185.2272195617178
 20
126.5784943235507
 30
0.0
 10
185.3051951062052
 20
126.7295688684478
 30
0.0
  0
LINE
  5
11B
330
1F
100
AcDbEntity
  8
0
  6
HIDDEN
 62
     7
370
    18
100
AcDbLine
 10
182.4911033642
 20
124.7459523674
 30
0.0
 11
185.3051951062
 21
124.7459523674
 31
0.0
  0
SPLINE
  5
11C
330
1F
100
AcDbEntity
  8
0
  6
HIDDEN
 62
     7
370
    18
100
AcDbSpline
210
0.0
220
0.0
230
1.0
 70
     8
 71
     3
 72
    10
 73
     6
 74
     0
 42
0.000000001
 43
0.00000001
 40
0.0
 40
0.0
 40
0.0
 40
0.0
 40
0.4395942583827752
 40
0.7571238400861879
 40
1.0
 40
1.0
 40
1.0
 40
1.0
 10
185.3051951062053
 20
122.7623367975846
 30
0.0
 10
185.172301870173
 20
123.0444681541552
 30
0.0
 10
184.9434166305058
 20
123.5303898240181
 30
0.0
 10
185.0473009555629
 20
124.2299087736198
 30
0.0
 10
185.2272195650498
 20
124.5784939984949
 30
0.0
 10
185.3051951062052
 20
124.7295685406223
 30
0.0
  0
LINE
  5
11D
330
1F
100
AcDbEntity
  8
0
  6
HIDDEN
 62
     7
370
    18
100
AcDbLine
 10
172.8901436459
 20
122.2459519576
 30
0.0
 11
172.8901436459
 21
127.2459518458
 31
0.0
  0
LINE
  5
11E
330
1F
100
AcDbEntity
  8
0
  6
HIDDEN
 62
     7
370
    18
100
AcDbLine
 10
168.9051931631
 20
122.2459519576
 30
0.0
 11
168.9051931631
 21
127.2459518458
 31
0.0
  0
LINE
  5
11F
330
1F
100
AcDbEntity
  8
0
  6
HIDDEN
 62
     7
370
    18
100
AcDbLine
 10
168.3051941823
 20
122.8459518697
 30
0.0
 11
168.3051941823
 21
126.6459528651
 31
0.0
  0
SPLINE
  5
120
330
1F
100
AcDbEntity
  8
0
  6
HIDDEN
 62
     7
370
    18
100
AcDbSpline
210
0.0
220
0.0
230
1.0
 70
    24
 71
     3
 72
     9
 73
     5
 74
     0
 42
0.000000001
 43
0.00000001
 40
0.0
 40
0.0
 40
0.0
 40
0.0
 40
0.7720793451099097
 40
1.0
 40
1.0
 40
1.0
 40
1.0
 10
182.4911033641665
 20
122.7459520395293
 30
0.0
 10
182.3994422003603
 20
122.7459520395293
 30
0.0
 10
182.2807223247583
 20
122.7459520395294
 30
0.0
 10
182.3296812942895
 20
122.7459520395293
 30
0.0
 10
182.3408400546878
 20
122.7459520395293
 30
0.0
  0
SPLINE
  5
121
330
1F
100
AcDbEntity
  8
0
  6
HIDDEN
 62
     7
370
    18
100
AcDbSpline
210
0.0
220
0.0
230
1.0
 70
    24
 71
     3
 72
     9
 73
     5
 74
     0
 42
0.000000001
 43
0.00000001
 40
0.0
 40
0.0
 40
0.0
 40
0.0
 40
0.2279206548900903
 40
1.0
 40
1.0
 40
1.0
 40
1.0
 10
182.3408400546878
 20
126.7459526951804
 30
0.0
 10
182.3296812942895
 20
126.7459526951804
 30
0.0
 10
182.2807223247583
 20
126.7459526951804
 30
0.0
 10
182.3994422003603
 20
126.7459526951804
 30
0.0
 10
182.4911033641665
 20
126.7459526951804
 30
0.0
  0
SPLINE
  5
122
330
1F
100
AcDbEntity
  8
0
  6
HIDDEN
 62
     7
370
    18
100
AcDbSpline
210
0.0
220
0.0
230
1.0
 70
     8
 71
     3
 72
     9
 73
     5
 74
     0
 42
0.000000001
 43
0.00000001
 40
0.0
 40
0.0
 40
0.0
 40
0.0
 40
0.5371622518740843
 40
1.0
 40
1.0
 40
1.0
 40
1.0
 10
182.4911033641665
 20
124.7459523673549
 30
0.0
 10
182.3937865504489
 20
124.3868361513589
 30
0.0
 10
182.2126181727788
 20
123.7182928671965
 30
0.0
 10
182.40299143307
 20
123.0535979419303
 30
0.0
 10
182.4911033641665
 20
122.7459520395293
 30
0.0
  0
SPLINE
  5
123
330
1F
100
AcDbEntity
  8
0
  6
HIDDEN
 62
     7
370
    18
100
AcDbSpline
210
0.0
220
0.0
230
1.0
 70
     8
 71
     3
 72
     9
 73
     5
 74
     0
 42
0.000000001
 43
0.00000001
 40
0.0
 40
0.0
 40
0.0
 40
0.0
 40
0.5371622518740843
 40
1.0
 40
1.0
 40
1.0
 40
1.0
 10
182.4911033641665
 20
126.7459526951804
 30
0.0
 10
182.3937865504489
 20
126.3868364791844
 30
0.0
 10
182.2126181727788
 20
125.718293195022
 30
0.0
 10
182.40299143307
 20
125.0535982697558
 30
0.0
 10
182.4911033641665
 20
124.7459523673549
 30
0.0
  0
LINE
  5
124
330
1F
100
AcDbEntity
  8
0
  6
HIDDEN
 62
     7
370
    18
100
AcDbLine
 10
182.4911033642
 20
126.7459526952
 30
0.0
 11
185.3051951062
 21
126.7459526952
 31
0.0
  0
LINE
  5
125
330
1F
100
AcDbEntity
  8
0
  6
HIDDEN
 62
     7
370
    18
100
AcDbLine
 10
182.4911033642
 20
122.7459520395
 30
0.0
 11
185.3051951062
 21
122.7459520395
 31
0.0
  0
LINE
  5
126
330
1F
100
AcDbEntity
  8
0
  6
HIDDEN
 62
     7
370
    18
100
AcDbLine
 10
186.5331923496
 20
112.2459521811
 30
0.0
 11
186.5331923496
 21
102.2459524046
 31
0.0
  0
LINE
  5
127
330
1F
100
AcDbEntity
  8
0
  6
HIDDEN
 62
     7
370
    18
100
AcDbLine
 10
185.7051944267
 20
111.4179523955
 30
0.0
 11
185.7051944267
 21
103.0739521902
 31
0.0
  0
LINE
  5
128
330
1F
100
AcDbEntity
  8
0
  6
HIDDEN
 62
     7
370
    18
100
AcDbLine
 10
208.7051963341
 20
107.5396077885
 30
0.0
 11
208.7051963341
 21
105.2031523376
 31
0.0
  0
LINE
  5
129
330
1F
100
AcDbEntity
  8
0
  6
HIDDEN
 62
     7
370
    18
100
AcDbLine
 10
208.7051963341
 20
109.8760633557
 30
0.0
 11
208.7051963341
 21
107.5396077885
 31
0.0
  0
LINE
  5
12A
330
1F
100
AcDbEntity
  8
0
  6
HIDDEN
 62
     7
370
    18
100
AcDbLine
 10
208.7051963341
 20
105.2031523376
 30
0.0
 11
208.7051963341
 21
103.8880969226
 31
0.0
  0
LINE
  5
12B
330
1F
100
AcDbEntity
  8
0
  6
HIDDEN
 62
     7
370
    18
100
AcDbLine
 10
208.7051963341
 20
105.2031523376
 30
0.0
 11
213.7051915657
 21
105.2031523376
 31
0.0
  0
LINE
  5
12C
330
1F
100
AcDbEntity
  8
0
  6
HIDDEN
 62
     7
370
    18
100
AcDbLine
 10
208.7051963341
 20
109.8760633557
 30
0.0
 11
208.7051963341
 21
110.8974632169
 31
0.0
  0
LINE
  5
12D
330
1F
100
AcDbEntity
  8
0
  6
HIDDEN
 62
     7
370
    18
100
AcDbLine
 10
208.7051963341
 20
109.8760633557
 30
0.0
 11
213.7051915657
 21
109.8760633557
 31
0.0
  0
LINE
  5
12E
330
1F
100
AcDbEntity
  8
0
  6
HIDDEN
 62
     7
370
    18
100
AcDbLine
 10
208.7051963341
 20
103.8880969226
 30
0.0
 11
208.7051963341
 21
102.5730412747
 31
0.0
  0
LINE
  5
12F
330
1F
100
AcDbEntity
  8
0
  6
HIDDEN
 62
     7
370
    18
100
AcDbLine
 10
208.7051963341
 20
110.8974632169
 30
0.0
 11
208.7051963341
 21
111.918863311
 31
0.0
  0
LINE
  5
130
330
1F
100
AcDbEntity
  8
0
  6
HIDDEN
 62
     7
370
    18
100
AcDbLine
 10
208.7051963341
 20
104.6158412299
 30
0.0
 11
213.7051915657
 21
104.6158412299
 31
0.0
  0
LINE
  5
131
330
1F
100
AcDbEntity
  8
0
  6
HIDDEN
 62
     7
370
    18
100
AcDbLine
 10
208.7051963341
 20
102.5730412747
 30
0.0
 11
213.7051915657
 21
102.5730412747
 31
0.0
  0
LINE
  5
132
330
1F
100
AcDbEntity
  8
0
  6
HIDDEN
 62
     7
370
    18
100
AcDbLine
 10
208.7051963341
 20
109.2887522481
 30
0.0
 11
213.7051915657
 21
109.2887522481
 31
0.0
  0
LINE
  5
133
330
1F
100
AcDbEntity
  8
0
  6
HIDDEN
 62
     7
370
    18
100
AcDbLine
 10
208.7051963341
 20
111.918863311
 30
0.0
 11
213.7051915657
 21
111.918863311
 31
0.0
  0
LINE
  5
134
330
1F
100
AcDbEntity
  8
0
  6
HIDDEN
 62
     7
370
    18
100
AcDbLine
 10
134.3132622447
 20
131.704641908
 30
0.0
 11
134.3132622447
 21
127.0959530319
 31
0.0
  0
ARC
  5
135
330
1F
100
AcDbEntity
  8
0
  6
HIDDEN
 62
     7
370
    18
100
AcDbCircle
 10
127.9896106159
 20
119.7402211385
 30
0.0
 40
3.67537501674583
100
AcDbArc
 50
265.5617826958
 51
12.2499582922
  0
ARC
  5
136
330
1F
100
AcDbEntity
  8
0
  6
HIDDEN
 62
     7
370
    18
100
AcDbCircle
 10
127.4055083652
 20
119.7255184499
 30
0.0
 40
3.661934734973016
100
AcDbArc
 50
167.0409358657
 51
274.6942436061
  0
LINE
  5
137
330
1F
100
AcDbEntity
  8
0
  6
HIDDEN
 62
     7
370
    18
100
AcDbLine
 10
107.7003452834
 20
83.721353143
 30
0.0
 11
107.451480059
 21
83.6980905678
 31
0.0
  0
LINE
  5
138
330
1F
100
AcDbEntity
  8
0
  6
HIDDEN
 62
     7
370
    18
100
AcDbLine
 10
107.318919329
 20
130.8060385581
 30
0.0
 11
107.7002521511
 21
130.7705346789
 31
0.0
  0
LINE
  5
139
330
1F
100
AcDbEntity
  8
0
  6
HIDDEN
 62
     7
370
    18
100
AcDbLine
 10
156.4375853073
 20
91.1563098724
 30
0.0
 11
156.166928066
 21
90.4501699205
 31
0.0
  0
LINE
  5
13A
330
1F
100
AcDbEntity
  8
0
  6
HIDDEN
 62
     7
370
    18
100
AcDbLine
 10
157.2016311716
 20
91.8948300477
 30
0.0
 11
156.9631045591
 21
91.7503912296
 31
0.0
  0
LINE
  5
13B
330
1F
100
AcDbEntity
  8
0
  6
HIDDEN
 62
     7
370
    18
100
AcDbLine
 10
156.1551934015
 20
124.2165141101
 30
0.0
 11
156.1727991235
 21
124.1425652351
 31
0.0
  0
LINE
  5
13C
330
1F
100
AcDbEntity
  8
0
  6
HIDDEN
 62
     7
370
    18
100
AcDbLine
 10
157.317822976
 20
125.7467180784
 30
0.0
 11
156.6989628505
 21
125.3538377877
 31
0.0
  0
SPLINE
  5
13D
330
1F
100
AcDbEntity
  8
0
  6
HIDDEN
 62
     7
370
    18
100
AcDbSpline
210
0.0
220
0.0
230
1.0
 70
     8
 71
     3
 72
     9
 73
     5
 74
     0
 42
0.000000001
 43
0.00000001
 40
0.0
 40
0.0
 40
0.0
 40
0.0
 40
0.0937356904062105
 40
1.0
 40
1.0
 40
1.0
 40
1.0
 10
156.250385744509
 20
124.6881861533418
 30
0.0
 10
156.2414303392827
 20
124.6750415627653
 30
0.0
 10
156.145891434224
 20
124.5348111924604
 30
0.0
 10
156.1507711181385
 20
124.3678369272858
 30
0.0
 10
156.1551934015124
 20
124.2165141101375
 30
0.0
  0
SPLINE
  5
13E
330
1F
100
AcDbEntity
  8
0
  6
HIDDEN
 62
     7
370
    18
100
AcDbSpline
210
0.0
220
0.0
230
1.0
 70
     8
 71
     3
 72
    10
 73
     6
 74
     0
 42
0.000000001
 43
0.00000001
 40
0.0
 40
0.0
 40
0.0
 40
0.0
 40
0.4476554284144124
 40
0.895294195807513
 40
0.9999999999999999
 40
0.9999999999999999
 40
0.9999999999999999
 40
0.9999999999999999
 10
113.4601968247562
 20
127.0834807600274
 30
0.0
 10
113.7068981285362
 20
127.1129923260759
 30
0.0
 10
114.2002915542669
 20
127.1720143597993
 30
0.0
 10
114.4893024305874
 20
127.1859563615812
 30
0.0
 10
114.4289720286161
 20
127.1820666016182
 30
0.0
 10
114.4175354298322
 20
127.1813292350068
 30
0.0
  0
SPLINE
  5
13F
330
1F
100
AcDbEntity
  8
0
  6
HIDDEN
 62
     7
370
    18
100
AcDbSpline
210
0.0
220
0.0
230
1.0
 70
     8
 71
     3
 72
    10
 73
     6
 74
     0
 42
0.000000001
 43
0.00000001
 40
0.0
 40
0.0
 40
0.0
 40
0.0
 40
0.345641939352726
 40
0.7967489818030492
 40
0.9999999999999999
 40
0.9999999999999999
 40
0.9999999999999999
 40
0.9999999999999999
 10
114.4175368268161
 20
87.31057535069134
 30
0.0
 10
114.4079771048229
 20
87.31113050904565
 30
0.0
 10
114.3859407200641
 20
87.31241022022412
 30
0.0
 10
113.9689275098615
 20
87.34237448315726
 30
0.0
 10
113.5807646129086
 20
87.39277031121028
 30
0.0
 10
113.4601968247562
 20
87.40842382567074
 30
0.0
  0
SPLINE
  5
140
330
1F
100
AcDbEntity
  8
0
  6
HIDDEN
 62
     7
370
    18
100
AcDbSpline
210
0.0
220
0.0
230
1.0
 70
     8
 71
     3
 72
    16
 73
    12
 74
     0
 42
0.000000001
 43
0.00000001
 40
0.0
 40
0.0
 40
0.0
 40
0.0
 40
0.1188855756023737
 40
0.2378178972910265
 40
0.3554311277165009
 40
0.4719213156714732
 40
0.5896186387851367
 40
0.7089803086358631
 40
0.8278928966069659
 40
0.9449743365945668
 40
1.0
 40
1.0
 40
1.0
 40
1.0
 10
113.4601968247562
 20
87.40842382567074
 30
0.0
 10
113.1441675446221
 20
87.44877935321063
 30
0.0
 10
112.5119847209022
 20
87.52950627617822
 30
0.0
 10
111.2776355537359
 20
87.60603124200055
 30
0.0
 10
110.0076104948582
 20
87.60147677736528
 30
0.0
 10
108.8164674437087
 20
87.52022219156756
 30
0.0
 10
107.83311191882
 20
87.39755955407803
 30
0.0
 10
107.1567167457283
 20
87.28459414528893
 30
0.0
 10
106.900833088781
 20
87.23467936729608
 30
0.0
 10
106.9796336166783
 20
87.25316187949748
 30
0.0
 10
107.2728133783152
 20
87.30167952344961
 30
0.0
 10
107.3665480967729
 20
87.3171914662614
 30
0.0
  0
SPLINE
  5
141
330
1F
100
AcDbEntity
  8
0
  6
HIDDEN
 62
     7
370
    18
100
AcDbSpline
210
0.0
220
0.0
230
1.0
 70
     8
 71
     3
 72
    15
 73
    11
 74
     0
 42
0.000000001
 43
0.00000001
 40
0.0
 40
0.0
 40
0.0
 40
0.0
 40
0.1201202497733958
 40
0.2584739452442804
 40
0.3987302041697883
 40
0.5404022600041716
 40
0.680739511736143
 40
0.8190355942651634
 40
0.9577823154231621
 40
1.0
 40
1.0
 40
1.0
 40
1.0
 10
106.9793023076027
 20
127.2415112997785
 30
0.0
 10
107.0000115564062
 20
127.2374867957042
 30
0.0
 10
107.0445735786412
 20
127.2288268949156
 30
0.0
 10
107.6070130483696
 20
127.1295339762044
 30
0.0
 10
108.5004753038168
 20
127.0056179644931
 30
0.0
 10
109.659454127669
 20
126.9059065889595
 30
0.0
 10
110.9324909964888
 20
126.8787695312614
 30
0.0
 10
112.1667763432159
 20
126.9341068933915
 30
0.0
 10
112.9947394209117
 20
127.0205866291829
 30
0.0
 10
113.372149733558
 20
127.0715835483201
 30
0.0
 10
113.4601968247562
 20
127.0834807600274
 30
0.0
  0
LINE
  5
142
330
1F
100
AcDbEntity
  8
0
  6
HIDDEN
 62
     7
370
    18
100
AcDbLine
 10
100.70917028
 20
90.245951369
 30
0.0
 11
100.70917028
 21
124.2459532167
 31
0.0
  0
LWPOLYLINE
  5
143
330
1F
100
AcDbEntity
  8
0
  6
HIDDEN
 62
     7
370
    18
100
AcDbPolyline
 90
       14
 70
   128
 43
0.0
 10
127.7051951643
 20
129.1915554847
 10
128.5103887227
 20
129.2324945624
 10
129.2826181185
 20
129.3536391403
 10
129.9902677443
 20
129.5500271316
 10
130.6043660175
 20
129.8136212225
 10
131.0997718852
 20
130.1336273845
 10
131.4562030044
 20
130.4969437714
 10
131.6590683442
 20
130.8886990245
 10
131.7000605073
 20
131.2928539063
 10
131.5775031131
 20
131.6928606774
 10
131.2964131963
 20
132.0723429616
 10
130.8682981786
 20
132.4157662983
 10
130.3106846195
 20
132.7090714421
 10
130.0704983901
 20
132.8044202472
  0
LWPOLYLINE
  5
144
330
1F
100
AcDbEntity
  8
0
  6
HIDDEN
 62
     7
370
    18
100
AcDbPolyline
 90
       14
 70
   128
 43
0.0
 10
125.3345633764
 20
132.8024626072
 10
125.0997047778
 20
132.7090714421
 10
124.5420916844
 20
132.4157662983
 10
124.1139766667
 20
132.0723429616
 10
123.8328862842
 20
131.6928606774
 10
123.71032889
 20
131.2928539063
 10
123.7513215188
 20
130.8886990245
 10
123.954186393
 20
130.4969437714
 10
124.3106179778
 20
130.1336273845
 10
124.8060238455
 20
129.8136212225
 10
125.4201221187
 20
129.5500271316
 10
126.1277712789
 20
129.3536391403
 10
126.9000006747
 20
129.2324945624
 10
127.7051951643
 20
129.1915554847
  0
LWPOLYLINE
  5
145
330
1F
100
AcDbEntity
  8
0
  6
HIDDEN
 62
     7
370
    18
100
AcDbPolyline
 90
       26
 70
   128
 43
0.0
 10
159.6551930439
 20
112.54925321
 10
160.2769179177
 20
112.6047907691
 10
160.8595793974
 20
112.7679142463
 10
161.3665616047
 20
113.0283735055
 10
161.7660133075
 20
113.3698033463
 10
162.0328372251
 20
113.7707502875
 10
162.1502621006
 20
114.2060211222
 10
162.1109118592
 20
114.6482666317
 10
161.9172638189
 20
115.0696989443
 10
161.5814773273
 20
115.4438372995
 10
161.1246561539
 20
115.7471737187
 10
160.5755073857
 20
115.9606486853
 10
159.9685272109
 20
116.0708474289
 10
159.3418626022
 20
116.0708474289
 10
158.7348824274
 20
115.9606486853
 10
158.1857299339
 20
115.7471737187
 10
157.7289124858
 20
115.4438372995
 10
157.3931259941
 20
115.0696989443
 10
157.1994779538
 20
114.6482666317
 10
157.1601277124
 20
114.2060211222
 10
157.2775525879
 20
113.7707502875
 10
157.5443765056
 20
113.3698033463
 10
157.9438282084
 20
113.0283735055
 10
158.4508104157
 20
112.7679142463
 10
159.0334718954
 20
112.6047907691
 10
159.6551930439
 20
112.54925321
  0
LWPOLYLINE
  5
146
330
1F
100
AcDbEntity
  8
0
  6
HIDDEN
 62
     7
370
    18
100
AcDbPolyline
 90
       26
 70
   128
 43
0.0
 10
159.6551930439
 20
98.4071171205
 10
160.2769179177
 20
98.4626556109
 10
160.8595793974
 20
98.6257786225
 10
161.3665616047
 20
98.8862378816
 10
161.7660133075
 20
99.2276672568
 10
162.0328372251
 20
99.6286146637
 10
162.1502621006
 20
100.0638854984
 10
162.1109118592
 20
100.5061310078
 10
161.9172638189
 20
100.9275628548
 10
161.5814773273
 20
101.3017016757
 10
161.1246561539
 20
101.6050380948
 10
160.5755073857
 20
101.8185125958
 10
159.9685272109
 20
101.9287122707
 10
159.3418626022
 20
101.9287122707
 10
158.7348824274
 20
101.8185125958
 10
158.1857299339
 20
101.6050380948
 10
157.7289124858
 20
101.3017016757
 10
157.3931259941
 20
100.9275628548
 10
157.1994779538
 20
100.5061310078
 10
157.1601277124
 20
100.0638854984
 10
157.2775525879
 20
99.6286146637
 10
157.5443765056
 20
99.2276672568
 10
157.9438282084
 20
98.8862378816
 10
158.4508104157
 20
98.6257786225
 10
159.0334718954
 20
98.4626556109
 10
159.6551930439
 20
98.4071171205
  0
SPLINE
  5
147
330
1F
100
AcDbEntity
  8
0
  6
HIDDEN
 62
     7
370
    18
100
AcDbSpline
210
0.0
220
0.0
230
1.0
 70
     8
 71
     3
 72
    11
 73
     7
 74
     0
 42
0.000000001
 43
0.00000001
 40
0.0
 40
0.0
 40
0.0
 40
0.0
 40
0.0005779865010845
 40
0.0005779865010845
 40
0.0005779865010845
 40
0.0011559733324421
 40
0.0011559733324421
 40
0.0011559733324421
 40
0.0011559733324421
 10
87.80519478434017
 20
109.2457929010029
 30
0.0
 10
87.97186203914615
 20
109.2438092616619
 30
0.0
 10
88.13852846882381
 20
109.2417716546593
 30
0.0
 10
88.30519480727564
 20
109.2396601912529
 30
0.0
 10
88.47186123610204
 20
109.2375487267016
 30
0.0
 10
88.63852760973973
 20
109.2353631635452
 30
0.0
 10
88.80519478434016
 20
109.2330805862136
 30
0.0
  0
SPLINE
  5
148
330
1F
100
AcDbEntity
  8
0
  6
HIDDEN
 62
     7
370
    18
100
AcDbSpline
210
0.0
220
0.0
230
1.0
 70
     8
 71
     3
 72
     8
 73
     4
 74
     0
 42
0.000000001
 43
0.00000001
 40
0.0
 40
0.0
 40
0.0
 40
0.0
 40
0.0011564765856722
 40
0.0011564765856722
 40
0.0011564765856722
 40
0.0011564765856722
 10
88.80519478434016
 20
105.2492519906328
 30
0.0
 10
88.47188685377132
 20
105.2483768350495
 30
0.0
 10
88.13855162137912
 20
105.247321983798
 30
0.0
 10
87.80519478434017
 20
105.2461508967605
 30
0.0
  0
LINE
  5
149
330
1F
100
AcDbEntity
  8
0
  6
HIDDEN
 62
     7
370
    18
100
AcDbLine
 10
127.3650207464
 20
90.245951369
 30
0.0
 11
127.3650207464
 21
124.2459532167
 31
0.0
  0
LINE
  5
14A
330
1F
100
AcDbEntity
  8
0
  6
HIDDEN
 62
     7
370
    18
100
AcDbLine
 10
129.6551946458
 20
91.5209524627
 30
0.0
 11
129.6551946458
 21
122.970952123
 31
0.0
  0
SPLINE
  5
14B
330
1F
100
AcDbEntity
  8
0
  6
HIDDEN
 62
     7
370
    18
100
AcDbSpline
210
0.0
220
0.0
230
1.0
 70
     8
 71
     3
 72
    16
 73
    12
 74
     0
 42
0.000000001
 43
0.00000001
 40
0.0
 40
0.0
 40
0.0
 40
0.0
 40
0.124999999999998
 40
0.124999999999998
 40
0.249999999999996
 40
0.249999999999996
 40
0.4999999999999973
 40
0.4999999999999973
 40
0.7499999999999987
 40
0.7499999999999987
 40
1.0
 40
1.0
 40
1.0
 40
1.0
 10
96.50519478434016
 20
91.44446185681743
 30
0.0
 10
96.600316539006
 20
91.44446185681743
 30
0.0
 10
96.69364660773408
 20
91.44064602342462
 30
0.0
 10
96.87690836847207
 20
91.4258754706948
 30
0.0
 10
96.96778608402909
 20
91.41471742271922
 30
0.0
 10
97.22458778154882
 20
91.37224615257752
 30
0.0
 10
97.37965514642082
 20
91.33119995537471
 30
0.0
 10
97.63340160797543
 20
91.23605383879283
 30
0.0
 10
97.7342720596433
 20
91.18129110471124
 30
0.0
 10
97.86951847433814
 20
91.07002998080738
 30
0.0
 10
97.90519478434018
 20
91.01286024347868
 30
0.0
 10
97.90519478434018
 20
90.95843867044495
 30
0.0
  0
SPLINE
  5
14C
330
1F
100
AcDbEntity
  8
0
  6
HIDDEN
 62
     7
370
    18
100
AcDbSpline
210
0.0
220
0.0
230
1.0
 70
     8
 71
     3
 72
     8
 73
     4
 74
     0
 42
0.000000001
 43
0.00000001
 40
0.0
 40
0.0
 40
0.0
 40
0.0
 40
1.0
 40
1.0
 40
1.0
 40
1.0
 10
89.10519478765536
 20
93.58926480289966
 30
0.0
 10
89.1051947876573
 20
92.70536766058274
 30
0.0
 10
89.09171416174749
 20
91.99078441552079
 30
0.0
 10
89.0903627935582
 20
91.44446185681743
 30
0.0
  0
SPLINE
  5
14D
330
1F
100
AcDbEntity
  8
0
  6
HIDDEN
 62
     7
370
    18
100
AcDbSpline
210
0.0
220
0.0
230
1.0
 70
     8
 71
     3
 72
    10
 73
     6
 74
     0
 42
0.000000001
 43
0.00000001
 40
0.0
 40
0.0
 40
0.0
 40
0.0
 40
0.5
 40
0.5
 40
1.0
 40
1.0
 40
1.0
 40
1.0
 10
88.80519478434016
 20
94.61417506860286
 30
0.0
 10
88.89658590003307
 20
94.43953628098545
 30
0.0
 10
88.96923773376614
 20
94.26593445372987
 30
0.0
 10
89.07673662677429
 20
93.92232103472315
 30
0.0
 10
89.10519478764974
 20
93.75399520819171
 30
0.0
 10
89.10519478765536
 20
93.58926480295915
 30
0.0
  0
LINE
  5
14E
330
1F
100
AcDbEntity
  8
0
  6
HIDDEN
 62
     7
370
    18
100
AcDbLine
 10
88.8051951211
 20
97.6451257537
 30
0.0
 11
88.8051951211
 21
94.6141746189
 31
0.0
  0
SPLINE
  5
14F
330
1F
100
AcDbEntity
  8
0
  6
HIDDEN
 62
     7
370
    18
100
AcDbSpline
210
0.0
220
0.0
230
1.0
 70
     8
 71
     3
 72
    10
 73
     6
 74
     0
 42
0.000000001
 43
0.00000001
 40
0.0
 40
0.0
 40
0.0
 40
0.0
 40
0.5
 40
0.5
 40
1.0
 40
1.0
 40
1.0
 40
1.0
 10
89.10519478752789
 20
99.01296591720624
 30
0.0
 10
89.10519478752786
 20
98.77098194959943
 30
0.0
 10
89.07704475845728
 20
98.53663952063444
 30
0.0
 10
88.97345484431487
 20
98.08126449835675
 30
0.0
 10
88.89682613472338
 20
97.85965993524938
 30
0.0
 10
88.80519478434017
 20
97.64512550045144
 30
0.0
  0
LINE
  5
150
330
1F
100
AcDbEntity
  8
0
  6
HIDDEN
 62
     7
370
    18
100
AcDbLine
 10
89.1051946115
 20
110.8505860265
 30
0.0
 11
89.1051946115
 21
99.0129657383
 31
0.0
  0
SPLINE
  5
151
330
1F
100
AcDbEntity
  8
0
  6
HIDDEN
 62
     7
370
    18
100
AcDbSpline
210
0.0
220
0.0
230
1.0
 70
     8
 71
     3
 72
     8
 73
     4
 74
     0
 42
0.000000001
 43
0.00000001
 40
0.0
 40
0.0
 40
0.0
 40
0.0
 40
1.0
 40
1.0
 40
1.0
 40
1.0
 10
88.80519478434016
 20
116.8528916139174
 30
0.0
 10
88.98622625089908
 20
116.4207841282547
 30
0.0
 10
89.10519478753359
 20
115.9666387221551
 30
0.0
 10
89.1051947875279
 20
115.478938668461
 30
0.0
  0
LINE
  5
152
330
1F
100
AcDbEntity
  8
0
  6
HIDDEN
 62
     7
370
    18
100
AcDbLine
 10
88.8051951211
 20
119.8860941749
 30
0.0
 11
88.8051951211
 21
116.8528920333
 31
0.0
  0
SPLINE
  5
153
330
1F
100
AcDbEntity
  8
0
  6
HIDDEN
 62
     7
370
    18
100
AcDbSpline
210
0.0
220
0.0
230
1.0
 70
     8
 71
     3
 72
    10
 73
     6
 74
     0
 42
0.000000001
 43
0.00000001
 40
0.0
 40
0.0
 40
0.0
 40
0.0
 40
0.5
 40
0.5
 40
1.0
 40
1.0
 40
1.0
 40
1.0
 10
89.10519478773338
 20
120.9026397827689
 30
0.0
 10
89.10519478773159
 20
120.7380034361629
 30
0.0
 10
89.0780361169761
 20
120.5708482123324
 30
0.0
 10
88.97227112165766
 20
120.2322252045308
 30
0.0
 10
88.89585633336053
 20
120.0599534272398
 30
0.0
 10
88.80519478434019
 20
119.8860945998958
 30
0.0
  0
SPLINE
  5
154
330
1F
100
AcDbEntity
  8
0
  6
HIDDEN
 62
     7
370
    18
100
AcDbSpline
210
0.0
220
0.0
230
1.0
 70
     8
 71
     3
 72
    18
 73
    14
 74
     0
 42
0.000000001
 43
0.00000001
 40
0.0
 40
0.0
 40
0.0
 40
0.0
 40
0.2500000000000033
 40
0.2500000000000033
 40
0.3750000000000029
 40
0.3750000000000029
 40
0.5000000000000026
 40
0.5000000000000026
 40
0.6250000000000022
 40
0.6250000000000022
 40
0.7500000000000018
 40
0.7500000000000018
 40
1.0
 40
1.0
 40
1.0
 40
1.0
 10
93.90519478434017
 20
123.5334659152532
 30
0.0
 10
93.90519478434015
 20
123.478991394701
 30
0.0
 10
93.870284092948
 20
123.4226103353485
 30
0.0
 10
93.76827479161496
 20
123.338533494495
 30
0.0
 10
93.72663843693684
 20
123.3111997905041
 30
0.0
 10
93.6282326414481
 20
123.2582458749052
 30
0.0
 10
93.57068942974381
 20
123.232358521188
 30
0.0
 10
93.44339125617086
 20
123.1845809763547
 30
0.0
 10
93.37380395141338
 20
123.1626330581768
 30
0.0
 10
93.22236970625843
 20
123.1232004932641
 30
0.0
 10
93.13968580316448
 20
123.1056442440383
 30
0.0
 10
92.88357434112643
 20
123.0632054786177
 30
0.0
 10
92.69565933723844
 20
123.0474427288807
 30
0.0
 10
92.50519478434018
 20
123.0474427288807
 30
0.0
  0
LINE
  5
155
330
1F
100
AcDbEntity
  8
0
  6
HIDDEN
 62
     7
370
    18
100
AcDbLine
 10
92.5051944237
 20
123.0474435087
 30
0.0
 11
89.1051946115
 21
123.0474435087
 31
0.0
  0
LINE
  5
156
330
1F
100
AcDbEntity
  8
0
  6
HIDDEN
 62
     7
370
    18
100
AcDbLine
 10
89.0362264495
 20
91.444461077
 30
0.0
 11
96.5051950794
 21
91.444461077
 31
0.0
  0
SPLINE
  5
157
330
1F
100
AcDbEntity
  8
0
  6
HIDDEN
 62
     7
370
    18
100
AcDbSpline
210
0.0
220
0.0
230
1.0
 70
     8
 71
     3
 72
    22
 73
    18
 74
     0
 42
0.000000001
 43
0.00000001
 40
0.0
 40
0.0
 40
0.0
 40
0.0
 40
0.1249999999999998
 40
0.1249999999999998
 40
0.2499999999999995
 40
0.2499999999999995
 40
0.4999999999999992
 40
0.4999999999999992
 40
0.5624999999999993
 40
0.5624999999999993
 40
0.6249999999999994
 40
0.6249999999999994
 40
0.7499999999999996
 40
0.7499999999999996
 40
0.8749999999999998
 40
0.8749999999999998
 40
1.0
 40
1.0
 40
1.0
 40
1.0
 10
89.0362257976981
 20
91.44446185681743
 30
0.0
 10
89.02314340496973
 20
91.6995675669651
 30
0.0
 10
89.0099238415299
 20
91.992725826069
 30
0.0
 10
88.98747666373578
 20
92.65502629169382
 30
0.0
 10
88.9779981967113
 20
93.0253002123052
 30
0.0
 10
88.95880023577475
 20
94.24785701541899
 30
0.0
 10
88.95991400877163
 20
95.18499594155085
 30
0.0
 10
88.97882480172473
 20
96.50486717106584
 30
0.0
 10
88.98345432958372
 20
96.77636908004216
 30
0.0
 10
88.99393554932968
 20
97.33475391484446
 30
0.0
 10
88.9997308106141
 20
97.62187677078406
 30
0.0
 10
89.01804003151904
 20
98.49446602515575
 30
0.0
 10
89.0320749657994
 20
99.0949217015116
 30
0.0
 10
89.06153213793621
 20
100.3323961940077
 30
0.0
 10
89.0770878289178
 20
100.9694123506511
 30
0.0
 10
89.10088237891469
 20
102.2809009483357
 30
0.0
 10
89.10890143106003
 20
102.9570235599962
 30
0.0
 10
89.10519478434017
 20
103.641318671281
 30
0.0
  0
LINE
  5
158
330
1F
100
AcDbEntity
  8
0
  6
HIDDEN
 62
     7
370
    18
100
AcDbLine
 10
89.1051946115
 20
110.8505860265
 30
0.0
 11
89.1051946115
 21
123.0474435087
 31
0.0
  0
SPLINE
  5
159
330
1F
100
AcDbEntity
  8
0
  6
HIDDEN
 62
     7
370
    18
100
AcDbSpline
210
0.0
220
0.0
230
1.0
 70
     8
 71
     3
 72
    10
 73
     6
 74
     0
 42
0.000000001
 43
0.00000001
 40
0.0
 40
0.0
 40
0.0
 40
0.0
 40
0.5
 40
0.5
 40
1.0
 40
1.0
 40
1.0
 40
1.0
 10
89.10519478434017
 20
103.6413186712659
 30
0.0
 10
89.10519478434
 20
103.9152338193403
 30
0.0
 10
89.07943555447227
 20
104.1861753980703
 30
0.0
 10
88.97622962173915
 20
104.7218664796732
 30
0.0
 10
88.89889145786393
 20
104.9876132831952
 30
0.0
 10
88.80519478434016
 20
105.2492519906328
 30
0.0
  0
SPLINE
  5
15A
330
1F
100
AcDbEntity
  8
0
  6
HIDDEN
 62
     7
370
    18
100
AcDbSpline
210
0.0
220
0.0
230
1.0
 70
     8
 71
     3
 72
    10
 73
     6
 74
     0
 42
0.000000001
 43
0.00000001
 40
0.0
 40
0.0
 40
0.0
 40
0.0
 40
0.5
 40
0.5
 40
1.0
 40
1.0
 40
1.0
 40
1.0
 10
88.80519478434016
 20
109.2330805862136
 30
0.0
 10
88.89842536573119
 20
109.4969743942837
 30
0.0
 10
88.97345497796793
 20
109.763154704922
 30
0.0
 10
89.07852207714603
 20
110.3014772798802
 30
0.0
 10
89.10519478773227
 20
110.5742253961257
 30
0.0
 10
89.10519478773345
 20
110.8505859144162
 30
0.0
  0
LINE
  5
15B
330
1F
100
AcDbEntity
  8
0
  6
HIDDEN
 62
     7
370
    18
100
AcDbLine
 10
88.8051951211
 20
105.2492521066
 30
0.0
 11
88.8051951211
 21
109.2330805785
 31
0.0
  0
LINE
  5
15C
330
1F
100
AcDbEntity
  8
0
  6
HIDDEN
 62
     7
370
    18
100
AcDbLine
 10
88.955193935
 20
89.2559517469
 30
0.0
 11
88.955193935
 21
86.3760136362
 31
0.0
  0
LINE
  5
15D
330
1F
100
AcDbEntity
  8
0
  6
HIDDEN
 62
     7
370
    18
100
AcDbLine
 10
97.9051945638
 20
89.2559517469
 30
0.0
 11
97.9051945638
 21
85.2822143878
 31
0.0
  0
LINE
  5
15E
330
1F
100
AcDbEntity
  8
0
  6
HIDDEN
 62
     7
370
    18
100
AcDbLine
 10
88.955193935
 20
125.2359528388
 30
0.0
 11
88.955193935
 21
128.1158909495
 31
0.0
  0
LINE
  5
15F
330
1F
100
AcDbEntity
  8
0
  6
HIDDEN
 62
     7
370
    18
100
AcDbLine
 10
93.9051939082
 20
125.2359528388
 30
0.0
 11
93.9051939082
 21
129.0900599505
 31
0.0
  0
LINE
  5
160
330
1F
100
AcDbEntity
  8
0
  6
HIDDEN
 62
     7
370
    18
100
AcDbLine
 10
141.5051950049
 20
97.7459525983
 30
0.0
 11
141.5051950049
 21
116.7459519874
 31
0.0
  0
LINE
  5
161
330
1F
100
AcDbEntity
  8
0
  6
HIDDEN
 62
     7
370
    18
100
AcDbLine
 10
138.5051945131
 20
97.7459525983
 30
0.0
 11
138.5051945131
 21
116.7459519874
 31
0.0
  0
LINE
  5
162
330
1F
100
AcDbEntity
  8
0
  6
HIDDEN
 62
     7
370
    18
100
AcDbLine
 10
130.1551947277
 20
98.7459518309
 30
0.0
 11
130.1551947277
 21
115.7459527548
 31
0.0
  0
LINE
  5
163
330
1F
100
AcDbEntity
  8
0
  6
HIDDEN
 62
     7
370
    18
100
AcDbLine
 10
124.6551947575
 20
75.7618289735
 30
0.0
 11
124.6551947575
 21
80.8459524359
 31
0.0
  0
LINE
  5
164
330
1F
100
AcDbEntity
  8
0
  6
HIDDEN
 62
     7
370
    18
100
AcDbLine
 10
132.6551951375
 20
80.8459524359
 30
0.0
 11
124.6551947575
 21
80.8459524359
 31
0.0
  0
LINE
  5
165
330
1F
100
AcDbEntity
  8
0
  6
HIDDEN
 62
     7
370
    18
100
AcDbLine
 10
145.6551944744
 20
80.8459524359
 30
0.0
 11
139.5175198
 21
80.8459524359
 31
0.0
  0
LINE
  5
166
330
1F
100
AcDbEntity
  8
0
  6
HIDDEN
 62
     7
370
    18
100
AcDbLine
 10
135.8928700816
 20
80.8459524359
 30
0.0
 11
132.6551951375
 21
80.8459524359
 31
0.0
  0
ELLIPSE
  5
167
330
1F
100
AcDbEntity
  8
0
  6
HIDDEN
 62
     7
370
    18
100
AcDbEllipse
 10
170.7051947843
 20
101.5007096957
 30
0.0
 11
-1.524401228643626
 21
1.524401228643626
 31
0.0
210
0.0
220
0.0
230
1.0
 40
0.4142135624
 41
1.96349540849362
 42
5.105088062083423
  0
ELLIPSE
  5
168
330
1F
100
AcDbEntity
  8
0
  6
HIDDEN
 62
     7
370
    18
100
AcDbEllipse
 10
170.7051947843
 20
101.5007096957
 30
0.0
 11
1.524401228643598
 21
1.524401228643626
 31
0.0
210
0.0
220
0.0
230
1.0
 40
0.4142135624
 41
1.178097245096159
 42
4.319689898685962
  0
LWPOLYLINE
  5
169
330
1F
100
AcDbEntity
  8
0
  6
HIDDEN
 62
     7
370
    18
100
AcDbPolyline
 90
       21
 70
   128
 43
0.0
 10
170.7051938307
 20
98.3010515864
 10
171.2150743138
 20
98.3581546988
 10
171.6750396323
 20
98.5238761004
 10
172.040073378
 20
98.7819930832
 10
172.2744388413
 20
99.1072397973
 10
172.3551956844
 20
99.4677775833
 10
172.2744388413
 20
99.828315835
 10
172.040073378
 20
100.1535620834
 10
171.6750396323
 20
100.4116790663
 10
171.2150743138
 20
100.5774004679
 10
170.7051938307
 20
100.6345040459
 10
170.1953170728
 20
100.5774004679
 10
169.7353480291
 20
100.4116790663
 10
169.3703180086
 20
100.1535620834
 10
169.1359525453
 20
99.828315835
 10
169.0551957023
 20
99.4677775833
 10
169.1359525453
 20
99.1072397973
 10
169.3703180086
 20
98.7819930832
 10
169.7353480291
 20
98.5238761004
 10
170.1953170728
 20
98.3581546988
 10
170.7051938307
 20
98.3010515864
  0
LINE
  5
16A
330
1F
100
AcDbEntity
  8
0
  6
HIDDEN
 62
     7
370
    18
100
AcDbLine
 10
136.1894925963
 20
133.6459521498
 30
0.0
 11
132.6551951375
 21
133.6459521498
 31
0.0
  0
LINE
  5
16B
330
1F
100
AcDbEntity
  8
0
  6
HIDDEN
 62
     7
370
    18
100
AcDbLine
 10
145.6551944744
 20
133.6459521498
 30
0.0
 11
139.2208972853
 21
133.6459521498
 31
0.0
  0
LINE
  5
16C
330
1F
100
AcDbEntity
  8
0
  6
HIDDEN
 62
     7
370
    18
100
AcDbLine
 10
132.6551951375
 20
133.6459521498
 30
0.0
 11
124.6551947575
 21
133.6459521498
 31
0.0
  0
SPLINE
  5
16D
330
1F
100
AcDbEntity
  8
0
  6
HIDDEN
 62
     7
370
    18
100
AcDbSpline
210
0.0
220
0.0
230
1.0
 70
     8
 71
     3
 72
    11
 73
     7
 74
     0
 42
0.000000001
 43
0.00000001
 40
0.0
 40
0.0
 40
0.0
 40
0.0
 40
0.0008203708524183
 40
0.0008203708524183
 40
0.0008203708524183
 40
0.0016409967870154
 40
0.0016409967870154
 40
0.0016409967870154
 40
0.0016409967870154
 10
88.95519478434016
 20
91.39391954220635
 30
0.0
 10
88.76403648404153
 20
91.35274051358722
 30
0.0
 10
88.57260941396933
 20
91.31398654135722
 30
0.0
 10
88.38096379044872
 20
91.27761878207868
 30
0.0
 10
88.18925838536826
 20
91.24123967831264
 30
0.0
 10
87.9973194333093
 20
91.20724542754509
 30
0.0
 10
87.80519478623847
 20
91.17559730215389
 30
0.0
  0
ELLIPSE
  5
16E
330
1F
100
AcDbEntity
  8
0
  6
HIDDEN
 62
     7
370
    18
100
AcDbEllipse
 10
83.5627629157
 20
107.2459522928
 30
0.0
 11
20.19992453366628
 21
-1.421085471520200E-14
 31
0.0
210
0.0
220
0.0
230
1.0
 40
0.8164965809
 41
1.300566354718001
 42
1.359198697209606
  0
ELLIPSE
  5
16F
330
1F
100
AcDbEntity
  8
0
  6
HIDDEN
 62
     7
370
    18
100
AcDbEllipse
 10
170.7051947843
 20
101.5007096957
 30
0.0
 11
1.524401228643598
 21
1.524401228643626
 31
0.0
210
0.0
220
0.0
230
1.0
 40
0.4142135624
 41
4.319689898685966
 42
7.461282552275749
  0
LINE
  5
170
330
1F
100
AcDbEntity
  8
0
  6
HIDDEN
 62
     7
370
    18
100
AcDbLine
 10
168.7051935028
 20
103.1507094684
 30
0.0
 11
168.7051935028
 21
99.8507094863
 31
0.0
  0
ELLIPSE
  5
171
330
1F
100
AcDbEntity
  8
0
  6
HIDDEN
 62
     7
370
    18
100
AcDbEllipse
 10
170.7051947843
 20
101.5007096957
 30
0.0
 11
-1.524401228643626
 21
1.524401228643626
 31
0.0
210
0.0
220
0.0
230
1.0
 40
0.4142135624
 41
5.105088062083427
 42
8.24668071567321
  0
SPLINE
  5
172
330
1F
100
AcDbEntity
  8
0
  6
HIDDEN
 62
     7
370
    18
100
AcDbSpline
210
0.0
220
0.0
230
1.0
 70
    11
 71
     3
 72
    60
 73
    56
 74
     0
 42
0.000000001
 43
0.00000001
 40
0.0
 40
0.0
 40
0.0
 40
0.0
 40
0.0312500000000009
 40
0.0312500000000009
 40
0.0625000000000017
 40
0.0625000000000017
 40
0.1250000000000034
 40
0.1250000000000034
 40
0.1875000000000052
 40
0.1875000000000052
 40
0.2187500000000056
 40
0.2187500000000056
 40
0.2500000000000061
 40
0.2500000000000061
 40
0.2812500000000065
 40
0.2812500000000065
 40
0.3125000000000069
 40
0.3125000000000069
 40
0.3437500000000073
 40
0.3437500000000073
 40
0.3750000000000078
 40
0.3750000000000078
 40
0.4062500000000082
 40
0.4062500000000082
 40
0.4375000000000086
 40
0.4375000000000086
 40
0.5000000000000077
 40
0.5000000000000077
 40
0.5312500000000072
 40
0.5312500000000072
 40
0.5625000000000067
 40
0.5625000000000067
 40
0.5937500000000062
 40
0.5937500000000062
 40
0.6250000000000058
 40
0.6250000000000058
 40
0.6562500000000053
 40
0.6562500000000053
 40
0.6875000000000048
 40
0.6875000000000048
 40
0.7187500000000043
 40
0.7187500000000043
 40
0.7500000000000039
 40
0.7500000000000039
 40
0.8125000000000029
 40
0.8125000000000029
 40
0.8437500000000024
 40
0.8437500000000024
 40
0.875000000000002
 40
0.875000000000002
 40
0.9062500000000016
 40
0.9062500000000016
 40
0.937500000000001
 40
0.937500000000001
 40
1.0
 40
1.0
 40
1.0
 40
1.0
 10
170.7051947843402
 20
103.3481548854863
 30
0.0
 10
170.815382709175
 20
103.3481548854863
 30
0.0
 10
170.9234808566225
 20
103.3525437813829
 30
0.0
 10
171.1357548453977
 20
103.370080353327
 30
0.0
 10
171.2410416229902
 20
103.383476793097
 30
0.0
 10
171.5397368976567
 20
103.4373240302691
 30
0.0
 10
171.721072649072
 20
103.4922185609918
 30
0.0
 10
172.0221860476139
 20
103.6434749745628
 30
0.0
 10
172.1447449973838
 20
103.7418125119713
 30
0.0
 10
172.268970230455
 20
103.919756925039
 30
0.0
 10
172.3013193554758
 20
103.9853279472622
 30
0.0
 10
172.3442659735347
 20
104.1245642670816
 30
0.0
 10
172.3550656942409
 20
104.1977756086649
 30
0.0
 10
172.3553215960018
 20
104.3516905973881
 30
0.0
 10
172.3443961862349
 20
104.432875743543
 30
0.0
 10
172.3018424085111
 20
104.594870783658
 30
0.0
 10
172.2703396822047
 20
104.6765907195936
 30
0.0
 10
172.1864985723466
 20
104.8407173171153
 30
0.0
 10
172.1355502261783
 20
104.92041162763
 30
0.0
 10
172.0164748317561
 20
105.0742585776007
 30
0.0
 10
171.9475021585376
 20
105.1490910346769
 30
0.0
 10
171.7964115582758
 20
105.2868301442395
 30
0.0
 10
171.7142791054237
 20
105.3500849918696
 30
0.0
 10
171.5363418785383
 20
105.4637692272676
 30
0.0
 10
171.4403162344579
 20
105.5139953046058
 30
0.0
 10
171.1433241833785
 20
105.6358697914946
 30
0.0
 10
170.9243365585067
 20
105.6813150785844
 30
0.0
 10
170.5989102379683
 20
105.6817511539424
 30
0.0
 10
170.4890484426789
 20
105.6708874633156
 30
0.0
 10
170.2751115358074
 20
105.6280671259025
 30
0.0
 10
170.1718575081953
 20
105.5965778143916
 30
0.0
 10
169.9723726996543
 20
105.5151544031806
 30
0.0
 10
169.8762795635007
 20
105.464996929893
 30
0.0
 10
169.6986852741818
 20
105.3519229872947
 30
0.0
 10
169.615902706036
 20
105.2884578471173
 30
0.0
 10
169.4633712666162
 20
105.1496570571003
 30
0.0
 10
169.3956296638774
 20
105.0762089505464
 30
0.0
 10
169.2764655700624
 20
104.9227707236709
 30
0.0
 10
169.2245966707358
 20
104.8418021332382
 30
0.0
 10
169.1411824301952
 20
104.6790979066263
 30
0.0
 10
169.1095270296195
 20
104.5977036866378
 30
0.0
 10
169.0664792736675
 20
104.4355925378899
 30
0.0
 10
169.0553104102684
 20
104.3542704420336
 30
0.0
 10
169.0549662856749
 20
104.123462968022
 30
0.0
 10
169.0989884654173
 20
103.9812119334486
 30
0.0
 10
169.2230967412744
 20
103.802428341349
 30
0.0
 10
169.2747314829099
 20
103.7474252891324
 30
0.0
 10
169.3943384143188
 20
103.6495126103716
 30
0.0
 10
169.4620223349933
 20
103.6064842885653
 30
0.0
 10
169.6132462834559
 20
103.5303417241105
 30
0.0
 10
169.697024557227
 20
103.497349847213
 30
0.0
 10
169.8741916068652
 20
103.4422759026768
 30
0.0
 10
169.9683406287581
 20
103.4197592974139
 30
0.0
 10
170.2689686447334
 20
103.3654266394516
 30
0.0
 10
170.4848189346706
 20
103.3481548854863
 30
0.0
 10
170.7051947843402
 20
103.3481548854863
 30
0.0
  0
LINE
  5
173
330
1F
100
AcDbEntity
  8
0
  6
HIDDEN
 62
     7
370
    18
100
AcDbLine
 10
97.9051945638
 20
89.2559517469
 30
0.0
 11
97.9051945638
 21
90.9584392156
 31
0.0
  0
LINE
  5
174
330
1F
100
AcDbEntity
  8
0
  6
HIDDEN
 62
     7
370
    18
100
AcDbLine
 10
88.955193935
 20
89.2559517469
 30
0.0
 11
88.955193935
 21
91.3939200635
 31
0.0
  0
LINE
  5
175
330
1F
100
AcDbEntity
  8
0
  6
HIDDEN
 62
     7
370
    18
100
AcDbLine
 10
89.0362264495
 20
91.444461077
 30
0.0
 11
88.955193935
 21
91.3939200635
 31
0.0
  0
LINE
  5
176
330
1F
100
AcDbEntity
  8
0
  6
HIDDEN
 62
     7
370
    18
100
AcDbLine
 10
93.9051939082
 20
125.2359528388
 30
0.0
 11
93.9051939082
 21
123.5334653701
 31
0.0
  0
LINE
  5
177
330
1F
100
AcDbEntity
  8
0
  6
HIDDEN
 62
     7
370
    18
100
AcDbLine
 10
88.955193935
 20
125.2359528388
 30
0.0
 11
88.955193935
 21
123.1405776288
 31
0.0
  0
SPLINE
  5
178
330
1F
100
AcDbEntity
  8
0
  6
HIDDEN
 62
     7
370
    18
100
AcDbSpline
210
0.0
220
0.0
230
1.0
 70
     8
 71
     3
 72
     8
 73
     4
 74
     0
 42
0.000000001
 43
0.00000001
 40
0.0
 40
0.0
 40
0.0
 40
0.0
 40
1.0
 40
1.0
 40
1.0
 40
1.0
 10
88.95519478434016
 20
123.1405767439077
 30
0.0
 10
89.0052002832839
 20
123.1095409696886
 30
0.0
 10
89.05520035394832
 20
123.0784963246611
 30
0.0
 10
89.10519478773344
 20
123.0474427288807
 30
0.0
  0
LINE
  5
179
330
1F
100
AcDbEntity
  8
0
  6
HIDDEN
 62
     7
370
    18
100
AcDbLine
 10
193.2051947247
 20
101.9959523636
 30
0.0
 11
193.2051947247
 21
112.4959522221
 31
0.0
  0
LINE
  5
17A
330
1F
100
AcDbEntity
  8
0
  6
HIDDEN
 62
     7
370
    18
100
AcDbLine
 10
192.5742944609
 20
103.0459524426
 30
0.0
 11
192.5742944609
 21
111.4459521431
 31
0.0
  0
SPLINE
  5
17B
330
1F
100
AcDbEntity
  8
0
  6
HIDDEN
 62
     7
370
    18
100
AcDbSpline
210
0.0
220
0.0
230
1.0
 70
     8
 71
     3
 72
    20
 73
    16
 74
     0
 42
0.000000001
 43
0.00000001
 40
0.0
 40
0.0
 40
0.0
 40
0.0
 40
0.111888980014987
 40
0.1774081842543627
 40
0.2490297449712266
 40
0.3297782102755303
 40
0.3985506015816559
 40
0.4998303532310555
 40
0.6137955042267229
 40
0.6789614167988404
 40
0.7494879311354052
 40
0.8296339118034042
 40
0.8980775946955581
 40
0.9994880049791343
 40
1.0
 40
1.0
 40
1.0
 40
1.0
 10
114.4538840185969
 20
83.6459979708686
 30
0.0
 10
114.4105814793169
 20
83.65941956189597
 30
0.0
 10
114.3419221272857
 20
83.68070047886967
 30
0.0
 10
113.8968520522685
 20
83.78398948939439
 30
0.0
 10
113.3702991148204
 20
83.89728857296423
 30
0.0
 10
112.6848724023546
 20
84.02022357355494
 30
0.0
 10
111.7915556621424
 20
84.14225816236703
 30
0.0
 10
110.6781959009479
 20
84.2599938803057
 30
0.0
 10
109.5674216017842
 20
84.27196756401932
 30
0.0
 10
108.6826738431247
 20
84.24491245030137
 30
0.0
 10
108.0154756597099
 20
84.19697784501685
 30
0.0
 10
107.4742090143172
 20
84.14068703821751
 30
0.0
 10
107.0866067783224
 20
84.09559138863276
 30
0.0
 10
106.8926947371921
 20
84.05675786668182
 30
0.0
 10
106.9558445102541
 20
84.06744412320087
 30
0.0
 10
106.9561617355912
 20
84.06749780433323
 30
0.0
  0
LINE
  5
17C
330
1F
100
AcDbEntity
  8
0
  6
HIDDEN
 62
     7
370
    18
100
AcDbLine
 10
107.8652070742
 20
84.1782898005
 30
0.0
 11
108.0490520131
 21
84.196480393
 31
0.0
  0
SPLINE
  5
17D
330
1F
100
AcDbEntity
  8
0
  6
HIDDEN
 62
     7
370
    18
100
AcDbSpline
210
0.0
220
0.0
230
1.0
 70
     8
 71
     3
 72
    27
 73
    23
 74
     0
 42
0.000000001
 43
0.00000001
 40
0.0
 40
0.0
 40
0.0
 40
0.0
 40
0.0007946247196046
 40
0.0456769929801161
 40
0.1022584773230916
 40
0.1705363482275856
 40
0.209127882136299
 40
0.2506549886726586
 40
0.3211005221903406
 40
0.3861940659075199
 40
0.4266731083486379
 40
0.4648042483719768
 40
0.500608397768421
 40
0.5452000851899433
 40
0.601694156166826
 40
0.6700998722925462
 40
0.7088371162950263
 40
0.7505657185450368
 40
0.8222300829706162
 40
0.8877692842034652
 40
0.9472428536824711
 40
1.0
 40
1.0
 40
1.0
 40
1.0
 10
106.9558516051738
 20
130.424369528462
 30
0.0
 10
106.9556333031097
 20
130.4244162767262
 30
0.0
 10
106.9430847608759
 20
130.427103482504
 30
0.0
 10
106.992152880912
 20
130.4152989564611
 30
0.0
 10
107.1372586790071
 20
130.3918451822631
 30
0.0
 10
107.4103102913699
 20
130.35794161172
 30
0.0
 10
107.73883624129
 20
130.3243731200616
 30
0.0
 10
108.1315641719979
 20
130.2861903253348
 30
0.0
 10
108.6812920025942
 20
130.2472221378196
 30
0.0
 10
109.3073146253016
 20
130.2277605366412
 30
0.0
 10
109.8505064671799
 20
130.2255753761696
 30
0.0
 10
110.2955752161915
 20
130.2340900983401
 30
0.0
 10
110.7620230707766
 20
130.2538736482848
 30
0.0
 10
111.2992639963185
 20
130.2980335300983
 30
0.0
 10
111.9474769660562
 20
130.3704533652506
 30
0.0
 10
112.5330161104452
 20
130.451351024633
 30
0.0
 10
113.013985255757
 20
130.5295203831657
 30
0.0
 10
113.4594003332661
 20
130.6142909534002
 30
0.0
 10
113.8978999093296
 20
130.7080756425709
 30
0.0
 10
114.2369265437032
 20
130.7859781779332
 30
0.0
 10
114.4242798995483
 20
130.8361730495195
 30
0.0
 10
114.4447705631558
 20
130.8428397863561
 30
0.0
 10
114.454402765271
 20
130.8459736700549
 30
0.0
  0
SPLINE
  5
17E
330
1F
100
AcDbEntity
  8
0
  6
HIDDEN
 62
     7
370
    18
100
AcDbSpline
210
0.0
220
0.0
230
1.0
 70
    11
 71
     3
 72
    60
 73
    56
 74
     0
 42
0.000000001
 43
0.00000001
 40
0.0
 40
0.0
 40
0.0
 40
0.0
 40
0.0312499999999994
 40
0.0312499999999994
 40
0.0624999999999989
 40
0.0624999999999989
 40
0.1249999999999977
 40
0.1249999999999977
 40
0.1874999999999966
 40
0.1874999999999966
 40
0.2187499999999961
 40
0.2187499999999961
 40
0.2499999999999956
 40
0.2499999999999956
 40
0.2812499999999951
 40
0.2812499999999951
 40
0.3124999999999945
 40
0.3124999999999945
 40
0.3437499999999939
 40
0.3437499999999939
 40
0.3749999999999933
 40
0.3749999999999933
 40
0.4062499999999928
 40
0.4062499999999928
 40
0.4374999999999922
 40
0.4374999999999922
 40
0.499999999999993
 40
0.499999999999993
 40
0.5312499999999934
 40
0.5312499999999934
 40
0.5624999999999939
 40
0.5624999999999939
 40
0.5937499999999943
 40
0.5937499999999943
 40
0.6249999999999948
 40
0.6249999999999948
 40
0.6562499999999951
 40
0.6562499999999951
 40
0.6874999999999954
 40
0.6874999999999954
 40
0.7187499999999958
 40
0.7187499999999958
 40
0.749999999999996
 40
0.749999999999996
 40
0.8124999999999966
 40
0.8124999999999966
 40
0.8437499999999971
 40
0.8437499999999971
 40
0.8749999999999977
 40
0.8749999999999977
 40
0.9062499999999982
 40
0.9062499999999982
 40
0.9374999999999988
 40
0.9374999999999988
 40
1.0
 40
1.0
 40
1.0
 40
1.0
 10
170.7051947843402
 20
108.8102973222963
 30
0.0
 10
170.5950068595054
 20
108.8102973222963
 30
0.0
 10
170.4869087120578
 20
108.8213576695124
 30
0.0
 10
170.2746347232826
 20
108.8640217123742
 30
0.0
 10
170.1693479456901
 20
108.8961857209618
 30
0.0
 10
169.8706526710236
 20
109.0186057195684
 30
0.0
 10
169.6893169196083
 20
109.1364607809047
 30
0.0
 10
169.3882035210664
 20
109.4108302211226
 30
0.0
 10
169.2656445712965
 20
109.5699972153293
 30
0.0
 10
169.1414193382253
 20
109.8123640829887
 30
0.0
 10
169.1090702132045
 20
109.8954415424706
 30
0.0
 10
169.0661235951456
 20
110.0581402665609
 30
0.0
 10
169.0553238744394
 20
110.1374008502929
 30
0.0
 10
169.0550679726785
 20
110.2914580138313
 30
0.0
 10
169.0659933824454
 20
110.3665248923639
 30
0.0
 10
169.1085471601693
 20
110.5052681493938
 30
0.0
 10
169.1400498864756
 20
110.5699187703745
 30
0.0
 10
169.2238909963337
 20
110.6905446851854
 30
0.0
 10
169.2748393425021
 20
110.7445456445804
 30
0.0
 10
169.3939147369242
 20
110.8420670342772
 30
0.0
 10
169.4628874101427
 20
110.8859190399278
 30
0.0
 10
169.6139780104045
 20
110.9618674510154
 30
0.0
 10
169.6961104632566
 20
110.99424318434
 30
0.0
 10
169.874047690142
 20
111.0496111827749
 30
0.0
 10
169.9700733342225
 20
111.0724774533411
 30
0.0
 10
170.2670653853018
 20
111.1260957941702
 30
0.0
 10
170.4860530101737
 20
111.1436324344035
 30
0.0
 10
170.811479330712
 20
111.143807449416
 30
0.0
 10
170.9213411260014
 20
111.1394990815127
 30
0.0
 10
171.1352780328729
 20
111.1219016474356
 30
0.0
 10
171.238532060485
 20
111.1087934121523
 30
0.0
 10
171.438016869026
 20
111.073002899816
 30
0.0
 10
171.5341100051796
 20
111.0501803432053
 30
0.0
 10
171.7117042944985
 20
110.9951663509765
 30
0.0
 10
171.7944868626444
 20
110.9627377590224
 30
0.0
 10
171.9470183020641
 20
110.8862579106791
 30
0.0
 10
172.014759904803
 20
110.8432371431446
 30
0.0
 10
172.1339239986179
 20
110.7461054126802
 30
0.0
 10
172.1857928979445
 20
110.6912747901221
 30
0.0
 10
172.2692071384851
 20
110.5718271642327
 30
0.0
 10
172.3008625390608
 20
110.5075702522409
 30
0.0
 10
172.3439102950128
 20
110.3689717357974
 30
0.0
 10
172.3550791584119
 20
110.2939031641266
 30
0.0
 10
172.3554232830055
 20
110.0632868801087
 30
0.0
 10
172.311401103263
 20
109.8958505050193
 30
0.0
 10
172.1872928274059
 20
109.6526648499974
 30
0.0
 10
172.1356580857704
 20
109.5716074359817
 30
0.0
 10
172.0160511543616
 20
109.4171235552822
 30
0.0
 10
171.948367233687
 20
109.3436855700293
 30
0.0
 10
171.7971432852245
 20
109.2056589948512
 30
0.0
 10
171.7133650114533
 20
109.1411927106272
 30
0.0
 10
171.5361979618151
 20
109.0280865345531
 30
0.0
 10
171.4420489399222
 20
108.9786580664213
 30
0.0
 10
171.1414209239469
 20
108.8551785658367
 30
0.0
 10
170.9255706340098
 20
108.8102973222963
 30
0.0
 10
170.7051947843402
 20
108.8102973222963
 30
0.0
  0
LINE
  5
17F
330
1F
100
AcDbEntity
  8
0
  6
HIDDEN
 62
     7
370
    18
100
AcDbLine
 10
174.7051944863
 20
120.745952643
 30
0.0
 11
174.7051944863
 21
128.745953023
 31
0.0
  0
LINE
  5
180
330
1F
100
AcDbEntity
  8
0
  6
HIDDEN
 62
     7
370
    18
100
AcDbLine
 10
174.7051944863
 20
93.7459519427
 30
0.0
 11
174.7051944863
 21
85.7459515627
 31
0.0
  0
LINE
  5
181
330
1F
100
AcDbEntity
  8
0
  6
HIDDEN
 62
     7
370
    18
100
AcDbLine
 10
174.205193473
 20
91.8459523763
 30
0.0
 11
174.205193473
 21
87.6459520604
 31
0.0
  0
LINE
  5
182
330
1F
100
AcDbEntity
  8
0
  6
HIDDEN
 62
     7
370
    18
100
AcDbLine
 10
174.205193473
 20
122.6459522094
 30
0.0
 11
174.205193473
 21
126.8459525253
 31
0.0
  0
LINE
  5
183
330
1F
100
AcDbEntity
  8
0
  6
HIDDEN
 62
     7
370
    18
100
AcDbLine
 10
163.7051945459
 20
122.6459522094
 30
0.0
 11
163.7051945459
 21
126.8459525253
 31
0.0
  0
LINE
  5
184
330
1F
100
AcDbEntity
  8
0
  6
HIDDEN
 62
     7
370
    18
100
AcDbLine
 10
163.7051945459
 20
91.8459523763
 30
0.0
 11
163.7051945459
 21
87.6459520604
 31
0.0
  0
ELLIPSE
  5
185
330
1F
100
AcDbEntity
  8
0
  6
HIDDEN
 62
     7
370
    18
100
AcDbEllipse
 10
170.7051947843
 20
112.99119489
 30
0.0
 11
-1.524401228643626
 21
1.524401228643612
 31
0.0
210
0.0
220
0.0
230
1.0
 40
0.4142135624
 41
1.963495408493619
 42
5.105088062083421
  0
ELLIPSE
  5
186
330
1F
100
AcDbEntity
  8
0
  6
HIDDEN
 62
     7
370
    18
100
AcDbEllipse
 10
170.7051947843
 20
112.99119489
 30
0.0
 11
1.524401228643598
 21
1.524401228643611
 31
0.0
210
0.0
220
0.0
230
1.0
 40
0.4142135624
 41
1.178097245096157
 42
4.31968989868596
  0
LINE
  5
187
330
1F
100
AcDbEntity
  8
0
  6
HIDDEN
 62
     7
370
    18
100
AcDbLine
 10
168.7051935028
 20
112.9911951083
 30
0.0
 11
168.7051935028
 21
114.6411950994
 31
0.0
  0
LINE
  5
188
330
1F
100
AcDbEntity
  8
0
  6
HIDDEN
 62
     7
370
    18
100
AcDbLine
 10
168.7051935028
 20
111.3411951173
 30
0.0
 11
168.7051935028
 21
112.9911951083
 31
0.0
  0
ELLIPSE
  5
189
330
1F
100
AcDbEntity
  8
0
  6
HIDDEN
 62
     7
370
    18
100
AcDbEllipse
 10
170.7051947843
 20
112.99119489
 30
0.0
 11
-1.524401228643626
 21
1.524401228643612
 31
0.0
210
0.0
220
0.0
230
1.0
 40
0.4142135624
 41
5.105088062083429
 42
8.246680715673213
  0
ELLIPSE
  5
18A
330
1F
100
AcDbEntity
  8
0
  6
HIDDEN
 62
     7
370
    18
100
AcDbEllipse
 10
170.7051947843
 20
112.99119489
 30
0.0
 11
1.524401228643598
 21
1.524401228643611
 31
0.0
210
0.0
220
0.0
230
1.0
 40
0.4142135624
 41
4.319689898685968
 42
7.461282552275751
  0
LWPOLYLINE
  5
18B
330
1F
100
AcDbEntity
  8
0
  6
HIDDEN
 62
     7
370
    18
100
AcDbPolyline
 90
       21
 70
   128
 43
0.0
 10
170.7051938307
 20
121.186131082
 10
171.2150743138
 20
121.2432351257
 10
171.6750396323
 20
121.4089565273
 10
172.040073378
 20
121.6670725788
 10
172.2744388413
 20
121.9923192929
 10
172.3551956844
 20
122.3528575446
 10
172.2744388413
 20
122.7133957963
 10
172.040073378
 20
123.0386425103
 10
171.6750396323
 20
123.2967585619
 10
171.2150743138
 20
123.4624799635
 10
170.7051938307
 20
123.5195830758
 10
170.1953170728
 20
123.4624799635
 10
169.7353480291
 20
123.2967585619
 10
169.3703180086
 20
123.0386425103
 10
169.1359525453
 20
122.7133957963
 10
169.0551957023
 20
122.3528575446
 10
169.1359525453
 20
121.9923192929
 10
169.3703180086
 20
121.6670725788
 10
169.7353480291
 20
121.4089565273
 10
170.1953170728
 20
121.2432351257
 10
170.7051938307
 20
121.186131082
  0
SPLINE
  5
18C
330
1F
100
AcDbEntity
  8
0
  6
HIDDEN
 62
     7
370
    18
100
AcDbSpline
210
0.0
220
0.0
230
1.0
 70
     8
 71
     3
 72
     8
 73
     4
 74
     0
 42
0.000000001
 43
0.00000001
 40
0.0
 40
0.0
 40
0.0
 40
0.0
 40
0.000159097695343
 40
0.000159097695343
 40
0.000159097695343
 40
0.000159097695343
 10
89.09036279355819
 20
91.44446185681743
 30
0.0
 10
89.04531132305385
 20
91.41648297249365
 30
0.0
 10
89.00025528463904
 20
91.38851144211857
 30
0.0
 10
88.95519478434018
 20
91.36054710276606
 30
0.0
  0
SPLINE
  5
18D
330
1F
100
AcDbEntity
  8
0
  6
HIDDEN
 62
     7
370
    18
100
AcDbSpline
210
0.0
220
0.0
230
1.0
 70
     8
 71
     3
 72
    11
 73
     7
 74
     0
 42
0.000000001
 43
0.00000001
 40
0.0
 40
0.0
 40
0.0
 40
0.0
 40
0.0008212909311456
 40
0.0008212909311456
 40
0.0008212909311456
 40
0.001642825724306
 40
0.001642825724306
 40
0.001642825724306
 40
0.001642825724306
 10
88.95519478434018
 20
91.36054710276606
 30
0.0
 10
88.76404976285798
 20
91.31726091391351
 30
0.0
 10
88.57263142718152
 20
91.27632440427622
 30
0.0
 10
88.38098535252037
 20
91.23772263288966
 30
0.0
 10
88.18928227097878
 20
91.19910937905256
 30
0.0
 10
87.99733714769326
 20
91.16282916976655
 30
0.0
 10
87.8051947843401
 20
91.12886226341504
 30
0.0
  0
LINE
  5
18E
330
1F
100
AcDbEntity
  8
0
  6
HIDDEN
 62
     7
370
    18
100
AcDbLine
 10
185.6051927339
 20
110.2459523189
 30
0.0
 11
193.705195738
 21
110.2459523189
 31
0.0
  0
LINE
  5
18F
330
1F
100
AcDbEntity
  8
0
  6
HIDDEN
 62
     7
370
    18
100
AcDbLine
 10
193.705195738
 20
104.2459522668
 30
0.0
 11
185.6051927339
 21
104.2459522668
 31
0.0
  0
ARC
  5
190
330
1F
100
AcDbEntity
  8
0
  6
HIDDEN
 62
     7
370
    18
100
AcDbCircle
 10
193.7051947843
 20
107.2459522928
 30
0.0
 40
3.0
100
AcDbArc
 50
270.0
 51
90.0
  0
ARC
  5
191
330
1F
100
AcDbEntity
  8
0
  6
HIDDEN
 62
     7
370
    18
100
AcDbCircle
 10
185.6051947843
 20
107.2459522928
 30
0.0
 40
3.0
100
AcDbArc
 50
90.0
 51
270.0
  0
LINE
  5
192
330
1F
100
AcDbEntity
  8
0
  6
HIDDEN
 62
     7
370
    18
100
AcDbLine
 10
135.7951948326
 20
127.427978843
 30
0.0
 11
135.7951948326
 21
127.0959530319
 31
0.0
  0
LINE
  5
193
330
1F
100
AcDbEntity
  8
0
  6
HIDDEN
 62
     7
370
    18
100
AcDbLine
 10
139.615195049
 20
127.427978843
 30
0.0
 11
139.615195049
 21
127.0959530319
 31
0.0
  0
LINE
  5
194
330
1F
100
AcDbEntity
  8
0
  6
HIDDEN
 62
     7
370
    18
100
AcDbLine
 10
141.0971267056
 20
131.704641908
 30
0.0
 11
141.0971267056
 21
127.0959530319
 31
0.0
  0
SPLINE
  5
195
330
1F
100
AcDbEntity
  8
0
  6
HIDDEN
 62
     7
370
    18
100
AcDbSpline
210
0.0
220
0.0
230
1.0
 70
     8
 71
     3
 72
    24
 73
    20
 74
     0
 42
0.000000001
 43
0.00000001
 40
0.0
 40
0.0
 40
0.0
 40
0.0
 40
0.25
 40
0.25
 40
0.374999999999999
 40
0.374999999999999
 40
0.4374999999999993
 40
0.4374999999999993
 40
0.4687499999999994
 40
0.4687499999999994
 40
0.4999999999999995
 40
0.4999999999999995
 40
0.5624999999999971
 40
0.5624999999999971
 40
0.6249999999999947
 40
0.6249999999999947
 40
0.7499999999999947
 40
0.7499999999999947
 40
1.0
 40
1.0
 40
1.0
 40
1.0
 10
87.86785815906357
 20
87.57139974806834
 30
0.0
 10
87.88161127773381
 20
87.64204980605864
 30
0.0
 10
87.89938384513968
 20
87.70864791882354
 30
0.0
 10
87.95163493669503
 20
87.78274593905675
 30
0.0
 10
87.97267001227658
 20
87.80400374621831
 30
0.0
 10
88.02557041990502
 20
87.81214967236455
 30
0.0
 10
88.04667609278295
 20
87.81120986896879
 30
0.0
 10
88.0927282614609
 20
87.79019387739145
 30
0.0
 10
88.11109873344431
 20
87.77928507128382
 30
0.0
 10
88.15265036851
 20
87.74665016033644
 30
0.0
 10
88.1752170412669
 20
87.72515817996509
 30
0.0
 10
88.23799805772691
 20
87.65669223637877
 30
0.0
 10
88.27112781869482
 20
87.61061777817368
 30
0.0
 10
88.32804550517983
 20
87.52560988983902
 30
0.0
 10
88.35223153068361
 20
87.48532958865762
 30
0.0
 10
88.41743948106337
 20
87.37039336219168
 30
0.0
 10
88.4521555412546
 20
87.29981037704468
 30
0.0
 10
88.54537081158549
 20
87.09560461796607
 30
0.0
 10
88.59104334694618
 20
86.97270623563871
 30
0.0
 10
88.62934843044471
 20
86.85583295925115
 30
0.0
  0
SPLINE
  5
196
330
1F
100
AcDbEntity
  8
0
  6
HIDDEN
 62
     7
370
    18
100
AcDbSpline
210
0.0
220
0.0
230
1.0
 70
     8
 71
     3
 72
    11
 73
     7
 74
     0
 42
0.000000001
 43
0.00000001
 40
0.0
 40
0.0
 40
0.0
 40
0.0
 40
0.0005781862223978
 40
0.0005781862223978
 40
0.0005781862223978
 40
0.0011563724723928
 40
0.0011563724723928
 40
0.0011563724723928
 40
0.0011563724723928
 10
88.80519478434016
 20
119.8860945998958
 30
0.0
 10
88.63853423006454
 20
119.9506241113094
 30
0.0
 10
88.47187093315807
 20
120.0151268151532
 30
0.0
 10
88.30520434932782
 20
120.0796132635869
 30
0.0
 10
88.13853775706875
 20
120.1440997152818
 30
0.0
 10
87.97186789144287
 20
120.2085697240099
 30
0.0
 10
87.80519478434013
 20
120.2730254907425
 30
0.0
  0
SPLINE
  5
197
330
1F
100
AcDbEntity
  8
0
  6
HIDDEN
 62
     7
370
    18
100
AcDbSpline
210
0.0
220
0.0
230
1.0
 70
     8
 71
     3
 72
    11
 73
     7
 74
     0
 42
0.000000001
 43
0.00000001
 40
0.0
 40
0.0
 40
0.0
 40
0.0
 40
0.0005778746105108
 40
0.0005778746105108
 40
0.0005778746105108
 40
0.0011557494857226
 40
0.0011557494857226
 40
0.0011557494857226
 40
0.0011557494857226
 10
87.80519478434015
 20
94.21873043735918
 30
0.0
 10
87.97186166075348
 20
94.28454256405306
 30
0.0
 10
88.13852838031494
 20
94.35040104419065
 30
0.0
 10
88.3051950283636
 20
94.41630861712129
 30
0.0
 10
88.47186175288225
 20
94.48221622029165
 30
0.0
 10
88.63852844730283
 20
94.54817332868016
 30
0.0
 10
88.80519478434016
 20
94.61417506860286
 30
0.0
  0
SPLINE
  5
198
330
1F
100
AcDbEntity
  8
0
  6
HIDDEN
 62
     7
370
    18
100
AcDbSpline
210
0.0
220
0.0
230
1.0
 70
     8
 71
     3
 72
    11
 73
     7
 74
     0
 42
0.000000001
 43
0.00000001
 40
0.0000000000000006
 40
0.0000000000000006
 40
0.0000000000000006
 40
0.0000000000000006
 40
0.0005780486062768
 40
0.0005780486062768
 40
0.0005780486062768
 40
0.0011560973514127
 40
0.0011560973514127
 40
0.0011560973514127
 40
0.0011560973514127
 10
87.80519478434015
 20
117.2267667945408
 30
0.0
 10
87.97186464038506
 20
117.1643949330263
 30
0.0
 10
88.13853234446934
 20
117.1020410727286
 30
0.0
 10
88.30519864892297
 20
117.0397215125426
 30
0.0
 10
88.47186498961672
 20
116.9774019388057
 30
0.0
 10
88.6385299462455
 20
116.9151167344861
 30
0.0
 10
88.80519478434016
 20
116.8528916139174
 30
0.0
  0
SPLINE
  5
199
330
1F
100
AcDbEntity
  8
0
  6
HIDDEN
 62
     7
370
    18
100
AcDbSpline
210
0.0
220
0.0
230
1.0
 70
     8
 71
     3
 72
    11
 73
     7
 74
     0
 42
0.000000001
 43
0.00000001
 40
0.0
 40
0.0
 40
0.0
 40
0.0
 40
0.0005782401583533
 40
0.0005782401583533
 40
0.0005782401583533
 40
0.0011564805960993
 40
0.0011564805960993
 40
0.0011564805960993
 40
0.0011564805960993
 10
88.80519478434016
 20
97.64512550045143
 30
0.0
 10
88.63854383399125
 20
97.58170004239064
 30
0.0
 10
88.47188424140859
 20
97.51834451873535
 30
0.0
 10
88.30521718898005
 20
97.45504693438538
 30
0.0
 10
88.13855005241622
 20
97.39174931808213
 30
0.0
 10
87.97187544497018
 20
97.32850952314145
 30
0.0
 10
87.80519478434012
 20
97.26530951650261
 30
0.0
  0
CIRCLE
  5
19A
330
1F
100
AcDbEntity
  8
0
  6
HIDDEN
 62
     7
370
    18
100
AcDbCircle
 10
126.7051947843
 20
107.2459522928
 30
0.0
 40
5.0
  0
ARC
  5
19B
330
1F
100
AcDbEntity
  8
0
  6
HIDDEN
 62
     7
370
    18
100
AcDbCircle
 10
179.3051947843
 20
85.6459522928
 30
0.0
 40
0.4000000000000118
100
AcDbArc
 50
0.0
 51
130.0
  0
ARC
  5
19C
330
1F
100
AcDbEntity
  8
0
  6
HIDDEN
 62
     7
370
    18
100
AcDbCircle
 10
179.3051947843
 20
93.8459522928
 30
0.0
 40
0.4000000000000057
100
AcDbArc
 50
230.0
 51
0.0
  0
LINE
  5
19D
330
1F
100
AcDbEntity
  8
0
  6
HIDDEN
 62
     7
370
    18
100
AcDbLine
 10
178.8020787668
 20
85.7459515627
 30
0.0
 11
179.0480783116
 21
85.9523698981
 31
0.0
  0
LINE
  5
19E
330
1F
100
AcDbEntity
  8
0
  6
HIDDEN
 62
     7
370
    18
100
AcDbLine
 10
179.0480783116
 20
93.5395345386
 30
0.0
 11
178.8020787668
 21
93.7459519427
 31
0.0
  0
LINE
  5
19F
330
1F
100
AcDbEntity
  8
0
  6
HIDDEN
 62
     7
370
    18
100
AcDbLine
 10
175.8051944804
 20
85.7459515627
 30
0.0
 11
178.8020787668
 21
85.7459515627
 31
0.0
  0
LINE
  5
1A0
330
1F
100
AcDbEntity
  8
0
  6
HIDDEN
 62
     7
370
    18
100
AcDbLine
 10
178.8020787668
 20
93.7459519427
 30
0.0
 11
175.8051944804
 21
93.7459519427
 31
0.0
  0
ARC
  5
1A1
330
1F
100
AcDbEntity
  8
0
  6
HIDDEN
 62
     7
370
    18
100
AcDbCircle
 10
175.8051947843
 20
86.2459522928
 30
0.0
 40
0.5
100
AcDbArc
 50
180.0
 51
270.0
  0
ARC
  5
1A2
330
1F
100
AcDbEntity
  8
0
  6
HIDDEN
 62
     7
370
    18
100
AcDbCircle
 10
175.8051947843
 20
93.2459522928
 30
0.0
 40
0.5
100
AcDbArc
 50
90.0
 51
180.0
  0
LINE
  5
1A3
330
1F
100
AcDbEntity
  8
0
  6
HIDDEN
 62
     7
370
    18
100
AcDbLine
 10
168.9051931631
 20
92.2459526281
 30
0.0
 11
168.3051941823
 21
91.645952716
 31
0.0
  0
LINE
  5
1A4
330
1F
100
AcDbEntity
  8
0
  6
HIDDEN
 62
     7
370
    18
100
AcDbLine
 10
168.3051941823
 20
87.8459517206
 30
0.0
 11
168.9051931631
 21
87.2459527399
 31
0.0
  0
LINE
  5
1A5
330
1F
100
AcDbEntity
  8
0
  6
HIDDEN
 62
     7
370
    18
100
AcDbLine
 10
172.8901436459
 20
87.2459527399
 30
0.0
 11
173.4936667513
 21
87.7523705657
 31
0.0
  0
LINE
  5
1A6
330
1F
100
AcDbEntity
  8
0
  6
HIDDEN
 62
     7
370
    18
100
AcDbLine
 10
173.4936667513
 20
91.7395348023
 30
0.0
 11
172.8901436459
 21
92.2459526281
 31
0.0
  0
LINE
  5
1A7
330
1F
100
AcDbEntity
  8
0
  6
HIDDEN
 62
     7
370
    18
100
AcDbLine
 10
168.9051931631
 20
87.2459527399
 30
0.0
 11
172.8901436459
 21
87.2459527399
 31
0.0
  0
LINE
  5
1A8
330
1F
100
AcDbEntity
  8
0
  6
HIDDEN
 62
     7
370
    18
100
AcDbLine
 10
172.8901436459
 20
92.2459526281
 30
0.0
 11
168.9051931631
 21
92.2459526281
 31
0.0
  0
LINE
  5
1A9
330
1F
100
AcDbEntity
  8
0
  6
HIDDEN
 62
     7
370
    18
100
AcDbLine
 10
182.3051964771
 20
91.7459525462
 30
0.0
 11
181.1034737062
 21
89.7459522183
 31
0.0
  0
LINE
  5
1AA
330
1F
100
AcDbEntity
  8
0
  6
HIDDEN
 62
     7
370
    18
100
AcDbLine
 10
181.1034737062
 20
89.7459522183
 30
0.0
 11
182.3051964771
 21
87.7459518905
 31
0.0
  0
ARC
  5
1AB
330
1F
100
AcDbEntity
  8
0
  6
HIDDEN
 62
     7
370
    18
100
AcDbCircle
 10
174.9051947843
 20
87.4459522928
 30
0.0
 40
0.4000000000000057
100
AcDbArc
 50
0.0
 51
90.0
  0
ARC
  5
1AC
330
1F
100
AcDbEntity
  8
0
  6
HIDDEN
 62
     7
370
    18
100
AcDbCircle
 10
174.9051947843
 20
92.0459522928
 30
0.0
 40
0.4000000000000057
100
AcDbArc
 50
270.0
 51
0.0
  0
ARC
  5
1AD
330
1F
100
AcDbEntity
  8
0
  6
HIDDEN
 62
     7
370
    18
100
AcDbCircle
 10
173.750782878
 20
87.4459522928
 30
0.0
 40
0.4000000000000118
100
AcDbArc
 50
90.0
 51
130.0
  0
ARC
  5
1AE
330
1F
100
AcDbEntity
  8
0
  6
HIDDEN
 62
     7
370
    18
100
AcDbCircle
 10
173.750782878
 20
92.0459522928
 30
0.0
 40
0.4000000000000057
100
AcDbArc
 50
230.0
 51
270.0
  0
LINE
  5
1AF
330
1F
100
AcDbEntity
  8
0
  6
HIDDEN
 62
     7
370
    18
100
AcDbLine
 10
173.7507825624
 20
87.8459517206
 30
0.0
 11
174.9051941466
 21
87.8459517206
 31
0.0
  0
LINE
  5
1B0
330
1F
100
AcDbEntity
  8
0
  6
HIDDEN
 62
     7
370
    18
100
AcDbLine
 10
174.9051941466
 20
91.645952716
 30
0.0
 11
173.7507825624
 21
91.645952716
 31
0.0
  0
LINE
  5
1B1
330
1F
100
AcDbEntity
  8
0
  6
HIDDEN
 62
     7
370
    18
100
AcDbLine
 10
185.3051951062
 20
92.0459520365
 30
0.0
 11
185.0051974785
 21
91.7459525462
 31
0.0
  0
LINE
  5
1B2
330
1F
100
AcDbEntity
  8
0
  6
HIDDEN
 62
     7
370
    18
100
AcDbLine
 10
185.0051974785
 20
87.7459518905
 30
0.0
 11
185.3051951062
 21
87.4459524001
 31
0.0
  0
ARC
  5
1B3
330
1F
100
AcDbEntity
  8
0
  6
HIDDEN
 62
     7
370
    18
100
AcDbCircle
 10
179.3051947843
 20
120.6459522928
 30
0.0
 40
0.4000000000000057
100
AcDbArc
 50
0.0
 51
130.0
  0
ARC
  5
1B4
330
1F
100
AcDbEntity
  8
0
  6
HIDDEN
 62
     7
370
    18
100
AcDbCircle
 10
179.3051947843
 20
128.8459522928
 30
0.0
 40
0.4000000000000057
100
AcDbArc
 50
230.0
 51
0.0
  0
LINE
  5
1B5
330
1F
100
AcDbEntity
  8
0
  6
HIDDEN
 62
     7
370
    18
100
AcDbLine
 10
175.8051944804
 20
120.745952643
 30
0.0
 11
178.8020787668
 21
120.745952643
 31
0.0
  0
LINE
  5
1B6
330
1F
100
AcDbEntity
  8
0
  6
HIDDEN
 62
     7
370
    18
100
AcDbLine
 10
178.8020787668
 20
128.745953023
 30
0.0
 11
175.8051944804
 21
128.745953023
 31
0.0
  0
ARC
  5
1B7
330
1F
100
AcDbEntity
  8
0
  6
HIDDEN
 62
     7
370
    18
100
AcDbCircle
 10
175.8051947843
 20
121.2459522928
 30
0.0
 40
0.5
100
AcDbArc
 50
180.0
 51
270.0
  0
ARC
  5
1B8
330
1F
100
AcDbEntity
  8
0
  6
HIDDEN
 62
     7
370
    18
100
AcDbCircle
 10
175.8051947843
 20
128.2459522928
 30
0.0
 40
0.5
100
AcDbArc
 50
90.0
 51
180.0
  0
LINE
  5
1B9
330
1F
100
AcDbEntity
  8
0
  6
HIDDEN
 62
     7
370
    18
100
AcDbLine
 10
178.8020787668
 20
120.745952643
 30
0.0
 11
179.0480783116
 21
120.9523700471
 31
0.0
  0
LINE
  5
1BA
330
1F
100
AcDbEntity
  8
0
  6
HIDDEN
 62
     7
370
    18
100
AcDbLine
 10
179.0480783116
 20
128.5395346876
 30
0.0
 11
178.8020787668
 21
128.745953023
 31
0.0
  0
LINE
  5
1BB
330
1F
100
AcDbEntity
  8
0
  6
HIDDEN
 62
     7
370
    18
100
AcDbLine
 10
168.9051931631
 20
122.2459519576
 30
0.0
 11
172.8901436459
 21
122.2459519576
 31
0.0
  0
LINE
  5
1BC
330
1F
100
AcDbEntity
  8
0
  6
HIDDEN
 62
     7
370
    18
100
AcDbLine
 10
172.8901436459
 20
127.2459518458
 30
0.0
 11
168.9051931631
 21
127.2459518458
 31
0.0
  0
LINE
  5
1BD
330
1F
100
AcDbEntity
  8
0
  6
HIDDEN
 62
     7
370
    18
100
AcDbLine
 10
168.9051931631
 20
127.2459518458
 30
0.0
 11
168.3051941823
 21
126.6459528651
 31
0.0
  0
LINE
  5
1BE
330
1F
100
AcDbEntity
  8
0
  6
HIDDEN
 62
     7
370
    18
100
AcDbLine
 10
168.3051941823
 20
122.8459518697
 30
0.0
 11
168.9051931631
 21
122.2459519576
 31
0.0
  0
LINE
  5
1BF
330
1F
100
AcDbEntity
  8
0
  6
HIDDEN
 62
     7
370
    18
100
AcDbLine
 10
172.8901436459
 20
122.2459519576
 30
0.0
 11
173.4936667513
 21
122.7523697834
 31
0.0
  0
LINE
  5
1C0
330
1F
100
AcDbEntity
  8
0
  6
HIDDEN
 62
     7
370
    18
100
AcDbLine
 10
173.4936667513
 20
126.73953402
 30
0.0
 11
172.8901436459
 21
127.2459518458
 31
0.0
  0
LINE
  5
1C1
330
1F
100
AcDbEntity
  8
0
  6
HIDDEN
 62
     7
370
    18
100
AcDbLine
 10
182.3051964771
 20
126.7459526952
 30
0.0
 11
181.1034737062
 21
124.7459523674
 31
0.0
  0
LINE
  5
1C2
330
1F
100
AcDbEntity
  8
0
  6
HIDDEN
 62
     7
370
    18
100
AcDbLine
 10
181.1034737062
 20
124.7459523674
 30
0.0
 11
182.3051964771
 21
122.7459520395
 31
0.0
  0
ARC
  5
1C3
330
1F
100
AcDbEntity
  8
0
  6
HIDDEN
 62
     7
370
    18
100
AcDbCircle
 10
174.9051947843
 20
122.4459522928
 30
0.0
 40
0.4000000000000057
100
AcDbArc
 50
0.0
 51
90.0
  0
ARC
  5
1C4
330
1F
100
AcDbEntity
  8
0
  6
HIDDEN
 62
     7
370
    18
100
AcDbCircle
 10
174.9051947843
 20
127.0459522928
 30
0.0
 40
0.4000000000000057
100
AcDbArc
 50
270.0
 51
0.0
  0
ARC
  5
1C5
330
1F
100
AcDbEntity
  8
0
  6
HIDDEN
 62
     7
370
    18
100
AcDbCircle
 10
173.750782878
 20
122.4459522928
 30
0.0
 40
0.4000000000000057
100
AcDbArc
 50
90.0
 51
130.0
  0
ARC
  5
1C6
330
1F
100
AcDbEntity
  8
0
  6
HIDDEN
 62
     7
370
    18
100
AcDbCircle
 10
173.750782878
 20
127.0459522928
 30
0.0
 40
0.4000000000000118
100
AcDbArc
 50
230.0
 51
270.0
  0
LINE
  5
1C7
330
1F
100
AcDbEntity
  8
0
  6
HIDDEN
 62
     7
370
    18
100
AcDbLine
 10
173.7507825624
 20
122.8459518697
 30
0.0
 11
174.9051941466
 21
122.8459518697
 31
0.0
  0
LINE
  5
1C8
330
1F
100
AcDbEntity
  8
0
  6
HIDDEN
 62
     7
370
    18
100
AcDbLine
 10
174.9051941466
 20
126.6459528651
 30
0.0
 11
173.7507825624
 21
126.6459528651
 31
0.0
  0
LINE
  5
1C9
330
1F
100
AcDbEntity
  8
0
  6
HIDDEN
 62
     7
370
    18
100
AcDbLine
 10
185.3051951062
 20
127.0459521856
 30
0.0
 11
185.0051974785
 21
126.7459526952
 31
0.0
  0
LINE
  5
1CA
330
1F
100
AcDbEntity
  8
0
  6
HIDDEN
 62
     7
370
    18
100
AcDbLine
 10
185.0051974785
 20
122.7459520395
 30
0.0
 11
185.3051951062
 21
122.4459525491
 31
0.0
  0
LINE
  5
1CB
330
1F
100
AcDbEntity
  8
0
  6
HIDDEN
 62
     7
370
    18
100
AcDbLine
 10
198.7051984202
 20
112.2459521811
 30
0.0
 11
186.5331923496
 21
112.2459521811
 31
0.0
  0
LINE
  5
1CC
330
1F
100
AcDbEntity
  8
0
  6
HIDDEN
 62
     7
370
    18
100
AcDbLine
 10
186.5331923496
 20
102.2459524046
 30
0.0
 11
198.7051984202
 21
102.2459524046
 31
0.0
  0
LINE
  5
1CD
330
1F
100
AcDbEntity
  8
0
  6
HIDDEN
 62
     7
370
    18
100
AcDbLine
 10
186.5331923496
 20
112.2459521811
 30
0.0
 11
185.7051944267
 21
111.4179523955
 31
0.0
  0
LINE
  5
1CE
330
1F
100
AcDbEntity
  8
0
  6
HIDDEN
 62
     7
370
    18
100
AcDbLine
 10
185.7051944267
 20
103.0739521902
 30
0.0
 11
186.5331923496
 21
102.2459524046
 31
0.0
  0
LINE
  5
1CF
330
1F
100
AcDbEntity
  8
0
  6
HIDDEN
 62
     7
370
    18
100
AcDbLine
 10
208.7051963341
 20
111.3034523386
 30
0.0
 11
206.3625996839
 21
107.2459522928
 31
0.0
  0
LINE
  5
1D0
330
1F
100
AcDbEntity
  8
0
  6
HIDDEN
 62
     7
370
    18
100
AcDbLine
 10
206.3625996839
 20
107.2459522928
 30
0.0
 11
208.7051963341
 21
103.1884522471
 31
0.0
  0
LINE
  5
1D1
330
1F
100
AcDbEntity
  8
0
  6
HIDDEN
 62
     7
370
    18
100
AcDbLine
 10
123.7051949743
 20
121.5437878217
 30
0.0
 11
123.7051949743
 21
119.639892533
 31
0.0
  0
LINE
  5
1D2
330
1F
100
AcDbEntity
  8
0
  6
HIDDEN
 62
     7
370
    18
100
AcDbLine
 10
131.7051948886
 20
119.639892533
 30
0.0
 11
131.7051948886
 21
121.5465827207
 31
0.0
  0
LINE
  5
1D3
330
1F
100
AcDbEntity
  8
0
  6
HIDDEN
 62
     7
370
    18
100
AcDbLine
 10
119.7051947843
 20
81.9220211651
 30
0.0
 11
119.7993555566
 21
82.5920090373
 31
0.0
  0
LINE
  5
1D4
330
1F
100
AcDbEntity
  8
0
  6
HIDDEN
 62
     7
370
    18
100
AcDbLine
 10
119.7993555566
 20
131.8998955484
 30
0.0
 11
119.7051947843
 21
132.5698834206
 31
0.0
  0
ARC
  5
1D5
330
1F
100
AcDbEntity
  8
0
  6
HIDDEN
 62
     7
370
    18
100
AcDbCircle
 10
119.2051880317
 20
82.6755146785
 30
0.0
 40
0.60000675266771
100
AcDbArc
 50
352.0
 51
0.0
  0
ARC
  5
1D6
330
1F
100
AcDbEntity
  8
0
  6
HIDDEN
 62
     7
370
    18
100
AcDbCircle
 10
119.2051880317
 20
82.6755146785
 30
0.0
 40
0.6000067526677124
100
AcDbArc
 50
0.0
 51
33.5571153394
  0
ARC
  5
1D7
330
1F
100
AcDbEntity
  8
0
  6
HIDDEN
 62
     7
370
    18
100
AcDbCircle
 10
119.2051880317
 20
131.8163899072
 30
0.0
 40
0.6000067526677121
100
AcDbArc
 50
348.75
 51
8.0
  0
LWPOLYLINE
  5
1D8
330
1F
100
AcDbEntity
  8
0
  6
HIDDEN
 62
     7
370
    18
100
AcDbPolyline
 90
        3
 70
   128
 43
0.0
 10
119.7936658232
 20
131.6993352319
 10
119.7595219915
 20
131.5867774482
 10
119.7051947843
 20
131.4847249831
  0
LINE
  5
1D9
330
1F
100
AcDbEntity
  8
0
  6
HIDDEN
 62
     7
370
    18
100
AcDbLine
 10
119.8051947818
 20
82.6755151446
 30
0.0
 11
119.8051947818
 21
131.8163894411
 31
0.0
  0
ARC
  5
1DA
330
1F
100
AcDbEntity
  8
0
  6
HIDDEN
 62
     7
370
    18
100
AcDbCircle
 10
113.4601967859
 20
95.2459522928
 30
0.0
 40
7.999999999999987
100
AcDbArc
 50
276.8785014991
 51
321.3178125465
  0
ARC
  5
1DB
330
1F
100
AcDbEntity
  8
0
  6
HIDDEN
 62
     7
370
    18
100
AcDbCircle
 10
113.4601967859
 20
119.2459522928
 30
0.0
 40
7.999999999999988
100
AcDbArc
 50
38.6821874535
 51
83.115078547
  0
LINE
  5
1DC
330
1F
100
AcDbEntity
  8
0
  6
HIDDEN
 62
     7
370
    18
100
AcDbLine
 10
102.7876308095
 20
87.2459527399
 30
0.0
 11
106.9793023076
 21
87.2459527399
 31
0.0
  0
LINE
  5
1DD
330
1F
100
AcDbEntity
  8
0
  6
HIDDEN
 62
     7
370
    18
100
AcDbLine
 10
106.9793023076
 20
127.2459518458
 30
0.0
 11
102.7876308095
 21
127.2459518458
 31
0.0
  0
ARC
  5
1DE
330
1F
100
AcDbEntity
  8
0
  6
HIDDEN
 62
     7
370
    18
100
AcDbCircle
 10
102.7876303496
 20
87.8459522928
 30
0.0
 40
0.5999999999999943
100
AcDbArc
 50
210.0
 51
270.0
  0
ARC
  5
1DF
330
1F
100
AcDbEntity
  8
0
  6
HIDDEN
 62
     7
370
    18
100
AcDbCircle
 10
102.7876303496
 20
126.6459522928
 30
0.0
 40
0.5999999999999962
100
AcDbArc
 50
90.0
 51
150.0
  0
LINE
  5
1E0
330
1F
100
AcDbEntity
  8
0
  6
HIDDEN
 62
     7
370
    18
100
AcDbLine
 10
102.2680142801
 20
126.9459523554
 30
0.0
 11
100.70917028
 21
124.2459532167
 31
0.0
  0
LINE
  5
1E1
330
1F
100
AcDbEntity
  8
0
  6
HIDDEN
 62
     7
370
    18
100
AcDbLine
 10
100.70917028
 20
90.245951369
 30
0.0
 11
102.2680142801
 21
87.5459522303
 31
0.0
  0
LINE
  5
1E2
330
1F
100
AcDbEntity
  8
0
  6
HIDDEN
 62
     7
370
    18
100
AcDbLine
 10
123.7051949743
 20
134.5202852334
 30
0.0
 11
123.7051949743
 21
131.1915539499
 31
0.0
  0
LINE
  5
1E3
330
1F
100
AcDbEntity
  8
0
  6
HIDDEN
 62
     7
370
    18
100
AcDbLine
 10
131.7051948886
 20
131.1915539499
 30
0.0
 11
131.7051948886
 21
134.5256179865
 31
0.0
  0
LINE
  5
1E4
330
1F
100
AcDbEntity
  8
0
  6
HIDDEN
 62
     7
370
    18
100
AcDbLine
 10
157.1551954281
 20
123.8082669969
 30
0.0
 11
157.1551954281
 21
114.3170198719
 31
0.0
  0
LINE
  5
1E5
330
1F
100
AcDbEntity
  8
0
  6
HIDDEN
 62
     7
370
    18
100
AcDbLine
 10
162.155194385
 20
114.3170198719
 30
0.0
 11
162.155194385
 21
123.8082669969
 31
0.0
  0
LINE
  5
1E6
330
1F
100
AcDbEntity
  8
0
  6
HIDDEN
 62
     7
370
    18
100
AcDbLine
 10
162.155194385
 20
90.6836375888
 30
0.0
 11
162.155194385
 21
100.1748847138
 31
0.0
  0
LINE
  5
1E7
330
1F
100
AcDbEntity
  8
0
  6
HIDDEN
 62
     7
370
    18
100
AcDbLine
 10
157.1551954281
 20
100.1748847138
 30
0.0
 11
157.1551954281
 21
90.6836375888
 31
0.0
  0
ARC
  5
1E8
330
1F
100
AcDbEntity
  8
0
  6
HIDDEN
 62
     7
370
    18
100
AcDbCircle
 10
128.1551947843
 20
91.5209522928
 30
0.0
 40
1.500000000000004
100
AcDbArc
 50
238.2116693829
 51
0.0
  0
ARC
  5
1E9
330
1F
100
AcDbEntity
  8
0
  6
HIDDEN
 62
     7
370
    18
100
AcDbCircle
 10
128.1551947843
 20
122.9709522928
 30
0.0
 40
1.500000000000004
100
AcDbArc
 50
0.0
 51
121.7883306171
  0
LINE
  5
1EA
330
1F
100
AcDbEntity
  8
0
  6
HIDDEN
 62
     7
370
    18
100
AcDbLine
 10
119.7051947843
 20
90.245951369
 30
0.0
 11
127.3650207464
 21
90.245951369
 31
0.0
  0
LINE
  5
1EB
330
1F
100
AcDbEntity
  8
0
  6
HIDDEN
 62
     7
370
    18
100
AcDbLine
 10
127.3650207464
 20
124.2459532167
 30
0.0
 11
119.7051947843
 21
124.2459532167
 31
0.0
  0
LINE
  5
1EC
330
1F
100
AcDbEntity
  8
0
  6
HIDDEN
 62
     7
370
    18
100
AcDbLine
 10
97.9051945638
 20
90.245951369
 30
0.0
 11
100.70917028
 21
90.245951369
 31
0.0
  0
LINE
  5
1ED
330
1F
100
AcDbEntity
  8
0
  6
HIDDEN
 62
     7
370
    18
100
AcDbLine
 10
100.70917028
 20
124.2459532167
 30
0.0
 11
93.9051939082
 21
124.2459532167
 31
0.0
  0
LINE
  5
1EE
330
1F
100
AcDbEntity
  8
0
  6
HIDDEN
 62
     7
370
    18
100
AcDbLine
 10
179.7051934432
 20
119.9609827544
 30
0.0
 11
179.5110350382
 21
118.5794560532
 31
0.0
  0
LINE
  5
1EF
330
1F
100
AcDbEntity
  8
0
  6
HIDDEN
 62
     7
370
    18
100
AcDbLine
 10
179.5110350382
 20
95.9124485325
 30
0.0
 11
179.7051934432
 21
94.5309218313
 31
0.0
  0
ARC
  5
1F0
330
1F
100
AcDbEntity
  8
0
  6
HIDDEN
 62
     7
370
    18
100
AcDbCircle
 10
180.1051947843
 20
95.9959522928
 30
0.0
 40
0.6000000000000414
100
AcDbArc
 50
168.75
 51
188.0
  0
ARC
  5
1F1
330
1F
100
AcDbEntity
  8
0
  6
HIDDEN
 62
     7
370
    18
100
AcDbCircle
 10
180.1051947843
 20
95.9959522928
 30
0.0
 40
0.6000000000000286
100
AcDbArc
 50
131.8103148958
 51
168.75
  0
ARC
  5
1F2
330
1F
100
AcDbEntity
  8
0
  6
HIDDEN
 62
     7
370
    18
100
AcDbCircle
 10
180.1051947843
 20
118.4959522928
 30
0.0
 40
0.6000000000000414
100
AcDbArc
 50
172.0
 51
180.0
  0
ARC
  5
1F3
330
1F
100
AcDbEntity
  8
0
  6
HIDDEN
 62
     7
370
    18
100
AcDbCircle
 10
180.1051947843
 20
118.4959522928
 30
0.0
 40
0.6000000000000227
100
AcDbArc
 50
180.0
 51
228.1896851042
  0
LINE
  5
1F4
330
1F
100
AcDbEntity
  8
0
  6
HIDDEN
 62
     7
370
    18
100
AcDbLine
 10
179.505193783
 20
118.4959527399
 30
0.0
 11
179.505193783
 21
95.9959518458
 31
0.0
  0
LINE
  5
1F5
330
1F
100
AcDbEntity
  8
0
  6
HIDDEN
 62
     7
370
    18
100
AcDbLine
 10
138.5051945131
 20
97.7459525983
 30
0.0
 11
141.5051950049
 21
97.7459525983
 31
0.0
  0
LINE
  5
1F6
330
1F
100
AcDbEntity
  8
0
  6
HIDDEN
 62
     7
370
    18
100
AcDbLine
 10
141.5051950049
 20
116.7459519874
 30
0.0
 11
138.5051945131
 21
116.7459519874
 31
0.0
  0
LINE
  5
1F7
330
1F
100
AcDbEntity
  8
0
  6
HIDDEN
 62
     7
370
    18
100
AcDbLine
 10
129.6551946458
 20
98.2459526803
 30
0.0
 11
130.1551947277
 21
98.7459518309
 31
0.0
  0
LINE
  5
1F8
330
1F
100
AcDbEntity
  8
0
  6
HIDDEN
 62
     7
370
    18
100
AcDbLine
 10
130.1551947277
 20
115.7459527548
 30
0.0
 11
129.6551946458
 21
116.2459519054
 31
0.0
  0
LINE
  5
1F9
330
1F
100
AcDbEntity
  8
0
  6
HIDDEN
 62
     7
370
    18
100
AcDbLine
 10
172.3551956844
 20
99.4677775833
 30
0.0
 11
172.3551956844
 21
100.3339834805
 31
0.0
  0
LINE
  5
1FA
330
1F
100
AcDbEntity
  8
0
  6
HIDDEN
 62
     7
370
    18
100
AcDbLine
 10
169.0551957023
 20
100.3339834805
 30
0.0
 11
169.0551957023
 21
99.4677775833
 31
0.0
  0
LINE
  5
1FB
330
1F
100
AcDbEntity
  8
0
  6
HIDDEN
 62
     7
370
    18
100
AcDbLine
 10
130.1551947277
 20
98.7459518309
 30
0.0
 11
138.5051945131
 21
98.7459518309
 31
0.0
  0
LINE
  5
1FC
330
1F
100
AcDbEntity
  8
0
  6
HIDDEN
 62
     7
370
    18
100
AcDbLine
 10
138.5051945131
 20
115.7459527548
 30
0.0
 11
130.1551947277
 21
115.7459527548
 31
0.0
  0
LINE
  5
1FD
330
1F
100
AcDbEntity
  8
0
  6
HIDDEN
 62
     7
370
    18
100
AcDbLine
 10
124.6551947575
 20
138.7459527995
 30
0.0
 11
124.6551947575
 21
133.6459521498
 31
0.0
  0
LINE
  5
1FE
330
1F
100
AcDbEntity
  8
0
  6
HIDDEN
 62
     7
370
    18
100
AcDbLine
 10
198.7051984202
 20
103.1507094684
 30
0.0
 11
171.8719212245
 21
103.1507094684
 31
0.0
  0
LINE
  5
1FF
330
1F
100
AcDbEntity
  8
0
  6
HIDDEN
 62
     7
370
    18
100
AcDbLine
 10
171.8719212245
 20
99.8507094863
 30
0.0
 11
198.7051984202
 21
99.8507094863
 31
0.0
  0
LINE
  5
200
330
1F
100
AcDbEntity
  8
0
  6
HIDDEN
 62
     7
370
    18
100
AcDbLine
 10
168.7051935028
 20
103.1507094684
 30
0.0
 11
167.7137745451
 21
101.5007094774
 31
0.0
  0
LINE
  5
201
330
1F
100
AcDbEntity
  8
0
  6
HIDDEN
 62
     7
370
    18
100
AcDbLine
 10
167.7137745451
 20
101.5007094774
 30
0.0
 11
168.7051935028
 21
99.8507094863
 31
0.0
  0
LINE
  5
202
330
1F
100
AcDbEntity
  8
0
  6
HIDDEN
 62
     7
370
    18
100
AcDbLine
 10
169.5384701621
 20
103.1507094684
 30
0.0
 11
168.7051935028
 21
103.1507094684
 31
0.0
  0
LINE
  5
203
330
1F
100
AcDbEntity
  8
0
  6
HIDDEN
 62
     7
370
    18
100
AcDbLine
 10
168.7051935028
 20
99.8507094863
 30
0.0
 11
169.5384701621
 21
99.8507094863
 31
0.0
  0
LINE
  5
204
330
1F
100
AcDbEntity
  8
0
  6
HIDDEN
 62
     7
370
    18
100
AcDbLine
 10
172.3551956844
 20
102.6674359399
 30
0.0
 11
172.3551956844
 21
104.2806801214
 31
0.0
  0
LINE
  5
205
330
1F
100
AcDbEntity
  8
0
  6
HIDDEN
 62
     7
370
    18
100
AcDbLine
 10
169.0551957023
 20
104.2813921175
 30
0.0
 11
169.0551957023
 21
102.6674359399
 31
0.0
  0
ARC
  5
206
330
1F
100
AcDbEntity
  8
0
  6
HIDDEN
 62
     7
370
    18
100
AcDbCircle
 10
197.9051947843
 20
101.1959522928
 30
0.0
 40
0.7999999999999972
100
AcDbArc
 50
0.0
 51
90.0
  0
ARC
  5
207
330
1F
100
AcDbEntity
  8
0
  6
HIDDEN
 62
     7
370
    18
100
AcDbCircle
 10
197.9051947843
 20
113.2959522928
 30
0.0
 40
0.7999999999999972
100
AcDbArc
 50
270.0
 51
0.0
  0
LINE
  5
208
330
1F
100
AcDbEntity
  8
0
  6
HIDDEN
 62
     7
370
    18
100
AcDbLine
 10
193.2051947247
 20
101.9959523636
 30
0.0
 11
197.9051923286
 21
101.9959523636
 31
0.0
  0
LINE
  5
209
330
1F
100
AcDbEntity
  8
0
  6
HIDDEN
 62
     7
370
    18
100
AcDbLine
 10
197.9051923286
 20
112.4959522221
 30
0.0
 11
193.2051947247
 21
112.4959522221
 31
0.0
  0
LINE
  5
20A
330
1F
100
AcDbEntity
  8
0
  6
HIDDEN
 62
     7
370
    18
100
AcDbLine
 10
193.2051947247
 20
112.4959522221
 30
0.0
 11
192.5742944609
 21
111.4459521431
 31
0.0
  0
LINE
  5
20B
330
1F
100
AcDbEntity
  8
0
  6
HIDDEN
 62
     7
370
    18
100
AcDbLine
 10
192.5742944609
 20
103.0459524426
 30
0.0
 11
193.2051947247
 21
101.9959523636
 31
0.0
  0
LINE
  5
20C
330
1F
100
AcDbEntity
  8
0
  6
HIDDEN
 62
     7
370
    18
100
AcDbLine
 10
114.8896326218
 20
83.1665810491
 30
0.0
 11
114.4552004431
 21
83.6456477936
 31
0.0
  0
LINE
  5
20D
330
1F
100
AcDbEntity
  8
0
  6
HIDDEN
 62
     7
370
    18
100
AcDbLine
 10
106.9551968854
 20
84.0673357542
 30
0.0
 11
106.4727634098
 21
83.5882690098
 31
0.0
  0
LINE
  5
20E
330
1F
100
AcDbEntity
  8
0
  6
HIDDEN
 62
     7
370
    18
100
AcDbLine
 10
106.4726414066
 20
130.903629988
 30
0.0
 11
106.9551922288
 21
130.4245092268
 31
0.0
  0
LINE
  5
20F
330
1F
100
AcDbEntity
  8
0
  6
HIDDEN
 62
     7
370
    18
100
AcDbLine
 10
114.4551948551
 20
130.8462083633
 30
0.0
 11
114.8897369299
 21
131.3253272619
 31
0.0
  0
LINE
  5
210
330
1F
100
AcDbEntity
  8
0
  6
HIDDEN
 62
     7
370
    18
100
AcDbLine
 10
141.5051950049
 20
103.0459524426
 30
0.0
 11
192.5742944609
 21
103.0459524426
 31
0.0
  0
LINE
  5
211
330
1F
100
AcDbEntity
  8
0
  6
HIDDEN
 62
     7
370
    18
100
AcDbLine
 10
192.5742944609
 20
111.4459521431
 30
0.0
 11
141.5051950049
 21
111.4459521431
 31
0.0
  0
LINE
  5
212
330
1F
100
AcDbEntity
  8
0
  6
HIDDEN
 62
     7
370
    18
100
AcDbLine
 10
179.7051934432
 20
128.745953023
 30
0.0
 11
174.7051944863
 21
128.745953023
 31
0.0
  0
LINE
  5
213
330
1F
100
AcDbEntity
  8
0
  6
HIDDEN
 62
     7
370
    18
100
AcDbLine
 10
174.7051944863
 20
120.745952643
 30
0.0
 11
179.7051934432
 21
120.745952643
 31
0.0
  0
LINE
  5
214
330
1F
100
AcDbEntity
  8
0
  6
HIDDEN
 62
     7
370
    18
100
AcDbLine
 10
179.7051934432
 20
93.7459519427
 30
0.0
 11
174.7051944863
 21
93.7459519427
 31
0.0
  0
LINE
  5
215
330
1F
100
AcDbEntity
  8
0
  6
HIDDEN
 62
     7
370
    18
100
AcDbLine
 10
174.7051944863
 20
85.7459515627
 30
0.0
 11
179.7051934432
 21
85.7459515627
 31
0.0
  0
LINE
  5
216
330
1F
100
AcDbEntity
  8
0
  6
HIDDEN
 62
     7
370
    18
100
AcDbLine
 10
114.4551948551
 20
127.1813534494
 30
0.0
 11
114.4551948551
 21
130.8459159281
 31
0.0
  0
LINE
  5
217
330
1F
100
AcDbEntity
  8
0
  6
HIDDEN
 62
     7
370
    18
100
AcDbLine
 10
106.9551950228
 20
130.4243658032
 30
0.0
 11
106.9551950228
 21
127.2415746297
 31
0.0
  0
LINE
  5
218
330
1F
100
AcDbEntity
  8
0
  6
HIDDEN
 62
     7
370
    18
100
AcDbLine
 10
114.4551948551
 20
83.6461302187
 30
0.0
 11
114.4551948551
 21
87.3105511363
 31
0.0
  0
LINE
  5
219
330
1F
100
AcDbEntity
  8
0
  6
HIDDEN
 62
     7
370
    18
100
AcDbLine
 10
106.9551950228
 20
87.250329956
 30
0.0
 11
106.9551950228
 21
84.0676579918
 31
0.0
  0
LINE
  5
21A
330
1F
100
AcDbEntity
  8
0
  6
HIDDEN
 62
     7
370
    18
100
AcDbLine
 10
174.7051944863
 20
92.3459524583
 30
0.0
 11
174.205193473
 21
91.8459523763
 31
0.0
  0
LINE
  5
21B
330
1F
100
AcDbEntity
  8
0
  6
HIDDEN
 62
     7
370
    18
100
AcDbLine
 10
174.205193473
 20
87.6459520604
 30
0.0
 11
174.7051944863
 21
87.1459529098
 31
0.0
  0
LINE
  5
21C
330
1F
100
AcDbEntity
  8
0
  6
HIDDEN
 62
     7
370
    18
100
AcDbLine
 10
174.7051944863
 20
127.3459516759
 30
0.0
 11
174.205193473
 21
126.8459525253
 31
0.0
  0
LINE
  5
21D
330
1F
100
AcDbEntity
  8
0
  6
HIDDEN
 62
     7
370
    18
100
AcDbLine
 10
174.205193473
 20
122.6459522094
 30
0.0
 11
174.7051944863
 21
122.1459521274
 31
0.0
  0
LINE
  5
21E
330
1F
100
AcDbEntity
  8
0
  6
HIDDEN
 62
     7
370
    18
100
AcDbLine
 10
174.205193473
 20
126.8459525253
 30
0.0
 11
163.7051945459
 21
126.8459525253
 31
0.0
  0
LINE
  5
21F
330
1F
100
AcDbEntity
  8
0
  6
HIDDEN
 62
     7
370
    18
100
AcDbLine
 10
163.7051945459
 20
122.6459522094
 30
0.0
 11
174.205193473
 21
122.6459522094
 31
0.0
  0
LINE
  5
220
330
1F
100
AcDbEntity
  8
0
  6
HIDDEN
 62
     7
370
    18
100
AcDbLine
 10
174.205193473
 20
91.8459523763
 30
0.0
 11
163.7051945459
 21
91.8459523763
 31
0.0
  0
LINE
  5
221
330
1F
100
AcDbEntity
  8
0
  6
HIDDEN
 62
     7
370
    18
100
AcDbLine
 10
163.7051945459
 20
87.6459520604
 30
0.0
 11
174.205193473
 21
87.6459520604
 31
0.0
  0
LINE
  5
222
330
1F
100
AcDbEntity
  8
0
  6
HIDDEN
 62
     7
370
    18
100
AcDbLine
 10
163.7051945459
 20
126.8459525253
 30
0.0
 11
162.4433865678
 21
124.7459523674
 31
0.0
  0
LINE
  5
223
330
1F
100
AcDbEntity
  8
0
  6
HIDDEN
 62
     7
370
    18
100
AcDbLine
 10
162.4433865678
 20
124.7459523674
 30
0.0
 11
163.7051945459
 21
122.6459522094
 31
0.0
  0
LINE
  5
224
330
1F
100
AcDbEntity
  8
0
  6
HIDDEN
 62
     7
370
    18
100
AcDbLine
 10
163.7051945459
 20
91.8459523763
 30
0.0
 11
162.4433865678
 21
89.7459522183
 31
0.0
  0
LINE
  5
225
330
1F
100
AcDbEntity
  8
0
  6
HIDDEN
 62
     7
370
    18
100
AcDbLine
 10
162.4433865678
 20
89.7459522183
 30
0.0
 11
163.7051945459
 21
87.6459520604
 31
0.0
  0
LINE
  5
226
330
1F
100
AcDbEntity
  8
0
  6
HIDDEN
 62
     7
370
    18
100
AcDbLine
 10
172.3551956844
 20
110.2105124682
 30
0.0
 11
172.3551956844
 21
111.8244686458
 31
0.0
  0
LINE
  5
227
330
1F
100
AcDbEntity
  8
0
  6
HIDDEN
 62
     7
370
    18
100
AcDbLine
 10
169.0551957023
 20
111.8244686458
 30
0.0
 11
169.0551957023
 21
110.2112244643
 31
0.0
  0
LINE
  5
228
330
1F
100
AcDbEntity
  8
0
  6
HIDDEN
 62
     7
370
    18
100
AcDbLine
 10
169.5384701621
 20
114.6411950994
 30
0.0
 11
168.7051935028
 21
114.6411950994
 31
0.0
  0
LINE
  5
229
330
1F
100
AcDbEntity
  8
0
  6
HIDDEN
 62
     7
370
    18
100
AcDbLine
 10
168.7051935028
 20
111.3411951173
 30
0.0
 11
169.5384701621
 21
111.3411951173
 31
0.0
  0
LINE
  5
22A
330
1F
100
AcDbEntity
  8
0
  6
HIDDEN
 62
     7
370
    18
100
AcDbLine
 10
198.7051984202
 20
114.6411950994
 30
0.0
 11
171.8719212245
 21
114.6411950994
 31
0.0
  0
LINE
  5
22B
330
1F
100
AcDbEntity
  8
0
  6
HIDDEN
 62
     7
370
    18
100
AcDbLine
 10
171.8719212245
 20
111.3411951173
 30
0.0
 11
198.7051984202
 21
111.3411951173
 31
0.0
  0
LINE
  5
22C
330
1F
100
AcDbEntity
  8
0
  6
HIDDEN
 62
     7
370
    18
100
AcDbLine
 10
168.7051935028
 20
114.6411950994
 30
0.0
 11
167.7137745451
 21
112.9911951083
 31
0.0
  0
LINE
  5
22D
330
1F
100
AcDbEntity
  8
0
  6
HIDDEN
 62
     7
370
    18
100
AcDbLine
 10
167.7137745451
 20
112.9911951083
 30
0.0
 11
168.7051935028
 21
111.3411951173
 31
0.0
  0
LINE
  5
22E
330
1F
100
AcDbEntity
  8
0
  6
HIDDEN
 62
     7
370
    18
100
AcDbLine
 10
172.3551956844
 20
114.1579211052
 30
0.0
 11
172.3551956844
 21
122.3528575446
 31
0.0
  0
LINE
  5
22F
330
1F
100
AcDbEntity
  8
0
  6
HIDDEN
 62
     7
370
    18
100
AcDbLine
 10
169.0551957023
 20
122.3528575446
 30
0.0
 11
169.0551957023
 21
114.1579211052
 31
0.0
  0
DIMENSION
  5
230
330
1F
100
AcDbEntity
  8
VERMASSUNG
100
AcDbDimension
  2
_D
 10
81.0367828946
 20
75.7459522928
 30
0.0
 11
81.0367828946
 21
106.7142904436
 31
0.0
 70
   160
  1
HSK A %%c<>
 71
     2
 42
-1.0
  3
SLDDIMSTYLE0
100
AcDbAlignedDimension
 13
120.0051947843
 23
138.7459522928
 33
0.0
 14
120.0051947843
 24
75.7459522928
 34
0.0
 50
90.0
100
AcDbRotatedDimension
  0
DIMENSION
  5
23D
330
1F
100
AcDbEntity
  8
VERMASSUNG
100
AcDbDimension
  2
_D_1
 10
198.7051947843
 20
158.0179205996
 30
0.0
 11
149.0879394667
 21
158.0179205996
 31
0.0
 70
   160
  1
<>
 71
     2
 42
-1.0
  3
SLDDIMSTYLE0
100
AcDbAlignedDimension
 13
87.8051947843
 23
126.9366300393
 33
0.0
 14
198.7051947843
 24
97.0459522928
 34
0.0
100
AcDbRotatedDimension
  0
DIMENSION
  5
247
330
1F
100
AcDbEntity
  8
VERMASSUNG
100
AcDbDimension
  2
_D_2
 10
179.7051947843
 20
152.0179205996
 30
0.0
 11
150.6148214186
 21
152.0179205996
 31
0.0
 70
   160
  1
<>
 71
     2
 42
-1.0
  3
SLDDIMSTYLE0
100
AcDbAlignedDimension
 13
119.7051947843
 23
138.4459522928
 33
0.0
 14
179.7051947843
 24
130.4459522928
 34
0.0
100
AcDbRotatedDimension
  0
DIMENSION
  5
251
330
1F
100
AcDbEntity
  8
VERMASSUNG
100
AcDbDimension
  2
_D_3
 10
179.7051947843
 20
146.0179205996
 30
0.0
 11
189.2051947843
 21
146.0179205996
 31
0.0
 70
   160
  1
<>
 71
     2
 42
-1.0
  3
SLDDIMSTYLE0
100
AcDbAlignedDimension
 13
198.7051947843
 23
97.0459522928
 33
0.0
 14
179.7051947843
 24
130.4459522928
 34
0.0
100
AcDbRotatedDimension
  0
DIMENSION
  5
25B
330
1F
100
AcDbEntity
  8
VERMASSUNG
100
AcDbDimension
  2
_D_4
 10
179.7051947843
 20
146.0179205996
 30
0.0
 11
162.4986083822
 21
146.0179205996
 31
0.0
 70
   160
  1
<>
 71
     2
 42
-1.0
  3
SLDDIMSTYLE0
100
AcDbAlignedDimension
 13
145.6551947843
 23
137.0923926166
 33
0.0
 14
179.7051947843
 24
130.4459522928
 34
0.0
100
AcDbRotatedDimension
  0
DIMENSION
  5
265
330
1F
100
AcDbEntity
  8
VERMASSUNG
100
AcDbDimension
  2
_D_5
 10
226.5871477535
 20
96.2459522928
 30
0.0
 11
226.5871477535
 21
106.7142904436
 31
0.0
 70
   160
  1
%%c<>
 71
     2
 42
-1.0
  3
SLDDIMSTYLE0
100
AcDbAlignedDimension
 13
197.9051947843
 23
118.2459522928
 33
0.0
 14
197.9051947843
 24
96.2459522928
 34
0.0
 50
90.0
100
AcDbRotatedDimension
  0
DIMENSION
  5
270
330
1F
100
AcDbEntity
  8
VERMASSUNG
100
AcDbDimension
  2
_D_6
 10
232.5871477535
 20
83.2459522928
 30
0.0
 11
232.5871477535
 21
106.7142904436
 31
0.0
 70
   160
  1
%%c<>
 71
     2
 42
-1.0
  3
SLDDIMSTYLE0
100
AcDbAlignedDimension
 13
178.9051947843
 23
131.2459522928
 33
0.0
 14
178.9051947843
 24
83.2459522928
 34
0.0
 50
90.0
100
AcDbRotatedDimension
  0
LINE
  5
27B
330
1F
100
AcDbEntity
  8
VERMASSUNG
  6
CENTERX2
 62
     7
370
    18
100
AcDbLine
 10
85.659890942
 20
107.2459522928
 30
0.0
 11
215.7051947843
 21
107.2459522928
 31
0.0
  0
OLE2FRAME
  5
27C
330
1F
100
AcDbEntity
  8
0
100
AcDbOle2Frame
 70
     2
  3
Paintbrush-Bild
 10
13.8511154363
 20
38.264191557
 30
0.0
 11
51.6290888628
 21
31.9806341108
 31
0.0
 71
     2
 72
     0
 73
     1
 90
    12928
310
80552BED0767C5B32B40DDAF6807D121434000000000000000006FFBDDFB85D0
310
4940DDAF6807D121434000000000000000006FFBDDFB85D04940416F4BD60AFB
310
3F4000000000000000002BED0767C5B32B40416F4BD60AFB3F40000000000000
310
0000000000000100000000010000010000000100000000000100000000320000
310
D0CF11E0A1B11AE1000000000000000000000000000000003E000300FEFF0900
310
0600000000000000000000000100000001000000000000000010000002000000
310
01000000FEFFFFFF0000000000000000FFFFFFFFFFFFFFFFFFFFFFFFFFFFFFFF
310
FFFFFFFFFFFFFFFFFFFFFFFFFFFFFFFFFFFFFFFFFFFFFFFFFFFFFFFFFFFFFFFF
310
FFFFFFFFFFFFFFFFFFFFFFFFFFFFFFFFFFFFFFFFFFFFFFFFFFFFFFFFFFFFFFFF
310
FFFFFFFFFFFFFFFFFFFFFFFFFFFFFFFFFFFFFFFFFFFFFFFFFFFFFFFFFFFFFFFF
310
FFFFFFFFFFFFFFFFFFFFFFFFFFFFFFFFFFFFFFFFFFFFFFFFFFFFFFFFFFFFFFFF
310
FFFFFFFFFFFFFFFFFFFFFFFFFFFFFFFFFFFFFFFFFFFFFFFFFFFFFFFFFFFFFFFF
310
FFFFFFFFFFFFFFFFFFFFFFFFFFFFFFFFFFFFFFFFFFFFFFFFFFFFFFFFFFFFFFFF
310
FFFFFFFFFFFFFFFFFFFFFFFFFFFFFFFFFFFFFFFFFFFFFFFFFFFFFFFFFFFFFFFF
310
FFFFFFFFFFFFFFFFFFFFFFFFFFFFFFFFFFFFFFFFFFFFFFFFFFFFFFFFFFFFFFFF
310
FFFFFFFFFFFFFFFFFFFFFFFFFFFFFFFFFFFFFFFFFFFFFFFFFFFFFFFFFFFFFFFF
310
FFFFFFFFFFFFFFFFFFFFFFFFFFFFFFFFFFFFFFFFFFFFFFFFFFFFFFFFFFFFFFFF
310
FFFFFFFFFFFFFFFFFFFFFFFFFFFFFFFFFFFFFFFFFFFFFFFFFFFFFFFFFFFFFFFF
310
FFFFFFFFFFFFFFFFFFFFFFFFFFFFFFFFFFFFFFFFFFFFFFFFFFFFFFFFFFFFFFFF
310
FFFFFFFFFFFFFFFFFFFFFFFFFFFFFFFFFFFFFFFFFFFFFFFFFFFFFFFFFFFFFFFF
310
FDFFFFFFFEFFFFFFFEFFFFFFFEFFFFFF05000000060000000700000008000000
310
090000000A0000000B0000000C0000000D0000000E0000000F00000010000000
310
11000000120000001300000014000000150000001600000017000000FEFFFFFF
310
FFFFFFFFFFFFFFFFFFFFFFFFFFFFFFFFFFFFFFFFFFFFFFFFFFFFFFFFFFFFFFFF
310
FFFFFFFFFFFFFFFFFFFFFFFFFFFFFFFFFFFFFFFFFFFFFFFFFFFFFFFFFFFFFFFF
310
FFFFFFFFFFFFFFFFFFFFFFFFFFFFFFFFFFFFFFFFFFFFFFFFFFFFFFFFFFFFFFFF
310
FFFFFFFFFFFFFFFFFFFFFFFFFFFFFFFFFFFFFFFFFFFFFFFFFFFFFFFFFFFFFFFF
310
FFFFFFFFFFFFFFFFFFFFFFFFFFFFFFFFFFFFFFFFFFFFFFFFFFFFFFFFFFFFFFFF
310
FFFFFFFFFFFFFFFFFFFFFFFFFFFFFFFFFFFFFFFFFFFFFFFFFFFFFFFFFFFFFFFF
310
FFFFFFFFFFFFFFFFFFFFFFFFFFFFFFFFFFFFFFFFFFFFFFFFFFFFFFFFFFFFFFFF
310
FFFFFFFFFFFFFFFFFFFFFFFFFFFFFFFFFFFFFFFFFFFFFFFFFFFFFFFFFFFFFFFF
310
FFFFFFFFFFFFFFFFFFFFFFFFFFFFFFFFFFFFFFFFFFFFFFFFFFFFFFFFFFFFFFFF
310
FFFFFFFFFFFFFFFFFFFFFFFFFFFFFFFFFFFFFFFFFFFFFFFFFFFFFFFFFFFFFFFF
310
FFFFFFFFFFFFFFFFFFFFFFFFFFFFFFFFFFFFFFFFFFFFFFFFFFFFFFFFFFFFFFFF
310
FFFFFFFFFFFFFFFFFFFFFFFFFFFFFFFFFFFFFFFFFFFFFFFFFFFFFFFFFFFFFFFF
310
FFFFFFFFFFFFFFFFFFFFFFFFFFFFFFFFFFFFFFFFFFFFFFFFFFFFFFFFFFFFFFFF
310
52006F006F007400200045006E00740072007900000000000000000000000000
310
0000000000000000000000000000000000000000000000000000000000000000
310
16000500FFFFFFFFFFFFFFFF020000000A00030000000000C000000000000046
310
000000000000000000000000A0B36BEF33A7D30103000000C000000000000000
310
01004F006C006500000000000000000000000000000000000000000000000000
310
0000000000000000000000000000000000000000000000000000000000000000
310
0A000200FFFFFFFFFFFFFFFFFFFFFFFF00000000000000000000000000000000
310
0000000000000000000000000000000000000000000000001400000000000000
310
010043006F006D0070004F0062006A0000000000000000000000000000000000
310
0000000000000000000000000000000000000000000000000000000000000000
310
120002010100000003000000FFFFFFFF00000000000000000000000000000000
310
0000000000000000000000000000000000000000010000004D00000000000000
310
01004F006C006500310030004E00610074006900760065000000000000000000
310
0000000000000000000000000000000000000000000000000000000000000000
310
1A000200FFFFFFFFFFFFFFFFFFFFFFFF00000000000000000000000000000000
310
0000000000000000000000000000000000000000040000002426000000000000
310
FEFFFFFF02000000FEFFFFFFFFFFFFFFFFFFFFFFFFFFFFFFFFFFFFFFFFFFFFFF
310
FFFFFFFFFFFFFFFFFFFFFFFFFFFFFFFFFFFFFFFFFFFFFFFFFFFFFFFFFFFFFFFF
310
FFFFFFFFFFFFFFFFFFFFFFFFFFFFFFFFFFFFFFFFFFFFFFFFFFFFFFFFFFFFFFFF
310
FFFFFFFFFFFFFFFFFFFFFFFFFFFFFFFFFFFFFFFFFFFFFFFFFFFFFFFFFFFFFFFF
310
FFFFFFFFFFFFFFFFFFFFFFFFFFFFFFFFFFFFFFFFFFFFFFFFFFFFFFFFFFFFFFFF
310
FFFFFFFFFFFFFFFFFFFFFFFFFFFFFFFFFFFFFFFFFFFFFFFFFFFFFFFFFFFFFFFF
310
FFFFFFFFFFFFFFFFFFFFFFFFFFFFFFFFFFFFFFFFFFFFFFFFFFFFFFFFFFFFFFFF
310
FFFFFFFFFFFFFFFFFFFFFFFFFFFFFFFFFFFFFFFFFFFFFFFFFFFFFFFFFFFFFFFF
310
FFFFFFFFFFFFFFFFFFFFFFFFFFFFFFFFFFFFFFFFFFFFFFFFFFFFFFFFFFFFFFFF
310
FFFFFFFFFFFFFFFFFFFFFFFFFFFFFFFFFFFFFFFFFFFFFFFFFFFFFFFFFFFFFFFF
310
FFFFFFFFFFFFFFFFFFFFFFFFFFFFFFFFFFFFFFFFFFFFFFFFFFFFFFFFFFFFFFFF
310
FFFFFFFFFFFFFFFFFFFFFFFFFFFFFFFFFFFFFFFFFFFFFFFFFFFFFFFFFFFFFFFF
310
FFFFFFFFFFFFFFFFFFFFFFFFFFFFFFFFFFFFFFFFFFFFFFFFFFFFFFFFFFFFFFFF
310
FFFFFFFFFFFFFFFFFFFFFFFFFFFFFFFFFFFFFFFFFFFFFFFFFFFFFFFFFFFFFFFF
310
FFFFFFFFFFFFFFFFFFFFFFFFFFFFFFFFFFFFFFFFFFFFFFFFFFFFFFFFFFFFFFFF
310
FFFFFFFFFFFFFFFFFFFFFFFFFFFFFFFFFFFFFFFFFFFFFFFFFFFFFFFFFFFFFFFF
310
0100000200000000000000000000000000000000000000000000000000000000
310
0000000000000000000000000000000000000000000000000000000000000000
310
0100FEFF030A0000FFFFFFFF0A00030000000000C00000000000004607000000
310
5042727573680007000000504272757368000700000050427275736800F439B2
310
7100000000000000000000000000000000000000000000000000000000000000
310
0000000000000000000000000000000000000000000000000000000000000000
310
0000000000000000000000000000000000000000000000000000000000000000
310
0000000000000000000000000000000000000000000000000000000000000000
310
0000000000000000000000000000000000000000000000000000000000000000
310
0000000000000000000000000000000000000000000000000000000000000000
310
0000000000000000000000000000000000000000000000000000000000000000
310
0000000000000000000000000000000000000000000000000000000000000000
310
0000000000000000000000000000000000000000000000000000000000000000
310
0000000000000000000000000000000000000000000000000000000000000000
310
0000000000000000000000000000000000000000000000000000000000000000
310
0000000000000000000000000000000000000000000000000000000000000000
310
20260000424D0E260000000000003E00000028000000B40200006E0000000100
310
01000000000000000000130B0000130B00000200000002000000000000FFFFFF
310
FFFFFFFFFFFFFFFFFFFFFFFFFFFFFFFFFFFFFFFFFFFFFFFFFFFFFFFFFFFFFFFF
310
FFFFFFFFFFFFFFFFFFFFFFFFFFFFFFFFFFFFFFFFFFFFFFFFFFFFFFFFFFFFFFFF
310
FFFFFFFFFFFFFFFFFFFFFFFFFFFFFFFFFFFFFFFFFFFFFFFFF000FFFFFFFFFFFF
310
FFFFFFFFFFFFFFFFFFFFFFFFFFFFFFFFFFFFFFFFFFFFFFFFFFFFFFFFFFFFFFFF
310
FFFFFFFFFFFFFFFFFFFFFFFFFFFFFFFFFFFFFFFFFFFFFFFFFFFFFFFFFFFFFFFF
310
FFFFFFFFFFFFFFFFFFFFFFFFFFFFFFFFF000FFFFFFFFFFFFFFFFFFFFFFFFFFFF
310
FFFFFFFFFFFFFFFFFFFFFFFFFFFFFFFFFFFFFFFFFFFFFFFFFFFFFFFFFFFFFFFF
310
FFFFFFFFFFFFFFFFFFFFFFFFFFFFFFFFFFFFFFFFFFFFFFFFFFFFFFFFFFFFFFFF
310
FFFFFFFFFFFFFFFFF000FFFFFFFFFFFFFFFFFFFFFFFFFFFFFFFFFFFFFFFFFFFF
310
FFFFFFFFFFFFFFFFFFFFFFFFFFFFFFFFFFFFFFFFFFFFFFFFFFFFFFFFFFFFFFFF
310
FFFFFFFFFFFFFFFFFFFFFFFFFFFFFFFFFFFFFFFFFFFFFFFFFFFFFFFFFFFFFFFF
310
F000FFFFFFFFFFFFFFFFFFFFFFFFFFFFFFFFFFFFFFFFFFFFFFFFFFFFFFFFFFFF
310
FFFFFFFFFFFFFFFFFFFFFFFFFFFFFFFFFFFFFFFFFFFFFFFFFFFFFFFFFFFFFFFF
310
FFFFFFFFFFFFFFFFFFFFFFFFFFFFFFFFFFFFFFFFFFFFFFFFF000FFFFFFFFFFFF
310
FFFFFFFFFFFFFFFFFFFFFFFFFFFFFFFFFFFFFFFFFFFFFFFFFFFFFFFFFFFFFFFF
310
FFFFFFFFFFFFFFFFFFFFFFFFFFFFFFFFFFFFFFFFFFFFFFFFFFFFFFFFFFFFFFFF
310
FFFFFFFFFFFFFFFFFFFFFFFFFFFFFFFFF000FFFFFFFFFFFFFFFFFFFFFFFFFFFF
310
FFFFFFFFFFFFFFFFFFFFFFFFFFFFFFFFFFFFFFFFFFFFFFFFFFFFFFFFFFFFFFFF
310
FFFFFFFFFFFFFFFFFFFFFFFFFFFFFFFFFFFFFFFFFFFFFFFFFFFFFFFFFFFFFFFF
310
FFFFFFFFFFFFFFFFF000FFFFFFFFFFFFFFFFFFFFFFFFFFFFFFFFFFFFFFFFFFFF
310
FFFFFFFFFFFFFFFFFFFFFFFFFFFFFFFFFFFFFFFFFFFFFFFFFFFFFFFFFFFFFFFF
310
FFFFFFFFFFFFFFFFFFFFFFFFFFFFFFFFFFFFFFFFFFFFFFFFFFFFFFFFFFFFFFFF
310
F000FFFFFFFFFFFFFFFFFFFFFFFFFFFFFFFFFFFFFFFFFFFFFFFFFFFFFFFFFFFF
310
FFFFFFFFFFFFFFFFFFFFFFFFFFFFFFFFFFFFFFFFFFFFFFFFFFFFFFFFFFFFFFFF
310
FFFFFFFFFFFFFFFFFFFFFFFFFFFFFFFFFFFFFFFFFFFFFFFFF000FFFFFFFFFFFF
310
FFFFFFFFFFFFFFFFFFFFFFFFFFFFFFFFFFFFFFFFFFFFFFFFFFFFFFFFFFFFFFFF
310
FFFFFFFFFFFFFFFFFFFFFFFFFFFFFFFFFFFFFFFFFFFFFFFFFFFFFFFFFFFFFFFF
310
FFFFFFFFFFFFFFFFFFFFFFFFFFFFFFFFF000FFFFFFFFFFFFFFFFFFFFFFFFFFFF
310
FFFFFFFFFFFFFFFFFFFFFFFFFFFFFFFFFFFFFFFFFFFFFFFFFFFFFFFFFFFFFFFF
310
FFFFFFFFFFFFFFFFFFFFFFFFFFFFFFFFFFFFFFFFFFFFFFFFFFFFFFFFFFFFFFFF
310
FFFFFFFFFFFFFFFFF000FFFFFFFFFFFFFFFFFFFFFFFFFFFFFFFFFFFFFFFFFFFF
310
FFFFFFFFFFFFFFFFFFFFFFFFFFFFFFFFFFFFFFFFFFFFFFFFFFFFFFFFFFFFFFFF
310
FFFFFFFFFFFFFFFFFFFFFFFFFFFFFFFFFFFFFFFFFFFFFFFFFFFFFFFFFFFFFFFF
310
F000FFFFFFFFFFFFFFFFFFFFFFFFFFFFFFFFFFFFFFFFFFFFFFFFFFFFFFFFFFFF
310
FFFFFFFFFFFFFFFFFFFFFFFFFFFFFFFFFFFFFFFFFFFFFFFFFFFFFFFFFFFFFFFF
310
FFFFFFFFFFFFFFFFFFFFFFFFFFFFFFFFFFFFFFFFFFFFFFFFF000FFFFFFFFFFFF
310
FFFFFFFFFFFFFFFFFFFFFFFFFFFFFFFFFFFFFFFFFFFFFFFFFFFFFFFFFFFFFFFF
310
FFFFFFFFFFFFFFFFFFFFFFFFFFFFFFFFFFFFFFFFFFFFFFFFFFFFFFFFFFFFFFFF
310
FFFFFFFFFFFFFFFFFFFFFFFFFFFFFFFFF000FFFFFFFFFFFFFFFFFFFFFFFFFFFF
310
FFFFFFFFFFFFFFFFFFFFFFFFFFFFFFFFFFFFFFFFFFFFFFFFFFFFFFFFFFFFFFFF
310
FFFFFFFFFFFFFFFFFFFFFFFFFFFFFFFFFFFFFFFFFFFFFFFFFFFFFFFFFFFFFFFF
310
FFFFFFFFFFFFFFFFF000FFFFFFFFFFFFFFFFFFFFFFFFFFFFFFFFFFFFFFFFFFFF
310
FFFFFFFFFFFFFFFFFFFFFFFFFFFFFFFFFFFFFFFFFFFFFFFFFFFFFFFFFFFFFFFF
310
FFFFFFFFFFFFFFFFFFFFFFFFFFFFFFFFFFFFFFFFFFFFFFFFFFFFFFFFFFFFFFFF
310
F000FFFFFFFFFFFFFFFFFFFFFFFFFFFFFFFFFFFFFFFFFFFFFFFFFFFFFFFFFFFF
310
FFFFFFFFFFFFFFFFFFFFFFFFFFFFFFFFFFFFFFFFFFFFFFFFFFFFFFFFFFFFFFFF
310
FFFFFFFFFFFFFFFFFFFFFFFFFFFFFFFFFFFFFFFFFFFFFFFFF000FFFFFFFFFFFF
310
FFFFFFFFFFFFFFFFFFFFFFFFFFFFFFFFFFFFFFFFFFFFFFFFFFFFFFFFFFFFFFFF
310
FFFFFFFFFFFFFFFFFFFFFFFFFFFFFFFFFFFFFFFFFFFFFFFFFFFFFFFFFFFFFFFF
310
FFFFFFFFFFFFFFFFFFFFFFFFFFFFFFFFF000FFFFFFFFFFFFFFFFFFFFFFFFFFFF
310
FFFFFFFFFFFFFFFFFFFFFFFFFFFFFFFFFFFFFFFFFFFFFFFFFFFFFFFFFFFFFFFF
310
FFFFFFFFFFFFFFFFFFFFFFFFFFFFFFFFFFFFFFFFFFFFFFFFFFFFFFFFFFFFFFFF
310
FFFFFFFFFFFFFFFFF000FFFFF80003FFFFFFFFFFFFFFFFFFFFFFFFFFFFFFFFFF
310
FFFFF00007FFFFFFFFFF00007FFFFFF800000000000000007FFFFFFFFFFFFFFF
310
FFFFFFFC001FFFFFFFFFFFFFFC001FFFFFFFFFFFFFFFFFFFFFFFFFFE0007FFFF
310
F000FFFF8000007FFFFFFFF8000FFFFFC0007FFFFF80007FFFFF0000007FFFFF
310
FFF8000007FFFFF800000000000000007FFFFFF0001FFFFFFFFFFFC00001FFFF
310
FFFFFFFFC00001FFFFFFFF000000000003FFFFE000007FFFF000FFFE0000000F
310
FFFFFFF0000FFFFF80007FFFFF80007FFFFC0000001FFFFFFFC0000001FFFFF8
310
00000000000000007FFFFFF0001FFFFFFFFFFE0000003FFFFFFFFFFE0000003F
310
FFFFFF000000000003FFFF0000000FFFF000FFF800000003FFFFFFF00007FFFF
310
80007FFFFF80007FFFF000000007FFFFFF000000003FFFF80000000000000000
310
7FFFFFF0001FFFFFFFFFF80000000FFFFFFFFFF80000000FFFFFFF0000000000
310
03FFFC00000003FFF000FFE000000000FFFFFFF00007FFFF80003FFFFF80007F
310
FFC000000001FFFFFC000000001FFFF800000000000000007FFFFFF0001FFFFF
310
FFFFE000000003FFFFFFFFE000000003FFFFFF000000000003FFF000000000FF
310
F000FF80000000007FFFFFF00007FFFF80003FFFFF80007FFF8000000000FFFF
310
F80000000007FFF800000000000000007FFFFFF0001FFFFFFFFFC000000001FF
310
FFFFFFC000000001FFFFFF000000000003FFC0000000007FF000FF0000000000
310
3FFFFFE00007FFFF00003FFFFF80007FFE00000000003FFFF00000000003FFF8
310
00000000000000007FFFFFF0001FFFFFFFFF8000000000FFFFFFFF8000000000
310
FFFFFF000000000003FF80000000003FF000FE00000000001FFFFFE00003FFFF
310
00003FFFFF80007FFC00000000001FFFE00000000001FFF8000001FFFE000000
310
7FFFFFF0001FFFFFFFFE00000000003FFFFFFE00000000003FFFFF0000000000
310
03FF00000000001FF000FC00000000000FFFFFE00003FFFF00001FFFFF80007F
310
F800000000001FFFC00000000000FFF8000001FFFE0000007FFFFFF0001FFFFF
310
FFFC00000000001FFFFFFC00000000001FFFFF000000000003FE00000000000F
310
F000F8000000000007FFFFE00003FFFF00001FFFFF80007FF800000000000FFF
310
800000000000FFF8000001FFFE0000007FFFFFF0001FFFFFFFF800000000000F
310
FFFFF800000000000FFFFF000000000003FC000000000007F000F80000000000
310
03FFFFC00003FFFE00001FFFFF80007FF0000000000007FF0000000000007FF8
310
000001FFFE0000007FFFFFF0001FFFFFFFF0000000000007FFFFF00000000000
310
07FFFF000000000003F8000000000003F000F0000000000003FFFFC00001FFFE
310
00001FFFFF80007FE0000000000007FE0000000000003FF8000001FFFE000000
310
7FFFFFF0001FFFFFFFF0000000000007FFFFF0000000000007FFFF0000000000
310
03F800001F800003F000E00001FFF00001FFFFC00001FFFE00000FFFFF80007F
310
E00001FFE00003FE00001FFF00003FF8000001FFFE0000007FFFFFF0001FFFFF
310
FFE000003E000003FFFFE000003E000003FFFF000000000003F00001FFF80001
310
F000E00007FFFC0001FFFFC00001FFFE00000FFFFF80007FC0000FFFFC0003FC
310
0000FFFFC0001FF8000001FFFE0000007FFFFFF0001FFFFFFFC00003FFE00001
310
FFFFC00003FFE00001FFFF0001FFFFFFFFF00007FFFE0001F000E0000FFFFF00
310
00FFFF800001FFFC00000FFFFF80007FC0001FFFFE0001FC0001FFFFE0001FF8
310
000001FFFE0000007FFFFFF0001FFFFFFF80000FFFF80000FFFF80000FFFF800
310
00FFFF0003FFFFFFFFE0000FFFFF8000F000C0003FFFFF8000FFFF800000FFFC
310
000007FFFF80007F80003FFFFF0001FC0003FFFFF0001FF8000001FFFE000000
310
7FFFFFF0001FFFFFFF80003FFFFE0000FFFF80003FFFFE0000FFFF0003FFFFFF
310
FFE0003FFFFF8000F000C0003FFFFF8000FFFF800000FFFC000007FFFF80007F
310
80007FFFFF8001F80007FFFFF8000FF8000001FFFE0000007FFFFFF0001FFFFF
310
FF00007FFFFF00007FFF00007FFFFF00007FFF0003FFFFFFFFE0003FFFFFC000
310
F000C0007FFFFFC000FFFF000000FFFC000007FFFF80007F8000FFFFFF8000F8
310
000FFFFFF8000FF8000001FFFE0000007FFFFFF0001FFFFFFF0000FFFFFF8000
310
7FFF0000FFFFFF80007FFF0003FFFFFFFFC0007FFFFFC00070008000FFFFFFC0
310
00FFFF000000FFF8000007FFFF80007F8000FFFFFF8000F8000FFFFFF8000FF8
310
000001FFFE0000007FFFFFF0001FFFFFFE0001FFFFFFC0003FFE0001FFFFFFC0
310
003FFF0003FFFFFFFFC0007FFFFFE00070008000FFFFFFC0007FFF0000007FF8
310
000003FFFF80007F0001FFFFFF8000F8000FFFFFF8000FF8000001FFFE000000
310
7FFFFFF0001FFFFFFE0001FFFFFFC0003FFE0001FFFFFFC0003FFF0003FFFFFF
310
FFC000FFFFFFE00070008000FFFFFFC0007FFF0000007FF8000003FFFF80007F
310
0001FFFFFF8000F8001FFFFFF8000FF8000001FFFE0000007FFFFFF0001FFFFF
310
FE0003FFFFFFE0003FFE0003FFFFFFE0003FFF0003FFFFFFFFC000FFFFFFE000
310
70008000FFFFFFC0007FFE0000007FF8000003FFFF80007F0001FFFFFF8000F0
310
001FFFFFF8000FF8000001FFFE0000007FFFFFF0001FFFFFFC0003FFFFFFE000
310
1FFC0003FFFFFFE0001FFF0003FFFFFFFFC000FFFFFFC00070008000FFFFFF80
310
007FFE0000007FF0000003FFFF80007F0001FFFFFF0000F0001FFFFFF8000FF8
310
000001FFFE0000007FFFFFF0001FFFFFFC0007FFFFFFF0001FFC0007FFFFFFF0
310
001FFF0003FFFFFFFFC000FFFFFFC00070008001FFFFFF0000FFFE0000003FF0
310
000001FFFF80007F0001FFFFFF0000F8001FFFFFF0000FF8000001FFFE000000
310
7FFFFFF0001FFFFFFC0007FFFFFFF0001FFC0007FFFFFFF0001FFF0003FFFFFF
310
FFC001FFFFFF80007000FFFFFFFFFE0000FFFE0008003FF0008001FFFF80007F
310
FFFFFFFFFC0000FFFFFFFFFFE0000FF8000001FFFE0000007FFFFFF0001FFFFF
310
F8000FFFFFFFF8000FF8000FFFFFFFF8000FFF0003FFFFFFFFFFFFFFFFFF0000
310
7000FFFFFFFFFC0000FFFC0008003FF0008001FFFF80007FFFFFFFFFF80001FF
310
FFFFFFFF80000FF8000001FFFE0000007FFFFFF0001FFFFFF8000FFFFFFFF800
310
0FF8000FFFFFFFF8000FFF0003FFFFFFFFFFFFFFFFFE0000F000FFFFFFFFE000
310
00FFFC000C003FE000C001FFFF80007FFFFFFFFFC00001FFFFFFFFFE00001FF8
310
000001FFFE0000007FFFFFF0001FFFFFF8000FFFFFFFF8000FF8000FFFFFFFF8
310
000FFF0003FFFFFFFFFFFFFFFFF00000F000FFFFFFFE000001FFFC000C001FE0
310
00C000FFFF80007FFFFFFFFE000001FFFFFFFFE000001FF80FFFFFFFFFFFFFC0
310
7FFFFFF0001FFFFFF8000FFFFFFFF8000FF8000FFFFFFFF8000FFF0003FFFFFF
310
FFFFFFFFFF800000F000FFFFFFC0000001FFFC001C001FE001C000FFFF80007F
310
FFFFFF80000003FFFFFFF80000001FF80FFFFFFFFFFFFFC07FFFFFF0001FFFFF
310
F8001FFFFFFFFC000FF8001FFFFFFFFC000FFF0003FFFFFFFFFFFFFFF0000001
310
F000FFFFF800000001FFF8001C001FE001C000FFFF80007FFFFFF800000003FF
310
FFFF800000003FF80FFFFFFFFFFFFFC07FFFFFF0001FFFFFF8001FFFFFFFFC00
310
0FF8001FFFFFFFFC000FFF0003FFFFFFFFFFFFFE00000001F000FFFFC0000000
310
03FFF8001E001FC001E000FFFF80007FFFFF8000000007FFFFFC000000003FF8
310
0FFFFFFFFFFFFFC07FFFFFF0001FFFFFF8001FFFFFFFFC000FF8001FFFFFFFFC
310
000FFF0003FFFFFFFFFFFFE000000003F000FFFE0000000007FFF8001E000FC0
310
01E0007FFF80007FFFFE0000000007FFFFE0000000007FF80FFFFFFFFFFFFFC0
310
7FFFFFF0001FFFFFF0001FFFFFFFFC0007F0001FFFFFFFFC0007FF0003FFFFFF
310
FFFFFF0000000003F000FFF80000000007FFF8001E000FC003E0007FFF80007F
310
FFF0000000000FFFFF8000000000FFF80FFFFFFFFFFFFFC07FFFFFF0001FFFFF
310
F0001FFFFFFFFC0007F0001FFFFFFFFC0007FF0003FFFFFFFFFFFC0000000007
310
F000FFE0000000000FFFF0003E000FC003E0007FFF80007FFFC0000000001FFF
310
FE0000000001FFF80FFFFFFFFFFFFFC07FFFFFF0001FFFFFF0001FFFFFFFFC00
310
07F0001FFFFFFFFC0007FF0003FFFFFFFFFFF0000000000FF000FFC000000000
310
1FFFF0003F000F8003F0003FFF80007FFF80000000003FFFF80000000003FFF8
310
0FFFFFFFFFFFFFC07FFFFFF0001FFFFFF0001FFFFFFFFC0007F0001FFFFFFFFC
310
0007FF0003FFFFFFFFFFE0000000001FF000FF00000000007FFFF0003F000780
310
03F0003FFF80007FFF00000000007FFFF00000000007FFF80FFFFFFFFFFFFFC0
310
7FFFFFF0001FFFFFF0001FFFFFFFFC0007F0001FFFFFFFFC0007FF0003FFFFFF
310
FFFF80000000007FF000FE0000000000FFFFE0003F00078007F0003FFF80007F
310
FE0000000001FFFFE0000000001FFFF80FFFFFFFFFFFFFC07FFFFFF0001FFFFF
310
F0001FFFFFFFFC0007F0001FFFFFFFFC0007FF0003FFFFFFFFFF0000000000FF
310
F000FC0000000003FFFFE0007F00078007F0003FFF80007FFC0000000007FFFF
310
C0000000007FFFF80FFFFFFFFFFFFFC07FFFFFF0001FFFFFF8001FFFFFFFFC00
310
0FF8001FFFFFFFFC000FFF0003FFFFFFFFFE0000000003FFF000FC000000000F
310
FFFFE0007F80070007F8001FFF80007FF8000000001FFFFF8000000001FFFFF8
310
0FFFFFFFFFFFFFC07FFFFFF0001FFFFFF8001FFFFFFFFC000FF8001FFFFFFFFC
310
000FFF0003FFFFFFFFFC000000000FFFF000F8000000007FFFFFE0007F800700
310
07F8001FFF80007FF000000000FFFFFF800000000FFFFFF80FFFFFFFFFFFFFC0
310
7FFFFFF0001FFFFFF8000FFFFFFFF8000FF8000FFFFFFFF8000FFF0003FFFFFF
310
FFFC000000007FFFF000F800000007FFFFFFC0007F8003000FF8001FFF80007F
310
F000000007FFFFFF000000007FFFFFF80FFFFFFFFFFFFFC07FFFFFF0001FFFFF
310
F8000FFFFFFFF8000FF8000FFFFFFFF8000FFF0003FFFFFFFFF80000000FFFFF
310
F000F0000000FFFFFFFFC000FF8003000FF8001FFF80007FE0000000FFFFFFFF
310
0000000FFFFFFFF8000001FFFE0000007FFFFFF0001FFFFFF8000FFFFFFFF800
310
0FF8000FFFFFFFF8000FFF0003FFFFFFFFF8000000FFFFFFF000F000000FFFFF
310
FFFFC000FFC002000FF8000FFF80007FE000001FFFFFFFFE000001FFFFFFFFF8
310
000001FFFE0000007FFFFFF0001FFFFFF8000FFFFFFFF8000FF8000FFFFFFFF8
310
000FFF0003FFFFFFFFF000001FFFFFFFF000E00000FFFFFFFFFFC000FFC00200
310
0FFC000FFF80007FE00001FFFFFFFFFE00001FFFFFFFFFF8000001FFFE000000
310
7FFFFFF0001FFFFFFC000FFFFFFFF8001FFC000FFFFFFFF8001FFF0003FFFFFF
310
FFF00001FFFFFFFFF000E00007FFFFFFFFFF8000FFC000001FFC000FFF80007F
310
C0000FFFFFFFFFFE0000FFFFFFFFFFF8000001FFFE0000007FFFFFF0001FFFFF
310
FC0007FFFFFFF0001FFC0007FFFFFFF0001FFF0003FFFFFFFFF00007FFFFFFFF
310
F000E0001FFFFFFFFFFF8000FFC000001FFC000FFF80007FC0003FFFFFFFFFFE
310
0001FFFFFFFFFFF8000001FFFE0000007FFFFFF0001FFFFFFC0007FFFFFFF000
310
1FFC0007FFFFFFF0001FFF0003FFFFFFFFF0001FFFFFFFFFF000E0003FFFFF00
310
03FF8001FFE000001FFC0007FF80007FC0007FFFFF0007FC0003FFFFF0003FF8
310
000001FFFE0000007FFFFFF0001FFFFFFC0003FFFFFFE0001FFC0003FFFFFFE0
310
001FFF0003FFFFFFFFF0003FFFFFFFFFF000E0003FFFFF0001FF8001FFE00000
310
1FFE0007FF80007FC0007FFFFE0003FC0007FFFFE0003FF8000001FFFE000000
310
7FFFFFF0001FFFFFFE0003FFFFFFE0003FFE0003FFFFFFE0003FFF0003FFFFFF
310
FFF0003FFFFF8001F000E0003FFFFF0001FF0001FFE000001FFE0007FF80007F
310
C0007FFFFE0003FC0007FFFFE0003FF8000001FFFE0000007FFFFFF0001FFFFF
310
FE0001FFFFFFC0003FFE0001FFFFFFC0003FFF0003FFFFFFFFF0003FFFFF0001
310
F000E0003FFFFF0003FF0001FFE000003FFE0007FF80007FC0007FFFFE0003FC
310
0007FFFFE0003FF8000001FFFE0000007FFFFFF0001FFFFFFF0001FFFFFFC000
310
7FFF0001FFFFFFC0007FFF0003FFFFFFFFF0003FFFFF0001F000E0003FFFFE00
310
03FF0003FFF000003FFE0003FF80007FC0007FFFFC0003FE0007FFFFE0003FF8
310
000001FFFE0000007FFFFFF0001FFFFFFF0000FFFFFF80007FFF0000FFFFFF80
310
007FFF0003FFFFFFFFF0003FFFFF0001F000E0003FFFFE0003FF0003FFF00000
310
3FFF0003FF80007FC0007FFFFC0007FE0007FFFFC0003FF8000001FFFE000000
310
7FFFFFF0001FFFFFFF80007FFFFF0000FFFF80007FFFFF0000FFFF0003FFFFFF
310
FFF0003FFFFF0003F000E0003FFFFC0003FE0003FFF000003FFF0003FF80007F
310
E0003FFFF80007FE0003FFFFC0007FF8000001FFFE0000007FFFFFF0001FFFFF
310
FF80003FFFFE0000FFFF80003FFFFE0000FFFF0003FFFFFFFFF0001FFFFE0003
310
F000F0001FFFF80003FE0003FFF000007FFF0001FF80007FE0003FFFF00007FE
310
0001FFFF80007FF8000001FFFE0000007FFFFFF0001FFFFFFFC0000FFFF80001
310
FFFFC0000FFFF80001FFFF0003FFFFFFFFF0001FFFFC0003F000F0000FFFF000
310
07FE0007FFF800007FFF0001FF80007FE0001FFFE00007FF0000FFFE00007FF8
310
000001FFFE0000007FFFFFF0001FFFFFFFC00003FFE00001FFFFC00003FFE000
310
01FFFF0003FFFFFFFFF8000FFFF80003F000F00003FFC00007FC0007FFF80000
310
7FFF8001FF80007FF00007FF80000FFF00007FF80000FFF8000001FFFE000000
310
7F80000000000001FFE000003E000003FFFFE000003E000003FFFF0003FFFFFF
310
FFF80003FFE00007F000F800000000000FFC0007FFF800007FFF8001FF80007F
310
F000000000000FFF000000000000FFF8000001FFFE0000007F80000000000001
310
FFF0000000000007FFFFF0000000000007FFFF0003FFFFFFFFFC00007E000007
310
F000F800000000000FFC0007FFF80000FFFF8000FF80007FF800000000001FFF
310
800000000001FFF8000001FFFE0000007F80000000000001FFF800000000000F
310
FFFFF800000000000FFFFF0003FFFFFFFFFC00000000000FF000FC0000000000
310
1FFC0007FFFC0000FFFF8000FF80007FF800000000003FFFC00000000001FFF8
310
000001FFFE0000007F80000000000001FFF800000000000FFFFFF80000000000
310
0FFFFF0003FFFFFFFFFE00000000001FF000FE00000000003FF8000FFFFC0000
310
FFFF8000FF80007FFC00000000003FFFC00000000003FFF8000001FFFE000000
310
7F80000000000001FFFC00000000001FFFFFFC00000000001FFFFF0003FFFFFF
310
FFFF00000000001FF000FF00000000003FF8000FFFFC0000FFFFC000FF80007F
310
FE00000000007FFFE00000000007FFF8000001FFFE0000007F80000000000001
310
FFFE00000000003FFFFFFE00000000003FFFFF0003FFFFFFFFFF80000000003F
310
F000FF80000000007FF8000FFFFC0001FFFFC0007F80007FFF0000000000FFFF
310
F0000000000FFFF800000000000000007F80000000000001FFFF8000000000FF
310
FFFFFF8000000000FFFFFF0003FFFFFFFFFFC0000000007FF000FFC000000000
310
FFF8000FFFFE0001FFFFC0007F80007FFF8000000001FFFFF8000000001FFFF8
310
00000000000000007F80000000000001FFFFC000000001FFFFFFFFC000000001
310
FFFFFF0003FFFFFFFFFFE000000000FFF000FFE000000003FFF0001FFFFE0001
310
FFFFC0007F80007FFFC000000007FFFFFE000000003FFFF80000000000000000
310
7F80000000000001FFFFE000000003FFFFFFFFE000000003FFFFFF0003FFFFFF
310
FFFFF000000003FFF000FFF80000000FFFF0001FFFFE0001FFFFE0007F80007F
310
FFF00000000FFFFFFF00000000FFFFF800000000000000007F80000000000001
310
FFFFF80000000FFFFFFFFFF80000000FFFFFFF0003FFFFFFFFFFFC0000000FFF
310
F000FFFE0000003FFFF0001FFFFE0003FFFFE0003F80007FFFFC0000003FFFFF
310
FFC0000003FFFFF800000000000000007F80000000000001FFFFFE0000003FFF
310
FFFFFFFE0000003FFFFFFF0003FFFFFFFFFFFF0000003FFFF000FFFF800000FF
310
FFF0001FFFFF0003FFFFE0003F80007FFFFF000001FFFFFFFFF800001FFFFFF8
310
00000000000000007F80000000000001FFFFFFC00001FFFFFFFFFFFFC00001FF
310
FFFFFF0003FFFFFFFFFFFFC00000FFFFF000FFFFF8000FFFFFFFFFFFFFFFFFFF
310
FFFFFFFFFFFFFFFFFFFFF0001FFFFFFFFFFF0000FFFFFFF80000000000000000
310
7FFFFFFFFFFFFFFFFFFFFFFC001FFFFFFFFFFFFFFC001FFFFFFFFFFFFFFFFFFF
310
FFFFFFFC001FFFFFF000FFFFFFFFFFFFFFFFFFFFFFFFFFFFFFFFFFFFFFFFFFFF
310
FFFFFFFFFFFFFFFFFFFFFFFFFFFFFFFFFFFFFFFFFFFFFFFFFFFFFFFFFFFFFFFF
310
FFFFFFFFFFFFFFFFFFFFFFFFFFFFFFFFFFFFFFFFFFFFFFFFFFFFFFFFFFFFFFFF
310
F000FFFFFFFFFFFFFFFFFFFFFFFFFFFFFFFFFFFFFFFFFFFFFFFFFFFFFFFFFFFF
310
FFFFFFFFFFFFFFFFFFFFFFFFFFFFFFFFFFFFFFFFFFFFFFFFFFFFFFFFFFFFFFFF
310
FFFFFFFFFFFFFFFFFFFFFFFFFFFFFFFFFFFFFFFFFFFFFFFFF000FFFFFFFFFFFF
310
FFFFFFFFFFFFFFFFFFFFFFFFFFFFFFFFFFFFFFFFFFFFFFFFFFFFFFFFFFFFFFFF
310
FFFFFFFFFFFFFFFFFFFFFFFFFFFFFFFFFFFFFFFFFFFFFFFFFFFFFFFFFFFFFFFF
310
FFFFFFFFFFFFFFFFFFFFFFFFFFFFFFFFF000FFFFFFFFFFFFFFFFFFFFFFFFFFFF
310
FFFFFFFFFFFFFFFFFFFFFFFFFFFFFFFFFFFFFFFFFFFFFFFFFFFFFFFFFFFFFFFF
310
FFFFFFFFFFFFFFFFFFFFFFFFFFFFFFFFFFFFFFFFFFFFFFFFFFFFFFFFFFFFFFFF
310
FFFFFFFFFFFFFFFFF000FFFFFFFFFFFFFFFFFFFFFFFFFFFFFFFFFFFFFFFFFFFF
310
FFFFFFFFFFFFFFFFFFFFFFFFFFFFFFFFFFFFFFFFFFFFFFFFFFFFFFFFFFFFFFFF
310
FFFFFFFFFFFFFFFFFFFFFFFFFFFFFFFFFFFFFFFFFFFFFFFFFFFFFFFFFFFFFFFF
310
F000FFFFFFFFFFFFFFFFFFFFFFFFFFFFFFFFFFFFFFFFFFFFFFFFFFFFFFFFFFFF
310
FFFFFFFFFFFFFFFFFFFFFFFFFFFFFFFFFFFFFFFFFFFFFFFFFFFFFFFFFFFFFFFF
310
FFFFFFFFFFFFFFFFFFFFFFFFFFFFFFFFFFFFFFFFFFFFFFFFF000FFFFFFFFFFFF
310
FFFFFFFFFFFFFFFFFFFFFFFFFFFFFFFFFFFFFFFFFFFFFFFFFFFFFFFFFFFFFFFF
310
FFFFFFFFFFFFFFFFFFFFFFFFFFFFFFFFFFFFFFFFFFFFFFFFFFFFFFFFFFFFFFFF
310
FFFFFFFFFFFFFFFFFFFFFFFFFFFFFFFFF000FFFFFFFFFFFFFFFFFFFFFFFFFFFF
310
FFFFFFFFFFFFFFFFFFFFFFFFFFFFFFFFFFFFFFFFFFFFFFFFFFFFFFFFFFFFFFFF
310
FFFFFFFFFFFFFFFFFFFFFFFFFFFFFFFFFFFFFFFFFFFFFFFFFFFFFFFFFFFFFFFF
310
FFFFFFFFFFFFFFFFF000FFFFFFFFFFFFFFFFFFFFFFFFFFFFFFFFFFFFFFFFFFFF
310
FFFFFFFFFFFFFFFFFFFFFFFFFFFFFFFFFFFFFFFFFFFFFFFFFFFFFFFFFFFFFFFF
310
FFFFFFFFFFFFFFFFFFFFFFFFFFFFFFFFFFFFFFFFFFFFFFFFFFFFFFFFFFFFFFFF
310
F000FFFFFFFFFFFFFFFFFFFFFFFFFFFFFFFFFFFFFFFFFFFFFFFFFFFFFFFFFFFF
310
FFFFFFFFFFFFFFFFFFFFFFFFFFFFFFFFFFFFFFFFFFFFFFFFFFFFFFFFFFFFFFFF
310
FFFFFFFFFFFFFFFFFFFFFFFFFFFFFFFFFFFFFFFFFFFFFFFFF000FFFFFFFFFFFF
310
FFFFFFFFFFFFFFFFFFFFFFFFFFFFFFFFFFFFFFFFFFFFFFFFFFFFFFFFFFFFFFFF
310
FFFFFFFFFFFFFFFFFFFFFFFFFFFFFFFFFFFFFFFFFFFFFFFFFFFFFFFFFFFFFFFF
310
FFFFFFFFFFFFFFFFFFFFFFFFFFFFFFFFF000FFFFFFFFFFFFFFFFFFFFFFFFFFFF
310
FFFFFFFFFFFFFFFFFFFFFFFFFFFFFFFFFFFFFFFFFFFFFFFFFFFFFFFFFFFFFFFF
310
FFFFFFFFFFFFFFFFFFFFFFFFFFFFFFFFFFFFFFFFFFFFFFFFFFFFFFFFFFFFFFFF
310
FFFFFFFFFFFFFFFFF000FFFFFFFFFFFFFFFFFFFFFFFFFFFFFFFFFFFFFFFFFFFF
310
FFFFFFFFFFFFFFFFFFFFFFFFFFFFFFFFFFFFFFFFFFFFFFFFFFFFFFFFFFFFFFFF
310
FFFFFFFFFFFFFFFFFFFFFFFFFFFFFFFFFFFFFFFFFFFFFFFFFFFFFFFFFFFFFFFF
310
F000FFFFFFFFFFFFFFFFFFFFFFFFFFFFFFFFFFFFFFFFFFFFFFFFFFFFFFFFFFFF
310
FFFFFFFFFFFFFFFFFFFFFFFFFFFFFFFFFFFFFFFFFFFFFFFFFFFFFFFFFFFFFFFF
310
FFFFFFFFFFFFFFFFFFFFFFFFFFFFFFFFFFFFFFFFFFFFFFFFF000FFFFFFFFFFFF
310
FFFFFFFFFFFFFFFFFFFFFFFFFFFFFFFFFFFFFFFFFFFFFFFFFFFFFFFFFFFFFFFF
310
FFFFFFFFFFFFFFFFFFFFFFFFFFFFFFFFFFFFFFFFFFFFFFFFFFFFFFFFFFFFFFFF
310
FFFFFFFFFFFFFFFFFFFFFFFFFFFFFFFFF000FFFFFFFFFFFFFFFFFFFFFFFFFFFF
310
FFFFFFFFFFFFFFFFFFFFFFFFFFFFFFFFFFFFFFFFFFFFFFFFFFFFFFFFFFFFFFFF
310
FFFFFFFFFFFFFFFFFFFFFFFFFFFFFFFFFFFFFFFFFFFFFFFFFFFFFFFFFFFFFFFF
310
FFFFFFFFFFFFFFFFF000FFFFFFFFFFFFFFFFFFFFFFFFFFFFFFFFFFFFFFFFFFFF
310
FFFFFFFFFFFFFFFFFFFFFFFFFFFFFFFFFFFFFFFFFFFFFFFFFFFFFFFFFFFFFFFF
310
FFFFFFFFFFFFFFFFFFFFFFFFFFFFFFFFFFFFFFFFFFFFFFFFFFFFFFFFFFFFFFFF
310
F000FFFFFFFFFFFFFFFFFFFFFFFFFFFFFFFFFFFFFFFFFFFFFFFFFFFFFFFFFFFF
310
FFFFFFFFFFFFFFFFFFFFFFFFFFFFFFFFFFFFFFFFFFFFFFFFFFFFFFFFFFFFFFFF
310
FFFFFFFFFFFFFFFFFFFFFFFFFFFFFFFFFFFFFFFFFFFFFFFFF000FFFFFFFFFFFF
310
FFFFFFFFFFFFFFFFFFFFFFFFFFFFFFFFFFFFFFFFFFFFFFFFFFFFFFFFFFFFFFFF
310
FFFFFFFFFFFFFFFFFFFFFFFFFFFFFFFFFFFFFFFFFFFFFFFFFFFFFFFFFFFFFFFF
310
FFFFFFFFFFFFFFFFFFFFFFFFFFFFFFFFF000FFFFFFFFFFFFFFFFFFFFFFFFFFFF
310
FFFFFFFFFFFFFFFFFFFFFFFFFFFFFFFFFFFFFFFFFFFFFFFFFFFFFFFFFFFFFFFF
310
FFFFFFFFFFFFFFFFFFFFFFFFFFFFFFFFFFFFFFFFFFFFFFFFFFFFFFFFFFFFFFFF
310
FFFFFFFFFFFFFFFFF000FFFFFFFFFFFFFFFFFFFFFFFFFFFFFFFFFFFFFFFFFFFF
310
FFFFFFFFFFFFFFFFFFFFFFFFFFFFFFFFFFFFFFFFFFFFFFFFFFFFFFFFFFFFFFFF
310
FFFFFFFFFFFFFFFFFFFFFFFFFFFFFFFFFFFFFFFFFFFFFFFFFFFFFFFFFFFFFFFF
310
F000FFFFFFFFFFFFFFFFFFFFFFFFFFFFFFFFFFFFFFFFFFFFFFFFFFFFFFFFFFFF
310
FFFFFFFFFFFFFFFFFFFFFFFFFFFFFFFFFFFFFFFFFFFFFFFFFFFFFFFFFFFFFFFF
310
FFFFFFFFFFFFFFFFFFFFFFFFFFFFFFFFFFFFFFFFFFFFFFFFF000FFFFFFFFFFFF
310
FFFFFFFFFFFFFFFFFFFFFFFFFFFFFFFFFFFFFFFFFFFFFFFFFFFFFFFFFFFFFFFF
310
FFFFFFFFFFFFFFFFFFFFFFFFFFFFFFFFFFFFFFFFFFFFFFFFFFFFFFFFFFFFFFFF
310
FFFFFFFFFFFFFFFFFFFFFFFFFFFFFFFFF0000000000000000000000000000000
310
0000000000000000000000000000000000000000000000000000000000000000
310
0000000000000000000000000000000000000000000000000000000000000000
310
0000000000000000000000000000000000000000000000000000000000000000
310
0000000000000000000000000000000000000000000000000000000000000000
310
0000000000000000000000000000000000000000000000000000000000000000
310
0000000000000000000000000000000000000000000000000000000000000000
310
0000000000000000000000000000000000000000000000000000000000000000
310
0000000000000000000000000000000000000000000000000000000000000000
310
0000000000000000000000000000000000000000000000000000000000000000
310
0000000000000000000000000000000000000000000000000000000000000000
310
0000000000000000000000000000000000000000000000000000000000000000
310
0000000000000000000000000000000000000000000000000000000000000000
310
0000000000000000000000000000000000000000000000000000000000000000
310
0000000000000000000000000000000000000000000000000000000000000000
310
0000000000000000000000000000000000000000000000000000000000000000
  1
OLE
  0
ENDSEC
  0
SECTION
  2
OBJECTS
  0
DICTIONARY
  5
C
330
0
100
AcDbDictionary
281
     1
  3
ACAD_GROUP
350
D
  3
ACAD_LAYOUT
350
1A
  3
ACAD_MLINESTYLE
350
17
  3
ACAD_PLOTSETTINGS
350
19
  3
ACAD_PLOTSTYLENAME
350
E
  3
ACAD_SCALELIST
350
47
  0
DICTIONARY
  5
D
102
{ACAD_REACTORS
330
C
102
}
330
C
100
AcDbDictionary
281
     1
  0
DICTIONARY
  5
1A
102
{ACAD_REACTORS
330
C
102
}
330
C
100
AcDbDictionary
281
     1
  3
Layout1
350
1E
  3
Layout2
350
26
  3
Model
350
22
  0
DICTIONARY
  5
17
102
{ACAD_REACTORS
330
C
102
}
330
C
100
AcDbDictionary
281
     1
  3
Standard
350
18
  0
DICTIONARY
  5
19
102
{ACAD_REACTORS
330
C
102
}
330
C
100
AcDbDictionary
281
     1
  0
ACDBDICTIONARYWDFLT
  5
E
102
{ACAD_REACTORS
330
C
102
}
330
C
100
AcDbDictionary
281
     1
  3
Normal
350
F
100
AcDbDictionaryWithDefault
340
F
  0
DICTIONARY
  5
47
102
{ACAD_REACTORS
330
C
102
}
330
C
100
AcDbDictionary
281
     1
  3
A0
350
48
  3
A1
350
49
  3
A2
350
4A
  3
A3
350
4B
  3
A4
350
4C
  3
A5
350
4D
  3
A6
350
4E
  3
A7
350
4F
  3
A8
350
50
  3
A9
350
51
  3
B0
350
52
  3
B1
350
53
  3
B2
350
54
  3
B3
350
55
  3
B4
350
56
  3
B5
350
57
  3
B6
350
58
  3
B7
350
59
  3
B8
350
5A
  3
B9
350
5B
  3
C0
350
5C
  3
C1
350
5D
  3
C2
350
5E
  3
C3
350
5F
  3
C4
350
60
  3
C5
350
61
  3
C6
350
62
  3
C7
350
63
  3
C8
350
64
  3
C9
350
65
  3
D0
350
66
  3
D1
350
67
  3
D2
350
68
  0
LAYOUT
  5
1E
102
{ACAD_REACTORS
330
1A
102
}
330
1A
100
AcDbPlotSettings
  1

  2
none_device
  4

  6

 40
0.0
 41
0.0
 42
0.0
 43
0.0
 44
0.0
 45
0.0
 46
0.0
 47
0.0
 48
0.0
 49
0.0
140
0.0
141
0.0
142
1.0
143
1.0
 70
   688
 72
     1
 73
     0
 74
     5
  7

 75
    16
147
1.0
148
0.0
149
0.0
100
AcDbLayout
  1
Layout1
 70
     1
 71
     1
 10
0.0
 20
0.0
 11
420.0
 21
297.0
 12
0.0
 22
0.0
 32
0.0
 14
1.0000000000E+20
 24
1.0000000000E+20
 34
1.0000000000E+20
 15
-1.0000000000E+20
 25
-1.0000000000E+20
 35
-1.0000000000E+20
146
0.0
 13
0.0
 23
0.0
 33
0.0
 16
1.0
 26
0.0
 36
0.0
 17
0.0
 27
1.0
 37
0.0
 76
     0
330
1B
  0
LAYOUT
  5
26
102
{ACAD_REACTORS
330
1A
102
}
330
1A
100
AcDbPlotSettings
  1

  2
none_device
  4

  6

 40
0.0
 41
0.0
 42
0.0
 43
0.0
 44
0.0
 45
0.0
 46
0.0
 47
0.0
 48
0.0
 49
0.0
140
0.0
141
0.0
142
1.0
143
1.0
 70
   688
 72
     1
 73
     0
 74
     5
  7

 75
    16
147
1.0
148
0.0
149
0.0
100
AcDbLayout
  1
Layout2
 70
     1
 71
     2
 10
0.0
 20
0.0
 11
0.0
 21
0.0
 12
0.0
 22
0.0
 32
0.0
 14
0.0
 24
0.0
 34
0.0
 15
0.0
 25
0.0
 35
0.0
146
0.0
 13
0.0
 23
0.0
 33
0.0
 16
1.0
 26
0.0
 36
0.0
 17
0.0
 27
1.0
 37
0.0
 76
     0
330
23
  0
LAYOUT
  5
22
102
{ACAD_REACTORS
330
1A
102
}
330
1A
100
AcDbPlotSettings
  1

  2
none_device
  4
Letter_(8.50_x_11.00_Inches)
  6

 40
6.35
 41
6.35
 42
6.35000508
 43
6.35000508
 44
215.9
 45
279.4
 46
0.0
 47
0.0
 48
0.0
 49
0.0
140
0.0
141
0.0
142
1.0
143
1.0
 70
  1712
 72
     1
 73
     0
 74
     0
  7

 75
     0
147
1.0
148
0.0
149
0.0
100
AcDbLayout
  1
Model
 70
     1
 71
     0
 10
0.0
 20
0.0
 11
297.0
 21
210.0
 12
0.0
 22
0.0
 32
0.0
 14
0.0
 24
0.0
 34
0.0
 15
297.0
 25
210.0
 35
0.0
146
0.0
 13
0.0
 23
0.0
 33
0.0
 16
1.0
 26
0.0
 36
0.0
 17
0.0
 27
1.0
 37
0.0
 76
     0
330
1F
331
29
  0
MLINESTYLE
  5
18
102
{ACAD_REACTORS
330
17
102
}
330
17
100
AcDbMlineStyle
  2
Standard
 70
     0
  3

 62
   256
 51
90.0
 52
90.0
 71
     2
 49
0.5
 62
   256
  6
BYLAYER
 49
-0.5
 62
   256
  6
BYLAYER
  0
ACDBPLACEHOLDER
  5
F
102
{ACAD_REACTORS
330
E
102
}
330
E
  0
SCALE
  5
48
102
{ACAD_REACTORS
330
47
102
}
330
47
100
AcDbScale
 70
     0
300
1:1
140
1.0
141
1.0
290
     1
  0
SCALE
  5
49
102
{ACAD_REACTORS
330
47
102
}
330
47
100
AcDbScale
 70
     0
300
1:2
140
1.0
141
2.0
290
     0
  0
SCALE
  5
4A
102
{ACAD_REACTORS
330
47
102
}
330
47
100
AcDbScale
 70
     0
300
1:4
140
1.0
141
4.0
290
     0
  0
SCALE
  5
4B
102
{ACAD_REACTORS
330
47
102
}
330
47
100
AcDbScale
 70
     0
300
1:5
140
1.0
141
5.0
290
     0
  0
SCALE
  5
4C
102
{ACAD_REACTORS
330
47
102
}
330
47
100
AcDbScale
 70
     0
300
1:8
140
1.0
141
8.0
290
     0
  0
SCALE
  5
4D
102
{ACAD_REACTORS
330
47
102
}
330
47
100
AcDbScale
 70
     0
300
1:10
140
1.0
141
10.0
290
     0
  0
SCALE
  5
4E
102
{ACAD_REACTORS
330
47
102
}
330
47
100
AcDbScale
 70
     0
300
1:16
140
1.0
141
16.0
290
     0
  0
SCALE
  5
4F
102
{ACAD_REACTORS
330
47
102
}
330
47
100
AcDbScale
 70
     0
300
1:20
140
1.0
141
20.0
290
     0
  0
SCALE
  5
50
102
{ACAD_REACTORS
330
47
102
}
330
47
100
AcDbScale
 70
     0
300
1:30
140
1.0
141
30.0
290
     0
  0
SCALE
  5
51
102
{ACAD_REACTORS
330
47
102
}
330
47
100
AcDbScale
 70
     0
300
1:40
140
1.0
141
40.0
290
     0
  0
SCALE
  5
52
102
{ACAD_REACTORS
330
47
102
}
330
47
100
AcDbScale
 70
     0
300
1:50
140
1.0
141
50.0
290
     0
  0
SCALE
  5
53
102
{ACAD_REACTORS
330
47
102
}
330
47
100
AcDbScale
 70
     0
300
1:100
140
1.0
141
100.0
290
     0
  0
SCALE
  5
54
102
{ACAD_REACTORS
330
47
102
}
330
47
100
AcDbScale
 70
     0
300
2:1
140
2.0
141
1.0
290
     0
  0
SCALE
  5
55
102
{ACAD_REACTORS
330
47
102
}
330
47
100
AcDbScale
 70
     0
300
4:1
140
4.0
141
1.0
290
     0
  0
SCALE
  5
56
102
{ACAD_REACTORS
330
47
102
}
330
47
100
AcDbScale
 70
     0
300
8:1
140
8.0
141
1.0
290
     0
  0
SCALE
  5
57
102
{ACAD_REACTORS
330
47
102
}
330
47
100
AcDbScale
 70
     0
300
10:1
140
10.0
141
1.0
290
     0
  0
SCALE
  5
58
102
{ACAD_REACTORS
330
47
102
}
330
47
100
AcDbScale
 70
     0
300
100:1
140
100.0
141
1.0
290
     0
  0
SCALE
  5
59
102
{ACAD_REACTORS
330
47
102
}
330
47
100
AcDbScale
 70
     0
300
1/128" = 1'-0"
140
0.0078125
141
12.0
290
     0
  0
SCALE
  5
5A
102
{ACAD_REACTORS
330
47
102
}
330
47
100
AcDbScale
 70
     0
300
1/64" = 1'-0"
140
0.015625
141
12.0
290
     0
  0
SCALE
  5
5B
102
{ACAD_REACTORS
330
47
102
}
330
47
100
AcDbScale
 70
     0
300
1/32" = 1'-0"
140
0.03125
141
12.0
290
     0
  0
SCALE
  5
5C
102
{ACAD_REACTORS
330
47
102
}
330
47
100
AcDbScale
 70
     0
300
1/16" = 1'-0"
140
0.0625
141
12.0
290
     0
  0
SCALE
  5
5D
102
{ACAD_REACTORS
330
47
102
}
330
47
100
AcDbScale
 70
     0
300
3/32" = 1'-0"
140
0.09375
141
12.0
290
     0
  0
SCALE
  5
5E
102
{ACAD_REACTORS
330
47
102
}
330
47
100
AcDbScale
 70
     0
300
1/8" = 1'-0"
140
0.125
141
12.0
290
     0
  0
SCALE
  5
5F
102
{ACAD_REACTORS
330
47
102
}
330
47
100
AcDbScale
 70
     0
300
3/16" = 1'-0"
140
0.1875
141
12.0
290
     0
  0
SCALE
  5
60
102
{ACAD_REACTORS
330
47
102
}
330
47
100
AcDbScale
 70
     0
300
1/4" = 1'-0"
140
0.25
141
12.0
290
     0
  0
SCALE
  5
61
102
{ACAD_REACTORS
330
47
102
}
330
47
100
AcDbScale
 70
     0
300
3/8" = 1'-0"
140
0.375
141
12.0
290
     0
  0
SCALE
  5
62
102
{ACAD_REACTORS
330
47
102
}
330
47
100
AcDbScale
 70
     0
300
1/2" = 1'-0"
140
0.5
141
12.0
290
     0
  0
SCALE
  5
63
102
{ACAD_REACTORS
330
47
102
}
330
47
100
AcDbScale
 70
     0
300
3/4" = 1'-0"
140
0.75
141
12.0
290
     0
  0
SCALE
  5
64
102
{ACAD_REACTORS
330
47
102
}
330
47
100
AcDbScale
 70
     0
300
1" = 1'-0"
140
1.0
141
12.0
290
     0
  0
SCALE
  5
65
102
{ACAD_REACTORS
330
47
102
}
330
47
100
AcDbScale
 70
     0
300
1-1/2" = 1'-0"
140
1.5
141
12.0
290
     0
  0
SCALE
  5
66
102
{ACAD_REACTORS
330
47
102
}
330
47
100
AcDbScale
 70
     0
300
3" = 1'-0"
140
3.0
141
12.0
290
     0
  0
SCALE
  5
67
102
{ACAD_REACTORS
330
47
102
}
330
47
100
AcDbScale
 70
     0
300
6" = 1'-0"
140
6.0
141
12.0
290
     0
  0
SCALE
  5
68
102
{ACAD_REACTORS
330
47
102
}
330
47
100
AcDbScale
 70
     0
300
1'-0" = 1'-0"
140
12.0
141
12.0
290
     0
  0
ENDSEC
  0
EOF
