  0
SECTION
  2
HEADER
  9
$ACADVER
  1
AC1015
  9
$ACADMAINTVER
 70
     6
  9
$DWGCODEPAGE
  3
ANSI_1252
  9
$INSBASE
 10
0.0
 20
0.0
 30
0.0
  9
$EXTMIN
 10
0.0
 20
0.0
 30
0.0
  9
$EXTMAX
 10
297.0
 20
210.0
 30
0.0
  9
$LIMMIN
 10
0.0
 20
0.0
  9
$LIMMAX
 10
297.0
 20
210.0
  9
$ORTHOMODE
 70
     0
  9
$REGENMODE
 70
     1
  9
$FILLMODE
 70
     1
  9
$QTEXTMODE
 70
     0
  9
$MIRRTEXT
 70
     1
  9
$LTSCALE
 40
1.0
  9
$ATTMODE
 70
     1
  9
$TEXTSIZE
 40
2.0
  9
$TRACEWID
 40
1.0
  9
$TEXTSTYLE
  7
Standard
  9
$CLAYER
  8
0
  9
$CELTYPE
  6
ByLayer
  9
$CECOLOR
 62
   256
  9
$CELTSCALE
 40
1.0
  9
$DISPSILH
 70
     0
  9
$DIMSCALE
 40
1.0
  9
$DIMASZ
 40
3.0
  9
$DIMEXO
 40
0.0
  9
$DIMDLI
 40
3.75
  9
$DIMRND
 40
0.0
  9
$DIMDLE
 40
0.0
  9
$DIMEXE
 40
1.0
  9
$DIMTP
 40
0.0
  9
$DIMTM
 40
0.0
  9
$DIMTXT
 40
2.0
  9
$DIMCEN
 40
2.5
  9
$DIMTSZ
 40
0.0
  9
$DIMTOL
 70
     0
  9
$DIMLIM
 70
     0
  9
$DIMTIH
 70
     1
  9
$DIMTOH
 70
     1
  9
$DIMSE1
 70
     0
  9
$DIMSE2
 70
     0
  9
$DIMTAD
 70
     1
  9
$DIMZIN
 70
     0
  9
$DIMBLK
  1

  9
$DIMASO
 70
     1
  9
$DIMSHO
 70
     1
  9
$DIMPOST
  1

  9
$DIMAPOST
  1

  9
$DIMALT
 70
     0
  9
$DIMALTD
 70
     3
  9
$DIMALTF
 40
0.0393700787
  9
$DIMLFAC
 40
2.0
  9
$DIMTOFL
 70
     1
  9
$DIMTVP
 40
0.0
  9
$DIMTIX
 70
     0
  9
$DIMSOXD
 70
     0
  9
$DIMSAH
 70
     0
  9
$DIMBLK1
  1

  9
$DIMBLK2
  1

  9
$DIMSTYLE
  2
ISO-25
  9
$DIMCLRD
 70
     0
  9
$DIMCLRE
 70
     0
  9
$DIMCLRT
 70
     0
  9
$DIMTFAC
 40
1.0
  9
$DIMGAP
 40
1.524
  9
$DIMJUST
 70
     0
  9
$DIMSD1
 70
     0
  9
$DIMSD2
 70
     0
  9
$DIMTOLJ
 70
     0
  9
$DIMTZIN
 70
     0
  9
$DIMALTZ
 70
     0
  9
$DIMALTTZ
 70
     0
  9
$DIMUPT
 70
     0
  9
$DIMDEC
 70
     2
  9
$DIMTDEC
 70
     3
  9
$DIMALTU
 70
     2
  9
$DIMALTTD
 70
     3
  9
$DIMTXSTY
  7
Standard
  9
$DIMAUNIT
 70
     0
  9
$DIMADEC
 70
     2
  9
$DIMALTRND
 40
0.0
  9
$DIMAZIN
 70
     0
  9
$DIMDSEP
 70
    44
  9
$DIMATFIT
 70
     3
  9
$DIMFRAC
 70
     0
  9
$DIMLDRBLK
  1

  9
$DIMLUNIT
 70
     2
  9
$DIMLWD
 70
    -2
  9
$DIMLWE
 70
    -2
  9
$DIMTMOVE
 70
     0
  9
$LUNITS
 70
     2
  9
$LUPREC
 70
     2
  9
$SKETCHINC
 40
1.0
  9
$FILLETRAD
 40
10.0
  9
$AUNITS
 70
     0
  9
$AUPREC
 70
     2
  9
$MENU
  1
.
  9
$ELEVATION
 40
0.0
  9
$PELEVATION
 40
0.0
  9
$THICKNESS
 40
0.0
  9
$LIMCHECK
 70
     0
  9
$CHAMFERA
 40
0.0
  9
$CHAMFERB
 40
0.0
  9
$CHAMFERC
 40
0.0
  9
$CHAMFERD
 40
0.0
  9
$SKPOLY
 70
     0
  9
$TDCREATE
 40
2458166.669546285
  9
$TDUCREATE
 40
2458166.627879618
  9
$TDUPDATE
 40
2458166.669548634
  9
$TDUUPDATE
 40
2458166.627881967
  9
$TDINDWG
 40
0.0000000116
  9
$TDUSRTIMER
 40
0.0000000116
  9
$USRTIMER
 70
     1
  9
$ANGBASE
 50
0.0
  9
$ANGDIR
 70
     0
  9
$PDMODE
 70
     0
  9
$PDSIZE
 40
-1.0
  9
$PLINEWID
 40
0.0
  9
$SPLFRAME
 70
     0
  9
$SPLINETYPE
 70
     6
  9
$SPLINESEGS
 70
     8
  9
$HANDSEED
  5
28A
  9
$SURFTAB1
 70
     6
  9
$SURFTAB2
 70
     6
  9
$SURFTYPE
 70
     6
  9
$SURFU
 70
     6
  9
$SURFV
 70
     6
  9
$UCSBASE
  2

  9
$UCSNAME
  2

  9
$UCSORG
 10
0.0
 20
0.0
 30
0.0
  9
$UCSXDIR
 10
1.0
 20
0.0
 30
0.0
  9
$UCSYDIR
 10
0.0
 20
1.0
 30
0.0
  9
$UCSORTHOREF
  2

  9
$UCSORTHOVIEW
 70
     0
  9
$UCSORGTOP
 10
0.0
 20
0.0
 30
0.0
  9
$UCSORGBOTTOM
 10
0.0
 20
0.0
 30
0.0
  9
$UCSORGLEFT
 10
0.0
 20
0.0
 30
0.0
  9
$UCSORGRIGHT
 10
0.0
 20
0.0
 30
0.0
  9
$UCSORGFRONT
 10
0.0
 20
0.0
 30
0.0
  9
$UCSORGBACK
 10
0.0
 20
0.0
 30
0.0
  9
$PUCSBASE
  2

  9
$PUCSNAME
  2

  9
$PUCSORG
 10
0.0
 20
0.0
 30
0.0
  9
$PUCSXDIR
 10
1.0
 20
0.0
 30
0.0
  9
$PUCSYDIR
 10
0.0
 20
1.0
 30
0.0
  9
$PUCSORTHOREF
  2

  9
$PUCSORTHOVIEW
 70
     0
  9
$PUCSORGTOP
 10
0.0
 20
0.0
 30
0.0
  9
$PUCSORGBOTTOM
 10
0.0
 20
0.0
 30
0.0
  9
$PUCSORGLEFT
 10
0.0
 20
0.0
 30
0.0
  9
$PUCSORGRIGHT
 10
0.0
 20
0.0
 30
0.0
  9
$PUCSORGFRONT
 10
0.0
 20
0.0
 30
0.0
  9
$PUCSORGBACK
 10
0.0
 20
0.0
 30
0.0
  9
$USERI1
 70
     0
  9
$USERI2
 70
     0
  9
$USERI3
 70
     0
  9
$USERI4
 70
     0
  9
$USERI5
 70
     0
  9
$USERR1
 40
0.0
  9
$USERR2
 40
0.0
  9
$USERR3
 40
0.0
  9
$USERR4
 40
0.0
  9
$USERR5
 40
0.0
  9
$WORLDVIEW
 70
     1
  9
$SHADEDGE
 70
     3
  9
$SHADEDIF
 70
    70
  9
$TILEMODE
 70
     1
  9
$MAXACTVP
 70
    64
  9
$PINSBASE
 10
0.0
 20
0.0
 30
0.0
  9
$PLIMCHECK
 70
     0
  9
$PEXTMIN
 10
1.0000000000E+20
 20
1.0000000000E+20
 30
1.0000000000E+20
  9
$PEXTMAX
 10
-1.0000000000E+20
 20
-1.0000000000E+20
 30
-1.0000000000E+20
  9
$PLIMMIN
 10
0.0
 20
0.0
  9
$PLIMMAX
 10
420.0
 20
297.0
  9
$UNITMODE
 70
     0
  9
$VISRETAIN
 70
     1
  9
$PLINEGEN
 70
     0
  9
$PSLTSCALE
 70
     1
  9
$TREEDEPTH
 70
  3020
  9
$CMLSTYLE
  2
Standard
  9
$CMLJUST
 70
     0
  9
$CMLSCALE
 40
20.0
  9
$PROXYGRAPHICS
 70
     1
  9
$MEASUREMENT
 70
     1
  9
$CELWEIGHT
370
    -1
  9
$ENDCAPS
280
     0
  9
$JOINSTYLE
280
     0
  9
$LWDISPLAY
290
     1
  9
$INSUNITS
 70
     4
  9
$HYPERLINKBASE
  1

  9
$STYLESHEET
  1

  9
$XEDIT
290
     1
  9
$CEPSNTYPE
380
     0
  9
$PSTYLEMODE
290
     1
  9
$FINGERPRINTGUID
  2
{17A56C5F-5A8B-41F2-9C01-D6434301A072}
  9
$VERSIONGUID
  2
{FAEB1C32-E019-11D5-929B-00C0DF256EC4}
  9
$EXTNAMES
290
     1
  9
$PSVPSCALE
 40
0.0
  9
$OLESTARTUP
290
     0
  0
ENDSEC
  0
SECTION
  2
CLASSES
  0
CLASS
  1
ACDBDICTIONARYWDFLT
  2
AcDbDictionaryWithDefault
  3
ObjectDBX Classes
 90
        0
280
     0
281
     0
  0
CLASS
  1
VISUALSTYLE
  2
AcDbVisualStyle
  3
ObjectDBX Classes
 90
     4095
280
     0
281
     0
  0
CLASS
  1
MATERIAL
  2
AcDbMaterial
  3
ObjectDBX Classes
 90
     1153
280
     0
281
     0
  0
CLASS
  1
SCALE
  2
AcDbScale
  3
ObjectDBX Classes
 90
     1153
280
     0
281
     0
  0
CLASS
  1
TABLESTYLE
  2
AcDbTableStyle
  3
ObjectDBX Classes
 90
     4095
280
     0
281
     0
  0
CLASS
  1
MLEADERSTYLE
  2
AcDbMLeaderStyle
  3
ACDB_MLEADERSTYLE_CLASS
 90
     4095
280
     0
281
     0
  0
CLASS
  1
SUN
  2
AcDbSun
  3
SCENEOE
 90
     1153
280
     0
281
     0
  0
CLASS
  1
ACDBPLACEHOLDER
  2
AcDbPlaceHolder
  3
ObjectDBX Classes
 90
        0
280
     0
281
     0
  0
CLASS
  1
LAYOUT
  2
AcDbLayout
  3
ObjectDBX Classes
 90
        0
280
     0
281
     0
  0
ENDSEC
  0
SECTION
  2
TABLES
  0
TABLE
  2
VPORT
  5
8
330
0
100
AcDbSymbolTable
 70
     1
  0
VPORT
  5
29
330
8
100
AcDbSymbolTableRecord
100
AcDbViewportTableRecord
  2
*Active
 70
     0
 10
0.0
 20
0.0
 11
1.0
 21
1.0
 12
148.5
 22
105.0
 13
0.0
 23
0.0
 14
10.0
 24
10.0
 15
10.0
 25
10.0
 16
0.0
 26
0.0
 36
1.0
 17
0.0
 27
0.0
 37
0.0
 40
210.0
 41
1.4142857143
 42
50.0
 43
0.0
 44
0.0
 50
0.0
 51
0.0
 71
     0
 72
  2000
 73
     1
 74
     3
 75
     0
 76
     0
 77
     0
 78
     0
281
     0
 65
     1
110
0.0
120
0.0
130
0.0
111
1.0
121
0.0
131
0.0
112
0.0
122
1.0
132
0.0
 79
     0
146
0.0
  0
ENDTAB
  0
TABLE
  2
LTYPE
  5
5
330
0
100
AcDbSymbolTable
 70
     6
  0
LTYPE
  5
14
330
5
100
AcDbSymbolTableRecord
100
AcDbLinetypeTableRecord
  2
ByBlock
 70
     0
  3

 72
    65
 73
     0
 40
0.0
  0
LTYPE
  5
15
330
5
100
AcDbSymbolTableRecord
100
AcDbLinetypeTableRecord
  2
ByLayer
 70
     0
  3

 72
    65
 73
     0
 40
0.0
  0
LTYPE
  5
16
330
5
100
AcDbSymbolTableRecord
100
AcDbLinetypeTableRecord
  2
Continuous
 70
     0
  3
Solid line
 72
    65
 73
     0
 40
0.0
  0
LTYPE
  5
6E
330
5
100
AcDbSymbolTableRecord
100
AcDbLinetypeTableRecord
  2
HIDDEN
 70
     0
  3
Hidden __ __ __ __ __ __ __ __ __ __ __ __ __ __
 72
    65
 73
     2
 40
1.905
 49
1.27
 74
     0
 49
-0.635
 74
     0
  0
LTYPE
  5
6F
330
5
100
AcDbSymbolTableRecord
100
AcDbLinetypeTableRecord
  2
PHANTOM
 70
     0
  3
Phantom ______  __  __  ______  __  __  ______
 72
    65
 73
     6
 40
12.7
 49
6.35
 74
     0
 49
-1.27
 74
     0
 49
1.27
 74
     0
 49
-1.27
 74
     0
 49
1.27
 74
     0
 49
-1.27
 74
     0
  0
LTYPE
  5
70
330
5
100
AcDbSymbolTableRecord
100
AcDbLinetypeTableRecord
  2
CENTER
 70
     0
  3
Center ____ _ ____ _ ____ _ ____ _ ____ _ ____
 72
    65
 73
     4
 40
10.16
 49
6.35
 74
     0
 49
-1.27
 74
     0
 49
1.27
 74
     0
 49
-1.27
 74
     0
  0
LTYPE
  5
71
330
5
100
AcDbSymbolTableRecord
100
AcDbLinetypeTableRecord
  2
CENTERX2
 70
     0
  3
Center (2x) ________  __  ________  __  _____
 72
    65
 73
     4
 40
20.32
 49
12.7
 74
     0
 49
-2.54
 74
     0
 49
2.54
 74
     0
 49
-2.54
 74
     0
  0
LTYPE
  5
72
330
5
100
AcDbSymbolTableRecord
100
AcDbLinetypeTableRecord
  2
DOT2
 70
     0
  3
Dot (.5x) ........................................
 72
    65
 73
     2
 40
0.635
 49
0.0
 74
     0
 49
-0.635
 74
     0
  0
ENDTAB
  0
TABLE
  2
LAYER
  5
2
330
0
100
AcDbSymbolTable
 70
     5
  0
LAYER
  5
10
330
2
100
AcDbSymbolTableRecord
100
AcDbLayerTableRecord
  2
0
 70
     0
 62
     7
  6
Continuous
370
    -3
390
F
  0
LAYER
  5
73
330
2
100
AcDbSymbolTableRecord
100
AcDbLayerTableRecord
  2
FORMAT
 70
     0
 62
     7
  6
Continuous
370
    -3
390
F
  0
LAYER
  5
74
330
2
100
AcDbSymbolTableRecord
100
AcDbLayerTableRecord
  2
VERMASSUNG
 70
     0
 62
     7
  6
Continuous
370
    -3
390
F
  0
LAYER
  5
75
330
2
100
AcDbSymbolTableRecord
100
AcDbLayerTableRecord
  2
KOPF_DÜNN
 70
     0
 62
     7
  6
Continuous
370
    -3
390
F
  0
LAYER
  5
76
330
2
100
AcDbSymbolTableRecord
100
AcDbLayerTableRecord
  2
KOPF_DICK
 70
     0
 62
     7
  6
Continuous
370
    25
390
F
  0
ENDTAB
  0
TABLE
  2
STYLE
  5
3
330
0
100
AcDbSymbolTable
 70
     3
  0
STYLE
  5
11
330
3
100
AcDbSymbolTableRecord
100
AcDbTextStyleTableRecord
  2
Standard
 70
     0
 40
0.0
 41
1.0
 50
0.0
 71
     0
 42
2.0
  3
txt
  4

  0
STYLE
  5
77
330
3
100
AcDbSymbolTableRecord
100
AcDbTextStyleTableRecord
  2
SLDTEXTSTYLE0
 70
     0
 40
0.0
 41
0.7
 50
0.0
 71
     0
 42
2.0
  3
TXT
  4

  0
STYLE
  5
7B
330
3
100
AcDbSymbolTableRecord
100
AcDbTextStyleTableRecord
  2
SLDTEXTSTYLE1
 70
     0
 40
0.0
 41
0.6428571429
 50
0.0
 71
     0
 42
2.0
  3
TXT
  4

  0
ENDTAB
  0
TABLE
  2
VIEW
  5
6
330
0
100
AcDbSymbolTable
 70
     0
  0
ENDTAB
  0
TABLE
  2
UCS
  5
7
330
0
100
AcDbSymbolTable
 70
     0
  0
ENDTAB
  0
TABLE
  2
APPID
  5
9
330
0
100
AcDbSymbolTable
 70
     1
  0
APPID
  5
12
330
9
100
AcDbSymbolTableRecord
100
AcDbRegAppTableRecord
  2
ACAD
 70
     0
  0
ENDTAB
  0
TABLE
  2
DIMSTYLE
  5
A
330
0
100
AcDbSymbolTable
 70
     3
100
AcDbDimStyleTable
  0
DIMSTYLE
105
27
330
A
100
AcDbSymbolTableRecord
100
AcDbDimStyleTableRecord
  2
ISO-25
 70
     0
 41
2.5
 42
0.625
 43
3.75
 44
1.25
 73
     0
 74
     0
 77
     1
 78
     8
140
2.5
141
2.5
143
0.0393700787
147
0.625
171
     3
172
     1
178
     0
271
     2
272
     2
274
     3
278
    44
283
     0
284
     8
340
11
  0
DIMSTYLE
105
12C
102
{ACAD_REACTORS
330
12B
330
137
330
142
330
159
330
164
330
16E
330
178
330
182
102
}
330
A
100
AcDbSymbolTableRecord
100
AcDbDimStyleTableRecord
  2
SLDDIMSTYLE0
 70
     0
 41
3.0
 44
0.0
 45
0.000000001
 73
     0
 74
     0
 77
     1
 78
    12
 79
     3
140
2.0
147
0.5
173
     1
178
     0
271
     2
272
     3
276
     2
284
    12
340
77
  0
DIMSTYLE
105
14E
102
{ACAD_REACTORS
330
14D
102
}
330
A
100
AcDbSymbolTableRecord
100
AcDbDimStyleTableRecord
  2
SLDDIMSTYLE1
 70
     0
 41
3.0
 44
0.0
 45
0.000000001
 73
     0
 74
     0
 77
     1
 78
    12
 79
     3
140
2.0
147
0.5
173
     1
178
     0
271
     0
272
     3
276
     2
284
    12
340
77
  0
ENDTAB
  0
TABLE
  2
BLOCK_RECORD
  5
1
330
0
100
AcDbSymbolTable
 70
    10
  0
BLOCK_RECORD
  5
1F
330
1
100
AcDbSymbolTableRecord
100
AcDbBlockTableRecord
  2
*Model_Space
340
22
  0
BLOCK_RECORD
  5
1B
330
1
100
AcDbSymbolTableRecord
100
AcDbBlockTableRecord
  2
*Paper_Space
340
1E
  0
BLOCK_RECORD
  5
23
330
1
100
AcDbSymbolTableRecord
100
AcDbBlockTableRecord
  2
*Paper_Space0
340
26
  0
BLOCK_RECORD
  5
12D
330
1
100
AcDbSymbolTableRecord
100
AcDbBlockTableRecord
  2
_D
340
0
  0
BLOCK_RECORD
  5
138
330
1
100
AcDbSymbolTableRecord
100
AcDbBlockTableRecord
  2
_D_1
340
0
  0
BLOCK_RECORD
  5
143
330
1
100
AcDbSymbolTableRecord
100
AcDbBlockTableRecord
  2
_D_2
340
0
  0
BLOCK_RECORD
  5
14F
330
1
100
AcDbSymbolTableRecord
100
AcDbBlockTableRecord
  2
_D_3
340
0
  0
BLOCK_RECORD
  5
15A
330
1
100
AcDbSymbolTableRecord
100
AcDbBlockTableRecord
  2
_D_4
340
0
  0
BLOCK_RECORD
  5
165
330
1
100
AcDbSymbolTableRecord
100
AcDbBlockTableRecord
  2
_D_5
340
0
  0
BLOCK_RECORD
  5
16F
330
1
100
AcDbSymbolTableRecord
100
AcDbBlockTableRecord
  2
_D_6
340
0
  0
BLOCK_RECORD
  5
179
330
1
100
AcDbSymbolTableRecord
100
AcDbBlockTableRecord
  2
_D_7
340
0
  0
BLOCK_RECORD
  5
183
330
1
100
AcDbSymbolTableRecord
100
AcDbBlockTableRecord
  2
_D_8
340
0
  0
ENDTAB
  0
ENDSEC
  0
SECTION
  2
BLOCKS
  0
BLOCK
  5
20
330
1F
100
AcDbEntity
  8
0
100
AcDbBlockBegin
  2
*Model_Space
 70
     0
 10
0.0
 20
0.0
 30
0.0
  3
*Model_Space
  1

  0
ENDBLK
  5
21
330
1F
100
AcDbEntity
  8
0
100
AcDbBlockEnd
  0
BLOCK
  5
1C
330
1B
100
AcDbEntity
 67
     1
  8
0
100
AcDbBlockBegin
  2
*Paper_Space
 70
     0
 10
0.0
 20
0.0
 30
0.0
  3
*Paper_Space
  1

  0
ENDBLK
  5
1D
330
1B
100
AcDbEntity
 67
     1
  8
0
100
AcDbBlockEnd
  0
BLOCK
  5
24
330
23
100
AcDbEntity
  8
0
100
AcDbBlockBegin
  2
*Paper_Space0
 70
     0
 10
0.0
 20
0.0
 30
0.0
  3
*Paper_Space0
  1

  0
ENDBLK
  5
25
330
23
100
AcDbEntity
  8
0
100
AcDbBlockEnd
  0
BLOCK
  5
12E
330
12D
100
AcDbEntity
  8
0
100
AcDbBlockBegin
  2
_D
 70
     0
 10
0.0
 20
0.0
 30
0.0
  3
_D
  1

  0
SOLID
  5
130
330
12D
100
AcDbEntity
  8
VERMASSUNG
100
AcDbTrace
 10
266.5727928891
 20
106.9846772922
 30
0.0
 11
267.0227928891
 21
109.9846772922
 31
0.0
 12
266.1227928891
 22
109.9846772922
 32
0.0
 13
266.1227928891
 23
109.9846772922
 33
0.0
  0
SOLID
  5
131
330
12D
100
AcDbEntity
  8
VERMASSUNG
100
AcDbTrace
 10
266.5727928891
 20
133.9846772922
 30
0.0
 11
266.1227928891
 21
130.9846772922
 31
0.0
 12
267.0227928891
 22
130.9846772922
 32
0.0
 13
267.0227928891
 23
130.9846772922
 33
0.0
  0
LINE
  5
132
330
12D
100
AcDbEntity
  8
VERMASSUNG
100
AcDbLine
 10
229.7164254712
 20
106.9846772922
 30
0.0
 11
267.5727928891
 21
106.9846772922
 31
0.0
  0
LINE
  5
133
330
12D
100
AcDbEntity
  8
VERMASSUNG
100
AcDbLine
 10
229.7164254712
 20
133.9846772922
 30
0.0
 11
267.5727928891
 21
133.9846772922
 31
0.0
  0
LINE
  5
134
330
12D
100
AcDbEntity
  8
VERMASSUNG
100
AcDbLine
 10
266.5727928891
 20
106.9846772922
 30
0.0
 11
266.5727928891
 21
133.9846772922
 31
0.0
  0
MTEXT
  5
135
330
12D
100
AcDbEntity
  8
VERMASSUNG
100
AcDbMText
 10
263.9946575842
 20
117.279677335
 30
0.0
 40
2.0
 41
0.0
 71
     1
 72
     1
  1
%%c
  7
SLDTEXTSTYLE0
 11
6.123233995736766E-17
 21
1.0
 31
0.0
 73
     1
 44
1.0
  0
MTEXT
  5
136
330
12D
100
AcDbEntity
  8
VERMASSUNG
100
AcDbMText
 10
263.7946576329
 20
120.8896773493
 30
0.0
 40
2.0
 41
0.0
 71
     1
 72
     1
  1
27
  7
SLDTEXTSTYLE0
 11
6.123233995736766E-17
 21
1.0
 31
0.0
 73
     1
 44
1.0
  0
ENDBLK
  5
12F
330
12D
100
AcDbEntity
  8
0
100
AcDbBlockEnd
  0
BLOCK
  5
139
330
138
100
AcDbEntity
  8
0
100
AcDbBlockBegin
  2
_D_1
 70
     0
 10
0.0
 20
0.0
 30
0.0
  3
_D_1
  1

  0
SOLID
  5
13B
330
138
100
AcDbEntity
  8
VERMASSUNG
100
AcDbTrace
 10
277.3968084384
 20
94.4846772922
 30
0.0
 11
277.8468084384
 21
97.4846772922
 31
0.0
 12
276.9468084384
 22
97.4846772922
 32
0.0
 13
276.9468084384
 23
97.4846772922
 33
0.0
  0
SOLID
  5
13C
330
138
100
AcDbEntity
  8
VERMASSUNG
100
AcDbTrace
 10
277.3968084384
 20
146.4846772922
 30
0.0
 11
276.9468084384
 21
143.4846772922
 31
0.0
 12
277.8468084384
 22
143.4846772922
 32
0.0
 13
277.8468084384
 23
143.4846772922
 33
0.0
  0
LINE
  5
13D
330
138
100
AcDbEntity
  8
VERMASSUNG
100
AcDbLine
 10
90.5164254712
 20
94.4846772922
 30
0.0
 11
278.3968084384
 21
94.4846772922
 31
0.0
  0
LINE
  5
13E
330
138
100
AcDbEntity
  8
VERMASSUNG
100
AcDbLine
 10
90.5164254712
 20
146.4846772922
 30
0.0
 11
278.3968084384
 21
146.4846772922
 31
0.0
  0
LINE
  5
13F
330
138
100
AcDbEntity
  8
VERMASSUNG
100
AcDbLine
 10
277.3968084384
 20
94.4846772922
 30
0.0
 11
277.3968084384
 21
146.4846772922
 31
0.0
  0
MTEXT
  5
140
330
138
100
AcDbEntity
  8
VERMASSUNG
100
AcDbMText
 10
274.8186731335
 20
117.279677335
 30
0.0
 40
2.0
 41
0.0
 71
     1
 72
     1
  1
%%c
  7
SLDTEXTSTYLE0
 11
6.123233995736766E-17
 21
1.0
 31
0.0
 73
     1
 44
1.0
  0
MTEXT
  5
141
330
138
100
AcDbEntity
  8
VERMASSUNG
100
AcDbMText
 10
274.6186731822
 20
120.8896773493
 30
0.0
 40
2.0
 41
0.0
 71
     1
 72
     1
  1
52
  7
SLDTEXTSTYLE0
 11
6.123233995736766E-17
 21
1.0
 31
0.0
 73
     1
 44
1.0
  0
ENDBLK
  5
13A
330
138
100
AcDbEntity
  8
0
100
AcDbBlockEnd
  0
BLOCK
  5
144
330
143
100
AcDbEntity
  8
0
100
AcDbBlockBegin
  2
_D_2
 70
     0
 10
0.0
 20
0.0
 30
0.0
  3
_D_2
  1

  0
SOLID
  5
146
330
143
100
AcDbEntity
  8
VERMASSUNG
100
AcDbTrace
 10
287.5164254712
 20
149.4846772922
 30
0.0
 11
287.0664254712
 21
146.4846772922
 31
0.0
 12
287.9664254712
 22
146.4846772922
 32
0.0
 13
287.9664254712
 23
146.4846772922
 33
0.0
  0
SOLID
  5
147
330
143
100
AcDbEntity
  8
VERMASSUNG
100
AcDbTrace
 10
287.5164254712
 20
91.4846772922
 30
0.0
 11
287.9664254712
 21
94.4846772922
 31
0.0
 12
287.0664254712
 22
94.4846772922
 32
0.0
 13
287.0664254712
 23
94.4846772922
 33
0.0
  0
LINE
  5
148
330
143
100
AcDbEntity
  8
VERMASSUNG
100
AcDbLine
 10
208.7164254712
 20
149.4846772922
 30
0.0
 11
288.5164254712
 21
149.4846772922
 31
0.0
  0
LINE
  5
149
330
143
100
AcDbEntity
  8
VERMASSUNG
100
AcDbLine
 10
208.7164254712
 20
91.4846772922
 30
0.0
 11
288.5164254712
 21
91.4846772922
 31
0.0
  0
LINE
  5
14A
330
143
100
AcDbEntity
  8
VERMASSUNG
100
AcDbLine
 10
287.5164254712
 20
149.4846772922
 30
0.0
 11
287.5164254712
 21
91.4846772922
 31
0.0
  0
MTEXT
  5
14B
330
143
100
AcDbEntity
  8
VERMASSUNG
100
AcDbMText
 10
284.9382901663
 20
117.279677335
 30
0.0
 40
2.0
 41
0.0
 71
     1
 72
     1
  1
%%c
  7
SLDTEXTSTYLE0
 11
-7.044195017643634E-15
 21
1.0
 31
0.0
 73
     1
 44
1.0
  0
MTEXT
  5
14C
330
143
100
AcDbEntity
  8
VERMASSUNG
100
AcDbMText
 10
284.738290215
 20
120.8896773493
 30
0.0
 40
2.0
 41
0.0
 71
     1
 72
     1
  1
58
  7
SLDTEXTSTYLE0
 11
-7.044195017643634E-15
 21
1.0
 31
0.0
 73
     1
 44
1.0
  0
ENDBLK
  5
145
330
143
100
AcDbEntity
  8
0
100
AcDbBlockEnd
  0
BLOCK
  5
150
330
14F
100
AcDbEntity
  8
0
100
AcDbBlockBegin
  2
_D_3
 70
     0
 10
0.0
 20
0.0
 30
0.0
  3
_D_3
  1

  0
SOLID
  5
152
330
14F
100
AcDbEntity
  8
VERMASSUNG
100
AcDbTrace
 10
257.5164254712
 20
125.5421772922
 30
0.0
 11
257.0664254712
 21
122.5421772922
 31
0.0
 12
257.9664254712
 22
122.5421772922
 32
0.0
 13
257.9664254712
 23
122.5421772922
 33
0.0
  0
SOLID
  5
153
330
14F
100
AcDbEntity
  8
VERMASSUNG
100
AcDbTrace
 10
257.5164254712
 20
115.4271772922
 30
0.0
 11
257.9664254712
 21
118.4271772922
 31
0.0
 12
257.0664254712
 22
118.4271772922
 32
0.0
 13
257.0664254712
 23
118.4271772922
 33
0.0
  0
LINE
  5
154
330
14F
100
AcDbEntity
  8
VERMASSUNG
100
AcDbLine
 10
247.5164254712
 20
125.5421772922
 30
0.0
 11
258.5164254712
 21
125.5421772922
 31
0.0
  0
LINE
  5
155
330
14F
100
AcDbEntity
  8
VERMASSUNG
100
AcDbLine
 10
247.5164254712
 20
115.4271772922
 30
0.0
 11
258.5164254712
 21
115.4271772922
 31
0.0
  0
LINE
  5
156
330
14F
100
AcDbEntity
  8
VERMASSUNG
100
AcDbLine
 10
257.5164254712
 20
125.5421772922
 30
0.0
 11
257.5164254712
 21
115.4271772922
 31
0.0
  0
MTEXT
  5
157
330
14F
100
AcDbEntity
  8
VERMASSUNG
100
AcDbMText
 10
254.9382898752
 20
117.3846772032
 30
0.0
 40
2.0
 41
0.0
 71
     1
 72
     1
  1
SW
  7
SLDTEXTSTYLE0
 11
-7.044195017643634E-15
 21
1.0
 31
0.0
 73
     1
 44
1.0
  0
MTEXT
  5
158
330
14F
100
AcDbEntity
  8
VERMASSUNG
100
AcDbMText
 10
254.9382898752
 20
121.1846772673
 30
0.0
 40
2.0
 41
0.0
 71
     1
 72
     1
  1
10
  7
SLDTEXTSTYLE0
 11
-7.044195017643634E-15
 21
1.0
 31
0.0
 73
     1
 44
1.0
  0
ENDBLK
  5
151
330
14F
100
AcDbEntity
  8
0
100
AcDbBlockEnd
  0
BLOCK
  5
15B
330
15A
100
AcDbEntity
  8
0
100
AcDbBlockBegin
  2
_D_4
 70
     0
 10
0.0
 20
0.0
 30
0.0
  3
_D_4
  1

  0
SOLID
  5
15D
330
15A
100
AcDbEntity
  8
VERMASSUNG
100
AcDbTrace
 10
7.4711216289
 20
88.9846772922
 30
0.0
 11
7.9211216289
 21
91.9846772922
 31
0.0
 12
7.0211216289
 22
91.9846772922
 32
0.0
 13
7.0211216289
 23
91.9846772922
 33
0.0
  0
SOLID
  5
15E
330
15A
100
AcDbEntity
  8
VERMASSUNG
100
AcDbTrace
 10
7.4711216289
 20
151.9846772922
 30
0.0
 11
7.0211216289
 21
148.9846772922
 31
0.0
 12
7.9211216289
 22
148.9846772922
 32
0.0
 13
7.9211216289
 23
148.9846772922
 33
0.0
  0
LINE
  5
15F
330
15A
100
AcDbEntity
  8
VERMASSUNG
100
AcDbLine
 10
49.8164254712
 20
88.9846772922
 30
0.0
 11
6.4711216289
 21
88.9846772922
 31
0.0
  0
LINE
  5
160
330
15A
100
AcDbEntity
  8
VERMASSUNG
100
AcDbLine
 10
49.8164254712
 20
151.9846772922
 30
0.0
 11
6.4711216289
 21
151.9846772922
 31
0.0
  0
LINE
  5
161
330
15A
100
AcDbEntity
  8
VERMASSUNG
100
AcDbLine
 10
7.4711216289
 20
88.9846772922
 30
0.0
 11
7.4711216289
 21
151.9846772922
 31
0.0
  0
MTEXT
  5
162
330
15A
100
AcDbEntity
  8
VERMASSUNG
100
AcDbMText
 10
4.8929863239
 20
117.279677335
 30
0.0
 40
2.0
 41
0.0
 71
     1
 72
     1
  1
%%c
  7
SLDTEXTSTYLE0
 11
6.123233995736766E-17
 21
1.0
 31
0.0
 73
     1
 44
1.0
  0
MTEXT
  5
163
330
15A
100
AcDbEntity
  8
VERMASSUNG
100
AcDbMText
 10
4.6929863727
 20
120.8896773493
 30
0.0
 40
2.0
 41
0.0
 71
     1
 72
     1
  1
63
  7
SLDTEXTSTYLE0
 11
6.123233995736766E-17
 21
1.0
 31
0.0
 73
     1
 44
1.0
  0
ENDBLK
  5
15C
330
15A
100
AcDbEntity
  8
0
100
AcDbBlockEnd
  0
BLOCK
  5
166
330
165
100
AcDbEntity
  8
0
100
AcDbBlockBegin
  2
_D_5
 70
     0
 10
0.0
 20
0.0
 30
0.0
  3
_D_5
  1

  0
SOLID
  5
168
330
165
100
AcDbEntity
  8
VERMASSUNG
100
AcDbTrace
 10
75.4664254712
 20
159.4127819549
 30
0.0
 11
78.4664254712
 21
158.9627819549
 31
0.0
 12
78.4664254712
 22
159.8627819549
 32
0.0
 13
78.4664254712
 23
159.8627819549
 33
0.0
  0
SOLID
  5
169
330
165
100
AcDbEntity
  8
VERMASSUNG
100
AcDbTrace
 10
209.5164254712
 20
159.4127819549
 30
0.0
 11
206.5164254712
 21
159.8627819549
 31
0.0
 12
206.5164254712
 22
158.9627819549
 32
0.0
 13
206.5164254712
 23
158.9627819549
 33
0.0
  0
LINE
  5
16A
330
165
100
AcDbEntity
  8
VERMASSUNG
100
AcDbLine
 10
75.4664254712
 20
150.331117616
 30
0.0
 11
75.4664254712
 21
160.4127819549
 31
0.0
  0
LINE
  5
16B
330
165
100
AcDbEntity
  8
VERMASSUNG
100
AcDbLine
 10
209.5164254712
 20
148.6846772922
 30
0.0
 11
209.5164254712
 21
160.4127819549
 31
0.0
  0
LINE
  5
16C
330
165
100
AcDbEntity
  8
VERMASSUNG
100
AcDbLine
 10
75.4664254712
 20
159.4127819549
 30
0.0
 11
209.5164254712
 21
159.4127819549
 31
0.0
  0
MTEXT
  5
16D
330
165
100
AcDbEntity
  8
VERMASSUNG
100
AcDbMText
 10
138.7914254701
 20
161.9909175508
 30
0.0
 40
2.0
 41
0.0
 71
     1
 72
     1
  1
134.05
  7
SLDTEXTSTYLE0
 73
     1
 44
1.0
  0
ENDBLK
  5
167
330
165
100
AcDbEntity
  8
0
100
AcDbBlockEnd
  0
BLOCK
  5
170
330
16F
100
AcDbEntity
  8
0
100
AcDbBlockBegin
  2
_D_6
 70
     0
 10
0.0
 20
0.0
 30
0.0
  3
_D_6
  1

  0
SOLID
  5
172
330
16F
100
AcDbEntity
  8
VERMASSUNG
100
AcDbTrace
 10
209.5164254712
 20
159.4127819549
 30
0.0
 11
212.5164254712
 21
158.9627819549
 31
0.0
 12
212.5164254712
 22
159.8627819549
 32
0.0
 13
212.5164254712
 23
159.8627819549
 33
0.0
  0
SOLID
  5
173
330
16F
100
AcDbEntity
  8
VERMASSUNG
100
AcDbTrace
 10
230.5164254712
 20
159.4127819549
 30
0.0
 11
227.5164254712
 21
159.8627819549
 31
0.0
 12
227.5164254712
 22
158.9627819549
 32
0.0
 13
227.5164254712
 23
158.9627819549
 33
0.0
  0
LINE
  5
174
330
16F
100
AcDbEntity
  8
VERMASSUNG
100
AcDbLine
 10
209.5164254712
 20
148.6846772922
 30
0.0
 11
209.5164254712
 21
160.4127819549
 31
0.0
  0
LINE
  5
175
330
16F
100
AcDbEntity
  8
VERMASSUNG
100
AcDbLine
 10
230.5164254712
 20
129.6557451041
 30
0.0
 11
230.5164254712
 21
160.4127819549
 31
0.0
  0
LINE
  5
176
330
16F
100
AcDbEntity
  8
VERMASSUNG
100
AcDbLine
 10
209.5164254712
 20
159.4127819549
 30
0.0
 11
230.5164254712
 21
159.4127819549
 31
0.0
  0
MTEXT
  5
177
330
16F
100
AcDbEntity
  8
VERMASSUNG
100
AcDbMText
 10
218.8164254142
 20
161.9909175508
 30
0.0
 40
2.0
 41
0.0
 71
     1
 72
     1
  1
21
  7
SLDTEXTSTYLE0
 73
     1
 44
1.0
  0
ENDBLK
  5
171
330
16F
100
AcDbEntity
  8
0
100
AcDbBlockEnd
  0
BLOCK
  5
17A
330
179
100
AcDbEntity
  8
0
100
AcDbBlockBegin
  2
_D_7
 70
     0
 10
0.0
 20
0.0
 30
0.0
  3
_D_7
  1

  0
SOLID
  5
17C
330
179
100
AcDbEntity
  8
VERMASSUNG
100
AcDbTrace
 10
49.5164254712
 20
170.2263157895
 30
0.0
 11
52.5164254712
 21
169.7763157895
 31
0.0
 12
52.5164254712
 22
170.6763157895
 32
0.0
 13
52.5164254712
 23
170.6763157895
 33
0.0
  0
SOLID
  5
17D
330
179
100
AcDbEntity
  8
VERMASSUNG
100
AcDbTrace
 10
209.5164254712
 20
170.2263157895
 30
0.0
 11
206.5164254712
 21
170.6763157895
 31
0.0
 12
206.5164254712
 22
169.7763157895
 32
0.0
 13
206.5164254712
 23
169.7763157895
 33
0.0
  0
LINE
  5
17E
330
179
100
AcDbEntity
  8
VERMASSUNG
100
AcDbLine
 10
49.5164254712
 20
151.6846772922
 30
0.0
 11
49.5164254712
 21
171.2263157895
 31
0.0
  0
LINE
  5
17F
330
179
100
AcDbEntity
  8
VERMASSUNG
100
AcDbLine
 10
209.5164254712
 20
148.6846772922
 30
0.0
 11
209.5164254712
 21
171.2263157895
 31
0.0
  0
LINE
  5
180
330
179
100
AcDbEntity
  8
VERMASSUNG
100
AcDbLine
 10
49.5164254712
 20
170.2263157895
 30
0.0
 11
209.5164254712
 21
170.2263157895
 31
0.0
  0
MTEXT
  5
181
330
179
100
AcDbEntity
  8
VERMASSUNG
100
AcDbMText
 10
127.6164254392
 20
172.8044513854
 30
0.0
 40
2.0
 41
0.0
 71
     1
 72
     1
  1
160
  7
SLDTEXTSTYLE0
 73
     1
 44
1.0
  0
ENDBLK
  5
17B
330
179
100
AcDbEntity
  8
0
100
AcDbBlockEnd
  0
BLOCK
  5
184
330
183
100
AcDbEntity
  8
0
100
AcDbBlockBegin
  2
_D_8
 70
     0
 10
0.0
 20
0.0
 30
0.0
  3
_D_8
  1

  0
SOLID
  5
186
330
183
100
AcDbEntity
  8
VERMASSUNG
100
AcDbTrace
 10
247.5164254712
 20
179.9846772922
 30
0.0
 11
244.5164254712
 21
180.4346772922
 31
0.0
 12
244.5164254712
 22
179.5346772922
 32
0.0
 13
244.5164254712
 23
179.5346772922
 33
0.0
  0
SOLID
  5
187
330
183
100
AcDbEntity
  8
VERMASSUNG
100
AcDbTrace
 10
17.6164254712
 20
179.9846772922
 30
0.0
 11
20.6164254712
 21
179.5346772922
 31
0.0
 12
20.6164254712
 22
180.4346772922
 32
0.0
 13
20.6164254712
 23
180.4346772922
 33
0.0
  0
LINE
  5
188
330
183
100
AcDbEntity
  8
VERMASSUNG
100
AcDbLine
 10
247.5164254712
 20
128.8846772922
 30
0.0
 11
247.5164254712
 21
180.9846772922
 31
0.0
  0
LINE
  5
189
330
183
100
AcDbEntity
  8
VERMASSUNG
100
AcDbLine
 10
17.6164254712
 20
140.1753550387
 30
0.0
 11
17.6164254712
 21
180.9846772922
 31
0.0
  0
LINE
  5
18A
330
183
100
AcDbEntity
  8
VERMASSUNG
100
AcDbLine
 10
247.5164254712
 20
179.9846772922
 30
0.0
 11
17.6164254712
 21
179.9846772922
 31
0.0
  0
MTEXT
  5
18B
330
183
100
AcDbEntity
  8
VERMASSUNG
100
AcDbMText
 10
129.466425615
 20
182.5628128882
 30
0.0
 40
2.0
 41
0.0
 71
     1
 72
     1
  1
229.9
  7
SLDTEXTSTYLE0
 73
     1
 44
1.0
  0
ENDBLK
  5
185
330
183
100
AcDbEntity
  8
0
100
AcDbBlockEnd
  0
ENDSEC
  0
SECTION
  2
ENTITIES
  0
MTEXT
  5
78
330
1F
100
AcDbEntity
  8
KOPF_DÜNN
100
AcDbMText
 10
13.8892156294
 20
23.8442973028
 30
0.0
 40
3.0
 41
0.0
 71
     1
 72
     1
  1
HA6.D27.K01.160
  7
SLDTEXTSTYLE0
 73
     1
 44
1.0
  0
MTEXT
  5
79
330
1F
100
AcDbEntity
  8
VERMASSUNG
100
AcDbMText
 10
13.9329988022
 20
28.8834360957
 30
0.0
 40
3.0
 41
0.0
 71
     1
 72
     1
  1
Fräsdorn Typ S_Milling arbor type S
  7
SLDTEXTSTYLE0
 73
     1
 44
1.0
  0
MTEXT
  5
7A
330
1F
100
AcDbEntity
  8
VERMASSUNG
100
AcDbMText
 10
98.8601118557
 20
13.8365368761
 30
0.0
 40
2.0
 41
0.0
 71
     1
 72
     1
  1
Datum: 16.02.2018
  7
SLDTEXTSTYLE0
 73
     1
 44
1.0
  0
MTEXT
  5
7C
330
1F
100
AcDbEntity
  8
VERMASSUNG
100
AcDbMText
 10
13.933048693
 20
18.0482802738
 30
0.0
 40
2.0
 41
0.0
 71
     1
 72
     1
  1
HSK A 63 / Ø27
  7
SLDTEXTSTYLE1
 73
     1
 44
1.0
  0
MTEXT
  5
7D
330
1F
100
AcDbEntity
  8
VERMASSUNG
100
AcDbMText
 10
13.9808475933
 20
13.9090974274
 30
0.0
 40
2.0
 41
0.0
 71
     1
 72
     1
  1
Gewicht: 3393g
  7
SLDTEXTSTYLE0
 73
     1
 44
1.0
  0
ARC
  5
7E
330
1F
100
AcDbEntity
  8
0
  6
Continuous
 62
     7
370
    25
100
AcDbCircle
 10
215.3164254712
 20
136.9846772922
 30
0.0
 40
0.5
100
AcDbArc
 50
270.0
 51
0.0
  0
ARC
  5
7F
330
1F
100
AcDbEntity
  8
0
  6
Continuous
 62
     7
370
    25
100
AcDbCircle
 10
215.3164254712
 20
147.9846772922
 30
0.0
 40
0.5
100
AcDbArc
 50
0.0
 51
90.0
  0
LINE
  5
80
330
1F
100
AcDbEntity
  8
0
  6
Continuous
 62
     7
370
    25
100
AcDbLine
 10
209.5164218949
 20
136.4846780522
 30
0.0
 11
215.3164306687
 21
136.4846780522
 31
0.0
  0
LINE
  5
81
330
1F
100
AcDbEntity
  8
0
  6
Continuous
 62
     7
370
    25
100
AcDbLine
 10
215.3164306687
 20
148.4846781565
 30
0.0
 11
209.5164218949
 21
148.4846781565
 31
0.0
  0
LINE
  5
82
330
1F
100
AcDbEntity
  8
0
  6
Continuous
 62
     7
370
    25
100
AcDbLine
 10
209.5164218949
 20
92.484676428
 30
0.0
 11
215.3164306687
 21
92.484676428
 31
0.0
  0
LINE
  5
83
330
1F
100
AcDbEntity
  8
0
  6
Continuous
 62
     7
370
    25
100
AcDbLine
 10
215.3164306687
 20
104.4846765323
 30
0.0
 11
209.5164218949
 21
104.4846765323
 31
0.0
  0
ARC
  5
84
330
1F
100
AcDbEntity
  8
0
  6
Continuous
 62
     7
370
    25
100
AcDbCircle
 10
215.3164254712
 20
92.9846772922
 30
0.0
 40
0.5
100
AcDbArc
 50
270.0
 51
0.0
  0
ARC
  5
85
330
1F
100
AcDbEntity
  8
0
  6
Continuous
 62
     7
370
    25
100
AcDbCircle
 10
215.3164254712
 20
103.9846772922
 30
0.0
 40
0.5
100
AcDbArc
 50
0.0
 51
90.0
  0
LINE
  5
86
330
1F
100
AcDbEntity
  8
0
  6
Continuous
 62
     7
370
    25
100
AcDbLine
 10
246.9164291429
 20
129.4846769048
 30
0.0
 11
235.516429882
 21
129.4846769048
 31
0.0
  0
LINE
  5
87
330
1F
100
AcDbEntity
  8
0
  6
Continuous
 62
     7
370
    25
100
AcDbLine
 10
235.516429882
 20
111.4846776797
 30
0.0
 11
246.9164291429
 21
111.4846776797
 31
0.0
  0
ARC
  5
88
330
1F
100
AcDbEntity
  8
0
  6
Continuous
 62
     7
370
    25
100
AcDbCircle
 10
246.9164254712
 20
128.8846772922
 30
0.0
 40
0.6000000000000227
100
AcDbArc
 50
0.0
 51
90.0
  0
ARC
  5
89
330
1F
100
AcDbEntity
  8
0
  6
Continuous
 62
     7
370
    25
100
AcDbCircle
 10
246.9164254712
 20
112.0846772922
 30
0.0
 40
0.6000000000000512
100
AcDbArc
 50
270.0
 51
0.0
  0
ARC
  5
8A
330
1F
100
AcDbEntity
  8
0
  6
Continuous
 62
     7
370
    25
100
AcDbCircle
 10
234.9164254712
 20
113.8846772922
 30
0.0
 40
0.6000000000000085
100
AcDbArc
 50
0.0
 51
90.0
  0
ARC
  5
8B
330
1F
100
AcDbEntity
  8
0
  6
Continuous
 62
     7
370
    25
100
AcDbCircle
 10
234.9164254712
 20
127.0846772922
 30
0.0
 40
0.5999999999999943
100
AcDbArc
 50
270.0
 51
0.0
  0
LINE
  5
8C
330
1F
100
AcDbEntity
  8
0
  6
Continuous
 62
     7
370
    25
100
AcDbLine
 10
234.9164197253
 20
126.4846773444
 30
0.0
 11
230.5164197492
 21
126.4846773444
 31
0.0
  0
LINE
  5
8D
330
1F
100
AcDbEntity
  8
0
  6
Continuous
 62
     7
370
    25
100
AcDbLine
 10
230.5164197492
 20
114.4846772401
 30
0.0
 11
234.9164197253
 21
114.4846772401
 31
0.0
  0
LINE
  5
8E
330
1F
100
AcDbEntity
  8
0
  6
Continuous
 62
     7
370
    25
100
AcDbLine
 10
49.8164254855
 20
88.9846767856
 30
0.0
 11
54.4664254444
 21
88.9846767856
 31
0.0
  0
LINE
  5
8F
330
1F
100
AcDbEntity
  8
0
  6
Continuous
 62
     7
370
    25
100
AcDbLine
 10
54.5608378047
 20
151.9846777989
 30
0.0
 11
49.8164254855
 21
151.9846777989
 31
0.0
  0
ARC
  5
90
330
1F
100
AcDbEntity
  8
0
  6
Continuous
 62
     7
370
    25
100
AcDbCircle
 10
49.8164254712
 20
89.2846772922
 30
0.0
 40
0.2999999999999972
100
AcDbArc
 50
180.0
 51
270.0
  0
ARC
  5
91
330
1F
100
AcDbEntity
  8
0
  6
Continuous
 62
     7
370
    25
100
AcDbCircle
 10
49.8164254712
 20
151.6846772922
 30
0.0
 40
0.2999999999999901
100
AcDbArc
 50
90.0
 51
180.0
  0
ARC
  5
92
330
1F
100
AcDbEntity
  8
0
  6
Continuous
 62
     7
370
    25
100
AcDbCircle
 10
208.7164254712
 20
92.2846772922
 30
0.0
 40
0.7999999999999972
100
AcDbArc
 50
270.0
 51
0.0
  0
ARC
  5
93
330
1F
100
AcDbEntity
  8
0
  6
Continuous
 62
     7
370
    25
100
AcDbCircle
 10
208.7164254712
 20
148.6846772922
 30
0.0
 40
0.799999999999983
100
AcDbArc
 50
0.0
 51
90.0
  0
ARC
  5
94
330
1F
100
AcDbEntity
  8
0
  6
Continuous
 62
     7
370
    25
100
AcDbCircle
 10
92.5164254712
 20
92.4846772922
 30
0.0
 40
1.0
100
AcDbArc
 50
180.0
 51
270.0
  0
ARC
  5
95
330
1F
100
AcDbEntity
  8
0
  6
Continuous
 62
     7
370
    25
100
AcDbCircle
 10
92.5164254712
 20
148.4846772922
 30
0.0
 40
1.0
100
AcDbArc
 50
90.0
 51
180.0
  0
LINE
  5
96
330
1F
100
AcDbEntity
  8
0
  6
Continuous
 62
     7
370
    25
100
AcDbLine
 10
92.5164269315
 20
91.4846781267
 30
0.0
 11
208.7164232539
 21
91.4846781267
 31
0.0
  0
LINE
  5
97
330
1F
100
AcDbEntity
  8
0
  6
Continuous
 62
     7
370
    25
100
AcDbLine
 10
208.7164232539
 20
149.4846764578
 30
0.0
 11
92.5164269315
 21
149.4846764578
 31
0.0
  0
ARC
  5
98
330
1F
100
AcDbEntity
  8
0
  6
Continuous
 62
     7
370
    25
100
AcDbCircle
 10
90.5164254712
 20
93.4846772922
 30
0.0
 40
1.0
100
AcDbArc
 50
0.0
 51
90.0
  0
ARC
  5
99
330
1F
100
AcDbEntity
  8
0
  6
Continuous
 62
     7
370
    25
100
AcDbCircle
 10
90.5164254712
 20
147.4846772922
 30
0.0
 40
1.0
100
AcDbArc
 50
270.0
 51
0.0
  0
ARC
  5
9A
330
1F
100
AcDbEntity
  8
0
  6
Continuous
 62
     7
370
    25
100
AcDbCircle
 10
76.4664254712
 20
93.4846772922
 30
0.0
 40
1.000000000000006
100
AcDbArc
 50
90.0
 51
143.1139143113
  0
ARC
  5
9B
330
1F
100
AcDbEntity
  8
0
  6
Continuous
 62
     7
370
    25
100
AcDbCircle
 10
76.4664254712
 20
147.4846772922
 30
0.0
 40
1.0
100
AcDbArc
 50
216.917871162
 51
270.0
  0
LINE
  5
9C
330
1F
100
AcDbEntity
  8
0
  6
Continuous
 62
     7
370
    25
100
AcDbLine
 10
76.4664253252
 20
94.4846767558
 30
0.0
 11
90.5164266037
 21
94.4846767558
 31
0.0
  0
LINE
  5
9D
330
1F
100
AcDbEntity
  8
0
  6
Continuous
 62
     7
370
    25
100
AcDbLine
 10
90.5164266037
 20
146.4846778287
 30
0.0
 11
76.4664253252
 21
146.4846778287
 31
0.0
  0
ARC
  5
9E
330
1F
100
AcDbEntity
  8
0
  6
Continuous
 62
     7
370
    25
100
AcDbCircle
 10
49.0164187185
 20
95.9142396778
 30
0.0
 40
0.6000067526677242
100
AcDbArc
 50
33.5571153394
 51
90.0
  0
ARC
  5
9F
330
1F
100
AcDbEntity
  8
0
  6
Continuous
 62
     7
370
    25
100
AcDbCircle
 10
49.0164187185
 20
145.0551149066
 30
0.0
 40
0.6000067526677242
100
AcDbArc
 50
270.0
 51
326.4428846606
  0
LINE
  5
A0
330
1F
100
AcDbEntity
  8
0
  6
Continuous
 62
     7
370
    25
100
AcDbLine
 10
36.2860029595
 20
144.1424611582
 30
0.0
 11
23.716424595
 21
143.5127231849
 31
0.0
  0
LINE
  5
A1
330
1F
100
AcDbEntity
  8
0
  6
Continuous
 62
     7
370
    25
100
AcDbLine
 10
47.5164253762
 20
144.7051085157
 30
0.0
 11
44.6978160212
 21
144.563895799
 31
0.0
  0
LINE
  5
A2
330
1F
100
AcDbEntity
  8
0
  6
Continuous
 62
     7
370
    25
100
AcDbLine
 10
44.698037676
 20
96.4054476095
 30
0.0
 11
47.5164253762
 21
96.2642460687
 31
0.0
  0
LINE
  5
A3
330
1F
100
AcDbEntity
  8
0
  6
Continuous
 62
     7
370
    25
100
AcDbLine
 10
27.7164252507
 20
97.2562312706
 30
0.0
 11
36.2867023828
 21
96.826858036
 31
0.0
  0
LINE
  5
A4
330
1F
100
AcDbEntity
  8
0
  6
Continuous
 62
     7
370
    25
100
AcDbLine
 10
47.5164253762
 20
96.2642460687
 30
0.0
 11
48.3731383024
 21
96.4938021822
 31
0.0
  0
LINE
  5
A5
330
1F
100
AcDbEntity
  8
0
  6
Continuous
 62
     7
370
    25
100
AcDbLine
 10
48.3731383024
 20
144.4755524023
 30
0.0
 11
47.5164253762
 21
144.7051085157
 31
0.0
  0
ARC
  5
A6
330
1F
100
AcDbEntity
  8
0
  6
Continuous
 62
     7
370
    25
100
AcDbCircle
 10
48.5284296717
 20
95.9142464305
 30
0.0
 40
0.6000000000000085
100
AcDbArc
 50
90.0
 51
105.0
  0
ARC
  5
A7
330
1F
100
AcDbEntity
  8
0
  6
Continuous
 62
     7
370
    25
100
AcDbCircle
 10
48.5284296717
 20
145.055108154
 30
0.0
 40
0.5999999999999943
100
AcDbArc
 50
255.0
 51
270.0
  0
LINE
  5
A8
330
1F
100
AcDbEntity
  8
0
  6
Continuous
 62
     7
370
    25
100
AcDbLine
 10
48.528429706
 20
96.5142465754
 30
0.0
 11
49.0164186954
 21
96.5142465754
 31
0.0
  0
LINE
  5
A9
330
1F
100
AcDbEntity
  8
0
  6
Continuous
 62
     7
370
    25
100
AcDbLine
 10
49.0164186954
 20
144.4551080091
 30
0.0
 11
48.528429706
 21
144.4551080091
 31
0.0
  0
ARC
  5
AA
330
1F
100
AcDbEntity
  8
0
  6
Continuous
 62
     7
370
    25
100
AcDbCircle
 10
209.9164254712
 20
106.7346772922
 30
0.0
 40
0.6000000000000227
100
AcDbArc
 50
90.0
 51
131.8103148958
  0
ARC
  5
AB
330
1F
100
AcDbEntity
  8
0
  6
Continuous
 62
     7
370
    25
100
AcDbCircle
 10
209.9164254712
 20
134.2346772922
 30
0.0
 40
0.6000000000000054
100
AcDbArc
 50
228.1896851042
 51
270.0
  0
LINE
  5
AC
330
1F
100
AcDbEntity
  8
0
  6
Continuous
 62
     7
370
    25
100
AcDbLine
 10
212.0164195107
 20
106.9846769421
 30
0.0
 11
229.7164211081
 21
106.9846769421
 31
0.0
  0
LINE
  5
AD
330
1F
100
AcDbEntity
  8
0
  6
Continuous
 62
     7
370
    25
100
AcDbLine
 10
229.7164211081
 20
133.9846776424
 30
0.0
 11
212.0164195107
 21
133.9846776424
 31
0.0
  0
LINE
  5
AE
330
1F
100
AcDbEntity
  8
0
  6
Continuous
 62
     7
370
    25
100
AcDbLine
 10
212.0164195107
 20
133.9846776424
 30
0.0
 11
210.7865074681
 21
133.6551216988
 31
0.0
  0
LINE
  5
AF
330
1F
100
AcDbEntity
  8
0
  6
Continuous
 62
     7
370
    25
100
AcDbLine
 10
210.7865074681
 20
107.3142328857
 30
0.0
 11
212.0164195107
 21
106.9846769421
 31
0.0
  0
ARC
  5
B0
330
1F
100
AcDbEntity
  8
0
  6
Continuous
 62
     7
370
    25
100
AcDbCircle
 10
229.7164254712
 20
107.7846772922
 30
0.0
 40
0.8000000000000114
100
AcDbArc
 50
270.0
 51
0.0
  0
ARC
  5
B1
330
1F
100
AcDbEntity
  8
0
  6
Continuous
 62
     7
370
    25
100
AcDbCircle
 10
229.7164254712
 20
133.1846772922
 30
0.0
 40
0.8000000000000114
100
AcDbArc
 50
0.0
 51
90.0
  0
ARC
  5
B2
330
1F
100
AcDbEntity
  8
0
  6
Continuous
 62
     7
370
    25
100
AcDbCircle
 10
210.63121619
 20
106.7346772922
 30
0.0
 40
0.6000000000000227
100
AcDbArc
 50
75.0
 51
90.0
  0
ARC
  5
B3
330
1F
100
AcDbEntity
  8
0
  6
Continuous
 62
     7
370
    25
100
AcDbCircle
 10
210.63121619
 20
134.2346772922
 30
0.0
 40
0.5999999999999943
100
AcDbArc
 50
270.0
 51
285.0
  0
LINE
  5
B4
330
1F
100
AcDbEntity
  8
0
  6
Continuous
 62
     7
370
    25
100
AcDbLine
 10
209.916428666
 20
107.3346772788
 30
0.0
 11
210.6312224673
 21
107.3346772788
 31
0.0
  0
LINE
  5
B5
330
1F
100
AcDbEntity
  8
0
  6
Continuous
 62
     7
370
    25
100
AcDbLine
 10
210.6312224673
 20
133.6346773056
 30
0.0
 11
209.916428666
 21
133.6346773056
 31
0.0
  0
LINE
  5
B6
330
1F
100
AcDbEntity
  8
0
  6
Continuous
 62
     7
370
    25
100
AcDbLine
 10
18.8997620748
 20
99.6146771682
 30
0.0
 11
26.3164257662
 21
99.6146771682
 31
0.0
  0
ARC
  5
B7
330
1F
100
AcDbEntity
  8
0
  6
Continuous
 62
     7
370
    25
100
AcDbCircle
 10
26.3164254712
 20
98.2146772922
 30
0.0
 40
1.399999999999991
100
AcDbArc
 50
42.2465410162
 51
90.0
  0
LINE
  5
B8
330
1F
100
AcDbEntity
  8
0
  6
Continuous
 62
     7
370
    25
100
AcDbLine
 10
17.6174575495
 20
100.7636442406
 30
0.0
 11
18.7575882333
 21
99.6235135568
 31
0.0
  0
LINE
  5
B9
330
1F
100
AcDbEntity
  8
0
  6
Continuous
 62
     7
370
    25
100
AcDbLine
 10
18.7575882333
 20
141.3458410276
 30
0.0
 11
17.6263274657
 21
140.2145783974
 31
0.0
  0
ARC
  5
BA
330
1F
100
AcDbEntity
  8
0
  6
Continuous
 62
     7
370
    25
100
AcDbCircle
 10
22.3164254712
 20
142.7546772922
 30
0.0
 40
1.40000000000001
100
AcDbArc
 50
270.0
 51
301.7485287426
  0
LINE
  5
BB
330
1F
100
AcDbEntity
  8
0
  6
Continuous
 62
     7
370
    25
100
AcDbLine
 10
22.3164251106
 20
141.3546774162
 30
0.0
 11
18.890690993
 21
141.3546774162
 31
0.0
  0
LINE
  5
BC
330
1F
100
AcDbEntity
  8
0
  6
Continuous
 62
     7
370
    25
100
AcDbLine
 10
215.8164242314
 20
136.9846772028
 30
0.0
 11
215.8164242314
 21
147.9846771432
 31
0.0
  0
LINE
  5
BD
330
1F
100
AcDbEntity
  8
0
  6
Continuous
 62
     7
370
    25
100
AcDbLine
 10
215.8164242314
 20
92.9846774412
 30
0.0
 11
215.8164242314
 21
103.9846773816
 31
0.0
  0
LINE
  5
BE
330
1F
100
AcDbEntity
  8
0
  6
Continuous
 62
     7
370
    25
100
AcDbLine
 10
235.516429882
 20
129.4846769048
 30
0.0
 11
235.516429882
 21
111.4846776797
 31
0.0
  0
LINE
  5
BF
330
1F
100
AcDbEntity
  8
0
  6
Continuous
 62
     7
370
    25
100
AcDbLine
 10
247.5164243983
 20
128.8846769927
 30
0.0
 11
247.5164243983
 21
112.0846775917
 31
0.0
  0
LINE
  5
C0
330
1F
100
AcDbEntity
  8
0
  6
Continuous
 62
     7
370
    25
100
AcDbLine
 10
54.4664254444
 20
140.3346780313
 30
0.0
 11
64.1244929316
 21
140.3346780313
 31
0.0
  0
LINE
  5
C1
330
1F
100
AcDbEntity
  8
0
  6
Continuous
 62
     7
370
    25
100
AcDbLine
 10
64.1244929316
 20
90.2977596594
 30
0.0
 11
64.1244929316
 21
140.3346780313
 31
0.0
  0
LINE
  5
C2
330
1F
100
AcDbEntity
  8
0
  6
Continuous
 62
     7
370
    25
100
AcDbLine
 10
64.1244929316
 20
90.2977596594
 30
0.0
 11
62.4664258244
 21
90.2977596594
 31
0.0
  0
SPLINE
  5
C3
330
1F
100
AcDbEntity
  8
0
  6
Continuous
 62
     7
370
    25
100
AcDbSpline
210
0.0
220
0.0
230
1.0
 70
     8
 71
     3
 72
    28
 73
    24
 74
     0
 42
0.000000001
 43
0.00000001
 40
0.0
 40
0.0
 40
0.0
 40
0.0
 40
0.1249999999999999
 40
0.1249999999999999
 40
0.1874999999999998
 40
0.1874999999999998
 40
0.2499999999999997
 40
0.2499999999999997
 40
0.3749999999999993
 40
0.3749999999999993
 40
0.4374999999999993
 40
0.4374999999999993
 40
0.4999999999999992
 40
0.4999999999999992
 40
0.6249999999999992
 40
0.6249999999999992
 40
0.7499999999999992
 40
0.7499999999999992
 40
0.8124999999999993
 40
0.8124999999999993
 40
0.8749999999999996
 40
0.8749999999999996
 40
1.0
 40
1.0
 40
1.0
 40
1.0
 10
62.46642547120675
 20
90.29775959598042
 30
0.0
 10
61.93471771371382
 20
90.29775959598042
 30
0.0
 10
61.41247914840349
 20
90.28197488203021
 30
0.0
 10
60.64260866212848
 20
90.236979467954
 30
0.0
 10
60.38824908993715
 20
90.21842447287828
 30
0.0
 10
59.88412750923863
 20
90.17457175043178
 30
0.0
 10
59.63440469181071
 20
90.14922714347958
 30
0.0
 10
58.9088147403643
 20
90.06582506572947
 30
0.0
 10
58.45045447878276
 20
89.99995950657838
 30
0.0
 10
57.79995653538889
 20
89.8909891660866
 30
0.0
 10
57.58827448459643
 20
89.85274953031994
 30
0.0
 10
57.18420299545843
 20
89.7749907929006
 30
0.0
 10
56.99169648163756
 20
89.73548983072524
 30
0.0
 10
56.44186151061628
 20
89.61658208835924
 30
0.0
 10
56.11193273230748
 20
89.53676440693462
 30
0.0
 10
55.52746146373878
 20
89.38342124513856
 30
0.0
 10
55.28118432572535
 20
89.3120874918693
 30
0.0
 10
54.98134153302728
 20
89.2181439847947
 30
0.0
 10
54.8928846759551
 20
89.18895019143477
 30
0.0
 10
54.73952332264997
 20
89.13548361717136
 30
0.0
 10
54.67443510842374
 20
89.11112428289617
 30
0.0
 10
54.51884109248295
 20
89.04753413745144
 30
0.0
 10
54.46642547120675
 20
89.01743120236219
 30
0.0
 10
54.46642547120675
 20
89.00055430936527
 30
0.0
  0
LINE
  5
C4
330
1F
100
AcDbEntity
  8
0
  6
Continuous
 62
     7
370
    25
100
AcDbLine
 10
54.4664254444
 20
89.0005539728
 30
0.0
 11
54.4664254444
 21
88.9846767856
 31
0.0
  0
SPLINE
  5
C5
330
1F
100
AcDbEntity
  8
0
  6
Continuous
 62
     7
370
    25
100
AcDbSpline
210
0.0
220
0.0
230
1.0
 70
     8
 71
     3
 72
    12
 73
     8
 74
     0
 42
0.000000001
 43
0.00000001
 40
0.0
 40
0.0
 40
0.0
 40
0.0
 40
0.2100882752265391
 40
0.4200095997074502
 40
0.6342356546940832
 40
0.8514896020996039
 40
1.0
 40
1.0
 40
1.0
 40
1.0
 10
62.46642582436428
 20
150.951872728586
 30
0.0
 10
61.58359921859608
 20
150.9748761947893
 30
0.0
 10
59.81864756244126
 20
151.0208648470429
 30
0.0
 10
57.45080821336403
 20
151.3417480689936
 30
0.0
 10
55.64289543672306
 20
151.6942515992231
 30
0.0
 10
54.5797923267962
 20
151.9555542128945
 30
0.0
 10
54.56631142296506
 20
151.9593795900307
 30
0.0
 10
54.56083780472503
 20
151.9609327985047
 30
0.0
  0
LINE
  5
C6
330
1F
100
AcDbEntity
  8
0
  6
Continuous
 62
     7
370
    25
100
AcDbLine
 10
64.1244929316
 20
150.9518727286
 30
0.0
 11
62.4664258244
 21
150.9518727286
 31
0.0
  0
LINE
  5
C7
330
1F
100
AcDbEntity
  8
0
  6
Continuous
 62
     7
370
    25
100
AcDbLine
 10
64.1244929316
 20
144.9433669074
 30
0.0
 11
64.1244929316
 21
150.9518727286
 31
0.0
  0
LINE
  5
C8
330
1F
100
AcDbEntity
  8
0
  6
Continuous
 62
     7
370
    25
100
AcDbLine
 10
61.712046157
 20
144.9433669074
 30
0.0
 11
64.1244929316
 21
144.9433669074
 31
0.0
  0
SPLINE
  5
C9
330
1F
100
AcDbEntity
  8
0
  6
Continuous
 62
     7
370
    25
100
AcDbSpline
210
0.0
220
0.0
230
1.0
 70
     8
 71
     3
 72
    20
 73
    16
 74
     0
 42
0.000000001
 43
0.00000001
 40
0.0
 40
0.0
 40
0.0
 40
0.0
 40
0.2499999999999995
 40
0.2499999999999995
 40
0.3749999999999996
 40
0.3749999999999996
 40
0.4999999999999997
 40
0.4999999999999997
 40
0.6249999999999998
 40
0.6249999999999998
 40
0.7499999999999998
 40
0.7499999999999998
 40
0.8749999999999999
 40
0.8749999999999999
 40
1.0
 40
1.0
 40
1.0
 40
1.0
 10
54.46642547120675
 20
140.3346772922276
 30
0.0
 10
54.71479920549481
 20
140.988539720525
 30
0.0
 10
55.03436929784007
 20
141.5923255025222
 30
0.0
 10
55.65667553104475
 20
142.4191642386907
 30
0.0
 10
55.8880997914755
 20
142.6815928766437
 30
0.0
 10
56.40931413112522
 20
143.1782555307486
 30
0.0
 10
56.69593461376031
 20
143.4088424097702
 30
0.0
 10
57.31541935506791
 20
143.8253966343528
 30
0.0
 10
57.64971973455488
 20
144.0128944363203
 30
0.0
 10
58.37498020717967
 20
144.3442914139567
 30
0.0
 10
58.75689526457015
 20
144.483795401452
 30
0.0
 10
59.55168344074183
 20
144.7092489089229
 30
0.0
 10
59.9658416349482
 20
144.7958750204666
 30
0.0
 10
60.83138797552959
 20
144.9138558093207
 30
0.0
 10
61.2692755905414
 20
144.943366954595
 30
0.0
 10
61.71204581689603
 20
144.943366954595
 30
0.0
  0
SPLINE
  5
CA
330
1F
100
AcDbEntity
  8
0
  6
Continuous
 62
     7
370
    25
100
AcDbSpline
210
0.0
220
0.0
230
1.0
 70
    11
 71
     3
 72
    70
 73
    66
 74
     0
 42
0.000000001
 43
0.00000001
 40
0.0
 40
0.0
 40
0.0
 40
0.0
 40
0.0312500000000001
 40
0.0312500000000001
 40
0.0625000000000002
 40
0.0625000000000002
 40
0.0937500000000003
 40
0.0937500000000003
 40
0.1250000000000004
 40
0.1250000000000004
 40
0.1562500000000005
 40
0.1562500000000005
 40
0.1875000000000006
 40
0.1875000000000006
 40
0.2187500000000007
 40
0.2187500000000007
 40
0.2500000000000008
 40
0.2500000000000008
 40
0.2812500000000009
 40
0.2812500000000009
 40
0.3125000000000011
 40
0.3125000000000011
 40
0.3437500000000012
 40
0.3437500000000012
 40
0.3750000000000012
 40
0.3750000000000012
 40
0.4062500000000013
 40
0.4062500000000013
 40
0.4375000000000014
 40
0.4375000000000014
 40
0.4687500000000016
 40
0.4687500000000016
 40
0.5000000000000017
 40
0.5000000000000017
 40
0.5312500000000018
 40
0.5312500000000018
 40
0.5625000000000019
 40
0.5625000000000019
 40
0.593750000000002
 40
0.593750000000002
 40
0.6250000000000021
 40
0.6250000000000021
 40
0.6562500000000022
 40
0.6562500000000022
 40
0.6875000000000023
 40
0.6875000000000023
 40
0.7187500000000021
 40
0.7187500000000021
 40
0.7500000000000018
 40
0.7500000000000018
 40
0.7812500000000016
 40
0.7812500000000016
 40
0.8125000000000013
 40
0.8125000000000013
 40
0.8437500000000011
 40
0.8437500000000011
 40
0.8750000000000009
 40
0.8750000000000009
 40
0.9062500000000007
 40
0.9062500000000007
 40
0.9375000000000004
 40
0.9375000000000004
 40
0.9687500000000002
 40
0.9687500000000002
 40
1.0
 40
1.0
 40
1.0
 40
1.0
 10
57.51642547120676
 20
131.1055841782109
 30
0.0
 10
57.25188013254662
 20
131.1055841782109
 30
0.0
 10
56.99180946516952
 20
131.1302614729961
 30
0.0
 10
56.48023478533409
 20
131.226733146038
 30
0.0
 10
56.2260595015939
 20
131.2997140620181
 30
0.0
 10
55.74178887153219
 20
131.4894546649567
 30
0.0
 10
55.51214777965104
 20
131.6053153233505
 30
0.0
 10
55.07754343141755
 20
131.8779331693082
 30
0.0
 10
54.87197765477094
 20
132.0359722513619
 30
0.0
 10
54.5034205141757
 20
132.3795151023326
 30
0.0
 10
54.33793953144021
 20
132.5662775464342
 30
0.0
 10
54.04551502200511
 20
132.9698207208311
 30
0.0
 10
53.92141404537862
 20
133.1833177172602
 30
0.0
 10
53.7218348486289
 20
133.6227010311827
 30
0.0
 10
53.64490126277062
 20
133.8518410183283
 30
0.0
 10
53.54204420425025
 20
134.3178151410884
 30
0.0
 10
53.51657129479112
 20
134.5506975867645
 30
0.0
 10
53.51628088422335
 20
135.0160951218443
 30
0.0
 10
53.5423055179991
 20
135.2509708792387
 30
0.0
 10
53.64445380249109
 20
135.7024640264849
 30
0.0
 10
53.72003025007425
 20
135.9205105018963
 30
0.0
 10
53.92052778121919
 20
136.3416050269341
 30
0.0
 10
54.04565662272756
 20
136.5435264114524
 30
0.0
 10
54.33501542374915
 20
136.9155558939714
 30
0.0
 10
54.50042641080461
 20
137.0881841975517
 30
0.0
 10
54.87341696895244
 20
137.4055022020977
 30
0.0
 10
55.07515000204154
 20
137.5452891355993
 30
0.0
 10
55.50800925286941
 20
137.7894653891512
 30
0.0
 10
55.74192778575879
 20
137.8946949001926
 30
0.0
 10
56.2261115209014
 20
138.0628520465678
 30
0.0
 10
56.47542714685691
 20
138.1261029371616
 30
0.0
 10
56.98845967128463
 20
138.2116821462642
 30
0.0
 10
57.25375349418928
 20
138.2335543111867
 30
0.0
 10
57.77608811405901
 20
138.2337179608305
 30
0.0
 10
58.03584177654075
 20
138.2127162687346
 30
0.0
 10
58.55245359218598
 20
138.1273139136569
 30
0.0
 10
58.80481963268628
 20
138.06330773037
 30
0.0
 10
59.28634475421909
 20
137.8964932103288
 30
0.0
 10
59.51919548633266
 20
137.7923600469296
 30
0.0
 10
59.95628533477142
 20
137.5463733944347
 30
0.0
 10
60.1576063234286
 20
137.4066235634858
 30
0.0
 10
60.5266923487285
 20
137.0934854937612
 30
0.0
 10
60.6956770997802
 20
136.9180293344911
 30
0.0
 10
60.98613315643941
 20
136.5451890703909
 30
0.0
 10
61.10920496780155
 20
136.34706726028
 30
0.0
 10
61.31054120922357
 20
135.9263559175463
 30
0.0
 10
61.3877537551658
 20
135.7043658968788
 30
0.0
 10
61.48995729806586
 20
135.2545009571704
 30
0.0
 10
61.51618564951819
 20
135.0242455440537
 30
0.0
 10
61.51666204883529
 20
134.5529296015046
 30
0.0
 10
61.49091963633732
 20
134.3196921857904
 30
0.0
 10
61.38960885997345
 20
133.8580156462924
 30
0.0
 10
61.31277622058252
 20
133.6271182591802
 30
0.0
 10
61.11237238136734
 20
133.1848422453886
 30
0.0
 10
60.9897008830753
 20
132.9737798141027
 30
0.0
 10
60.69975359391105
 20
132.57228130337
 30
0.0
 10
60.53118261454582
 20
132.3813747812941
 30
0.0
 10
60.16291302043267
 20
132.037649449297
 30
0.0
 10
59.96185116316236
 20
131.8825122630829
 30
0.0
 10
59.52482024457743
 20
131.6074349030032
 30
0.0
 10
59.29267203144782
 20
131.4903186735812
 30
0.0
 10
58.81166174994897
 20
131.3013921885166
 30
0.0
 10
58.55956166711852
 20
131.2283172181224
 30
0.0
 10
58.04249218085953
 20
131.1302651589878
 30
0.0
 10
57.78097080986689
 20
131.1055841782109
 30
0.0
 10
57.51642547120676
 20
131.1055841782109
 30
0.0
  0
SPLINE
  5
CB
330
1F
100
AcDbEntity
  8
0
  6
Continuous
 62
     7
370
    25
100
AcDbSpline
210
0.0
220
0.0
230
1.0
 70
    11
 71
     3
 72
    70
 73
    66
 74
     0
 42
0.000000001
 43
0.00000001
 40
0.0
 40
0.0
 40
0.0
 40
0.0
 40
0.0312499999999997
 40
0.0312499999999997
 40
0.0624999999999994
 40
0.0624999999999994
 40
0.0937499999999991
 40
0.0937499999999991
 40
0.1249999999999988
 40
0.1249999999999988
 40
0.1562499999999986
 40
0.1562499999999986
 40
0.1874999999999983
 40
0.1874999999999983
 40
0.2187499999999979
 40
0.2187499999999979
 40
0.2499999999999977
 40
0.2499999999999977
 40
0.2812499999999976
 40
0.2812499999999976
 40
0.3124999999999974
 40
0.3124999999999974
 40
0.3437499999999973
 40
0.3437499999999973
 40
0.3749999999999972
 40
0.3749999999999972
 40
0.4062499999999971
 40
0.4062499999999971
 40
0.4374999999999969
 40
0.4374999999999969
 40
0.4687499999999968
 40
0.4687499999999968
 40
0.4999999999999967
 40
0.4999999999999967
 40
0.5312499999999968
 40
0.5312499999999968
 40
0.562499999999997
 40
0.562499999999997
 40
0.5937499999999971
 40
0.5937499999999971
 40
0.6249999999999972
 40
0.6249999999999972
 40
0.6562499999999974
 40
0.6562499999999974
 40
0.6874999999999976
 40
0.6874999999999976
 40
0.7187499999999978
 40
0.7187499999999978
 40
0.7499999999999979
 40
0.7499999999999979
 40
0.7812499999999981
 40
0.7812499999999981
 40
0.8124999999999984
 40
0.8124999999999984
 40
0.8437499999999987
 40
0.8437499999999987
 40
0.8749999999999989
 40
0.8749999999999989
 40
0.9062499999999992
 40
0.9062499999999992
 40
0.9374999999999994
 40
0.9374999999999994
 40
0.9687499999999998
 40
0.9687499999999998
 40
1.0
 40
1.0
 40
1.0
 40
1.0
 10
57.51642547120675
 20
145.5436406870068
 30
0.0
 10
57.25188013254662
 20
145.5436406870068
 30
0.0
 10
56.9918094651695
 20
145.5595411274216
 30
0.0
 10
56.48023478533409
 20
145.6214854775958
 30
0.0
 10
56.2260595015939
 20
145.6682877116871
 30
0.0
 10
55.74178887153219
 20
145.7892646951422
 30
0.0
 10
55.51214777965104
 20
145.862867022949
 30
0.0
 10
55.07754343141755
 20
146.0346912939272
 30
0.0
 10
54.87197765477095
 20
146.1336947168546
 30
0.0
 10
54.50342051417572
 20
146.3467911307674
 30
0.0
 10
54.33793953144021
 20
146.4616908468971
 30
0.0
 10
54.04551502200511
 20
146.7070577455874
 30
0.0
 10
53.92141404537862
 20
146.8354976460576
 30
0.0
 10
53.7218348486289
 20
147.0963897941436
 30
0.0
 10
53.64490126277063
 20
147.2307709654831
 30
0.0
 10
53.54204420425025
 20
147.5000909165894
 30
0.0
 10
53.51657129479113
 20
147.6327721808075
 30
0.0
 10
53.51628088422336
 20
147.8939586549385
 30
0.0
 10
53.5423055179991
 20
148.0237236931033
 30
0.0
 10
53.64445380249109
 20
148.2693063273759
 30
0.0
 10
53.72003025007427
 20
148.3859678646848
 30
0.0
 10
53.9205277812192
 20
148.6078730548394
 30
0.0
 10
54.04565662272756
 20
148.7124843087623
 30
0.0
 10
54.33501542374915
 20
148.9025307203704
 30
0.0
 10
54.50042641080461
 20
148.9892903918201
 30
0.0
 10
54.87341696895244
 20
149.1467947675716
 30
0.0
 10
55.07515000204154
 20
149.2151200323588
 30
0.0
 10
55.50800925286941
 20
149.333349755978
 30
0.0
 10
55.74192778575879
 20
149.3836446720819
 30
0.0
 10
56.2261115209014
 20
149.4635102089715
 30
0.0
 10
56.47542714685691
 20
149.4932513367711
 30
0.0
 10
56.98845967128463
 20
149.5334040782793
 30
0.0
 10
57.25375349418928
 20
149.5436023476892
 30
0.0
 10
57.77608811405901
 20
149.5436788060739
 30
0.0
 10
58.03584177654075
 20
149.5338877944649
 30
0.0
 10
58.552453592186
 20
149.4938209557261
 30
0.0
 10
58.80481963268628
 20
149.4637237888693
 30
0.0
 10
59.28634475421909
 20
149.3845015790391
 30
0.0
 10
59.51919548633266
 20
149.3347440995757
 30
0.0
 10
59.95628533477143
 20
149.2156521571253
 30
0.0
 10
60.1576063234286
 20
149.1473368955781
 30
0.0
 10
60.52669234872851
 20
148.9919359286445
 30
0.0
 10
60.6956770997802
 20
148.9037835865776
 30
0.0
 10
60.9861331564394
 20
148.7133441974613
 30
0.0
 10
61.10920496780155
 20
148.6107196197622
 30
0.0
 10
61.31054120922355
 20
148.3890792731541
 30
0.0
 10
61.3877537551658
 20
148.2703251976066
 30
0.0
 10
61.48995729806585
 20
148.0256592586889
 30
0.0
 10
61.51618564951818
 20
147.8985025332404
 30
0.0
 10
61.51666204883529
 20
147.6340543873848
 30
0.0
 10
61.49091963633732
 20
147.5011537071277
 30
0.0
 10
61.38960885997345
 20
147.2343614336456
 30
0.0
 10
61.31277622058251
 20
147.098997532177
 30
0.0
 10
61.11237238136734
 20
146.8364177368745
 30
0.0
 10
60.98970088307529
 20
146.7094425771207
 30
0.0
 10
60.69975359391105
 20
146.4653631910383
 30
0.0
 10
60.53118261454583
 20
146.3479380662844
 30
0.0
 10
60.16291302043267
 20
146.134741605336
 30
0.0
 10
59.96185116316236
 20
146.0375674869111
 30
0.0
 10
59.52482024457742
 20
145.8642125996969
 30
0.0
 10
59.29267203144781
 20
145.7898130480403
 30
0.0
 10
58.81166174994895
 20
145.6693601685356
 30
0.0
 10
58.55956166711852
 20
145.6225017932696
 30
0.0
 10
58.04249218085953
 20
145.5595442962859
 30
0.0
 10
57.78097080986689
 20
145.5436406870068
 30
0.0
 10
57.51642547120675
 20
145.5436406870068
 30
0.0
  0
LINE
  5
CC
330
1F
100
AcDbEntity
  8
0
  6
Continuous
 62
     7
370
    25
100
AcDbLine
 10
70.9083573925
 20
90.2977596594
 30
0.0
 11
70.9083573925
 21
140.3346780313
 31
0.0
  0
SPLINE
  5
CD
330
1F
100
AcDbEntity
  8
0
  6
Continuous
 62
     7
370
    25
100
AcDbSpline
210
0.0
220
0.0
230
1.0
 70
     8
 71
     3
 72
     8
 73
     4
 74
     0
 42
0.000000001
 43
0.00000001
 40
0.0
 40
0.0
 40
0.0
 40
0.0
 40
1.0
 40
1.0
 40
1.0
 40
1.0
 10
70.9083583026958
 20
90.29775959598042
 30
0.0
 10
70.41287864203007
 20
91.19328568391379
 30
0.0
 10
69.91876459398793
 20
92.08957009896604
 30
0.0
 10
69.42642547120676
 20
92.98684013317273
 30
0.0
  0
LINE
  5
CE
330
1F
100
AcDbEntity
  8
0
  6
Continuous
 62
     7
370
    25
100
AcDbLine
 10
69.4264257359
 20
92.9868399723
 30
0.0
 11
69.4264257359
 21
140.3346780313
 31
0.0
  0
SPLINE
  5
CF
330
1F
100
AcDbEntity
  8
0
  6
Continuous
 62
     7
370
    25
100
AcDbSpline
210
0.0
220
0.0
230
1.0
 70
    24
 71
     3
 72
     8
 73
     4
 74
     0
 42
0.000000001
 43
0.00000001
 40
0.0
 40
0.0
 40
0.0
 40
0.0
 40
1.0
 40
1.0
 40
1.0
 40
1.0
 10
69.42642547120676
 20
140.3346772922276
 30
0.0
 10
69.90637746557164
 20
140.3346772922276
 30
0.0
 10
70.40167819454527
 20
140.3346772922276
 30
0.0
 10
70.90835830269582
 20
140.3346772922276
 30
0.0
  0
LINE
  5
D0
330
1F
100
AcDbEntity
  8
0
  6
Continuous
 62
     7
370
    25
100
AcDbLine
 10
74.8664261805
 20
90.2977596594
 30
0.0
 11
70.9083573925
 21
90.2977596594
 31
0.0
  0
LINE
  5
D1
330
1F
100
AcDbEntity
  8
0
  6
Continuous
 62
     7
370
    25
100
AcDbLine
 10
70.9083573925
 20
140.3346780313
 30
0.0
 11
74.8664261805
 21
140.3346780313
 31
0.0
  0
LINE
  5
D2
330
1F
100
AcDbEntity
  8
0
  6
Continuous
 62
     7
370
    25
100
AcDbLine
 10
75.4664251613
 20
90.9244000537
 30
0.0
 11
75.4664251613
 21
140.3346780313
 31
0.0
  0
SPLINE
  5
D3
330
1F
100
AcDbEntity
  8
0
  6
Continuous
 62
     7
370
    25
100
AcDbSpline
210
0.0
220
0.0
230
1.0
 70
     8
 71
     3
 72
    10
 73
     6
 74
     0
 42
0.000000001
 43
0.00000001
 40
0.0
 40
0.0
 40
0.0
 40
0.0
 40
0.5
 40
0.5
 40
1.0
 40
1.0
 40
1.0
 40
1.0
 10
75.46642547120676
 20
90.92439989163474
 30
0.0
 10
75.46642547120675
 20
90.76451262344108
 30
0.0
 10
75.40511581997092
 20
90.60338536792648
 30
0.0
 10
75.18601618243582
 20
90.36928636957164
 30
0.0
 10
75.02796797612235
 20
90.29775959598042
 30
0.0
 10
74.86642547120675
 20
90.29775959598042
 30
0.0
  0
SPLINE
  5
D4
330
1F
100
AcDbEntity
  8
0
  6
Continuous
 62
     7
370
    25
100
AcDbSpline
210
0.0
220
0.0
230
1.0
 70
    24
 71
     3
 72
    12
 73
     8
 74
     0
 42
0.000000001
 43
0.00000001
 40
0.0
 40
0.0
 40
0.0
 40
0.0
 40
0.2500000000000033
 40
0.2500000000000033
 40
0.5000000000000067
 40
0.5000000000000067
 40
1.0
 40
1.0
 40
1.0
 40
1.0
 10
74.86642547120674
 20
140.3346772922276
 30
0.0
 10
74.95666453889379
 20
140.3346772922276
 30
0.0
 10
75.04756265300028
 20
140.3346772922276
 30
0.0
 10
75.20215968948884
 20
140.3346772922276
 30
0.0
 10
75.26713810559693
 20
140.3346772922276
 30
0.0
 10
75.41897313353317
 20
140.3346772922276
 30
0.0
 10
75.46642547120676
 20
140.3346772922276
 30
0.0
 10
75.46642547120675
 20
140.3346772922276
 30
0.0
  0
LINE
  5
D5
330
1F
100
AcDbEntity
  8
0
  6
Continuous
 62
     7
370
    25
100
AcDbLine
 10
65.6064255195
 20
92.9868399723
 30
0.0
 11
65.6064255195
 21
140.3346780313
 31
0.0
  0
SPLINE
  5
D6
330
1F
100
AcDbEntity
  8
0
  6
Continuous
 62
     7
370
    25
100
AcDbSpline
210
0.0
220
0.0
230
1.0
 70
     8
 71
     3
 72
     8
 73
     4
 74
     0
 42
0.000000001
 43
0.00000001
 40
0.0
 40
0.0
 40
0.0
 40
0.0
 40
1.0
 40
1.0
 40
1.0
 40
1.0
 10
65.60642547120676
 20
92.98684013317272
 30
0.0
 10
65.11408634842559
 20
92.08957009896602
 30
0.0
 10
64.61997230038344
 20
91.19328568391377
 30
0.0
 10
64.1244926397177
 20
90.29775959598042
 30
0.0
  0
SPLINE
  5
D7
330
1F
100
AcDbEntity
  8
0
  6
Continuous
 62
     7
370
    25
100
AcDbSpline
210
0.0
220
0.0
230
1.0
 70
    24
 71
     3
 72
     8
 73
     4
 74
     0
 42
0.000000001
 43
0.00000001
 40
0.0
 40
0.0
 40
0.0
 40
0.0
 40
1.0
 40
1.0
 40
1.0
 40
1.0
 10
64.12449263971767
 20
140.3346772922276
 30
0.0
 10
64.6311727478682
 20
140.3346772922276
 30
0.0
 10
65.12647347684185
 20
140.3346772922276
 30
0.0
 10
65.60642547120676
 20
140.3346772922276
 30
0.0
  0
LINE
  5
D8
330
1F
100
AcDbEntity
  8
0
  6
Continuous
 62
     7
370
    25
100
AcDbLine
 10
49.5164254712
 20
89.2846781386
 30
0.0
 11
49.5164254712
 21
151.6846764458
 31
0.0
  0
ARC
  5
D9
330
1F
100
AcDbEntity
  8
0
  6
Continuous
 62
     7
370
    25
100
AcDbCircle
 10
57.5134293459
 20
132.383674602
 30
0.0
 40
4.114749566347894
100
AcDbArc
 50
19.3249307175
 51
159.3457844591
  0
LINE
  5
DA
330
1F
100
AcDbEntity
  8
0
  6
Continuous
 62
     7
370
    25
100
AcDbLine
 10
209.5164218949
 20
92.2846767677
 30
0.0
 11
209.5164218949
 21
148.6846778167
 31
0.0
  0
LINE
  5
DB
330
1F
100
AcDbEntity
  8
0
  6
Continuous
 62
     7
370
    25
100
AcDbLine
 10
91.516424905
 20
92.484676428
 30
0.0
 11
91.516424905
 21
148.4846781565
 31
0.0
  0
SPLINE
  5
DC
330
1F
100
AcDbEntity
  8
0
  6
Continuous
 62
     7
370
    25
100
AcDbSpline
210
0.0
220
0.0
230
1.0
 70
    11
 71
     3
 72
    84
 73
    80
 74
     0
 42
0.000000001
 43
0.00000001
 40
0.0
 40
0.0
 40
0.0
 40
0.0
 40
0.0312499999999996
 40
0.0312499999999996
 40
0.0468749999999994
 40
0.0468749999999994
 40
0.0624999999999992
 40
0.0624999999999992
 40
0.0937499999999988
 40
0.0937499999999988
 40
0.1249999999999984
 40
0.1249999999999984
 40
0.156249999999998
 40
0.156249999999998
 40
0.1718749999999978
 40
0.1718749999999978
 40
0.1874999999999977
 40
0.1874999999999977
 40
0.2187499999999983
 40
0.2187499999999983
 40
0.2499999999999989
 40
0.2499999999999989
 40
0.2656249999999992
 40
0.2656249999999992
 40
0.2812499999999994
 40
0.2812499999999994
 40
0.3125000000000001
 40
0.3125000000000001
 40
0.3281249999999999
 40
0.3281249999999999
 40
0.3437499999999998
 40
0.3437499999999998
 40
0.3749999999999996
 40
0.3749999999999996
 40
0.4062499999999993
 40
0.4062499999999993
 40
0.4374999999999992
 40
0.4374999999999992
 40
0.4687499999999989
 40
0.4687499999999989
 40
0.4999999999999988
 40
0.4999999999999988
 40
0.5312499999999986
 40
0.5312499999999986
 40
0.5624999999999983
 40
0.5624999999999983
 40
0.5937499999999982
 40
0.5937499999999982
 40
0.624999999999998
 40
0.624999999999998
 40
0.6406249999999988
 40
0.6406249999999988
 40
0.6562499999999996
 40
0.6562499999999996
 40
0.6875000000000011
 40
0.6875000000000011
 40
0.7187500000000028
 40
0.7187500000000028
 40
0.7500000000000043
 40
0.7500000000000043
 40
0.7812500000000059
 40
0.7812500000000059
 40
0.7968750000000064
 40
0.7968750000000064
 40
0.812500000000007
 40
0.812500000000007
 40
0.8437500000000082
 40
0.8437500000000082
 40
0.8593750000000081
 40
0.8593750000000081
 40
0.875000000000008
 40
0.875000000000008
 40
0.906250000000006
 40
0.906250000000006
 40
0.937500000000004
 40
0.937500000000004
 40
0.9687500000000021
 40
0.9687500000000021
 40
1.0
 40
1.0
 40
1.0
 40
1.0
 10
183.5164254712067
 20
125.9650075736321
 30
0.0
 10
183.8860732106558
 20
125.9650075736321
 30
0.0
 10
184.2498372128609
 20
125.9308988419082
 30
0.0
 10
184.7869975031803
 20
125.8304445025742
 30
0.0
 10
184.9646265620102
 20
125.7886840762409
 30
0.0
 10
185.3169721185771
 20
125.6882002382976
 30
0.0
 10
185.4925223943489
 20
125.6290959439178
 30
0.0
 10
186.0047722487196
 20
125.4291060225069
 30
0.0
 10
186.3293248704231
 20
125.2655191964923
 30
0.0
 10
186.9447802556399
 20
124.8777525692898
 30
0.0
 10
187.2382399223055
 20
124.6505933752894
 30
0.0
 10
187.7671572709542
 20
124.1502064505189
 30
0.0
 10
188.0049444675859
 20
123.87640279943
 30
0.0
 10
188.3207054137047
 20
123.4291175475409
 30
0.0
 10
188.4196048625819
 20
123.2728934161896
 30
0.0
 10
188.5996585161086
 20
122.9534126399839
 30
0.0
 10
188.6809719456791
 20
122.790178463805
 30
0.0
 10
188.8992843067169
 20
122.2901607988348
 30
0.0
 10
189.0109276124245
 20
121.9431699707894
 30
0.0
 10
189.1628264453529
 20
121.2202932346272
 30
0.0
 10
189.2004861413602
 20
120.8558793332534
 30
0.0
 10
189.2011471826606
 20
120.3087383711006
 30
0.0
 10
189.1920344787499
 20
120.1260578582753
 30
0.0
 10
189.154668655162
 20
119.7600814802221
 30
0.0
 10
189.126250285992
 20
119.5766960649264
 30
0.0
 10
189.0142194552759
 20
119.0385878994006
 30
0.0
 10
188.9038058098431
 20
118.6913714830115
 30
0.0
 10
188.6850294639785
 20
118.187597303993
 30
0.0
 10
188.6026523894779
 20
118.0217194483115
 30
0.0
 10
188.423103430137
 20
117.7022201276836
 30
0.0
 10
188.3258124715796
 20
117.5480672536279
 30
0.0
 10
188.0120328781561
 20
117.1018488262153
 30
0.0
 10
187.7725223978704
 20
116.8246347004602
 30
0.0
 10
187.2393835912918
 20
116.3194373297635
 30
0.0
 10
186.9518123461107
 20
116.096674349284
 30
0.0
 10
186.336461197134
 20
115.7077044427181
 30
0.0
 10
186.005036737246
 20
115.5404586105211
 30
0.0
 10
185.3244501388739
 20
115.2745344178115
 30
0.0
 10
184.9742694202165
 20
115.17433889837
 30
0.0
 10
184.2542046917163
 20
115.0388724603347
 30
0.0
 10
183.8840951364039
 20
115.0045210326792
 30
0.0
 10
183.1544102067605
 20
115.0041743380435
 30
0.0
 10
182.7909881370456
 20
115.0372317780634
 30
0.0
 10
182.0670760054625
 20
115.1720789479272
 30
0.0
 10
181.7133184287246
 20
115.2730765589143
 30
0.0
 10
181.0356394793838
 20
115.5369461009815
 30
0.0
 10
180.7078186475002
 20
115.7012342889348
 30
0.0
 10
180.0860637768025
 20
116.0927634140348
 30
0.0
 10
179.7988667735112
 20
116.3153296620822
 30
0.0
 10
179.4029308768393
 20
116.6890243123727
 30
0.0
 10
179.2768029221233
 20
116.8202765183098
 30
0.0
 10
179.0366533561842
 20
117.0966878626987
 30
0.0
 10
178.922573401386
 20
117.2421470046263
 30
0.0
 10
178.6066824305941
 20
117.6896535781267
 30
0.0
 10
178.4280375941156
 20
118.0058163607574
 30
0.0
 10
178.1352001918768
 20
118.6743984193955
 30
0.0
 10
178.0214096569472
 20
119.0291509823644
 30
0.0
 10
177.8711835626911
 20
119.743025838099
 30
0.0
 10
177.8326009550744
 20
120.1059078124827
 30
0.0
 10
177.831257147386
 20
120.8440340258955
 30
0.0
 10
177.8689106208435
 20
121.209890064589
 30
0.0
 10
177.9798921421434
 20
121.7455426122349
 30
0.0
 10
178.0260387296065
 20
121.9223655644058
 30
0.0
 10
178.1369873071752
 20
122.2724976971349
 30
0.0
 10
178.2020395689471
 20
122.446079915107
 30
0.0
 10
178.4207939856626
 20
122.9497638916324
 30
0.0
 10
178.5989427103446
 20
123.2670100773688
 30
0.0
 10
178.9138887836732
 20
123.7157172469327
 30
0.0
 10
179.0275706614566
 20
123.8614551704919
 30
0.0
 10
179.2671128874248
 20
124.1386252352617
 30
0.0
 10
179.3930308847889
 20
124.2703428099919
 30
0.0
 10
179.7886681001298
 20
124.645615886875
 30
0.0
 10
180.0766678177314
 20
124.869834367864
 30
0.0
 10
180.698932263869
 20
125.2633401031193
 30
0.0
 10
181.0244152358155
 20
125.4272384119864
 30
0.0
 10
181.7027388518134
 20
125.6929330023724
 30
0.0
 10
182.0589702169169
 20
125.795185579889
 30
0.0
 10
182.7812715852005
 20
125.9308788577483
 30
0.0
 10
183.1467777317577
 20
125.9650075736321
 30
0.0
 10
183.5164254712067
 20
125.9650075736321
 30
0.0
  0
SPLINE
  5
DD
330
1F
100
AcDbEntity
  8
0
  6
Continuous
 62
     7
370
    25
100
AcDbSpline
210
0.0
220
0.0
230
1.0
 70
    11
 71
     3
 72
    70
 73
    66
 74
     0
 42
0.000000001
 43
0.00000001
 40
0.0
 40
0.0
 40
0.0
 40
0.0
 40
0.03125
 40
0.03125
 40
0.0625
 40
0.0625
 40
0.09375
 40
0.09375
 40
0.125
 40
0.125
 40
0.15625
 40
0.15625
 40
0.1875
 40
0.1875
 40
0.21875
 40
0.21875
 40
0.25
 40
0.25
 40
0.28125
 40
0.28125
 40
0.3125
 40
0.3125
 40
0.34375
 40
0.34375
 40
0.375
 40
0.375
 40
0.40625
 40
0.40625
 40
0.4375
 40
0.4375
 40
0.46875
 40
0.46875
 40
0.5
 40
0.5
 40
0.53125
 40
0.53125
 40
0.5625
 40
0.5625
 40
0.59375
 40
0.59375
 40
0.625
 40
0.625
 40
0.65625
 40
0.65625
 40
0.6875
 40
0.6875
 40
0.71875
 40
0.71875
 40
0.75
 40
0.75
 40
0.78125
 40
0.78125
 40
0.8125
 40
0.8125
 40
0.84375
 40
0.84375
 40
0.875
 40
0.875
 40
0.90625
 40
0.90625
 40
0.9375
 40
0.9375
 40
0.96875
 40
0.96875
 40
1.0
 40
1.0
 40
1.0
 40
1.0
 10
116.9775433117888
 20
100.1586239594363
 30
0.0
 10
116.9969244053428
 20
100.3159961534373
 30
0.0
 10
117.0409289970884
 20
100.4706125501964
 30
0.0
 10
117.1752713885634
 20
100.7743069971786
 30
0.0
 10
117.2668268433356
 20
100.9242233904085
 30
0.0
 10
117.4872959827843
 20
101.2049133850958
 30
0.0
 10
117.617077558588
 20
101.3377293822381
 30
0.0
 10
117.9125833630935
 20
101.5856667520878
 30
0.0
 10
118.0744273579785
 20
101.6976705011373
 30
0.0
 10
118.4241211948422
 20
101.8987744514868
 30
0.0
 10
118.6138396258969
 20
101.9883901650348
 30
0.0
 10
119.0063898688657
 20
102.1384431834649
 30
0.0
 10
119.2099789896062
 20
102.1996358444351
 30
0.0
 10
119.6314815910222
 20
102.2943801332618
 30
0.0
 10
119.8494137305941
 20
102.3275483521217
 30
0.0
 10
120.2835018661074
 20
102.3635725140511
 30
0.0
 10
120.5016721314588
 20
102.3669612507217
 30
0.0
 10
120.9403103728747
 20
102.3438722895786
 30
0.0
 10
121.1588338915232
 20
102.3172129872032
 30
0.0
 10
121.5819364748355
 20
102.2358819384269
 30
0.0
 10
121.7883865010947
 20
102.1811510439905
 30
0.0
 10
122.1905231480729
 20
102.0425248171623
 30
0.0
 10
122.3830593428009
 20
101.9594552230548
 30
0.0
 10
122.7417843659781
 20
101.7704154569567
 30
0.0
 10
122.9094956360314
 20
101.663961645335
 30
0.0
 10
123.21938375343
 20
101.4257715922337
 30
0.0
 10
123.3571755392779
 20
101.2971952374984
 30
0.0
 10
123.5943566117778
 20
101.0251845210265
 30
0.0
 10
123.6951265217771
 20
100.8799141721328
 30
0.0
 10
123.8518803377941
 20
100.5782027246647
 30
0.0
 10
123.9065399555951
 20
100.4251381690675
 30
0.0
 10
123.9681918444507
 20
100.1150174534089
 30
0.0
 10
123.9745089606679
 20
99.95634153866042
 30
0.0
 10
123.9369588610887
 20
99.650732891842
 30
0.0
 10
123.8939048156632
 20
99.50212742931826
 30
0.0
 10
123.7586657334569
 20
99.21303854482716
 30
0.0
 10
123.6689629681554
 20
99.07782766225162
 30
0.0
 10
123.4489717218501
 20
98.82405144709855
 30
0.0
 10
123.3172008579216
 20
98.70480018720909
 30
0.0
 10
123.0246309746214
 20
98.49087685760442
 30
0.0
 10
122.8630829984845
 20
98.39493382302174
 30
0.0
 10
122.5102304776312
 20
98.22354115764509
 30
0.0
 10
122.3228683611954
 20
98.15010781418387
 30
0.0
 10
121.9313242745672
 20
98.02658448676284
 30
0.0
 10
121.7247241107265
 20
97.97593914603084
 30
0.0
 10
121.3022582856764
 20
97.8990178527767
 30
0.0
 10
121.0879233447974
 20
97.8727625755888
 30
0.0
 10
120.6532404630005
 20
97.84353634651657
 30
0.0
 10
120.4307819844821
 20
97.84075070359394
 30
0.0
 10
119.9934404355414
 20
97.85917080611738
 30
0.0
 10
119.7779653165049
 20
97.88007876780249
 30
0.0
 10
119.3534238054132
 20
97.945657580556
 30
0.0
 10
119.1425593943025
 20
97.99098581820792
 30
0.0
 10
118.7428965493141
 20
98.10386339820627
 30
0.0
 10
118.5526673719602
 20
98.17139321742391
 30
0.0
 10
118.1920966768247
 20
98.33028740921227
 30
0.0
 10
118.0206593931167
 20
98.42270870687753
 30
0.0
 10
117.7141949039852
 20
98.6260399175919
 30
0.0
 10
117.5772295623849
 20
98.73751481918711
 30
0.0
 10
117.3380701532382
 20
98.9824297432067
 30
0.0
 10
117.2365643975066
 20
99.11620916041522
 30
0.0
 10
117.0816084447221
 20
99.39395744378385
 30
0.0
 10
117.0263509044897
 20
99.5394941354634
 30
0.0
 10
116.9640727431454
 20
99.84552342634191
 30
0.0
 10
116.9581622182349
 20
100.0012517654353
 30
0.0
 10
116.9775433117888
 20
100.1586239594363
 30
0.0
  0
SPLINE
  5
DE
330
1F
100
AcDbEntity
  8
0
  6
Continuous
 62
     7
370
    25
100
AcDbSpline
210
0.0
220
0.0
230
1.0
 70
    11
 71
     3
 72
    68
 73
    64
 74
     0
 42
0.000000001
 43
0.00000001
 40
0.0
 40
0.0
 40
0.0
 40
0.0
 40
0.03125
 40
0.03125
 40
0.0625
 40
0.0625
 40
0.09375
 40
0.09375
 40
0.1249999999999999
 40
0.1249999999999999
 40
0.1562499999999999
 40
0.1562499999999999
 40
0.1874999999999999
 40
0.1874999999999999
 40
0.2187499999999999
 40
0.2187499999999999
 40
0.2499999999999999
 40
0.2499999999999999
 40
0.2812499999999999
 40
0.2812499999999999
 40
0.3124999999999999
 40
0.3124999999999999
 40
0.3437499999999998
 40
0.3437499999999998
 40
0.3749999999999998
 40
0.3749999999999998
 40
0.4062499999999998
 40
0.4062499999999998
 40
0.4374999999999998
 40
0.4374999999999998
 40
0.4687499999999998
 40
0.4687499999999998
 40
0.4999999999999998
 40
0.4999999999999998
 40
0.5312499999999998
 40
0.5312499999999998
 40
0.5624999999999998
 40
0.5624999999999998
 40
0.6250000000000014
 40
0.6250000000000014
 40
0.6562500000000013
 40
0.6562500000000013
 40
0.6875000000000012
 40
0.6875000000000012
 40
0.7187500000000011
 40
0.7187500000000011
 40
0.750000000000001
 40
0.750000000000001
 40
0.7812500000000009
 40
0.7812500000000009
 40
0.8125000000000008
 40
0.8125000000000008
 40
0.8437500000000007
 40
0.8437500000000007
 40
0.8750000000000004
 40
0.8750000000000004
 40
0.9062500000000003
 40
0.9062500000000003
 40
0.9375000000000002
 40
0.9375000000000002
 40
0.9687500000000001
 40
0.9687500000000001
 40
1.0
 40
1.0
 40
1.0
 40
1.0
 10
117.7830007323036
 20
142.3867659826279
 30
0.0
 10
117.9323109147834
 20
142.4937826439895
 30
0.0
 10
118.0952380508722
 20
142.5882785528858
 30
0.0
 10
118.4459043448422
 20
142.7554141689749
 30
0.0
 10
118.6355177969618
 20
142.828554018297
 30
0.0
 10
119.0307882578604
 20
142.9505630848312
 30
0.0
 10
119.2349978952866
 20
142.9992995295416
 30
0.0
 10
119.6560522044849
 20
143.0738492622332
 30
0.0
 10
119.8747161786353
 20
143.0996241500099
 30
0.0
 10
120.3100942996781
 20
143.1266853816019
 30
0.0
 10
120.5280777633396
 20
143.1283860557658
 30
0.0
 10
120.9646339457079
 20
143.1081344081456
 30
0.0
 10
121.1842407447915
 20
143.0857906231472
 30
0.0
 10
121.6073943852074
 20
143.0181753645238
 30
0.0
 10
121.8129919287038
 20
142.9729398961877
 30
0.0
 10
122.21182784281
 20
142.8582149125098
 30
0.0
 10
122.4053282860713
 20
142.7882238690363
 30
0.0
 10
122.7627776576859
 20
142.6278298304941
 30
0.0
 10
122.9289828224234
 20
142.5369220620091
 30
0.0
 10
123.2345935113643
 20
142.3311641860884
 30
0.0
 10
123.3729149100131
 20
142.2163922625508
 30
0.0
 10
123.607223424945
 20
141.9716163705348
 30
0.0
 10
123.7052033064944
 20
141.840431033351
 30
0.0
 10
123.8589841188178
 20
141.5578824338814
 30
0.0
 10
123.9121213948109
 20
141.4108820292585
 30
0.0
 10
123.9697774090294
 20
141.1092575426537
 30
0.0
 10
123.9741804527954
 20
140.9517981282108
 30
0.0
 10
123.9326233587325
 20
140.6399291297031
 30
0.0
 10
123.8875485581237
 20
140.485586840633
 30
0.0
 10
123.7495211837016
 20
140.1804112212857
 30
0.0
 10
123.6572126445412
 20
140.0320416720306
 30
0.0
 10
123.4343527152143
 20
139.7522272785857
 30
0.0
 10
123.3014583953467
 20
139.6181385871323
 30
0.0
 10
123.0056681563642
 20
139.37306677086
 30
0.0
 10
122.8430948977503
 20
139.261679876606
 30
0.0
 10
122.4898900936719
 20
139.0610557775208
 30
0.0
 10
122.3000684751536
 20
138.9726914910083
 30
0.0
 10
121.7107345352327
 20
138.7506721005472
 30
0.0
 10
121.2789743027093
 20
138.6560995629625
 30
0.0
 10
120.627435270725
 20
138.6050050648954
 30
0.0
 10
120.406502600629
 20
138.6026185920392
 30
0.0
 10
119.967344953792
 20
138.6280114134128
 30
0.0
 10
119.7518727899865
 20
138.6553979258213
 30
0.0
 10
119.3290013896606
 20
138.7387951158029
 30
0.0
 10
119.1197071011006
 20
138.7955060346849
 30
0.0
 10
118.7194523669183
 20
138.9361030473391
 30
0.0
 10
118.5298938763358
 20
139.0191344971944
 30
0.0
 10
118.1721928532378
 20
139.2102785825953
 30
0.0
 10
118.0022570348704
 20
139.3198834792318
 30
0.0
 10
117.6968374746385
 20
139.5583176315658
 30
0.0
 10
117.5613252433286
 20
139.6865057051644
 30
0.0
 10
117.3261336448844
 20
139.9607094903902
 30
0.0
 10
117.2258773136013
 20
140.1085994890721
 30
0.0
 10
117.0740353932382
 20
140.4086182224257
 30
0.0
 10
117.0209172294634
 20
140.5618409125875
 30
0.0
 10
116.9627606054796
 20
140.8746206906645
 30
0.0
 10
116.9587704286453
 20
141.031921195529
 30
0.0
 10
117.0002451379783
 20
141.3366410383947
 30
0.0
 10
117.0463433138473
 20
141.4876136304199
 30
0.0
 10
117.184573194463
 20
141.7733082377202
 30
0.0
 10
117.2757733701571
 20
141.9078305885328
 30
0.0
 10
117.5005800869449
 20
142.1616206615988
 30
0.0
 10
117.6336905498238
 20
142.2797493212663
 30
0.0
 10
117.7830007323036
 20
142.3867659826279
 30
0.0
  0
SPLINE
  5
DF
330
1F
100
AcDbEntity
  8
0
  6
Continuous
 62
     7
370
    25
100
AcDbSpline
210
0.0
220
0.0
230
1.0
 70
     8
 71
     3
 72
    10
 73
     6
 74
     0
 42
0.000000001
 43
0.00000001
 40
0.0
 40
0.0
 40
0.0
 40
0.0
 40
0.5
 40
0.5
 40
1.0
 40
1.0
 40
1.0
 40
1.0
 10
66.00072300289769
 20
146.8846772922276
 30
0.0
 10
65.87918273922918
 20
146.9594034594394
 30
0.0
 10
65.77784837888026
 20
147.0683484753561
 30
0.0
 10
65.64220943599183
 20
147.3187789561177
 30
0.0
 10
65.60642547120676
 20
147.4611983182167
 30
0.0
 10
65.60642547120676
 20
147.6043311432634
 30
0.0
  0
SPLINE
  5
E0
330
1F
100
AcDbEntity
  8
0
  6
Continuous
 62
     7
370
    25
100
AcDbSpline
210
0.0
220
0.0
230
1.0
 70
    24
 71
     3
 72
    12
 73
     8
 74
     0
 42
0.000000001
 43
0.00000001
 40
0.0
 40
0.0
 40
0.0
 40
0.0
 40
0.2499999999999971
 40
0.2499999999999971
 40
0.4999999999999942
 40
0.4999999999999942
 40
1.0
 40
1.0
 40
1.0
 40
1.0
 10
66.40642547120676
 20
146.8846772922276
 30
0.0
 10
66.3565487888893
 20
146.8846772922276
 30
0.0
 10
66.30854559548571
 20
146.8846772922276
 30
0.0
 10
66.22549749277373
 20
146.8846772922276
 30
0.0
 10
66.18936791330589
 20
146.8846772922276
 30
0.0
 10
66.09345588236167
 20
146.8846772922276
 30
0.0
 10
66.04369721439288
 20
146.8846772922276
 30
0.0
 10
66.0007230028977
 20
146.8846772922276
 30
0.0
  0
SPLINE
  5
E1
330
1F
100
AcDbEntity
  8
0
  6
Continuous
 62
     7
370
    25
100
AcDbSpline
210
0.0
220
0.0
230
1.0
 70
    24
 71
     3
 72
    14
 73
    10
 74
     0
 42
0.000000001
 43
0.00000001
 40
0.0
 40
0.0
 40
0.0
 40
0.0
 40
0.1250000000000017
 40
0.1250000000000017
 40
0.2500000000000034
 40
0.2500000000000034
 40
0.5000000000000032
 40
0.5000000000000032
 40
1.0
 40
1.0
 40
1.0
 40
1.0
 10
66.40642547120675
 20
94.08467729222758
 30
0.0
 10
66.3379876233203
 20
94.08467729222758
 30
0.0
 10
66.27243758455523
 20
94.08467729222758
 30
0.0
 10
66.16801094514729
 20
94.0846772922276
 30
0.0
 10
66.12546633538588
 20
94.08467729222758
 30
0.0
 10
66.01285687484562
 20
94.08467729222758
 30
0.0
 10
65.95731782782613
 20
94.08467729222758
 30
0.0
 10
65.81470613236233
 20
94.08467729222758
 30
0.0
 10
65.75130077736657
 20
94.08467729222758
 30
0.0
 10
65.70410027353904
 20
94.08467729222758
 30
0.0
  0
SPLINE
  5
E2
330
1F
100
AcDbEntity
  8
0
  6
Continuous
 62
     7
370
    25
100
AcDbSpline
210
0.0
220
0.0
230
1.0
 70
     8
 71
     3
 72
    10
 73
     6
 74
     0
 42
0.000000001
 43
0.00000001
 40
0.0
 40
0.0
 40
0.0
 40
0.0
 40
0.5
 40
0.5
 40
1.0
 40
1.0
 40
1.0
 40
1.0
 10
65.60642547120676
 20
140.620543923689
 30
0.0
 10
65.60642547120676
 20
140.5727724156957
 30
0.0
 10
65.6085867148039
 20
140.525062693634
 30
0.0
 10
65.61725808866407
 20
140.4297675760857
 30
0.0
 10
65.62378727162006
 20
140.3820750121191
 30
0.0
 10
65.63257309436689
 20
140.3346772922276
 30
0.0
  0
SPLINE
  5
E3
330
1F
100
AcDbEntity
  8
0
  6
Continuous
 62
     7
370
    25
100
AcDbSpline
210
0.0
220
0.0
230
1.0
 70
    24
 71
     3
 72
    14
 73
    10
 74
     0
 42
0.000000001
 43
0.00000001
 40
0.0
 40
0.0
 40
0.0
 40
0.0
 40
0.5
 40
0.5
 40
0.75
 40
0.75
 40
0.875
 40
0.875
 40
1.0
 40
1.0
 40
1.0
 40
1.0
 10
69.32875066887446
 20
94.08467729222758
 30
0.0
 10
69.28196596382625
 20
94.0846772922276
 30
0.0
 10
69.21991476704665
 20
94.0846772922276
 30
0.0
 10
69.07652312849605
 20
94.08467729222758
 30
0.0
 10
69.02037947494489
 20
94.0846772922276
 30
0.0
 10
68.9074284528087
 20
94.08467729222758
 30
0.0
 10
68.86442769077055
 20
94.08467729222758
 30
0.0
 10
68.76036498046409
 20
94.08467729222758
 30
0.0
 10
68.69503274210717
 20
94.08467729222758
 30
0.0
 10
68.62642547120676
 20
94.08467729222758
 30
0.0
  0
SPLINE
  5
E4
330
1F
100
AcDbEntity
  8
0
  6
Continuous
 62
     7
370
    25
100
AcDbSpline
210
0.0
220
0.0
230
1.0
 70
    24
 71
     3
 72
    12
 73
     8
 74
     0
 42
0.000000001
 43
0.00000001
 40
0.0
 40
0.0
 40
0.0
 40
0.0
 40
0.5000000000000074
 40
0.5000000000000074
 40
0.7500000000000037
 40
0.7500000000000037
 40
1.0
 40
1.0
 40
1.0
 40
1.0
 10
69.03212793951579
 20
146.8846772922276
 30
0.0
 10
68.98904238990484
 20
146.8846772922276
 30
0.0
 10
68.93989018815552
 20
146.8846772922276
 30
0.0
 10
68.8434175938676
 20
146.8846772922276
 30
0.0
 10
68.80731600873303
 20
146.8846772922276
 30
0.0
 10
68.72421025087176
 20
146.8846772922276
 30
0.0
 10
68.67621365390549
 20
146.8846772922276
 30
0.0
 10
68.62642547120676
 20
146.8846772922276
 30
0.0
  0
SPLINE
  5
E5
330
1F
100
AcDbEntity
  8
0
  6
Continuous
 62
     7
370
    25
100
AcDbSpline
210
0.0
220
0.0
230
1.0
 70
     8
 71
     3
 72
    10
 73
     6
 74
     0
 42
0.000000001
 43
0.00000001
 40
0.0
 40
0.0
 40
0.0
 40
0.0
 40
0.5
 40
0.5
 40
1.0
 40
1.0
 40
1.0
 40
1.0
 10
69.42642547120676
 20
147.6043311432634
 30
0.0
 10
69.42642547120676
 20
147.4605610854454
 30
0.0
 10
69.39037641248787
 20
147.3181417229502
 30
0.0
 10
69.25486755171386
 20
147.068247429593
 30
0.0
 10
69.15499155861768
 20
146.9602170933448
 30
0.0
 10
69.03212793951576
 20
146.8846772922276
 30
0.0
  0
SPLINE
  5
E6
330
1F
100
AcDbEntity
  8
0
  6
Continuous
 62
     7
370
    25
100
AcDbSpline
210
0.0
220
0.0
230
1.0
 70
     8
 71
     3
 72
    10
 73
     6
 74
     0
 42
0.000000001
 43
0.00000001
 40
0.0
 40
0.0
 40
0.0
 40
0.0
 40
0.5
 40
0.5
 40
1.0
 40
1.0
 40
1.0
 40
1.0
 10
69.40027784804661
 20
140.3346772922276
 30
0.0
 10
69.40896749095829
 20
140.3815561415458
 30
0.0
 10
69.4155065557088
 20
140.4289786069471
 30
0.0
 10
69.42426519010182
 20
140.5249154055339
 30
0.0
 10
69.42642547120676
 20
140.5728306935444
 30
0.0
 10
69.42642547120676
 20
140.620543923689
 30
0.0
  0
LINE
  5
E7
330
1F
100
AcDbEntity
  8
0
  6
Continuous
 62
     7
370
    25
100
AcDbLine
 10
68.6264252322
 20
146.8846771492
 30
0.0
 11
66.4064260231
 21
146.8846771492
 31
0.0
  0
LINE
  5
E8
330
1F
100
AcDbEntity
  8
0
  6
Continuous
 62
     7
370
    25
100
AcDbLine
 10
68.6264252322
 20
94.0846774353
 30
0.0
 11
66.4064260231
 21
94.0846774353
 31
0.0
  0
LINE
  5
E9
330
1F
100
AcDbEntity
  8
0
  6
Continuous
 62
     7
370
    25
100
AcDbLine
 10
27.7164252507
 20
97.2562312706
 30
0.0
 11
27.7164252507
 21
98.5209393872
 31
0.0
  0
SPLINE
  5
EA
330
1F
100
AcDbEntity
  8
0
  6
Continuous
 62
     7
370
    25
100
AcDbSpline
210
0.0
220
0.0
230
1.0
 70
     8
 71
     3
 72
    14
 73
    10
 74
     0
 42
0.000000001
 43
0.00000001
 40
0.0
 40
0.0
 40
0.0
 40
0.0
 40
0.25
 40
0.25
 40
0.5
 40
0.5
 40
0.75
 40
0.75
 40
1.0
 40
1.0
 40
1.0
 40
1.0
 10
26.93813835329103
 20
99.65152596866764
 30
0.0
 10
26.99476502849311
 20
99.54382851483078
 30
0.0
 10
27.08928768878284
 20
99.44103893311146
 30
0.0
 10
27.27233266434508
 20
99.2426816208913
 30
0.0
 10
27.36395924129981
 20
99.14662211221307
 30
0.0
 10
27.522812558993
 20
98.95909306950382
 30
0.0
 10
27.59070316661469
 20
98.86768409672025
 30
0.0
 10
27.68762019232228
 20
98.68930787581012
 30
0.0
 10
27.71642547120734
 20
98.60208596956393
 30
0.0
 10
27.71642547120733
 20
98.52093976102968
 30
0.0
  0
SPLINE
  5
EB
330
1F
100
AcDbEntity
  8
0
  6
Continuous
 62
     7
370
    25
100
AcDbSpline
210
0.0
220
0.0
230
1.0
 70
     8
 71
     3
 72
    14
 73
    10
 74
     0
 42
0.000000001
 43
0.00000001
 40
0.0
 40
0.0
 40
0.0
 40
0.0
 40
0.125
 40
0.125
 40
0.25
 40
0.25
 40
0.5
 40
0.5
 40
1.0
 40
1.0
 40
1.0
 40
1.0
 10
26.31642547120676
 20
100.098207830947
 30
0.0
 10
26.36496987986392
 20
100.1039561442273
 30
0.0
 10
26.41788523464883
 20
100.100855255571
 30
0.0
 10
26.51318057963187
 20
100.0786604114087
 30
0.0
 10
26.55343157691682
 20
100.0614281843128
 30
0.0
 10
26.65770159042978
 20
100.0051002678608
 30
0.0
 10
26.70802356558312
 20
99.96091392191497
 30
0.0
 10
26.83570651310849
 20
99.82990602306434
 30
0.0
 10
26.89179196017076
 20
99.73967150283406
 30
0.0
 10
26.93813835329251
 20
99.65152596866817
 30
0.0
  0
SPLINE
  5
EC
330
1F
100
AcDbEntity
  8
0
  6
Continuous
 62
     7
370
    25
100
AcDbSpline
210
0.0
220
0.0
230
1.0
 70
     8
 71
     3
 72
     8
 73
     4
 74
     0
 42
0.000000001
 43
0.00000001
 40
0.0
 40
0.0
 40
0.0
 40
0.0
 40
1.0
 40
1.0
 40
1.0
 40
1.0
 10
24.04790037826049
 20
99.78836254436416
 30
0.0
 10
24.78247740474346
 20
99.90698755543312
 30
0.0
 10
25.54595247413913
 20
100.0069734275694
 30
0.0
 10
26.31642547120676
 20
100.098207830947
 30
0.0
  0
SPLINE
  5
ED
330
1F
100
AcDbEntity
  8
0
  6
Continuous
 62
     7
370
    25
100
AcDbSpline
210
0.0
220
0.0
230
1.0
 70
     8
 71
     3
 72
    14
 73
    10
 74
     0
 42
0.000000001
 43
0.00000001
 40
0.0
 40
0.0
 40
0.0
 40
0.0
 40
0.5000000000000002
 40
0.5000000000000002
 40
0.7500000000000002
 40
0.7500000000000002
 40
0.8750000000000001
 40
0.8750000000000001
 40
1.0
 40
1.0
 40
1.0
 40
1.0
 10
18.76642547120676
 20
99.61473952683252
 30
0.0
 10
19.65857160176032
 20
99.61401730063187
 30
0.0
 10
20.5485480375539
 20
99.61860350708933
 30
0.0
 10
21.8751432046295
 20
99.64632851148086
 30
0.0
 10
22.31599013312822
 20
99.65893504910503
 30
0.0
 10
22.97243037055065
 20
99.68995119711248
 30
0.0
 10
23.19044402714253
 20
99.70229436973926
 30
0.0
 10
23.62315288082528
 20
99.73531842490252
 30
0.0
 10
23.83842934599009
 20
99.75453559004097
 30
0.0
 10
24.04790037826049
 20
99.78836254436416
 30
0.0
  0
SPLINE
  5
EE
330
1F
100
AcDbEntity
  8
0
  6
Continuous
 62
     7
370
    25
100
AcDbSpline
210
0.0
220
0.0
230
1.0
 70
     8
 71
     3
 72
     8
 73
     4
 74
     0
 42
0.000000001
 43
0.00000001
 40
0.0000005163856712
 40
0.0000005163856712
 40
0.0000005163856712
 40
0.0000005163856712
 40
0.000026289209185
 40
0.000026289209185
 40
0.000026289209185
 40
0.000026289209185
 10
18.75638054078807
 20
99.62472339994038
 30
0.0
 10
18.75970827899955
 20
99.62138915306757
 30
0.0
 10
18.76305673197884
 20
99.61806119578854
 30
0.0
 10
18.76642547120673
 20
99.61473952683251
 30
0.0
  0
SPLINE
  5
EF
330
1F
100
AcDbEntity
  8
0
  6
Continuous
 62
     7
370
    25
100
AcDbSpline
210
0.0
220
0.0
230
1.0
 70
     8
 71
     3
 72
     8
 73
     4
 74
     0
 42
0.000000001
 43
0.00000001
 40
0.0000005099763573
 40
0.0000005099763573
 40
0.0000005099763573
 40
0.0000005099763573
 40
0.0000262827998699
 40
0.0000262827998699
 40
0.0000262827998699
 40
0.0000262827998699
 10
18.76642547120674
 20
141.3546150576227
 30
0.0
 10
18.76305673197901
 20
141.3512933886668
 30
0.0
 10
18.75970827899987
 20
141.3479654313879
 30
0.0
 10
18.75638054078854
 20
141.3446311845153
 30
0.0
  0
SPLINE
  5
F0
330
1F
100
AcDbEntity
  8
0
  6
Continuous
 62
     7
370
    25
100
AcDbSpline
210
0.0
220
0.0
230
1.0
 70
     8
 71
     3
 72
    10
 73
     6
 74
     0
 42
0.000000001
 43
0.00000001
 40
0.0
 40
0.0
 40
0.0
 40
0.0
 40
0.5
 40
0.5
 40
1.0
 40
1.0
 40
1.0
 40
1.0
 10
22.31642547120677
 20
141.3077646840553
 30
0.0
 10
21.72883992411617
 20
141.3288302042917
 30
0.0
 10
21.13809353065578
 20
141.339588690164
 30
0.0
 10
19.95407436535693
 20
141.3529534706996
 30
0.0
 10
19.36066037715146
 20
141.3550961133642
 30
0.0
 10
18.76642547120676
 20
141.3546150576227
 30
0.0
  0
SPLINE
  5
F1
330
1F
100
AcDbEntity
  8
0
  6
Continuous
 62
     7
370
    25
100
AcDbSpline
210
0.0
220
0.0
230
1.0
 70
     8
 71
     3
 72
    18
 73
    14
 74
     0
 42
0.000000001
 43
0.00000001
 40
0.0
 40
0.0
 40
0.0
 40
0.0
 40
0.2500000000000008
 40
0.2500000000000008
 40
0.5000000000000009
 40
0.5000000000000009
 40
0.7500000000000009
 40
0.7500000000000009
 40
0.875000000000001
 40
0.875000000000001
 40
0.9375000000000006
 40
0.9375000000000006
 40
1.0
 40
1.0
 40
1.0
 40
1.0
 10
23.71642547120677
 20
142.3287849645906
 30
0.0
 10
23.71642547120678
 20
142.2455780557334
 30
0.0
 10
23.68057637126851
 20
142.1568414004198
 30
0.0
 10
23.55570463523458
 20
141.9747162098596
 30
0.0
 10
23.46530421758672
 20
141.8795861612329
 30
0.0
 10
23.24306156284453
 20
141.6904046521086
 30
0.0
 10
23.11329677639876
 20
141.5954594840139
 30
0.0
 10
22.87265931908726
 20
141.457180776434
 30
0.0
 10
22.78489202094983
 20
141.4114703431316
 30
0.0
 10
22.63036793374298
 20
141.3536470379102
 30
0.0
 10
22.57375704768824
 20
141.3359322738723
 30
0.0
 10
22.44971301678164
 20
141.3113929706394
 30
0.0
 10
22.38199834176335
 20
141.3054138321011
 30
0.0
 10
22.31642547120676
 20
141.3077646840553
 30
0.0
  0
LINE
  5
F2
330
1F
100
AcDbEntity
  8
0
  6
Continuous
 62
     7
370
    25
100
AcDbLine
 10
23.716424595
 20
142.3287849499
 30
0.0
 11
23.716424595
 21
143.5127231849
 31
0.0
  0
LINE
  5
F3
330
1F
100
AcDbEntity
  8
0
  6
Continuous
 62
     7
370
    25
100
AcDbLine
 10
47.5164253762
 20
96.2642460687
 30
0.0
 11
47.5164253762
 21
144.7051085157
 31
0.0
  0
SPLINE
  5
F4
330
1F
100
AcDbEntity
  8
0
  6
Continuous
 62
     7
370
    25
100
AcDbSpline
210
0.0
220
0.0
230
1.0
 70
     8
 71
     3
 72
    18
 73
    14
 74
     0
 42
0.000000001
 43
0.00000001
 40
0.0
 40
0.0
 40
0.0
 40
0.0
 40
0.001067142096085
 40
0.1270947925777493
 40
0.2524053537361832
 40
0.3766468838452861
 40
0.4391416358858051
 40
0.5008278334298175
 40
0.5624255844801763
 40
0.6253162510714301
 40
0.7499985254815132
 40
0.8752758926324193
 40
1.0
 40
1.0
 40
1.0
 40
1.0
 10
36.28672659715042
 20
96.8273385984896
 30
0.0
 10
36.28581452186769
 20
96.82722343059757
 30
0.0
 10
36.17718792068717
 20
96.81350713226783
 30
0.0
 10
36.5648693927299
 20
96.86449339364947
 30
0.0
 10
37.43081785283945
 20
96.96405042952397
 30
0.0
 10
38.63122564656226
 20
97.03318105914305
 30
0.0
 10
39.68880119642
 20
97.03713175940979
 30
0.0
 10
40.51593556054326
 20
97.00964489148554
 30
0.0
 10
41.34120719659109
 20
96.95110240267323
 30
0.0
 10
42.39557240369989
 20
96.83758380071352
 30
0.0
 10
43.5574086099533
 20
96.65442964487997
 30
0.0
 10
44.50964333062645
 20
96.44982949621384
 30
0.0
 10
44.63534843333508
 20
96.42054282620474
 30
0.0
 10
44.69806189035401
 20
96.40593189728244
 30
0.0
  0
SPLINE
  5
F5
330
1F
100
AcDbEntity
  8
0
  6
Continuous
 62
     7
370
    25
100
AcDbSpline
210
0.0
220
0.0
230
1.0
 70
     8
 71
     3
 72
    18
 73
    14
 74
     0
 42
0.000000001
 43
0.00000001
 40
0.0
 40
0.0
 40
0.0
 40
0.0
 40
0.1248907819469273
 40
0.2505384063477967
 40
0.3748721756041158
 40
0.4374907331267689
 40
0.4990776026247599
 40
0.5607931145009658
 40
0.6233901196104445
 40
0.7478191009174896
 40
0.8731941046696081
 40
0.9991614615322162
 40
0.9999999999999999
 40
0.9999999999999999
 40
0.9999999999999999
 40
0.9999999999999999
 10
44.69784302954898
 20
144.5633574945925
 30
0.0
 10
44.63410219758126
 20
144.5486960283655
 30
0.0
 10
44.5062342620017
 20
144.5192842469195
 30
0.0
 10
43.55423542541318
 20
144.3143302875619
 30
0.0
 10
42.39369135456054
 20
144.1310690256983
 30
0.0
 10
41.34142758289718
 20
144.0180384713232
 30
0.0
 10
40.51720028387889
 20
143.9597776638505
 30
0.0
 10
39.68959653855422
 20
143.9323305277284
 30
0.0
 10
38.63077920885999
 20
143.936315321603
 30
0.0
 10
37.42855946923415
 20
144.005408106099
 30
0.0
 10
36.56337869823525
 20
144.1050168432861
 30
0.0
 10
36.17722995059758
 20
144.1558744489294
 30
0.0
 10
36.28530782296119
 20
144.142173641506
 30
0.0
 10
36.28602251728401
 20
144.1420830411909
 30
0.0
  0
LWPOLYLINE
  5
F6
330
1F
100
AcDbEntity
  8
0
  6
Continuous
 62
     7
370
    25
100
AcDbPolyline
 90
       20
 70
   128
 43
0.0
 10
120.4664269494
 20
138.8147595896
 10
121.278175156
 20
138.9105405284
 10
122.0019543575
 20
139.1875084115
 10
122.5593397426
 20
139.6156485749
 10
122.8899294542
 20
140.1485643907
 10
122.9578861999
 20
140.7285064085
 10
122.7558562564
 20
141.292628981
 10
122.3057368802
 20
141.7798019571
 10
121.6562921213
 20
142.1372305228
 10
120.8779150652
 20
142.3261828346
 10
120.0549388336
 20
142.3261828346
 10
119.2765543269
 20
142.1372305228
 10
118.6271170186
 20
141.7798019571
 10
118.1769901918
 20
141.292628981
 10
117.974967699
 20
140.7285064085
 10
118.0429244446
 20
140.1485643907
 10
118.3735067057
 20
139.6156485749
 10
118.9308920907
 20
139.1875084115
 10
119.6546787428
 20
138.9105405284
 10
120.4664269494
 20
138.8147595896
  0
LWPOLYLINE
  5
F7
330
1F
100
AcDbEntity
  8
0
  6
Continuous
 62
     7
370
    25
100
AcDbPolyline
 90
       20
 70
   128
 43
0.0
 10
120.4664269494
 20
98.619061671
 10
121.278175156
 20
98.7148444725
 10
122.0019543575
 20
98.9918123556
 10
122.5593397426
 20
99.4199525191
 10
122.8899294542
 20
99.9528683348
 10
122.9578861999
 20
100.5328103526
 10
122.7558562564
 20
101.0969329251
 10
122.3057368802
 20
101.5841040386
 10
121.6562921213
 20
101.9415344669
 10
120.8779150652
 20
102.1304849161
 10
120.0549388336
 20
102.1304849161
 10
119.2765543269
 20
101.9415344669
 10
118.6271170186
 20
101.5841040386
 10
118.1769901918
 20
101.0969329251
 10
117.974967699
 20
100.5328103526
 10
118.0429244446
 20
99.9528683348
 10
118.3735067057
 20
99.4199525191
 10
118.9308920907
 20
98.9918123556
 10
119.6546787428
 20
98.7148444725
 10
120.4664269494
 20
98.619061671
  0
SPLINE
  5
F8
330
1F
100
AcDbEntity
  8
0
  6
Continuous
 62
     7
370
    25
100
AcDbSpline
210
0.0
220
0.0
230
1.0
 70
     8
 71
     3
 72
     9
 73
     5
 74
     0
 42
0.000000001
 43
0.00000001
 40
0.0
 40
0.0
 40
0.0
 40
0.0
 40
0.7009339503679092
 40
0.9999999999999999
 40
0.9999999999999999
 40
0.9999999999999999
 40
0.9999999999999999
 10
17.63720903863534
 20
100.7833975924252
 30
0.0
 10
17.64634970958517
 20
100.7655683086643
 30
0.0
 10
17.65939041184399
 20
100.7401318410035
 30
0.0
 10
17.67455387511227
 20
100.794011200477
 30
0.0
 10
17.67908875217065
 20
100.8101246876715
 30
0.0
  0
LINE
  5
F9
330
1F
100
AcDbEntity
  8
0
  6
Continuous
 62
     7
370
    25
100
AcDbLine
 10
17.6164256441
 20
100.7939997686
 30
0.0
 11
17.6164256441
 21
140.1753548158
 31
0.0
  0
SPLINE
  5
FA
330
1F
100
AcDbEntity
  8
0
  6
Continuous
 62
     7
370
    25
100
AcDbSpline
210
0.0
220
0.0
230
1.0
 70
     8
 71
     3
 72
    10
 73
     6
 74
     0
 42
0.000000001
 43
0.00000001
 40
0.0
 40
0.0
 40
0.0
 40
0.0
 40
0.5
 40
0.5
 40
1.0
 40
1.0
 40
1.0
 40
1.0
 10
17.67908884593017
 20
140.1592298370083
 30
0.0
 10
17.6701845568214
 20
140.2049713562215
 30
0.0
 10
17.65366917662842
 20
140.2221621956905
 30
0.0
 10
17.6265612305668
 20
140.2218389187548
 30
0.0
 10
17.61642547120676
 20
140.2039613764583
 30
0.0
 10
17.61642547120676
 20
140.1753550387057
 30
0.0
  0
SPLINE
  5
FB
330
1F
100
AcDbEntity
  8
0
  6
Continuous
 62
     7
370
    25
100
AcDbSpline
210
0.0
220
0.0
230
1.0
 70
     8
 71
     3
 72
    26
 73
    22
 74
     0
 42
0.000000001
 43
0.00000001
 40
0.0
 40
0.0
 40
0.0
 40
0.0
 40
0.2500000000000165
 40
0.2500000000000165
 40
0.3750000000000256
 40
0.3750000000000256
 40
0.4375000000000291
 40
0.4375000000000291
 40
0.4687500000000291
 40
0.4687500000000291
 40
0.5000000000000292
 40
0.5000000000000292
 40
0.5312500000000293
 40
0.5312500000000293
 40
0.5625000000000293
 40
0.5625000000000293
 40
0.625000000000026
 40
0.625000000000026
 40
0.7500000000000173
 40
0.7500000000000173
 40
1.0
 40
1.0
 40
1.0
 40
1.0
 10
18.44057911731127
 20
140.8747966258254
 30
0.0
 10
18.4019785944428
 20
140.75702192947
 30
0.0
 10
18.35568159188854
 20
140.6326322433081
 30
0.0
 10
18.26174224345462
 20
140.4274129109546
 30
0.0
 10
18.22643077654115
 20
140.3558400445081
 30
0.0
 10
18.16025080079547
 20
140.2398868119077
 30
0.0
 10
18.13571243412726
 20
140.1993022770974
 30
0.0
 10
18.09233968857346
 20
140.1351605952257
 30
0.0
 10
18.07683128714827
 20
140.1132941699406
 30
0.0
 10
18.04178864256123
 20
140.0676999015975
 30
0.0
 10
18.02223835184147
 20
140.04402961063
 30
0.0
 10
17.98031107147085
 20
139.9994130512901
 30
0.0
 10
17.95765896123921
 20
139.9785330387722
 30
0.0
 10
17.91668524715259
 20
139.9476596250213
 30
0.0
 10
17.89908594725717
 20
139.9378207551889
 30
0.0
 10
17.85445896140102
 20
139.9188311394928
 30
0.0
 10
17.83389973874769
 20
139.9185068148393
 30
0.0
 10
17.78277429925101
 20
139.9277302557156
 30
0.0
 10
17.76186288626247
 20
139.9489771519325
 30
0.0
 10
17.71041297870154
 20
140.0229460307633
 30
0.0
 10
17.69274767939699
 20
140.089064124078
 30
0.0
 10
17.67908884593017
 20
140.1592298370083
 30
0.0
  0
SPLINE
  5
FC
330
1F
100
AcDbEntity
  8
0
  6
Continuous
 62
     7
370
    25
100
AcDbSpline
210
0.0
220
0.0
230
1.0
 70
     8
 71
     3
 72
    10
 73
     6
 74
     0
 42
0.000000001
 43
0.00000001
 40
0.0
 40
0.0
 40
0.0
 40
0.0
 40
0.5
 40
0.5
 40
1.0
 40
1.0
 40
1.0
 40
1.0
 10
18.75638054078857
 20
141.3446311845152
 30
0.0
 10
18.68882128587032
 20
141.2769397917055
 30
0.0
 10
18.62518463053382
 20
141.2022326269518
 30
0.0
 10
18.51496387596195
 20
141.0432664945252
 30
0.0
 10
18.46814758273933
 20
140.9589112285172
 30
0.0
 10
18.44057911731126
 20
140.8747966258254
 30
0.0
  0
SPLINE
  5
FD
330
1F
100
AcDbEntity
  8
0
  6
Continuous
 62
     7
370
    25
100
AcDbSpline
210
0.0
220
0.0
230
1.0
 70
     8
 71
     3
 72
    10
 73
     6
 74
     0
 42
0.000000001
 43
0.00000001
 40
0.0
 40
0.0
 40
0.0
 40
0.0
 40
0.5
 40
0.5
 40
1.0
 40
1.0
 40
1.0
 40
1.0
 10
18.44057911731131
 20
100.0945579586296
 30
0.0
 10
18.46805653206452
 20
100.010721162164
 30
0.0
 10
18.51476516235218
 20
99.9264106745772
 30
0.0
 10
18.62504362509412
 20
99.76728944409433
 30
0.0
 10
18.68893116370576
 20
99.69230470000626
 30
0.0
 10
18.7563805407881
 20
99.62472339994038
 30
0.0
  0
SPLINE
  5
FE
330
1F
100
AcDbEntity
  8
0
  6
Continuous
 62
     7
370
    25
100
AcDbSpline
210
0.0
220
0.0
230
1.0
 70
     8
 71
     3
 72
    24
 73
    20
 74
     0
 42
0.000000001
 43
0.00000001
 40
0.0
 40
0.0
 40
0.0
 40
0.0
 40
0.2499999999999952
 40
0.2499999999999952
 40
0.3749999999999937
 40
0.3749999999999937
 40
0.4374999999999931
 40
0.4374999999999931
 40
0.468749999999992
 40
0.468749999999992
 40
0.4999999999999909
 40
0.4999999999999909
 40
0.5624999999999933
 40
0.5624999999999933
 40
0.6249999999999958
 40
0.6249999999999958
 40
0.7499999999999981
 40
0.7499999999999981
 40
1.0
 40
1.0
 40
1.0
 40
1.0
 10
17.67908884593017
 20
100.8101247474468
 30
0.0
 10
17.69284196460039
 20
100.8807748054371
 30
0.0
 10
17.71061453200624
 20
100.947372918202
 30
0.0
 10
17.76286562356161
 20
101.0214709384352
 30
0.0
 10
17.78390069914315
 20
101.0427287455968
 30
0.0
 10
17.83680110677161
 20
101.0508746717431
 30
0.0
 10
17.8579067796495
 20
101.0499348683473
 30
0.0
 10
17.90395894832747
 20
101.02891887677
 30
0.0
 10
17.92232942031086
 20
101.0180100706623
 30
0.0
 10
17.96388105537656
 20
100.985375159715
 30
0.0
 10
17.98644772813349
 20
100.9638831793436
 30
0.0
 10
18.04922874459351
 20
100.8954172357573
 30
0.0
 10
18.08235850556139
 20
100.8493427775522
 30
0.0
 10
18.13927619204642
 20
100.7643348892175
 30
0.0
 10
18.16346221755018
 20
100.7240545880361
 30
0.0
 10
18.22867016792995
 20
100.6091183615702
 30
0.0
 10
18.2633862281212
 20
100.5385353764232
 30
0.0
 10
18.35660149845209
 20
100.3343296173446
 30
0.0
 10
18.40227403381276
 20
100.2114312350172
 30
0.0
 10
18.4405791173113
 20
100.0945579586297
 30
0.0
  0
SPLINE
  5
FF
330
1F
100
AcDbEntity
  8
0
  6
Continuous
 62
     7
370
    25
100
AcDbSpline
210
0.0
220
0.0
230
1.0
 70
     8
 71
     3
 72
    10
 73
     6
 74
     0
 42
0.000000001
 43
0.00000001
 40
0.0
 40
0.0
 40
0.0
 40
0.0
 40
0.5
 40
0.5
 40
1.0
 40
1.0
 40
1.0
 40
1.0
 10
75.46642547120675
 20
150.3311176159915
 30
0.0
 10
75.46642547120675
 20
150.4915228823423
 30
0.0
 10
75.4041876400999
 20
150.6505846953309
 30
0.0
 10
75.18505271635732
 20
150.8814971609612
 30
0.0
 10
75.02746402136546
 20
150.9518727653918
 30
0.0
 10
74.86642547120675
 20
150.9518727653918
 30
0.0
  0
SPLINE
  5
100
330
1F
100
AcDbEntity
  8
0
  6
Continuous
 62
     7
370
    25
100
AcDbSpline
210
0.0
220
0.0
230
1.0
 70
     8
 71
     3
 72
    12
 73
     8
 74
     0
 42
0.000000001
 43
0.00000001
 40
0.0
 40
0.0
 40
0.0
 40
0.0
 40
0.25
 40
0.25
 40
0.5
 40
0.5
 40
1.0
 40
1.0
 40
1.0
 40
1.0
 10
74.86642547120675
 20
144.943366954595
 30
0.0
 10
74.95762519303241
 20
144.943366954595
 30
0.0
 10
75.04822020216844
 20
144.9151472560071
 30
0.0
 10
75.20163292861508
 20
144.820704248759
 30
0.0
 10
75.26684179593876
 20
144.7544172720537
 30
0.0
 10
75.4196263252787
 20
144.5287924487654
 30
0.0
 10
75.46642547120676
 20
144.3463661857329
 30
0.0
 10
75.46642547120676
 20
144.165629553486
 30
0.0
  0
LINE
  5
101
330
1F
100
AcDbEntity
  8
0
  6
Continuous
 62
     7
370
    25
100
AcDbLine
 10
75.4664251613
 20
144.1656287385
 30
0.0
 11
75.4664251613
 21
150.3311182929
 31
0.0
  0
SPLINE
  5
102
330
1F
100
AcDbEntity
  8
0
  6
Continuous
 62
     7
370
    25
100
AcDbSpline
210
0.0
220
0.0
230
1.0
 70
     8
 71
     3
 72
     8
 73
     4
 74
     0
 42
0.000000001
 43
0.00000001
 40
0.0
 40
0.0
 40
0.0
 40
0.0
 40
1.0
 40
1.0
 40
1.0
 40
1.0
 10
65.60642547120676
 20
148.2899114833992
 30
0.0
 10
65.113715374361
 20
149.1779304815256
 30
0.0
 10
64.61963266908202
 20
150.0651931172115
 30
0.0
 10
64.1244926397177
 20
150.9518727653918
 30
0.0
  0
SPLINE
  5
103
330
1F
100
AcDbEntity
  8
0
  6
Continuous
 62
     7
370
    25
100
AcDbSpline
210
0.0
220
0.0
230
1.0
 70
     8
 71
     3
 72
     8
 73
     4
 74
     0
 42
0.000000001
 43
0.00000001
 40
0.0
 40
0.0
 40
0.0
 40
0.0
 40
1.0
 40
1.0
 40
1.0
 40
1.0
 10
64.1244926397177
 20
144.943366954595
 30
0.0
 10
64.63157948147698
 20
143.8122166004314
 30
0.0
 10
65.12714732061691
 20
142.6758321896635
 30
0.0
 10
65.60642547120676
 20
141.5348209598109
 30
0.0
  0
LINE
  5
104
330
1F
100
AcDbEntity
  8
0
  6
Continuous
 62
     7
370
    25
100
AcDbLine
 10
65.6064255195
 20
141.5348212792
 30
0.0
 11
65.6064255195
 21
148.2899106665
 31
0.0
  0
LINE
  5
105
330
1F
100
AcDbEntity
  8
0
  6
Continuous
 62
     7
370
    25
100
AcDbLine
 10
74.8664261805
 20
150.9518727286
 30
0.0
 11
70.9083573925
 21
150.9518727286
 31
0.0
  0
LINE
  5
106
330
1F
100
AcDbEntity
  8
0
  6
Continuous
 62
     7
370
    25
100
AcDbLine
 10
70.9083573925
 20
144.9433669074
 30
0.0
 11
74.8664261805
 21
144.9433669074
 31
0.0
  0
LINE
  5
107
330
1F
100
AcDbEntity
  8
0
  6
Continuous
 62
     7
370
    25
100
AcDbLine
 10
70.9083573925
 20
144.9433669074
 30
0.0
 11
70.9083573925
 21
150.9518727286
 31
0.0
  0
LINE
  5
108
330
1F
100
AcDbEntity
  8
0
  6
Continuous
 62
     7
370
    25
100
AcDbLine
 10
65.6064255195
 20
141.5348212792
 30
0.0
 11
65.6064255195
 21
140.6205437703
 31
0.0
  0
SPLINE
  5
109
330
1F
100
AcDbEntity
  8
0
  6
Continuous
 62
     7
370
    25
100
AcDbSpline
210
0.0
220
0.0
230
1.0
 70
     8
 71
     3
 72
     8
 73
     4
 74
     0
 42
0.000000001
 43
0.00000001
 40
0.0
 40
0.0
 40
0.0
 40
0.0
 40
1.0
 40
1.0
 40
1.0
 40
1.0
 10
69.42642547120676
 20
141.5348209598109
 30
0.0
 10
69.9057036217966
 20
142.6758321896635
 30
0.0
 10
70.40127146093653
 20
143.8122166004314
 30
0.0
 10
70.90835830269582
 20
144.943366954595
 30
0.0
  0
LINE
  5
10A
330
1F
100
AcDbEntity
  8
0
  6
Continuous
 62
     7
370
    25
100
AcDbLine
 10
69.4264257359
 20
140.6205437703
 30
0.0
 11
69.4264257359
 21
141.5348212792
 31
0.0
  0
LINE
  5
10B
330
1F
100
AcDbEntity
  8
0
  6
Continuous
 62
     7
370
    25
100
AcDbLine
 10
75.4664251613
 20
144.1656287385
 30
0.0
 11
75.4664251613
 21
140.3346780313
 31
0.0
  0
SPLINE
  5
10C
330
1F
100
AcDbEntity
  8
0
  6
Continuous
 62
     7
370
    25
100
AcDbSpline
210
0.0
220
0.0
230
1.0
 70
     8
 71
     3
 72
     8
 73
     4
 74
     0
 42
0.000000001
 43
0.00000001
 40
0.0
 40
0.0
 40
0.0
 40
0.0
 40
1.0
 40
1.0
 40
1.0
 40
1.0
 10
70.90835830269582
 20
150.9518727653918
 30
0.0
 10
70.4132182733315
 20
150.0651931172115
 30
0.0
 10
69.91913556805251
 20
149.1779304815256
 30
0.0
 10
69.42642547120676
 20
148.2899114833992
 30
0.0
  0
LINE
  5
10D
330
1F
100
AcDbEntity
  8
0
  6
Continuous
 62
     7
370
    25
100
AcDbLine
 10
69.4264257359
 20
141.5348212792
 30
0.0
 11
69.4264257359
 21
148.2899106665
 31
0.0
  0
ARC
  5
10E
330
1F
100
AcDbEntity
  8
0
  6
Continuous
 62
     7
370
    25
100
AcDbCircle
 10
57.516597972
 20
139.2826208857
 30
0.0
 40
7.162301240319883
100
AcDbArc
 50
70.7192150876
 51
109.3439968914
  0
LINE
  5
10F
330
1F
100
AcDbEntity
  8
0
  6
Continuous
 62
     7
370
    25
100
AcDbLine
 10
212.0164195107
 20
106.9846769421
 30
0.0
 11
212.0164195107
 21
133.9846776424
 31
0.0
  0
LINE
  5
110
330
1F
100
AcDbEntity
  8
0
  6
Continuous
 62
     7
370
    25
100
AcDbLine
 10
230.5164197492
 20
107.7846774457
 30
0.0
 11
230.5164197492
 21
133.1846771387
 31
0.0
  0
LINE
  5
111
330
1F
100
AcDbEntity
  8
0
  6
HIDDEN
 62
     7
370
    18
100
AcDbLine
 10
235.516429882
 20
111.4846776797
 30
0.0
 11
235.516429882
 21
129.4846769048
 31
0.0
  0
LINE
  5
112
330
1F
100
AcDbEntity
  8
0
  6
HIDDEN
 62
     7
370
    18
100
AcDbLine
 10
247.5164243983
 20
128.8846769927
 30
0.0
 11
247.5164243983
 21
112.0846775917
 31
0.0
  0
LINE
  5
113
330
1F
100
AcDbEntity
  8
0
  6
HIDDEN
 62
     7
370
    18
100
AcDbLine
 10
235.516429882
 20
113.884677328
 30
0.0
 11
235.516429882
 21
127.0846772565
 31
0.0
  0
LINE
  5
114
330
1F
100
AcDbEntity
  8
0
  6
HIDDEN
 62
     7
370
    18
100
AcDbLine
 10
206.480429511
 20
114.4846772401
 30
0.0
 11
206.480429511
 21
126.4846773444
 31
0.0
  0
LINE
  5
115
330
1F
100
AcDbEntity
  8
0
  6
HIDDEN
 62
     7
370
    18
100
AcDbLine
 10
205.5164286899
 20
115.4486771299
 30
0.0
 11
205.5164286899
 21
125.5206774546
 31
0.0
  0
LINE
  5
116
330
1F
100
AcDbEntity
  8
0
  6
HIDDEN
 62
     7
370
    18
100
AcDbLine
 10
247.5164243983
 20
120.4846772922
 30
0.0
 11
247.5164243983
 21
115.4271770826
 31
0.0
  0
LINE
  5
117
330
1F
100
AcDbEntity
  8
0
  6
HIDDEN
 62
     7
370
    18
100
AcDbLine
 10
241.5164271401
 20
120.4846772922
 30
0.0
 11
241.5164271401
 21
117.9559271874
 31
0.0
  0
LINE
  5
118
330
1F
100
AcDbEntity
  8
0
  6
HIDDEN
 62
     7
370
    18
100
AcDbLine
 10
241.5164271401
 20
120.4846772922
 30
0.0
 11
241.5164271401
 21
123.0134273971
 31
0.0
  0
LINE
  5
119
330
1F
100
AcDbEntity
  8
0
  6
HIDDEN
 62
     7
370
    18
100
AcDbLine
 10
241.5164271401
 20
120.4846772922
 30
0.0
 11
247.5164243983
 21
120.4846772922
 31
0.0
  0
LINE
  5
11A
330
1F
100
AcDbEntity
  8
0
  6
HIDDEN
 62
     7
370
    18
100
AcDbLine
 10
247.5164243983
 20
120.4846772922
 30
0.0
 11
247.5164243983
 21
125.5421775019
 31
0.0
  0
LINE
  5
11B
330
1F
100
AcDbEntity
  8
0
  6
HIDDEN
 62
     7
370
    18
100
AcDbLine
 10
241.5164271401
 20
123.0134273971
 30
0.0
 11
241.5164271401
 21
125.5421775019
 31
0.0
  0
LINE
  5
11C
330
1F
100
AcDbEntity
  8
0
  6
HIDDEN
 62
     7
370
    18
100
AcDbLine
 10
241.5164271401
 20
117.9559271874
 30
0.0
 11
241.5164271401
 21
123.0134273971
 31
0.0
  0
LINE
  5
11D
330
1F
100
AcDbEntity
  8
0
  6
HIDDEN
 62
     7
370
    18
100
AcDbLine
 10
241.5164271401
 20
115.4271770826
 30
0.0
 11
241.5164271401
 21
117.9559271874
 31
0.0
  0
LINE
  5
11E
330
1F
100
AcDbEntity
  8
0
  6
HIDDEN
 62
     7
370
    18
100
AcDbLine
 10
241.5164271401
 20
117.9559271874
 30
0.0
 11
241.5164271401
 21
115.4271770826
 31
0.0
  0
LINE
  5
11F
330
1F
100
AcDbEntity
  8
0
  6
HIDDEN
 62
     7
370
    18
100
AcDbLine
 10
241.5164271401
 20
125.5421775019
 30
0.0
 11
241.5164271401
 21
123.0134273971
 31
0.0
  0
LINE
  5
120
330
1F
100
AcDbEntity
  8
0
  6
HIDDEN
 62
     7
370
    18
100
AcDbLine
 10
241.5164271401
 20
123.0134273971
 30
0.0
 11
241.5164271401
 21
117.9559271874
 31
0.0
  0
LINE
  5
121
330
1F
100
AcDbEntity
  8
0
  6
HIDDEN
 62
     7
370
    18
100
AcDbLine
 10
241.5164271401
 20
117.9559271874
 30
0.0
 11
241.5164271401
 21
115.4271770826
 31
0.0
  0
LINE
  5
122
330
1F
100
AcDbEntity
  8
0
  6
HIDDEN
 62
     7
370
    18
100
AcDbLine
 10
241.5164271401
 20
123.0134273971
 30
0.0
 11
241.5164271401
 21
125.5421775019
 31
0.0
  0
LINE
  5
123
330
1F
100
AcDbEntity
  8
0
  6
HIDDEN
 62
     7
370
    18
100
AcDbLine
 10
241.5164271401
 20
115.4271770826
 30
0.0
 11
247.5164243983
 21
115.4271770826
 31
0.0
  0
LINE
  5
124
330
1F
100
AcDbEntity
  8
0
  6
HIDDEN
 62
     7
370
    18
100
AcDbLine
 10
241.5164271401
 20
125.5421775019
 30
0.0
 11
247.5164243983
 21
125.5421775019
 31
0.0
  0
LINE
  5
125
330
1F
100
AcDbEntity
  8
0
  6
HIDDEN
 62
     7
370
    18
100
AcDbLine
 10
230.5164197492
 20
126.4846773444
 30
0.0
 11
206.480429511
 21
126.4846773444
 31
0.0
  0
LINE
  5
126
330
1F
100
AcDbEntity
  8
0
  6
HIDDEN
 62
     7
370
    18
100
AcDbLine
 10
206.480429511
 20
114.4846772401
 30
0.0
 11
230.5164197492
 21
114.4846772401
 31
0.0
  0
LINE
  5
127
330
1F
100
AcDbEntity
  8
0
  6
HIDDEN
 62
     7
370
    18
100
AcDbLine
 10
206.480429511
 20
126.4846773444
 30
0.0
 11
205.5164286899
 21
125.5206774546
 31
0.0
  0
LINE
  5
128
330
1F
100
AcDbEntity
  8
0
  6
HIDDEN
 62
     7
370
    18
100
AcDbLine
 10
205.5164286899
 20
115.4486771299
 30
0.0
 11
206.480429511
 21
114.4846772401
 31
0.0
  0
LINE
  5
129
330
1F
100
AcDbEntity
  8
0
  6
HIDDEN
 62
     7
370
    18
100
AcDbLine
 10
241.5164271401
 20
125.5421775019
 30
0.0
 11
238.5964700984
 21
120.4846772922
 31
0.0
  0
LINE
  5
12A
330
1F
100
AcDbEntity
  8
0
  6
HIDDEN
 62
     7
370
    18
100
AcDbLine
 10
238.5964700984
 20
120.4846772922
 30
0.0
 11
241.5164271401
 21
115.4271770826
 31
0.0
  0
DIMENSION
  5
12B
330
1F
100
AcDbEntity
  8
VERMASSUNG
100
AcDbDimension
  2
_D
 10
266.5727928891
 20
133.9846772922
 30
0.0
 11
266.5727928891
 21
120.4846772922
 31
0.0
 70
   160
  1
%%c<>
 71
     2
 42
-1.0
  3
SLDDIMSTYLE0
100
AcDbAlignedDimension
 13
229.7164254712
 23
106.9846772922
 33
0.0
 14
229.7164254712
 24
133.9846772922
 34
0.0
 50
90.0
100
AcDbRotatedDimension
  0
DIMENSION
  5
137
330
1F
100
AcDbEntity
  8
VERMASSUNG
100
AcDbDimension
  2
_D_1
 10
277.3968084384
 20
146.4846772922
 30
0.0
 11
277.3968084384
 21
120.4846772922
 31
0.0
 70
   160
  1
%%c<>
 71
     2
 42
-1.0
  3
SLDDIMSTYLE0
100
AcDbAlignedDimension
 13
90.5164254712
 23
94.4846772922
 33
0.0
 14
90.5164254712
 24
146.4846772922
 34
0.0
 50
90.0
100
AcDbRotatedDimension
  0
DIMENSION
  5
142
330
1F
100
AcDbEntity
  8
VERMASSUNG
100
AcDbDimension
  2
_D_2
 10
287.5164254712
 20
91.4846772922
 30
0.0
 11
287.5164254712
 21
120.4846772922
 31
0.0
 70
   160
  1
%%c<>
 71
     2
 42
-1.0
  3
SLDDIMSTYLE0
100
AcDbAlignedDimension
 13
208.7164254712
 23
149.4846772922
 33
0.0
 14
208.7164254712
 24
91.4846772922
 34
0.0
 50
90.0
100
AcDbRotatedDimension
  0
DIMENSION
  5
14D
330
1F
100
AcDbEntity
  8
VERMASSUNG
100
AcDbDimension
  2
_D_3
 10
257.5164254712
 20
115.4271772922
 30
0.0
 11
257.5164254712
 21
120.4846772922
 31
0.0
 70
   160
  1
SW<>
 71
     2
 42
-1.0
  3
SLDDIMSTYLE1
100
AcDbAlignedDimension
 13
247.5164254712
 23
125.5421772922
 33
0.0
 14
247.5164254712
 24
115.4271772922
 34
0.0
 50
90.0
100
AcDbRotatedDimension
  0
DIMENSION
  5
159
330
1F
100
AcDbEntity
  8
VERMASSUNG
100
AcDbDimension
  2
_D_4
 10
7.4711216289
 20
151.9846772922
 30
0.0
 11
7.4711216289
 21
120.4846772922
 31
0.0
 70
   160
  1
%%c<>
 71
     2
 42
-1.0
  3
SLDDIMSTYLE0
100
AcDbAlignedDimension
 13
49.8164254712
 23
88.9846772922
 33
0.0
 14
49.8164254712
 24
151.9846772922
 34
0.0
 50
90.0
100
AcDbRotatedDimension
  0
DIMENSION
  5
164
330
1F
100
AcDbEntity
  8
VERMASSUNG
100
AcDbDimension
  2
_D_5
 10
209.5164254712
 20
159.4127819549
 30
0.0
 11
142.4914254712
 21
159.4127819549
 31
0.0
 70
   160
  1
<>
 71
     2
 42
-1.0
  3
SLDDIMSTYLE0
100
AcDbAlignedDimension
 13
75.4664254712
 23
150.331117616
 33
0.0
 14
209.5164254712
 24
148.6846772922
 34
0.0
100
AcDbRotatedDimension
  0
DIMENSION
  5
16E
330
1F
100
AcDbEntity
  8
VERMASSUNG
100
AcDbDimension
  2
_D_6
 10
230.5164254712
 20
159.4127819549
 30
0.0
 11
220.0164254712
 21
159.4127819549
 31
0.0
 70
   160
  1
<>
 71
     2
 42
-1.0
  3
SLDDIMSTYLE0
100
AcDbAlignedDimension
 13
209.5164254712
 23
148.6846772922
 33
0.0
 14
230.5164254712
 24
129.6557451041
 34
0.0
100
AcDbRotatedDimension
  0
DIMENSION
  5
178
330
1F
100
AcDbEntity
  8
VERMASSUNG
100
AcDbDimension
  2
_D_7
 10
209.5164254712
 20
170.2263157895
 30
0.0
 11
129.5164254712
 21
170.2263157895
 31
0.0
 70
   160
  1
<>
 71
     2
 42
-1.0
  3
SLDDIMSTYLE0
100
AcDbAlignedDimension
 13
49.5164254712
 23
151.6846772922
 33
0.0
 14
209.5164254712
 24
148.6846772922
 34
0.0
100
AcDbRotatedDimension
  0
DIMENSION
  5
182
330
1F
100
AcDbEntity
  8
VERMASSUNG
100
AcDbDimension
  2
_D_8
 10
17.6164254712
 20
179.9846772922
 30
0.0
 11
132.5664254712
 21
179.9846772922
 31
0.0
 70
   160
  1
<>
 71
     2
 42
-1.0
  3
SLDDIMSTYLE0
100
AcDbAlignedDimension
 13
247.5164254712
 23
128.8846772922
 33
0.0
 14
17.6164254712
 24
140.1753550387
 34
0.0
100
AcDbRotatedDimension
  0
LINE
  5
18C
330
1F
100
AcDbEntity
  8
VERMASSUNG
  6
CENTERX2
370
    18
100
AcDbLine
 10
248.9164254712
 20
120.4846772922
 30
0.0
 11
12.4457001555
 21
120.4846772922
 31
0.0
  0
SPLINE
  5
18D
330
1F
100
AcDbEntity
  8
0
  6
Continuous
 62
     7
370
    25
100
AcDbSpline
210
0.0
220
0.0
230
1.0
 70
     8
 71
     3
 72
    15
 73
    11
 74
     0
 42
0.000000001
 43
0.00000001
 40
0.0
 40
0.0
 40
0.0
 40
0.0
 40
0.0590839757990489
 40
0.1997481982103665
 40
0.340713985933991
 40
0.4823364618076033
 40
0.6249689050799024
 40
0.7683999784043051
 40
0.9097995639738672
 40
1.0
 40
1.0
 40
1.0
 40
1.0
 10
273.99221745111
 20
34.30410616285868
 30
0.0
 10
274.0453696912167
 20
34.38215311611051
 30
0.0
 10
274.2250641692636
 20
34.64601041543791
 30
0.0
 10
274.450302779166
 20
35.14843891917997
 30
0.0
 10
274.6499662690491
 20
35.7723792929157
 30
0.0
 10
274.7379354796234
 20
36.38387377641332
 30
0.0
 10
274.7128210373327
 20
36.9522296223153
 30
0.0
 10
274.5634132182421
 20
37.44202234910576
 30
0.0
 10
274.3355971218228
 20
37.80455593213312
 30
0.0
 10
274.1219467032016
 20
37.93331410901988
 30
0.0
 10
274.0387370351539
 20
37.98346109785475
 30
0.0
  0
SPLINE
  5
18E
330
1F
100
AcDbEntity
  8
0
  6
Continuous
 62
     7
370
    25
100
AcDbSpline
210
0.0
220
0.0
230
1.0
 70
     8
 71
     3
 72
     9
 73
     5
 74
     0
 42
0.000000001
 43
0.00000001
 40
0.0
 40
0.0
 40
0.0
 40
0.0
 40
0.5397410149515606
 40
1.0
 40
1.0
 40
1.0
 40
1.0
 10
273.484287340459
 20
33.64264703541418
 30
0.0
 10
273.5859112261028
 20
33.74972400577981
 30
0.0
 10
273.7741939076641
 20
33.94810983787236
 30
0.0
 10
273.9234986170878
 20
34.19189969202246
 30
0.0
 10
273.99221745111
 20
34.30410616285868
 30
0.0
  0
LINE
  5
18F
330
1F
100
AcDbEntity
  8
0
  6
Continuous
 62
     7
370
    25
100
AcDbLine
 10
274.0287047681
 20
38.0104346121
 30
0.0
 11
271.9780920007
 21
39.194228165
 31
0.0
  0
SPLINE
  5
190
330
1F
100
AcDbEntity
  8
0
  6
Continuous
 62
     7
370
    25
100
AcDbSpline
210
0.0
220
0.0
230
1.0
 70
     8
 71
     3
 72
    15
 73
    11
 74
     0
 42
0.000000001
 43
0.00000001
 40
0.0
 40
0.0
 40
0.0
 40
0.0
 40
0.0590839781013121
 40
0.1997482059937448
 40
0.3407139992102352
 40
0.4823364806023017
 40
0.6249689294324096
 40
0.7684000083457402
 40
0.9097996889250148
 40
0.9999999999999999
 40
0.9999999999999999
 40
0.9999999999999999
 40
0.9999999999999999
 10
258.4358683492997
 20
25.32361698147061
 30
0.0
 10
258.4890205893825
 20
25.40166393468861
 30
0.0
 10
258.6687150673491
 20
25.66552123390157
 30
0.0
 10
258.8939536785046
 20
26.16794973942772
 30
0.0
 10
259.0936171630291
 20
26.79189010553443
 30
0.0
 10
259.1815863936252
 20
27.40338461753698
 30
0.0
 10
259.1564718759178
 20
27.97174035606834
 30
0.0
 10
259.0070643075856
 20
28.46153358694998
 30
0.0
 10
258.779247289951
 20
28.82406580924198
 30
0.0
 10
258.5655973215399
 20
28.95282470905879
 30
0.0
 10
258.4823879333435
 20
29.00297191646668
 30
0.0
  0
SPLINE
  5
191
330
1F
100
AcDbEntity
  8
0
  6
Continuous
 62
     7
370
    25
100
AcDbSpline
210
0.0
220
0.0
230
1.0
 70
     8
 71
     3
 72
    14
 73
    10
 74
     0
 42
0.000000001
 43
0.00000001
 40
0.0
 40
0.0
 40
0.0
 40
0.0
 40
0.1180274465344614
 40
0.2681980025234988
 40
0.4229653264234251
 40
0.5828469097393929
 40
0.7447431342948139
 40
0.90641925666186
 40
1.0
 40
1.0
 40
1.0
 40
1.0
 10
255.5927236082737
 20
23.78735443702248
 30
0.0
 10
255.696044146624
 20
23.74630874962619
 30
0.0
 10
255.9308231138801
 20
23.65303916110999
 30
0.0
 10
256.3560581406325
 20
23.67330355259069
 30
0.0
 10
256.8311947785174
 20
23.81354624045125
 30
0.0
 10
257.3206737390195
 20
24.08971293461482
 30
0.0
 10
257.7936135993007
 20
24.48883457110346
 30
0.0
 10
258.1769883377254
 20
24.90973363223898
 30
0.0
 10
258.3664200349825
 20
25.21258677580387
 30
0.0
 10
258.4358683492997
 20
25.32361698147061
 30
0.0
  0
LINE
  5
192
330
1F
100
AcDbEntity
  8
0
  6
Continuous
 62
     7
370
    25
100
AcDbLine
 10
253.4219870542
 20
25.0174459626
 30
0.0
 11
255.4725998217
 21
23.8336524097
 31
0.0
  0
LINE
  5
193
330
1F
100
AcDbEntity
  8
0
  6
Continuous
 62
     7
370
    25
100
AcDbLine
 10
258.4723556663
 20
29.0299454307
 30
0.0
 11
256.4217428989
 21
30.2137389836
 31
0.0
  0
SPLINE
  5
194
330
1F
100
AcDbEntity
  8
0
  6
Continuous
 62
     7
370
    25
100
AcDbSpline
210
0.0
220
0.0
230
1.0
 70
     8
 71
     3
 72
    21
 73
    17
 74
     0
 42
0.000000001
 43
0.00000001
 40
0.0
 40
0.0
 40
0.0
 40
0.0
 40
0.0260293061578148
 40
0.1013605614557011
 40
0.1769026328090117
 40
0.2542145468071828
 40
0.3333372373751891
 40
0.4133594585177336
 40
0.4934771092038697
 40
0.5734501706489671
 40
0.6533026653838039
 40
0.7331239323492277
 40
0.8130113984505103
 40
0.8930563076616168
 40
0.9733754821186544
 40
1.0
 40
1.0
 40
1.0
 40
1.0
 10
273.6904048567403
 20
20.58571499250286
 30
0.0
 10
273.738900550502
 20
20.55247474447353
 30
0.0
 10
273.9277473341263
 20
20.42303409850504
 30
0.0
 10
274.3326005714508
 20
20.33699845837248
 30
0.0
 10
274.8751728626744
 20
20.33240174142107
 30
0.0
 10
275.4545318030944
 20
20.47418304019516
 30
0.0
 10
276.0510732707851
 20
20.7489348306296
 30
0.0
 10
276.6470338505985
 20
21.15291037616379
 30
0.0
 10
277.2195237898437
 20
21.67041866015969
 30
0.0
 10
277.7482910173838
 20
22.28221497761024
 30
0.0
 10
278.2158997830668
 20
22.96682321682021
 30
0.0
 10
278.6071127706158
 20
23.7012909186809
 30
0.0
 10
278.9093246599905
 20
24.46177336885227
 30
0.0
 10
279.1105792282077
 20
25.22290530129987
 30
0.0
 10
279.1863024164725
 20
25.79776399190919
 30
0.0
 10
279.1914951166823
 20
26.10931350179279
 30
0.0
 10
279.1927878824039
 20
26.18687633243243
 30
0.0
  0
SPLINE
  5
195
330
1F
100
AcDbEntity
  8
0
  6
Continuous
 62
     7
370
    25
100
AcDbSpline
210
0.0
220
0.0
230
1.0
 70
     8
 71
     3
 72
    12
 73
     8
 74
     0
 42
0.000000001
 43
0.00000001
 40
0.0
 40
0.0
 40
0.0
 40
0.0
 40
0.1205616802013083
 40
0.3496076748146774
 40
0.5783551888427761
 40
0.8029494840111925
 40
0.9999999999999999
 40
0.9999999999999999
 40
0.9999999999999999
 40
0.9999999999999999
 10
279.1927878824038
 20
26.18687633243244
 30
0.0
 10
279.1895682313577
 20
26.30822175178092
 30
0.0
 10
279.1802318094193
 20
26.66010213232133
 30
0.0
 10
279.0761139638632
 20
27.19397449267402
 30
0.0
 10
278.8393765818369
 20
27.73597448314511
 30
0.0
 10
278.5085295007949
 20
28.16175502612932
 30
0.0
 10
278.2180966515851
 20
28.33134482989612
 30
0.0
 10
278.08236643202
 20
28.41060053862158
 30
0.0
  0
LINE
  5
196
330
1F
100
AcDbEntity
  8
0
  6
Continuous
 62
     7
370
    25
100
AcDbLine
 10
278.1727561109
 20
28.3696396947
 30
0.0
 11
274.1422477195
 21
30.6964026626
 31
0.0
  0
LINE
  5
197
330
1F
100
AcDbEntity
  8
0
  6
Continuous
 62
     7
370
    25
100
AcDbLine
 10
269.6426132939
 20
22.9019627509
 30
0.0
 11
273.6731216854
 21
20.5751997831
 31
0.0
  0
LINE
  5
198
330
1F
100
AcDbEntity
  8
0
  6
Continuous
 62
     7
370
    25
100
AcDbLine
 10
271.7151221724
 20
30.3655484242
 30
0.0
 11
270.8020528462
 21
30.8926521264
 31
0.0
  0
LINE
  5
199
330
1F
100
AcDbEntity
  8
0
  6
Continuous
 62
     7
370
    25
100
AcDbLine
 10
267.8039878146
 20
25.6953826397
 30
0.0
 11
268.7153659985
 21
25.1692552131
 31
0.0
  0
SPLINE
  5
19A
330
1F
100
AcDbEntity
  8
0
  6
Continuous
 62
     7
370
    25
100
AcDbSpline
210
0.0
220
0.0
230
1.0
 70
     8
 71
     3
 72
    15
 73
    11
 74
     0
 42
0.000000001
 43
0.00000001
 40
0.0
 40
0.0
 40
0.0
 40
0.0
 40
0.0718752161476318
 40
0.2091226599160787
 40
0.3471882861075213
 40
0.4857983272593345
 40
0.6246911855020867
 40
0.7636752050756305
 40
0.9026220404175183
 40
1.0
 40
1.0
 40
1.0
 40
1.0
 10
258.0914834866669
 20
19.01599568153579
 30
0.0
 10
258.2603122717425
 20
19.01627326456663
 30
0.0
 10
258.7515236586119
 20
19.0170808990319
 30
0.0
 10
259.6071784987284
 20
19.17189803382778
 30
0.0
 10
260.6447280710703
 20
19.46813835732576
 30
0.0
 10
261.7035128752897
 20
19.90811619274714
 30
0.0
 10
262.7695648014694
 20
20.47667599702133
 30
0.0
 10
263.8302490841313
 20
21.17442551010591
 30
0.0
 10
264.7751812049806
 20
21.8953408208283
 30
0.0
 10
265.3495558542938
 20
22.42670783793991
 30
0.0
 10
265.5862277253258
 20
22.64565835446239
 30
0.0
  0
SPLINE
  5
19B
330
1F
100
AcDbEntity
  8
0
  6
Continuous
 62
     7
370
    25
100
AcDbSpline
210
0.0
220
0.0
230
1.0
 70
     8
 71
     3
 72
    12
 73
     8
 74
     0
 42
0.000000001
 43
0.00000001
 40
0.0
 40
0.0
 40
0.0
 40
0.0
 40
0.1093157217905235
 40
0.3746105651574795
 40
0.6397593696649527
 40
0.9043515268206092
 40
1.0
 40
1.0
 40
1.0
 40
1.0
 10
272.7538890412104
 20
38.74637004545239
 30
0.0
 10
272.7479730896706
 20
38.91237951417325
 30
0.0
 10
272.7276999037695
 20
39.48127207491748
 30
0.0
 10
272.5776861461148
 20
40.38128793646951
 30
0.0
 10
272.2989707735458
 20
41.42405004995613
 30
0.0
 10
272.0089234672309
 20
42.18821743429515
 30
0.0
 10
271.779917456956
 20
42.56536454620893
 30
0.0
 10
271.7191134460055
 20
42.6655019054652
 30
0.0
  0
LINE
  5
19C
330
1F
100
AcDbEntity
  8
0
  6
Continuous
 62
     7
370
    25
100
AcDbLine
 10
225.1886436614
 20
37.0180010943
 30
0.0
 11
255.1677865692
 21
19.7114102748
 31
0.0
  0
LINE
  5
19D
330
1F
100
AcDbEntity
  8
0
  6
Continuous
 62
     7
370
    25
100
AcDbLine
 10
214.0848838825
 20
43.4280651726
 30
0.0
 11
222.7409944101
 21
38.4309989306
 31
0.0
  0
LINE
  5
19E
330
1F
100
AcDbEntity
  8
0
  6
Continuous
 62
     7
370
    25
100
AcDbLine
 10
237.2396946903
 20
63.5464851498
 30
0.0
 11
228.5837053349
 21
68.5434814406
 31
0.0
  0
LINE
  5
19F
330
1F
100
AcDbEntity
  8
0
  6
Continuous
 62
     7
370
    25
100
AcDbLine
 10
269.6666080216
 20
44.8268265427
 30
0.0
 11
239.6996113087
 21
62.1264055132
 31
0.0
  0
SPLINE
  5
1A0
330
1F
100
AcDbEntity
  8
0
  6
Continuous
 62
     7
370
    25
100
AcDbSpline
210
0.0
220
0.0
230
1.0
 70
     8
 71
     3
 72
    14
 73
    10
 74
     0
 42
0.000000001
 43
0.00000001
 40
0.0
 40
0.0
 40
0.0
 40
0.0
 40
0.0283564323054725
 40
0.2081715135871367
 40
0.3882091933439428
 40
0.5710285706697126
 40
0.7574145042524268
 40
0.9463760401031255
 40
1.0
 40
1.0
 40
1.0
 40
1.0
 10
266.56070994883
 20
22.09730766412885
 30
0.0
 10
266.587907872347
 20
22.07932238686978
 30
0.0
 10
266.7875744892178
 20
21.94728806220678
 30
0.0
 10
267.2318904105032
 20
21.83054242326204
 30
0.0
 10
267.8742828612657
 20
21.7616736149415
 30
0.0
 10
268.564089868423
 20
21.84191927804406
 30
0.0
 10
269.2806324352795
 20
22.06608416131197
 30
0.0
 10
269.8392093088839
 20
22.31400283377322
 30
0.0
 10
270.1491901740812
 20
22.52362738115891
 30
0.0
 10
270.2177120015421
 20
22.56996526417113
 30
0.0
  0
SPLINE
  5
1A1
330
1F
100
AcDbEntity
  8
0
  6
Continuous
 62
     7
370
    25
100
AcDbSpline
210
0.0
220
0.0
230
1.0
 70
     8
 71
     3
 72
    14
 73
    10
 74
     0
 42
0.000000001
 43
0.00000001
 40
0.0
 40
0.0
 40
0.0
 40
0.0
 40
0.0046196813567818
 40
0.1818203575750457
 40
0.3594204852329805
 40
0.5364897348098898
 40
0.7114973024474394
 40
0.8828990038251916
 40
1.0
 40
1.0
 40
1.0
 40
1.0
 10
274.7269450219542
 20
30.3588640988343
 30
0.0
 10
274.72766756499
 20
30.36660185417454
 30
0.0
 10
274.7561052478076
 20
30.67114265128443
 30
0.0
 10
274.708377403225
 20
31.22843347239111
 30
0.0
 10
274.5715347913094
 20
32.00304570040942
 30
0.0
 10
274.3065420257664
 20
32.68432643822255
 30
0.0
 10
273.9318241629777
 20
33.25230378978845
 30
0.0
 10
273.5140880746696
 20
33.66669425145341
 30
0.0
 10
273.1933570298004
 20
33.82712552081171
 30
0.0
 10
273.0631747986566
 20
33.89224332254742
 30
0.0
  0
LINE
  5
1A2
330
1F
100
AcDbEntity
  8
0
  6
Continuous
 62
     7
370
    25
100
AcDbLine
 10
260.2091963419
 20
25.7497524517
 30
0.0
 11
266.4670919201
 21
22.1371462309
 31
0.0
  0
LINE
  5
1A3
330
1F
100
AcDbEntity
  8
0
  6
Continuous
 62
     7
370
    25
100
AcDbLine
 10
273.2165435584
 20
33.8288062884
 30
0.0
 11
266.9586479801
 21
37.4414125093
 31
0.0
  0
SPLINE
  5
1A4
330
1F
100
AcDbEntity
  8
0
  6
Continuous
 62
     7
370
    25
100
AcDbSpline
210
0.0
220
0.0
230
1.0
 70
     8
 71
     3
 72
    12
 73
     8
 74
     0
 42
0.000000001
 43
0.00000001
 40
0.0
 40
0.0
 40
0.0
 40
0.0
 40
0.0444660655671004
 40
0.326688866144641
 40
0.589258516278166
 40
0.8694958124025068
 40
1.0
 40
1.0
 40
1.0
 40
1.0
 10
268.200677574795
 20
25.18732140759669
 30
0.0
 10
268.1854802548505
 20
25.19369882529589
 30
0.0
 10
268.0738266790777
 20
25.24055323731798
 30
0.0
 10
267.925868386
 20
25.42173719490507
 30
0.0
 10
267.7500839446157
 20
25.76223307328469
 30
0.0
 10
267.6703219169153
 20
26.14044365065093
 30
0.0
 10
267.6631571189998
 20
26.40801500652709
 30
0.0
 10
267.6608806600388
 20
26.49302999480285
 30
0.0
  0
SPLINE
  5
1A5
330
1F
100
AcDbEntity
  8
0
  6
Continuous
 62
     7
370
    25
100
AcDbSpline
210
0.0
220
0.0
230
1.0
 70
     8
 71
     3
 72
    19
 73
    15
 74
     0
 42
0.000000001
 43
0.00000001
 40
0.0
 40
0.0
 40
0.0
 40
0.0
 40
0.0452262368593959
 40
0.1324333028634513
 40
0.220159853896574
 40
0.3082901151815617
 40
0.3966286099956944
 40
0.484906076503117
 40
0.5727912673526558
 40
0.6600371563143178
 40
0.7465204164125641
 40
0.832593366244447
 40
0.919281915572228
 40
1.0
 40
1.0
 40
1.0
 40
1.0
 10
267.6608806600388
 20
26.49302999480285
 30
0.0
 10
267.6635169474464
 20
26.58914739008303
 30
0.0
 10
267.671236631261
 20
26.87060224911015
 30
0.0
 10
267.7596811247399
 20
27.38592954423561
 30
0.0
 10
267.9588752610703
 20
28.02466429085752
 30
0.0
 10
268.2509933297579
 20
28.66349034969144
 30
0.0
 10
268.6213319323973
 20
29.26941406113571
 30
0.0
 10
269.0520652424698
 20
29.81278278956264
 30
0.0
 10
269.5204079761152
 20
30.26709844197531
 30
0.0
 10
270.0002916903328
 20
30.61131860938143
 30
0.0
 10
270.464395595978
 20
30.83328780860372
 30
0.0
 10
270.8832828960651
 20
30.92686261499906
 30
0.0
 10
271.2286814491403
 20
30.91321963114357
 30
0.0
 10
271.3985415336473
 20
30.82508492665773
 30
0.0
 10
271.4804425929695
 20
30.78258921213251
 30
0.0
  0
LINE
  5
1A6
330
1F
100
AcDbEntity
  8
0
  6
Continuous
 62
     7
370
    25
100
AcDbLine
 10
266.2579498735
 20
37.7047184764
 30
0.0
 11
265.7578332288
 21
37.806612728
 31
0.0
  0
LINE
  5
1A7
330
1F
100
AcDbEntity
  8
0
  6
Continuous
 62
     7
370
    25
100
AcDbLine
 10
259.2924358737
 20
26.6070023519
 30
0.0
 11
259.6307729929
 21
26.2248675149
 31
0.0
  0
SPLINE
  5
1A8
330
1F
100
AcDbEntity
  8
0
  6
Continuous
 62
     7
370
    25
100
AcDbSpline
210
0.0
220
0.0
230
1.0
 70
     8
 71
     3
 72
    28
 73
    24
 74
     0
 42
0.000000001
 43
0.00000001
 40
0.0
 40
0.0
 40
0.0
 40
0.0
 40
0.0395277501057926
 40
0.0880698793754843
 40
0.1370142231693421
 40
0.1862646482476258
 40
0.2356995704365119
 40
0.2852174875990964
 40
0.3347443376800879
 40
0.3842449494094949
 40
0.4337095114419309
 40
0.4831385472548733
 40
0.5325380196764372
 40
0.5819165601985126
 40
0.6312840341796176
 40
0.6806508817331732
 40
0.7300257543898264
 40
0.7794180798801731
 40
0.8288387755074933
 40
0.8782984777986796
 40
0.9278066771702551
 40
0.9773700457437705
 40
1.0
 40
1.0
 40
1.0
 40
1.0
 10
226.394772208299
 20
69.22437042057503
 30
0.0
 10
226.1380885008887
 20
69.24511944236004
 30
0.0
 10
225.5661838746761
 20
69.29134934011219
 30
0.0
 10
224.628289008625
 20
69.19419700598574
 30
0.0
 10
223.600665792925
 20
68.96615988552837
 30
0.0
 10
222.5466855349424
 20
68.59552439854312
 30
0.0
 10
221.4798574400343
 20
68.09134791282693
 30
0.0
 10
220.4117902121806
 20
67.45803758844349
 30
0.0
 10
219.3543692789353
 20
66.70343739118037
 30
0.0
 10
218.3187867071162
 20
65.83612148838667
 30
0.0
 10
217.3156949633744
 20
64.86572916262162
 30
0.0
 10
216.3552540869816
 20
63.80270664480453
 30
0.0
 10
215.4471794301058
 20
62.6583262876679
 30
0.0
 10
214.6006823619641
 20
61.44458495956655
 30
0.0
 10
213.8244047199382
 20
60.17411490784152
 30
0.0
 10
213.1263317544407
 20
58.86008905863002
 30
0.0
 10
212.5137334890298
 20
57.5160910173855
 30
0.0
 10
211.9930313526847
 20
56.15593228303351
 30
0.0
 10
211.5699369213485
 20
54.79360474331012
 30
0.0
 10
211.2486790003926
 20
53.44270972648849
 30
0.0
 10
211.034790726402
 20
52.1179691133193
 30
0.0
 10
210.9446507427174
 20
51.0630122196165
 30
0.0
 10
210.9371499981603
 20
50.45995348421295
 30
0.0
 10
210.9347987903261
 20
50.27091672761171
 30
0.0
  0
SPLINE
  5
1A9
330
1F
100
AcDbEntity
  8
0
  6
Continuous
 62
     7
370
    25
100
AcDbSpline
210
0.0
220
0.0
230
1.0
 70
     8
 71
     3
 72
    13
 73
     9
 74
     0
 42
0.000000001
 43
0.00000001
 40
0.0
 40
0.0
 40
0.0
 40
0.0
 40
0.1027071175461094
 40
0.2975848417692063
 40
0.4925694789355239
 40
0.6872389589511197
 40
0.8811319812158237
 40
1.0
 40
1.0
 40
1.0
 40
1.0
 10
210.9347987903261
 20
50.27091672761171
 30
0.0
 10
210.9379067499001
 20
50.05545744212604
 30
0.0
 10
210.9469117894741
 20
49.43118310836166
 30
0.0
 10
211.0476402911123
 20
48.44690810367557
 30
0.0
 10
211.2722943862975
 20
47.35190524551074
 30
0.0
 10
211.6135888535088
 20
46.35254234919421
 30
0.0
 10
211.9907350211318
 20
45.55320563332409
 30
0.0
 10
212.2958872149123
 20
45.13763608457818
 30
0.0
 10
212.4118634138042
 20
44.9796946454501
 30
0.0
  0
LINE
  5
1AA
330
1F
100
AcDbEntity
  8
0
  6
Continuous
 62
     7
370
    25
100
AcDbLine
 10
209.160290686
 20
48.0029759242
 30
0.0
 11
211.5404964186
 21
46.6289124025
 31
0.0
  0
LINE
  5
1AB
330
1F
100
AcDbEntity
  8
0
  6
Continuous
 62
     7
370
    25
100
AcDbLine
 10
224.529256875
 20
69.1520611036
 30
0.0
 11
222.1592335575
 21
70.5202464421
 31
0.0
  0
LINE
  5
1AC
330
1F
100
AcDbEntity
  8
0
  6
Continuous
 62
     7
370
    25
100
AcDbLine
 10
198.3632040745
 20
51.0606606352
 30
0.0
 11
203.4218698329
 21
48.1403550534
 31
0.0
  0
LINE
  5
1AD
330
1F
100
AcDbEntity
  8
0
  6
Continuous
 62
     7
370
    25
100
AcDbLine
 10
216.305225137
 20
77.0750342858
 30
0.0
 11
214.1119245638
 21
78.3411997557
 31
0.0
  0
LINE
  5
1AE
330
1F
100
AcDbEntity
  8
0
  6
Continuous
 62
     7
370
    25
100
AcDbLine
 10
205.8203281144
 20
46.7557545595
 30
0.0
 11
207.2197167546
 21
45.9479046931
 31
0.0
  0
LINE
  5
1AF
330
1F
100
AcDbEntity
  8
0
  6
Continuous
 62
     7
370
    25
100
AcDbLine
 10
206.935630532
 20
77.9305223118
 30
0.0
 11
200.7452482782
 21
81.0147416314
 31
0.0
  0
LINE
  5
1B0
330
1F
100
AcDbEntity
  8
0
  6
Continuous
 62
     7
370
    25
100
AcDbLine
 10
189.3635504482
 20
61.298926251
 30
0.0
 11
195.1301125546
 21
57.4805486759
 31
0.0
  0
SPLINE
  5
1B1
330
1F
100
AcDbEntity
  8
0
  6
Continuous
 62
     7
370
    25
100
AcDbSpline
210
0.0
220
0.0
230
1.0
 70
     8
 71
     3
 72
    10
 73
     6
 74
     0
 42
0.000000001
 43
0.00000001
 40
0.0
 40
0.0
 40
0.0
 40
0.0
 40
0.1735486400841584
 40
0.6275620152515919
 40
1.0
 40
1.0
 40
1.0
 40
1.0
 10
225.1002511833499
 20
71.03061714705565
 30
0.0
 10
225.0391458590208
 20
71.14387592819767
 30
0.0
 10
224.8181854385879
 20
71.55342629346679
 30
0.0
 10
224.3762901345979
 20
72.10910273661852
 30
0.0
 10
223.9524720287969
 20
72.48627548549894
 30
0.0
 10
223.7614795894591
 20
72.65624732571631
 30
0.0
  0
SPLINE
  5
1B2
330
1F
100
AcDbEntity
  8
0
  6
Continuous
 62
     7
370
    25
100
AcDbSpline
210
0.0
220
0.0
230
1.0
 70
     8
 71
     3
 72
    10
 73
     6
 74
     0
 42
0.000000001
 43
0.00000001
 40
0.0
 40
0.0
 40
0.0
 40
0.0
 40
0.1260696797622295
 40
0.6661387957515682
 40
1.0
 40
1.0
 40
1.0
 40
1.0
 10
225.8673916563325
 20
69.25178618810581
 30
0.0
 10
225.8438074478227
 20
69.3345525460188
 30
0.0
 10
225.7191909953568
 20
69.7718811891381
 30
0.0
 10
225.4799485271032
 20
70.38520949494317
 30
0.0
 10
225.2052082143154
 20
70.85221170903348
 30
0.0
 10
225.1002511833499
 20
71.03061714705565
 30
0.0
  0
SPLINE
  5
1B3
330
1F
100
AcDbEntity
  8
0
  6
Continuous
 62
     7
370
    25
100
AcDbSpline
210
0.0
220
0.0
230
1.0
 70
     8
 71
     3
 72
    23
 73
    19
 74
     0
 42
0.000000001
 43
0.00000001
 40
0.0
 40
0.0
 40
0.0
 40
0.0
 40
0.0601079457194862
 40
0.1213773189876306
 40
0.1831215308034032
 40
0.2456873224572539
 40
0.309093974077255
 40
0.3731256983736104
 40
0.4375028287115194
 40
0.5020020712014241
 40
0.5664690570057004
 40
0.6308636972263374
 40
0.695181773327965
 40
0.7594371822005769
 40
0.8236520558213932
 40
0.8878520365528609
 40
0.9520635913551126
 40
1.0
 40
1.0
 40
1.0
 40
1.0
 10
200.8611534286474
 20
80.95307901898617
 30
0.0
 10
200.6238801599794
 20
81.0652584235307
 30
0.0
 10
200.144748942407
 20
81.29178480379976
 30
0.0
 10
199.3434091766739
 20
81.45927325408624
 30
0.0
 10
198.4926404844597
 20
81.49855788203614
 30
0.0
 10
197.5983739785428
 20
81.39524394209374
 30
0.0
 10
196.6719081648809
 20
81.15268370161034
 30
0.0
 10
195.7247583660876
 20
80.7718335990399
 30
0.0
 10
194.770822726431
 20
80.25793390766222
 30
0.0
 10
193.8241676264946
 20
79.61877503125372
 30
0.0
 10
192.8981210942626
 20
78.86423323581742
 30
0.0
 10
192.0050308497493
 20
78.00545149487486
 30
0.0
 10
191.1562031810811
 20
77.05442146360639
 30
0.0
 10
190.3626636169372
 20
76.0240004582581
 30
0.0
 10
189.6334058177273
 20
74.92799659550069
 30
0.0
 10
188.9818241211659
 20
73.78039492182992
 30
0.0
 10
188.4504698913463
 20
72.69782159805477
 30
0.0
 10
188.181375508752
 20
71.99673514506904
 30
0.0
 10
188.0663540862348
 20
71.69706348209176
 30
0.0
  0
LINE
  5
1B4
330
1F
100
AcDbEntity
  8
0
  6
Continuous
 62
     7
370
    25
100
AcDbLine
 10
188.1793642751
 20
69.8550666691
 30
0.0
 11
190.7329246054
 21
68.3809276683
 31
0.0
  0
LINE
  5
1B5
330
1F
100
AcDbEntity
  8
0
  6
Continuous
 62
     7
370
    25
100
AcDbLine
 10
187.8810719304
 20
70.9833763425
 30
0.0
 11
187.8810719304
 21
70.5179703731
 31
0.0
  0
LINE
  5
1B6
330
1F
100
AcDbEntity
  8
0
  6
Continuous
 62
     7
370
    25
100
AcDbLine
 10
187.8810719304
 20
63.5120276777
 30
0.0
 11
187.8810719304
 21
63.0466217083
 31
0.0
  0
SPLINE
  5
1B7
330
1F
100
AcDbEntity
  8
0
  6
Continuous
 62
     7
370
    25
100
AcDbSpline
210
0.0
220
0.0
230
1.0
 70
     8
 71
     3
 72
    10
 73
     6
 74
     0
 42
0.000000001
 43
0.00000001
 40
0.0
 40
0.0
 40
0.0
 40
0.0
 40
0.351702100038444
 40
0.7548384633759523
 40
1.0
 40
1.0
 40
1.0
 40
1.0
 10
187.9951588394768
 20
62.76058461357398
 30
0.0
 10
188.1315161371196
 20
62.55053591647662
 30
0.0
 10
188.4241721463145
 20
62.09972019563287
 30
0.0
 10
188.9108452058667
 20
61.60606341171363
 30
0.0
 10
189.2822684834464
 20
61.37108043892805
 30
0.0
 10
189.4227265991905
 20
61.28221884198008
 30
0.0
  0
LWPOLYLINE
  5
1B8
330
1F
100
AcDbEntity
  8
0
  6
Continuous
 62
     7
370
    25
100
AcDbPolyline
 90
       10
 70
   128
 43
0.0
 10
268.555100796
 20
36.5197992735
 10
268.5998785298
 20
36.6501379361
 10
268.8903829272
 20
37.3038463089
 10
269.2731665322
 20
37.9164221858
 10
269.7259837116
 20
38.4522651583
 10
270.222517051
 20
38.8802327478
 10
270.7339111057
 20
39.1754542516
 10
271.2304444451
 20
39.3207718531
 10
271.6832616244
 20
39.3077404675
 10
271.9780920007
 20
39.194228165
  0
LWPOLYLINE
  5
1B9
330
1F
100
AcDbEntity
  8
0
  6
Continuous
 62
     7
370
    25
100
AcDbPolyline
 90
       15
 70
   128
 43
0.0
 10
271.6802961985
 20
34.7183423853
 10
271.7421302351
 20
35.1589848569
 10
271.9201723526
 20
35.6178702903
 10
272.1929487318
 20
36.0396507418
 10
272.5275591476
 20
36.3734537131
 10
272.8836433827
 20
36.5790167665
 10
273.2182537985
 20
36.6315467579
 10
273.4910301777
 20
36.5247072102
 10
273.6690729538
 20
36.2713852103
 10
273.7309063318
 20
35.9021344176
 10
273.6690729538
 20
35.4614923262
 10
273.4910301777
 20
35.0026065126
 10
273.2182537985
 20
34.5808260611
 10
272.8836433827
 20
34.2470230898
 10
272.7034445319
 20
34.1250117502
  0
SPLINE
  5
1BA
330
1F
100
AcDbEntity
  8
0
  6
Continuous
 62
     7
370
    25
100
AcDbSpline
210
0.0
220
0.0
230
1.0
 70
     8
 71
     3
 72
     9
 73
     5
 74
     0
 42
0.000000001
 43
0.00000001
 40
0.0
 40
0.0
 40
0.0
 40
0.0
 40
0.8709499822299301
 40
1.0
 40
1.0
 40
1.0
 40
1.0
 10
271.7060933625382
 20
34.70866710062521
 30
0.0
 10
271.690864057796
 20
34.76304002899058
 30
0.0
 10
271.6733782032086
 20
34.82546947898742
 30
0.0
 10
271.6823547632196
 20
34.87327985285526
 30
0.0
 10
271.6835131884484
 20
34.87944978245251
 30
0.0
  0
SPLINE
  5
1BB
330
1F
100
AcDbEntity
  8
0
  6
Continuous
 62
     7
370
    25
100
AcDbSpline
210
0.0
220
0.0
230
1.0
 70
     8
 71
     3
 72
    10
 73
     6
 74
     0
 42
0.000000001
 43
0.00000001
 40
0.0
 40
0.0
 40
0.0
 40
0.0
 40
0.4391253862650267
 40
0.7513738763982162
 40
1.0
 40
1.0
 40
1.0
 40
1.0
 10
273.5848009887124
 20
35.23390954158774
 30
0.0
 10
273.3977256739188
 20
35.1114458610736
 30
0.0
 10
273.0776268847087
 20
34.90190204232847
 30
0.0
 10
272.8089323889595
 20
34.48378993696014
 30
0.0
 10
272.7340928044497
 20
34.24168705510201
 30
0.0
 10
272.7009176966217
 20
34.13436698827216
 30
0.0
  0
SPLINE
  5
1BC
330
1F
100
AcDbEntity
  8
0
  6
Continuous
 62
     7
370
    25
100
AcDbSpline
210
0.0
220
0.0
230
1.0
 70
     8
 71
     3
 72
    11
 73
     7
 74
     0
 42
0.000000001
 43
0.00000001
 40
0.0
 40
0.0
 40
0.0
 40
0.0
 40
0.1842418236192068
 40
0.5169669991724968
 40
0.8653137193233298
 40
0.9999999999999999
 40
0.9999999999999999
 40
0.9999999999999999
 40
0.9999999999999999
 10
273.5848009887124
 20
36.4124847213355
 30
0.0
 10
273.5573188053738
 20
36.36000390901971
 30
0.0
 10
273.4802061195992
 20
36.21274718129047
 30
0.0
 10
273.4227400656291
 20
35.88876445564728
 30
0.0
 10
273.4913587489723
 20
35.51605204546075
 30
0.0
 10
273.5644270290425
 20
35.29542733066328
 30
0.0
 10
273.5848009887124
 20
35.23390954158774
 30
0.0
  0
SPLINE
  5
1BD
330
1F
100
AcDbEntity
  8
0
  6
Continuous
 62
     7
370
    25
100
AcDbSpline
210
0.0
220
0.0
230
1.0
 70
     8
 71
     3
 72
    10
 73
     6
 74
     0
 42
0.000000001
 43
0.00000001
 40
0.0
 40
0.0
 40
0.0
 40
0.0
 40
0.439125404033696
 40
0.7513739128717637
 40
1.0
 40
1.0
 40
1.0
 40
1.0
 10
272.7009176966217
 20
36.49151734776769
 30
0.0
 10
272.7669172511023
 20
36.51515066881458
 30
0.0
 10
272.8798470498394
 20
36.55558891435003
 30
0.0
 10
273.2406296371062
 20
36.50086611842454
 30
0.0
 10
273.4790938803201
 20
36.43962975208355
 30
0.0
 10
273.5848009887124
 20
36.4124847213355
 30
0.0
  0
SPLINE
  5
1BE
330
1F
100
AcDbEntity
  8
0
  6
Continuous
 62
     7
370
    25
100
AcDbSpline
210
0.0
220
0.0
230
1.0
 70
     8
 71
     3
 72
     9
 73
     5
 74
     0
 42
0.000000001
 43
0.00000001
 40
0.0
 40
0.0
 40
0.0
 40
0.0
 40
0.3723147224654108
 40
1.0
 40
1.0
 40
1.0
 40
1.0
 10
271.7429738306187
 20
35.11094651828184
 30
0.0
 10
271.8045560008486
 20
35.22307391541957
 30
0.0
 10
271.969959533167
 20
35.52423685733933
 30
0.0
 10
272.2551794725949
 20
35.753947097931
 30
0.0
 10
272.4342078294332
 20
35.89813283404931
 30
0.0
  0
SPLINE
  5
1BF
330
1F
100
AcDbEntity
  8
0
  6
Continuous
 62
     7
370
    25
100
AcDbSpline
210
0.0
220
0.0
230
1.0
 70
     8
 71
     3
 72
     9
 73
     5
 74
     0
 42
0.000000001
 43
0.00000001
 40
0.0
 40
0.0
 40
0.0
 40
0.0
 40
0.4011294918046385
 40
1.0
 40
1.0
 40
1.0
 40
1.0
 10
272.4342078294332
 20
35.89813283404931
 30
0.0
 10
272.4229261454986
 20
35.94614055984272
 30
0.0
 10
272.3948013524704
 20
36.06582192651913
 30
0.0
 10
272.3914365909662
 20
36.17637493203911
 30
0.0
 10
272.3894215345343
 20
36.24258186663737
 30
0.0
  0
LINE
  5
1C0
330
1F
100
AcDbEntity
  8
0
  6
Continuous
 62
     7
370
    25
100
AcDbLine
 10
271.7060940211
 20
34.7086664719
 30
0.0
 11
272.7009176966
 21
34.1343669883
 31
0.0
  0
LINE
  5
1C1
330
1F
100
AcDbEntity
  8
0
  6
Continuous
 62
     7
370
    25
100
AcDbLine
 10
272.4342078294
 20
35.898132834
 30
0.0
 11
273.5848009887
 21
35.2339095416
 31
0.0
  0
LINE
  5
1C2
330
1F
100
AcDbEntity
  8
0
  6
Continuous
 62
     7
370
    25
100
AcDbLine
 10
255.570872443
 20
23.7839100561
 30
0.0
 11
255.4725998217
 21
23.8336524097
 31
0.0
  0
LWPOLYLINE
  5
1C3
330
1F
100
AcDbEntity
  8
0
  6
Continuous
 62
     7
370
    25
100
AcDbPolyline
 90
       11
 70
   128
 43
0.0
 10
252.8005442853
 20
26.3909801046
 10
252.8621860268
 20
27.0127981251
 10
253.0435287695
 20
27.6696483746
 10
253.3340338254
 20
28.3233571275
 10
253.7168174304
 20
28.9359330044
 10
254.1696346098
 20
29.4717759769
 10
254.6661679492
 20
29.8997435664
 10
255.1775620039
 20
30.1949650703
 10
255.6740953433
 20
30.3402826717
 10
256.1269125226
 20
30.3272512861
 10
256.4217428989
 20
30.2137389836
  0
ARC
  5
1C4
330
1F
100
AcDbEntity
  8
0
  6
Continuous
 62
     7
370
    25
100
AcDbCircle
 10
254.2452039573
 20
26.2172528829
 30
0.0
 40
1.455067941921234
100
AcDbArc
 50
173.142836792
 51
235.5450278174
  0
LWPOLYLINE
  5
1C5
330
1F
100
AcDbEntity
  8
0
  6
Continuous
 62
     7
370
    25
100
AcDbPolyline
 90
       19
 70
   128
 43
0.0
 10
256.1239470967
 20
25.737853204
 10
256.1857804747
 20
26.1784952953
 10
256.3638232508
 20
26.6373811089
 10
256.63659963
 20
27.0591615604
 10
256.9712100458
 20
27.3929645317
 10
257.3272942809
 20
27.5985275851
 10
257.6619046967
 20
27.6510575765
 10
257.9346810759
 20
27.5442180288
 10
258.1127231934
 20
27.2908956487
 10
258.17455723
 20
26.9216452362
 10
258.1127231934
 20
26.4810027646
 10
257.9346810759
 20
26.0221173312
 10
257.6619046967
 20
25.6003368797
 10
257.3272942809
 20
25.2665339084
 10
256.9712100458
 20
25.060970855
 10
256.63659963
 20
25.0084408636
 10
256.3638232508
 20
25.1152804114
 10
256.1857804747
 20
25.3686024113
 10
256.1239470967
 20
25.737853204
  0
SPLINE
  5
1C6
330
1F
100
AcDbEntity
  8
0
  6
Continuous
 62
     7
370
    25
100
AcDbSpline
210
0.0
220
0.0
230
1.0
 70
     8
 71
     3
 72
    10
 73
     6
 74
     0
 42
0.000000001
 43
0.00000001
 40
0.0
 40
0.0
 40
0.0
 40
0.0
 40
0.269377591074743
 40
0.9660840400284054
 40
1.0
 40
1.0
 40
1.0
 40
1.0
 10
256.2606853027206
 20
25.2329104333163
 30
0.0
 10
256.2410062999035
 20
25.29394486326002
 30
0.0
 10
256.1704303827703
 20
25.51283607995559
 30
0.0
 10
256.1031958963168
 20
25.75878845542635
 30
0.0
 10
256.1261008251765
 20
25.89274237438806
 30
0.0
 10
256.1271640866381
 20
25.89896060106445
 30
0.0
  0
SPLINE
  5
1C7
330
1F
100
AcDbEntity
  8
0
  6
Continuous
 62
     7
370
    25
100
AcDbSpline
210
0.0
220
0.0
230
1.0
 70
     8
 71
     3
 72
    10
 73
     6
 74
     0
 42
0.000000001
 43
0.00000001
 40
0.0
 40
0.0
 40
0.0
 40
0.0
 40
0.439125404033696
 40
0.7513739128717637
 40
1.0
 40
1.0
 40
1.0
 40
1.0
 10
257.1445685948113
 20
25.15387780688411
 30
0.0
 10
256.9574932784433
 20
25.20014003540621
 30
0.0
 10
256.6373944839532
 20
25.27929790544409
 30
0.0
 10
256.3687000151666
 20
25.28085936214193
 30
0.0
 10
256.2938604140807
 20
25.24763723318797
 30
0.0
 10
256.2606853027206
 20
25.2329104333163
 30
0.0
  0
SPLINE
  5
1C8
330
1F
100
AcDbEntity
  8
0
  6
Continuous
 62
     7
370
    25
100
AcDbSpline
210
0.0
220
0.0
230
1.0
 70
     8
 71
     3
 72
    10
 73
     6
 74
     0
 42
0.000000001
 43
0.00000001
 40
0.0
 40
0.0
 40
0.0
 40
0.0
 40
0.4391253862650267
 40
0.7513738763982162
 40
1.0
 40
1.0
 40
1.0
 40
1.0
 10
258.028451886902
 20
26.25342036019967
 30
0.0
 10
257.8413765721085
 20
26.13095667968553
 30
0.0
 10
257.5212777828983
 20
25.9214128609404
 30
0.0
 10
257.2525832871492
 20
25.50330075557207
 30
0.0
 10
257.1777437026394
 20
25.26119787371395
 30
0.0
 10
257.1445685948113
 20
25.1538778068841
 30
0.0
  0
SPLINE
  5
1C9
330
1F
100
AcDbEntity
  8
0
  6
Continuous
 62
     7
370
    25
100
AcDbSpline
210
0.0
220
0.0
230
1.0
 70
     8
 71
     3
 72
    11
 73
     7
 74
     0
 42
0.000000001
 43
0.00000001
 40
0.0
 40
0.0
 40
0.0
 40
0.0
 40
0.1842418236192068
 40
0.5169669991724968
 40
0.8653137193233298
 40
0.9999999999999999
 40
0.9999999999999999
 40
0.9999999999999999
 40
0.9999999999999999
 10
258.028451886902
 20
27.43199553994743
 30
0.0
 10
258.0009697035634
 20
27.37951472763164
 30
0.0
 10
257.9238570177888
 20
27.2322579999024
 30
0.0
 10
257.8663909638187
 20
26.90827527425921
 30
0.0
 10
257.9350096471619
 20
26.53556286407269
 30
0.0
 10
258.0080779272321
 20
26.31493814927521
 30
0.0
 10
258.028451886902
 20
26.25342036019968
 30
0.0
  0
SPLINE
  5
1CA
330
1F
100
AcDbEntity
  8
0
  6
Continuous
 62
     7
370
    25
100
AcDbSpline
210
0.0
220
0.0
230
1.0
 70
     8
 71
     3
 72
    10
 73
     6
 74
     0
 42
0.000000001
 43
0.00000001
 40
0.0
 40
0.0
 40
0.0
 40
0.0
 40
0.439125404033696
 40
0.7513739128717637
 40
1.0
 40
1.0
 40
1.0
 40
1.0
 10
257.1445685948113
 20
27.51102816637962
 30
0.0
 10
257.2105681492919
 20
27.53466148742652
 30
0.0
 10
257.3234979480291
 20
27.57509973296196
 30
0.0
 10
257.6842805352957
 20
27.52037693703647
 30
0.0
 10
257.9227447785098
 20
27.45914057069549
 30
0.0
 10
258.028451886902
 20
27.43199553994743
 30
0.0
  0
SPLINE
  5
1CB
330
1F
100
AcDbEntity
  8
0
  6
Continuous
 62
     7
370
    25
100
AcDbSpline
210
0.0
220
0.0
230
1.0
 70
     8
 71
     3
 72
     9
 73
     5
 74
     0
 42
0.000000001
 43
0.00000001
 40
0.0
 40
0.0
 40
0.0
 40
0.0
 40
0.3723147224654108
 40
1.0
 40
1.0
 40
1.0
 40
1.0
 10
256.1866247288084
 20
26.13045733689377
 30
0.0
 10
256.2482068990383
 20
26.2425847340315
 30
0.0
 10
256.4136104313566
 20
26.54374767595127
 30
0.0
 10
256.6988303707845
 20
26.77345791654294
 30
0.0
 10
256.8778587276228
 20
26.91764365266125
 30
0.0
  0
SPLINE
  5
1CC
330
1F
100
AcDbEntity
  8
0
  6
Continuous
 62
     7
370
    25
100
AcDbSpline
210
0.0
220
0.0
230
1.0
 70
     8
 71
     3
 72
     9
 73
     5
 74
     0
 42
0.000000001
 43
0.00000001
 40
0.0
 40
0.0
 40
0.0
 40
0.0
 40
0.4011294918046385
 40
1.0
 40
1.0
 40
1.0
 40
1.0
 10
256.8778587276228
 20
26.91764365266125
 30
0.0
 10
256.8665770436883
 20
26.96565137845465
 30
0.0
 10
256.83845225066
 20
27.08533274513107
 30
0.0
 10
256.8350874891559
 20
27.19588575065104
 30
0.0
 10
256.833072432724
 20
27.2620926852493
 30
0.0
  0
LINE
  5
1CD
330
1F
100
AcDbEntity
  8
0
  6
Continuous
 62
     7
370
    25
100
AcDbLine
 10
256.1497449193
 20
25.7281772905
 30
0.0
 11
257.1445685948
 21
25.1538778069
 31
0.0
  0
LINE
  5
1CE
330
1F
100
AcDbEntity
  8
0
  6
Continuous
 62
     7
370
    25
100
AcDbLine
 10
256.8778587276
 20
26.9176436527
 30
0.0
 11
258.0284518869
 21
26.2534203602
 31
0.0
  0
LINE
  5
1CF
330
1F
100
AcDbEntity
  8
0
  6
Continuous
 62
     7
370
    25
100
AcDbLine
 10
278.0959041315
 20
28.411073217
 30
0.0
 11
278.1727561109
 21
28.3696396947
 31
0.0
  0
LWPOLYLINE
  5
1D0
330
1F
100
AcDbEntity
  8
0
  6
Continuous
 62
     7
370
    25
100
AcDbPolyline
 90
       18
 70
   128
 43
0.0
 10
274.1422477195
 20
30.6964026626
 10
273.6602441768
 20
30.8748998236
 10
273.1101216958
 20
30.8968749705
 10
272.5132041121
 20
30.7613782807
 10
271.8924305067
 20
30.4736162021
 10
271.2716569013
 20
30.0446483319
 10
270.6747393176
 20
29.4909586494
 10
270.1246168366
 20
28.8338256055
 10
269.6424305478
 20
28.0985022842
 10
269.2467103298
 20
27.313246936
 10
268.9526637862
 20
26.5082363432
 10
268.7715907176
 20
25.7144066921
 10
268.7104501283
 20
24.9622645342
 10
268.7715907176
 20
24.2807137981
 10
268.9526637862
 20
23.695946662
 10
269.2467103298
 20
23.2304349821
 10
269.6424305478
 20
22.9020684724
 10
269.6426132939
 20
22.9019627509
  0
LINE
  5
1D1
330
1F
100
AcDbEntity
  8
0
  6
Continuous
 62
     7
370
    25
100
AcDbLine
 10
276.1350692551
 20
26.73421693
 30
0.0
 11
274.346972908
 21
24.5098421611
 31
0.0
  0
LINE
  5
1D2
330
1F
100
AcDbEntity
  8
0
  6
Continuous
 62
     7
370
    25
100
AcDbLine
 10
274.346972908
 20
24.5098421611
 30
0.0
 11
274.346972908
 21
22.1255847216
 31
0.0
  0
LINE
  5
1D3
330
1F
100
AcDbEntity
  8
0
  6
Continuous
 62
     7
370
    25
100
AcDbLine
 10
276.1350692551
 20
21.965702051
 30
0.0
 11
274.346972908
 21
22.1255847216
 31
0.0
  0
LINE
  5
1D4
330
1F
100
AcDbEntity
  8
0
  6
Continuous
 62
     7
370
    25
100
AcDbLine
 10
277.9231656021
 20
24.1900768199
 30
0.0
 11
276.1350692551
 21
21.965702051
 31
0.0
  0
LINE
  5
1D5
330
1F
100
AcDbEntity
  8
0
  6
Continuous
 62
     7
370
    25
100
AcDbLine
 10
277.9231656021
 20
24.1900768199
 30
0.0
 11
277.9231656021
 21
26.5743342594
 31
0.0
  0
LINE
  5
1D6
330
1F
100
AcDbEntity
  8
0
  6
Continuous
 62
     7
370
    25
100
AcDbLine
 10
276.1350692551
 20
26.73421693
 30
0.0
 11
277.9231656021
 21
26.5743342594
 31
0.0
  0
ARC
  5
1D7
330
1F
100
AcDbEntity
  8
0
  6
Continuous
 62
     7
370
    25
100
AcDbCircle
 10
271.8051530402
 20
26.8532904376
 30
0.0
 40
4.016582236069652
100
AcDbArc
 50
320.5752194831
 51
352.0264209578
  0
ARC
  5
1D8
330
1F
100
AcDbEntity
  8
0
  6
Continuous
 62
     7
370
    25
100
AcDbCircle
 10
272.0947285175
 20
26.5378051392
 30
0.0
 40
3.593041167567894
100
AcDbArc
 50
308.8170289619
 51
321.5288581364
  0
LINE
  5
1D9
330
1F
100
AcDbEntity
  8
0
  6
Continuous
 62
     7
370
    25
100
AcDbLine
 10
274.3469734019
 20
22.9979478151
 30
0.0
 11
276.1350692551
 21
21.965702051
 31
0.0
  0
LINE
  5
1DA
330
1F
100
AcDbEntity
  8
0
  6
Continuous
 62
     7
370
    25
100
AcDbLine
 10
275.8018462279
 20
25.4146884281
 30
0.0
 11
277.9231656021
 21
24.1900768199
 31
0.0
  0
LINE
  5
1DB
330
1F
100
AcDbEntity
  8
0
  6
Continuous
 62
     7
370
    25
100
AcDbLine
 10
275.8018462279
 20
25.4146884281
 30
0.0
 11
275.8018462279
 21
26.3196889126
 31
0.0
  0
LINE
  5
1DC
330
1F
100
AcDbEntity
  8
0
  6
Continuous
 62
     7
370
    25
100
AcDbLine
 10
274.9077980544
 20
24.3025009961
 30
0.0
 11
274.3469739576
 21
23.6048410728
 31
0.0
  0
LINE
  5
1DD
330
1F
100
AcDbEntity
  8
0
  6
Continuous
 62
     7
370
    25
100
AcDbLine
 10
275.8018462279
 20
25.4146884281
 30
0.0
 11
274.9077980544
 21
24.3025009961
 31
0.0
  0
ARC
  5
1DE
330
1F
100
AcDbEntity
  8
0
  6
Continuous
 62
     7
370
    25
100
AcDbCircle
 10
267.082037135
 20
40.3477882295
 30
0.0
 40
5.159554042449536
100
AcDbArc
 50
28.0367121951
 51
91.3573866671
  0
ARC
  5
1DF
330
1F
100
AcDbEntity
  8
0
  6
Continuous
 62
     7
370
    25
100
AcDbCircle
 10
257.7559787373
 20
24.1928102239
 30
0.0
 40
5.163330437655659
100
AcDbArc
 50
208.3625114944
 51
272.2427067052
  0
ARC
  5
1E0
330
1F
100
AcDbEntity
  8
0
  6
Continuous
 62
     7
370
    25
100
AcDbCircle
 10
226.0484871138
 20
64.0932899016
 30
0.0
 40
5.121673179897968
100
AcDbArc
 50
60.3303784497
 51
84.6441649283
  0
ARC
  5
1E1
330
1F
100
AcDbEntity
  8
0
  6
Continuous
 62
     7
370
    25
100
AcDbCircle
 10
216.6775991547
 20
47.8560869591
 30
0.0
 40
5.131232739219133
100
AcDbArc
 50
215.5084295229
 51
239.6499812955
  0
SPLINE
  5
1E2
330
1F
100
AcDbEntity
  8
0
  6
Continuous
 62
     7
370
    25
100
AcDbSpline
210
0.0
220
0.0
230
1.0
 70
    11
 71
     3
 72
    70
 73
    66
 74
     0
 42
0.000000001
 43
0.00000001
 40
0.0
 40
0.0
 40
0.0
 40
0.0
 40
0.03125
 40
0.03125
 40
0.0625
 40
0.0625
 40
0.09375
 40
0.09375
 40
0.125
 40
0.125
 40
0.15625
 40
0.15625
 40
0.1875
 40
0.1875
 40
0.21875
 40
0.21875
 40
0.25
 40
0.25
 40
0.28125
 40
0.28125
 40
0.3125
 40
0.3125
 40
0.34375
 40
0.34375
 40
0.375
 40
0.375
 40
0.40625
 40
0.40625
 40
0.4375
 40
0.4375
 40
0.46875
 40
0.46875
 40
0.5
 40
0.5
 40
0.53125
 40
0.53125
 40
0.5625
 40
0.5625
 40
0.59375
 40
0.59375
 40
0.625
 40
0.625
 40
0.65625
 40
0.65625
 40
0.6875
 40
0.6875
 40
0.71875
 40
0.71875
 40
0.75
 40
0.75
 40
0.78125
 40
0.78125
 40
0.8125
 40
0.8125
 40
0.84375
 40
0.84375
 40
0.875
 40
0.875
 40
0.90625
 40
0.90625
 40
0.9375
 40
0.9375
 40
0.96875
 40
0.96875
 40
1.0
 40
1.0
 40
1.0
 40
1.0
 10
222.7962601694852
 20
55.28952055657213
 30
0.0
 10
222.8587518935988
 20
55.38082159295906
 30
0.0
 10
222.9289750175276
 20
55.46399001131916
 30
0.0
 10
223.0838444269689
 20
55.6151032879492
 30
0.0
 10
223.1692176175629
 20
55.6832532362634
 30
0.0
 10
223.3464041286635
 20
55.79887607607072
 30
0.0
 10
223.4392463909401
 20
55.84737452527726
 30
0.0
 10
223.6313825678281
 20
55.92563750279964
 30
0.0
 10
223.7282023662025
 20
55.95446223088477
 30
0.0
 10
223.9229387914031
 20
55.99331686087686
 30
0.0
 10
224.0216983253358
 20
56.00323564116994
 30
0.0
 10
224.2135375481503
 20
56.00412730283406
 30
0.0
 10
224.3071520448414
 20
55.99536314670024
 30
0.0
 10
224.48967288327
 20
55.95995875781175
 30
0.0
 10
224.5784502663728
 20
55.93310923061102
 30
0.0
 10
224.7446600630932
 20
55.86365413181438
 30
0.0
 10
224.8229929994746
 20
55.82092109629308
 30
0.0
 10
224.9699118564736
 20
55.71913145404325
 30
0.0
 10
225.0377461006705
 20
55.66037445930377
 30
0.0
 10
225.158580585514
 20
55.53063222387799
 30
0.0
 10
225.2122213989877
 20
55.45923559948315
 30
0.0
 10
225.3053864014884
 20
55.30252050841978
 30
0.0
 10
225.3440886892945
 20
55.21828189378954
 30
0.0
 10
225.4040814872685
 20
55.04184559302297
 30
0.0
 10
225.4257392693961
 20
54.94908234684873
 30
0.0
 10
225.4510883631275
 20
54.75335055136199
 30
0.0
 10
225.4543465100431
 20
54.65302008387022
 30
0.0
 10
225.4420323713236
 20
54.44985435518099
 30
0.0
 10
225.4262990902696
 20
54.34568399381561
 30
0.0
 10
225.3750488281777
 20
54.13748537758777
 30
0.0
 10
225.3402574287688
 20
54.03571289665265
 30
0.0
 10
225.2524104325958
 20
53.83674525671616
 30
0.0
 10
225.1985434627884
 20
53.73865647783659
 30
0.0
 10
225.0772185244877
 20
53.55701633854619
 30
0.0
 10
225.0094566556129
 20
53.47232165758126
 30
0.0
 10
224.8594340642634
 20
53.31539992341703
 30
0.0
 10
224.7799150814658
 20
53.2460382786369
 30
0.0
 10
224.6124129891145
 20
53.12428082217784
 30
0.0
 10
224.5236632661247
 20
53.07170549401371
 30
0.0
 10
224.3445908733897
 20
52.98728310650074
 30
0.0
 10
224.2535540535025
 20
52.95476417663103
 30
0.0
 10
224.0682053904087
 20
52.90876874012819
 30
0.0
 10
223.9760002713108
 20
52.89587822076042
 30
0.0
 10
223.7938964406896
 20
52.88927409613886
 30
0.0
 10
223.702946420333
 20
52.89566048349686
 30
0.0
 10
223.5263864114379
 20
52.92736191887066
 30
0.0
 10
223.4413249240968
 20
52.95238447915258
 30
0.0
 10
223.2773082850219
 20
53.02025519505238
 30
0.0
 10
223.1976724621752
 20
53.06366597200996
 30
0.0
 10
223.0495613644022
 20
53.16607719290767
 30
0.0
 10
222.9807714862225
 20
53.22498551449509
 30
0.0
 10
222.8538590071285
 20
53.35821159514257
 30
0.0
 10
222.7953331317363
 20
53.43335895614739
 30
0.0
 10
222.6939392289269
 20
53.59424813004674
 30
0.0
 10
222.6505584548342
 20
53.68027317916236
 30
0.0
 10
222.5792550432728
 20
53.86376471750702
 30
0.0
 10
222.5513186734964
 20
53.96216372964881
 30
0.0
 10
222.514855553229
 20
54.16246330167306
 30
0.0
 10
222.5058433217374
 20
54.26516471803262
 30
0.0
 10
222.5078782035354
 20
54.47586844173241
 30
0.0
 10
222.5192886659774
 20
54.58390827792097
 30
0.0
 10
222.5627023107943
 20
54.79407794774198
 30
0.0
 10
222.5946208108883
 20
54.89762702588182
 30
0.0
 10
222.6807998491961
 20
55.10130311676649
 30
0.0
 10
222.7337684453717
 20
55.19821952018521
 30
0.0
 10
222.7962601694852
 20
55.28952055657213
 30
0.0
  0
SPLINE
  5
1E3
330
1F
100
AcDbEntity
  8
0
  6
Continuous
 62
     7
370
    25
100
AcDbSpline
210
0.0
220
0.0
230
1.0
 70
     8
 71
     3
 72
    20
 73
    16
 74
     0
 42
0.000000001
 43
0.00000001
 40
0.0
 40
0.0
 40
0.0
 40
0.0
 40
0.0725820242685618
 40
0.1391798728468477
 40
0.2172383632839513
 40
0.2896918413114259
 40
0.360492441282412
 40
0.4346609964610028
 40
0.5152401315915629
 40
0.602493917740985
 40
0.6940829747682037
 40
0.7864237144825394
 40
0.8754117226256632
 40
0.9571595984601837
 40
1.0
 40
1.0
 40
1.0
 40
1.0
 10
223.9896850178103
 20
37.7811276901647
 30
0.0
 10
223.8407616210688
 20
37.8573206818445
 30
0.0
 10
223.5551931262343
 20
38.00342477580828
 30
0.0
 10
223.1334105320162
 20
38.21764582816785
 30
0.0
 10
222.7839327690032
 20
38.40338168586959
 30
0.0
 10
222.5590109672568
 20
38.53832227815214
 30
0.0
 10
222.4832881018348
 20
38.60483775423994
 30
0.0
 10
222.5513575606656
 20
38.59812560273086
 30
0.0
 10
222.7669869260412
 20
38.50532915766106
 30
0.0
 10
223.1267188714348
 20
38.31439378862095
 30
0.0
 10
223.6002853512618
 20
38.03200938133146
 30
0.0
 10
224.1305133494457
 20
37.69296480823012
 30
0.0
 10
224.6309892513914
 20
37.36581119562656
 30
0.0
 10
225.0038600785346
 20
37.12605858090282
 30
0.0
 10
225.1421731443751
 20
37.04704882058791
 30
0.0
 10
225.1897328940055
 20
37.01988085640388
 30
0.0
  0
LINE
  5
1E4
330
1F
100
AcDbEntity
  8
0
  6
Continuous
 62
     7
370
    25
100
AcDbLine
 10
238.0109359199
 20
63.0594187198
 30
0.0
 11
238.4295298583
 21
62.7884845126
 31
0.0
  0
LWPOLYLINE
  5
1E5
330
1F
100
AcDbEntity
  8
0
  6
Continuous
 62
     7
370
    25
100
AcDbPolyline
 90
       15
 70
   128
 43
0.0
 10
239.6993768668
 20
62.1260078131
 10
239.6891318899
 20
62.1324257713
 10
239.379598849
 20
62.3008722653
 10
238.9858215019
 20
62.5037303472
 10
238.5253520354
 20
62.738347953
 10
238.0306613036
 20
62.9971853227
 10
237.5631737282
 20
63.2582674017
 10
237.2003328265
 20
63.4841309086
 10
237.0054846531
 20
63.6311166669
 10
237.0038909754
 20
63.665762203
 10
237.1678158743
 20
63.5873265803
 10
237.4425132279
 20
63.4240325941
 10
237.794129897
 20
63.2002069515
 10
238.0109359199
 20
63.0594187198
 10
238.0109359199
 20
63.0594187198
  0
SPLINE
  5
1E6
330
1F
100
AcDbEntity
  8
0
  6
Continuous
 62
     7
370
    25
100
AcDbSpline
210
0.0
220
0.0
230
1.0
 70
    11
 71
     3
 72
    84
 73
    80
 74
     0
 42
0.000000001
 43
0.00000001
 40
0.0
 40
0.0
 40
0.0
 40
0.0
 40
0.0312499999999996
 40
0.0312499999999996
 40
0.0468749999999994
 40
0.0468749999999994
 40
0.0624999999999992
 40
0.0624999999999992
 40
0.0937499999999988
 40
0.0937499999999988
 40
0.1249999999999984
 40
0.1249999999999984
 40
0.156249999999998
 40
0.156249999999998
 40
0.1718749999999978
 40
0.1718749999999978
 40
0.1874999999999977
 40
0.1874999999999977
 40
0.2187499999999983
 40
0.2187499999999983
 40
0.2499999999999989
 40
0.2499999999999989
 40
0.2656249999999992
 40
0.2656249999999992
 40
0.2812499999999994
 40
0.2812499999999994
 40
0.3125000000000001
 40
0.3125000000000001
 40
0.3281249999999999
 40
0.3281249999999999
 40
0.3437499999999998
 40
0.3437499999999998
 40
0.3749999999999996
 40
0.3749999999999996
 40
0.4062499999999993
 40
0.4062499999999993
 40
0.4374999999999992
 40
0.4374999999999992
 40
0.4687499999999989
 40
0.4687499999999989
 40
0.4999999999999988
 40
0.4999999999999988
 40
0.5312499999999986
 40
0.5312499999999986
 40
0.5624999999999983
 40
0.5624999999999983
 40
0.5937499999999982
 40
0.5937499999999982
 40
0.624999999999998
 40
0.624999999999998
 40
0.6406249999999988
 40
0.6406249999999988
 40
0.6562499999999996
 40
0.6562499999999996
 40
0.6875000000000011
 40
0.6875000000000011
 40
0.7187500000000028
 40
0.7187500000000028
 40
0.7500000000000043
 40
0.7500000000000043
 40
0.7812500000000059
 40
0.7812500000000059
 40
0.7968750000000064
 40
0.7968750000000064
 40
0.812500000000007
 40
0.812500000000007
 40
0.8437500000000082
 40
0.8437500000000082
 40
0.8593750000000081
 40
0.8593750000000081
 40
0.875000000000008
 40
0.875000000000008
 40
0.906250000000006
 40
0.906250000000006
 40
0.937500000000004
 40
0.937500000000004
 40
0.9687500000000021
 40
0.9687500000000021
 40
1.0
 40
1.0
 40
1.0
 40
1.0
 10
255.4452419889834
 20
50.15754154346203
 30
0.0
 10
255.5759322005907
 20
50.08209569021124
 30
0.0
 10
255.6924829391962
 20
50.00359360288962
 30
0.0
 10
255.8468818088595
 20
49.88119699082331
 30
0.0
 10
255.8949186245538
 20
49.83961425343561
 30
0.0
 10
255.9839651891339
 20
49.75474809559771
 30
0.0
 10
256.025135060676
 20
49.71124413701929
 30
0.0
 10
256.1355356187203
 20
49.58039538061738
 30
0.0
 10
256.1924456215557
 20
49.49226892183253
 30
0.0
 10
256.2729457539517
 20
49.3128691354436
 30
0.0
 10
256.2963865108603
 20
49.22062620173385
 30
0.0
 10
256.3064735389575
 20
49.03838273062622
 30
0.0
 10
256.293739799367
 20
48.94785476757271
 30
0.0
 10
256.2472389351166
 20
48.81170730766859
 30
0.0
 10
256.2269715992632
 20
48.76599407288994
 30
0.0
 10
256.1776766672993
 20
48.67590915248434
 30
0.0
 10
256.148713309576
 20
48.63151640210319
 30
0.0
 10
256.0491154442226
 20
48.50000095981736
 30
0.0
 10
255.9659075297323
 20
48.41451198741604
 30
0.0
 10
255.7640363560902
 20
48.24714109413058
 30
0.0
 10
255.6485112988922
 20
48.16793224260218
 30
0.0
 10
255.4553014699837
 20
48.05617435965154
 30
0.0
 10
255.3874923279139
 20
48.02006304814429
 30
0.0
 10
255.2448893249543
 20
47.95020194415875
 30
0.0
 10
255.170005378816
 20
47.91645559844427
 30
0.0
 10
254.9401465323378
 20
47.82124917412662
 30
0.0
 10
254.7783498723433
 20
47.76487882340808
 30
0.0
 10
254.5228896843959
 20
47.69156876062669
 30
0.0
 10
254.4351183120985
 20
47.66893082106448
 30
0.0
 10
254.2586781006458
 20
47.62852117755941
 30
0.0
 10
254.1697792810817
 20
47.61065571451535
 30
0.0
 10
253.9010794039708
 20
47.56413190331349
 30
0.0
 10
253.7183896675022
 20
47.54241756599392
 30
0.0
 10
253.3512823914508
 20
47.52003574467473
 30
0.0
 10
253.1708519956327
 20
47.51951686817467
 30
0.0
 10
252.8157708812014
 20
47.54030861280091
 30
0.0
 10
252.6394643086466
 20
47.56206252923675
 30
0.0
 10
252.3048222092266
 20
47.62739005307376
 30
0.0
 10
252.1455901632041
 20
47.67077088448056
 30
0.0
 10
251.8431142185172
 20
47.77965081014174
 30
0.0
 10
251.7001156666263
 20
47.84545556361473
 30
0.0
 10
251.4420105106221
 20
47.99428773686699
 30
0.0
 10
251.3252089756613
 20
48.0778330148551
 30
0.0
 10
251.1169430611657
 20
48.26350148793096
 30
0.0
 10
251.0275789182683
 20
48.36402108446631
 30
0.0
 10
250.8812751992673
 20
48.57535946242185
 30
0.0
 10
250.8234576785331
 20
48.68736762057636
 30
0.0
 10
250.7420605855751
 20
48.91979098804934
 30
0.0
 10
250.7192101629221
 20
49.03756584831803
 30
0.0
 10
250.7113466948529
 20
49.21546425963162
 30
0.0
 10
250.7131583912464
 20
49.2749715411863
 30
0.0
 10
250.7259788659662
 20
49.3942270791368
 30
0.0
 10
250.7370730839699
 20
49.45405542207183
 30
0.0
 10
250.7836062265625
 20
49.62946680515337
 30
0.0
 10
250.832226162692
 20
49.74240131207587
 30
0.0
 10
250.9650719599593
 20
49.95887014319847
 30
0.0
 10
251.0502649019768
 20
50.06277580613918
 30
0.0
 10
251.2495448327012
 20
50.25018946216112
 30
0.0
 10
251.3642019733889
 20
50.33505222903246
 30
0.0
 10
251.6246938910623
 20
50.48608042426449
 30
0.0
 10
251.7673560472199
 20
50.55021390515132
 30
0.0
 10
251.9959757147688
 20
50.62872262155517
 30
0.0
 10
252.0748073515055
 20
50.65202316931055
 30
0.0
 10
252.2378239999684
 20
50.69287900819119
 30
0.0
 10
252.3221940293944
 20
50.71042264492262
 30
0.0
 10
252.5776145728195
 20
50.75343761469474
 30
0.0
 10
252.7527631230805
 20
50.7699001702423
 30
0.0
 10
253.0227553163427
 20
50.77762450823671
 30
0.0
 10
253.1144740666944
 20
50.77732188046473
 30
0.0
 10
253.297159449046
 20
50.77118266363291
 30
0.0
 10
253.3882473790974
 20
50.76538588605388
 30
0.0
 10
253.6608053267565
 20
50.74037773260708
 30
0.0
 10
253.8419018075917
 20
50.71355182816857
 30
0.0
 10
254.2010307992868
 20
50.64115556510826
 30
0.0
 10
254.3740532104113
 20
50.59664612709452
 30
0.0
 10
254.7078140480601
 20
50.49314540744232
 30
0.0
 10
254.869912600506
 20
50.4335129044577
 30
0.0
 10
255.1732595167607
 20
50.30332918408406
 30
0.0
 10
255.314551777376
 20
50.23298739671281
 30
0.0
 10
255.4452419889834
 20
50.15754154346202
 30
0.0
  0
LWPOLYLINE
  5
1E7
330
1F
100
AcDbEntity
  8
0
  6
Continuous
 62
     7
370
    25
100
AcDbPolyline
 90
       20
 70
   128
 43
0.0
 10
257.3510963843
 20
29.6772348017
 10
257.3807967416
 20
29.9609312041
 10
257.5597025403
 20
30.9693576028
 10
257.8534347936
 20
32.0031709765
 10
258.2554320932
 20
33.0392776334
 10
258.7567148556
 20
34.0545329676
 10
259.3460848606
 20
35.0262574143
 10
260.0103768158
 20
35.9327446053
 10
260.7347512438
 20
36.7537452817
 10
261.5030269652
 20
37.4709189296
 10
262.298042022
 20
38.0682455607
 10
263.1020370329
 20
38.5323820011
 10
263.8970520897
 20
38.8529602164
 10
264.6653278111
 20
39.0228188354
 10
265.3897022391
 20
39.0381630715
 10
266.0539941943
 20
38.8986510463
 10
266.6433641993
 20
38.6073987233
 10
267.1446469617
 20
38.1709121471
 10
267.5466442613
 20
37.5989416929
 10
267.829315601
 20
36.9387866109
  0
ARC
  5
1E8
330
1F
100
AcDbEntity
  8
0
  6
Continuous
 62
     7
370
    25
100
AcDbCircle
 10
260.3316028489
 20
28.0839844797
 30
0.0
 40
2.933880425853363
100
AcDbArc
 50
234.839230647
 51
284.7760411891
  0
LINE
  5
1E9
330
1F
100
AcDbEntity
  8
0
  6
Continuous
 62
     7
370
    25
100
AcDbLine
 10
273.0860681107
 20
33.8985172367
 30
0.0
 11
273.2165435584
 21
33.8288062884
 31
0.0
  0
LWPOLYLINE
  5
1EA
330
1F
100
AcDbEntity
  8
0
  6
Continuous
 62
     7
370
    25
100
AcDbPolyline
 90
        3
 70
   128
 43
0.0
 10
266.546741232
 20
22.0932864744
 10
266.5354646451
 20
22.0992432877
 10
266.4670919201
 20
22.1371462309
  0
ARC
  5
1EB
330
1F
100
AcDbEntity
  8
0
  6
Continuous
 62
     7
370
    25
100
AcDbCircle
 10
261.6053601725
 20
28.0157166404
 30
0.0
 40
2.661553521284162
100
AcDbArc
 50
199.4806523077
 51
238.3608842085
  0
LWPOLYLINE
  5
1EC
330
1F
100
AcDbEntity
  8
0
  6
Continuous
 62
     7
370
    25
100
AcDbPolyline
 90
       16
 70
   128
 43
0.0
 10
258.8140744115
 20
28.6426553959
 10
258.8396654511
 20
29.4604455197
 10
258.9865353643
 20
30.4227664909
 10
259.2542985735
 20
31.4159278601
 10
259.6359142499
 20
32.4138134733
 10
260.1213474923
 20
33.3901828841
 10
260.6978327448
 20
34.3193612114
 10
261.3502109713
 20
35.176914874
 10
262.0613270873
 20
35.9402931942
 10
262.8124817216
 20
36.5894224667
 10
263.583922161
 20
37.1072331037
 10
264.3553626003
 20
37.4801086392
 10
265.1065172347
 20
37.6982440472
 10
265.8176333507
 20
37.7559029183
 10
266.4700115772
 20
37.6515691233
 10
266.9586479801
 20
37.4414125093
  0
LWPOLYLINE
  5
1ED
330
1F
100
AcDbEntity
  8
0
  6
Continuous
 62
     7
370
    25
100
AcDbPolyline
 90
       17
 70
   128
 43
0.0
 10
268.367122065
 20
29.6919975088
 10
268.3106054461
 20
29.9874717329
 10
268.1496599671
 20
30.1727102147
 10
267.9087879291
 20
30.2195114555
 10
267.6246600536
 20
30.1207512299
 10
267.3405320134
 20
29.8914642981
 10
267.0996598107
 20
29.5665580268
 10
266.9387144964
 20
29.1954959453
 10
266.8821978775
 20
28.834769022
 10
266.9387144964
 20
28.539294988
 10
267.0996598107
 20
28.3540566012
 10
267.3405320134
 20
28.3072552654
 10
267.6246600536
 20
28.4060155861
 10
267.9087879291
 20
28.6353024228
 10
268.1496599671
 20
28.9602087892
 10
268.3106054461
 20
29.3312707756
 10
268.367122065
 20
29.6919975088
  0
ARC
  5
1EE
330
1F
100
AcDbEntity
  8
0
  6
Continuous
 62
     7
370
    25
100
AcDbCircle
 10
268.5089885494
 20
28.7085805112
 30
0.0
 40
10.82175447807697
100
AcDbArc
 50
123.0617659664
 51
167.640418844
  0
LINE
  5
1EF
330
1F
100
AcDbEntity
  8
0
  6
Continuous
 62
     7
370
    25
100
AcDbLine
 10
259.2924358737
 20
26.6070023519
 30
0.0
 11
259.079912695
 21
26.8834667144
 31
0.0
  0
LWPOLYLINE
  5
1F0
330
1F
100
AcDbEntity
  8
0
  6
Continuous
 62
     7
370
    25
100
AcDbPolyline
 90
        3
 70
   128
 43
0.0
 10
258.497329979
 20
28.9196125055
 10
258.4934472005
 20
29.2598627295
 10
258.5518907207
 20
30.0478576744
  0
ARC
  5
1F1
330
1F
100
AcDbEntity
  8
0
  6
Continuous
 62
     7
370
    25
100
AcDbCircle
 10
265.2872465164
 20
33.5755794321
 30
0.0
 40
4.257122808335922
100
AcDbArc
 50
83.6534958664
 51
130.4489745389
  0
LWPOLYLINE
  5
1F2
330
1F
100
AcDbEntity
  8
0
  6
Continuous
 62
     7
370
    25
100
AcDbPolyline
 90
       17
 70
   128
 43
0.0
 10
223.4854493418
 20
53.3019352713
 10
223.8712714713
 20
53.18907221
 10
224.2935058437
 20
53.2581976517
 10
224.6878725881
 20
53.4987865306
 10
224.9943322018
 20
53.8742120712
 10
225.1662268063
 20
54.3273203382
 10
225.1773891357
 20
54.7891284171
 10
225.0261208037
 20
55.1893299229
 10
224.7354491361
 20
55.466998418
 10
224.3496270066
 20
55.5798614793
 10
223.9273900001
 20
55.5107375582
 10
223.5330232557
 20
55.2701486793
 10
223.2265643005
 20
54.8947227584
 10
223.0546690374
 20
54.4416148717
 10
223.043506708
 20
53.9798067929
 10
223.1947776742
 20
53.5796037663
 10
223.4854493418
 20
53.3019352713
  0
LINE
  5
1F3
330
1F
100
AcDbEntity
  8
0
  6
Continuous
 62
     7
370
    25
100
AcDbLine
 10
221.9187857868
 20
70.6491454107
 30
0.0
 11
222.1592335575
 21
70.5202464421
 31
0.0
  0
ARC
  5
1F4
330
1F
100
AcDbEntity
  8
0
  6
Continuous
 62
     7
370
    25
100
AcDbCircle
 10
228.7814133509
 20
51.6236249212
 30
0.0
 40
24.54633354191937
100
AcDbArc
 50
125.9314212094
 51
166.2934343292
  0
SPLINE
  5
1F5
330
1F
100
AcDbEntity
  8
0
  6
Continuous
 62
     7
370
    25
100
AcDbSpline
210
0.0
220
0.0
230
1.0
 70
     8
 71
     3
 72
    10
 73
     6
 74
     0
 42
0.000000001
 43
0.00000001
 40
0.0
 40
0.0
 40
0.0
 40
0.0
 40
0.5
 40
0.5
 40
1.0
 40
1.0
 40
1.0
 40
1.0
 10
204.8550724809613
 20
57.10683427038954
 30
0.0
 10
204.7985437951787
 20
57.07420095470692
 30
0.0
 10
204.719900472604
 20
57.05382797924795
 30
0.0
 10
204.5596705582729
 20
57.0507665792866
 30
0.0
 10
204.4785035457322
 20
57.06842577916684
 30
0.0
 10
204.4213896453944
 20
57.10139693202115
 30
0.0
  0
SPLINE
  5
1F6
330
1F
100
AcDbEntity
  8
0
  6
Continuous
 62
     7
370
    25
100
AcDbSpline
210
0.0
220
0.0
230
1.0
 70
     8
 71
     3
 72
    12
 73
     8
 74
     0
 42
0.000000001
 43
0.00000001
 40
0.0
 40
0.0
 40
0.0
 40
0.0
 40
0.2500000000000033
 40
0.2500000000000033
 40
0.5000000000000067
 40
0.5000000000000067
 40
1.0
 40
1.0
 40
1.0
 40
1.0
 10
222.1121115517392
 20
73.62535881027627
 30
0.0
 10
222.1440158800839
 20
73.60694083356051
 30
0.0
 10
222.1761532165248
 20
73.57702629292844
 30
0.0
 10
222.230811522951
 20
73.50662887298553
 30
0.0
 10
222.2537848622814
 20
73.4662481763097
 30
0.0
 10
222.307466651219
 20
73.34372434627431
 30
0.0
 10
222.3242435860951
 20
73.25892302466865
 30
0.0
 10
222.3242435860951
 20
73.18537042903503
 30
0.0
  0
LINE
  5
1F7
330
1F
100
AcDbEntity
  8
0
  6
Continuous
 62
     7
370
    25
100
AcDbLine
 10
204.4213899186
 20
57.101396642
 30
0.0
 11
203.0220012784
 21
57.9092465085
 31
0.0
  0
LWPOLYLINE
  5
1F8
330
1F
100
AcDbEntity
  8
0
  6
Continuous
 62
     7
370
    25
100
AcDbPolyline
 90
       19
 70
   128
 43
0.0
 10
203.0220012784
 20
57.9092465085
 10
203.4316818168
 20
59.4651759793
 10
203.9632760658
 20
61.032162548
 10
204.6104692421
 20
62.5915925766
 10
205.3655728386
 20
64.1249415303
 10
206.2196181375
 20
65.6139952634
 10
207.1624589438
 20
67.0410644598
 10
208.1828960494
 20
68.3891979316
 10
209.2688072964
 20
69.6423808974
 10
210.4072931149
 20
70.7857269857
 10
211.5848297995
 20
71.8056549327
 10
212.7874294534
 20
72.6900470768
 10
214.0008063527
 20
73.4284009121
 10
215.2105468516
 20
74.0119431427
 10
216.4022806034
 20
74.4337429748
 10
217.5618510414
 20
74.6887892407
 10
218.6754837195
 20
74.7740525982
 10
219.7299497955
 20
74.6885205916
 10
220.7127234236
 20
74.4332086635
  0
LINE
  5
1F9
330
1F
100
AcDbEntity
  8
0
  6
Continuous
 62
     7
370
    25
100
AcDbLine
 10
220.7127234236
 20
74.4332086635
 30
0.0
 11
222.1121120638
 21
73.6253587971
 31
0.0
  0
LINE
  5
1FA
330
1F
100
AcDbEntity
  8
0
  6
Continuous
 62
     7
370
    25
100
AcDbLine
 10
205.9723992122
 20
56.3883888949
 30
0.0
 11
205.9723992122
 21
57.751853231
 31
0.0
  0
LINE
  5
1FB
330
1F
100
AcDbEntity
  8
0
  6
Continuous
 62
     7
370
    25
100
AcDbLine
 10
205.9723992122
 20
57.751853231
 30
0.0
 11
204.8550724287
 21
57.1068342086
 31
0.0
  0
LINE
  5
1FC
330
1F
100
AcDbEntity
  8
0
  6
Continuous
 62
     7
370
    25
100
AcDbLine
 10
222.3242437378
 20
73.1853703104
 30
0.0
 11
222.3242437378
 21
71.62130651
 31
0.0
  0
LINE
  5
1FD
330
1F
100
AcDbEntity
  8
0
  6
Continuous
 62
     7
370
    25
100
AcDbLine
 10
223.6786893495
 20
72.4032113184
 30
0.0
 11
222.3242437378
 21
71.62130651
 31
0.0
  0
SPLINE
  5
1FE
330
1F
100
AcDbEntity
  8
0
  6
Continuous
 62
     7
370
    25
100
AcDbSpline
210
0.0
220
0.0
230
1.0
 70
     8
 71
     3
 72
    20
 73
    16
 74
     0
 42
0.000000001
 43
0.00000001
 40
0.0
 40
0.0
 40
0.0
 40
0.0
 40
0.2499999999999999
 40
0.2499999999999999
 40
0.3749999999999998
 40
0.3749999999999998
 40
0.4374999999999998
 40
0.4374999999999998
 40
0.4687499999999998
 40
0.4687499999999998
 40
0.4999999999999999
 40
0.4999999999999999
 40
0.7499999999999999
 40
0.7499999999999999
 40
1.0
 40
1.0
 40
1.0
 40
1.0
 10
205.9723992711562
 20
51.76645045940185
 30
0.0
 10
205.9723992711562
 20
52.15883263592243
 30
0.0
 10
205.9928450504662
 20
52.53900927038847
 30
0.0
 10
206.0200186261856
 20
53.11136069220668
 30
0.0
 10
206.0285990059796
 20
53.30242954057429
 30
0.0
 10
206.0374553837234
 20
53.59142917023601
 30
0.0
 10
206.0397471906459
 20
53.68815657156517
 30
0.0
 10
206.0419414243334
 20
53.83398999337365
 30
0.0
 10
206.042467166162
 20
53.88272391269186
 30
0.0
 10
206.0430868986605
 20
53.98044949434914
 30
0.0
 10
206.0431760067086
 20
54.02969454735953
 30
0.0
 10
206.0421374007917
 20
54.45635723924224
 30
0.0
 10
206.0266241605197
 20
54.84361358562489
 30
0.0
 10
205.9914866815973
 20
55.62029584832645
 30
0.0
 10
205.9723992711562
 20
56.0094497049442
 30
0.0
 10
205.9723992711562
 20
56.38838882713247
 30
0.0
  0
LWPOLYLINE
  5
1FF
330
1F
100
AcDbEntity
  8
0
  6
Continuous
 62
     7
370
    25
100
AcDbPolyline
 90
       18
 70
   128
 43
0.0
 10
202.0982187502
 20
59.540228301
 10
202.5134824289
 20
61.0084264465
 10
203.0447381861
 20
62.4824787782
 10
203.6853650151
 20
63.9440142745
 10
204.4273787223
 20
65.3748164159
 10
205.2615307088
 20
66.7570535955
 10
206.1774245324
 20
68.073498122
 10
207.1636462995
 20
69.307743319
 10
208.2079039478
 20
70.4444063657
 10
209.2971820036
 20
71.4693195387
 10
210.4179049011
 20
72.3697104267
 10
211.5561048495
 20
73.1343558724
 10
212.697595833
 20
73.7537272879
 10
213.8281512939
 20
74.2201038757
 10
214.9336805818
 20
74.5276737304
 10
216.0004054638
 20
74.6726037956
 10
217.0150305849
 20
74.6530873185
 10
217.2132847505
 20
74.6290597615
  0
SPLINE
  5
200
330
1F
100
AcDbEntity
  8
0
  6
Continuous
 62
     7
370
    25
100
AcDbSpline
210
0.0
220
0.0
230
1.0
 70
     8
 71
     3
 72
     8
 73
     4
 74
     0
 42
0.000000001
 43
0.00000001
 40
0.0
 40
0.0
 40
0.0
 40
0.0
 40
1.0
 40
1.0
 40
1.0
 40
1.0
 10
202.0982187900034
 20
59.54022850186782
 30
0.0
 10
201.6069177609509
 20
59.45758128166393
 30
0.0
 10
201.1153376700481
 20
59.37549749417349
 30
0.0
 10
200.6235428712962
 20
59.29384720709174
 30
0.0
  0
LWPOLYLINE
  5
201
330
1F
100
AcDbEntity
  8
0
  6
Continuous
 62
     7
370
    25
100
AcDbPolyline
 90
       19
 70
   128
 43
0.0
 10
200.6235429969
 20
59.2938470023
 10
201.0332235353
 20
60.8497764731
 10
201.5648177843
 20
62.4167630418
 10
202.2120109606
 20
63.9761930704
 10
202.9671145571
 20
65.5095420242
 10
203.8211598561
 20
66.9985957572
 10
204.7640006623
 20
68.4256649536
 10
205.784437768
 20
69.7737984254
 10
206.8703490149
 20
71.0269813913
 10
208.0088348334
 20
72.1703274795
 10
209.1863715181
 20
73.1902554266
 10
210.3889711719
 20
74.0746475706
 10
211.6023480713
 20
74.813001406
 10
212.8120885702
 20
75.3965436365
 10
214.003822322
 20
75.8183434687
 10
215.16339276
 20
76.0733897346
 10
216.277025438
 20
76.1586530921
 10
217.331491514
 20
76.0731210854
 10
218.3142651421
 20
75.8178091573
  0
LINE
  5
202
330
1F
100
AcDbEntity
  8
0
  6
Continuous
 62
     7
370
    25
100
AcDbLine
 10
218.3142651421
 20
75.8178091573
 30
0.0
 11
218.6606032478
 21
74.6988362905
 31
0.0
  0
LINE
  5
203
330
1F
100
AcDbEntity
  8
0
  6
Continuous
 62
     7
370
    25
100
AcDbLine
 10
214.8996226355
 20
77.7890403176
 30
0.0
 11
218.3142651421
 21
75.8178091573
 31
0.0
  0
LINE
  5
204
330
1F
100
AcDbEntity
  8
0
  6
Continuous
 62
     7
370
    25
100
AcDbLine
 10
200.6235429969
 20
59.2938470023
 30
0.0
 11
200.0373277493
 21
59.6322618614
 31
0.0
  0
SPLINE
  5
205
330
1F
100
AcDbEntity
  8
0
  6
Continuous
 62
     7
370
    25
100
AcDbSpline
210
0.0
220
0.0
230
1.0
 70
     8
 71
     3
 72
    28
 73
    24
 74
     0
 42
0.000000001
 43
0.00000001
 40
0.0
 40
0.0
 40
0.0
 40
0.0
 40
0.1249999999999999
 40
0.1249999999999999
 40
0.1874999999999998
 40
0.1874999999999998
 40
0.2499999999999997
 40
0.2499999999999997
 40
0.3749999999999993
 40
0.3749999999999993
 40
0.4374999999999993
 40
0.4374999999999993
 40
0.4999999999999992
 40
0.4999999999999992
 40
0.6249999999999992
 40
0.6249999999999992
 40
0.7499999999999992
 40
0.7499999999999992
 40
0.8124999999999993
 40
0.8124999999999993
 40
0.8749999999999996
 40
0.8749999999999996
 40
1.0
 40
1.0
 40
1.0
 40
1.0
 10
200.0373276020378
 20
59.63226207867156
 30
0.0
 10
199.8493405215714
 20
59.74078471025564
 30
0.0
 10
199.6591205669707
 20
59.82272843080354
 30
0.0
 10
199.3710219650227
 20
59.907886160842
 30
0.0
 10
199.2745320944231
 20
59.92993609124581
 30
0.0
 10
199.0807939215882
 20
59.96120991470477
 30
0.0
 10
198.9835429010569
 20
59.97033716602819
 30
0.0
 10
198.6975210261715
 20
59.9781200081366
 30
0.0
 10
198.5121792098149
 20
59.95781346449953
 30
0.0
 10
198.2436666229991
 20
59.8905928113664
 30
0.0
 10
198.1553059633333
 20
59.86180645376081
 30
0.0
 10
197.9849532530437
 20
59.79279456366565
 30
0.0
 10
197.9029262232623
 20
59.75265467375553
 30
0.0
 10
197.6664899695096
 20
59.61603490599231
 30
0.0
 10
197.5216227193873
 20
59.50352041630323
 30
0.0
 10
197.2607659259032
 20
59.23526345130377
 30
0.0
 10
197.1484735184008
 20
59.08311006492649
 30
0.0
 10
197.009249036947
 20
58.83119367722818
 30
0.0
 10
196.9676532505812
 20
58.74315139155181
 30
0.0
 10
196.89452853552
 20
58.55881033649998
 30
0.0
 10
196.8629040514671
 20
58.46202157381821
 30
0.0
 10
196.7854107480449
 20
58.1640064949214
 30
0.0
 10
196.756236032655
 20
57.95453361778487
 30
0.0
 10
196.7502691499133
 20
57.734152825101
 30
0.0
  0
ARC
  5
206
330
1F
100
AcDbEntity
  8
0
  6
Continuous
 62
     7
370
    25
100
AcDbCircle
 10
211.5948189876
 20
57.3258823559
 30
0.0
 40
14.85016324614229
100
AcDbArc
 50
178.4245883563
 51
181.5754116437
  0
SPLINE
  5
207
330
1F
100
AcDbEntity
  8
0
  6
Continuous
 62
     7
370
    25
100
AcDbSpline
210
0.0
220
0.0
230
1.0
 70
     8
 71
     3
 72
    30
 73
    26
 74
     0
 42
0.000000001
 43
0.00000001
 40
0.0
 40
0.0
 40
0.0
 40
0.0
 40
0.125
 40
0.125
 40
0.1875000000000001
 40
0.1875000000000001
 40
0.2500000000000001
 40
0.2500000000000001
 40
0.3750000000000001
 40
0.3750000000000001
 40
0.4375000000000001
 40
0.4375000000000001
 40
0.5000000000000001
 40
0.5000000000000001
 40
0.6250000000000002
 40
0.6250000000000002
 40
0.6875000000000001
 40
0.6875000000000001
 40
0.75
 40
0.75
 40
0.8124999999999999
 40
0.8124999999999999
 40
0.8749999999999998
 40
0.8749999999999998
 40
1.0
 40
1.0
 40
1.0
 40
1.0
 10
196.7502691499133
 20
56.91761201321525
 30
0.0
 10
196.7562367486047
 20
56.70409482044054
 30
0.0
 10
196.7853819686042
 20
56.4865449224214
 30
0.0
 10
196.8618166298631
 20
56.15424589288581
 30
0.0
 10
196.8927826134405
 20
56.04247159158625
 30
0.0
 10
196.9657525542561
 20
55.81676971805125
 30
0.0
 10
197.0078887528147
 20
55.70268194547874
 30
0.0
 10
197.1477805421791
 20
55.36451921811754
 30
0.0
 10
197.2596244667213
 20
55.14200899884478
 30
0.0
 10
197.4534110638659
 20
54.81139874289521
 30
0.0
 10
197.5227517014692
 20
54.70117210318906
 30
0.0
 10
197.6682440859159
 20
54.48444210273552
 30
0.0
 10
197.7441313766349
 20
54.37824516710479
 30
0.0
 10
197.9805193251063
 20
54.06560699385519
 30
0.0
 10
198.1496648273572
 20
53.86506444602003
 30
0.0
 10
198.4195308246913
 20
53.57495960659769
 30
0.0
 10
198.5117223307421
 20
53.48061619022523
 30
0.0
 10
198.6973209257768
 20
53.29931116216484
 30
0.0
 10
198.7911498060637
 20
53.21189182867069
 30
0.0
 10
198.980599856529
 20
53.04328427834604
 30
0.0
 10
199.0762212717347
 20
52.96209609257669
 30
0.0
 10
199.2690829611611
 20
52.80593341302855
 30
0.0
 10
199.3668178700595
 20
52.73060643333185
 30
0.0
 10
199.6580738251799
 20
52.51731619988801
 30
0.0
 10
199.849331216153
 20
52.39192277518757
 30
0.0
 10
200.0373276020378
 20
52.28339477169981
 30
0.0
  0
LINE
  5
208
330
1F
100
AcDbEntity
  8
0
  6
Continuous
 62
     7
370
    25
100
AcDbLine
 10
200.0373277493
 20
52.2833948707
 30
0.0
 11
200.6235429969
 21
51.9449800117
 31
0.0
  0
ARC
  5
209
330
1F
100
AcDbEntity
  8
0
  6
Continuous
 62
     7
370
    25
100
AcDbCircle
 10
206.4874420897
 20
53.3764843269
 30
0.0
 40
6.036101156838001
100
AcDbArc
 50
193.7188113049
 51
252.9033667284
  0
LINE
  5
20A
330
1F
100
AcDbEntity
  8
0
  6
Continuous
 62
     7
370
    25
100
AcDbLine
 10
219.9436827204
 20
74.8768606249
 30
0.0
 11
220.2779948156
 21
74.5695319045
 31
0.0
  0
LINE
  5
20B
330
1F
100
AcDbEntity
  8
0
  6
Continuous
 62
     7
370
    25
100
AcDbLine
 10
219.0907539837
 20
75.3692459039
 30
0.0
 11
219.9436827204
 21
74.8768606249
 31
0.0
  0
SPLINE
  5
20C
330
1F
100
AcDbEntity
  8
0
  6
Continuous
 62
     7
370
    25
100
AcDbSpline
210
0.0
220
0.0
230
1.0
 70
     8
 71
     3
 72
    20
 73
    16
 74
     0
 42
0.000000001
 43
0.00000001
 40
0.0
 40
0.0
 40
0.0
 40
0.0
 40
0.2499999999999995
 40
0.2499999999999995
 40
0.3749999999999996
 40
0.3749999999999996
 40
0.4999999999999997
 40
0.4999999999999997
 40
0.6249999999999998
 40
0.6249999999999998
 40
0.7499999999999998
 40
0.7499999999999998
 40
0.8749999999999999
 40
0.8749999999999999
 40
1.0
 40
1.0
 40
1.0
 40
1.0
 10
214.8996223836364
 20
77.789040180572
 30
0.0
 10
215.2186110380343
 20
77.6551497913122
 30
0.0
 10
215.5450666381323
 20
77.49525344425021
 30
0.0
 10
216.0574167555154
 20
77.2173345167807
 30
0.0
 10
216.2320201221933
 20
77.1183355039704
 30
0.0
 10
216.5918939845421
 20
76.9073947990717
 30
0.0
 10
216.7747544008956
 20
76.79683898186165
 30
0.0
 10
217.1410494900729
 20
76.57142111285083
 30
0.0
 10
217.3255330063315
 20
76.45594051147137
 30
0.0
 10
217.699117830567
 20
76.22110816717559
 30
0.0
 10
217.8834673018063
 20
76.10477824190033
 30
0.0
 10
218.2441772082827
 20
75.87908355510095
 30
0.0
 10
218.4212311975365
 20
75.76927358100427
 30
0.0
 10
218.7689605488889
 20
75.55787881746836
 30
0.0
 10
218.9342109653472
 20
75.45961598232535
 30
0.0
 10
219.0907538801286
 20
75.36924568120799
 30
0.0
  0
SPLINE
  5
20D
330
1F
100
AcDbEntity
  8
0
  6
Continuous
 62
     7
370
    25
100
AcDbSpline
210
0.0
220
0.0
230
1.0
 70
    11
 71
     3
 72
    70
 73
    66
 74
     0
 42
0.000000001
 43
0.00000001
 40
0.0
 40
0.0
 40
0.0
 40
0.0
 40
0.0312500000000001
 40
0.0312500000000001
 40
0.0625000000000002
 40
0.0625000000000002
 40
0.0937500000000003
 40
0.0937500000000003
 40
0.1250000000000004
 40
0.1250000000000004
 40
0.1562500000000005
 40
0.1562500000000005
 40
0.1875000000000006
 40
0.1875000000000006
 40
0.2187500000000007
 40
0.2187500000000007
 40
0.2500000000000008
 40
0.2500000000000008
 40
0.2812500000000009
 40
0.2812500000000009
 40
0.3125000000000011
 40
0.3125000000000011
 40
0.3437500000000012
 40
0.3437500000000012
 40
0.3750000000000012
 40
0.3750000000000012
 40
0.4062500000000013
 40
0.4062500000000013
 40
0.4375000000000014
 40
0.4375000000000014
 40
0.4687500000000016
 40
0.4687500000000016
 40
0.5000000000000017
 40
0.5000000000000017
 40
0.5312500000000018
 40
0.5312500000000018
 40
0.5625000000000019
 40
0.5625000000000019
 40
0.593750000000002
 40
0.593750000000002
 40
0.6250000000000021
 40
0.6250000000000021
 40
0.6562500000000022
 40
0.6562500000000022
 40
0.6875000000000023
 40
0.6875000000000023
 40
0.7187500000000021
 40
0.7187500000000021
 40
0.7500000000000018
 40
0.7500000000000018
 40
0.7812500000000016
 40
0.7812500000000016
 40
0.8125000000000013
 40
0.8125000000000013
 40
0.8437500000000011
 40
0.8437500000000011
 40
0.8750000000000009
 40
0.8750000000000009
 40
0.9062500000000007
 40
0.9062500000000007
 40
0.9375000000000004
 40
0.9375000000000004
 40
0.9687500000000002
 40
0.9687500000000002
 40
1.0
 40
1.0
 40
1.0
 40
1.0
 10
212.7149830623843
 20
77.40454011024622
 30
0.0
 10
212.6214521609353
 20
77.45853435035296
 30
0.0
 10
212.5382280359323
 20
77.51305706572744
 30
0.0
 10
212.3914669604349
 20
77.62294513004099
 30
0.0
 10
212.3274050773569
 20
77.67892036398017
 30
0.0
 10
212.2232729876361
 20
77.78788739838541
 30
0.0
 10
212.1830455295934
 20
77.8407390968444
 30
0.0
 10
212.1257746524834
 20
77.94249714899613
 30
0.0
 10
212.1089714284665
 20
77.99156802259915
 30
0.0
 10
212.1001275415564
 20
78.08067069840705
 30
0.0
 10
212.1076516743792
 20
78.12128096394643
 30
0.0
 10
212.1469380551346
 20
78.19356040984404
 30
0.0
 10
212.1785443210414
 20
78.22452394118163
 30
0.0
 10
212.263327879746
 20
78.27427447342178
 30
0.0
 10
212.3171409689912
 20
78.29342302979593
 30
0.0
 10
212.4455222382354
 20
78.31846009156232
 30
0.0
 10
212.5188525830063
 20
78.32424217080508
 30
0.0
 10
212.6832927838666
 20
78.32249299037336
 30
0.0
 10
212.7755350017719
 20
78.31473194662043
 30
0.0
 10
212.9712768071359
 20
78.28628143977984
 30
0.0
 10
213.0750881871165
 20
78.26572953411092
 30
0.0
 10
213.2948541661458
 20
78.21236336854827
 30
0.0
 10
213.4104838824518
 20
78.17951100681528
 30
0.0
 10
213.6443199525962
 20
78.10495820960374
 30
0.0
 10
213.7638348899543
 20
78.06293957434309
 30
0.0
 10
214.0078958228502
 20
77.97015267810859
 30
0.0
 10
214.1286413649937
 20
77.92084566903314
 30
0.0
 10
214.3680095631191
 20
77.8174529949765
 30
0.0
 10
214.487916503964
 20
77.76273337834873
 30
0.0
 10
214.7185538344472
 20
77.65238298238687
 30
0.0
 10
214.8290627861591
 20
77.59693658089031
 30
0.0
 10
215.0407039941977
 20
77.48598960193151
 30
0.0
 10
215.142232502857
 20
77.43020091794348
 30
0.0
 10
215.3269635376227
 20
77.32357919497747
 30
0.0
 10
215.4113751062634
 20
77.27214032487781
 30
0.0
 10
215.563830673103
 20
77.17292411153574
 30
0.0
 10
215.6304259392724
 20
77.12603005638654
 30
0.0
 10
215.7416929394854
 20
77.03918951356006
 30
0.0
 10
215.7872014723333
 20
76.99857796150839
 30
0.0
 10
215.8547666552125
 20
76.92453458458029
 30
0.0
 10
215.876535346783
 20
76.8915691960607
 30
0.0
 10
215.8963159361734
 20
76.83269879300846
 30
0.0
 10
215.8940279478559
 20
76.806623260004
 30
0.0
 10
215.8649007319838
 20
76.76288432754924
 30
0.0
 10
215.8383665504621
 20
76.7449544574518
 30
0.0
 10
215.7608057395817
 20
76.7163413749628
 30
0.0
 10
215.709619172511
 20
76.70581448356809
 30
0.0
 10
215.586702306891
 20
76.69255223482178
 30
0.0
 10
215.5145678474668
 20
76.68964187018449
 30
0.0
 10
215.3481009305317
 20
76.69142092009919
 30
0.0
 10
215.256537734172
 20
76.6960782269657
 30
0.0
 10
215.0574916597881
 20
76.71278235844392
 30
0.0
 10
214.9486926655306
 20
76.72502728534437
 30
0.0
 10
214.721471024434
 20
76.75687719408363
 30
0.0
 10
214.6034782620757
 20
76.77634475324517
 30
0.0
 10
214.3590152551107
 20
76.82302559136018
 30
0.0
 10
214.2319207656341
 20
76.85046241034419
 30
0.0
 10
213.9801925454227
 20
76.91175004609404
 30
0.0
 10
213.8542571658727
 20
76.94581188922531
 30
0.0
 10
213.6024888694812
 20
77.02185324618718
 30
0.0
 10
213.4790052416035
 20
77.0631891586444
 30
0.0
 10
213.2421468263018
 20
77.15128513523395
 30
0.0
 10
213.1271800836979
 20
77.19863957951925
 30
0.0
 10
212.9097017756971
 20
77.29861140315441
 30
0.0
 10
212.8085139638332
 20
77.35054587013946
 30
0.0
 10
212.7149830623842
 20
77.40454011024622
 30
0.0
  0
LINE
  5
20E
330
1F
100
AcDbEntity
  8
0
  6
Continuous
 62
     7
370
    25
100
AcDbLine
 10
203.2328336441
 20
58.7659696348
 30
0.0
 11
202.7692057981
 21
59.0336162932
 31
0.0
  0
LINE
  5
20F
330
1F
100
AcDbEntity
  8
0
  6
Continuous
 62
     7
370
    25
100
AcDbLine
 10
202.3433876265
 20
59.6817612807
 30
0.0
 11
202.0982187502
 21
59.540228301
 31
0.0
  0
SPLINE
  5
210
330
1F
100
AcDbEntity
  8
0
  6
Continuous
 62
     7
370
    25
100
AcDbSpline
210
0.0
220
0.0
230
1.0
 70
     8
 71
     3
 72
    14
 73
    10
 74
     0
 42
0.000000001
 43
0.00000001
 40
0.0
 40
0.0
 40
0.0
 40
0.0
 40
0.1250000000000017
 40
0.1250000000000017
 40
0.2500000000000034
 40
0.2500000000000034
 40
0.5000000000000032
 40
0.5000000000000032
 40
1.0
 40
1.0
 40
1.0
 40
1.0
 10
202.7692055523811
 20
59.03361636104584
 30
0.0
 10
202.745009119216
 20
59.04758466458838
 30
0.0
 10
202.721833680757
 20
59.07494984058593
 30
0.0
 10
202.6849132883261
 20
59.13275160971146
 30
0.0
 10
202.6698714972935
 20
59.16372208882782
 30
0.0
 10
202.6300580407066
 20
59.25674856175702
 30
0.0
 10
202.6104220223226
 20
59.31935961604179
 30
0.0
 10
202.5600011738531
 20
59.50369036695678
 30
0.0
 10
202.5375839956126
 20
59.62523460185746
 30
0.0
 10
202.5208960974466
 20
59.74436366715982
 30
0.0
  0
SPLINE
  5
211
330
1F
100
AcDbEntity
  8
0
  6
Continuous
 62
     7
370
    25
100
AcDbSpline
210
0.0
220
0.0
230
1.0
 70
     8
 71
     3
 72
    10
 73
     6
 74
     0
 42
0.000000001
 43
0.00000001
 40
0.0
 40
0.0
 40
0.0
 40
0.0
 40
0.5
 40
0.5
 40
1.0
 40
1.0
 40
1.0
 40
1.0
 10
202.5208960974466
 20
59.74436366715983
 30
0.0
 10
202.4875060792588
 20
59.7382138979596
 30
0.0
 10
202.4552667278307
 20
59.72966729011152
 30
0.0
 10
202.3952788335684
 20
59.7084313163426
 30
0.0
 10
202.3680169603194
 20
59.69597967033441
 30
0.0
 10
202.3433873943695
 20
59.68176132455755
 30
0.0
  0
LWPOLYLINE
  5
212
330
1F
100
AcDbEntity
  8
0
  6
Continuous
 62
     7
370
    25
100
AcDbPolyline
 90
       21
 70
   128
 43
0.0
 10
195.1006328097
 20
58.3941777073
 10
195.1610608537
 20
59.7605495165
 10
195.3416831486
 20
61.1817198401
 10
195.6405214267
 20
62.6421187661
 10
196.0543007462
 20
64.1257449418
 10
196.5784883451
 20
65.6163437081
 10
197.2073403983
 20
67.097584283
 10
197.9339672131
 20
68.5532371338
 10
198.7504083036
 20
69.9673545798
 10
199.6477180011
 20
71.3244422684
 10
200.6160655533
 20
72.6096325516
 10
201.6448408202
 20
73.8088443634
 10
202.7227731419
 20
74.9089385328
 10
203.8380523459
 20
75.8978629264
 10
204.9784588094
 20
76.764781524
 10
206.1314982969
 20
77.5001971266
 10
207.2845377844
 20
78.0960525794
 10
208.424944248
 20
78.5458192581
 10
209.5402234519
 20
78.8445688245
 10
210.6181557736
 20
78.9890288227
 10
211.56025901
 20
78.9847631995
  0
ARC
  5
213
330
1F
100
AcDbEntity
  8
0
  6
Continuous
 62
     7
370
    25
100
AcDbCircle
 10
205.1278203508
 20
58.0682338289
 30
0.0
 40
10.03248371033341
100
AcDbArc
 50
178.1381982719
 51
207.6894316684
  0
LINE
  5
214
330
1F
100
AcDbEntity
  8
0
  6
Continuous
 62
     7
370
    25
100
AcDbLine
 10
201.3762053689
 20
53.0563124685
 30
0.0
 11
202.520896323
 21
52.3954964465
 31
0.0
  0
ARC
  5
215
330
1F
100
AcDbEntity
  8
0
  6
Continuous
 62
     7
370
    25
100
AcDbCircle
 10
204.6886413991
 20
58.2347348008
 30
0.0
 40
6.147218094902052
100
AcDbArc
 50
182.6054747885
 51
237.394528727
  0
LINE
  5
216
330
1F
100
AcDbEntity
  8
0
  6
Continuous
 62
     7
370
    25
100
AcDbLine
 10
198.5477781098
 20
58.7718326903
 30
0.0
 11
198.5477781098
 21
57.9552918397
 31
0.0
  0
ARC
  5
217
330
1F
100
AcDbEntity
  8
0
  6
Continuous
 62
     7
370
    25
100
AcDbCircle
 10
201.1047322626
 20
58.8641677874
 30
0.0
 40
2.558620782671535
100
AcDbArc
 50
154.7300572726
 51
182.0681299793
  0
LINE
  5
218
330
1F
100
AcDbEntity
  8
0
  6
Continuous
 62
     7
370
    25
100
AcDbLine
 10
205.9723992122
 20
50.4029862404
 30
0.0
 11
205.9723992122
 21
51.7664505766
 31
0.0
  0
LINE
  5
219
330
1F
100
AcDbEntity
  8
0
  6
Continuous
 62
     7
370
    25
100
AcDbLine
 10
203.8024035207
 20
51.6556980884
 30
0.0
 11
205.9723992122
 21
50.4029862404
 31
0.0
  0
SPLINE
  5
21A
330
1F
100
AcDbEntity
  8
0
  6
Continuous
 62
     7
370
    25
100
AcDbSpline
210
0.0
220
0.0
230
1.0
 70
     8
 71
     3
 72
    14
 73
    10
 74
     0
 42
0.000000001
 43
0.00000001
 40
0.0
 40
0.0
 40
0.0
 40
0.0
 40
0.1249999999999983
 40
0.1249999999999983
 40
0.2499999999999966
 40
0.2499999999999966
 40
0.4999999999999968
 40
0.4999999999999968
 40
1.0
 40
1.0
 40
1.0
 40
1.0
 10
203.5540940794982
 20
52.36644516998393
 30
0.0
 10
203.578523428142
 20
52.35234240719763
 30
0.0
 10
203.601501982208
 20
52.32506027733795
 30
0.0
 10
203.6383850956998
 20
52.26730687383144
 30
0.0
 10
203.6535102420167
 20
52.23615929216085
 30
0.0
 10
203.6932276024759
 20
52.14332219060486
 30
0.0
 10
203.712689720365
 20
52.08137172078811
 30
0.0
 10
203.763557841559
 20
51.8954570152906
 30
0.0
 10
203.7858420689742
 20
51.77392437031731
 30
0.0
 10
203.8024035344327
 20
51.65569786386977
 30
0.0
  0
LINE
  5
21B
330
1F
100
AcDbEntity
  8
0
  6
Continuous
 62
     7
370
    25
100
AcDbLine
 10
202.7692057981
 20
52.8195515729
 30
0.0
 11
203.5540940456
 21
52.3664452323
 31
0.0
  0
SPLINE
  5
21C
330
1F
100
AcDbEntity
  8
0
  6
Continuous
 62
     7
370
    25
100
AcDbSpline
210
0.0
220
0.0
230
1.0
 70
     8
 71
     3
 72
    14
 73
    10
 74
     0
 42
0.000000001
 43
0.00000001
 40
0.0
 40
0.0
 40
0.0
 40
0.0
 40
0.4999999999999982
 40
0.4999999999999982
 40
0.7499999999999973
 40
0.7499999999999973
 40
0.8749999999999987
 40
0.8749999999999987
 40
1.0
 40
1.0
 40
1.0
 40
1.0
 10
202.5208960974466
 20
52.39549636018783
 30
0.0
 10
202.5375201789003
 20
52.49497610441794
 30
0.0
 10
202.5599375805047
 20
52.59081123781394
 30
0.0
 10
202.6103686383533
 20
52.71702718738758
 30
0.0
 10
202.6299033322845
 20
52.75686073608183
 30
0.0
 10
202.66984648962
 20
52.80412106755368
 30
0.0
 10
202.6848634567856
 20
52.81772368115894
 30
0.0
 10
202.7219248243073
 20
52.83294408273465
 30
0.0
 10
202.7449084866557
 20
52.83357806952854
 30
0.0
 10
202.7692055523811
 20
52.81955167204551
 30
0.0
  0
LINE
  5
21D
330
1F
100
AcDbEntity
  8
0
  6
Continuous
 62
     7
370
    25
100
AcDbLine
 10
204.8550724287
 20
49.7579672179
 30
0.0
 11
205.9723992122
 21
50.4029862404
 31
0.0
  0
LWPOLYLINE
  5
21E
330
1F
100
AcDbEntity
  8
0
  6
Continuous
 62
     7
370
    25
100
AcDbPolyline
 90
       11
 70
   128
 43
0.0
 10
211.9987311143
 20
45.4474581861
 10
211.3085037008
 20
45.3080409401
 10
210.2436250483
 20
45.2113527564
 10
209.2309623899
 20
45.2694344039
 10
208.2814182591
 20
45.4816618505
 10
207.405213596
 20
45.8457491362
 10
206.6117820506
 20
46.3577778512
 10
205.9096642867
 20
47.0122349788
 10
205.3064197367
 20
47.8020756421
 10
204.8085416494
 20
48.7187968762
 10
204.4744751914
 20
49.5835015264
  0
SPLINE
  5
21F
330
1F
100
AcDbEntity
  8
0
  6
Continuous
 62
     7
370
    25
100
AcDbSpline
210
0.0
220
0.0
230
1.0
 70
     8
 71
     3
 72
    12
 73
     8
 74
     0
 42
0.000000001
 43
0.00000001
 40
0.0
 40
0.0
 40
0.0
 40
0.0
 40
0.2499999999999962
 40
0.2499999999999962
 40
0.4999999999999925
 40
0.4999999999999925
 40
1.0
 40
1.0
 40
1.0
 40
1.0
 10
204.4213896453944
 20
49.75252962504941
 30
0.0
 10
204.4496318454667
 20
49.73622574998539
 30
0.0
 10
204.4841779773722
 20
49.72326995657539
 30
0.0
 10
204.5589020370698
 20
49.70655821838284
 30
0.0
 10
204.5991924283715
 20
49.7026713095954
 30
0.0
 10
204.7203054458078
 20
49.7049347074847
 30
0.0
 10
204.7984230082257
 20
49.72526391891143
 30
0.0
 10
204.8550724809613
 20
49.75796696341779
 30
0.0
  0
ARC
  5
220
330
1F
100
AcDbEntity
  8
0
  6
Continuous
 62
     7
370
    25
100
AcDbCircle
 10
209.2086257403
 20
52.1792763201
 30
0.0
 40
6.39493151560102
100
AcDbArc
 50
194.6641757708
 51
238.0052799592
  0
LINE
  5
221
330
1F
100
AcDbEntity
  8
0
  6
Continuous
 62
     7
370
    25
100
AcDbLine
 10
203.0220012784
 20
50.5603795178
 30
0.0
 11
204.4213899186
 21
49.7525296514
 31
0.0
  0
SPLINE
  5
222
330
1F
100
AcDbEntity
  8
0
  6
Continuous
 62
     7
370
    25
100
AcDbSpline
210
0.0
220
0.0
230
1.0
 70
     8
 71
     3
 72
     8
 73
     4
 74
     0
 42
0.000000001
 43
0.00000001
 40
0.0
 40
0.0
 40
0.0
 40
0.0
 40
1.0
 40
1.0
 40
1.0
 40
1.0
 10
203.4487927420697
 20
51.41169144810539
 30
0.0
 10
203.3056280453792
 20
51.12806940109837
 30
0.0
 10
203.1634393485266
 20
50.84428625511436
 30
0.0
 10
203.0220015777714
 20
50.56037916092728
 30
0.0
  0
LINE
  5
223
330
1F
100
AcDbEntity
  8
0
  6
Continuous
 62
     7
370
    25
100
AcDbLine
 10
203.6939616551
 20
51.5532244991
 30
0.0
 11
203.4487927787
 21
51.4116915194
 31
0.0
  0
SPLINE
  5
224
330
1F
100
AcDbEntity
  8
0
  6
Continuous
 62
     7
370
    25
100
AcDbSpline
210
0.0
220
0.0
230
1.0
 70
     8
 71
     3
 72
    10
 73
     6
 74
     0
 42
0.000000001
 43
0.00000001
 40
0.0
 40
0.0
 40
0.0
 40
0.0
 40
0.5
 40
0.5
 40
1.0
 40
1.0
 40
1.0
 40
1.0
 10
203.8024035344327
 20
51.65569786386977
 30
0.0
 10
203.7917506674627
 20
51.63642221666365
 30
0.0
 10
203.7769459043106
 20
51.61781083523861
 30
0.0
 10
203.7401601329798
 20
51.5831805610071
 30
0.0
 10
203.7185909123857
 20
51.56744261657201
 30
0.0
 10
203.6939613464359
 20
51.55322427079516
 30
0.0
  0
SPLINE
  5
225
330
1F
100
AcDbEntity
  8
0
  6
Continuous
 62
     7
370
    25
100
AcDbSpline
210
0.0
220
0.0
230
1.0
 70
     8
 71
     3
 72
    14
 73
    10
 74
     0
 42
0.000000001
 43
0.00000001
 40
0.0
 40
0.0
 40
0.0
 40
0.0
 40
0.5000000000000002
 40
0.5000000000000002
 40
0.7500000000000002
 40
0.7500000000000002
 40
0.8750000000000001
 40
0.8750000000000001
 40
1.0
 40
1.0
 40
1.0
 40
1.0
 10
187.881094277754
 20
63.05075721100657
 30
0.0
 10
188.1962602215939
 20
62.82366922011072
 30
0.0
 10
188.5125358768598
 20
62.59382284506258
 30
0.0
 10
188.9913603654308
 20
62.23851424307347
 30
0.0
 10
189.1516803758549
 20
62.11837592887792
 30
0.0
 10
189.3947329118086
 20
61.93210709463412
 30
0.0
 10
189.4761763498252
 20
61.86901385340711
 30
0.0
 10
189.6408377988585
 20
61.73866861099497
 30
0.0
 10
189.7237438169248
 20
61.67214416901772
 30
0.0
 10
189.8097626450095
 20
61.59835069769417
 30
0.0
  0
SPLINE
  5
226
330
1F
100
AcDbEntity
  8
0
  6
Continuous
 62
     7
370
    25
100
AcDbSpline
210
0.0
220
0.0
230
1.0
 70
     8
 71
     3
 72
     8
 73
     4
 74
     0
 42
0.000000001
 43
0.00000001
 40
0.0
 40
0.0
 40
0.0
 40
0.0
 40
1.0
 40
1.0
 40
1.0
 40
1.0
 10
189.8097626450095
 20
61.59835069769417
 30
0.0
 10
190.111415118247
 20
61.33957033961234
 30
0.0
 10
190.4166946617704
 20
61.09199532420767
 30
0.0
 10
190.7213542348971
 20
60.85102246764114
 30
0.0
  0
SPLINE
  5
227
330
1F
100
AcDbEntity
  8
0
  6
Continuous
 62
     7
370
    25
100
AcDbSpline
210
0.0
220
0.0
230
1.0
 70
     8
 71
     3
 72
    14
 73
    10
 74
     0
 42
0.000000001
 43
0.00000001
 40
0.0
 40
0.0
 40
0.0
 40
0.0
 40
0.1250000000000022
 40
0.1250000000000022
 40
0.2500000000000044
 40
0.2500000000000044
 40
0.500000000000003
 40
0.500000000000003
 40
1.0
 40
1.0
 40
1.0
 40
1.0
 10
190.7213542348972
 20
60.85102246764108
 30
0.0
 10
190.7405496108227
 20
60.83583973590488
 30
0.0
 10
190.7581616842231
 20
60.8244719174081
 30
0.0
 10
190.7840066141423
 20
60.81320344819566
 30
0.0
 10
190.79214497839
 20
60.8128199779586
 30
0.0
 10
190.8090950693581
 20
60.81859577065299
 30
0.0
 10
190.8112643418678
 20
60.83126119627103
 30
0.0
 10
190.8100887940532
 20
60.8756980233148
 30
0.0
 10
190.798015273449
 20
60.91618129408824
 30
0.0
 10
190.783237045409
 20
60.96018496397074
 30
0.0
  0
SPLINE
  5
228
330
1F
100
AcDbEntity
  8
0
  6
Continuous
 62
     7
370
    25
100
AcDbSpline
210
0.0
220
0.0
230
1.0
 70
     8
 71
     3
 72
    14
 73
    10
 74
     0
 42
0.000000001
 43
0.00000001
 40
0.0
 40
0.0
 40
0.0
 40
0.0
 40
0.25
 40
0.25
 40
0.5
 40
0.5
 40
0.75
 40
0.75
 40
1.0
 40
1.0
 40
1.0
 40
1.0
 10
190.7832370454083
 20
60.96018496397144
 30
0.0
 10
190.7651807984617
 20
61.01394926695821
 30
0.0
 10
190.7622580003605
 20
61.05849987605526
 30
0.0
 10
190.7568442718172
 20
61.15076122589998
 30
0.0
 10
190.7552769937761
 20
61.19805562882023
 30
0.0
 10
190.7451385939689
 20
61.30281668364801
 30
0.0
 10
190.7368235962247
 20
61.36007789068302
 30
0.0
 10
190.7080234215659
 20
61.48969924805743
 30
0.0
 10
190.6873700248953
 20
61.56249344767048
 30
0.0
 10
190.6586805077343
 20
61.64218014663025
 30
0.0
  0
ARC
  5
229
330
1F
100
AcDbEntity
  8
0
  6
Continuous
 62
     7
370
    25
100
AcDbCircle
 10
201.0136508361
 20
64.7287416133
 30
0.0
 40
10.80519673566309
100
AcDbArc
 50
163.4019784234
 51
196.5980215766
  0
SPLINE
  5
22A
330
1F
100
AcDbEntity
  8
0
  6
Continuous
 62
     7
370
    25
100
AcDbSpline
210
0.0
220
0.0
230
1.0
 70
     8
 71
     3
 72
    14
 73
    10
 74
     0
 42
0.000000001
 43
0.00000001
 40
0.0
 40
0.0
 40
0.0
 40
0.0
 40
0.25
 40
0.25
 40
0.5
 40
0.5
 40
0.75
 40
0.75
 40
1.0
 40
1.0
 40
1.0
 40
1.0
 10
190.7832370454083
 20
69.27650815889443
 30
0.0
 10
190.7651807984617
 20
69.15566607994985
 30
0.0
 10
190.7622580003605
 20
69.03057181338376
 30
0.0
 10
190.7568442718172
 20
68.7826205027324
 30
0.0
 10
190.7552769937761
 20
68.65871187841864
 30
0.0
 10
190.7451385939689
 20
68.41255613917843
 30
0.0
 10
190.7368235962247
 20
68.29026819731702
 30
0.0
 10
190.7080234215659
 20
68.04827102010825
 30
0.0
 10
190.6873700248953
 20
67.92811405292865
 30
0.0
 10
190.6586805077343
 20
67.81530314252338
 30
0.0
  0
SPLINE
  5
22B
330
1F
100
AcDbEntity
  8
0
  6
Continuous
 62
     7
370
    25
100
AcDbSpline
210
0.0
220
0.0
230
1.0
 70
     8
 71
     3
 72
    14
 73
    10
 74
     0
 42
0.000000001
 43
0.00000001
 40
0.0
 40
0.0
 40
0.0
 40
0.0
 40
0.125
 40
0.125
 40
0.25
 40
0.25
 40
0.5
 40
0.5
 40
1.0
 40
1.0
 40
1.0
 40
1.0
 10
190.7213542348972
 20
69.82179372318845
 30
0.0
 10
190.7405496108228
 20
69.81950691521462
 30
0.0
 10
190.7581616842232
 20
69.8080086759418
 30
0.0
 10
190.7840066141424
 20
69.77131717341528
 30
0.0
 10
190.79214497839
 20
69.74823575831321
 30
0.0
 10
190.8090950693581
 20
69.67690323923611
 30
0.0
 10
190.8112643418678
 20
69.62565913362805
 30
0.0
 10
190.8100887940532
 20
69.47562365386645
 30
0.0
 10
190.798015273449
 20
69.37541197898338
 30
0.0
 10
190.783237045409
 20
69.27650815889474
 30
0.0
  0
SPLINE
  5
22C
330
1F
100
AcDbEntity
  8
0
  6
Continuous
 62
     7
370
    25
100
AcDbSpline
210
0.0
220
0.0
230
1.0
 70
     8
 71
     3
 72
     8
 73
     4
 74
     0
 42
0.000000001
 43
0.00000001
 40
0.0
 40
0.0
 40
0.0
 40
0.0
 40
1.0
 40
1.0
 40
1.0
 40
1.0
 10
189.8097626450095
 20
69.87400653432454
 30
0.0
 10
190.111415118247
 20
69.88135278146765
 30
0.0
 10
190.4166946617705
 20
69.8580888154977
 30
0.0
 10
190.7213542348972
 20
69.82179372318845
 30
0.0
  0
SPLINE
  5
22D
330
1F
100
AcDbEntity
  8
0
  6
Continuous
 62
     7
370
    25
100
AcDbSpline
210
0.0
220
0.0
230
1.0
 70
     8
 71
     3
 72
    14
 73
    10
 74
     0
 42
0.000000001
 43
0.00000001
 40
0.0
 40
0.0
 40
0.0
 40
0.0
 40
0.5000000000000002
 40
0.5000000000000002
 40
0.7500000000000002
 40
0.7500000000000002
 40
0.8750000000000001
 40
0.8750000000000001
 40
1.0
 40
1.0
 40
1.0
 40
1.0
 10
187.881094277754
 20
70.50664587930952
 30
0.0
 10
188.1962602215939
 20
70.3692613855834
 30
0.0
 10
188.5125358768598
 20
70.23768787795224
 30
0.0
 10
188.9913603654308
 20
70.06279241143149
 30
0.0
 10
189.1516803758549
 20
70.00812126116696
 30
0.0
 10
189.3947329118086
 20
69.93908944544691
 30
0.0
 10
189.4761763498252
 20
69.91822716093813
 30
0.0
 10
189.6408377988585
 20
69.88541944750848
 30
0.0
 10
189.7237438169248
 20
69.87191168801584
 30
0.0
 10
189.8097626450095
 20
69.87400653432454
 30
0.0
  0
SPLINE
  5
22E
330
1F
100
AcDbEntity
  8
0
  6
Continuous
 62
     7
370
    25
100
AcDbSpline
210
0.0
220
0.0
230
1.0
 70
     8
 71
     3
 72
     8
 73
     4
 74
     0
 42
0.000000001
 43
0.00000001
 40
0.0000005163856712
 40
0.0000005163856712
 40
0.0000005163856712
 40
0.0000005163856712
 40
0.000026289209185
 40
0.000026289209185
 40
0.000026289209185
 40
0.000026289209185
 10
187.8810726907347
 20
70.51952499051498
 30
0.0
 10
187.8810703895754
 20
70.51523215548369
 30
0.0
 10
187.8810776358998
 20
70.5109390878034
 30
0.0
 10
187.881094277754
 20
70.50664587930952
 30
0.0
  0
LINE
  5
22F
330
1F
100
AcDbEntity
  8
0
  6
Continuous
 62
     7
370
    25
100
AcDbLine
 10
189.4079047379
 20
61.2699982632
 30
0.0
 11
189.3635504482
 21
61.298926251
 31
0.0
  0
SPLINE
  5
230
330
1F
100
AcDbEntity
  8
0
  6
Continuous
 62
     7
370
    25
100
AcDbSpline
210
0.0
220
0.0
230
1.0
 70
     8
 71
     3
 72
     8
 73
     4
 74
     0
 42
0.000000001
 43
0.00000001
 40
0.0000005163856716
 40
0.0000005163856716
 40
0.0000005163856716
 40
0.0000005163856716
 40
0.0000262892091854
 40
0.0000262892091854
 40
0.0000262892091854
 40
0.0000262892091854
 10
187.8810726907347
 20
63.0460539386357
 30
0.0
 10
187.8810703895754
 20
63.04762732433517
 30
0.0
 10
187.8810776358998
 20
63.04919505426908
 30
0.0
 10
187.881094277754
 20
63.05075721100658
 30
0.0
  0
SPLINE
  5
231
330
1F
100
AcDbEntity
  8
0
  6
Continuous
 62
     7
370
    25
100
AcDbSpline
210
0.0
220
0.0
230
1.0
 70
     8
 71
     3
 72
    18
 73
    14
 74
     0
 42
0.000000001
 43
0.00000001
 40
0.0
 40
0.0
 40
0.0
 40
0.0
 40
0.1234501992537114
 40
0.2475745662944693
 40
0.3716762661324856
 40
0.4950718351840558
 40
0.6174147100856155
 40
0.6789544192648493
 40
0.7396979302523004
 40
0.800354346382669
 40
0.8622839197587596
 40
0.9850608035205698
 40
1.0
 40
1.0
 40
1.0
 40
1.0
 10
193.5699412605312
 20
61.17308284231369
 30
0.0
 10
193.4368943870177
 20
61.41801759625088
 30
0.0
 10
193.1700740642797
 20
61.90922470521486
 30
0.0
 10
193.0453786443282
 20
62.66124575488951
 30
0.0
 10
193.1812052779681
 20
63.28593280939238
 30
0.0
 10
193.5482808439769
 20
63.70279794153666
 30
0.0
 10
193.9909217412231
 20
63.79678157545761
 30
0.0
 10
194.3671448646924
 20
63.71483720987765
 30
0.0
 10
194.649375173829
 20
63.57256450762502
 30
0.0
 10
194.9217293471983
 20
63.35586724539263
 30
0.0
 10
195.2481157893293
 20
62.97812038189196
 30
0.0
 10
195.5030326035821
 20
62.59552451470218
 30
0.0
 10
195.5947154511678
 20
62.30068782671015
 30
0.0
 10
195.6046610440969
 20
62.26870446497387
 30
0.0
  0
SPLINE
  5
232
330
1F
100
AcDbEntity
  8
0
  6
Continuous
 62
     7
370
    25
100
AcDbSpline
210
0.0
220
0.0
230
1.0
 70
     8
 71
     3
 72
    13
 73
     9
 74
     0
 42
0.000000001
 43
0.00000001
 40
0.0
 40
0.0
 40
0.0
 40
0.0
 40
0.0522902238691395
 40
0.2115557991906729
 40
0.3681960131288917
 40
0.5249531684981611
 40
0.6839731557402062
 40
1.0
 40
1.0
 40
1.0
 40
1.0
 10
195.2255692395321
 20
59.84613301975484
 30
0.0
 10
195.2036175055518
 20
59.84168651670899
 30
0.0
 10
195.1148051754028
 20
59.82369685371145
 30
0.0
 10
194.909137677086
 20
59.90986904502297
 30
0.0
 10
194.64159210209
 20
60.04681546777407
 30
0.0
 10
194.35860812676
 20
60.25778013663513
 30
0.0
 10
193.9789325730986
 20
60.60580864179394
 30
0.0
 10
193.7333296247261
 20
60.94646188283397
 30
0.0
 10
193.5699412605312
 20
61.17308284231369
 30
0.0
  0
ARC
  5
233
330
1F
100
AcDbEntity
  8
0
  6
Continuous
 62
     7
370
    25
100
AcDbCircle
 10
208.2694681107
 20
54.1851411887
 30
0.0
 40
6.485327815417003
100
AcDbArc
 50
197.9043770853
 51
217.5646516782
  0
SPLINE
  5
234
330
1F
100
AcDbEntity
  8
0
  6
Continuous
 62
     7
370
    25
100
AcDbSpline
210
0.0
220
0.0
230
1.0
 70
     8
 71
     3
 72
     8
 73
     4
 74
     0
 42
0.000000001
 43
0.00000001
 40
0.0
 40
0.0
 40
0.0
 40
0.0
 40
1.0
 40
1.0
 40
1.0
 40
1.0
 10
200.6235428712962
 20
51.94497990012
 30
0.0
 10
201.1153376700481
 20
52.02663018720174
 30
0.0
 10
201.6069177609509
 20
52.10871397469218
 30
0.0
 10
202.0982187900034
 20
52.19136119489607
 30
0.0
  0
SPLINE
  5
235
330
1F
100
AcDbEntity
  8
0
  6
Continuous
 62
     7
370
    25
100
AcDbSpline
210
0.0
220
0.0
230
1.0
 70
     8
 71
     3
 72
    10
 73
     6
 74
     0
 42
0.000000001
 43
0.00000001
 40
0.0
 40
0.0
 40
0.0
 40
0.0
 40
0.5
 40
0.5
 40
1.0
 40
1.0
 40
1.0
 40
1.0
 10
202.3433873943696
 20
52.33289401758584
 30
0.0
 10
202.3682196977215
 20
52.34722940117368
 30
0.0
 10
202.3958946952149
 20
52.35982484130978
 30
0.0
 10
202.4560197046694
 20
52.38102273945005
 30
0.0
 10
202.4877141048642
 20
52.3893849051167
 30
0.0
 10
202.5208960974458
 20
52.39549636018795
 30
0.0
  0
LINE
  5
236
330
1F
100
AcDbEntity
  8
0
  6
Continuous
 62
     7
370
    25
100
AcDbLine
 10
202.0982187502
 20
52.1913613104
 30
0.0
 11
202.3433876265
 21
52.3328942901
 31
0.0
  0
SPLINE
  5
237
330
1F
100
AcDbEntity
  8
0
  6
Continuous
 62
     7
370
    25
100
AcDbSpline
210
0.0
220
0.0
230
1.0
 70
     8
 71
     3
 72
    12
 73
     8
 74
     0
 42
0.000000001
 43
0.00000001
 40
0.0
 40
0.0
 40
0.0
 40
0.0
 40
0.0954723218548997
 40
0.3507392162084532
 40
0.6051711984491139
 40
0.8631019885058647
 40
1.0
 40
1.0
 40
1.0
 40
1.0
 10
194.5953055961725
 20
63.51874841334318
 30
0.0
 10
194.5790086695814
 20
63.46374916277883
 30
0.0
 10
194.5191382155264
 20
63.26169694848043
 30
0.0
 10
194.5965122556778
 20
62.81881983215293
 30
0.0
 10
194.820896439445
 20
62.27039480046172
 30
0.0
 10
195.1223706710196
 20
61.81453652045546
 30
0.0
 10
195.3478113468575
 20
61.60102432017019
 30
0.0
 10
195.4259778334736
 20
61.52699376430907
 30
0.0
  0
LINE
  5
238
330
1F
100
AcDbEntity
  8
0
  6
Continuous
 62
     7
370
    25
100
AcDbLine
 10
222.3421410019
 20
73.492260131
 30
0.0
 11
223.7415296421
 21
72.6844102646
 31
0.0
  0
SPLINE
  5
239
330
1F
100
AcDbEntity
  8
0
  6
Continuous
 62
     7
370
    25
100
AcDbSpline
210
0.0
220
0.0
230
1.0
 70
     8
 71
     3
 72
    12
 73
     8
 74
     0
 42
0.000000001
 43
0.00000001
 40
0.0
 40
0.0
 40
0.0
 40
0.0
 40
0.25
 40
0.25
 40
0.5
 40
0.5
 40
1.0
 40
1.0
 40
1.0
 40
1.0
 10
223.7415294080613
 20
72.68441011726426
 30
0.0
 10
223.773773378934
 20
72.66579606909065
 30
0.0
 10
223.7958263814675
 20
72.64154574629322
 30
0.0
 10
223.8166753256325
 20
72.5909578884057
 30
0.0
 10
223.8162941564053
 20
72.56411931997162
 30
0.0
 10
223.790541223508
 20
72.48688520370281
 30
0.0
 10
223.7425897963993
 20
72.44009983287498
 30
0.0
 10
223.678689747264
 20
72.40321111970752
 30
0.0
  0
SPLINE
  5
23A
330
1F
100
AcDbEntity
  8
0
  6
Continuous
 62
     7
370
    25
100
AcDbSpline
210
0.0
220
0.0
230
1.0
 70
     8
 71
     3
 72
    12
 73
     8
 74
     0
 42
0.000000001
 43
0.00000001
 40
0.0
 40
0.0
 40
0.0
 40
0.0
 40
0.1907713981963183
 40
0.3667337659419578
 40
0.6734572538041037
 40
0.9478942140979981
 40
1.0
 40
1.0
 40
1.0
 40
1.0
 10
193.8612105573282
 20
61.35600600057498
 30
0.0
 10
193.9407680484304
 20
61.24159517809615
 30
0.0
 10
194.0937072132982
 20
61.02165491352357
 30
0.0
 10
194.4185008585723
 20
60.66789314743038
 30
0.0
 10
194.8034305616374
 20
60.36325324349034
 30
0.0
 10
195.1035978129656
 20
60.19600517480599
 30
0.0
 10
195.2333337717992
 20
60.17957795639177
 30
0.0
 10
195.2540354844342
 20
60.17695669735103
 30
0.0
  0
SPLINE
  5
23B
330
1F
100
AcDbEntity
  8
0
  6
Continuous
 62
     7
370
    25
100
AcDbSpline
210
0.0
220
0.0
230
1.0
 70
     8
 71
     3
 72
    17
 73
    13
 74
     0
 42
0.000000001
 43
0.00000001
 40
0.0
 40
0.0
 40
0.0
 40
0.0
 40
0.0289230074398497
 40
0.1765364102154169
 40
0.2609425818889936
 40
0.3522920749240701
 40
0.4561011851812741
 40
0.5447528900396023
 40
0.6761047603968324
 40
0.8084231062352599
 40
0.8968640862364043
 40
1.0
 40
1.0
 40
1.0
 40
1.0
 10
194.9045093648276
 20
63.35437271411779
 30
0.0
 10
194.8772500740104
 20
63.38041588659863
 30
0.0
 10
194.7108684362821
 20
63.53937474279475
 30
0.0
 10
194.4230950027496
 20
63.61785786202046
 30
0.0
 10
194.1028215768178
 20
63.62150365739849
 30
0.0
 10
193.8488765049596
 20
63.53045235210608
 30
0.0
 10
193.6403968233921
 20
63.34965211584881
 30
0.0
 10
193.4773023869537
 20
63.05752647807093
 30
0.0
 10
193.4002983579639
 20
62.64773885990653
 30
0.0
 10
193.4756900409427
 20
62.18314234123154
 30
0.0
 10
193.6344349422126
 20
61.74120321946452
 30
0.0
 10
193.781849533013
 20
61.49080729232254
 30
0.0
 10
193.8612105573282
 20
61.35600600057498
 30
0.0
  0
LINE
  5
23C
330
1F
100
AcDbEntity
  8
0
  6
Continuous
 62
     7
370
    25
100
AcDbLine
 10
219.9436827204
 20
74.8768606249
 30
0.0
 11
219.8054265694
 21
74.6688865356
 31
0.0
  0
LINE
  5
23D
330
1F
100
AcDbEntity
  8
0
  6
Continuous
 62
     7
370
    25
100
AcDbLine
 10
189.720849698
 20
65.2257384312
 30
0.0
 11
190.2212328885
 21
64.9368733639
 31
0.0
  0
SPLINE
  5
23E
330
1F
100
AcDbEntity
  8
0
  6
Continuous
 62
     7
370
    25
100
AcDbSpline
210
0.0
220
0.0
230
1.0
 70
     8
 71
     3
 72
     9
 73
     5
 74
     0
 42
0.000000001
 43
0.00000001
 40
0.0
 40
0.0
 40
0.0
 40
0.0
 40
0.7009339503679092
 40
0.9999999999999999
 40
0.9999999999999999
 40
0.9999999999999999
 40
0.9999999999999999
 10
187.8950390008392
 20
70.98311702454477
 30
0.0
 10
187.8919671123203
 20
71.03712100889878
 30
0.0
 10
187.8875845474334
 20
71.11416676239047
 30
0.0
 10
187.9119948715099
 20
71.20379950280474
 30
0.0
 10
187.9192951707017
 20
71.23060561239814
 30
0.0
  0
SPLINE
  5
23F
330
1F
100
AcDbEntity
  8
0
  6
Continuous
 62
     7
370
    25
100
AcDbSpline
210
0.0
220
0.0
230
1.0
 70
     8
 71
     3
 72
    10
 73
     6
 74
     0
 42
0.000000001
 43
0.00000001
 40
0.0
 40
0.0
 40
0.0
 40
0.0
 40
0.5
 40
0.5
 40
1.0
 40
1.0
 40
1.0
 40
1.0
 10
187.9355316279528
 20
71.03546716962236
 30
0.0
 10
187.9156055774567
 20
70.95150669560665
 30
0.0
 10
187.9023113133159
 20
70.86606083309525
 30
0.0
 10
187.8850427871752
 20
70.69364736216276
 30
0.0
 10
187.8811193325529
 20
70.60653575589889
 30
0.0
 10
187.8810726907347
 20
70.51952499051498
 30
0.0
  0
SPLINE
  5
240
330
1F
100
AcDbEntity
  8
0
  6
Continuous
 62
     7
370
    25
100
AcDbSpline
210
0.0
220
0.0
230
1.0
 70
     8
 71
     3
 72
    24
 73
    20
 74
     0
 42
0.000000001
 43
0.00000001
 40
0.0
 40
0.0
 40
0.0
 40
0.0
 40
0.2499999999999952
 40
0.2499999999999952
 40
0.3749999999999937
 40
0.3749999999999937
 40
0.4374999999999931
 40
0.4374999999999931
 40
0.468749999999992
 40
0.468749999999992
 40
0.4999999999999909
 40
0.4999999999999909
 40
0.5624999999999933
 40
0.5624999999999933
 40
0.6249999999999958
 40
0.6249999999999958
 40
0.7499999999999981
 40
0.7499999999999981
 40
1.0
 40
1.0
 40
1.0
 40
1.0
 10
187.9192952249845
 20
71.23060552033861
 30
0.0
 10
187.9491362542697
 20
71.33788457689485
 30
0.0
 10
187.9789657943107
 20
71.44376915026552
 30
0.0
 10
188.023636951182
 20
71.59371719351581
 30
0.0
 10
188.0385897432738
 20
71.64271745627876
 30
0.0
 10
188.0601728815631
 20
71.7058677381815
 30
0.0
 10
188.0673025930928
 20
71.72550792241002
 30
0.0
 10
188.0761542183942
 20
71.74321785189801
 30
0.0
 10
188.078792315664
 20
71.74693421838369
 30
0.0
 10
188.0819448537091
 20
71.7447858700015
 30
0.0
 10
188.0823248148458
 20
71.73862346093492
 30
0.0
 10
188.0803148895851
 20
71.70997837758217
 30
0.0
 10
188.0757382479866
 20
71.68167737259398
 30
0.0
 10
188.0658068618802
 20
71.6252983624447
 30
0.0
 10
188.0601166761453
 20
71.59582861448865
 30
0.0
 10
188.0425350755266
 20
71.50797419392232
 30
0.0
 10
188.0298542025984
 20
71.448749200873
 30
0.0
 10
187.990613138978
 20
71.2702558937432
 30
0.0
 10
187.9633096789415
 20
71.15251285956948
 30
0.0
 10
187.9355316279528
 20
71.03546716962238
 30
0.0
  0
ARC
  5
241
330
1F
100
AcDbEntity
  8
0
  6
Continuous
 62
     7
370
    25
100
AcDbCircle
 10
188.5982096553
 20
70.4408583387
 30
0.0
 40
0.7201273031244075
100
AcDbArc
 50
174.7584203609
 51
234.4349513408
  0
ARC
  5
242
330
1F
100
AcDbEntity
  8
0
  6
Continuous
 62
     7
370
    25
100
AcDbCircle
 10
190.0935444228
 20
62.9409606024
 30
0.0
 40
2.215173511102297
100
AcDbArc
 50
122.6235856257
 51
177.1589283586
  0
LINE
  5
243
330
1F
100
AcDbEntity
  8
0
  6
Continuous
 62
     7
370
    25
100
AcDbLine
 10
188.8993055461
 20
64.80664739
 30
0.0
 11
189.6433923515
 21
65.2361995595
 31
0.0
  0
SPLINE
  5
244
330
1F
100
AcDbEntity
  8
0
  6
Continuous
 62
     7
370
    25
100
AcDbSpline
210
0.0
220
0.0
230
1.0
 70
     8
 71
     3
 72
     8
 73
     4
 74
     0
 42
0.000000001
 43
0.00000001
 40
0.0
 40
0.0
 40
0.0
 40
0.0
 40
0.0001590976915385
 40
0.0001590976915385
 40
0.0001590976915385
 40
0.0001590976915385
 10
189.7208501229124
 20
65.22573841426797
 30
0.0
 10
189.6950299939647
 20
65.22922296364786
 30
0.0
 10
189.6692108500301
 20
65.2327099463033
 30
0.0
 10
189.6433926709918
 20
65.23619930734048
 30
0.0
  0
ARC
  5
245
330
1F
100
AcDbEntity
  8
0
  6
Continuous
 62
     7
370
    25
100
AcDbCircle
 10
189.2281643728
 20
63.4356193593
 30
0.0
 40
1.353479563765685
100
AcDbArc
 50
122.9135810547
 51
170.975405912
  0
LINE
  5
246
330
1F
100
AcDbEntity
  8
0
  6
Continuous
 62
     7
370
    25
100
AcDbLine
 10
188.8993055461
 20
64.80664739
 30
0.0
 11
188.4927195083
 21
64.5718533937
 31
0.0
  0
SPLINE
  5
247
330
1F
100
AcDbEntity
  8
0
  6
Continuous
 62
     7
370
    25
100
AcDbSpline
210
0.0
220
0.0
230
1.0
 70
     8
 71
     3
 72
    10
 73
     6
 74
     0
 42
0.000000001
 43
0.00000001
 40
0.0
 40
0.0
 40
0.0
 40
0.0
 40
0.5
 40
0.5
 40
1.0
 40
1.0
 40
1.0
 40
1.0
 10
187.9355316279528
 20
62.85081155391839
 30
0.0
 10
187.9156055774567
 20
62.88933311543401
 30
0.0
 10
187.9023113133159
 20
62.9212964426271
 30
0.0
 10
187.8850427871752
 20
62.98373986612395
 30
0.0
 10
187.8811193325529
 20
63.01416324333614
 30
0.0
 10
187.8810726907347
 20
63.04605393863569
 30
0.0
  0
LINE
  5
248
330
1F
100
AcDbEntity
  8
0
  6
Continuous
 62
     7
370
    25
100
AcDbLine
 10
187.8914393966
 20
63.6479240166
 30
0.0
 11
187.8950390008
 21
63.5122877559
 31
0.0
  0
LINE
  5
249
330
1F
100
AcDbEntity
  8
0
  6
Continuous
 62
     7
370
    25
100
AcDbLine
 10
187.9900630221
 20
62.7561776385
 30
0.0
 11
187.9355315855
 21
62.8508117316
 31
0.0
  0
LWPOLYLINE
  5
24A
330
1F
100
AcDbEntity
  8
0
  6
Continuous
 62
     7
370
    18
100
AcDbPolyline
 90
       18
 70
   128
 43
0.0
 10
270.9163608617
 20
35.1566733948
 10
271.0015844235
 20
35.4083021884
 10
271.2880901386
 20
36.0290684444
 10
271.6636626813
 20
36.604667585
 10
272.1047044263
 20
37.0989333538
 10
272.5835025036
 20
37.4808084801
 10
273.0699726243
 20
37.7262990001
 10
273.5335477867
 20
37.8199793208
 10
273.9450999087
 20
37.7559633408
 10
274.2787699229
 20
37.5382735785
 10
274.5135924064
 20
37.1805884511
 10
274.6348113526
 20
36.7053818532
 10
274.6348113526
 20
36.1425135047
 10
274.5135924064
 20
35.5273504907
 10
274.2787699229
 20
34.8985450947
 10
273.9450999087
 20
34.2956081342
 10
273.5335477867
 20
33.7564241885
 10
273.4487819133
 20
33.6642469295
  0
LWPOLYLINE
  5
24B
330
1F
100
AcDbEntity
  8
0
  6
Continuous
 62
     7
370
    18
100
AcDbPolyline
 90
       10
 70
   128
 43
0.0
 10
270.6057135634
 20
35.3360057206
 10
270.6504912973
 20
35.4663443832
 10
270.9409956946
 20
36.120052756
 10
271.3237792997
 20
36.7326286329
 10
271.776596479
 20
37.2684716054
 10
272.2731298184
 20
37.6964391949
 10
272.7845238732
 20
37.9916606987
 10
273.2810572126
 20
38.1369783002
 10
273.7338743919
 20
38.1239469146
 10
274.0444525429
 20
38.0011513046
  0
LWPOLYLINE
  5
24C
330
1F
100
AcDbEntity
  8
0
  6
Continuous
 62
     7
370
    18
100
AcDbPolyline
 90
       26
 70
   128
 43
0.0
 10
255.2047085256
 20
25.2071880724
 10
255.265799724
 20
25.800885225
 10
255.4452353217
 20
26.427813007
 10
255.7317410368
 20
27.048579263
 10
256.1073135795
 20
27.6241784036
 10
256.5483553245
 20
28.1184441724
 10
257.0271534018
 20
28.5003192987
 10
257.5136235225
 20
28.7458098187
 10
257.9771986849
 20
28.8394901394
 10
258.3887508068
 20
28.7754741594
 10
258.7224208211
 20
28.5577843971
 10
258.9572433046
 20
28.2000992697
 10
259.0784622508
 20
27.7248926718
 10
259.0784622508
 20
27.1620243233
 10
258.9572433046
 20
26.5468613093
 10
258.7224208211
 20
25.9180559133
 10
258.3887508068
 20
25.3151189528
 10
257.9771986849
 20
24.7759350071
 10
257.5136235225
 20
24.334382838
 10
257.0271534018
 20
24.018206912
 10
256.5483553245
 20
23.8472735452
 10
256.1073135795
 20
23.8323233542
 10
255.7317410368
 20
23.9742956669
 10
255.4452353217
 20
24.2642694654
 10
255.265799724
 20
24.6840253161
 10
255.2047085256
 20
25.2071880724
  0
LWPOLYLINE
  5
24D
330
1F
100
AcDbEntity
  8
0
  6
Continuous
 62
     7
370
    18
100
AcDbPolyline
 90
       11
 70
   128
 43
0.0
 10
254.8511570527
 20
25.2071865517
 10
254.9127987943
 20
25.8290045722
 10
255.0941415369
 20
26.4858548217
 10
255.3846465928
 20
27.1395635746
 10
255.7674301979
 20
27.7521394516
 10
256.2202473772
 20
28.287982424
 10
256.7167807166
 20
28.7159500135
 10
257.2281747714
 20
29.0111715174
 10
257.7247081108
 20
29.1564891188
 10
258.1775252901
 20
29.1434577332
 10
258.4881027826
 20
29.020661743
  0
ARC
  5
24E
330
1F
100
AcDbEntity
  8
0
  6
Continuous
 62
     7
370
    18
100
AcDbCircle
 10
256.2958167248
 20
25.03345933
 30
0.0
 40
1.455067941921607
100
AcDbArc
 50
173.1428367921
 51
235.5450278174
  0
LWPOLYLINE
  5
24F
330
1F
100
AcDbEntity
  8
0
  6
Continuous
 62
     7
370
    18
100
AcDbPolyline
 90
       32
 70
   128
 43
0.0
 10
279.1049176302
 20
26.0644164642
 10
279.0441247524
 20
26.7196689826
 10
278.864234759
 20
27.2779053111
 10
278.5726123177
 20
27.7162711851
 10
278.1811966759
 20
28.0168199385
 10
277.706012197
 20
28.1672467287
 10
277.1665132736
 20
28.1613935929
 10
276.58478683
 20
27.9994997156
 10
275.984648902
 20
27.6881933974
 10
275.3906692294
 20
27.2402192713
 10
274.8271653709
 20
26.6739176935
 10
274.3172071902
 20
26.0124728586
 10
273.8816725236
 20
25.2829646021
 10
273.5383922048
 20
24.5152588587
 10
273.3014203966
 20
23.740786142
 10
273.1804579535
 20
22.9912525668
 10
273.1804579535
 20
22.2973448175
 10
273.3014203966
 20
21.6874715063
 10
273.5383922048
 20
21.1866006156
 10
273.8816725236
 20
20.8152378919
 10
274.3172071902
 20
20.5885872577
 10
274.8271653709
 20
20.5159276057
 10
275.3906692294
 20
20.6002337344
 10
275.984648902
 20
20.8380539406
 10
276.58478683
 20
21.2196521252
 10
277.1665132736
 20
21.7294053033
 10
277.706012197
 20
22.3464443658
 10
278.1811966759
 20
23.0455074773
 10
278.5726123177
 20
23.7979751114
 10
278.864234759
 20
24.5730410893
 10
279.0441247524
 20
25.3389739832
 10
279.1049176302
 20
26.0644164642
  0
LWPOLYLINE
  5
250
330
1F
100
AcDbEntity
  8
0
  6
Continuous
 62
     7
370
    18
100
AcDbPolyline
 90
       18
 70
   128
 43
0.0
 10
273.6795156587
 20
20.5715294744
 10
273.6729389393
 20
20.5753055046
 10
273.2772187213
 20
20.9036720142
 10
272.9831721776
 20
21.3691836941
 10
272.802099109
 20
21.9539508302
 10
272.7409585198
 20
22.6355015664
 10
272.802099109
 20
23.3876437243
 10
272.9831721776
 20
24.1814733754
 10
273.2772187213
 20
24.9864839681
 10
273.6729389393
 20
25.7717393164
 10
274.155125228
 20
26.5070626377
 10
274.7052477091
 20
27.1641956816
 10
275.3021652927
 20
27.7178853641
 10
275.9229388982
 20
28.1468532342
 10
276.5437125036
 20
28.4346153129
 10
277.1406300872
 20
28.5701120027
 10
277.6907525683
 20
28.5481368557
 10
278.0959041315
 20
28.411073217
  0
LWPOLYLINE
  5
251
330
1F
100
AcDbEntity
  8
0
  6
Continuous
 62
     7
370
    18
100
AcDbPolyline
 90
       29
 70
   128
 43
0.0
 10
252.7298337273
 20
26.3501597684
 10
252.790346065
 20
27.6516422217
 10
252.9711488011
 20
29.0071927558
 10
253.2700470068
 20
30.4003564904
 10
253.6834127603
 20
31.8142224021
 10
254.2062279524
 20
33.2316282647
 10
254.8321461899
 20
34.6353684406
 10
255.5535705031
 20
36.0084035701
 10
256.3617429087
 20
37.3340670299
 10
257.2468540571
 20
38.5962662541
 10
258.1981591359
 20
39.7796812052
 10
259.2041108965
 20
40.8699453512
 10
260.2524987713
 20
41.8538255972
 10
261.3305963054
 20
42.7193781189
 10
262.4253170669
 20
43.4560969236
 10
263.5233726155
 20
44.0550392641
 10
264.6114340103
 20
44.5089340843
 10
265.676293565
 20
44.8122715965
 10
266.7050253679
 20
44.9613708524
 10
267.6851424275
 20
44.9544217911
 10
268.6047464908
 20
44.7915070886
 10
269.452675887
 20
44.4746061367
 10
270.2186375653
 20
44.0075655618
 10
270.8933335359
 20
43.3960535863
 10
271.4685734807
 20
42.6474934765
 10
271.9373761694
 20
41.7709726588
 10
272.2940491433
 20
40.7771294024
 10
272.5342644478
 20
39.6780288572
 10
272.6344705558
 20
38.8153092857
  0
LWPOLYLINE
  5
252
330
1F
100
AcDbEntity
  8
0
  6
Continuous
 62
     7
370
    18
100
AcDbPolyline
 90
       18
 70
   128
 43
0.0
 10
265.5154753497
 20
22.6865030865
 10
264.6114340103
 20
21.909589139
 10
263.5233726155
 20
21.1072350128
 10
262.4253170669
 20
20.4383894025
 10
261.3305963054
 20
19.9111705197
 10
260.2524987713
 20
19.5319781237
 10
259.2041108965
 20
19.3054154944
 10
258.1981591359
 20
19.2342324597
 10
257.2468540571
 20
19.3192939459
 10
256.3617429087
 20
19.5595655906
 10
255.5535705031
 20
19.9521330523
 10
254.8321461899
 20
20.4922293994
 10
254.2062279524
 20
21.1732997607
 10
253.6834127603
 20
21.9870760511
 10
253.2700470068
 20
22.9236800226
 10
252.9711488011
 20
23.9717432347
 10
252.790346065
 20
25.118543373
 10
252.7298337273
 20
26.3501597684
  0
LWPOLYLINE
  5
253
330
1F
100
AcDbEntity
  8
0
  6
Continuous
 62
     7
370
    18
100
AcDbPolyline
 90
       20
 70
   128
 43
0.0
 10
252.1641492633
 20
26.3501597684
 10
252.2242526449
 20
27.6649688019
 10
252.4038594642
 20
29.0337575863
 10
252.7008636958
 20
30.4404780804
 10
253.1117829564
 20
31.8686375019
 10
253.6317993345
 20
33.3014920506
 10
254.2548166833
 20
34.7222436732
 10
254.9735304274
 20
36.1142335947
 10
255.7795144896
 20
37.4611434523
 10
256.6633194149
 20
38.7471819799
 10
257.6145830054
 20
39.9572713115
 10
258.6221528099
 20
41.0772233967
 10
259.6742163509
 20
42.0939087163
 10
260.7584385958
 20
42.9954071264
 10
261.8621084421
 20
43.7711502171
 10
262.9722861487
 20
44.4120421653
 10
264.075955995
 20
44.9105691556
 10
265.16017824
 20
45.2608871039
 10
266.212241781
 20
45.4588884934
 10
266.9598142624
 20
45.5058944214
  0
ARC
  5
254
330
1F
100
AcDbEntity
  8
0
  6
Continuous
 62
     7
370
    18
100
AcDbCircle
 10
261.4595492909
 20
26.0395586324
 30
0.0
 40
9.300587870647549
100
AcDbArc
 50
178.0862022843
 51
207.5350615122
  0
LWPOLYLINE
  5
255
330
1F
100
AcDbEntity
  8
0
  6
Continuous
 62
     7
370
    18
100
AcDbPolyline
 90
       21
 70
   128
 43
0.0
 10
211.0812465766
 20
50.0668146662
 10
211.1413499582
 20
51.3816236998
 10
211.3209567775
 20
52.7504124841
 10
211.6179610091
 20
54.1571329783
 10
212.0288802697
 20
55.5852923997
 10
212.5488966477
 20
57.0181469484
 10
213.1719139966
 20
58.4388985711
 10
213.8906277407
 20
59.8308884926
 10
214.6966118029
 20
61.1777983501
 10
215.5804167282
 20
62.4638368778
 10
216.5316803187
 20
63.6739262094
 10
217.5392501232
 20
64.7938782946
 10
218.5913136642
 20
65.8105636142
 10
219.6755359091
 20
66.7120620242
 10
220.7792057554
 20
67.4878051149
 10
221.889383462
 20
68.1286970632
 10
222.9930533083
 20
68.6272240534
 10
224.0772755533
 20
68.9775420017
 10
225.1293390943
 20
69.1755433912
 10
226.1369088988
 20
69.2189066404
 10
226.5265486107
 20
69.1926029306
  0
ARC
  5
256
330
1F
100
AcDbEntity
  8
0
  6
Continuous
 62
     7
370
    18
100
AcDbCircle
 10
219.9834201238
 20
49.7113257588
 30
0.0
 40
8.90926855747154
100
AcDbArc
 50
177.7132328627
 51
212.8715751991
  0
LWPOLYLINE
  5
257
330
1F
100
AcDbEntity
  8
0
  6
Continuous
 62
     7
370
    18
100
AcDbPolyline
 90
       20
 70
   128
 43
0.0
 10
265.634531965
 20
25.2275991909
 10
265.6957713359
 20
26.1163804563
 10
265.8778193797
 20
27.0516237941
 10
266.1757103415
 20
28.0078182314
 10
266.5813181114
 20
28.9588810338
 10
267.0835791416
 20
29.878870048
 10
267.668792743
 20
30.7426895731
 10
268.3209961259
 20
31.5267777839
 10
269.0223987105
 20
32.2097464299
 10
269.7538681324
 20
32.7729661556
 10
270.4954518101
 20
33.2010733002
 10
271.226921232
 20
33.4823901926
 10
271.9283238166
 20
33.6092437332
 10
272.5805271995
 20
33.5781735198
 10
273.1657408009
 20
33.3900272368
 10
273.6680018311
 20
33.0499364647
 10
274.073609601
 20
32.5671784252
 10
274.3715005629
 20
31.9549215715
 10
274.5535486066
 20
31.2298664311
 10
274.614776453
 20
30.4236176517
  0
LWPOLYLINE
  5
258
330
1F
100
AcDbEntity
  8
0
  6
Continuous
 62
     7
370
    18
100
AcDbPolyline
 90
       11
 70
   128
 43
0.0
 10
270.115142041
 20
22.6291776446
 10
269.7538681324
 20
22.4383165291
 10
269.0223987105
 20
22.1569996367
 10
268.3209961259
 20
22.0301460961
 10
267.668792743
 20
22.0612163095
 10
267.0835791416
 20
22.2493625925
 10
266.5813181114
 20
22.5894533646
 10
266.1757103415
 20
23.0722114041
 10
265.8778193797
 20
23.6844682578
 10
265.6957713359
 20
24.4095233982
 10
265.634531965
 20
25.2275991909
  0
LWPOLYLINE
  5
259
330
1F
100
AcDbEntity
  8
0
  6
Continuous
 62
     7
370
    18
100
AcDbPolyline
 90
       16
 70
   128
 43
0.0
 10
265.0688468424
 20
25.2275988108
 10
265.1306555251
 20
26.1474110912
 10
265.3144809805
 20
27.1147636671
 10
265.6155619319
 20
28.1046023944
 10
266.0261008831
 20
29.0912910898
 10
266.5354646451
 20
30.0492752054
 10
267.1304612544
 20
30.9537430255
 10
267.7956806049
 20
31.7812694615
 10
268.5138939375
 20
32.5104221506
 10
269.2664996746
 20
33.1223165523
 10
270.0340058867
 20
33.6011047379
 10
270.7965344902
 20
33.9343862309
 10
271.5343365584
 20
34.1135294441
 10
272.2283031877
 20
34.1338943527
 10
272.8604609697
 20
33.9949538839
 10
273.0860681107
 20
33.8985172367
  0
ARC
  5
25A
330
1F
100
AcDbEntity
  8
0
  6
Continuous
 62
     7
370
    18
100
AcDbCircle
 10
268.4883574285
 20
24.913185516
 30
0.0
 40
3.43393482294551
100
AcDbArc
 50
174.7466036582
 51
233.9412148919
  0
LWPOLYLINE
  5
25B
330
1F
100
AcDbEntity
  8
0
  6
Continuous
 62
     7
370
    18
100
AcDbPolyline
 90
       13
 70
   128
 43
0.0
 10
267.5437201591
 20
26.3297500754
 10
267.6040611106
 20
27.0052764801
 10
267.7822624313
 20
27.7188841722
 10
268.0699917221
 20
28.437205725
 10
268.4537949187
 20
29.1266529927
 10
268.9157260247
 20
29.7549885003
 10
269.4341854389
 20
30.2928316996
 10
269.9849307075
 20
30.7150340108
 10
270.5422095403
 20
31.0018532451
 10
271.0799642262
 20
31.1398783695
 10
271.5730499205
 20
31.1226554314
 10
271.9984105683
 20
30.9509895954
 10
272.3004498666
 20
30.6788310343
  0
ARC
  5
25C
330
1F
100
AcDbEntity
  8
0
  6
Continuous
 62
     7
370
    18
100
AcDbCircle
 10
269.1695854221
 20
26.0909910256
 30
0.0
 40
1.643302691986204
100
AcDbArc
 50
171.6458002726
 51
254.7296114127
  0
LWPOLYLINE
  5
25D
330
1F
100
AcDbEntity
  8
0
  6
Continuous
 62
     7
370
    18
100
AcDbPolyline
 90
        3
 70
   128
 43
0.0
 10
271.4893079191
 20
30.7842067892
 10
271.7618498565
 20
30.5496508479
 10
271.842166274
 20
30.4441445798
  0
LWPOLYLINE
  5
25E
330
1F
100
AcDbEntity
  8
0
  6
Continuous
 62
     7
370
    18
100
AcDbPolyline
 90
        3
 70
   128
 43
0.0
 10
268.7108357062
 20
25.0199332143
 10
268.4694893514
 20
25.062107368
 10
268.1892414555
 20
25.1848680025
  0
LWPOLYLINE
  5
25F
330
1F
100
AcDbEntity
  8
0
  6
Continuous
 62
     7
370
    18
100
AcDbPolyline
 90
        3
 70
   128
 43
0.0
 10
257.7417854869
 20
29.4516948467
 10
257.8007255497
 20
30.2402932317
 10
257.9380442627
 20
31.0249368895
  0
LWPOLYLINE
  5
260
330
1F
100
AcDbEntity
  8
0
  6
Continuous
 62
     7
370
    18
100
AcDbPolyline
 90
        9
 70
   128
 43
0.0
 10
262.605258077
 20
37.7781084203
 10
262.6313928479
 20
37.7932763115
 10
263.3964953726
 20
38.1654265323
 10
264.1427585853
 20
38.389345482
 10
264.8518068716
 20
38.4595194849
 10
265.5061813111
 20
38.374220364
 10
266.0897689661
 20
38.1355490791
 10
266.5881995722
 20
37.7493814593
 10
266.7768472198
 20
37.5356214037
  0
ARC
  5
261
330
1F
100
AcDbEntity
  8
0
  6
Continuous
 62
     7
370
    18
100
AcDbCircle
 10
260.3617900942
 20
28.2159205169
 30
0.0
 40
2.378169132082767
100
AcDbArc
 50
232.6083199234
 51
262.1431624448
  0
ARC
  5
262
330
1F
100
AcDbEntity
  8
0
  6
Continuous
 62
     7
370
    18
100
AcDbCircle
 10
268.8998945305
 20
28.5221666209
 30
0.0
 40
10.45987170272988
100
AcDbArc
 50
127.5481927714
 51
171.6128385107
  0
LWPOLYLINE
  5
263
330
1F
100
AcDbEntity
  8
0
  6
Continuous
 62
     7
370
    18
100
AcDbPolyline
 90
       16
 70
   128
 43
0.0
 10
258.1922361866
 20
29.3402532002
 10
258.2524423011
 20
30.2362184654
 10
258.4315018699
 20
31.1784914223
 10
258.7247770933
 20
32.142667731
 10
259.1246723189
 20
33.1037758337
 10
259.6208302879
 20
34.0369229495
 10
260.2004013153
 20
34.9179415377
 10
260.8483742083
 20
35.724013987
 10
261.5479671126
 20
36.4342625078
 10
262.2810608756
 20
37.0302928466
 10
263.0286687745
 20
37.4966681169
 10
263.7714281393
 20
37.8213089586
 10
264.4901019591
 20
37.9958078236
 10
265.1660768231
 20
38.0156445679
 10
265.781845408
 20
37.8803064287
 10
266.105158822
 20
37.7318609214
  0
LWPOLYLINE
  5
264
330
1F
100
AcDbEntity
  8
0
  6
Continuous
 62
     7
370
    18
100
AcDbPolyline
 90
        3
 70
   128
 43
0.0
 10
259.5542303647
 20
26.3299237304
 10
259.1246723189
 20
26.6532984098
 10
259.0343130977
 20
26.7448825903
  0
LINE
  5
265
330
1F
100
AcDbEntity
  8
0
  6
Continuous
 62
     7
370
    18
100
AcDbLine
 10
258.1940685867
 20
29.190597389
 30
0.0
 11
258.1922361866
 21
29.3402532002
 31
0.0
  0
LINE
  5
266
330
1F
100
AcDbEntity
  8
0
  6
Continuous
 62
     7
370
    18
100
AcDbLine
 10
259.3974783326
 20
26.4883636696
 30
0.0
 11
259.078417799
 21
26.8546135249
 31
0.0
  0
LWPOLYLINE
  5
267
330
1F
100
AcDbEntity
  8
0
  6
Continuous
 62
     7
370
    18
100
AcDbPolyline
 90
       16
 70
   128
 43
0.0
 10
258.4467863587
 20
29.0447065246
 10
258.4450066422
 20
29.21992287
 10
258.5116608953
 20
30.1390627763
 10
258.7025601065
 20
31.1053584054
 10
259.0125291039
 20
32.0926109151
 10
259.4331632131
 20
33.0740528
 10
259.9530580896
 20
34.0230748229
 10
260.558117753
 20
34.9139460481
 10
261.2319373654
 20
35.7225120064
 10
261.9562475854
 20
36.4268502668
 10
262.7114105743
 20
37.0078647635
 10
263.476951525
 20
37.4498021474
 10
264.2321145139
 20
37.740680279
 10
264.9564247338
 20
37.872612798
 10
265.6302443463
 20
37.8420224046
 10
265.9131018895
 20
37.7749771241
  0
LWPOLYLINE
  5
268
330
1F
100
AcDbEntity
  8
0
  6
Continuous
 62
     7
370
    18
100
AcDbPolyline
 90
       22
 70
   128
 43
0.0
 10
206.4673737767
 20
53.9549583468
 10
206.5272921073
 20
55.1995707793
 10
206.7062667239
 20
56.4971384709
 10
207.0019630861
 20
57.8307445732
 10
207.4105273916
 20
59.1830046959
 10
207.9266333323
 20
60.5362897176
 10
208.5435519005
 20
61.8729567701
 10
209.2532416091
 20
63.1755813615
 10
210.0464499079
 20
64.4271813223
 10
210.912836331
 20
65.6114403705
 10
211.8411061815
 20
66.7129195077
 10
212.8191580455
 20
67.7172592882
 10
213.8342415135
 20
68.6113666879
 10
214.873123463
 20
69.3835863832
 10
215.9222604322
 20
70.0238496905
 10
216.9679753572
 20
70.5238115751
 10
217.9966357904
 20
70.8769527748
 10
218.9948313785
 20
71.0786708482
 10
219.9495493642
 20
71.1263351016
 10
220.848343421
 20
71.0193247394
 10
221.6794963958
 20
70.7590345995
 10
221.9187857868
 20
70.6491454107
  0
LWPOLYLINE
  5
269
330
1F
100
AcDbEntity
  8
0
  6
Continuous
 62
     7
370
    18
100
AcDbPolyline
 90
        8
 70
   128
 43
0.0
 10
209.160290686
 20
48.0029759242
 10
208.5435519005
 20
48.4340641614
 10
207.9266333323
 20
49.0584521965
 10
207.4105273916
 20
49.8158539827
 10
207.0019630861
 20
50.6963957991
 10
206.7062667239
 20
51.6885981486
 10
206.5272921073
 20
52.7795261463
 10
206.4673737767
 20
53.9549583468
  0
LINE
  5
26A
330
1F
100
AcDbEntity
  8
0
  6
Continuous
 62
     7
370
    18
100
AcDbLine
 10
204.8550724287
 20
57.1068342086
 30
0.0
 11
204.9341109405
 21
57.4398658119
 31
0.0
  0
LWPOLYLINE
  5
26B
330
1F
100
AcDbEntity
  8
0
  6
Continuous
 62
     7
370
    18
100
AcDbPolyline
 90
        9
 70
   128
 43
0.0
 10
214.3772198568
 20
71.4992808886
 10
214.5463696479
 20
71.6120728425
 10
215.7430394377
 20
72.3233566221
 10
216.9344668839
 20
72.8803366992
 10
218.1063534213
 20
73.2763275226
 10
219.2446357496
 20
73.5065778517
 10
220.3356530214
 20
73.5683239251
 10
221.3663117256
 20
73.4608245695
 10
222.3242437378
 20
73.1853703104
  0
LWPOLYLINE
  5
26C
330
1F
100
AcDbEntity
  8
0
  6
Continuous
 62
     7
370
    18
100
AcDbPolyline
 90
       19
 70
   128
 43
0.0
 10
204.4213899186
 20
57.101396642
 10
204.831070457
 20
58.6573261129
 10
205.362664706
 20
60.2243126815
 10
206.0098578823
 20
61.7837427102
 10
206.7649614788
 20
63.3170916639
 10
207.6190067778
 20
64.806145397
 10
208.561847584
 20
66.2332145933
 10
209.5822846896
 20
67.5813480651
 10
210.6681959366
 20
68.834531031
 10
211.8066817551
 20
69.9778771193
 10
212.9842184398
 20
70.9978050663
 10
214.1868180936
 20
71.8821972103
 10
215.400194993
 20
72.6205510457
 10
216.6099354919
 20
73.2040932763
 10
217.8016692436
 20
73.6258931084
 10
218.9612396817
 20
73.8809393743
 10
220.0748723597
 20
73.9662027318
 10
221.1293384357
 20
73.8806707252
 10
222.1121120638
 20
73.6253587971
  0
LWPOLYLINE
  5
26D
330
1F
100
AcDbEntity
  8
0
  6
Continuous
 62
     7
370
    18
100
AcDbPolyline
 90
       23
 70
   128
 43
0.0
 10
205.9723992122
 20
56.3883888949
 10
206.2584966297
 20
57.757294494
 10
206.6606118088
 20
59.1481068881
 10
207.1735890045
 20
60.5429925654
 10
207.7908493573
 20
61.9240637746
 10
208.5044791377
 20
63.2736119787
 10
209.3053258943
 20
64.5743321825
 10
210.1831216009
 20
65.809544596
 10
211.1266100857
 20
66.9634111641
 10
212.1236932275
 20
68.0211355549
 10
213.1615852199
 20
68.9691548767
 10
214.2269774548
 20
69.7953116699
 10
215.3062086732
 20
70.4890144909
 10
216.3854398917
 20
71.0413655117
 10
217.4508321266
 20
71.44528441
 10
218.488724119
 20
71.6955896756
 10
219.4858072608
 20
71.7890729761
 10
220.4292957455
 20
71.7245350255
 10
221.3070914522
 20
71.5028039624
 10
222.1079382087
 20
71.1267217422
 10
222.8215679892
 20
70.6011129446
 10
223.438828342
 20
69.932715369
 10
223.6258556408
 20
69.6735833976
  0
ARC
  5
26E
330
1F
100
AcDbEntity
  8
0
  6
Continuous
 62
     7
370
    18
100
AcDbCircle
 10
219.4484785162
 20
67.4030438876
 30
0.0
 40
6.549531130583516
100
AcDbArc
 50
16.7149205262
 51
49.7683168667
  0
LWPOLYLINE
  5
26F
330
1F
100
AcDbEntity
  8
0
  6
Continuous
 62
     7
370
    18
100
AcDbPolyline
 90
        9
 70
   128
 43
0.0
 10
210.62691244
 20
47.15631345
 10
210.1831216009
 20
47.2068914636
 10
209.3053258943
 20
47.4286225267
 10
208.5044791377
 20
47.8047047469
 10
207.7908493573
 20
48.3303135445
 10
207.1735890045
 20
48.9987111201
 10
206.6606118088
 20
49.801325934
 10
206.2584966297
 20
50.7278660246
 10
205.9723992122
 20
51.7664505766
  0
LWPOLYLINE
  5
270
330
1F
100
AcDbEntity
  8
0
  6
Continuous
 62
     7
370
    18
100
AcDbPolyline
 90
       24
 70
   128
 43
0.0
 10
195.1006323363
 20
58.2717162114
 10
195.1616412166
 20
59.6512260082
 10
195.3440014105
 20
61.0860621622
 10
195.6457129183
 20
62.5605031461
 10
196.0634711637
 20
64.0583952323
 10
196.5926986037
 20
65.5633267302
 10
197.2275974126
 20
67.0588094473
 10
197.9612113847
 20
68.5284594829
 10
198.7855023257
 20
69.9561732688
 10
199.6914402733
 20
71.3263104514
 10
200.6690983277
 20
72.6238581435
 10
201.707765921
 20
73.8346004962
 10
202.7960630747
 20
74.9452728726
 10
203.9220660174
 20
75.9437058483
 10
205.0734379879
 20
76.81896156
 10
206.2375643191
 20
77.5614481895
 10
207.4016906504
 20
78.1630332127
 10
208.5530626209
 20
78.6171232822
 10
209.6790655636
 20
78.9187456317
 10
210.7673627173
 20
79.0645944032
 10
211.8060303105
 20
79.0530721275
 10
212.7836883649
 20
78.8843043983
 10
213.6896263126
 20
78.5601409058
 10
214.1119245638
 20
78.3411997557
  0
LWPOLYLINE
  5
271
330
1F
100
AcDbEntity
  8
0
  6
Continuous
 62
     7
370
    18
100
AcDbPolyline
 90
        9
 70
   128
 43
0.0
 10
198.3632040745
 20
51.0606606352
 10
197.9612113847
 20
51.3177272081
 10
197.2275974126
 20
51.9403645807
 10
196.5926986037
 20
52.7028087362
 10
196.0634711637
 20
53.596707238
 10
195.6457129183
 20
54.6122659209
 10
195.3440014105
 20
55.7383582128
 10
195.1616412166
 20
56.9626457685
 10
195.1006323363
 20
58.2717162114
  0
LWPOLYLINE
  5
272
330
1F
100
AcDbEntity
  8
0
  6
Continuous
 62
     7
370
    18
100
AcDbPolyline
 90
       15
 70
   128
 43
0.0
 10
202.7692057981
 20
59.0336162932
 10
203.1290977375
 20
60.4284897188
 10
203.6018148148
 20
61.8345074075
 10
204.1814123486
 20
63.2339918166
 10
204.8606048611
 20
64.6093484196
 10
205.6308523471
 20
65.9432850916
 10
206.4824715681
 20
67.2190307323
 10
207.4047545904
 20
68.420546663
 10
208.386106421
 20
69.5327269961
 10
209.414189393
 20
70.5415884522
 10
210.4760775949
 20
71.4344462021
 10
211.5584203949
 20
72.2000767098
 10
212.6476101234
 20
72.8288525562
 10
213.7299529235
 20
73.312868446
 10
213.9152688298
 20
73.3813566914
  0
LWPOLYLINE
  5
273
330
1F
100
AcDbEntity
  8
0
  6
Continuous
 62
     7
370
    18
100
AcDbPolyline
 90
       17
 70
   128
 43
0.0
 10
202.3433876265
 20
59.6817612807
 10
202.7605380353
 20
61.1279537345
 10
203.2922402856
 20
62.5785738812
 10
203.9317726136
 20
64.015280747
 10
204.6710474343
 20
65.419906872
 10
205.5007173669
 20
66.7746925223
 10
206.4102921266
 20
68.062507925
 10
207.3882705629
 20
69.2670694166
 10
208.4222875148
 20
70.3731458956
 10
209.4992677458
 20
71.3667518704
 10
210.6055942018
 20
72.2353236802
 10
211.7272781215
 20
72.9678800565
 10
212.8501365553
 20
73.5551565413
 10
213.9599719834
 20
73.9897297111
 10
215.0427510281
 20
74.2661028549
 10
216.0847831252
 20
74.3807817419
 10
216.2346648918
 20
74.3839028764
  0
LINE
  5
274
330
1F
100
AcDbEntity
  8
0
  6
Continuous
 62
     7
370
    18
100
AcDbLine
 10
196.7502690215
 20
57.7341527813
 30
0.0
 11
198.5477781098
 21
58.7718326903
 31
0.0
  0
ARC
  5
275
330
1F
100
AcDbEntity
  8
0
  6
Continuous
 62
     7
370
    18
100
AcDbCircle
 10
210.511934896
 20
51.1707665768
 30
0.0
 40
5.830617034431808
100
AcDbArc
 50
194.0227418437
 51
284.7614625992
  0
LINE
  5
276
330
1F
100
AcDbEntity
  8
0
  6
Continuous
 62
     7
370
    18
100
AcDbLine
 10
204.4744751914
 20
49.5835015264
 30
0.0
 11
204.4213899186
 21
49.7525296514
 31
0.0
  0
LWPOLYLINE
  5
277
330
1F
100
AcDbEntity
  8
0
  6
Continuous
 62
     7
370
    18
100
AcDbPolyline
 90
       16
 70
   128
 43
0.0
 10
187.8810732475
 20
70.5195250592
 10
188.3569342162
 20
71.8555171288
 10
188.9467227263
 20
73.178048201
 10
189.640699563
 20
74.465279456
 10
190.4274053933
 20
75.6959543695
 10
191.2938491097
 20
76.8497511701
 10
192.225722845
 20
77.907616852
 10
193.2076385543
 20
78.8520832204
 10
194.2233821309
 20
79.6675535145
 10
195.2561803639
 20
80.340562984
 10
196.2889785969
 20
80.8599969725
 10
197.3047221735
 20
81.2172792491
 10
198.2866378828
 20
81.4065086273
 10
199.2185116181
 20
81.4245614586
 10
200.0849553345
 20
81.2711392794
 10
200.7452482782
 20
81.0147416314
  0
ARC
  5
278
330
1F
100
AcDbEntity
  8
0
  6
Continuous
 62
     7
370
    18
100
AcDbCircle
 10
191.7723297095
 20
64.8453512074
 30
0.0
 40
4.287114122711037
100
AcDbArc
 50
204.8155819511
 51
235.815128571
  0
LINE
  5
279
330
1F
100
AcDbEntity
  8
0
  6
Continuous
 62
     7
370
    18
100
AcDbLine
 10
196.7502690215
 20
56.9176119306
 30
0.0
 11
198.5477781098
 21
57.9552918397
 31
0.0
  0
LINE
  5
27A
330
1F
100
AcDbEntity
  8
0
  6
Continuous
 62
     7
370
    18
100
AcDbLine
 10
200.0373277493
 20
52.2833948707
 30
0.0
 11
201.3762053689
 21
53.0563124685
 31
0.0
  0
LINE
  5
27B
330
1F
100
AcDbEntity
  8
0
  6
Continuous
 62
     7
370
    18
100
AcDbLine
 10
203.7579662544
 20
51.7606109447
 30
0.0
 11
203.5540940456
 21
52.3664452323
 31
0.0
  0
LWPOLYLINE
  5
27C
330
1F
100
AcDbEntity
  8
0
  6
Continuous
 62
     7
370
    18
100
AcDbPolyline
 90
        3
 70
   128
 43
0.0
 10
203.3919748757
 20
51.3223341009
 10
203.1290977375
 20
51.840200536
 10
202.7692057981
 20
52.8195515729
  0
LWPOLYLINE
  5
27D
330
1F
100
AcDbEntity
  8
0
  6
Continuous
 62
     7
370
    18
100
AcDbPolyline
 90
        3
 70
   128
 43
0.0
 10
203.1150503246
 20
50.7773642407
 10
202.7501231539
 20
51.3881882086
 10
202.3433876265
 20
52.3328942901
  0
LINE
  5
27E
330
1F
100
AcDbEntity
  8
0
  6
Continuous
 62
     7
370
    18
100
AcDbLine
 10
219.0907539837
 20
75.3692459039
 30
0.0
 11
218.5497649387
 21
75.0569395759
 31
0.0
  0
ARC
  5
27F
330
1F
100
AcDbEntity
  8
0
  6
Continuous
 62
     7
370
    18
100
AcDbCircle
 10
191.6435123204
 20
69.0234340907
 30
0.0
 40
1.102097410650225
100
AcDbArc
 50
159.4112025223
 51
213.191486534
  0
ARC
  5
280
330
1F
100
AcDbEntity
  8
0
  6
Continuous
 62
     7
370
    18
100
AcDbCircle
 10
190.3116876632
 20
68.8519363056
 30
0.0
 40
0.6345234148781559
100
AcDbArc
 50
41.9991509505
 51
61.7717641965
  0
LINE
  5
281
330
1F
100
AcDbEntity
  8
0
  6
Continuous
 62
     7
370
    18
100
AcDbLine
 10
190.6118077337
 20
69.4109961479
 30
0.0
 11
190.721354637
 21
69.8217940063
 31
0.0
  0
LINE
  5
282
330
1F
100
AcDbEntity
  8
0
  6
Continuous
 62
     7
370
    18
100
AcDbLine
 10
190.6118077337
 20
69.4109961479
 30
0.0
 11
189.8097630847
 21
69.8740066683
 31
0.0
  0
LINE
  5
283
330
1F
100
AcDbEntity
  8
0
  6
Continuous
 62
     7
370
    18
100
AcDbLine
 10
187.9355315855
 20
71.0354669837
 30
0.0
 11
187.9192951707
 21
71.2306056124
 31
0.0
  0
ARC
  5
284
330
1F
100
AcDbEntity
  8
0
  6
Continuous
 62
     7
370
    18
100
AcDbCircle
 10
190.4018440826
 20
60.7583743393
 30
0.0
 40
0.4314949854779734
100
AcDbArc
 50
27.885175929
 51
60.8829215863
  0
ARC
  5
285
330
1F
100
AcDbEntity
  8
0
  6
Continuous
 62
     7
370
    18
100
AcDbCircle
 10
191.8515427728
 20
61.530435072
 30
0.0
 40
1.301169858630673
100
AcDbArc
 50
165.9701496118
 51
197.6767200265
  0
LINE
  5
286
330
1F
100
AcDbEntity
  8
0
  6
Continuous
 62
     7
370
    18
100
AcDbLine
 10
190.2200363132
 20
64.0442057472
 30
0.0
 11
188.8993055461
 21
64.80664739
 31
0.0
  0
LINE
  5
287
330
1F
100
AcDbEntity
  8
0
  6
Continuous
 62
     7
370
    18
100
AcDbLine
 10
190.6118077337
 20
61.1353401039
 30
0.0
 11
189.8097630847
 21
61.5983506243
 31
0.0
  0
LINE
  5
288
330
1F
100
AcDbEntity
  8
0
  6
Continuous
 62
     7
370
    18
100
AcDbLine
 10
190.6118077337
 20
61.1353401039
 30
0.0
 11
190.721354637
 21
60.8510224078
 31
0.0
  0
OLE2FRAME
  5
289
330
1F
100
AcDbEntity
  8
0
100
AcDbOle2Frame
 70
     2
  3
Paintbrush-Bild
 10
13.8511154363
 20
38.264191557
 30
0.0
 11
51.6290888628
 21
31.9806341108
 31
0.0
 71
     2
 72
     0
 73
     1
 90
    12928
310
80552BED0767C5B32B40DDAF6807D121434000000000000000006FFBDDFB85D0
310
4940DDAF6807D121434000000000000000006FFBDDFB85D04940416F4BD60AFB
310
3F4000000000000000002BED0767C5B32B40416F4BD60AFB3F40000000000000
310
0000000000000100000000010000010000000100000000000100000000320000
310
D0CF11E0A1B11AE1000000000000000000000000000000003E000300FEFF0900
310
0600000000000000000000000100000001000000000000000010000002000000
310
01000000FEFFFFFF0000000000000000FFFFFFFFFFFFFFFFFFFFFFFFFFFFFFFF
310
FFFFFFFFFFFFFFFFFFFFFFFFFFFFFFFFFFFFFFFFFFFFFFFFFFFFFFFFFFFFFFFF
310
FFFFFFFFFFFFFFFFFFFFFFFFFFFFFFFFFFFFFFFFFFFFFFFFFFFFFFFFFFFFFFFF
310
FFFFFFFFFFFFFFFFFFFFFFFFFFFFFFFFFFFFFFFFFFFFFFFFFFFFFFFFFFFFFFFF
310
FFFFFFFFFFFFFFFFFFFFFFFFFFFFFFFFFFFFFFFFFFFFFFFFFFFFFFFFFFFFFFFF
310
FFFFFFFFFFFFFFFFFFFFFFFFFFFFFFFFFFFFFFFFFFFFFFFFFFFFFFFFFFFFFFFF
310
FFFFFFFFFFFFFFFFFFFFFFFFFFFFFFFFFFFFFFFFFFFFFFFFFFFFFFFFFFFFFFFF
310
FFFFFFFFFFFFFFFFFFFFFFFFFFFFFFFFFFFFFFFFFFFFFFFFFFFFFFFFFFFFFFFF
310
FFFFFFFFFFFFFFFFFFFFFFFFFFFFFFFFFFFFFFFFFFFFFFFFFFFFFFFFFFFFFFFF
310
FFFFFFFFFFFFFFFFFFFFFFFFFFFFFFFFFFFFFFFFFFFFFFFFFFFFFFFFFFFFFFFF
310
FFFFFFFFFFFFFFFFFFFFFFFFFFFFFFFFFFFFFFFFFFFFFFFFFFFFFFFFFFFFFFFF
310
FFFFFFFFFFFFFFFFFFFFFFFFFFFFFFFFFFFFFFFFFFFFFFFFFFFFFFFFFFFFFFFF
310
FFFFFFFFFFFFFFFFFFFFFFFFFFFFFFFFFFFFFFFFFFFFFFFFFFFFFFFFFFFFFFFF
310
FFFFFFFFFFFFFFFFFFFFFFFFFFFFFFFFFFFFFFFFFFFFFFFFFFFFFFFFFFFFFFFF
310
FDFFFFFFFEFFFFFFFEFFFFFFFEFFFFFF05000000060000000700000008000000
310
090000000A0000000B0000000C0000000D0000000E0000000F00000010000000
310
11000000120000001300000014000000150000001600000017000000FEFFFFFF
310
FFFFFFFFFFFFFFFFFFFFFFFFFFFFFFFFFFFFFFFFFFFFFFFFFFFFFFFFFFFFFFFF
310
FFFFFFFFFFFFFFFFFFFFFFFFFFFFFFFFFFFFFFFFFFFFFFFFFFFFFFFFFFFFFFFF
310
FFFFFFFFFFFFFFFFFFFFFFFFFFFFFFFFFFFFFFFFFFFFFFFFFFFFFFFFFFFFFFFF
310
FFFFFFFFFFFFFFFFFFFFFFFFFFFFFFFFFFFFFFFFFFFFFFFFFFFFFFFFFFFFFFFF
310
FFFFFFFFFFFFFFFFFFFFFFFFFFFFFFFFFFFFFFFFFFFFFFFFFFFFFFFFFFFFFFFF
310
FFFFFFFFFFFFFFFFFFFFFFFFFFFFFFFFFFFFFFFFFFFFFFFFFFFFFFFFFFFFFFFF
310
FFFFFFFFFFFFFFFFFFFFFFFFFFFFFFFFFFFFFFFFFFFFFFFFFFFFFFFFFFFFFFFF
310
FFFFFFFFFFFFFFFFFFFFFFFFFFFFFFFFFFFFFFFFFFFFFFFFFFFFFFFFFFFFFFFF
310
FFFFFFFFFFFFFFFFFFFFFFFFFFFFFFFFFFFFFFFFFFFFFFFFFFFFFFFFFFFFFFFF
310
FFFFFFFFFFFFFFFFFFFFFFFFFFFFFFFFFFFFFFFFFFFFFFFFFFFFFFFFFFFFFFFF
310
FFFFFFFFFFFFFFFFFFFFFFFFFFFFFFFFFFFFFFFFFFFFFFFFFFFFFFFFFFFFFFFF
310
FFFFFFFFFFFFFFFFFFFFFFFFFFFFFFFFFFFFFFFFFFFFFFFFFFFFFFFFFFFFFFFF
310
FFFFFFFFFFFFFFFFFFFFFFFFFFFFFFFFFFFFFFFFFFFFFFFFFFFFFFFFFFFFFFFF
310
52006F006F007400200045006E00740072007900000000000000000000000000
310
0000000000000000000000000000000000000000000000000000000000000000
310
16000500FFFFFFFFFFFFFFFF020000000A00030000000000C000000000000046
310
000000000000000000000000807A646537A7D30103000000C000000000000000
310
01004F006C006500000000000000000000000000000000000000000000000000
310
0000000000000000000000000000000000000000000000000000000000000000
310
0A000200FFFFFFFFFFFFFFFFFFFFFFFF00000000000000000000000000000000
310
0000000000000000000000000000000000000000000000001400000000000000
310
010043006F006D0070004F0062006A0000000000000000000000000000000000
310
0000000000000000000000000000000000000000000000000000000000000000
310
120002010100000003000000FFFFFFFF00000000000000000000000000000000
310
0000000000000000000000000000000000000000010000004D00000000000000
310
01004F006C006500310030004E00610074006900760065000000000000000000
310
0000000000000000000000000000000000000000000000000000000000000000
310
1A000200FFFFFFFFFFFFFFFFFFFFFFFF00000000000000000000000000000000
310
0000000000000000000000000000000000000000040000002426000000000000
310
FEFFFFFF02000000FEFFFFFFFFFFFFFFFFFFFFFFFFFFFFFFFFFFFFFFFFFFFFFF
310
FFFFFFFFFFFFFFFFFFFFFFFFFFFFFFFFFFFFFFFFFFFFFFFFFFFFFFFFFFFFFFFF
310
FFFFFFFFFFFFFFFFFFFFFFFFFFFFFFFFFFFFFFFFFFFFFFFFFFFFFFFFFFFFFFFF
310
FFFFFFFFFFFFFFFFFFFFFFFFFFFFFFFFFFFFFFFFFFFFFFFFFFFFFFFFFFFFFFFF
310
FFFFFFFFFFFFFFFFFFFFFFFFFFFFFFFFFFFFFFFFFFFFFFFFFFFFFFFFFFFFFFFF
310
FFFFFFFFFFFFFFFFFFFFFFFFFFFFFFFFFFFFFFFFFFFFFFFFFFFFFFFFFFFFFFFF
310
FFFFFFFFFFFFFFFFFFFFFFFFFFFFFFFFFFFFFFFFFFFFFFFFFFFFFFFFFFFFFFFF
310
FFFFFFFFFFFFFFFFFFFFFFFFFFFFFFFFFFFFFFFFFFFFFFFFFFFFFFFFFFFFFFFF
310
FFFFFFFFFFFFFFFFFFFFFFFFFFFFFFFFFFFFFFFFFFFFFFFFFFFFFFFFFFFFFFFF
310
FFFFFFFFFFFFFFFFFFFFFFFFFFFFFFFFFFFFFFFFFFFFFFFFFFFFFFFFFFFFFFFF
310
FFFFFFFFFFFFFFFFFFFFFFFFFFFFFFFFFFFFFFFFFFFFFFFFFFFFFFFFFFFFFFFF
310
FFFFFFFFFFFFFFFFFFFFFFFFFFFFFFFFFFFFFFFFFFFFFFFFFFFFFFFFFFFFFFFF
310
FFFFFFFFFFFFFFFFFFFFFFFFFFFFFFFFFFFFFFFFFFFFFFFFFFFFFFFFFFFFFFFF
310
FFFFFFFFFFFFFFFFFFFFFFFFFFFFFFFFFFFFFFFFFFFFFFFFFFFFFFFFFFFFFFFF
310
FFFFFFFFFFFFFFFFFFFFFFFFFFFFFFFFFFFFFFFFFFFFFFFFFFFFFFFFFFFFFFFF
310
FFFFFFFFFFFFFFFFFFFFFFFFFFFFFFFFFFFFFFFFFFFFFFFFFFFFFFFFFFFFFFFF
310
0100000200000000000000000000000000000000000000000000000000000000
310
0000000000000000000000000000000000000000000000000000000000000000
310
0100FEFF030A0000FFFFFFFF0A00030000000000C00000000000004607000000
310
5042727573680007000000504272757368000700000050427275736800F439B2
310
7100000000000000000000000000000000000000000000000000000000000000
310
0000000000000000000000000000000000000000000000000000000000000000
310
0000000000000000000000000000000000000000000000000000000000000000
310
0000000000000000000000000000000000000000000000000000000000000000
310
0000000000000000000000000000000000000000000000000000000000000000
310
0000000000000000000000000000000000000000000000000000000000000000
310
0000000000000000000000000000000000000000000000000000000000000000
310
0000000000000000000000000000000000000000000000000000000000000000
310
0000000000000000000000000000000000000000000000000000000000000000
310
0000000000000000000000000000000000000000000000000000000000000000
310
0000000000000000000000000000000000000000000000000000000000000000
310
0000000000000000000000000000000000000000000000000000000000000000
310
20260000424D0E260000000000003E00000028000000B40200006E0000000100
310
01000000000000000000130B0000130B00000200000002000000000000FFFFFF
310
FFFFFFFFFFFFFFFFFFFFFFFFFFFFFFFFFFFFFFFFFFFFFFFFFFFFFFFFFFFFFFFF
310
FFFFFFFFFFFFFFFFFFFFFFFFFFFFFFFFFFFFFFFFFFFFFFFFFFFFFFFFFFFFFFFF
310
FFFFFFFFFFFFFFFFFFFFFFFFFFFFFFFFFFFFFFFFFFFFFFFFF000FFFFFFFFFFFF
310
FFFFFFFFFFFFFFFFFFFFFFFFFFFFFFFFFFFFFFFFFFFFFFFFFFFFFFFFFFFFFFFF
310
FFFFFFFFFFFFFFFFFFFFFFFFFFFFFFFFFFFFFFFFFFFFFFFFFFFFFFFFFFFFFFFF
310
FFFFFFFFFFFFFFFFFFFFFFFFFFFFFFFFF000FFFFFFFFFFFFFFFFFFFFFFFFFFFF
310
FFFFFFFFFFFFFFFFFFFFFFFFFFFFFFFFFFFFFFFFFFFFFFFFFFFFFFFFFFFFFFFF
310
FFFFFFFFFFFFFFFFFFFFFFFFFFFFFFFFFFFFFFFFFFFFFFFFFFFFFFFFFFFFFFFF
310
FFFFFFFFFFFFFFFFF000FFFFFFFFFFFFFFFFFFFFFFFFFFFFFFFFFFFFFFFFFFFF
310
FFFFFFFFFFFFFFFFFFFFFFFFFFFFFFFFFFFFFFFFFFFFFFFFFFFFFFFFFFFFFFFF
310
FFFFFFFFFFFFFFFFFFFFFFFFFFFFFFFFFFFFFFFFFFFFFFFFFFFFFFFFFFFFFFFF
310
F000FFFFFFFFFFFFFFFFFFFFFFFFFFFFFFFFFFFFFFFFFFFFFFFFFFFFFFFFFFFF
310
FFFFFFFFFFFFFFFFFFFFFFFFFFFFFFFFFFFFFFFFFFFFFFFFFFFFFFFFFFFFFFFF
310
FFFFFFFFFFFFFFFFFFFFFFFFFFFFFFFFFFFFFFFFFFFFFFFFF000FFFFFFFFFFFF
310
FFFFFFFFFFFFFFFFFFFFFFFFFFFFFFFFFFFFFFFFFFFFFFFFFFFFFFFFFFFFFFFF
310
FFFFFFFFFFFFFFFFFFFFFFFFFFFFFFFFFFFFFFFFFFFFFFFFFFFFFFFFFFFFFFFF
310
FFFFFFFFFFFFFFFFFFFFFFFFFFFFFFFFF000FFFFFFFFFFFFFFFFFFFFFFFFFFFF
310
FFFFFFFFFFFFFFFFFFFFFFFFFFFFFFFFFFFFFFFFFFFFFFFFFFFFFFFFFFFFFFFF
310
FFFFFFFFFFFFFFFFFFFFFFFFFFFFFFFFFFFFFFFFFFFFFFFFFFFFFFFFFFFFFFFF
310
FFFFFFFFFFFFFFFFF000FFFFFFFFFFFFFFFFFFFFFFFFFFFFFFFFFFFFFFFFFFFF
310
FFFFFFFFFFFFFFFFFFFFFFFFFFFFFFFFFFFFFFFFFFFFFFFFFFFFFFFFFFFFFFFF
310
FFFFFFFFFFFFFFFFFFFFFFFFFFFFFFFFFFFFFFFFFFFFFFFFFFFFFFFFFFFFFFFF
310
F000FFFFFFFFFFFFFFFFFFFFFFFFFFFFFFFFFFFFFFFFFFFFFFFFFFFFFFFFFFFF
310
FFFFFFFFFFFFFFFFFFFFFFFFFFFFFFFFFFFFFFFFFFFFFFFFFFFFFFFFFFFFFFFF
310
FFFFFFFFFFFFFFFFFFFFFFFFFFFFFFFFFFFFFFFFFFFFFFFFF000FFFFFFFFFFFF
310
FFFFFFFFFFFFFFFFFFFFFFFFFFFFFFFFFFFFFFFFFFFFFFFFFFFFFFFFFFFFFFFF
310
FFFFFFFFFFFFFFFFFFFFFFFFFFFFFFFFFFFFFFFFFFFFFFFFFFFFFFFFFFFFFFFF
310
FFFFFFFFFFFFFFFFFFFFFFFFFFFFFFFFF000FFFFFFFFFFFFFFFFFFFFFFFFFFFF
310
FFFFFFFFFFFFFFFFFFFFFFFFFFFFFFFFFFFFFFFFFFFFFFFFFFFFFFFFFFFFFFFF
310
FFFFFFFFFFFFFFFFFFFFFFFFFFFFFFFFFFFFFFFFFFFFFFFFFFFFFFFFFFFFFFFF
310
FFFFFFFFFFFFFFFFF000FFFFFFFFFFFFFFFFFFFFFFFFFFFFFFFFFFFFFFFFFFFF
310
FFFFFFFFFFFFFFFFFFFFFFFFFFFFFFFFFFFFFFFFFFFFFFFFFFFFFFFFFFFFFFFF
310
FFFFFFFFFFFFFFFFFFFFFFFFFFFFFFFFFFFFFFFFFFFFFFFFFFFFFFFFFFFFFFFF
310
F000FFFFFFFFFFFFFFFFFFFFFFFFFFFFFFFFFFFFFFFFFFFFFFFFFFFFFFFFFFFF
310
FFFFFFFFFFFFFFFFFFFFFFFFFFFFFFFFFFFFFFFFFFFFFFFFFFFFFFFFFFFFFFFF
310
FFFFFFFFFFFFFFFFFFFFFFFFFFFFFFFFFFFFFFFFFFFFFFFFF000FFFFFFFFFFFF
310
FFFFFFFFFFFFFFFFFFFFFFFFFFFFFFFFFFFFFFFFFFFFFFFFFFFFFFFFFFFFFFFF
310
FFFFFFFFFFFFFFFFFFFFFFFFFFFFFFFFFFFFFFFFFFFFFFFFFFFFFFFFFFFFFFFF
310
FFFFFFFFFFFFFFFFFFFFFFFFFFFFFFFFF000FFFFFFFFFFFFFFFFFFFFFFFFFFFF
310
FFFFFFFFFFFFFFFFFFFFFFFFFFFFFFFFFFFFFFFFFFFFFFFFFFFFFFFFFFFFFFFF
310
FFFFFFFFFFFFFFFFFFFFFFFFFFFFFFFFFFFFFFFFFFFFFFFFFFFFFFFFFFFFFFFF
310
FFFFFFFFFFFFFFFFF000FFFFFFFFFFFFFFFFFFFFFFFFFFFFFFFFFFFFFFFFFFFF
310
FFFFFFFFFFFFFFFFFFFFFFFFFFFFFFFFFFFFFFFFFFFFFFFFFFFFFFFFFFFFFFFF
310
FFFFFFFFFFFFFFFFFFFFFFFFFFFFFFFFFFFFFFFFFFFFFFFFFFFFFFFFFFFFFFFF
310
F000FFFFFFFFFFFFFFFFFFFFFFFFFFFFFFFFFFFFFFFFFFFFFFFFFFFFFFFFFFFF
310
FFFFFFFFFFFFFFFFFFFFFFFFFFFFFFFFFFFFFFFFFFFFFFFFFFFFFFFFFFFFFFFF
310
FFFFFFFFFFFFFFFFFFFFFFFFFFFFFFFFFFFFFFFFFFFFFFFFF000FFFFFFFFFFFF
310
FFFFFFFFFFFFFFFFFFFFFFFFFFFFFFFFFFFFFFFFFFFFFFFFFFFFFFFFFFFFFFFF
310
FFFFFFFFFFFFFFFFFFFFFFFFFFFFFFFFFFFFFFFFFFFFFFFFFFFFFFFFFFFFFFFF
310
FFFFFFFFFFFFFFFFFFFFFFFFFFFFFFFFF000FFFFFFFFFFFFFFFFFFFFFFFFFFFF
310
FFFFFFFFFFFFFFFFFFFFFFFFFFFFFFFFFFFFFFFFFFFFFFFFFFFFFFFFFFFFFFFF
310
FFFFFFFFFFFFFFFFFFFFFFFFFFFFFFFFFFFFFFFFFFFFFFFFFFFFFFFFFFFFFFFF
310
FFFFFFFFFFFFFFFFF000FFFFF80003FFFFFFFFFFFFFFFFFFFFFFFFFFFFFFFFFF
310
FFFFF00007FFFFFFFFFF00007FFFFFF800000000000000007FFFFFFFFFFFFFFF
310
FFFFFFFC001FFFFFFFFFFFFFFC001FFFFFFFFFFFFFFFFFFFFFFFFFFE0007FFFF
310
F000FFFF8000007FFFFFFFF8000FFFFFC0007FFFFF80007FFFFF0000007FFFFF
310
FFF8000007FFFFF800000000000000007FFFFFF0001FFFFFFFFFFFC00001FFFF
310
FFFFFFFFC00001FFFFFFFF000000000003FFFFE000007FFFF000FFFE0000000F
310
FFFFFFF0000FFFFF80007FFFFF80007FFFFC0000001FFFFFFFC0000001FFFFF8
310
00000000000000007FFFFFF0001FFFFFFFFFFE0000003FFFFFFFFFFE0000003F
310
FFFFFF000000000003FFFF0000000FFFF000FFF800000003FFFFFFF00007FFFF
310
80007FFFFF80007FFFF000000007FFFFFF000000003FFFF80000000000000000
310
7FFFFFF0001FFFFFFFFFF80000000FFFFFFFFFF80000000FFFFFFF0000000000
310
03FFFC00000003FFF000FFE000000000FFFFFFF00007FFFF80003FFFFF80007F
310
FFC000000001FFFFFC000000001FFFF800000000000000007FFFFFF0001FFFFF
310
FFFFE000000003FFFFFFFFE000000003FFFFFF000000000003FFF000000000FF
310
F000FF80000000007FFFFFF00007FFFF80003FFFFF80007FFF8000000000FFFF
310
F80000000007FFF800000000000000007FFFFFF0001FFFFFFFFFC000000001FF
310
FFFFFFC000000001FFFFFF000000000003FFC0000000007FF000FF0000000000
310
3FFFFFE00007FFFF00003FFFFF80007FFE00000000003FFFF00000000003FFF8
310
00000000000000007FFFFFF0001FFFFFFFFF8000000000FFFFFFFF8000000000
310
FFFFFF000000000003FF80000000003FF000FE00000000001FFFFFE00003FFFF
310
00003FFFFF80007FFC00000000001FFFE00000000001FFF8000001FFFE000000
310
7FFFFFF0001FFFFFFFFE00000000003FFFFFFE00000000003FFFFF0000000000
310
03FF00000000001FF000FC00000000000FFFFFE00003FFFF00001FFFFF80007F
310
F800000000001FFFC00000000000FFF8000001FFFE0000007FFFFFF0001FFFFF
310
FFFC00000000001FFFFFFC00000000001FFFFF000000000003FE00000000000F
310
F000F8000000000007FFFFE00003FFFF00001FFFFF80007FF800000000000FFF
310
800000000000FFF8000001FFFE0000007FFFFFF0001FFFFFFFF800000000000F
310
FFFFF800000000000FFFFF000000000003FC000000000007F000F80000000000
310
03FFFFC00003FFFE00001FFFFF80007FF0000000000007FF0000000000007FF8
310
000001FFFE0000007FFFFFF0001FFFFFFFF0000000000007FFFFF00000000000
310
07FFFF000000000003F8000000000003F000F0000000000003FFFFC00001FFFE
310
00001FFFFF80007FE0000000000007FE0000000000003FF8000001FFFE000000
310
7FFFFFF0001FFFFFFFF0000000000007FFFFF0000000000007FFFF0000000000
310
03F800001F800003F000E00001FFF00001FFFFC00001FFFE00000FFFFF80007F
310
E00001FFE00003FE00001FFF00003FF8000001FFFE0000007FFFFFF0001FFFFF
310
FFE000003E000003FFFFE000003E000003FFFF000000000003F00001FFF80001
310
F000E00007FFFC0001FFFFC00001FFFE00000FFFFF80007FC0000FFFFC0003FC
310
0000FFFFC0001FF8000001FFFE0000007FFFFFF0001FFFFFFFC00003FFE00001
310
FFFFC00003FFE00001FFFF0001FFFFFFFFF00007FFFE0001F000E0000FFFFF00
310
00FFFF800001FFFC00000FFFFF80007FC0001FFFFE0001FC0001FFFFE0001FF8
310
000001FFFE0000007FFFFFF0001FFFFFFF80000FFFF80000FFFF80000FFFF800
310
00FFFF0003FFFFFFFFE0000FFFFF8000F000C0003FFFFF8000FFFF800000FFFC
310
000007FFFF80007F80003FFFFF0001FC0003FFFFF0001FF8000001FFFE000000
310
7FFFFFF0001FFFFFFF80003FFFFE0000FFFF80003FFFFE0000FFFF0003FFFFFF
310
FFE0003FFFFF8000F000C0003FFFFF8000FFFF800000FFFC000007FFFF80007F
310
80007FFFFF8001F80007FFFFF8000FF8000001FFFE0000007FFFFFF0001FFFFF
310
FF00007FFFFF00007FFF00007FFFFF00007FFF0003FFFFFFFFE0003FFFFFC000
310
F000C0007FFFFFC000FFFF000000FFFC000007FFFF80007F8000FFFFFF8000F8
310
000FFFFFF8000FF8000001FFFE0000007FFFFFF0001FFFFFFF0000FFFFFF8000
310
7FFF0000FFFFFF80007FFF0003FFFFFFFFC0007FFFFFC00070008000FFFFFFC0
310
00FFFF000000FFF8000007FFFF80007F8000FFFFFF8000F8000FFFFFF8000FF8
310
000001FFFE0000007FFFFFF0001FFFFFFE0001FFFFFFC0003FFE0001FFFFFFC0
310
003FFF0003FFFFFFFFC0007FFFFFE00070008000FFFFFFC0007FFF0000007FF8
310
000003FFFF80007F0001FFFFFF8000F8000FFFFFF8000FF8000001FFFE000000
310
7FFFFFF0001FFFFFFE0001FFFFFFC0003FFE0001FFFFFFC0003FFF0003FFFFFF
310
FFC000FFFFFFE00070008000FFFFFFC0007FFF0000007FF8000003FFFF80007F
310
0001FFFFFF8000F8001FFFFFF8000FF8000001FFFE0000007FFFFFF0001FFFFF
310
FE0003FFFFFFE0003FFE0003FFFFFFE0003FFF0003FFFFFFFFC000FFFFFFE000
310
70008000FFFFFFC0007FFE0000007FF8000003FFFF80007F0001FFFFFF8000F0
310
001FFFFFF8000FF8000001FFFE0000007FFFFFF0001FFFFFFC0003FFFFFFE000
310
1FFC0003FFFFFFE0001FFF0003FFFFFFFFC000FFFFFFC00070008000FFFFFF80
310
007FFE0000007FF0000003FFFF80007F0001FFFFFF0000F0001FFFFFF8000FF8
310
000001FFFE0000007FFFFFF0001FFFFFFC0007FFFFFFF0001FFC0007FFFFFFF0
310
001FFF0003FFFFFFFFC000FFFFFFC00070008001FFFFFF0000FFFE0000003FF0
310
000001FFFF80007F0001FFFFFF0000F8001FFFFFF0000FF8000001FFFE000000
310
7FFFFFF0001FFFFFFC0007FFFFFFF0001FFC0007FFFFFFF0001FFF0003FFFFFF
310
FFC001FFFFFF80007000FFFFFFFFFE0000FFFE0008003FF0008001FFFF80007F
310
FFFFFFFFFC0000FFFFFFFFFFE0000FF8000001FFFE0000007FFFFFF0001FFFFF
310
F8000FFFFFFFF8000FF8000FFFFFFFF8000FFF0003FFFFFFFFFFFFFFFFFF0000
310
7000FFFFFFFFFC0000FFFC0008003FF0008001FFFF80007FFFFFFFFFF80001FF
310
FFFFFFFF80000FF8000001FFFE0000007FFFFFF0001FFFFFF8000FFFFFFFF800
310
0FF8000FFFFFFFF8000FFF0003FFFFFFFFFFFFFFFFFE0000F000FFFFFFFFE000
310
00FFFC000C003FE000C001FFFF80007FFFFFFFFFC00001FFFFFFFFFE00001FF8
310
000001FFFE0000007FFFFFF0001FFFFFF8000FFFFFFFF8000FF8000FFFFFFFF8
310
000FFF0003FFFFFFFFFFFFFFFFF00000F000FFFFFFFE000001FFFC000C001FE0
310
00C000FFFF80007FFFFFFFFE000001FFFFFFFFE000001FF80FFFFFFFFFFFFFC0
310
7FFFFFF0001FFFFFF8000FFFFFFFF8000FF8000FFFFFFFF8000FFF0003FFFFFF
310
FFFFFFFFFF800000F000FFFFFFC0000001FFFC001C001FE001C000FFFF80007F
310
FFFFFF80000003FFFFFFF80000001FF80FFFFFFFFFFFFFC07FFFFFF0001FFFFF
310
F8001FFFFFFFFC000FF8001FFFFFFFFC000FFF0003FFFFFFFFFFFFFFF0000001
310
F000FFFFF800000001FFF8001C001FE001C000FFFF80007FFFFFF800000003FF
310
FFFF800000003FF80FFFFFFFFFFFFFC07FFFFFF0001FFFFFF8001FFFFFFFFC00
310
0FF8001FFFFFFFFC000FFF0003FFFFFFFFFFFFFE00000001F000FFFFC0000000
310
03FFF8001E001FC001E000FFFF80007FFFFF8000000007FFFFFC000000003FF8
310
0FFFFFFFFFFFFFC07FFFFFF0001FFFFFF8001FFFFFFFFC000FF8001FFFFFFFFC
310
000FFF0003FFFFFFFFFFFFE000000003F000FFFE0000000007FFF8001E000FC0
310
01E0007FFF80007FFFFE0000000007FFFFE0000000007FF80FFFFFFFFFFFFFC0
310
7FFFFFF0001FFFFFF0001FFFFFFFFC0007F0001FFFFFFFFC0007FF0003FFFFFF
310
FFFFFF0000000003F000FFF80000000007FFF8001E000FC003E0007FFF80007F
310
FFF0000000000FFFFF8000000000FFF80FFFFFFFFFFFFFC07FFFFFF0001FFFFF
310
F0001FFFFFFFFC0007F0001FFFFFFFFC0007FF0003FFFFFFFFFFFC0000000007
310
F000FFE0000000000FFFF0003E000FC003E0007FFF80007FFFC0000000001FFF
310
FE0000000001FFF80FFFFFFFFFFFFFC07FFFFFF0001FFFFFF0001FFFFFFFFC00
310
07F0001FFFFFFFFC0007FF0003FFFFFFFFFFF0000000000FF000FFC000000000
310
1FFFF0003F000F8003F0003FFF80007FFF80000000003FFFF80000000003FFF8
310
0FFFFFFFFFFFFFC07FFFFFF0001FFFFFF0001FFFFFFFFC0007F0001FFFFFFFFC
310
0007FF0003FFFFFFFFFFE0000000001FF000FF00000000007FFFF0003F000780
310
03F0003FFF80007FFF00000000007FFFF00000000007FFF80FFFFFFFFFFFFFC0
310
7FFFFFF0001FFFFFF0001FFFFFFFFC0007F0001FFFFFFFFC0007FF0003FFFFFF
310
FFFF80000000007FF000FE0000000000FFFFE0003F00078007F0003FFF80007F
310
FE0000000001FFFFE0000000001FFFF80FFFFFFFFFFFFFC07FFFFFF0001FFFFF
310
F0001FFFFFFFFC0007F0001FFFFFFFFC0007FF0003FFFFFFFFFF0000000000FF
310
F000FC0000000003FFFFE0007F00078007F0003FFF80007FFC0000000007FFFF
310
C0000000007FFFF80FFFFFFFFFFFFFC07FFFFFF0001FFFFFF8001FFFFFFFFC00
310
0FF8001FFFFFFFFC000FFF0003FFFFFFFFFE0000000003FFF000FC000000000F
310
FFFFE0007F80070007F8001FFF80007FF8000000001FFFFF8000000001FFFFF8
310
0FFFFFFFFFFFFFC07FFFFFF0001FFFFFF8001FFFFFFFFC000FF8001FFFFFFFFC
310
000FFF0003FFFFFFFFFC000000000FFFF000F8000000007FFFFFE0007F800700
310
07F8001FFF80007FF000000000FFFFFF800000000FFFFFF80FFFFFFFFFFFFFC0
310
7FFFFFF0001FFFFFF8000FFFFFFFF8000FF8000FFFFFFFF8000FFF0003FFFFFF
310
FFFC000000007FFFF000F800000007FFFFFFC0007F8003000FF8001FFF80007F
310
F000000007FFFFFF000000007FFFFFF80FFFFFFFFFFFFFC07FFFFFF0001FFFFF
310
F8000FFFFFFFF8000FF8000FFFFFFFF8000FFF0003FFFFFFFFF80000000FFFFF
310
F000F0000000FFFFFFFFC000FF8003000FF8001FFF80007FE0000000FFFFFFFF
310
0000000FFFFFFFF8000001FFFE0000007FFFFFF0001FFFFFF8000FFFFFFFF800
310
0FF8000FFFFFFFF8000FFF0003FFFFFFFFF8000000FFFFFFF000F000000FFFFF
310
FFFFC000FFC002000FF8000FFF80007FE000001FFFFFFFFE000001FFFFFFFFF8
310
000001FFFE0000007FFFFFF0001FFFFFF8000FFFFFFFF8000FF8000FFFFFFFF8
310
000FFF0003FFFFFFFFF000001FFFFFFFF000E00000FFFFFFFFFFC000FFC00200
310
0FFC000FFF80007FE00001FFFFFFFFFE00001FFFFFFFFFF8000001FFFE000000
310
7FFFFFF0001FFFFFFC000FFFFFFFF8001FFC000FFFFFFFF8001FFF0003FFFFFF
310
FFF00001FFFFFFFFF000E00007FFFFFFFFFF8000FFC000001FFC000FFF80007F
310
C0000FFFFFFFFFFE0000FFFFFFFFFFF8000001FFFE0000007FFFFFF0001FFFFF
310
FC0007FFFFFFF0001FFC0007FFFFFFF0001FFF0003FFFFFFFFF00007FFFFFFFF
310
F000E0001FFFFFFFFFFF8000FFC000001FFC000FFF80007FC0003FFFFFFFFFFE
310
0001FFFFFFFFFFF8000001FFFE0000007FFFFFF0001FFFFFFC0007FFFFFFF000
310
1FFC0007FFFFFFF0001FFF0003FFFFFFFFF0001FFFFFFFFFF000E0003FFFFF00
310
03FF8001FFE000001FFC0007FF80007FC0007FFFFF0007FC0003FFFFF0003FF8
310
000001FFFE0000007FFFFFF0001FFFFFFC0003FFFFFFE0001FFC0003FFFFFFE0
310
001FFF0003FFFFFFFFF0003FFFFFFFFFF000E0003FFFFF0001FF8001FFE00000
310
1FFE0007FF80007FC0007FFFFE0003FC0007FFFFE0003FF8000001FFFE000000
310
7FFFFFF0001FFFFFFE0003FFFFFFE0003FFE0003FFFFFFE0003FFF0003FFFFFF
310
FFF0003FFFFF8001F000E0003FFFFF0001FF0001FFE000001FFE0007FF80007F
310
C0007FFFFE0003FC0007FFFFE0003FF8000001FFFE0000007FFFFFF0001FFFFF
310
FE0001FFFFFFC0003FFE0001FFFFFFC0003FFF0003FFFFFFFFF0003FFFFF0001
310
F000E0003FFFFF0003FF0001FFE000003FFE0007FF80007FC0007FFFFE0003FC
310
0007FFFFE0003FF8000001FFFE0000007FFFFFF0001FFFFFFF0001FFFFFFC000
310
7FFF0001FFFFFFC0007FFF0003FFFFFFFFF0003FFFFF0001F000E0003FFFFE00
310
03FF0003FFF000003FFE0003FF80007FC0007FFFFC0003FE0007FFFFE0003FF8
310
000001FFFE0000007FFFFFF0001FFFFFFF0000FFFFFF80007FFF0000FFFFFF80
310
007FFF0003FFFFFFFFF0003FFFFF0001F000E0003FFFFE0003FF0003FFF00000
310
3FFF0003FF80007FC0007FFFFC0007FE0007FFFFC0003FF8000001FFFE000000
310
7FFFFFF0001FFFFFFF80007FFFFF0000FFFF80007FFFFF0000FFFF0003FFFFFF
310
FFF0003FFFFF0003F000E0003FFFFC0003FE0003FFF000003FFF0003FF80007F
310
E0003FFFF80007FE0003FFFFC0007FF8000001FFFE0000007FFFFFF0001FFFFF
310
FF80003FFFFE0000FFFF80003FFFFE0000FFFF0003FFFFFFFFF0001FFFFE0003
310
F000F0001FFFF80003FE0003FFF000007FFF0001FF80007FE0003FFFF00007FE
310
0001FFFF80007FF8000001FFFE0000007FFFFFF0001FFFFFFFC0000FFFF80001
310
FFFFC0000FFFF80001FFFF0003FFFFFFFFF0001FFFFC0003F000F0000FFFF000
310
07FE0007FFF800007FFF0001FF80007FE0001FFFE00007FF0000FFFE00007FF8
310
000001FFFE0000007FFFFFF0001FFFFFFFC00003FFE00001FFFFC00003FFE000
310
01FFFF0003FFFFFFFFF8000FFFF80003F000F00003FFC00007FC0007FFF80000
310
7FFF8001FF80007FF00007FF80000FFF00007FF80000FFF8000001FFFE000000
310
7F80000000000001FFE000003E000003FFFFE000003E000003FFFF0003FFFFFF
310
FFF80003FFE00007F000F800000000000FFC0007FFF800007FFF8001FF80007F
310
F000000000000FFF000000000000FFF8000001FFFE0000007F80000000000001
310
FFF0000000000007FFFFF0000000000007FFFF0003FFFFFFFFFC00007E000007
310
F000F800000000000FFC0007FFF80000FFFF8000FF80007FF800000000001FFF
310
800000000001FFF8000001FFFE0000007F80000000000001FFF800000000000F
310
FFFFF800000000000FFFFF0003FFFFFFFFFC00000000000FF000FC0000000000
310
1FFC0007FFFC0000FFFF8000FF80007FF800000000003FFFC00000000001FFF8
310
000001FFFE0000007F80000000000001FFF800000000000FFFFFF80000000000
310
0FFFFF0003FFFFFFFFFE00000000001FF000FE00000000003FF8000FFFFC0000
310
FFFF8000FF80007FFC00000000003FFFC00000000003FFF8000001FFFE000000
310
7F80000000000001FFFC00000000001FFFFFFC00000000001FFFFF0003FFFFFF
310
FFFF00000000001FF000FF00000000003FF8000FFFFC0000FFFFC000FF80007F
310
FE00000000007FFFE00000000007FFF8000001FFFE0000007F80000000000001
310
FFFE00000000003FFFFFFE00000000003FFFFF0003FFFFFFFFFF80000000003F
310
F000FF80000000007FF8000FFFFC0001FFFFC0007F80007FFF0000000000FFFF
310
F0000000000FFFF800000000000000007F80000000000001FFFF8000000000FF
310
FFFFFF8000000000FFFFFF0003FFFFFFFFFFC0000000007FF000FFC000000000
310
FFF8000FFFFE0001FFFFC0007F80007FFF8000000001FFFFF8000000001FFFF8
310
00000000000000007F80000000000001FFFFC000000001FFFFFFFFC000000001
310
FFFFFF0003FFFFFFFFFFE000000000FFF000FFE000000003FFF0001FFFFE0001
310
FFFFC0007F80007FFFC000000007FFFFFE000000003FFFF80000000000000000
310
7F80000000000001FFFFE000000003FFFFFFFFE000000003FFFFFF0003FFFFFF
310
FFFFF000000003FFF000FFF80000000FFFF0001FFFFE0001FFFFE0007F80007F
310
FFF00000000FFFFFFF00000000FFFFF800000000000000007F80000000000001
310
FFFFF80000000FFFFFFFFFF80000000FFFFFFF0003FFFFFFFFFFFC0000000FFF
310
F000FFFE0000003FFFF0001FFFFE0003FFFFE0003F80007FFFFC0000003FFFFF
310
FFC0000003FFFFF800000000000000007F80000000000001FFFFFE0000003FFF
310
FFFFFFFE0000003FFFFFFF0003FFFFFFFFFFFF0000003FFFF000FFFF800000FF
310
FFF0001FFFFF0003FFFFE0003F80007FFFFF000001FFFFFFFFF800001FFFFFF8
310
00000000000000007F80000000000001FFFFFFC00001FFFFFFFFFFFFC00001FF
310
FFFFFF0003FFFFFFFFFFFFC00000FFFFF000FFFFF8000FFFFFFFFFFFFFFFFFFF
310
FFFFFFFFFFFFFFFFFFFFF0001FFFFFFFFFFF0000FFFFFFF80000000000000000
310
7FFFFFFFFFFFFFFFFFFFFFFC001FFFFFFFFFFFFFFC001FFFFFFFFFFFFFFFFFFF
310
FFFFFFFC001FFFFFF000FFFFFFFFFFFFFFFFFFFFFFFFFFFFFFFFFFFFFFFFFFFF
310
FFFFFFFFFFFFFFFFFFFFFFFFFFFFFFFFFFFFFFFFFFFFFFFFFFFFFFFFFFFFFFFF
310
FFFFFFFFFFFFFFFFFFFFFFFFFFFFFFFFFFFFFFFFFFFFFFFFFFFFFFFFFFFFFFFF
310
F000FFFFFFFFFFFFFFFFFFFFFFFFFFFFFFFFFFFFFFFFFFFFFFFFFFFFFFFFFFFF
310
FFFFFFFFFFFFFFFFFFFFFFFFFFFFFFFFFFFFFFFFFFFFFFFFFFFFFFFFFFFFFFFF
310
FFFFFFFFFFFFFFFFFFFFFFFFFFFFFFFFFFFFFFFFFFFFFFFFF000FFFFFFFFFFFF
310
FFFFFFFFFFFFFFFFFFFFFFFFFFFFFFFFFFFFFFFFFFFFFFFFFFFFFFFFFFFFFFFF
310
FFFFFFFFFFFFFFFFFFFFFFFFFFFFFFFFFFFFFFFFFFFFFFFFFFFFFFFFFFFFFFFF
310
FFFFFFFFFFFFFFFFFFFFFFFFFFFFFFFFF000FFFFFFFFFFFFFFFFFFFFFFFFFFFF
310
FFFFFFFFFFFFFFFFFFFFFFFFFFFFFFFFFFFFFFFFFFFFFFFFFFFFFFFFFFFFFFFF
310
FFFFFFFFFFFFFFFFFFFFFFFFFFFFFFFFFFFFFFFFFFFFFFFFFFFFFFFFFFFFFFFF
310
FFFFFFFFFFFFFFFFF000FFFFFFFFFFFFFFFFFFFFFFFFFFFFFFFFFFFFFFFFFFFF
310
FFFFFFFFFFFFFFFFFFFFFFFFFFFFFFFFFFFFFFFFFFFFFFFFFFFFFFFFFFFFFFFF
310
FFFFFFFFFFFFFFFFFFFFFFFFFFFFFFFFFFFFFFFFFFFFFFFFFFFFFFFFFFFFFFFF
310
F000FFFFFFFFFFFFFFFFFFFFFFFFFFFFFFFFFFFFFFFFFFFFFFFFFFFFFFFFFFFF
310
FFFFFFFFFFFFFFFFFFFFFFFFFFFFFFFFFFFFFFFFFFFFFFFFFFFFFFFFFFFFFFFF
310
FFFFFFFFFFFFFFFFFFFFFFFFFFFFFFFFFFFFFFFFFFFFFFFFF000FFFFFFFFFFFF
310
FFFFFFFFFFFFFFFFFFFFFFFFFFFFFFFFFFFFFFFFFFFFFFFFFFFFFFFFFFFFFFFF
310
FFFFFFFFFFFFFFFFFFFFFFFFFFFFFFFFFFFFFFFFFFFFFFFFFFFFFFFFFFFFFFFF
310
FFFFFFFFFFFFFFFFFFFFFFFFFFFFFFFFF000FFFFFFFFFFFFFFFFFFFFFFFFFFFF
310
FFFFFFFFFFFFFFFFFFFFFFFFFFFFFFFFFFFFFFFFFFFFFFFFFFFFFFFFFFFFFFFF
310
FFFFFFFFFFFFFFFFFFFFFFFFFFFFFFFFFFFFFFFFFFFFFFFFFFFFFFFFFFFFFFFF
310
FFFFFFFFFFFFFFFFF000FFFFFFFFFFFFFFFFFFFFFFFFFFFFFFFFFFFFFFFFFFFF
310
FFFFFFFFFFFFFFFFFFFFFFFFFFFFFFFFFFFFFFFFFFFFFFFFFFFFFFFFFFFFFFFF
310
FFFFFFFFFFFFFFFFFFFFFFFFFFFFFFFFFFFFFFFFFFFFFFFFFFFFFFFFFFFFFFFF
310
F000FFFFFFFFFFFFFFFFFFFFFFFFFFFFFFFFFFFFFFFFFFFFFFFFFFFFFFFFFFFF
310
FFFFFFFFFFFFFFFFFFFFFFFFFFFFFFFFFFFFFFFFFFFFFFFFFFFFFFFFFFFFFFFF
310
FFFFFFFFFFFFFFFFFFFFFFFFFFFFFFFFFFFFFFFFFFFFFFFFF000FFFFFFFFFFFF
310
FFFFFFFFFFFFFFFFFFFFFFFFFFFFFFFFFFFFFFFFFFFFFFFFFFFFFFFFFFFFFFFF
310
FFFFFFFFFFFFFFFFFFFFFFFFFFFFFFFFFFFFFFFFFFFFFFFFFFFFFFFFFFFFFFFF
310
FFFFFFFFFFFFFFFFFFFFFFFFFFFFFFFFF000FFFFFFFFFFFFFFFFFFFFFFFFFFFF
310
FFFFFFFFFFFFFFFFFFFFFFFFFFFFFFFFFFFFFFFFFFFFFFFFFFFFFFFFFFFFFFFF
310
FFFFFFFFFFFFFFFFFFFFFFFFFFFFFFFFFFFFFFFFFFFFFFFFFFFFFFFFFFFFFFFF
310
FFFFFFFFFFFFFFFFF000FFFFFFFFFFFFFFFFFFFFFFFFFFFFFFFFFFFFFFFFFFFF
310
FFFFFFFFFFFFFFFFFFFFFFFFFFFFFFFFFFFFFFFFFFFFFFFFFFFFFFFFFFFFFFFF
310
FFFFFFFFFFFFFFFFFFFFFFFFFFFFFFFFFFFFFFFFFFFFFFFFFFFFFFFFFFFFFFFF
310
F000FFFFFFFFFFFFFFFFFFFFFFFFFFFFFFFFFFFFFFFFFFFFFFFFFFFFFFFFFFFF
310
FFFFFFFFFFFFFFFFFFFFFFFFFFFFFFFFFFFFFFFFFFFFFFFFFFFFFFFFFFFFFFFF
310
FFFFFFFFFFFFFFFFFFFFFFFFFFFFFFFFFFFFFFFFFFFFFFFFF000FFFFFFFFFFFF
310
FFFFFFFFFFFFFFFFFFFFFFFFFFFFFFFFFFFFFFFFFFFFFFFFFFFFFFFFFFFFFFFF
310
FFFFFFFFFFFFFFFFFFFFFFFFFFFFFFFFFFFFFFFFFFFFFFFFFFFFFFFFFFFFFFFF
310
FFFFFFFFFFFFFFFFFFFFFFFFFFFFFFFFF000FFFFFFFFFFFFFFFFFFFFFFFFFFFF
310
FFFFFFFFFFFFFFFFFFFFFFFFFFFFFFFFFFFFFFFFFFFFFFFFFFFFFFFFFFFFFFFF
310
FFFFFFFFFFFFFFFFFFFFFFFFFFFFFFFFFFFFFFFFFFFFFFFFFFFFFFFFFFFFFFFF
310
FFFFFFFFFFFFFFFFF000FFFFFFFFFFFFFFFFFFFFFFFFFFFFFFFFFFFFFFFFFFFF
310
FFFFFFFFFFFFFFFFFFFFFFFFFFFFFFFFFFFFFFFFFFFFFFFFFFFFFFFFFFFFFFFF
310
FFFFFFFFFFFFFFFFFFFFFFFFFFFFFFFFFFFFFFFFFFFFFFFFFFFFFFFFFFFFFFFF
310
F000FFFFFFFFFFFFFFFFFFFFFFFFFFFFFFFFFFFFFFFFFFFFFFFFFFFFFFFFFFFF
310
FFFFFFFFFFFFFFFFFFFFFFFFFFFFFFFFFFFFFFFFFFFFFFFFFFFFFFFFFFFFFFFF
310
FFFFFFFFFFFFFFFFFFFFFFFFFFFFFFFFFFFFFFFFFFFFFFFFF000FFFFFFFFFFFF
310
FFFFFFFFFFFFFFFFFFFFFFFFFFFFFFFFFFFFFFFFFFFFFFFFFFFFFFFFFFFFFFFF
310
FFFFFFFFFFFFFFFFFFFFFFFFFFFFFFFFFFFFFFFFFFFFFFFFFFFFFFFFFFFFFFFF
310
FFFFFFFFFFFFFFFFFFFFFFFFFFFFFFFFF000FFFFFFFFFFFFFFFFFFFFFFFFFFFF
310
FFFFFFFFFFFFFFFFFFFFFFFFFFFFFFFFFFFFFFFFFFFFFFFFFFFFFFFFFFFFFFFF
310
FFFFFFFFFFFFFFFFFFFFFFFFFFFFFFFFFFFFFFFFFFFFFFFFFFFFFFFFFFFFFFFF
310
FFFFFFFFFFFFFFFFF000FFFFFFFFFFFFFFFFFFFFFFFFFFFFFFFFFFFFFFFFFFFF
310
FFFFFFFFFFFFFFFFFFFFFFFFFFFFFFFFFFFFFFFFFFFFFFFFFFFFFFFFFFFFFFFF
310
FFFFFFFFFFFFFFFFFFFFFFFFFFFFFFFFFFFFFFFFFFFFFFFFFFFFFFFFFFFFFFFF
310
F000FFFFFFFFFFFFFFFFFFFFFFFFFFFFFFFFFFFFFFFFFFFFFFFFFFFFFFFFFFFF
310
FFFFFFFFFFFFFFFFFFFFFFFFFFFFFFFFFFFFFFFFFFFFFFFFFFFFFFFFFFFFFFFF
310
FFFFFFFFFFFFFFFFFFFFFFFFFFFFFFFFFFFFFFFFFFFFFFFFF000FFFFFFFFFFFF
310
FFFFFFFFFFFFFFFFFFFFFFFFFFFFFFFFFFFFFFFFFFFFFFFFFFFFFFFFFFFFFFFF
310
FFFFFFFFFFFFFFFFFFFFFFFFFFFFFFFFFFFFFFFFFFFFFFFFFFFFFFFFFFFFFFFF
310
FFFFFFFFFFFFFFFFFFFFFFFFFFFFFFFFF0000000000000000000000000000000
310
0000000000000000000000000000000000000000000000000000000000000000
310
0000000000000000000000000000000000000000000000000000000000000000
310
0000000000000000000000000000000000000000000000000000000000000000
310
0000000000000000000000000000000000000000000000000000000000000000
310
0000000000000000000000000000000000000000000000000000000000000000
310
0000000000000000000000000000000000000000000000000000000000000000
310
0000000000000000000000000000000000000000000000000000000000000000
310
0000000000000000000000000000000000000000000000000000000000000000
310
0000000000000000000000000000000000000000000000000000000000000000
310
0000000000000000000000000000000000000000000000000000000000000000
310
0000000000000000000000000000000000000000000000000000000000000000
310
0000000000000000000000000000000000000000000000000000000000000000
310
0000000000000000000000000000000000000000000000000000000000000000
310
0000000000000000000000000000000000000000000000000000000000000000
310
0000000000000000000000000000000000000000000000000000000000000000
  1
OLE
  0
ENDSEC
  0
SECTION
  2
OBJECTS
  0
DICTIONARY
  5
C
330
0
100
AcDbDictionary
281
     1
  3
ACAD_GROUP
350
D
  3
ACAD_LAYOUT
350
1A
  3
ACAD_MLINESTYLE
350
17
  3
ACAD_PLOTSETTINGS
350
19
  3
ACAD_PLOTSTYLENAME
350
E
  3
ACAD_SCALELIST
350
47
  0
DICTIONARY
  5
D
102
{ACAD_REACTORS
330
C
102
}
330
C
100
AcDbDictionary
281
     1
  0
DICTIONARY
  5
1A
102
{ACAD_REACTORS
330
C
102
}
330
C
100
AcDbDictionary
281
     1
  3
Layout1
350
1E
  3
Layout2
350
26
  3
Model
350
22
  0
DICTIONARY
  5
17
102
{ACAD_REACTORS
330
C
102
}
330
C
100
AcDbDictionary
281
     1
  3
Standard
350
18
  0
DICTIONARY
  5
19
102
{ACAD_REACTORS
330
C
102
}
330
C
100
AcDbDictionary
281
     1
  0
ACDBDICTIONARYWDFLT
  5
E
102
{ACAD_REACTORS
330
C
102
}
330
C
100
AcDbDictionary
281
     1
  3
Normal
350
F
100
AcDbDictionaryWithDefault
340
F
  0
DICTIONARY
  5
47
102
{ACAD_REACTORS
330
C
102
}
330
C
100
AcDbDictionary
281
     1
  3
A0
350
48
  3
A1
350
49
  3
A2
350
4A
  3
A3
350
4B
  3
A4
350
4C
  3
A5
350
4D
  3
A6
350
4E
  3
A7
350
4F
  3
A8
350
50
  3
A9
350
51
  3
B0
350
52
  3
B1
350
53
  3
B2
350
54
  3
B3
350
55
  3
B4
350
56
  3
B5
350
57
  3
B6
350
58
  3
B7
350
59
  3
B8
350
5A
  3
B9
350
5B
  3
C0
350
5C
  3
C1
350
5D
  3
C2
350
5E
  3
C3
350
5F
  3
C4
350
60
  3
C5
350
61
  3
C6
350
62
  3
C7
350
63
  3
C8
350
64
  3
C9
350
65
  3
D0
350
66
  3
D1
350
67
  3
D2
350
68
  0
LAYOUT
  5
1E
102
{ACAD_REACTORS
330
1A
102
}
330
1A
100
AcDbPlotSettings
  1

  2
none_device
  4

  6

 40
0.0
 41
0.0
 42
0.0
 43
0.0
 44
0.0
 45
0.0
 46
0.0
 47
0.0
 48
0.0
 49
0.0
140
0.0
141
0.0
142
1.0
143
1.0
 70
   688
 72
     1
 73
     0
 74
     5
  7

 75
    16
147
1.0
148
0.0
149
0.0
100
AcDbLayout
  1
Layout1
 70
     1
 71
     1
 10
0.0
 20
0.0
 11
420.0
 21
297.0
 12
0.0
 22
0.0
 32
0.0
 14
1.0000000000E+20
 24
1.0000000000E+20
 34
1.0000000000E+20
 15
-1.0000000000E+20
 25
-1.0000000000E+20
 35
-1.0000000000E+20
146
0.0
 13
0.0
 23
0.0
 33
0.0
 16
1.0
 26
0.0
 36
0.0
 17
0.0
 27
1.0
 37
0.0
 76
     0
330
1B
  0
LAYOUT
  5
26
102
{ACAD_REACTORS
330
1A
102
}
330
1A
100
AcDbPlotSettings
  1

  2
none_device
  4

  6

 40
0.0
 41
0.0
 42
0.0
 43
0.0
 44
0.0
 45
0.0
 46
0.0
 47
0.0
 48
0.0
 49
0.0
140
0.0
141
0.0
142
1.0
143
1.0
 70
   688
 72
     1
 73
     0
 74
     5
  7

 75
    16
147
1.0
148
0.0
149
0.0
100
AcDbLayout
  1
Layout2
 70
     1
 71
     2
 10
0.0
 20
0.0
 11
0.0
 21
0.0
 12
0.0
 22
0.0
 32
0.0
 14
0.0
 24
0.0
 34
0.0
 15
0.0
 25
0.0
 35
0.0
146
0.0
 13
0.0
 23
0.0
 33
0.0
 16
1.0
 26
0.0
 36
0.0
 17
0.0
 27
1.0
 37
0.0
 76
     0
330
23
  0
LAYOUT
  5
22
102
{ACAD_REACTORS
330
1A
102
}
330
1A
100
AcDbPlotSettings
  1

  2
none_device
  4
Letter_(8.50_x_11.00_Inches)
  6

 40
6.35
 41
6.35
 42
6.35000508
 43
6.35000508
 44
215.9
 45
279.4
 46
0.0
 47
0.0
 48
0.0
 49
0.0
140
0.0
141
0.0
142
1.0
143
1.0
 70
  1712
 72
     1
 73
     0
 74
     0
  7

 75
     0
147
1.0
148
0.0
149
0.0
100
AcDbLayout
  1
Model
 70
     1
 71
     0
 10
0.0
 20
0.0
 11
297.0
 21
210.0
 12
0.0
 22
0.0
 32
0.0
 14
0.0
 24
0.0
 34
0.0
 15
297.0
 25
210.0
 35
0.0
146
0.0
 13
0.0
 23
0.0
 33
0.0
 16
1.0
 26
0.0
 36
0.0
 17
0.0
 27
1.0
 37
0.0
 76
     0
330
1F
331
29
  0
MLINESTYLE
  5
18
102
{ACAD_REACTORS
330
17
102
}
330
17
100
AcDbMlineStyle
  2
Standard
 70
     0
  3

 62
   256
 51
90.0
 52
90.0
 71
     2
 49
0.5
 62
   256
  6
BYLAYER
 49
-0.5
 62
   256
  6
BYLAYER
  0
ACDBPLACEHOLDER
  5
F
102
{ACAD_REACTORS
330
E
102
}
330
E
  0
SCALE
  5
48
102
{ACAD_REACTORS
330
47
102
}
330
47
100
AcDbScale
 70
     0
300
1:1
140
1.0
141
1.0
290
     1
  0
SCALE
  5
49
102
{ACAD_REACTORS
330
47
102
}
330
47
100
AcDbScale
 70
     0
300
1:2
140
1.0
141
2.0
290
     0
  0
SCALE
  5
4A
102
{ACAD_REACTORS
330
47
102
}
330
47
100
AcDbScale
 70
     0
300
1:4
140
1.0
141
4.0
290
     0
  0
SCALE
  5
4B
102
{ACAD_REACTORS
330
47
102
}
330
47
100
AcDbScale
 70
     0
300
1:5
140
1.0
141
5.0
290
     0
  0
SCALE
  5
4C
102
{ACAD_REACTORS
330
47
102
}
330
47
100
AcDbScale
 70
     0
300
1:8
140
1.0
141
8.0
290
     0
  0
SCALE
  5
4D
102
{ACAD_REACTORS
330
47
102
}
330
47
100
AcDbScale
 70
     0
300
1:10
140
1.0
141
10.0
290
     0
  0
SCALE
  5
4E
102
{ACAD_REACTORS
330
47
102
}
330
47
100
AcDbScale
 70
     0
300
1:16
140
1.0
141
16.0
290
     0
  0
SCALE
  5
4F
102
{ACAD_REACTORS
330
47
102
}
330
47
100
AcDbScale
 70
     0
300
1:20
140
1.0
141
20.0
290
     0
  0
SCALE
  5
50
102
{ACAD_REACTORS
330
47
102
}
330
47
100
AcDbScale
 70
     0
300
1:30
140
1.0
141
30.0
290
     0
  0
SCALE
  5
51
102
{ACAD_REACTORS
330
47
102
}
330
47
100
AcDbScale
 70
     0
300
1:40
140
1.0
141
40.0
290
     0
  0
SCALE
  5
52
102
{ACAD_REACTORS
330
47
102
}
330
47
100
AcDbScale
 70
     0
300
1:50
140
1.0
141
50.0
290
     0
  0
SCALE
  5
53
102
{ACAD_REACTORS
330
47
102
}
330
47
100
AcDbScale
 70
     0
300
1:100
140
1.0
141
100.0
290
     0
  0
SCALE
  5
54
102
{ACAD_REACTORS
330
47
102
}
330
47
100
AcDbScale
 70
     0
300
2:1
140
2.0
141
1.0
290
     0
  0
SCALE
  5
55
102
{ACAD_REACTORS
330
47
102
}
330
47
100
AcDbScale
 70
     0
300
4:1
140
4.0
141
1.0
290
     0
  0
SCALE
  5
56
102
{ACAD_REACTORS
330
47
102
}
330
47
100
AcDbScale
 70
     0
300
8:1
140
8.0
141
1.0
290
     0
  0
SCALE
  5
57
102
{ACAD_REACTORS
330
47
102
}
330
47
100
AcDbScale
 70
     0
300
10:1
140
10.0
141
1.0
290
     0
  0
SCALE
  5
58
102
{ACAD_REACTORS
330
47
102
}
330
47
100
AcDbScale
 70
     0
300
100:1
140
100.0
141
1.0
290
     0
  0
SCALE
  5
59
102
{ACAD_REACTORS
330
47
102
}
330
47
100
AcDbScale
 70
     0
300
1/128" = 1'-0"
140
0.0078125
141
12.0
290
     0
  0
SCALE
  5
5A
102
{ACAD_REACTORS
330
47
102
}
330
47
100
AcDbScale
 70
     0
300
1/64" = 1'-0"
140
0.015625
141
12.0
290
     0
  0
SCALE
  5
5B
102
{ACAD_REACTORS
330
47
102
}
330
47
100
AcDbScale
 70
     0
300
1/32" = 1'-0"
140
0.03125
141
12.0
290
     0
  0
SCALE
  5
5C
102
{ACAD_REACTORS
330
47
102
}
330
47
100
AcDbScale
 70
     0
300
1/16" = 1'-0"
140
0.0625
141
12.0
290
     0
  0
SCALE
  5
5D
102
{ACAD_REACTORS
330
47
102
}
330
47
100
AcDbScale
 70
     0
300
3/32" = 1'-0"
140
0.09375
141
12.0
290
     0
  0
SCALE
  5
5E
102
{ACAD_REACTORS
330
47
102
}
330
47
100
AcDbScale
 70
     0
300
1/8" = 1'-0"
140
0.125
141
12.0
290
     0
  0
SCALE
  5
5F
102
{ACAD_REACTORS
330
47
102
}
330
47
100
AcDbScale
 70
     0
300
3/16" = 1'-0"
140
0.1875
141
12.0
290
     0
  0
SCALE
  5
60
102
{ACAD_REACTORS
330
47
102
}
330
47
100
AcDbScale
 70
     0
300
1/4" = 1'-0"
140
0.25
141
12.0
290
     0
  0
SCALE
  5
61
102
{ACAD_REACTORS
330
47
102
}
330
47
100
AcDbScale
 70
     0
300
3/8" = 1'-0"
140
0.375
141
12.0
290
     0
  0
SCALE
  5
62
102
{ACAD_REACTORS
330
47
102
}
330
47
100
AcDbScale
 70
     0
300
1/2" = 1'-0"
140
0.5
141
12.0
290
     0
  0
SCALE
  5
63
102
{ACAD_REACTORS
330
47
102
}
330
47
100
AcDbScale
 70
     0
300
3/4" = 1'-0"
140
0.75
141
12.0
290
     0
  0
SCALE
  5
64
102
{ACAD_REACTORS
330
47
102
}
330
47
100
AcDbScale
 70
     0
300
1" = 1'-0"
140
1.0
141
12.0
290
     0
  0
SCALE
  5
65
102
{ACAD_REACTORS
330
47
102
}
330
47
100
AcDbScale
 70
     0
300
1-1/2" = 1'-0"
140
1.5
141
12.0
290
     0
  0
SCALE
  5
66
102
{ACAD_REACTORS
330
47
102
}
330
47
100
AcDbScale
 70
     0
300
3" = 1'-0"
140
3.0
141
12.0
290
     0
  0
SCALE
  5
67
102
{ACAD_REACTORS
330
47
102
}
330
47
100
AcDbScale
 70
     0
300
6" = 1'-0"
140
6.0
141
12.0
290
     0
  0
SCALE
  5
68
102
{ACAD_REACTORS
330
47
102
}
330
47
100
AcDbScale
 70
     0
300
1'-0" = 1'-0"
140
12.0
141
12.0
290
     0
  0
ENDSEC
  0
EOF
