  0
SECTION
  2
HEADER
  9
$ACADVER
  1
AC1015
  9
$ACADMAINTVER
 70
     6
  9
$DWGCODEPAGE
  3
ANSI_1252
  9
$INSBASE
 10
0.0
 20
0.0
 30
0.0
  9
$EXTMIN
 10
0.0
 20
0.0
 30
0.0
  9
$EXTMAX
 10
297.0
 20
210.0
 30
0.0
  9
$LIMMIN
 10
0.0
 20
0.0
  9
$LIMMAX
 10
297.0
 20
210.0
  9
$ORTHOMODE
 70
     0
  9
$REGENMODE
 70
     1
  9
$FILLMODE
 70
     1
  9
$QTEXTMODE
 70
     0
  9
$MIRRTEXT
 70
     1
  9
$LTSCALE
 40
1.0
  9
$ATTMODE
 70
     1
  9
$TEXTSIZE
 40
2.0
  9
$TRACEWID
 40
1.0
  9
$TEXTSTYLE
  7
Standard
  9
$CLAYER
  8
0
  9
$CELTYPE
  6
ByLayer
  9
$CECOLOR
 62
   256
  9
$CELTSCALE
 40
1.0
  9
$DISPSILH
 70
     0
  9
$DIMSCALE
 40
1.0
  9
$DIMASZ
 40
3.0
  9
$DIMEXO
 40
0.0
  9
$DIMDLI
 40
3.75
  9
$DIMRND
 40
0.0
  9
$DIMDLE
 40
0.0
  9
$DIMEXE
 40
1.0
  9
$DIMTP
 40
0.0
  9
$DIMTM
 40
0.0
  9
$DIMTXT
 40
2.0
  9
$DIMCEN
 40
2.5
  9
$DIMTSZ
 40
0.0
  9
$DIMTOL
 70
     0
  9
$DIMLIM
 70
     0
  9
$DIMTIH
 70
     1
  9
$DIMTOH
 70
     1
  9
$DIMSE1
 70
     0
  9
$DIMSE2
 70
     0
  9
$DIMTAD
 70
     1
  9
$DIMZIN
 70
     0
  9
$DIMBLK
  1

  9
$DIMASO
 70
     1
  9
$DIMSHO
 70
     1
  9
$DIMPOST
  1

  9
$DIMAPOST
  1

  9
$DIMALT
 70
     0
  9
$DIMALTD
 70
     3
  9
$DIMALTF
 40
0.0393700787
  9
$DIMLFAC
 40
2.0
  9
$DIMTOFL
 70
     1
  9
$DIMTVP
 40
0.0
  9
$DIMTIX
 70
     0
  9
$DIMSOXD
 70
     0
  9
$DIMSAH
 70
     0
  9
$DIMBLK1
  1

  9
$DIMBLK2
  1

  9
$DIMSTYLE
  2
ISO-25
  9
$DIMCLRD
 70
     0
  9
$DIMCLRE
 70
     0
  9
$DIMCLRT
 70
     0
  9
$DIMTFAC
 40
1.0
  9
$DIMGAP
 40
1.524
  9
$DIMJUST
 70
     0
  9
$DIMSD1
 70
     0
  9
$DIMSD2
 70
     0
  9
$DIMTOLJ
 70
     0
  9
$DIMTZIN
 70
     0
  9
$DIMALTZ
 70
     0
  9
$DIMALTTZ
 70
     0
  9
$DIMUPT
 70
     0
  9
$DIMDEC
 70
     2
  9
$DIMTDEC
 70
     3
  9
$DIMALTU
 70
     2
  9
$DIMALTTD
 70
     3
  9
$DIMTXSTY
  7
Standard
  9
$DIMAUNIT
 70
     0
  9
$DIMADEC
 70
     2
  9
$DIMALTRND
 40
0.0
  9
$DIMAZIN
 70
     0
  9
$DIMDSEP
 70
    44
  9
$DIMATFIT
 70
     3
  9
$DIMFRAC
 70
     0
  9
$DIMLDRBLK
  1

  9
$DIMLUNIT
 70
     2
  9
$DIMLWD
 70
    -2
  9
$DIMLWE
 70
    -2
  9
$DIMTMOVE
 70
     0
  9
$LUNITS
 70
     2
  9
$LUPREC
 70
     2
  9
$SKETCHINC
 40
1.0
  9
$FILLETRAD
 40
10.0
  9
$AUNITS
 70
     0
  9
$AUPREC
 70
     2
  9
$MENU
  1
.
  9
$ELEVATION
 40
0.0
  9
$PELEVATION
 40
0.0
  9
$THICKNESS
 40
0.0
  9
$LIMCHECK
 70
     0
  9
$CHAMFERA
 40
0.0
  9
$CHAMFERB
 40
0.0
  9
$CHAMFERC
 40
0.0
  9
$CHAMFERD
 40
0.0
  9
$SKPOLY
 70
     0
  9
$TDCREATE
 40
2458169.339650799
  9
$TDUCREATE
 40
2458169.297984132
  9
$TDUPDATE
 40
2458169.339652778
  9
$TDUUPDATE
 40
2458169.297986111
  9
$TDINDWG
 40
0.0000000116
  9
$TDUSRTIMER
 40
0.0000000116
  9
$USRTIMER
 70
     1
  9
$ANGBASE
 50
0.0
  9
$ANGDIR
 70
     0
  9
$PDMODE
 70
     0
  9
$PDSIZE
 40
-1.0
  9
$PLINEWID
 40
0.0
  9
$SPLFRAME
 70
     0
  9
$SPLINETYPE
 70
     6
  9
$SPLINESEGS
 70
     8
  9
$HANDSEED
  5
274
  9
$SURFTAB1
 70
     6
  9
$SURFTAB2
 70
     6
  9
$SURFTYPE
 70
     6
  9
$SURFU
 70
     6
  9
$SURFV
 70
     6
  9
$UCSBASE
  2

  9
$UCSNAME
  2

  9
$UCSORG
 10
0.0
 20
0.0
 30
0.0
  9
$UCSXDIR
 10
1.0
 20
0.0
 30
0.0
  9
$UCSYDIR
 10
0.0
 20
1.0
 30
0.0
  9
$UCSORTHOREF
  2

  9
$UCSORTHOVIEW
 70
     0
  9
$UCSORGTOP
 10
0.0
 20
0.0
 30
0.0
  9
$UCSORGBOTTOM
 10
0.0
 20
0.0
 30
0.0
  9
$UCSORGLEFT
 10
0.0
 20
0.0
 30
0.0
  9
$UCSORGRIGHT
 10
0.0
 20
0.0
 30
0.0
  9
$UCSORGFRONT
 10
0.0
 20
0.0
 30
0.0
  9
$UCSORGBACK
 10
0.0
 20
0.0
 30
0.0
  9
$PUCSBASE
  2

  9
$PUCSNAME
  2

  9
$PUCSORG
 10
0.0
 20
0.0
 30
0.0
  9
$PUCSXDIR
 10
1.0
 20
0.0
 30
0.0
  9
$PUCSYDIR
 10
0.0
 20
1.0
 30
0.0
  9
$PUCSORTHOREF
  2

  9
$PUCSORTHOVIEW
 70
     0
  9
$PUCSORGTOP
 10
0.0
 20
0.0
 30
0.0
  9
$PUCSORGBOTTOM
 10
0.0
 20
0.0
 30
0.0
  9
$PUCSORGLEFT
 10
0.0
 20
0.0
 30
0.0
  9
$PUCSORGRIGHT
 10
0.0
 20
0.0
 30
0.0
  9
$PUCSORGFRONT
 10
0.0
 20
0.0
 30
0.0
  9
$PUCSORGBACK
 10
0.0
 20
0.0
 30
0.0
  9
$USERI1
 70
     0
  9
$USERI2
 70
     0
  9
$USERI3
 70
     0
  9
$USERI4
 70
     0
  9
$USERI5
 70
     0
  9
$USERR1
 40
0.0
  9
$USERR2
 40
0.0
  9
$USERR3
 40
0.0
  9
$USERR4
 40
0.0
  9
$USERR5
 40
0.0
  9
$WORLDVIEW
 70
     1
  9
$SHADEDGE
 70
     3
  9
$SHADEDIF
 70
    70
  9
$TILEMODE
 70
     1
  9
$MAXACTVP
 70
    64
  9
$PINSBASE
 10
0.0
 20
0.0
 30
0.0
  9
$PLIMCHECK
 70
     0
  9
$PEXTMIN
 10
1.0000000000E+20
 20
1.0000000000E+20
 30
1.0000000000E+20
  9
$PEXTMAX
 10
-1.0000000000E+20
 20
-1.0000000000E+20
 30
-1.0000000000E+20
  9
$PLIMMIN
 10
0.0
 20
0.0
  9
$PLIMMAX
 10
420.0
 20
297.0
  9
$UNITMODE
 70
     0
  9
$VISRETAIN
 70
     1
  9
$PLINEGEN
 70
     0
  9
$PSLTSCALE
 70
     1
  9
$TREEDEPTH
 70
  3020
  9
$CMLSTYLE
  2
Standard
  9
$CMLJUST
 70
     0
  9
$CMLSCALE
 40
20.0
  9
$PROXYGRAPHICS
 70
     1
  9
$MEASUREMENT
 70
     1
  9
$CELWEIGHT
370
    -1
  9
$ENDCAPS
280
     0
  9
$JOINSTYLE
280
     0
  9
$LWDISPLAY
290
     1
  9
$INSUNITS
 70
     4
  9
$HYPERLINKBASE
  1

  9
$STYLESHEET
  1

  9
$XEDIT
290
     1
  9
$CEPSNTYPE
380
     0
  9
$PSTYLEMODE
290
     1
  9
$FINGERPRINTGUID
  2
{D6AA8FB9-B7AB-4A0A-9578-D635A771F3A3}
  9
$VERSIONGUID
  2
{FAEB1C32-E019-11D5-929B-00C0DF256EC4}
  9
$EXTNAMES
290
     1
  9
$PSVPSCALE
 40
0.0
  9
$OLESTARTUP
290
     0
  0
ENDSEC
  0
SECTION
  2
CLASSES
  0
CLASS
  1
ACDBDICTIONARYWDFLT
  2
AcDbDictionaryWithDefault
  3
ObjectDBX Classes
 90
        0
280
     0
281
     0
  0
CLASS
  1
VISUALSTYLE
  2
AcDbVisualStyle
  3
ObjectDBX Classes
 90
     4095
280
     0
281
     0
  0
CLASS
  1
MATERIAL
  2
AcDbMaterial
  3
ObjectDBX Classes
 90
     1153
280
     0
281
     0
  0
CLASS
  1
SCALE
  2
AcDbScale
  3
ObjectDBX Classes
 90
     1153
280
     0
281
     0
  0
CLASS
  1
TABLESTYLE
  2
AcDbTableStyle
  3
ObjectDBX Classes
 90
     4095
280
     0
281
     0
  0
CLASS
  1
MLEADERSTYLE
  2
AcDbMLeaderStyle
  3
ACDB_MLEADERSTYLE_CLASS
 90
     4095
280
     0
281
     0
  0
CLASS
  1
SUN
  2
AcDbSun
  3
SCENEOE
 90
     1153
280
     0
281
     0
  0
CLASS
  1
ACDBPLACEHOLDER
  2
AcDbPlaceHolder
  3
ObjectDBX Classes
 90
        0
280
     0
281
     0
  0
CLASS
  1
LAYOUT
  2
AcDbLayout
  3
ObjectDBX Classes
 90
        0
280
     0
281
     0
  0
ENDSEC
  0
SECTION
  2
TABLES
  0
TABLE
  2
VPORT
  5
8
330
0
100
AcDbSymbolTable
 70
     1
  0
VPORT
  5
29
330
8
100
AcDbSymbolTableRecord
100
AcDbViewportTableRecord
  2
*Active
 70
     0
 10
0.0
 20
0.0
 11
1.0
 21
1.0
 12
148.5
 22
105.0
 13
0.0
 23
0.0
 14
10.0
 24
10.0
 15
10.0
 25
10.0
 16
0.0
 26
0.0
 36
1.0
 17
0.0
 27
0.0
 37
0.0
 40
210.0
 41
1.4142857143
 42
50.0
 43
0.0
 44
0.0
 50
0.0
 51
0.0
 71
     0
 72
  2000
 73
     1
 74
     3
 75
     0
 76
     0
 77
     0
 78
     0
281
     0
 65
     1
110
0.0
120
0.0
130
0.0
111
1.0
121
0.0
131
0.0
112
0.0
122
1.0
132
0.0
 79
     0
146
0.0
  0
ENDTAB
  0
TABLE
  2
LTYPE
  5
5
330
0
100
AcDbSymbolTable
 70
     6
  0
LTYPE
  5
14
330
5
100
AcDbSymbolTableRecord
100
AcDbLinetypeTableRecord
  2
ByBlock
 70
     0
  3

 72
    65
 73
     0
 40
0.0
  0
LTYPE
  5
15
330
5
100
AcDbSymbolTableRecord
100
AcDbLinetypeTableRecord
  2
ByLayer
 70
     0
  3

 72
    65
 73
     0
 40
0.0
  0
LTYPE
  5
16
330
5
100
AcDbSymbolTableRecord
100
AcDbLinetypeTableRecord
  2
Continuous
 70
     0
  3
Solid line
 72
    65
 73
     0
 40
0.0
  0
LTYPE
  5
6E
330
5
100
AcDbSymbolTableRecord
100
AcDbLinetypeTableRecord
  2
HIDDEN
 70
     0
  3
Hidden __ __ __ __ __ __ __ __ __ __ __ __ __ __
 72
    65
 73
     2
 40
1.905
 49
1.27
 74
     0
 49
-0.635
 74
     0
  0
LTYPE
  5
6F
330
5
100
AcDbSymbolTableRecord
100
AcDbLinetypeTableRecord
  2
PHANTOM
 70
     0
  3
Phantom ______  __  __  ______  __  __  ______
 72
    65
 73
     6
 40
12.7
 49
6.35
 74
     0
 49
-1.27
 74
     0
 49
1.27
 74
     0
 49
-1.27
 74
     0
 49
1.27
 74
     0
 49
-1.27
 74
     0
  0
LTYPE
  5
70
330
5
100
AcDbSymbolTableRecord
100
AcDbLinetypeTableRecord
  2
CENTER
 70
     0
  3
Center ____ _ ____ _ ____ _ ____ _ ____ _ ____
 72
    65
 73
     4
 40
10.16
 49
6.35
 74
     0
 49
-1.27
 74
     0
 49
1.27
 74
     0
 49
-1.27
 74
     0
  0
LTYPE
  5
71
330
5
100
AcDbSymbolTableRecord
100
AcDbLinetypeTableRecord
  2
CENTERX2
 70
     0
  3
Center (2x) ________  __  ________  __  _____
 72
    65
 73
     4
 40
20.32
 49
12.7
 74
     0
 49
-2.54
 74
     0
 49
2.54
 74
     0
 49
-2.54
 74
     0
  0
LTYPE
  5
72
330
5
100
AcDbSymbolTableRecord
100
AcDbLinetypeTableRecord
  2
DOT2
 70
     0
  3
Dot (.5x) ........................................
 72
    65
 73
     2
 40
0.635
 49
0.0
 74
     0
 49
-0.635
 74
     0
  0
ENDTAB
  0
TABLE
  2
LAYER
  5
2
330
0
100
AcDbSymbolTable
 70
     5
  0
LAYER
  5
10
330
2
100
AcDbSymbolTableRecord
100
AcDbLayerTableRecord
  2
0
 70
     0
 62
     7
  6
Continuous
370
    -3
390
F
  0
LAYER
  5
73
330
2
100
AcDbSymbolTableRecord
100
AcDbLayerTableRecord
  2
FORMAT
 70
     0
 62
     7
  6
Continuous
370
    -3
390
F
  0
LAYER
  5
74
330
2
100
AcDbSymbolTableRecord
100
AcDbLayerTableRecord
  2
VERMASSUNG
 70
     0
 62
     7
  6
Continuous
370
    -3
390
F
  0
LAYER
  5
75
330
2
100
AcDbSymbolTableRecord
100
AcDbLayerTableRecord
  2
KOPF_DÜNN
 70
     0
 62
     7
  6
Continuous
370
    -3
390
F
  0
LAYER
  5
76
330
2
100
AcDbSymbolTableRecord
100
AcDbLayerTableRecord
  2
KOPF_DICK
 70
     0
 62
     7
  6
Continuous
370
    25
390
F
  0
ENDTAB
  0
TABLE
  2
STYLE
  5
3
330
0
100
AcDbSymbolTable
 70
     3
  0
STYLE
  5
11
330
3
100
AcDbSymbolTableRecord
100
AcDbTextStyleTableRecord
  2
Standard
 70
     0
 40
0.0
 41
1.0
 50
0.0
 71
     0
 42
2.0
  3
txt
  4

  0
STYLE
  5
77
330
3
100
AcDbSymbolTableRecord
100
AcDbTextStyleTableRecord
  2
SLDTEXTSTYLE0
 70
     0
 40
0.0
 41
0.7
 50
0.0
 71
     0
 42
2.0
  3
TXT
  4

  0
STYLE
  5
7B
330
3
100
AcDbSymbolTableRecord
100
AcDbTextStyleTableRecord
  2
SLDTEXTSTYLE1
 70
     0
 40
0.0
 41
0.6428571429
 50
0.0
 71
     0
 42
2.0
  3
TXT
  4

  0
ENDTAB
  0
TABLE
  2
VIEW
  5
6
330
0
100
AcDbSymbolTable
 70
     0
  0
ENDTAB
  0
TABLE
  2
UCS
  5
7
330
0
100
AcDbSymbolTable
 70
     0
  0
ENDTAB
  0
TABLE
  2
APPID
  5
9
330
0
100
AcDbSymbolTable
 70
     1
  0
APPID
  5
12
330
9
100
AcDbSymbolTableRecord
100
AcDbRegAppTableRecord
  2
ACAD
 70
     0
  0
ENDTAB
  0
TABLE
  2
DIMSTYLE
  5
A
330
0
100
AcDbSymbolTable
 70
     2
100
AcDbDimStyleTable
  0
DIMSTYLE
105
27
330
A
100
AcDbSymbolTableRecord
100
AcDbDimStyleTableRecord
  2
ISO-25
 70
     0
 41
2.5
 42
0.625
 43
3.75
 44
1.25
 73
     0
 74
     0
 77
     1
 78
     8
140
2.5
141
2.5
143
0.0393700787
147
0.625
171
     3
172
     1
178
     0
271
     2
272
     2
274
     3
278
    44
283
     0
284
     8
340
11
  0
DIMSTYLE
105
12C
102
{ACAD_REACTORS
330
12B
330
137
330
142
330
14C
330
156
330
160
330
16C
330
178
102
}
330
A
100
AcDbSymbolTableRecord
100
AcDbDimStyleTableRecord
  2
SLDDIMSTYLE0
 70
     0
 41
3.0
 44
0.0
 45
0.000000001
 73
     0
 74
     0
 77
     1
 78
    12
 79
     3
140
2.0
147
0.5
173
     1
178
     0
271
     2
272
     3
276
     2
284
    12
340
77
  0
ENDTAB
  0
TABLE
  2
BLOCK_RECORD
  5
1
330
0
100
AcDbSymbolTable
 70
     9
  0
BLOCK_RECORD
  5
1F
330
1
100
AcDbSymbolTableRecord
100
AcDbBlockTableRecord
  2
*Model_Space
340
22
  0
BLOCK_RECORD
  5
1B
330
1
100
AcDbSymbolTableRecord
100
AcDbBlockTableRecord
  2
*Paper_Space
340
1E
  0
BLOCK_RECORD
  5
23
330
1
100
AcDbSymbolTableRecord
100
AcDbBlockTableRecord
  2
*Paper_Space0
340
26
  0
BLOCK_RECORD
  5
12D
330
1
100
AcDbSymbolTableRecord
100
AcDbBlockTableRecord
  2
_D
340
0
  0
BLOCK_RECORD
  5
138
330
1
100
AcDbSymbolTableRecord
100
AcDbBlockTableRecord
  2
_D_1
340
0
  0
BLOCK_RECORD
  5
143
330
1
100
AcDbSymbolTableRecord
100
AcDbBlockTableRecord
  2
_D_2
340
0
  0
BLOCK_RECORD
  5
14D
330
1
100
AcDbSymbolTableRecord
100
AcDbBlockTableRecord
  2
_D_3
340
0
  0
BLOCK_RECORD
  5
157
330
1
100
AcDbSymbolTableRecord
100
AcDbBlockTableRecord
  2
_D_4
340
0
  0
BLOCK_RECORD
  5
161
330
1
100
AcDbSymbolTableRecord
100
AcDbBlockTableRecord
  2
_D_5
340
0
  0
BLOCK_RECORD
  5
16D
330
1
100
AcDbSymbolTableRecord
100
AcDbBlockTableRecord
  2
_D_6
340
0
  0
BLOCK_RECORD
  5
179
330
1
100
AcDbSymbolTableRecord
100
AcDbBlockTableRecord
  2
_D_7
340
0
  0
ENDTAB
  0
ENDSEC
  0
SECTION
  2
BLOCKS
  0
BLOCK
  5
20
330
1F
100
AcDbEntity
  8
0
100
AcDbBlockBegin
  2
*Model_Space
 70
     0
 10
0.0
 20
0.0
 30
0.0
  3
*Model_Space
  1

  0
ENDBLK
  5
21
330
1F
100
AcDbEntity
  8
0
100
AcDbBlockEnd
  0
BLOCK
  5
1C
330
1B
100
AcDbEntity
 67
     1
  8
0
100
AcDbBlockBegin
  2
*Paper_Space
 70
     0
 10
0.0
 20
0.0
 30
0.0
  3
*Paper_Space
  1

  0
ENDBLK
  5
1D
330
1B
100
AcDbEntity
 67
     1
  8
0
100
AcDbBlockEnd
  0
BLOCK
  5
24
330
23
100
AcDbEntity
  8
0
100
AcDbBlockBegin
  2
*Paper_Space0
 70
     0
 10
0.0
 20
0.0
 30
0.0
  3
*Paper_Space0
  1

  0
ENDBLK
  5
25
330
23
100
AcDbEntity
  8
0
100
AcDbBlockEnd
  0
BLOCK
  5
12E
330
12D
100
AcDbEntity
  8
0
100
AcDbBlockBegin
  2
_D
 70
     0
 10
0.0
 20
0.0
 30
0.0
  3
_D
  1

  0
SOLID
  5
130
330
12D
100
AcDbEntity
  8
VERMASSUNG
100
AcDbTrace
 10
241.1397837525
 20
95.460392559
 30
0.0
 11
241.5897837525
 21
98.460392559
 31
0.0
 12
240.6897837525
 22
98.460392559
 32
0.0
 13
240.6897837525
 23
98.460392559
 33
0.0
  0
SOLID
  5
131
330
12D
100
AcDbEntity
  8
VERMASSUNG
100
AcDbTrace
 10
241.1397837525
 20
135.460392559
 30
0.0
 11
240.6897837525
 21
132.460392559
 31
0.0
 12
241.5897837525
 22
132.460392559
 32
0.0
 13
241.5897837525
 23
132.460392559
 33
0.0
  0
LINE
  5
132
330
12D
100
AcDbEntity
  8
VERMASSUNG
100
AcDbLine
 10
187.1397837525
 20
95.460392559
 30
0.0
 11
242.1397837525
 21
95.460392559
 31
0.0
  0
LINE
  5
133
330
12D
100
AcDbEntity
  8
VERMASSUNG
100
AcDbLine
 10
187.1397837525
 20
135.460392559
 30
0.0
 11
242.1397837525
 21
135.460392559
 31
0.0
  0
LINE
  5
134
330
12D
100
AcDbEntity
  8
VERMASSUNG
100
AcDbLine
 10
241.1397837525
 20
95.460392559
 30
0.0
 11
241.1397837525
 21
135.460392559
 31
0.0
  0
MTEXT
  5
135
330
12D
100
AcDbEntity
  8
VERMASSUNG
100
AcDbMText
 10
238.5616484476
 20
112.1553925388
 30
0.0
 40
2.0
 41
0.0
 71
     1
 72
     1
  1
%%c
  7
SLDTEXTSTYLE0
 11
6.123233995736766E-17
 21
1.0
 31
0.0
 73
     1
 44
1.0
  0
MTEXT
  5
136
330
12D
100
AcDbEntity
  8
VERMASSUNG
100
AcDbMText
 10
238.3616484963
 20
115.7653925531
 30
0.0
 40
2.0
 41
0.0
 71
     1
 72
     1
  1
40
  7
SLDTEXTSTYLE0
 11
6.123233995736766E-17
 21
1.0
 31
0.0
 73
     1
 44
1.0
  0
ENDBLK
  5
12F
330
12D
100
AcDbEntity
  8
0
100
AcDbBlockEnd
  0
BLOCK
  5
139
330
138
100
AcDbEntity
  8
0
100
AcDbBlockBegin
  2
_D_1
 70
     0
 10
0.0
 20
0.0
 30
0.0
  3
_D_1
  1

  0
SOLID
  5
13B
330
138
100
AcDbEntity
  8
VERMASSUNG
100
AcDbTrace
 10
253.1397837525
 20
155.460392559
 30
0.0
 11
252.6897837525
 21
152.460392559
 31
0.0
 12
253.5897837525
 22
152.460392559
 32
0.0
 13
253.5897837525
 23
152.460392559
 33
0.0
  0
SOLID
  5
13C
330
138
100
AcDbEntity
  8
VERMASSUNG
100
AcDbTrace
 10
253.1397837525
 20
75.460392559
 30
0.0
 11
253.5897837525
 21
78.460392559
 31
0.0
 12
252.6897837525
 22
78.460392559
 32
0.0
 13
252.6897837525
 23
78.460392559
 33
0.0
  0
LINE
  5
13D
330
138
100
AcDbEntity
  8
VERMASSUNG
100
AcDbLine
 10
160.1397837525
 20
155.460392559
 30
0.0
 11
254.1397837525
 21
155.460392559
 31
0.0
  0
LINE
  5
13E
330
138
100
AcDbEntity
  8
VERMASSUNG
100
AcDbLine
 10
160.1397837525
 20
75.460392559
 30
0.0
 11
254.1397837525
 21
75.460392559
 31
0.0
  0
LINE
  5
13F
330
138
100
AcDbEntity
  8
VERMASSUNG
100
AcDbLine
 10
253.1397837525
 20
155.460392559
 30
0.0
 11
253.1397837525
 21
75.460392559
 31
0.0
  0
MTEXT
  5
140
330
138
100
AcDbEntity
  8
VERMASSUNG
100
AcDbMText
 10
250.5616484476
 20
112.2553926017
 30
0.0
 40
2.0
 41
0.0
 71
     1
 72
     1
  1
%%c
  7
SLDTEXTSTYLE0
 11
-7.044195017643634E-15
 21
1.0
 31
0.0
 73
     1
 44
1.0
  0
MTEXT
  5
141
330
138
100
AcDbEntity
  8
VERMASSUNG
100
AcDbMText
 10
250.3616484963
 20
115.865392616
 30
0.0
 40
2.0
 41
0.0
 71
     1
 72
     1
  1
80
  7
SLDTEXTSTYLE0
 11
-7.044195017643634E-15
 21
1.0
 31
0.0
 73
     1
 44
1.0
  0
ENDBLK
  5
13A
330
138
100
AcDbEntity
  8
0
100
AcDbBlockEnd
  0
BLOCK
  5
144
330
143
100
AcDbEntity
  8
0
100
AcDbBlockBegin
  2
_D_2
 70
     0
 10
0.0
 20
0.0
 30
0.0
  3
_D_2
  1

  0
SOLID
  5
146
330
143
100
AcDbEntity
  8
VERMASSUNG
100
AcDbTrace
 10
117.0897837525
 20
165.460392559
 30
0.0
 11
120.0897837525
 21
165.010392559
 31
0.0
 12
120.0897837525
 22
165.910392559
 32
0.0
 13
120.0897837525
 23
165.910392559
 33
0.0
  0
SOLID
  5
147
330
143
100
AcDbEntity
  8
VERMASSUNG
100
AcDbTrace
 10
161.1397837525
 20
165.460392559
 30
0.0
 11
158.1397837525
 21
165.910392559
 31
0.0
 12
158.1397837525
 22
165.010392559
 32
0.0
 13
158.1397837525
 23
165.010392559
 33
0.0
  0
LINE
  5
148
330
143
100
AcDbEntity
  8
VERMASSUNG
100
AcDbLine
 10
117.0897837525
 20
145.3068328827
 30
0.0
 11
117.0897837525
 21
166.460392559
 31
0.0
  0
LINE
  5
149
330
143
100
AcDbEntity
  8
VERMASSUNG
100
AcDbLine
 10
161.1397837525
 20
154.460392559
 30
0.0
 11
161.1397837525
 21
166.460392559
 31
0.0
  0
LINE
  5
14A
330
143
100
AcDbEntity
  8
VERMASSUNG
100
AcDbLine
 10
117.0897837525
 20
165.460392559
 30
0.0
 11
161.1397837525
 21
165.460392559
 31
0.0
  0
MTEXT
  5
14B
330
143
100
AcDbEntity
  8
VERMASSUNG
100
AcDbMText
 10
135.8147837704
 20
168.0385281549
 30
0.0
 40
2.0
 41
0.0
 71
     1
 72
     1
  1
44.05
  7
SLDTEXTSTYLE0
 73
     1
 44
1.0
  0
ENDBLK
  5
145
330
143
100
AcDbEntity
  8
0
100
AcDbBlockEnd
  0
BLOCK
  5
14E
330
14D
100
AcDbEntity
  8
0
100
AcDbBlockBegin
  2
_D_3
 70
     0
 10
0.0
 20
0.0
 30
0.0
  3
_D_3
  1

  0
SOLID
  5
150
330
14D
100
AcDbEntity
  8
VERMASSUNG
100
AcDbTrace
 10
91.1397837525
 20
174.3676691729
 30
0.0
 11
94.1397837525
 21
173.9176691729
 31
0.0
 12
94.1397837525
 22
174.8176691729
 32
0.0
 13
94.1397837525
 23
174.8176691729
 33
0.0
  0
SOLID
  5
151
330
14D
100
AcDbEntity
  8
VERMASSUNG
100
AcDbTrace
 10
161.1397837525
 20
174.3676691729
 30
0.0
 11
158.1397837525
 21
174.8176691729
 31
0.0
 12
158.1397837525
 22
173.9176691729
 32
0.0
 13
158.1397837525
 23
173.9176691729
 33
0.0
  0
LINE
  5
152
330
14D
100
AcDbEntity
  8
VERMASSUNG
100
AcDbLine
 10
91.1397837525
 20
146.660392559
 30
0.0
 11
91.1397837525
 21
175.3676691729
 31
0.0
  0
LINE
  5
153
330
14D
100
AcDbEntity
  8
VERMASSUNG
100
AcDbLine
 10
161.1397837525
 20
154.460392559
 30
0.0
 11
161.1397837525
 21
175.3676691729
 31
0.0
  0
LINE
  5
154
330
14D
100
AcDbEntity
  8
VERMASSUNG
100
AcDbLine
 10
91.1397837525
 20
174.3676691729
 30
0.0
 11
161.1397837525
 21
174.3676691729
 31
0.0
  0
MTEXT
  5
155
330
14D
100
AcDbEntity
  8
VERMASSUNG
100
AcDbMText
 10
124.7397838024
 20
176.9458047689
 30
0.0
 40
2.0
 41
0.0
 71
     1
 72
     1
  1
70
  7
SLDTEXTSTYLE0
 73
     1
 44
1.0
  0
ENDBLK
  5
14F
330
14D
100
AcDbEntity
  8
0
100
AcDbBlockEnd
  0
BLOCK
  5
158
330
157
100
AcDbEntity
  8
0
100
AcDbBlockBegin
  2
_D_4
 70
     0
 10
0.0
 20
0.0
 30
0.0
  3
_D_4
  1

  0
SOLID
  5
15A
330
157
100
AcDbEntity
  8
VERMASSUNG
100
AcDbTrace
 10
161.1397837525
 20
165.460392559
 30
0.0
 11
164.1397837525
 21
165.010392559
 31
0.0
 12
164.1397837525
 22
165.910392559
 32
0.0
 13
164.1397837525
 23
165.910392559
 33
0.0
  0
SOLID
  5
15B
330
157
100
AcDbEntity
  8
VERMASSUNG
100
AcDbTrace
 10
188.1397837525
 20
165.460392559
 30
0.0
 11
185.1397837525
 21
165.910392559
 31
0.0
 12
185.1397837525
 22
165.010392559
 32
0.0
 13
185.1397837525
 23
165.010392559
 33
0.0
  0
LINE
  5
15C
330
157
100
AcDbEntity
  8
VERMASSUNG
100
AcDbLine
 10
161.1397837525
 20
154.460392559
 30
0.0
 11
161.1397837525
 21
166.460392559
 31
0.0
  0
LINE
  5
15D
330
157
100
AcDbEntity
  8
VERMASSUNG
100
AcDbLine
 10
188.1397837525
 20
134.460392559
 30
0.0
 11
188.1397837525
 21
166.460392559
 31
0.0
  0
LINE
  5
15E
330
157
100
AcDbEntity
  8
VERMASSUNG
100
AcDbLine
 10
161.1397837525
 20
165.460392559
 30
0.0
 11
188.1397837525
 21
165.460392559
 31
0.0
  0
MTEXT
  5
15F
330
157
100
AcDbEntity
  8
VERMASSUNG
100
AcDbMText
 10
173.2397838024
 20
168.0385281549
 30
0.0
 40
2.0
 41
0.0
 71
     1
 72
     1
  1
27
  7
SLDTEXTSTYLE0
 73
     1
 44
1.0
  0
ENDBLK
  5
159
330
157
100
AcDbEntity
  8
0
100
AcDbBlockEnd
  0
BLOCK
  5
162
330
161
100
AcDbEntity
  8
0
100
AcDbBlockBegin
  2
_D_5
 70
     0
 10
0.0
 20
0.0
 30
0.0
  3
_D_5
  1

  0
ARC
  5
164
330
161
100
AcDbEntity
  8
VERMASSUNG
100
AcDbCircle
 10
137.0897838825
 20
185.3603928238
 30
0.0
 40
4.24852922888762
100
AcDbArc
 50
153.4349488229
 51
206.5650511771
  0
ARC
  5
165
330
161
100
AcDbEntity
  8
VERMASSUNG
100
AcDbCircle
 10
135.2897836806
 20
185.3603928238
 30
0.0
 40
4.24852922888762
100
AcDbArc
 50
333.4349488229
 51
26.5650511771
  0
SOLID
  5
166
330
161
100
AcDbEntity
  8
VERMASSUNG
100
AcDbTrace
 10
59.2397837525
 20
183.460392559
 30
0.0
 11
62.2397837525
 21
183.010392559
 31
0.0
 12
62.2397837525
 22
183.910392559
 32
0.0
 13
62.2397837525
 23
183.910392559
 33
0.0
  0
SOLID
  5
167
330
161
100
AcDbEntity
  8
VERMASSUNG
100
AcDbTrace
 10
213.1397837525
 20
183.460392559
 30
0.0
 11
210.1397837525
 21
183.910392559
 31
0.0
 12
210.1397837525
 22
183.010392559
 32
0.0
 13
210.1397837525
 23
183.010392559
 33
0.0
  0
LINE
  5
168
330
161
100
AcDbEntity
  8
VERMASSUNG
100
AcDbLine
 10
59.2397837525
 20
135.1510703054
 30
0.0
 11
59.2397837525
 21
184.460392559
 31
0.0
  0
LINE
  5
169
330
161
100
AcDbEntity
  8
VERMASSUNG
100
AcDbLine
 10
213.1397837525
 20
129.460392559
 30
0.0
 11
213.1397837525
 21
184.460392559
 31
0.0
  0
LINE
  5
16A
330
161
100
AcDbEntity
  8
VERMASSUNG
100
AcDbLine
 10
59.2397837525
 20
183.460392559
 30
0.0
 11
213.1397837525
 21
183.460392559
 31
0.0
  0
MTEXT
  5
16B
330
161
100
AcDbEntity
  8
VERMASSUNG
100
AcDbMText
 10
133.2897838185
 20
186.0385283878
 30
0.0
 40
2.0
 41
0.0
 71
     1
 72
     1
  1
153.9
  7
SLDTEXTSTYLE0
 73
     1
 44
1.0
  0
ENDBLK
  5
163
330
161
100
AcDbEntity
  8
0
100
AcDbBlockEnd
  0
BLOCK
  5
16E
330
16D
100
AcDbEntity
  8
0
100
AcDbBlockBegin
  2
_D_6
 70
     0
 10
0.0
 20
0.0
 30
0.0
  3
_D_6
  1

  0
SOLID
  5
170
330
16D
100
AcDbEntity
  8
VERMASSUNG
100
AcDbTrace
 10
47.1612705232
 20
83.960392559
 30
0.0
 11
47.6112705232
 21
86.960392559
 31
0.0
 12
46.7112705232
 22
86.960392559
 32
0.0
 13
46.7112705232
 23
86.960392559
 33
0.0
  0
SOLID
  5
171
330
16D
100
AcDbEntity
  8
VERMASSUNG
100
AcDbTrace
 10
47.1612705232
 20
146.960392559
 30
0.0
 11
46.7112705232
 21
143.960392559
 31
0.0
 12
47.6112705232
 22
143.960392559
 32
0.0
 13
47.6112705232
 23
143.960392559
 33
0.0
  0
LINE
  5
172
330
16D
100
AcDbEntity
  8
VERMASSUNG
100
AcDbLine
 10
91.4397837525
 20
83.960392559
 30
0.0
 11
46.1612705232
 21
83.960392559
 31
0.0
  0
LINE
  5
173
330
16D
100
AcDbEntity
  8
VERMASSUNG
100
AcDbLine
 10
91.4397837525
 20
146.960392559
 30
0.0
 11
46.1612705232
 21
146.960392559
 31
0.0
  0
LINE
  5
174
330
16D
100
AcDbEntity
  8
VERMASSUNG
100
AcDbLine
 10
47.1612705232
 20
83.960392559
 30
0.0
 11
47.1612705232
 21
146.960392559
 31
0.0
  0
MTEXT
  5
175
330
16D
100
AcDbEntity
  8
VERMASSUNG
100
AcDbMText
 10
44.383135267
 20
107.7553932611
 30
0.0
 40
2.0
 41
0.0
 71
     1
 72
     1
  1
HSK A
  7
SLDTEXTSTYLE0
 11
6.123233995736766E-17
 21
1.0
 31
0.0
 73
     1
 44
1.0
  0
MTEXT
  5
176
330
16D
100
AcDbEntity
  8
VERMASSUNG
100
AcDbMText
 10
44.5831352183
 20
116.7553928737
 30
0.0
 40
2.0
 41
0.0
 71
     1
 72
     1
  1
%%c
  7
SLDTEXTSTYLE0
 11
6.123233995736766E-17
 21
1.0
 31
0.0
 73
     1
 44
1.0
  0
MTEXT
  5
177
330
16D
100
AcDbEntity
  8
VERMASSUNG
100
AcDbMText
 10
44.383135267
 20
120.365392888
 30
0.0
 40
2.0
 41
0.0
 71
     1
 72
     1
  1
63
  7
SLDTEXTSTYLE0
 11
6.123233995736766E-17
 21
1.0
 31
0.0
 73
     1
 44
1.0
  0
ENDBLK
  5
16F
330
16D
100
AcDbEntity
  8
0
100
AcDbBlockEnd
  0
BLOCK
  5
17A
330
179
100
AcDbEntity
  8
0
100
AcDbBlockBegin
  2
_D_7
 70
     0
 10
0.0
 20
0.0
 30
0.0
  3
_D_7
  1

  0
SOLID
  5
17C
330
179
100
AcDbEntity
  8
VERMASSUNG
100
AcDbTrace
 10
229.1397837525
 20
106.845392559
 30
0.0
 11
229.5897837525
 21
109.845392559
 31
0.0
 12
228.6897837525
 22
109.845392559
 32
0.0
 13
228.6897837525
 23
109.845392559
 33
0.0
  0
SOLID
  5
17D
330
179
100
AcDbEntity
  8
VERMASSUNG
100
AcDbTrace
 10
229.1397837525
 20
124.075392559
 30
0.0
 11
228.6897837525
 21
121.075392559
 31
0.0
 12
229.5897837525
 22
121.075392559
 32
0.0
 13
229.5897837525
 23
121.075392559
 33
0.0
  0
LINE
  5
17E
330
179
100
AcDbEntity
  8
VERMASSUNG
100
AcDbLine
 10
213.1397837525
 20
106.845392559
 30
0.0
 11
230.1397837525
 21
106.845392559
 31
0.0
  0
LINE
  5
17F
330
179
100
AcDbEntity
  8
VERMASSUNG
100
AcDbLine
 10
213.1397837525
 20
124.075392559
 30
0.0
 11
230.1397837525
 21
124.075392559
 31
0.0
  0
LINE
  5
180
330
179
100
AcDbEntity
  8
VERMASSUNG
100
AcDbLine
 10
229.1397837525
 20
106.845392559
 30
0.0
 11
229.1397837525
 21
124.075392559
 31
0.0
  0
MTEXT
  5
181
330
179
100
AcDbEntity
  8
VERMASSUNG
100
AcDbMText
 10
226.5616481565
 20
112.260392407
 30
0.0
 40
2.0
 41
0.0
 71
     1
 72
     1
  1
SW
  7
SLDTEXTSTYLE0
 11
6.123233995736766E-17
 21
1.0
 31
0.0
 73
     1
 44
1.0
  0
MTEXT
  5
182
330
179
100
AcDbEntity
  8
VERMASSUNG
100
AcDbMText
 10
226.5616481565
 20
116.060392471
 30
0.0
 40
2.0
 41
0.0
 71
     1
 72
     1
  1
14
  7
SLDTEXTSTYLE0
 11
6.123233995736766E-17
 21
1.0
 31
0.0
 73
     1
 44
1.0
  0
ENDBLK
  5
17B
330
179
100
AcDbEntity
  8
0
100
AcDbBlockEnd
  0
ENDSEC
  0
SECTION
  2
ENTITIES
  0
MTEXT
  5
78
330
1F
100
AcDbEntity
  8
KOPF_DÜNN
100
AcDbMText
 10
13.8892156294
 20
23.8442973028
 30
0.0
 40
3.0
 41
0.0
 71
     1
 72
     1
  1
HA6.D40.K01.070
  7
SLDTEXTSTYLE0
 73
     1
 44
1.0
  0
MTEXT
  5
79
330
1F
100
AcDbEntity
  8
VERMASSUNG
100
AcDbMText
 10
13.9329988022
 20
28.8834360957
 30
0.0
 40
3.0
 41
0.0
 71
     1
 72
     1
  1
Fräsdorn Typ S_Milling arbor type S
  7
SLDTEXTSTYLE0
 73
     1
 44
1.0
  0
MTEXT
  5
7A
330
1F
100
AcDbEntity
  8
VERMASSUNG
100
AcDbMText
 10
98.8601118557
 20
13.8365368761
 30
0.0
 40
2.0
 41
0.0
 71
     1
 72
     1
  1
Datum: 19.02.2018
  7
SLDTEXTSTYLE0
 73
     1
 44
1.0
  0
MTEXT
  5
7C
330
1F
100
AcDbEntity
  8
VERMASSUNG
100
AcDbMText
 10
13.933048693
 20
18.0482802738
 30
0.0
 40
2.0
 41
0.0
 71
     1
 72
     1
  1
HSK A 63 / Ø40
  7
SLDTEXTSTYLE1
 73
     1
 44
1.0
  0
MTEXT
  5
7D
330
1F
100
AcDbEntity
  8
VERMASSUNG
100
AcDbMText
 10
13.9808475933
 20
13.9090974274
 30
0.0
 40
2.0
 41
0.0
 71
     1
 72
     1
  1
Gewicht: 2338g
  7
SLDTEXTSTYLE0
 73
     1
 44
1.0
  0
LINE
  5
7E
330
1F
100
AcDbEntity
  8
0
  6
Continuous
 62
     7
370
    25
100
AcDbLine
 10
161.1397840505
 20
77.4603937809
 30
0.0
 11
167.639782322
 21
77.4603937809
 31
0.0
  0
LINE
  5
7F
330
1F
100
AcDbEntity
  8
0
  6
Continuous
 62
     7
370
    25
100
AcDbLine
 10
167.639782322
 20
93.4603926782
 30
0.0
 11
161.1397840505
 21
93.4603926782
 31
0.0
  0
ARC
  5
80
330
1F
100
AcDbEntity
  8
0
  6
Continuous
 62
     7
370
    25
100
AcDbCircle
 10
167.6397837525
 20
77.960392559
 30
0.0
 40
0.5
100
AcDbArc
 50
270.0
 51
0.0
  0
ARC
  5
81
330
1F
100
AcDbEntity
  8
0
  6
Continuous
 62
     7
370
    25
100
AcDbCircle
 10
167.6397837525
 20
92.960392559
 30
0.0
 40
0.5
100
AcDbArc
 50
0.0
 51
90.0
  0
ARC
  5
82
330
1F
100
AcDbEntity
  8
0
  6
Continuous
 62
     7
370
    25
100
AcDbCircle
 10
167.6397837525
 20
137.960392559
 30
0.0
 40
0.5
100
AcDbArc
 50
270.0
 51
0.0
  0
ARC
  5
83
330
1F
100
AcDbEntity
  8
0
  6
Continuous
 62
     7
370
    25
100
AcDbCircle
 10
167.6397837525
 20
152.960392559
 30
0.0
 40
0.5
100
AcDbArc
 50
0.0
 51
90.0
  0
LINE
  5
84
330
1F
100
AcDbEntity
  8
0
  6
Continuous
 62
     7
370
    25
100
AcDbLine
 10
161.1397840505
 20
137.4603924398
 30
0.0
 11
167.639782322
 21
137.4603924398
 31
0.0
  0
LINE
  5
85
330
1F
100
AcDbEntity
  8
0
  6
Continuous
 62
     7
370
    25
100
AcDbLine
 10
167.639782322
 20
153.4603913371
 30
0.0
 11
161.1397840505
 21
153.4603913371
 31
0.0
  0
LINE
  5
86
330
1F
100
AcDbEntity
  8
0
  6
Continuous
 62
     7
370
    25
100
AcDbLine
 10
212.1397830968
 20
130.4603922237
 30
0.0
 11
193.1397818451
 21
130.4603922237
 31
0.0
  0
LINE
  5
87
330
1F
100
AcDbEntity
  8
0
  6
Continuous
 62
     7
370
    25
100
AcDbLine
 10
193.1397818451
 20
100.4603928942
 30
0.0
 11
212.1397830968
 21
100.4603928942
 31
0.0
  0
ARC
  5
88
330
1F
100
AcDbEntity
  8
0
  6
Continuous
 62
     7
370
    25
100
AcDbCircle
 10
212.1397837525
 20
129.460392559
 30
0.0
 40
1.0
100
AcDbArc
 50
0.0
 51
90.0
  0
ARC
  5
89
330
1F
100
AcDbEntity
  8
0
  6
Continuous
 62
     7
370
    25
100
AcDbCircle
 10
212.1397837525
 20
101.460392559
 30
0.0
 40
1.000000000000014
100
AcDbArc
 50
270.0
 51
0.0
  0
ARC
  5
8A
330
1F
100
AcDbEntity
  8
0
  6
Continuous
 62
     7
370
    25
100
AcDbCircle
 10
192.3397837525
 20
104.660392559
 30
0.0
 40
0.8000000000000114
100
AcDbArc
 50
0.0
 51
90.0
  0
ARC
  5
8B
330
1F
100
AcDbEntity
  8
0
  6
Continuous
 62
     7
370
    25
100
AcDbCircle
 10
192.3397837525
 20
126.260392559
 30
0.0
 40
0.8000000000000114
100
AcDbArc
 50
270.0
 51
0.0
  0
LINE
  5
8C
330
1F
100
AcDbEntity
  8
0
  6
Continuous
 62
     7
370
    25
100
AcDbLine
 10
192.3397832041
 20
125.4603923354
 30
0.0
 11
188.1397866135
 21
125.4603923354
 31
0.0
  0
LINE
  5
8D
330
1F
100
AcDbEntity
  8
0
  6
Continuous
 62
     7
370
    25
100
AcDbLine
 10
188.1397866135
 20
105.4603927825
 30
0.0
 11
192.3397832041
 21
105.4603927825
 31
0.0
  0
LINE
  5
8E
330
1F
100
AcDbEntity
  8
0
  6
Continuous
 62
     7
370
    25
100
AcDbLine
 10
134.1397852128
 20
75.460393453
 30
0.0
 11
160.1397820239
 21
75.460393453
 31
0.0
  0
LINE
  5
8F
330
1F
100
AcDbEntity
  8
0
  6
Continuous
 62
     7
370
    25
100
AcDbLine
 10
160.1397820239
 20
155.4603916649
 30
0.0
 11
134.1397852128
 21
155.4603916649
 31
0.0
  0
ARC
  5
90
330
1F
100
AcDbEntity
  8
0
  6
Continuous
 62
     7
370
    25
100
AcDbCircle
 10
134.1397837525
 20
76.460392559
 30
0.0
 40
1.0
100
AcDbArc
 50
180.0
 51
270.0
  0
ARC
  5
91
330
1F
100
AcDbEntity
  8
0
  6
Continuous
 62
     7
370
    25
100
AcDbCircle
 10
134.1397837525
 20
154.460392559
 30
0.0
 40
1.0
100
AcDbArc
 50
90.0
 51
180.0
  0
ARC
  5
92
330
1F
100
AcDbEntity
  8
0
  6
Continuous
 62
     7
370
    25
100
AcDbCircle
 10
160.1397837525
 20
76.460392559
 30
0.0
 40
1.0
100
AcDbArc
 50
270.0
 51
0.0
  0
ARC
  5
93
330
1F
100
AcDbEntity
  8
0
  6
Continuous
 62
     7
370
    25
100
AcDbCircle
 10
160.1397837525
 20
154.460392559
 30
0.0
 40
1.0
100
AcDbArc
 50
0.0
 51
90.0
  0
LINE
  5
94
330
1F
100
AcDbEntity
  8
0
  6
Continuous
 62
     7
370
    25
100
AcDbLine
 10
91.4397837667
 20
83.9603920523
 30
0.0
 11
96.0897837257
 21
83.9603920523
 31
0.0
  0
LINE
  5
95
330
1F
100
AcDbEntity
  8
0
  6
Continuous
 62
     7
370
    25
100
AcDbLine
 10
96.1177722973
 20
146.9603930656
 30
0.0
 11
91.4397837667
 21
146.9603930656
 31
0.0
  0
ARC
  5
96
330
1F
100
AcDbEntity
  8
0
  6
Continuous
 62
     7
370
    25
100
AcDbCircle
 10
91.4397837525
 20
84.260392559
 30
0.0
 40
0.3000000000000114
100
AcDbArc
 50
180.0
 51
270.0
  0
ARC
  5
97
330
1F
100
AcDbEntity
  8
0
  6
Continuous
 62
     7
370
    25
100
AcDbCircle
 10
91.4397837525
 20
146.660392559
 30
0.0
 40
0.3000000000000114
100
AcDbArc
 50
90.0
 51
180.0
  0
ARC
  5
98
330
1F
100
AcDbEntity
  8
0
  6
Continuous
 62
     7
370
    25
100
AcDbCircle
 10
132.1397837525
 20
88.460392559
 30
0.0
 40
1.0
100
AcDbArc
 50
0.0
 51
90.0
  0
ARC
  5
99
330
1F
100
AcDbEntity
  8
0
  6
Continuous
 62
     7
370
    25
100
AcDbCircle
 10
132.1397837525
 20
142.460392559
 30
0.0
 40
1.0
100
AcDbArc
 50
270.0
 51
0.0
  0
ARC
  5
9A
330
1F
100
AcDbEntity
  8
0
  6
Continuous
 62
     7
370
    25
100
AcDbCircle
 10
118.0897837525
 20
88.460392559
 30
0.0
 40
1.0
100
AcDbArc
 50
90.0
 51
143.1139143113
  0
ARC
  5
9B
330
1F
100
AcDbEntity
  8
0
  6
Continuous
 62
     7
370
    25
100
AcDbCircle
 10
118.0897837525
 20
142.460392559
 30
0.0
 40
1.000000000000007
100
AcDbArc
 50
216.9095896154
 51
270.0
  0
LINE
  5
9C
330
1F
100
AcDbEntity
  8
0
  6
Continuous
 62
     7
370
    25
100
AcDbLine
 10
118.0897836065
 20
89.4603920225
 30
0.0
 11
132.139784885
 21
89.4603920225
 31
0.0
  0
LINE
  5
9D
330
1F
100
AcDbEntity
  8
0
  6
Continuous
 62
     7
370
    25
100
AcDbLine
 10
132.139784885
 20
141.4603930954
 30
0.0
 11
118.0897836065
 21
141.4603930954
 31
0.0
  0
ARC
  5
9E
330
1F
100
AcDbEntity
  8
0
  6
Continuous
 62
     7
370
    25
100
AcDbCircle
 10
90.6397769998
 20
90.8899549446
 30
0.0
 40
0.6000067526677282
100
AcDbArc
 50
33.5571153394
 51
90.0
  0
ARC
  5
9F
330
1F
100
AcDbEntity
  8
0
  6
Continuous
 62
     7
370
    25
100
AcDbCircle
 10
90.6397769998
 20
140.0308301734
 30
0.0
 40
0.6000067526677282
100
AcDbArc
 50
270.0
 51
326.4428846606
  0
LINE
  5
A0
330
1F
100
AcDbEntity
  8
0
  6
Continuous
 62
     7
370
    25
100
AcDbLine
 10
89.1397836575
 20
91.2399613354
 30
0.0
 11
89.9964965837
 21
91.4695174489
 31
0.0
  0
LINE
  5
A1
330
1F
100
AcDbEntity
  8
0
  6
Continuous
 62
     7
370
    25
100
AcDbLine
 10
89.9964965837
 20
139.451267669
 30
0.0
 11
89.1397836575
 21
139.6808237825
 31
0.0
  0
LINE
  5
A2
330
1F
100
AcDbEntity
  8
0
  6
Continuous
 62
     7
370
    25
100
AcDbLine
 10
77.9093612408
 20
139.1181764249
 30
0.0
 11
65.3397828763
 21
138.4884384517
 31
0.0
  0
LINE
  5
A3
330
1F
100
AcDbEntity
  8
0
  6
Continuous
 62
     7
370
    25
100
AcDbLine
 10
89.1397836575
 20
139.6808237825
 30
0.0
 11
86.3211743025
 21
139.5396110658
 31
0.0
  0
LINE
  5
A4
330
1F
100
AcDbEntity
  8
0
  6
Continuous
 62
     7
370
    25
100
AcDbLine
 10
86.3213959572
 20
91.3811628763
 30
0.0
 11
89.1397836575
 21
91.2399613354
 31
0.0
  0
LINE
  5
A5
330
1F
100
AcDbEntity
  8
0
  6
Continuous
 62
     7
370
    25
100
AcDbLine
 10
69.3397835319
 20
92.2319465373
 30
0.0
 11
77.910060664
 21
91.8025733028
 31
0.0
  0
ARC
  5
A6
330
1F
100
AcDbEntity
  8
0
  6
Continuous
 62
     7
370
    25
100
AcDbCircle
 10
90.1517879529
 20
90.8899616972
 30
0.0
 40
0.6000000000000071
100
AcDbArc
 50
90.0
 51
105.0
  0
ARC
  5
A7
330
1F
100
AcDbEntity
  8
0
  6
Continuous
 62
     7
370
    25
100
AcDbCircle
 10
90.1517879529
 20
140.0308234207
 30
0.0
 40
0.5999999999999943
100
AcDbArc
 50
255.0
 51
270.0
  0
LINE
  5
A8
330
1F
100
AcDbEntity
  8
0
  6
Continuous
 62
     7
370
    25
100
AcDbLine
 10
90.1517879873
 20
91.4899618421
 30
0.0
 11
90.6397769766
 21
91.4899618421
 31
0.0
  0
LINE
  5
A9
330
1F
100
AcDbEntity
  8
0
  6
Continuous
 62
     7
370
    25
100
AcDbLine
 10
90.6397769766
 20
139.4308232758
 30
0.0
 11
90.1517879873
 21
139.4308232758
 31
0.0
  0
ARC
  5
AA
330
1F
100
AcDbEntity
  8
0
  6
Continuous
 62
     7
370
    25
100
AcDbCircle
 10
161.5397837525
 20
95.210392559
 30
0.0
 40
0.5999999999999948
100
AcDbArc
 50
90.0
 51
131.8103148958
  0
ARC
  5
AB
330
1F
100
AcDbEntity
  8
0
  6
Continuous
 62
     7
370
    25
100
AcDbCircle
 10
161.5397837525
 20
135.710392559
 30
0.0
 40
0.5999999999999943
100
AcDbArc
 50
228.1896851042
 51
270.0
  0
LINE
  5
AC
330
1F
100
AcDbEntity
  8
0
  6
Continuous
 62
     7
370
    25
100
AcDbLine
 10
163.6397816663
 20
95.460393006
 30
0.0
 11
187.1397845869
 21
95.460393006
 31
0.0
  0
LINE
  5
AD
330
1F
100
AcDbEntity
  8
0
  6
Continuous
 62
     7
370
    25
100
AcDbLine
 10
187.1397845869
 20
135.4603921119
 30
0.0
 11
163.6397816663
 21
135.4603921119
 31
0.0
  0
ARC
  5
AE
330
1F
100
AcDbEntity
  8
0
  6
Continuous
 62
     7
370
    25
100
AcDbCircle
 10
187.1397837525
 20
96.460392559
 30
0.0
 40
1.0
100
AcDbArc
 50
270.0
 51
0.0
  0
ARC
  5
AF
330
1F
100
AcDbEntity
  8
0
  6
Continuous
 62
     7
370
    25
100
AcDbCircle
 10
187.1397837525
 20
134.460392559
 30
0.0
 40
1.0
100
AcDbArc
 50
360.0
 51
90.0
  0
LINE
  5
B0
330
1F
100
AcDbEntity
  8
0
  6
Continuous
 62
     7
370
    25
100
AcDbLine
 10
163.6397816663
 20
135.4603921119
 30
0.0
 11
162.4098621731
 21
135.1308361683
 31
0.0
  0
LINE
  5
B1
330
1F
100
AcDbEntity
  8
0
  6
Continuous
 62
     7
370
    25
100
AcDbLine
 10
162.4098621731
 20
95.7899489496
 30
0.0
 11
163.6397816663
 21
95.460393006
 31
0.0
  0
ARC
  5
B2
330
1F
100
AcDbEntity
  8
0
  6
Continuous
 62
     7
370
    25
100
AcDbCircle
 10
162.2545744713
 20
95.210392559
 30
0.0
 40
0.6000000000000085
100
AcDbArc
 50
75.0
 51
90.0
  0
ARC
  5
B3
330
1F
100
AcDbEntity
  8
0
  6
Continuous
 62
     7
370
    25
100
AcDbCircle
 10
162.2545744713
 20
135.710392559
 30
0.0
 40
0.5999999999999943
100
AcDbArc
 50
270.0
 51
285.0
  0
LINE
  5
B4
330
1F
100
AcDbEntity
  8
0
  6
Continuous
 62
     7
370
    25
100
AcDbLine
 10
161.539783371
 20
95.8103933428
 30
0.0
 11
162.2545771723
 21
95.8103933428
 31
0.0
  0
LINE
  5
B5
330
1F
100
AcDbEntity
  8
0
  6
Continuous
 62
     7
370
    25
100
AcDbLine
 10
162.2545771723
 20
135.1103917752
 30
0.0
 11
161.539783371
 21
135.1103917752
 31
0.0
  0
LINE
  5
B6
330
1F
100
AcDbEntity
  8
0
  6
Continuous
 62
     7
370
    25
100
AcDbLine
 10
60.5231203561
 20
94.590392435
 30
0.0
 11
67.9397840475
 21
94.590392435
 31
0.0
  0
ARC
  5
B7
330
1F
100
AcDbEntity
  8
0
  6
Continuous
 62
     7
370
    25
100
AcDbCircle
 10
67.9397837525
 20
93.190392559
 30
0.0
 40
1.400000000000006
100
AcDbArc
 50
42.2465410162
 51
90.0
  0
LINE
  5
B8
330
1F
100
AcDbEntity
  8
0
  6
Continuous
 62
     7
370
    25
100
AcDbLine
 10
59.2408158307
 20
95.7393595074
 30
0.0
 11
60.3809465145
 21
94.5992288236
 31
0.0
  0
LINE
  5
B9
330
1F
100
AcDbEntity
  8
0
  6
Continuous
 62
     7
370
    25
100
AcDbLine
 10
60.3809465145
 20
136.3215562944
 30
0.0
 11
59.2496857469
 21
135.1902936641
 31
0.0
  0
ARC
  5
BA
330
1F
100
AcDbEntity
  8
0
  6
Continuous
 62
     7
370
    25
100
AcDbCircle
 10
63.9397837525
 20
137.730392559
 30
0.0
 40
1.400000000000012
100
AcDbArc
 50
270.0
 51
301.7485287426
  0
LINE
  5
BB
330
1F
100
AcDbEntity
  8
0
  6
Continuous
 62
     7
370
    25
100
AcDbLine
 10
63.9397833919
 20
136.3303926829
 30
0.0
 11
60.5140492742
 21
136.3303926829
 31
0.0
  0
LINE
  5
BC
330
1F
100
AcDbEntity
  8
0
  6
Continuous
 62
     7
370
    25
100
AcDbLine
 10
168.1397833352
 20
77.9603910688
 30
0.0
 11
168.1397833352
 21
92.9603916649
 31
0.0
  0
LINE
  5
BD
330
1F
100
AcDbEntity
  8
0
  6
Continuous
 62
     7
370
    25
100
AcDbLine
 10
168.1397833352
 20
137.960393453
 30
0.0
 11
168.1397833352
 21
152.9603940491
 31
0.0
  0
LINE
  5
BE
330
1F
100
AcDbEntity
  8
0
  6
Continuous
 62
     7
370
    25
100
AcDbLine
 10
193.1397818451
 20
130.4603922237
 30
0.0
 11
193.1397818451
 21
100.4603928942
 31
0.0
  0
LINE
  5
BF
330
1F
100
AcDbEntity
  8
0
  6
Continuous
 62
     7
370
    25
100
AcDbLine
 10
213.1397851234
 20
129.4603929911
 30
0.0
 11
213.1397851234
 21
101.4603921268
 31
0.0
  0
SPLINE
  5
C0
330
1F
100
AcDbEntity
  8
0
  6
Continuous
 62
     7
370
    25
100
AcDbSpline
210
0.0
220
0.0
230
1.0
 70
    11
 71
     3
 72
    66
 73
    62
 74
     0
 42
0.000000001
 43
0.00000001
 40
0.0
 40
0.0
 40
0.0
 40
0.0
 40
0.0312499999999999
 40
0.0312499999999999
 40
0.0624999999999997
 40
0.0624999999999997
 40
0.1249999999999996
 40
0.1249999999999996
 40
0.15625
 40
0.15625
 40
0.1875000000000003
 40
0.1875000000000003
 40
0.2187500000000007
 40
0.2187500000000007
 40
0.2500000000000011
 40
0.2500000000000011
 40
0.2812500000000014
 40
0.2812500000000014
 40
0.3125000000000018
 40
0.3125000000000018
 40
0.3750000000000024
 40
0.3750000000000024
 40
0.4062500000000023
 40
0.4062500000000023
 40
0.4375000000000023
 40
0.4375000000000023
 40
0.4687500000000022
 40
0.4687500000000022
 40
0.5000000000000021
 40
0.5000000000000021
 40
0.531250000000002
 40
0.531250000000002
 40
0.5625000000000018
 40
0.5625000000000018
 40
0.5937500000000017
 40
0.5937500000000017
 40
0.6250000000000016
 40
0.6250000000000016
 40
0.6562500000000014
 40
0.6562500000000014
 40
0.6875000000000012
 40
0.6875000000000012
 40
0.7187500000000011
 40
0.7187500000000011
 40
0.750000000000001
 40
0.750000000000001
 40
0.7812500000000009
 40
0.7812500000000009
 40
0.8125000000000007
 40
0.8125000000000007
 40
0.8437500000000006
 40
0.8437500000000006
 40
0.8750000000000004
 40
0.8750000000000004
 40
0.9062500000000003
 40
0.9062500000000003
 40
0.9375000000000001
 40
0.9375000000000001
 40
0.96875
 40
0.96875
 40
1.0
 40
1.0
 40
1.0
 40
1.0
 10
138.6002759944021
 20
87.35512883201537
 30
0.0
 10
138.6188496976451
 20
87.51383618241148
 30
0.0
 10
138.6614436571687
 20
87.66968300130281
 30
0.0
 10
138.7923747893087
 20
87.97566792848163
 30
0.0
 10
138.8818088613526
 20
88.12649951277083
 30
0.0
 10
139.2064462634749
 20
88.55051786751622
 30
0.0
 10
139.5054016239917
 20
88.8050976324921
 30
0.0
 10
140.0285968356954
 20
89.11042933793121
 30
0.0
 10
140.2184920125113
 20
89.20131905177257
 30
0.0
 10
140.6129818082736
 20
89.35380584293938
 30
0.0
 10
140.8178396910961
 20
89.41598005007695
 30
0.0
 10
141.2424585857019
 20
89.5123470829349
 30
0.0
 10
141.4627660674204
 20
89.5462320511531
 30
0.0
 10
141.9015082811445
 20
89.58312199197209
 30
0.0
 10
142.1220258478396
 20
89.58671152939564
 30
0.0
 10
142.5653982676684
 20
89.5635782959479
 30
0.0
 10
142.7862438524305
 20
89.53666202562793
 30
0.0
 10
143.2133653607852
 20
89.4544029451328
 30
0.0
 10
143.4215951410611
 20
89.39899860089294
 30
0.0
 10
144.029403176645
 20
89.18820095067464
 30
0.0
 10
144.3925446052525
 20
88.99577868375106
 30
0.0
 10
144.8550487320038
 20
88.63477885768891
 30
0.0
 10
144.9906889336261
 20
88.50587527644068
 30
0.0
 10
145.2250181567528
 20
88.23163452876531
 30
0.0
 10
145.3245962245462
 20
88.084390775537
 30
0.0
 10
145.4775761521235
 20
87.7819870221129
 30
0.0
 10
145.531063573298
 20
87.62803519989806
 30
0.0
 10
145.5914680027792
 20
87.31489662071999
 30
0.0
 10
145.5976475334179
 20
87.15491783696406
 30
0.0
 10
145.5614126844919
 20
86.84560942896184
 30
0.0
 10
145.519493754274
 20
86.69389268201257
 30
0.0
 10
145.3878123216098
 20
86.39860023966278
 30
0.0
 10
145.3002098598566
 20
86.25953359067456
 30
0.0
 10
145.0842245667474
 20
85.99695526968779
 30
0.0
 10
144.9543022747702
 20
85.87264939653753
 30
0.0
 10
144.6645374368087
 20
85.64851802701108
 30
0.0
 10
144.5040496314226
 20
85.5474311988653
 30
0.0
 10
144.1523836499028
 20
85.36610714645806
 30
0.0
 10
143.9642803689276
 20
85.2876581233222
 30
0.0
 10
143.5713625258061
 20
85.15574274803916
 30
0.0
 10
143.3638690024469
 20
85.10147462935012
 30
0.0
 10
142.9375990780579
 20
85.01863473409692
 30
0.0
 10
142.7212385840675
 20
84.9902898167914
 30
0.0
 10
142.2822790862992
 20
84.95860124918215
 30
0.0
 10
142.0574557388629
 20
84.95545476871771
 30
0.0
 10
141.6154361239617
 20
84.97498529633214
 30
0.0
 10
141.3977757543144
 20
84.99732980199637
 30
0.0
 10
140.9691677344053
 20
85.06745962544471
 30
0.0
 10
140.7565888364323
 20
85.11593164104306
 30
0.0
 10
140.354768488307
 20
85.23615021604374
 30
0.0
 10
140.1637626113606
 20
85.30796062311285
 30
0.0
 10
139.8022537882202
 20
85.47645734006234
 30
0.0
 10
139.6314393118224
 20
85.57386384485277
 30
0.0
 10
139.3269525711653
 20
85.78689382109206
 30
0.0
 10
139.1910740519067
 20
85.90334455210727
 30
0.0
 10
138.9542362644088
 20
86.15819096253338
 30
0.0
 10
138.8550932957106
 20
86.29539928548712
 30
0.0
 10
138.7030492420225
 20
86.57998263376712
 30
0.0
 10
138.6486031463703
 20
86.72960144044178
 30
0.0
 10
138.587730578829
 20
87.0394276384559
 30
0.0
 10
138.581702291159
 20
87.19642148161925
 30
0.0
 10
138.6002759944021
 20
87.35512883201537
 30
0.0
  0
SPLINE
  5
C1
330
1F
100
AcDbEntity
  8
0
  6
Continuous
 62
     7
370
    25
100
AcDbSpline
210
0.0
220
0.0
230
1.0
 70
    11
 71
     3
 72
    68
 73
    64
 74
     0
 42
0.000000001
 43
0.00000001
 40
0.0
 40
0.0
 40
0.0
 40
0.0
 40
0.0312500000000004
 40
0.0312500000000004
 40
0.0625000000000008
 40
0.0625000000000008
 40
0.0937500000000012
 40
0.0937500000000012
 40
0.1250000000000016
 40
0.1250000000000016
 40
0.1562500000000021
 40
0.1562500000000021
 40
0.1875000000000024
 40
0.1875000000000024
 40
0.2187500000000029
 40
0.2187500000000029
 40
0.2500000000000033
 40
0.2500000000000033
 40
0.2812500000000037
 40
0.2812500000000037
 40
0.3125000000000041
 40
0.3125000000000041
 40
0.3437500000000045
 40
0.3437500000000045
 40
0.3750000000000049
 40
0.3750000000000049
 40
0.4062500000000053
 40
0.4062500000000053
 40
0.4375000000000057
 40
0.4375000000000057
 40
0.4687500000000062
 40
0.4687500000000062
 40
0.5000000000000066
 40
0.5000000000000066
 40
0.531250000000007
 40
0.531250000000007
 40
0.5625000000000073
 40
0.5625000000000073
 40
0.6250000000000072
 40
0.6250000000000072
 40
0.6562500000000066
 40
0.6562500000000066
 40
0.687500000000006
 40
0.687500000000006
 40
0.7187500000000054
 40
0.7187500000000054
 40
0.7500000000000048
 40
0.7500000000000048
 40
0.7812500000000042
 40
0.7812500000000042
 40
0.8125000000000037
 40
0.8125000000000037
 40
0.8437500000000031
 40
0.8437500000000031
 40
0.8750000000000024
 40
0.8750000000000024
 40
0.9062500000000019
 40
0.9062500000000019
 40
0.9375000000000013
 40
0.9375000000000013
 40
0.9687500000000007
 40
0.9687500000000007
 40
1.0
 40
1.0
 40
1.0
 40
1.0
 10
139.4165133925068
 20
145.195290689188
 30
0.0
 10
139.5664282033248
 20
145.3063048821873
 30
0.0
 10
139.7302194487596
 20
145.4047660218523
 30
0.0
 10
140.0834018302202
 20
145.5792504693488
 30
0.0
 10
140.2747863242822
 20
145.6558307820373
 30
0.0
 10
140.6738605387487
 20
145.7833356486015
 30
0.0
 10
140.8802357748747
 20
145.8341926476648
 30
0.0
 10
141.3062096196881
 20
145.911458041675
 30
0.0
 10
141.5275575745299
 20
145.937785176225
 30
0.0
 10
141.9677728579605
 20
145.9641139838451
 30
0.0
 10
142.1881850781239
 20
145.9645836447409
 30
0.0
 10
142.6296226325662
 20
145.9399731753225
 30
0.0
 10
142.8508997542845
 20
145.9145226188049
 30
0.0
 10
143.2764601184801
 20
145.8392480755071
 30
0.0
 10
143.4830407955766
 20
145.7893953964403
 30
0.0
 10
143.8832918691888
 20
145.6637549625824
 30
0.0
 10
144.0754531278914
 20
145.5880728644277
 30
0.0
 10
144.4299911583771
 20
145.4155880374145
 30
0.0
 10
144.594472607444
 20
145.3182010963705
 30
0.0
 10
144.8958802572703
 20
145.0986409375124
 30
0.0
 10
145.0292557042113
 20
144.978727875258
 30
0.0
 10
145.2558329895773
 20
144.722743243295
 30
0.0
 10
145.3506205754591
 20
144.5847830611496
 30
0.0
 10
145.4953700146202
 20
144.2942248534552
 30
0.0
 10
145.5441845851535
 20
144.144769381756
 30
0.0
 10
145.5949841211284
 20
143.8372439891435
 30
0.0
 10
145.5963105489486
 20
143.677500555528
 30
0.0
 10
145.5504472064329
 20
143.3639940682345
 30
0.0
 10
145.5039664897115
 20
143.2087871314485
 30
0.0
 10
145.3634276605793
 20
142.9017923996086
 30
0.0
 10
145.271089394241
 20
142.754190704725
 30
0.0
 10
145.0473708621647
 20
142.4741901666838
 30
0.0
 10
144.9139256311532
 20
142.3399321682642
 30
0.0
 10
144.6171374714217
 20
142.0951522386351
 30
0.0
 10
144.4537767894845
 20
141.9838928022088
 30
0.0
 10
144.0979868260594
 20
141.7836479640955
 30
0.0
 10
143.9066386219505
 20
141.6956802080119
 30
0.0
 10
143.3117451479726
 20
141.4753062473831
 30
0.0
 10
142.8748996364406
 20
141.3825845002641
 30
0.0
 10
142.2159043237192
 20
141.3356661985155
 30
0.0
 10
141.9919586708038
 20
141.3349465092528
 30
0.0
 10
141.5492107415888
 20
141.3640257409987
 30
0.0
 10
141.3320837036551
 20
141.3934015268341
 30
0.0
 10
140.9062296926431
 20
141.4812805969735
 30
0.0
 10
140.6953729883595
 20
141.5406624300556
 30
0.0
 10
140.2959314045897
 20
141.6858556572163
 30
0.0
 10
140.1070265184389
 20
141.7713010634889
 30
0.0
 10
139.7512879911911
 20
141.9678327487654
 30
0.0
 10
139.5830942197212
 20
142.0803253621822
 30
0.0
 10
139.2843378415304
 20
142.3225714517494
 30
0.0
 10
139.1521439515066
 20
142.4528371889689
 30
0.0
 10
138.9238229291153
 20
142.7318957438268
 30
0.0
 10
138.8283118164915
 20
142.8810142387158
 30
0.0
 10
138.6850402837722
 20
143.1831847653007
 30
0.0
 10
138.6356082600034
 20
143.3379935981106
 30
0.0
 10
138.5842062014044
 20
143.6552556369896
 30
0.0
 10
138.5832451930089
 20
143.81187779468
 30
0.0
 10
138.6288964198774
 20
144.1201767495258
 30
0.0
 10
138.6765918272894
 20
144.2736958060615
 30
0.0
 10
138.8162491716619
 20
144.5638537439813
 30
0.0
 10
138.9077774559963
 20
144.7014807472857
 30
0.0
 10
139.1335685901836
 20
144.9626127334894
 30
0.0
 10
139.2665985816888
 20
145.0842764961887
 30
0.0
 10
139.4165133925068
 20
145.195290689188
 30
0.0
  0
SPLINE
  5
C2
330
1F
100
AcDbEntity
  8
0
  6
Continuous
 62
     7
370
    25
100
AcDbSpline
210
0.0
220
0.0
230
1.0
 70
    11
 71
     3
 72
    91
 73
    87
 74
     0
 42
0.000000001
 43
0.00000001
 40
0.0
 40
0.0
 40
0.0
 40
0.0
 40
0.0312500000000003
 40
0.0312500000000003
 40
0.0468750000000007
 40
0.0468750000000007
 40
0.0625000000000011
 40
0.0625000000000011
 40
0.0937500000000018
 40
0.0937500000000018
 40
0.1250000000000025
 40
0.1250000000000025
 40
0.1562500000000033
 40
0.1562500000000033
 40
0.1718750000000034
 40
0.1718750000000034
 40
0.1875000000000035
 40
0.1875000000000035
 40
0.2187500000000037
 40
0.2187500000000037
 40
0.2500000000000039
 40
0.2500000000000039
 40
0.2656250000000041
 40
0.2656250000000041
 40
0.2812500000000041
 40
0.2812500000000041
 40
0.3125000000000046
 40
0.3125000000000046
 40
0.3281250000000046
 40
0.3281250000000046
 40
0.3437500000000046
 40
0.3437500000000046
 40
0.3750000000000052
 40
0.3750000000000052
 40
0.4062500000000058
 40
0.4062500000000058
 40
0.4375000000000063
 40
0.4375000000000063
 40
0.4687500000000069
 40
0.4687500000000069
 40
0.4843750000000069
 40
0.4843750000000069
 40
0.500000000000007
 40
0.500000000000007
 40
0.5312500000000067
 40
0.5312500000000067
 40
0.5468750000000064
 40
0.5468750000000064
 40
0.5625000000000062
 40
0.5625000000000062
 40
0.5937500000000059
 40
0.5937500000000059
 40
0.6250000000000056
 40
0.6250000000000056
 40
0.6406250000000052
 40
0.6406250000000052
 40
0.6562500000000049
 40
0.6562500000000049
 40
0.6875000000000043
 40
0.6875000000000043
 40
0.7187500000000038
 40
0.7187500000000038
 40
0.7500000000000031
 40
0.7500000000000031
 40
0.7656250000000029
 40
0.7656250000000029
 40
0.7812500000000026
 40
0.7968750000000023
 40
0.7968750000000023
 40
0.812500000000002
 40
0.812500000000002
 40
0.8437500000000014
 40
0.8437500000000014
 40
0.8593750000000012
 40
0.8593750000000012
 40
0.875000000000001
 40
0.875000000000001
 40
0.9062500000000011
 40
0.9062500000000011
 40
0.9375000000000012
 40
0.9375000000000012
 40
0.953125000000001
 40
0.953125000000001
 40
0.9687500000000008
 40
0.9687500000000008
 40
1.0
 40
1.0
 40
1.0
 40
1.0
 10
152.1397837524825
 20
122.657624297089
 30
0.0
 10
152.6255395384873
 20
122.657624297089
 30
0.0
 10
153.1035998838176
 20
122.6128952144863
 30
0.0
 10
153.8095878455131
 20
122.4811523420525
 30
0.0
 10
154.0430535724601
 20
122.4263843084668
 30
0.0
 10
154.5061738905405
 20
122.2946034230465
 30
0.0
 10
154.7369444031962
 20
122.2170869953177
 30
0.0
 10
155.4105355249836
 20
121.9547145768256
 30
0.0
 10
155.8373792348549
 20
121.7400818356206
 30
0.0
 10
156.6469287389531
 20
121.2313063932753
 30
0.0
 10
157.0330924734299
 20
120.933205570656
 30
0.0
 10
157.7294751793301
 20
120.2762060502201
 30
0.0
 10
158.0425803857623
 20
119.9167085932395
 30
0.0
 10
158.4584016336018
 20
119.3294759012036
 30
0.0
 10
158.5886571715024
 20
119.124380971029
 30
0.0
 10
158.8260119675128
 20
118.7045698209152
 30
0.0
 10
158.933197135926
 20
118.4900865545479
 30
0.0
 10
159.2209627808279
 20
117.833130806929
 30
0.0
 10
159.3681112037381
 20
117.3772932483794
 30
0.0
 10
159.568352496949
 20
116.4278319644351
 30
0.0
 10
159.6181098276172
 20
115.9484429280472
 30
0.0
 10
159.6190081463713
 20
115.2294546611188
 30
0.0
 10
159.6070027848338
 20
114.9894261655178
 30
0.0
 10
159.5577763479102
 20
114.5086199961222
 30
0.0
 10
159.5203148191586
 20
114.267558127969
 30
0.0
 10
159.3726139959456
 20
113.5602826055609
 30
0.0
 10
159.2270571024839
 20
113.104053054435
 30
0.0
 10
158.9387980444286
 20
112.4422973120879
 30
0.0
 10
158.8302658174772
 20
112.2244013598064
 30
0.0
 10
158.5936621817093
 20
111.8046196855626
 30
0.0
 10
158.4654772985244
 20
111.6021166614679
 30
0.0
 10
158.0521505879334
 20
111.016029863282
 30
0.0
 10
157.7368640669017
 20
110.6521322625771
 30
0.0
 10
157.0349518605748
 20
109.9887592179687
 30
0.0
 10
156.6564813917954
 20
109.6963471422513
 30
0.0
 10
155.8469725295884
 20
109.1858876743681
 30
0.0
 10
155.4111411552113
 20
108.9664657681751
 30
0.0
 10
154.516207744239
 20
108.6175598055663
 30
0.0
 10
154.0558670718987
 20
108.4861365193568
 30
0.0
 10
153.346144308798
 20
108.3528847896004
 30
0.0
 10
153.105068248829
 20
108.3191056484666
 30
0.0
 10
152.6236084176881
 20
108.274372623013
 30
0.0
 10
152.3833774787434
 20
108.263279521676
 30
0.0
 10
151.6641426825824
 20
108.2629262620521
 30
0.0
 10
151.1865833789961
 20
108.3062778362291
 30
0.0
 10
150.4732305341298
 20
108.4388449792743
 30
0.0
 10
150.2366070740626
 20
108.4943906964927
 30
0.0
 10
149.7742748740152
 20
108.6259145764997
 30
0.0
 10
149.5473385087704
 20
108.7020982977013
 30
0.0
 10
148.8790903335867
 20
108.961689125137
 30
0.0
 10
148.4484892101928
 20
109.1769101283808
 30
0.0
 10
147.6300310332997
 20
109.6909515692276
 30
0.0
 10
147.2520161943365
 20
109.9831395753786
 30
0.0
 10
146.7309045749101
 20
110.4736092214187
 30
0.0
 10
146.5649062212512
 20
110.6458579805394
 30
0.0
 10
146.2488464476722
 20
111.0085531526731
 30
0.0
 10
146.0985011354729
 20
111.1996437238919
 30
0.0
 10
145.6821371106529
 20
111.787660980628
 30
0.0
 10
145.446746957059
 20
112.2029849582092
 30
0.0
 10
145.0609276609305
 20
113.0809347558739
 30
0.0
 10
144.9108094307649
 20
113.5471936444168
 30
0.0
 10
144.7126497931639
 20
114.485517933304
 30
0.0
 10
144.6617977328176
 20
114.9622962150038
 30
0.0
 10
144.660400499839
 20
115.6893096593952
 30
0.0
 10
144.6726620550864
 20
115.9322347647268
 30
0.0
 10
144.7216487259963
 20
116.4108487763522
 30
0.0
 10
144.7950638352133
 20
116.8847387017025
 30
0.0
 10
144.9166900824723
 20
117.3493171652883
 30
0.0
 10
145.0628438531049
 20
117.8091682449374
 30
0.0
 10
145.1485925429532
 20
118.0373158049216
 30
0.0
 10
145.4369787175989
 20
118.6993388718412
 30
0.0
 10
145.6717416460339
 20
119.1160782822799
 30
0.0
 10
146.0864509576502
 20
119.705233547973
 30
0.0
 10
146.236102586237
 20
119.8965601462926
 30
0.0
 10
146.5516544477146
 20
120.260684844592
 30
0.0
 10
146.7174828420671
 20
120.4336764147423
 30
0.0
 10
147.2383557501352
 20
120.9264250505896
 30
0.0
 10
147.6169459530716
 20
121.2204388043935
 30
0.0
 10
148.4359262088342
 20
121.7371249281764
 30
0.0
 10
148.864091754651
 20
121.9522024829029
 30
0.0
 10
149.5329641687831
 20
122.2136107021428
 30
0.0
 10
149.7603919558883
 20
122.2904674145525
 30
0.0
 10
150.2243402839212
 20
122.423333635167
 30
0.0
 10
150.4613513423252
 20
122.4793291156117
 30
0.0
 10
151.1735782233351
 20
122.6128668671055
 30
0.0
 10
151.6540279664777
 20
122.657624297089
 30
0.0
 10
152.1397837524825
 20
122.657624297089
 30
0.0
  0
LINE
  5
C3
330
1F
100
AcDbEntity
  8
0
  6
Continuous
 62
     7
370
    25
100
AcDbLine
 10
133.1397831862
 20
76.4603917543
 30
0.0
 11
133.1397831862
 21
154.4603933636
 31
0.0
  0
LINE
  5
C4
330
1F
100
AcDbEntity
  8
0
  6
Continuous
 62
     7
370
    25
100
AcDbLine
 10
161.1397840505
 20
76.4603917543
 30
0.0
 11
161.1397840505
 21
154.4603933636
 31
0.0
  0
LINE
  5
C5
330
1F
100
AcDbEntity
  8
0
  6
Continuous
 62
     7
370
    25
100
AcDbLine
 10
96.0897837257
 20
135.3103932981
 30
0.0
 11
105.7478512128
 21
135.3103932981
 31
0.0
  0
LINE
  5
C6
330
1F
100
AcDbEntity
  8
0
  6
Continuous
 62
     7
370
    25
100
AcDbLine
 10
105.7478512128
 20
85.2734749261
 30
0.0
 11
105.7478512128
 21
135.3103932981
 31
0.0
  0
LINE
  5
C7
330
1F
100
AcDbEntity
  8
0
  6
Continuous
 62
     7
370
    25
100
AcDbLine
 10
105.7478512128
 20
85.2734749261
 30
0.0
 11
104.0897841056
 21
85.2734749261
 31
0.0
  0
SPLINE
  5
C8
330
1F
100
AcDbEntity
  8
0
  6
Continuous
 62
     7
370
    25
100
AcDbSpline
210
0.0
220
0.0
230
1.0
 70
     8
 71
     3
 72
    28
 73
    24
 74
     0
 42
0.000000001
 43
0.00000001
 40
0.0
 40
0.0
 40
0.0
 40
0.0
 40
0.1250000000000001
 40
0.1250000000000001
 40
0.1875000000000001
 40
0.1875000000000001
 40
0.2500000000000001
 40
0.2500000000000001
 40
0.3749999999999999
 40
0.3749999999999999
 40
0.4375
 40
0.4375
 40
0.4999999999999999
 40
0.4999999999999999
 40
0.6249999999999999
 40
0.6249999999999999
 40
0.7499999999999997
 40
0.7499999999999997
 40
0.8124999999999998
 40
0.8124999999999998
 40
0.8749999999999998
 40
0.8749999999999998
 40
1.0
 40
1.0
 40
1.0
 40
1.0
 10
104.0897837524825
 20
85.2734748627133
 30
0.0
 10
103.5580759949896
 20
85.2734748627133
 30
0.0
 10
103.0358374296792
 20
85.25769014876309
 30
0.0
 10
102.2659669434042
 20
85.2126947346869
 30
0.0
 10
102.0116073712129
 20
85.19413973961115
 30
0.0
 10
101.5074857905144
 20
85.15028701716464
 30
0.0
 10
101.2577629730865
 20
85.12494241021246
 30
0.0
 10
100.53217302164
 20
85.04154033246236
 30
0.0
 10
100.0738127600585
 20
84.97567477331128
 30
0.0
 10
99.42331481666464
 20
84.86670443281947
 30
0.0
 10
99.21163276587218
 20
84.82846479705283
 30
0.0
 10
98.80756127673418
 20
84.75070605963347
 30
0.0
 10
98.61505476291332
 20
84.7112050974581
 30
0.0
 10
98.06521979189203
 20
84.59229735509211
 30
0.0
 10
97.73529101358322
 20
84.51247967366751
 30
0.0
 10
97.15081974501453
 20
84.35913651187145
 30
0.0
 10
96.9045426070011
 20
84.2878027586022
 30
0.0
 10
96.60469981430303
 20
84.19385925152757
 30
0.0
 10
96.51624295723086
 20
84.16466545816765
 30
0.0
 10
96.36288160392573
 20
84.11119888390422
 30
0.0
 10
96.29779338969949
 20
84.08683954962905
 30
0.0
 10
96.1421993737587
 20
84.02324940418431
 30
0.0
 10
96.0897837524825
 20
83.99314646909505
 30
0.0
 10
96.0897837524825
 20
83.97626957609813
 30
0.0
  0
LINE
  5
C9
330
1F
100
AcDbEntity
  8
0
  6
Continuous
 62
     7
370
    25
100
AcDbLine
 10
96.0897837257
 20
83.9762692396
 30
0.0
 11
96.0897837257
 21
83.9603920523
 31
0.0
  0
SPLINE
  5
CA
330
1F
100
AcDbEntity
  8
0
  6
Continuous
 62
     7
370
    25
100
AcDbSpline
210
0.0
220
0.0
230
1.0
 70
     8
 71
     3
 72
    17
 73
    13
 74
     0
 42
0.000000001
 43
0.00000001
 40
0.0
 40
0.0
 40
0.0
 40
0.0
 40
0.1034797280380778
 40
0.2100239090909901
 40
0.3134862262879433
 40
0.4198361712144981
 40
0.5254127947779869
 40
0.6339610881168427
 40
0.7409508662120068
 40
0.8511696072047016
 40
0.9558996557845765
 40
1.0
 40
1.0
 40
1.0
 40
1.0
 10
104.08978410564
 20
145.9275879953189
 30
0.0
 10
103.6545356139141
 20
145.9330359869566
 30
0.0
 10
102.7711491633371
 20
145.9440933072852
 30
0.0
 10
101.4903213011144
 20
146.0304520676602
 30
0.0
 10
100.2729051056724
 20
146.1583232107932
 30
0.0
 10
99.16509848934663
 20
146.3172676181117
 30
0.0
 10
98.17686001001778
 20
146.4917621910963
 30
0.0
 10
97.35213691020196
 20
146.6609286242832
 30
0.0
 10
96.70318325270333
 20
146.8088094327509
 30
0.0
 10
96.28614794922369
 20
146.9106001842734
 30
0.0
 10
96.08755120634572
 20
146.9609570839079
 30
0.0
 10
96.11086432333363
 20
146.9550474789324
 30
0.0
 10
96.11777229733406
 20
146.9532963875814
 30
0.0
  0
LINE
  5
CB
330
1F
100
AcDbEntity
  8
0
  6
Continuous
 62
     7
370
    25
100
AcDbLine
 10
105.7478512128
 20
145.9275879953
 30
0.0
 11
104.0897841056
 21
145.9275879953
 31
0.0
  0
LINE
  5
CC
330
1F
100
AcDbEntity
  8
0
  6
Continuous
 62
     7
370
    25
100
AcDbLine
 10
105.7478512128
 20
139.9190821741
 30
0.0
 11
105.7478512128
 21
145.9275879953
 31
0.0
  0
LINE
  5
CD
330
1F
100
AcDbEntity
  8
0
  6
Continuous
 62
     7
370
    25
100
AcDbLine
 10
103.3354044383
 20
139.9190821741
 30
0.0
 11
105.7478512128
 21
139.9190821741
 31
0.0
  0
SPLINE
  5
CE
330
1F
100
AcDbEntity
  8
0
  6
Continuous
 62
     7
370
    25
100
AcDbSpline
210
0.0
220
0.0
230
1.0
 70
     8
 71
     3
 72
    20
 73
    16
 74
     0
 42
0.000000001
 43
0.00000001
 40
0.0
 40
0.0
 40
0.0
 40
0.0
 40
0.2499999999999997
 40
0.2499999999999997
 40
0.3749999999999997
 40
0.3749999999999997
 40
0.4999999999999998
 40
0.4999999999999998
 40
0.6249999999999998
 40
0.6249999999999998
 40
0.7499999999999999
 40
0.7499999999999999
 40
0.8749999999999999
 40
0.8749999999999999
 40
1.0
 40
1.0
 40
1.0
 40
1.0
 10
96.0897837524825
 20
135.3103925589605
 30
0.0
 10
96.33815748677056
 20
135.9642549872579
 30
0.0
 10
96.65772757911583
 20
136.568040769255
 30
0.0
 10
97.28003381232051
 20
137.3948795054236
 30
0.0
 10
97.51145807275127
 20
137.6573081433765
 30
0.0
 10
98.03267241240098
 20
138.1539707974815
 30
0.0
 10
98.31929289503604
 20
138.3845576765031
 30
0.0
 10
98.93877763634367
 20
138.8011119010857
 30
0.0
 10
99.27307801583063
 20
138.9886097030532
 30
0.0
 10
99.99833848845542
 20
139.3200066806896
 30
0.0
 10
100.3802535458459
 20
139.4595106681849
 30
0.0
 10
101.1750417220176
 20
139.6849641756558
 30
0.0
 10
101.5891999162239
 20
139.7715902871995
 30
0.0
 10
102.4547462568053
 20
139.8895710760536
 30
0.0
 10
102.8926338718172
 20
139.9190822213279
 30
0.0
 10
103.3354040981718
 20
139.9190822213279
 30
0.0
  0
SPLINE
  5
CF
330
1F
100
AcDbEntity
  8
0
  6
Continuous
 62
     7
370
    25
100
AcDbSpline
210
0.0
220
0.0
230
1.0
 70
    11
 71
     3
 72
    70
 73
    66
 74
     0
 42
0.000000001
 43
0.00000001
 40
0.0
 40
0.0
 40
0.0
 40
0.0
 40
0.0312500000000001
 40
0.0312500000000001
 40
0.0625000000000002
 40
0.0625000000000002
 40
0.0937500000000003
 40
0.0937500000000003
 40
0.1250000000000004
 40
0.1250000000000004
 40
0.1562500000000005
 40
0.1562500000000005
 40
0.1875000000000006
 40
0.1875000000000006
 40
0.2187500000000007
 40
0.2187500000000007
 40
0.2500000000000008
 40
0.2500000000000008
 40
0.2812500000000009
 40
0.2812500000000009
 40
0.3125000000000011
 40
0.3125000000000011
 40
0.3437500000000012
 40
0.3437500000000012
 40
0.3750000000000012
 40
0.3750000000000012
 40
0.4062500000000013
 40
0.4062500000000013
 40
0.4375000000000014
 40
0.4375000000000014
 40
0.4687500000000016
 40
0.4687500000000016
 40
0.5000000000000017
 40
0.5000000000000017
 40
0.5312500000000018
 40
0.5312500000000018
 40
0.5625000000000019
 40
0.5625000000000019
 40
0.593750000000002
 40
0.593750000000002
 40
0.6250000000000021
 40
0.6250000000000021
 40
0.6562500000000022
 40
0.6562500000000022
 40
0.6875000000000023
 40
0.6875000000000023
 40
0.7187500000000021
 40
0.7187500000000021
 40
0.7500000000000018
 40
0.7500000000000018
 40
0.7812500000000016
 40
0.7812500000000016
 40
0.8125000000000013
 40
0.8125000000000013
 40
0.8437500000000011
 40
0.8437500000000011
 40
0.8750000000000009
 40
0.8750000000000009
 40
0.9062500000000007
 40
0.9062500000000007
 40
0.9375000000000004
 40
0.9375000000000004
 40
0.9687500000000002
 40
0.9687500000000002
 40
1.0
 40
1.0
 40
1.0
 40
1.0
 10
99.13978375248251
 20
126.0812994449438
 30
0.0
 10
98.87523841382237
 20
126.0812994449438
 30
0.0
 10
98.61516774644527
 20
126.105976739729
 30
0.0
 10
98.10359306660985
 20
126.2024484127709
 30
0.0
 10
97.84941778286965
 20
126.275429328751
 30
0.0
 10
97.36514715280795
 20
126.4651699316896
 30
0.0
 10
97.13550606092679
 20
126.5810305900834
 30
0.0
 10
96.7009017126933
 20
126.8536484360411
 30
0.0
 10
96.49533593604669
 20
127.0116875180948
 30
0.0
 10
96.12677879545146
 20
127.3552303690655
 30
0.0
 10
95.96129781271597
 20
127.5419928131671
 30
0.0
 10
95.66887330328086
 20
127.9455359875639
 30
0.0
 10
95.54477232665437
 20
128.1590329839931
 30
0.0
 10
95.34519312990464
 20
128.5984162979156
 30
0.0
 10
95.26825954404639
 20
128.8275562850612
 30
0.0
 10
95.165402485526
 20
129.2935304078212
 30
0.0
 10
95.13992957606688
 20
129.5264128534974
 30
0.0
 10
95.13963916549912
 20
129.9918103885772
 30
0.0
 10
95.16566379927485
 20
130.2266861459715
 30
0.0
 10
95.26781208376683
 20
130.6781792932178
 30
0.0
 10
95.34338853135
 20
130.8962257686292
 30
0.0
 10
95.54388606249493
 20
131.317320293667
 30
0.0
 10
95.66901490400332
 20
131.5192416781853
 30
0.0
 10
95.95837370502488
 20
131.8912711607042
 30
0.0
 10
96.12378469208036
 20
132.0638994642846
 30
0.0
 10
96.4967752502282
 20
132.3812174688306
 30
0.0
 10
96.6985082833173
 20
132.5210044023322
 30
0.0
 10
97.13136753414517
 20
132.7651806558841
 30
0.0
 10
97.36528606703455
 20
132.8704101669255
 30
0.0
 10
97.84946980217715
 20
133.0385673133007
 30
0.0
 10
98.09878542813266
 20
133.1018182038945
 30
0.0
 10
98.61181795256039
 20
133.1873974129971
 30
0.0
 10
98.87711177546501
 20
133.2092695779195
 30
0.0
 10
99.39944639533476
 20
133.2094332275635
 30
0.0
 10
99.6592000578165
 20
133.1884315354675
 30
0.0
 10
100.1758118734618
 20
133.1030291803898
 30
0.0
 10
100.428177913962
 20
133.0390229971028
 30
0.0
 10
100.9097030354948
 20
132.8722084770617
 30
0.0
 10
101.1425537676084
 20
132.7680753136625
 30
0.0
 10
101.5796436160472
 20
132.5220886611675
 30
0.0
 10
101.7809646047044
 20
132.3823388302187
 30
0.0
 10
102.1500506300042
 20
132.0692007604941
 30
0.0
 10
102.319035381056
 20
131.893744601224
 30
0.0
 10
102.6094914377152
 20
131.5209043371238
 30
0.0
 10
102.7325632490773
 20
131.3227825270129
 30
0.0
 10
102.9338994904993
 20
130.9020711842792
 30
0.0
 10
103.0111120364415
 20
130.6800811636116
 30
0.0
 10
103.1133155793416
 20
130.2302162239033
 30
0.0
 10
103.1395439307939
 20
129.9999608107865
 30
0.0
 10
103.140020330111
 20
129.5286448682374
 30
0.0
 10
103.1142779176131
 20
129.2954074525233
 30
0.0
 10
103.0129671412492
 20
128.8337309130252
 30
0.0
 10
102.9361345018583
 20
128.6028335259131
 30
0.0
 10
102.7357306626431
 20
128.1605575121214
 30
0.0
 10
102.6130591643511
 20
127.9494950808356
 30
0.0
 10
102.3231118751868
 20
127.5479965701029
 30
0.0
 10
102.1545408958216
 20
127.3570900480269
 30
0.0
 10
101.7862713017084
 20
127.0133647160299
 30
0.0
 10
101.5852094444381
 20
126.8582275298158
 30
0.0
 10
101.1481785258532
 20
126.5831501697361
 30
0.0
 10
100.9160303127236
 20
126.466033940314
 30
0.0
 10
100.4350200312247
 20
126.2771074552495
 30
0.0
 10
100.1829199483943
 20
126.2040324848552
 30
0.0
 10
99.66585046213527
 20
126.1059804257207
 30
0.0
 10
99.40432909114264
 20
126.0812994449438
 30
0.0
 10
99.13978375248251
 20
126.0812994449438
 30
0.0
  0
SPLINE
  5
D0
330
1F
100
AcDbEntity
  8
0
  6
Continuous
 62
     7
370
    25
100
AcDbSpline
210
0.0
220
0.0
230
1.0
 70
    11
 71
     3
 72
    70
 73
    66
 74
     0
 42
0.000000001
 43
0.00000001
 40
0.0
 40
0.0
 40
0.0
 40
0.0
 40
0.0312499999999997
 40
0.0312499999999997
 40
0.0624999999999994
 40
0.0624999999999994
 40
0.0937499999999991
 40
0.0937499999999991
 40
0.1249999999999988
 40
0.1249999999999988
 40
0.1562499999999986
 40
0.1562499999999986
 40
0.1874999999999983
 40
0.1874999999999983
 40
0.2187499999999979
 40
0.2187499999999979
 40
0.2499999999999977
 40
0.2499999999999977
 40
0.2812499999999976
 40
0.2812499999999976
 40
0.3124999999999974
 40
0.3124999999999974
 40
0.3437499999999973
 40
0.3437499999999973
 40
0.3749999999999972
 40
0.3749999999999972
 40
0.4062499999999971
 40
0.4062499999999971
 40
0.4374999999999969
 40
0.4374999999999969
 40
0.4687499999999968
 40
0.4687499999999968
 40
0.4999999999999967
 40
0.4999999999999967
 40
0.5312499999999968
 40
0.5312499999999968
 40
0.562499999999997
 40
0.562499999999997
 40
0.5937499999999971
 40
0.5937499999999971
 40
0.6249999999999972
 40
0.6249999999999972
 40
0.6562499999999974
 40
0.6562499999999974
 40
0.6874999999999976
 40
0.6874999999999976
 40
0.7187499999999978
 40
0.7187499999999978
 40
0.7499999999999979
 40
0.7499999999999979
 40
0.7812499999999981
 40
0.7812499999999981
 40
0.8124999999999984
 40
0.8124999999999984
 40
0.8437499999999987
 40
0.8437499999999987
 40
0.8749999999999989
 40
0.8749999999999989
 40
0.9062499999999992
 40
0.9062499999999992
 40
0.9374999999999994
 40
0.9374999999999994
 40
0.9687499999999998
 40
0.9687499999999998
 40
1.0
 40
1.0
 40
1.0
 40
1.0
 10
99.13978375248251
 20
140.5193559537396
 30
0.0
 10
98.87523841382237
 20
140.5193559537396
 30
0.0
 10
98.61516774644527
 20
140.5352563941544
 30
0.0
 10
98.10359306660985
 20
140.5972007443287
 30
0.0
 10
97.84941778286965
 20
140.64400297842
 30
0.0
 10
97.36514715280795
 20
140.7649799618751
 30
0.0
 10
97.13550606092679
 20
140.8385822896819
 30
0.0
 10
96.7009017126933
 20
141.01040656066
 30
0.0
 10
96.4953359360467
 20
141.1094099835875
 30
0.0
 10
96.12677879545146
 20
141.3225063975003
 30
0.0
 10
95.96129781271597
 20
141.43740611363
 30
0.0
 10
95.66887330328086
 20
141.6827730123202
 30
0.0
 10
95.54477232665437
 20
141.8112129127905
 30
0.0
 10
95.34519312990466
 20
142.0721050608765
 30
0.0
 10
95.26825954404639
 20
142.2064862322159
 30
0.0
 10
95.16540248552602
 20
142.4758061833222
 30
0.0
 10
95.13992957606689
 20
142.6084874475404
 30
0.0
 10
95.13963916549912
 20
142.8696739216714
 30
0.0
 10
95.16566379927485
 20
142.9994389598361
 30
0.0
 10
95.26781208376684
 20
143.2450215941088
 30
0.0
 10
95.34338853135002
 20
143.3616831314177
 30
0.0
 10
95.54388606249495
 20
143.5835883215722
 30
0.0
 10
95.66901490400332
 20
143.6881995754952
 30
0.0
 10
95.9583737050249
 20
143.8782459871033
 30
0.0
 10
96.12378469208036
 20
143.965005658553
 30
0.0
 10
96.4967752502282
 20
144.1225100343045
 30
0.0
 10
96.69850828331731
 20
144.1908352990917
 30
0.0
 10
97.13136753414517
 20
144.3090650227109
 30
0.0
 10
97.36528606703455
 20
144.3593599388148
 30
0.0
 10
97.84946980217715
 20
144.4392254757044
 30
0.0
 10
98.09878542813266
 20
144.468966603504
 30
0.0
 10
98.61181795256039
 20
144.5091193450122
 30
0.0
 10
98.87711177546502
 20
144.5193176144221
 30
0.0
 10
99.39944639533476
 20
144.5193940728068
 30
0.0
 10
99.6592000578165
 20
144.5096030611978
 30
0.0
 10
100.1758118734618
 20
144.469536222459
 30
0.0
 10
100.428177913962
 20
144.4394390556022
 30
0.0
 10
100.9097030354948
 20
144.360216845772
 30
0.0
 10
101.1425537676084
 20
144.3104593663087
 30
0.0
 10
101.5796436160472
 20
144.1913674238583
 30
0.0
 10
101.7809646047044
 20
144.123052162311
 30
0.0
 10
102.1500506300043
 20
143.9676511953774
 30
0.0
 10
102.319035381056
 20
143.8794988533105
 30
0.0
 10
102.6094914377151
 20
143.6890594641942
 30
0.0
 10
102.7325632490773
 20
143.5864348864951
 30
0.0
 10
102.9338994904993
 20
143.364794539887
 30
0.0
 10
103.0111120364415
 20
143.2460404643395
 30
0.0
 10
103.1133155793416
 20
143.0013745254218
 30
0.0
 10
103.1395439307939
 20
142.8742177999733
 30
0.0
 10
103.140020330111
 20
142.6097696541177
 30
0.0
 10
103.1142779176131
 20
142.4768689738605
 30
0.0
 10
103.0129671412492
 20
142.2100767003785
 30
0.0
 10
102.9361345018583
 20
142.0747127989099
 30
0.0
 10
102.7357306626431
 20
141.8121330036074
 30
0.0
 10
102.613059164351
 20
141.6851578438536
 30
0.0
 10
102.3231118751868
 20
141.4410784577712
 30
0.0
 10
102.1545408958216
 20
141.3236533330173
 30
0.0
 10
101.7862713017084
 20
141.1104568720689
 30
0.0
 10
101.5852094444381
 20
141.013282753644
 30
0.0
 10
101.1481785258532
 20
140.8399278664299
 30
0.0
 10
100.9160303127236
 20
140.7655283147731
 30
0.0
 10
100.4350200312247
 20
140.6450754352685
 30
0.0
 10
100.1829199483943
 20
140.5982170600025
 30
0.0
 10
99.66585046213527
 20
140.5352595630188
 30
0.0
 10
99.40432909114266
 20
140.5193559537396
 30
0.0
 10
99.13978375248251
 20
140.5193559537396
 30
0.0
  0
LINE
  5
D1
330
1F
100
AcDbEntity
  8
0
  6
Continuous
 62
     7
370
    25
100
AcDbLine
 10
117.0897834425
 20
85.9001153205
 30
0.0
 11
117.0897834425
 21
135.3103932981
 31
0.0
  0
SPLINE
  5
D2
330
1F
100
AcDbEntity
  8
0
  6
Continuous
 62
     7
370
    25
100
AcDbSpline
210
0.0
220
0.0
230
1.0
 70
     8
 71
     3
 72
    10
 73
     6
 74
     0
 42
0.000000001
 43
0.00000001
 40
0.0
 40
0.0
 40
0.0
 40
0.0
 40
0.5
 40
0.5
 40
1.0
 40
1.0
 40
1.0
 40
1.0
 10
117.0897837524825
 20
85.90011515836763
 30
0.0
 10
117.0897837524825
 20
85.74022789017397
 30
0.0
 10
117.0284741012467
 20
85.57910063465935
 30
0.0
 10
116.8093744637116
 20
85.34500163630453
 30
0.0
 10
116.6513262573981
 20
85.2734748627133
 30
0.0
 10
116.4897837524825
 20
85.2734748627133
 30
0.0
  0
SPLINE
  5
D3
330
1F
100
AcDbEntity
  8
0
  6
Continuous
 62
     7
370
    25
100
AcDbSpline
210
0.0
220
0.0
230
1.0
 70
    24
 71
     3
 72
    12
 73
     8
 74
     0
 42
0.000000001
 43
0.00000001
 40
0.0
 40
0.0
 40
0.0
 40
0.0
 40
0.2500000000000033
 40
0.2500000000000033
 40
0.5000000000000067
 40
0.5000000000000067
 40
1.0
 40
1.0
 40
1.0
 40
1.0
 10
116.4897837524825
 20
135.3103925589605
 30
0.0
 10
116.5800228201695
 20
135.3103925589605
 30
0.0
 10
116.670920934276
 20
135.3103925589605
 30
0.0
 10
116.8255179707646
 20
135.3103925589605
 30
0.0
 10
116.8904963868727
 20
135.3103925589605
 30
0.0
 10
117.0423314148089
 20
135.3103925589605
 30
0.0
 10
117.0897837524825
 20
135.3103925589605
 30
0.0
 10
117.0897837524825
 20
135.3103925589605
 30
0.0
  0
LINE
  5
D4
330
1F
100
AcDbEntity
  8
0
  6
Continuous
 62
     7
370
    25
100
AcDbLine
 10
116.4897844618
 20
85.2734749261
 30
0.0
 11
112.5317156737
 21
85.2734749261
 31
0.0
  0
LINE
  5
D5
330
1F
100
AcDbEntity
  8
0
  6
Continuous
 62
     7
370
    25
100
AcDbLine
 10
112.5317156737
 20
85.2734749261
 30
0.0
 11
112.5317156737
 21
135.3103932981
 31
0.0
  0
LINE
  5
D6
330
1F
100
AcDbEntity
  8
0
  6
Continuous
 62
     7
370
    25
100
AcDbLine
 10
112.5317156737
 20
135.3103932981
 30
0.0
 11
116.4897844618
 21
135.3103932981
 31
0.0
  0
SPLINE
  5
D7
330
1F
100
AcDbEntity
  8
0
  6
Continuous
 62
     7
370
    25
100
AcDbSpline
210
0.0
220
0.0
230
1.0
 70
     8
 71
     3
 72
     8
 73
     4
 74
     0
 42
0.000000001
 43
0.00000001
 40
0.0
 40
0.0
 40
0.0
 40
0.0
 40
1.0
 40
1.0
 40
1.0
 40
1.0
 10
112.5317165839716
 20
85.2734748627133
 30
0.0
 10
112.0362369233058
 20
86.16900095064666
 30
0.0
 10
111.5421228752637
 20
87.06528536569893
 30
0.0
 10
111.0497837524825
 20
87.96255539990563
 30
0.0
  0
LINE
  5
D8
330
1F
100
AcDbEntity
  8
0
  6
Continuous
 62
     7
370
    25
100
AcDbLine
 10
111.0497840171
 20
87.962555239
 30
0.0
 11
111.0497840171
 21
135.3103932981
 31
0.0
  0
SPLINE
  5
D9
330
1F
100
AcDbEntity
  8
0
  6
Continuous
 62
     7
370
    25
100
AcDbSpline
210
0.0
220
0.0
230
1.0
 70
    24
 71
     3
 72
     8
 73
     4
 74
     0
 42
0.000000001
 43
0.00000001
 40
0.0
 40
0.0
 40
0.0
 40
0.0
 40
1.0
 40
1.0
 40
1.0
 40
1.0
 10
111.0497837524825
 20
135.3103925589605
 30
0.0
 10
111.5297357468474
 20
135.3103925589605
 30
0.0
 10
112.025036475821
 20
135.3103925589605
 30
0.0
 10
112.5317165839716
 20
135.3103925589605
 30
0.0
  0
LINE
  5
DA
330
1F
100
AcDbEntity
  8
0
  6
Continuous
 62
     7
370
    25
100
AcDbLine
 10
107.2297838008
 20
87.962555239
 30
0.0
 11
107.2297838008
 21
135.3103932981
 31
0.0
  0
SPLINE
  5
DB
330
1F
100
AcDbEntity
  8
0
  6
Continuous
 62
     7
370
    25
100
AcDbSpline
210
0.0
220
0.0
230
1.0
 70
     8
 71
     3
 72
     8
 73
     4
 74
     0
 42
0.000000001
 43
0.00000001
 40
0.0
 40
0.0
 40
0.0
 40
0.0
 40
1.0
 40
1.0
 40
1.0
 40
1.0
 10
107.2297837524825
 20
87.96255539990561
 30
0.0
 10
106.7374446297013
 20
87.06528536569891
 30
0.0
 10
106.2433305816592
 20
86.16900095064666
 30
0.0
 10
105.7478509209935
 20
85.2734748627133
 30
0.0
  0
SPLINE
  5
DC
330
1F
100
AcDbEntity
  8
0
  6
Continuous
 62
     7
370
    25
100
AcDbSpline
210
0.0
220
0.0
230
1.0
 70
    24
 71
     3
 72
     8
 73
     4
 74
     0
 42
0.000000001
 43
0.00000001
 40
0.0
 40
0.0
 40
0.0
 40
0.0
 40
1.0
 40
1.0
 40
1.0
 40
1.0
 10
105.7478509209934
 20
135.3103925589605
 30
0.0
 10
106.254531029144
 20
135.3103925589605
 30
0.0
 10
106.7498317581176
 20
135.3103925589605
 30
0.0
 10
107.2297837524825
 20
135.3103925589605
 30
0.0
  0
LINE
  5
DD
330
1F
100
AcDbEntity
  8
0
  6
Continuous
 62
     7
370
    25
100
AcDbLine
 10
91.1397837525
 20
84.2603934053
 30
0.0
 11
91.1397837525
 21
146.6603917126
 31
0.0
  0
LWPOLYLINE
  5
DE
330
1F
100
AcDbEntity
  8
0
  6
Continuous
 62
     7
370
    25
100
AcDbPolyline
 90
       23
 70
   128
 43
0.0
 10
142.0897819524
 20
141.5686481688
 10
142.7941151386
 20
141.6402556989
 10
143.4413843279
 20
141.8492761497
 10
143.9791560595
 20
142.1787743513
 10
144.3638630634
 20
142.6020585988
 10
144.5643358355
 20
143.0848357324
 10
144.5643358355
 20
143.5879957918
 10
144.3638630634
 20
144.0707729254
 10
143.9791560595
 20
144.4940571729
 10
143.4413843279
 20
144.8235553745
 10
142.7941151386
 20
145.0325758252
 10
142.0897819524
 20
145.1041833554
 10
141.3854524916
 20
145.0325758252
 10
140.7381833022
 20
144.8235553745
 10
140.2004115706
 20
144.4940571729
 10
139.8157045668
 20
144.0707729254
 10
139.6152317946
 20
143.5879957918
 10
139.6152317946
 20
143.0848357324
 10
139.8157045668
 20
142.6020585988
 10
140.2004115706
 20
142.1787743513
 10
140.7381833022
 20
141.8492761497
 10
141.3854524916
 20
141.6402556989
 10
142.0897819524
 20
141.5686481688
  0
LWPOLYLINE
  5
DF
330
1F
100
AcDbEntity
  8
0
  6
Continuous
 62
     7
370
    25
100
AcDbPolyline
 90
       23
 70
   128
 43
0.0
 10
142.0897819524
 20
85.8166017626
 10
142.7941151386
 20
85.8882092927
 10
143.4413843279
 20
86.0972297434
 10
143.9791560595
 20
86.426727945
 10
144.3638630634
 20
86.8500121925
 10
144.5643358355
 20
87.3327893261
 10
144.5643358355
 20
87.8359493856
 10
144.3638630634
 20
88.3187265191
 10
143.9791560595
 20
88.7420107667
 10
143.4413843279
 20
89.0715089683
 10
142.7941151386
 20
89.280529419
 10
142.0897819524
 20
89.3521369491
 10
141.3854524916
 20
89.280529419
 10
140.7381833022
 20
89.0715089683
 10
140.2004115706
 20
88.7420107667
 10
139.8157045668
 20
88.3187265191
 10
139.6152317946
 20
87.8359493856
 10
139.6152317946
 20
87.3327893261
 10
139.8157045668
 20
86.8500121925
 10
140.2004115706
 20
86.426727945
 10
140.7381833022
 20
86.0972297434
 10
141.3854524916
 20
85.8882092927
 10
142.0897819524
 20
85.8166017626
  0
ARC
  5
E0
330
1F
100
AcDbEntity
  8
0
  6
Continuous
 62
     7
370
    25
100
AcDbCircle
 10
99.1365710172
 20
127.3407177504
 30
0.0
 40
4.121170404893566
100
AcDbArc
 50
19.5689031514
 51
159.1018120252
  0
SPLINE
  5
E1
330
1F
100
AcDbEntity
  8
0
  6
Continuous
 62
     7
370
    25
100
AcDbSpline
210
0.0
220
0.0
230
1.0
 70
    24
 71
     3
 72
    14
 73
    10
 74
     0
 42
0.000000001
 43
0.00000001
 40
0.0
 40
0.0
 40
0.0
 40
0.0
 40
0.4999999999999984
 40
0.4999999999999984
 40
0.7499999999999992
 40
0.7499999999999992
 40
0.8749999999999996
 40
0.8749999999999996
 40
1.0
 40
1.0
 40
1.0
 40
1.0
 10
110.9521089501502
 20
89.06039255896047
 30
0.0
 10
110.905324245102
 20
89.06039255896047
 30
0.0
 10
110.8432730483224
 20
89.06039255896047
 30
0.0
 10
110.6998814097718
 20
89.06039255896046
 30
0.0
 10
110.6437377562206
 20
89.06039255896047
 30
0.0
 10
110.5307867340845
 20
89.06039255896047
 30
0.0
 10
110.4877859720463
 20
89.06039255896047
 30
0.0
 10
110.3837232617398
 20
89.06039255896047
 30
0.0
 10
110.3183910233829
 20
89.06039255896047
 30
0.0
 10
110.2497837524825
 20
89.06039255896047
 30
0.0
  0
SPLINE
  5
E2
330
1F
100
AcDbEntity
  8
0
  6
Continuous
 62
     7
370
    25
100
AcDbSpline
210
0.0
220
0.0
230
1.0
 70
    24
 71
     3
 72
    12
 73
     8
 74
     0
 42
0.000000001
 43
0.00000001
 40
0.0
 40
0.0
 40
0.0
 40
0.0
 40
0.5000000000000017
 40
0.5000000000000017
 40
0.7500000000000008
 40
0.7500000000000008
 40
1.0
 40
1.0
 40
1.0
 40
1.0
 10
110.6554862207915
 20
141.8603925589605
 30
0.0
 10
110.6124006711806
 20
141.8603925589605
 30
0.0
 10
110.5632484694313
 20
141.8603925589605
 30
0.0
 10
110.4667758751434
 20
141.8603925589605
 30
0.0
 10
110.4306742900088
 20
141.8603925589605
 30
0.0
 10
110.3475685321475
 20
141.8603925589605
 30
0.0
 10
110.2995719351812
 20
141.8603925589605
 30
0.0
 10
110.2497837524825
 20
141.8603925589605
 30
0.0
  0
SPLINE
  5
E3
330
1F
100
AcDbEntity
  8
0
  6
Continuous
 62
     7
370
    25
100
AcDbSpline
210
0.0
220
0.0
230
1.0
 70
     8
 71
     3
 72
    10
 73
     6
 74
     0
 42
0.000000001
 43
0.00000001
 40
0.0
 40
0.0
 40
0.0
 40
0.0
 40
0.5
 40
0.5
 40
1.0
 40
1.0
 40
1.0
 40
1.0
 10
111.0497837524825
 20
142.5800464099962
 30
0.0
 10
111.0497837524825
 20
142.4362763521782
 30
0.0
 10
111.0137346937636
 20
142.2938569896831
 30
0.0
 10
110.8782258329896
 20
142.0439626963258
 30
0.0
 10
110.7783498398934
 20
141.9359323600777
 30
0.0
 10
110.6554862207915
 20
141.8603925589604
 30
0.0
  0
SPLINE
  5
E4
330
1F
100
AcDbEntity
  8
0
  6
Continuous
 62
     7
370
    25
100
AcDbSpline
210
0.0
220
0.0
230
1.0
 70
     8
 71
     3
 72
    10
 73
     6
 74
     0
 42
0.000000001
 43
0.00000001
 40
0.0
 40
0.0
 40
0.0
 40
0.0
 40
0.5
 40
0.5
 40
1.0
 40
1.0
 40
1.0
 40
1.0
 10
111.0236361293224
 20
135.3103925589605
 30
0.0
 10
111.032325772234
 20
135.3572714082786
 30
0.0
 10
111.0388648369846
 20
135.4046938736799
 30
0.0
 10
111.0476234713776
 20
135.5006306722668
 30
0.0
 10
111.0497837524825
 20
135.5485459602773
 30
0.0
 10
111.0497837524825
 20
135.5962591904218
 30
0.0
  0
SPLINE
  5
E5
330
1F
100
AcDbEntity
  8
0
  6
Continuous
 62
     7
370
    25
100
AcDbSpline
210
0.0
220
0.0
230
1.0
 70
     8
 71
     3
 72
    10
 73
     6
 74
     0
 42
0.000000001
 43
0.00000001
 40
0.0
 40
0.0
 40
0.0
 40
0.0
 40
0.5
 40
0.5
 40
1.0
 40
1.0
 40
1.0
 40
1.0
 10
107.6240812841735
 20
141.8603925589605
 30
0.0
 10
107.5025410205049
 20
141.9351187261722
 30
0.0
 10
107.401206660156
 20
142.044063742089
 30
0.0
 10
107.2655677172676
 20
142.2944942228506
 30
0.0
 10
107.2297837524825
 20
142.4369135849496
 30
0.0
 10
107.2297837524825
 20
142.5800464099962
 30
0.0
  0
SPLINE
  5
E6
330
1F
100
AcDbEntity
  8
0
  6
Continuous
 62
     7
370
    25
100
AcDbSpline
210
0.0
220
0.0
230
1.0
 70
    24
 71
     3
 72
    12
 73
     8
 74
     0
 42
0.000000001
 43
0.00000001
 40
0.0
 40
0.0
 40
0.0
 40
0.0
 40
0.2500000000000037
 40
0.2500000000000037
 40
0.5000000000000074
 40
0.5000000000000074
 40
1.0
 40
1.0
 40
1.0
 40
1.0
 10
108.0297837524825
 20
141.8603925589605
 30
0.0
 10
107.9799070701651
 20
141.8603925589605
 30
0.0
 10
107.9319038767615
 20
141.8603925589605
 30
0.0
 10
107.8488557740495
 20
141.8603925589605
 30
0.0
 10
107.8127261945816
 20
141.8603925589605
 30
0.0
 10
107.7168141636374
 20
141.8603925589605
 30
0.0
 10
107.6670554956686
 20
141.8603925589605
 30
0.0
 10
107.6240812841735
 20
141.8603925589605
 30
0.0
  0
SPLINE
  5
E7
330
1F
100
AcDbEntity
  8
0
  6
Continuous
 62
     7
370
    25
100
AcDbSpline
210
0.0
220
0.0
230
1.0
 70
    24
 71
     3
 72
    14
 73
    10
 74
     0
 42
0.000000001
 43
0.00000001
 40
0.0
 40
0.0
 40
0.0
 40
0.0
 40
0.1249999999999991
 40
0.1249999999999991
 40
0.2499999999999982
 40
0.2499999999999982
 40
0.4999999999999998
 40
0.4999999999999998
 40
1.0
 40
1.0
 40
1.0
 40
1.0
 10
108.0297837524825
 20
89.06039255896047
 30
0.0
 10
107.961345904596
 20
89.06039255896047
 30
0.0
 10
107.895795865831
 20
89.06039255896047
 30
0.0
 10
107.791369226423
 20
89.06039255896047
 30
0.0
 10
107.7488246166616
 20
89.06039255896047
 30
0.0
 10
107.6362151561214
 20
89.06039255896046
 30
0.0
 10
107.5806761091019
 20
89.06039255896047
 30
0.0
 10
107.4380644136381
 20
89.06039255896046
 30
0.0
 10
107.3746590586423
 20
89.06039255896046
 30
0.0
 10
107.3274585548148
 20
89.06039255896047
 30
0.0
  0
SPLINE
  5
E8
330
1F
100
AcDbEntity
  8
0
  6
Continuous
 62
     7
370
    25
100
AcDbSpline
210
0.0
220
0.0
230
1.0
 70
     8
 71
     3
 72
    10
 73
     6
 74
     0
 42
0.000000001
 43
0.00000001
 40
0.0
 40
0.0
 40
0.0
 40
0.0
 40
0.5
 40
0.5
 40
1.0
 40
1.0
 40
1.0
 40
1.0
 10
107.2297837524825
 20
135.5962591904218
 30
0.0
 10
107.2297837524825
 20
135.5484876824285
 30
0.0
 10
107.2319449960797
 20
135.5007779603669
 30
0.0
 10
107.2406163699398
 20
135.4054828428186
 30
0.0
 10
107.2471455528958
 20
135.357790278852
 30
0.0
 10
107.2559313756426
 20
135.3103925589605
 30
0.0
  0
LINE
  5
E9
330
1F
100
AcDbEntity
  8
0
  6
Continuous
 62
     7
370
    25
100
AcDbLine
 10
110.2497835135
 20
141.8603924159
 30
0.0
 11
108.0297843044
 21
141.8603924159
 31
0.0
  0
LINE
  5
EA
330
1F
100
AcDbEntity
  8
0
  6
Continuous
 62
     7
370
    25
100
AcDbLine
 10
110.2497835135
 20
89.060392702
 30
0.0
 11
108.0297843044
 21
89.060392702
 31
0.0
  0
LINE
  5
EB
330
1F
100
AcDbEntity
  8
0
  6
Continuous
 62
     7
370
    25
100
AcDbLine
 10
89.1397836575
 20
91.2399613354
 30
0.0
 11
89.1397836575
 21
139.6808237825
 31
0.0
  0
LINE
  5
EC
330
1F
100
AcDbEntity
  8
0
  6
Continuous
 62
     7
370
    25
100
AcDbLine
 10
69.3397835319
 20
92.2319465373
 30
0.0
 11
69.3397835319
 21
93.4966546539
 31
0.0
  0
SPLINE
  5
ED
330
1F
100
AcDbEntity
  8
0
  6
Continuous
 62
     7
370
    25
100
AcDbSpline
210
0.0
220
0.0
230
1.0
 70
     8
 71
     3
 72
    14
 73
    10
 74
     0
 42
0.000000001
 43
0.00000001
 40
0.0
 40
0.0
 40
0.0
 40
0.0
 40
0.25
 40
0.25
 40
0.5
 40
0.5
 40
0.75
 40
0.75
 40
1.0
 40
1.0
 40
1.0
 40
1.0
 10
68.5614966345668
 20
94.62724123540052
 30
0.0
 10
68.61812330976886
 20
94.51954378156366
 30
0.0
 10
68.71264597005859
 20
94.41675419984433
 30
0.0
 10
68.89569094562083
 20
94.2183968876242
 30
0.0
 10
68.98731752257555
 20
94.12233737894594
 30
0.0
 10
69.14617084026875
 20
93.9348083362367
 30
0.0
 10
69.21406144789044
 20
93.84339936345314
 30
0.0
 10
69.31097847359803
 20
93.66502314254299
 30
0.0
 10
69.33978375248309
 20
93.57780123629682
 30
0.0
 10
69.33978375248307
 20
93.49665502776256
 30
0.0
  0
SPLINE
  5
EE
330
1F
100
AcDbEntity
  8
0
  6
Continuous
 62
     7
370
    25
100
AcDbSpline
210
0.0
220
0.0
230
1.0
 70
     8
 71
     3
 72
    14
 73
    10
 74
     0
 42
0.000000001
 43
0.00000001
 40
0.0
 40
0.0
 40
0.0
 40
0.0
 40
0.1249999999999975
 40
0.1249999999999975
 40
0.249999999999995
 40
0.249999999999995
 40
0.4999999999999953
 40
0.4999999999999953
 40
1.0
 40
1.0
 40
1.0
 40
1.0
 10
67.93978375248251
 20
95.07392309767984
 30
0.0
 10
67.98832816113968
 20
95.07967141096013
 30
0.0
 10
68.04124351592458
 20
95.0765705223039
 30
0.0
 10
68.13653886090762
 20
95.05437567814157
 30
0.0
 10
68.17678985819258
 20
95.03714345104571
 30
0.0
 10
68.28105987170555
 20
94.98081553459365
 30
0.0
 10
68.33138184685887
 20
94.93662918864784
 30
0.0
 10
68.45906479438425
 20
94.80562128979722
 30
0.0
 10
68.5151502414465
 20
94.71538676956692
 30
0.0
 10
68.56149663456826
 20
94.62724123540104
 30
0.0
  0
SPLINE
  5
EF
330
1F
100
AcDbEntity
  8
0
  6
Continuous
 62
     7
370
    25
100
AcDbSpline
210
0.0
220
0.0
230
1.0
 70
     8
 71
     3
 72
     8
 73
     4
 74
     0
 42
0.000000001
 43
0.00000001
 40
0.0
 40
0.0
 40
0.0
 40
0.0
 40
1.0
 40
1.0
 40
1.0
 40
1.0
 10
65.67125865953628
 20
94.76407781109705
 30
0.0
 10
66.40583568601924
 20
94.88270282216601
 30
0.0
 10
67.16931075541491
 20
94.9826886943023
 30
0.0
 10
67.93978375248253
 20
95.07392309767984
 30
0.0
  0
SPLINE
  5
F0
330
1F
100
AcDbEntity
  8
0
  6
Continuous
 62
     7
370
    25
100
AcDbSpline
210
0.0
220
0.0
230
1.0
 70
     8
 71
     3
 72
    14
 73
    10
 74
     0
 42
0.000000001
 43
0.00000001
 40
0.0
 40
0.0
 40
0.0
 40
0.0
 40
0.500000000000001
 40
0.500000000000001
 40
0.7500000000000004
 40
0.7500000000000004
 40
0.8750000000000003
 40
0.8750000000000003
 40
1.0
 40
1.0
 40
1.0
 40
1.0
 10
60.38978375248251
 20
94.5904547935654
 30
0.0
 10
61.28192988303609
 20
94.58973256736475
 30
0.0
 10
62.17190631882968
 20
94.59431877382221
 30
0.0
 10
63.4985014859053
 20
94.62204377821375
 30
0.0
 10
63.93934841440402
 20
94.63465031583793
 30
0.0
 10
64.59578865182644
 20
94.66566646384537
 30
0.0
 10
64.81380230841832
 20
94.67800963647214
 30
0.0
 10
65.2465111621011
 20
94.71103369163544
 30
0.0
 10
65.4617876272659
 20
94.73025085677386
 30
0.0
 10
65.67125865953629
 20
94.76407781109705
 30
0.0
  0
SPLINE
  5
F1
330
1F
100
AcDbEntity
  8
0
  6
Continuous
 62
     7
370
    25
100
AcDbSpline
210
0.0
220
0.0
230
1.0
 70
     8
 71
     3
 72
     8
 73
     4
 74
     0
 42
0.000000001
 43
0.00000001
 40
0.0000005163856712
 40
0.0000005163856712
 40
0.0000005163856712
 40
0.0000005163856712
 40
0.000026289209185
 40
0.000026289209185
 40
0.000026289209185
 40
0.000026289209185
 10
60.37973882206382
 20
94.60043866667327
 30
0.0
 10
60.3830665602753
 20
94.59710441980044
 30
0.0
 10
60.38641501325459
 20
94.59377646252143
 30
0.0
 10
60.38978375248248
 20
94.59045479356539
 30
0.0
  0
SPLINE
  5
F2
330
1F
100
AcDbEntity
  8
0
  6
Continuous
 62
     7
370
    25
100
AcDbSpline
210
0.0
220
0.0
230
1.0
 70
     8
 71
     3
 72
     8
 73
     4
 74
     0
 42
0.000000001
 43
0.00000001
 40
0.0000005099763573
 40
0.0000005099763573
 40
0.0000005099763573
 40
0.0000005099763573
 40
0.0000262827998699
 40
0.0000262827998699
 40
0.0000262827998699
 40
0.0000262827998699
 10
60.38978375248249
 20
136.3303303243555
 30
0.0
 10
60.38641501325476
 20
136.3270086553997
 30
0.0
 10
60.38306656027562
 20
136.3236806981208
 30
0.0
 10
60.3797388220643
 20
136.3203464512481
 30
0.0
  0
SPLINE
  5
F3
330
1F
100
AcDbEntity
  8
0
  6
Continuous
 62
     7
370
    25
100
AcDbSpline
210
0.0
220
0.0
230
1.0
 70
     8
 71
     3
 72
    10
 73
     6
 74
     0
 42
0.000000001
 43
0.00000001
 40
0.0
 40
0.0
 40
0.0
 40
0.0
 40
0.5
 40
0.5
 40
1.0
 40
1.0
 40
1.0
 40
1.0
 10
63.93978375248252
 20
136.2834799507882
 30
0.0
 10
63.35219820539192
 20
136.3045454710246
 30
0.0
 10
62.76145181193153
 20
136.3153039568968
 30
0.0
 10
61.57743264663268
 20
136.3286687374325
 30
0.0
 10
60.98401865842722
 20
136.3308113800971
 30
0.0
 10
60.38978375248251
 20
136.3303303243555
 30
0.0
  0
SPLINE
  5
F4
330
1F
100
AcDbEntity
  8
0
  6
Continuous
 62
     7
370
    25
100
AcDbSpline
210
0.0
220
0.0
230
1.0
 70
     8
 71
     3
 72
    18
 73
    14
 74
     0
 42
0.000000001
 43
0.00000001
 40
0.0
 40
0.0
 40
0.0
 40
0.0
 40
0.2500000000000009
 40
0.2500000000000009
 40
0.500000000000001
 40
0.500000000000001
 40
0.7500000000000011
 40
0.7500000000000011
 40
0.875000000000001
 40
0.875000000000001
 40
0.9375000000000006
 40
0.9375000000000006
 40
1.0
 40
1.0
 40
1.0
 40
1.0
 10
65.33978375248252
 20
137.3045002313235
 30
0.0
 10
65.33978375248253
 20
137.2212933224663
 30
0.0
 10
65.30393465254424
 20
137.1325566671527
 30
0.0
 10
65.17906291651032
 20
136.9504314765925
 30
0.0
 10
65.08866249886246
 20
136.8553014279659
 30
0.0
 10
64.86641984412029
 20
136.6661199188415
 30
0.0
 10
64.73665505767451
 20
136.5711747507468
 30
0.0
 10
64.496017600363
 20
136.4328960431669
 30
0.0
 10
64.40825030222555
 20
136.3871856098645
 30
0.0
 10
64.25372621501874
 20
136.329362304643
 30
0.0
 10
64.19711532896399
 20
136.3116475406052
 30
0.0
 10
64.0730712980574
 20
136.2871082373722
 30
0.0
 10
64.0053566230391
 20
136.2811290988339
 30
0.0
 10
63.93978375248251
 20
136.2834799507882
 30
0.0
  0
LINE
  5
F5
330
1F
100
AcDbEntity
  8
0
  6
Continuous
 62
     7
370
    25
100
AcDbLine
 10
65.3397828763
 20
137.3045002166
 30
0.0
 11
65.3397828763
 21
138.4884384517
 31
0.0
  0
SPLINE
  5
F6
330
1F
100
AcDbEntity
  8
0
  6
Continuous
 62
     7
370
    25
100
AcDbSpline
210
0.0
220
0.0
230
1.0
 70
     8
 71
     3
 72
    18
 73
    14
 74
     0
 42
0.000000001
 43
0.00000001
 40
0.0
 40
0.0
 40
0.0
 40
0.0
 40
0.001067142096085
 40
0.1270947925777493
 40
0.2524053537361832
 40
0.3766468838452861
 40
0.4391416358858051
 40
0.5008278334298175
 40
0.5624255844801763
 40
0.6253162510714301
 40
0.7499985254815132
 40
0.8752758926324193
 40
1.0
 40
1.0
 40
1.0
 40
1.0
 10
77.91008487842618
 20
91.80305386522248
 30
0.0
 10
77.90917280314343
 20
91.80293869733045
 30
0.0
 10
77.80054620196292
 20
91.78922239900069
 30
0.0
 10
78.18822767400566
 20
91.84020866038234
 30
0.0
 10
79.05417613411521
 20
91.93976569625686
 30
0.0
 10
80.25458392783801
 20
92.00889632587592
 30
0.0
 10
81.31215947769576
 20
92.01284702614267
 30
0.0
 10
82.13929384181901
 20
91.98536015821841
 30
0.0
 10
82.96456547786684
 20
91.9268176694061
 30
0.0
 10
84.01893068497564
 20
91.8132990674464
 30
0.0
 10
85.18076689122906
 20
91.63014491161286
 30
0.0
 10
86.1330016119022
 20
91.42554476294671
 30
0.0
 10
86.25870671461084
 20
91.39625809293761
 30
0.0
 10
86.32142017162977
 20
91.38164716401532
 30
0.0
  0
SPLINE
  5
F7
330
1F
100
AcDbEntity
  8
0
  6
Continuous
 62
     7
370
    25
100
AcDbSpline
210
0.0
220
0.0
230
1.0
 70
     8
 71
     3
 72
    18
 73
    14
 74
     0
 42
0.000000001
 43
0.00000001
 40
0.0
 40
0.0
 40
0.0
 40
0.0
 40
0.1248907819469273
 40
0.2505384063477967
 40
0.3748721756041158
 40
0.4374907331267689
 40
0.4990776026247599
 40
0.5607931145009658
 40
0.6233901196104445
 40
0.7478191009174896
 40
0.8731941046696081
 40
0.9991614615322162
 40
0.9999999999999999
 40
0.9999999999999999
 40
0.9999999999999999
 40
0.9999999999999999
 10
86.32120131082473
 20
139.5390727613254
 30
0.0
 10
86.25746047885701
 20
139.5244112950984
 30
0.0
 10
86.12959254327745
 20
139.4949995136523
 30
0.0
 10
85.17759370668892
 20
139.2900455542948
 30
0.0
 10
84.0170496358363
 20
139.1067842924311
 30
0.0
 10
82.96478586417291
 20
138.9937537380561
 30
0.0
 10
82.14055856515465
 20
138.9354929305834
 30
0.0
 10
81.31295481982997
 20
138.9080457944613
 30
0.0
 10
80.25413749013575
 20
138.9120305883359
 30
0.0
 10
79.0519177505099
 20
138.9811233728318
 30
0.0
 10
78.18673697951101
 20
139.080732110019
 30
0.0
 10
77.80058823187333
 20
139.1315897156623
 30
0.0
 10
77.90866610423694
 20
139.1178889082389
 30
0.0
 10
77.90938079855977
 20
139.1177983079238
 30
0.0
  0
SPLINE
  5
F8
330
1F
100
AcDbEntity
  8
0
  6
Continuous
 62
     7
370
    25
100
AcDbSpline
210
0.0
220
0.0
230
1.0
 70
     8
 71
     3
 72
     9
 73
     5
 74
     0
 42
0.000000001
 43
0.00000001
 40
0.0
 40
0.0
 40
0.0
 40
0.0
 40
0.7009339503679092
 40
0.9999999999999999
 40
0.9999999999999999
 40
0.9999999999999999
 40
0.9999999999999999
 10
59.2605673199111
 20
95.75911285915807
 30
0.0
 10
59.26970799086092
 20
95.74128357539718
 30
0.0
 10
59.28274869311974
 20
95.71584710773637
 30
0.0
 10
59.29791215638802
 20
95.76972646720992
 30
0.0
 10
59.30244703344641
 20
95.78583995440438
 30
0.0
  0
LINE
  5
F9
330
1F
100
AcDbEntity
  8
0
  6
Continuous
 62
     7
370
    25
100
AcDbLine
 10
59.2397839253
 20
95.7697150353
 30
0.0
 11
59.2397839253
 21
135.1510700826
 31
0.0
  0
SPLINE
  5
FA
330
1F
100
AcDbEntity
  8
0
  6
Continuous
 62
     7
370
    25
100
AcDbSpline
210
0.0
220
0.0
230
1.0
 70
     8
 71
     3
 72
    10
 73
     6
 74
     0
 42
0.000000001
 43
0.00000001
 40
0.0
 40
0.0
 40
0.0
 40
0.0
 40
0.5
 40
0.5
 40
1.0
 40
1.0
 40
1.0
 40
1.0
 10
59.30244712720592
 20
135.1349451037412
 30
0.0
 10
59.29354283809715
 20
135.1806866229544
 30
0.0
 10
59.27702745790417
 20
135.1978774624234
 30
0.0
 10
59.24991951184255
 20
135.1975541854877
 30
0.0
 10
59.23978375248251
 20
135.1796766431912
 30
0.0
 10
59.23978375248251
 20
135.1510703054386
 30
0.0
  0
SPLINE
  5
FB
330
1F
100
AcDbEntity
  8
0
  6
Continuous
 62
     7
370
    25
100
AcDbSpline
210
0.0
220
0.0
230
1.0
 70
     8
 71
     3
 72
    26
 73
    22
 74
     0
 42
0.000000001
 43
0.00000001
 40
0.0
 40
0.0
 40
0.0
 40
0.0
 40
0.2500000000000165
 40
0.2500000000000165
 40
0.3750000000000256
 40
0.3750000000000256
 40
0.4375000000000291
 40
0.4375000000000291
 40
0.4687500000000291
 40
0.4687500000000291
 40
0.5000000000000292
 40
0.5000000000000292
 40
0.5312500000000293
 40
0.5312500000000293
 40
0.5625000000000293
 40
0.5625000000000293
 40
0.625000000000026
 40
0.625000000000026
 40
0.7500000000000173
 40
0.7500000000000173
 40
1.0
 40
1.0
 40
1.0
 40
1.0
 10
60.06393739858702
 20
135.8505118925583
 30
0.0
 10
60.02533687571855
 20
135.7327371962029
 30
0.0
 10
59.97903987316429
 20
135.6083475100409
 30
0.0
 10
59.88510052473037
 20
135.4031281776874
 30
0.0
 10
59.84978905781691
 20
135.331555311241
 30
0.0
 10
59.78360908207122
 20
135.2156020786406
 30
0.0
 10
59.75907071540301
 20
135.1750175438303
 30
0.0
 10
59.71569796984922
 20
135.1108758619586
 30
0.0
 10
59.70018956842402
 20
135.0890094366735
 30
0.0
 10
59.66514692383698
 20
135.0434151683303
 30
0.0
 10
59.64559663311722
 20
135.0197448773629
 30
0.0
 10
59.60366935274661
 20
134.975128318023
 30
0.0
 10
59.58101724251497
 20
134.9542483055051
 30
0.0
 10
59.54004352842834
 20
134.9233748917542
 30
0.0
 10
59.52244422853292
 20
134.9135360219218
 30
0.0
 10
59.47781724267677
 20
134.8945464062257
 30
0.0
 10
59.45725802002344
 20
134.8942220815722
 30
0.0
 10
59.40613258052677
 20
134.9034455224484
 30
0.0
 10
59.38522116753822
 20
134.9246924186654
 30
0.0
 10
59.3337712599773
 20
134.9986612974962
 30
0.0
 10
59.31610596067274
 20
135.0647793908109
 30
0.0
 10
59.30244712720592
 20
135.1349451037412
 30
0.0
  0
SPLINE
  5
FC
330
1F
100
AcDbEntity
  8
0
  6
Continuous
 62
     7
370
    25
100
AcDbSpline
210
0.0
220
0.0
230
1.0
 70
     8
 71
     3
 72
    10
 73
     6
 74
     0
 42
0.000000001
 43
0.00000001
 40
0.0
 40
0.0
 40
0.0
 40
0.0
 40
0.5
 40
0.5
 40
1.0
 40
1.0
 40
1.0
 40
1.0
 10
60.37973882206432
 20
136.3203464512481
 30
0.0
 10
60.31217956714607
 20
136.2526550584384
 30
0.0
 10
60.24854291180957
 20
136.1779478936847
 30
0.0
 10
60.1383221572377
 20
136.0189817612581
 30
0.0
 10
60.09150586401508
 20
135.9346264952501
 30
0.0
 10
60.06393739858701
 20
135.8505118925583
 30
0.0
  0
SPLINE
  5
FD
330
1F
100
AcDbEntity
  8
0
  6
Continuous
 62
     7
370
    25
100
AcDbSpline
210
0.0
220
0.0
230
1.0
 70
     8
 71
     3
 72
    10
 73
     6
 74
     0
 42
0.000000001
 43
0.00000001
 40
0.0
 40
0.0
 40
0.0
 40
0.0
 40
0.5
 40
0.5
 40
1.0
 40
1.0
 40
1.0
 40
1.0
 10
60.06393739858706
 20
95.0702732253625
 30
0.0
 10
60.09141481334026
 20
94.98643642889691
 30
0.0
 10
60.13812344362793
 20
94.90212594131008
 30
0.0
 10
60.24840190636988
 20
94.74300471082722
 30
0.0
 10
60.31228944498152
 20
94.66801996673914
 30
0.0
 10
60.37973882206385
 20
94.60043866667327
 30
0.0
  0
SPLINE
  5
FE
330
1F
100
AcDbEntity
  8
0
  6
Continuous
 62
     7
370
    25
100
AcDbSpline
210
0.0
220
0.0
230
1.0
 70
     8
 71
     3
 72
    24
 73
    20
 74
     0
 42
0.000000001
 43
0.00000001
 40
0.0
 40
0.0
 40
0.0
 40
0.0
 40
0.25
 40
0.25
 40
0.374999999999999
 40
0.374999999999999
 40
0.4374999999999993
 40
0.4374999999999993
 40
0.4687499999999994
 40
0.4687499999999994
 40
0.4999999999999995
 40
0.4999999999999995
 40
0.5624999999999971
 40
0.5624999999999971
 40
0.6249999999999947
 40
0.6249999999999947
 40
0.7499999999999947
 40
0.7499999999999947
 40
1.0
 40
1.0
 40
1.0
 40
1.0
 10
59.30244712720592
 20
95.78584001417973
 30
0.0
 10
59.31620024587614
 20
95.85649007217
 30
0.0
 10
59.33397281328201
 20
95.92308818493494
 30
0.0
 10
59.38622390483736
 20
95.99718620516815
 30
0.0
 10
59.40725898041893
 20
96.0184440123297
 30
0.0
 10
59.46015938804736
 20
96.02658993847595
 30
0.0
 10
59.48126506092527
 20
96.02565013508017
 30
0.0
 10
59.52731722960325
 20
96.00463414350283
 30
0.0
 10
59.54568770158664
 20
95.9937253373952
 30
0.0
 10
59.58723933665233
 20
95.96109042644785
 30
0.0
 10
59.60980600940925
 20
95.93959844607647
 30
0.0
 10
59.67258702586926
 20
95.87113250249016
 30
0.0
 10
59.70571678683717
 20
95.82505804428507
 30
0.0
 10
59.76263447332217
 20
95.7400501559504
 30
0.0
 10
59.78682049882595
 20
95.69976985476902
 30
0.0
 10
59.8520284492057
 20
95.58483362830307
 30
0.0
 10
59.88674450939695
 20
95.51425064315606
 30
0.0
 10
59.97995977972784
 20
95.31004488407746
 30
0.0
 10
60.02563231508851
 20
95.1871465017501
 30
0.0
 10
60.06393739858705
 20
95.07027322536251
 30
0.0
  0
LINE
  5
FF
330
1F
100
AcDbEntity
  8
0
  6
Continuous
 62
     7
370
    25
100
AcDbLine
 10
163.6397816663
 20
95.460393006
 30
0.0
 11
163.6397816663
 21
135.4603921119
 31
0.0
  0
LINE
  5
100
330
1F
100
AcDbEntity
  8
0
  6
Continuous
 62
     7
370
    25
100
AcDbLine
 10
188.1397866135
 20
96.4603931699
 30
0.0
 11
188.1397866135
 21
134.460391948
 31
0.0
  0
SPLINE
  5
101
330
1F
100
AcDbEntity
  8
0
  6
Continuous
 62
     7
370
    25
100
AcDbSpline
210
0.0
220
0.0
230
1.0
 70
     8
 71
     3
 72
    10
 73
     6
 74
     0
 42
0.000000001
 43
0.00000001
 40
0.0
 40
0.0
 40
0.0
 40
0.0
 40
0.5
 40
0.5
 40
1.0
 40
1.0
 40
1.0
 40
1.0
 10
117.0897837524825
 20
145.3068328827244
 30
0.0
 10
117.0897837524825
 20
145.4672381490752
 30
0.0
 10
117.0275459213756
 20
145.6262999620638
 30
0.0
 10
116.8084109976331
 20
145.8572124276941
 30
0.0
 10
116.6508223026412
 20
145.9275880321247
 30
0.0
 10
116.4897837524825
 20
145.9275880321247
 30
0.0
  0
SPLINE
  5
102
330
1F
100
AcDbEntity
  8
0
  6
Continuous
 62
     7
370
    25
100
AcDbSpline
210
0.0
220
0.0
230
1.0
 70
     8
 71
     3
 72
    12
 73
     8
 74
     0
 42
0.000000001
 43
0.00000001
 40
0.0
 40
0.0
 40
0.0
 40
0.0
 40
0.25
 40
0.25
 40
0.5
 40
0.5
 40
1.0
 40
1.0
 40
1.0
 40
1.0
 10
116.4897837524825
 20
139.9190822213279
 30
0.0
 10
116.5809834743082
 20
139.9190822213279
 30
0.0
 10
116.6715784834442
 20
139.89086252274
 30
0.0
 10
116.8249912098908
 20
139.7964195154919
 30
0.0
 10
116.8902000772145
 20
139.7301325387866
 30
0.0
 10
117.0429846065545
 20
139.5045077154983
 30
0.0
 10
117.0897837524825
 20
139.3220814524658
 30
0.0
 10
117.0897837524825
 20
139.1413448202189
 30
0.0
  0
LINE
  5
103
330
1F
100
AcDbEntity
  8
0
  6
Continuous
 62
     7
370
    25
100
AcDbLine
 10
117.0897834425
 20
139.1413440053
 30
0.0
 11
117.0897834425
 21
145.3068335597
 31
0.0
  0
LINE
  5
104
330
1F
100
AcDbEntity
  8
0
  6
Continuous
 62
     7
370
    25
100
AcDbLine
 10
116.4897844618
 20
145.9275879953
 30
0.0
 11
112.5317156737
 21
145.9275879953
 31
0.0
  0
LINE
  5
105
330
1F
100
AcDbEntity
  8
0
  6
Continuous
 62
     7
370
    25
100
AcDbLine
 10
112.5317156737
 20
139.9190821741
 30
0.0
 11
116.4897844618
 21
139.9190821741
 31
0.0
  0
LINE
  5
106
330
1F
100
AcDbEntity
  8
0
  6
Continuous
 62
     7
370
    25
100
AcDbLine
 10
112.5317156737
 20
139.9190821741
 30
0.0
 11
112.5317156737
 21
145.9275879953
 31
0.0
  0
SPLINE
  5
107
330
1F
100
AcDbEntity
  8
0
  6
Continuous
 62
     7
370
    25
100
AcDbSpline
210
0.0
220
0.0
230
1.0
 70
     8
 71
     3
 72
     8
 73
     4
 74
     0
 42
0.000000001
 43
0.00000001
 40
0.0
 40
0.0
 40
0.0
 40
0.0
 40
1.0
 40
1.0
 40
1.0
 40
1.0
 10
107.2297837524825
 20
143.2656267501321
 30
0.0
 10
106.7370736556367
 20
144.1536457482585
 30
0.0
 10
106.2429909503578
 20
145.0409083839445
 30
0.0
 10
105.7478509209935
 20
145.9275880321247
 30
0.0
  0
LINE
  5
108
330
1F
100
AcDbEntity
  8
0
  6
Continuous
 62
     7
370
    25
100
AcDbLine
 10
107.2297838008
 20
136.5105365459
 30
0.0
 11
107.2297838008
 21
143.2656259332
 31
0.0
  0
SPLINE
  5
109
330
1F
100
AcDbEntity
  8
0
  6
Continuous
 62
     7
370
    25
100
AcDbSpline
210
0.0
220
0.0
230
1.0
 70
     8
 71
     3
 72
     8
 73
     4
 74
     0
 42
0.000000001
 43
0.00000001
 40
0.0
 40
0.0
 40
0.0
 40
0.0
 40
1.0
 40
1.0
 40
1.0
 40
1.0
 10
105.7478509209935
 20
139.9190822213279
 30
0.0
 10
106.2549377627527
 20
138.7879318671642
 30
0.0
 10
106.7505056018927
 20
137.6515474563964
 30
0.0
 10
107.2297837524825
 20
136.5105362265438
 30
0.0
  0
SPLINE
  5
10A
330
1F
100
AcDbEntity
  8
0
  6
Continuous
 62
     7
370
    25
100
AcDbSpline
210
0.0
220
0.0
230
1.0
 70
     8
 71
     3
 72
     8
 73
     4
 74
     0
 42
0.000000001
 43
0.00000001
 40
0.0
 40
0.0
 40
0.0
 40
0.0
 40
1.0
 40
1.0
 40
1.0
 40
1.0
 10
111.0497837524825
 20
136.5105362265438
 30
0.0
 10
111.5290619030723
 20
137.6515474563964
 30
0.0
 10
112.0246297422123
 20
138.7879318671642
 30
0.0
 10
112.5317165839716
 20
139.9190822213279
 30
0.0
  0
LINE
  5
10B
330
1F
100
AcDbEntity
  8
0
  6
Continuous
 62
     7
370
    25
100
AcDbLine
 10
111.0497840171
 20
135.596259037
 30
0.0
 11
111.0497840171
 21
136.5105365459
 31
0.0
  0
LINE
  5
10C
330
1F
100
AcDbEntity
  8
0
  6
Continuous
 62
     7
370
    25
100
AcDbLine
 10
117.0897834425
 20
139.1413440053
 30
0.0
 11
117.0897834425
 21
135.3103932981
 31
0.0
  0
LINE
  5
10D
330
1F
100
AcDbEntity
  8
0
  6
Continuous
 62
     7
370
    25
100
AcDbLine
 10
107.2297838008
 20
136.5105365459
 30
0.0
 11
107.2297838008
 21
135.596259037
 31
0.0
  0
SPLINE
  5
10E
330
1F
100
AcDbEntity
  8
0
  6
Continuous
 62
     7
370
    25
100
AcDbSpline
210
0.0
220
0.0
230
1.0
 70
     8
 71
     3
 72
     8
 73
     4
 74
     0
 42
0.000000001
 43
0.00000001
 40
0.0
 40
0.0
 40
0.0
 40
0.0
 40
1.0
 40
1.0
 40
1.0
 40
1.0
 10
112.5317165839716
 20
145.9275880321247
 30
0.0
 10
112.0365765546073
 20
145.0409083839445
 30
0.0
 10
111.5424938493283
 20
144.1536457482584
 30
0.0
 10
111.0497837524825
 20
143.2656267501321
 30
0.0
  0
LINE
  5
10F
330
1F
100
AcDbEntity
  8
0
  6
Continuous
 62
     7
370
    25
100
AcDbLine
 10
111.0497840171
 20
136.5105365459
 30
0.0
 11
111.0497840171
 21
143.2656259332
 31
0.0
  0
ARC
  5
110
330
1F
100
AcDbEntity
  8
0
  6
Continuous
 62
     7
370
    25
100
AcDbCircle
 10
99.1399958047
 20
134.1866367693
 30
0.0
 40
7.230004954940306
100
AcDbArc
 50
70.9071289338
 51
109.1560830453
  0
LINE
  5
111
330
1F
100
AcDbEntity
  8
0
  6
HIDDEN
 62
     7
370
    18
100
AcDbLine
 10
193.1397818451
 20
100.4603928942
 30
0.0
 11
193.1397818451
 21
130.4603922237
 31
0.0
  0
LINE
  5
112
330
1F
100
AcDbEntity
  8
0
  6
HIDDEN
 62
     7
370
    18
100
AcDbLine
 10
213.1397851234
 20
101.4603921268
 30
0.0
 11
213.1397851234
 21
129.4603929911
 31
0.0
  0
LINE
  5
113
330
1F
100
AcDbEntity
  8
0
  6
HIDDEN
 62
     7
370
    18
100
AcDbLine
 10
193.1397818451
 20
104.6603922788
 30
0.0
 11
193.1397818451
 21
126.2362753097
 31
0.0
  0
LINE
  5
114
330
1F
100
AcDbEntity
  8
0
  6
HIDDEN
 62
     7
370
    18
100
AcDbLine
 10
154.51378156
 20
105.4603927825
 30
0.0
 11
154.51378156
 21
125.4603923354
 31
0.0
  0
LINE
  5
115
330
1F
100
AcDbEntity
  8
0
  6
HIDDEN
 62
     7
370
    18
100
AcDbLine
 10
153.1397827392
 20
106.8343925346
 30
0.0
 11
153.1397827392
 21
124.0863925833
 31
0.0
  0
LINE
  5
116
330
1F
100
AcDbEntity
  8
0
  6
HIDDEN
 62
     7
370
    18
100
AcDbLine
 10
213.1397851234
 20
115.460392559
 30
0.0
 11
213.1397851234
 21
106.8453923855
 31
0.0
  0
LINE
  5
117
330
1F
100
AcDbEntity
  8
0
  6
HIDDEN
 62
     7
370
    18
100
AcDbLine
 10
203.1397872096
 20
115.460392559
 30
0.0
 11
203.1397872096
 21
111.1528924722
 31
0.0
  0
LINE
  5
118
330
1F
100
AcDbEntity
  8
0
  6
HIDDEN
 62
     7
370
    18
100
AcDbLine
 10
203.1397872096
 20
115.460392559
 30
0.0
 11
203.1397872096
 21
119.7678926457
 31
0.0
  0
LINE
  5
119
330
1F
100
AcDbEntity
  8
0
  6
HIDDEN
 62
     7
370
    18
100
AcDbLine
 10
203.1397872096
 20
115.460392559
 30
0.0
 11
213.1397851234
 21
115.460392559
 31
0.0
  0
LINE
  5
11A
330
1F
100
AcDbEntity
  8
0
  6
HIDDEN
 62
     7
370
    18
100
AcDbLine
 10
213.1397851234
 20
115.460392559
 30
0.0
 11
213.1397851234
 21
124.0753927324
 31
0.0
  0
LINE
  5
11B
330
1F
100
AcDbEntity
  8
0
  6
HIDDEN
 62
     7
370
    18
100
AcDbLine
 10
203.1397872096
 20
119.7678926457
 30
0.0
 11
203.1397872096
 21
124.0753927324
 31
0.0
  0
LINE
  5
11C
330
1F
100
AcDbEntity
  8
0
  6
HIDDEN
 62
     7
370
    18
100
AcDbLine
 10
203.1397872096
 20
111.1528924722
 30
0.0
 11
203.1397872096
 21
119.7678926457
 31
0.0
  0
LINE
  5
11D
330
1F
100
AcDbEntity
  8
0
  6
HIDDEN
 62
     7
370
    18
100
AcDbLine
 10
203.1397872096
 20
106.8453923855
 30
0.0
 11
203.1397872096
 21
111.1528924722
 31
0.0
  0
LINE
  5
11E
330
1F
100
AcDbEntity
  8
0
  6
HIDDEN
 62
     7
370
    18
100
AcDbLine
 10
203.1397872096
 20
111.1528924722
 30
0.0
 11
203.1397872096
 21
106.8453923855
 31
0.0
  0
LINE
  5
11F
330
1F
100
AcDbEntity
  8
0
  6
HIDDEN
 62
     7
370
    18
100
AcDbLine
 10
203.1397872096
 20
124.0753927324
 30
0.0
 11
203.1397872096
 21
119.7678926457
 31
0.0
  0
LINE
  5
120
330
1F
100
AcDbEntity
  8
0
  6
HIDDEN
 62
     7
370
    18
100
AcDbLine
 10
203.1397872096
 20
119.7678926457
 30
0.0
 11
203.1397872096
 21
111.1528924722
 31
0.0
  0
LINE
  5
121
330
1F
100
AcDbEntity
  8
0
  6
HIDDEN
 62
     7
370
    18
100
AcDbLine
 10
203.1397872096
 20
111.1528924722
 30
0.0
 11
203.1397872096
 21
106.8453923855
 31
0.0
  0
LINE
  5
122
330
1F
100
AcDbEntity
  8
0
  6
HIDDEN
 62
     7
370
    18
100
AcDbLine
 10
203.1397872096
 20
119.7678926457
 30
0.0
 11
203.1397872096
 21
124.0753927324
 31
0.0
  0
LINE
  5
123
330
1F
100
AcDbEntity
  8
0
  6
HIDDEN
 62
     7
370
    18
100
AcDbLine
 10
203.1397872096
 20
106.8453923855
 30
0.0
 11
213.1397851234
 21
106.8453923855
 31
0.0
  0
LINE
  5
124
330
1F
100
AcDbEntity
  8
0
  6
HIDDEN
 62
     7
370
    18
100
AcDbLine
 10
203.1397872096
 20
124.0753927324
 30
0.0
 11
213.1397851234
 21
124.0753927324
 31
0.0
  0
LINE
  5
125
330
1F
100
AcDbEntity
  8
0
  6
HIDDEN
 62
     7
370
    18
100
AcDbLine
 10
188.1397866135
 20
125.4603923354
 30
0.0
 11
154.51378156
 21
125.4603923354
 31
0.0
  0
LINE
  5
126
330
1F
100
AcDbEntity
  8
0
  6
HIDDEN
 62
     7
370
    18
100
AcDbLine
 10
154.51378156
 20
105.4603927825
 30
0.0
 11
188.1397866135
 21
105.4603927825
 31
0.0
  0
LINE
  5
127
330
1F
100
AcDbEntity
  8
0
  6
HIDDEN
 62
     7
370
    18
100
AcDbLine
 10
154.51378156
 20
125.4603923354
 30
0.0
 11
153.1397827392
 21
124.0863925833
 31
0.0
  0
LINE
  5
128
330
1F
100
AcDbEntity
  8
0
  6
HIDDEN
 62
     7
370
    18
100
AcDbLine
 10
153.1397827392
 20
106.8343925346
 30
0.0
 11
154.51378156
 21
105.4603927825
 31
0.0
  0
LINE
  5
129
330
1F
100
AcDbEntity
  8
0
  6
HIDDEN
 62
     7
370
    18
100
AcDbLine
 10
203.1397872096
 20
124.0753927324
 30
0.0
 11
198.1659137135
 21
115.460392559
 31
0.0
  0
LINE
  5
12A
330
1F
100
AcDbEntity
  8
0
  6
HIDDEN
 62
     7
370
    18
100
AcDbLine
 10
198.1659137135
 20
115.460392559
 30
0.0
 11
203.1397872096
 21
106.8453923855
 31
0.0
  0
DIMENSION
  5
12B
330
1F
100
AcDbEntity
  8
VERMASSUNG
100
AcDbDimension
  2
_D
 10
241.1397837525
 20
135.460392559
 30
0.0
 11
241.1397837525
 21
115.460392559
 31
0.0
 70
   160
  1
%%c<>
 71
     2
 42
-1.0
  3
SLDDIMSTYLE0
100
AcDbAlignedDimension
 13
187.1397837525
 23
95.460392559
 33
0.0
 14
187.1397837525
 24
135.460392559
 34
0.0
 50
90.0
100
AcDbRotatedDimension
  0
DIMENSION
  5
137
330
1F
100
AcDbEntity
  8
VERMASSUNG
100
AcDbDimension
  2
_D_1
 10
253.1397837525
 20
75.460392559
 30
0.0
 11
253.1397837525
 21
115.460392559
 31
0.0
 70
   160
  1
%%c<>
 71
     2
 42
-1.0
  3
SLDDIMSTYLE0
100
AcDbAlignedDimension
 13
160.1397837525
 23
155.460392559
 33
0.0
 14
160.1397837525
 24
75.460392559
 34
0.0
 50
90.0
100
AcDbRotatedDimension
  0
DIMENSION
  5
142
330
1F
100
AcDbEntity
  8
VERMASSUNG
100
AcDbDimension
  2
_D_2
 10
161.1397837525
 20
165.460392559
 30
0.0
 11
139.1147837525
 21
165.460392559
 31
0.0
 70
   160
  1
<>
 71
     2
 42
-1.0
  3
SLDDIMSTYLE0
100
AcDbAlignedDimension
 13
117.0897837525
 23
145.3068328827
 33
0.0
 14
161.1397837525
 24
154.460392559
 34
0.0
100
AcDbRotatedDimension
  0
DIMENSION
  5
14C
330
1F
100
AcDbEntity
  8
VERMASSUNG
100
AcDbDimension
  2
_D_3
 10
161.1397837525
 20
174.3676691729
 30
0.0
 11
126.1397837525
 21
174.3676691729
 31
0.0
 70
   160
  1
<>
 71
     2
 42
-1.0
  3
SLDDIMSTYLE0
100
AcDbAlignedDimension
 13
91.1397837525
 23
146.660392559
 33
0.0
 14
161.1397837525
 24
154.460392559
 34
0.0
100
AcDbRotatedDimension
  0
DIMENSION
  5
156
330
1F
100
AcDbEntity
  8
VERMASSUNG
100
AcDbDimension
  2
_D_4
 10
188.1397837525
 20
165.460392559
 30
0.0
 11
174.6397837525
 21
165.460392559
 31
0.0
 70
   160
  1
<>
 71
     2
 42
-1.0
  3
SLDDIMSTYLE0
100
AcDbAlignedDimension
 13
161.1397837525
 23
154.460392559
 33
0.0
 14
188.1397837525
 24
134.460392559
 34
0.0
100
AcDbRotatedDimension
  0
DIMENSION
  5
160
330
1F
100
AcDbEntity
  8
VERMASSUNG
100
AcDbDimension
  2
_D_5
 10
213.1397837525
 20
183.460392559
 30
0.0
 11
136.1897837525
 21
183.460392559
 31
0.0
 70
   160
  1
(<>)
 71
     2
 42
-1.0
  3
SLDDIMSTYLE0
100
AcDbAlignedDimension
 13
59.2397837525
 23
135.1510703054
 33
0.0
 14
213.1397837525
 24
129.460392559
 34
0.0
100
AcDbRotatedDimension
  0
DIMENSION
  5
16C
330
1F
100
AcDbEntity
  8
VERMASSUNG
100
AcDbDimension
  2
_D_6
 10
47.1612705232
 20
146.960392559
 30
0.0
 11
47.1612705232
 21
115.460392559
 31
0.0
 70
   160
  1
HSK A %%c<>
 71
     2
 42
-1.0
  3
SLDDIMSTYLE0
100
AcDbAlignedDimension
 13
91.4397837525
 23
83.960392559
 33
0.0
 14
91.4397837525
 24
146.960392559
 34
0.0
 50
90.0
100
AcDbRotatedDimension
  0
DIMENSION
  5
178
330
1F
100
AcDbEntity
  8
VERMASSUNG
100
AcDbDimension
  2
_D_7
 10
229.1397837525
 20
124.075392559
 30
0.0
 11
229.1397837525
 21
115.460392559
 31
0.0
 70
   160
  1
SW<>
 71
     2
 42
-1.0
  3
SLDDIMSTYLE0
100
AcDbAlignedDimension
 13
213.1397837525
 23
106.845392559
 33
0.0
 14
213.1397837525
 24
124.075392559
 34
0.0
 50
90.0
100
AcDbRotatedDimension
  0
LINE
  5
183
330
1F
100
AcDbEntity
  8
VERMASSUNG
  6
CENTERX2
370
    18
100
AcDbLine
 10
54.9157434402
 20
115.460392559
 30
0.0
 11
218.2691268989
 21
115.460392559
 31
0.0
  0
SPLINE
  5
184
330
1F
100
AcDbEntity
  8
0
  6
Continuous
 62
     7
370
    25
100
AcDbSpline
210
0.0
220
0.0
230
1.0
 70
     8
 71
     3
 72
    16
 73
    12
 74
     0
 42
0.000000001
 43
0.00000001
 40
0.0
 40
0.0
 40
0.0
 40
0.0
 40
0.074288711489585
 40
0.2026751633253558
 40
0.3314124052485354
 40
0.4606484410959992
 40
0.5904042670021404
 40
0.7200759992712101
 40
0.84805267952097
 40
0.9726342711249681
 40
1.0
 40
1.0
 40
1.0
 40
1.0
 10
253.1264687654881
 20
22.48238063553849
 30
0.0
 10
253.1843397453836
 20
22.60885732039709
 30
0.0
 10
253.3422238985333
 20
22.95391220486844
 30
0.0
 10
253.509629191391
 20
23.53034536028481
 30
0.0
 10
253.6269731777807
 20
24.18418661699091
 30
0.0
 10
253.6447828130935
 20
24.80589021425552
 30
0.0
 10
253.563638314275
 20
25.37372794412243
 30
0.0
 10
253.3831179818204
 20
25.87136274341824
 30
0.0
 10
253.1011345596116
 20
26.26430646349097
 30
0.0
 10
252.8419122133662
 20
26.50233581958923
 30
0.0
 10
252.6667710845682
 20
26.56633239513812
 30
0.0
 10
252.6352281483029
 20
26.57785818532566
 30
0.0
  0
SPLINE
  5
185
330
1F
100
AcDbEntity
  8
0
  6
Continuous
 62
     7
370
    25
100
AcDbSpline
210
0.0
220
0.0
230
1.0
 70
     8
 71
     3
 72
    18
 73
    14
 74
     0
 42
0.000000001
 43
0.00000001
 40
0.0
 40
0.0
 40
0.0
 40
0.0
 40
0.0355155335526992
 40
0.1339997936964255
 40
0.232487948368869
 40
0.3329578704951073
 40
0.4357471024460213
 40
0.5398268445945601
 40
0.6441588069342018
 40
0.7483287611380058
 40
0.8523335018037942
 40
0.956267704413201
 40
1.0
 40
1.0
 40
1.0
 40
1.0
 10
248.6861856637545
 20
19.6570678918619
 30
0.0
 10
248.7290564086904
 20
19.62487483801113
 30
0.0
 10
248.8908073498244
 20
19.50341073081818
 30
0.0
 10
249.2400534980798
 20
19.4121647179223
 30
0.0
 10
249.7079677519858
 20
19.38838643541402
 30
0.0
 10
250.2098554085703
 20
19.49068654858157
 30
0.0
 10
250.7292308280812
 20
19.70809755278184
 30
0.0
 10
251.2519949964789
 20
20.03839556810635
 30
0.0
 10
251.7584181785309
 20
20.46955285214894
 30
0.0
 10
252.2325670552321
 20
20.98564781900273
 30
0.0
 10
252.6531464980999
 20
21.57024671696155
 30
0.0
 10
252.9565386596781
 20
22.07771640840481
 30
0.0
 10
253.0876418038887
 20
22.38991978328005
 30
0.0
 10
253.1264687654881
 20
22.48238063553849
 30
0.0
  0
LINE
  5
186
330
1F
100
AcDbEntity
  8
0
  6
Continuous
 62
     7
370
    25
100
AcDbLine
 10
246.4336368084
 20
20.9379001449
 30
0.0
 11
248.7317332361
 21
19.611237316
 31
0.0
  0
LINE
  5
187
330
1F
100
AcDbEntity
  8
0
  6
Continuous
 62
     7
370
    25
100
AcDbLine
 10
252.7314085737
 20
26.5396283908
 30
0.0
 11
250.433312146
 21
27.8662912197
 31
0.0
  0
SPLINE
  5
188
330
1F
100
AcDbEntity
  8
0
  6
Continuous
 62
     7
370
    25
100
AcDbSpline
210
0.0
220
0.0
230
1.0
 70
     8
 71
     3
 72
    16
 73
    12
 74
     0
 42
0.000000001
 43
0.00000001
 40
0.0
 40
0.0
 40
0.0
 40
0.0
 40
0.0742886401636923
 40
0.2026751958149499
 40
0.3314124749341715
 40
0.4606485389216485
 40
0.5904044023181311
 40
0.720076172053245
 40
0.8480528892792977
 40
0.9726345168786461
 40
1.0
 40
1.0
 40
1.0
 40
1.0
 10
274.339672385477
 20
34.7285024193266
 30
0.0
 10
274.3975430851481
 20
34.85497898403008
 30
0.0
 10
274.5554266506829
 20
35.20003392729998
 30
0.0
 10
274.7228330043336
 20
35.77646699518887
 30
0.0
 10
274.840176961715
 20
36.43030851184959
 30
0.0
 10
274.8579855468507
 20
37.05201149574253
 30
0.0
 10
274.7768413533997
 20
37.61984942633318
 30
0.0
 10
274.5963208593159
 20
38.11748396967904
 30
0.0
 10
274.3143377734517
 20
38.51042848253057
 30
0.0
 10
274.0551148060455
 20
38.74845551660909
 30
0.0
 10
273.87997490268
 20
38.81245425683499
 30
0.0
 10
273.8484324268363
 20
38.82398034928343
 30
0.0
  0
SPLINE
  5
189
330
1F
100
AcDbEntity
  8
0
  6
Continuous
 62
     7
370
    25
100
AcDbSpline
210
0.0
220
0.0
230
1.0
 70
     8
 71
     3
 72
    10
 73
     6
 74
     0
 42
0.000000001
 43
0.00000001
 40
0.0
 40
0.0
 40
0.0
 40
0.0
 40
0.2375794185015901
 40
0.7742045497370054
 40
1.0
 40
1.0
 40
1.0
 40
1.0
 10
273.6724061140305
 20
33.56718763634228
 30
0.0
 10
273.7355448202106
 20
33.65178006993149
 30
0.0
 10
273.9412961175975
 20
33.92744303506181
 30
0.0
 10
274.1691308429117
 20
34.32454931474274
 30
0.0
 10
274.3007056988878
 20
34.63620400460439
 30
0.0
 10
274.339672385477
 20
34.7285024193266
 30
0.0
  0
LINE
  5
18A
330
1F
100
AcDbEntity
  8
0
  6
Continuous
 62
     7
370
    25
100
AcDbLine
 10
273.9446128522
 20
38.7857505548
 30
0.0
 11
271.6465164245
 21
40.1124133837
 31
0.0
  0
SPLINE
  5
18B
330
1F
100
AcDbEntity
  8
0
  6
Continuous
 62
     7
370
    25
100
AcDbSpline
210
0.0
220
0.0
230
1.0
 70
     8
 71
     3
 72
    26
 73
    22
 74
     0
 42
0.000000001
 43
0.00000001
 40
0.0
 40
0.0
 40
0.0
 40
0.0
 40
0.0201356243524374
 40
0.07326195563091
 40
0.1262738110022462
 40
0.17982131179264
 40
0.2343560877677734
 40
0.289864742821091
 40
0.3460249355361716
 40
0.4024751592996177
 40
0.4589451038900824
 40
0.5153355224557165
 40
0.5716352265798478
 40
0.627864627324373
 40
0.6840571463416278
 40
0.7402514110468302
 40
0.7964791571591239
 40
0.852777708785518
 40
0.9091886830787844
 40
0.965749180245209
 40
1.0
 40
1.0
 40
1.0
 40
1.0
 10
273.1515227621798
 20
13.74606137047336
 30
0.0
 10
273.2131383923822
 20
13.69909578045721
 30
0.0
 10
273.4373222312869
 20
13.52821501154144
 30
0.0
 10
273.895585631849
 20
13.35158024715945
 30
0.0
 10
274.5062671446182
 20
13.22172499545289
 30
0.0
 10
275.160817027994
 20
13.21907554617595
 30
0.0
 10
275.8462346373327
 20
13.33430182482502
 30
0.0
 10
276.5553547266757
 20
13.56980581746954
 30
0.0
 10
277.2755607341006
 20
13.92223284475602
 30
0.0
 10
277.9929320976206
 20
14.3853088822803
 30
0.0
 10
278.6936195123423
 20
14.94950329951839
 30
0.0
 10
279.3650738167271
 20
15.60356972165861
 30
0.0
 10
279.9960334805351
 20
16.33535910118142
 30
0.0
 10
280.5761637876026
 20
17.13191076964635
 30
0.0
 10
281.0959025419526
 20
17.97947922468152
 30
0.0
 10
281.5465814258985
 20
18.86365108251271
 30
0.0
 10
281.9203040828007
 20
19.76947835335142
 30
0.0
 10
282.2108877185901
 20
20.68213612888221
 30
0.0
 10
282.4109363583686
 20
21.58570449711022
 30
0.0
 10
282.5079652418656
 20
22.3520754592854
 30
0.0
 10
282.5174636252
 20
22.80322480279218
 30
0.0
 10
282.5210460797506
 20
22.9733823929563
 30
0.0
  0
SPLINE
  5
18C
330
1F
100
AcDbEntity
  8
0
  6
Continuous
 62
     7
370
    25
100
AcDbSpline
210
0.0
220
0.0
230
1.0
 70
     8
 71
     3
 72
    14
 73
    10
 74
     0
 42
0.000000001
 43
0.00000001
 40
0.0
 40
0.0
 40
0.0
 40
0.0
 40
0.0934319320537204
 40
0.2703908206555578
 40
0.4473897385743539
 40
0.6230982772939546
 40
0.7960548640075987
 40
0.9653234557594217
 40
1.0
 40
1.0
 40
1.0
 40
1.0
 10
282.5210460797506
 20
22.9733823929563
 30
0.0
 10
282.5182701925942
 20
23.11956257758004
 30
0.0
 10
282.5102368105399
 20
23.54260616894307
 30
0.0
 10
282.420589425142
 20
24.20203181984555
 30
0.0
 10
282.2180594865617
 20
24.91672063059271
 30
0.0
 10
281.9168575203045
 20
25.54914032475063
 30
0.0
 10
281.5173932885862
 20
26.07108208467931
 30
0.0
 10
281.1773868341983
 20
26.40270711274277
 30
0.0
 10
280.9553138668734
 20
26.52005251633075
 30
0.0
 10
280.9175550694468
 20
26.54000461305101
 30
0.0
  0
LINE
  5
18D
330
1F
100
AcDbEntity
  8
0
  6
Continuous
 62
     7
370
    25
100
AcDbLine
 10
280.8209943346
 20
26.6113198094
 30
0.0
 11
274.1034794708
 21
30.489258596
 31
0.0
  0
LINE
  5
18E
330
1F
100
AcDbEntity
  8
0
  6
Continuous
 62
     7
370
    25
100
AcDbLine
 10
266.6040892006
 20
17.4985260436
 30
0.0
 11
273.3216040644
 21
13.620587257
 31
0.0
  0
LINE
  5
18F
330
1F
100
AcDbEntity
  8
0
  6
Continuous
 62
     7
370
    25
100
AcDbLine
 10
270.0582703903
 20
29.9378350238
 30
0.0
 11
270.0221321019
 21
29.9586972136
 31
0.0
  0
LINE
  5
190
330
1F
100
AcDbEntity
  8
0
  6
Continuous
 62
     7
370
    25
100
AcDbLine
 10
265.02057876
 20
21.2993402302
 30
0.0
 11
265.0586768768
 21
21.2773466555
 31
0.0
  0
SPLINE
  5
191
330
1F
100
AcDbEntity
  8
0
  6
Continuous
 62
     7
370
    25
100
AcDbSpline
210
0.0
220
0.0
230
1.0
 70
     8
 71
     3
 72
    19
 73
    15
 74
     0
 42
0.000000001
 43
0.00000001
 40
0.0
 40
0.0
 40
0.0
 40
0.0
 40
0.0087742650126313
 40
0.1057346910635602
 40
0.2031836383166218
 40
0.3011294780277545
 40
0.3994974339278902
 40
0.4981741355231094
 40
0.5970451450545726
 40
0.6960165945054098
 40
0.7950190751288767
 40
0.8940031154677848
 40
0.992950172957601
 40
1.0
 40
1.0
 40
1.0
 40
1.0
 10
251.1833028028725
 20
12.53744816853444
 30
0.0
 10
251.2124494488496
 20
12.531042833083
 30
0.0
 10
251.5636824699044
 20
12.4538550385335
 30
0.0
 10
252.2820733581778
 20
12.41880756922933
 30
0.0
 10
253.3345393367277
 20
12.4417798155689
 30
0.0
 10
254.4278913885596
 20
12.59843613221909
 30
0.0
 10
255.5486098316044
 20
12.87196619627346
 30
0.0
 10
256.6906803127325
 20
13.26521180110343
 30
0.0
 10
257.8457522644881
 20
13.77405986754504
 30
0.0
 10
259.0056592449862
 20
14.39606284289684
 30
0.0
 10
260.1634997824863
 20
15.12331314165973
 30
0.0
 10
261.307804985737
 20
15.96294532604457
 30
0.0
 10
262.0932652459617
 20
16.58464268078489
 30
0.0
 10
262.4867491232666
 20
16.94937682930714
 30
0.0
 10
262.5129196403644
 20
16.97363520892733
 30
0.0
  0
SPLINE
  5
192
330
1F
100
AcDbEntity
  8
0
  6
Continuous
 62
     7
370
    25
100
AcDbSpline
210
0.0
220
0.0
230
1.0
 70
     8
 71
     3
 72
    15
 73
    11
 74
     0
 42
0.000000001
 43
0.00000001
 40
0.0
 40
0.0
 40
0.0
 40
0.0
 40
0.0579668402315295
 40
0.2130589007133762
 40
0.3681366950821227
 40
0.523088346211547
 40
0.6777600556627998
 40
0.8319580020518739
 40
0.9854810038370554
 40
1.0
 40
1.0
 40
1.0
 40
1.0
 10
272.9515988569961
 20
39.35900453795621
 30
0.0
 10
272.9484601443712
 20
39.52430647063415
 30
0.0
 10
272.9369237097674
 20
40.13187879856314
 30
0.0
 10
272.818092167641
 20
41.12231351039272
 30
0.0
 10
272.5961910487294
 20
42.32040524111247
 30
0.0
 10
272.27335372912
 20
43.43856834316635
 30
0.0
 10
271.8622290593435
 20
44.47694129713105
 30
0.0
 10
271.3524889849929
 20
45.41269318565254
 30
0.0
 10
270.9584861654893
 20
46.02694134739779
 30
0.0
 10
270.7121723908707
 20
46.29688946373217
 30
0.0
 10
270.6908906351654
 20
46.32021325012551
 30
0.0
  0
LINE
  5
193
330
1F
100
AcDbEntity
  8
0
  6
Continuous
 62
     7
370
    25
100
AcDbLine
 10
243.527425894
 20
16.3870348702
 30
0.0
 11
248.6873354825
 21
13.4082824693
 31
0.0
  0
LINE
  5
194
330
1F
100
AcDbEntity
  8
0
  6
Continuous
 62
     7
370
    25
100
AcDbLine
 10
239.4949484545
 20
18.7149345453
 30
0.0
 11
241.0808829975
 21
17.7993940215
 31
0.0
  0
LINE
  5
195
330
1F
100
AcDbEntity
  8
0
  6
Continuous
 62
     7
370
    25
100
AcDbLine
 10
261.080481944
 20
52.440640379
 30
0.0
 11
259.4933225082
 21
53.3568880184
 31
0.0
  0
LINE
  5
196
330
1F
100
AcDbEntity
  8
0
  6
Continuous
 62
     7
370
    25
100
AcDbLine
 10
268.6857095362
 20
48.0502359424
 30
0.0
 11
263.5407396885
 21
51.0203638146
 31
0.0
  0
SPLINE
  5
197
330
1F
100
AcDbEntity
  8
0
  6
Continuous
 62
     7
370
    25
100
AcDbSpline
210
0.0
220
0.0
230
1.0
 70
     8
 71
     3
 72
    14
 73
    10
 74
     0
 42
0.000000001
 43
0.00000001
 40
0.0
 40
0.0
 40
0.0
 40
0.0
 40
0.1344701964337559
 40
0.2852467882289773
 40
0.4365423983201535
 40
0.5894744841674324
 40
0.7444379082351112
 40
0.9011407190310565
 40
0.9999999999999999
 40
0.9999999999999999
 40
0.9999999999999999
 40
0.9999999999999999
 10
263.1073946824377
 20
16.64155910785581
 30
0.0
 10
263.2857020060501
 20
16.53742684995117
 30
0.0
 10
263.663938914503
 20
16.31653483888788
 30
0.0
 10
264.3164214548968
 20
16.12196177378137
 30
0.0
 10
265.0344198823879
 20
16.02958038362416
 30
0.0
 10
265.7937521476977
 20
16.05901282818275
 30
0.0
 10
266.5851728745176
 20
16.21280355688296
 30
0.0
 10
267.2974971131655
 20
16.43714044623745
 30
0.0
 10
267.7439274121754
 20
16.65611263168156
 30
0.0
 10
267.9166203888922
 20
16.74081781098147
 30
0.0
  0
SPLINE
  5
198
330
1F
100
AcDbEntity
  8
0
  6
Continuous
 62
     7
370
    25
100
AcDbSpline
210
0.0
220
0.0
230
1.0
 70
     8
 71
     3
 72
    14
 73
    10
 74
     0
 42
0.000000001
 43
0.00000001
 40
0.0
 40
0.0
 40
0.0
 40
0.0
 40
0.1011164071165145
 40
0.2721324905823186
 40
0.4427188846118063
 40
0.6121476825539509
 40
0.7795962344326541
 40
0.9446043581086672
 40
1.0
 40
1.0
 40
1.0
 40
1.0
 10
275.4154087905338
 20
29.73189849056459
 30
0.0
 10
275.4035807685607
 20
29.91489060744823
 30
0.0
 10
275.3717482581899
 20
30.40737349864802
 30
0.0
 10
275.2103044503199
 20
31.14002258229659
 30
0.0
 10
274.941732890318
 20
31.92039267553289
 30
0.0
 10
274.5755877545701
 20
32.61074793193958
 30
0.0
 10
274.117314530767
 20
33.19215640588067
 30
0.0
 10
273.7103191695281
 20
33.58380049928952
 30
0.0
 10
273.4368750054161
 20
33.73961786948026
 30
0.0
 10
273.3681483439026
 20
33.77878055446124
 30
0.0
  0
LINE
  5
199
330
1F
100
AcDbEntity
  8
0
  6
Continuous
 62
     7
370
    25
100
AcDbLine
 10
254.9243657365
 20
21.3544138128
 30
0.0
 11
263.2328714481
 21
16.5580155597
 31
0.0
  0
LINE
  5
19A
330
1F
100
AcDbEntity
  8
0
  6
Continuous
 62
     7
370
    25
100
AcDbLine
 10
273.232058475
 20
33.8789922962
 30
0.0
 11
264.9235527634
 21
38.6753905493
 31
0.0
  0
SPLINE
  5
19B
330
1F
100
AcDbEntity
  8
0
  6
Continuous
 62
     7
370
    25
100
AcDbSpline
210
0.0
220
0.0
230
1.0
 70
     8
 71
     3
 72
    34
 73
    30
 74
     0
 42
0.000000001
 43
0.00000001
 40
0.0
 40
0.0
 40
0.0
 40
0.0
 40
0.0193150032120784
 40
0.0567776068312771
 40
0.0944344049197037
 40
0.1322753837239876
 40
0.1702644090662678
 40
0.2083562188173801
 40
0.246508917953544
 40
0.2846899498203964
 40
0.3228745407424809
 40
0.3610488388804385
 40
0.3992074806063727
 40
0.4373488308295521
 40
0.4754736005493216
 40
0.5135838699275825
 40
0.5516825126645624
 40
0.5897727906559057
 40
0.6278582830677728
 40
0.665942568186619
 40
0.7040289758002518
 40
0.742120366877257
 40
0.7802205239460778
 40
0.8183331857320842
 40
0.8564619442707689
 40
0.8946101834732538
 40
0.9327806389157122
 40
0.9709749692594788
 40
1.0
 40
1.0
 40
1.0
 40
1.0
 10
257.0621125034771
 20
54.20636827183773
 30
0.0
 10
256.8936852116766
 20
54.23782181467195
 30
0.0
 10
256.3985831167662
 20
54.33028138451431
 30
0.0
 10
255.527616132946
 20
54.35252528755323
 30
0.0
 10
254.4594670308299
 20
54.28119590254873
 30
0.0
 10
253.3555768711535
 20
54.08286594225277
 30
0.0
 10
252.2263038279581
 20
53.76631708638055
 30
0.0
 10
251.0786862063281
 20
53.33142123128636
 30
0.0
 10
249.9209390591122
 20
52.78180547921118
 30
0.0
 10
248.7609905073663
 20
52.12129738186343
 30
0.0
 10
247.6066818753657
 20
51.35470726623462
 30
0.0
 10
246.4656125732829
 20
50.48745859424594
 30
0.0
 10
245.3451481820883
 20
49.5255408458968
 30
0.0
 10
244.2524445705768
 20
48.47545492090386
 30
0.0
 10
243.1944520592352
 20
47.34420781495363
 30
0.0
 10
242.1779077006673
 20
46.13927502001786
 30
0.0
 10
241.2092927038816
 20
44.86856603305827
 30
0.0
 10
240.2948043026107
 20
43.540383429624
 30
0.0
 10
239.4403180457443
 20
42.16337065737265
 30
0.0
 10
238.6513478252502
 20
40.74647240686001
 30
0.0
 10
237.93302288257
 20
39.29887988972569
 30
0.0
 10
237.2900324937571
 20
37.82996305039428
 30
0.0
 10
236.7266316084735
 20
36.34920579173887
 30
0.0
 10
236.2465261057218
 20
34.86611518300911
 30
0.0
 10
235.8531311550867
 20
33.39028833567355
 30
0.0
 10
235.5486565392416
 20
31.93088068627757
 30
0.0
 10
235.3373619986976
 20
30.49835539774116
 30
0.0
 10
235.223385111783
 20
29.21008349617824
 30
0.0
 10
235.2109307750316
 20
28.417965799231
 30
0.0
 10
235.2055530460376
 20
28.07593278771256
 30
0.0
  0
SPLINE
  5
19C
330
1F
100
AcDbEntity
  8
0
  6
Continuous
 62
     7
370
    25
100
AcDbSpline
210
0.0
220
0.0
230
1.0
 70
     8
 71
     3
 72
    15
 73
    11
 74
     0
 42
0.000000001
 43
0.00000001
 40
0.0
 40
0.0
 40
0.0
 40
0.0
 40
0.0749197453916957
 40
0.2170994684933411
 40
0.3593397293727254
 40
0.5015042118780053
 40
0.6434671876508409
 40
0.7850620308243598
 40
0.926101496955922
 40
1.0
 40
1.0
 40
1.0
 40
1.0
 10
235.2055530460376
 20
28.07593278771256
 30
0.0
 10
235.2082070897789
 20
27.84202437519113
 30
0.0
 10
235.2158978725303
 20
27.16421384915386
 30
0.0
 10
235.3014980033643
 20
26.08425475824987
 30
0.0
 10
235.493453673392
 20
24.86374892723432
 30
0.0
 10
235.7815661691288
 20
23.71671917211862
 30
0.0
 10
236.1612376922185
 20
22.64893353992644
 30
0.0
 10
236.635821438067
 20
21.67510805345719
 30
0.0
 10
237.0960787034752
 20
20.91908813846191
 30
0.0
 10
237.429386933769
 20
20.52943836905261
 30
0.0
 10
237.5439826907004
 20
20.39547164934621
 30
0.0
  0
SPLINE
  5
19D
330
1F
100
AcDbEntity
  8
0
  6
Continuous
 62
     7
370
    25
100
AcDbSpline
210
0.0
220
0.0
230
1.0
 70
     8
 71
     3
 72
    26
 73
    22
 74
     0
 42
0.000000001
 43
0.00000001
 40
0.0
 40
0.0
 40
0.0
 40
0.0
 40
0.0053216852565276
 40
0.0682260385944396
 40
0.1287350124001949
 40
0.1905817765258355
 40
0.2214716569686742
 40
0.280778486204579
 40
0.3402918525966699
 40
0.3999906929983633
 40
0.4598385166713819
 40
0.5197718467327861
 40
0.5797183528268547
 40
0.6395815849080536
 40
0.6992823369579301
 40
0.7587497191776253
 40
0.8179340194706862
 40
0.8768493136819284
 40
0.9356587791337578
 40
0.9946791979274857
 40
1.0
 40
1.0
 40
1.0
 40
1.0
 10
265.0764654810916
 20
21.19862130851358
 30
0.0
 10
265.0686860876278
 20
21.20837661987478
 30
0.0
 10
264.9689512906392
 20
21.33344343937783
 30
0.0
 10
264.8348921177216
 20
21.67076878757523
 30
0.0
 10
264.6965622134809
 20
22.21841659943617
 30
0.0
 10
264.658934386281
 20
22.75303005380004
 30
0.0
 10
264.6778796444412
 20
23.32143501019569
 30
0.0
 10
264.7524421289035
 20
23.91566562151402
 30
0.0
 10
264.9280448363926
 20
24.65640423758764
 30
0.0
 10
265.187767058605
 20
25.41282050375106
 30
0.0
 10
265.5259433780652
 20
26.16491431342744
 30
0.0
 10
265.9344391117681
 20
26.89305327401851
 30
0.0
 10
266.4027393990391
 20
27.57809625970421
 30
0.0
 10
266.9182939775136
 20
28.20220210716117
 30
0.0
 10
267.4667379148203
 20
28.74932185715998
 30
0.0
 10
268.0325909239591
 20
29.2062401420934
 30
0.0
 10
268.5986550598659
 20
29.56167327233274
 30
0.0
 10
269.1502755553951
 20
29.81255915179321
 30
0.0
 10
269.6628389013535
 20
29.94384584416149
 30
0.0
 10
270.0025675161884
 20
29.98731737086109
 30
0.0
 10
270.1501607301296
 20
29.96241685138452
 30
0.0
 10
270.1623661913885
 20
29.96035766236302
 30
0.0
  0
LINE
  5
19E
330
1F
100
AcDbEntity
  8
0
  6
Continuous
 62
     7
370
    25
100
AcDbLine
 10
263.8854818115
 20
39.0654742381
 30
0.0
 11
263.385362368
 21
39.1673699153
 31
0.0
  0
LINE
  5
19F
330
1F
100
AcDbEntity
  8
0
  6
Continuous
 62
     7
370
    25
100
AcDbLine
 10
253.7291021862
 20
22.4404237749
 30
0.0
 11
254.0674419395
 21
22.0582874171
 31
0.0
  0
LINE
  5
1A0
330
1F
100
AcDbEntity
  8
0
  6
Continuous
 62
     7
370
    25
100
AcDbLine
 10
226.5230449471
 20
31.1107986105
 30
0.0
 11
231.5817107055
 21
28.1904930286
 31
0.0
  0
LINE
  5
1A1
330
1F
100
AcDbEntity
  8
0
  6
Continuous
 62
     7
370
    25
100
AcDbLine
 10
244.4650660096
 20
57.1251722611
 30
0.0
 11
242.2717654364
 21
58.3913377309
 31
0.0
  0
LINE
  5
1A2
330
1F
100
AcDbEntity
  8
0
  6
Continuous
 62
     7
370
    25
100
AcDbLine
 10
233.980168987
 20
26.8058925348
 30
0.0
 11
235.3795576272
 21
25.9980426684
 31
0.0
  0
LINE
  5
1A3
330
1F
100
AcDbEntity
  8
0
  6
Continuous
 62
     7
370
    25
100
AcDbLine
 10
235.0954714046
 20
57.9806602871
 30
0.0
 11
228.9050891508
 21
61.0648796067
 31
0.0
  0
LINE
  5
1A4
330
1F
100
AcDbEntity
  8
0
  6
Continuous
 62
     7
370
    25
100
AcDbLine
 10
217.5233913209
 20
41.3490642263
 30
0.0
 11
223.2899534272
 21
37.5306866511
 31
0.0
  0
SPLINE
  5
1A5
330
1F
100
AcDbEntity
  8
0
  6
Continuous
 62
     7
370
    25
100
AcDbSpline
210
0.0
220
0.0
230
1.0
 70
     8
 71
     3
 72
    25
 73
    21
 74
     0
 42
0.000000001
 43
0.00000001
 40
0.0
 40
0.0
 40
0.0
 40
0.0
 40
0.0200807994987313
 40
0.0780663284106295
 40
0.1363246790084813
 40
0.1952242963486608
 40
0.2548919096674311
 40
0.3152277731372993
 40
0.3760137599877457
 40
0.4370295890375663
 40
0.4981076498212604
 40
0.5591467406934311
 40
0.6201191360894764
 40
0.6810227442395561
 40
0.7418688643520394
 40
0.8026751613297028
 40
0.8634623692903258
 40
0.9242524110005895
 40
0.9850621810542312
 40
1.0
 40
1.0
 40
1.0
 40
1.0
 10
228.7788050095609
 20
61.10885847505117
 30
0.0
 10
228.7026730278838
 20
61.14829991771619
 30
0.0
 10
228.4067015311049
 20
61.30163288716647
 30
0.0
 10
227.8304462660688
 20
61.44845705264472
 30
0.0
 10
227.0626474217197
 20
61.54613287288366
 30
0.0
 10
226.2507891448723
 20
61.51547489751103
 30
0.0
 10
225.4069815129193
 20
61.36617190976343
 30
0.0
 10
224.5385214494773
 20
61.09586305450054
 30
0.0
 10
223.6562763612891
 20
60.70780298717486
 30
0.0
 10
222.7713957932863
 20
60.2065952548005
 30
0.0
 10
221.8950346322601
 20
59.5990493426689
 30
0.0
 10
221.0376303911361
 20
58.89319122820718
 30
0.0
 10
220.2088609655047
 20
58.09793269343859
 30
0.0
 10
219.4178241287061
 20
57.22280570201343
 30
0.0
 10
218.6729460899993
 20
56.27803399395339
 30
0.0
 10
217.9829581537324
 20
55.2744060363372
 30
0.0
 10
217.3531643251125
 20
54.22342967971427
 30
0.0
 10
216.7991279751979
 20
53.13638829628439
 30
0.0
 10
216.4220921676192
 20
52.30652733673384
 30
0.0
 10
216.2582076214589
 20
51.84190977876722
 30
0.0
 10
216.2258887356581
 20
51.75028477721127
 30
0.0
  0
LINE
  5
1A6
330
1F
100
AcDbEntity
  8
0
  6
Continuous
 62
     7
370
    25
100
AcDbLine
 10
216.3392051477
 20
49.9052046444
 30
0.0
 11
218.892765478
 21
48.4310656436
 31
0.0
  0
LINE
  5
1A7
330
1F
100
AcDbEntity
  8
0
  6
Continuous
 62
     7
370
    25
100
AcDbLine
 10
216.040912803
 20
51.0335143177
 30
0.0
 11
216.040912803
 21
50.5681083483
 31
0.0
  0
SPLINE
  5
1A8
330
1F
100
AcDbEntity
  8
0
  6
Continuous
 62
     7
370
    25
100
AcDbSpline
210
0.0
220
0.0
230
1.0
 70
     8
 71
     3
 72
    10
 73
     6
 74
     0
 42
0.000000001
 43
0.00000001
 40
0.0
 40
0.0
 40
0.0
 40
0.0
 40
0.3003748710356416
 40
0.954930294996223
 40
1.0
 40
1.0
 40
1.0
 40
1.0
 10
218.924909694023
 20
41.1854181771528
 30
0.0
 10
218.9210246229674
 20
41.22110385249961
 30
0.0
 10
218.9086734830854
 20
41.33455319787451
 30
0.0
 10
218.9209109900168
 20
41.51010185488019
 30
0.0
 10
218.961052152661
 20
41.64126237897818
 30
0.0
 10
218.963638037993
 20
41.64971171260629
 30
0.0
  0
LINE
  5
1A9
330
1F
100
AcDbEntity
  8
0
  6
Continuous
 62
     7
370
    25
100
AcDbLine
 10
216.040912803
 20
43.5621656529
 30
0.0
 11
216.040912803
 21
43.0967596835
 31
0.0
  0
SPLINE
  5
1AA
330
1F
100
AcDbEntity
  8
0
  6
Continuous
 62
     7
370
    25
100
AcDbSpline
210
0.0
220
0.0
230
1.0
 70
     8
 71
     3
 72
    11
 73
     7
 74
     0
 42
0.000000001
 43
0.00000001
 40
0.0
 40
0.0
 40
0.0
 40
0.0
 40
0.289937616766737
 40
0.6448968600872557
 40
0.9949773669489723
 40
1.0
 40
1.0
 40
1.0
 40
1.0
 10
216.1562911178765
 20
42.81067496358578
 30
0.0
 10
216.2725863391779
 20
42.62523781967041
 30
0.0
 10
216.5312572349961
 20
42.21277725940175
 30
0.0
 10
217.0442964288283
 20
41.70469663225363
 30
0.0
 10
217.4375090133735
 20
41.37183773915862
 30
0.0
 10
217.6653786786153
 20
41.25980624845905
 30
0.0
 10
217.6686017019664
 20
41.25822165794238
 30
0.0
  0
LINE
  5
1AB
330
1F
100
AcDbEntity
  8
0
  6
Continuous
 62
     7
370
    25
100
AcDbLine
 10
252.6510720706
 20
26.5824218527
 30
0.0
 11
252.7314085737
 21
26.5396283908
 31
0.0
  0
LWPOLYLINE
  5
1AC
330
1F
100
AcDbEntity
  8
0
  6
Continuous
 62
     7
370
    25
100
AcDbPolyline
 90
        3
 70
   128
 43
0.0
 10
248.7317332361
 20
19.611237316
 10
248.7315712342
 20
19.6113314385
 10
248.6840230036
 20
19.6401275955
  0
LWPOLYLINE
  5
1AD
330
1F
100
AcDbEntity
  8
0
  6
Continuous
 62
     7
370
    25
100
AcDbPolyline
 90
       13
 70
   128
 43
0.0
 10
245.6050482059
 20
22.7692799514
 10
245.65939525
 20
23.4378506792
 10
245.8203487961
 20
24.1434769354
 10
246.0817237942
 20
24.8590420018
 10
246.4334748064
 20
25.557046629
 10
246.8620845482
 20
26.2106670423
 10
247.3510828213
 20
26.7947857471
 10
247.8816760827
 20
27.2869539313
 10
248.4334751357
 20
27.6682594652
 10
248.9852735302
 20
27.9240471768
 10
249.5158667916
 20
28.0444889324
 10
250.0048650647
 20
28.0249556163
 10
250.433312146
 20
27.8662912197
  0
ARC
  5
1AE
330
1F
100
AcDbEntity
  8
0
  6
Continuous
 62
     7
370
    25
100
AcDbCircle
 10
247.5674953977
 20
22.5540356004
 30
0.0
 40
1.974216075062509
100
AcDbArc
 50
173.7407269213
 51
234.9470241428
  0
LWPOLYLINE
  5
1AF
330
1F
100
AcDbEntity
  8
0
  6
Continuous
 62
     7
370
    25
100
AcDbPolyline
 90
       20
 70
   128
 43
0.0
 10
249.8830428918
 20
22.3814856165
 10
249.9385977065
 20
22.7979957676
 10
250.0992391025
 20
23.2335111476
 10
250.3475604314
 20
23.6408377793
 10
250.6566509304
 20
23.9758346005
 10
250.9930176844
 20
24.2022007307
 10
251.3202089377
 20
24.2954050612
 10
251.6027686541
 20
24.245347599
 10
251.8100771482
 20
24.0574529851
 10
251.919669491
 20
23.7520825113
 10
251.919669491
 20
23.3623277414
 10
251.8100771482
 20
22.9304246418
 10
251.6027686541
 20
22.5031767355
 10
251.3202089377
 20
22.1268827689
 10
250.9930176844
 20
21.8423201193
 10
250.6566509304
 20
21.6803254618
 10
250.3475604314
 20
21.658453989
 10
250.0992391025
 20
21.7790749171
 10
249.9385977065
 20
22.0291176891
 10
249.8830428918
 20
22.3814856165
  0
SPLINE
  5
1B0
330
1F
100
AcDbEntity
  8
0
  6
Continuous
 62
     7
370
    25
100
AcDbSpline
210
0.0
220
0.0
230
1.0
 70
     8
 71
     3
 72
    10
 73
     6
 74
     0
 42
0.000000001
 43
0.00000001
 40
0.0
 40
0.0
 40
0.0
 40
0.0
 40
0.2693778725034243
 40
0.9660840045951541
 40
1.0
 40
1.0
 40
1.0
 40
1.0
 10
250.0197817563571
 20
21.87654322603841
 30
0.0
 10
250.0001026726308
 20
21.93757768205652
 30
0.0
 10
249.9295265416504
 20
22.15646875555225
 30
0.0
 10
249.8622950503354
 20
22.40241990848742
 30
0.0
 10
249.885199914475
 20
22.53637364596458
 30
0.0
 10
249.8862631744526
 20
22.54259187310795
 30
0.0
  0
SPLINE
  5
1B1
330
1F
100
AcDbEntity
  8
0
  6
Continuous
 62
     7
370
    25
100
AcDbSpline
210
0.0
220
0.0
230
1.0
 70
     8
 71
     3
 72
    10
 73
     6
 74
     0
 42
0.000000001
 43
0.00000001
 40
0.0
 40
0.0
 40
0.0
 40
0.0
 40
0.4391259271787122
 40
0.7513739080116174
 40
1.0
 40
1.0
 40
1.0
 40
1.0
 10
250.9036650484478
 20
21.79751059960622
 30
0.0
 10
250.7165894311246
 20
21.84377259775358
 30
0.0
 10
250.3964905050948
 20
21.92292997878943
 30
0.0
 10
250.1277964346236
 20
21.92449224496848
 30
0.0
 10
250.0529568791084
 20
21.89127006330109
 30
0.0
 10
250.0197817563571
 20
21.87654322603841
 30
0.0
  0
SPLINE
  5
1B2
330
1F
100
AcDbEntity
  8
0
  6
Continuous
 62
     7
370
    25
100
AcDbSpline
210
0.0
220
0.0
230
1.0
 70
     8
 71
     3
 72
    10
 73
     6
 74
     0
 42
0.000000001
 43
0.00000001
 40
0.0
 40
0.0
 40
0.0
 40
0.0
 40
0.4391253862650267
 40
0.7513738763982162
 40
1.0
 40
1.0
 40
1.0
 40
1.0
 10
251.7875483405385
 20
22.89705315292179
 30
0.0
 10
251.6004730257449
 20
22.77458947240765
 30
0.0
 10
251.2803742365348
 20
22.56504565366251
 30
0.0
 10
251.0116797407856
 20
22.14693354829418
 30
0.0
 10
250.9368401562758
 20
21.90483066643607
 30
0.0
 10
250.9036650484478
 20
21.79751059960622
 30
0.0
  0
SPLINE
  5
1B3
330
1F
100
AcDbEntity
  8
0
  6
Continuous
 62
     7
370
    25
100
AcDbSpline
210
0.0
220
0.0
230
1.0
 70
     8
 71
     3
 72
    11
 73
     7
 74
     0
 42
0.000000001
 43
0.00000001
 40
0.0
 40
0.0
 40
0.0
 40
0.0
 40
0.184241996819023
 40
0.5169670674472885
 40
0.8653135927090866
 40
0.9999999999999999
 40
0.9999999999999999
 40
0.9999999999999999
 40
0.9999999999999999
 10
251.7875483405385
 20
24.07562833266955
 30
0.0
 10
251.7600660073189
 20
24.02314762281332
 30
0.0
 10
251.6829529632984
 20
23.87589130156003
 30
0.0
 10
251.6254921354914
 20
23.55190542099499
 30
0.0
 10
251.6941057912495
 20
23.17919558457816
 30
0.0
 10
251.7671742961464
 20
22.95857097827228
 30
0.0
 10
251.7875483405385
 20
22.89705315292179
 30
0.0
  0
SPLINE
  5
1B4
330
1F
100
AcDbEntity
  8
0
  6
Continuous
 62
     7
370
    25
100
AcDbSpline
210
0.0
220
0.0
230
1.0
 70
     8
 71
     3
 72
    10
 73
     6
 74
     0
 42
0.000000001
 43
0.00000001
 40
0.0
 40
0.0
 40
0.0
 40
0.0
 40
0.439125404033696
 40
0.7513739128717637
 40
1.0
 40
1.0
 40
1.0
 40
1.0
 10
250.9036650484478
 20
24.15466095910174
 30
0.0
 10
250.9696646029284
 20
24.17829428014864
 30
0.0
 10
251.0825944016655
 20
24.21873252568406
 30
0.0
 10
251.4433769889322
 20
24.16400972975859
 30
0.0
 10
251.6818412321462
 20
24.10277336341761
 30
0.0
 10
251.7875483405385
 20
24.07562833266955
 30
0.0
  0
SPLINE
  5
1B5
330
1F
100
AcDbEntity
  8
0
  6
Continuous
 62
     7
370
    25
100
AcDbSpline
210
0.0
220
0.0
230
1.0
 70
     8
 71
     3
 72
     9
 73
     5
 74
     0
 42
0.000000001
 43
0.00000001
 40
0.0
 40
0.0
 40
0.0
 40
0.0
 40
0.3723142283607826
 40
1.0
 40
1.0
 40
1.0
 40
1.0
 10
249.9457178897223
 20
22.77409127012484
 30
0.0
 10
250.007299984228
 20
22.8862187407118
 30
0.0
 10
250.1727035326684
 20
23.18738227958763
 30
0.0
 10
250.4579254450793
 20
23.41709133787791
 30
0.0
 10
250.6369551812593
 20
23.56127644538337
 30
0.0
  0
SPLINE
  5
1B6
330
1F
100
AcDbEntity
  8
0
  6
Continuous
 62
     7
370
    25
100
AcDbSpline
210
0.0
220
0.0
230
1.0
 70
     8
 71
     3
 72
     9
 73
     5
 74
     0
 42
0.000000001
 43
0.00000001
 40
0.0
 40
0.0
 40
0.0
 40
0.0
 40
0.4011313178770138
 40
1.0
 40
1.0
 40
1.0
 40
1.0
 10
250.6369551812593
 20
23.56127644538337
 30
0.0
 10
250.6256723242317
 20
23.60928478133589
 30
0.0
 10
250.5975447347747
 20
23.72896712428187
 30
0.0
 10
250.5941824521343
 20
23.83951926384524
 30
0.0
 10
250.5921688863604
 20
23.90572547797142
 30
0.0
  0
LINE
  5
1B7
330
1F
100
AcDbEntity
  8
0
  6
Continuous
 62
     7
370
    25
100
AcDbLine
 10
249.9088387387
 20
22.3718116039
 30
0.0
 11
250.9036650484
 21
21.7975105996
 31
0.0
  0
LINE
  5
1B8
330
1F
100
AcDbEntity
  8
0
  6
Continuous
 62
     7
370
    25
100
AcDbLine
 10
250.6369551813
 20
23.5612764454
 30
0.0
 11
251.7875483405
 21
22.8970531529
 31
0.0
  0
LINE
  5
1B9
330
1F
100
AcDbEntity
  8
0
  6
Continuous
 62
     7
370
    25
100
AcDbLine
 10
273.8642756906
 20
38.8285436365
 30
0.0
 11
273.9446128522
 21
38.7857505548
 31
0.0
  0
LWPOLYLINE
  5
1BA
330
1F
100
AcDbEntity
  8
0
  6
Continuous
 62
     7
370
    25
100
AcDbPolyline
 90
       10
 70
   128
 43
0.0
 10
267.3667377415
 20
37.264970035
 10
267.6466784264
 20
37.8031684128
 10
268.0752881682
 20
38.4567888261
 10
268.5642864413
 20
39.0409075309
 10
269.0948797027
 20
39.5330757151
 10
269.6466780972
 20
39.9143808688
 10
270.1984771502
 20
40.1701689606
 10
270.7290704116
 20
40.2906107162
 10
271.2180686847
 20
40.2710774
 10
271.6465164245
 20
40.1124133837
  0
LWPOLYLINE
  5
1BB
330
1F
100
AcDbEntity
  8
0
  6
Continuous
 62
     7
370
    25
100
AcDbPolyline
 90
       14
 70
   128
 43
0.0
 10
271.159946205
 20
35.0751977135
 10
271.312442064
 20
35.4796325512
 10
271.5607633928
 20
35.886959183
 10
271.8698545504
 20
36.2219563843
 10
272.2062206458
 20
36.4483221343
 10
272.5334118992
 20
36.5415264648
 10
272.8159716156
 20
36.4914690026
 10
273.0232801096
 20
36.3035743888
 10
273.1328724524
 20
35.9982039149
 10
273.1328724524
 20
35.608449145
 10
273.0232801096
 20
35.1765460454
 10
272.8159716156
 20
34.7492981391
 10
272.5334118992
 20
34.3730041725
 10
272.4774672261
 20
34.3146091039
  0
SPLINE
  5
1BC
330
1F
100
AcDbEntity
  8
0
  6
Continuous
 62
     7
370
    25
100
AcDbSpline
210
0.0
220
0.0
230
1.0
 70
     8
 71
     3
 72
     9
 73
     5
 74
     0
 42
0.000000001
 43
0.00000001
 40
0.0
 40
0.0
 40
0.0
 40
0.0
 40
0.6311978020354347
 40
1.0
 40
1.0
 40
1.0
 40
1.0
 10
273.0007513019829
 20
35.14317455654025
 30
0.0
 10
272.8091200088548
 20
35.02201240487258
 30
0.0
 10
272.5055205785175
 20
34.83005648982193
 30
0.0
 10
272.3375679322511
 20
34.53861375765143
 30
0.0
 10
272.2756266271542
 20
34.43112903744614
 30
0.0
  0
SPLINE
  5
1BD
330
1F
100
AcDbEntity
  8
0
  6
Continuous
 62
     7
370
    25
100
AcDbSpline
210
0.0
220
0.0
230
1.0
 70
     8
 71
     3
 72
    11
 73
     7
 74
     0
 42
0.000000001
 43
0.00000001
 40
0.0
 40
0.0
 40
0.0
 40
0.0
 40
0.184241996819023
 40
0.5169670674472885
 40
0.8653135927090866
 40
0.9999999999999999
 40
0.9999999999999999
 40
0.9999999999999999
 40
0.9999999999999999
 10
273.0007513019829
 20
36.32174973628801
 30
0.0
 10
272.9732689687634
 20
36.26926902643178
 30
0.0
 10
272.8961559247429
 20
36.12201270517849
 30
0.0
 10
272.8386950969358
 20
35.79802682461344
 30
0.0
 10
272.9073087526939
 20
35.42531698819663
 30
0.0
 10
272.9803772575908
 20
35.20469238189074
 30
0.0
 10
273.0007513019829
 20
35.14317455654025
 30
0.0
  0
SPLINE
  5
1BE
330
1F
100
AcDbEntity
  8
0
  6
Continuous
 62
     7
370
    25
100
AcDbSpline
210
0.0
220
0.0
230
1.0
 70
     8
 71
     3
 72
    10
 73
     6
 74
     0
 42
0.000000001
 43
0.00000001
 40
0.0
 40
0.0
 40
0.0
 40
0.0
 40
0.4391259271787122
 40
0.7513739080116174
 40
1.0
 40
1.0
 40
1.0
 40
1.0
 10
272.1168680098922
 20
36.4007823627202
 30
0.0
 10
272.1828677994803
 20
36.4244159521549
 30
0.0
 10
272.2957978652345
 20
36.46485460848291
 30
0.0
 10
272.6565801236981
 20
36.4101309629476
 30
0.0
 10
272.8950441770781
 20
36.34889473260149
 30
0.0
 10
273.0007513019829
 20
36.32174973628801
 30
0.0
  0
SPLINE
  5
1BF
330
1F
100
AcDbEntity
  8
0
  6
Continuous
 62
     7
370
    25
100
AcDbSpline
210
0.0
220
0.0
230
1.0
 70
     8
 71
     3
 72
     9
 73
     5
 74
     0
 42
0.000000001
 43
0.00000001
 40
0.0
 40
0.0
 40
0.0
 40
0.0
 40
0.3723152419461976
 40
1.0
 40
1.0
 40
1.0
 40
1.0
 10
271.1589215097112
 20
35.02021305391297
 30
0.0
 10
271.2205038197982
 20
35.13234063824125
 30
0.0
 10
271.3859074969756
 20
35.43350366273133
 30
0.0
 10
271.6711289708703
 20
35.6632128766442
 30
0.0
 10
271.8501581427037
 20
35.80739784900182
 30
0.0
  0
SPLINE
  5
1C0
330
1F
100
AcDbEntity
  8
0
  6
Continuous
 62
     7
370
    25
100
AcDbSpline
210
0.0
220
0.0
230
1.0
 70
     8
 71
     3
 72
     9
 73
     5
 74
     0
 42
0.000000001
 43
0.00000001
 40
0.0
 40
0.0
 40
0.0
 40
0.0
 40
0.4011313178770138
 40
1.0
 40
1.0
 40
1.0
 40
1.0
 10
271.8501581427037
 20
35.80739784900183
 30
0.0
 10
271.8388752856761
 20
35.85540618495435
 30
0.0
 10
271.8107476962192
 20
35.97508852790034
 30
0.0
 10
271.8073854135787
 20
36.0856406674637
 30
0.0
 10
271.8053718478048
 20
36.15184688158988
 30
0.0
  0
LINE
  5
1C1
330
1F
100
AcDbEntity
  8
0
  6
Continuous
 62
     7
370
    25
100
AcDbLine
 10
271.8501581427
 20
35.807397849
 30
0.0
 11
273.000751302
 21
35.1431745565
 31
0.0
  0
LWPOLYLINE
  5
1C2
330
1F
100
AcDbEntity
  8
0
  6
Continuous
 62
     7
370
    25
100
AcDbPolyline
 90
        3
 70
   128
 43
0.0
 10
273.3216040644
 20
13.620587257
 10
273.2564239632
 20
13.6595461835
 10
273.1638441299
 20
13.7196662301
  0
LINE
  5
1C3
330
1F
100
AcDbEntity
  8
0
  6
Continuous
 62
     7
370
    25
100
AcDbLine
 10
280.8209943346
 20
26.6113198094
 30
0.0
 11
280.9113492753
 21
26.556582718
 31
0.0
  0
LWPOLYLINE
  5
1C4
330
1F
100
AcDbEntity
  8
0
  6
Continuous
 62
     7
370
    25
100
AcDbPolyline
 90
       25
 70
   128
 43
0.0
 10
274.1034794708
 20
30.489258596
 10
273.902385332
 20
30.5935165853
 10
273.3193525008
 20
30.782951078
 10
272.678598408
 20
30.8402439243
 10
271.9925944051
 20
30.7642805413
 10
271.2746928934
 20
30.5565393944
 10
270.5388668703
 20
30.2210636943
 10
269.7994384441
 20
29.7643829999
 10
269.0707997758
 20
29.1953867226
 10
268.3671328682
 20
28.5251486756
 10
267.7021339655
 20
27.7667151205
 10
267.0887463484
 20
26.934848232
 10
266.5389090994
 20
26.0457384754
 10
266.0633237315
 20
25.1166919364
 10
265.6712477342
 20
24.165791744
 10
265.3703116625
 20
23.211545328
 10
265.16637327
 20
22.2725265399
 10
265.0634019337
 20
21.3670121151
 10
265.0634019337
 20
20.5126270188
 10
265.16637327
 20
19.7260007683
 10
265.3703116625
 20
19.0224442362
 10
265.6712477342
 20
18.4156512128
 10
266.0633237315
 20
17.9174323313
 10
266.5389090994
 20
17.5374849701
 10
266.6040892006
 20
17.4985260436
  0
LINE
  5
1C5
330
1F
100
AcDbEntity
  8
0
  6
Continuous
 62
     7
370
    25
100
AcDbLine
 10
277.4248533066
 20
23.9732210339
 30
0.0
 11
274.3789907853
 21
20.1841970565
 31
0.0
  0
LINE
  5
1C6
330
1F
100
AcDbEntity
  8
0
  6
Continuous
 62
     7
370
    25
100
AcDbLine
 10
274.3789907853
 20
20.1841970565
 30
0.0
 11
274.3789907853
 21
16.1228271143
 31
0.0
  0
LINE
  5
1C7
330
1F
100
AcDbEntity
  8
0
  6
Continuous
 62
     7
370
    25
100
AcDbLine
 10
277.4248533066
 20
15.8504811494
 30
0.0
 11
274.3789907853
 21
16.1228271143
 31
0.0
  0
LINE
  5
1C8
330
1F
100
AcDbEntity
  8
0
  6
Continuous
 62
     7
370
    25
100
AcDbLine
 10
280.4707158279
 20
19.6395051268
 30
0.0
 11
277.4248533066
 21
15.8504811494
 31
0.0
  0
LINE
  5
1C9
330
1F
100
AcDbEntity
  8
0
  6
Continuous
 62
     7
370
    25
100
AcDbLine
 10
280.4707158279
 20
19.6395051268
 30
0.0
 11
280.4707158279
 21
23.700875069
 31
0.0
  0
LINE
  5
1CA
330
1F
100
AcDbEntity
  8
0
  6
Continuous
 62
     7
370
    25
100
AcDbLine
 10
277.4248533066
 20
23.9732210339
 30
0.0
 11
280.4707158279
 21
23.700875069
 31
0.0
  0
ARC
  5
1CB
330
1F
100
AcDbEntity
  8
0
  6
Continuous
 62
     7
370
    25
100
AcDbCircle
 10
270.1847665853
 20
24.0984547971
 30
0.0
 40
6.77670655995729
100
AcDbArc
 50
320.4788893947
 51
353.6116582221
  0
ARC
  5
1CC
330
1F
100
AcDbEntity
  8
0
  6
Continuous
 62
     7
370
    25
100
AcDbCircle
 10
270.6582058521
 20
23.5593028548
 30
0.0
 40
6.069486423962417
100
AcDbArc
 50
307.8090166298
 51
321.5609398537
  0
LINE
  5
1CD
330
1F
100
AcDbEntity
  8
0
  6
Continuous
 62
     7
370
    25
100
AcDbLine
 10
274.3789901268
 20
17.6088205358
 30
0.0
 11
277.4248533066
 21
15.8504811494
 31
0.0
  0
LINE
  5
1CE
330
1F
100
AcDbEntity
  8
0
  6
Continuous
 62
     7
370
    25
100
AcDbLine
 10
276.9351826595
 20
21.6805249805
 30
0.0
 11
280.4707158279
 21
19.6395051268
 31
0.0
  0
LINE
  5
1CF
330
1F
100
AcDbEntity
  8
0
  6
Continuous
 62
     7
370
    25
100
AcDbLine
 10
276.9351826595
 20
21.6805249805
 30
0.0
 11
276.9351826595
 21
23.3640740174
 31
0.0
  0
LINE
  5
1D0
330
1F
100
AcDbEntity
  8
0
  6
Continuous
 62
     7
370
    25
100
AcDbLine
 10
275.4122513989
 20
19.7860129918
 30
0.0
 11
274.3789915673
 21
18.5006475004
 31
0.0
  0
LINE
  5
1D1
330
1F
100
AcDbEntity
  8
0
  6
Continuous
 62
     7
370
    25
100
AcDbLine
 10
276.9351826595
 20
21.6805249805
 30
0.0
 11
275.4122513989
 21
19.7860129918
 31
0.0
  0
ARC
  5
1D2
330
1F
100
AcDbEntity
  8
0
  6
Continuous
 62
     7
370
    25
100
AcDbCircle
 10
265.2423145966
 20
42.0845851577
 30
0.0
 40
6.883564715886382
100
AcDbArc
 50
38.8263914541
 51
80.5835945644
  0
ARC
  5
1D3
330
1F
100
AcDbEntity
  8
0
  6
Continuous
 62
     7
370
    25
100
AcDbCircle
 10
252.130021142
 20
19.3709896814
 30
0.0
 40
6.880840353006707
100
AcDbArc
 50
219.4166394758
 51
261.1493310416
  0
ARC
  5
1D4
330
1F
100
AcDbEntity
  8
0
  6
Continuous
 62
     7
370
    25
100
AcDbCircle
 10
256.0366962791
 20
47.3162133267
 30
0.0
 40
6.959742496568143
100
AcDbArc
 50
60.2207227568
 51
80.5771859407
  0
ARC
  5
1D5
330
1F
100
AcDbEntity
  8
0
  6
Continuous
 62
     7
370
    25
100
AcDbCircle
 10
242.9776969311
 20
24.7059050811
 30
0.0
 40
6.929737723169798
100
AcDbArc
 50
219.38684724
 51
239.8291527451
  0
SPLINE
  5
1D6
330
1F
100
AcDbEntity
  8
0
  6
Continuous
 62
     7
370
    25
100
AcDbSpline
210
0.0
220
0.0
230
1.0
 70
    11
 71
     3
 72
    66
 73
    62
 74
     0
 42
0.000000001
 43
0.00000001
 40
0.0
 40
0.0
 40
0.0
 40
0.0
 40
0.0312499999999999
 40
0.0312499999999999
 40
0.0624999999999997
 40
0.0624999999999997
 40
0.1249999999999996
 40
0.1249999999999996
 40
0.15625
 40
0.15625
 40
0.1875000000000003
 40
0.1875000000000003
 40
0.2187500000000007
 40
0.2187500000000007
 40
0.2500000000000011
 40
0.2500000000000011
 40
0.2812500000000014
 40
0.2812500000000014
 40
0.3125000000000018
 40
0.3125000000000018
 40
0.3750000000000024
 40
0.3750000000000024
 40
0.4062500000000023
 40
0.4062500000000023
 40
0.4375000000000023
 40
0.4375000000000023
 40
0.4687500000000022
 40
0.4687500000000022
 40
0.5000000000000021
 40
0.5000000000000021
 40
0.531250000000002
 40
0.531250000000002
 40
0.5625000000000018
 40
0.5625000000000018
 40
0.5937500000000017
 40
0.5937500000000017
 40
0.6250000000000016
 40
0.6250000000000016
 40
0.6562500000000014
 40
0.6562500000000014
 40
0.6875000000000012
 40
0.6875000000000012
 40
0.7187500000000011
 40
0.7187500000000011
 40
0.750000000000001
 40
0.750000000000001
 40
0.7812500000000009
 40
0.7812500000000009
 40
0.8125000000000007
 40
0.8125000000000007
 40
0.8437500000000006
 40
0.8437500000000006
 40
0.8750000000000004
 40
0.8750000000000004
 40
0.9062500000000003
 40
0.9062500000000003
 40
0.9375000000000001
 40
0.9375000000000001
 40
0.96875
 40
0.96875
 40
1.0
 40
1.0
 40
1.0
 40
1.0
 10
241.1344458367195
 20
41.00942965234232
 30
0.0
 10
241.1971241543216
 20
41.10201425119308
 30
0.0
 10
241.2672835643621
 20
41.18689028007007
 30
0.0
 10
241.421756718539
 20
41.34201965487636
 30
0.0
 10
241.5067034559786
 20
41.41243306865388
 30
0.0
 10
241.7713932372064
 20
41.59318575907066
 30
0.0
 10
241.9670974576368
 20
41.67730508785798
 30
0.0
 10
242.2600259583904
 20
41.74273400541247
 30
0.0
 10
242.3592984085097
 20
41.75486242097679
 30
0.0
 10
242.5526838353936
 20
41.75937231073458
 30
0.0
 10
242.6470939361961
 20
41.75203012635959
 30
0.0
 10
242.8312902773024
 20
41.7186770276941
 30
0.0
 10
242.9211608798407
 20
41.69238358161179
 30
0.0
 10
243.0893222407546
 20
41.62315793153358
 30
0.0
 10
243.1685560672718
 20
41.58012325830985
 30
0.0
 10
243.317133056477
 20
41.4768916199367
 30
0.0
 10
243.3856974231334
 20
41.41699752838952
 30
0.0
 10
243.5076247037914
 20
41.28437344451891
 30
0.0
 10
243.5616566548708
 20
41.21121231511079
 30
0.0
 10
243.7020210227176
 20
40.96987173611172
 30
0.0
 10
243.7623793611702
 20
40.78808699089767
 30
0.0
 10
243.7982665508386
 20
40.48783833199812
 30
0.0
 10
243.800648305813
 20
40.38611586528852
 30
0.0
 10
243.7865374509851
 20
40.17924259457303
 30
0.0
 10
243.7696850862846
 20
40.07278270041196
 30
0.0
 10
243.7168557860211
 20
39.86273284975812
 30
0.0
 10
243.6813362563993
 20
39.75986102267142
 30
0.0
 10
243.5919812408553
 20
39.55840387961298
 30
0.0
 10
243.537604993445
 20
39.45945107379537
 30
0.0
 10
243.4154370033613
 20
39.2758495956118
 30
0.0
 10
243.3469764531591
 20
39.1896598618936
 30
0.0
 10
243.1960183919531
 20
39.03015004366894
 30
0.0
 10
243.1158787593077
 20
38.95924502560752
 30
0.0
 10
242.9466809709295
 20
38.83411213781592
 30
0.0
 10
242.8567977411644
 20
38.77966245032696
 30
0.0
 10
242.675107994594
 20
38.69162852886861
 30
0.0
 10
242.5826273960157
 20
38.65737203956455
 30
0.0
 10
242.3941869623683
 20
38.60817472074767
 30
0.0
 10
242.2999464914794
 20
38.59379917388408
 30
0.0
 10
242.1143899276165
 20
38.58487407017922
 30
0.0
 10
242.0218432115431
 20
38.59032849386186
 30
0.0
 10
241.8418457086242
 20
38.62087289328264
 30
0.0
 10
241.7553292807641
 20
38.64562845083611
 30
0.0
 10
241.5889300614737
 20
38.71352270393633
 30
0.0
 10
241.5083305558664
 20
38.75725010757724
 30
0.0
 10
241.3589581065675
 20
38.86084722450296
 30
0.0
 10
241.2899035206196
 20
38.92058356321984
 30
0.0
 10
241.1631623388072
 20
39.05593140559895
 30
0.0
 10
241.1051417941239
 20
39.1323410121615
 30
0.0
 10
241.0055805324386
 20
39.29577191156351
 30
0.0
 10
240.9634385699201
 20
39.3832005607078
 30
0.0
 10
240.8951984853508
 20
39.56978582257249
 30
0.0
 10
240.8692448480925
 20
39.6694713575132
 30
0.0
 10
240.8369099989398
 20
39.87208664710084
 30
0.0
 10
240.8300412385346
 20
39.97602902832696
 30
0.0
 10
240.8364082482308
 20
40.1894127203956
 30
0.0
 10
240.849866383292
 20
40.29768777781852
 30
0.0
 10
240.8967261002819
 20
40.50930866594955
 30
0.0
 10
240.9303747349558
 20
40.61440471689867
 30
0.0
 10
241.01839313511
 20
40.81920738687881
 30
0.0
 10
241.0717675191174
 20
40.91684505349157
 30
0.0
 10
241.1344458367195
 20
41.00942965234233
 30
0.0
  0
SPLINE
  5
1D7
330
1F
100
AcDbEntity
  8
0
  6
Continuous
 62
     7
370
    25
100
AcDbSpline
210
0.0
220
0.0
230
1.0
 70
     8
 71
     3
 72
    20
 73
    16
 74
     0
 42
0.000000001
 43
0.00000001
 40
0.0
 40
0.0
 40
0.0
 40
0.0
 40
0.0690603286265848
 40
0.1355670377790689
 40
0.2146370226334736
 40
0.2895842517095025
 40
0.3632593879744495
 40
0.4394475191360312
 40
0.5204968138043183
 40
0.6066159655577575
 40
0.6960435432334805
 40
0.7859327883738672
 40
0.8730563717736902
 40
0.9547515652657489
 40
1.0
 40
1.0
 40
1.0
 40
1.0
 10
242.3225238862368
 20
17.13577268768831
 30
0.0
 10
242.1804468647823
 20
17.21071944299235
 30
0.0
 10
241.9015463539086
 20
17.35784167379811
 30
0.0
 10
241.4849183849945
 20
17.5764742066948
 30
0.0
 10
241.1285567371964
 20
17.76973649828431
 30
0.0
 10
240.8919056831567
 20
17.91011088500995
 30
0.0
 10
240.8078621754885
 20
17.9765582130654
 30
0.0
 10
240.8748621760568
 20
17.96329129612053
 30
0.0
 10
241.0936183064703
 20
17.86084865279746
 30
0.0
 10
241.4557968563381
 20
17.66345520184368
 30
0.0
 10
241.928781472175
 20
17.38284345073571
 30
0.0
 10
242.4564015129148
 20
17.05350400345506
 30
0.0
 10
242.9562933492074
 20
16.73650841767704
 30
0.0
 10
243.3341727869163
 20
16.49980985530064
 30
0.0
 10
243.4772620654977
 20
16.41773853443786
 30
0.0
 10
243.528265538248
 20
16.38848461395757
 30
0.0
  0
LINE
  5
1D8
330
1F
100
AcDbEntity
  8
0
  6
Continuous
 62
     7
370
    25
100
AcDbLine
 10
261.8726148396
 20
51.9511927539
 30
0.0
 11
262.2772226097
 21
51.6965275796
 31
0.0
  0
LWPOLYLINE
  5
1D9
330
1F
100
AcDbEntity
  8
0
  6
Continuous
 62
     7
370
    25
100
AcDbPolyline
 90
       14
 70
   128
 43
0.0
 10
263.5407001758
 20
51.0202938557
 10
263.2280436583
 20
51.1936485511
 10
262.8220852134
 20
51.4091200134
 10
262.3527425182
 20
51.656007651
 10
261.8573675586
 20
51.9217943315
 10
261.3950521919
 20
52.1821634106
 10
261.0365043418
 20
52.401130836
 10
260.8402310781
 20
52.5397716488
 10
260.8309390151
 20
52.5705947115
 10
260.989005502
 20
52.4926355277
 10
261.2695454624
 20
52.3279335856
 10
261.6367926855
 20
52.0999874689
 10
261.8726148396
 20
51.9511927539
 10
261.8726148396
 20
51.9511927539
  0
SPLINE
  5
1DA
330
1F
100
AcDbEntity
  8
0
  6
Continuous
 62
     7
370
    25
100
AcDbSpline
210
0.0
220
0.0
230
1.0
 70
    11
 71
     3
 72
    91
 73
    87
 74
     0
 42
0.000000001
 43
0.00000001
 40
0.0
 40
0.0
 40
0.0
 40
0.0
 40
0.0312500000000003
 40
0.0312500000000003
 40
0.0468750000000007
 40
0.0468750000000007
 40
0.0625000000000011
 40
0.0625000000000011
 40
0.0937500000000018
 40
0.0937500000000018
 40
0.1250000000000025
 40
0.1250000000000025
 40
0.1562500000000033
 40
0.1562500000000033
 40
0.1718750000000034
 40
0.1718750000000034
 40
0.1875000000000035
 40
0.1875000000000035
 40
0.2187500000000037
 40
0.2187500000000037
 40
0.2500000000000039
 40
0.2500000000000039
 40
0.2656250000000041
 40
0.2656250000000041
 40
0.2812500000000041
 40
0.2812500000000041
 40
0.3125000000000046
 40
0.3125000000000046
 40
0.3281250000000046
 40
0.3281250000000046
 40
0.3437500000000046
 40
0.3437500000000046
 40
0.3750000000000052
 40
0.3750000000000052
 40
0.4062500000000058
 40
0.4062500000000058
 40
0.4375000000000063
 40
0.4375000000000063
 40
0.4687500000000069
 40
0.4687500000000069
 40
0.4843750000000069
 40
0.4843750000000069
 40
0.500000000000007
 40
0.500000000000007
 40
0.5312500000000067
 40
0.5312500000000067
 40
0.5468750000000064
 40
0.5468750000000064
 40
0.5625000000000062
 40
0.5625000000000062
 40
0.5937500000000059
 40
0.5937500000000059
 40
0.6250000000000056
 40
0.6250000000000056
 40
0.6406250000000052
 40
0.6406250000000052
 40
0.6562500000000049
 40
0.6562500000000049
 40
0.6875000000000043
 40
0.6875000000000043
 40
0.7187500000000038
 40
0.7187500000000038
 40
0.7500000000000031
 40
0.7500000000000031
 40
0.7656250000000029
 40
0.7656250000000029
 40
0.7812500000000026
 40
0.7968750000000023
 40
0.7968750000000023
 40
0.812500000000002
 40
0.812500000000002
 40
0.8437500000000014
 40
0.8437500000000014
 40
0.8593750000000012
 40
0.8593750000000012
 40
0.875000000000001
 40
0.875000000000001
 40
0.9062500000000011
 40
0.9062500000000011
 40
0.9375000000000012
 40
0.9375000000000012
 40
0.953125000000001
 40
0.953125000000001
 40
0.9687500000000008
 40
0.9687500000000008
 40
1.0
 40
1.0
 40
1.0
 40
1.0
 10
258.4027016796333
 20
49.89533009129885
 30
0.0
 10
258.5744422847756
 20
49.79618635028405
 30
0.0
 10
258.7276480219629
 20
49.69285487853286
 30
0.0
 10
258.9306743203029
 20
49.53152367937708
 30
0.0
 10
258.9938534956821
 20
49.47667793725274
 30
0.0
 10
259.1109996755362
 20
49.36467966564435
 30
0.0
 10
259.1651831768845
 20
49.30723105047061
 30
0.0
 10
259.3105709437099
 20
49.13431257197272
 30
0.0
 10
259.3855988512029
 20
49.01773928227639
 30
0.0
 10
259.4919385405382
 20
48.78031670492962
 30
0.0
 10
259.5230734816109
 20
48.65815765365157
 30
0.0
 10
259.5369975403642
 20
48.41671539796067
 30
0.0
 10
259.5205954028856
 20
48.29679374290867
 30
0.0
 10
259.4599923056034
 20
48.11655871342444
 30
0.0
 10
259.433532584715
 20
48.05606190584933
 30
0.0
 10
259.3690245220864
 20
47.93678893516604
 30
0.0
 10
259.3310889157506
 20
47.87804366851532
 30
0.0
 10
259.2005605031615
 20
47.70411771583743
 30
0.0
 10
259.0914224126169
 20
47.5912080754604
 30
0.0
 10
258.8265331445929
 20
47.37053650026253
 30
0.0
 10
258.6746353983292
 20
47.26611879323379
 30
0.0
 10
258.4207522624013
 20
47.11925250892428
 30
0.0
 10
258.3316448376657
 20
47.07185460815899
 30
0.0
 10
258.1442500125765
 20
46.98027673065244
 30
0.0
 10
258.0457771212413
 20
46.9360711928698
 30
0.0
 10
257.7434973353699
 20
46.81154127785997
 30
0.0
 10
257.5307336974728
 20
46.73807034007307
 30
0.0
 10
257.1948527436767
 20
46.64289707602487
 30
0.0
 10
257.0794429541238
 20
46.61357675942598
 30
0.0
 10
256.8473757022336
 20
46.56137039473593
 30
0.0
 10
256.7304598713866
 20
46.538372274644
 30
0.0
 10
256.3771138367539
 20
46.47873704872519
 30
0.0
 10
256.1369859876768
 20
46.45129899249265
 30
0.0
 10
255.6542847580816
 20
46.42407196963094
 30
0.0
 10
255.4170919597849
 20
46.42446924801195
 30
0.0
 10
254.9504126812058
 20
46.45378335427279
 30
0.0
 10
254.7187456621629
 20
46.48328672958081
 30
0.0
 10
254.2789820342798
 20
46.57064757190906
 30
0.0
 10
254.0697618803037
 20
46.62825178195482
 30
0.0
 10
253.7717253901704
 20
46.7361510469927
 30
0.0
 10
253.6745494018983
 20
46.77595665690826
 30
0.0
 10
253.4885121333434
 20
46.86176895860406
 30
0.0
 10
253.3996556667641
 20
46.90770602429395
 30
0.0
 10
253.1452428698111
 20
47.05440482260526
 30
0.0
 10
252.9917272548565
 20
47.16399310493399
 30
0.0
 10
252.7863885007696
 20
47.34636034596617
 30
0.0
 10
252.7223678508244
 20
47.41003241668231
 30
0.0
 10
252.6054094476376
 20
47.54064373633847
 30
0.0
 10
252.5521103391953
 20
47.60789072636937
 30
0.0
 10
252.4076281483081
 20
47.81519307693142
 30
0.0
 10
252.3314797765627
 20
47.96141877355603
 30
0.0
 10
252.2238522073802
 20
48.26536875623955
 30
0.0
 10
252.1935078396356
 20
48.41930881992248
 30
0.0
 10
252.1826742660504
 20
48.65177383395653
 30
0.0
 10
252.184884118094
 20
48.72952359832624
 30
0.0
 10
252.2013722213747
 20
48.88532688115666
 30
0.0
 10
252.2157778458516
 20
48.96359014884769
 30
0.0
 10
252.2764664280018
 20
49.19310892397079
 30
0.0
 10
252.3400826415549
 20
49.34086125351237
 30
0.0
 10
252.5140770489874
 20
49.62411805779617
 30
0.0
 10
252.6258496506611
 20
49.76028714046186
 30
0.0
 10
252.8875373727206
 20
50.00608473804844
 30
0.0
 10
253.0381250324228
 20
50.11743364111754
 30
0.0
 10
253.2946691042372
 20
50.26620332532367
 30
0.0
 10
253.3848912133191
 20
50.31240608575484
 30
0.0
 10
253.5714262235088
 20
50.39661931419776
 30
0.0
 10
253.7649277741688
 20
50.47316298632355
 30
0.0
 10
253.9721824372697
 20
50.53472436886848
 30
0.0
 10
254.1864375068028
 20
50.58879163058122
 30
0.0
 10
254.2974165902256
 20
50.61208873637533
 30
0.0
 10
254.6334370000322
 20
50.66939870235817
 30
0.0
 10
254.8637778609204
 20
50.69161867899113
 30
0.0
 10
255.2186975859246
 20
50.70275294548242
 30
0.0
 10
255.3392515941659
 20
50.7027047946023
 30
0.0
 10
255.5795535463818
 20
50.69533924945268
 30
0.0
 10
255.6993444936325
 20
50.6880759934301
 30
0.0
 10
256.0577138272621
 20
50.65628143564957
 30
0.0
 10
256.2955152366941
 20
50.62179334813636
 30
0.0
 10
256.7677446138838
 20
50.52798990085507
 30
0.0
 10
256.9951653930567
 20
50.47010981996291
 30
0.0
 10
257.3240692651887
 20
50.36890732046477
 30
0.0
 10
257.4316500816971
 20
50.33275231929617
 30
0.0
 10
257.6426558889268
 20
50.25568301716565
 30
0.0
 10
257.7462493442027
 20
50.21466639180731
 30
0.0
 10
258.0452722976683
 20
50.0867736635744
 30
0.0
 10
258.2309610744909
 20
49.99447383231363
 30
0.0
 10
258.4027016796333
 20
49.89533009129884
 30
0.0
  0
LWPOLYLINE
  5
1DB
330
1F
100
AcDbEntity
  8
0
  6
Continuous
 62
     7
370
    25
100
AcDbPolyline
 90
       24
 70
   128
 43
0.0
 10
251.4287080967
 20
27.2916619256
 10
251.5695997429
 20
28.2570912319
 10
251.8256596283
 20
29.3925776564
 10
252.1792815655
 20
30.5433797745
 10
252.6256838627
 20
31.6939357322
 10
253.1588296426
 20
32.8286856944
 10
253.7715094891
 20
33.9322843866
 10
254.4554379244
 20
34.9898079315
 10
255.2013653617
 20
35.9869546013
 10
255.9992048747
 20
36.9102396736
 10
256.8381670349
 20
37.7471774553
 10
257.7069061905
 20
38.4864493782
 10
258.5936741957
 20
39.1180589055
 10
259.4864790372
 20
39.6334641698
 10
260.3732470423
 20
40.0256951882
 10
261.241986198
 20
40.2894481444
 10
262.0809483582
 20
40.4211554546
 10
262.8787878712
 20
40.4190362765
 10
263.6247153085
 20
40.2831190941
 10
264.3086437438
 20
40.0152425124
 10
264.9213235903
 20
39.6190289139
 10
265.4544693701
 20
39.0998359666
 10
265.9008716674
 20
38.4646851306
 10
266.1544126201
 20
37.9648307549
  0
ARC
  5
1DC
330
1F
100
AcDbEntity
  8
0
  6
Continuous
 62
     7
370
    25
100
AcDbCircle
 10
255.6030170138
 20
24.5859001688
 30
0.0
 40
3.98053593128532
100
AcDbArc
 50
224.4756899895
 51
277.9741963479
  0
LINE
  5
1DD
330
1F
100
AcDbEntity
  8
0
  6
Continuous
 62
     7
370
    25
100
AcDbLine
 10
273.232058475
 20
33.8789922962
 30
0.0
 11
273.3626290824
 21
33.7995726994
 31
0.0
  0
LINE
  5
1DE
330
1F
100
AcDbEntity
  8
0
  6
Continuous
 62
     7
370
    25
100
AcDbLine
 10
263.2328714481
 20
16.5580155597
 30
0.0
 11
263.1155622807
 21
16.628991063
 31
0.0
  0
ARC
  5
1DF
330
1F
100
AcDbEntity
  8
0
  6
Continuous
 62
     7
370
    25
100
AcDbCircle
 10
256.9290721103
 20
24.6475363862
 30
0.0
 40
3.855321507820788
100
AcDbArc
 50
202.385636
 51
238.668806524
  0
LWPOLYLINE
  5
1E0
330
1F
100
AcDbEntity
  8
0
  6
Continuous
 62
     7
370
    25
100
AcDbPolyline
 90
       21
 70
   128
 43
0.0
 10
252.862632128
 20
26.3669337304
 10
252.863660116
 20
26.3895550285
 10
252.9626775511
 20
27.4295202339
 10
253.1639070208
 20
28.5074463784
 10
253.4643949529
 20
29.6075066528
 10
253.8597290992
 20
30.7135487641
 10
254.3441050484
 20
31.8093326212
 10
254.9104101906
 20
32.8787688276
 10
255.5503294135
 20
33.9061547949
 10
256.2544669334
 20
34.8764047716
 10
257.0124839308
 20
35.7752734061
 10
257.8132505096
 20
36.5895621032
 10
258.6450085221
 20
37.3073141626
 10
259.4955455487
 20
37.9179920214
 10
260.3523729513
 20
38.4126279523
 10
261.2029099779
 20
38.7839592417
 10
262.0346679904
 20
39.0265345425
 10
262.8354345692
 20
39.1367912577
 10
263.5934515665
 20
39.1131104195
 10
264.2975890864
 20
38.9558403185
 10
264.9235527634
 20
38.6753905493
  0
LWPOLYLINE
  5
1E1
330
1F
100
AcDbEntity
  8
0
  6
Continuous
 62
     7
370
    25
100
AcDbPolyline
 90
       19
 70
   128
 43
0.0
 10
265.6574024944
 20
27.7262812524
 10
265.6040979263
 20
28.0446011914
 10
265.4506129335
 20
28.2629821323
 10
265.2154608484
 20
28.3550854169
 10
264.9270038659
 20
28.3098010628
 10
264.6200342095
 20
28.1325912522
 10
264.331577227
 20
27.8448302634
 10
264.0964251419
 20
27.4812261604
 10
263.9429401491
 20
27.0856352188
 10
263.889635581
 20
26.7057711355
 10
263.9429401491
 20
26.3874515767
 10
264.0964251419
 20
26.1690706358
 10
264.331577227
 20
26.0769673512
 10
264.6200342095
 20
26.1222517053
 10
264.9270038659
 20
26.2994615159
 10
265.2154608484
 20
26.5872225047
 10
265.4506129335
 20
26.9508266077
 10
265.6040979263
 20
27.3464175494
 10
265.6574024944
 20
27.7262812524
  0
LWPOLYLINE
  5
1E2
330
1F
100
AcDbEntity
  8
0
  6
Continuous
 62
     7
370
    25
100
AcDbPolyline
 90
       19
 70
   128
 43
0.0
 10
241.8242210377
 20
39.0221711235
 10
242.1642196647
 20
38.9129387286
 10
242.5385936564
 20
38.9474499877
 10
242.9021872745
 20
39.1215437686
 10
243.2111473817
 20
39.4142199177
 10
243.4282076028
 20
39.7901792479
 10
243.5271868423
 20
40.2040747716
 10
243.4961489811
 20
40.6059844564
 10
243.3388352105
 20
40.9474325274
 10
243.0742214905
 20
41.1872354109
 10
242.7342241807
 20
41.2964670455
 10
242.3598501889
 20
41.2619557863
 10
241.9962565708
 20
41.0878620054
 10
241.6872964636
 20
40.7951858563
 10
241.4702362426
 20
40.4192265262
 10
241.371257003
 20
40.0053310024
 10
241.4022948642
 20
39.6034213177
 10
241.5596086348
 20
39.2619732467
 10
241.8242210377
 20
39.0221711235
  0
ARC
  5
1E3
330
1F
100
AcDbEntity
  8
0
  6
Continuous
 62
     7
370
    25
100
AcDbCircle
 10
268.6597430183
 20
24.9635629902
 30
0.0
 40
17.0641346730415
100
AcDbArc
 50
136.0477125942
 51
160.330531197
  0
ARC
  5
1E4
330
1F
100
AcDbEntity
  8
0
  6
Continuous
 62
     7
370
    25
100
AcDbCircle
 10
262.564683817
 20
34.0441497277
 30
0.0
 40
5.188535282162288
100
AcDbArc
 50
80.8992189547
 51
116.4773896547
  0
LWPOLYLINE
  5
1E5
330
1F
100
AcDbEntity
  8
0
  6
Continuous
 62
     7
370
    25
100
AcDbPolyline
 90
        3
 70
   128
 43
0.0
 10
253.7291021862
 20
22.4404237749
 10
253.3620716243
 20
22.9295149417
 10
253.3192853291
 20
22.9982959808
  0
ARC
  5
1E6
330
1F
100
AcDbEntity
  8
0
  6
Continuous
 62
     7
370
    25
100
AcDbCircle
 10
262.3239604891
 20
35.7539701312
 30
0.0
 40
3.658911425478452
100
AcDbArc
 50
64.9016801405
 51
90.6228496887
  0
ARC
  5
1E7
330
1F
100
AcDbEntity
  8
0
  6
Continuous
 62
     7
370
    25
100
AcDbCircle
 10
256.0178054208
 20
24.9194157442
 30
0.0
 40
3.46028651116555
100
AcDbArc
 50
217.0817418404
 51
235.5628713943
  0
LWPOLYLINE
  5
1E8
330
1F
100
AcDbEntity
  8
0
  6
Continuous
 62
     7
370
    25
100
AcDbPolyline
 90
        3
 70
   128
 43
0.0
 10
262.5369038313
 20
39.2667745007
 10
262.9078774285
 20
39.2506283341
 10
263.5892444549
 20
39.1258294736
  0
ARC
  5
1E9
330
1F
100
AcDbEntity
  8
0
  6
Continuous
 62
     7
370
    25
100
AcDbCircle
 10
256.5091804645
 20
24.9881775694
 30
0.0
 40
3.780220209059191
100
AcDbArc
 50
212.1523302536
 51
225.6579571405
  0
ARC
  5
1EA
330
1F
100
AcDbEntity
  8
0
  6
Continuous
 62
     7
370
    25
100
AcDbCircle
 10
257.60006299
 20
31.3228899702
 30
0.0
 40
25.27257083580496
100
AcDbArc
 50
130.727923983
 51
164.2418554564
  0
SPLINE
  5
1EB
330
1F
100
AcDbEntity
  8
0
  6
Continuous
 62
     7
370
    25
100
AcDbSpline
210
0.0
220
0.0
230
1.0
 70
     8
 71
     3
 72
    10
 73
     6
 74
     0
 42
0.000000001
 43
0.00000001
 40
0.0
 40
0.0
 40
0.0
 40
0.0
 40
0.5
 40
0.5
 40
1.0
 40
1.0
 40
1.0
 40
1.0
 10
233.0149133535808
 20
37.15697224566776
 30
0.0
 10
232.9583846677982
 20
37.12433892998514
 30
0.0
 10
232.8797413452236
 20
37.10396595452617
 30
0.0
 10
232.7195114308924
 20
37.10090455456482
 30
0.0
 10
232.6383444183517
 20
37.11856375444506
 30
0.0
 10
232.5812305180139
 20
37.15153490729938
 30
0.0
  0
SPLINE
  5
1EC
330
1F
100
AcDbEntity
  8
0
  6
Continuous
 62
     7
370
    25
100
AcDbSpline
210
0.0
220
0.0
230
1.0
 70
     8
 71
     3
 72
    12
 73
     8
 74
     0
 42
0.000000001
 43
0.00000001
 40
0.0
 40
0.0
 40
0.0
 40
0.0
 40
0.2500000000000033
 40
0.2500000000000033
 40
0.5000000000000067
 40
0.5000000000000067
 40
1.0
 40
1.0
 40
1.0
 40
1.0
 10
250.2719524243587
 20
53.67549678555449
 30
0.0
 10
250.3038567527034
 20
53.65707880883872
 30
0.0
 10
250.3359940891443
 20
53.62716426820666
 30
0.0
 10
250.3906523955705
 20
53.55676684826376
 30
0.0
 10
250.4136257349009
 20
53.51638615158792
 30
0.0
 10
250.4673075238385
 20
53.39386232155254
 30
0.0
 10
250.4840844587147
 20
53.30906099994687
 30
0.0
 10
250.4840844587146
 20
53.23550840431326
 30
0.0
  0
LINE
  5
1ED
330
1F
100
AcDbEntity
  8
0
  6
Continuous
 62
     7
370
    25
100
AcDbLine
 10
232.5812307912
 20
37.1515346173
 30
0.0
 11
231.181842151
 21
37.9593844837
 31
0.0
  0
LWPOLYLINE
  5
1EE
330
1F
100
AcDbEntity
  8
0
  6
Continuous
 62
     7
370
    25
100
AcDbPolyline
 90
       21
 70
   128
 43
0.0
 10
231.181842151
 20
37.9593844837
 10
231.5449767636
 20
39.3589165809
 10
232.0073276918
 20
40.768912083
 10
232.5644458088
 20
42.1758009472
 10
233.2109699039
 20
43.566045536
 10
233.9406767314
 20
44.926263427
 10
234.7465448898
 20
46.2433669524
 10
235.6208187004
 20
47.5046795433
 10
236.5550836108
 20
48.6980621496
 10
237.5403495006
 20
49.8120312946
 10
238.5671339875
 20
50.835864961
 10
239.6255556111
 20
51.7597111385
 10
240.7054281696
 20
52.5746787854
 10
241.7963594602
 20
53.2729244883
 10
242.8878505959
 20
53.8477280474
 10
243.9693971745
 20
54.2935577243
 10
245.0305909412
 20
54.6061243681
 10
246.0612190231
 20
54.7824189298
 10
247.0513630814
 20
54.8207446068
 10
247.9914936477
 20
54.7207332785
 10
248.8725642962
 20
54.4833466388
  0
LINE
  5
1EF
330
1F
100
AcDbEntity
  8
0
  6
Continuous
 62
     7
370
    25
100
AcDbLine
 10
248.8725642962
 20
54.4833466388
 30
0.0
 11
250.2719529364
 21
53.6754967724
 31
0.0
  0
LINE
  5
1F0
330
1F
100
AcDbEntity
  8
0
  6
Continuous
 62
     7
370
    25
100
AcDbLine
 10
234.1322400848
 20
36.4385268702
 30
0.0
 11
234.1322400848
 21
37.8019912063
 31
0.0
  0
LINE
  5
1F1
330
1F
100
AcDbEntity
  8
0
  6
Continuous
 62
     7
370
    25
100
AcDbLine
 10
234.1322400848
 20
37.8019912063
 30
0.0
 11
233.0149133013
 21
37.1569721838
 31
0.0
  0
LINE
  5
1F2
330
1F
100
AcDbEntity
  8
0
  6
Continuous
 62
     7
370
    25
100
AcDbLine
 10
250.4840846104
 20
53.2355082857
 30
0.0
 11
250.4840846104
 21
53.0308182916
 31
0.0
  0
SPLINE
  5
1F3
330
1F
100
AcDbEntity
  8
0
  6
Continuous
 62
     7
370
    25
100
AcDbSpline
210
0.0
220
0.0
230
1.0
 70
     8
 71
     3
 72
    20
 73
    16
 74
     0
 42
0.000000001
 43
0.00000001
 40
0.0
 40
0.0
 40
0.0
 40
0.0
 40
0.2499999999999999
 40
0.2499999999999999
 40
0.3749999999999999
 40
0.3749999999999999
 40
0.4374999999999999
 40
0.4374999999999999
 40
0.4687499999999999
 40
0.4687499999999999
 40
0.4999999999999999
 40
0.4999999999999999
 40
0.7499999999999999
 40
0.7499999999999999
 40
1.0
 40
1.0
 40
1.0
 40
1.0
 10
234.1322401437757
 20
31.81658843468008
 30
0.0
 10
234.1322401437757
 20
32.20897061120063
 30
0.0
 10
234.1526859230857
 20
32.58914724566668
 30
0.0
 10
234.1798594988052
 20
33.1614986674849
 30
0.0
 10
234.1884398785991
 20
33.3525675158525
 30
0.0
 10
234.1972962563429
 20
33.64156714551421
 30
0.0
 10
234.1995880632654
 20
33.73829454684337
 30
0.0
 10
234.201782296953
 20
33.88412796865185
 30
0.0
 10
234.2023080387815
 20
33.93286188797006
 30
0.0
 10
234.20292777128
 20
34.03058746962733
 30
0.0
 10
234.2030168793281
 20
34.07983252263774
 30
0.0
 10
234.2019782734112
 20
34.50649521452043
 30
0.0
 10
234.1864650331392
 20
34.8937515609031
 30
0.0
 10
234.1513275542169
 20
35.67043382360467
 30
0.0
 10
234.1322401437757
 20
36.05958768022241
 30
0.0
 10
234.1322401437757
 20
36.43852680241068
 30
0.0
  0
LWPOLYLINE
  5
1F4
330
1F
100
AcDbEntity
  8
0
  6
Continuous
 62
     7
370
    25
100
AcDbPolyline
 90
       20
 70
   128
 43
0.0
 10
230.2580596228
 20
39.5903662763
 10
230.6264803722
 20
40.9111778008
 10
231.0893462821
 20
42.2382204415
 10
231.6419836623
 20
43.5580949005
 10
232.2788126652
 20
44.857474209
 10
232.993401945
 20
46.1232371834
 10
233.7785378052
 20
47.342604161
 10
234.6262913699
 20
48.5032624709
 10
235.5281028777
 20
49.5934926621
 10
236.4748666336
 20
50.6022859875
 10
237.4570228762
 20
51.519457514
 10
238.4646542546
 20
52.3357451639
 10
239.4875867912
 20
53.0429075435
 10
240.5154914211
 20
53.6338030931
 10
241.5379891125
 20
54.1024659809
 10
242.5447556574
 20
54.444164316
 10
243.525625104
 20
54.6554476915
 10
244.4706937664
 20
54.7341828926
 10
245.3704186759
 20
54.6795742298
 10
245.3731256231
 20
54.6791977368
  0
SPLINE
  5
1F5
330
1F
100
AcDbEntity
  8
0
  6
Continuous
 62
     7
370
    25
100
AcDbSpline
210
0.0
220
0.0
230
1.0
 70
     8
 71
     3
 72
     8
 73
     4
 74
     0
 42
0.000000001
 43
0.00000001
 40
0.0
 40
0.0
 40
0.0
 40
0.0
 40
1.0
 40
1.0
 40
1.0
 40
1.0
 10
230.2580596626229
 20
39.59036647714604
 30
0.0
 10
229.7667586335704
 20
39.50771925694215
 30
0.0
 10
229.2751785426677
 20
39.42563546945171
 30
0.0
 10
228.7833837439157
 20
39.34398518236996
 30
0.0
  0
LWPOLYLINE
  5
1F6
330
1F
100
AcDbEntity
  8
0
  6
Continuous
 62
     7
370
    25
100
AcDbPolyline
 90
       21
 70
   128
 43
0.0
 10
228.7833838695
 20
39.3439849776
 10
229.1465184821
 20
40.7435170747
 10
229.6088694103
 20
42.1535125768
 10
230.1659875273
 20
43.5604014411
 10
230.8125116224
 20
44.9506460298
 10
231.5422184499
 20
46.3108639209
 10
232.3480866083
 20
47.6279674463
 10
233.222360419
 20
48.8892800371
 10
234.1566253294
 20
50.0826626435
 10
235.1418912192
 20
51.1966317884
 10
236.1686757061
 20
52.2204654548
 10
237.2270973296
 20
53.1443116323
 10
238.3069698881
 20
53.9592792793
 10
239.3979011787
 20
54.6575249822
 10
240.4893923145
 20
55.2323285412
 10
241.5709388931
 20
55.6781582181
 10
242.6321326598
 20
55.9907248619
 10
243.6627607417
 20
56.1670194236
 10
244.6529047999
 20
56.2053451006
 10
245.5930353663
 20
56.1053337724
 10
246.4741060148
 20
55.8679471326
  0
LINE
  5
1F7
330
1F
100
AcDbEntity
  8
0
  6
Continuous
 62
     7
370
    25
100
AcDbLine
 10
246.4741060148
 20
55.8679471326
 30
0.0
 11
246.8014803435
 21
54.8102439321
 31
0.0
  0
LINE
  5
1F8
330
1F
100
AcDbEntity
  8
0
  6
Continuous
 62
     7
370
    25
100
AcDbLine
 10
243.0594635081
 20
57.8391782929
 30
0.0
 11
246.4741060148
 21
55.8679471326
 31
0.0
  0
LINE
  5
1F9
330
1F
100
AcDbEntity
  8
0
  6
Continuous
 62
     7
370
    25
100
AcDbLine
 10
228.7833838695
 20
39.3439849776
 30
0.0
 11
228.1971686219
 21
39.6823998366
 31
0.0
  0
SPLINE
  5
1FA
330
1F
100
AcDbEntity
  8
0
  6
Continuous
 62
     7
370
    25
100
AcDbSpline
210
0.0
220
0.0
230
1.0
 70
     8
 71
     3
 72
    28
 73
    24
 74
     0
 42
0.000000001
 43
0.00000001
 40
0.0
 40
0.0
 40
0.0
 40
0.0
 40
0.1250000000000001
 40
0.1250000000000001
 40
0.1875000000000001
 40
0.1875000000000001
 40
0.2500000000000001
 40
0.2500000000000001
 40
0.3749999999999999
 40
0.3749999999999999
 40
0.4375
 40
0.4375
 40
0.4999999999999999
 40
0.4999999999999999
 40
0.6249999999999999
 40
0.6249999999999999
 40
0.7499999999999997
 40
0.7499999999999997
 40
0.8124999999999998
 40
0.8124999999999998
 40
0.8749999999999998
 40
0.8749999999999998
 40
1.0
 40
1.0
 40
1.0
 40
1.0
 10
228.1971684746573
 20
39.68240005394978
 30
0.0
 10
228.0091813941909
 20
39.79092268553386
 30
0.0
 10
227.8189614395902
 20
39.87286640608176
 30
0.0
 10
227.5308628376422
 20
39.95802413612023
 30
0.0
 10
227.4343729670427
 20
39.98007406652403
 30
0.0
 10
227.2406347942078
 20
40.01134788998299
 30
0.0
 10
227.1433837736764
 20
40.02047514130642
 30
0.0
 10
226.8573618987911
 20
40.02825798341482
 30
0.0
 10
226.6720200824345
 20
40.00795143977776
 30
0.0
 10
226.4035074956187
 20
39.94073078664462
 30
0.0
 10
226.3151468359529
 20
39.91194442903902
 30
0.0
 10
226.1447941256632
 20
39.84293253894387
 30
0.0
 10
226.0627670958818
 20
39.80279264903375
 30
0.0
 10
225.8263308421292
 20
39.66617288127053
 30
0.0
 10
225.6814635920068
 20
39.55365839158146
 30
0.0
 10
225.4206067985227
 20
39.285401426582
 30
0.0
 10
225.3083143910204
 20
39.13324804020471
 30
0.0
 10
225.1690899095665
 20
38.8813316525064
 30
0.0
 10
225.1274941232008
 20
38.79328936683003
 30
0.0
 10
225.0543694081395
 20
38.60894831177821
 30
0.0
 10
225.0227449240866
 20
38.51215954909642
 30
0.0
 10
224.9452516206644
 20
38.21414447019961
 30
0.0
 10
224.9160769052745
 20
38.00467159306309
 30
0.0
 10
224.9101100225328
 20
37.78429080037922
 30
0.0
  0
ARC
  5
1FB
330
1F
100
AcDbEntity
  8
0
  6
Continuous
 62
     7
370
    25
100
AcDbCircle
 10
239.7546598602
 20
37.3760203312
 30
0.0
 40
14.85016324614224
100
AcDbArc
 50
178.4245883563
 51
181.5754116437
  0
SPLINE
  5
1FC
330
1F
100
AcDbEntity
  8
0
  6
Continuous
 62
     7
370
    25
100
AcDbSpline
210
0.0
220
0.0
230
1.0
 70
     8
 71
     3
 72
    30
 73
    26
 74
     0
 42
0.000000001
 43
0.00000001
 40
0.0
 40
0.0
 40
0.0
 40
0.0
 40
0.1250000000000003
 40
0.1250000000000003
 40
0.1875000000000005
 40
0.1875000000000005
 40
0.2500000000000007
 40
0.2500000000000007
 40
0.3750000000000011
 40
0.3750000000000011
 40
0.4375000000000012
 40
0.4375000000000012
 40
0.5000000000000012
 40
0.5000000000000012
 40
0.6250000000000014
 40
0.6250000000000014
 40
0.6875000000000012
 40
0.6875000000000012
 40
0.7500000000000011
 40
0.7500000000000011
 40
0.8125000000000009
 40
0.8125000000000009
 40
0.8750000000000008
 40
0.8750000000000008
 40
1.0
 40
1.0
 40
1.0
 40
1.0
 10
224.9101100225328
 20
36.96774998849347
 30
0.0
 10
224.9160776212243
 20
36.75423279571876
 30
0.0
 10
224.9452228412237
 20
36.53668289769963
 30
0.0
 10
225.0216575024826
 20
36.20438386816404
 30
0.0
 10
225.05262348606
 20
36.09260956686447
 30
0.0
 10
225.1255934268756
 20
35.86690769332947
 30
0.0
 10
225.1677296254342
 20
35.75281992075696
 30
0.0
 10
225.3076214147986
 20
35.41465719339577
 30
0.0
 10
225.4194653393409
 20
35.19214697412299
 30
0.0
 10
225.6132519364854
 20
34.86153671817343
 30
0.0
 10
225.6825925740887
 20
34.75131007846728
 30
0.0
 10
225.8280849585354
 20
34.53458007801375
 30
0.0
 10
225.9039722492544
 20
34.42838314238302
 30
0.0
 10
226.1403601977259
 20
34.11574496913341
 30
0.0
 10
226.3095056999767
 20
33.91520242129825
 30
0.0
 10
226.5793716973108
 20
33.62509758187591
 30
0.0
 10
226.6715632033617
 20
33.53075416550345
 30
0.0
 10
226.8571617983964
 20
33.34944913744306
 30
0.0
 10
226.9509906786832
 20
33.26202980394891
 30
0.0
 10
227.1404407291486
 20
33.09342225362425
 30
0.0
 10
227.2360621443542
 20
33.01223406785492
 30
0.0
 10
227.4289238337806
 20
32.85607138830677
 30
0.0
 10
227.526658742679
 20
32.78074440861007
 30
0.0
 10
227.8179146977994
 20
32.56745417516623
 30
0.0
 10
228.0091720887725
 20
32.4420607504658
 30
0.0
 10
228.1971684746573
 20
32.33353274697804
 30
0.0
  0
LINE
  5
1FD
330
1F
100
AcDbEntity
  8
0
  6
Continuous
 62
     7
370
    25
100
AcDbLine
 10
228.1971686219
 20
32.333532846
 30
0.0
 11
228.7833838695
 21
31.995117987
 31
0.0
  0
ARC
  5
1FE
330
1F
100
AcDbEntity
  8
0
  6
Continuous
 62
     7
370
    25
100
AcDbCircle
 10
234.6597511837
 20
33.4383763164
 30
0.0
 40
6.051007140675022
100
AcDbArc
 50
193.7989340506
 51
252.8232439827
  0
LINE
  5
1FF
330
1F
100
AcDbEntity
  8
0
  6
Continuous
 62
     7
370
    25
100
AcDbLine
 10
248.1035235931
 20
54.9269986002
 30
0.0
 11
248.4378356882
 21
54.6196698797
 31
0.0
  0
LINE
  5
200
330
1F
100
AcDbEntity
  8
0
  6
Continuous
 62
     7
370
    25
100
AcDbLine
 10
247.2505948563
 20
55.4193838792
 30
0.0
 11
248.1035235931
 21
54.9269986002
 31
0.0
  0
SPLINE
  5
201
330
1F
100
AcDbEntity
  8
0
  6
Continuous
 62
     7
370
    25
100
AcDbSpline
210
0.0
220
0.0
230
1.0
 70
     8
 71
     3
 72
    20
 73
    16
 74
     0
 42
0.000000001
 43
0.00000001
 40
0.0
 40
0.0
 40
0.0
 40
0.0
 40
0.2499999999999997
 40
0.2499999999999997
 40
0.3749999999999997
 40
0.3749999999999997
 40
0.4999999999999998
 40
0.4999999999999998
 40
0.6249999999999998
 40
0.6249999999999998
 40
0.7499999999999999
 40
0.7499999999999999
 40
0.8749999999999999
 40
0.8749999999999999
 40
1.0
 40
1.0
 40
1.0
 40
1.0
 10
243.0594632562559
 20
57.83917815585023
 30
0.0
 10
243.3784519106539
 20
57.70528776659042
 30
0.0
 10
243.7049075107519
 20
57.54539141952844
 30
0.0
 10
244.2172576281349
 20
57.26747249205892
 30
0.0
 10
244.3918609948128
 20
57.16847347924863
 30
0.0
 10
244.7517348571617
 20
56.95753277434992
 30
0.0
 10
244.9345952735152
 20
56.84697695713988
 30
0.0
 10
245.3008903626924
 20
56.62155908812905
 30
0.0
 10
245.485373878951
 20
56.50607848674959
 30
0.0
 10
245.8589587031865
 20
56.27124614245382
 30
0.0
 10
246.0433081744258
 20
56.15491621717856
 30
0.0
 10
246.4040180809022
 20
55.92922153037918
 30
0.0
 10
246.5810720701561
 20
55.81941155628249
 30
0.0
 10
246.9288014215084
 20
55.60801679274659
 30
0.0
 10
247.0940518379667
 20
55.50975395760356
 30
0.0
 10
247.2505947527481
 20
55.4193836564862
 30
0.0
  0
SPLINE
  5
202
330
1F
100
AcDbEntity
  8
0
  6
Continuous
 62
     7
370
    25
100
AcDbSpline
210
0.0
220
0.0
230
1.0
 70
    11
 71
     3
 72
    70
 73
    66
 74
     0
 42
0.000000001
 43
0.00000001
 40
0.0
 40
0.0
 40
0.0
 40
0.0
 40
0.0312500000000001
 40
0.0312500000000001
 40
0.0625000000000002
 40
0.0625000000000002
 40
0.0937500000000003
 40
0.0937500000000003
 40
0.1250000000000004
 40
0.1250000000000004
 40
0.1562500000000005
 40
0.1562500000000005
 40
0.1875000000000006
 40
0.1875000000000006
 40
0.2187500000000007
 40
0.2187500000000007
 40
0.2500000000000008
 40
0.2500000000000008
 40
0.2812500000000009
 40
0.2812500000000009
 40
0.3125000000000011
 40
0.3125000000000011
 40
0.3437500000000012
 40
0.3437500000000012
 40
0.3750000000000012
 40
0.3750000000000012
 40
0.4062500000000013
 40
0.4062500000000013
 40
0.4375000000000014
 40
0.4375000000000014
 40
0.4687500000000016
 40
0.4687500000000016
 40
0.5000000000000017
 40
0.5000000000000017
 40
0.5312500000000018
 40
0.5312500000000018
 40
0.5625000000000019
 40
0.5625000000000019
 40
0.593750000000002
 40
0.593750000000002
 40
0.6250000000000021
 40
0.6250000000000021
 40
0.6562500000000022
 40
0.6562500000000022
 40
0.6875000000000023
 40
0.6875000000000023
 40
0.7187500000000021
 40
0.7187500000000021
 40
0.7500000000000018
 40
0.7500000000000018
 40
0.7812500000000016
 40
0.7812500000000016
 40
0.8125000000000013
 40
0.8125000000000013
 40
0.8437500000000011
 40
0.8437500000000011
 40
0.8750000000000009
 40
0.8750000000000009
 40
0.9062500000000007
 40
0.9062500000000007
 40
0.9375000000000004
 40
0.9375000000000004
 40
0.9687500000000002
 40
0.9687500000000002
 40
1.0
 40
1.0
 40
1.0
 40
1.0
 10
240.8748239350038
 20
57.45467808552444
 30
0.0
 10
240.7812930335548
 20
57.5086723256312
 30
0.0
 10
240.6980689085518
 20
57.56319504100566
 30
0.0
 10
240.5513078330544
 20
57.67308310531922
 30
0.0
 10
240.4872459499765
 20
57.72905833925838
 30
0.0
 10
240.3831138602556
 20
57.83802537366363
 30
0.0
 10
240.3428864022129
 20
57.89087707212262
 30
0.0
 10
240.285615525103
 20
57.99263512427434
 30
0.0
 10
240.268812301086
 20
58.04170599787738
 30
0.0
 10
240.2599684141759
 20
58.13080867368528
 30
0.0
 10
240.2674925469987
 20
58.17141893922467
 30
0.0
 10
240.3067789277541
 20
58.24369838512226
 30
0.0
 10
240.3383851936609
 20
58.27466191645986
 30
0.0
 10
240.4231687523655
 20
58.32441244870001
 30
0.0
 10
240.4769818416107
 20
58.34356100507416
 30
0.0
 10
240.6053631108549
 20
58.36859806684055
 30
0.0
 10
240.6786934556258
 20
58.3743801460833
 30
0.0
 10
240.8431336564861
 20
58.37263096565158
 30
0.0
 10
240.9353758743914
 20
58.36486992189865
 30
0.0
 10
241.1311176797554
 20
58.33641941505807
 30
0.0
 10
241.234929059736
 20
58.31586750938914
 30
0.0
 10
241.4546950387653
 20
58.26250134382649
 30
0.0
 10
241.5703247550713
 20
58.22964898209351
 30
0.0
 10
241.8041608252157
 20
58.15509618488197
 30
0.0
 10
241.9236757625738
 20
58.11307754962132
 30
0.0
 10
242.1677366954698
 20
58.0202906533868
 30
0.0
 10
242.2884822376132
 20
57.97098364431136
 30
0.0
 10
242.5278504357387
 20
57.86759097025472
 30
0.0
 10
242.6477573765835
 20
57.81287135362695
 30
0.0
 10
242.8783947070667
 20
57.70252095766509
 30
0.0
 10
242.9889036587787
 20
57.64707455616853
 30
0.0
 10
243.2005448668172
 20
57.53612757720973
 30
0.0
 10
243.3020733754765
 20
57.48033889322169
 30
0.0
 10
243.4868044102422
 20
57.37371717025569
 30
0.0
 10
243.5712159788829
 20
57.32227830015602
 30
0.0
 10
243.7236715457225
 20
57.22306208681395
 30
0.0
 10
243.7902668118919
 20
57.17616803166477
 30
0.0
 10
243.9015338121049
 20
57.08932748883829
 30
0.0
 10
243.9470423449528
 20
57.04871593678661
 30
0.0
 10
244.014607527832
 20
56.97467255985851
 30
0.0
 10
244.0363762194025
 20
56.94170717133893
 30
0.0
 10
244.0561568087929
 20
56.88283676828668
 30
0.0
 10
244.0538688204754
 20
56.85676123528223
 30
0.0
 10
244.0247416046033
 20
56.81302230282746
 30
0.0
 10
243.9982074230817
 20
56.79509243273002
 30
0.0
 10
243.9206466122012
 20
56.76647935024101
 30
0.0
 10
243.8694600451305
 20
56.75595245884632
 30
0.0
 10
243.7465431795105
 20
56.74269021009999
 30
0.0
 10
243.6744087200863
 20
56.73977984546271
 30
0.0
 10
243.5079418031512
 20
56.74155889537741
 30
0.0
 10
243.4163786067916
 20
56.74621620224392
 30
0.0
 10
243.2173325324076
 20
56.76292033372214
 30
0.0
 10
243.1085335381501
 20
56.77516526062259
 30
0.0
 10
242.8813118970535
 20
56.80701516936185
 30
0.0
 10
242.7633191346952
 20
56.8264827285234
 30
0.0
 10
242.5188561277302
 20
56.8731635666384
 30
0.0
 10
242.3917616382537
 20
56.90060038562242
 30
0.0
 10
242.1400334180422
 20
56.96188802137227
 30
0.0
 10
242.0140980384922
 20
56.99594986450353
 30
0.0
 10
241.7623297421008
 20
57.07199122146541
 30
0.0
 10
241.638846114223
 20
57.11332713392262
 30
0.0
 10
241.4019876989214
 20
57.20142311051217
 30
0.0
 10
241.2870209563174
 20
57.24877755479748
 30
0.0
 10
241.0695426483166
 20
57.34874937843264
 30
0.0
 10
240.9683548364527
 20
57.40068384541767
 30
0.0
 10
240.8748239350038
 20
57.45467808552444
 30
0.0
  0
LINE
  5
203
330
1F
100
AcDbEntity
  8
0
  6
Continuous
 62
     7
370
    25
100
AcDbLine
 10
231.3926745167
 20
38.8161076101
 30
0.0
 11
230.9290466707
 21
39.0837542685
 31
0.0
  0
LINE
  5
204
330
1F
100
AcDbEntity
  8
0
  6
Continuous
 62
     7
370
    25
100
AcDbLine
 10
230.5032284991
 20
39.731899256
 30
0.0
 11
230.2580596228
 21
39.5903662763
 31
0.0
  0
SPLINE
  5
205
330
1F
100
AcDbEntity
  8
0
  6
Continuous
 62
     7
370
    25
100
AcDbSpline
210
0.0
220
0.0
230
1.0
 70
     8
 71
     3
 72
    14
 73
    10
 74
     0
 42
0.000000001
 43
0.00000001
 40
0.0
 40
0.0
 40
0.0
 40
0.0
 40
0.1249999999999991
 40
0.1249999999999991
 40
0.2499999999999982
 40
0.2499999999999982
 40
0.4999999999999998
 40
0.4999999999999998
 40
1.0
 40
1.0
 40
1.0
 40
1.0
 10
230.9290464250006
 20
39.08375433632406
 30
0.0
 10
230.9048499918355
 20
39.0977226398666
 30
0.0
 10
230.8816745533766
 20
39.12508781586415
 30
0.0
 10
230.8447541609456
 20
39.18288958498968
 30
0.0
 10
230.829712369913
 20
39.21386006410604
 30
0.0
 10
230.7898989133261
 20
39.30688653703525
 30
0.0
 10
230.7702628949421
 20
39.36949759132001
 30
0.0
 10
230.7198420464726
 20
39.553828342235
 30
0.0
 10
230.6974248682321
 20
39.67537257713569
 30
0.0
 10
230.6807369700661
 20
39.79450164243805
 30
0.0
  0
SPLINE
  5
206
330
1F
100
AcDbEntity
  8
0
  6
Continuous
 62
     7
370
    25
100
AcDbSpline
210
0.0
220
0.0
230
1.0
 70
     8
 71
     3
 72
    10
 73
     6
 74
     0
 42
0.000000001
 43
0.00000001
 40
0.0
 40
0.0
 40
0.0
 40
0.0
 40
0.5
 40
0.5
 40
1.0
 40
1.0
 40
1.0
 40
1.0
 10
230.6807369700661
 20
39.79450164243805
 30
0.0
 10
230.6473469518783
 20
39.78835187323781
 30
0.0
 10
230.6151076004502
 20
39.77980526538974
 30
0.0
 10
230.5551197061879
 20
39.75856929162082
 30
0.0
 10
230.5278578329389
 20
39.74611764561263
 30
0.0
 10
230.503228266989
 20
39.73189929983577
 30
0.0
  0
LWPOLYLINE
  5
207
330
1F
100
AcDbEntity
  8
0
  6
Continuous
 62
     7
370
    25
100
AcDbPolyline
 90
       21
 70
   128
 43
0.0
 10
223.2604736823
 20
38.4443156826
 10
223.3119692286
 20
39.703441294
 10
223.4659771058
 20
41.0102673974
 10
223.7210577355
 20
42.3525916453
 10
224.0748311379
 20
43.7178821175
 10
224.5239927367
 20
45.0933903442
 10
225.0643495789
 20
46.4662747818
 10
225.6908558966
 20
47.82371526
 10
226.3976631559
 20
49.1530403542
 10
227.1781714239
 20
50.4418361269
 10
228.0250932469
 20
51.6780704576
 10
228.9305214811
 20
52.8502014023
 10
229.8860020614
 20
53.9472846021
 10
230.8826140145
 20
54.9590765081
 10
231.9110526006
 20
55.8761310483
 10
232.9617152528
 20
56.6898849806
 10
234.0247921481
 20
57.3927421182
 10
235.0903577242
 20
57.978138328
 10
236.1484631641
 20
58.4406086097
 10
237.1892290448
 20
58.7758352572
 10
238.1976944698
 20
58.9799557148
  0
ARC
  5
208
330
1F
100
AcDbEntity
  8
0
  6
Continuous
 62
     7
370
    25
100
AcDbCircle
 10
232.907875132
 20
38.0448960564
 30
0.0
 40
9.655666251954944
100
AcDbArc
 50
177.6292065208
 51
209.8334228455
  0
LINE
  5
209
330
1F
100
AcDbEntity
  8
0
  6
Continuous
 62
     7
370
    25
100
AcDbLine
 10
229.5360462415
 20
33.1064504438
 30
0.0
 11
230.6807371956
 21
32.4456344218
 31
0.0
  0
ARC
  5
20A
330
1F
100
AcDbEntity
  8
0
  6
Continuous
 62
     7
370
    25
100
AcDbCircle
 10
232.8484822717
 20
38.2848727761
 30
0.0
 40
6.147218094902098
100
AcDbArc
 50
182.6054747885
 51
237.394528727
  0
LINE
  5
20B
330
1F
100
AcDbEntity
  8
0
  6
Continuous
 62
     7
370
    25
100
AcDbLine
 10
226.7076189824
 20
38.8219706656
 30
0.0
 11
226.7076189824
 21
38.005429815
 31
0.0
  0
ARC
  5
20C
330
1F
100
AcDbEntity
  8
0
  6
Continuous
 62
     7
370
    25
100
AcDbCircle
 10
229.2779018818
 20
38.9124775801
 30
0.0
 40
2.571875907712346
100
AcDbArc
 50
155.3481399264
 51
182.0167128298
  0
LINE
  5
20D
330
1F
100
AcDbEntity
  8
0
  6
Continuous
 62
     7
370
    25
100
AcDbLine
 10
234.1322400848
 20
30.4531242157
 30
0.0
 11
234.1322400848
 21
31.8165885518
 31
0.0
  0
LINE
  5
20E
330
1F
100
AcDbEntity
  8
0
  6
Continuous
 62
     7
370
    25
100
AcDbLine
 10
231.9622443933
 20
31.7058360637
 30
0.0
 11
234.1322400848
 21
30.4531242157
 31
0.0
  0
SPLINE
  5
20F
330
1F
100
AcDbEntity
  8
0
  6
Continuous
 62
     7
370
    25
100
AcDbSpline
210
0.0
220
0.0
230
1.0
 70
     8
 71
     3
 72
    14
 73
    10
 74
     0
 42
0.000000001
 43
0.00000001
 40
0.0
 40
0.0
 40
0.0
 40
0.0
 40
0.1249999999999997
 40
0.1249999999999997
 40
0.2499999999999993
 40
0.2499999999999993
 40
0.4999999999999996
 40
0.4999999999999996
 40
1.0
 40
1.0
 40
1.0
 40
1.0
 10
231.7139349521177
 20
32.41658314526215
 30
0.0
 10
231.7383643007615
 20
32.40248038247584
 30
0.0
 10
231.7613428548276
 20
32.37519825261617
 30
0.0
 10
231.7982259683193
 20
32.31744484910967
 30
0.0
 10
231.8133511146362
 20
32.28629726743907
 30
0.0
 10
231.8530684750955
 20
32.1934601658831
 30
0.0
 10
231.8725305929845
 20
32.13150969606633
 30
0.0
 10
231.9233987141785
 20
31.94559499056883
 30
0.0
 10
231.9456829415937
 20
31.82406234559554
 30
0.0
 10
231.9622444070522
 20
31.70583583914799
 30
0.0
  0
LINE
  5
210
330
1F
100
AcDbEntity
  8
0
  6
Continuous
 62
     7
370
    25
100
AcDbLine
 10
230.9290466707
 20
32.8696895482
 30
0.0
 11
231.7139349182
 21
32.4165832076
 31
0.0
  0
SPLINE
  5
211
330
1F
100
AcDbEntity
  8
0
  6
Continuous
 62
     7
370
    25
100
AcDbSpline
210
0.0
220
0.0
230
1.0
 70
     8
 71
     3
 72
    14
 73
    10
 74
     0
 42
0.000000001
 43
0.00000001
 40
0.0
 40
0.0
 40
0.0
 40
0.0
 40
0.4999999999999968
 40
0.4999999999999968
 40
0.7499999999999967
 40
0.7499999999999967
 40
0.8749999999999983
 40
0.8749999999999983
 40
1.0
 40
1.0
 40
1.0
 40
1.0
 10
230.6807369700661
 20
32.44563433546606
 30
0.0
 10
230.6973610515199
 20
32.54511407969617
 30
0.0
 10
230.7197784531241
 20
32.64094921309216
 30
0.0
 10
230.7702095109729
 20
32.7671651626658
 30
0.0
 10
230.7897442049041
 20
32.80699871136005
 30
0.0
 10
230.8296873622395
 20
32.85425904283191
 30
0.0
 10
230.8447043294051
 20
32.86786165643716
 30
0.0
 10
230.8817656969268
 20
32.88308205801287
 30
0.0
 10
230.9047493592752
 20
32.88371604480676
 30
0.0
 10
230.9290464250006
 20
32.86968964732374
 30
0.0
  0
LINE
  5
212
330
1F
100
AcDbEntity
  8
0
  6
Continuous
 62
     7
370
    25
100
AcDbLine
 10
233.0149133013
 20
29.8081051932
 30
0.0
 11
234.1322400848
 21
30.4531242157
 31
0.0
  0
ARC
  5
213
330
1F
100
AcDbEntity
  8
0
  6
Continuous
 62
     7
370
    25
100
AcDbCircle
 10
238.4478129801
 20
31.1019246557
 30
0.0
 40
5.955149221536076
100
AcDbArc
 50
203.1741783438
 51
238.9873518973
  0
SPLINE
  5
214
330
1F
100
AcDbEntity
  8
0
  6
Continuous
 62
     7
370
    25
100
AcDbSpline
210
0.0
220
0.0
230
1.0
 70
     8
 71
     3
 72
    12
 73
     8
 74
     0
 42
0.000000001
 43
0.00000001
 40
0.0
 40
0.0
 40
0.0
 40
0.0
 40
0.2499999999999962
 40
0.2499999999999962
 40
0.4999999999999925
 40
0.4999999999999925
 40
1.0
 40
1.0
 40
1.0
 40
1.0
 10
232.5812305180139
 20
29.80266760032763
 30
0.0
 10
232.6094727180862
 20
29.78636372526361
 30
0.0
 10
232.6440188499917
 20
29.77340793185361
 30
0.0
 10
232.7187429096894
 20
29.75669619366106
 30
0.0
 10
232.759033300991
 20
29.75280928487362
 30
0.0
 10
232.8801463184274
 20
29.75507268276291
 30
0.0
 10
232.9582638808453
 20
29.77540189418966
 30
0.0
 10
233.0149133535808
 20
29.80810493869601
 30
0.0
  0
ARC
  5
215
330
1F
100
AcDbEntity
  8
0
  6
Continuous
 62
     7
370
    25
100
AcDbCircle
 10
237.386019626
 20
32.2423246526
 30
0.0
 40
6.415186103836136
100
AcDbArc
 50
194.7360387637
 51
237.9334169662
  0
LINE
  5
216
330
1F
100
AcDbEntity
  8
0
  6
Continuous
 62
     7
370
    25
100
AcDbLine
 10
231.181842151
 20
30.6105174931
 30
0.0
 11
232.5812307912
 21
29.8026676267
 31
0.0
  0
SPLINE
  5
217
330
1F
100
AcDbEntity
  8
0
  6
Continuous
 62
     7
370
    25
100
AcDbSpline
210
0.0
220
0.0
230
1.0
 70
     8
 71
     3
 72
     8
 73
     4
 74
     0
 42
0.000000001
 43
0.00000001
 40
0.0
 40
0.0
 40
0.0
 40
0.0
 40
1.0
 40
1.0
 40
1.0
 40
1.0
 10
231.6086336146892
 20
31.46182942338361
 30
0.0
 10
231.4654689179987
 20
31.1782073763766
 30
0.0
 10
231.3232802211461
 20
30.89442423039258
 30
0.0
 10
231.1818424503909
 20
30.6105171362055
 30
0.0
  0
LINE
  5
218
330
1F
100
AcDbEntity
  8
0
  6
Continuous
 62
     7
370
    25
100
AcDbLine
 10
231.8538025277
 20
31.6033624744
 30
0.0
 11
231.6086336514
 21
31.4618294947
 31
0.0
  0
SPLINE
  5
219
330
1F
100
AcDbEntity
  8
0
  6
Continuous
 62
     7
370
    25
100
AcDbSpline
210
0.0
220
0.0
230
1.0
 70
     8
 71
     3
 72
    10
 73
     6
 74
     0
 42
0.000000001
 43
0.00000001
 40
0.0
 40
0.0
 40
0.0
 40
0.0
 40
0.5
 40
0.5
 40
1.0
 40
1.0
 40
1.0
 40
1.0
 10
231.9622444070522
 20
31.70583583914799
 30
0.0
 10
231.9515915400823
 20
31.68656019194188
 30
0.0
 10
231.9367867769301
 20
31.66794881051683
 30
0.0
 10
231.9000010055993
 20
31.63331853628532
 30
0.0
 10
231.8784317850053
 20
31.61758059185023
 30
0.0
 10
231.8538022190554
 20
31.60336224607337
 30
0.0
  0
SPLINE
  5
21A
330
1F
100
AcDbEntity
  8
0
  6
Continuous
 62
     7
370
    25
100
AcDbSpline
210
0.0
220
0.0
230
1.0
 70
     8
 71
     3
 72
    14
 73
    10
 74
     0
 42
0.000000001
 43
0.00000001
 40
0.0
 40
0.0
 40
0.0
 40
0.0
 40
0.500000000000001
 40
0.500000000000001
 40
0.7500000000000004
 40
0.7500000000000004
 40
0.8750000000000003
 40
0.8750000000000003
 40
1.0
 40
1.0
 40
1.0
 40
1.0
 10
216.0409351503735
 20
43.1008951862848
 30
0.0
 10
216.3561010942134
 20
42.87380719538894
 30
0.0
 10
216.6723767494793
 20
42.6439608203408
 30
0.0
 10
217.1512012380504
 20
42.28865221835169
 30
0.0
 10
217.3115212484744
 20
42.16851390415614
 30
0.0
 10
217.5545737844282
 20
41.98224506991233
 30
0.0
 10
217.6360172224447
 20
41.91915182868532
 30
0.0
 10
217.8006786714781
 20
41.78880658627318
 30
0.0
 10
217.8835846895443
 20
41.72228214429593
 30
0.0
 10
217.969603517629
 20
41.64848867297237
 30
0.0
  0
SPLINE
  5
21B
330
1F
100
AcDbEntity
  8
0
  6
Continuous
 62
     7
370
    25
100
AcDbSpline
210
0.0
220
0.0
230
1.0
 70
     8
 71
     3
 72
     8
 73
     4
 74
     0
 42
0.000000001
 43
0.00000001
 40
0.0
 40
0.0
 40
0.0
 40
0.0
 40
1.0
 40
1.0
 40
1.0
 40
1.0
 10
217.969603517629
 20
41.64848867297237
 30
0.0
 10
218.2712559908666
 20
41.38970831489054
 30
0.0
 10
218.5765355343899
 20
41.14213329948588
 30
0.0
 10
218.8811951075166
 20
40.90116044291936
 30
0.0
  0
SPLINE
  5
21C
330
1F
100
AcDbEntity
  8
0
  6
Continuous
 62
     7
370
    25
100
AcDbSpline
210
0.0
220
0.0
230
1.0
 70
     8
 71
     3
 72
    14
 73
    10
 74
     0
 42
0.000000001
 43
0.00000001
 40
0.0
 40
0.0
 40
0.0
 40
0.0
 40
0.1249999999999988
 40
0.1249999999999988
 40
0.2499999999999976
 40
0.2499999999999976
 40
0.4999999999999982
 40
0.4999999999999982
 40
1.0
 40
1.0
 40
1.0
 40
1.0
 10
218.8811951075167
 20
40.90116044291931
 30
0.0
 10
218.9003904834422
 20
40.88597771118311
 30
0.0
 10
218.9180025568426
 20
40.87460989268632
 30
0.0
 10
218.9438474867619
 20
40.86334142347388
 30
0.0
 10
218.9519858510095
 20
40.86295795323683
 30
0.0
 10
218.9689359419776
 20
40.86873374593122
 30
0.0
 10
218.9711052144873
 20
40.88139917154925
 30
0.0
 10
218.9699296666727
 20
40.92583599859302
 30
0.0
 10
218.9578561460686
 20
40.96631926936646
 30
0.0
 10
218.9430779180285
 20
41.01032293924896
 30
0.0
  0
SPLINE
  5
21D
330
1F
100
AcDbEntity
  8
0
  6
Continuous
 62
     7
370
    25
100
AcDbSpline
210
0.0
220
0.0
230
1.0
 70
     8
 71
     3
 72
    14
 73
    10
 74
     0
 42
0.000000001
 43
0.00000001
 40
0.0
 40
0.0
 40
0.0
 40
0.0
 40
0.25
 40
0.25
 40
0.5
 40
0.5
 40
0.75
 40
0.75
 40
1.0
 40
1.0
 40
1.0
 40
1.0
 10
218.9430779180278
 20
41.01032293924966
 30
0.0
 10
218.9250216710813
 20
41.06408724223643
 30
0.0
 10
218.92209887298
 20
41.10863785133348
 30
0.0
 10
218.9166851444367
 20
41.2008992011782
 30
0.0
 10
218.9151178663956
 20
41.24819360409845
 30
0.0
 10
218.9049794665885
 20
41.35295465892623
 30
0.0
 10
218.8966644688442
 20
41.41021586596124
 30
0.0
 10
218.8678642941854
 20
41.53983722333566
 30
0.0
 10
218.8472108975149
 20
41.61263142294871
 30
0.0
 10
218.8185213803538
 20
41.69231812190847
 30
0.0
  0
ARC
  5
21E
330
1F
100
AcDbEntity
  8
0
  6
Continuous
 62
     7
370
    25
100
AcDbCircle
 10
229.1734917087
 20
44.7788795886
 30
0.0
 40
10.80519673566306
100
AcDbArc
 50
163.4019784234
 51
196.5980215766
  0
SPLINE
  5
21F
330
1F
100
AcDbEntity
  8
0
  6
Continuous
 62
     7
370
    25
100
AcDbSpline
210
0.0
220
0.0
230
1.0
 70
     8
 71
     3
 72
    14
 73
    10
 74
     0
 42
0.000000001
 43
0.00000001
 40
0.0
 40
0.0
 40
0.0
 40
0.0
 40
0.25
 40
0.25
 40
0.5
 40
0.5
 40
0.75
 40
0.75
 40
1.0
 40
1.0
 40
1.0
 40
1.0
 10
218.9430779180278
 20
49.32664613417265
 30
0.0
 10
218.9250216710813
 20
49.20580405522809
 30
0.0
 10
218.92209887298
 20
49.08070978866198
 30
0.0
 10
218.9166851444367
 20
48.83275847801062
 30
0.0
 10
218.9151178663956
 20
48.70884985369686
 30
0.0
 10
218.9049794665885
 20
48.46269411445667
 30
0.0
 10
218.8966644688442
 20
48.34040617259524
 30
0.0
 10
218.8678642941854
 20
48.09840899538647
 30
0.0
 10
218.8472108975149
 20
47.97825202820687
 30
0.0
 10
218.8185213803538
 20
47.86544111780159
 30
0.0
  0
SPLINE
  5
220
330
1F
100
AcDbEntity
  8
0
  6
Continuous
 62
     7
370
    25
100
AcDbSpline
210
0.0
220
0.0
230
1.0
 70
     8
 71
     3
 72
    14
 73
    10
 74
     0
 42
0.000000001
 43
0.00000001
 40
0.0
 40
0.0
 40
0.0
 40
0.0
 40
0.1249999999999975
 40
0.1249999999999975
 40
0.249999999999995
 40
0.249999999999995
 40
0.4999999999999953
 40
0.4999999999999953
 40
1.0
 40
1.0
 40
1.0
 40
1.0
 10
218.8811951075168
 20
49.87193169846667
 30
0.0
 10
218.9003904834423
 20
49.86964489049284
 30
0.0
 10
218.9180025568427
 20
49.85814665122003
 30
0.0
 10
218.9438474867619
 20
49.8214551486935
 30
0.0
 10
218.9519858510096
 20
49.79837373359143
 30
0.0
 10
218.9689359419776
 20
49.72704121451434
 30
0.0
 10
218.9711052144873
 20
49.67579710890627
 30
0.0
 10
218.9699296666727
 20
49.52576162914467
 30
0.0
 10
218.9578561460686
 20
49.4255499542616
 30
0.0
 10
218.9430779180285
 20
49.32664613417298
 30
0.0
  0
SPLINE
  5
221
330
1F
100
AcDbEntity
  8
0
  6
Continuous
 62
     7
370
    25
100
AcDbSpline
210
0.0
220
0.0
230
1.0
 70
     8
 71
     3
 72
     8
 73
     4
 74
     0
 42
0.000000001
 43
0.00000001
 40
0.0
 40
0.0
 40
0.0
 40
0.0
 40
1.0
 40
1.0
 40
1.0
 40
1.0
 10
217.969603517629
 20
49.92414450960277
 30
0.0
 10
218.2712559908666
 20
49.93149075674586
 30
0.0
 10
218.57653553439
 20
49.90822679077592
 30
0.0
 10
218.8811951075168
 20
49.87193169846667
 30
0.0
  0
SPLINE
  5
222
330
1F
100
AcDbEntity
  8
0
  6
Continuous
 62
     7
370
    25
100
AcDbSpline
210
0.0
220
0.0
230
1.0
 70
     8
 71
     3
 72
    14
 73
    10
 74
     0
 42
0.000000001
 43
0.00000001
 40
0.0
 40
0.0
 40
0.0
 40
0.0
 40
0.500000000000001
 40
0.500000000000001
 40
0.7500000000000004
 40
0.7500000000000004
 40
0.8750000000000003
 40
0.8750000000000003
 40
1.0
 40
1.0
 40
1.0
 40
1.0
 10
216.0409351503735
 20
50.55678385458774
 30
0.0
 10
216.3561010942134
 20
50.41939936086163
 30
0.0
 10
216.6723767494793
 20
50.28782585323046
 30
0.0
 10
217.1512012380504
 20
50.11293038670969
 30
0.0
 10
217.3115212484744
 20
50.05825923644518
 30
0.0
 10
217.5545737844282
 20
49.98922742072513
 30
0.0
 10
217.6360172224447
 20
49.96836513621634
 30
0.0
 10
217.8006786714781
 20
49.93555742278672
 30
0.0
 10
217.8835846895443
 20
49.92204966329406
 30
0.0
 10
217.969603517629
 20
49.92414450960275
 30
0.0
  0
SPLINE
  5
223
330
1F
100
AcDbEntity
  8
0
  6
Continuous
 62
     7
370
    25
100
AcDbSpline
210
0.0
220
0.0
230
1.0
 70
     8
 71
     3
 72
     8
 73
     4
 74
     0
 42
0.000000001
 43
0.00000001
 40
0.0000005163856712
 40
0.0000005163856712
 40
0.0000005163856712
 40
0.0000005163856712
 40
0.000026289209185
 40
0.000026289209185
 40
0.000026289209185
 40
0.000026289209185
 10
216.0409135633543
 20
50.56966296579321
 30
0.0
 10
216.040911262195
 20
50.56537013076191
 30
0.0
 10
216.0409185085193
 20
50.56107706308163
 30
0.0
 10
216.0409351503735
 20
50.55678385458774
 30
0.0
  0
LINE
  5
224
330
1F
100
AcDbEntity
  8
0
  6
Continuous
 62
     7
370
    25
100
AcDbLine
 10
228.7968086286
 20
61.1167183549
 30
0.0
 11
228.9050891508
 21
61.0648796067
 31
0.0
  0
SPLINE
  5
225
330
1F
100
AcDbEntity
  8
0
  6
Continuous
 62
     7
370
    25
100
AcDbSpline
210
0.0
220
0.0
230
1.0
 70
     8
 71
     3
 72
     8
 73
     4
 74
     0
 42
0.000000001
 43
0.00000001
 40
0.0000005163856716
 40
0.0000005163856716
 40
0.0000005163856716
 40
0.0000005163856716
 40
0.0000262892091854
 40
0.0000262892091854
 40
0.0000262892091854
 40
0.0000262892091854
 10
216.0409135633543
 20
43.09619191391392
 30
0.0
 10
216.040911262195
 20
43.09776529961339
 30
0.0
 10
216.0409185085193
 20
43.0993330295473
 30
0.0
 10
216.0409351503735
 20
43.10089518628481
 30
0.0
  0
SPLINE
  5
226
330
1F
100
AcDbEntity
  8
0
  6
Continuous
 62
     7
370
    25
100
AcDbSpline
210
0.0
220
0.0
230
1.0
 70
     8
 71
     3
 72
    18
 73
    14
 74
     0
 42
0.000000001
 43
0.00000001
 40
0.0
 40
0.0
 40
0.0
 40
0.0
 40
0.1236016659296373
 40
0.2478783268135054
 40
0.3721322926832077
 40
0.4956792613824189
 40
0.6181722443331886
 40
0.6797874593863957
 40
0.7406054993559703
 40
0.8013363376078129
 40
0.8633418952000287
 40
0.9862694195163001
 40
1.0
 40
1.0
 40
1.0
 40
1.0
 10
221.7297821331508
 20
41.22322081759191
 30
0.0
 10
221.5967352582602
 20
41.46815557102323
 30
0.0
 10
221.3299149327607
 20
41.95936267897271
 30
0.0
 10
221.2052195336061
 20
42.71138373628752
 30
0.0
 10
221.3410460882926
 20
43.3360707617854
 30
0.0
 10
221.7081219468575
 20
43.75293600140535
 30
0.0
 10
222.1507619411468
 20
43.84691930360909
 30
0.0
 10
222.5269869043777
 20
43.76497561389815
 30
0.0
 10
222.8092116601721
 20
43.62270087152694
 30
0.0
 10
223.0815867417014
 20
43.40601129027741
 30
0.0
 10
223.4078672847149
 20
43.02822552286047
 30
0.0
 10
223.6617368841287
 20
42.64816816943877
 30
0.0
 10
223.752821476436
 20
42.35603499279608
 30
0.0
 10
223.7619731058057
 20
42.32668321669965
 30
0.0
  0
SPLINE
  5
227
330
1F
100
AcDbEntity
  8
0
  6
Continuous
 62
     7
370
    25
100
AcDbSpline
210
0.0
220
0.0
230
1.0
 70
     8
 71
     3
 72
    13
 73
     9
 74
     0
 42
0.000000001
 43
0.00000001
 40
0.0
 40
0.0
 40
0.0
 40
0.0
 40
0.045817130804152
 40
0.2061705295470223
 40
0.3638806350365144
 40
0.5217084806960651
 40
0.6818146139318905
 40
0.9999999999999999
 40
0.9999999999999999
 40
0.9999999999999999
 40
0.9999999999999999
 10
223.3766333602215
 20
39.89507519261673
 30
0.0
 10
223.3574789145175
 20
39.89132230360061
 30
0.0
 10
223.2712866509542
 20
39.87443484028277
 30
0.0
 10
223.0688164645487
 20
39.96037934656351
 30
0.0
 10
222.8014760341125
 20
40.09685453117859
 30
0.0
 10
222.5184375769817
 20
40.30794435033509
 30
0.0
 10
222.1387797810629
 20
40.65593206413426
 30
0.0
 10
221.8931730282591
 20
40.99659404434391
 30
0.0
 10
221.7297821331508
 20
41.22322081759191
 30
0.0
  0
ARC
  5
228
330
1F
100
AcDbEntity
  8
0
  6
Continuous
 62
     7
370
    25
100
AcDbCircle
 10
236.4669624246
 20
34.2550766058
 30
0.0
 40
6.52724808980993
100
AcDbArc
 50
197.9681303703
 51
217.5008983932
  0
SPLINE
  5
229
330
1F
100
AcDbEntity
  8
0
  6
Continuous
 62
     7
370
    25
100
AcDbSpline
210
0.0
220
0.0
230
1.0
 70
     8
 71
     3
 72
     8
 73
     4
 74
     0
 42
0.000000001
 43
0.00000001
 40
0.0
 40
0.0
 40
0.0
 40
0.0
 40
1.0
 40
1.0
 40
1.0
 40
1.0
 10
228.7833837439157
 20
31.99511787539822
 30
0.0
 10
229.2751785426677
 20
32.07676816247996
 30
0.0
 10
229.7667586335704
 20
32.1588519499704
 30
0.0
 10
230.2580596626229
 20
32.24149917017429
 30
0.0
  0
SPLINE
  5
22A
330
1F
100
AcDbEntity
  8
0
  6
Continuous
 62
     7
370
    25
100
AcDbSpline
210
0.0
220
0.0
230
1.0
 70
     8
 71
     3
 72
    10
 73
     6
 74
     0
 42
0.000000001
 43
0.00000001
 40
0.0
 40
0.0
 40
0.0
 40
0.0
 40
0.5
 40
0.5
 40
1.0
 40
1.0
 40
1.0
 40
1.0
 10
230.5032282669891
 20
32.38303199286406
 30
0.0
 10
230.528060570341
 20
32.39736737645191
 30
0.0
 10
230.5557355678344
 20
32.409962816588
 30
0.0
 10
230.6158605772889
 20
32.43116071472827
 30
0.0
 10
230.6475549774837
 20
32.43952288039493
 30
0.0
 10
230.6807369700654
 20
32.44563433546617
 30
0.0
  0
LINE
  5
22B
330
1F
100
AcDbEntity
  8
0
  6
Continuous
 62
     7
370
    25
100
AcDbLine
 10
230.2580596228
 20
32.2414992857
 30
0.0
 11
230.5032284991
 21
32.3830322653
 31
0.0
  0
SPLINE
  5
22C
330
1F
100
AcDbEntity
  8
0
  6
Continuous
 62
     7
370
    25
100
AcDbSpline
210
0.0
220
0.0
230
1.0
 70
     8
 71
     3
 72
    12
 73
     8
 74
     0
 42
0.000000001
 43
0.00000001
 40
0.0
 40
0.0
 40
0.0
 40
0.0
 40
0.081998715294331
 40
0.3400058231456036
 40
0.5971690563530336
 40
0.8578686560283634
 40
1.0
 40
1.0
 40
1.0
 40
1.0
 10
222.7489666871291
 20
43.54348780906204
 30
0.0
 10
222.7353596136593
 20
43.4966257818733
 30
0.0
 10
222.678938190481
 20
43.30231344330326
 30
0.0
 10
222.7570701076255
 20
42.86861110146774
 30
0.0
 10
222.9804947036521
 20
42.32056040929598
 30
0.0
 10
223.2841129884283
 20
41.86227201429672
 30
0.0
 10
223.5117445382157
 20
41.6468797016205
 30
0.0
 10
223.5920600616676
 20
41.57088256345461
 30
0.0
  0
LINE
  5
22D
330
1F
100
AcDbEntity
  8
0
  6
Continuous
 62
     7
370
    25
100
AcDbLine
 10
250.5019818745
 20
53.5423981063
 30
0.0
 11
250.9802221646
 21
53.2663158634
 31
0.0
  0
SPLINE
  5
22E
330
1F
100
AcDbEntity
  8
0
  6
Continuous
 62
     7
370
    25
100
AcDbSpline
210
0.0
220
0.0
230
1.0
 70
     8
 71
     3
 72
    12
 73
     8
 74
     0
 42
0.000000001
 43
0.00000001
 40
0.0
 40
0.0
 40
0.0
 40
0.0
 40
0.1924542372432502
 40
0.369968810120438
 40
0.6793979774862504
 40
0.9562558102855119
 40
1.0
 40
1.0
 40
1.0
 40
1.0
 10
222.0210514299477
 20
41.4061439758532
 30
0.0
 10
222.100607103775
 20
41.29173823122063
 30
0.0
 10
222.2535427751628
 20
41.07180772816209
 30
0.0
 10
222.5783670029637
 20
40.71796050809065
 30
0.0
 10
222.9631028922636
 20
40.41386216036022
 30
0.0
 10
223.2596476853138
 20
40.24746421694358
 30
0.0
 10
223.3860946330048
 20
40.23096419872898
 30
0.0
 10
223.40334754746
 20
40.22871287192383
 30
0.0
  0
SPLINE
  5
22F
330
1F
100
AcDbEntity
  8
0
  6
Continuous
 62
     7
370
    25
100
AcDbSpline
210
0.0
220
0.0
230
1.0
 70
     8
 71
     3
 72
    17
 73
    13
 74
     0
 42
0.000000001
 43
0.00000001
 40
0.0
 40
0.0
 40
0.0
 40
0.0
 40
0.0289329336940673
 40
0.176544827579842
 40
0.2609501364617718
 40
0.3522986957312484
 40
0.4561067448618616
 40
0.5447575435311174
 40
0.6761080712223517
 40
0.8084250645155655
 40
0.8968651404816463
 40
0.9999999999999999
 40
0.9999999999999999
 40
0.9999999999999999
 40
0.9999999999999999
 10
223.0643792134054
 20
43.40448407653166
 30
0.0
 10
223.0371104321143
 20
43.43053672596661
 30
0.0
 10
222.8707200362331
 20
43.58950645061076
 30
0.0
 10
222.5829359971116
 20
43.66799654960052
 30
0.0
 10
222.2626624224249
 20
43.6716414746301
 30
0.0
 10
222.0087173862314
 20
43.58059037800788
 30
0.0
 10
221.800237693991
 20
43.39979007930501
 30
0.0
 10
221.6371432603571
 20
43.10766445793558
 30
0.0
 10
221.5601392303347
 20
42.69787683373002
 30
0.0
 10
221.6355309136044
 20
42.23328031675633
 30
0.0
 10
221.7942758148217
 20
41.79134119468149
 30
0.0
 10
221.9416904056289
 20
41.54094526757932
 30
0.0
 10
222.0210514299477
 20
41.4061439758532
 30
0.0
  0
SPLINE
  5
230
330
1F
100
AcDbEntity
  8
0
  6
Continuous
 62
     7
370
    25
100
AcDbSpline
210
0.0
220
0.0
230
1.0
 70
     8
 71
     3
 72
     9
 73
     5
 74
     0
 42
0.000000001
 43
0.00000001
 40
0.0
 40
0.0
 40
0.0
 40
0.0
 40
0.9127850350454233
 40
0.9999999999999999
 40
0.9999999999999999
 40
0.9999999999999999
 40
0.9999999999999999
 10
248.1035235930655
 20
54.92699860015696
 30
0.0
 10
248.0520592304117
 20
54.84834408908898
 30
0.0
 10
247.9956775406624
 20
54.76217428125018
 30
0.0
 10
247.9367175138018
 20
54.6765855862097
 30
0.0
 10
247.9315753171254
 20
54.66912097117123
 30
0.0
  0
LINE
  5
231
330
1F
100
AcDbEntity
  8
0
  6
Continuous
 62
     7
370
    25
100
AcDbLine
 10
217.8806905706
 20
45.2758764065
 30
0.0
 11
218.3810737612
 21
44.9870113392
 31
0.0
  0
ARC
  5
232
330
1F
100
AcDbEntity
  8
0
  6
Continuous
 62
     7
370
    25
100
AcDbCircle
 10
216.758050528
 20
50.4909963139
 30
0.0
 40
0.7201273031244048
100
AcDbArc
 50
174.7584203609
 51
234.4349513408
  0
ARC
  5
233
330
1F
100
AcDbEntity
  8
0
  6
Continuous
 62
     7
370
    25
100
AcDbCircle
 10
218.2533852954
 20
42.9910985777
 30
0.0
 40
2.215173511102238
100
AcDbArc
 50
122.6235856257
 51
177.1589283586
  0
LINE
  5
234
330
1F
100
AcDbEntity
  8
0
  6
Continuous
 62
     7
370
    25
100
AcDbLine
 10
217.0591464187
 20
44.8567853653
 30
0.0
 11
217.8032332241
 21
45.2863375348
 31
0.0
  0
SPLINE
  5
235
330
1F
100
AcDbEntity
  8
0
  6
Continuous
 62
     7
370
    25
100
AcDbSpline
210
0.0
220
0.0
230
1.0
 70
     8
 71
     3
 72
     8
 73
     4
 74
     0
 42
0.000000001
 43
0.00000001
 40
0.0
 40
0.0
 40
0.0
 40
0.0
 40
0.000159097695343
 40
0.000159097695343
 40
0.000159097695343
 40
0.000159097695343
 10
217.8806909966721
 20
45.27587638888792
 30
0.0
 10
217.8548708671064
 20
45.27936093834983
 30
0.0
 10
217.829051722554
 20
45.28284792108736
 30
0.0
 10
217.8032335428977
 20
45.28633728220677
 30
0.0
  0
ARC
  5
236
330
1F
100
AcDbEntity
  8
0
  6
Continuous
 62
     7
370
    25
100
AcDbCircle
 10
217.3880052454
 20
43.4857573346
 30
0.0
 40
1.353479563765663
100
AcDbArc
 50
122.9135810547
 51
170.975405912
  0
LINE
  5
237
330
1F
100
AcDbEntity
  8
0
  6
Continuous
 62
     7
370
    25
100
AcDbLine
 10
217.0591464187
 20
44.8567853653
 30
0.0
 11
216.6525603809
 21
44.621991369
 31
0.0
  0
SPLINE
  5
238
330
1F
100
AcDbEntity
  8
0
  6
Continuous
 62
     7
370
    25
100
AcDbSpline
210
0.0
220
0.0
230
1.0
 70
     8
 71
     3
 72
    10
 73
     6
 74
     0
 42
0.000000001
 43
0.00000001
 40
0.0
 40
0.0
 40
0.0
 40
0.0
 40
0.5
 40
0.5
 40
1.0
 40
1.0
 40
1.0
 40
1.0
 10
216.0953725005723
 20
42.90094952919661
 30
0.0
 10
216.0754464500762
 20
42.93947109071224
 30
0.0
 10
216.0621521859354
 20
42.97143441790533
 30
0.0
 10
216.0448836597947
 20
43.03387784140217
 30
0.0
 10
216.0409602051724
 20
43.06430121861437
 30
0.0
 10
216.0409135633543
 20
43.09619191391391
 30
0.0
  0
LINE
  5
239
330
1F
100
AcDbEntity
  8
0
  6
Continuous
 62
     7
370
    25
100
AcDbLine
 10
216.0512802692
 20
43.6980619919
 30
0.0
 11
216.0548798735
 21
43.5624257312
 31
0.0
  0
LINE
  5
23A
330
1F
100
AcDbEntity
  8
0
  6
Continuous
 62
     7
370
    25
100
AcDbLine
 10
216.1502305328
 20
42.8057489994
 30
0.0
 11
216.0953724582
 21
42.9009497069
 31
0.0
  0
LWPOLYLINE
  5
23B
330
1F
100
AcDbEntity
  8
0
  6
Continuous
 62
     7
370
    18
100
AcDbPolyline
 90
       32
 70
   128
 43
0.0
 10
248.2566974236
 20
21.4426163621
 10
248.3109772962
 20
22.09033316
 10
248.4715936675
 20
22.7742019867
 10
248.7319703121
 20
23.4662249267
 10
249.0814493458
 20
24.1380713646
 10
249.5057205963
 20
24.7622345141
 10
249.9874156109
 20
25.3131619804
 10
250.5068149327
 20
25.7682993338
 10
251.0426521839
 20
26.1090117156
 10
251.5729912471
 20
26.3213512529
 10
252.0761199098
 20
26.3966246602
 10
252.5314395582
 20
26.3317500031
 10
252.9203094316
 20
26.1293830464
 10
253.2268098751
 20
25.7978093862
 10
253.438392323
 20
25.3506034171
 10
253.5463942808
 20
24.8060735969
 10
253.5463942808
 20
24.18651312
 10
253.438392323
 20
23.5172868935
 10
253.2268098751
 20
22.8257930298
 10
252.9203094316
 20
22.1403414902
 10
252.5314395582
 20
21.4889949344
 10
252.0761199098
 20
20.8984194011
 10
251.5729912471
 20
20.3927928193
 10
251.0426521839
 20
19.9928159078
 10
250.5068149327
 20
19.7148637679
 10
249.9874156109
 20
19.570315429
 10
249.5057205963
 20
19.5650896695
 10
249.0814493458
 20
19.69939966
 10
248.7319703121
 20
19.9677461944
 10
248.4715936675
 20
20.3591446594
 10
248.3109772962
 20
20.8575697711
 10
248.2566974236
 20
21.4426163621
  0
LWPOLYLINE
  5
23C
330
1F
100
AcDbEntity
  8
0
  6
Continuous
 62
     7
370
    18
100
AcDbPolyline
 90
       13
 70
   128
 43
0.0
 10
247.9031446336
 20
21.4426171225
 10
247.9574916777
 20
22.1111878503
 10
248.1184452238
 20
22.8168141065
 10
248.3798202219
 20
23.5323791729
 10
248.7315712342
 20
24.2303838001
 10
249.1601809759
 20
24.8840042134
 10
249.649179249
 20
25.4681229182
 10
250.1797725104
 20
25.9602911024
 10
250.7315715634
 20
26.3415966363
 10
251.2833699579
 20
26.5973843479
 10
251.8139632193
 20
26.7178261035
 10
252.3029614924
 20
26.6982927873
 10
252.6510720706
 20
26.5824218527
  0
ARC
  5
23D
330
1F
100
AcDbEntity
  8
0
  6
Continuous
 62
     7
370
    18
100
AcDbCircle
 10
249.9284686185
 20
21.2496406504
 30
0.0
 40
2.034496783550539
100
AcDbArc
 50
174.5571875897
 51
232.289470138
  0
LWPOLYLINE
  5
23E
330
1F
100
AcDbEntity
  8
0
  6
Continuous
 62
     7
370
    18
100
AcDbPolyline
 90
       19
 70
   128
 43
0.0
 10
269.968179526
 20
35.7631902414
 10
270.2946523072
 20
36.3841927682
 10
270.7189242163
 20
37.0083562979
 10
271.2006198894
 20
37.5592841444
 10
271.7200185527
 20
38.0144211176
 10
272.2558558039
 20
38.3551334994
 10
272.7861948671
 20
38.5674730367
 10
273.2893228712
 20
38.6427460638
 10
273.7446431782
 20
38.5778717869
 10
274.1335137102
 20
38.3755052103
 10
274.4400134951
 20
38.04393117
 10
274.651595943
 20
37.5967252009
 10
274.7595972423
 20
37.0521950005
 10
274.7595972423
 20
36.4326345236
 10
274.651595943
 20
35.7634086773
 10
274.4400134951
 20
35.0719148136
 10
274.1335137102
 20
34.3864636541
 10
273.7446431782
 20
33.7351167182
 10
273.6411384208
 20
33.5873952969
  0
LWPOLYLINE
  5
23F
330
1F
100
AcDbEntity
  8
0
  6
Continuous
 62
     7
370
    18
100
AcDbPolyline
 90
       10
 70
   128
 43
0.0
 10
269.6648341692
 20
35.9383072061
 10
269.9447748541
 20
36.4765055839
 10
270.3733845959
 20
37.1301259972
 10
270.862382869
 20
37.7142447019
 10
271.3929761304
 20
38.2064128862
 10
271.9447745249
 20
38.5877180399
 10
272.4965735779
 20
38.8435061317
 10
273.0271668393
 20
38.9639478873
 10
273.5161651124
 20
38.9444145711
 10
273.8642756906
 20
38.8285436365
  0
LWPOLYLINE
  5
240
330
1F
100
AcDbEntity
  8
0
  6
Continuous
 62
     7
370
    18
100
AcDbPolyline
 90
       44
 70
   128
 43
0.0
 10
282.3746009277
 20
22.7692795712
 10
282.321853159
 20
23.5710540451
 10
282.1647343175
 20
24.2948387744
 10
281.9065934315
 20
24.9252080255
 10
281.5529319816
 20
25.4487263743
 10
281.1112876684
 20
25.8542357921
 10
280.5910730685
 20
26.1330931153
 10
280.0033764251
 20
26.2793558068
 10
279.3607229254
 20
26.2899065044
 10
278.6768096366
 20
26.1645195865
 10
277.9662131533
 20
25.9058680668
 10
277.2440785175
 20
25.5194645457
 10
276.5257967375
 20
25.0135442475
 10
275.8266769151
 20
24.3988905731
 10
275.1616192373
 20
23.6886029748
 10
274.544798463
 20
22.8978207013
 10
273.9893612808
 20
22.0433978937
 10
273.5071456868
 20
21.1435446263
 10
273.1084289267
 20
20.2174399495
 10
272.8017095172
 20
19.2848222112
 10
272.5935241711
 20
18.3655684423
 10
272.4883104907
 20
17.4792711726
 10
272.4883104907
 20
16.644819995
 10
272.5935241711
 20
15.8799998551
 10
272.8017095172
 20
15.2011117704
 10
273.1084289267
 20
14.6226247243
 10
273.5071456868
 20
14.1568686201
 10
273.9893612808
 20
13.8137696266
 10
274.544798463
 20
13.6006409393
 10
275.1616192373
 20
13.5220247729
 10
275.8266769151
 20
13.5795964251
 10
276.5257967375
 20
13.7721293161
 10
277.2440785175
 20
14.0955195087
 10
277.9662131533
 20
14.5428748911
 10
278.6768096366
 20
15.1046606075
 10
279.3607229254
 20
15.7689031651
 10
280.0033764251
 20
16.5214457997
 10
280.5910730685
 20
17.3462485926
 10
281.1112876684
 20
18.2257329081
 10
281.5529319816
 20
19.1411539962
 10
281.9065934315
 20
20.0730011635
 10
282.1647343175
 20
21.0014135375
 10
282.321853159
 20
21.9066038199
 10
282.3746009277
 20
22.7692795712
  0
LWPOLYLINE
  5
241
330
1F
100
AcDbEntity
  8
0
  6
Continuous
 62
     7
370
    18
100
AcDbPolyline
 90
       24
 70
   128
 43
0.0
 10
273.1638441299
 20
13.7196662301
 10
272.7808385953
 20
14.0394935447
 10
272.388762598
 20
14.5377124262
 10
272.0878265264
 20
15.1445054496
 10
271.8838881339
 20
15.8480619816
 10
271.7809167975
 20
16.6346882321
 10
271.7809167975
 20
17.4890733285
 10
271.8838881339
 20
18.3945877533
 10
272.0878265264
 20
19.3336065414
 10
272.388762598
 20
20.2878529574
 10
272.7808385953
 20
21.2387531498
 10
273.2564239632
 20
22.1677996888
 10
273.8062612122
 20
23.0569094454
 10
274.4196488293
 20
23.8887763339
 10
275.084647732
 20
24.6472098889
 10
275.7883146396
 20
25.317447936
 10
276.5169533079
 20
25.8864442133
 10
277.2563817341
 20
26.3431249077
 10
277.9922077572
 20
26.6786006078
 10
278.7101092689
 20
26.8863417547
 10
279.3961132718
 20
26.9623051376
 10
280.0368673646
 20
26.9050122913
 10
280.6199001958
 20
26.7155777987
 10
280.8209943346
 20
26.6113198094
  0
LWPOLYLINE
  5
242
330
1F
100
AcDbEntity
  8
0
  6
Continuous
 62
     7
370
    18
100
AcDbPolyline
 90
       37
 70
   128
 43
0.0
 10
245.2514940988
 20
22.5651775098
 10
245.303964291
 20
23.9832092605
 10
245.4609744726
 20
25.4510289736
 10
245.7213287268
 20
26.9574655615
 10
246.0830474687
 20
28.4910544714
 10
246.5433766652
 20
30.0401243772
 10
247.0988141766
 20
31.5928857712
 10
247.7451308302
 20
33.1375206963
 10
248.4774099326
 20
34.6622743785
 10
249.2900769045
 20
36.1555415365
 10
250.1769466959
 20
37.6059583933
 10
251.1312705428
 20
39.0024867027
 10
252.1457853576
 20
40.3344962553
 10
253.2127697062
 20
41.591851946
 10
254.3241037346
 20
42.7649825902
 10
255.471328768
 20
43.8449609572
 10
256.6457144818
 20
44.8235668821
 10
257.8383224514
 20
45.6933543709
 10
259.0400766164
 20
46.4477029246
 10
260.2418307815
 20
47.0808701957
 10
261.4344387511
 20
47.5880385594
 10
262.6088244649
 20
47.9653495181
 10
263.7560494983
 20
48.2099289806
 10
264.8673835267
 20
48.3199172937
 10
265.9343678753
 20
48.2944755098
 10
266.9488826901
 20
48.1337998299
 10
267.903206537
 20
47.8391103808
 10
268.7900763284
 20
47.4126515896
 10
269.6027433003
 20
46.8576697454
 10
270.3350224027
 20
46.1783875184
 10
270.9813390562
 20
45.3799739177
 10
271.5367765677
 20
44.4685070242
 10
271.9971057642
 20
43.4509218957
 10
272.3588245061
 20
42.3349645557
 10
272.6191787603
 20
41.1291265912
 10
272.7761889418
 20
39.8425869751
 10
272.8027994083
 20
39.4449042115
  0
LWPOLYLINE
  5
243
330
1F
100
AcDbEntity
  8
0
  6
Continuous
 62
     7
370
    18
100
AcDbPolyline
 90
       22
 70
   128
 43
0.0
 10
262.41149753
 20
17.032184409
 10
261.4344387511
 20
16.2267466465
 10
260.2418307815
 20
15.3569591577
 10
259.0400766164
 20
14.602610604
 10
257.8383224514
 20
13.9694433329
 10
256.6457144818
 20
13.4622749692
 10
255.471328768
 20
13.0849640105
 10
254.3241037346
 20
12.840384548
 10
253.2127697062
 20
12.7303962349
 10
252.1457853576
 20
12.7558380188
 10
251.1312705428
 20
12.9165136987
 10
250.1769466959
 20
13.2112031478
 10
249.2900769045
 20
13.637661939
 10
248.4774099326
 20
14.1926437832
 10
247.7451308302
 20
14.8719260102
 10
247.0988141766
 20
15.6703396109
 10
246.5433766652
 20
16.5818065044
 10
246.0830474687
 20
17.5993916329
 10
245.7213287268
 20
18.7153489729
 10
245.4609744726
 20
19.9211869374
 10
245.303964291
 20
21.2077265535
 10
245.2514940988
 20
22.5651775098
  0
LWPOLYLINE
  5
244
330
1F
100
AcDbEntity
  8
0
  6
Continuous
 62
     7
370
    18
100
AcDbPolyline
 90
       26
 70
   128
 43
0.0
 10
244.5443872017
 20
22.5651782701
 10
244.5967388559
 20
23.999275571
 10
244.7534065944
 20
25.4831994488
 10
245.0132300616
 20
27.0059634149
 10
245.3742849907
 20
28.5562924567
 10
245.833900325
 20
30.122710109
 10
246.3886713894
 20
31.6936184914
 10
247.0344915004
 20
33.2573874699
 10
247.7665796248
 20
34.8024386851
 10
248.5795146244
 20
36.3173330024
 10
249.4672787192
 20
37.7908556797
 10
250.4232983182
 20
39.2120962123
 10
251.4404967019
 20
40.5705342602
 10
252.5113414384
 20
41.8561096061
 10
253.6279056273
 20
43.0593061809
 10
254.7819215716
 20
44.1712142265
 10
255.9648461382
 20
45.1836045302
 10
257.1679210142
 20
46.0889784187
 10
258.3822389325
 20
46.8806364081
 10
259.5988097316
 20
47.5527132977
 10
260.8086263747
 20
48.1002360537
 10
262.0027313806
 20
48.5191499918
 10
263.1722846948
 20
48.8063533955
 10
264.3086269509
 20
48.9597203478
 10
265.4033452429
 20
48.9781158868
 10
266.3685238789
 20
48.8753962911
  0
ARC
  5
245
330
1F
100
AcDbEntity
  8
0
  6
Continuous
 62
     7
370
    18
100
AcDbCircle
 10
256.5041796535
 20
22.0322963936
 30
0.0
 40
11.97165813842906
100
AcDbArc
 50
177.4488100678
 51
215.9619465922
  0
LWPOLYLINE
  5
246
330
1F
100
AcDbEntity
  8
0
  6
Continuous
 62
     7
370
    18
100
AcDbPolyline
 90
       26
 70
   128
 43
0.0
 10
235.3520001737
 20
27.8718303461
 10
235.4043518279
 20
29.305927647
 10
235.5610195664
 20
30.7898515248
 10
235.8208430336
 20
32.3126154909
 10
236.1818979627
 20
33.8629445327
 10
236.641513297
 20
35.429362185
 10
237.1962843614
 20
37.0002705674
 10
237.8421044724
 20
38.5640395459
 10
238.5741925968
 20
40.1090907611
 10
239.3871275964
 20
41.6239850784
 10
240.2748916912
 20
43.0975077557
 10
241.2309112902
 20
44.5187482883
 10
242.2481096739
 20
45.8771863362
 10
243.3189544104
 20
47.1627616821
 10
244.4355185993
 20
48.3659582568
 10
245.5895345437
 20
49.4778663025
 10
246.7724591102
 20
50.4902566062
 10
247.9755339862
 20
51.3956304947
 10
249.1898519045
 20
52.1872884841
 10
250.4064227036
 20
52.8593653737
 10
251.6162393467
 20
53.4068881296
 10
252.8103443526
 20
53.8258020678
 10
253.9798976668
 20
54.1130054715
 10
255.1162399229
 20
54.2663724238
 10
256.2109582149
 20
54.2847679628
 10
257.1761368509
 20
54.1820483671
  0
ARC
  5
247
330
1F
100
AcDbEntity
  8
0
  6
Continuous
 62
     7
370
    18
100
AcDbCircle
 10
247.3117926255
 20
27.3389484696
 30
0.0
 40
11.97165813842928
100
AcDbArc
 50
177.4488100678
 51
215.9619465922
  0
LWPOLYLINE
  5
248
330
1F
100
AcDbEntity
  8
0
  6
Continuous
 62
     7
370
    18
100
AcDbPolyline
 90
       26
 70
   128
 43
0.0
 10
261.8685048633
 20
21.1364630799
 10
261.9214742323
 20
22.1392688322
 10
262.0795479633
 20
23.1874173981
 10
262.3402321482
 20
24.2643783547
 10
262.6994161523
 20
25.3531674341
 10
263.1514358342
 20
26.4366146762
 10
263.6891617911
 20
27.4976320081
 10
264.3041142747
 20
28.5194879506
 10
264.9865948999
 20
29.4860661632
 10
265.7258404153
 20
30.3821234168
 10
266.5101929369
 20
31.1935289331
 10
267.3272823644
 20
31.9074860431
 10
268.1642228341
 20
32.5127345696
 10
269.0078153031
 20
32.999730136
 10
269.8447557728
 20
33.3607925072
 10
270.6618452004
 20
33.5902267697
 10
271.4461977219
 20
33.6844153986
 10
272.1854432373
 20
33.6418728496
 10
272.8679238625
 20
33.4632699943
 10
273.4828763461
 20
33.1514230764
 10
274.020602303
 20
32.7112509193
 10
274.4726219849
 20
32.1496944932
 10
274.831805989
 20
31.4756104376
 10
275.092490174
 20
30.6996290344
 10
275.2505639049
 20
29.8339885134
 10
275.2514272568
 20
29.8265627975
  0
LWPOLYLINE
  5
249
330
1F
100
AcDbEntity
  8
0
  6
Continuous
 62
     7
370
    18
100
AcDbPolyline
 90
       13
 70
   128
 43
0.0
 10
267.7520366573
 20
16.8358296748
 10
267.3272823644
 20
16.6680104655
 10
266.5101929369
 20
16.438576203
 10
265.7258404153
 20
16.3443875742
 10
264.9865948999
 20
16.3869301232
 10
264.3041142747
 20
16.5655329784
 10
263.6891617911
 20
16.8773798964
 10
263.1514358342
 20
17.3175520535
 10
262.6994161523
 20
17.8791084796
 10
262.3402321482
 20
18.5531925351
 10
262.0795479633
 20
19.3291739383
 10
261.9214742323
 20
20.1948144593
 10
261.8685048633
 20
21.1364630799
  0
LWPOLYLINE
  5
24A
330
1F
100
AcDbEntity
  8
0
  6
Continuous
 62
     7
370
    18
100
AcDbPolyline
 90
       21
 70
   128
 43
0.0
 10
261.1613973077
 20
21.1364634601
 10
261.2129534402
 20
22.15045737
 10
261.3668697796
 20
23.2091903536
 10
261.6209020065
 20
24.2972235136
 10
261.9713451493
 20
25.3986907098
 10
262.4130902199
 20
26.4975310652
 10
262.9396946771
 20
27.5777199496
 10
263.5434795629
 20
28.6235060456
 10
264.2156404664
 20
29.6196396662
 10
264.9463759404
 20
30.5515951789
 10
265.7250297471
 20
31.4057812601
 10
266.5402475911
 20
32.1697435435
 10
267.3801419211
 20
32.8323411275
 10
268.2324649615
 20
33.3839118643
 10
269.084788002
 20
33.8164123635
 10
269.9246823319
 20
34.1235361317
 10
270.739900176
 20
34.3008043364
 10
271.5185539826
 20
34.3456328043
 10
272.2492894566
 20
34.2573665115
 10
272.9214503601
 20
34.0372933511
 10
273.232058475
 20
33.8789922962
  0
LWPOLYLINE
  5
24B
330
1F
100
AcDbEntity
  8
0
  6
Continuous
 62
     7
370
    18
100
AcDbPolyline
 90
        8
 70
   128
 43
0.0
 10
263.1155622807
 20
16.628991063
 10
262.9396946771
 20
16.7483854101
 10
262.4130902199
 20
17.22056973
 10
261.9713451493
 20
17.8093820832
 10
261.6209020065
 20
18.5062362391
 10
261.3668697796
 20
19.300970033
 10
261.2129534402
 20
20.1819949936
 10
261.1613973077
 20
21.1364634601
  0
LWPOLYLINE
  5
24C
330
1F
100
AcDbEntity
  8
0
  6
Continuous
 62
     7
370
    18
100
AcDbPolyline
 90
       14
 70
   128
 43
0.0
 10
264.5201550689
 20
22.6672281603
 10
264.5728070194
 20
23.4507720534
 10
264.7293990252
 20
24.2748131048
 10
264.98587544
 20
25.118009019
 10
265.3355935254
 20
25.958521541
 10
265.7694959893
 20
26.7745818445
 10
266.2763450992
 20
27.5450544883
 10
266.8430134287
 20
28.2499846371
 10
267.4548247372
 20
28.8711146211
 10
268.0959333327
 20
29.3923580734
 10
268.7497349002
 20
29.800214664
 10
269.3992963466
 20
30.0841209067
 10
270.0277942675
 20
30.236724573
 10
270.6036491283
 20
30.255389618
  0
ARC
  5
24D
330
1F
100
AcDbEntity
  8
0
  6
Continuous
 62
     7
370
    18
100
AcDbCircle
 10
267.9419889422
 20
22.4935708207
 30
0.0
 40
3.426237576099509
100
AcDbArc
 50
177.0947438952
 51
212.6269384402
  0
ARC
  5
24E
330
1F
100
AcDbEntity
  8
0
  6
Continuous
 62
     7
370
    18
100
AcDbCircle
 10
265.1261590593
 20
26.0901610935
 30
0.0
 40
13.35814783753455
100
AcDbArc
 50
159.7792731033
 51
175.7728191237
  0
LWPOLYLINE
  5
24F
330
1F
100
AcDbEntity
  8
0
  6
Continuous
 62
     7
370
    18
100
AcDbPolyline
 90
       14
 70
   128
 43
0.0
 10
256.374964938
 20
36.8070810342
 10
256.4221827438
 20
36.855237574
 10
257.2509945929
 20
37.6319388068
 10
258.1048942712
 20
38.3055850302
 10
258.9714299369
 20
38.8663537054
 10
259.8379656026
 20
39.3060658139
 10
260.691865281
 20
39.6183111739
 10
261.52067713
 20
39.7985357333
 10
262.3123151294
 20
39.844110708
 10
263.0552356525
 20
39.7543729168
 10
263.7386049835
 20
39.5306298515
 10
264.352458027
 20
39.1761448329
 10
264.887843846
 20
38.6960868069
 10
264.8885432203
 20
38.6953205749
  0
ARC
  5
250
330
1F
100
AcDbEntity
  8
0
  6
Continuous
 62
     7
370
    18
100
AcDbCircle
 10
255.6216566507
 20
24.7618478904
 30
0.0
 40
3.465290699723691
100
AcDbArc
 50
222.8249939343
 51
257.804128681
  0
LWPOLYLINE
  5
251
330
1F
100
AcDbEntity
  8
0
  6
Continuous
 62
     7
370
    18
100
AcDbPolyline
 90
       15
 70
   128
 43
0.0
 10
252.5428765007
 20
26.6484661381
 10
252.5872768885
 20
27.2684824338
 10
252.7446137082
 20
28.331249352
 10
253.0041902212
 20
29.4233440043
 10
253.3620716243
 20
30.5282114827
 10
253.8128328277
 20
31.6291031012
 10
254.3496407735
 20
32.7093305723
 10
254.9643581567
 20
33.7525182814
 10
255.6476659138
 20
34.7428528969
 10
256.3892064569
 20
35.6653227124
 10
257.1777382665
 20
36.5059418741
 10
258.0013082659
 20
37.2519696627
 10
258.8474318918
 20
37.8920961957
 10
259.7032828993
 20
38.4166181603
 10
260.2514033021
 20
38.688461478
  0
LWPOLYLINE
  5
252
330
1F
100
AcDbEntity
  8
0
  6
Continuous
 62
     7
370
    18
100
AcDbPolyline
 90
       18
 70
   128
 43
0.0
 10
252.2421593951
 20
26.8220663684
 10
252.2868311033
 20
27.4491827004
 10
252.4440039453
 20
28.5108447765
 10
252.7033111137
 20
29.6018046533
 10
253.0608204391
 20
30.7055238677
 10
253.5111134173
 20
31.8052714136
 10
254.0473632467
 20
32.8843755433
 10
254.6614415125
 20
33.9264794627
 10
255.3440393586
 20
34.9157852385
 10
256.084808746
 20
35.837295042
 10
256.8725211616
 20
36.6770411741
 10
257.6952352178
 20
37.4222934659
 10
258.5404795222
 20
38.0617549616
 10
259.3954409801
 20
38.5857314607
 10
260.247159312
 20
38.9862803127
 10
261.0827233002
 20
39.2573297912
 10
261.8894664997
 20
39.3947700225
 10
262.2841860593
 20
39.4126653651
  0
LWPOLYLINE
  5
253
330
1F
100
AcDbEntity
  8
0
  6
Continuous
 62
     7
370
    18
100
AcDbPolyline
 90
       18
 70
   128
 43
0.0
 10
252.4948771671
 20
26.676175504
 10
252.5395488753
 20
27.303291836
 10
252.6967217174
 20
28.3649539121
 10
252.9560288857
 20
29.4559137889
 10
253.3135382111
 20
30.5596330033
 10
253.7638311894
 20
31.6593805492
 10
254.3000810188
 20
32.7384846789
 10
254.9141592845
 20
33.7805885983
 10
255.5967571306
 20
34.7698943741
 10
256.3375265181
 20
35.6914041776
 10
257.1252389337
 20
36.5311503097
 10
257.9479529898
 20
37.2764026015
 10
258.7931972942
 20
37.9158640971
 10
259.6481587521
 20
38.4398405963
 10
260.499877084
 20
38.8403894483
 10
261.3354410723
 20
39.1114389268
 10
262.1421842717
 20
39.2488791581
 10
262.5369038313
 20
39.2667745007
  0
LWPOLYLINE
  5
254
330
1F
100
AcDbEntity
  8
0
  6
Continuous
 62
     7
370
    18
100
AcDbPolyline
 90
       20
 70
   128
 43
0.0
 10
234.6272146493
 20
34.0050963221
 10
234.6792916905
 20
35.1634683407
 10
234.8349314409
 20
36.3688416971
 10
235.0923716356
 20
37.6075596889
 10
235.4486949224
 20
38.8655866311
 10
235.8998637648
 20
40.1286689762
 10
236.4407658819
 20
41.3824949122
 10
237.065273517
 20
42.6128584265
 10
237.7663106093
 20
43.8058193774
 10
238.5359341244
 20
44.9478610921
 10
239.3654232865
 20
46.0260426414
 10
240.2453803362
 20
47.0281494016
 10
241.1658345804
 20
47.9428253653
 10
242.1163571438
 20
48.7597085881
 10
243.0861781069
 20
49.469542158
 10
244.0643091609
 20
50.064283785
 10
245.0396675779
 20
50.5371948592
 10
246.0012020755
 20
50.8829176731
 10
246.9380183519
 20
51.0975342036
 10
247.3064256011
 20
51.1463869424
  0
ARC
  5
255
330
1F
100
AcDbEntity
  8
0
  6
Continuous
 62
     7
370
    18
100
AcDbCircle
 10
243.4641657148
 20
33.797968003
 30
0.0
 40
8.839378161057937
100
AcDbArc
 50
178.6572964073
 51
202.8247061797
  0
LINE
  5
256
330
1F
100
AcDbEntity
  8
0
  6
Continuous
 62
     7
370
    18
100
AcDbLine
 10
233.0149133013
 20
37.1569721838
 30
0.0
 11
233.2773202387
 21
38.1863454924
 31
0.0
  0
LWPOLYLINE
  5
257
330
1F
100
AcDbEntity
  8
0
  6
Continuous
 62
     7
370
    18
100
AcDbPolyline
 90
       11
 70
   128
 43
0.0
 10
241.1105239211
 20
50.4748595281
 10
241.4009565371
 20
50.7118168476
 10
242.4675120909
 20
51.50215668
 10
243.5437760621
 20
52.1759577943
 10
244.6192842918
 20
52.72666985
 10
245.6835801324
 20
53.1489369671
 10
246.7263157197
 20
53.4386546687
 10
247.737352761
 20
53.5930060109
 10
248.7068613271
 20
53.6104897165
 10
249.6254156705
 20
53.4909367067
 10
250.4840846104
 20
53.2355082857
  0
LWPOLYLINE
  5
258
330
1F
100
AcDbEntity
  8
0
  6
Continuous
 62
     7
370
    18
100
AcDbPolyline
 90
       21
 70
   128
 43
0.0
 10
232.5812307912
 20
37.1515346173
 10
232.9443654038
 20
38.5510667145
 10
233.406716332
 20
39.9610622166
 10
233.963834449
 20
41.3679510808
 10
234.6103585441
 20
42.7581956695
 10
235.3400653716
 20
44.1184135606
 10
236.14593353
 20
45.435517086
 10
237.0202073406
 20
46.6968296768
 10
237.954472251
 20
47.8902122832
 10
238.9397381409
 20
49.0041814282
 10
239.9665226277
 20
50.0280150945
 10
241.0249442513
 20
50.9518612721
 10
242.1048168098
 20
51.766828919
 10
243.1957481004
 20
52.4650746219
 10
244.2872392362
 20
53.039878181
 10
245.3687858148
 20
53.4857078579
 10
246.4299795815
 20
53.7982745016
 10
247.4606076633
 20
53.9745690634
 10
248.4507517216
 20
54.0128947403
 10
249.3908822879
 20
53.9128834121
 10
250.2719529364
 20
53.6754967724
  0
LWPOLYLINE
  5
259
330
1F
100
AcDbEntity
  8
0
  6
Continuous
 62
     7
370
    18
100
AcDbPolyline
 90
       20
 70
   128
 43
0.0
 10
234.1322400848
 20
36.4385268702
 10
234.3921550897
 20
37.7011282976
 10
234.7512271412
 20
38.9835605174
 10
235.2055326312
 20
40.2718097074
 10
235.750107451
 20
41.5517982641
 10
236.3789996754
 20
42.8095376509
 10
237.0853373925
 20
44.0312850469
 10
237.8614018021
 20
45.2036893492
 10
238.698712168
 20
46.3139375539
 10
239.5881190022
 20
47.3498982847
 10
240.5199028462
 20
48.3002510623
 10
241.4838814494
 20
49.1546097745
 10
242.4695205693
 20
49.9036383514
 10
243.4660495459
 20
50.5391524662
 10
244.4625785224
 20
51.0542062172
 10
245.4482176423
 20
51.4431723453
 10
246.4121962456
 20
51.7017996378
 10
247.3439800895
 20
51.8272615871
 10
248.2333869237
 20
51.8181881291
 10
248.2979598469
 20
51.8120922832
  0
ARC
  5
25A
330
1F
100
AcDbEntity
  8
0
  6
Continuous
 62
     7
370
    18
100
AcDbCircle
 10
240.9250440839
 20
33.1079077158
 30
0.0
 40
6.914455246378622
100
AcDbArc
 50
190.7635549248
 51
214.1718771162
  0
LWPOLYLINE
  5
25B
330
1F
100
AcDbEntity
  8
0
  6
Continuous
 62
     7
370
    18
100
AcDbPolyline
 90
       26
 70
   128
 43
0.0
 10
223.2604732089
 20
38.3218541867
 10
223.3124652979
 20
39.5930875566
 10
223.4679529245
 20
40.9124787446
 10
223.7254866326
 20
42.267710289
 10
224.0826614174
 20
43.646128313
 10
224.536141751
 20
45.0348624852
 10
225.0816945094
 20
46.4209473106
 10
225.7142251922
 20
47.7914405691
 10
226.4278286309
 20
49.1335476462
 10
227.215841672
 20
50.4347359785
 10
228.0709070565
 20
51.682857101
 10
228.9850409198
 20
52.8662578593
 10
229.9497091838
 20
53.9738899084
 10
230.9559039473
 20
54.9954108479
 10
231.9942312377
 20
55.9212835483
 10
233.0549963742
 20
56.7428619335
 10
234.128295218
 20
57.4524771179
 10
235.2041066559
 20
58.0435022039
 10
236.2723861146
 20
58.5104191932
 10
237.3231594022
 20
58.8488693594
 10
238.3466156052
 20
59.0556916658
 10
239.3331992425
 20
59.1289561938
 10
240.2736985938
 20
59.0679778702
 10
241.1593329557
 20
58.8733265354
 10
241.9818326557
 20
58.5468191407
 10
242.2717654364
 20
58.3913377309
  0
LWPOLYLINE
  5
25C
330
1F
100
AcDbEntity
  8
0
  6
Continuous
 62
     7
370
    18
100
AcDbPolyline
 90
       10
 70
   128
 43
0.0
 10
226.5230449471
 20
31.1107986105
 10
226.4278286309
 20
31.167111457
 10
225.7142251922
 20
31.6853095413
 10
225.0816945094
 20
32.3254984183
 10
224.536141751
 20
33.0817014363
 10
224.0826614174
 20
33.94685836
 10
223.7254866326
 20
34.9128911553
 10
223.4679529245
 20
35.9707806095
 10
223.3124652979
 20
37.110649605
 10
223.2604732089
 20
38.3218541867
  0
LWPOLYLINE
  5
25D
330
1F
100
AcDbEntity
  8
0
  6
Continuous
 62
     7
370
    18
100
AcDbPolyline
 90
       16
 70
   128
 43
0.0
 10
230.9290466707
 20
39.0837542685
 10
231.2559264325
 20
40.3663940736
 10
231.6786672256
 20
41.6596618584
 10
232.1927705325
 20
42.949794047
 10
232.7927645068
 20
44.2230590941
 10
233.4722632425
 20
45.4659061502
 10
234.2240346037
 20
46.6651065013
 10
235.0400779333
 20
47.8078984297
 10
235.9117073585
 20
48.882117055
 10
236.8296466213
 20
49.8763319696
 10
237.78412572
 20
50.7799593023
 10
238.7649861117
 20
51.5833825271
 10
239.7617885077
 20
52.2780511947
 10
240.7639237559
 20
52.8565715594
 10
241.7607261519
 20
53.312786441
 10
242.0751097024
 20
53.4314946666
  0
LWPOLYLINE
  5
25E
330
1F
100
AcDbEntity
  8
0
  6
Continuous
 62
     7
370
    18
100
AcDbPolyline
 90
       17
 70
   128
 43
0.0
 10
230.5032284991
 20
39.731899256
 10
230.8955149015
 20
41.1017051652
 10
231.3909063247
 20
42.4763523925
 10
231.9837807743
 20
43.8402405692
 10
232.6674079255
 20
45.1778884432
 10
233.4340294654
 20
46.4741148611
 10
234.2749453626
 20
47.7142091046
 10
235.1806106728
 20
48.8840966616
 10
236.1407471627
 20
49.9704987231
 10
237.1444572379
 20
50.9610861664
 10
238.1803498892
 20
51.8446153808
 10
239.2366676277
 20
52.6110601009
 10
240.3014220211
 20
53.2517200688
 10
241.3625286541
 20
53.759324801
 10
242.4079441883
 20
54.1281134715
 10
243.4258039153
 20
54.3539006316
 10
244.3945057644
 20
54.4340408517
  0
LINE
  5
25F
330
1F
100
AcDbEntity
  8
0
  6
Continuous
 62
     7
370
    18
100
AcDbLine
 10
224.9101098941
 20
37.7842907566
 30
0.0
 11
226.7076189824
 21
38.8219706656
 31
0.0
  0
ARC
  5
260
330
1F
100
AcDbEntity
  8
0
  6
Continuous
 62
     7
370
    18
100
AcDbCircle
 10
239.1899095176
 20
31.5085067172
 30
0.0
 40
6.404837516614509
100
AcDbArc
 50
195.3958963728
 51
232.3001578819
  0
LWPOLYLINE
  5
261
330
1F
100
AcDbEntity
  8
0
  6
Continuous
 62
     7
370
    18
100
AcDbPolyline
 90
        3
 70
   128
 43
0.0
 10
232.973168165
 20
28.7584088355
 10
232.9514138057
 20
28.8065972277
 10
232.5812307912
 20
29.8026676267
  0
LWPOLYLINE
  5
262
330
1F
100
AcDbEntity
  8
0
  6
Continuous
 62
     7
370
    18
100
AcDbPolyline
 90
       18
 70
   128
 43
0.0
 10
216.0409141201
 20
50.5696630345
 10
216.4639170139
 20
51.7722980669
 10
216.9799333926
 20
52.9658113645
 10
217.5820577584
 20
54.1342338545
 10
218.262236112
 20
55.2619345977
 10
219.0113667098
 20
56.3338245831
 10
219.8194278214
 20
57.3355639417
 10
220.6756081216
 20
58.2537501494
 10
221.5684523935
 20
59.0760979574
 10
222.486015545
 20
59.7916058718
 10
223.4160212365
 20
60.3907009592
 10
224.346026928
 20
60.8653675875
 10
225.2635900795
 20
61.209255538
 10
226.1564343514
 20
61.4177637839
 10
227.0126146517
 20
61.4881023096
 10
227.8206757633
 20
61.4193304517
 10
228.5698063611
 20
61.212368244
 10
228.7968086286
 20
61.1167183549
  0
ARC
  5
263
330
1F
100
AcDbEntity
  8
0
  6
Continuous
 62
     7
370
    18
100
AcDbCircle
 10
219.953245282
 20
44.9133715402
 30
0.0
 40
4.313754385715594
100
AcDbArc
 50
204.9136854455
 51
235.7170250766
  0
LINE
  5
264
330
1F
100
AcDbEntity
  8
0
  6
Continuous
 62
     7
370
    18
100
AcDbLine
 10
224.9101098941
 20
36.9677499059
 30
0.0
 11
226.7076189824
 21
38.005429815
 31
0.0
  0
LINE
  5
265
330
1F
100
AcDbEntity
  8
0
  6
Continuous
 62
     7
370
    18
100
AcDbLine
 10
228.1971686219
 20
32.333532846
 30
0.0
 11
229.5360462415
 21
33.1064504438
 31
0.0
  0
LINE
  5
266
330
1F
100
AcDbEntity
  8
0
  6
Continuous
 62
     7
370
    18
100
AcDbLine
 10
231.9398275382
 20
31.7541840041
 30
0.0
 11
231.7139349182
 21
32.4165832076
 31
0.0
  0
LWPOLYLINE
  5
267
330
1F
100
AcDbEntity
  8
0
  6
Continuous
 62
     7
370
    18
100
AcDbPolyline
 90
        3
 70
   128
 43
0.0
 10
231.5492750836
 20
31.3769567643
 10
231.2559264325
 20
31.9644570828
 10
230.9290466707
 20
32.8696895482
  0
LWPOLYLINE
  5
268
330
1F
100
AcDbEntity
  8
0
  6
Continuous
 62
     7
370
    18
100
AcDbPolyline
 90
        3
 70
   128
 43
0.0
 10
231.2741786521
 20
30.82854906
 10
230.890787869
 20
31.4753267843
 10
230.5032284991
 20
32.3830322653
  0
LINE
  5
269
330
1F
100
AcDbEntity
  8
0
  6
Continuous
 62
     7
370
    18
100
AcDbLine
 10
247.2505948563
 20
55.4193838792
 30
0.0
 11
246.7096058113
 21
55.1070775512
 31
0.0
  0
ARC
  5
26A
330
1F
100
AcDbEntity
  8
0
  6
Continuous
 62
     7
370
    18
100
AcDbCircle
 10
219.8033531931
 20
49.0735720659
 30
0.0
 40
1.102097410650142
100
AcDbArc
 50
159.4112025223
 51
213.191486534
  0
ARC
  5
26B
330
1F
100
AcDbEntity
  8
0
  6
Continuous
 62
     7
370
    18
100
AcDbCircle
 10
218.4715285358
 20
48.9020742809
 30
0.0
 40
0.6345234148781039
100
AcDbArc
 50
41.9991509505
 51
61.7717641965
  0
LINE
  5
26C
330
1F
100
AcDbEntity
  8
0
  6
Continuous
 62
     7
370
    18
100
AcDbLine
 10
218.7716486063
 20
49.4611341232
 30
0.0
 11
218.8811955096
 21
49.8719319816
 31
0.0
  0
LINE
  5
26D
330
1F
100
AcDbEntity
  8
0
  6
Continuous
 62
     7
370
    18
100
AcDbLine
 10
218.7716486063
 20
49.4611341232
 30
0.0
 11
217.9696039573
 21
49.9241446436
 31
0.0
  0
ARC
  5
26E
330
1F
100
AcDbEntity
  8
0
  6
Continuous
 62
     7
370
    18
100
AcDbCircle
 10
218.5616849552
 20
40.8085123146
 30
0.0
 40
0.4314949854781104
100
AcDbArc
 50
27.885175929
 51
60.8829215863
  0
ARC
  5
26F
330
1F
100
AcDbEntity
  8
0
  6
Continuous
 62
     7
370
    18
100
AcDbCircle
 10
220.0113836454
 20
41.5805730473
 30
0.0
 40
1.301169858630619
100
AcDbArc
 50
165.9701496118
 51
197.6767200265
  0
LINE
  5
270
330
1F
100
AcDbEntity
  8
0
  6
Continuous
 62
     7
370
    18
100
AcDbLine
 10
218.3798771858
 20
44.0943437225
 30
0.0
 11
217.0591464187
 21
44.8567853653
 31
0.0
  0
LINE
  5
271
330
1F
100
AcDbEntity
  8
0
  6
Continuous
 62
     7
370
    18
100
AcDbLine
 10
218.7716486063
 20
41.1854780792
 30
0.0
 11
217.9696039573
 21
41.6484885996
 31
0.0
  0
LINE
  5
272
330
1F
100
AcDbEntity
  8
0
  6
Continuous
 62
     7
370
    18
100
AcDbLine
 10
218.7716486063
 20
41.1854780792
 30
0.0
 11
218.8811955096
 21
40.9011603831
 31
0.0
  0
OLE2FRAME
  5
273
330
1F
100
AcDbEntity
  8
0
100
AcDbOle2Frame
 70
     2
  3
Paintbrush-Bild
 10
13.8511154363
 20
38.264191557
 30
0.0
 11
51.6290888628
 21
31.9806341108
 31
0.0
 71
     2
 72
     0
 73
     1
 90
    12928
310
80552BED0767C5B32B40DDAF6807D121434000000000000000006FFBDDFB85D0
310
4940DDAF6807D121434000000000000000006FFBDDFB85D04940416F4BD60AFB
310
3F4000000000000000002BED0767C5B32B40416F4BD60AFB3F40000000000000
310
0000000000000100000000010000010000000100000000000100000000320000
310
D0CF11E0A1B11AE1000000000000000000000000000000003E000300FEFF0900
310
0600000000000000000000000100000001000000000000000010000002000000
310
01000000FEFFFFFF0000000000000000FFFFFFFFFFFFFFFFFFFFFFFFFFFFFFFF
310
FFFFFFFFFFFFFFFFFFFFFFFFFFFFFFFFFFFFFFFFFFFFFFFFFFFFFFFFFFFFFFFF
310
FFFFFFFFFFFFFFFFFFFFFFFFFFFFFFFFFFFFFFFFFFFFFFFFFFFFFFFFFFFFFFFF
310
FFFFFFFFFFFFFFFFFFFFFFFFFFFFFFFFFFFFFFFFFFFFFFFFFFFFFFFFFFFFFFFF
310
FFFFFFFFFFFFFFFFFFFFFFFFFFFFFFFFFFFFFFFFFFFFFFFFFFFFFFFFFFFFFFFF
310
FFFFFFFFFFFFFFFFFFFFFFFFFFFFFFFFFFFFFFFFFFFFFFFFFFFFFFFFFFFFFFFF
310
FFFFFFFFFFFFFFFFFFFFFFFFFFFFFFFFFFFFFFFFFFFFFFFFFFFFFFFFFFFFFFFF
310
FFFFFFFFFFFFFFFFFFFFFFFFFFFFFFFFFFFFFFFFFFFFFFFFFFFFFFFFFFFFFFFF
310
FFFFFFFFFFFFFFFFFFFFFFFFFFFFFFFFFFFFFFFFFFFFFFFFFFFFFFFFFFFFFFFF
310
FFFFFFFFFFFFFFFFFFFFFFFFFFFFFFFFFFFFFFFFFFFFFFFFFFFFFFFFFFFFFFFF
310
FFFFFFFFFFFFFFFFFFFFFFFFFFFFFFFFFFFFFFFFFFFFFFFFFFFFFFFFFFFFFFFF
310
FFFFFFFFFFFFFFFFFFFFFFFFFFFFFFFFFFFFFFFFFFFFFFFFFFFFFFFFFFFFFFFF
310
FFFFFFFFFFFFFFFFFFFFFFFFFFFFFFFFFFFFFFFFFFFFFFFFFFFFFFFFFFFFFFFF
310
FFFFFFFFFFFFFFFFFFFFFFFFFFFFFFFFFFFFFFFFFFFFFFFFFFFFFFFFFFFFFFFF
310
FDFFFFFFFEFFFFFFFEFFFFFFFEFFFFFF05000000060000000700000008000000
310
090000000A0000000B0000000C0000000D0000000E0000000F00000010000000
310
11000000120000001300000014000000150000001600000017000000FEFFFFFF
310
FFFFFFFFFFFFFFFFFFFFFFFFFFFFFFFFFFFFFFFFFFFFFFFFFFFFFFFFFFFFFFFF
310
FFFFFFFFFFFFFFFFFFFFFFFFFFFFFFFFFFFFFFFFFFFFFFFFFFFFFFFFFFFFFFFF
310
FFFFFFFFFFFFFFFFFFFFFFFFFFFFFFFFFFFFFFFFFFFFFFFFFFFFFFFFFFFFFFFF
310
FFFFFFFFFFFFFFFFFFFFFFFFFFFFFFFFFFFFFFFFFFFFFFFFFFFFFFFFFFFFFFFF
310
FFFFFFFFFFFFFFFFFFFFFFFFFFFFFFFFFFFFFFFFFFFFFFFFFFFFFFFFFFFFFFFF
310
FFFFFFFFFFFFFFFFFFFFFFFFFFFFFFFFFFFFFFFFFFFFFFFFFFFFFFFFFFFFFFFF
310
FFFFFFFFFFFFFFFFFFFFFFFFFFFFFFFFFFFFFFFFFFFFFFFFFFFFFFFFFFFFFFFF
310
FFFFFFFFFFFFFFFFFFFFFFFFFFFFFFFFFFFFFFFFFFFFFFFFFFFFFFFFFFFFFFFF
310
FFFFFFFFFFFFFFFFFFFFFFFFFFFFFFFFFFFFFFFFFFFFFFFFFFFFFFFFFFFFFFFF
310
FFFFFFFFFFFFFFFFFFFFFFFFFFFFFFFFFFFFFFFFFFFFFFFFFFFFFFFFFFFFFFFF
310
FFFFFFFFFFFFFFFFFFFFFFFFFFFFFFFFFFFFFFFFFFFFFFFFFFFFFFFFFFFFFFFF
310
FFFFFFFFFFFFFFFFFFFFFFFFFFFFFFFFFFFFFFFFFFFFFFFFFFFFFFFFFFFFFFFF
310
FFFFFFFFFFFFFFFFFFFFFFFFFFFFFFFFFFFFFFFFFFFFFFFFFFFFFFFFFFFFFFFF
310
52006F006F007400200045006E00740072007900000000000000000000000000
310
0000000000000000000000000000000000000000000000000000000000000000
310
16000500FFFFFFFFFFFFFFFF020000000A00030000000000C000000000000046
310
000000000000000000000000E0C6848750A9D30103000000C000000000000000
310
01004F006C006500000000000000000000000000000000000000000000000000
310
0000000000000000000000000000000000000000000000000000000000000000
310
0A000200FFFFFFFFFFFFFFFFFFFFFFFF00000000000000000000000000000000
310
0000000000000000000000000000000000000000000000001400000000000000
310
010043006F006D0070004F0062006A0000000000000000000000000000000000
310
0000000000000000000000000000000000000000000000000000000000000000
310
120002010100000003000000FFFFFFFF00000000000000000000000000000000
310
0000000000000000000000000000000000000000010000004D00000000000000
310
01004F006C006500310030004E00610074006900760065000000000000000000
310
0000000000000000000000000000000000000000000000000000000000000000
310
1A000200FFFFFFFFFFFFFFFFFFFFFFFF00000000000000000000000000000000
310
0000000000000000000000000000000000000000040000002426000000000000
310
FEFFFFFF02000000FEFFFFFFFFFFFFFFFFFFFFFFFFFFFFFFFFFFFFFFFFFFFFFF
310
FFFFFFFFFFFFFFFFFFFFFFFFFFFFFFFFFFFFFFFFFFFFFFFFFFFFFFFFFFFFFFFF
310
FFFFFFFFFFFFFFFFFFFFFFFFFFFFFFFFFFFFFFFFFFFFFFFFFFFFFFFFFFFFFFFF
310
FFFFFFFFFFFFFFFFFFFFFFFFFFFFFFFFFFFFFFFFFFFFFFFFFFFFFFFFFFFFFFFF
310
FFFFFFFFFFFFFFFFFFFFFFFFFFFFFFFFFFFFFFFFFFFFFFFFFFFFFFFFFFFFFFFF
310
FFFFFFFFFFFFFFFFFFFFFFFFFFFFFFFFFFFFFFFFFFFFFFFFFFFFFFFFFFFFFFFF
310
FFFFFFFFFFFFFFFFFFFFFFFFFFFFFFFFFFFFFFFFFFFFFFFFFFFFFFFFFFFFFFFF
310
FFFFFFFFFFFFFFFFFFFFFFFFFFFFFFFFFFFFFFFFFFFFFFFFFFFFFFFFFFFFFFFF
310
FFFFFFFFFFFFFFFFFFFFFFFFFFFFFFFFFFFFFFFFFFFFFFFFFFFFFFFFFFFFFFFF
310
FFFFFFFFFFFFFFFFFFFFFFFFFFFFFFFFFFFFFFFFFFFFFFFFFFFFFFFFFFFFFFFF
310
FFFFFFFFFFFFFFFFFFFFFFFFFFFFFFFFFFFFFFFFFFFFFFFFFFFFFFFFFFFFFFFF
310
FFFFFFFFFFFFFFFFFFFFFFFFFFFFFFFFFFFFFFFFFFFFFFFFFFFFFFFFFFFFFFFF
310
FFFFFFFFFFFFFFFFFFFFFFFFFFFFFFFFFFFFFFFFFFFFFFFFFFFFFFFFFFFFFFFF
310
FFFFFFFFFFFFFFFFFFFFFFFFFFFFFFFFFFFFFFFFFFFFFFFFFFFFFFFFFFFFFFFF
310
FFFFFFFFFFFFFFFFFFFFFFFFFFFFFFFFFFFFFFFFFFFFFFFFFFFFFFFFFFFFFFFF
310
FFFFFFFFFFFFFFFFFFFFFFFFFFFFFFFFFFFFFFFFFFFFFFFFFFFFFFFFFFFFFFFF
310
0100000200000000000000000000000000000000000000000000000000000000
310
0000000000000000000000000000000000000000000000000000000000000000
310
0100FEFF030A0000FFFFFFFF0A00030000000000C00000000000004607000000
310
5042727573680007000000504272757368000700000050427275736800F439B2
310
7100000000000000000000000000000000000000000000000000000000000000
310
0000000000000000000000000000000000000000000000000000000000000000
310
0000000000000000000000000000000000000000000000000000000000000000
310
0000000000000000000000000000000000000000000000000000000000000000
310
0000000000000000000000000000000000000000000000000000000000000000
310
0000000000000000000000000000000000000000000000000000000000000000
310
0000000000000000000000000000000000000000000000000000000000000000
310
0000000000000000000000000000000000000000000000000000000000000000
310
0000000000000000000000000000000000000000000000000000000000000000
310
0000000000000000000000000000000000000000000000000000000000000000
310
0000000000000000000000000000000000000000000000000000000000000000
310
0000000000000000000000000000000000000000000000000000000000000000
310
20260000424D0E260000000000003E00000028000000B40200006E0000000100
310
01000000000000000000130B0000130B00000200000002000000000000FFFFFF
310
FFFFFFFFFFFFFFFFFFFFFFFFFFFFFFFFFFFFFFFFFFFFFFFFFFFFFFFFFFFFFFFF
310
FFFFFFFFFFFFFFFFFFFFFFFFFFFFFFFFFFFFFFFFFFFFFFFFFFFFFFFFFFFFFFFF
310
FFFFFFFFFFFFFFFFFFFFFFFFFFFFFFFFFFFFFFFFFFFFFFFFF000FFFFFFFFFFFF
310
FFFFFFFFFFFFFFFFFFFFFFFFFFFFFFFFFFFFFFFFFFFFFFFFFFFFFFFFFFFFFFFF
310
FFFFFFFFFFFFFFFFFFFFFFFFFFFFFFFFFFFFFFFFFFFFFFFFFFFFFFFFFFFFFFFF
310
FFFFFFFFFFFFFFFFFFFFFFFFFFFFFFFFF000FFFFFFFFFFFFFFFFFFFFFFFFFFFF
310
FFFFFFFFFFFFFFFFFFFFFFFFFFFFFFFFFFFFFFFFFFFFFFFFFFFFFFFFFFFFFFFF
310
FFFFFFFFFFFFFFFFFFFFFFFFFFFFFFFFFFFFFFFFFFFFFFFFFFFFFFFFFFFFFFFF
310
FFFFFFFFFFFFFFFFF000FFFFFFFFFFFFFFFFFFFFFFFFFFFFFFFFFFFFFFFFFFFF
310
FFFFFFFFFFFFFFFFFFFFFFFFFFFFFFFFFFFFFFFFFFFFFFFFFFFFFFFFFFFFFFFF
310
FFFFFFFFFFFFFFFFFFFFFFFFFFFFFFFFFFFFFFFFFFFFFFFFFFFFFFFFFFFFFFFF
310
F000FFFFFFFFFFFFFFFFFFFFFFFFFFFFFFFFFFFFFFFFFFFFFFFFFFFFFFFFFFFF
310
FFFFFFFFFFFFFFFFFFFFFFFFFFFFFFFFFFFFFFFFFFFFFFFFFFFFFFFFFFFFFFFF
310
FFFFFFFFFFFFFFFFFFFFFFFFFFFFFFFFFFFFFFFFFFFFFFFFF000FFFFFFFFFFFF
310
FFFFFFFFFFFFFFFFFFFFFFFFFFFFFFFFFFFFFFFFFFFFFFFFFFFFFFFFFFFFFFFF
310
FFFFFFFFFFFFFFFFFFFFFFFFFFFFFFFFFFFFFFFFFFFFFFFFFFFFFFFFFFFFFFFF
310
FFFFFFFFFFFFFFFFFFFFFFFFFFFFFFFFF000FFFFFFFFFFFFFFFFFFFFFFFFFFFF
310
FFFFFFFFFFFFFFFFFFFFFFFFFFFFFFFFFFFFFFFFFFFFFFFFFFFFFFFFFFFFFFFF
310
FFFFFFFFFFFFFFFFFFFFFFFFFFFFFFFFFFFFFFFFFFFFFFFFFFFFFFFFFFFFFFFF
310
FFFFFFFFFFFFFFFFF000FFFFFFFFFFFFFFFFFFFFFFFFFFFFFFFFFFFFFFFFFFFF
310
FFFFFFFFFFFFFFFFFFFFFFFFFFFFFFFFFFFFFFFFFFFFFFFFFFFFFFFFFFFFFFFF
310
FFFFFFFFFFFFFFFFFFFFFFFFFFFFFFFFFFFFFFFFFFFFFFFFFFFFFFFFFFFFFFFF
310
F000FFFFFFFFFFFFFFFFFFFFFFFFFFFFFFFFFFFFFFFFFFFFFFFFFFFFFFFFFFFF
310
FFFFFFFFFFFFFFFFFFFFFFFFFFFFFFFFFFFFFFFFFFFFFFFFFFFFFFFFFFFFFFFF
310
FFFFFFFFFFFFFFFFFFFFFFFFFFFFFFFFFFFFFFFFFFFFFFFFF000FFFFFFFFFFFF
310
FFFFFFFFFFFFFFFFFFFFFFFFFFFFFFFFFFFFFFFFFFFFFFFFFFFFFFFFFFFFFFFF
310
FFFFFFFFFFFFFFFFFFFFFFFFFFFFFFFFFFFFFFFFFFFFFFFFFFFFFFFFFFFFFFFF
310
FFFFFFFFFFFFFFFFFFFFFFFFFFFFFFFFF000FFFFFFFFFFFFFFFFFFFFFFFFFFFF
310
FFFFFFFFFFFFFFFFFFFFFFFFFFFFFFFFFFFFFFFFFFFFFFFFFFFFFFFFFFFFFFFF
310
FFFFFFFFFFFFFFFFFFFFFFFFFFFFFFFFFFFFFFFFFFFFFFFFFFFFFFFFFFFFFFFF
310
FFFFFFFFFFFFFFFFF000FFFFFFFFFFFFFFFFFFFFFFFFFFFFFFFFFFFFFFFFFFFF
310
FFFFFFFFFFFFFFFFFFFFFFFFFFFFFFFFFFFFFFFFFFFFFFFFFFFFFFFFFFFFFFFF
310
FFFFFFFFFFFFFFFFFFFFFFFFFFFFFFFFFFFFFFFFFFFFFFFFFFFFFFFFFFFFFFFF
310
F000FFFFFFFFFFFFFFFFFFFFFFFFFFFFFFFFFFFFFFFFFFFFFFFFFFFFFFFFFFFF
310
FFFFFFFFFFFFFFFFFFFFFFFFFFFFFFFFFFFFFFFFFFFFFFFFFFFFFFFFFFFFFFFF
310
FFFFFFFFFFFFFFFFFFFFFFFFFFFFFFFFFFFFFFFFFFFFFFFFF000FFFFFFFFFFFF
310
FFFFFFFFFFFFFFFFFFFFFFFFFFFFFFFFFFFFFFFFFFFFFFFFFFFFFFFFFFFFFFFF
310
FFFFFFFFFFFFFFFFFFFFFFFFFFFFFFFFFFFFFFFFFFFFFFFFFFFFFFFFFFFFFFFF
310
FFFFFFFFFFFFFFFFFFFFFFFFFFFFFFFFF000FFFFFFFFFFFFFFFFFFFFFFFFFFFF
310
FFFFFFFFFFFFFFFFFFFFFFFFFFFFFFFFFFFFFFFFFFFFFFFFFFFFFFFFFFFFFFFF
310
FFFFFFFFFFFFFFFFFFFFFFFFFFFFFFFFFFFFFFFFFFFFFFFFFFFFFFFFFFFFFFFF
310
FFFFFFFFFFFFFFFFF000FFFFFFFFFFFFFFFFFFFFFFFFFFFFFFFFFFFFFFFFFFFF
310
FFFFFFFFFFFFFFFFFFFFFFFFFFFFFFFFFFFFFFFFFFFFFFFFFFFFFFFFFFFFFFFF
310
FFFFFFFFFFFFFFFFFFFFFFFFFFFFFFFFFFFFFFFFFFFFFFFFFFFFFFFFFFFFFFFF
310
F000FFFFFFFFFFFFFFFFFFFFFFFFFFFFFFFFFFFFFFFFFFFFFFFFFFFFFFFFFFFF
310
FFFFFFFFFFFFFFFFFFFFFFFFFFFFFFFFFFFFFFFFFFFFFFFFFFFFFFFFFFFFFFFF
310
FFFFFFFFFFFFFFFFFFFFFFFFFFFFFFFFFFFFFFFFFFFFFFFFF000FFFFFFFFFFFF
310
FFFFFFFFFFFFFFFFFFFFFFFFFFFFFFFFFFFFFFFFFFFFFFFFFFFFFFFFFFFFFFFF
310
FFFFFFFFFFFFFFFFFFFFFFFFFFFFFFFFFFFFFFFFFFFFFFFFFFFFFFFFFFFFFFFF
310
FFFFFFFFFFFFFFFFFFFFFFFFFFFFFFFFF000FFFFFFFFFFFFFFFFFFFFFFFFFFFF
310
FFFFFFFFFFFFFFFFFFFFFFFFFFFFFFFFFFFFFFFFFFFFFFFFFFFFFFFFFFFFFFFF
310
FFFFFFFFFFFFFFFFFFFFFFFFFFFFFFFFFFFFFFFFFFFFFFFFFFFFFFFFFFFFFFFF
310
FFFFFFFFFFFFFFFFF000FFFFF80003FFFFFFFFFFFFFFFFFFFFFFFFFFFFFFFFFF
310
FFFFF00007FFFFFFFFFF00007FFFFFF800000000000000007FFFFFFFFFFFFFFF
310
FFFFFFFC001FFFFFFFFFFFFFFC001FFFFFFFFFFFFFFFFFFFFFFFFFFE0007FFFF
310
F000FFFF8000007FFFFFFFF8000FFFFFC0007FFFFF80007FFFFF0000007FFFFF
310
FFF8000007FFFFF800000000000000007FFFFFF0001FFFFFFFFFFFC00001FFFF
310
FFFFFFFFC00001FFFFFFFF000000000003FFFFE000007FFFF000FFFE0000000F
310
FFFFFFF0000FFFFF80007FFFFF80007FFFFC0000001FFFFFFFC0000001FFFFF8
310
00000000000000007FFFFFF0001FFFFFFFFFFE0000003FFFFFFFFFFE0000003F
310
FFFFFF000000000003FFFF0000000FFFF000FFF800000003FFFFFFF00007FFFF
310
80007FFFFF80007FFFF000000007FFFFFF000000003FFFF80000000000000000
310
7FFFFFF0001FFFFFFFFFF80000000FFFFFFFFFF80000000FFFFFFF0000000000
310
03FFFC00000003FFF000FFE000000000FFFFFFF00007FFFF80003FFFFF80007F
310
FFC000000001FFFFFC000000001FFFF800000000000000007FFFFFF0001FFFFF
310
FFFFE000000003FFFFFFFFE000000003FFFFFF000000000003FFF000000000FF
310
F000FF80000000007FFFFFF00007FFFF80003FFFFF80007FFF8000000000FFFF
310
F80000000007FFF800000000000000007FFFFFF0001FFFFFFFFFC000000001FF
310
FFFFFFC000000001FFFFFF000000000003FFC0000000007FF000FF0000000000
310
3FFFFFE00007FFFF00003FFFFF80007FFE00000000003FFFF00000000003FFF8
310
00000000000000007FFFFFF0001FFFFFFFFF8000000000FFFFFFFF8000000000
310
FFFFFF000000000003FF80000000003FF000FE00000000001FFFFFE00003FFFF
310
00003FFFFF80007FFC00000000001FFFE00000000001FFF8000001FFFE000000
310
7FFFFFF0001FFFFFFFFE00000000003FFFFFFE00000000003FFFFF0000000000
310
03FF00000000001FF000FC00000000000FFFFFE00003FFFF00001FFFFF80007F
310
F800000000001FFFC00000000000FFF8000001FFFE0000007FFFFFF0001FFFFF
310
FFFC00000000001FFFFFFC00000000001FFFFF000000000003FE00000000000F
310
F000F8000000000007FFFFE00003FFFF00001FFFFF80007FF800000000000FFF
310
800000000000FFF8000001FFFE0000007FFFFFF0001FFFFFFFF800000000000F
310
FFFFF800000000000FFFFF000000000003FC000000000007F000F80000000000
310
03FFFFC00003FFFE00001FFFFF80007FF0000000000007FF0000000000007FF8
310
000001FFFE0000007FFFFFF0001FFFFFFFF0000000000007FFFFF00000000000
310
07FFFF000000000003F8000000000003F000F0000000000003FFFFC00001FFFE
310
00001FFFFF80007FE0000000000007FE0000000000003FF8000001FFFE000000
310
7FFFFFF0001FFFFFFFF0000000000007FFFFF0000000000007FFFF0000000000
310
03F800001F800003F000E00001FFF00001FFFFC00001FFFE00000FFFFF80007F
310
E00001FFE00003FE00001FFF00003FF8000001FFFE0000007FFFFFF0001FFFFF
310
FFE000003E000003FFFFE000003E000003FFFF000000000003F00001FFF80001
310
F000E00007FFFC0001FFFFC00001FFFE00000FFFFF80007FC0000FFFFC0003FC
310
0000FFFFC0001FF8000001FFFE0000007FFFFFF0001FFFFFFFC00003FFE00001
310
FFFFC00003FFE00001FFFF0001FFFFFFFFF00007FFFE0001F000E0000FFFFF00
310
00FFFF800001FFFC00000FFFFF80007FC0001FFFFE0001FC0001FFFFE0001FF8
310
000001FFFE0000007FFFFFF0001FFFFFFF80000FFFF80000FFFF80000FFFF800
310
00FFFF0003FFFFFFFFE0000FFFFF8000F000C0003FFFFF8000FFFF800000FFFC
310
000007FFFF80007F80003FFFFF0001FC0003FFFFF0001FF8000001FFFE000000
310
7FFFFFF0001FFFFFFF80003FFFFE0000FFFF80003FFFFE0000FFFF0003FFFFFF
310
FFE0003FFFFF8000F000C0003FFFFF8000FFFF800000FFFC000007FFFF80007F
310
80007FFFFF8001F80007FFFFF8000FF8000001FFFE0000007FFFFFF0001FFFFF
310
FF00007FFFFF00007FFF00007FFFFF00007FFF0003FFFFFFFFE0003FFFFFC000
310
F000C0007FFFFFC000FFFF000000FFFC000007FFFF80007F8000FFFFFF8000F8
310
000FFFFFF8000FF8000001FFFE0000007FFFFFF0001FFFFFFF0000FFFFFF8000
310
7FFF0000FFFFFF80007FFF0003FFFFFFFFC0007FFFFFC00070008000FFFFFFC0
310
00FFFF000000FFF8000007FFFF80007F8000FFFFFF8000F8000FFFFFF8000FF8
310
000001FFFE0000007FFFFFF0001FFFFFFE0001FFFFFFC0003FFE0001FFFFFFC0
310
003FFF0003FFFFFFFFC0007FFFFFE00070008000FFFFFFC0007FFF0000007FF8
310
000003FFFF80007F0001FFFFFF8000F8000FFFFFF8000FF8000001FFFE000000
310
7FFFFFF0001FFFFFFE0001FFFFFFC0003FFE0001FFFFFFC0003FFF0003FFFFFF
310
FFC000FFFFFFE00070008000FFFFFFC0007FFF0000007FF8000003FFFF80007F
310
0001FFFFFF8000F8001FFFFFF8000FF8000001FFFE0000007FFFFFF0001FFFFF
310
FE0003FFFFFFE0003FFE0003FFFFFFE0003FFF0003FFFFFFFFC000FFFFFFE000
310
70008000FFFFFFC0007FFE0000007FF8000003FFFF80007F0001FFFFFF8000F0
310
001FFFFFF8000FF8000001FFFE0000007FFFFFF0001FFFFFFC0003FFFFFFE000
310
1FFC0003FFFFFFE0001FFF0003FFFFFFFFC000FFFFFFC00070008000FFFFFF80
310
007FFE0000007FF0000003FFFF80007F0001FFFFFF0000F0001FFFFFF8000FF8
310
000001FFFE0000007FFFFFF0001FFFFFFC0007FFFFFFF0001FFC0007FFFFFFF0
310
001FFF0003FFFFFFFFC000FFFFFFC00070008001FFFFFF0000FFFE0000003FF0
310
000001FFFF80007F0001FFFFFF0000F8001FFFFFF0000FF8000001FFFE000000
310
7FFFFFF0001FFFFFFC0007FFFFFFF0001FFC0007FFFFFFF0001FFF0003FFFFFF
310
FFC001FFFFFF80007000FFFFFFFFFE0000FFFE0008003FF0008001FFFF80007F
310
FFFFFFFFFC0000FFFFFFFFFFE0000FF8000001FFFE0000007FFFFFF0001FFFFF
310
F8000FFFFFFFF8000FF8000FFFFFFFF8000FFF0003FFFFFFFFFFFFFFFFFF0000
310
7000FFFFFFFFFC0000FFFC0008003FF0008001FFFF80007FFFFFFFFFF80001FF
310
FFFFFFFF80000FF8000001FFFE0000007FFFFFF0001FFFFFF8000FFFFFFFF800
310
0FF8000FFFFFFFF8000FFF0003FFFFFFFFFFFFFFFFFE0000F000FFFFFFFFE000
310
00FFFC000C003FE000C001FFFF80007FFFFFFFFFC00001FFFFFFFFFE00001FF8
310
000001FFFE0000007FFFFFF0001FFFFFF8000FFFFFFFF8000FF8000FFFFFFFF8
310
000FFF0003FFFFFFFFFFFFFFFFF00000F000FFFFFFFE000001FFFC000C001FE0
310
00C000FFFF80007FFFFFFFFE000001FFFFFFFFE000001FF80FFFFFFFFFFFFFC0
310
7FFFFFF0001FFFFFF8000FFFFFFFF8000FF8000FFFFFFFF8000FFF0003FFFFFF
310
FFFFFFFFFF800000F000FFFFFFC0000001FFFC001C001FE001C000FFFF80007F
310
FFFFFF80000003FFFFFFF80000001FF80FFFFFFFFFFFFFC07FFFFFF0001FFFFF
310
F8001FFFFFFFFC000FF8001FFFFFFFFC000FFF0003FFFFFFFFFFFFFFF0000001
310
F000FFFFF800000001FFF8001C001FE001C000FFFF80007FFFFFF800000003FF
310
FFFF800000003FF80FFFFFFFFFFFFFC07FFFFFF0001FFFFFF8001FFFFFFFFC00
310
0FF8001FFFFFFFFC000FFF0003FFFFFFFFFFFFFE00000001F000FFFFC0000000
310
03FFF8001E001FC001E000FFFF80007FFFFF8000000007FFFFFC000000003FF8
310
0FFFFFFFFFFFFFC07FFFFFF0001FFFFFF8001FFFFFFFFC000FF8001FFFFFFFFC
310
000FFF0003FFFFFFFFFFFFE000000003F000FFFE0000000007FFF8001E000FC0
310
01E0007FFF80007FFFFE0000000007FFFFE0000000007FF80FFFFFFFFFFFFFC0
310
7FFFFFF0001FFFFFF0001FFFFFFFFC0007F0001FFFFFFFFC0007FF0003FFFFFF
310
FFFFFF0000000003F000FFF80000000007FFF8001E000FC003E0007FFF80007F
310
FFF0000000000FFFFF8000000000FFF80FFFFFFFFFFFFFC07FFFFFF0001FFFFF
310
F0001FFFFFFFFC0007F0001FFFFFFFFC0007FF0003FFFFFFFFFFFC0000000007
310
F000FFE0000000000FFFF0003E000FC003E0007FFF80007FFFC0000000001FFF
310
FE0000000001FFF80FFFFFFFFFFFFFC07FFFFFF0001FFFFFF0001FFFFFFFFC00
310
07F0001FFFFFFFFC0007FF0003FFFFFFFFFFF0000000000FF000FFC000000000
310
1FFFF0003F000F8003F0003FFF80007FFF80000000003FFFF80000000003FFF8
310
0FFFFFFFFFFFFFC07FFFFFF0001FFFFFF0001FFFFFFFFC0007F0001FFFFFFFFC
310
0007FF0003FFFFFFFFFFE0000000001FF000FF00000000007FFFF0003F000780
310
03F0003FFF80007FFF00000000007FFFF00000000007FFF80FFFFFFFFFFFFFC0
310
7FFFFFF0001FFFFFF0001FFFFFFFFC0007F0001FFFFFFFFC0007FF0003FFFFFF
310
FFFF80000000007FF000FE0000000000FFFFE0003F00078007F0003FFF80007F
310
FE0000000001FFFFE0000000001FFFF80FFFFFFFFFFFFFC07FFFFFF0001FFFFF
310
F0001FFFFFFFFC0007F0001FFFFFFFFC0007FF0003FFFFFFFFFF0000000000FF
310
F000FC0000000003FFFFE0007F00078007F0003FFF80007FFC0000000007FFFF
310
C0000000007FFFF80FFFFFFFFFFFFFC07FFFFFF0001FFFFFF8001FFFFFFFFC00
310
0FF8001FFFFFFFFC000FFF0003FFFFFFFFFE0000000003FFF000FC000000000F
310
FFFFE0007F80070007F8001FFF80007FF8000000001FFFFF8000000001FFFFF8
310
0FFFFFFFFFFFFFC07FFFFFF0001FFFFFF8001FFFFFFFFC000FF8001FFFFFFFFC
310
000FFF0003FFFFFFFFFC000000000FFFF000F8000000007FFFFFE0007F800700
310
07F8001FFF80007FF000000000FFFFFF800000000FFFFFF80FFFFFFFFFFFFFC0
310
7FFFFFF0001FFFFFF8000FFFFFFFF8000FF8000FFFFFFFF8000FFF0003FFFFFF
310
FFFC000000007FFFF000F800000007FFFFFFC0007F8003000FF8001FFF80007F
310
F000000007FFFFFF000000007FFFFFF80FFFFFFFFFFFFFC07FFFFFF0001FFFFF
310
F8000FFFFFFFF8000FF8000FFFFFFFF8000FFF0003FFFFFFFFF80000000FFFFF
310
F000F0000000FFFFFFFFC000FF8003000FF8001FFF80007FE0000000FFFFFFFF
310
0000000FFFFFFFF8000001FFFE0000007FFFFFF0001FFFFFF8000FFFFFFFF800
310
0FF8000FFFFFFFF8000FFF0003FFFFFFFFF8000000FFFFFFF000F000000FFFFF
310
FFFFC000FFC002000FF8000FFF80007FE000001FFFFFFFFE000001FFFFFFFFF8
310
000001FFFE0000007FFFFFF0001FFFFFF8000FFFFFFFF8000FF8000FFFFFFFF8
310
000FFF0003FFFFFFFFF000001FFFFFFFF000E00000FFFFFFFFFFC000FFC00200
310
0FFC000FFF80007FE00001FFFFFFFFFE00001FFFFFFFFFF8000001FFFE000000
310
7FFFFFF0001FFFFFFC000FFFFFFFF8001FFC000FFFFFFFF8001FFF0003FFFFFF
310
FFF00001FFFFFFFFF000E00007FFFFFFFFFF8000FFC000001FFC000FFF80007F
310
C0000FFFFFFFFFFE0000FFFFFFFFFFF8000001FFFE0000007FFFFFF0001FFFFF
310
FC0007FFFFFFF0001FFC0007FFFFFFF0001FFF0003FFFFFFFFF00007FFFFFFFF
310
F000E0001FFFFFFFFFFF8000FFC000001FFC000FFF80007FC0003FFFFFFFFFFE
310
0001FFFFFFFFFFF8000001FFFE0000007FFFFFF0001FFFFFFC0007FFFFFFF000
310
1FFC0007FFFFFFF0001FFF0003FFFFFFFFF0001FFFFFFFFFF000E0003FFFFF00
310
03FF8001FFE000001FFC0007FF80007FC0007FFFFF0007FC0003FFFFF0003FF8
310
000001FFFE0000007FFFFFF0001FFFFFFC0003FFFFFFE0001FFC0003FFFFFFE0
310
001FFF0003FFFFFFFFF0003FFFFFFFFFF000E0003FFFFF0001FF8001FFE00000
310
1FFE0007FF80007FC0007FFFFE0003FC0007FFFFE0003FF8000001FFFE000000
310
7FFFFFF0001FFFFFFE0003FFFFFFE0003FFE0003FFFFFFE0003FFF0003FFFFFF
310
FFF0003FFFFF8001F000E0003FFFFF0001FF0001FFE000001FFE0007FF80007F
310
C0007FFFFE0003FC0007FFFFE0003FF8000001FFFE0000007FFFFFF0001FFFFF
310
FE0001FFFFFFC0003FFE0001FFFFFFC0003FFF0003FFFFFFFFF0003FFFFF0001
310
F000E0003FFFFF0003FF0001FFE000003FFE0007FF80007FC0007FFFFE0003FC
310
0007FFFFE0003FF8000001FFFE0000007FFFFFF0001FFFFFFF0001FFFFFFC000
310
7FFF0001FFFFFFC0007FFF0003FFFFFFFFF0003FFFFF0001F000E0003FFFFE00
310
03FF0003FFF000003FFE0003FF80007FC0007FFFFC0003FE0007FFFFE0003FF8
310
000001FFFE0000007FFFFFF0001FFFFFFF0000FFFFFF80007FFF0000FFFFFF80
310
007FFF0003FFFFFFFFF0003FFFFF0001F000E0003FFFFE0003FF0003FFF00000
310
3FFF0003FF80007FC0007FFFFC0007FE0007FFFFC0003FF8000001FFFE000000
310
7FFFFFF0001FFFFFFF80007FFFFF0000FFFF80007FFFFF0000FFFF0003FFFFFF
310
FFF0003FFFFF0003F000E0003FFFFC0003FE0003FFF000003FFF0003FF80007F
310
E0003FFFF80007FE0003FFFFC0007FF8000001FFFE0000007FFFFFF0001FFFFF
310
FF80003FFFFE0000FFFF80003FFFFE0000FFFF0003FFFFFFFFF0001FFFFE0003
310
F000F0001FFFF80003FE0003FFF000007FFF0001FF80007FE0003FFFF00007FE
310
0001FFFF80007FF8000001FFFE0000007FFFFFF0001FFFFFFFC0000FFFF80001
310
FFFFC0000FFFF80001FFFF0003FFFFFFFFF0001FFFFC0003F000F0000FFFF000
310
07FE0007FFF800007FFF0001FF80007FE0001FFFE00007FF0000FFFE00007FF8
310
000001FFFE0000007FFFFFF0001FFFFFFFC00003FFE00001FFFFC00003FFE000
310
01FFFF0003FFFFFFFFF8000FFFF80003F000F00003FFC00007FC0007FFF80000
310
7FFF8001FF80007FF00007FF80000FFF00007FF80000FFF8000001FFFE000000
310
7F80000000000001FFE000003E000003FFFFE000003E000003FFFF0003FFFFFF
310
FFF80003FFE00007F000F800000000000FFC0007FFF800007FFF8001FF80007F
310
F000000000000FFF000000000000FFF8000001FFFE0000007F80000000000001
310
FFF0000000000007FFFFF0000000000007FFFF0003FFFFFFFFFC00007E000007
310
F000F800000000000FFC0007FFF80000FFFF8000FF80007FF800000000001FFF
310
800000000001FFF8000001FFFE0000007F80000000000001FFF800000000000F
310
FFFFF800000000000FFFFF0003FFFFFFFFFC00000000000FF000FC0000000000
310
1FFC0007FFFC0000FFFF8000FF80007FF800000000003FFFC00000000001FFF8
310
000001FFFE0000007F80000000000001FFF800000000000FFFFFF80000000000
310
0FFFFF0003FFFFFFFFFE00000000001FF000FE00000000003FF8000FFFFC0000
310
FFFF8000FF80007FFC00000000003FFFC00000000003FFF8000001FFFE000000
310
7F80000000000001FFFC00000000001FFFFFFC00000000001FFFFF0003FFFFFF
310
FFFF00000000001FF000FF00000000003FF8000FFFFC0000FFFFC000FF80007F
310
FE00000000007FFFE00000000007FFF8000001FFFE0000007F80000000000001
310
FFFE00000000003FFFFFFE00000000003FFFFF0003FFFFFFFFFF80000000003F
310
F000FF80000000007FF8000FFFFC0001FFFFC0007F80007FFF0000000000FFFF
310
F0000000000FFFF800000000000000007F80000000000001FFFF8000000000FF
310
FFFFFF8000000000FFFFFF0003FFFFFFFFFFC0000000007FF000FFC000000000
310
FFF8000FFFFE0001FFFFC0007F80007FFF8000000001FFFFF8000000001FFFF8
310
00000000000000007F80000000000001FFFFC000000001FFFFFFFFC000000001
310
FFFFFF0003FFFFFFFFFFE000000000FFF000FFE000000003FFF0001FFFFE0001
310
FFFFC0007F80007FFFC000000007FFFFFE000000003FFFF80000000000000000
310
7F80000000000001FFFFE000000003FFFFFFFFE000000003FFFFFF0003FFFFFF
310
FFFFF000000003FFF000FFF80000000FFFF0001FFFFE0001FFFFE0007F80007F
310
FFF00000000FFFFFFF00000000FFFFF800000000000000007F80000000000001
310
FFFFF80000000FFFFFFFFFF80000000FFFFFFF0003FFFFFFFFFFFC0000000FFF
310
F000FFFE0000003FFFF0001FFFFE0003FFFFE0003F80007FFFFC0000003FFFFF
310
FFC0000003FFFFF800000000000000007F80000000000001FFFFFE0000003FFF
310
FFFFFFFE0000003FFFFFFF0003FFFFFFFFFFFF0000003FFFF000FFFF800000FF
310
FFF0001FFFFF0003FFFFE0003F80007FFFFF000001FFFFFFFFF800001FFFFFF8
310
00000000000000007F80000000000001FFFFFFC00001FFFFFFFFFFFFC00001FF
310
FFFFFF0003FFFFFFFFFFFFC00000FFFFF000FFFFF8000FFFFFFFFFFFFFFFFFFF
310
FFFFFFFFFFFFFFFFFFFFF0001FFFFFFFFFFF0000FFFFFFF80000000000000000
310
7FFFFFFFFFFFFFFFFFFFFFFC001FFFFFFFFFFFFFFC001FFFFFFFFFFFFFFFFFFF
310
FFFFFFFC001FFFFFF000FFFFFFFFFFFFFFFFFFFFFFFFFFFFFFFFFFFFFFFFFFFF
310
FFFFFFFFFFFFFFFFFFFFFFFFFFFFFFFFFFFFFFFFFFFFFFFFFFFFFFFFFFFFFFFF
310
FFFFFFFFFFFFFFFFFFFFFFFFFFFFFFFFFFFFFFFFFFFFFFFFFFFFFFFFFFFFFFFF
310
F000FFFFFFFFFFFFFFFFFFFFFFFFFFFFFFFFFFFFFFFFFFFFFFFFFFFFFFFFFFFF
310
FFFFFFFFFFFFFFFFFFFFFFFFFFFFFFFFFFFFFFFFFFFFFFFFFFFFFFFFFFFFFFFF
310
FFFFFFFFFFFFFFFFFFFFFFFFFFFFFFFFFFFFFFFFFFFFFFFFF000FFFFFFFFFFFF
310
FFFFFFFFFFFFFFFFFFFFFFFFFFFFFFFFFFFFFFFFFFFFFFFFFFFFFFFFFFFFFFFF
310
FFFFFFFFFFFFFFFFFFFFFFFFFFFFFFFFFFFFFFFFFFFFFFFFFFFFFFFFFFFFFFFF
310
FFFFFFFFFFFFFFFFFFFFFFFFFFFFFFFFF000FFFFFFFFFFFFFFFFFFFFFFFFFFFF
310
FFFFFFFFFFFFFFFFFFFFFFFFFFFFFFFFFFFFFFFFFFFFFFFFFFFFFFFFFFFFFFFF
310
FFFFFFFFFFFFFFFFFFFFFFFFFFFFFFFFFFFFFFFFFFFFFFFFFFFFFFFFFFFFFFFF
310
FFFFFFFFFFFFFFFFF000FFFFFFFFFFFFFFFFFFFFFFFFFFFFFFFFFFFFFFFFFFFF
310
FFFFFFFFFFFFFFFFFFFFFFFFFFFFFFFFFFFFFFFFFFFFFFFFFFFFFFFFFFFFFFFF
310
FFFFFFFFFFFFFFFFFFFFFFFFFFFFFFFFFFFFFFFFFFFFFFFFFFFFFFFFFFFFFFFF
310
F000FFFFFFFFFFFFFFFFFFFFFFFFFFFFFFFFFFFFFFFFFFFFFFFFFFFFFFFFFFFF
310
FFFFFFFFFFFFFFFFFFFFFFFFFFFFFFFFFFFFFFFFFFFFFFFFFFFFFFFFFFFFFFFF
310
FFFFFFFFFFFFFFFFFFFFFFFFFFFFFFFFFFFFFFFFFFFFFFFFF000FFFFFFFFFFFF
310
FFFFFFFFFFFFFFFFFFFFFFFFFFFFFFFFFFFFFFFFFFFFFFFFFFFFFFFFFFFFFFFF
310
FFFFFFFFFFFFFFFFFFFFFFFFFFFFFFFFFFFFFFFFFFFFFFFFFFFFFFFFFFFFFFFF
310
FFFFFFFFFFFFFFFFFFFFFFFFFFFFFFFFF000FFFFFFFFFFFFFFFFFFFFFFFFFFFF
310
FFFFFFFFFFFFFFFFFFFFFFFFFFFFFFFFFFFFFFFFFFFFFFFFFFFFFFFFFFFFFFFF
310
FFFFFFFFFFFFFFFFFFFFFFFFFFFFFFFFFFFFFFFFFFFFFFFFFFFFFFFFFFFFFFFF
310
FFFFFFFFFFFFFFFFF000FFFFFFFFFFFFFFFFFFFFFFFFFFFFFFFFFFFFFFFFFFFF
310
FFFFFFFFFFFFFFFFFFFFFFFFFFFFFFFFFFFFFFFFFFFFFFFFFFFFFFFFFFFFFFFF
310
FFFFFFFFFFFFFFFFFFFFFFFFFFFFFFFFFFFFFFFFFFFFFFFFFFFFFFFFFFFFFFFF
310
F000FFFFFFFFFFFFFFFFFFFFFFFFFFFFFFFFFFFFFFFFFFFFFFFFFFFFFFFFFFFF
310
FFFFFFFFFFFFFFFFFFFFFFFFFFFFFFFFFFFFFFFFFFFFFFFFFFFFFFFFFFFFFFFF
310
FFFFFFFFFFFFFFFFFFFFFFFFFFFFFFFFFFFFFFFFFFFFFFFFF000FFFFFFFFFFFF
310
FFFFFFFFFFFFFFFFFFFFFFFFFFFFFFFFFFFFFFFFFFFFFFFFFFFFFFFFFFFFFFFF
310
FFFFFFFFFFFFFFFFFFFFFFFFFFFFFFFFFFFFFFFFFFFFFFFFFFFFFFFFFFFFFFFF
310
FFFFFFFFFFFFFFFFFFFFFFFFFFFFFFFFF000FFFFFFFFFFFFFFFFFFFFFFFFFFFF
310
FFFFFFFFFFFFFFFFFFFFFFFFFFFFFFFFFFFFFFFFFFFFFFFFFFFFFFFFFFFFFFFF
310
FFFFFFFFFFFFFFFFFFFFFFFFFFFFFFFFFFFFFFFFFFFFFFFFFFFFFFFFFFFFFFFF
310
FFFFFFFFFFFFFFFFF000FFFFFFFFFFFFFFFFFFFFFFFFFFFFFFFFFFFFFFFFFFFF
310
FFFFFFFFFFFFFFFFFFFFFFFFFFFFFFFFFFFFFFFFFFFFFFFFFFFFFFFFFFFFFFFF
310
FFFFFFFFFFFFFFFFFFFFFFFFFFFFFFFFFFFFFFFFFFFFFFFFFFFFFFFFFFFFFFFF
310
F000FFFFFFFFFFFFFFFFFFFFFFFFFFFFFFFFFFFFFFFFFFFFFFFFFFFFFFFFFFFF
310
FFFFFFFFFFFFFFFFFFFFFFFFFFFFFFFFFFFFFFFFFFFFFFFFFFFFFFFFFFFFFFFF
310
FFFFFFFFFFFFFFFFFFFFFFFFFFFFFFFFFFFFFFFFFFFFFFFFF000FFFFFFFFFFFF
310
FFFFFFFFFFFFFFFFFFFFFFFFFFFFFFFFFFFFFFFFFFFFFFFFFFFFFFFFFFFFFFFF
310
FFFFFFFFFFFFFFFFFFFFFFFFFFFFFFFFFFFFFFFFFFFFFFFFFFFFFFFFFFFFFFFF
310
FFFFFFFFFFFFFFFFFFFFFFFFFFFFFFFFF000FFFFFFFFFFFFFFFFFFFFFFFFFFFF
310
FFFFFFFFFFFFFFFFFFFFFFFFFFFFFFFFFFFFFFFFFFFFFFFFFFFFFFFFFFFFFFFF
310
FFFFFFFFFFFFFFFFFFFFFFFFFFFFFFFFFFFFFFFFFFFFFFFFFFFFFFFFFFFFFFFF
310
FFFFFFFFFFFFFFFFF000FFFFFFFFFFFFFFFFFFFFFFFFFFFFFFFFFFFFFFFFFFFF
310
FFFFFFFFFFFFFFFFFFFFFFFFFFFFFFFFFFFFFFFFFFFFFFFFFFFFFFFFFFFFFFFF
310
FFFFFFFFFFFFFFFFFFFFFFFFFFFFFFFFFFFFFFFFFFFFFFFFFFFFFFFFFFFFFFFF
310
F000FFFFFFFFFFFFFFFFFFFFFFFFFFFFFFFFFFFFFFFFFFFFFFFFFFFFFFFFFFFF
310
FFFFFFFFFFFFFFFFFFFFFFFFFFFFFFFFFFFFFFFFFFFFFFFFFFFFFFFFFFFFFFFF
310
FFFFFFFFFFFFFFFFFFFFFFFFFFFFFFFFFFFFFFFFFFFFFFFFF000FFFFFFFFFFFF
310
FFFFFFFFFFFFFFFFFFFFFFFFFFFFFFFFFFFFFFFFFFFFFFFFFFFFFFFFFFFFFFFF
310
FFFFFFFFFFFFFFFFFFFFFFFFFFFFFFFFFFFFFFFFFFFFFFFFFFFFFFFFFFFFFFFF
310
FFFFFFFFFFFFFFFFFFFFFFFFFFFFFFFFF000FFFFFFFFFFFFFFFFFFFFFFFFFFFF
310
FFFFFFFFFFFFFFFFFFFFFFFFFFFFFFFFFFFFFFFFFFFFFFFFFFFFFFFFFFFFFFFF
310
FFFFFFFFFFFFFFFFFFFFFFFFFFFFFFFFFFFFFFFFFFFFFFFFFFFFFFFFFFFFFFFF
310
FFFFFFFFFFFFFFFFF000FFFFFFFFFFFFFFFFFFFFFFFFFFFFFFFFFFFFFFFFFFFF
310
FFFFFFFFFFFFFFFFFFFFFFFFFFFFFFFFFFFFFFFFFFFFFFFFFFFFFFFFFFFFFFFF
310
FFFFFFFFFFFFFFFFFFFFFFFFFFFFFFFFFFFFFFFFFFFFFFFFFFFFFFFFFFFFFFFF
310
F000FFFFFFFFFFFFFFFFFFFFFFFFFFFFFFFFFFFFFFFFFFFFFFFFFFFFFFFFFFFF
310
FFFFFFFFFFFFFFFFFFFFFFFFFFFFFFFFFFFFFFFFFFFFFFFFFFFFFFFFFFFFFFFF
310
FFFFFFFFFFFFFFFFFFFFFFFFFFFFFFFFFFFFFFFFFFFFFFFFF000FFFFFFFFFFFF
310
FFFFFFFFFFFFFFFFFFFFFFFFFFFFFFFFFFFFFFFFFFFFFFFFFFFFFFFFFFFFFFFF
310
FFFFFFFFFFFFFFFFFFFFFFFFFFFFFFFFFFFFFFFFFFFFFFFFFFFFFFFFFFFFFFFF
310
FFFFFFFFFFFFFFFFFFFFFFFFFFFFFFFFF0000000000000000000000000000000
310
0000000000000000000000000000000000000000000000000000000000000000
310
0000000000000000000000000000000000000000000000000000000000000000
310
0000000000000000000000000000000000000000000000000000000000000000
310
0000000000000000000000000000000000000000000000000000000000000000
310
0000000000000000000000000000000000000000000000000000000000000000
310
0000000000000000000000000000000000000000000000000000000000000000
310
0000000000000000000000000000000000000000000000000000000000000000
310
0000000000000000000000000000000000000000000000000000000000000000
310
0000000000000000000000000000000000000000000000000000000000000000
310
0000000000000000000000000000000000000000000000000000000000000000
310
0000000000000000000000000000000000000000000000000000000000000000
310
0000000000000000000000000000000000000000000000000000000000000000
310
0000000000000000000000000000000000000000000000000000000000000000
310
0000000000000000000000000000000000000000000000000000000000000000
310
0000000000000000000000000000000000000000000000000000000000000000
  1
OLE
  0
ENDSEC
  0
SECTION
  2
OBJECTS
  0
DICTIONARY
  5
C
330
0
100
AcDbDictionary
281
     1
  3
ACAD_GROUP
350
D
  3
ACAD_LAYOUT
350
1A
  3
ACAD_MLINESTYLE
350
17
  3
ACAD_PLOTSETTINGS
350
19
  3
ACAD_PLOTSTYLENAME
350
E
  3
ACAD_SCALELIST
350
47
  0
DICTIONARY
  5
D
102
{ACAD_REACTORS
330
C
102
}
330
C
100
AcDbDictionary
281
     1
  0
DICTIONARY
  5
1A
102
{ACAD_REACTORS
330
C
102
}
330
C
100
AcDbDictionary
281
     1
  3
Layout1
350
1E
  3
Layout2
350
26
  3
Model
350
22
  0
DICTIONARY
  5
17
102
{ACAD_REACTORS
330
C
102
}
330
C
100
AcDbDictionary
281
     1
  3
Standard
350
18
  0
DICTIONARY
  5
19
102
{ACAD_REACTORS
330
C
102
}
330
C
100
AcDbDictionary
281
     1
  0
ACDBDICTIONARYWDFLT
  5
E
102
{ACAD_REACTORS
330
C
102
}
330
C
100
AcDbDictionary
281
     1
  3
Normal
350
F
100
AcDbDictionaryWithDefault
340
F
  0
DICTIONARY
  5
47
102
{ACAD_REACTORS
330
C
102
}
330
C
100
AcDbDictionary
281
     1
  3
A0
350
48
  3
A1
350
49
  3
A2
350
4A
  3
A3
350
4B
  3
A4
350
4C
  3
A5
350
4D
  3
A6
350
4E
  3
A7
350
4F
  3
A8
350
50
  3
A9
350
51
  3
B0
350
52
  3
B1
350
53
  3
B2
350
54
  3
B3
350
55
  3
B4
350
56
  3
B5
350
57
  3
B6
350
58
  3
B7
350
59
  3
B8
350
5A
  3
B9
350
5B
  3
C0
350
5C
  3
C1
350
5D
  3
C2
350
5E
  3
C3
350
5F
  3
C4
350
60
  3
C5
350
61
  3
C6
350
62
  3
C7
350
63
  3
C8
350
64
  3
C9
350
65
  3
D0
350
66
  3
D1
350
67
  3
D2
350
68
  0
LAYOUT
  5
1E
102
{ACAD_REACTORS
330
1A
102
}
330
1A
100
AcDbPlotSettings
  1

  2
none_device
  4

  6

 40
0.0
 41
0.0
 42
0.0
 43
0.0
 44
0.0
 45
0.0
 46
0.0
 47
0.0
 48
0.0
 49
0.0
140
0.0
141
0.0
142
1.0
143
1.0
 70
   688
 72
     1
 73
     0
 74
     5
  7

 75
    16
147
1.0
148
0.0
149
0.0
100
AcDbLayout
  1
Layout1
 70
     1
 71
     1
 10
0.0
 20
0.0
 11
420.0
 21
297.0
 12
0.0
 22
0.0
 32
0.0
 14
1.0000000000E+20
 24
1.0000000000E+20
 34
1.0000000000E+20
 15
-1.0000000000E+20
 25
-1.0000000000E+20
 35
-1.0000000000E+20
146
0.0
 13
0.0
 23
0.0
 33
0.0
 16
1.0
 26
0.0
 36
0.0
 17
0.0
 27
1.0
 37
0.0
 76
     0
330
1B
  0
LAYOUT
  5
26
102
{ACAD_REACTORS
330
1A
102
}
330
1A
100
AcDbPlotSettings
  1

  2
none_device
  4

  6

 40
0.0
 41
0.0
 42
0.0
 43
0.0
 44
0.0
 45
0.0
 46
0.0
 47
0.0
 48
0.0
 49
0.0
140
0.0
141
0.0
142
1.0
143
1.0
 70
   688
 72
     1
 73
     0
 74
     5
  7

 75
    16
147
1.0
148
0.0
149
0.0
100
AcDbLayout
  1
Layout2
 70
     1
 71
     2
 10
0.0
 20
0.0
 11
0.0
 21
0.0
 12
0.0
 22
0.0
 32
0.0
 14
0.0
 24
0.0
 34
0.0
 15
0.0
 25
0.0
 35
0.0
146
0.0
 13
0.0
 23
0.0
 33
0.0
 16
1.0
 26
0.0
 36
0.0
 17
0.0
 27
1.0
 37
0.0
 76
     0
330
23
  0
LAYOUT
  5
22
102
{ACAD_REACTORS
330
1A
102
}
330
1A
100
AcDbPlotSettings
  1

  2
none_device
  4
Letter_(8.50_x_11.00_Inches)
  6

 40
6.35
 41
6.35
 42
6.35000508
 43
6.35000508
 44
215.9
 45
279.4
 46
0.0
 47
0.0
 48
0.0
 49
0.0
140
0.0
141
0.0
142
1.0
143
1.0
 70
  1712
 72
     1
 73
     0
 74
     0
  7

 75
     0
147
1.0
148
0.0
149
0.0
100
AcDbLayout
  1
Model
 70
     1
 71
     0
 10
0.0
 20
0.0
 11
297.0
 21
210.0
 12
0.0
 22
0.0
 32
0.0
 14
0.0
 24
0.0
 34
0.0
 15
297.0
 25
210.0
 35
0.0
146
0.0
 13
0.0
 23
0.0
 33
0.0
 16
1.0
 26
0.0
 36
0.0
 17
0.0
 27
1.0
 37
0.0
 76
     0
330
1F
331
29
  0
MLINESTYLE
  5
18
102
{ACAD_REACTORS
330
17
102
}
330
17
100
AcDbMlineStyle
  2
Standard
 70
     0
  3

 62
   256
 51
90.0
 52
90.0
 71
     2
 49
0.5
 62
   256
  6
BYLAYER
 49
-0.5
 62
   256
  6
BYLAYER
  0
ACDBPLACEHOLDER
  5
F
102
{ACAD_REACTORS
330
E
102
}
330
E
  0
SCALE
  5
48
102
{ACAD_REACTORS
330
47
102
}
330
47
100
AcDbScale
 70
     0
300
1:1
140
1.0
141
1.0
290
     1
  0
SCALE
  5
49
102
{ACAD_REACTORS
330
47
102
}
330
47
100
AcDbScale
 70
     0
300
1:2
140
1.0
141
2.0
290
     0
  0
SCALE
  5
4A
102
{ACAD_REACTORS
330
47
102
}
330
47
100
AcDbScale
 70
     0
300
1:4
140
1.0
141
4.0
290
     0
  0
SCALE
  5
4B
102
{ACAD_REACTORS
330
47
102
}
330
47
100
AcDbScale
 70
     0
300
1:5
140
1.0
141
5.0
290
     0
  0
SCALE
  5
4C
102
{ACAD_REACTORS
330
47
102
}
330
47
100
AcDbScale
 70
     0
300
1:8
140
1.0
141
8.0
290
     0
  0
SCALE
  5
4D
102
{ACAD_REACTORS
330
47
102
}
330
47
100
AcDbScale
 70
     0
300
1:10
140
1.0
141
10.0
290
     0
  0
SCALE
  5
4E
102
{ACAD_REACTORS
330
47
102
}
330
47
100
AcDbScale
 70
     0
300
1:16
140
1.0
141
16.0
290
     0
  0
SCALE
  5
4F
102
{ACAD_REACTORS
330
47
102
}
330
47
100
AcDbScale
 70
     0
300
1:20
140
1.0
141
20.0
290
     0
  0
SCALE
  5
50
102
{ACAD_REACTORS
330
47
102
}
330
47
100
AcDbScale
 70
     0
300
1:30
140
1.0
141
30.0
290
     0
  0
SCALE
  5
51
102
{ACAD_REACTORS
330
47
102
}
330
47
100
AcDbScale
 70
     0
300
1:40
140
1.0
141
40.0
290
     0
  0
SCALE
  5
52
102
{ACAD_REACTORS
330
47
102
}
330
47
100
AcDbScale
 70
     0
300
1:50
140
1.0
141
50.0
290
     0
  0
SCALE
  5
53
102
{ACAD_REACTORS
330
47
102
}
330
47
100
AcDbScale
 70
     0
300
1:100
140
1.0
141
100.0
290
     0
  0
SCALE
  5
54
102
{ACAD_REACTORS
330
47
102
}
330
47
100
AcDbScale
 70
     0
300
2:1
140
2.0
141
1.0
290
     0
  0
SCALE
  5
55
102
{ACAD_REACTORS
330
47
102
}
330
47
100
AcDbScale
 70
     0
300
4:1
140
4.0
141
1.0
290
     0
  0
SCALE
  5
56
102
{ACAD_REACTORS
330
47
102
}
330
47
100
AcDbScale
 70
     0
300
8:1
140
8.0
141
1.0
290
     0
  0
SCALE
  5
57
102
{ACAD_REACTORS
330
47
102
}
330
47
100
AcDbScale
 70
     0
300
10:1
140
10.0
141
1.0
290
     0
  0
SCALE
  5
58
102
{ACAD_REACTORS
330
47
102
}
330
47
100
AcDbScale
 70
     0
300
100:1
140
100.0
141
1.0
290
     0
  0
SCALE
  5
59
102
{ACAD_REACTORS
330
47
102
}
330
47
100
AcDbScale
 70
     0
300
1/128" = 1'-0"
140
0.0078125
141
12.0
290
     0
  0
SCALE
  5
5A
102
{ACAD_REACTORS
330
47
102
}
330
47
100
AcDbScale
 70
     0
300
1/64" = 1'-0"
140
0.015625
141
12.0
290
     0
  0
SCALE
  5
5B
102
{ACAD_REACTORS
330
47
102
}
330
47
100
AcDbScale
 70
     0
300
1/32" = 1'-0"
140
0.03125
141
12.0
290
     0
  0
SCALE
  5
5C
102
{ACAD_REACTORS
330
47
102
}
330
47
100
AcDbScale
 70
     0
300
1/16" = 1'-0"
140
0.0625
141
12.0
290
     0
  0
SCALE
  5
5D
102
{ACAD_REACTORS
330
47
102
}
330
47
100
AcDbScale
 70
     0
300
3/32" = 1'-0"
140
0.09375
141
12.0
290
     0
  0
SCALE
  5
5E
102
{ACAD_REACTORS
330
47
102
}
330
47
100
AcDbScale
 70
     0
300
1/8" = 1'-0"
140
0.125
141
12.0
290
     0
  0
SCALE
  5
5F
102
{ACAD_REACTORS
330
47
102
}
330
47
100
AcDbScale
 70
     0
300
3/16" = 1'-0"
140
0.1875
141
12.0
290
     0
  0
SCALE
  5
60
102
{ACAD_REACTORS
330
47
102
}
330
47
100
AcDbScale
 70
     0
300
1/4" = 1'-0"
140
0.25
141
12.0
290
     0
  0
SCALE
  5
61
102
{ACAD_REACTORS
330
47
102
}
330
47
100
AcDbScale
 70
     0
300
3/8" = 1'-0"
140
0.375
141
12.0
290
     0
  0
SCALE
  5
62
102
{ACAD_REACTORS
330
47
102
}
330
47
100
AcDbScale
 70
     0
300
1/2" = 1'-0"
140
0.5
141
12.0
290
     0
  0
SCALE
  5
63
102
{ACAD_REACTORS
330
47
102
}
330
47
100
AcDbScale
 70
     0
300
3/4" = 1'-0"
140
0.75
141
12.0
290
     0
  0
SCALE
  5
64
102
{ACAD_REACTORS
330
47
102
}
330
47
100
AcDbScale
 70
     0
300
1" = 1'-0"
140
1.0
141
12.0
290
     0
  0
SCALE
  5
65
102
{ACAD_REACTORS
330
47
102
}
330
47
100
AcDbScale
 70
     0
300
1-1/2" = 1'-0"
140
1.5
141
12.0
290
     0
  0
SCALE
  5
66
102
{ACAD_REACTORS
330
47
102
}
330
47
100
AcDbScale
 70
     0
300
3" = 1'-0"
140
3.0
141
12.0
290
     0
  0
SCALE
  5
67
102
{ACAD_REACTORS
330
47
102
}
330
47
100
AcDbScale
 70
     0
300
6" = 1'-0"
140
6.0
141
12.0
290
     0
  0
SCALE
  5
68
102
{ACAD_REACTORS
330
47
102
}
330
47
100
AcDbScale
 70
     0
300
1'-0" = 1'-0"
140
12.0
141
12.0
290
     0
  0
ENDSEC
  0
EOF
