  0
SECTION
  2
HEADER
  9
$ACADVER
  1
AC1015
  9
$ACADMAINTVER
 70
     6
  9
$DWGCODEPAGE
  3
ANSI_1252
  9
$INSBASE
 10
0.0
 20
0.0
 30
0.0
  9
$EXTMIN
 10
0.0
 20
0.0
 30
0.0
  9
$EXTMAX
 10
297.0
 20
210.0
 30
0.0
  9
$LIMMIN
 10
0.0
 20
0.0
  9
$LIMMAX
 10
297.0
 20
210.0
  9
$ORTHOMODE
 70
     0
  9
$REGENMODE
 70
     1
  9
$FILLMODE
 70
     1
  9
$QTEXTMODE
 70
     0
  9
$MIRRTEXT
 70
     1
  9
$LTSCALE
 40
1.0
  9
$ATTMODE
 70
     1
  9
$TEXTSIZE
 40
2.0
  9
$TRACEWID
 40
1.0
  9
$TEXTSTYLE
  7
STANDARD
  9
$CLAYER
  8
0
  9
$CELTYPE
  6
ByLayer
  9
$CECOLOR
 62
   256
  9
$CELTSCALE
 40
1.0
  9
$DISPSILH
 70
     0
  9
$DIMSCALE
 40
1.0
  9
$DIMASZ
 40
3.0
  9
$DIMEXO
 40
0.0
  9
$DIMDLI
 40
3.75
  9
$DIMRND
 40
0.0
  9
$DIMDLE
 40
0.0
  9
$DIMEXE
 40
1.0
  9
$DIMTP
 40
0.0
  9
$DIMTM
 40
0.0
  9
$DIMTXT
 40
2.0
  9
$DIMCEN
 40
2.5
  9
$DIMTSZ
 40
0.0
  9
$DIMTOL
 70
     0
  9
$DIMLIM
 70
     0
  9
$DIMTIH
 70
     1
  9
$DIMTOH
 70
     1
  9
$DIMSE1
 70
     0
  9
$DIMSE2
 70
     0
  9
$DIMTAD
 70
     1
  9
$DIMZIN
 70
     0
  9
$DIMBLK
  1

  9
$DIMASO
 70
     1
  9
$DIMSHO
 70
     1
  9
$DIMPOST
  1

  9
$DIMAPOST
  1

  9
$DIMALT
 70
     0
  9
$DIMALTD
 70
     3
  9
$DIMALTF
 40
0.0393700787
  9
$DIMLFAC
 40
1.0
  9
$DIMTOFL
 70
     1
  9
$DIMTVP
 40
0.0
  9
$DIMTIX
 70
     0
  9
$DIMSOXD
 70
     0
  9
$DIMSAH
 70
     0
  9
$DIMBLK1
  1

  9
$DIMBLK2
  1

  9
$DIMSTYLE
  2
ISO-25
  9
$DIMCLRD
 70
     0
  9
$DIMCLRE
 70
     0
  9
$DIMCLRT
 70
     0
  9
$DIMTFAC
 40
1.0
  9
$DIMGAP
 40
1.524
  9
$DIMJUST
 70
     0
  9
$DIMSD1
 70
     0
  9
$DIMSD2
 70
     0
  9
$DIMTOLJ
 70
     0
  9
$DIMTZIN
 70
     0
  9
$DIMALTZ
 70
     0
  9
$DIMALTTZ
 70
     0
  9
$DIMUPT
 70
     0
  9
$DIMDEC
 70
     2
  9
$DIMTDEC
 70
     3
  9
$DIMALTU
 70
     2
  9
$DIMALTTD
 70
     3
  9
$DIMTXSTY
  7
STANDARD
  9
$DIMAUNIT
 70
     0
  9
$DIMADEC
 70
     2
  9
$DIMALTRND
 40
0.0
  9
$DIMAZIN
 70
     0
  9
$DIMDSEP
 70
    44
  9
$DIMATFIT
 70
     3
  9
$DIMFRAC
 70
     0
  9
$DIMLDRBLK
  1

  9
$DIMLUNIT
 70
     2
  9
$DIMLWD
 70
    -2
  9
$DIMLWE
 70
    -2
  9
$DIMTMOVE
 70
     0
  9
$LUNITS
 70
     2
  9
$LUPREC
 70
     2
  9
$SKETCHINC
 40
1.0
  9
$FILLETRAD
 40
10.0
  9
$AUNITS
 70
     0
  9
$AUPREC
 70
     2
  9
$MENU
  1
.
  9
$ELEVATION
 40
0.0
  9
$PELEVATION
 40
0.0
  9
$THICKNESS
 40
0.0
  9
$LIMCHECK
 70
     0
  9
$CHAMFERA
 40
10.0
  9
$CHAMFERB
 40
10.0
  9
$CHAMFERC
 40
20.0
  9
$CHAMFERD
 40
0.0
  9
$SKPOLY
 70
     0
  9
$TDCREATE
 40
2457070.367632465
  9
$TDUCREATE
 40
2457070.325965798
  9
$TDUPDATE
 40
2457070.367633009
  9
$TDUUPDATE
 40
2457070.325966343
  9
$TDINDWG
 40
0.0000000116
  9
$TDUSRTIMER
 40
0.0000000116
  9
$USRTIMER
 70
     1
  9
$ANGBASE
 50
0.0
  9
$ANGDIR
 70
     0
  9
$PDMODE
 70
     0
  9
$PDSIZE
 40
-1.0
  9
$PLINEWID
 40
0.0
  9
$SPLFRAME
 70
     0
  9
$SPLINETYPE
 70
     6
  9
$SPLINESEGS
 70
     8
  9
$HANDSEED
  5
22A
  9
$SURFTAB1
 70
     6
  9
$SURFTAB2
 70
     6
  9
$SURFTYPE
 70
     6
  9
$SURFU
 70
     6
  9
$SURFV
 70
     6
  9
$UCSBASE
  2

  9
$UCSNAME
  2

  9
$UCSORG
 10
0.0
 20
0.0
 30
0.0
  9
$UCSXDIR
 10
1.0
 20
0.0
 30
0.0
  9
$UCSYDIR
 10
0.0
 20
1.0
 30
0.0
  9
$UCSORTHOREF
  2

  9
$UCSORTHOVIEW
 70
     0
  9
$UCSORGTOP
 10
0.0
 20
0.0
 30
0.0
  9
$UCSORGBOTTOM
 10
0.0
 20
0.0
 30
0.0
  9
$UCSORGLEFT
 10
0.0
 20
0.0
 30
0.0
  9
$UCSORGRIGHT
 10
0.0
 20
0.0
 30
0.0
  9
$UCSORGFRONT
 10
0.0
 20
0.0
 30
0.0
  9
$UCSORGBACK
 10
0.0
 20
0.0
 30
0.0
  9
$PUCSBASE
  2

  9
$PUCSNAME
  2

  9
$PUCSORG
 10
0.0
 20
0.0
 30
0.0
  9
$PUCSXDIR
 10
1.0
 20
0.0
 30
0.0
  9
$PUCSYDIR
 10
0.0
 20
1.0
 30
0.0
  9
$PUCSORTHOREF
  2

  9
$PUCSORTHOVIEW
 70
     0
  9
$PUCSORGTOP
 10
0.0
 20
0.0
 30
0.0
  9
$PUCSORGBOTTOM
 10
0.0
 20
0.0
 30
0.0
  9
$PUCSORGLEFT
 10
0.0
 20
0.0
 30
0.0
  9
$PUCSORGRIGHT
 10
0.0
 20
0.0
 30
0.0
  9
$PUCSORGFRONT
 10
0.0
 20
0.0
 30
0.0
  9
$PUCSORGBACK
 10
0.0
 20
0.0
 30
0.0
  9
$USERI1
 70
     0
  9
$USERI2
 70
     0
  9
$USERI3
 70
     0
  9
$USERI4
 70
     0
  9
$USERI5
 70
     0
  9
$USERR1
 40
0.0
  9
$USERR2
 40
0.0
  9
$USERR3
 40
0.0
  9
$USERR4
 40
0.0
  9
$USERR5
 40
0.0
  9
$WORLDVIEW
 70
     1
  9
$SHADEDGE
 70
     3
  9
$SHADEDIF
 70
    70
  9
$TILEMODE
 70
     1
  9
$MAXACTVP
 70
    64
  9
$PINSBASE
 10
0.0
 20
0.0
 30
0.0
  9
$PLIMCHECK
 70
     0
  9
$PEXTMIN
 10
1.0000000000E+20
 20
1.0000000000E+20
 30
1.0000000000E+20
  9
$PEXTMAX
 10
-1.0000000000E+20
 20
-1.0000000000E+20
 30
-1.0000000000E+20
  9
$PLIMMIN
 10
0.0
 20
0.0
  9
$PLIMMAX
 10
420.0
 20
297.0
  9
$UNITMODE
 70
     0
  9
$VISRETAIN
 70
     1
  9
$PLINEGEN
 70
     0
  9
$PSLTSCALE
 70
     1
  9
$TREEDEPTH
 70
  3020
  9
$CMLSTYLE
  2
Standard
  9
$CMLJUST
 70
     0
  9
$CMLSCALE
 40
20.0
  9
$PROXYGRAPHICS
 70
     1
  9
$MEASUREMENT
 70
     1
  9
$CELWEIGHT
370
    -1
  9
$ENDCAPS
280
     0
  9
$JOINSTYLE
280
     0
  9
$LWDISPLAY
290
     1
  9
$INSUNITS
 70
     4
  9
$HYPERLINKBASE
  1

  9
$STYLESHEET
  1

  9
$XEDIT
290
     1
  9
$CEPSNTYPE
380
     0
  9
$PSTYLEMODE
290
     1
  9
$FINGERPRINTGUID
  2
{A07843FA-4ADD-40E1-90DD-C502C70E46D8}
  9
$VERSIONGUID
  2
{FAEB1C32-E019-11D5-929B-00C0DF256EC4}
  9
$EXTNAMES
290
     1
  9
$PSVPSCALE
 40
0.0
  9
$OLESTARTUP
290
     0
  0
ENDSEC
  0
SECTION
  2
CLASSES
  0
CLASS
  1
ACDBDICTIONARYWDFLT
  2
AcDbDictionaryWithDefault
  3
ObjectDBX Classes
 90
        0
280
     0
281
     0
  0
CLASS
  1
VISUALSTYLE
  2
AcDbVisualStyle
  3
ObjectDBX Classes
 90
     4095
280
     0
281
     0
  0
CLASS
  1
MATERIAL
  2
AcDbMaterial
  3
ObjectDBX Classes
 90
     1153
280
     0
281
     0
  0
CLASS
  1
ACDBPLACEHOLDER
  2
AcDbPlaceHolder
  3
ObjectDBX Classes
 90
        0
280
     0
281
     0
  0
CLASS
  1
LAYOUT
  2
AcDbLayout
  3
ObjectDBX Classes
 90
        0
280
     0
281
     0
  0
ENDSEC
  0
SECTION
  2
TABLES
  0
TABLE
  2
VPORT
  5
8
330
0
100
AcDbSymbolTable
 70
     1
  0
VPORT
  5
29
330
8
100
AcDbSymbolTableRecord
100
AcDbViewportTableRecord
  2
*Active
 70
     0
 10
0.0
 20
0.0
 11
1.0
 21
1.0
 12
148.5
 22
105.0
 13
0.0
 23
0.0
 14
10.0
 24
10.0
 15
10.0
 25
10.0
 16
0.0
 26
0.0
 36
1.0
 17
0.0
 27
0.0
 37
0.0
 40
210.0
 41
1.4142857143
 42
50.0
 43
0.0
 44
0.0
 50
0.0
 51
0.0
 71
     0
 72
  2000
 73
     1
 74
     3
 75
     0
 76
     0
 77
     0
 78
     0
281
     0
 65
     1
110
0.0
120
0.0
130
0.0
111
1.0
121
0.0
131
0.0
112
0.0
122
1.0
132
0.0
 79
     0
146
0.0
  0
ENDTAB
  0
TABLE
  2
LTYPE
  5
5
330
0
100
AcDbSymbolTable
 70
     8
  0
LTYPE
  5
14
330
5
100
AcDbSymbolTableRecord
100
AcDbLinetypeTableRecord
  2
ByBlock
 70
     0
  3

 72
    65
 73
     0
 40
0.0
  0
LTYPE
  5
15
330
5
100
AcDbSymbolTableRecord
100
AcDbLinetypeTableRecord
  2
ByLayer
 70
     0
  3

 72
    65
 73
     0
 40
0.0
  0
LTYPE
  5
16
330
5
100
AcDbSymbolTableRecord
100
AcDbLinetypeTableRecord
  2
Continuous
 70
     0
  3
Solid line
 72
    65
 73
     0
 40
0.0
  0
LTYPE
  5
3F
330
5
100
AcDbSymbolTableRecord
100
AcDbLinetypeTableRecord
  2
SLD-Durchgehend
 70
     0
  3
SolidWorks Line Style
 72
    65
 73
     0
 40
0.0
  0
LTYPE
  5
40
330
5
100
AcDbSymbolTableRecord
100
AcDbLinetypeTableRecord
  2
SLD-Gestrichelt
 70
     0
  3
SolidWorks Line Style
 72
    65
 73
     2
 40
1.905
 49
1.27
 74
     0
 49
-0.635
 74
     0
  0
LTYPE
  5
41
330
5
100
AcDbSymbolTableRecord
100
AcDbLinetypeTableRecord
  2
SLD-Phantom
 70
     0
  3
SolidWorks Line Style
 72
    65
 73
     6
 40
12.7
 49
6.35
 74
     0
 49
-1.27
 74
     0
 49
1.27
 74
     0
 49
-1.27
 74
     0
 49
1.27
 74
     0
 49
-1.27
 74
     0
  0
LTYPE
  5
42
330
5
100
AcDbSymbolTableRecord
100
AcDbLinetypeTableRecord
  2
SLD-Kette
 70
     0
  3
SolidWorks Line Style
 72
    65
 73
     4
 40
10.16
 49
6.35
 74
     0
 49
-1.27
 74
     0
 49
1.27
 74
     0
 49
-1.27
 74
     0
  0
LTYPE
  5
43
330
5
100
AcDbSymbolTableRecord
100
AcDbLinetypeTableRecord
  2
SLD-Punktstrich
 70
     0
  3
SolidWorks Line Style
 72
    65
 73
     4
 40
19.05
 49
15.24
 74
     0
 49
-1.27
 74
     0
 49
1.27
 74
     0
 49
-1.27
 74
     0
  0
LTYPE
  5
44
330
5
100
AcDbSymbolTableRecord
100
AcDbLinetypeTableRecord
  2
SLD-Naht
 70
     0
  3
SolidWorks Line Style
 72
    65
 73
     2
 40
0.635
 49
0.0
 74
     0
 49
-0.635
 74
     0
  0
LTYPE
  5
45
330
5
100
AcDbSymbolTableRecord
100
AcDbLinetypeTableRecord
  2
SLD-Dicke-Dünne-Kette
 70
     0
  3
SolidWorks Line Style
 72
    65
 73
     4
 40
10.16
 49
6.35
 74
     0
 49
-1.27
 74
     0
 49
1.27
 74
     0
 49
-1.27
 74
     0
  0
ENDTAB
  0
TABLE
  2
LAYER
  5
2
330
0
100
AcDbSymbolTable
 70
     5
  0
LAYER
  5
10
330
2
100
AcDbSymbolTableRecord
100
AcDbLayerTableRecord
  2
0
 70
     0
 62
     7
  6
Continuous
370
    -3
390
F
  0
LAYER
  5
46
330
2
100
AcDbSymbolTableRecord
100
AcDbLayerTableRecord
  2
FORMAT
 70
     0
 62
     7
  6
SLD-Durchgehend
370
    -3
390
F
  0
LAYER
  5
47
330
2
100
AcDbSymbolTableRecord
100
AcDbLayerTableRecord
  2
VERMASSUNG
 70
     0
 62
     7
  6
SLD-Durchgehend
370
    -3
390
F
  0
LAYER
  5
48
330
2
100
AcDbSymbolTableRecord
100
AcDbLayerTableRecord
  2
KOPF_DÜNN
 70
     0
 62
     7
  6
SLD-Durchgehend
370
    -3
390
F
  0
LAYER
  5
49
330
2
100
AcDbSymbolTableRecord
100
AcDbLayerTableRecord
  2
KOPF_DICK
 70
     0
 62
     7
  6
SLD-Durchgehend
370
    15
390
F
  0
ENDTAB
  0
TABLE
  2
STYLE
  5
3
330
0
100
AcDbSymbolTable
 70
     2
  0
STYLE
  5
11
330
3
100
AcDbSymbolTableRecord
100
AcDbTextStyleTableRecord
  2
STANDARD
 70
     0
 40
0.0
 41
1.0
 50
0.0
 71
     0
 42
2.0
  3
ISOCPEUR.TTF
  4

1001
ACAD
1000
ISOCPEUR
1071
       34
  0
STYLE
  5
4A
330
3
100
AcDbSymbolTableRecord
100
AcDbTextStyleTableRecord
  2
SLDTEXTSTYLE0
 70
     0
 40
0.0
 41
1.0
 50
0.0
 71
     0
 42
0.2
  3
ISOCPEUR.TTF
  4

1001
ACAD
1000
ISOCPEUR
1071
      290
  0
ENDTAB
  0
TABLE
  2
VIEW
  5
6
330
0
100
AcDbSymbolTable
 70
     0
  0
ENDTAB
  0
TABLE
  2
UCS
  5
7
330
0
100
AcDbSymbolTable
 70
     0
  0
ENDTAB
  0
TABLE
  2
APPID
  5
9
330
0
100
AcDbSymbolTable
 70
     1
  0
APPID
  5
12
330
9
100
AcDbSymbolTableRecord
100
AcDbRegAppTableRecord
  2
ACAD
 70
     0
  0
ENDTAB
  0
TABLE
  2
DIMSTYLE
  5
A
330
0
100
AcDbSymbolTable
 70
     3
100
AcDbDimStyleTable
  0
DIMSTYLE
105
27
330
A
100
AcDbSymbolTableRecord
100
AcDbDimStyleTableRecord
  2
ISO-25
 70
     0
 41
2.5
 42
0.625
 43
3.75
 44
1.25
 73
     0
 74
     0
 77
     1
 78
     8
140
2.5
141
2.5
143
0.0393700787
147
0.625
171
     3
172
     1
178
     0
271
     2
272
     2
274
     3
278
    44
283
     0
284
     8
340
11
  0
DIMSTYLE
105
1A7
102
{ACAD_REACTORS
330
1A6
330
1B3
330
1BD
330
1C7
330
212
102
}
330
A
100
AcDbSymbolTableRecord
100
AcDbDimStyleTableRecord
  2
SLDDIMSTYLE0
 70
     0
 41
3.0
 44
0.0
 45
0.000000001
 73
     0
 74
     0
 77
     1
 78
    12
 79
     3
140
2.0
147
0.5
173
     1
178
     0
271
     2
272
     3
276
     2
284
    12
340
4A
  0
DIMSTYLE
105
1D2
102
{ACAD_REACTORS
330
1D1
102
}
330
A
100
AcDbSymbolTableRecord
100
AcDbDimStyleTableRecord
  2
SLDDIMSTYLE1
 70
     0
 41
3.0
 44
0.0
 73
     0
 74
     0
 77
     1
 78
    12
 79
     3
140
2.0
147
0.5
173
     1
178
     0
179
     2
272
     3
276
     2
284
    12
340
4A
  0
ENDTAB
  0
TABLE
  2
BLOCK_RECORD
  5
1
330
0
100
AcDbSymbolTable
 70
     8
  0
BLOCK_RECORD
  5
1F
330
1
100
AcDbSymbolTableRecord
100
AcDbBlockTableRecord
  2
*Model_Space
340
22
  0
BLOCK_RECORD
  5
1B
330
1
100
AcDbSymbolTableRecord
100
AcDbBlockTableRecord
  2
*Paper_Space
340
1E
  0
BLOCK_RECORD
  5
23
330
1
100
AcDbSymbolTableRecord
100
AcDbBlockTableRecord
  2
*Paper_Space0
340
26
  0
BLOCK_RECORD
  5
1A8
330
1
100
AcDbSymbolTableRecord
100
AcDbBlockTableRecord
  2
_D
340
0
  0
BLOCK_RECORD
  5
1B4
330
1
100
AcDbSymbolTableRecord
100
AcDbBlockTableRecord
  2
_D_1
340
0
  0
BLOCK_RECORD
  5
1BE
330
1
100
AcDbSymbolTableRecord
100
AcDbBlockTableRecord
  2
_D_2
340
0
  0
BLOCK_RECORD
  5
1C8
330
1
100
AcDbSymbolTableRecord
100
AcDbBlockTableRecord
  2
_D_3
340
0
  0
BLOCK_RECORD
  5
1D3
330
1
100
AcDbSymbolTableRecord
100
AcDbBlockTableRecord
  2
_D_4
340
0
  0
BLOCK_RECORD
  5
213
330
1
100
AcDbSymbolTableRecord
100
AcDbBlockTableRecord
  2
_D_5
340
0
  0
BLOCK_RECORD
  5
21D
330
1
100
AcDbSymbolTableRecord
100
AcDbBlockTableRecord
  2
SW_CENTERMARKSYMBOL_0
340
0
102
{BLKREFS
331
228
102
}
  0
ENDTAB
  0
ENDSEC
  0
SECTION
  2
BLOCKS
  0
BLOCK
  5
20
330
1F
100
AcDbEntity
  8
0
100
AcDbBlockBegin
  2
*Model_Space
 70
     0
 10
0.0
 20
0.0
 30
0.0
  3
*Model_Space
  1

  0
ENDBLK
  5
21
330
1F
100
AcDbEntity
  8
0
100
AcDbBlockEnd
  0
BLOCK
  5
1C
330
1B
100
AcDbEntity
 67
     1
  8
0
100
AcDbBlockBegin
  2
*Paper_Space
 70
     0
 10
0.0
 20
0.0
 30
0.0
  3
*Paper_Space
  1

  0
ENDBLK
  5
1D
330
1B
100
AcDbEntity
 67
     1
  8
0
100
AcDbBlockEnd
  0
BLOCK
  5
24
330
23
100
AcDbEntity
  8
0
100
AcDbBlockBegin
  2
*Paper_Space0
 70
     0
 10
0.0
 20
0.0
 30
0.0
  3
*Paper_Space0
  1

  0
ENDBLK
  5
25
330
23
100
AcDbEntity
  8
0
100
AcDbBlockEnd
  0
BLOCK
  5
1A9
330
1A8
100
AcDbEntity
  8
0
100
AcDbBlockBegin
  2
_D
 70
     0
 10
0.0
 20
0.0
 30
0.0
  3
_D
  1

  0
SOLID
  5
1AB
330
1A8
100
AcDbEntity
  8
VERMASSUNG
100
AcDbTrace
 10
150.0358145064
 20
138.7010862131
 30
0.0
 11
149.5858145064
 21
135.7010862131
 31
0.0
 12
150.4858145064
 22
135.7010862131
 32
0.0
 13
150.4858145064
 23
135.7010862131
 33
0.0
  0
SOLID
  5
1AC
330
1A8
100
AcDbEntity
  8
VERMASSUNG
100
AcDbTrace
 10
150.0358145064
 20
75.7010862131
 30
0.0
 11
150.4858145064
 21
78.7010862131
 31
0.0
 12
149.5858145064
 22
78.7010862131
 32
0.0
 13
149.5858145064
 23
78.7010862131
 33
0.0
  0
LINE
  5
1AD
330
1A8
100
AcDbEntity
  8
VERMASSUNG
100
AcDbLine
 10
186.8252143346
 20
138.7010862131
 30
0.0
 11
149.0358145064
 21
138.7010862131
 31
0.0
  0
LINE
  5
1AE
330
1A8
100
AcDbEntity
  8
VERMASSUNG
100
AcDbLine
 10
186.8252143346
 20
75.7010862131
 30
0.0
 11
149.0358145064
 21
75.7010862131
 31
0.0
  0
LINE
  5
1AF
330
1A8
100
AcDbEntity
  8
VERMASSUNG
100
AcDbLine
 10
150.0358145064
 20
138.7010862131
 30
0.0
 11
150.0358145064
 21
75.7010862131
 31
0.0
  0
MTEXT
  5
1B0
330
1A8
100
AcDbEntity
  8
VERMASSUNG
100
AcDbMText
 10
147.2358144969
 20
100.9974241055
 30
0.0
 40
2.0
 41
0.0
 71
     1
 72
     1
  1
HSK 
  7
SLDTEXTSTYLE0
 11
-7.044195017643634E-15
 21
1.0
 31
0.0
 73
     1
 44
1.0
  0
MTEXT
  5
1B1
330
1A8
100
AcDbEntity
  8
VERMASSUNG
100
AcDbMText
 10
147.4358145064
 20
106.9974241576
 30
0.0
 40
2.0
 41
0.0
 71
     1
 72
     1
  1
%%c
  7
SLDTEXTSTYLE0
 11
-7.044195017643634E-15
 21
1.0
 31
0.0
 73
     1
 44
1.0
  0
MTEXT
  5
1B2
330
1A8
100
AcDbEntity
  8
VERMASSUNG
100
AcDbMText
 10
147.4358146228
 20
110.6056691888
 30
0.0
 40
2.0
 41
0.0
 71
     1
 72
     1
  1
63
  7
SLDTEXTSTYLE0
 11
-7.044195017643634E-15
 21
1.0
 31
0.0
 73
     1
 44
1.0
  0
ENDBLK
  5
1AA
330
1A8
100
AcDbEntity
  8
0
100
AcDbBlockEnd
  0
BLOCK
  5
1B5
330
1B4
100
AcDbEntity
  8
0
100
AcDbBlockBegin
  2
_D_1
 70
     0
 10
0.0
 20
0.0
 30
0.0
  3
_D_1
  1

  0
SOLID
  5
1B7
330
1B4
100
AcDbEntity
  8
VERMASSUNG
100
AcDbTrace
 10
186.5252143346
 20
157.7183594702
 30
0.0
 11
189.5252143346
 21
157.2683594702
 31
0.0
 12
189.5252143346
 22
158.1683594702
 32
0.0
 13
189.5252143346
 23
158.1683594702
 33
0.0
  0
SOLID
  5
1B8
330
1B4
100
AcDbEntity
  8
VERMASSUNG
100
AcDbTrace
 10
256.5252143346
 20
157.7183594702
 30
0.0
 11
253.5252143346
 21
158.1683594702
 31
0.0
 12
253.5252143346
 22
157.2683594702
 32
0.0
 13
253.5252143346
 23
157.2683594702
 33
0.0
  0
LINE
  5
1B9
330
1B4
100
AcDbEntity
  8
VERMASSUNG
100
AcDbLine
 10
186.5252143346
 20
138.4010862131
 30
0.0
 11
186.5252143346
 21
158.7183594702
 31
0.0
  0
LINE
  5
1BA
330
1B4
100
AcDbEntity
  8
VERMASSUNG
100
AcDbLine
 10
256.5252143346
 20
152.2010862131
 30
0.0
 11
256.5252143346
 21
158.7183594702
 31
0.0
  0
LINE
  5
1BB
330
1B4
100
AcDbEntity
  8
VERMASSUNG
100
AcDbLine
 10
186.5252143346
 20
157.7183594702
 30
0.0
 11
256.5252143346
 21
157.7183594702
 31
0.0
  0
MTEXT
  5
1BC
330
1B4
100
AcDbEntity
  8
VERMASSUNG
100
AcDbMText
 10
220.1256747686
 20
160.3183593538
 30
0.0
 40
2.0
 41
0.0
 71
     1
 72
     1
  1
70
  7
SLDTEXTSTYLE0
 73
     1
 44
1.0
  0
ENDBLK
  5
1B6
330
1B4
100
AcDbEntity
  8
0
100
AcDbBlockEnd
  0
BLOCK
  5
1BF
330
1BE
100
AcDbEntity
  8
0
100
AcDbBlockBegin
  2
_D_2
 70
     0
 10
0.0
 20
0.0
 30
0.0
  3
_D_2
  1

  0
SOLID
  5
1C1
330
1BE
100
AcDbEntity
  8
VERMASSUNG
100
AcDbTrace
 10
154.6252143346
 20
163.7183594702
 30
0.0
 11
157.6252143346
 21
163.2683594702
 31
0.0
 12
157.6252143346
 22
164.1683594702
 32
0.0
 13
157.6252143346
 23
164.1683594702
 33
0.0
  0
SOLID
  5
1C2
330
1BE
100
AcDbEntity
  8
VERMASSUNG
100
AcDbTrace
 10
256.5252143346
 20
163.7183594702
 30
0.0
 11
253.5252143346
 21
164.1683594702
 31
0.0
 12
253.5252143346
 22
163.2683594702
 32
0.0
 13
253.5252143346
 23
163.2683594702
 33
0.0
  0
LINE
  5
1C3
330
1BE
100
AcDbEntity
  8
VERMASSUNG
100
AcDbLine
 10
154.6252143346
 20
126.8917639596
 30
0.0
 11
154.6252143346
 21
164.7183594702
 31
0.0
  0
LINE
  5
1C4
330
1BE
100
AcDbEntity
  8
VERMASSUNG
100
AcDbLine
 10
256.5252143346
 20
152.2010862131
 30
0.0
 11
256.5252143346
 21
164.7183594702
 31
0.0
  0
LINE
  5
1C5
330
1BE
100
AcDbEntity
  8
VERMASSUNG
100
AcDbLine
 10
154.6252143346
 20
163.7183594702
 30
0.0
 11
256.5252143346
 21
163.7183594702
 31
0.0
  0
MTEXT
  5
1C6
330
1BE
100
AcDbEntity
  8
VERMASSUNG
100
AcDbMText
 10
202.8752176498
 20
166.3183593538
 30
0.0
 40
2.0
 41
0.0
 71
     1
 72
     1
  1
101.9
  7
SLDTEXTSTYLE0
 73
     1
 44
1.0
  0
ENDBLK
  5
1C0
330
1BE
100
AcDbEntity
  8
0
100
AcDbBlockEnd
  0
BLOCK
  5
1C9
330
1C8
100
AcDbEntity
  8
0
100
AcDbBlockBegin
  2
_D_3
 70
     0
 10
0.0
 20
0.0
 30
0.0
  3
_D_3
  1

  0
SOLID
  5
1CB
330
1C8
100
AcDbEntity
  8
VERMASSUNG
100
AcDbTrace
 10
266.5585545109
 20
107.2010862131
 30
0.0
 11
267.0085545109
 21
110.2010862131
 31
0.0
 12
266.1085545109
 22
110.2010862131
 32
0.0
 13
266.1085545109
 23
110.2010862131
 33
0.0
  0
SOLID
  5
1CC
330
1C8
100
AcDbEntity
  8
VERMASSUNG
100
AcDbTrace
 10
266.5585545109
 20
152.2010862131
 30
0.0
 11
266.1085545109
 21
149.2010862131
 31
0.0
 12
267.0085545109
 22
149.2010862131
 32
0.0
 13
267.0085545109
 23
149.2010862131
 33
0.0
  0
LINE
  5
1CD
330
1C8
100
AcDbEntity
  8
VERMASSUNG
100
AcDbLine
 10
251.4513677756
 20
107.2010862131
 30
0.0
 11
267.5585545109
 21
107.2010862131
 31
0.0
  0
LINE
  5
1CE
330
1C8
100
AcDbEntity
  8
VERMASSUNG
100
AcDbLine
 10
256.5252143346
 20
152.2010862131
 30
0.0
 11
267.5585545109
 21
152.2010862131
 31
0.0
  0
LINE
  5
1CF
330
1C8
100
AcDbEntity
  8
VERMASSUNG
100
AcDbLine
 10
266.5585545109
 20
107.2010862131
 30
0.0
 11
266.5585545109
 21
152.2010862131
 31
0.0
  0
MTEXT
  5
1D0
330
1C8
100
AcDbEntity
  8
VERMASSUNG
100
AcDbMText
 10
263.9585546273
 20
128.2010880549
 30
0.0
 40
2.0
 41
0.0
 71
     1
 72
     1
  1
45
  7
SLDTEXTSTYLE0
 11
6.123233995736766E-17
 21
1.0
 31
0.0
 73
     1
 44
1.0
  0
ENDBLK
  5
1CA
330
1C8
100
AcDbEntity
  8
0
100
AcDbBlockEnd
  0
BLOCK
  5
1D4
330
1D3
100
AcDbEntity
  8
0
100
AcDbBlockBegin
  2
_D_4
 70
     0
 10
0.0
 20
0.0
 30
0.0
  3
_D_4
  1

  0
ARC
  5
1D6
330
1D3
100
AcDbEntity
  8
VERMASSUNG
100
AcDbCircle
 10
256.5252143346
 20
160.9625924325
 30
0.0
 40
41.61509348030184
100
AcDbArc
 50
265.0
 51
270.0
  0
ARC
  5
1D7
330
1D3
100
AcDbEntity
  8
VERMASSUNG
100
AcDbCircle
 10
256.5252143346
 20
160.9625924325
 30
0.0
 40
41.61509348030184
100
AcDbArc
 50
253.2823716304
 51
265.0
  0
ARC
  5
1D8
330
1D3
100
AcDbEntity
  8
VERMASSUNG
100
AcDbCircle
 10
256.5252143346
 20
160.9625924325
 30
0.0
 40
41.61509348030182
100
AcDbArc
 50
270.0
 51
278.241204407
  0
SOLID
  5
1D9
330
1D3
100
AcDbEntity
  8
VERMASSUNG
100
AcDbTrace
 10
252.8982199528
 20
119.5058569468
 30
0.0
 11
249.976298203
 21
120.3212545726
 31
0.0
 12
249.865654869
 22
119.4280815476
 32
0.0
 13
249.865654869
 23
119.4280815476
 33
0.0
  0
SOLID
  5
1DA
330
1D3
100
AcDbEntity
  8
VERMASSUNG
100
AcDbTrace
 10
256.5252143346
 20
119.3474989522
 30
0.0
 11
259.53946102
 21
119.0057140495
 31
0.0
 12
259.5070838757
 22
119.9051314835
 32
0.0
 13
259.5070838757
 23
119.9051314835
 33
0.0
  0
MTEXT
  5
1DB
330
1D3
100
AcDbEntity
  8
VERMASSUNG
100
AcDbMText
 10
246.6478119563
 20
123.1961779615
 30
0.0
 40
2.0
 41
0.0
 71
     1
 72
     1
  1
5°
  7
SLDTEXTSTYLE0
 11
0.9753433569286237
 21
-0.2206928546537094
 31
0.0
 73
     1
 44
1.0
  0
ENDBLK
  5
1D5
330
1D3
100
AcDbEntity
  8
0
100
AcDbBlockEnd
  0
BLOCK
  5
214
330
213
100
AcDbEntity
  8
0
100
AcDbBlockBegin
  2
_D_5
 70
     0
 10
0.0
 20
0.0
 30
0.0
  3
_D_5
  1

  0
SOLID
  5
216
330
213
100
AcDbEntity
  8
VERMASSUNG
100
AcDbTrace
 10
36.9092144744
 20
72.2010862131
 30
0.0
 11
37.3592144744
 21
75.2010862131
 31
0.0
 12
36.4592144744
 22
75.2010862131
 32
0.0
 13
36.4592144744
 23
75.2010862131
 33
0.0
  0
SOLID
  5
217
330
213
100
AcDbEntity
  8
VERMASSUNG
100
AcDbTrace
 10
36.9092144744
 20
152.2010862131
 30
0.0
 11
36.4592144744
 21
149.2010862131
 31
0.0
 12
37.3592144744
 22
149.2010862131
 32
0.0
 13
37.3592144744
 23
149.2010862131
 33
0.0
  0
LINE
  5
218
330
213
100
AcDbEntity
  8
VERMASSUNG
100
AcDbLine
 10
81.6062023939
 20
72.2010862131
 30
0.0
 11
35.9092144744
 21
72.2010862131
 31
0.0
  0
LINE
  5
219
330
213
100
AcDbEntity
  8
VERMASSUNG
100
AcDbLine
 10
81.6062023939
 20
152.2010862131
 30
0.0
 11
35.9092144744
 21
152.2010862131
 31
0.0
  0
LINE
  5
21A
330
213
100
AcDbEntity
  8
VERMASSUNG
100
AcDbLine
 10
36.9092144744
 20
72.2010862131
 30
0.0
 11
36.9092144744
 21
152.2010862131
 31
0.0
  0
MTEXT
  5
21B
330
213
100
AcDbEntity
  8
VERMASSUNG
100
AcDbMText
 10
34.3092144744
 20
108.9974204219
 30
0.0
 40
2.0
 41
0.0
 71
     1
 72
     1
  1
%%c
  7
SLDTEXTSTYLE0
 11
6.123233995736766E-17
 21
1.0
 31
0.0
 73
     1
 44
1.0
  0
MTEXT
  5
21C
330
213
100
AcDbEntity
  8
VERMASSUNG
100
AcDbMText
 10
34.3092145909
 20
112.6056728723
 30
0.0
 40
2.0
 41
0.0
 71
     1
 72
     1
  1
80
  7
SLDTEXTSTYLE0
 11
6.123233995736766E-17
 21
1.0
 31
0.0
 73
     1
 44
1.0
  0
ENDBLK
  5
215
330
213
100
AcDbEntity
  8
0
100
AcDbBlockEnd
  0
BLOCK
  5
21E
330
21D
100
AcDbEntity
  8
0
100
AcDbBlockBegin
  2
SW_CENTERMARKSYMBOL_0
 70
     0
 10
0.0
 20
0.0
 30
0.0
  3
SW_CENTERMARKSYMBOL_0
  1

  0
LINE
  5
220
330
21D
100
AcDbEntity
  8
VERMASSUNG
 62
     0
100
AcDbLine
 10
0.0
 20
0.0
 30
0.0
 11
0.0
 21
2.5
 31
0.0
  0
LINE
  5
221
330
21D
100
AcDbEntity
  8
VERMASSUNG
 62
     0
100
AcDbLine
 10
0.0
 20
0.0
 30
0.0
 11
-2.5
 21
0.0
 31
0.0
  0
LINE
  5
222
330
21D
100
AcDbEntity
  8
VERMASSUNG
 62
     0
100
AcDbLine
 10
0.0
 20
0.0
 30
0.0
 11
0.0
 21
-2.5
 31
0.0
  0
LINE
  5
223
330
21D
100
AcDbEntity
  8
VERMASSUNG
 62
     0
100
AcDbLine
 10
0.0
 20
0.0
 30
0.0
 11
2.5
 21
0.0
 31
0.0
  0
LINE
  5
224
330
21D
100
AcDbEntity
  8
VERMASSUNG
 62
     0
100
AcDbLine
 10
0.0
 20
5.0
 30
0.0
 11
0.0
 21
34.0
 31
0.0
  0
LINE
  5
225
330
21D
100
AcDbEntity
  8
VERMASSUNG
 62
     0
100
AcDbLine
 10
-5.0
 20
0.0
 30
0.0
 11
-34.0
 21
0.0
 31
0.0
  0
LINE
  5
226
330
21D
100
AcDbEntity
  8
VERMASSUNG
 62
     0
100
AcDbLine
 10
0.0
 20
-5.0
 30
0.0
 11
0.0
 21
-34.0
 31
0.0
  0
LINE
  5
227
330
21D
100
AcDbEntity
  8
VERMASSUNG
 62
     0
100
AcDbLine
 10
5.0
 20
0.0
 30
0.0
 11
34.0
 21
0.0
 31
0.0
  0
ENDBLK
  5
21F
330
21D
100
AcDbEntity
  8
0
100
AcDbBlockEnd
  0
ENDSEC
  0
SECTION
  2
ENTITIES
  0
MTEXT
  5
4B
330
1F
100
AcDbEntity
  8
KOPF_DÜNN
100
AcDbMText
 10
13.8892156294
 20
23.8770940835
 30
0.0
 40
3.0
 41
0.0
 71
     1
 72
     1
  1
HA6.KCC.RLA.070
  7
SLDTEXTSTYLE0
 73
     1
 44
1.0
  0
MTEXT
  5
4C
330
1F
100
AcDbEntity
  8
VERMASSUNG
100
AcDbMText
 10
13.9329988022
 20
28.9162328764
 30
0.0
 40
3.0
 41
0.0
 71
     1
 72
     1
  1
Klemmhalter rechts_Turning tool right 95° /80° /95°
  7
SLDTEXTSTYLE0
 73
     1
 44
1.0
  0
MTEXT
  5
4D
330
1F
100
AcDbEntity
  8
VERMASSUNG
100
AcDbMText
 10
98.8601118557
 20
13.8584013384
 30
0.0
 40
2.0
 41
0.0
 71
     1
 72
     1
  1
Datum: 04.11.2008
  7
SLDTEXTSTYLE0
 73
     1
 44
1.0
  0
MTEXT
  5
4E
330
1F
100
AcDbEntity
  8
VERMASSUNG
100
AcDbMText
 10
13.933048693
 20
18.0701447943
 30
0.0
 40
2.0
 41
0.0
 71
     1
 72
     1
  1
DIN 69893 HSK 63 A ICTM / CC.. 12 04..
  7
SLDTEXTSTYLE0
 73
     1
 44
1.0
  0
MTEXT
  5
4F
330
1F
100
AcDbEntity
  8
VERMASSUNG
100
AcDbMText
 10
13.9808475933
 20
13.9309618897
 30
0.0
 40
2.0
 41
0.0
 71
     1
 72
     1
  1
Gewicht: 1086g
  7
SLDTEXTSTYLE0
 73
     1
 44
1.0
  0
LINE
  5
50
330
1F
100
AcDbEntity
  8
0
  6
SLD-Durchgehend
 62
     7
370
    15
100
AcDbLine
 10
186.8252143488
 20
75.7010857065
 30
0.0
 11
191.4752143078
 21
75.7010857065
 31
0.0
  0
LINE
  5
51
330
1F
100
AcDbEntity
  8
0
  6
SLD-Durchgehend
 62
     7
370
    15
100
AcDbLine
 10
191.5032028794
 20
138.7010867197
 30
0.0
 11
186.8252143488
 21
138.7010867197
 31
0.0
  0
ARC
  5
52
330
1F
100
AcDbEntity
  8
0
  6
SLD-Durchgehend
 62
     7
370
    15
100
AcDbCircle
 10
186.8252143346
 20
76.0010862131
 30
0.0
 40
0.2999999999999972
100
AcDbArc
 50
180.0
 51
270.0
  0
ARC
  5
53
330
1F
100
AcDbEntity
  8
0
  6
SLD-Durchgehend
 62
     7
370
    15
100
AcDbCircle
 10
186.8252143346
 20
138.4010862131
 30
0.0
 40
0.3000000000000114
100
AcDbArc
 50
90.0
 51
180.0
  0
ARC
  5
54
330
1F
100
AcDbEntity
  8
0
  6
SLD-Durchgehend
 62
     7
370
    15
100
AcDbCircle
 10
213.4752143346
 20
80.2010862131
 30
0.0
 40
1.0
100
AcDbArc
 50
90.0
 51
143.1139143113
  0
ARC
  5
55
330
1F
100
AcDbEntity
  8
0
  6
SLD-Durchgehend
 62
     7
370
    15
100
AcDbCircle
 10
213.4752143346
 20
134.2010862131
 30
0.0
 40
1.0
100
AcDbArc
 50
216.8996843908
 51
270.0
  0
LINE
  5
56
330
1F
100
AcDbEntity
  8
0
  6
SLD-Durchgehend
 62
     7
370
    15
100
AcDbLine
 10
213.4752141886
 20
81.2010856767
 30
0.0
 11
226.2618912958
 21
81.2010856767
 31
0.0
  0
LINE
  5
57
330
1F
100
AcDbEntity
  8
0
  6
SLD-Durchgehend
 62
     7
370
    15
100
AcDbLine
 10
226.3265772365
 20
133.2010867495
 30
0.0
 11
213.4752141886
 21
133.2010867495
 31
0.0
  0
ARC
  5
58
330
1F
100
AcDbEntity
  8
0
  6
SLD-Durchgehend
 62
     7
370
    15
100
AcDbCircle
 10
186.0252143346
 20
82.6306553514
 30
0.0
 40
0.6000000000000019
100
AcDbArc
 50
33.5573097619
 51
90.0
  0
ARC
  5
59
330
1F
100
AcDbEntity
  8
0
  6
SLD-Durchgehend
 62
     7
370
    15
100
AcDbCircle
 10
186.0252143346
 20
131.7715170748
 30
0.0
 40
0.5999999999999862
100
AcDbArc
 50
270.0
 51
326.4426902381
  0
LINE
  5
5A
330
1F
100
AcDbEntity
  8
0
  6
SLD-Durchgehend
 62
     7
370
    15
100
AcDbLine
 10
184.5252142396
 20
82.9806549896
 30
0.0
 11
185.3819271658
 21
83.2102111031
 31
0.0
  0
LINE
  5
5B
330
1F
100
AcDbEntity
  8
0
  6
SLD-Durchgehend
 62
     7
370
    15
100
AcDbLine
 10
185.3819271658
 20
131.1919613231
 30
0.0
 11
184.5252142396
 21
131.4215174366
 31
0.0
  0
LINE
  5
5C
330
1F
100
AcDbEntity
  8
0
  6
SLD-Durchgehend
 62
     7
370
    15
100
AcDbLine
 10
173.2937059008
 20
130.8588160623
 30
0.0
 11
160.7252134584
 21
130.2291321058
 31
0.0
  0
LINE
  5
5D
330
1F
100
AcDbEntity
  8
0
  6
SLD-Durchgehend
 62
     7
370
    15
100
AcDbLine
 10
184.5252142396
 20
131.4215174366
 30
0.0
 11
181.708212813
 21
131.2803848137
 31
0.0
  0
LINE
  5
5E
330
1F
100
AcDbEntity
  8
0
  6
SLD-Durchgehend
 62
     7
370
    15
100
AcDbLine
 10
181.7082686924
 20
83.1217857499
 30
0.0
 11
184.5252142396
 21
82.9806549896
 31
0.0
  0
LINE
  5
5F
330
1F
100
AcDbEntity
  8
0
  6
SLD-Durchgehend
 62
     7
370
    15
100
AcDbLine
 10
164.7252141141
 20
83.9726401914
 30
0.0
 11
173.2941082321
 21
83.5433358748
 31
0.0
  0
ARC
  5
60
330
1F
100
AcDbEntity
  8
0
  6
SLD-Durchgehend
 62
     7
370
    15
100
AcDbCircle
 10
185.537218535
 20
82.6306553514
 30
0.0
 40
0.6000000000000085
100
AcDbArc
 50
90.0
 51
105.0
  0
ARC
  5
61
330
1F
100
AcDbEntity
  8
0
  6
SLD-Durchgehend
 62
     7
370
    15
100
AcDbCircle
 10
185.537218535
 20
131.7715170748
 30
0.0
 40
0.5999999999999807
100
AcDbArc
 50
255.0
 51
270.0
  0
LINE
  5
62
330
1F
100
AcDbEntity
  8
0
  6
SLD-Durchgehend
 62
     7
370
    15
100
AcDbLine
 10
185.5372185694
 20
83.2306554962
 30
0.0
 11
186.0252143108
 21
83.2306554962
 31
0.0
  0
LINE
  5
63
330
1F
100
AcDbEntity
  8
0
  6
SLD-Durchgehend
 62
     7
370
    15
100
AcDbLine
 10
186.0252143108
 20
131.17151693
 30
0.0
 11
185.5372185694
 21
131.17151693
 31
0.0
  0
LINE
  5
64
330
1F
100
AcDbEntity
  8
0
  6
SLD-Durchgehend
 62
     7
370
    15
100
AcDbLine
 10
155.7752134852
 20
86.3885859449
 30
0.0
 11
163.3252146296
 21
86.3885859449
 31
0.0
  0
ARC
  5
65
330
1F
100
AcDbEntity
  8
0
  6
SLD-Durchgehend
 62
     7
370
    15
100
AcDbCircle
 10
163.3252143346
 20
84.9885862131
 30
0.0
 40
1.400000000000027
100
AcDbArc
 50
37.6443616934
 51
90.0
  0
LINE
  5
66
330
1F
100
AcDbEntity
  8
0
  6
SLD-Durchgehend
 62
     7
370
    15
100
AcDbLine
 10
155.7663770966
 20
128.0622499485
 30
0.0
 11
154.6351163291
 21
126.9309873183
 31
0.0
  0
LINE
  5
67
330
1F
100
AcDbEntity
  8
0
  6
SLD-Durchgehend
 62
     7
370
    15
100
AcDbLine
 10
154.6226328813
 20
87.5411665488
 30
0.0
 11
155.7752134852
 21
86.3885859449
 31
0.0
  0
ARC
  5
68
330
1F
100
AcDbEntity
  8
0
  6
SLD-Durchgehend
 62
     7
370
    15
100
AcDbCircle
 10
159.3252143346
 20
129.4710862131
 30
0.0
 40
1.40000000000004
100
AcDbArc
 50
270.0
 51
301.7485287426
  0
LINE
  5
69
330
1F
100
AcDbEntity
  8
0
  6
SLD-Durchgehend
 62
     7
370
    15
100
AcDbLine
 10
159.325213974
 20
128.0710863371
 30
0.0
 11
155.8994798564
 21
128.0710863371
 31
0.0
  0
LINE
  5
6A
330
1F
100
AcDbEntity
  8
0
  6
SLD-Durchgehend
 62
     7
370
    15
100
AcDbLine
 10
212.4752140247
 20
77.6408089746
 30
0.0
 11
212.4752140247
 21
127.0510869522
 31
0.0
  0
ARC
  5
6B
330
1F
100
AcDbEntity
  8
0
  6
SLD-Durchgehend
 62
     7
370
    15
100
AcDbCircle
 10
211.8627961079
 20
77.6266248355
 30
0.0
 40
0.6125821533107654
100
AcDbArc
 50
271.1616423437
 51
1.3267835803
  0
LINE
  5
6C
330
1F
100
AcDbEntity
  8
0
  6
SLD-Durchgehend
 62
     7
370
    15
100
AcDbLine
 10
211.8752150439
 20
127.0510869522
 30
0.0
 11
212.4752140247
 21
127.0510869522
 31
0.0
  0
LINE
  5
6D
330
1F
100
AcDbEntity
  8
0
  6
SLD-Durchgehend
 62
     7
370
    15
100
AcDbLine
 10
191.4752143078
 20
127.0510869522
 30
0.0
 11
201.133281795
 21
127.0510869522
 31
0.0
  0
LINE
  5
6E
330
1F
100
AcDbEntity
  8
0
  6
SLD-Durchgehend
 62
     7
370
    15
100
AcDbLine
 10
201.133281795
 20
77.0141685803
 30
0.0
 11
201.133281795
 21
127.0510869522
 31
0.0
  0
LINE
  5
6F
330
1F
100
AcDbEntity
  8
0
  6
SLD-Durchgehend
 62
     7
370
    15
100
AcDbLine
 10
201.133281795
 20
77.0141685803
 30
0.0
 11
199.4752146878
 21
77.0141685803
 31
0.0
  0
ARC
  5
70
330
1F
100
AcDbEntity
  8
0
  6
SLD-Durchgehend
 62
     7
370
    15
100
AcDbCircle
 10
198.8154719119
 20
55.7658560232
 30
0.0
 40
21.25855232734716
100
AcDbArc
 50
88.2215841219
 51
110.1991894934
  0
LINE
  5
71
330
1F
100
AcDbEntity
  8
0
  6
SLD-Durchgehend
 62
     7
370
    15
100
AcDbLine
 10
191.4752143078
 20
75.7169628937
 30
0.0
 11
191.4752143078
 21
75.7010857065
 31
0.0
  0
LWPOLYLINE
  5
72
330
1F
100
AcDbEntity
  8
0
  6
SLD-Durchgehend
 62
     7
370
    15
100
AcDbPolyline
 90
       11
 70
   128
 43
0.0
 10
199.4752146878
 20
137.6682816495
 10
198.1756061889
 20
137.6959866334
 10
196.8759986215
 20
137.7789525736
 10
195.6865767591
 20
137.902939548
 10
194.5706995778
 20
138.0605137397
 10
193.5982814633
 20
138.2299175907
 10
192.7650620803
 20
138.3984608997
 10
192.1317650579
 20
138.5407763023
 10
191.6943517156
 20
138.6461461384
 10
191.4945439078
 20
138.6961842377
 10
191.5032028794
 20
138.6939900417
  0
LINE
  5
73
330
1F
100
AcDbEntity
  8
0
  6
SLD-Durchgehend
 62
     7
370
    15
100
AcDbLine
 10
201.133281795
 20
137.6682816495
 30
0.0
 11
199.4752146878
 21
137.6682816495
 31
0.0
  0
LINE
  5
74
330
1F
100
AcDbEntity
  8
0
  6
SLD-Durchgehend
 62
     7
370
    15
100
AcDbLine
 10
201.133281795
 20
131.6597758282
 30
0.0
 11
201.133281795
 21
137.6682816495
 31
0.0
  0
LINE
  5
75
330
1F
100
AcDbEntity
  8
0
  6
SLD-Durchgehend
 62
     7
370
    15
100
AcDbLine
 10
198.7208350204
 20
131.6597758282
 30
0.0
 11
201.133281795
 21
131.6597758282
 31
0.0
  0
ARC
  5
76
330
1F
100
AcDbEntity
  8
0
  6
SLD-Durchgehend
 62
     7
370
    15
100
AcDbCircle
 10
198.3510216373
 20
124.2411824397
 30
0.0
 40
7.427805180680904
100
AcDbArc
 50
87.1461947163
 51
157.7718644507
  0
LINE
  5
77
330
1F
100
AcDbEntity
  8
0
  6
SLD-Durchgehend
 62
     7
370
    15
100
AcDbLine
 10
207.9171462558
 20
77.0141685803
 30
0.0
 11
207.9171462558
 21
127.0510869522
 31
0.0
  0
LINE
  5
78
330
1F
100
AcDbEntity
  8
0
  6
SLD-Durchgehend
 62
     7
370
    15
100
AcDbLine
 10
207.9171462558
 20
77.0141685803
 30
0.0
 11
206.4352145992
 21
79.7032488931
 31
0.0
  0
LINE
  5
79
330
1F
100
AcDbEntity
  8
0
  6
SLD-Durchgehend
 62
     7
370
    15
100
AcDbLine
 10
206.4352145992
 20
79.7032488931
 30
0.0
 11
206.4352145992
 21
127.0510869522
 31
0.0
  0
LINE
  5
7A
330
1F
100
AcDbEntity
  8
0
  6
SLD-Durchgehend
 62
     7
370
    15
100
AcDbLine
 10
206.4352145992
 20
127.0510869522
 30
0.0
 11
207.9171462558
 21
127.0510869522
 31
0.0
  0
LINE
  5
7B
330
1F
100
AcDbEntity
  8
0
  6
SLD-Durchgehend
 62
     7
370
    15
100
AcDbLine
 10
211.8752150439
 20
77.0141685803
 30
0.0
 11
207.9171462558
 21
77.0141685803
 31
0.0
  0
LINE
  5
7C
330
1F
100
AcDbEntity
  8
0
  6
SLD-Durchgehend
 62
     7
370
    15
100
AcDbLine
 10
207.9171462558
 20
127.0510869522
 30
0.0
 11
211.8752150439
 21
127.0510869522
 31
0.0
  0
LINE
  5
7D
330
1F
100
AcDbEntity
  8
0
  6
SLD-Durchgehend
 62
     7
370
    15
100
AcDbLine
 10
202.6152143829
 20
79.7032488931
 30
0.0
 11
202.6152143829
 21
127.0510869522
 31
0.0
  0
LINE
  5
7E
330
1F
100
AcDbEntity
  8
0
  6
SLD-Durchgehend
 62
     7
370
    15
100
AcDbLine
 10
202.6152143829
 20
79.7032488931
 30
0.0
 11
201.133281795
 21
77.0141685803
 31
0.0
  0
LINE
  5
7F
330
1F
100
AcDbEntity
  8
0
  6
SLD-Durchgehend
 62
     7
370
    15
100
AcDbLine
 10
201.133281795
 20
127.0510869522
 30
0.0
 11
202.6152143829
 21
127.0510869522
 31
0.0
  0
LINE
  5
80
330
1F
100
AcDbEntity
  8
0
  6
SLD-Durchgehend
 62
     7
370
    15
100
AcDbLine
 10
186.5252143346
 20
76.0010870595
 30
0.0
 11
186.5252143346
 21
138.4010853667
 31
0.0
  0
LINE
  5
81
330
1F
100
AcDbEntity
  8
0
  6
SLD-Durchgehend
 62
     7
370
    15
100
AcDbLine
 10
206.3375393503
 20
80.8010863562
 30
0.0
 11
205.6352140956
 21
80.8010863562
 31
0.0
  0
LINE
  5
82
330
1F
100
AcDbEntity
  8
0
  6
SLD-Durchgehend
 62
     7
370
    15
100
AcDbLine
 10
206.0409168355
 20
133.6010860701
 30
0.0
 11
205.6352140956
 21
133.6010860701
 31
0.0
  0
ARC
  5
83
330
1F
100
AcDbEntity
  8
0
  6
SLD-Durchgehend
 62
     7
370
    15
100
AcDbCircle
 10
205.5967710785
 20
134.3122778054
 30
0.0
 40
0.8384862181328748
100
AcDbArc
 50
301.9851556421
 51
0.5782186088
  0
LWPOLYLINE
  5
84
330
1F
100
AcDbEntity
  8
0
  6
SLD-Durchgehend
 62
     7
370
    15
100
AcDbPolyline
 90
        3
 70
   128
 43
0.0
 10
206.4090667866
 20
127.0510869522
 10
206.4291628651
 20
127.1988003005
 10
206.4352145992
 20
127.3369526912
  0
ARC
  5
85
330
1F
100
AcDbEntity
  8
0
  6
SLD-Durchgehend
 62
     7
370
    15
100
AcDbCircle
 10
203.4551453895
 20
134.3130927982
 30
0.0
 40
0.8399658136910834
100
AcDbArc
 50
179.4783948307
 51
237.9582309184
  0
LINE
  5
86
330
1F
100
AcDbEntity
  8
0
  6
SLD-Durchgehend
 62
     7
370
    15
100
AcDbLine
 10
203.4152148865
 20
133.6010860701
 30
0.0
 11
203.0095121466
 21
133.6010860701
 31
0.0
  0
LINE
  5
87
330
1F
100
AcDbEntity
  8
0
  6
SLD-Durchgehend
 62
     7
370
    15
100
AcDbLine
 10
203.4152148865
 20
80.8010863562
 30
0.0
 11
202.7128896319
 21
80.8010863562
 31
0.0
  0
LINE
  5
88
330
1F
100
AcDbEntity
  8
0
  6
SLD-Durchgehend
 62
     7
370
    15
100
AcDbLine
 10
202.6152143829
 20
127.3369526912
 30
0.0
 11
202.6413621955
 21
127.0510869522
 31
0.0
  0
LINE
  5
89
330
1F
100
AcDbEntity
  8
0
  6
SLD-Durchgehend
 62
     7
370
    15
100
AcDbLine
 10
205.6352140956
 20
133.6010860701
 30
0.0
 11
203.4152148865
 21
133.6010860701
 31
0.0
  0
LINE
  5
8A
330
1F
100
AcDbEntity
  8
0
  6
SLD-Durchgehend
 62
     7
370
    15
100
AcDbLine
 10
205.6352140956
 20
80.8010863562
 30
0.0
 11
203.4152148865
 21
80.8010863562
 31
0.0
  0
LINE
  5
8B
330
1F
100
AcDbEntity
  8
0
  6
SLD-Durchgehend
 62
     7
370
    15
100
AcDbLine
 10
212.6752136849
 20
133.6010860701
 30
0.0
 11
212.6308827304
 21
133.6010860701
 31
0.0
  0
LINE
  5
8C
330
1F
100
AcDbEntity
  8
0
  6
SLD-Durchgehend
 62
     7
370
    15
100
AcDbLine
 10
212.6752136849
 20
80.8010863562
 30
0.0
 11
212.6262782715
 21
80.8010863562
 31
0.0
  0
ELLIPSE
  5
8D
330
1F
100
AcDbEntity
  8
0
  6
SLD-Durchgehend
 62
     7
370
    15
100
AcDbEllipse
 10
223.4448295769
 20
107.2010862131
 30
0.0
 11
0.0
 21
25.99999999999999
 31
0.0
210
0.0
220
0.0
230
1.0
 40
0.2679491924
 41
0.1601874882047368
 42
2.981405165385057
  0
ARC
  5
8E
330
1F
100
AcDbEntity
  8
0
  6
SLD-Durchgehend
 62
     7
370
    15
100
AcDbCircle
 10
226.3034413058
 20
101.9621474687
 30
0.0
 40
20.81034803168923
100
AcDbArc
 50
259.0027525862
 51
274.0076951346
  0
ARC
  5
8F
330
1F
100
AcDbEntity
  8
0
  6
SLD-Durchgehend
 62
     7
370
    15
100
AcDbCircle
 10
226.137732867
 20
115.1533938411
 30
0.0
 40
18.11867262026986
100
AcDbArc
 50
84.8698182075
 51
102.1197340717
  0
ELLIPSE
  5
90
330
1F
100
AcDbEntity
  8
0
  6
SLD-Durchgehend
 62
     7
370
    15
100
AcDbEllipse
 10
221.2358402027
 20
123.7387511659
 30
0.0
 11
0.2238788361699449
 21
3.348713566407809
 31
0.0
210
0.0
220
0.0
230
1.0
 40
0.2052460989
 41
0.0
 42
6.283185307179586
  0
LINE
  5
91
330
1F
100
AcDbEntity
  8
0
  6
SLD-Durchgehend
 62
     7
370
    15
100
AcDbLine
 10
184.5252142396
 20
82.9806549896
 30
0.0
 11
184.5252142396
 21
131.4215174366
 31
0.0
  0
LINE
  5
92
330
1F
100
AcDbEntity
  8
0
  6
SLD-Durchgehend
 62
     7
370
    15
100
AcDbLine
 10
164.7252141141
 20
83.9726401914
 30
0.0
 11
164.7252141141
 21
85.2559375067
 31
0.0
  0
LWPOLYLINE
  5
93
330
1F
100
AcDbEntity
  8
0
  6
SLD-Durchgehend
 62
     7
370
    15
100
AcDbPolyline
 90
        5
 70
   128
 43
0.0
 10
164.1036103122
 20
86.3367150028
 10
164.158454036
 20
86.2225739707
 10
164.4489428602
 20
85.8238393862
 10
164.6793725543
 20
85.4570361276
 10
164.7252141141
 20
85.2559375067
  0
LWPOLYLINE
  5
94
330
1F
100
AcDbEntity
  8
0
  6
SLD-Durchgehend
 62
     7
370
    15
100
AcDbPolyline
 90
        7
 70
   128
 43
0.0
 10
163.3252146296
 20
87.0549975384
 10
163.4049712323
 20
87.0564708908
 10
163.4837704353
 20
87.0445946653
 10
163.5785902493
 20
87.0122554202
 10
163.7071742319
 20
86.9345589031
 10
163.942910602
 20
86.6664683868
 10
164.1036103122
 20
86.3367150028
  0
LWPOLYLINE
  5
95
330
1F
100
AcDbEntity
  8
0
  6
SLD-Durchgehend
 62
     7
370
    15
100
AcDbPolyline
 90
        3
 70
   128
 43
0.0
 10
159.4116127692
 20
86.5588037718
 10
160.120131319
 20
86.6681652565
 10
163.3252146296
 20
87.0549975384
  0
ARC
  5
96
330
1F
100
AcDbEntity
  8
0
  6
SLD-Durchgehend
 62
     7
370
    15
100
AcDbCircle
 10
156.2615186247
 20
115.9463010528
 30
0.0
 40
29.5558469606003
100
AcDbArc
 50
269.0572258187
 51
276.1182671045
  0
LINE
  5
97
330
1F
100
AcDbEntity
  8
0
  6
SLD-Durchgehend
 62
     7
370
    15
100
AcDbLine
 10
155.7651701026
 20
86.4062698979
 30
0.0
 11
155.7752134852
 21
86.3944551397
 31
0.0
  0
LINE
  5
98
330
1F
100
AcDbEntity
  8
0
  6
SLD-Durchgehend
 62
     7
370
    15
100
AcDbLine
 10
155.7752134852
 20
128.0710248698
 30
0.0
 11
155.7651701026
 21
128.0610392291
 31
0.0
  0
LINE
  5
99
330
1F
100
AcDbEntity
  8
0
  6
SLD-Durchgehend
 62
     7
370
    15
100
AcDbLine
 10
159.325213974
 20
128.0241737564
 30
0.0
 11
155.7752134852
 21
128.0710248698
 31
0.0
  0
ARC
  5
9A
330
1F
100
AcDbEntity
  8
0
  6
SLD-Durchgehend
 62
     7
370
    15
100
AcDbCircle
 10
159.2672895764
 20
129.5739321007
 30
0.0
 40
1.550840469419326
100
AcDbArc
 50
272.1405139456
 51
340.0660547734
  0
LINE
  5
9B
330
1F
100
AcDbEntity
  8
0
  6
SLD-Durchgehend
 62
     7
370
    15
100
AcDbLine
 10
160.7252134584
 20
129.0451938708
 30
0.0
 11
160.7252134584
 21
130.2291321058
 31
0.0
  0
LWPOLYLINE
  5
9C
330
1F
100
AcDbEntity
  8
0
  6
SLD-Durchgehend
 62
     7
370
    15
100
AcDbPolyline
 90
       18
 70
   128
 43
0.0
 10
173.2941203393
 20
83.5435780187
 10
173.2928006552
 20
83.5434047927
 10
173.3766476266
 20
83.5544093002
 10
173.6233987488
 20
83.5850330491
 10
174.0158869527
 20
83.6295502682
 10
174.5390527524
 20
83.6780032564
 10
175.1758678459
 20
83.7202331473
 10
175.9114618056
 20
83.7462710638
 10
176.7071679808
 20
83.7484000672
 10
177.5245171614
 20
83.7209018369
 10
178.3381298758
 20
83.6636161853
 10
179.131972009
 20
83.5794059981
 10
179.8601270296
 20
83.4791193206
 10
180.4910803788
 20
83.3736358632
 10
181.0066293568
 20
83.2745580424
 10
181.3918592982
 20
83.1928624262
 10
181.6318243385
 20
83.1395516593
 10
181.7082807996
 20
83.1220278938
  0
LWPOLYLINE
  5
9D
330
1F
100
AcDbEntity
  8
0
  6
SLD-Durchgehend
 62
     7
370
    15
100
AcDbPolyline
 90
       18
 70
   128
 43
0.0
 10
181.7082263172
 20
131.2801147301
 10
181.631115602
 20
131.262641256
 10
181.3890806973
 20
131.209052955
 10
181.0021287404
 20
131.1269456942
 10
180.4856065303
 20
131.0275251467
 10
179.8561083727
 20
130.9221590359
 10
179.1302583754
 20
130.822168519
 10
178.3395529367
 20
130.7384426196
 10
177.5259849258
 20
130.6813246061
 10
176.7082902245
 20
130.6538841177
 10
175.9113239698
 20
130.6560317476
 10
175.1749002017
 20
130.6820696641
 10
174.5368026771
 20
130.7243293573
 10
174.0140308269
 20
130.7727395047
 10
173.6217605524
 20
130.8173032899
 10
173.3762797542
 20
130.8478320439
 10
173.2926805146
 20
130.8587620456
 10
173.293715214
 20
130.8586260725
  0
LWPOLYLINE
  5
9E
330
1F
100
AcDbEntity
  8
0
  6
SLD-Durchgehend
 62
     7
370
    15
100
AcDbPolyline
 90
        3
 70
   128
 43
0.0
 10
154.6317337655
 20
87.550267433
 10
154.6445375882
 20
87.5548663039
 10
154.655493667
 20
87.6109989781
  0
LINE
  5
9F
330
1F
100
AcDbEntity
  8
0
  6
SLD-Durchgehend
 62
     7
370
    15
100
AcDbLine
 10
154.6252145074
 20
87.5479260881
 30
0.0
 11
154.6252145074
 21
126.8917637367
 31
0.0
  0
LWPOLYLINE
  5
A0
330
1F
100
AcDbEntity
  8
0
  6
SLD-Durchgehend
 62
     7
370
    15
100
AcDbPolyline
 90
        3
 70
   128
 43
0.0
 10
154.6878776156
 20
126.8756388177
 10
154.6463704311
 20
126.93816409
 10
154.6252145074
 20
126.8917637367
  0
LWPOLYLINE
  5
A1
330
1F
100
AcDbEntity
  8
0
  6
SLD-Durchgehend
 62
     7
370
    15
100
AcDbPolyline
 90
       12
 70
   128
 43
0.0
 10
155.4493679308
 20
127.5912056167
 10
155.3835085236
 20
127.4064014156
 10
155.2690750562
 20
127.1429060448
 10
155.1397404276
 20
126.9097289492
 10
155.0651936434
 20
126.8031428058
 10
155.026446899
 20
126.7561426808
 10
154.9823953413
 20
126.7104035665
 10
154.9434437059
 20
126.6776247371
 10
154.9068241023
 20
126.6544441183
 10
154.8605448209
 20
126.6380919565
 10
154.7801046275
 20
126.6601531256
 10
154.6878776156
 20
126.8756388177
  0
LINE
  5
A2
330
1F
100
AcDbEntity
  8
0
  6
SLD-Durchgehend
 62
     7
370
    15
100
AcDbLine
 10
155.7651701026
 20
128.0610392291
 30
0.0
 11
155.4493679308
 21
127.5912056167
 31
0.0
  0
LINE
  5
A3
330
1F
100
AcDbEntity
  8
0
  6
SLD-Durchgehend
 62
     7
370
    15
100
AcDbLine
 10
155.5641236358
 20
86.7571643044
 30
0.0
 11
155.7651701026
 21
86.4062698979
 31
0.0
  0
LWPOLYLINE
  5
A4
330
1F
100
AcDbEntity
  8
0
  6
SLD-Durchgehend
 62
     7
370
    15
100
AcDbPolyline
 90
       12
 70
   128
 43
0.0
 10
154.655493667
 20
87.6109989781
 10
154.7402365707
 20
87.936548372
 10
154.7912804984
 20
87.982598548
 10
154.8583282732
 20
87.9882554014
 10
154.8928170107
 20
87.9759880204
 10
154.9375987254
 20
87.9489684899
 10
154.9749559365
 20
87.9185328681
 10
155.0134158336
 20
87.8808217544
 10
155.0633719765
 20
87.8233330746
 10
155.1376877926
 20
87.7219846893
 10
155.2980131112
 20
87.4439048071
 10
155.5641236358
 20
86.7571643044
  0
LINE
  5
A5
330
1F
100
AcDbEntity
  8
0
  6
SLD-Durchgehend
 62
     7
370
    15
100
AcDbLine
 10
211.8752150439
 20
137.6682816495
 30
0.0
 11
207.9171462558
 21
137.6682816495
 31
0.0
  0
LINE
  5
A6
330
1F
100
AcDbEntity
  8
0
  6
SLD-Durchgehend
 62
     7
370
    15
100
AcDbLine
 10
207.9171462558
 20
131.6597758282
 30
0.0
 11
211.8752150439
 21
131.6597758282
 31
0.0
  0
LINE
  5
A7
330
1F
100
AcDbEntity
  8
0
  6
SLD-Durchgehend
 62
     7
370
    15
100
AcDbLine
 10
207.9171462558
 20
131.6597758282
 30
0.0
 11
207.9171462558
 21
137.6682816495
 31
0.0
  0
LWPOLYLINE
  5
A8
330
1F
100
AcDbEntity
  8
0
  6
SLD-Durchgehend
 62
     7
370
    15
100
AcDbPolyline
 90
        3
 70
   128
 43
0.0
 10
202.6152143829
 20
135.0063195873
 10
201.1412855812
 20
137.653948595
 10
201.133281795
 20
137.6682816495
  0
LINE
  5
A9
330
1F
100
AcDbEntity
  8
0
  6
SLD-Durchgehend
 62
     7
370
    15
100
AcDbLine
 10
202.6152143829
 20
128.2512302
 30
0.0
 11
202.6152143829
 21
135.0063195873
 31
0.0
  0
LWPOLYLINE
  5
AA
330
1F
100
AcDbEntity
  8
0
  6
SLD-Durchgehend
 62
     7
370
    15
100
AcDbPolyline
 90
        3
 70
   128
 43
0.0
 10
201.133281795
 20
131.6597758282
 10
201.488765759
 20
130.861526211
 10
202.6152143829
 20
128.2512302
  0
LINE
  5
AB
330
1F
100
AcDbEntity
  8
0
  6
SLD-Durchgehend
 62
     7
370
    15
100
AcDbLine
 10
202.6152143829
 20
128.2512302
 30
0.0
 11
202.6152143829
 21
127.3369526912
 31
0.0
  0
ARC
  5
AC
330
1F
100
AcDbEntity
  8
0
  6
SLD-Durchgehend
 62
     7
370
    15
100
AcDbCircle
 10
211.8671075453
 20
137.0600992631
 30
0.0
 40
0.6082364232875822
100
AcDbArc
 50
358.8156305045
 51
89.2362522385
  0
ARC
  5
AD
330
1F
100
AcDbEntity
  8
0
  6
SLD-Durchgehend
 62
     7
370
    15
100
AcDbCircle
 10
211.792185862
 20
130.9754129361
 30
0.0
 40
0.6893811813572834
100
AcDbArc
 50
352.2154757984
 51
83.0824936921
  0
LINE
  5
AE
330
1F
100
AcDbEntity
  8
0
  6
SLD-Durchgehend
 62
     7
370
    15
100
AcDbLine
 10
212.4752140247
 20
130.8820376594
 30
0.0
 11
212.4752140247
 21
137.0475272138
 31
0.0
  0
LWPOLYLINE
  5
AF
330
1F
100
AcDbEntity
  8
0
  6
SLD-Durchgehend
 62
     7
370
    15
100
AcDbPolyline
 90
        3
 70
   128
 43
0.0
 10
207.9171462558
 20
137.6682816495
 10
207.9091424696
 20
137.653948595
 10
206.4352145992
 20
135.0063195873
  0
LWPOLYLINE
  5
B0
330
1F
100
AcDbEntity
  8
0
  6
SLD-Durchgehend
 62
     7
370
    15
100
AcDbPolyline
 90
        3
 70
   128
 43
0.0
 10
206.4352145992
 20
128.2512302
 10
207.5616622918
 20
130.861526211
 10
207.9171462558
 20
131.6597758282
  0
LINE
  5
B1
330
1F
100
AcDbEntity
  8
0
  6
SLD-Durchgehend
 62
     7
370
    15
100
AcDbLine
 10
206.4352145992
 20
128.2512302
 30
0.0
 11
206.4352145992
 21
135.0063195873
 31
0.0
  0
LINE
  5
B2
330
1F
100
AcDbEntity
  8
0
  6
SLD-Durchgehend
 62
     7
370
    15
100
AcDbLine
 10
206.4352145992
 20
127.3369526912
 30
0.0
 11
206.4352145992
 21
128.2512302
 31
0.0
  0
LINE
  5
B3
330
1F
100
AcDbEntity
  8
0
  6
SLD-Durchgehend
 62
     7
370
    15
100
AcDbLine
 10
212.4752140247
 20
130.8820376594
 30
0.0
 11
212.4752140247
 21
127.0510869522
 31
0.0
  0
LINE
  5
B4
330
1F
100
AcDbEntity
  8
0
  6
SLD-Durchgehend
 62
     7
370
    15
100
AcDbLine
 10
155.7752134852
 20
86.3885859449
 30
0.0
 11
155.7752134852
 21
86.3944551397
 31
0.0
  0
LINE
  5
B5
330
1F
100
AcDbEntity
  8
0
  6
SLD-Durchgehend
 62
     7
370
    15
100
AcDbLine
 10
228.1291744314
 20
133.2708428104
 30
0.0
 11
227.7578859233
 21
133.1994848747
 31
0.0
  0
LINE
  5
B6
330
1F
100
AcDbEntity
  8
0
  6
SLD-Durchgehend
 62
     7
370
    15
100
AcDbLine
 10
227.7578859233
 20
81.2026875515
 30
0.0
 11
228.1291744314
 21
81.1313296158
 31
0.0
  0
ARC
  5
B7
330
1F
100
AcDbEntity
  8
0
  6
SLD-Durchgehend
 62
     7
370
    15
100
AcDbCircle
 10
243.7797512206
 20
139.4556230991
 30
0.0
 40
2.100000000000008
100
AcDbArc
 50
115.8700037428
 51
334.1299962572
  0
LINE
  5
B8
330
1F
100
AcDbEntity
  8
0
  6
SLD-Durchgehend
 62
     7
370
    15
100
AcDbLine
 10
254.6320370041
 20
139.3234672446
 30
0.0
 11
252.14989843
 21
110.9524854415
 31
0.0
  0
LINE
  5
B9
330
1F
100
AcDbEntity
  8
0
  6
SLD-Durchgehend
 62
     7
370
    15
100
AcDbLine
 10
252.14989843
 20
110.9524854415
 30
0.0
 11
230.6187039815
 21
80.2027525802
 31
0.0
  0
LINE
  5
BA
330
1F
100
AcDbEntity
  8
0
  6
SLD-Durchgehend
 62
     7
370
    15
100
AcDbLine
 10
230.6187039815
 20
80.2027525802
 30
0.0
 11
228.7931627236
 21
80.2027525802
 31
0.0
  0
LINE
  5
BB
330
1F
100
AcDbEntity
  8
0
  6
SLD-Durchgehend
 62
     7
370
    15
100
AcDbLine
 10
228.7931627236
 20
80.2027525802
 30
0.0
 11
228.7238127195
 21
80.4615876127
 31
0.0
  0
LINE
  5
BC
330
1F
100
AcDbEntity
  8
0
  6
SLD-Durchgehend
 62
     7
370
    15
100
AcDbLine
 10
228.7238127195
 20
133.9405848135
 30
0.0
 11
232.9110427402
 21
149.5681571264
 31
0.0
  0
LINE
  5
BD
330
1F
100
AcDbEntity
  8
0
  6
SLD-Durchgehend
 62
     7
370
    15
100
AcDbLine
 10
232.9110427402
 20
149.5681571264
 30
0.0
 11
243.6651884221
 21
150.5090238948
 31
0.0
  0
ARC
  5
BE
330
1F
100
AcDbEntity
  8
0
  6
SLD-Durchgehend
 62
     7
370
    15
100
AcDbCircle
 10
227.7578481326
 20
80.2027939201
 30
0.0
 40
1.000030878763021
100
AcDbArc
 50
14.998022178
 51
68.2032706806
  0
ARC
  5
BF
330
1F
100
AcDbEntity
  8
0
  6
SLD-Durchgehend
 62
     7
370
    15
100
AcDbCircle
 10
227.757857305
 20
134.1993703622
 30
0.0
 40
1.000019911259667
100
AcDbArc
 50
291.7964146142
 51
345.0022925273
  0
LINE
  5
C0
330
1F
100
AcDbEntity
  8
0
  6
SLD-Durchgehend
 62
     7
370
    15
100
AcDbLine
 10
243.0693282388
 20
138.3118609388
 30
0.0
 11
255.1069221102
 21
139.365011682
 31
0.0
  0
ARC
  5
C1
330
1F
100
AcDbEntity
  8
0
  6
SLD-Durchgehend
 62
     7
370
    15
100
AcDbCircle
 10
243.0344662098
 20
138.7103380883
 30
0.0
 40
0.4000000000000102
100
AcDbArc
 50
175.0
 51
275.0
  0
LINE
  5
C2
330
1F
100
AcDbEntity
  8
0
  6
SLD-Durchgehend
 62
     7
370
    15
100
AcDbLine
 10
243.6891420387
 20
150.7827954788
 30
0.0
 11
242.6359875702
 21
138.7452016075
 31
0.0
  0
ARC
  5
C3
330
1F
100
AcDbEntity
  8
0
  6
SLD-Durchgehend
 62
     7
370
    15
100
AcDbCircle
 10
244.0876193106
 20
150.7479331124
 30
0.0
 40
0.3999999999999819
100
AcDbArc
 50
95.0
 51
175.0
  0
LINE
  5
C4
330
1F
100
AcDbEntity
  8
0
  6
SLD-Durchgehend
 62
     7
370
    15
100
AcDbLine
 10
256.0903540455
 20
152.1995643575
 30
0.0
 11
244.0527564489
 21
151.146409889
 31
0.0
  0
ARC
  5
C5
330
1F
100
AcDbEntity
  8
0
  6
SLD-Durchgehend
 62
     7
370
    15
100
AcDbCircle
 10
256.1252143346
 20
151.8010862131
 30
0.0
 40
0.4000000000000385
100
AcDbArc
 50
355.0
 51
95.0
  0
LINE
  5
C6
330
1F
100
AcDbEntity
  8
0
  6
SLD-Durchgehend
 62
     7
370
    15
100
AcDbLine
 10
255.4705402456
 20
139.7286298175
 30
0.0
 11
256.5236947142
 21
151.7662236888
 31
0.0
  0
ARC
  5
C7
330
1F
100
AcDbEntity
  8
0
  6
SLD-Durchgehend
 62
     7
370
    15
100
AcDbCircle
 10
255.0720612339
 20
139.7634911891
 30
0.0
 40
0.3999999999999844
100
AcDbArc
 50
275.0
 51
355.0
  0
ARC
  5
C8
330
1F
100
AcDbEntity
  8
0
  6
SLD-Durchgehend
 62
     7
370
    15
100
AcDbCircle
 10
256.1252143346
 20
151.8010862131
 30
0.0
 40
0.3800000000000287
100
AcDbArc
 50
355.0
 51
95.0
  0
LINE
  5
C9
330
1F
100
AcDbEntity
  8
0
  6
SLD-Durchgehend
 62
     7
370
    15
100
AcDbLine
 10
256.0920974814
 20
152.179641505
 30
0.0
 11
244.0544998847
 21
151.1264870365
 31
0.0
  0
ARC
  5
CA
330
1F
100
AcDbEntity
  8
0
  6
SLD-Durchgehend
 62
     7
370
    15
100
AcDbCircle
 10
244.0876193106
 20
150.7479331124
 30
0.0
 40
0.3799999999999979
100
AcDbArc
 50
95.0
 51
175.0
  0
LINE
  5
CB
330
1F
100
AcDbEntity
  8
0
  6
SLD-Durchgehend
 62
     7
370
    15
100
AcDbLine
 10
243.7090648912
 20
150.781052043
 30
0.0
 11
242.6559104227
 21
138.7434581716
 31
0.0
  0
ARC
  5
CC
330
1F
100
AcDbEntity
  8
0
  6
SLD-Durchgehend
 62
     7
370
    15
100
AcDbCircle
 10
243.0344662098
 20
138.7103380883
 30
0.0
 40
0.3800000000000028
100
AcDbArc
 50
175.0
 51
275.0
  0
LINE
  5
CD
330
1F
100
AcDbEntity
  8
0
  6
SLD-Durchgehend
 62
     7
370
    15
100
AcDbLine
 10
243.067584803
 20
138.3317837913
 30
0.0
 11
255.1051786743
 21
139.3849382598
 31
0.0
  0
ARC
  5
CE
330
1F
100
AcDbEntity
  8
0
  6
SLD-Durchgehend
 62
     7
370
    15
100
AcDbCircle
 10
255.0720612339
 20
139.7634911891
 30
0.0
 40
0.3800000000000004
100
AcDbArc
 50
275.0
 51
355.0
  0
LINE
  5
CF
330
1F
100
AcDbEntity
  8
0
  6
SLD-Durchgehend
 62
     7
370
    15
100
AcDbLine
 10
255.4506173931
 20
139.7303732533
 30
0.0
 11
256.5037718617
 21
151.7679671247
 31
0.0
  0
LINE
  5
D0
330
1F
100
AcDbEntity
  8
0
  6
SLD-Durchgehend
 62
     7
370
    15
100
AcDbLine
 10
254.4983661376
 20
140.3371857901
 30
0.0
 11
255.0720608436
 21
139.7634910841
 31
0.0
  0
LINE
  5
D1
330
1F
100
AcDbEntity
  8
0
  6
SLD-Durchgehend
 62
     7
370
    15
100
AcDbLine
 10
255.2062159978
 20
150.8820856411
 30
0.0
 11
256.1252153121
 21
151.8010849554
 31
0.0
  0
LINE
  5
D2
330
1F
100
AcDbEntity
  8
0
  6
SLD-Durchgehend
 62
     7
370
    15
100
AcDbLine
 10
244.6613124214
 20
150.1742395062
 30
0.0
 11
244.0876177155
 21
150.7479342122
 31
0.0
  0
LINE
  5
D3
330
1F
100
AcDbEntity
  8
0
  6
SLD-Durchgehend
 62
     7
370
    15
100
AcDbLine
 10
243.9534662865
 20
139.6293396552
 30
0.0
 11
243.0344669722
 21
138.7103366156
 31
0.0
  0
ARC
  5
D4
330
1F
100
AcDbEntity
  8
0
  6
SLD-Durchgehend
 62
     7
370
    15
100
AcDbCircle
 10
253.2430496214
 20
148.9189214999
 30
0.0
 40
1.000000000295385
100
AcDbArc
 50
355.0
 51
95.0
  0
LINE
  5
D5
330
1F
100
AcDbEntity
  8
0
  6
SLD-Durchgehend
 62
     7
370
    15
100
AcDbLine
 10
253.6498344146
 20
142.0947591264
 30
0.0
 11
254.239242395
 21
148.831764092
 31
0.0
  0
ARC
  5
D6
330
1F
100
AcDbEntity
  8
0
  6
SLD-Durchgehend
 62
     7
370
    15
100
AcDbCircle
 10
252.6536378861
 20
142.1819145369
 30
0.0
 40
1.000000000000038
100
AcDbArc
 50
275.0
 51
355.0
  0
LINE
  5
D7
330
1F
100
AcDbEntity
  8
0
  6
SLD-Durchgehend
 62
     7
370
    15
100
AcDbLine
 10
246.0037878357
 20
140.5963095326
 30
0.0
 11
252.7407965265
 21
141.1857212384
 31
0.0
  0
ARC
  5
D8
330
1F
100
AcDbEntity
  8
0
  6
SLD-Durchgehend
 62
     7
370
    15
100
AcDbCircle
 10
245.916630923
 20
141.5925028015
 30
0.0
 40
1.000000000000012
100
AcDbArc
 50
175.0
 51
275.0
  0
LINE
  5
D9
330
1F
100
AcDbEntity
  8
0
  6
SLD-Durchgehend
 62
     7
370
    15
100
AcDbLine
 10
245.5098478697
 20
148.4166661699
 30
0.0
 11
244.920436164
 21
141.679657479
 31
0.0
  0
ARC
  5
DA
330
1F
100
AcDbEntity
  8
0
  6
SLD-Durchgehend
 62
     7
370
    15
100
AcDbCircle
 10
246.5060426584
 20
148.3295097646
 30
0.0
 40
1.000000000000038
100
AcDbArc
 50
95.0
 51
175.0
  0
LINE
  5
DB
330
1F
100
AcDbEntity
  8
0
  6
SLD-Durchgehend
 62
     7
370
    15
100
AcDbLine
 10
253.1558907233
 20
149.9151157637
 30
0.0
 11
246.4188857578
 21
149.3257040579
 31
0.0
  0
CIRCLE
  5
DC
330
1F
100
AcDbEntity
  8
0
  6
SLD-Durchgehend
 62
     7
370
    15
100
AcDbCircle
 10
249.5798402722
 20
145.2557121507
 30
0.0
 40
3.799999999999997
  0
LWPOLYLINE
  5
DD
330
1F
100
AcDbEntity
  8
0
  6
SLD-Durchgehend
 62
     7
370
    15
100
AcDbPolyline
 90
        5
 70
   128
 43
0.0
 10
254.7172865473
 20
150.3931599159
 10
254.720631858
 20
150.3965052266
 10
254.8669463597
 20
150.5428160031
 10
255.0387418471
 20
150.7146152158
 10
255.2062159978
 20
150.8820856411
  0
LWPOLYLINE
  5
DE
330
1F
100
AcDbEntity
  8
0
  6
SLD-Durchgehend
 62
     7
370
    15
100
AcDbPolyline
 90
        5
 70
   128
 43
0.0
 10
254.0077081524
 20
140.82784005
 10
254.0112918817
 20
140.824260046
 10
254.1615700923
 20
140.6739818354
 10
254.33195742
 20
140.5035945077
 10
254.4983661376
 20
140.3371857901
  0
LWPOLYLINE
  5
DF
330
1F
100
AcDbEntity
  8
0
  6
SLD-Durchgehend
 62
     7
370
    15
100
AcDbPolyline
 90
        5
 70
   128
 43
0.0
 10
243.9534662865
 20
139.6293396552
 10
244.1209367119
 20
139.7968063552
 10
244.2927359246
 20
139.9686055679
 10
244.4390467011
 20
140.1149163444
 10
244.442395737
 20
140.1182653804
  0
LINE
  5
E0
330
1F
100
AcDbEntity
  8
0
  6
SLD-Durchgehend
 62
     7
370
    15
100
AcDbLine
 10
244.6613124214
 20
150.1742395062
 30
0.0
 11
245.1519704066
 21
149.683581521
 31
0.0
  0
CIRCLE
  5
E1
330
1F
100
AcDbEntity
  8
0
  6
SLD-Durchgehend
 62
     7
370
    15
100
AcDbCircle
 10
249.3900718455
 20
145.065943724
 30
0.0
 40
2.633974596215557
  0
CIRCLE
  5
E2
330
1F
100
AcDbEntity
  8
0
  6
SLD-Durchgehend
 62
     7
370
    15
100
AcDbCircle
 10
249.3900718455
 20
145.065943724
 30
0.0
 40
1.999999999999981
  0
CIRCLE
  5
E3
330
1F
100
AcDbEntity
  8
0
  6
SLD-Durchgehend
 62
     7
370
    15
100
AcDbCircle
 10
249.3900718455
 20
145.065943724
 30
0.0
 40
3.499999999999977
  0
ARC
  5
E4
330
1F
100
AcDbEntity
  8
0
  6
SLD-Durchgehend
 62
     7
370
    15
100
AcDbCircle
 10
250.8453330178
 20
144.460977394
 30
0.0
 40
0.3940014604871445
100
AcDbArc
 50
260.7238628654
 51
54.2359463452
  0
ARC
  5
E5
330
1F
100
AcDbEntity
  8
0
  6
SLD-Durchgehend
 62
     7
370
    15
100
AcDbCircle
 10
251.4785749569
 20
145.3401708378
 30
0.0
 40
0.689500484632507
100
AcDbArc
 50
140.7242953011
 51
234.2369067521
  0
ARC
  5
E6
330
1F
100
AcDbEntity
  8
0
  6
SLD-Durchgehend
 62
     7
370
    15
100
AcDbCircle
 10
250.6398328705
 20
146.0260881839
 30
0.0
 40
0.3939988892240315
100
AcDbArc
 50
320.7233256575
 51
114.2368657615
  0
ARC
  5
E7
330
1F
100
AcDbEntity
  8
0
  6
SLD-Durchgehend
 62
     7
370
    15
100
AcDbCircle
 10
250.1950471274
 20
147.0140710191
 30
0.0
 40
0.6894882772893337
100
AcDbArc
 50
200.7230051912
 51
294.2371944691
  0
ARC
  5
E8
330
1F
100
AcDbEntity
  8
0
  6
SLD-Durchgehend
 62
     7
370
    15
100
AcDbCircle
 10
249.1816597046
 20
146.6306673074
 30
0.0
 40
0.3940025971394728
100
AcDbArc
 50
20.7245631061
 51
174.2357879582
  0
ARC
  5
E9
330
1F
100
AcDbEntity
  8
0
  6
SLD-Durchgehend
 62
     7
370
    15
100
AcDbCircle
 10
248.1036383121
 20
146.7394759604
 30
0.0
 40
0.6894961087598962
100
AcDbArc
 50
260.723574635
 51
354.2368223583
  0
ARC
  5
EA
330
1F
100
AcDbEntity
  8
0
  6
SLD-Durchgehend
 62
     7
370
    15
100
AcDbCircle
 10
247.9289831844
 20
145.670149004
 30
0.0
 40
0.3940003395546538
100
AcDbArc
 50
80.7238801549
 51
234.2364431527
  0
ARC
  5
EB
330
1F
100
AcDbEntity
  8
0
  6
SLD-Durchgehend
 62
     7
370
    15
100
AcDbCircle
 10
247.2957334885
 20
144.7909553648
 30
0.0
 40
0.6895062974803227
100
AcDbArc
 50
320.7241947056
 51
54.2361093327
  0
ARC
  5
EC
330
1F
100
AcDbEntity
  8
0
  6
SLD-Durchgehend
 62
     7
370
    15
100
AcDbCircle
 10
248.1344839176
 20
144.1050359462
 30
0.0
 40
0.3940008465022575
100
AcDbArc
 50
140.7240364202
 51
294.2365966452
  0
ARC
  5
ED
330
1F
100
AcDbEntity
  8
0
  6
SLD-Durchgehend
 62
     7
370
    15
100
AcDbCircle
 10
248.579267645
 20
143.1170415927
 30
0.0
 40
0.6894959955566587
100
AcDbArc
 50
20.7235598382
 51
114.2368025847
  0
ARC
  5
EE
330
1F
100
AcDbEntity
  8
0
  6
SLD-Durchgehend
 62
     7
370
    15
100
AcDbCircle
 10
249.5926602159
 20
143.5004520612
 30
0.0
 40
0.3940020848730948
100
AcDbArc
 50
200.7242465997
 51
354.2361044646
  0
ARC
  5
EF
330
1F
100
AcDbEntity
  8
0
  6
SLD-Durchgehend
 62
     7
370
    15
100
AcDbCircle
 10
250.6706815208
 20
143.3916488296
 30
0.0
 40
0.6894959894581545
100
AcDbArc
 50
80.7239038169
 51
174.2370889965
  0
LWPOLYLINE
  5
F0
330
1F
100
AcDbEntity
  8
0
  6
SLD-Gestrichelt
 62
     7
370
     0
100
AcDbPolyline
 90
       27
 70
   128
 43
0.0
 10
216.3045125656
 20
90.6203182835
 10
216.9021664761
 20
90.6314699401
 10
217.477913817
 20
90.7263661225
 10
217.9982921682
 20
90.8994952638
 10
218.4330633484
 20
91.1407916297
 10
218.7569549881
 20
91.4362332274
 10
218.9511469208
 20
91.7686520566
 10
219.0043515168
 20
92.1187268991
 10
218.9134767853
 20
92.4661130134
 10
218.6838051878
 20
92.7906230513
 10
218.3286881648
 20
93.0733949367
 10
217.868756374
 20
93.2979982768
 10
217.3307424985
 20
93.4513768603
 10
216.7459147625
 20
93.5246188615
 10
216.1482627146
 20
93.513467205
 10
215.5725153737
 20
93.4185700912
 10
215.0521370225
 20
93.2454428126
 10
214.617367705
 20
93.0041455154
 10
214.2934742026
 20
92.7087029864
 10
214.0992841326
 20
92.3762850885
 10
214.0460776739
 20
92.0262102459
 10
214.1369524054
 20
91.6788232003
 10
214.3666221403
 20
91.3543140937
 10
214.7217410259
 20
91.0715422083
 10
215.1816728167
 20
90.8469388683
 10
215.7196866922
 20
90.6935593535
 10
216.3045125656
 20
90.6203182835
  0
LWPOLYLINE
  5
F1
330
1F
100
AcDbEntity
  8
0
  6
SLD-Gestrichelt
 62
     7
370
     0
100
AcDbPolyline
 90
       29
 70
   128
 43
0.0
 10
216.2582779877
 20
90.0734009643
 10
216.9298863612
 20
90.0825242002
 10
217.5812012159
 20
90.1792588134
 10
218.1795647942
 20
90.3587582011
 10
218.6949736081
 20
90.6120201994
 10
219.1015815936
 20
90.926343431
 10
219.3789965116
 20
91.2859699179
 10
219.5133155786
 20
91.6728627358
 10
219.4977960192
 20
92.0676233668
 10
219.3332201444
 20
92.450457481
 10
219.0278357469
 20
92.8021667946
 10
218.5969649457
 20
93.1051157836
 10
218.0622032486
 20
93.3441136454
 10
217.4503727459
 20
93.5071751897
 10
216.7921493404
 20
93.5861243356
 10
216.1205428295
 20
93.5770029623
 10
215.4692261122
 20
93.4802674178
 10
214.8708625339
 20
93.3007680301
 10
214.3554555826
 20
93.0475069631
 10
213.9488475971
 20
92.7331828002
 10
213.6714308165
 20
92.3735572447
 10
213.5371136122
 20
91.9866644267
 10
213.5526331715
 20
91.5919028644
 10
213.7172090464
 20
91.2090687503
 10
214.0225915812
 20
90.8573603679
 10
214.4534661077
 20
90.5544104476
 10
214.9882259421
 20
90.3154125858
 10
215.6000564449
 20
90.1523510415
 10
216.2582779877
 20
90.0734009643
  0
LWPOLYLINE
  5
F2
330
1F
100
AcDbEntity
  8
0
  6
SLD-Gestrichelt
 62
     7
370
     0
100
AcDbPolyline
 90
       29
 70
   128
 43
0.0
 10
216.2582779877
 20
87.8486054439
 10
216.9298863612
 20
87.8577268172
 10
217.5812012159
 20
87.9544632931
 10
218.1795647942
 20
88.1339626808
 10
218.6949736081
 20
88.3872228165
 10
219.1015815936
 20
88.7015479107
 10
219.3789965116
 20
89.0611725349
 10
219.5133155786
 20
89.4480662842
 10
219.4977960192
 20
89.8428259839
 10
219.3332201444
 20
90.2256610293
 10
219.0278357469
 20
90.5773694117
 10
218.5969649457
 20
90.880319332
 10
218.0622032486
 20
91.1193171937
 10
217.4503727459
 20
91.282378738
 10
216.7921493404
 20
91.3613288153
 10
216.1205428295
 20
91.3522055794
 10
215.4692261122
 20
91.2554709662
 10
214.8708625339
 20
91.0759715785
 10
214.3554555826
 20
90.8227095802
 10
213.9488475971
 20
90.5083863486
 10
213.6714308165
 20
90.1487617243
 10
213.5371136122
 20
89.7618679751
 10
213.5526331715
 20
89.3671064128
 10
213.7172090464
 20
88.9842732299
 10
214.0225915812
 20
88.6325629849
 10
214.4534661077
 20
88.3296149273
 10
214.9882259421
 20
88.0906170655
 10
215.6000564449
 20
87.9275536586
 10
216.2582779877
 20
87.8486054439
  0
LWPOLYLINE
  5
F3
330
1F
100
AcDbEntity
  8
0
  6
SLD-Gestrichelt
 62
     7
370
     0
100
AcDbPolyline
 90
       27
 70
   128
 43
0.0
 10
216.3027672671
 20
85.3502227415
 10
216.905148571
 20
85.361463805
 10
217.4854482167
 20
85.4571106334
 10
218.009941151
 20
85.6316088189
 10
218.4481507741
 20
85.8748125334
 10
218.7746016883
 20
86.1725917507
 10
218.9703284405
 20
86.5076387722
 10
219.0239539944
 20
86.8604815055
 10
218.9323640071
 20
87.2106159527
 10
218.7008781932
 20
87.537690853
 10
218.3429485761
 20
87.8226997752
 10
217.8793809019
 20
88.0490782161
 10
217.3371127449
 20
88.2036721755
 10
216.747660061
 20
88.2774925281
 10
216.1452806197
 20
88.2662533272
 10
215.5649809741
 20
88.1706046362
 10
215.0404861771
 20
87.9961083133
 10
214.6022802793
 20
87.7529027362
 10
214.2758256398
 20
87.4551235188
 10
214.0800988876
 20
87.1200764973
 10
214.0264733337
 20
86.767233764
 10
214.1180651836
 20
86.4170993168
 10
214.3495509975
 20
86.0900244166
 10
214.7074806146
 20
85.8050154943
 10
215.1710482888
 20
85.5786370535
 10
215.7133164458
 20
85.4240449567
 10
216.3027672671
 20
85.3502227415
  0
LWPOLYLINE
  5
F4
330
1F
100
AcDbEntity
  8
0
  6
SLD-Gestrichelt
 62
     7
370
     0
100
AcDbPolyline
 90
       27
 70
   128
 43
0.0
 10
216.3027672671
 20
89.2793143589
 10
216.905148571
 20
89.2905554224
 10
217.4854482167
 20
89.3862022508
 10
218.009941151
 20
89.5607004363
 10
218.4481507741
 20
89.8039041508
 10
218.7746016883
 20
90.1016833682
 10
218.9703284405
 20
90.4367303897
 10
219.0239539944
 20
90.789573123
 10
218.9323640071
 20
91.1397075702
 10
218.7008781932
 20
91.4667824705
 10
218.3429485761
 20
91.751792324
 10
217.8793809019
 20
91.9781707649
 10
217.3371127449
 20
92.1327628617
 10
216.747660061
 20
92.2065841455
 10
216.1452806197
 20
92.1953440134
 10
215.5649809741
 20
92.0996962536
 10
215.0404861771
 20
91.9251999308
 10
214.6022802793
 20
91.6819943536
 10
214.2758256398
 20
91.3842151363
 10
214.0800988876
 20
91.0491681148
 10
214.0264733337
 20
90.6963253815
 10
214.1180651836
 20
90.3461909343
 10
214.3495509975
 20
90.019116034
 10
214.7074806146
 20
89.7341071118
 10
215.1710482888
 20
89.5077286709
 10
215.7133164458
 20
89.3531365741
 10
216.3027672671
 20
89.2793143589
  0
LWPOLYLINE
  5
F5
330
1F
100
AcDbEntity
  8
0
  6
SLD-Gestrichelt
 62
     7
370
     0
100
AcDbPolyline
 90
       28
 70
   128
 43
0.0
 10
216.2760736995
 20
87.8202839245
 10
216.9259524547
 20
87.8306998361
 10
217.5542282514
 20
87.9289264281
 10
218.1270270251
 20
88.1096700628
 10
218.6134754323
 20
88.3631872435
 10
218.9873418413
 20
88.67580988
 10
219.2284761571
 20
89.0306828965
 10
219.3238771163
 20
89.4086769272
 10
219.2684000932
 20
89.7894146342
 10
219.0650364958
 20
90.152369668
 10
218.7247535788
 20
90.4779749412
 10
218.2658909463
 20
90.7486750234
 10
217.7131863885
 20
90.9498798151
 10
217.0964403652
 20
91.0707412709
 10
216.4488992296
 20
91.1047419954
 10
215.8054708146
 20
91.0500510086
 10
215.2008450233
 20
90.9096168775
 10
214.6676162832
 20
90.6910093923
 10
214.2345307969
 20
90.4060116459
 10
213.9249368213
 20
90.0699923236
 10
213.7555255197
 20
89.7010637869
 10
213.7354275786
 20
89.3191153605
 10
213.8657270573
 20
88.9447385867
 10
214.1394017838
 20
88.5981152255
 10
214.5416958831
 20
88.2979313333
 10
215.0509207152
 20
88.0603714336
 10
215.6396264784
 20
87.8982430745
 10
216.2760736995
 20
87.8202839245
  0
LWPOLYLINE
  5
F6
330
1F
100
AcDbEntity
  8
0
  6
SLD-Gestrichelt
 62
     7
370
     0
100
AcDbPolyline
 90
       29
 70
   128
 43
0.0
 10
216.2582779877
 20
87.2903837312
 10
216.9298863612
 20
87.2995051045
 10
217.5812012159
 20
87.3962415804
 10
218.1795647942
 20
87.5757409681
 10
218.6949736081
 20
87.8290011038
 10
219.1015815936
 20
88.143326198
 10
219.3789965116
 20
88.5029508222
 10
219.5133155786
 20
88.8898445715
 10
219.4977960192
 20
89.2846042712
 10
219.3332201444
 20
89.6674393166
 10
219.0278357469
 20
90.019147699
 10
218.5969649457
 20
90.3220976193
 10
218.0622032486
 20
90.561095481
 10
217.4503727459
 20
90.7241570253
 10
216.7921493404
 20
90.8031071026
 10
216.1205428295
 20
90.7939838667
 10
215.4692261122
 20
90.6972492535
 10
214.8708625339
 20
90.5177498658
 10
214.3554555826
 20
90.2644878675
 10
213.9488475971
 20
89.9501646359
 10
213.6714308165
 20
89.5905400116
 10
213.5371136122
 20
89.2036462624
 10
213.5526331715
 20
88.8088847001
 10
213.7172090464
 20
88.4260515172
 10
214.0225915812
 20
88.0743412722
 10
214.4534661077
 20
87.7713913519
 10
214.9882259421
 20
87.5323953528
 10
215.6000564449
 20
87.3693319459
 10
216.2582779877
 20
87.2903837312
  0
LWPOLYLINE
  5
F7
330
1F
100
AcDbEntity
  8
0
  6
SLD-Gestrichelt
 62
     7
370
     0
100
AcDbPolyline
 90
       28
 70
   128
 43
0.0
 10
216.2760736995
 20
87.2620622117
 10
216.9259524547
 20
87.2724781234
 10
217.5542282514
 20
87.3707047154
 10
218.1270270251
 20
87.5514483501
 10
218.6134754323
 20
87.8049655307
 10
218.9873418413
 20
88.1175881673
 10
219.2284761571
 20
88.4724611838
 10
219.3238771163
 20
88.8504552145
 10
219.2684000932
 20
89.2311929215
 10
219.0650364958
 20
89.5941479553
 10
218.7247535788
 20
89.9197532285
 10
218.2658909463
 20
90.1904533107
 10
217.7131863885
 20
90.3916581024
 10
217.0964403652
 20
90.5125195582
 10
216.4488992296
 20
90.5465202827
 10
215.8054708146
 20
90.4918292959
 10
215.2008450233
 20
90.3513951648
 10
214.6676162832
 20
90.1327876795
 10
214.2345307969
 20
89.8477899332
 10
213.9249368213
 20
89.5117706109
 10
213.7555255197
 20
89.1428420741
 10
213.7354275786
 20
88.7608936478
 10
213.8657270573
 20
88.3865168739
 10
214.1394017838
 20
88.0398935128
 10
214.5416958831
 20
87.7397096206
 10
215.0509207152
 20
87.5021497209
 10
215.6396264784
 20
87.3400213618
 10
216.2760736995
 20
87.2620622117
  0
LWPOLYLINE
  5
F8
330
1F
100
AcDbEntity
  8
0
  6
SLD-Gestrichelt
 62
     7
370
     0
100
AcDbPolyline
 90
       29
 70
   128
 43
0.0
 10
216.2582779877
 20
86.7321620185
 10
216.9298863612
 20
86.7412833918
 10
217.5812012159
 20
86.8380198677
 10
218.1795647942
 20
87.0175192554
 10
218.6949736081
 20
87.270779391
 10
219.1015815936
 20
87.5851044853
 10
219.3789965116
 20
87.9447291095
 10
219.5133155786
 20
88.3316228588
 10
219.4977960192
 20
88.7263825585
 10
219.3332201444
 20
89.1092176039
 10
219.0278357469
 20
89.4609259863
 10
218.5969649457
 20
89.7638759066
 10
218.0622032486
 20
90.0028737683
 10
217.4503727459
 20
90.1659353126
 10
216.7921493404
 20
90.2448853899
 10
216.1205428295
 20
90.235762154
 10
215.4692261122
 20
90.1390275408
 10
214.8708625339
 20
89.9595281531
 10
214.3554555826
 20
89.7062661548
 10
213.9488475971
 20
89.3919429232
 10
213.6714308165
 20
89.0323182989
 10
213.5371136122
 20
88.6454245497
 10
213.5526331715
 20
88.2506629873
 10
213.7172090464
 20
87.8678298045
 10
214.0225915812
 20
87.5161195595
 10
214.4534661077
 20
87.2131696392
 10
214.9882259421
 20
86.9741736401
 10
215.6000564449
 20
86.8111102332
 10
216.2582779877
 20
86.7321620185
  0
LWPOLYLINE
  5
F9
330
1F
100
AcDbEntity
  8
0
  6
SLD-Gestrichelt
 62
     7
370
     0
100
AcDbPolyline
 90
       28
 70
   128
 43
0.0
 10
216.2760736995
 20
86.703840499
 10
216.9259524547
 20
86.7142564107
 10
217.5542282514
 20
86.8124830027
 10
218.1270270251
 20
86.9932266374
 10
218.6134754323
 20
87.246743818
 10
218.9873418413
 20
87.5593664546
 10
219.2284761571
 20
87.9142394711
 10
219.3238771163
 20
88.2922335018
 10
219.2684000932
 20
88.6729712088
 10
219.0650364958
 20
89.0359262426
 10
218.7247535788
 20
89.3615315158
 10
218.2658909463
 20
89.632231598
 10
217.7131863885
 20
89.8334363897
 10
217.0964403652
 20
89.9542978455
 10
216.4488992296
 20
89.98829857
 10
215.8054708146
 20
89.9336075832
 10
215.2008450233
 20
89.7931734521
 10
214.6676162832
 20
89.5745659668
 10
214.2345307969
 20
89.2895682205
 10
213.9249368213
 20
88.9535488982
 10
213.7555255197
 20
88.5846203614
 10
213.7354275786
 20
88.2026719351
 10
213.8657270573
 20
87.8282951612
 10
214.1394017838
 20
87.4816718001
 10
214.5416958831
 20
87.1814879079
 10
215.0509207152
 20
86.9439280082
 10
215.6396264784
 20
86.7817996491
 10
216.2760736995
 20
86.703840499
  0
LWPOLYLINE
  5
FA
330
1F
100
AcDbEntity
  8
0
  6
SLD-Gestrichelt
 62
     7
370
     0
100
AcDbPolyline
 90
       29
 70
   128
 43
0.0
 10
216.2582779877
 20
86.1739403058
 10
216.9298863612
 20
86.1830616791
 10
217.5812012159
 20
86.2797981549
 10
218.1795647942
 20
86.45929568
 10
218.6949736081
 20
86.7125576783
 10
219.1015815936
 20
87.0268827726
 10
219.3789965116
 20
87.3865073968
 10
219.5133155786
 20
87.773401146
 10
219.4977960192
 20
88.1681608457
 10
219.3332201444
 20
88.5509958912
 10
219.0278357469
 20
88.9027042736
 10
218.5969649457
 20
89.2056541939
 10
218.0622032486
 20
89.4446520556
 10
217.4503727459
 20
89.6077135999
 10
216.7921493404
 20
89.6866636772
 10
216.1205428295
 20
89.6775404413
 10
215.4692261122
 20
89.5808058281
 10
214.8708625339
 20
89.4013064403
 10
214.3554555826
 20
89.148044442
 10
213.9488475971
 20
88.8337212105
 10
213.6714308165
 20
88.4740965862
 10
213.5371136122
 20
88.087202837
 10
213.5526331715
 20
87.6924412746
 10
213.7172090464
 20
87.3096080918
 10
214.0225915812
 20
86.9578978468
 10
214.4534661077
 20
86.6549479265
 10
214.9882259421
 20
86.4159519274
 10
215.6000564449
 20
86.2528885205
 10
216.2582779877
 20
86.1739403058
  0
LWPOLYLINE
  5
FB
330
1F
100
AcDbEntity
  8
0
  6
SLD-Gestrichelt
 62
     7
370
     0
100
AcDbPolyline
 90
       28
 70
   128
 43
0.0
 10
216.2760736995
 20
86.1456187863
 10
216.9259524547
 20
86.156034698
 10
217.5542282514
 20
86.2542612899
 10
218.1270270251
 20
86.4350049246
 10
218.6134754323
 20
86.6885221053
 10
218.9873418413
 20
87.0011447419
 10
219.2284761571
 20
87.3560177584
 10
219.3238771163
 20
87.7340117891
 10
219.2684000932
 20
88.1147494961
 10
219.0650364958
 20
88.4777045299
 10
218.7247535788
 20
88.8033098031
 10
218.2658909463
 20
89.0740098853
 10
217.7131863885
 20
89.275214677
 10
217.0964403652
 20
89.3960761328
 10
216.4488992296
 20
89.4300768573
 10
215.8054708146
 20
89.3753858704
 10
215.2008450233
 20
89.2349517394
 10
214.6676162832
 20
89.0163442541
 10
214.2345307969
 20
88.7313465078
 10
213.9249368213
 20
88.3953271855
 10
213.7555255197
 20
88.0263986487
 10
213.7354275786
 20
87.6444502224
 10
213.8657270573
 20
87.2700734485
 10
214.1394017838
 20
86.9234500874
 10
214.5416958831
 20
86.6232661952
 10
215.0509207152
 20
86.3857062955
 10
215.6396264784
 20
86.2235779364
 10
216.2760736995
 20
86.1456187863
  0
LWPOLYLINE
  5
FC
330
1F
100
AcDbEntity
  8
0
  6
SLD-Gestrichelt
 62
     7
370
     0
100
AcDbPolyline
 90
       29
 70
   128
 43
0.0
 10
216.2582779877
 20
85.6157185931
 10
216.9298863612
 20
85.6248399664
 10
217.5812012159
 20
85.7215764422
 10
218.1795647942
 20
85.9010739673
 10
218.6949736081
 20
86.1543359656
 10
219.1015815936
 20
86.4686610598
 10
219.3789965116
 20
86.8282856841
 10
219.5133155786
 20
87.2151794333
 10
219.4977960192
 20
87.609939133
 10
219.3332201444
 20
87.9927741785
 10
219.0278357469
 20
88.3444825609
 10
218.5969649457
 20
88.6474324812
 10
218.0622032486
 20
88.8864303429
 10
217.4503727459
 20
89.0494918872
 10
216.7921493404
 20
89.1284419645
 10
216.1205428295
 20
89.1193187286
 10
215.4692261122
 20
89.0225841154
 10
214.8708625339
 20
88.8430847276
 10
214.3554555826
 20
88.5898227293
 10
213.9488475971
 20
88.2754994978
 10
213.6714308165
 20
87.9158748735
 10
213.5371136122
 20
87.5289811243
 10
213.5526331715
 20
87.1342195619
 10
213.7172090464
 20
86.7513863791
 10
214.0225915812
 20
86.3996761341
 10
214.4534661077
 20
86.0967262138
 10
214.9882259421
 20
85.8577302147
 10
215.6000564449
 20
85.6946668078
 10
216.2582779877
 20
85.6157185931
  0
LWPOLYLINE
  5
FD
330
1F
100
AcDbEntity
  8
0
  6
SLD-Gestrichelt
 62
     7
370
     0
100
AcDbPolyline
 90
       29
 70
   128
 43
0.0
 10
216.2582779877
 20
85.170758744
 10
216.9298863612
 20
85.1798801173
 10
217.5812012159
 20
85.2766165931
 10
218.1795647942
 20
85.4561159809
 10
218.6949736081
 20
85.7093761165
 10
219.1015815936
 20
86.0237012107
 10
219.3789965116
 20
86.383325835
 10
219.5133155786
 20
86.7702195842
 10
219.4977960192
 20
87.1649811466
 10
219.3332201444
 20
87.5478143294
 10
219.0278357469
 20
87.8995245744
 10
218.5969649457
 20
88.202472632
 10
218.0622032486
 20
88.4414704938
 10
217.4503727459
 20
88.6045320381
 10
216.7921493404
 20
88.6834821154
 10
216.1205428295
 20
88.6743607421
 10
215.4692261122
 20
88.5776242663
 10
214.8708625339
 20
88.3981248785
 10
214.3554555826
 20
88.1448647429
 10
213.9488475971
 20
87.8305396486
 10
213.6714308165
 20
87.4709150244
 10
213.5371136122
 20
87.0840212752
 10
213.5526331715
 20
86.6892597128
 10
213.7172090464
 20
86.30642653
 10
214.0225915812
 20
85.954716285
 10
214.4534661077
 20
85.6517682273
 10
214.9882259421
 20
85.4127703656
 10
215.6000564449
 20
85.2497088213
 10
216.2582779877
 20
85.170758744
  0
LWPOLYLINE
  5
FE
330
1F
100
AcDbEntity
  8
0
  6
SLD-Gestrichelt
 62
     7
370
     0
100
AcDbPolyline
 90
       29
 70
   128
 43
0.0
 10
216.2707353585
 20
85.1394607176
 10
216.9110010021
 20
85.1481555451
 10
217.5319230758
 20
85.2403769691
 10
218.102361878
 20
85.4115000416
 10
218.5937164925
 20
85.6529416938
 10
218.9813515745
 20
85.9525984574
 10
219.2458211087
 20
86.2954406489
 10
219.3738705121
 20
86.6642797787
 10
219.359073659
 20
87.0406179179
 10
219.2021793328
 20
87.4055864711
 10
218.911047896
 20
87.740883087
 10
218.5002824865
 20
88.029693668
 10
217.9904765092
 20
88.2575380106
 10
217.4071984939
 20
88.4129906495
 10
216.7796938323
 20
88.4882564146
 10
216.139426326
 20
88.4795597244
 10
215.5185061149
 20
88.3873383005
 10
214.9480654501
 20
88.216215228
 10
214.4567108356
 20
87.9747735758
 10
214.0690776162
 20
87.6751186747
 10
213.8046062194
 20
87.3322746206
 10
213.6765586786
 20
86.9634373535
 10
213.691353669
 20
86.5870973517
 10
213.8482498579
 20
86.2221306611
 10
214.1393812947
 20
85.8868340452
 10
214.5501467042
 20
85.5980216015
 10
215.0599508189
 20
85.370177259
 10
215.6432306968
 20
85.2147246201
 10
216.2707353585
 20
85.1394607176
  0
LINE
  5
FF
330
1F
100
AcDbEntity
  8
0
  6
SLD-Gestrichelt
 62
     7
370
     0
100
AcDbLine
 10
201.133281795
 20
131.6597758282
 30
0.0
 11
201.133281795
 21
127.0510869522
 31
0.0
  0
LWPOLYLINE
  5
100
330
1F
100
AcDbEntity
  8
0
  6
SLD-Gestrichelt
 62
     7
370
     0
100
AcDbPolyline
 90
       20
 70
   128
 43
0.0
 10
216.525213664
 20
88.0704911847
 10
217.514479404
 20
87.9565382798
 10
218.3921633862
 20
87.632909273
 10
219.0635128521
 20
87.1463770468
 10
219.4502426885
 20
86.5653137166
 10
219.5061369442
 20
85.9698763539
 10
219.2292249404
 20
85.4291839946
 10
218.6504824661
 20
84.9919559855
 10
217.8293428026
 20
84.692487349
 10
216.8597391449
 20
84.5530236561
 10
215.8575932138
 20
84.5810192127
 10
214.9332648717
 20
84.7728753884
 10
214.1834924571
 20
85.1192137648
 10
213.6941811644
 20
85.5985431422
 10
213.5252150349
 20
86.1671584148
 10
213.6928083949
 20
86.7629850705
 10
214.1755687647
 20
87.3172114093
 10
214.9242701583
 20
87.7583118577
 10
215.856568759
 20
88.0191343326
 10
216.525213664
 20
88.0704911847
  0
LINE
  5
101
330
1F
100
AcDbEntity
  8
0
  6
SLD-Gestrichelt
 62
     7
370
     0
100
AcDbLine
 10
174.5203648336
 20
83.6764870633
 30
0.0
 11
174.2687065728
 21
83.6529655803
 31
0.0
  0
LINE
  5
102
330
1F
100
AcDbEntity
  8
0
  6
SLD-Gestrichelt
 62
     7
370
     0
100
AcDbLine
 10
174.1460150682
 20
130.7605168272
 30
0.0
 11
174.5202717014
 21
130.7256685991
 31
0.0
  0
LWPOLYLINE
  5
103
330
1F
100
AcDbEntity
  8
0
  6
SLD-Gestrichelt
 62
     7
370
     0
100
AcDbPolyline
 90
        4
 70
   128
 43
0.0
 10
180.280216375
 20
127.0386146803
 10
180.9616571866
 20
127.1155139853
 10
181.2639603034
 20
127.1382587452
 10
181.2375093453
 20
127.13645943
  0
ARC
  5
104
330
1F
100
AcDbEntity
  8
0
  6
SLD-Gestrichelt
 62
     7
370
     0
100
AcDbCircle
 10
182.0864619546
 20
100.3036671838
 30
0.0
 40
13.06556372140213
100
AcDbArc
 50
262.0537098434
 51
266.27441692
  0
LWPOLYLINE
  5
105
330
1F
100
AcDbEntity
  8
0
  6
SLD-Gestrichelt
 62
     7
370
     0
100
AcDbPolyline
 90
        9
 70
   128
 43
0.0
 10
180.280216375
 20
87.3635577459
 10
179.2837184496
 20
87.4772461553
 10
178.0856222488
 20
87.5478031535
 10
176.8360928275
 20
87.5437109221
 10
175.6755997069
 20
87.4689145435
 10
174.7092566095
 20
87.3550007541
 10
174.0464427151
 20
87.2501617719
 10
173.7789035417
 20
87.2017777015
 10
173.7993218579
 20
87.2055272062
  0
ARC
  5
106
330
1F
100
AcDbEntity
  8
0
  6
SLD-Gestrichelt
 62
     7
370
     0
100
AcDbCircle
 10
177.5220333521
 20
146.8954757133
 30
0.0
 40
20.04750617089304
100
AcDbArc
 50
259.2983744626
 51
277.9079713491
  0
LINE
  5
107
330
1F
100
AcDbEntity
  8
0
  6
SLD-Gestrichelt
 62
     7
370
     0
100
AcDbLine
 10
167.5291898303
 20
90.2010852892
 30
0.0
 11
167.5291898303
 21
124.201087137
 31
0.0
  0
LINE
  5
108
330
1F
100
AcDbEntity
  8
0
  6
SLD-Gestrichelt
 62
     7
370
     0
100
AcDbLine
 10
194.1850402966
 20
90.2010852892
 30
0.0
 11
194.1850402966
 21
124.201087137
 31
0.0
  0
LINE
  5
109
330
1F
100
AcDbEntity
  8
0
  6
SLD-Gestrichelt
 62
     7
370
     0
100
AcDbLine
 10
196.475214196
 20
91.476086383
 30
0.0
 11
196.475214196
 21
122.9260860432
 31
0.0
  0
LWPOLYLINE
  5
10A
330
1F
100
AcDbEntity
  8
0
  6
SLD-Gestrichelt
 62
     7
370
     0
100
AcDbPolyline
 90
        6
 70
   128
 43
0.0
 10
160.7252134584
 20
123.4885992904
 10
160.639088472
 20
123.3361548234
 10
160.3902483933
 20
123.1887953777
 10
160.0065863334
 20
123.0716666628
 10
159.5541535519
 20
123.010041048
 10
159.325213974
 20
123.0025774289
  0
LINE
  5
10B
330
1F
100
AcDbEntity
  8
0
  6
SLD-Gestrichelt
 62
     7
370
     0
100
AcDbLine
 10
159.325213974
 20
123.0025774289
 30
0.0
 11
155.7752134852
 21
123.0025774289
 31
0.0
  0
LINE
  5
10C
330
1F
100
AcDbEntity
  8
0
  6
SLD-Gestrichelt
 62
     7
370
     0
100
AcDbLine
 10
155.7752134852
 20
91.3995949973
 30
0.0
 11
163.3252146296
 21
91.3995949973
 31
0.0
  0
LWPOLYLINE
  5
10D
330
1F
100
AcDbEntity
  8
0
  6
SLD-Gestrichelt
 62
     7
370
     0
100
AcDbPolyline
 90
        6
 70
   128
 43
0.0
 10
163.3252146296
 20
91.3995949973
 10
163.7658084385
 20
91.3715528746
 10
164.1563455217
 20
91.2938284178
 10
164.4689458065
 20
91.1771281112
 10
164.6716816925
 20
91.0331735809
 10
164.7252141141
 20
90.9135731358
  0
LINE
  5
10E
330
1F
100
AcDbEntity
  8
0
  6
SLD-Gestrichelt
 62
     7
370
     0
100
AcDbLine
 10
155.7752134852
 20
91.3995949973
 30
0.0
 11
155.7752134852
 21
123.0025774289
 31
0.0
  0
LWPOLYLINE
  5
10F
330
1F
100
AcDbEntity
  8
0
  6
SLD-Gestrichelt
 62
     7
370
     0
100
AcDbPolyline
 90
       25
 70
   128
 43
0.0
 10
214.2419087343
 20
116.1818223495
 10
213.8604296945
 20
116.5781224568
 10
213.4613598339
 20
117.0315796931
 10
213.0693792008
 20
117.5141491417
 10
212.7087301217
 20
117.9959847082
 10
212.4017177724
 20
118.4472877954
 10
212.16733182
 20
118.840144803
 10
212.0200655066
 20
119.1502612505
 10
211.9690290295
 20
119.3584556181
 10
212.017375847
 20
119.4518523712
 10
212.1621201389
 20
119.4246745158
 10
212.3943063073
 20
119.2786049519
 10
212.6995752208
 20
119.0226756458
 10
213.0590471082
 20
118.6727153559
 10
213.4504912995
 20
118.2503680189
 10
213.8496971332
 20
117.7817553703
 10
214.2319752477
 20
117.2958583061
 10
214.5736812256
 20
116.8227287431
 10
214.8536833577
 20
116.3916279052
 10
215.054664632
 20
116.0292186264
 10
215.1641956173
 20
115.7579131846
 10
215.1755000107
 20
115.5944930811
 10
215.0878793203
 20
115.5490631659
 10
214.9067538433
 20
115.6244351019
 10
214.6433236651
 20
115.8159457568
  0
LWPOLYLINE
  5
110
330
1F
100
AcDbEntity
  8
0
  6
SLD-Gestrichelt
 62
     7
370
     0
100
AcDbPolyline
 90
        3
 70
   128
 43
0.0
 10
214.6433236651
 20
115.8159457568
 10
214.5756276898
 20
115.8637607891
 10
214.2419087343
 20
116.1818223495
  0
LWPOLYLINE
  5
111
330
1F
100
AcDbEntity
  8
0
  6
SLD-Gestrichelt
 62
     7
370
     0
100
AcDbPolyline
 90
        3
 70
   128
 43
0.0
 10
218.1543222271
 20
119.030731586
 10
217.7599965237
 20
118.9180061642
 10
217.2995525055
 20
118.7481590037
  0
LWPOLYLINE
  5
112
330
1F
100
AcDbEntity
  8
0
  6
SLD-Gestrichelt
 62
     7
370
     0
100
AcDbPolyline
 90
       26
 70
   128
 43
0.0
 10
214.2419087343
 20
116.1818223495
 10
214.0751796417
 20
116.6613053952
 10
214.0302712672
 20
117.4391488035
 10
214.2599521779
 20
118.8057156701
 10
214.5286908947
 20
119.6374239821
 10
214.7617115282
 20
120.1933453281
 10
214.9415685438
 20
120.5425531093
 10
215.0711006127
 20
120.7381708969
 10
215.1709104531
 20
120.8431430582
 10
215.2653037213
 20
120.9018508394
 10
215.365400409
 20
120.9296172906
 10
215.6523371689
 20
120.9115840916
 10
216.5569773518
 20
120.6103682939
 10
217.4978459828
 20
120.1515941371
 10
218.1396036051
 20
119.7560428132
 10
218.6493127249
 20
119.3574507211
 10
218.9351356231
 20
119.0373532895
 10
219.0251349114
 20
118.7943377022
 10
218.915872147
 20
118.6338466082
 10
218.5736558043
 20
118.5919752766
 10
218.4001988374
 20
118.6216136862
 10
218.2465082608
 20
118.6798073773
 10
218.1686459683
 20
118.7431186859
 10
218.1340752743
 20
118.8152496193
 10
218.1301637195
 20
118.9103693191
 10
218.1543222271
 20
119.030731586
  0
LWPOLYLINE
  5
113
330
1F
100
AcDbEntity
  8
0
  6
SLD-Gestrichelt
 62
     7
370
     0
100
AcDbPolyline
 90
       11
 70
   128
 43
0.0
 10
217.2995525055
 20
118.7481590037
 10
217.4757214837
 20
118.6517643232
 10
217.5664825939
 20
118.5688943092
 10
217.6011035793
 20
118.4890063901
 10
217.6006155662
 20
118.3942499061
 10
217.5129185073
 20
118.1449339215
 10
216.8461977147
 20
117.121234392
 10
216.2768858127
 20
116.4941749026
 10
215.6280426882
 20
115.9949552689
 10
215.1199875973
 20
115.7897094686
 10
214.6433236651
 20
115.8159457568
  0
LWPOLYLINE
  5
114
330
1F
100
AcDbEntity
  8
0
  6
SLD-Gestrichelt
 62
     7
370
     0
100
AcDbPolyline
 90
        3
 70
   128
 43
0.0
 10
215.1263485305
 20
121.3632485319
 10
215.0187751852
 20
121.3115610604
 10
214.9793169104
 20
121.3002026502
  0
LINE
  5
115
330
1F
100
AcDbEntity
  8
0
  6
SLD-Gestrichelt
 62
     7
370
     0
100
AcDbLine
 10
214.9793169104
 20
121.3002026502
 30
0.0
 11
215.1263485305
 21
121.3632485319
 31
0.0
  0
LWPOLYLINE
  5
116
330
1F
100
AcDbEntity
  8
0
  6
SLD-Gestrichelt
 62
     7
370
     0
100
AcDbPolyline
 90
       21
 70
   128
 43
0.0
 10
216.525213664
 20
111.4009067838
 10
217.2649091684
 20
111.3999233071
 10
217.9169988834
 20
111.3751934331
 10
218.500275036
 20
111.2655199554
 10
218.9145682953
 20
110.9787773762
 10
219.0234957837
 20
110.5436481025
 10
218.8896013998
 20
110.0574180905
 10
218.5604980789
 20
109.5361896746
 10
218.0063276194
 20
108.9989893094
 10
217.2072062843
 20
108.5729042257
 10
216.5210338883
 20
108.4619846383
 10
215.8346249364
 20
108.575733118
 10
215.2157219701
 20
108.8780172591
 10
214.6211023085
 20
109.3838248358
 10
214.1729703747
 20
110.0314958908
 10
214.0252309494
 20
110.5935679239
 10
214.1323796116
 20
110.9736995727
 10
214.4354859941
 20
111.2190637228
 10
214.9576543473
 20
111.356302486
 10
215.7290893249
 20
111.3993454215
 10
216.525213664
 20
111.4009067838
  0
ARC
  5
117
330
1F
100
AcDbEntity
  8
0
  6
SLD-Gestrichelt
 62
     7
370
     0
100
AcDbCircle
 10
216.7108421491
 20
121.9630889538
 30
0.0
 40
3.268387135533862
100
AcDbArc
 50
280.376900413
 51
296.2091445213
  0
LINE
  5
118
330
1F
100
AcDbEntity
  8
0
  6
SLD-Gestrichelt
 62
     7
370
     0
100
AcDbLine
 10
155.7752134852
 20
89.2110856671
 30
0.0
 11
155.7752134852
 21
86.3944551397
 31
0.0
  0
LINE
  5
119
330
1F
100
AcDbEntity
  8
0
  6
SLD-Gestrichelt
 62
     7
370
     0
100
AcDbLine
 10
164.7252141141
 20
89.2110856671
 30
0.0
 11
164.7252141141
 21
85.2559375067
 31
0.0
  0
LINE
  5
11A
330
1F
100
AcDbEntity
  8
0
  6
SLD-Gestrichelt
 62
     7
370
     0
100
AcDbLine
 10
155.7752134852
 20
125.1910867591
 30
0.0
 11
155.7752134852
 21
128.0710248698
 31
0.0
  0
LINE
  5
11B
330
1F
100
AcDbEntity
  8
0
  6
SLD-Gestrichelt
 62
     7
370
     0
100
AcDbLine
 10
160.7252134584
 20
125.1910867591
 30
0.0
 11
160.7252134584
 21
129.0451938708
 31
0.0
  0
LINE
  5
11C
330
1F
100
AcDbEntity
  8
0
  6
SLD-Gestrichelt
 62
     7
370
     0
100
AcDbLine
 10
205.8252150767
 20
97.7010865186
 30
0.0
 11
205.8252150767
 21
116.7010859076
 31
0.0
  0
LINE
  5
11D
330
1F
100
AcDbEntity
  8
0
  6
SLD-Gestrichelt
 62
     7
370
     0
100
AcDbLine
 10
208.3252145551
 20
97.7010865186
 30
0.0
 11
208.3252145551
 21
116.7010859076
 31
0.0
  0
LINE
  5
11E
330
1F
100
AcDbEntity
  8
0
  6
SLD-Gestrichelt
 62
     7
370
     0
100
AcDbLine
 10
196.975214278
 20
98.7010857512
 30
0.0
 11
196.975214278
 21
115.701086675
 31
0.0
  0
LINE
  5
11F
330
1F
100
AcDbEntity
  8
0
  6
SLD-Gestrichelt
 62
     7
370
     0
100
AcDbLine
 10
212.4752140247
 20
80.8010863562
 30
0.0
 11
206.3375393503
 21
80.8010863562
 31
0.0
  0
LINE
  5
120
330
1F
100
AcDbEntity
  8
0
  6
SLD-Gestrichelt
 62
     7
370
     0
100
AcDbLine
 10
202.7128896319
 20
80.8010863562
 30
0.0
 11
199.4752146878
 21
80.8010863562
 31
0.0
  0
LINE
  5
121
330
1F
100
AcDbEntity
  8
0
  6
SLD-Gestrichelt
 62
     7
370
     0
100
AcDbLine
 10
191.4752143078
 20
75.7169628937
 30
0.0
 11
191.4752143078
 21
80.8010863562
 31
0.0
  0
LINE
  5
122
330
1F
100
AcDbEntity
  8
0
  6
SLD-Gestrichelt
 62
     7
370
     0
100
AcDbLine
 10
199.4752146878
 20
80.8010863562
 30
0.0
 11
191.4752143078
 21
80.8010863562
 31
0.0
  0
LINE
  5
123
330
1F
100
AcDbEntity
  8
0
  6
SLD-Gestrichelt
 62
     7
370
     0
100
AcDbLine
 10
203.0095121466
 20
133.6010860701
 30
0.0
 11
199.4752146878
 21
133.6010860701
 31
0.0
  0
LINE
  5
124
330
1F
100
AcDbEntity
  8
0
  6
SLD-Gestrichelt
 62
     7
370
     0
100
AcDbLine
 10
212.4752140247
 20
133.6010860701
 30
0.0
 11
206.0409168355
 21
133.6010860701
 31
0.0
  0
LINE
  5
125
330
1F
100
AcDbEntity
  8
0
  6
SLD-Gestrichelt
 62
     7
370
     0
100
AcDbLine
 10
199.4752146878
 20
133.6010860701
 30
0.0
 11
191.4752143078
 21
133.6010860701
 31
0.0
  0
ELLIPSE
  5
126
330
1F
100
AcDbEntity
  8
0
  6
SLD-Gestrichelt
 62
     7
370
     0
100
AcDbEllipse
 10
150.4577824703
 20
107.2010862131
 30
0.0
 11
20.07002071827054
 21
-2.842170943040401E-14
 31
0.0
210
0.0
220
0.0
230
1.0
 40
0.8164965809
 41
4.921555463185703
 42
4.980534842098404
  0
ELLIPSE
  5
127
330
1F
100
AcDbEntity
  8
0
  6
SLD-Gestrichelt
 62
     7
370
     0
100
AcDbEllipse
 10
150.4577824703
 20
107.2010862131
 30
0.0
 11
20.07002071827048
 21
-1.421085471520200E-14
 31
0.0
210
0.0
220
0.0
230
1.0
 40
0.8164965809
 41
1.302650465081197
 42
1.361629843993899
  0
LINE
  5
128
330
1F
100
AcDbEntity
  8
0
  6
SLD-Gestrichelt
 62
     7
370
     0
100
AcDbLine
 10
155.7752134852
 20
89.2110856671
 30
0.0
 11
155.7752134852
 21
91.3995949973
 31
0.0
  0
LINE
  5
129
330
1F
100
AcDbEntity
  8
0
  6
SLD-Gestrichelt
 62
     7
370
     0
100
AcDbLine
 10
164.7252141141
 20
89.2110856671
 30
0.0
 11
164.7252141141
 21
90.9135731358
 31
0.0
  0
LINE
  5
12A
330
1F
100
AcDbEntity
  8
0
  6
SLD-Gestrichelt
 62
     7
370
     0
100
AcDbLine
 10
155.7752134852
 20
125.1910867591
 30
0.0
 11
155.7752134852
 21
123.0025774289
 31
0.0
  0
LINE
  5
12B
330
1F
100
AcDbEntity
  8
0
  6
SLD-Gestrichelt
 62
     7
370
     0
100
AcDbLine
 10
160.7252134584
 20
125.1910867591
 30
0.0
 11
160.7252134584
 21
123.4885992904
 31
0.0
  0
LWPOLYLINE
  5
12C
330
1F
100
AcDbEntity
  8
0
  6
SLD-Gestrichelt
 62
     7
370
     0
100
AcDbPolyline
 90
       14
 70
   128
 43
0.0
 10
181.2738276661
 20
83.6011523802
 10
181.045187974
 20
83.662200575
 10
180.708076676
 20
83.7398859162
 10
180.1893854156
 20
83.8488860477
 10
179.447608871
 20
83.9789918114
 10
178.7173998185
 20
84.0795709242
 10
177.5459794901
 20
84.192149197
 10
176.2243992292
 20
84.218231817
 10
175.5358566173
 20
84.1970684428
 10
174.8857301302
 20
84.1530988414
 10
174.3050840326
 20
84.096122389
 10
173.9691066198
 20
84.0553602625
 10
173.7752341308
 20
84.0224715371
 10
173.7762408905
 20
84.0226429005
  0
LINE
  5
12D
330
1F
100
AcDbEntity
  8
0
  6
SLD-Gestrichelt
 62
     7
370
     0
100
AcDbLine
 10
174.6852266245
 20
84.1334237207
 30
0.0
 11
174.8690715634
 21
84.1516143132
 31
0.0
  0
LWPOLYLINE
  5
12E
330
1F
100
AcDbEntity
  8
0
  6
SLD-Gestrichelt
 62
     7
370
     0
100
AcDbPolyline
 90
       21
 70
   128
 43
0.0
 10
173.7758832626
 20
130.3794997234
 10
173.7752266802
 20
130.3796412845
 10
173.8140041582
 20
130.3713320244
 10
173.9681939237
 20
130.3468196143
 10
174.3036218561
 20
130.306098466
 10
174.5596908607
 20
130.2796619434
 10
174.8837967046
 20
130.2491741676
 10
175.5344745346
 20
130.2051878024
 10
176.2238422983
 20
130.1840002139
 10
176.6816944458
 20
130.1825417627
 10
177.1255395018
 20
130.1912161012
 10
177.5472889297
 20
130.2100232292
 10
178.070600947
 20
130.2513869901
 10
178.715650329
 20
130.3222122092
 10
179.4440204852
 20
130.4224932988
 10
179.8186915569
 20
130.4836830546
 10
180.1844442837
 20
130.5522358466
 10
180.7057218269
 20
130.6616271336
 10
181.0443856396
 20
130.7396067728
 10
181.2239166923
 20
130.7861766268
 10
181.2744050861
 20
130.801103865
  0
LWPOLYLINE
  5
12F
330
1F
100
AcDbEntity
  8
0
  6
SLD-Gestrichelt
 62
     7
370
     0
100
AcDbPolyline
 90
       21
 70
   128
 43
0.0
 10
216.9195877962
 20
103.0010863629
 10
217.6818324827
 20
103.0120964583
 10
218.3066791497
 20
103.0827377413
 10
218.8031783901
 20
103.3015610606
 10
219.0184331142
 20
103.6983086683
 10
218.958489468
 20
104.1723015674
 10
218.6978011035
 20
104.68091941
 10
218.2273453675
 20
105.2193894007
 10
217.5073566489
 20
105.7087804379
 10
216.8092204832
 20
105.9210282706
 10
216.0736023091
 20
105.891679968
 10
215.4393846743
 20
105.6565156628
 10
214.8315774851
 20
105.2270977248
 10
214.3062873386
 20
104.6103933782
 10
214.0440399401
 20
103.992254562
 10
214.0695656292
 20
103.5488849461
 10
214.301813265
 20
103.259616853
 10
214.7384210132
 20
103.0839140017
 10
215.4212164335
 20
103.0099362556
 10
216.1264958434
 20
103.0010863629
 10
216.9195877962
 20
103.0010863629
  0
LINE
  5
130
330
1F
100
AcDbEntity
  8
0
  6
SLD-Gestrichelt
 62
     7
370
     0
100
AcDbLine
 10
219.6252158486
 20
103.0010863629
 30
0.0
 11
219.6252158486
 21
111.4010860633
 31
0.0
  0
LWPOLYLINE
  5
131
330
1F
100
AcDbEntity
  8
0
  6
SLD-Gestrichelt
 62
     7
370
     0
100
AcDbPolyline
 90
       27
 70
   128
 43
0.0
 10
216.525213664
 20
93.5422795315
 10
217.1235027366
 20
93.4995793227
 10
217.6870218121
 20
93.3739616026
 10
218.1830218636
 20
93.1727251459
 10
218.5826747321
 20
92.9075664331
 10
218.8627532326
 20
92.5938951273
 10
219.0069852971
 20
92.2499409367
 10
219.0069852971
 20
91.8956919063
 10
218.8627532326
 20
91.5517377157
 10
218.5826747321
 20
91.2380664099
 10
218.1830218636
 20
90.9729076971
 10
217.6870218121
 20
90.7716712404
 10
217.1235027366
 20
90.6460525889
 10
216.525213664
 20
90.6033533115
 10
215.9269245915
 20
90.6460525889
 10
215.363405516
 20
90.7716712404
 10
214.8674073272
 20
90.9729076971
 10
214.4677544587
 20
91.2380664099
 10
214.1876740955
 20
91.5517377157
 10
214.043442031
 20
91.8956919063
 10
214.043442031
 20
92.2499409367
 10
214.1876740955
 20
92.5938951273
 10
214.4677544587
 20
92.9075664331
 10
214.8674073272
 20
93.1727251459
 10
215.363405516
 20
93.3739616026
 10
215.9269245915
 20
93.4995793227
 10
216.525213664
 20
93.5422795315
  0
LINE
  5
132
330
1F
100
AcDbEntity
  8
0
  6
SLD-Gestrichelt
 62
     7
370
     0
100
AcDbLine
 10
243.7024525009
 20
150.5122835238
 30
0.0
 11
242.9020254515
 21
141.3633952339
 31
0.0
  0
LINE
  5
133
330
1F
100
AcDbEntity
  8
0
  6
SLD-Gestrichelt
 62
     7
370
     0
100
AcDbLine
 10
242.9020254515
 20
141.3633952339
 30
0.0
 11
242.8634575211
 21
141.345174839
 31
0.0
  0
LINE
  5
134
330
1F
100
AcDbEntity
  8
0
  6
SLD-Gestrichelt
 62
     7
370
     0
100
AcDbLine
 10
245.6693014704
 20
138.5393271644
 30
0.0
 11
245.6875255905
 21
138.5778988202
 31
0.0
  0
LINE
  5
135
330
1F
100
AcDbEntity
  8
0
  6
SLD-Gestrichelt
 62
     7
370
     0
100
AcDbLine
 10
245.6875255905
 20
138.5778988202
 30
0.0
 11
254.6352929078
 21
139.3607275982
 31
0.0
  0
LINE
  5
136
330
1F
100
AcDbEntity
  8
0
  6
SLD-Gestrichelt
 62
     7
370
     0
100
AcDbLine
 10
254.6352929078
 20
139.3607275982
 30
0.0
 11
254.6320370041
 21
139.3234672446
 31
0.0
  0
LINE
  5
137
330
1F
100
AcDbEntity
  8
0
  6
SLD-Gestrichelt
 62
     7
370
     0
100
AcDbLine
 10
243.6651884221
 20
150.5090238948
 30
0.0
 11
243.7024525009
 21
150.5122835238
 31
0.0
  0
ARC
  5
138
330
1F
100
AcDbEntity
  8
0
  6
SLD-Gestrichelt
 62
     7
370
     0
100
AcDbCircle
 10
243.7797512206
 20
139.4556230991
 30
0.0
 40
2.09999999999999
100
AcDbArc
 50
335.2938894515
 51
342.6073121946
  0
LINE
  5
139
330
1F
100
AcDbEntity
  8
0
  6
SLD-Gestrichelt
 62
     7
370
     0
100
AcDbLine
 10
245.7837349378
 20
138.8278918762
 30
0.0
 11
254.6565941177
 21
139.6041678686
 31
0.0
  0
LINE
  5
13A
330
1F
100
AcDbEntity
  8
0
  6
SLD-Gestrichelt
 62
     7
370
     0
100
AcDbLine
 10
254.6352929078
 20
139.3607275982
 30
0.0
 11
254.6565941177
 21
139.6041678686
 31
0.0
  0
ELLIPSE
  5
13B
330
1F
100
AcDbEntity
  8
0
  6
SLD-Gestrichelt
 62
     7
370
     0
100
AcDbEllipse
 10
240.3022843142
 20
112.0708414184
 30
0.0
 11
3.4643230800408
 21
38.43931649698046
 31
0.0
210
0.0
220
0.0
230
1.0
 40
0.1208634283
 41
6.245310671886541
 42
6.296924654085398
  0
LINE
  5
13C
330
1F
100
AcDbEntity
  8
0
  6
SLD-Gestrichelt
 62
     7
370
     0
100
AcDbLine
 10
243.9400440656
 20
150.4667343993
 30
0.0
 11
243.1520222329
 21
141.4596083064
 31
0.0
  0
ARC
  5
13D
330
1F
100
AcDbEntity
  8
0
  6
SLD-Gestrichelt
 62
     7
370
     0
100
AcDbCircle
 10
243.7797512206
 20
139.4556230991
 30
0.0
 40
2.10000000000002
100
AcDbArc
 50
107.3926878054
 51
114.7061105485
  0
LWPOLYLINE
  5
13E
330
1F
100
AcDbEntity
  8
0
  6
SLD-Gestrichelt
 62
     7
370
     0
100
AcDbPolyline
 90
       11
 70
   128
 43
0.0
 10
232.5810714267
 20
138.2369472135
 10
232.6335831188
 20
140.0418708522
 10
232.682183256
 20
141.7117173273
 10
232.7274492584
 20
143.2665938933
 10
232.7681629561
 20
144.6646953423
 10
232.8101022743
 20
146.1044641633
 10
232.8450864755
 20
147.3051736553
 10
232.8735365175
 20
148.2814306815
 10
232.894126197
 20
148.9877867002
 10
232.9064084791
 20
149.4091803629
 10
232.9110427402
 20
149.5681571264
  0
LINE
  5
13F
330
1F
100
AcDbEntity
  8
0
  6
SLD-Gestrichelt
 62
     7
370
     0
100
AcDbLine
 10
228.7931627236
 20
80.2027525802
 30
0.0
 11
228.7931627236
 21
107.2010862131
 31
0.0
  0
LWPOLYLINE
  5
140
330
1F
100
AcDbEntity
  8
0
  6
SLD-Gestrichelt
 62
     7
370
     0
100
AcDbPolyline
 90
        7
 70
   128
 43
0.0
 10
255.1696485482
 20
151.2162739832
 10
255.1042771541
 20
150.452280273
 10
254.9998498164
 20
149.231655379
 10
254.8568061195
 20
147.5594172676
 10
254.6783423625
 20
145.4733962614
 10
254.4657325946
 20
142.9881954987
 10
254.2212343417
 20
140.1302161117
  0
CIRCLE
  5
141
330
1F
100
AcDbEntity
  8
0
  6
SLD-Gestrichelt
 62
     7
370
     0
100
AcDbCircle
 10
249.3900718455
 20
145.065943724
 30
0.0
 40
2.600000000000023
  0
LINE
  5
142
330
1F
100
AcDbEntity
  8
0
  6
SLD-Gestrichelt
 62
     7
370
     0
100
AcDbLine
 10
255.6317112051
 20
150.7497931321
 30
0.0
 11
255.1696485482
 21
151.2162702579
 31
0.0
  0
LINE
  5
143
330
1F
100
AcDbEntity
  8
0
  6
SLD-Gestrichelt
 62
     7
370
     0
100
AcDbLine
 10
243.9195065402
 20
150.2320113082
 30
0.0
 11
255.1696485482
 21
151.2162739832
 31
0.0
  0
ARC
  5
144
330
1F
100
AcDbEntity
  8
0
  6
SLD-Gestrichelt
 62
     7
370
     0
100
AcDbCircle
 10
243.7797512206
 20
139.4556230991
 30
0.0
 40
2.100000000000025
100
AcDbArc
 50
342.6073121946
 51
107.3926878054
  0
LINE
  5
145
330
1F
100
AcDbEntity
  8
0
  6
SLD-Gestrichelt
 62
     7
370
     0
100
AcDbLine
 10
255.6317112051
 20
150.7497931321
 30
0.0
 11
254.6565941177
 21
139.6041678686
 31
0.0
  0
CIRCLE
  5
146
330
1F
100
AcDbEntity
  8
0
  6
SLD-Gestrichelt
 62
     7
370
     0
100
AcDbCircle
 10
249.3900718455
 20
145.065943724
 30
0.0
 40
2.100000000000023
  0
LINE
  5
147
330
1F
100
AcDbEntity
  8
0
  6
SLD-Gestrichelt
 62
     7
370
     0
100
AcDbLine
 10
202.6152143829
 20
127.3369526912
 30
0.0
 11
202.6152143829
 21
127.0510869522
 31
0.0
  0
LINE
  5
148
330
1F
100
AcDbEntity
  8
0
  6
SLD-Gestrichelt
 62
     7
370
     0
100
AcDbLine
 10
206.4352145992
 20
127.3369526912
 30
0.0
 11
206.4352145992
 21
127.0510869522
 31
0.0
  0
LINE
  5
149
330
1F
100
AcDbEntity
  8
0
  6
SLD-Gestrichelt
 62
     7
370
     0
100
AcDbLine
 10
207.9171462558
 20
131.6597758282
 30
0.0
 11
207.9171462558
 21
127.0510869522
 31
0.0
  0
LWPOLYLINE
  5
14A
330
1F
100
AcDbEntity
  8
0
  6
SLD-Gestrichelt
 62
     7
370
     0
100
AcDbPolyline
 90
       29
 70
   128
 43
0.0
 10
216.525213664
 20
93.5931194995
 10
217.1927763723
 20
93.5489077542
 10
217.8268654846
 20
93.4184918601
 10
218.3956837855
 20
93.208410633
 10
218.8707104527
 20
92.9291973312
 10
219.2281222545
 20
92.5948543895
 10
219.4499968194
 20
92.2221465458
 10
219.5252141558
 20
91.8297635813
 10
219.4499968194
 20
91.4373806168
 10
219.2281222545
 20
91.064672773
 10
218.8707104527
 20
90.7303298314
 10
218.3956837855
 20
90.4511155982
 10
217.8268654846
 20
90.2410353024
 10
217.1927763723
 20
90.110618477
 10
216.525213664
 20
90.0664067317
 10
215.8576509558
 20
90.110618477
 10
215.2235637061
 20
90.2410353024
 10
214.6547454052
 20
90.4511155982
 10
214.1797206007
 20
90.7303298314
 10
213.8223069363
 20
91.064672773
 10
213.6004305087
 20
91.4373806168
 10
213.5252150349
 20
91.8297635813
 10
213.6004305087
 20
92.2221465458
 10
213.8223069363
 20
92.5948543895
 10
214.1797206007
 20
92.9291973312
 10
214.6547454052
 20
93.208410633
 10
215.2235637061
 20
93.4184918601
 10
215.8576509558
 20
93.5489077542
 10
216.525213664
 20
93.5931194995
  0
CIRCLE
  5
14B
330
1F
100
AcDbEntity
  8
0
  6
SLD-Gestrichelt
 62
     7
370
     0
100
AcDbCircle
 10
193.5252143346
 20
107.2010862131
 30
0.0
 40
4.999999999999986
  0
LINE
  5
14C
330
1F
100
AcDbEntity
  8
0
  6
SLD-Gestrichelt
 62
     7
370
     0
100
AcDbLine
 10
254.2212268911
 20
140.1302123864
 30
0.0
 11
254.6457013689
 21
139.4796686668
 31
0.0
  0
LINE
  5
14D
330
1F
100
AcDbEntity
  8
0
  6
SLD-Gestrichelt
 62
     7
370
     0
100
AcDbLine
 10
254.2212268911
 20
140.1302161117
 30
0.0
 11
232.5810714267
 21
138.2369472135
 31
0.0
  0
ARC
  5
14E
330
1F
100
AcDbEntity
  8
0
  6
SLD-Gestrichelt
 62
     7
370
     0
100
AcDbCircle
 10
382.4451865071
 20
104.1970330004
 30
0.0
 40
153.6813871243512
100
AcDbArc
 50
167.2030456479
 51
178.8799519795
  0
CIRCLE
  5
14F
330
1F
100
AcDbEntity
  8
0
  6
SLD-Gestrichelt
 62
     7
370
     0
100
AcDbCircle
 10
249.5798402722
 20
145.2557121507
 30
0.0
 40
2.749999999999988
  0
LINE
  5
150
330
1F
100
AcDbEntity
  8
0
  6
SLD-Gestrichelt
 62
     7
370
     0
100
AcDbLine
 10
244.2578821086
 20
150.5776698191
 30
0.0
 11
243.2373760842
 21
138.9132494528
 31
0.0
  0
LINE
  5
151
330
1F
100
AcDbEntity
  8
0
  6
SLD-Gestrichelt
 62
     7
370
     0
100
AcDbLine
 10
243.2373760842
 20
138.9132494528
 30
0.0
 11
254.9018001758
 21
139.9337554772
 31
0.0
  0
LINE
  5
152
330
1F
100
AcDbEntity
  8
0
  6
SLD-Gestrichelt
 62
     7
370
     0
100
AcDbLine
 10
255.9223062001
 20
151.5981758435
 30
0.0
 11
244.2578821086
 21
150.5776698191
 31
0.0
  0
LINE
  5
153
330
1F
100
AcDbEntity
  8
0
  6
SLD-Gestrichelt
 62
     7
370
     0
100
AcDbLine
 10
254.9018001758
 20
139.9337554772
 30
0.0
 11
255.9223062001
 21
151.5981758435
 31
0.0
  0
CIRCLE
  5
154
330
1F
100
AcDbEntity
  8
0
  6
SLD-Gestrichelt
 62
     7
370
     0
100
AcDbCircle
 10
249.3900718455
 20
145.065943724
 30
0.0
 40
2.499999999999992
  0
CIRCLE
  5
155
330
1F
100
AcDbEntity
  8
0
  6
SLD-Gestrichelt
 62
     7
370
     0
100
AcDbCircle
 10
249.3900718455
 20
145.065943724
 30
0.0
 40
1.599999999999977
  0
LINE
  5
156
330
1F
100
AcDbEntity
  8
0
  6
SLD-Gestrichelt
 62
     7
370
     0
100
AcDbLine
 10
213.5252150349
 20
91.8297635813
 30
0.0
 11
213.5252150349
 21
89.6049661983
 31
0.0
  0
LINE
  5
157
330
1F
100
AcDbEntity
  8
0
  6
SLD-Gestrichelt
 62
     7
370
     0
100
AcDbLine
 10
219.5252141558
 20
89.6049661983
 30
0.0
 11
219.5252141558
 21
91.8297635813
 31
0.0
  0
LINE
  5
158
330
1F
100
AcDbEntity
  8
0
  6
SLD-Gestrichelt
 62
     7
370
     0
100
AcDbLine
 10
214.0252141856
 20
90.7429492522
 30
0.0
 11
214.0252141856
 21
86.8138576348
 31
0.0
  0
LINE
  5
159
330
1F
100
AcDbEntity
  8
0
  6
SLD-Gestrichelt
 62
     7
370
     0
100
AcDbLine
 10
219.0252131425
 20
86.8138576348
 30
0.0
 11
219.0252131425
 21
90.7429492522
 31
0.0
  0
LINE
  5
15A
330
1F
100
AcDbEntity
  8
0
  6
SLD-Gestrichelt
 62
     7
370
     0
100
AcDbLine
 10
214.7595042937
 20
88.1793888707
 30
0.0
 11
214.8772178792
 21
88.1290154953
 31
0.0
  0
LINE
  5
15B
330
1F
100
AcDbEntity
  8
0
  6
SLD-Gestrichelt
 62
     7
370
     0
100
AcDbLine
 10
218.1732094489
 20
88.1290154953
 30
0.0
 11
218.2909248971
 21
88.1793888707
 31
0.0
  0
LINE
  5
15C
330
1F
100
AcDbEntity
  8
0
  6
SLD-Gestrichelt
 62
     7
370
     0
100
AcDbLine
 10
219.4009980761
 20
89.5489005793
 30
0.0
 11
219.2092797361
 21
89.9282338519
 31
0.0
  0
LINE
  5
15D
330
1F
100
AcDbEntity
  8
0
  6
SLD-Gestrichelt
 62
     7
370
     0
100
AcDbLine
 10
213.8411475919
 20
89.9282338519
 30
0.0
 11
213.649429252
 21
89.5489005793
 31
0.0
  0
LINE
  5
15E
330
1F
100
AcDbEntity
  8
0
  6
SLD-Gestrichelt
 62
     7
370
     0
100
AcDbLine
 10
214.7595042937
 20
87.621167158
 30
0.0
 11
214.8772178792
 21
87.5707937826
 31
0.0
  0
LINE
  5
15F
330
1F
100
AcDbEntity
  8
0
  6
SLD-Gestrichelt
 62
     7
370
     0
100
AcDbLine
 10
218.1732094489
 20
87.5707937826
 30
0.0
 11
218.2909248971
 21
87.621167158
 31
0.0
  0
LINE
  5
160
330
1F
100
AcDbEntity
  8
0
  6
SLD-Gestrichelt
 62
     7
370
     0
100
AcDbLine
 10
219.4009980761
 20
88.9906788666
 30
0.0
 11
219.2092797361
 21
89.3700121392
 31
0.0
  0
LINE
  5
161
330
1F
100
AcDbEntity
  8
0
  6
SLD-Gestrichelt
 62
     7
370
     0
100
AcDbLine
 10
213.8411475919
 20
89.3700121392
 30
0.0
 11
213.649429252
 21
88.9906788666
 31
0.0
  0
LINE
  5
162
330
1F
100
AcDbEntity
  8
0
  6
SLD-Gestrichelt
 62
     7
370
     0
100
AcDbLine
 10
214.7595042937
 20
87.0629454453
 30
0.0
 11
214.8772178792
 21
87.0125720699
 31
0.0
  0
LINE
  5
163
330
1F
100
AcDbEntity
  8
0
  6
SLD-Gestrichelt
 62
     7
370
     0
100
AcDbLine
 10
218.1732094489
 20
87.0125720699
 30
0.0
 11
218.2909248971
 21
87.0629454453
 31
0.0
  0
LINE
  5
164
330
1F
100
AcDbEntity
  8
0
  6
SLD-Gestrichelt
 62
     7
370
     0
100
AcDbLine
 10
219.4009980761
 20
88.4324571539
 30
0.0
 11
219.2092797361
 21
88.8117904265
 31
0.0
  0
LINE
  5
165
330
1F
100
AcDbEntity
  8
0
  6
SLD-Gestrichelt
 62
     7
370
     0
100
AcDbLine
 10
213.8411475919
 20
88.8117904265
 30
0.0
 11
213.649429252
 21
88.4324571539
 31
0.0
  0
LINE
  5
166
330
1F
100
AcDbEntity
  8
0
  6
SLD-Gestrichelt
 62
     7
370
     0
100
AcDbLine
 10
214.7595042937
 20
86.5047237326
 30
0.0
 11
214.8772178792
 21
86.4543503572
 31
0.0
  0
LINE
  5
167
330
1F
100
AcDbEntity
  8
0
  6
SLD-Gestrichelt
 62
     7
370
     0
100
AcDbLine
 10
218.1732094489
 20
86.4543503572
 30
0.0
 11
218.2909248971
 21
86.5047237326
 31
0.0
  0
LINE
  5
168
330
1F
100
AcDbEntity
  8
0
  6
SLD-Gestrichelt
 62
     7
370
     0
100
AcDbLine
 10
219.4009980761
 20
87.8742354412
 30
0.0
 11
219.2092797361
 21
88.2535687138
 31
0.0
  0
LINE
  5
169
330
1F
100
AcDbEntity
  8
0
  6
SLD-Gestrichelt
 62
     7
370
     0
100
AcDbLine
 10
213.8411475919
 20
88.2535687138
 30
0.0
 11
213.649429252
 21
87.8742354412
 31
0.0
  0
LINE
  5
16A
330
1F
100
AcDbEntity
  8
0
  6
SLD-Gestrichelt
 62
     7
370
     0
100
AcDbLine
 10
213.5252150349
 20
87.3720793475
 30
0.0
 11
213.5252150349
 21
86.9271194984
 31
0.0
  0
LINE
  5
16B
330
1F
100
AcDbEntity
  8
0
  6
SLD-Gestrichelt
 62
     7
370
     0
100
AcDbLine
 10
219.5252141558
 20
86.9271194984
 30
0.0
 11
219.5252141558
 21
87.3720793475
 31
0.0
  0
LINE
  5
16C
330
1F
100
AcDbEntity
  8
0
  6
SLD-Gestrichelt
 62
     7
370
     0
100
AcDbLine
 10
214.4638503544
 20
85.6459679503
 30
0.0
 11
214.5600466632
 21
85.5924914081
 31
0.0
  0
LINE
  5
16D
330
1F
100
AcDbEntity
  8
0
  6
SLD-Gestrichelt
 62
     7
370
     0
100
AcDbLine
 10
218.4903806649
 20
85.5924914081
 30
0.0
 11
218.5865788363
 21
85.6459679503
 31
0.0
  0
CIRCLE
  5
16E
330
1F
100
AcDbEntity
  8
0
  6
SLD-Gestrichelt
 62
     7
370
     0
100
AcDbCircle
 10
216.5252143346
 20
89.5645157357
 30
0.0
 40
2.499999999999994
  0
LINE
  5
16F
330
1F
100
AcDbEntity
  8
0
  6
SLD-Gestrichelt
 62
     7
370
     0
100
AcDbLine
 10
186.5252143346
 20
81.8771625359
 30
0.0
 11
186.6193751724
 21
82.5471522708
 31
0.0
  0
LINE
  5
170
330
1F
100
AcDbEntity
  8
0
  6
SLD-Gestrichelt
 62
     7
370
     0
100
AcDbLine
 10
186.6193751724
 20
131.8550201554
 30
0.0
 11
186.5252143346
 21
132.5250098903
 31
0.0
  0
ARC
  5
171
330
1F
100
AcDbEntity
  8
0
  6
SLD-Gestrichelt
 62
     7
370
     0
100
AcDbCircle
 10
186.0252143346
 20
82.6306553514
 30
0.0
 40
0.5999999999999943
100
AcDbArc
 50
352.0
 51
0.0
  0
ARC
  5
172
330
1F
100
AcDbEntity
  8
0
  6
SLD-Gestrichelt
 62
     7
370
     0
100
AcDbCircle
 10
186.0252143346
 20
82.6306553514
 30
0.0
 40
0.6000000000000019
100
AcDbArc
 50
0.0
 51
33.5573097619
  0
ARC
  5
173
330
1F
100
AcDbEntity
  8
0
  6
SLD-Gestrichelt
 62
     7
370
     0
100
AcDbCircle
 10
186.0252143346
 20
131.7715170748
 30
0.0
 40
0.599999999999998
100
AcDbArc
 50
348.75
 51
8.0
  0
LWPOLYLINE
  5
174
330
1F
100
AcDbEntity
  8
0
  6
SLD-Gestrichelt
 62
     7
370
     0
100
AcDbPolyline
 90
        3
 70
   128
 43
0.0
 10
186.6136855045
 20
131.6544635643
 10
186.5795420547
 20
131.5419076432
 10
186.5252143346
 20
131.4398551781
  0
LINE
  5
175
330
1F
100
AcDbEntity
  8
0
  6
SLD-Gestrichelt
 62
     7
370
     0
100
AcDbLine
 10
186.6252143321
 20
82.6306546528
 30
0.0
 11
186.6252143321
 21
131.7715177734
 31
0.0
  0
ARC
  5
176
330
1F
100
AcDbEntity
  8
0
  6
SLD-Gestrichelt
 62
     7
370
     0
100
AcDbCircle
 10
180.2802163362
 20
95.2010862131
 30
0.0
 40
7.999999999999992
100
AcDbArc
 50
276.8738699665
 51
321.3178125465
  0
ARC
  5
177
330
1F
100
AcDbEntity
  8
0
  6
SLD-Gestrichelt
 62
     7
370
     0
100
AcDbCircle
 10
180.2802163362
 20
119.2010862131
 30
0.0
 40
8.00000000000001
100
AcDbArc
 50
38.6821874535
 51
83.118934394
  0
LINE
  5
178
330
1F
100
AcDbEntity
  8
0
  6
SLD-Gestrichelt
 62
     7
370
     0
100
AcDbLine
 10
169.6076503597
 20
87.2010866601
 30
0.0
 11
173.7993218579
 21
87.2010866601
 31
0.0
  0
LINE
  5
179
330
1F
100
AcDbEntity
  8
0
  6
SLD-Gestrichelt
 62
     7
370
     0
100
AcDbLine
 10
173.7993218579
 20
127.2010857661
 30
0.0
 11
169.6076503597
 21
127.2010857661
 31
0.0
  0
ARC
  5
17A
330
1F
100
AcDbEntity
  8
0
  6
SLD-Gestrichelt
 62
     7
370
     0
100
AcDbCircle
 10
169.6076498999
 20
87.8010862131
 30
0.0
 40
0.6000000000000155
100
AcDbArc
 50
210.0
 51
270.0
  0
ARC
  5
17B
330
1F
100
AcDbEntity
  8
0
  6
SLD-Gestrichelt
 62
     7
370
     0
100
AcDbCircle
 10
169.6076498999
 20
126.6010862131
 30
0.0
 40
0.6000000000000085
100
AcDbArc
 50
90.0
 51
150.0
  0
LINE
  5
17C
330
1F
100
AcDbEntity
  8
0
  6
SLD-Gestrichelt
 62
     7
370
     0
100
AcDbLine
 10
169.0880338304
 20
126.9010862757
 30
0.0
 11
167.5291898303
 21
124.201087137
 31
0.0
  0
LINE
  5
17D
330
1F
100
AcDbEntity
  8
0
  6
SLD-Gestrichelt
 62
     7
370
     0
100
AcDbLine
 10
167.5291898303
 20
90.2010852892
 30
0.0
 11
169.0880338304
 21
87.5010861505
 31
0.0
  0
ARC
  5
17E
330
1F
100
AcDbEntity
  8
0
  6
SLD-Gestrichelt
 62
     7
370
     0
100
AcDbCircle
 10
194.9752143346
 20
91.4760862131
 30
0.0
 40
1.500000000000016
100
AcDbArc
 50
238.2116693829
 51
0.0
  0
ARC
  5
17F
330
1F
100
AcDbEntity
  8
0
  6
SLD-Gestrichelt
 62
     7
370
     0
100
AcDbCircle
 10
194.9752143346
 20
122.9260862131
 30
0.0
 40
1.500000000000004
100
AcDbArc
 50
0.0
 51
121.7883306171
  0
LINE
  5
180
330
1F
100
AcDbEntity
  8
0
  6
SLD-Gestrichelt
 62
     7
370
     0
100
AcDbLine
 10
164.7252141141
 20
90.2010852892
 30
0.0
 11
167.5291898303
 21
90.2010852892
 31
0.0
  0
LINE
  5
181
330
1F
100
AcDbEntity
  8
0
  6
SLD-Gestrichelt
 62
     7
370
     0
100
AcDbLine
 10
167.5291898303
 20
124.201087137
 30
0.0
 11
160.7252134584
 21
124.201087137
 31
0.0
  0
LINE
  5
182
330
1F
100
AcDbEntity
  8
0
  6
SLD-Gestrichelt
 62
     7
370
     0
100
AcDbLine
 10
186.5252143346
 20
90.2010852892
 30
0.0
 11
194.1850402966
 21
90.2010852892
 31
0.0
  0
LINE
  5
183
330
1F
100
AcDbEntity
  8
0
  6
SLD-Gestrichelt
 62
     7
370
     0
100
AcDbLine
 10
194.1850402966
 20
124.201087137
 30
0.0
 11
186.5252143346
 21
124.201087137
 31
0.0
  0
LINE
  5
184
330
1F
100
AcDbEntity
  8
0
  6
SLD-Gestrichelt
 62
     7
370
     0
100
AcDbLine
 10
211.9737024062
 20
119.3089642052
 30
0.0
 11
212.4252727829
 21
116.5654099036
 31
0.0
  0
LINE
  5
185
330
1F
100
AcDbEntity
  8
0
  6
SLD-Gestrichelt
 62
     7
370
     0
100
AcDbLine
 10
212.4252727829
 20
116.5654099036
 30
0.0
 11
215.0203062795
 21
115.5670088206
 31
0.0
  0
LINE
  5
186
330
1F
100
AcDbEntity
  8
0
  6
SLD-Gestrichelt
 62
     7
370
     0
100
AcDbLine
 10
221.326634159
 20
127.0364912648
 30
0.0
 11
211.9975517146
 21
119.4409875621
 31
0.0
  0
LINE
  5
187
330
1F
100
AcDbEntity
  8
0
  6
SLD-Gestrichelt
 62
     7
370
     0
100
AcDbLine
 10
218.953754624
 20
118.656917331
 30
0.0
 11
221.1450448834
 21
120.441011009
 31
0.0
  0
LINE
  5
188
330
1F
100
AcDbEntity
  8
0
  6
SLD-Gestrichelt
 62
     7
370
     0
100
AcDbLine
 10
215.1544241809
 20
115.563597386
 30
0.0
 11
216.0463108324
 21
116.2897486661
 31
0.0
  0
LINE
  5
189
330
1F
100
AcDbEntity
  8
0
  6
SLD-Gestrichelt
 62
     7
370
     0
100
AcDbLine
 10
219.0252131425
 20
110.592458253
 30
0.0
 11
219.0252131425
 21
118.8014464874
 31
0.0
  0
LINE
  5
18A
330
1F
100
AcDbEntity
  8
0
  6
SLD-Gestrichelt
 62
     7
370
     0
100
AcDbLine
 10
214.0252141856
 20
117.2514286314
 30
0.0
 11
214.0252141856
 21
110.5983276807
 31
0.0
  0
LINE
  5
18B
330
1F
100
AcDbEntity
  8
0
  6
SLD-Gestrichelt
 62
     7
370
     0
100
AcDbLine
 10
205.8252150767
 20
97.7010865186
 30
0.0
 11
208.3252145551
 21
97.7010865186
 31
0.0
  0
LINE
  5
18C
330
1F
100
AcDbEntity
  8
0
  6
SLD-Gestrichelt
 62
     7
370
     0
100
AcDbLine
 10
208.3252145551
 20
116.7010859076
 30
0.0
 11
205.8252150767
 21
116.7010859076
 31
0.0
  0
LINE
  5
18D
330
1F
100
AcDbEntity
  8
0
  6
SLD-Gestrichelt
 62
     7
370
     0
100
AcDbLine
 10
196.475214196
 20
98.2010866005
 30
0.0
 11
196.975214278
 21
98.7010857512
 31
0.0
  0
LINE
  5
18E
330
1F
100
AcDbEntity
  8
0
  6
SLD-Gestrichelt
 62
     7
370
     0
100
AcDbLine
 10
196.975214278
 20
115.701086675
 30
0.0
 11
196.475214196
 21
116.2010858257
 31
0.0
  0
LINE
  5
18F
330
1F
100
AcDbEntity
  8
0
  6
SLD-Gestrichelt
 62
     7
370
     0
100
AcDbLine
 10
196.975214278
 20
98.7010857512
 30
0.0
 11
205.8252150767
 21
98.7010857512
 31
0.0
  0
LINE
  5
190
330
1F
100
AcDbEntity
  8
0
  6
SLD-Gestrichelt
 62
     7
370
     0
100
AcDbLine
 10
205.8252150767
 20
115.701086675
 30
0.0
 11
196.975214278
 21
115.701086675
 31
0.0
  0
LINE
  5
191
330
1F
100
AcDbEntity
  8
0
  6
SLD-Gestrichelt
 62
     7
370
     0
100
AcDbLine
 10
191.4752143078
 20
138.7010867197
 30
0.0
 11
191.4752143078
 21
133.6010860701
 31
0.0
  0
LINE
  5
192
330
1F
100
AcDbEntity
  8
0
  6
SLD-Gestrichelt
 62
     7
370
     0
100
AcDbLine
 10
181.709652172
 20
83.1217149694
 30
0.0
 11
181.2752199933
 21
83.6007817138
 31
0.0
  0
LINE
  5
193
330
1F
100
AcDbEntity
  8
0
  6
SLD-Gestrichelt
 62
     7
370
     0
100
AcDbLine
 10
173.7752164357
 20
84.0224696745
 30
0.0
 11
173.2927829601
 21
83.54340293
 31
0.0
  0
LINE
  5
194
330
1F
100
AcDbEntity
  8
0
  6
SLD-Gestrichelt
 62
     7
370
     0
100
AcDbLine
 10
173.2926609568
 20
130.8587639083
 30
0.0
 11
173.775211779
 21
130.3796431471
 31
0.0
  0
LINE
  5
195
330
1F
100
AcDbEntity
  8
0
  6
SLD-Gestrichelt
 62
     7
370
     0
100
AcDbLine
 10
181.2752144054
 20
130.8013422836
 30
0.0
 11
181.7097564802
 21
131.2804611821
 31
0.0
  0
LINE
  5
196
330
1F
100
AcDbEntity
  8
0
  6
SLD-Gestrichelt
 62
     7
370
     0
100
AcDbLine
 10
216.9195877962
 20
103.0010863629
 30
0.0
 11
219.6252158486
 21
103.0010863629
 31
0.0
  0
LINE
  5
197
330
1F
100
AcDbEntity
  8
0
  6
SLD-Gestrichelt
 62
     7
370
     0
100
AcDbLine
 10
208.3252145551
 20
103.0010863629
 30
0.0
 11
216.9195877962
 21
103.0010863629
 31
0.0
  0
LINE
  5
198
330
1F
100
AcDbEntity
  8
0
  6
SLD-Gestrichelt
 62
     7
370
     0
100
AcDbLine
 10
216.3317593388
 20
111.4010860633
 30
0.0
 11
208.3252145551
 21
111.4010860633
 31
0.0
  0
LINE
  5
199
330
1F
100
AcDbEntity
  8
0
  6
SLD-Gestrichelt
 62
     7
370
     0
100
AcDbLine
 10
219.6252158486
 20
111.4010860633
 30
0.0
 11
216.3317593388
 21
111.4010860633
 31
0.0
  0
LINE
  5
19A
330
1F
100
AcDbEntity
  8
0
  6
SLD-Gestrichelt
 62
     7
370
     0
100
AcDbLine
 10
219.6252158486
 20
103.0010863629
 30
0.0
 11
222.1488280796
 21
107.2010862131
 31
0.0
  0
LINE
  5
19B
330
1F
100
AcDbEntity
  8
0
  6
SLD-Gestrichelt
 62
     7
370
     0
100
AcDbLine
 10
222.1488280796
 20
107.2010862131
 30
0.0
 11
219.6252158486
 21
111.4010860633
 31
0.0
  0
LINE
  5
19C
330
1F
100
AcDbEntity
  8
0
  6
SLD-Gestrichelt
 62
     7
370
     0
100
AcDbLine
 10
181.2752144054
 20
83.6012641389
 30
0.0
 11
181.2752144054
 21
87.2656850566
 31
0.0
  0
LINE
  5
19D
330
1F
100
AcDbEntity
  8
0
  6
SLD-Gestrichelt
 62
     7
370
     0
100
AcDbLine
 10
173.775214573
 20
87.2054638762
 30
0.0
 11
173.775214573
 21
84.0227919121
 31
0.0
  0
LINE
  5
19E
330
1F
100
AcDbEntity
  8
0
  6
SLD-Gestrichelt
 62
     7
370
     0
100
AcDbLine
 10
181.2752144054
 20
127.1364873696
 30
0.0
 11
181.2752144054
 21
130.8010498483
 31
0.0
  0
LINE
  5
19F
330
1F
100
AcDbEntity
  8
0
  6
SLD-Gestrichelt
 62
     7
370
     0
100
AcDbLine
 10
173.775214573
 20
130.3794997234
 30
0.0
 11
173.775214573
 21
127.19670855
 31
0.0
  0
LINE
  5
1A0
330
1F
100
AcDbEntity
  8
0
  6
SLD-Gestrichelt
 62
     7
370
     0
100
AcDbLine
 10
219.0252131425
 20
92.0728164215
 30
0.0
 11
219.0252131425
 21
103.8133579728
 31
0.0
  0
LINE
  5
1A1
330
1F
100
AcDbEntity
  8
0
  6
SLD-Gestrichelt
 62
     7
370
     0
100
AcDbLine
 10
214.0252141856
 20
103.8170604457
 30
0.0
 11
214.0252141856
 21
92.0728164215
 31
0.0
  0
LINE
  5
1A2
330
1F
100
AcDbEntity
  8
0
  6
SLD-Gestrichelt
 62
     7
370
     0
100
AcDbLine
 10
219.5252141558
 20
86.1701367844
 30
0.0
 11
219.5252141558
 21
91.8297635813
 31
0.0
  0
LINE
  5
1A3
330
1F
100
AcDbEntity
  8
0
  6
SLD-Gestrichelt
 62
     7
370
     0
100
AcDbLine
 10
213.5252150349
 20
91.8297635813
 30
0.0
 11
213.5252150349
 21
86.1666573633
 31
0.0
  0
CIRCLE
  5
1A4
330
1F
100
AcDbEntity
  8
0
  6
SLD-Gestrichelt
 62
     7
370
     0
100
AcDbCircle
 10
249.3900718455
 20
145.065943724
 30
0.0
 40
2.279131018014161
  0
LINE
  5
1A5
330
1F
100
AcDbEntity
  8
VERMASSUNG
100
AcDbLine
 10
256.5252143346
 20
152.2010862131
 30
0.0
 11
256.5252143346
 21
116.9473405932
 31
0.0
  0
DIMENSION
  5
1A6
330
1F
100
AcDbEntity
  8
VERMASSUNG
100
AcDbDimension
  2
_D
 10
150.0358145064
 20
75.7010862131
 30
0.0
 11
150.0358145064
 21
107.2010862131
 31
0.0
 70
   160
  1
HSK %%c<>
 71
     2
 42
-1.0
  3
SLDDIMSTYLE0
100
AcDbAlignedDimension
 13
186.8252143346
 23
138.7010862131
 33
0.0
 14
186.8252143346
 24
75.7010862131
 34
0.0
 50
90.0
100
AcDbRotatedDimension
  0
DIMENSION
  5
1B3
330
1F
100
AcDbEntity
  8
VERMASSUNG
100
AcDbDimension
  2
_D_1
 10
256.5252143346
 20
157.7183594702
 30
0.0
 11
221.5252143346
 21
157.7183594702
 31
0.0
 70
   160
  1
<>
 71
     2
 42
-1.0
  3
SLDDIMSTYLE0
100
AcDbAlignedDimension
 13
186.5252143346
 23
138.4010862131
 33
0.0
 14
256.5252143346
 24
152.2010862131
 34
0.0
100
AcDbRotatedDimension
  0
DIMENSION
  5
1BD
330
1F
100
AcDbEntity
  8
VERMASSUNG
100
AcDbDimension
  2
_D_2
 10
256.5252143346
 20
163.7183594702
 30
0.0
 11
205.5752143346
 21
163.7183594702
 31
0.0
 70
   160
  1
<>
 71
     2
 42
-1.0
  3
SLDDIMSTYLE0
100
AcDbAlignedDimension
 13
154.6252143346
 23
126.8917639596
 33
0.0
 14
256.5252143346
 24
152.2010862131
 34
0.0
100
AcDbRotatedDimension
  0
DIMENSION
  5
1C7
330
1F
100
AcDbEntity
  8
VERMASSUNG
100
AcDbDimension
  2
_D_3
 10
266.5585545109
 20
152.2010862131
 30
0.0
 11
266.5585545109
 21
129.7010862131
 31
0.0
 70
   160
  1
<>
 71
     2
 42
-1.0
  3
SLDDIMSTYLE0
100
AcDbAlignedDimension
 13
251.4513677756
 23
107.2010862131
 33
0.0
 14
256.5252143346
 24
152.2010862131
 34
0.0
 50
90.0
100
AcDbRotatedDimension
  0
DIMENSION
  5
1D1
330
1F
100
AcDbEntity
  8
VERMASSUNG
100
AcDbDimension
  2
_D_4
 10
255.6317100407
 20
150.749791621
 30
0.0
 11
247.3410605577
 21
120.3735874585
 31
0.0
 70
   162
  1
<>
 71
     1
 42
-1.0
  3
SLDDIMSTYLE1
100
AcDb2LineAngularDimension
 13
256.5252143346
 23
107.2010862131
 33
0.0
 14
256.5252143346
 24
152.2010862131
 34
0.0
 15
252.1498969026
 25
110.9524853438
 35
0.0
 16
254.7099894518
 26
119.3871073
 36
0.0
  0
LINE
  5
1DC
330
1F
100
AcDbEntity
  8
VERMASSUNG
  6
SLD-Punktstrich
370
     0
100
AcDbLine
 10
152.5431246369
 20
107.2010862131
 30
0.0
 11
251.4513677756
 21
107.2010862131
 31
0.0
  0
LINE
  5
1DD
330
1F
100
AcDbEntity
  8
0
  6
SLD-Durchgehend
 62
     7
370
    15
100
AcDbLine
 10
84.8639410531
 20
151.8010849554
 30
0.0
 11
81.6062023939
 21
152.2010880012
 31
0.0
  0
LINE
  5
1DE
330
1F
100
AcDbEntity
  8
0
  6
SLD-Durchgehend
 62
     7
370
    15
100
AcDbLine
 10
81.6062023939
 20
138.310337295
 30
0.0
 11
81.9062024082
 21
138.3471729655
 31
0.0
  0
ARC
  5
1DF
330
1F
100
AcDbEntity
  8
0
  6
SLD-Durchgehend
 62
     7
370
    15
100
AcDbCircle
 10
81.536736297
 20
113.6407131771
 30
0.0
 40
37.42201962275077
100
AcDbArc
 50
43.6676924086
 51
82.5850634364
  0
ARC
  5
1E0
330
1F
100
AcDbEntity
  8
0
  6
SLD-Durchgehend
 62
     7
370
    15
100
AcDbCircle
 10
81.5396139073
 20
113.6824191492
 30
0.0
 40
37.84291498257361
100
AcDbArc
 50
44.337512669
 51
82.6723813715
  0
LINE
  5
1E1
330
1F
100
AcDbEntity
  8
0
  6
SLD-Durchgehend
 62
     7
370
    15
100
AcDbLine
 10
108.6062030943
 20
140.1302123864
 30
0.0
 11
108.6062030943
 21
139.4796686668
 31
0.0
  0
LINE
  5
1E2
330
1F
100
AcDbEntity
  8
0
  6
SLD-Durchgehend
 62
     7
370
    15
100
AcDbLine
 10
81.9062024082
 20
110.9524854415
 30
0.0
 11
108.6062030943
 21
110.9524854415
 31
0.0
  0
LINE
  5
1E3
330
1F
100
AcDbEntity
  8
0
  6
SLD-Durchgehend
 62
     7
370
    15
100
AcDbLine
 10
81.9062024082
 20
139.3607275982
 30
0.0
 11
81.9062024082
 21
110.9524854415
 31
0.0
  0
LINE
  5
1E4
330
1F
100
AcDbEntity
  8
0
  6
SLD-Durchgehend
 62
     7
370
    15
100
AcDbLine
 10
81.9062024082
 20
139.3607275982
 30
0.0
 11
83.8662023732
 21
139.6041678686
 31
0.0
  0
LINE
  5
1E5
330
1F
100
AcDbEntity
  8
0
  6
SLD-Durchgehend
 62
     7
370
    15
100
AcDbLine
 10
83.8662023732
 20
139.6041678686
 30
0.0
 11
86.3662023173
 21
139.6041678686
 31
0.0
  0
LINE
  5
1E6
330
1F
100
AcDbEntity
  8
0
  6
SLD-Durchgehend
 62
     7
370
    15
100
AcDbLine
 10
86.3662023173
 20
139.9337554772
 30
0.0
 11
86.3662023173
 21
139.6041678686
 31
0.0
  0
LINE
  5
1E7
330
1F
100
AcDbEntity
  8
0
  6
SLD-Durchgehend
 62
     7
370
    15
100
AcDbLine
 10
108.6062030943
 20
139.4796686668
 30
0.0
 11
108.6062030943
 21
110.9524854415
 31
0.0
  0
ARC
  5
1E8
330
1F
100
AcDbEntity
  8
0
  6
SLD-Durchgehend
 62
     7
370
    15
100
AcDbCircle
 10
81.6062023939
 20
107.2010862131
 30
0.0
 40
27.0
100
AcDbArc
 50
270.6366328723
 51
0.0
  0
LINE
  5
1E9
330
1F
100
AcDbEntity
  8
0
  6
SLD-Durchgehend
 62
     7
370
    15
100
AcDbLine
 10
81.9062024082
 20
110.9524854415
 30
0.0
 11
81.9062024082
 21
80.2027525802
 31
0.0
  0
LINE
  5
1EA
330
1F
100
AcDbEntity
  8
0
  6
SLD-Durchgehend
 62
     7
370
    15
100
AcDbLine
 10
108.6062030943
 20
110.9524854415
 30
0.0
 11
108.6062030943
 21
107.2010862131
 31
0.0
  0
ARC
  5
1EB
330
1F
100
AcDbEntity
  8
0
  6
SLD-Durchgehend
 62
     7
370
    15
100
AcDbCircle
 10
81.6061763867
 20
107.2008311314
 30
0.0
 40
25.99974456520511
100
AcDbArc
 50
260.8218998838
 51
270.6358416693
  0
ARC
  5
1EC
330
1F
100
AcDbEntity
  8
0
  6
SLD-Durchgehend
 62
     7
370
    15
100
AcDbCircle
 10
81.6061821071
 20
107.2012647
 30
0.0
 40
25.99982109175
100
AcDbArc
 50
89.3641728091
 51
99.1780856379
  0
ELLIPSE
  5
1ED
330
1F
100
AcDbEntity
  8
0
  6
SLD-Durchgehend
 62
     7
370
    15
100
AcDbEllipse
 10
73.3621418161
 20
123.7387511659
 30
0.0
 11
1.601312381139664
 21
3.163599322178484
 31
0.0
210
0.0
220
0.0
230
1.0
 40
0.686264414
 41
0.0
 42
6.283185307179586
  0
ARC
  5
1EE
330
1F
100
AcDbEntity
  8
0
  6
SLD-Durchgehend
 62
     7
370
    15
100
AcDbCircle
 10
81.6062023939
 20
107.2010862131
 30
0.0
 40
26.00000000000002
100
AcDbArc
 50
99.1780670049
 51
260.8219329951
  0
LWPOLYLINE
  5
1EF
330
1F
100
AcDbEntity
  8
0
  6
SLD-Durchgehend
 62
     7
370
    15
100
AcDbPolyline
 90
        3
 70
   128
 43
0.0
 10
73.8779200317
 20
121.3632485319
 10
73.8204881625
 20
121.3115610604
 10
73.7911459134
 20
121.3002026502
  0
LINE
  5
1F0
330
1F
100
AcDbEntity
  8
0
  6
SLD-Durchgehend
 62
     7
370
    15
100
AcDbLine
 10
73.7911459134
 20
121.3002026502
 30
0.0
 11
73.8779200317
 21
121.3632485319
 31
0.0
  0
LINE
  5
1F1
330
1F
100
AcDbEntity
  8
0
  6
SLD-Durchgehend
 62
     7
370
    15
100
AcDbLine
 10
81.9062024082
 20
133.6010860701
 30
0.0
 11
75.9458137752
 21
133.6010860701
 31
0.0
  0
LINE
  5
1F2
330
1F
100
AcDbEntity
  8
0
  6
SLD-Durchgehend
 62
     7
370
    15
100
AcDbLine
 10
81.9062024082
 20
80.8010863562
 30
0.0
 11
75.9458137752
 21
80.8010863562
 31
0.0
  0
LINE
  5
1F3
330
1F
100
AcDbEntity
  8
0
  6
SLD-Durchgehend
 62
     7
370
    15
100
AcDbLine
 10
72.6062027813
 20
77.6408089746
 30
0.0
 11
72.6062027813
 21
77.0141685803
 31
0.0
  0
ARC
  5
1F4
330
1F
100
AcDbEntity
  8
0
  6
SLD-Durchgehend
 62
     7
370
    15
100
AcDbCircle
 10
81.6062023939
 20
107.2010862131
 30
0.0
 40
31.49999999999999
100
AcDbArc
 50
140.9381656697
 51
253.398450401
  0
LINE
  5
1F5
330
1F
100
AcDbEntity
  8
0
  6
SLD-Durchgehend
 62
     7
370
    15
100
AcDbLine
 10
57.1475127788
 20
127.0510869522
 30
0.0
 11
57.9252509476
 21
127.0510869522
 31
0.0
  0
LINE
  5
1F6
330
1F
100
AcDbEntity
  8
0
  6
SLD-Durchgehend
 62
     7
370
    15
100
AcDbLine
 10
73.6062020139
 20
137.0475272138
 30
0.0
 11
73.6062020139
 21
137.6682816495
 31
0.0
  0
LINE
  5
1F7
330
1F
100
AcDbEntity
  8
0
  6
SLD-Durchgehend
 62
     7
370
    15
100
AcDbLine
 10
61.7562016548
 20
131.6597758282
 30
0.0
 11
61.7562016548
 21
130.8820376594
 31
0.0
  0
ARC
  5
1F8
330
1F
100
AcDbEntity
  8
0
  6
SLD-Durchgehend
 62
     7
370
    15
100
AcDbCircle
 10
81.6062023939
 20
107.2010862131
 30
0.0
 40
31.49999999999999
100
AcDbArc
 50
104.7124579609
 51
129.0618343303
  0
ARC
  5
1F9
330
1F
100
AcDbEntity
  8
0
  6
SLD-Durchgehend
 62
     7
370
    15
100
AcDbCircle
 10
81.6062023939
 20
107.2010862131
 30
0.0
 40
31.49999999999999
100
AcDbArc
 50
286.601549599
 51
31.0027191339
  0
LINE
  5
1FA
330
1F
100
AcDbEntity
  8
0
  6
SLD-Durchgehend
 62
     7
370
    15
100
AcDbLine
 10
90.6062020065
 20
77.0141685803
 30
0.0
 11
90.6062020065
 21
77.6408089746
 31
0.0
  0
LINE
  5
1FB
330
1F
100
AcDbEntity
  8
0
  6
SLD-Durchgehend
 62
     7
370
    15
100
AcDbLine
 10
90.6062020065
 20
77.6408089746
 30
0.0
 11
90.6062020065
 21
80.8010863562
 31
0.0
  0
LINE
  5
1FC
330
1F
100
AcDbEntity
  8
0
  6
SLD-Durchgehend
 62
     7
370
    15
100
AcDbLine
 10
90.6062020065
 20
80.8010863562
 30
0.0
 11
87.2665910126
 21
80.8010863562
 31
0.0
  0
LINE
  5
1FD
330
1F
100
AcDbEntity
  8
0
  6
SLD-Durchgehend
 62
     7
370
    15
100
AcDbLine
 10
73.6062020139
 20
133.6010860701
 30
0.0
 11
73.6062020139
 21
137.0475272138
 31
0.0
  0
LINE
  5
1FE
330
1F
100
AcDbEntity
  8
0
  6
SLD-Durchgehend
 62
     7
370
    15
100
AcDbLine
 10
72.6062027813
 20
80.8010863562
 30
0.0
 11
72.6062027813
 21
77.6408089746
 31
0.0
  0
LINE
  5
1FF
330
1F
100
AcDbEntity
  8
0
  6
SLD-Durchgehend
 62
     7
370
    15
100
AcDbLine
 10
61.7562016548
 20
130.8820376594
 30
0.0
 11
61.7562016548
 21
127.0510869522
 31
0.0
  0
LINE
  5
200
330
1F
100
AcDbEntity
  8
0
  6
SLD-Durchgehend
 62
     7
370
    15
100
AcDbLine
 10
57.9252509476
 20
127.0510869522
 30
0.0
 11
61.7562016548
 21
127.0510869522
 31
0.0
  0
LINE
  5
201
330
1F
100
AcDbEntity
  8
0
  6
SLD-Durchgehend
 62
     7
370
    15
100
AcDbLine
 10
75.9458137752
 20
133.6010860701
 30
0.0
 11
73.6062020139
 21
133.6010860701
 31
0.0
  0
LINE
  5
202
330
1F
100
AcDbEntity
  8
0
  6
SLD-Durchgehend
 62
     7
370
    15
100
AcDbLine
 10
75.9458137752
 20
80.8010863562
 30
0.0
 11
72.6062027813
 21
80.8010863562
 31
0.0
  0
ARC
  5
203
330
1F
100
AcDbEntity
  8
0
  6
SLD-Durchgehend
 62
     7
370
    15
100
AcDbCircle
 10
81.6076077626
 20
107.1924067931
 30
0.0
 40
31.49128069790737
100
AcDbArc
 50
271.8171650148
 51
286.6036104447
  0
ARC
  5
204
330
1F
100
AcDbEntity
  8
0
  6
SLD-Durchgehend
 62
     7
370
    15
100
AcDbCircle
 10
81.6093492367
 20
107.2204807449
 30
0.0
 40
31.51948509549451
100
AcDbArc
 50
253.4030421033
 51
268.1761824372
  0
ARC
  5
205
330
1F
100
AcDbEntity
  8
0
  6
SLD-Durchgehend
 62
     7
370
    15
100
AcDbCircle
 10
81.5180365011
 20
107.671281558
 30
0.0
 40
31.02284866740622
100
AcDbArc
 50
89.837167102
 51
104.7755106202
  0
ARC
  5
206
330
1F
100
AcDbEntity
  8
0
  6
SLD-Durchgehend
 62
     7
370
    15
100
AcDbCircle
 10
81.6058515234
 20
107.2014370836
 30
0.0
 40
31.49950688589957
100
AcDbArc
 50
129.0617420529
 51
140.9382579471
  0
ARC
  5
207
330
1F
100
AcDbEntity
  8
0
  6
SLD-Durchgehend
 62
     7
370
    15
100
AcDbCircle
 10
81.6062023939
 20
107.2010862131
 30
0.0
 40
31.49999999999997
100
AcDbArc
 50
268.180780706
 51
271.819219294
  0
LINE
  5
208
330
1F
100
AcDbEntity
  8
0
  6
SLD-Durchgehend
 62
     7
370
    15
100
AcDbLine
 10
81.6062023939
 20
151.7662236888
 30
0.0
 11
81.6062023939
 21
152.2010880012
 31
0.0
  0
LINE
  5
209
330
1F
100
AcDbEntity
  8
0
  6
SLD-Durchgehend
 62
     7
370
    15
100
AcDbLine
 10
86.3662023173
 20
151.5981758435
 30
0.0
 11
84.8639410531
 21
151.8010849554
 31
0.0
  0
LINE
  5
20A
330
1F
100
AcDbEntity
  8
0
  6
SLD-Durchgehend
 62
     7
370
    15
100
AcDbLine
 10
86.3662023173
 20
139.9337554772
 30
0.0
 11
86.3662023173
 21
151.5981758435
 31
0.0
  0
LINE
  5
20B
330
1F
100
AcDbEntity
  8
0
  6
SLD-Durchgehend
 62
     7
370
    15
100
AcDbLine
 10
86.3662023173
 20
139.9337554772
 30
0.0
 11
84.8639410531
 21
139.7634910841
 31
0.0
  0
LINE
  5
20C
330
1F
100
AcDbEntity
  8
0
  6
SLD-Durchgehend
 62
     7
370
    15
100
AcDbLine
 10
81.6062023939
 20
139.7286298175
 30
0.0
 11
81.6062023939
 21
151.7662236888
 31
0.0
  0
LINE
  5
20D
330
1F
100
AcDbEntity
  8
0
  6
SLD-Durchgehend
 62
     7
370
    15
100
AcDbLine
 10
81.6062023939
 20
139.365011682
 30
0.0
 11
81.6062023939
 21
139.7286298175
 31
0.0
  0
LINE
  5
20E
330
1F
100
AcDbEntity
  8
0
  6
SLD-Durchgehend
 62
     7
370
    15
100
AcDbLine
 10
81.6062023939
 20
138.3118609388
 30
0.0
 11
81.6062023939
 21
139.365011682
 31
0.0
  0
LINE
  5
20F
330
1F
100
AcDbEntity
  8
0
  6
SLD-Durchgehend
 62
     7
370
    15
100
AcDbLine
 10
81.6062023939
 20
138.310337295
 30
0.0
 11
81.6062023939
 21
138.3118609388
 31
0.0
  0
CIRCLE
  5
210
330
1F
100
AcDbEntity
  8
VERMASSUNG
  6
SLD-Punktstrich
100
AcDbCircle
 10
81.6062023939
 20
112.2010862131
 30
0.0
 40
39.99999999999999
  0
POINT
  5
211
330
1F
100
AcDbEntity
  8
VERMASSUNG
100
AcDbPoint
 10
81.6062023939
 20
152.2010862131
 30
0.0
  0
DIMENSION
  5
212
330
1F
100
AcDbEntity
  8
VERMASSUNG
100
AcDbDimension
  2
_D_5
 10
36.9092144744
 20
152.2010862131
 30
0.0
 11
36.9092144744
 21
112.2010862131
 31
0.0
 70
   160
  1
%%c<>
 71
     2
 42
-1.0
  3
SLDDIMSTYLE0
100
AcDbAlignedDimension
 13
81.6062023939
 23
72.2010862131
 33
0.0
 14
81.6062023939
 24
152.2010862131
 34
0.0
 50
90.0
100
AcDbRotatedDimension
  0
INSERT
  5
228
330
1F
100
AcDbEntity
  8
VERMASSUNG
100
AcDbBlockReference
  2
SW_CENTERMARKSYMBOL_0
 10
81.6062023939
 20
107.2010862131
 30
0.0
  0
OLE2FRAME
  5
229
330
1F
100
AcDbEntity
  8
0
100
AcDbOle2Frame
 70
     2
  3
Paintbrush-Bild
 10
13.8511154363
 20
38.264191557
 30
0.0
 11
51.6290888628
 21
31.9806341108
 31
0.0
 71
     2
 72
     0
 73
     1
 90
    12928
310
80552BED0767C5B32B40DDAF6807D121434000000000000000006FFBDDFB85D0
310
4940DDAF6807D121434000000000000000006FFBDDFB85D04940416F4BD60AFB
310
3F4000000000000000002BED0767C5B32B40416F4BD60AFB3F40000000000000
310
0000000000000100000000010000010000000100000000000100000000320000
310
D0CF11E0A1B11AE1000000000000000000000000000000003E000300FEFF0900
310
0600000000000000000000000100000001000000000000000010000002000000
310
01000000FEFFFFFF0000000000000000FFFFFFFFFFFFFFFFFFFFFFFFFFFFFFFF
310
FFFFFFFFFFFFFFFFFFFFFFFFFFFFFFFFFFFFFFFFFFFFFFFFFFFFFFFFFFFFFFFF
310
FFFFFFFFFFFFFFFFFFFFFFFFFFFFFFFFFFFFFFFFFFFFFFFFFFFFFFFFFFFFFFFF
310
FFFFFFFFFFFFFFFFFFFFFFFFFFFFFFFFFFFFFFFFFFFFFFFFFFFFFFFFFFFFFFFF
310
FFFFFFFFFFFFFFFFFFFFFFFFFFFFFFFFFFFFFFFFFFFFFFFFFFFFFFFFFFFFFFFF
310
FFFFFFFFFFFFFFFFFFFFFFFFFFFFFFFFFFFFFFFFFFFFFFFFFFFFFFFFFFFFFFFF
310
FFFFFFFFFFFFFFFFFFFFFFFFFFFFFFFFFFFFFFFFFFFFFFFFFFFFFFFFFFFFFFFF
310
FFFFFFFFFFFFFFFFFFFFFFFFFFFFFFFFFFFFFFFFFFFFFFFFFFFFFFFFFFFFFFFF
310
FFFFFFFFFFFFFFFFFFFFFFFFFFFFFFFFFFFFFFFFFFFFFFFFFFFFFFFFFFFFFFFF
310
FFFFFFFFFFFFFFFFFFFFFFFFFFFFFFFFFFFFFFFFFFFFFFFFFFFFFFFFFFFFFFFF
310
FFFFFFFFFFFFFFFFFFFFFFFFFFFFFFFFFFFFFFFFFFFFFFFFFFFFFFFFFFFFFFFF
310
FFFFFFFFFFFFFFFFFFFFFFFFFFFFFFFFFFFFFFFFFFFFFFFFFFFFFFFFFFFFFFFF
310
FFFFFFFFFFFFFFFFFFFFFFFFFFFFFFFFFFFFFFFFFFFFFFFFFFFFFFFFFFFFFFFF
310
FFFFFFFFFFFFFFFFFFFFFFFFFFFFFFFFFFFFFFFFFFFFFFFFFFFFFFFFFFFFFFFF
310
FDFFFFFFFEFFFFFFFEFFFFFFFEFFFFFF05000000060000000700000008000000
310
090000000A0000000B0000000C0000000D0000000E0000000F00000010000000
310
11000000120000001300000014000000150000001600000017000000FEFFFFFF
310
FFFFFFFFFFFFFFFFFFFFFFFFFFFFFFFFFFFFFFFFFFFFFFFFFFFFFFFFFFFFFFFF
310
FFFFFFFFFFFFFFFFFFFFFFFFFFFFFFFFFFFFFFFFFFFFFFFFFFFFFFFFFFFFFFFF
310
FFFFFFFFFFFFFFFFFFFFFFFFFFFFFFFFFFFFFFFFFFFFFFFFFFFFFFFFFFFFFFFF
310
FFFFFFFFFFFFFFFFFFFFFFFFFFFFFFFFFFFFFFFFFFFFFFFFFFFFFFFFFFFFFFFF
310
FFFFFFFFFFFFFFFFFFFFFFFFFFFFFFFFFFFFFFFFFFFFFFFFFFFFFFFFFFFFFFFF
310
FFFFFFFFFFFFFFFFFFFFFFFFFFFFFFFFFFFFFFFFFFFFFFFFFFFFFFFFFFFFFFFF
310
FFFFFFFFFFFFFFFFFFFFFFFFFFFFFFFFFFFFFFFFFFFFFFFFFFFFFFFFFFFFFFFF
310
FFFFFFFFFFFFFFFFFFFFFFFFFFFFFFFFFFFFFFFFFFFFFFFFFFFFFFFFFFFFFFFF
310
FFFFFFFFFFFFFFFFFFFFFFFFFFFFFFFFFFFFFFFFFFFFFFFFFFFFFFFFFFFFFFFF
310
FFFFFFFFFFFFFFFFFFFFFFFFFFFFFFFFFFFFFFFFFFFFFFFFFFFFFFFFFFFFFFFF
310
FFFFFFFFFFFFFFFFFFFFFFFFFFFFFFFFFFFFFFFFFFFFFFFFFFFFFFFFFFFFFFFF
310
FFFFFFFFFFFFFFFFFFFFFFFFFFFFFFFFFFFFFFFFFFFFFFFFFFFFFFFFFFFFFFFF
310
FFFFFFFFFFFFFFFFFFFFFFFFFFFFFFFFFFFFFFFFFFFFFFFFFFFFFFFFFFFFFFFF
310
52006F006F007400200045006E00740072007900000000000000000000000000
310
0000000000000000000000000000000000000000000000000000000000000000
310
16000500FFFFFFFFFFFFFFFF020000000A00030000000000C000000000000046
310
00000000000000000000000040D67914BD49D00103000000C000000000000000
310
01004F006C006500000000000000000000000000000000000000000000000000
310
0000000000000000000000000000000000000000000000000000000000000000
310
0A000200FFFFFFFFFFFFFFFFFFFFFFFF00000000000000000000000000000000
310
0000000000000000000000000000000000000000000000001400000000000000
310
010043006F006D0070004F0062006A0000000000000000000000000000000000
310
0000000000000000000000000000000000000000000000000000000000000000
310
120002010100000003000000FFFFFFFF00000000000000000000000000000000
310
0000000000000000000000000000000000000000010000004D00000000000000
310
01004F006C006500310030004E00610074006900760065000000000000000000
310
0000000000000000000000000000000000000000000000000000000000000000
310
1A000200FFFFFFFFFFFFFFFFFFFFFFFF00000000000000000000000000000000
310
0000000000000000000000000000000000000000040000002426000000000000
310
FEFFFFFF02000000FEFFFFFFFFFFFFFFFFFFFFFFFFFFFFFFFFFFFFFFFFFFFFFF
310
FFFFFFFFFFFFFFFFFFFFFFFFFFFFFFFFFFFFFFFFFFFFFFFFFFFFFFFFFFFFFFFF
310
FFFFFFFFFFFFFFFFFFFFFFFFFFFFFFFFFFFFFFFFFFFFFFFFFFFFFFFFFFFFFFFF
310
FFFFFFFFFFFFFFFFFFFFFFFFFFFFFFFFFFFFFFFFFFFFFFFFFFFFFFFFFFFFFFFF
310
FFFFFFFFFFFFFFFFFFFFFFFFFFFFFFFFFFFFFFFFFFFFFFFFFFFFFFFFFFFFFFFF
310
FFFFFFFFFFFFFFFFFFFFFFFFFFFFFFFFFFFFFFFFFFFFFFFFFFFFFFFFFFFFFFFF
310
FFFFFFFFFFFFFFFFFFFFFFFFFFFFFFFFFFFFFFFFFFFFFFFFFFFFFFFFFFFFFFFF
310
FFFFFFFFFFFFFFFFFFFFFFFFFFFFFFFFFFFFFFFFFFFFFFFFFFFFFFFFFFFFFFFF
310
FFFFFFFFFFFFFFFFFFFFFFFFFFFFFFFFFFFFFFFFFFFFFFFFFFFFFFFFFFFFFFFF
310
FFFFFFFFFFFFFFFFFFFFFFFFFFFFFFFFFFFFFFFFFFFFFFFFFFFFFFFFFFFFFFFF
310
FFFFFFFFFFFFFFFFFFFFFFFFFFFFFFFFFFFFFFFFFFFFFFFFFFFFFFFFFFFFFFFF
310
FFFFFFFFFFFFFFFFFFFFFFFFFFFFFFFFFFFFFFFFFFFFFFFFFFFFFFFFFFFFFFFF
310
FFFFFFFFFFFFFFFFFFFFFFFFFFFFFFFFFFFFFFFFFFFFFFFFFFFFFFFFFFFFFFFF
310
FFFFFFFFFFFFFFFFFFFFFFFFFFFFFFFFFFFFFFFFFFFFFFFFFFFFFFFFFFFFFFFF
310
FFFFFFFFFFFFFFFFFFFFFFFFFFFFFFFFFFFFFFFFFFFFFFFFFFFFFFFFFFFFFFFF
310
FFFFFFFFFFFFFFFFFFFFFFFFFFFFFFFFFFFFFFFFFFFFFFFFFFFFFFFFFFFFFFFF
310
0100000200000000000000000000000000000000000000000000000000000000
310
0000000000000000000000000000000000000000000000000000000000000000
310
0100FEFF030A0000FFFFFFFF0A00030000000000C00000000000004607000000
310
5042727573680007000000504272757368000700000050427275736800F439B2
310
7100000000000000000000000000000000000000000000000000000000000000
310
0000000000000000000000000000000000000000000000000000000000000000
310
0000000000000000000000000000000000000000000000000000000000000000
310
0000000000000000000000000000000000000000000000000000000000000000
310
0000000000000000000000000000000000000000000000000000000000000000
310
0000000000000000000000000000000000000000000000000000000000000000
310
0000000000000000000000000000000000000000000000000000000000000000
310
0000000000000000000000000000000000000000000000000000000000000000
310
0000000000000000000000000000000000000000000000000000000000000000
310
0000000000000000000000000000000000000000000000000000000000000000
310
0000000000000000000000000000000000000000000000000000000000000000
310
0000000000000000000000000000000000000000000000000000000000000000
310
20260000424D0E260000000000003E00000028000000B40200006E0000000100
310
01000000000000000000130B0000130B00000200000002000000000000FFFFFF
310
FFFFFFFFFFFFFFFFFFFFFFFFFFFFFFFFFFFFFFFFFFFFFFFFFFFFFFFFFFFFFFFF
310
FFFFFFFFFFFFFFFFFFFFFFFFFFFFFFFFFFFFFFFFFFFFFFFFFFFFFFFFFFFFFFFF
310
FFFFFFFFFFFFFFFFFFFFFFFFFFFFFFFFFFFFFFFFFFFFFFFFF000FFFFFFFFFFFF
310
FFFFFFFFFFFFFFFFFFFFFFFFFFFFFFFFFFFFFFFFFFFFFFFFFFFFFFFFFFFFFFFF
310
FFFFFFFFFFFFFFFFFFFFFFFFFFFFFFFFFFFFFFFFFFFFFFFFFFFFFFFFFFFFFFFF
310
FFFFFFFFFFFFFFFFFFFFFFFFFFFFFFFFF000FFFFFFFFFFFFFFFFFFFFFFFFFFFF
310
FFFFFFFFFFFFFFFFFFFFFFFFFFFFFFFFFFFFFFFFFFFFFFFFFFFFFFFFFFFFFFFF
310
FFFFFFFFFFFFFFFFFFFFFFFFFFFFFFFFFFFFFFFFFFFFFFFFFFFFFFFFFFFFFFFF
310
FFFFFFFFFFFFFFFFF000FFFFFFFFFFFFFFFFFFFFFFFFFFFFFFFFFFFFFFFFFFFF
310
FFFFFFFFFFFFFFFFFFFFFFFFFFFFFFFFFFFFFFFFFFFFFFFFFFFFFFFFFFFFFFFF
310
FFFFFFFFFFFFFFFFFFFFFFFFFFFFFFFFFFFFFFFFFFFFFFFFFFFFFFFFFFFFFFFF
310
F000FFFFFFFFFFFFFFFFFFFFFFFFFFFFFFFFFFFFFFFFFFFFFFFFFFFFFFFFFFFF
310
FFFFFFFFFFFFFFFFFFFFFFFFFFFFFFFFFFFFFFFFFFFFFFFFFFFFFFFFFFFFFFFF
310
FFFFFFFFFFFFFFFFFFFFFFFFFFFFFFFFFFFFFFFFFFFFFFFFF000FFFFFFFFFFFF
310
FFFFFFFFFFFFFFFFFFFFFFFFFFFFFFFFFFFFFFFFFFFFFFFFFFFFFFFFFFFFFFFF
310
FFFFFFFFFFFFFFFFFFFFFFFFFFFFFFFFFFFFFFFFFFFFFFFFFFFFFFFFFFFFFFFF
310
FFFFFFFFFFFFFFFFFFFFFFFFFFFFFFFFF000FFFFFFFFFFFFFFFFFFFFFFFFFFFF
310
FFFFFFFFFFFFFFFFFFFFFFFFFFFFFFFFFFFFFFFFFFFFFFFFFFFFFFFFFFFFFFFF
310
FFFFFFFFFFFFFFFFFFFFFFFFFFFFFFFFFFFFFFFFFFFFFFFFFFFFFFFFFFFFFFFF
310
FFFFFFFFFFFFFFFFF000FFFFFFFFFFFFFFFFFFFFFFFFFFFFFFFFFFFFFFFFFFFF
310
FFFFFFFFFFFFFFFFFFFFFFFFFFFFFFFFFFFFFFFFFFFFFFFFFFFFFFFFFFFFFFFF
310
FFFFFFFFFFFFFFFFFFFFFFFFFFFFFFFFFFFFFFFFFFFFFFFFFFFFFFFFFFFFFFFF
310
F000FFFFFFFFFFFFFFFFFFFFFFFFFFFFFFFFFFFFFFFFFFFFFFFFFFFFFFFFFFFF
310
FFFFFFFFFFFFFFFFFFFFFFFFFFFFFFFFFFFFFFFFFFFFFFFFFFFFFFFFFFFFFFFF
310
FFFFFFFFFFFFFFFFFFFFFFFFFFFFFFFFFFFFFFFFFFFFFFFFF000FFFFFFFFFFFF
310
FFFFFFFFFFFFFFFFFFFFFFFFFFFFFFFFFFFFFFFFFFFFFFFFFFFFFFFFFFFFFFFF
310
FFFFFFFFFFFFFFFFFFFFFFFFFFFFFFFFFFFFFFFFFFFFFFFFFFFFFFFFFFFFFFFF
310
FFFFFFFFFFFFFFFFFFFFFFFFFFFFFFFFF000FFFFFFFFFFFFFFFFFFFFFFFFFFFF
310
FFFFFFFFFFFFFFFFFFFFFFFFFFFFFFFFFFFFFFFFFFFFFFFFFFFFFFFFFFFFFFFF
310
FFFFFFFFFFFFFFFFFFFFFFFFFFFFFFFFFFFFFFFFFFFFFFFFFFFFFFFFFFFFFFFF
310
FFFFFFFFFFFFFFFFF000FFFFFFFFFFFFFFFFFFFFFFFFFFFFFFFFFFFFFFFFFFFF
310
FFFFFFFFFFFFFFFFFFFFFFFFFFFFFFFFFFFFFFFFFFFFFFFFFFFFFFFFFFFFFFFF
310
FFFFFFFFFFFFFFFFFFFFFFFFFFFFFFFFFFFFFFFFFFFFFFFFFFFFFFFFFFFFFFFF
310
F000FFFFFFFFFFFFFFFFFFFFFFFFFFFFFFFFFFFFFFFFFFFFFFFFFFFFFFFFFFFF
310
FFFFFFFFFFFFFFFFFFFFFFFFFFFFFFFFFFFFFFFFFFFFFFFFFFFFFFFFFFFFFFFF
310
FFFFFFFFFFFFFFFFFFFFFFFFFFFFFFFFFFFFFFFFFFFFFFFFF000FFFFFFFFFFFF
310
FFFFFFFFFFFFFFFFFFFFFFFFFFFFFFFFFFFFFFFFFFFFFFFFFFFFFFFFFFFFFFFF
310
FFFFFFFFFFFFFFFFFFFFFFFFFFFFFFFFFFFFFFFFFFFFFFFFFFFFFFFFFFFFFFFF
310
FFFFFFFFFFFFFFFFFFFFFFFFFFFFFFFFF000FFFFFFFFFFFFFFFFFFFFFFFFFFFF
310
FFFFFFFFFFFFFFFFFFFFFFFFFFFFFFFFFFFFFFFFFFFFFFFFFFFFFFFFFFFFFFFF
310
FFFFFFFFFFFFFFFFFFFFFFFFFFFFFFFFFFFFFFFFFFFFFFFFFFFFFFFFFFFFFFFF
310
FFFFFFFFFFFFFFFFF000FFFFFFFFFFFFFFFFFFFFFFFFFFFFFFFFFFFFFFFFFFFF
310
FFFFFFFFFFFFFFFFFFFFFFFFFFFFFFFFFFFFFFFFFFFFFFFFFFFFFFFFFFFFFFFF
310
FFFFFFFFFFFFFFFFFFFFFFFFFFFFFFFFFFFFFFFFFFFFFFFFFFFFFFFFFFFFFFFF
310
F000FFFFFFFFFFFFFFFFFFFFFFFFFFFFFFFFFFFFFFFFFFFFFFFFFFFFFFFFFFFF
310
FFFFFFFFFFFFFFFFFFFFFFFFFFFFFFFFFFFFFFFFFFFFFFFFFFFFFFFFFFFFFFFF
310
FFFFFFFFFFFFFFFFFFFFFFFFFFFFFFFFFFFFFFFFFFFFFFFFF000FFFFFFFFFFFF
310
FFFFFFFFFFFFFFFFFFFFFFFFFFFFFFFFFFFFFFFFFFFFFFFFFFFFFFFFFFFFFFFF
310
FFFFFFFFFFFFFFFFFFFFFFFFFFFFFFFFFFFFFFFFFFFFFFFFFFFFFFFFFFFFFFFF
310
FFFFFFFFFFFFFFFFFFFFFFFFFFFFFFFFF000FFFFFFFFFFFFFFFFFFFFFFFFFFFF
310
FFFFFFFFFFFFFFFFFFFFFFFFFFFFFFFFFFFFFFFFFFFFFFFFFFFFFFFFFFFFFFFF
310
FFFFFFFFFFFFFFFFFFFFFFFFFFFFFFFFFFFFFFFFFFFFFFFFFFFFFFFFFFFFFFFF
310
FFFFFFFFFFFFFFFFF000FFFFF80003FFFFFFFFFFFFFFFFFFFFFFFFFFFFFFFFFF
310
FFFFF00007FFFFFFFFFF00007FFFFFF800000000000000007FFFFFFFFFFFFFFF
310
FFFFFFFC001FFFFFFFFFFFFFFC001FFFFFFFFFFFFFFFFFFFFFFFFFFE0007FFFF
310
F000FFFF8000007FFFFFFFF8000FFFFFC0007FFFFF80007FFFFF0000007FFFFF
310
FFF8000007FFFFF800000000000000007FFFFFF0001FFFFFFFFFFFC00001FFFF
310
FFFFFFFFC00001FFFFFFFF000000000003FFFFE000007FFFF000FFFE0000000F
310
FFFFFFF0000FFFFF80007FFFFF80007FFFFC0000001FFFFFFFC0000001FFFFF8
310
00000000000000007FFFFFF0001FFFFFFFFFFE0000003FFFFFFFFFFE0000003F
310
FFFFFF000000000003FFFF0000000FFFF000FFF800000003FFFFFFF00007FFFF
310
80007FFFFF80007FFFF000000007FFFFFF000000003FFFF80000000000000000
310
7FFFFFF0001FFFFFFFFFF80000000FFFFFFFFFF80000000FFFFFFF0000000000
310
03FFFC00000003FFF000FFE000000000FFFFFFF00007FFFF80003FFFFF80007F
310
FFC000000001FFFFFC000000001FFFF800000000000000007FFFFFF0001FFFFF
310
FFFFE000000003FFFFFFFFE000000003FFFFFF000000000003FFF000000000FF
310
F000FF80000000007FFFFFF00007FFFF80003FFFFF80007FFF8000000000FFFF
310
F80000000007FFF800000000000000007FFFFFF0001FFFFFFFFFC000000001FF
310
FFFFFFC000000001FFFFFF000000000003FFC0000000007FF000FF0000000000
310
3FFFFFE00007FFFF00003FFFFF80007FFE00000000003FFFF00000000003FFF8
310
00000000000000007FFFFFF0001FFFFFFFFF8000000000FFFFFFFF8000000000
310
FFFFFF000000000003FF80000000003FF000FE00000000001FFFFFE00003FFFF
310
00003FFFFF80007FFC00000000001FFFE00000000001FFF8000001FFFE000000
310
7FFFFFF0001FFFFFFFFE00000000003FFFFFFE00000000003FFFFF0000000000
310
03FF00000000001FF000FC00000000000FFFFFE00003FFFF00001FFFFF80007F
310
F800000000001FFFC00000000000FFF8000001FFFE0000007FFFFFF0001FFFFF
310
FFFC00000000001FFFFFFC00000000001FFFFF000000000003FE00000000000F
310
F000F8000000000007FFFFE00003FFFF00001FFFFF80007FF800000000000FFF
310
800000000000FFF8000001FFFE0000007FFFFFF0001FFFFFFFF800000000000F
310
FFFFF800000000000FFFFF000000000003FC000000000007F000F80000000000
310
03FFFFC00003FFFE00001FFFFF80007FF0000000000007FF0000000000007FF8
310
000001FFFE0000007FFFFFF0001FFFFFFFF0000000000007FFFFF00000000000
310
07FFFF000000000003F8000000000003F000F0000000000003FFFFC00001FFFE
310
00001FFFFF80007FE0000000000007FE0000000000003FF8000001FFFE000000
310
7FFFFFF0001FFFFFFFF0000000000007FFFFF0000000000007FFFF0000000000
310
03F800001F800003F000E00001FFF00001FFFFC00001FFFE00000FFFFF80007F
310
E00001FFE00003FE00001FFF00003FF8000001FFFE0000007FFFFFF0001FFFFF
310
FFE000003E000003FFFFE000003E000003FFFF000000000003F00001FFF80001
310
F000E00007FFFC0001FFFFC00001FFFE00000FFFFF80007FC0000FFFFC0003FC
310
0000FFFFC0001FF8000001FFFE0000007FFFFFF0001FFFFFFFC00003FFE00001
310
FFFFC00003FFE00001FFFF0001FFFFFFFFF00007FFFE0001F000E0000FFFFF00
310
00FFFF800001FFFC00000FFFFF80007FC0001FFFFE0001FC0001FFFFE0001FF8
310
000001FFFE0000007FFFFFF0001FFFFFFF80000FFFF80000FFFF80000FFFF800
310
00FFFF0003FFFFFFFFE0000FFFFF8000F000C0003FFFFF8000FFFF800000FFFC
310
000007FFFF80007F80003FFFFF0001FC0003FFFFF0001FF8000001FFFE000000
310
7FFFFFF0001FFFFFFF80003FFFFE0000FFFF80003FFFFE0000FFFF0003FFFFFF
310
FFE0003FFFFF8000F000C0003FFFFF8000FFFF800000FFFC000007FFFF80007F
310
80007FFFFF8001F80007FFFFF8000FF8000001FFFE0000007FFFFFF0001FFFFF
310
FF00007FFFFF00007FFF00007FFFFF00007FFF0003FFFFFFFFE0003FFFFFC000
310
F000C0007FFFFFC000FFFF000000FFFC000007FFFF80007F8000FFFFFF8000F8
310
000FFFFFF8000FF8000001FFFE0000007FFFFFF0001FFFFFFF0000FFFFFF8000
310
7FFF0000FFFFFF80007FFF0003FFFFFFFFC0007FFFFFC00070008000FFFFFFC0
310
00FFFF000000FFF8000007FFFF80007F8000FFFFFF8000F8000FFFFFF8000FF8
310
000001FFFE0000007FFFFFF0001FFFFFFE0001FFFFFFC0003FFE0001FFFFFFC0
310
003FFF0003FFFFFFFFC0007FFFFFE00070008000FFFFFFC0007FFF0000007FF8
310
000003FFFF80007F0001FFFFFF8000F8000FFFFFF8000FF8000001FFFE000000
310
7FFFFFF0001FFFFFFE0001FFFFFFC0003FFE0001FFFFFFC0003FFF0003FFFFFF
310
FFC000FFFFFFE00070008000FFFFFFC0007FFF0000007FF8000003FFFF80007F
310
0001FFFFFF8000F8001FFFFFF8000FF8000001FFFE0000007FFFFFF0001FFFFF
310
FE0003FFFFFFE0003FFE0003FFFFFFE0003FFF0003FFFFFFFFC000FFFFFFE000
310
70008000FFFFFFC0007FFE0000007FF8000003FFFF80007F0001FFFFFF8000F0
310
001FFFFFF8000FF8000001FFFE0000007FFFFFF0001FFFFFFC0003FFFFFFE000
310
1FFC0003FFFFFFE0001FFF0003FFFFFFFFC000FFFFFFC00070008000FFFFFF80
310
007FFE0000007FF0000003FFFF80007F0001FFFFFF0000F0001FFFFFF8000FF8
310
000001FFFE0000007FFFFFF0001FFFFFFC0007FFFFFFF0001FFC0007FFFFFFF0
310
001FFF0003FFFFFFFFC000FFFFFFC00070008001FFFFFF0000FFFE0000003FF0
310
000001FFFF80007F0001FFFFFF0000F8001FFFFFF0000FF8000001FFFE000000
310
7FFFFFF0001FFFFFFC0007FFFFFFF0001FFC0007FFFFFFF0001FFF0003FFFFFF
310
FFC001FFFFFF80007000FFFFFFFFFE0000FFFE0008003FF0008001FFFF80007F
310
FFFFFFFFFC0000FFFFFFFFFFE0000FF8000001FFFE0000007FFFFFF0001FFFFF
310
F8000FFFFFFFF8000FF8000FFFFFFFF8000FFF0003FFFFFFFFFFFFFFFFFF0000
310
7000FFFFFFFFFC0000FFFC0008003FF0008001FFFF80007FFFFFFFFFF80001FF
310
FFFFFFFF80000FF8000001FFFE0000007FFFFFF0001FFFFFF8000FFFFFFFF800
310
0FF8000FFFFFFFF8000FFF0003FFFFFFFFFFFFFFFFFE0000F000FFFFFFFFE000
310
00FFFC000C003FE000C001FFFF80007FFFFFFFFFC00001FFFFFFFFFE00001FF8
310
000001FFFE0000007FFFFFF0001FFFFFF8000FFFFFFFF8000FF8000FFFFFFFF8
310
000FFF0003FFFFFFFFFFFFFFFFF00000F000FFFFFFFE000001FFFC000C001FE0
310
00C000FFFF80007FFFFFFFFE000001FFFFFFFFE000001FF80FFFFFFFFFFFFFC0
310
7FFFFFF0001FFFFFF8000FFFFFFFF8000FF8000FFFFFFFF8000FFF0003FFFFFF
310
FFFFFFFFFF800000F000FFFFFFC0000001FFFC001C001FE001C000FFFF80007F
310
FFFFFF80000003FFFFFFF80000001FF80FFFFFFFFFFFFFC07FFFFFF0001FFFFF
310
F8001FFFFFFFFC000FF8001FFFFFFFFC000FFF0003FFFFFFFFFFFFFFF0000001
310
F000FFFFF800000001FFF8001C001FE001C000FFFF80007FFFFFF800000003FF
310
FFFF800000003FF80FFFFFFFFFFFFFC07FFFFFF0001FFFFFF8001FFFFFFFFC00
310
0FF8001FFFFFFFFC000FFF0003FFFFFFFFFFFFFE00000001F000FFFFC0000000
310
03FFF8001E001FC001E000FFFF80007FFFFF8000000007FFFFFC000000003FF8
310
0FFFFFFFFFFFFFC07FFFFFF0001FFFFFF8001FFFFFFFFC000FF8001FFFFFFFFC
310
000FFF0003FFFFFFFFFFFFE000000003F000FFFE0000000007FFF8001E000FC0
310
01E0007FFF80007FFFFE0000000007FFFFE0000000007FF80FFFFFFFFFFFFFC0
310
7FFFFFF0001FFFFFF0001FFFFFFFFC0007F0001FFFFFFFFC0007FF0003FFFFFF
310
FFFFFF0000000003F000FFF80000000007FFF8001E000FC003E0007FFF80007F
310
FFF0000000000FFFFF8000000000FFF80FFFFFFFFFFFFFC07FFFFFF0001FFFFF
310
F0001FFFFFFFFC0007F0001FFFFFFFFC0007FF0003FFFFFFFFFFFC0000000007
310
F000FFE0000000000FFFF0003E000FC003E0007FFF80007FFFC0000000001FFF
310
FE0000000001FFF80FFFFFFFFFFFFFC07FFFFFF0001FFFFFF0001FFFFFFFFC00
310
07F0001FFFFFFFFC0007FF0003FFFFFFFFFFF0000000000FF000FFC000000000
310
1FFFF0003F000F8003F0003FFF80007FFF80000000003FFFF80000000003FFF8
310
0FFFFFFFFFFFFFC07FFFFFF0001FFFFFF0001FFFFFFFFC0007F0001FFFFFFFFC
310
0007FF0003FFFFFFFFFFE0000000001FF000FF00000000007FFFF0003F000780
310
03F0003FFF80007FFF00000000007FFFF00000000007FFF80FFFFFFFFFFFFFC0
310
7FFFFFF0001FFFFFF0001FFFFFFFFC0007F0001FFFFFFFFC0007FF0003FFFFFF
310
FFFF80000000007FF000FE0000000000FFFFE0003F00078007F0003FFF80007F
310
FE0000000001FFFFE0000000001FFFF80FFFFFFFFFFFFFC07FFFFFF0001FFFFF
310
F0001FFFFFFFFC0007F0001FFFFFFFFC0007FF0003FFFFFFFFFF0000000000FF
310
F000FC0000000003FFFFE0007F00078007F0003FFF80007FFC0000000007FFFF
310
C0000000007FFFF80FFFFFFFFFFFFFC07FFFFFF0001FFFFFF8001FFFFFFFFC00
310
0FF8001FFFFFFFFC000FFF0003FFFFFFFFFE0000000003FFF000FC000000000F
310
FFFFE0007F80070007F8001FFF80007FF8000000001FFFFF8000000001FFFFF8
310
0FFFFFFFFFFFFFC07FFFFFF0001FFFFFF8001FFFFFFFFC000FF8001FFFFFFFFC
310
000FFF0003FFFFFFFFFC000000000FFFF000F8000000007FFFFFE0007F800700
310
07F8001FFF80007FF000000000FFFFFF800000000FFFFFF80FFFFFFFFFFFFFC0
310
7FFFFFF0001FFFFFF8000FFFFFFFF8000FF8000FFFFFFFF8000FFF0003FFFFFF
310
FFFC000000007FFFF000F800000007FFFFFFC0007F8003000FF8001FFF80007F
310
F000000007FFFFFF000000007FFFFFF80FFFFFFFFFFFFFC07FFFFFF0001FFFFF
310
F8000FFFFFFFF8000FF8000FFFFFFFF8000FFF0003FFFFFFFFF80000000FFFFF
310
F000F0000000FFFFFFFFC000FF8003000FF8001FFF80007FE0000000FFFFFFFF
310
0000000FFFFFFFF8000001FFFE0000007FFFFFF0001FFFFFF8000FFFFFFFF800
310
0FF8000FFFFFFFF8000FFF0003FFFFFFFFF8000000FFFFFFF000F000000FFFFF
310
FFFFC000FFC002000FF8000FFF80007FE000001FFFFFFFFE000001FFFFFFFFF8
310
000001FFFE0000007FFFFFF0001FFFFFF8000FFFFFFFF8000FF8000FFFFFFFF8
310
000FFF0003FFFFFFFFF000001FFFFFFFF000E00000FFFFFFFFFFC000FFC00200
310
0FFC000FFF80007FE00001FFFFFFFFFE00001FFFFFFFFFF8000001FFFE000000
310
7FFFFFF0001FFFFFFC000FFFFFFFF8001FFC000FFFFFFFF8001FFF0003FFFFFF
310
FFF00001FFFFFFFFF000E00007FFFFFFFFFF8000FFC000001FFC000FFF80007F
310
C0000FFFFFFFFFFE0000FFFFFFFFFFF8000001FFFE0000007FFFFFF0001FFFFF
310
FC0007FFFFFFF0001FFC0007FFFFFFF0001FFF0003FFFFFFFFF00007FFFFFFFF
310
F000E0001FFFFFFFFFFF8000FFC000001FFC000FFF80007FC0003FFFFFFFFFFE
310
0001FFFFFFFFFFF8000001FFFE0000007FFFFFF0001FFFFFFC0007FFFFFFF000
310
1FFC0007FFFFFFF0001FFF0003FFFFFFFFF0001FFFFFFFFFF000E0003FFFFF00
310
03FF8001FFE000001FFC0007FF80007FC0007FFFFF0007FC0003FFFFF0003FF8
310
000001FFFE0000007FFFFFF0001FFFFFFC0003FFFFFFE0001FFC0003FFFFFFE0
310
001FFF0003FFFFFFFFF0003FFFFFFFFFF000E0003FFFFF0001FF8001FFE00000
310
1FFE0007FF80007FC0007FFFFE0003FC0007FFFFE0003FF8000001FFFE000000
310
7FFFFFF0001FFFFFFE0003FFFFFFE0003FFE0003FFFFFFE0003FFF0003FFFFFF
310
FFF0003FFFFF8001F000E0003FFFFF0001FF0001FFE000001FFE0007FF80007F
310
C0007FFFFE0003FC0007FFFFE0003FF8000001FFFE0000007FFFFFF0001FFFFF
310
FE0001FFFFFFC0003FFE0001FFFFFFC0003FFF0003FFFFFFFFF0003FFFFF0001
310
F000E0003FFFFF0003FF0001FFE000003FFE0007FF80007FC0007FFFFE0003FC
310
0007FFFFE0003FF8000001FFFE0000007FFFFFF0001FFFFFFF0001FFFFFFC000
310
7FFF0001FFFFFFC0007FFF0003FFFFFFFFF0003FFFFF0001F000E0003FFFFE00
310
03FF0003FFF000003FFE0003FF80007FC0007FFFFC0003FE0007FFFFE0003FF8
310
000001FFFE0000007FFFFFF0001FFFFFFF0000FFFFFF80007FFF0000FFFFFF80
310
007FFF0003FFFFFFFFF0003FFFFF0001F000E0003FFFFE0003FF0003FFF00000
310
3FFF0003FF80007FC0007FFFFC0007FE0007FFFFC0003FF8000001FFFE000000
310
7FFFFFF0001FFFFFFF80007FFFFF0000FFFF80007FFFFF0000FFFF0003FFFFFF
310
FFF0003FFFFF0003F000E0003FFFFC0003FE0003FFF000003FFF0003FF80007F
310
E0003FFFF80007FE0003FFFFC0007FF8000001FFFE0000007FFFFFF0001FFFFF
310
FF80003FFFFE0000FFFF80003FFFFE0000FFFF0003FFFFFFFFF0001FFFFE0003
310
F000F0001FFFF80003FE0003FFF000007FFF0001FF80007FE0003FFFF00007FE
310
0001FFFF80007FF8000001FFFE0000007FFFFFF0001FFFFFFFC0000FFFF80001
310
FFFFC0000FFFF80001FFFF0003FFFFFFFFF0001FFFFC0003F000F0000FFFF000
310
07FE0007FFF800007FFF0001FF80007FE0001FFFE00007FF0000FFFE00007FF8
310
000001FFFE0000007FFFFFF0001FFFFFFFC00003FFE00001FFFFC00003FFE000
310
01FFFF0003FFFFFFFFF8000FFFF80003F000F00003FFC00007FC0007FFF80000
310
7FFF8001FF80007FF00007FF80000FFF00007FF80000FFF8000001FFFE000000
310
7F80000000000001FFE000003E000003FFFFE000003E000003FFFF0003FFFFFF
310
FFF80003FFE00007F000F800000000000FFC0007FFF800007FFF8001FF80007F
310
F000000000000FFF000000000000FFF8000001FFFE0000007F80000000000001
310
FFF0000000000007FFFFF0000000000007FFFF0003FFFFFFFFFC00007E000007
310
F000F800000000000FFC0007FFF80000FFFF8000FF80007FF800000000001FFF
310
800000000001FFF8000001FFFE0000007F80000000000001FFF800000000000F
310
FFFFF800000000000FFFFF0003FFFFFFFFFC00000000000FF000FC0000000000
310
1FFC0007FFFC0000FFFF8000FF80007FF800000000003FFFC00000000001FFF8
310
000001FFFE0000007F80000000000001FFF800000000000FFFFFF80000000000
310
0FFFFF0003FFFFFFFFFE00000000001FF000FE00000000003FF8000FFFFC0000
310
FFFF8000FF80007FFC00000000003FFFC00000000003FFF8000001FFFE000000
310
7F80000000000001FFFC00000000001FFFFFFC00000000001FFFFF0003FFFFFF
310
FFFF00000000001FF000FF00000000003FF8000FFFFC0000FFFFC000FF80007F
310
FE00000000007FFFE00000000007FFF8000001FFFE0000007F80000000000001
310
FFFE00000000003FFFFFFE00000000003FFFFF0003FFFFFFFFFF80000000003F
310
F000FF80000000007FF8000FFFFC0001FFFFC0007F80007FFF0000000000FFFF
310
F0000000000FFFF800000000000000007F80000000000001FFFF8000000000FF
310
FFFFFF8000000000FFFFFF0003FFFFFFFFFFC0000000007FF000FFC000000000
310
FFF8000FFFFE0001FFFFC0007F80007FFF8000000001FFFFF8000000001FFFF8
310
00000000000000007F80000000000001FFFFC000000001FFFFFFFFC000000001
310
FFFFFF0003FFFFFFFFFFE000000000FFF000FFE000000003FFF0001FFFFE0001
310
FFFFC0007F80007FFFC000000007FFFFFE000000003FFFF80000000000000000
310
7F80000000000001FFFFE000000003FFFFFFFFE000000003FFFFFF0003FFFFFF
310
FFFFF000000003FFF000FFF80000000FFFF0001FFFFE0001FFFFE0007F80007F
310
FFF00000000FFFFFFF00000000FFFFF800000000000000007F80000000000001
310
FFFFF80000000FFFFFFFFFF80000000FFFFFFF0003FFFFFFFFFFFC0000000FFF
310
F000FFFE0000003FFFF0001FFFFE0003FFFFE0003F80007FFFFC0000003FFFFF
310
FFC0000003FFFFF800000000000000007F80000000000001FFFFFE0000003FFF
310
FFFFFFFE0000003FFFFFFF0003FFFFFFFFFFFF0000003FFFF000FFFF800000FF
310
FFF0001FFFFF0003FFFFE0003F80007FFFFF000001FFFFFFFFF800001FFFFFF8
310
00000000000000007F80000000000001FFFFFFC00001FFFFFFFFFFFFC00001FF
310
FFFFFF0003FFFFFFFFFFFFC00000FFFFF000FFFFF8000FFFFFFFFFFFFFFFFFFF
310
FFFFFFFFFFFFFFFFFFFFF0001FFFFFFFFFFF0000FFFFFFF80000000000000000
310
7FFFFFFFFFFFFFFFFFFFFFFC001FFFFFFFFFFFFFFC001FFFFFFFFFFFFFFFFFFF
310
FFFFFFFC001FFFFFF000FFFFFFFFFFFFFFFFFFFFFFFFFFFFFFFFFFFFFFFFFFFF
310
FFFFFFFFFFFFFFFFFFFFFFFFFFFFFFFFFFFFFFFFFFFFFFFFFFFFFFFFFFFFFFFF
310
FFFFFFFFFFFFFFFFFFFFFFFFFFFFFFFFFFFFFFFFFFFFFFFFFFFFFFFFFFFFFFFF
310
F000FFFFFFFFFFFFFFFFFFFFFFFFFFFFFFFFFFFFFFFFFFFFFFFFFFFFFFFFFFFF
310
FFFFFFFFFFFFFFFFFFFFFFFFFFFFFFFFFFFFFFFFFFFFFFFFFFFFFFFFFFFFFFFF
310
FFFFFFFFFFFFFFFFFFFFFFFFFFFFFFFFFFFFFFFFFFFFFFFFF000FFFFFFFFFFFF
310
FFFFFFFFFFFFFFFFFFFFFFFFFFFFFFFFFFFFFFFFFFFFFFFFFFFFFFFFFFFFFFFF
310
FFFFFFFFFFFFFFFFFFFFFFFFFFFFFFFFFFFFFFFFFFFFFFFFFFFFFFFFFFFFFFFF
310
FFFFFFFFFFFFFFFFFFFFFFFFFFFFFFFFF000FFFFFFFFFFFFFFFFFFFFFFFFFFFF
310
FFFFFFFFFFFFFFFFFFFFFFFFFFFFFFFFFFFFFFFFFFFFFFFFFFFFFFFFFFFFFFFF
310
FFFFFFFFFFFFFFFFFFFFFFFFFFFFFFFFFFFFFFFFFFFFFFFFFFFFFFFFFFFFFFFF
310
FFFFFFFFFFFFFFFFF000FFFFFFFFFFFFFFFFFFFFFFFFFFFFFFFFFFFFFFFFFFFF
310
FFFFFFFFFFFFFFFFFFFFFFFFFFFFFFFFFFFFFFFFFFFFFFFFFFFFFFFFFFFFFFFF
310
FFFFFFFFFFFFFFFFFFFFFFFFFFFFFFFFFFFFFFFFFFFFFFFFFFFFFFFFFFFFFFFF
310
F000FFFFFFFFFFFFFFFFFFFFFFFFFFFFFFFFFFFFFFFFFFFFFFFFFFFFFFFFFFFF
310
FFFFFFFFFFFFFFFFFFFFFFFFFFFFFFFFFFFFFFFFFFFFFFFFFFFFFFFFFFFFFFFF
310
FFFFFFFFFFFFFFFFFFFFFFFFFFFFFFFFFFFFFFFFFFFFFFFFF000FFFFFFFFFFFF
310
FFFFFFFFFFFFFFFFFFFFFFFFFFFFFFFFFFFFFFFFFFFFFFFFFFFFFFFFFFFFFFFF
310
FFFFFFFFFFFFFFFFFFFFFFFFFFFFFFFFFFFFFFFFFFFFFFFFFFFFFFFFFFFFFFFF
310
FFFFFFFFFFFFFFFFFFFFFFFFFFFFFFFFF000FFFFFFFFFFFFFFFFFFFFFFFFFFFF
310
FFFFFFFFFFFFFFFFFFFFFFFFFFFFFFFFFFFFFFFFFFFFFFFFFFFFFFFFFFFFFFFF
310
FFFFFFFFFFFFFFFFFFFFFFFFFFFFFFFFFFFFFFFFFFFFFFFFFFFFFFFFFFFFFFFF
310
FFFFFFFFFFFFFFFFF000FFFFFFFFFFFFFFFFFFFFFFFFFFFFFFFFFFFFFFFFFFFF
310
FFFFFFFFFFFFFFFFFFFFFFFFFFFFFFFFFFFFFFFFFFFFFFFFFFFFFFFFFFFFFFFF
310
FFFFFFFFFFFFFFFFFFFFFFFFFFFFFFFFFFFFFFFFFFFFFFFFFFFFFFFFFFFFFFFF
310
F000FFFFFFFFFFFFFFFFFFFFFFFFFFFFFFFFFFFFFFFFFFFFFFFFFFFFFFFFFFFF
310
FFFFFFFFFFFFFFFFFFFFFFFFFFFFFFFFFFFFFFFFFFFFFFFFFFFFFFFFFFFFFFFF
310
FFFFFFFFFFFFFFFFFFFFFFFFFFFFFFFFFFFFFFFFFFFFFFFFF000FFFFFFFFFFFF
310
FFFFFFFFFFFFFFFFFFFFFFFFFFFFFFFFFFFFFFFFFFFFFFFFFFFFFFFFFFFFFFFF
310
FFFFFFFFFFFFFFFFFFFFFFFFFFFFFFFFFFFFFFFFFFFFFFFFFFFFFFFFFFFFFFFF
310
FFFFFFFFFFFFFFFFFFFFFFFFFFFFFFFFF000FFFFFFFFFFFFFFFFFFFFFFFFFFFF
310
FFFFFFFFFFFFFFFFFFFFFFFFFFFFFFFFFFFFFFFFFFFFFFFFFFFFFFFFFFFFFFFF
310
FFFFFFFFFFFFFFFFFFFFFFFFFFFFFFFFFFFFFFFFFFFFFFFFFFFFFFFFFFFFFFFF
310
FFFFFFFFFFFFFFFFF000FFFFFFFFFFFFFFFFFFFFFFFFFFFFFFFFFFFFFFFFFFFF
310
FFFFFFFFFFFFFFFFFFFFFFFFFFFFFFFFFFFFFFFFFFFFFFFFFFFFFFFFFFFFFFFF
310
FFFFFFFFFFFFFFFFFFFFFFFFFFFFFFFFFFFFFFFFFFFFFFFFFFFFFFFFFFFFFFFF
310
F000FFFFFFFFFFFFFFFFFFFFFFFFFFFFFFFFFFFFFFFFFFFFFFFFFFFFFFFFFFFF
310
FFFFFFFFFFFFFFFFFFFFFFFFFFFFFFFFFFFFFFFFFFFFFFFFFFFFFFFFFFFFFFFF
310
FFFFFFFFFFFFFFFFFFFFFFFFFFFFFFFFFFFFFFFFFFFFFFFFF000FFFFFFFFFFFF
310
FFFFFFFFFFFFFFFFFFFFFFFFFFFFFFFFFFFFFFFFFFFFFFFFFFFFFFFFFFFFFFFF
310
FFFFFFFFFFFFFFFFFFFFFFFFFFFFFFFFFFFFFFFFFFFFFFFFFFFFFFFFFFFFFFFF
310
FFFFFFFFFFFFFFFFFFFFFFFFFFFFFFFFF000FFFFFFFFFFFFFFFFFFFFFFFFFFFF
310
FFFFFFFFFFFFFFFFFFFFFFFFFFFFFFFFFFFFFFFFFFFFFFFFFFFFFFFFFFFFFFFF
310
FFFFFFFFFFFFFFFFFFFFFFFFFFFFFFFFFFFFFFFFFFFFFFFFFFFFFFFFFFFFFFFF
310
FFFFFFFFFFFFFFFFF000FFFFFFFFFFFFFFFFFFFFFFFFFFFFFFFFFFFFFFFFFFFF
310
FFFFFFFFFFFFFFFFFFFFFFFFFFFFFFFFFFFFFFFFFFFFFFFFFFFFFFFFFFFFFFFF
310
FFFFFFFFFFFFFFFFFFFFFFFFFFFFFFFFFFFFFFFFFFFFFFFFFFFFFFFFFFFFFFFF
310
F000FFFFFFFFFFFFFFFFFFFFFFFFFFFFFFFFFFFFFFFFFFFFFFFFFFFFFFFFFFFF
310
FFFFFFFFFFFFFFFFFFFFFFFFFFFFFFFFFFFFFFFFFFFFFFFFFFFFFFFFFFFFFFFF
310
FFFFFFFFFFFFFFFFFFFFFFFFFFFFFFFFFFFFFFFFFFFFFFFFF000FFFFFFFFFFFF
310
FFFFFFFFFFFFFFFFFFFFFFFFFFFFFFFFFFFFFFFFFFFFFFFFFFFFFFFFFFFFFFFF
310
FFFFFFFFFFFFFFFFFFFFFFFFFFFFFFFFFFFFFFFFFFFFFFFFFFFFFFFFFFFFFFFF
310
FFFFFFFFFFFFFFFFFFFFFFFFFFFFFFFFF000FFFFFFFFFFFFFFFFFFFFFFFFFFFF
310
FFFFFFFFFFFFFFFFFFFFFFFFFFFFFFFFFFFFFFFFFFFFFFFFFFFFFFFFFFFFFFFF
310
FFFFFFFFFFFFFFFFFFFFFFFFFFFFFFFFFFFFFFFFFFFFFFFFFFFFFFFFFFFFFFFF
310
FFFFFFFFFFFFFFFFF000FFFFFFFFFFFFFFFFFFFFFFFFFFFFFFFFFFFFFFFFFFFF
310
FFFFFFFFFFFFFFFFFFFFFFFFFFFFFFFFFFFFFFFFFFFFFFFFFFFFFFFFFFFFFFFF
310
FFFFFFFFFFFFFFFFFFFFFFFFFFFFFFFFFFFFFFFFFFFFFFFFFFFFFFFFFFFFFFFF
310
F000FFFFFFFFFFFFFFFFFFFFFFFFFFFFFFFFFFFFFFFFFFFFFFFFFFFFFFFFFFFF
310
FFFFFFFFFFFFFFFFFFFFFFFFFFFFFFFFFFFFFFFFFFFFFFFFFFFFFFFFFFFFFFFF
310
FFFFFFFFFFFFFFFFFFFFFFFFFFFFFFFFFFFFFFFFFFFFFFFFF000FFFFFFFFFFFF
310
FFFFFFFFFFFFFFFFFFFFFFFFFFFFFFFFFFFFFFFFFFFFFFFFFFFFFFFFFFFFFFFF
310
FFFFFFFFFFFFFFFFFFFFFFFFFFFFFFFFFFFFFFFFFFFFFFFFFFFFFFFFFFFFFFFF
310
FFFFFFFFFFFFFFFFFFFFFFFFFFFFFFFFF0000000000000000000000000000000
310
0000000000000000000000000000000000000000000000000000000000000000
310
0000000000000000000000000000000000000000000000000000000000000000
310
0000000000000000000000000000000000000000000000000000000000000000
310
0000000000000000000000000000000000000000000000000000000000000000
310
0000000000000000000000000000000000000000000000000000000000000000
310
0000000000000000000000000000000000000000000000000000000000000000
310
0000000000000000000000000000000000000000000000000000000000000000
310
0000000000000000000000000000000000000000000000000000000000000000
310
0000000000000000000000000000000000000000000000000000000000000000
310
0000000000000000000000000000000000000000000000000000000000000000
310
0000000000000000000000000000000000000000000000000000000000000000
310
0000000000000000000000000000000000000000000000000000000000000000
310
0000000000000000000000000000000000000000000000000000000000000000
310
0000000000000000000000000000000000000000000000000000000000000000
310
0000000000000000000000000000000000000000000000000000000000000000
  1
OLE
  0
ENDSEC
  0
SECTION
  2
OBJECTS
  0
DICTIONARY
  5
C
330
0
100
AcDbDictionary
281
     1
  3
ACAD_GROUP
350
D
  3
ACAD_LAYOUT
350
1A
  3
ACAD_MLINESTYLE
350
17
  3
ACAD_PLOTSETTINGS
350
19
  3
ACAD_PLOTSTYLENAME
350
E
  0
DICTIONARY
  5
D
102
{ACAD_REACTORS
330
C
102
}
330
C
100
AcDbDictionary
281
     1
  0
DICTIONARY
  5
1A
102
{ACAD_REACTORS
330
C
102
}
330
C
100
AcDbDictionary
281
     1
  3
Layout1
350
1E
  3
Layout2
350
26
  3
Model
350
22
  0
DICTIONARY
  5
17
102
{ACAD_REACTORS
330
C
102
}
330
C
100
AcDbDictionary
281
     1
  3
Standard
350
18
  0
DICTIONARY
  5
19
102
{ACAD_REACTORS
330
C
102
}
330
C
100
AcDbDictionary
281
     1
  0
ACDBDICTIONARYWDFLT
  5
E
102
{ACAD_REACTORS
330
C
102
}
330
C
100
AcDbDictionary
281
     1
  3
Normal
350
F
100
AcDbDictionaryWithDefault
340
F
  0
LAYOUT
  5
1E
102
{ACAD_REACTORS
330
1A
102
}
330
1A
100
AcDbPlotSettings
  1

  2
none_device
  4

  6

 40
0.0
 41
0.0
 42
0.0
 43
0.0
 44
0.0
 45
0.0
 46
0.0
 47
0.0
 48
0.0
 49
0.0
140
0.0
141
0.0
142
1.0
143
1.0
 70
   688
 72
     0
 73
     0
 74
     5
  7

 75
    16
147
1.0
148
0.0
149
0.0
100
AcDbLayout
  1
Layout1
 70
     1
 71
     1
 10
0.0
 20
0.0
 11
420.0
 21
297.0
 12
0.0
 22
0.0
 32
0.0
 14
1.0000000000E+20
 24
1.0000000000E+20
 34
1.0000000000E+20
 15
-1.0000000000E+20
 25
-1.0000000000E+20
 35
-1.0000000000E+20
146
0.0
 13
0.0
 23
0.0
 33
0.0
 16
1.0
 26
0.0
 36
0.0
 17
0.0
 27
1.0
 37
0.0
 76
     0
330
1B
  0
LAYOUT
  5
26
102
{ACAD_REACTORS
330
1A
102
}
330
1A
100
AcDbPlotSettings
  1

  2
none_device
  4

  6

 40
0.0
 41
0.0
 42
0.0
 43
0.0
 44
0.0
 45
0.0
 46
0.0
 47
0.0
 48
0.0
 49
0.0
140
0.0
141
0.0
142
1.0
143
1.0
 70
   688
 72
     0
 73
     0
 74
     5
  7

 75
    16
147
1.0
148
0.0
149
0.0
100
AcDbLayout
  1
Layout2
 70
     1
 71
     2
 10
0.0
 20
0.0
 11
0.0
 21
0.0
 12
0.0
 22
0.0
 32
0.0
 14
0.0
 24
0.0
 34
0.0
 15
0.0
 25
0.0
 35
0.0
146
0.0
 13
0.0
 23
0.0
 33
0.0
 16
1.0
 26
0.0
 36
0.0
 17
0.0
 27
1.0
 37
0.0
 76
     0
330
23
  0
LAYOUT
  5
22
102
{ACAD_REACTORS
330
1A
102
}
330
1A
100
AcDbPlotSettings
  1

  2
none_device
  4

  6

 40
0.0
 41
0.0
 42
0.0
 43
0.0
 44
0.0
 45
0.0
 46
0.0
 47
0.0
 48
0.0
 49
0.0
140
0.0
141
0.0
142
1.0
143
1.0
 70
  1712
 72
     0
 73
     0
 74
     0
  7

 75
     0
147
1.0
148
0.0
149
0.0
100
AcDbLayout
  1
Model
 70
     1
 71
     0
 10
0.0
 20
0.0
 11
297.0
 21
210.0
 12
0.0
 22
0.0
 32
0.0
 14
0.0
 24
0.0
 34
0.0
 15
297.0
 25
210.0
 35
0.0
146
0.0
 13
0.0
 23
0.0
 33
0.0
 16
1.0
 26
0.0
 36
0.0
 17
0.0
 27
1.0
 37
0.0
 76
     0
330
1F
331
29
  0
MLINESTYLE
  5
18
102
{ACAD_REACTORS
330
17
102
}
330
17
100
AcDbMlineStyle
  2
Standard
 70
     0
  3

 62
   256
 51
90.0
 52
90.0
 71
     2
 49
0.5
 62
   256
  6
BYLAYER
 49
-0.5
 62
   256
  6
BYLAYER
  0
ACDBPLACEHOLDER
  5
F
102
{ACAD_REACTORS
330
E
102
}
330
E
  0
ENDSEC
  0
EOF
