  0
SECTION
  2
HEADER
  9
$ACADVER
  1
AC1015
  9
$ACADMAINTVER
 70
     6
  9
$DWGCODEPAGE
  3
ANSI_1252
  9
$INSBASE
 10
0.0
 20
0.0
 30
0.0
  9
$EXTMIN
 10
0.0
 20
0.0
 30
0.0
  9
$EXTMAX
 10
297.0
 20
210.0
 30
0.0
  9
$LIMMIN
 10
0.0
 20
0.0
  9
$LIMMAX
 10
297.0
 20
210.0
  9
$ORTHOMODE
 70
     0
  9
$REGENMODE
 70
     1
  9
$FILLMODE
 70
     1
  9
$QTEXTMODE
 70
     0
  9
$MIRRTEXT
 70
     1
  9
$LTSCALE
 40
1.0
  9
$ATTMODE
 70
     1
  9
$TEXTSIZE
 40
2.0
  9
$TRACEWID
 40
1.0
  9
$TEXTSTYLE
  7
Standard
  9
$CLAYER
  8
0
  9
$CELTYPE
  6
ByLayer
  9
$CECOLOR
 62
   256
  9
$CELTSCALE
 40
1.0
  9
$DISPSILH
 70
     0
  9
$DIMSCALE
 40
1.0
  9
$DIMASZ
 40
3.0
  9
$DIMEXO
 40
0.0
  9
$DIMDLI
 40
3.75
  9
$DIMRND
 40
0.0
  9
$DIMDLE
 40
0.0
  9
$DIMEXE
 40
1.0
  9
$DIMTP
 40
0.0
  9
$DIMTM
 40
0.0
  9
$DIMTXT
 40
2.0
  9
$DIMCEN
 40
2.5
  9
$DIMTSZ
 40
0.0
  9
$DIMTOL
 70
     0
  9
$DIMLIM
 70
     0
  9
$DIMTIH
 70
     1
  9
$DIMTOH
 70
     1
  9
$DIMSE1
 70
     0
  9
$DIMSE2
 70
     0
  9
$DIMTAD
 70
     1
  9
$DIMZIN
 70
     0
  9
$DIMBLK
  1

  9
$DIMASO
 70
     1
  9
$DIMSHO
 70
     1
  9
$DIMPOST
  1

  9
$DIMAPOST
  1

  9
$DIMALT
 70
     0
  9
$DIMALTD
 70
     3
  9
$DIMALTF
 40
0.0393700787
  9
$DIMLFAC
 40
1.0
  9
$DIMTOFL
 70
     1
  9
$DIMTVP
 40
0.0
  9
$DIMTIX
 70
     0
  9
$DIMSOXD
 70
     0
  9
$DIMSAH
 70
     0
  9
$DIMBLK1
  1

  9
$DIMBLK2
  1

  9
$DIMSTYLE
  2
ISO-25
  9
$DIMCLRD
 70
     0
  9
$DIMCLRE
 70
     0
  9
$DIMCLRT
 70
     0
  9
$DIMTFAC
 40
1.0
  9
$DIMGAP
 40
1.524
  9
$DIMJUST
 70
     0
  9
$DIMSD1
 70
     0
  9
$DIMSD2
 70
     0
  9
$DIMTOLJ
 70
     0
  9
$DIMTZIN
 70
     0
  9
$DIMALTZ
 70
     0
  9
$DIMALTTZ
 70
     0
  9
$DIMUPT
 70
     0
  9
$DIMDEC
 70
     2
  9
$DIMTDEC
 70
     3
  9
$DIMALTU
 70
     2
  9
$DIMALTTD
 70
     3
  9
$DIMTXSTY
  7
Standard
  9
$DIMAUNIT
 70
     0
  9
$DIMADEC
 70
     2
  9
$DIMALTRND
 40
0.0
  9
$DIMAZIN
 70
     0
  9
$DIMDSEP
 70
    44
  9
$DIMATFIT
 70
     3
  9
$DIMFRAC
 70
     0
  9
$DIMLDRBLK
  1

  9
$DIMLUNIT
 70
     2
  9
$DIMLWD
 70
    -2
  9
$DIMLWE
 70
    -2
  9
$DIMTMOVE
 70
     0
  9
$LUNITS
 70
     2
  9
$LUPREC
 70
     2
  9
$SKETCHINC
 40
1.0
  9
$FILLETRAD
 40
10.0
  9
$AUNITS
 70
     0
  9
$AUPREC
 70
     2
  9
$MENU
  1
.
  9
$ELEVATION
 40
0.0
  9
$PELEVATION
 40
0.0
  9
$THICKNESS
 40
0.0
  9
$LIMCHECK
 70
     0
  9
$CHAMFERA
 40
10.0
  9
$CHAMFERB
 40
10.0
  9
$CHAMFERC
 40
20.0
  9
$CHAMFERD
 40
0.0
  9
$SKPOLY
 70
     0
  9
$TDCREATE
 40
2455623.390467893
  9
$TDUCREATE
 40
2455623.348801227
  9
$TDUPDATE
 40
2455623.390467905
  9
$TDUUPDATE
 40
2455623.348801238
  9
$TDINDWG
 40
0.0000000116
  9
$TDUSRTIMER
 40
0.0000000116
  9
$USRTIMER
 70
     1
  9
$ANGBASE
 50
0.0
  9
$ANGDIR
 70
     0
  9
$PDMODE
 70
     0
  9
$PDSIZE
 40
-1.0
  9
$PLINEWID
 40
0.0
  9
$SPLFRAME
 70
     0
  9
$SPLINETYPE
 70
     6
  9
$SPLINESEGS
 70
     8
  9
$HANDSEED
  5
31B
  9
$SURFTAB1
 70
     6
  9
$SURFTAB2
 70
     6
  9
$SURFTYPE
 70
     6
  9
$SURFU
 70
     6
  9
$SURFV
 70
     6
  9
$UCSBASE
  2

  9
$UCSNAME
  2

  9
$UCSORG
 10
0.0
 20
0.0
 30
0.0
  9
$UCSXDIR
 10
1.0
 20
0.0
 30
0.0
  9
$UCSYDIR
 10
0.0
 20
1.0
 30
0.0
  9
$UCSORTHOREF
  2

  9
$UCSORTHOVIEW
 70
     0
  9
$UCSORGTOP
 10
0.0
 20
0.0
 30
0.0
  9
$UCSORGBOTTOM
 10
0.0
 20
0.0
 30
0.0
  9
$UCSORGLEFT
 10
0.0
 20
0.0
 30
0.0
  9
$UCSORGRIGHT
 10
0.0
 20
0.0
 30
0.0
  9
$UCSORGFRONT
 10
0.0
 20
0.0
 30
0.0
  9
$UCSORGBACK
 10
0.0
 20
0.0
 30
0.0
  9
$PUCSBASE
  2

  9
$PUCSNAME
  2

  9
$PUCSORG
 10
0.0
 20
0.0
 30
0.0
  9
$PUCSXDIR
 10
1.0
 20
0.0
 30
0.0
  9
$PUCSYDIR
 10
0.0
 20
1.0
 30
0.0
  9
$PUCSORTHOREF
  2

  9
$PUCSORTHOVIEW
 70
     0
  9
$PUCSORGTOP
 10
0.0
 20
0.0
 30
0.0
  9
$PUCSORGBOTTOM
 10
0.0
 20
0.0
 30
0.0
  9
$PUCSORGLEFT
 10
0.0
 20
0.0
 30
0.0
  9
$PUCSORGRIGHT
 10
0.0
 20
0.0
 30
0.0
  9
$PUCSORGFRONT
 10
0.0
 20
0.0
 30
0.0
  9
$PUCSORGBACK
 10
0.0
 20
0.0
 30
0.0
  9
$USERI1
 70
     0
  9
$USERI2
 70
     0
  9
$USERI3
 70
     0
  9
$USERI4
 70
     0
  9
$USERI5
 70
     0
  9
$USERR1
 40
0.0
  9
$USERR2
 40
0.0
  9
$USERR3
 40
0.0
  9
$USERR4
 40
0.0
  9
$USERR5
 40
0.0
  9
$WORLDVIEW
 70
     1
  9
$SHADEDGE
 70
     3
  9
$SHADEDIF
 70
    70
  9
$TILEMODE
 70
     1
  9
$MAXACTVP
 70
    64
  9
$PINSBASE
 10
0.0
 20
0.0
 30
0.0
  9
$PLIMCHECK
 70
     0
  9
$PEXTMIN
 10
1.0000000000E+20
 20
1.0000000000E+20
 30
1.0000000000E+20
  9
$PEXTMAX
 10
-1.0000000000E+20
 20
-1.0000000000E+20
 30
-1.0000000000E+20
  9
$PLIMMIN
 10
0.0
 20
0.0
  9
$PLIMMAX
 10
420.0
 20
297.0
  9
$UNITMODE
 70
     0
  9
$VISRETAIN
 70
     1
  9
$PLINEGEN
 70
     0
  9
$PSLTSCALE
 70
     1
  9
$TREEDEPTH
 70
  3020
  9
$CMLSTYLE
  2
Standard
  9
$CMLJUST
 70
     0
  9
$CMLSCALE
 40
20.0
  9
$PROXYGRAPHICS
 70
     1
  9
$MEASUREMENT
 70
     1
  9
$CELWEIGHT
370
    -1
  9
$ENDCAPS
280
     0
  9
$JOINSTYLE
280
     0
  9
$LWDISPLAY
290
     1
  9
$INSUNITS
 70
     4
  9
$HYPERLINKBASE
  1

  9
$STYLESHEET
  1

  9
$XEDIT
290
     1
  9
$CEPSNTYPE
380
     0
  9
$PSTYLEMODE
290
     1
  9
$FINGERPRINTGUID
  2
{AA927987-ACF5-4872-8EB9-07EA0E7FBF7C}
  9
$VERSIONGUID
  2
{FAEB1C32-E019-11D5-929B-00C0DF256EC4}
  9
$EXTNAMES
290
     1
  9
$PSVPSCALE
 40
0.0
  9
$OLESTARTUP
290
     0
  0
ENDSEC
  0
SECTION
  2
CLASSES
  0
CLASS
  1
ACDBDICTIONARYWDFLT
  2
AcDbDictionaryWithDefault
  3
ObjectDBX Classes
 90
        0
280
     0
281
     0
  0
CLASS
  1
VISUALSTYLE
  2
AcDbVisualStyle
  3
ObjectDBX Classes
 90
     4095
280
     0
281
     0
  0
CLASS
  1
DICTIONARYVAR
  2
AcDbDictionaryVar
  3
ObjectDBX Classes
 90
        0
280
     0
281
     0
  0
CLASS
  1
ACDBPLACEHOLDER
  2
AcDbPlaceHolder
  3
ObjectDBX Classes
 90
        0
280
     0
281
     0
  0
CLASS
  1
LAYOUT
  2
AcDbLayout
  3
ObjectDBX Classes
 90
        0
280
     0
281
     0
  0
ENDSEC
  0
SECTION
  2
TABLES
  0
TABLE
  2
VPORT
  5
8
330
0
100
AcDbSymbolTable
 70
     1
  0
VPORT
  5
29
330
8
100
AcDbSymbolTableRecord
100
AcDbViewportTableRecord
  2
*Active
 70
     0
 10
0.0
 20
0.0
 11
1.0
 21
1.0
 12
148.5
 22
105.0
 13
0.0
 23
0.0
 14
10.0
 24
10.0
 15
10.0
 25
10.0
 16
0.0
 26
0.0
 36
1.0
 17
0.0
 27
0.0
 37
0.0
 40
210.0
 41
1.4142857143
 42
50.0
 43
0.0
 44
0.0
 50
0.0
 51
0.0
 71
     0
 72
  2000
 73
     1
 74
     3
 75
     0
 76
     0
 77
     0
 78
     0
281
     0
 65
     1
110
0.0
120
0.0
130
0.0
111
1.0
121
0.0
131
0.0
112
0.0
122
1.0
132
0.0
 79
     0
146
0.0
  0
ENDTAB
  0
TABLE
  2
LTYPE
  5
5
330
0
100
AcDbSymbolTable
 70
     6
  0
LTYPE
  5
14
330
5
100
AcDbSymbolTableRecord
100
AcDbLinetypeTableRecord
  2
ByBlock
 70
     0
  3

 72
    65
 73
     0
 40
0.0
  0
LTYPE
  5
15
330
5
100
AcDbSymbolTableRecord
100
AcDbLinetypeTableRecord
  2
ByLayer
 70
     0
  3

 72
    65
 73
     0
 40
0.0
  0
LTYPE
  5
16
330
5
100
AcDbSymbolTableRecord
100
AcDbLinetypeTableRecord
  2
Continuous
 70
     0
  3
Solid line
 72
    65
 73
     0
 40
0.0
  0
LTYPE
  5
3B
330
5
100
AcDbSymbolTableRecord
100
AcDbLinetypeTableRecord
  2
HIDDEN
 70
     0
  3
Hidden __ __ __ __ __ __ __ __ __ __ __ __ __ __
 72
    65
 73
     2
 40
1.905
 49
1.27
 74
     0
 49
-0.635
 74
     0
  0
LTYPE
  5
3C
330
5
100
AcDbSymbolTableRecord
100
AcDbLinetypeTableRecord
  2
PHANTOM
 70
     0
  3
Phantom ______  __  __  ______  __  __  ______
 72
    65
 73
     6
 40
12.7
 49
6.35
 74
     0
 49
-1.27
 74
     0
 49
1.27
 74
     0
 49
-1.27
 74
     0
 49
1.27
 74
     0
 49
-1.27
 74
     0
  0
LTYPE
  5
3D
330
5
100
AcDbSymbolTableRecord
100
AcDbLinetypeTableRecord
  2
CENTER
 70
     0
  3
Center ____ _ ____ _ ____ _ ____ _ ____ _ ____
 72
    65
 73
     4
 40
10.16
 49
6.35
 74
     0
 49
-1.27
 74
     0
 49
1.27
 74
     0
 49
-1.27
 74
     0
  0
LTYPE
  5
3E
330
5
100
AcDbSymbolTableRecord
100
AcDbLinetypeTableRecord
  2
CENTERX2
 70
     0
  3
Center (2x) ________  __  ________  __  _____
 72
    65
 73
     4
 40
20.32
 49
12.7
 74
     0
 49
-2.54
 74
     0
 49
2.54
 74
     0
 49
-2.54
 74
     0
  0
LTYPE
  5
3F
330
5
100
AcDbSymbolTableRecord
100
AcDbLinetypeTableRecord
  2
DOT2
 70
     0
  3
Dot (.5x) ........................................
 72
    65
 73
     2
 40
0.635
 49
0.0
 74
     0
 49
-0.635
 74
     0
  0
ENDTAB
  0
TABLE
  2
LAYER
  5
2
330
0
100
AcDbSymbolTable
 70
     5
  0
LAYER
  5
10
330
2
100
AcDbSymbolTableRecord
100
AcDbLayerTableRecord
  2
0
 70
     0
 62
     7
  6
Continuous
370
    -3
390
F
  0
LAYER
  5
40
330
2
100
AcDbSymbolTableRecord
100
AcDbLayerTableRecord
  2
FORMAT
 70
     0
 62
     7
  6
Continuous
370
    -3
390
F
  0
LAYER
  5
41
330
2
100
AcDbSymbolTableRecord
100
AcDbLayerTableRecord
  2
VERMASSUNG
 70
     0
 62
     7
  6
Continuous
370
    -3
390
F
  0
LAYER
  5
42
330
2
100
AcDbSymbolTableRecord
100
AcDbLayerTableRecord
  2
KOPF_DÜNN
 70
     0
 62
     7
  6
Continuous
370
    -3
390
F
  0
LAYER
  5
43
330
2
100
AcDbSymbolTableRecord
100
AcDbLayerTableRecord
  2
KOPF_DICK
 70
     0
 62
     7
  6
Continuous
370
    15
390
F
  0
ENDTAB
  0
TABLE
  2
STYLE
  5
3
330
0
100
AcDbSymbolTable
 70
     3
  0
STYLE
  5
11
330
3
100
AcDbSymbolTableRecord
100
AcDbTextStyleTableRecord
  2
Standard
 70
     0
 40
0.0
 41
1.0
 50
0.0
 71
     0
 42
2.5
  3
txt
  4

  0
STYLE
  5
44
330
3
100
AcDbSymbolTableRecord
100
AcDbTextStyleTableRecord
  2
SLDTEXTSTYLE0
 70
     0
 40
0.0
 41
0.7
 50
0.0
 71
     0
 42
0.2
  3
TXT
  4

  0
STYLE
  5
48
330
3
100
AcDbSymbolTableRecord
100
AcDbTextStyleTableRecord
  2
SLDTEXTSTYLE1
 70
     0
 40
0.0
 41
0.6526315789
 50
0.0
 71
     0
 42
0.2
  3
TXT
  4

  0
ENDTAB
  0
TABLE
  2
VIEW
  5
6
330
0
100
AcDbSymbolTable
 70
     0
  0
ENDTAB
  0
TABLE
  2
UCS
  5
7
330
0
100
AcDbSymbolTable
 70
     0
  0
ENDTAB
  0
TABLE
  2
APPID
  5
9
330
0
100
AcDbSymbolTable
 70
     1
  0
APPID
  5
12
330
9
100
AcDbSymbolTableRecord
100
AcDbRegAppTableRecord
  2
ACAD
 70
     0
  0
ENDTAB
  0
TABLE
  2
DIMSTYLE
  5
A
330
0
100
AcDbSymbolTable
 70
     4
100
AcDbDimStyleTable
  0
DIMSTYLE
105
27
330
A
100
AcDbSymbolTableRecord
100
AcDbDimStyleTableRecord
  2
ISO-25
 70
     0
 41
2.5
 42
0.625
 43
3.75
 44
1.25
 73
     0
 74
     0
 77
     1
 78
     8
140
2.5
141
2.5
143
0.0393700787
147
0.625
171
     3
172
     1
271
     2
272
     2
274
     3
278
    44
283
     0
284
     8
340
11
  0
DIMSTYLE
105
254
102
{ACAD_REACTORS
330
253
330
25E
330
268
330
27F
102
}
330
A
100
AcDbSymbolTableRecord
100
AcDbDimStyleTableRecord
  2
SLDDIMSTYLE0
 70
     0
 41
3.0
 44
0.0
 45
0.000000001
 73
     0
 74
     0
 77
     1
 78
    12
140
2.0
147
0.5
173
     1
271
     2
272
     3
284
    12
340
44
  0
DIMSTYLE
105
273
102
{ACAD_REACTORS
330
272
102
}
330
A
100
AcDbSymbolTableRecord
100
AcDbDimStyleTableRecord
  2
SLDDIMSTYLE1
 70
     0
 41
3.0
 44
0.0
 73
     0
 74
     0
 77
     1
 78
    12
140
2.0
147
0.5
173
     1
272
     3
284
    12
340
44
  0
DIMSTYLE
105
2FE
102
{ACAD_REACTORS
330
2FD
102
}
330
A
100
AcDbSymbolTableRecord
100
AcDbDimStyleTableRecord
  2
SLDDIMSTYLE2
 70
     0
 41
3.0
 44
0.0
 45
0.000000001
 73
     0
 74
     0
 77
     1
 78
    12
140
2.0
147
0.5
173
     1
271
     2
272
     3
284
    12
340
44
  0
ENDTAB
  0
TABLE
  2
BLOCK_RECORD
  5
1
330
0
100
AcDbSymbolTable
 70
     8
  0
BLOCK_RECORD
  5
1F
330
1
100
AcDbSymbolTableRecord
100
AcDbBlockTableRecord
  2
*Model_Space
340
22
  0
BLOCK_RECORD
  5
1B
330
1
100
AcDbSymbolTableRecord
100
AcDbBlockTableRecord
  2
*Paper_Space
340
1E
  0
BLOCK_RECORD
  5
23
330
1
100
AcDbSymbolTableRecord
100
AcDbBlockTableRecord
  2
*Paper_Space0
340
26
  0
BLOCK_RECORD
  5
255
330
1
100
AcDbSymbolTableRecord
100
AcDbBlockTableRecord
  2
*D1
340
0
  0
BLOCK_RECORD
  5
25F
330
1
100
AcDbSymbolTableRecord
100
AcDbBlockTableRecord
  2
*D2
340
0
  0
BLOCK_RECORD
  5
269
330
1
100
AcDbSymbolTableRecord
100
AcDbBlockTableRecord
  2
*D3
340
0
  0
BLOCK_RECORD
  5
274
330
1
100
AcDbSymbolTableRecord
100
AcDbBlockTableRecord
  2
*D4
340
0
  0
BLOCK_RECORD
  5
280
330
1
100
AcDbSymbolTableRecord
100
AcDbBlockTableRecord
  2
*D5
340
0
  0
BLOCK_RECORD
  5
2FF
330
1
100
AcDbSymbolTableRecord
100
AcDbBlockTableRecord
  2
*D6
340
0
  0
BLOCK_RECORD
  5
309
330
1
100
AcDbSymbolTableRecord
100
AcDbBlockTableRecord
  2
SW_CENTERMARKSYMBOL_0
340
0
102
{BLKREFS
331
314
102
}
  0
ENDTAB
  0
ENDSEC
  0
SECTION
  2
BLOCKS
  0
BLOCK
  5
20
330
1F
100
AcDbEntity
  8
0
100
AcDbBlockBegin
  2
*Model_Space
 70
     0
 10
0.0
 20
0.0
 30
0.0
  3
*Model_Space
  1

  0
ENDBLK
  5
21
330
1F
100
AcDbEntity
  8
0
100
AcDbBlockEnd
  0
BLOCK
  5
1C
330
1B
100
AcDbEntity
 67
     1
  8
0
100
AcDbBlockBegin
  2
*Paper_Space
 70
     0
 10
0.0
 20
0.0
 30
0.0
  3
*Paper_Space
  1

  0
ENDBLK
  5
1D
330
1B
100
AcDbEntity
 67
     1
  8
0
100
AcDbBlockEnd
  0
BLOCK
  5
24
330
23
100
AcDbEntity
  8
0
100
AcDbBlockBegin
  2
*Paper_Space0
 70
     0
 10
0.0
 20
0.0
 30
0.0
  3
*Paper_Space0
  1

  0
ENDBLK
  5
25
330
23
100
AcDbEntity
  8
0
100
AcDbBlockEnd
  0
BLOCK
  5
256
330
255
100
AcDbEntity
  8
0
100
AcDbBlockBegin
  2
*D1
 70
     1
 10
0.0
 20
0.0
 30
0.0
  3
*D1
  1

  0
SOLID
  5
258
330
255
100
AcDbEntity
  8
VERMASSUNG
100
AcDbTrace
 10
140.2705923286
 20
152.893284746
 30
0.0
 11
143.2705923286
 21
152.443284746
 31
0.0
 12
143.2705923286
 22
153.343284746
 32
0.0
 13
143.2705923286
 23
153.343284746
 33
0.0
  0
SOLID
  5
259
330
255
100
AcDbEntity
  8
VERMASSUNG
100
AcDbTrace
 10
280.2705923286
 20
152.893284746
 30
0.0
 11
277.2705923286
 21
153.343284746
 31
0.0
 12
277.2705923286
 22
152.443284746
 32
0.0
 13
277.2705923286
 23
152.443284746
 33
0.0
  0
LINE
  5
25A
330
255
100
AcDbEntity
  8
VERMASSUNG
100
AcDbLine
 10
140.2705923286
 20
146.2542868577
 30
0.0
 11
140.2705923286
 21
153.893284746
 31
0.0
  0
LINE
  5
25B
330
255
100
AcDbEntity
  8
VERMASSUNG
100
AcDbLine
 10
280.2705923286
 20
142.0542868577
 30
0.0
 11
280.2705923286
 21
153.893284746
 31
0.0
  0
LINE
  5
25C
330
255
100
AcDbEntity
  8
VERMASSUNG
100
AcDbLine
 10
140.2705923286
 20
152.893284746
 30
0.0
 11
280.2705923286
 21
152.893284746
 31
0.0
  0
MTEXT
  5
25D
330
255
100
AcDbEntity
  8
VERMASSUNG
100
AcDbMText
 10
208.2709440221
 20
155.4714201092
 30
0.0
 40
2.0
 41
0.0
 71
     1
 72
     1
  1
140
  7
SLDTEXTSTYLE0
 73
     1
 44
1.0
  0
ENDBLK
  5
257
330
255
100
AcDbEntity
  8
0
100
AcDbBlockEnd
  0
BLOCK
  5
260
330
25F
100
AcDbEntity
  8
0
100
AcDbBlockBegin
  2
*D2
 70
     1
 10
0.0
 20
0.0
 30
0.0
  3
*D2
  1

  0
SOLID
  5
262
330
25F
100
AcDbEntity
  8
VERMASSUNG
100
AcDbTrace
 10
108.3705923286
 20
159.1379031392
 30
0.0
 11
111.3705923286
 21
158.6879031392
 31
0.0
 12
111.3705923286
 22
159.5879031392
 32
0.0
 13
111.3705923286
 23
159.5879031392
 33
0.0
  0
SOLID
  5
263
330
25F
100
AcDbEntity
  8
VERMASSUNG
100
AcDbTrace
 10
280.2705923286
 20
159.1379031392
 30
0.0
 11
277.2705923286
 21
159.5879031392
 31
0.0
 12
277.2705923286
 22
158.6879031392
 32
0.0
 13
277.2705923286
 23
158.6879031392
 33
0.0
  0
LINE
  5
264
330
25F
100
AcDbEntity
  8
VERMASSUNG
100
AcDbLine
 10
108.3705923286
 20
134.7449646042
 30
0.0
 11
108.3705923286
 21
160.1379031392
 31
0.0
  0
LINE
  5
265
330
25F
100
AcDbEntity
  8
VERMASSUNG
100
AcDbLine
 10
280.2705923286
 20
142.0542868577
 30
0.0
 11
280.2705923286
 21
160.1379031392
 31
0.0
  0
LINE
  5
266
330
25F
100
AcDbEntity
  8
VERMASSUNG
100
AcDbLine
 10
108.3705923286
 20
159.1379031392
 30
0.0
 11
280.2705923286
 21
159.1379031392
 31
0.0
  0
MTEXT
  5
267
330
25F
100
AcDbEntity
  8
VERMASSUNG
100
AcDbMText
 10
191.6210060383
 20
161.7160385023
 30
0.0
 40
2.0
 41
0.0
 71
     1
 72
     1
  1
171.9
  7
SLDTEXTSTYLE0
 73
     1
 44
1.0
  0
ENDBLK
  5
261
330
25F
100
AcDbEntity
  8
0
100
AcDbBlockEnd
  0
BLOCK
  5
26A
330
269
100
AcDbEntity
  8
0
100
AcDbBlockBegin
  2
*D3
 70
     1
 10
0.0
 20
0.0
 30
0.0
  3
*D3
  1

  0
SOLID
  5
26C
330
269
100
AcDbEntity
  8
VERMASSUNG
100
AcDbTrace
 10
286.4851616587
 20
142.0542868577
 30
0.0
 11
286.0351616587
 21
139.0542868577
 31
0.0
 12
286.9351616587
 22
139.0542868577
 32
0.0
 13
286.9351616587
 23
139.0542868577
 33
0.0
  0
SOLID
  5
26D
330
269
100
AcDbEntity
  8
VERMASSUNG
100
AcDbTrace
 10
286.4851616587
 20
115.0542868577
 30
0.0
 11
286.9351616587
 21
118.0542868577
 31
0.0
 12
286.0351616587
 22
118.0542868577
 32
0.0
 13
286.0351616587
 23
118.0542868577
 33
0.0
  0
LINE
  5
26E
330
269
100
AcDbEntity
  8
VERMASSUNG
100
AcDbLine
 10
280.2705923286
 20
142.0542868577
 30
0.0
 11
287.4851616587
 21
142.0542868577
 31
0.0
  0
LINE
  5
26F
330
269
100
AcDbEntity
  8
VERMASSUNG
100
AcDbLine
 10
276.0991775612
 20
115.0542868577
 30
0.0
 11
287.4851616587
 21
115.0542868577
 31
0.0
  0
LINE
  5
270
330
269
100
AcDbEntity
  8
VERMASSUNG
100
AcDbLine
 10
286.4851616587
 20
142.0542868577
 30
0.0
 11
286.4851616587
 21
115.0542868577
 31
0.0
  0
MTEXT
  5
271
330
269
100
AcDbEntity
  8
VERMASSUNG
100
AcDbMText
 10
283.9070262956
 20
127.1544108899
 30
0.0
 40
2.0
 41
0.0
 71
     1
 72
     1
  1
27
  7
SLDTEXTSTYLE0
 11
-7.044195017643634E-15
 21
1.0
 31
0.0
 73
     1
 44
1.0
  0
ENDBLK
  5
26B
330
269
100
AcDbEntity
  8
0
100
AcDbBlockEnd
  0
BLOCK
  5
275
330
274
100
AcDbEntity
  8
0
100
AcDbBlockBegin
  2
*D4
 70
     1
 10
0.0
 20
0.0
 30
0.0
  3
*D4
  1

  0
ARC
  5
277
330
274
100
AcDbEntity
  8
VERMASSUNG
100
AcDbCircle
 10
280.2705923286
 20
153.3119900448
 30
0.0
 40
42.88273086506486
100
AcDbArc
 50
264.9722024819
 51
270.0
  0
ARC
  5
278
330
274
100
AcDbEntity
  8
VERMASSUNG
100
AcDbCircle
 10
280.2705923286
 20
153.3119900448
 30
0.0
 40
42.88273086506486
100
AcDbArc
 50
256.9735074263
 51
264.9722024819
  0
ARC
  5
279
330
274
100
AcDbEntity
  8
VERMASSUNG
100
AcDbCircle
 10
280.2705923286
 20
153.3119900448
 30
0.0
 40
42.88273086506486
100
AcDbArc
 50
270.0
 51
277.9986950556
  0
SOLID
  5
27A
330
274
100
AcDbEntity
  8
VERMASSUNG
100
AcDbTrace
 10
276.5123907695
 20
110.5942592122
 30
0.0
 11
273.5900006553
 21
111.4079766204
 31
0.0
 12
273.4798709073
 22
110.5147401239
 32
0.0
 13
273.4798709073
 23
110.5147401239
 33
0.0
  0
SOLID
  5
27B
330
274
100
AcDbEntity
  8
VERMASSUNG
100
AcDbTrace
 10
280.2705923286
 20
110.4292591798
 30
0.0
 11
283.2844749766
 21
110.0842789141
 31
0.0
 12
283.2530513684
 22
110.9837301673
 32
0.0
 13
283.2530513684
 23
110.9837301673
 33
0.0
  0
LINE
  5
27C
330
274
100
AcDbEntity
  8
VERMASSUNG
100
AcDbLine
 10
277.6485436212
 20
123.5083807521
 30
0.0
 11
276.424751725
 21
109.5981069157
 31
0.0
  0
LINE
  5
27D
330
274
100
AcDbEntity
  8
VERMASSUNG
100
AcDbLine
 10
280.2705923286
 20
121.4016880914
 30
0.0
 11
280.2705923286
 21
109.4292591798
 31
0.0
  0
MTEXT
  5
27E
330
274
100
AcDbEntity
  8
VERMASSUNG
100
AcDbMText
 10
277.2043033737
 20
113.1031907897
 30
0.0
 40
2.0
 41
0.0
 71
     1
 72
     1
  1
5°
  7
SLDTEXTSTYLE0
 11
0.999037611035604
 21
-0.04386173430535173
 31
0.0
 73
     1
 44
1.0
  0
ENDBLK
  5
276
330
274
100
AcDbEntity
  8
0
100
AcDbBlockEnd
  0
BLOCK
  5
281
330
280
100
AcDbEntity
  8
0
100
AcDbBlockBegin
  2
*D5
 70
     1
 10
0.0
 20
0.0
 30
0.0
  3
*D5
  1

  0
SOLID
  5
283
330
280
100
AcDbEntity
  8
VERMASSUNG
100
AcDbTrace
 10
103.0310148706
 20
146.5542868577
 30
0.0
 11
102.5810148706
 21
143.5542868577
 31
0.0
 12
103.4810148706
 22
143.5542868577
 32
0.0
 13
103.4810148706
 23
143.5542868577
 33
0.0
  0
SOLID
  5
284
330
280
100
AcDbEntity
  8
VERMASSUNG
100
AcDbTrace
 10
103.0310148706
 20
83.5542868577
 30
0.0
 11
103.4810148706
 21
86.5542868577
 31
0.0
 12
102.5810148706
 22
86.5542868577
 32
0.0
 13
102.5810148706
 23
86.5542868577
 33
0.0
  0
LINE
  5
285
330
280
100
AcDbEntity
  8
VERMASSUNG
100
AcDbLine
 10
140.5705923286
 20
146.5542868577
 30
0.0
 11
102.0310148706
 21
146.5542868577
 31
0.0
  0
LINE
  5
286
330
280
100
AcDbEntity
  8
VERMASSUNG
100
AcDbLine
 10
140.5705923286
 20
83.5542868577
 30
0.0
 11
102.0310148706
 21
83.5542868577
 31
0.0
  0
LINE
  5
287
330
280
100
AcDbEntity
  8
VERMASSUNG
100
AcDbLine
 10
103.0310148706
 20
146.5542868577
 30
0.0
 11
103.0310148706
 21
83.5542868577
 31
0.0
  0
MTEXT
  5
288
330
280
100
AcDbEntity
  8
VERMASSUNG
100
AcDbMText
 10
100.2528793816
 20
108.850124519
 30
0.0
 40
2.0
 41
0.0
 71
     1
 72
     1
  1
HSK 
  7
SLDTEXTSTYLE0
 11
-7.044195017643634E-15
 21
1.0
 31
0.0
 73
     1
 44
1.0
  0
MTEXT
  5
289
330
280
100
AcDbEntity
  8
VERMASSUNG
100
AcDbMText
 10
100.4528793911
 20
114.8501245711
 30
0.0
 40
2.0
 41
0.0
 71
     1
 72
     1
  1
%%c
  7
SLDTEXTSTYLE0
 11
-7.044195017643634E-15
 21
1.0
 31
0.0
 73
     1
 44
1.0
  0
MTEXT
  5
28A
330
280
100
AcDbEntity
  8
VERMASSUNG
100
AcDbMText
 10
100.4528795075
 20
118.4586972609
 30
0.0
 40
2.0
 41
0.0
 71
     1
 72
     1
  1
63
  7
SLDTEXTSTYLE0
 11
-7.044195017643634E-15
 21
1.0
 31
0.0
 73
     1
 44
1.0
  0
ENDBLK
  5
282
330
280
100
AcDbEntity
  8
0
100
AcDbBlockEnd
  0
BLOCK
  5
300
330
2FF
100
AcDbEntity
  8
0
100
AcDbBlockBegin
  2
*D6
 70
     1
 10
0.0
 20
0.0
 30
0.0
  3
*D6
  1

  0
SOLID
  5
302
330
2FF
100
AcDbEntity
  8
VERMASSUNG
100
AcDbTrace
 10
23.482664222
 20
92.0271744122
 30
0.0
 11
23.932664222
 21
95.0271744122
 31
0.0
 12
23.032664222
 22
95.0271744122
 32
0.0
 13
23.032664222
 23
95.0271744122
 33
0.0
  0
SOLID
  5
303
330
2FF
100
AcDbEntity
  8
VERMASSUNG
100
AcDbTrace
 10
23.482664222
 20
142.0271744122
 30
0.0
 11
23.032664222
 21
139.0271744122
 31
0.0
 12
23.932664222
 22
139.0271744122
 32
0.0
 13
23.932664222
 23
139.0271744122
 33
0.0
  0
LINE
  5
304
330
2FF
100
AcDbEntity
  8
VERMASSUNG
100
AcDbLine
 10
59.1076389377
 20
92.0271744122
 30
0.0
 11
22.482664222
 21
92.0271744122
 31
0.0
  0
LINE
  5
305
330
2FF
100
AcDbEntity
  8
VERMASSUNG
100
AcDbLine
 10
59.1076389377
 20
142.0271744122
 30
0.0
 11
22.482664222
 21
142.0271744122
 31
0.0
  0
LINE
  5
306
330
2FF
100
AcDbEntity
  8
VERMASSUNG
100
AcDbLine
 10
23.482664222
 20
92.0271744122
 30
0.0
 11
23.482664222
 21
142.0271744122
 31
0.0
  0
MTEXT
  5
307
330
2FF
100
AcDbEntity
  8
VERMASSUNG
100
AcDbMText
 10
20.9045287425
 20
113.8230952993
 30
0.0
 40
2.0
 41
0.0
 71
     1
 72
     1
  1
%%c
  7
SLDTEXTSTYLE0
 11
6.123233995736766E-17
 21
1.0
 31
0.0
 73
     1
 44
1.0
  0
MTEXT
  5
308
330
2FF
100
AcDbEntity
  8
VERMASSUNG
100
AcDbMText
 10
20.9045288589
 20
117.4315015896
 30
0.0
 40
2.0
 41
0.0
 71
     1
 72
     1
  1
50
  7
SLDTEXTSTYLE0
 11
6.123233995736766E-17
 21
1.0
 31
0.0
 73
     1
 44
1.0
  0
ENDBLK
  5
301
330
2FF
100
AcDbEntity
  8
0
100
AcDbBlockEnd
  0
BLOCK
  5
30A
330
309
100
AcDbEntity
  8
0
100
AcDbBlockBegin
  2
SW_CENTERMARKSYMBOL_0
 70
     0
 10
0.0
 20
0.0
 30
0.0
  3
SW_CENTERMARKSYMBOL_0
  1

  0
LINE
  5
30C
330
309
100
AcDbEntity
  8
VERMASSUNG
 62
     0
100
AcDbLine
 10
0.0
 20
0.0
 30
0.0
 11
0.0
 21
2.5
 31
0.0
  0
LINE
  5
30D
330
309
100
AcDbEntity
  8
VERMASSUNG
 62
     0
100
AcDbLine
 10
0.0
 20
0.0
 30
0.0
 11
-2.5
 21
0.0
 31
0.0
  0
LINE
  5
30E
330
309
100
AcDbEntity
  8
VERMASSUNG
 62
     0
100
AcDbLine
 10
0.0
 20
0.0
 30
0.0
 11
0.0
 21
-2.5
 31
0.0
  0
LINE
  5
30F
330
309
100
AcDbEntity
  8
VERMASSUNG
 62
     0
100
AcDbLine
 10
0.0
 20
0.0
 30
0.0
 11
2.5
 21
0.0
 31
0.0
  0
LINE
  5
310
330
309
100
AcDbEntity
  8
VERMASSUNG
 62
     0
100
AcDbLine
 10
0.0
 20
5.0
 30
0.0
 11
0.0
 21
34.0
 31
0.0
  0
LINE
  5
311
330
309
100
AcDbEntity
  8
VERMASSUNG
 62
     0
100
AcDbLine
 10
-5.0
 20
0.0
 30
0.0
 11
-34.0
 21
0.0
 31
0.0
  0
LINE
  5
312
330
309
100
AcDbEntity
  8
VERMASSUNG
 62
     0
100
AcDbLine
 10
0.0
 20
-5.0
 30
0.0
 11
0.0
 21
-34.0
 31
0.0
  0
LINE
  5
313
330
309
100
AcDbEntity
  8
VERMASSUNG
 62
     0
100
AcDbLine
 10
5.0
 20
0.0
 30
0.0
 11
34.0
 21
0.0
 31
0.0
  0
ENDBLK
  5
30B
330
309
100
AcDbEntity
  8
0
100
AcDbBlockEnd
  0
ENDSEC
  0
SECTION
  2
ENTITIES
  0
MTEXT
  5
45
330
1F
100
AcDbEntity
  8
KOPF_DÜNN
100
AcDbMText
 10
13.8892156294
 20
23.8442973028
 30
0.0
 40
3.0
 41
0.0
 71
     1
 72
     1
  1
HA6.PCD.RLC.140
  7
SLDTEXTSTYLE0
 73
     1
 44
1.0
  0
MTEXT
  5
46
330
1F
100
AcDbEntity
  8
VERMASSUNG
100
AcDbMText
 10
13.9329988022
 20
28.8834360957
 30
0.0
 40
3.0
 41
0.0
 71
     1
 72
     1
  1
Bohrstange_Boring bar
  7
SLDTEXTSTYLE0
 73
     1
 44
1.0
  0
MTEXT
  5
47
330
1F
100
AcDbEntity
  8
VERMASSUNG
100
AcDbMText
 10
98.8601118557
 20
13.8365368179
 30
0.0
 40
2.0
 41
0.0
 71
     1
 72
     1
  1
Datum: 02.03.2011
  7
SLDTEXTSTYLE0
 73
     1
 44
1.0
  0
MTEXT
  5
49
330
1F
100
AcDbEntity
  8
VERMASSUNG
100
AcDbMText
 10
13.933048693
 20
18.0482802738
 30
0.0
 40
2.0
 41
0.0
 71
     1
 72
     1
  1
DIN 69893 HSK 63 A ICTM / CN.. 12 04..
  7
SLDTEXTSTYLE1
 73
     1
 44
1.0
  0
MTEXT
  5
4A
330
1F
100
AcDbEntity
  8
VERMASSUNG
100
AcDbMText
 10
13.9808475933
 20
13.9090973692
 30
0.0
 40
2.0
 41
0.0
 71
     1
 72
     1
  1
Gewicht: 1573g
  7
SLDTEXTSTYLE0
 73
     1
 44
1.0
  0
LINE
  5
4B
330
1F
100
AcDbEntity
  8
0
  6
Continuous
 62
     7
370
    15
100
AcDbLine
 10
278.6470449947
 20
128.8531147813
 30
0.0
 11
279.1446004799
 21
129.511949695
 31
0.0
  0
LINE
  5
4C
330
1F
100
AcDbEntity
  8
0
  6
Continuous
 62
     7
370
    15
100
AcDbLine
 10
267.5819310242
 20
141.0314125394
 30
0.0
 11
267.084375539
 21
140.3725776258
 31
0.0
  0
LINE
  5
4D
330
1F
100
AcDbEntity
  8
0
  6
Continuous
 62
     7
370
    15
100
AcDbLine
 10
274.4115025595
 20
132.9243850692
 30
0.0
 11
274.8130584689
 21
133.3609769274
 31
0.0
  0
LINE
  5
4E
330
1F
100
AcDbEntity
  8
0
  6
Continuous
 62
     7
370
    15
100
AcDbLine
 10
271.4930288181
 20
136.3986636009
 30
0.0
 11
270.823225966
 21
135.6704201234
 31
0.0
  0
LINE
  5
4F
330
1F
100
AcDbEntity
  8
0
  6
Continuous
 62
     7
370
    15
100
AcDbLine
 10
140.5705923286
 20
83.5542868577
 30
0.0
 11
145.2205923286
 21
83.5542868577
 31
0.0
  0
LINE
  5
50
330
1F
100
AcDbEntity
  8
0
  6
Continuous
 62
     7
370
    15
100
AcDbLine
 10
145.224796526
 20
146.5542868577
 30
0.0
 11
140.5705923286
 21
146.5542868577
 31
0.0
  0
ARC
  5
51
330
1F
100
AcDbEntity
  8
0
  6
Continuous
 62
     7
370
    15
100
AcDbCircle
 10
140.5705923286
 20
83.8542868577
 30
0.0
 40
0.2999999999999829
100
AcDbArc
 50
180.0
 51
270.0
  0
ARC
  5
52
330
1F
100
AcDbEntity
  8
0
  6
Continuous
 62
     7
370
    15
100
AcDbCircle
 10
140.5705923286
 20
146.2542868577
 30
0.0
 40
0.3000000000000114
100
AcDbArc
 50
90.0
 51
180.0
  0
ARC
  5
53
330
1F
100
AcDbEntity
  8
0
  6
Continuous
 62
     7
370
    15
100
AcDbCircle
 10
139.7705923286
 20
90.483855996
 30
0.0
 40
0.6000000000000019
100
AcDbArc
 50
33.5573097619
 51
90.0
  0
ARC
  5
54
330
1F
100
AcDbEntity
  8
0
  6
Continuous
 62
     7
370
    15
100
AcDbCircle
 10
139.7705923286
 20
139.6247177194
 30
0.0
 40
0.6000000000000019
100
AcDbArc
 50
270.0
 51
326.4426902381
  0
LINE
  5
55
330
1F
100
AcDbEntity
  8
0
  6
Continuous
 62
     7
370
    15
100
AcDbLine
 10
138.2705923286
 20
90.833855996
 30
0.0
 11
139.127305102
 21
91.0634114917
 31
0.0
  0
LINE
  5
56
330
1F
100
AcDbEntity
  8
0
  6
Continuous
 62
     7
370
    15
100
AcDbLine
 10
139.127305102
 20
139.0451622236
 30
0.0
 11
138.2705923286
 21
139.2747177194
 31
0.0
  0
LINE
  5
57
330
1F
100
AcDbEntity
  8
0
  6
Continuous
 62
     7
370
    15
100
AcDbLine
 10
127.0401701461
 20
138.7120713175
 30
0.0
 11
114.4705923286
 21
138.0823329499
 31
0.0
  0
LINE
  5
58
330
1F
100
AcDbEntity
  8
0
  6
Continuous
 62
     7
370
    15
100
AcDbLine
 10
138.2705923286
 20
139.2747177194
 30
0.0
 11
135.4519829711
 21
139.1335048257
 31
0.0
  0
LINE
  5
59
330
1F
100
AcDbEntity
  8
0
  6
Continuous
 62
     7
370
    15
100
AcDbLine
 10
135.4522044462
 20
90.9750577937
 30
0.0
 11
138.2705923286
 21
90.833855996
 31
0.0
  0
LINE
  5
5A
330
1F
100
AcDbEntity
  8
0
  6
Continuous
 62
     7
370
    15
100
AcDbLine
 10
118.4705923286
 20
91.8258399639
 30
0.0
 11
127.0408690978
 21
91.3964673803
 31
0.0
  0
ARC
  5
5B
330
1F
100
AcDbEntity
  8
0
  6
Continuous
 62
     7
370
    15
100
AcDbCircle
 10
139.282596529
 20
90.483855996
 30
0.0
 40
0.5999999999999944
100
AcDbArc
 50
90.0
 51
105.0
  0
ARC
  5
5C
330
1F
100
AcDbEntity
  8
0
  6
Continuous
 62
     7
370
    15
100
AcDbCircle
 10
139.282596529
 20
139.6247177194
 30
0.0
 40
0.5999999999999943
100
AcDbArc
 50
255.0
 51
270.0
  0
LINE
  5
5D
330
1F
100
AcDbEntity
  8
0
  6
Continuous
 62
     7
370
    15
100
AcDbLine
 10
139.282596529
 20
91.083855996
 30
0.0
 11
139.7705923286
 21
91.083855996
 31
0.0
  0
LINE
  5
5E
330
1F
100
AcDbEntity
  8
0
  6
Continuous
 62
     7
370
    15
100
AcDbLine
 10
139.7705923286
 20
139.0247177194
 30
0.0
 11
139.282596529
 21
139.0247177194
 31
0.0
  0
ARC
  5
5F
330
1F
100
AcDbEntity
  8
0
  6
Continuous
 62
     7
370
    15
100
AcDbCircle
 10
169.2205923286
 20
92.0542868577
 30
0.0
 40
3.0
100
AcDbArc
 50
90.0
 51
180.0
  0
ARC
  5
60
330
1F
100
AcDbEntity
  8
0
  6
Continuous
 62
     7
370
    15
100
AcDbCircle
 10
169.2205923286
 20
138.0542868577
 30
0.0
 40
3.0
100
AcDbArc
 50
180.0
 51
270.0
  0
LINE
  5
61
330
1F
100
AcDbEntity
  8
0
  6
Continuous
 62
     7
370
    15
100
AcDbLine
 10
169.2205923286
 20
95.0542868577
 30
0.0
 11
254.2705923286
 21
95.0542868577
 31
0.0
  0
LINE
  5
62
330
1F
100
AcDbEntity
  8
0
  6
Continuous
 62
     7
370
    15
100
AcDbLine
 10
254.2705923286
 20
135.0542868577
 30
0.0
 11
169.2205923286
 21
135.0542868577
 31
0.0
  0
LINE
  5
63
330
1F
100
AcDbEntity
  8
0
  6
Continuous
 62
     7
370
    15
100
AcDbLine
 10
109.5205923286
 20
94.2417868577
 30
0.0
 11
117.0705923286
 21
94.2417868577
 31
0.0
  0
ARC
  5
64
330
1F
100
AcDbEntity
  8
0
  6
Continuous
 62
     7
370
    15
100
AcDbCircle
 10
117.0705923286
 20
92.8417868577
 30
0.0
 40
1.399999999999996
100
AcDbArc
 50
37.6438857999
 51
90.0
  0
LINE
  5
65
330
1F
100
AcDbEntity
  8
0
  6
Continuous
 62
     7
370
    15
100
AcDbLine
 10
109.5117557868
 20
135.9154503159
 30
0.0
 11
108.3817599478
 21
134.7854544769
 31
0.0
  0
LINE
  5
66
330
1F
100
AcDbEntity
  8
0
  6
Continuous
 62
     7
370
    15
100
AcDbLine
 10
108.3725411724
 20
95.3898380139
 30
0.0
 11
109.5205923286
 21
94.2417868577
 31
0.0
  0
ARC
  5
67
330
1F
100
AcDbEntity
  8
0
  6
Continuous
 62
     7
370
    15
100
AcDbCircle
 10
113.0705923286
 20
137.3242868577
 30
0.0
 40
1.400000000000006
100
AcDbArc
 50
270.0
 51
303.0397321086
  0
LINE
  5
68
330
1F
100
AcDbEntity
  8
0
  6
Continuous
 62
     7
370
    15
100
AcDbLine
 10
113.0705923286
 20
135.9242868577
 30
0.0
 11
109.6682477327
 21
135.9242868577
 31
0.0
  0
LINE
  5
69
330
1F
100
AcDbEntity
  8
0
  6
Continuous
 62
     7
370
    15
100
AcDbLine
 10
258.1451104789
 20
138.928805008
 30
0.0
 11
254.2705923286
 21
135.0542868577
 31
0.0
  0
LINE
  5
6A
330
1F
100
AcDbEntity
  8
0
  6
Continuous
 62
     7
370
    15
100
AcDbLine
 10
254.2705923286
 20
95.0542868577
 30
0.0
 11
254.7705923286
 21
94.5542868577
 31
0.0
  0
LINE
  5
6B
330
1F
100
AcDbEntity
  8
0
  6
Continuous
 62
     7
370
    15
100
AcDbLine
 10
254.7705923286
 20
94.5542868577
 30
0.0
 11
257.0221293915
 21
94.5542868577
 31
0.0
  0
LINE
  5
6C
330
1F
100
AcDbEntity
  8
0
  6
Continuous
 62
     7
370
    15
100
AcDbLine
 10
267.2686732264
 20
139.8877300935
 30
0.0
 11
258.1451104789
 21
138.928805008
 31
0.0
  0
LINE
  5
6D
330
1F
100
AcDbEntity
  8
0
  6
Continuous
 62
     7
370
    15
100
AcDbLine
 10
266.8884192514
 20
128.4901182632
 30
0.0
 11
278.8600710704
 21
129.3579046304
 31
0.0
  0
ARC
  5
6E
330
1F
100
AcDbEntity
  8
0
  6
Continuous
 62
     7
370
    15
100
AcDbCircle
 10
266.8595383081
 20
128.8925223295
 30
0.0
 40
0.4034391422339653
100
AcDbArc
 50
175.3048862805
 51
274.105136579
  0
LINE
  5
6F
330
1F
100
AcDbEntity
  8
0
  6
Continuous
 62
     7
370
    15
100
AcDbLine
 10
267.5048367757
 20
140.8306704198
 30
0.0
 11
266.4574529579
 21
128.9255452408
 31
0.0
  0
ARC
  5
70
330
1F
100
AcDbEntity
  8
0
  6
Continuous
 62
     7
370
    15
100
AcDbCircle
 10
267.8932081337
 20
140.7965049718
 30
0.0
 40
0.3898712474075691
100
AcDbArc
 50
93.9339528679
 51
174.9725706679
  0
LINE
  5
71
330
1F
100
AcDbEntity
  8
0
  6
Continuous
 62
     7
370
    15
100
AcDbLine
 10
279.8381122526
 20
142.0532439712
 30
0.0
 11
267.8664604337
 21
141.185457604
 31
0.0
  0
ARC
  5
72
330
1F
100
AcDbEntity
  8
0
  6
Continuous
 62
     7
370
    15
100
AcDbCircle
 10
279.866993196
 20
141.6508399049
 30
0.0
 40
0.403439142233911
100
AcDbArc
 50
355.3048862805
 51
94.105136579
  0
LINE
  5
73
330
1F
100
AcDbEntity
  8
0
  6
Continuous
 62
     7
370
    15
100
AcDbLine
 10
279.2216947283
 20
129.7126918147
 30
0.0
 11
280.2690785462
 21
141.6178169936
 31
0.0
  0
ARC
  5
74
330
1F
100
AcDbEntity
  8
0
  6
Continuous
 62
     7
370
    15
100
AcDbCircle
 10
278.8333233703
 20
129.7468572626
 30
0.0
 40
0.3898712474073295
100
AcDbArc
 50
273.9339528679
 51
354.9725706679
  0
ARC
  5
75
330
1F
100
AcDbEntity
  8
0
  6
Continuous
 62
     7
370
    15
100
AcDbCircle
 10
279.8672827147
 20
141.6512047542
 30
0.0
 40
0.3832671851222849
100
AcDbArc
 50
355.3048862805
 51
94.105136579
  0
LINE
  5
76
330
1F
100
AcDbEntity
  8
0
  6
Continuous
 62
     7
370
    15
100
AcDbLine
 10
279.8398458186
 20
142.0334886172
 30
0.0
 11
267.8681939996
 21
141.1657022497
 31
0.0
  0
ARC
  5
77
330
1F
100
AcDbEntity
  8
0
  6
Continuous
 62
     7
370
    15
100
AcDbCircle
 10
267.893604315
 20
140.7961972487
 30
0.0
 40
0.3703776854342483
100
AcDbArc
 50
93.9339529149
 51
174.972570566
  0
LINE
  5
78
330
1F
100
AcDbEntity
  8
0
  6
Continuous
 62
     7
370
    15
100
AcDbLine
 10
267.5246515245
 20
140.8286544249
 30
0.0
 11
266.4772677067
 21
128.923529246
 31
0.0
  0
ARC
  5
79
330
1F
100
AcDbEntity
  8
0
  6
Continuous
 62
     7
370
    15
100
AcDbCircle
 10
266.8592487894
 20
128.8921574803
 30
0.0
 40
0.3832671851222305
100
AcDbArc
 50
175.3048862805
 51
274.105136579
  0
LINE
  5
7A
330
1F
100
AcDbEntity
  8
0
  6
Continuous
 62
     7
370
    15
100
AcDbLine
 10
266.8866856855
 20
128.5098736173
 30
0.0
 11
278.8583375045
 21
129.3776599845
 31
0.0
  0
ARC
  5
7B
330
1F
100
AcDbEntity
  8
0
  6
Continuous
 62
     7
370
    15
100
AcDbCircle
 10
278.8329271894
 20
129.7471649851
 30
0.0
 40
0.3703776850371273
100
AcDbArc
 50
273.9339528679
 51
354.9725706679
  0
LINE
  5
7C
330
1F
100
AcDbEntity
  8
0
  6
Continuous
 62
     7
370
    15
100
AcDbLine
 10
279.2018799795
 20
129.7147078095
 30
0.0
 11
280.2492637974
 21
141.6198329885
 31
0.0
  0
LINE
  5
7D
330
1F
100
AcDbEntity
  8
0
  6
Continuous
 62
     7
370
    15
100
AcDbLine
 10
266.8308151098
 20
128.8548589922
 30
0.0
 11
266.8866856855
 21
128.5098736173
 31
0.0
  0
LINE
  5
7E
330
1F
100
AcDbEntity
  8
0
  6
Continuous
 62
     7
370
    15
100
AcDbLine
 10
266.8308151098
 20
128.8548589922
 30
0.0
 11
266.4772677067
 21
128.923529246
 31
0.0
  0
LINE
  5
7F
330
1F
100
AcDbEntity
  8
0
  6
Continuous
 62
     7
370
    15
100
AcDbLine
 10
278.8024669288
 20
129.7226453593
 30
0.0
 11
278.8583375045
 21
129.3776599845
 31
0.0
  0
LINE
  5
80
330
1F
100
AcDbEntity
  8
0
  6
Continuous
 62
     7
370
    15
100
AcDbLine
 10
267.6943646423
 20
129.6847878887
 30
0.0
 11
266.8308151098
 21
128.8548589922
 31
0.0
  0
LINE
  5
81
330
1F
100
AcDbEntity
  8
0
  6
Continuous
 62
     7
370
    15
100
AcDbLine
 10
278.1944073958
 20
130.2494364548
 30
0.0
 11
278.8024669288
 21
129.7226453593
 31
0.0
  0
LINE
  5
82
330
1F
100
AcDbEntity
  8
0
  6
Continuous
 62
     7
370
    15
100
AcDbLine
 10
278.1035563132
 20
128.6802985956
 30
0.0
 11
278.3625155852
 21
128.6990697167
 31
0.0
  0
LINE
  5
83
330
1F
100
AcDbEntity
  8
0
  6
Continuous
 62
     7
370
    15
100
AcDbLine
 10
267.0072812906
 20
140.1718355061
 30
0.0
 11
266.9796135093
 21
139.857348693
 31
0.0
  0
LINE
  5
84
330
1F
100
AcDbEntity
  8
0
  6
Continuous
 62
     7
370
    15
100
AcDbLine
 10
266.3322504055
 20
132.4990730962
 30
0.0
 11
265.9702438301
 21
128.3843125633
 31
0.0
  0
LINE
  5
85
330
1F
100
AcDbEntity
  8
0
  6
Continuous
 62
     7
370
    15
100
AcDbLine
 10
267.8781989276
 20
140.7599841711
 30
0.0
 11
267.5246515245
 21
140.8286544249
 31
0.0
  0
LINE
  5
86
330
1F
100
AcDbEntity
  8
0
  6
Continuous
 62
     7
370
    15
100
AcDbLine
 10
268.411242538
 20
140.1338612214
 30
0.0
 11
267.8781989276
 21
140.7599841711
 31
0.0
  0
ARC
  5
87
330
1F
100
AcDbEntity
  8
0
  6
Continuous
 62
     7
370
    15
100
AcDbCircle
 10
269.7345997831
 20
131.7156550556
 30
0.0
 40
1.008597855584819
100
AcDbArc
 50
175.3048862805
 51
274.105136579
  0
SPLINE
  5
88
330
1F
100
AcDbEntity
  8
0
  6
Continuous
 62
     7
370
    15
100
AcDbSpline
210
0.0
220
0.0
230
1.0
 70
     8
 71
     3
 72
    11
 73
     7
 74
     0
 42
0.00000001
 43
0.00000001
 40
0.0
 40
0.0
 40
0.0
 40
0.0
 40
0.3367831131413234
 40
0.6790111347687194
 40
0.9923717339918569
 40
0.9999999999999999
 40
0.9999999999999999
 40
0.9999999999999999
 40
0.9999999999999999
 10
267.6943646422675
 20
129.6847878886848
 30
0.0
 10
267.7474291548253
 20
129.73612149511
 30
0.0
 10
267.8544160953276
 20
129.8396186390893
 30
0.0
 10
268.0267445276928
 20
130.0099958233808
 30
0.0
 10
268.1366132626925
 20
130.1199771039494
 30
0.0
 10
268.1872864885818
 20
130.1710607200658
 30
0.0
 10
268.1884907323686
 20
130.1722747167323
 30
0.0
  0
LINE
  5
89
330
1F
100
AcDbEntity
  8
0
  6
Continuous
 62
     7
370
    15
100
AcDbLine
 10
269.8068021414
 20
130.7096448898
 30
0.0
 11
276.5069030754
 21
131.1953135625
 31
0.0
  0
LINE
  5
8A
330
1F
100
AcDbEntity
  8
0
  6
Continuous
 62
     7
370
    15
100
AcDbLine
 10
269.3155692838
 20
138.4610807112
 30
0.0
 11
268.7293864076
 21
131.7982123337
 31
0.0
  0
ARC
  5
8B
330
1F
100
AcDbEntity
  8
0
  6
Continuous
 62
     7
370
    15
100
AcDbCircle
 10
270.2864976789
 20
138.3756670914
 30
0.0
 40
0.9746781185188969
100
AcDbArc
 50
93.9339528679
 51
174.9725706679
  0
LINE
  5
8C
330
1F
100
AcDbEntity
  8
0
  6
Continuous
 62
     7
370
    15
100
AcDbLine
 10
276.9197293627
 20
139.8337173447
 30
0.0
 11
270.2196284287
 21
139.3480486719
 31
0.0
  0
ARC
  5
8D
330
1F
100
AcDbEntity
  8
0
  6
Continuous
 62
     7
370
    15
100
AcDbCircle
 10
276.9919317215
 20
138.8277071791
 30
0.0
 40
1.00859785540936
100
AcDbArc
 50
355.3048862647
 51
94.1051366066
  0
LINE
  5
8E
330
1F
100
AcDbEntity
  8
0
  6
Continuous
 62
     7
370
    15
100
AcDbLine
 10
277.4109622202
 20
132.0822815233
 30
0.0
 11
277.9971450967
 21
138.7451499007
 31
0.0
  0
ARC
  5
8F
330
1F
100
AcDbEntity
  8
0
  6
Continuous
 62
     7
370
    15
100
AcDbCircle
 10
276.4400338252
 20
132.167695143
 30
0.0
 40
0.9746781185187727
100
AcDbArc
 50
273.9339528679
 51
354.9725706679
  0
CIRCLE
  5
90
330
1F
100
AcDbEntity
  8
0
  6
Continuous
 62
     7
370
    15
100
AcDbCircle
 10
273.3768625504
 20
135.2392734459
 30
0.0
 40
2.552677578134576
  0
LWPOLYLINE
  5
91
330
1F
100
AcDbEntity
  8
0
  6
Continuous
 62
     7
370
    15
100
AcDbPolyline
 90
        3
 70
   128
 43
0.0
 10
275.4218128603
 20
134.3527828702
 10
275.3812765967
 20
135.0794527683
 10
275.3745440282
 20
135.1118281096
  0
ARC
  5
92
330
1F
100
AcDbEntity
  8
0
  6
Continuous
 62
     7
370
    15
100
AcDbCircle
 10
272.8299635546
 20
134.6189307366
 30
0.0
 40
2.54996051757134
100
AcDbArc
 50
74.0298390234
 51
133.2431514118
  0
LWPOLYLINE
  5
93
330
1F
100
AcDbEntity
  8
0
  6
Continuous
 62
     7
370
    15
100
AcDbPolyline
 90
        3
 70
   128
 43
0.0
 10
275.1459800186
 20
133.4080705398
 10
275.2552688935
 20
133.6471817567
 10
275.4218128603
 20
134.3527828702
  0
LINE
  5
94
330
1F
100
AcDbEntity
  8
0
  6
Continuous
 62
     7
370
    15
100
AcDbLine
 10
279.8498507466
 20
141.6277705383
 30
0.0
 11
280.2492637974
 21
141.6198329885
 31
0.0
  0
LINE
  5
95
330
1F
100
AcDbEntity
  8
0
  6
Continuous
 62
     7
370
    15
100
AcDbLine
 10
278.8024669288
 20
129.7226453593
 30
0.0
 11
279.2018799795
 21
129.7147078095
 31
0.0
  0
LINE
  5
96
330
1F
100
AcDbEntity
  8
0
  6
Continuous
 62
     7
370
    15
100
AcDbLine
 10
278.8854683502
 20
140.6643244498
 30
0.0
 11
279.8498507466
 21
141.6277705383
 31
0.0
  0
SPLINE
  5
97
330
1F
100
AcDbEntity
  8
0
  6
Continuous
 62
     7
370
    15
100
AcDbSpline
210
0.0
220
0.0
230
1.0
 70
     8
 71
     3
 72
    11
 73
     7
 74
     0
 42
0.00000001
 43
0.00000001
 40
0.0
 40
0.0
 40
0.0
 40
0.0
 40
0.0081164391031446
 40
0.3263678516910816
 40
0.6627685813470056
 40
0.9999999999999999
 40
0.9999999999999999
 40
0.9999999999999999
 40
0.9999999999999999
 10
277.7116634838392
 20
130.749372502243
 30
0.0
 10
277.7127483120633
 20
130.7480400528003
 30
0.0
 10
277.756370034894
 20
130.6944613027391
 30
0.0
 10
277.8551035788314
 20
130.5803083528956
 30
0.0
 10
278.0228666217385
 20
130.4043892819736
 30
0.0
 10
278.1371801492066
 20
130.3011298419605
 30
0.0
 10
278.1944073957626
 20
130.249436454802
 30
0.0
  0
ARC
  5
98
330
1F
100
AcDbEntity
  8
0
  6
Continuous
 62
     7
370
    15
100
AcDbCircle
 10
278.3351697811
 20
129.0893718601
 30
0.0
 40
0.391258937479442
100
AcDbArc
 50
274.0077744638
 51
322.8547166291
  0
SPLINE
  5
99
330
1F
100
AcDbEntity
  8
0
  6
Continuous
 62
     7
370
    15
100
AcDbSpline
210
0.0
220
0.0
230
1.0
 70
     8
 71
     3
 72
    11
 73
     7
 74
     0
 42
0.00000001
 43
0.00000001
 40
0.0
 40
0.0
 40
0.0
 40
0.0
 40
0.3372314186520936
 40
0.6736321483071394
 40
0.9918835608968909
 40
1.0
 40
1.0
 40
1.0
 40
1.0
 10
268.411242537966
 20
140.1338612213708
 30
0.0
 10
268.463221378989
 20
140.0752181915909
 30
0.0
 10
268.567051023584
 20
139.9580765851185
 30
0.0
 10
268.7403138529397
 20
139.7894400212496
 30
0.0
 10
268.8513819512947
 20
139.6916197927532
 30
0.0
 10
268.9031472150936
 20
139.6488242603853
 30
0.0
 10
268.9044345649631
 20
139.6477599786843
 30
0.0
  0
LINE
  5
9A
330
1F
100
AcDbEntity
  8
0
  6
Continuous
 62
     7
370
    15
100
AcDbLine
 10
267.8781989276
 20
140.7599841711
 30
0.0
 11
267.8681939996
 21
141.1657022497
 31
0.0
  0
LINE
  5
9B
330
1F
100
AcDbEntity
  8
0
  6
Continuous
 62
     7
370
    15
100
AcDbLine
 10
279.8498507466
 20
141.6277705383
 30
0.0
 11
279.8398458186
 21
142.0334886172
 31
0.0
  0
ARC
  5
9C
330
1F
100
AcDbEntity
  8
0
  6
Continuous
 62
     7
370
    15
100
AcDbCircle
 10
267.3951583245
 20
140.1380477412
 30
0.0
 40
0.3893458700114278
100
AcDbArc
 50
142.9602457427
 51
175.0215615637
  0
SPLINE
  5
9D
330
1F
100
AcDbEntity
  8
0
  6
Continuous
 62
     7
370
    15
100
AcDbSpline
210
0.0
220
0.0
230
1.0
 70
     8
 71
     3
 72
    11
 73
     7
 74
     0
 42
0.00000001
 43
0.00000001
 40
0.0
 40
0.0
 40
0.0
 40
0.0
 40
0.0076282660081479
 40
0.3209888652310267
 40
0.6632168868585822
 40
1.0
 40
1.0
 40
1.0
 40
1.0
 10
278.4070960779472
 20
140.1976979389273
 30
0.0
 10
278.4081107331927
 20
140.1986608931394
 30
0.0
 10
278.4508062862192
 20
140.2391809247529
 30
0.0
 10
278.5479094376272
 20
140.3322587394487
 30
0.0
 10
278.7126202271824
 20
140.4925490707291
 30
0.0
 10
278.8281611454083
 20
140.607372909607
 30
0.0
 10
278.8854683501696
 20
140.6643244497807
 30
0.0
  0
LINE
  5
9E
330
1F
100
AcDbEntity
  8
0
  6
Continuous
 62
     7
370
    15
100
AcDbLine
 10
270.9187285279
 20
135.7235474743
 30
0.0
 11
271.2573202069
 21
136.0916814424
 31
0.0
  0
LINE
  5
9F
330
1F
100
AcDbEntity
  8
0
  6
Continuous
 62
     7
370
    15
100
AcDbLine
 10
271.2573202069
 20
136.0916814424
 30
0.0
 11
270.9367695805
 21
135.2183512371
 31
0.0
  0
LINE
  5
A0
330
1F
100
AcDbEntity
  8
0
  6
Continuous
 62
     7
370
    15
100
AcDbLine
 10
270.9367695805
 20
135.2183512371
 30
0.0
 11
270.8078930675
 21
135.0782301856
 31
0.0
  0
ELLIPSE
  5
A1
330
1F
100
AcDbEntity
  8
0
  6
Continuous
 62
     7
370
    15
100
AcDbEllipse
 10
273.1530436435
 20
134.8798202642
 30
0.0
 11
1.780676308557133
 21
-1.375799859026756
 31
0.0
210
0.0
220
0.0
230
1.0
 40
0.984640649
 41
3.654433650240205
 42
4.059979398289272
  0
ELLIPSE
  5
A2
330
1F
100
AcDbEntity
  8
0
  6
Continuous
 62
     7
370
    15
100
AcDbEllipse
 10
273.1530436435
 20
134.8798202642
 30
0.0
 11
1.780676308557133
 21
-1.375799859026756
 31
0.0
210
0.0
220
0.0
230
1.0
 40
0.984640649
 41
5.694067949232731
 42
6.373604543111673
  0
ELLIPSE
  5
A3
330
1F
100
AcDbEntity
  8
0
  6
Continuous
 62
     7
370
    15
100
AcDbEllipse
 10
273.1530436435
 20
134.8798202642
 30
0.0
 11
1.780676308557133
 21
-1.375799859026756
 31
0.0
210
0.0
220
0.0
230
1.0
 40
0.984640649
 41
0.5128409966504233
 42
3.232011889521856
  0
LINE
  5
A4
330
1F
100
AcDbEntity
  8
0
  6
Continuous
 62
     7
370
    15
100
AcDbLine
 10
275.0487670802
 20
133.667959086
 30
0.0
 11
275.3693177066
 21
134.5412892912
 31
0.0
  0
LWPOLYLINE
  5
A5
330
1F
100
AcDbEntity
  8
0
  6
Continuous
 62
     7
370
    15
100
AcDbPolyline
 90
        3
 70
   128
 43
0.0
 10
271.1037529138
 20
136.5153744153
 10
271.6450804377
 20
136.6575977935
 10
271.8053321514
 20
136.6787106307
  0
LWPOLYLINE
  5
A6
330
1F
100
AcDbEntity
  8
0
  6
Continuous
 62
     7
370
    15
100
AcDbPolyline
 90
        3
 70
   128
 43
0.0
 10
275.0276365934
 20
133.6353460008
 10
275.0205001972
 20
133.531763138
 10
274.9849736568
 20
133.2680642496
  0
CIRCLE
  5
A7
330
1F
100
AcDbEntity
  8
0
  6
Continuous
 62
     7
370
    15
100
AcDbCircle
 10
268.9069878287
 20
123.3714976572
 30
0.0
 40
3.964565554895989
  0
CIRCLE
  5
A8
330
1F
100
AcDbEntity
  8
0
  6
Continuous
 62
     7
370
    15
100
AcDbCircle
 10
268.9582706636
 20
123.435700236
 30
0.0
 40
3.466004005221031
  0
CIRCLE
  5
A9
330
1F
100
AcDbEntity
  8
0
  6
Continuous
 62
     7
370
    15
100
AcDbCircle
 10
268.9675789512
 20
123.4173574587
 30
0.0
 40
1.982972306197215
  0
SPLINE
  5
AA
330
1F
100
AcDbEntity
  8
0
  6
Continuous
 62
     7
370
    15
100
AcDbSpline
210
0.0
220
0.0
230
1.0
 70
     8
 71
     3
 72
    11
 73
     7
 74
     0
 42
0.00000001
 43
0.00000001
 40
0.0
 40
0.0
 40
0.0
 40
0.0
 40
0.1081100880371303
 40
0.4711580666043668
 40
0.8135808430836178
 40
1.0
 40
1.0
 40
1.0
 40
1.0
 10
270.053018782021
 20
122.0250264683685
 30
0.0
 10
270.0700112918005
 20
122.0753489573824
 30
0.0
 10
270.1440668975241
 20
122.2946610221584
 30
0.0
 10
270.2959774767511
 20
122.7266495423242
 30
0.0
 10
270.4906572264578
 20
123.2423036972214
 30
0.0
 10
270.6026809670225
 20
123.5275970737081
 30
0.0
 10
270.6421698387476
 20
123.6281642703693
 30
0.0
  0
SPLINE
  5
AB
330
1F
100
AcDbEntity
  8
0
  6
Continuous
 62
     7
370
    15
100
AcDbSpline
210
0.0
220
0.0
230
1.0
 70
     8
 71
     3
 72
    10
 73
     6
 74
     0
 42
0.00000001
 43
0.00000001
 40
0.0
 40
0.0
 40
0.0
 40
0.0
 40
0.4391165375904323
 40
0.7513669429073558
 40
1.0
 40
1.0
 40
1.0
 40
1.0
 10
270.6421698387476
 20
123.6281642703693
 30
0.0
 10
270.4729209554029
 20
123.8043604522987
 30
0.0
 10
270.183321258778
 20
124.1058475866587
 30
0.0
 10
269.79721549253
 20
124.5902965834136
 30
0.0
 10
269.6154864082197
 20
124.8452556069194
 30
0.0
 10
269.5349280376794
 20
124.9582759501745
 30
0.0
  0
SPLINE
  5
AC
330
1F
100
AcDbEntity
  8
0
  6
Continuous
 62
     7
370
    15
100
AcDbSpline
210
0.0
220
0.0
230
1.0
 70
     8
 71
     3
 72
    10
 73
     6
 74
     0
 42
0.00000001
 43
0.00000001
 40
0.0
 40
0.0
 40
0.0
 40
0.0
 40
0.43911653759041
 40
0.7513669429073399
 40
1.0
 40
1.0
 40
1.0
 40
1.0
 10
269.5349280376794
 20
124.9582759501745
 30
0.0
 10
269.2813376386715
 20
124.9049705968115
 30
0.0
 10
268.8474222049718
 20
124.8137604578886
 30
0.0
 10
268.2515280258165
 20
124.7273546096703
 30
0.0
 10
267.9653808604455
 20
124.6981817945761
 30
0.0
 10
267.8385351798848
 20
124.6852498279788
 30
0.0
  0
SPLINE
  5
AD
330
1F
100
AcDbEntity
  8
0
  6
Continuous
 62
     7
370
    15
100
AcDbSpline
210
0.0
220
0.0
230
1.0
 70
     8
 71
     3
 72
    11
 73
     7
 74
     0
 42
0.00000001
 43
0.00000001
 40
0.0
 40
0.0
 40
0.0
 40
0.0
 40
0.1864191569163843
 40
0.5288419333956392
 40
0.8918899119628729
 40
1.0
 40
1.0
 40
1.0
 40
1.0
 10
267.8385351798848
 20
124.6852498279788
 30
0.0
 10
267.7990463081597
 20
124.5846826313176
 30
0.0
 10
267.6870225675951
 20
124.2993892548308
 30
0.0
 10
267.4923428178884
 20
123.7837350999337
 30
0.0
 10
267.3404322386614
 20
123.3517465797678
 30
0.0
 10
267.2663766329377
 20
123.1324345149919
 30
0.0
 10
267.2493841231583
 20
123.0821120259779
 30
0.0
  0
SPLINE
  5
AE
330
1F
100
AcDbEntity
  8
0
  6
Continuous
 62
     7
370
    15
100
AcDbSpline
210
0.0
220
0.0
230
1.0
 70
     8
 71
     3
 72
    10
 73
     6
 74
     0
 42
0.00000001
 43
0.00000001
 40
0.0
 40
0.0
 40
0.0
 40
0.0
 40
0.4391165375904297
 40
0.7513669429073233
 40
1.0
 40
1.0
 40
1.0
 40
1.0
 10
267.2493841231583
 20
123.0821120259779
 30
0.0
 10
267.3971556393925
 20
122.877476725742
 30
0.0
 10
267.6500056755374
 20
122.5273277634805
 30
0.0
 10
268.0524464034305
 20
122.0645086017221
 30
0.0
 10
268.2632009201179
 20
121.8479834188736
 30
0.0
 10
268.3566259242265
 20
121.7520003461728
 30
0.0
  0
SPLINE
  5
AF
330
1F
100
AcDbEntity
  8
0
  6
Continuous
 62
     7
370
    15
100
AcDbSpline
210
0.0
220
0.0
230
1.0
 70
     8
 71
     3
 72
    10
 73
     6
 74
     0
 42
0.00000001
 43
0.00000001
 40
0.0
 40
0.0
 40
0.0
 40
0.0
 40
0.4391165375904009
 40
0.7513669429073553
 40
1.0
 40
1.0
 40
1.0
 40
1.0
 10
268.3566259242265
 20
121.7520003461728
 30
0.0
 10
268.5887389561238
 20
121.7768665812292
 30
0.0
 10
268.9859047293435
 20
121.8194148922505
 30
0.0
 10
269.598133870144
 20
121.9274505754653
 30
0.0
 10
269.913306467892
 20
121.9950572312169
 30
0.0
 10
270.053018782021
 20
122.0250264683685
 30
0.0
  0
LINE
  5
B0
330
1F
100
AcDbEntity
  8
0
  6
Continuous
 62
     7
370
    15
100
AcDbLine
 10
269.8361311588
 20
121.979813645
 30
0.0
 11
269.9574887746
 21
122.310039619
 31
0.0
  0
LINE
  5
B1
330
1F
100
AcDbEntity
  8
0
  6
Continuous
 62
     7
370
    15
100
AcDbLine
 10
269.9574887746
 20
122.310039619
 30
0.0
 11
270.252064303
 21
123.11160852
 31
0.0
  0
LINE
  5
B2
330
1F
100
AcDbEntity
  8
0
  6
Continuous
 62
     7
370
    15
100
AcDbLine
 10
270.252064303
 20
123.11160852
 30
0.0
 11
270.6421698387
 21
123.6281642704
 31
0.0
  0
LINE
  5
B3
330
1F
100
AcDbEntity
  8
0
  6
Continuous
 62
     7
370
    15
100
AcDbLine
 10
269.1448225019
 20
124.4417201998
 30
0.0
 11
269.5349280377
 21
124.9582759502
 31
0.0
  0
LINE
  5
B4
330
1F
100
AcDbEntity
  8
0
  6
Continuous
 62
     7
370
    15
100
AcDbLine
 10
269.1448225019
 20
124.4417201998
 30
0.0
 11
268.296626073
 21
124.3052071387
 31
0.0
  0
LINE
  5
B5
330
1F
100
AcDbEntity
  8
0
  6
Continuous
 62
     7
370
    15
100
AcDbLine
 10
268.296626073
 20
124.3052071387
 30
0.0
 11
267.6520065884
 21
124.2014587898
 31
0.0
  0
LINE
  5
B6
330
1F
100
AcDbEntity
  8
0
  6
Continuous
 62
     7
370
    15
100
AcDbLine
 10
270.252064303
 20
123.11160852
 30
0.0
 11
269.6984434025
 21
123.7766643599
 31
0.0
  0
LINE
  5
B7
330
1F
100
AcDbEntity
  8
0
  6
Continuous
 62
     7
370
    15
100
AcDbLine
 10
269.6984434025
 20
123.7766643599
 30
0.0
 11
269.1448225019
 21
124.4417201998
 31
0.0
  0
ARC
  5
B8
330
1F
100
AcDbEntity
  8
0
  6
Continuous
 62
     7
370
    15
100
AcDbCircle
 10
268.5331545325
 20
122.8092923605
 30
0.0
 40
1.514498839823717
100
AcDbArc
 50
39.6979781951
 51
98.9850101531
  0
ARC
  5
B9
330
1F
100
AcDbEntity
  8
0
  6
Continuous
 62
     7
370
    15
100
AcDbCircle
 10
268.5564308745
 20
122.8187646744
 30
0.0
 40
1.490558426082343
100
AcDbArc
 50
340.044006791
 51
39.9893226861
  0
ARC
  5
BA
330
1F
100
AcDbEntity
  8
0
  6
Continuous
 62
     7
370
    15
100
AcDbCircle
 10
268.5904923089
 20
122.8121916533
 30
0.0
 40
1.456309034120906
100
AcDbArc
 50
323.4993570165
 51
339.8297134072
  0
ARC
  5
BB
330
1F
100
AcDbEntity
  8
0
  6
Continuous
 62
     7
370
    15
100
AcDbCircle
 10
268.5284156608
 20
122.8544876131
 30
0.0
 40
1.469119993366988
100
AcDbArc
 50
99.0777404338
 51
132.4176894202
  0
LINE
  5
BC
330
1F
100
AcDbEntity
  8
0
  6
Continuous
 62
     7
370
    15
100
AcDbLine
 10
161.6625251601
 20
84.8673691614
 30
0.0
 11
161.6625251601
 21
134.9042868577
 31
0.0
  0
SPLINE
  5
BD
330
1F
100
AcDbEntity
  8
0
  6
Continuous
 62
     7
370
    15
100
AcDbSpline
210
0.0
220
0.0
230
1.0
 70
     8
 71
     3
 72
     8
 73
     4
 74
     0
 42
0.00000001
 43
0.00000001
 40
0.0
 40
0.0
 40
0.0
 40
0.0
 40
1.0
 40
1.0
 40
1.0
 40
1.0
 10
161.6625251600684
 20
84.86736916143941
 30
0.0
 10
161.1670454994027
 20
85.76289524937275
 30
0.0
 10
160.6729314513605
 20
86.659179664425
 30
0.0
 10
160.1805923285794
 20
87.5564496986317
 30
0.0
  0
LINE
  5
BE
330
1F
100
AcDbEntity
  8
0
  6
Continuous
 62
     7
370
    15
100
AcDbLine
 10
160.1805923286
 20
87.5564496986
 30
0.0
 11
160.1805923286
 21
134.9042868577
 31
0.0
  0
SPLINE
  5
BF
330
1F
100
AcDbEntity
  8
0
  6
Continuous
 62
     7
370
    15
100
AcDbSpline
210
0.0
220
0.0
230
1.0
 70
    24
 71
     3
 72
     8
 73
     4
 74
     0
 42
0.00000001
 43
0.00000001
 40
0.0
 40
0.0
 40
0.0
 40
0.0
 40
1.0
 40
1.0
 40
1.0
 40
1.0
 10
160.1805923285794
 20
134.9042868576866
 30
0.0
 10
160.6605443229443
 20
134.9042868576866
 30
0.0
 10
161.1558450519179
 20
134.9042868576866
 30
0.0
 10
161.6625251600684
 20
134.9042868576866
 30
0.0
  0
LINE
  5
C0
330
1F
100
AcDbEntity
  8
0
  6
Continuous
 62
     7
370
    15
100
AcDbLine
 10
165.6205923286
 20
84.8673691614
 30
0.0
 11
161.6625251601
 21
84.8673691614
 31
0.0
  0
LINE
  5
C1
330
1F
100
AcDbEntity
  8
0
  6
Continuous
 62
     7
370
    15
100
AcDbLine
 10
161.6625251601
 20
134.9042868577
 30
0.0
 11
165.6205923286
 21
134.9042868577
 31
0.0
  0
LINE
  5
C2
330
1F
100
AcDbEntity
  8
0
  6
Continuous
 62
     7
370
    15
100
AcDbLine
 10
166.2205923286
 20
85.4940094571
 30
0.0
 11
166.2205923286
 21
134.9042868577
 31
0.0
  0
SPLINE
  5
C3
330
1F
100
AcDbEntity
  8
0
  6
Continuous
 62
     7
370
    15
100
AcDbSpline
210
0.0
220
0.0
230
1.0
 70
     8
 71
     3
 72
    10
 73
     6
 74
     0
 42
0.00000001
 43
0.00000001
 40
0.0
 40
0.0
 40
0.0
 40
0.0
 40
0.5
 40
0.5
 40
1.0
 40
1.0
 40
1.0
 40
1.0
 10
166.2205923285794
 20
85.49400945709374
 30
0.0
 10
166.2205923285794
 20
85.33412218890007
 30
0.0
 10
166.1592826773435
 20
85.17299493338548
 30
0.0
 10
165.9401830398085
 20
84.93889593503064
 30
0.0
 10
165.782134833495
 20
84.86736916143941
 30
0.0
 10
165.6205923285794
 20
84.86736916143941
 30
0.0
  0
SPLINE
  5
C4
330
1F
100
AcDbEntity
  8
0
  6
Continuous
 62
     7
370
    15
100
AcDbSpline
210
0.0
220
0.0
230
1.0
 70
    24
 71
     3
 72
    12
 73
     8
 74
     0
 42
0.00000001
 43
0.00000001
 40
0.0
 40
0.0
 40
0.0
 40
0.0
 40
0.2500000000000013
 40
0.2500000000000013
 40
0.5000000000000027
 40
0.5000000000000027
 40
1.0
 40
1.0
 40
1.0
 40
1.0
 10
165.6205923285794
 20
134.9042868576866
 30
0.0
 10
165.7108313962664
 20
134.9042868576866
 30
0.0
 10
165.8017295103729
 20
134.9042868576866
 30
0.0
 10
165.9563265468614
 20
134.9042868576866
 30
0.0
 10
166.0213049629695
 20
134.9042868576866
 30
0.0
 10
166.1731399909058
 20
134.9042868576866
 30
0.0
 10
166.2205923285794
 20
134.9042868576866
 30
0.0
 10
166.2205923285794
 20
134.9042868576866
 30
0.0
  0
LINE
  5
C5
330
1F
100
AcDbEntity
  8
0
  6
Continuous
 62
     7
370
    15
100
AcDbLine
 10
156.3605923286
 20
87.5564496986
 30
0.0
 11
156.3605923286
 21
134.9042868577
 31
0.0
  0
SPLINE
  5
C6
330
1F
100
AcDbEntity
  8
0
  6
Continuous
 62
     7
370
    15
100
AcDbSpline
210
0.0
220
0.0
230
1.0
 70
     8
 71
     3
 72
     8
 73
     4
 74
     0
 42
0.00000001
 43
0.00000001
 40
0.0
 40
0.0
 40
0.0
 40
0.0
 40
1.0
 40
1.0
 40
1.0
 40
1.0
 10
156.3605923285793
 20
87.55644969863168
 30
0.0
 10
155.8682532057982
 20
86.659179664425
 30
0.0
 10
155.374139157756
 20
85.76289524937275
 30
0.0
 10
154.8786594970903
 20
84.8673691614394
 30
0.0
  0
LINE
  5
C7
330
1F
100
AcDbEntity
  8
0
  6
Continuous
 62
     7
370
    15
100
AcDbLine
 10
154.8786594971
 20
84.8673691614
 30
0.0
 11
154.8786594971
 21
134.9042868577
 31
0.0
  0
SPLINE
  5
C8
330
1F
100
AcDbEntity
  8
0
  6
Continuous
 62
     7
370
    15
100
AcDbSpline
210
0.0
220
0.0
230
1.0
 70
    24
 71
     3
 72
     8
 73
     4
 74
     0
 42
0.00000001
 43
0.00000001
 40
0.0
 40
0.0
 40
0.0
 40
0.0
 40
1.0
 40
1.0
 40
1.0
 40
1.0
 10
154.8786594970903
 20
134.9042868576866
 30
0.0
 10
155.3853396052408
 20
134.9042868576866
 30
0.0
 10
155.8806403342145
 20
134.9042868576866
 30
0.0
 10
156.3605923285793
 20
134.9042868576866
 30
0.0
  0
LINE
  5
C9
330
1F
100
AcDbEntity
  8
0
  6
Continuous
 62
     7
370
    15
100
AcDbLine
 10
145.2205923286
 20
134.9042868577
 30
0.0
 11
154.8786594971
 21
134.9042868577
 31
0.0
  0
LINE
  5
CA
330
1F
100
AcDbEntity
  8
0
  6
Continuous
 62
     7
370
    15
100
AcDbLine
 10
154.8786594971
 20
84.8673691614
 30
0.0
 11
153.2205923286
 21
84.8673691614
 31
0.0
  0
SPLINE
  5
CB
330
1F
100
AcDbEntity
  8
0
  6
Continuous
 62
     7
370
    15
100
AcDbSpline
210
0.0
220
0.0
230
1.0
 70
     8
 71
     3
 72
    28
 73
    24
 74
     0
 42
0.00000001
 43
0.00000001
 40
0.0
 40
0.0
 40
0.0
 40
0.0
 40
0.1250000000000003
 40
0.1250000000000003
 40
0.1875000000000002
 40
0.1875000000000002
 40
0.2500000000000002
 40
0.2500000000000002
 40
0.3750000000000004
 40
0.3750000000000004
 40
0.4375000000000003
 40
0.4375000000000003
 40
0.5000000000000004
 40
0.5000000000000004
 40
0.6250000000000003
 40
0.6250000000000003
 40
0.7500000000000003
 40
0.7500000000000003
 40
0.8125000000000002
 40
0.8125000000000002
 40
0.8750000000000001
 40
0.8750000000000001
 40
1.0
 40
1.0
 40
1.0
 40
1.0
 10
153.2205923285794
 20
84.86736916143943
 30
0.0
 10
152.6888845710864
 20
84.86736916143943
 30
0.0
 10
152.1666460057761
 20
84.85158444748919
 30
0.0
 10
151.3967755195011
 20
84.80658903341298
 30
0.0
 10
151.1424159473098
 20
84.78803403833727
 30
0.0
 10
150.6382943666112
 20
84.74418131589078
 30
0.0
 10
150.3885715491833
 20
84.71883670893858
 30
0.0
 10
149.6629815977369
 20
84.63543463118846
 30
0.0
 10
149.2046213361554
 20
84.56956907203737
 30
0.0
 10
148.5541233927615
 20
84.4605987315456
 30
0.0
 10
148.342441341969
 20
84.42235909577894
 30
0.0
 10
147.938369852831
 20
84.34460035835959
 30
0.0
 10
147.7458633390102
 20
84.30509939618423
 30
0.0
 10
147.1960283679889
 20
84.18619165381824
 30
0.0
 10
146.8660995896801
 20
84.10637397239363
 30
0.0
 10
146.2816283211114
 20
83.95303081059755
 30
0.0
 10
146.035351183098
 20
83.88169705732831
 30
0.0
 10
145.7355083903999
 20
83.7877535502537
 30
0.0
 10
145.6470515333278
 20
83.75855975689375
 30
0.0
 10
145.4936901800226
 20
83.70509318263034
 30
0.0
 10
145.4286019657964
 20
83.68073384835517
 30
0.0
 10
145.2730079498556
 20
83.61714370291043
 30
0.0
 10
145.2205923285794
 20
83.5870407678212
 30
0.0
 10
145.2205923285794
 20
83.5701638748243
 30
0.0
  0
LINE
  5
CC
330
1F
100
AcDbEntity
  8
0
  6
Continuous
 62
     7
370
    15
100
AcDbLine
 10
145.2205923286
 20
83.5701638748
 30
0.0
 11
145.2205923286
 21
83.5542868577
 31
0.0
  0
SPLINE
  5
CD
330
1F
100
AcDbEntity
  8
0
  6
Continuous
 62
     7
370
    15
100
AcDbSpline
210
0.0
220
0.0
230
1.0
 70
     8
 71
     3
 72
    23
 73
    19
 74
     0
 42
0.00000001
 43
0.00000001
 40
0.0
 40
0.0
 40
0.0
 40
0.0
 40
0.0518259003867912
 40
0.1565092339634446
 40
0.2099963690812568
 40
0.2617907918164912
 40
0.3139396426568545
 40
0.3664904598033951
 40
0.4198645870152603
 40
0.5257523707707072
 40
0.579475382640264
 40
0.6339599687440604
 40
0.6872811654597962
 40
0.7409820932582549
 40
0.7958985452503858
 40
0.8512434577627586
 40
0.9563114061049447
 40
0.9999999999999999
 40
0.9999999999999999
 40
0.9999999999999999
 40
0.9999999999999999
 10
153.2205923285794
 20
145.5214823308508
 30
0.0
 10
153.0027121145196
 20
145.5228920862751
 30
0.0
 10
152.3447348262567
 20
145.5271494120503
 30
0.0
 10
151.4696746409767
 20
145.5667307849781
 30
0.0
 10
150.6250159884745
 20
145.6296833513071
 30
0.0
 10
150.0100603677725
 20
145.6882549501368
 30
0.0
 10
149.4210818288932
 20
145.7556913140519
 30
0.0
 10
148.8525561539185
 20
145.8313662252118
 30
0.0
 10
148.1317026554008
 20
145.9400996479952
 30
0.0
 10
147.4742267916709
 20
146.0562498138808
 30
0.0
 10
146.8964890985513
 20
146.1700237854862
 30
0.0
 10
146.5051719516975
 20
146.2521059098682
 30
0.0
 10
146.1613365121067
 20
146.3280991776712
 30
0.0
 10
145.8663516682405
 20
146.3961405924233
 30
0.0
 10
145.6206486719097
 20
146.4548319353397
 30
0.0
 10
145.3739063235872
 20
146.5153975598519
 30
0.0
 10
145.2345915981485
 20
146.5507350781546
 30
0.0
 10
145.2270201879267
 20
146.5526559587767
 30
0.0
 10
145.2247965259524
 20
146.5532201058869
 30
0.0
  0
LINE
  5
CE
330
1F
100
AcDbEntity
  8
0
  6
Continuous
 62
     7
370
    15
100
AcDbLine
 10
154.8786594971
 20
145.5214823309
 30
0.0
 11
153.2205923286
 21
145.5214823309
 31
0.0
  0
LINE
  5
CF
330
1F
100
AcDbEntity
  8
0
  6
Continuous
 62
     7
370
    15
100
AcDbLine
 10
154.8786594971
 20
139.5129765201
 30
0.0
 11
154.8786594971
 21
145.5214823309
 31
0.0
  0
LINE
  5
D0
330
1F
100
AcDbEntity
  8
0
  6
Continuous
 62
     7
370
    15
100
AcDbLine
 10
152.4662126743
 20
139.5129765201
 30
0.0
 11
154.8786594971
 21
139.5129765201
 31
0.0
  0
SPLINE
  5
D1
330
1F
100
AcDbEntity
  8
0
  6
Continuous
 62
     7
370
    15
100
AcDbSpline
210
0.0
220
0.0
230
1.0
 70
     8
 71
     3
 72
    20
 73
    16
 74
     0
 42
0.00000001
 43
0.00000001
 40
0.0
 40
0.0
 40
0.0
 40
0.0
 40
0.2499999999999997
 40
0.2499999999999997
 40
0.3749999999999997
 40
0.3749999999999997
 40
0.4999999999999998
 40
0.4999999999999998
 40
0.6249999999999998
 40
0.6249999999999998
 40
0.7499999999999999
 40
0.7499999999999999
 40
0.8749999999999999
 40
0.8749999999999999
 40
1.0
 40
1.0
 40
1.0
 40
1.0
 10
145.2205923285794
 20
134.9042868576866
 30
0.0
 10
145.4689660628675
 20
135.558149285984
 30
0.0
 10
145.7885361552127
 20
136.1619350679811
 30
0.0
 10
146.4108423884174
 20
136.9887738041497
 30
0.0
 10
146.6422666488481
 20
137.2512024421026
 30
0.0
 10
147.1634809884978
 20
137.7478650962076
 30
0.0
 10
147.4501014711329
 20
137.9784519752291
 30
0.0
 10
148.0695862124405
 20
138.3950061998117
 30
0.0
 10
148.4038865919275
 20
138.5825040017792
 30
0.0
 10
149.1291470645523
 20
138.9139009794156
 30
0.0
 10
149.5110621219428
 20
139.0534049669109
 30
0.0
 10
150.3058502981144
 20
139.2788584743819
 30
0.0
 10
150.7200084923208
 20
139.3654845859255
 30
0.0
 10
151.5855548329022
 20
139.4834653747796
 30
0.0
 10
152.023442447914
 20
139.512976520054
 30
0.0
 10
152.4662126742686
 20
139.512976520054
 30
0.0
  0
LINE
  5
D2
330
1F
100
AcDbEntity
  8
0
  6
Continuous
 62
     7
370
    15
100
AcDbLine
 10
140.2705923286
 20
83.8542868577
 30
0.0
 11
140.2705923286
 21
146.254286852
 31
0.0
  0
SPLINE
  5
D3
330
1F
100
AcDbEntity
  8
0
  6
Continuous
 62
     7
370
    15
100
AcDbSpline
210
0.0
220
0.0
230
1.0
 70
     8
 71
     3
 72
    10
 73
     6
 74
     0
 42
0.00000001
 43
0.00000001
 40
0.0
 40
0.0
 40
0.0
 40
0.0
 40
0.5
 40
0.5
 40
1.0
 40
1.0
 40
1.0
 40
1.0
 10
156.7548898602703
 20
141.4542868576866
 30
0.0
 10
156.6333495966018
 20
141.5290130248983
 30
0.0
 10
156.5320152362529
 20
141.6379580408151
 30
0.0
 10
156.3963762933645
 20
141.8883885215767
 30
0.0
 10
156.3605923285793
 20
142.0308078836757
 30
0.0
 10
156.3605923285793
 20
142.1739407087224
 30
0.0
  0
SPLINE
  5
D4
330
1F
100
AcDbEntity
  8
0
  6
Continuous
 62
     7
370
    15
100
AcDbSpline
210
0.0
220
0.0
230
1.0
 70
    24
 71
     3
 72
    12
 73
     8
 74
     0
 42
0.00000001
 43
0.00000001
 40
0.0
 40
0.0
 40
0.0
 40
0.0
 40
0.2500000000000037
 40
0.2500000000000037
 40
0.5000000000000074
 40
0.5000000000000074
 40
1.0
 40
1.0
 40
1.0
 40
1.0
 10
157.1605923285794
 20
141.4542868576866
 30
0.0
 10
157.1112489667698
 20
141.4542868576866
 30
0.0
 10
157.0625582684682
 20
141.4542868576866
 30
0.0
 10
156.9797071708977
 20
141.4542868576866
 30
0.0
 10
156.9435072032771
 20
141.4542868576866
 30
0.0
 10
156.8477572867277
 20
141.4542868576866
 30
0.0
 10
156.7978753169156
 20
141.4542868576866
 30
0.0
 10
156.7548898602703
 20
141.4542868576866
 30
0.0
  0
SPLINE
  5
D5
330
1F
100
AcDbEntity
  8
0
  6
Continuous
 62
     7
370
    15
100
AcDbSpline
210
0.0
220
0.0
230
1.0
 70
    24
 71
     3
 72
    14
 73
    10
 74
     0
 42
0.00000001
 43
0.00000001
 40
0.0
 40
0.0
 40
0.0
 40
0.0
 40
0.1249999999999991
 40
0.1249999999999991
 40
0.2499999999999981
 40
0.2499999999999981
 40
0.4999999999999998
 40
0.4999999999999998
 40
1.0
 40
1.0
 40
1.0
 40
1.0
 10
157.1605923285794
 20
88.65428685768656
 30
0.0
 10
157.0912456068482
 20
88.65428685768654
 30
0.0
 10
157.0260475534643
 20
88.65428685768656
 30
0.0
 10
156.9216683608373
 20
88.65428685768656
 30
0.0
 10
156.8787659898283
 20
88.65428685768656
 30
0.0
 10
156.7664403322236
 20
88.65428685768656
 30
0.0
 10
156.7112166378698
 20
88.65428685768656
 30
0.0
 10
156.5671592591022
 20
88.65428685768656
 30
0.0
 10
156.5050785622707
 20
88.65428685768656
 30
0.0
 10
156.4582671309117
 20
88.65428685768656
 30
0.0
  0
SPLINE
  5
D6
330
1F
100
AcDbEntity
  8
0
  6
Continuous
 62
     7
370
    15
100
AcDbSpline
210
0.0
220
0.0
230
1.0
 70
     8
 71
     3
 72
     9
 73
     5
 74
     0
 42
0.00000001
 43
0.00000001
 40
0.0
 40
0.0
 40
0.0
 40
0.0
 40
0.5
 40
1.0
 40
1.0
 40
1.0
 40
1.0
 10
156.3605923285793
 20
135.1901534891479
 30
0.0
 10
156.3605923285793
 20
135.1419214370252
 30
0.0
 10
156.3649983032846
 20
135.0460514235857
 30
0.0
 10
156.3780174833784
 20
134.9513427936023
 30
0.0
 10
156.3867399517395
 20
134.9042868576865
 30
0.0
  0
SPLINE
  5
D7
330
1F
100
AcDbEntity
  8
0
  6
Continuous
 62
     7
370
    15
100
AcDbSpline
210
0.0
220
0.0
230
1.0
 70
    24
 71
     3
 72
    14
 73
    10
 74
     0
 42
0.00000001
 43
0.00000001
 40
0.0
 40
0.0
 40
0.0
 40
0.0
 40
0.4999999999999944
 40
0.4999999999999944
 40
0.7499999999999942
 40
0.7499999999999942
 40
0.8749999999999971
 40
0.8749999999999971
 40
1.0
 40
1.0
 40
1.0
 40
1.0
 10
160.0829175262471
 20
88.65428685768656
 30
0.0
 10
160.0361328211989
 20
88.65428685768654
 30
0.0
 10
159.9740816244193
 20
88.65428685768656
 30
0.0
 10
159.8306899858687
 20
88.65428685768656
 30
0.0
 10
159.7745463323175
 20
88.65428685768656
 30
0.0
 10
159.6615953101813
 20
88.65428685768656
 30
0.0
 10
159.6185945481432
 20
88.65428685768656
 30
0.0
 10
159.5145318378367
 20
88.65428685768656
 30
0.0
 10
159.4491995994798
 20
88.65428685768656
 30
0.0
 10
159.3805923285794
 20
88.65428685768656
 30
0.0
  0
SPLINE
  5
D8
330
1F
100
AcDbEntity
  8
0
  6
Continuous
 62
     7
370
    15
100
AcDbSpline
210
0.0
220
0.0
230
1.0
 70
    24
 71
     3
 72
    12
 73
     8
 74
     0
 42
0.00000001
 43
0.00000001
 40
0.0
 40
0.0
 40
0.0
 40
0.0
 40
0.4999999999999983
 40
0.4999999999999983
 40
0.7499999999999991
 40
0.7499999999999991
 40
1.0
 40
1.0
 40
1.0
 40
1.0
 10
159.7862947968884
 20
141.4542868576866
 30
0.0
 10
159.7432092472776
 20
141.4542868576866
 30
0.0
 10
159.6940570455305
 20
141.4542868576866
 30
0.0
 10
159.5975844512409
 20
141.4542868576866
 30
0.0
 10
159.5614828661068
 20
141.4542868576866
 30
0.0
 10
159.4783771082442
 20
141.4542868576866
 30
0.0
 10
159.4303805112802
 20
141.4542868576866
 30
0.0
 10
159.3805923285794
 20
141.4542868576866
 30
0.0
  0
SPLINE
  5
D9
330
1F
100
AcDbEntity
  8
0
  6
Continuous
 62
     7
370
    15
100
AcDbSpline
210
0.0
220
0.0
230
1.0
 70
     8
 71
     3
 72
    10
 73
     6
 74
     0
 42
0.00000001
 43
0.00000001
 40
0.0
 40
0.0
 40
0.0
 40
0.0
 40
0.5
 40
0.5
 40
1.0
 40
1.0
 40
1.0
 40
1.0
 10
160.1805923285793
 20
142.1739407087224
 30
0.0
 10
160.1805923285793
 20
142.0301706509044
 30
0.0
 10
160.1445432698605
 20
141.8877512884092
 30
0.0
 10
160.0090344090865
 20
141.637856995052
 30
0.0
 10
159.9091584159903
 20
141.5298266588038
 30
0.0
 10
159.7862947968884
 20
141.4542868576866
 30
0.0
  0
SPLINE
  5
DA
330
1F
100
AcDbEntity
  8
0
  6
Continuous
 62
     7
370
    15
100
AcDbSpline
210
0.0
220
0.0
230
1.0
 70
     8
 71
     3
 72
    10
 73
     6
 74
     0
 42
0.00000001
 43
0.00000001
 40
0.0
 40
0.0
 40
0.0
 40
0.0
 40
0.5
 40
0.5
 40
1.0
 40
1.0
 40
1.0
 40
1.0
 10
160.1544447054192
 20
134.9042868576866
 30
0.0
 10
160.1631343483309
 20
134.9511657070047
 30
0.0
 10
160.1696734130814
 20
134.998588172406
 30
0.0
 10
160.1784320474744
 20
135.0945249709927
 30
0.0
 10
160.1805923285793
 20
135.1424402590032
 30
0.0
 10
160.1805923285794
 20
135.1901534891477
 30
0.0
  0
LINE
  5
DB
330
1F
100
AcDbEntity
  8
0
  6
Continuous
 62
     7
370
    15
100
AcDbLine
 10
159.3805923286
 20
141.4542868577
 30
0.0
 11
157.1605923286
 21
141.4542868577
 31
0.0
  0
LINE
  5
DC
330
1F
100
AcDbEntity
  8
0
  6
Continuous
 62
     7
370
    15
100
AcDbLine
 10
159.3805923286
 20
88.6542868577
 30
0.0
 11
157.1605923286
 21
88.6542868577
 31
0.0
  0
LINE
  5
DD
330
1F
100
AcDbEntity
  8
0
  6
Continuous
 62
     7
370
    15
100
AcDbLine
 10
138.2705923286
 20
90.833855996
 30
0.0
 11
138.2705923286
 21
139.2747177194
 31
0.0
  0
LINE
  5
DE
330
1F
100
AcDbEntity
  8
0
  6
Continuous
 62
     7
370
    15
100
AcDbLine
 10
118.4705923286
 20
91.8258399639
 30
0.0
 11
118.4705923286
 21
93.1091385984
 31
0.0
  0
SPLINE
  5
DF
330
1F
100
AcDbEntity
  8
0
  6
Continuous
 62
     7
370
    15
100
AcDbSpline
210
0.0
220
0.0
230
1.0
 70
     8
 71
     3
 72
    14
 73
    10
 74
     0
 42
0.00000001
 43
0.00000001
 40
0.0
 40
0.0
 40
0.0
 40
0.0
 40
0.25
 40
0.25
 40
0.5
 40
0.5
 40
0.75
 40
0.75
 40
1.0
 40
1.0
 40
1.0
 40
1.0
 10
117.8489880918396
 20
94.18991564040336
 30
0.0
 10
117.8874244766606
 20
94.08729124269183
 30
0.0
 10
117.9562258700524
 20
93.98809481925224
 30
0.0
 10
118.0995118822114
 20
93.79720278992573
 30
0.0
 10
118.1746939373183
 20
93.70494552389283
 30
0.0
 10
118.3068812259685
 20
93.52533820207783
 30
0.0
 10
118.3643984214383
 20
93.43802864763347
 30
0.0
 10
118.4464432197306
 20
93.26809481411773
 30
0.0
 10
118.4705923285794
 20
93.18619247224656
 30
0.0
 10
118.4705923285794
 20
93.10913859841065
 30
0.0
  0
SPLINE
  5
E0
330
1F
100
AcDbEntity
  8
0
  6
Continuous
 62
     7
370
    15
100
AcDbSpline
210
0.0
220
0.0
230
1.0
 70
     8
 71
     3
 72
    18
 73
    14
 74
     0
 42
0.00000001
 43
0.00000001
 40
0.0
 40
0.0
 40
0.0
 40
0.0
 40
0.0624999999999983
 40
0.0624999999999983
 40
0.1249999999999965
 40
0.1249999999999965
 40
0.2499999999999979
 40
0.2499999999999979
 40
0.4999999999999986
 40
0.4999999999999986
 40
0.7499999999999992
 40
0.7499999999999992
 40
1.0
 40
1.0
 40
1.0
 40
1.0
 10
117.0705923285794
 20
94.90819809188994
 30
0.0
 10
117.1071645389298
 20
94.9119754954174
 30
0.0
 10
117.1458150123652
 20
94.91141846753428
 30
0.0
 10
117.2199065060791
 20
94.90135926237241
 30
0.0
 10
117.2552567998332
 20
94.89200538094784
 30
0.0
 10
117.3498510972226
 20
94.85762095451402
 30
0.0
 10
117.3999892703615
 20
94.82690921985119
 30
0.0
 10
117.5291825419427
 20
94.73097990981316
 30
0.0
 10
117.5874626866838
 20
94.6624644156959
 30
0.0
 10
117.6876577831073
 20
94.52589246576329
 30
0.0
 10
117.727673034554
 20
94.45712756326039
 30
0.0
 10
117.7960724553717
 20
94.3220921341527
 30
0.0
 10
117.8244341792337
 20
94.25547410809955
 30
0.0
 10
117.8489880918396
 20
94.18991564040336
 30
0.0
  0
SPLINE
  5
E1
330
1F
100
AcDbEntity
  8
0
  6
Continuous
 62
     7
370
    15
100
AcDbSpline
210
0.0
220
0.0
230
1.0
 70
     8
 71
     3
 72
    10
 73
     6
 74
     0
 42
0.00000001
 43
0.00000001
 40
0.0
 40
0.0
 40
0.0
 40
0.0
 40
0.5
 40
0.5
 40
1.0
 40
1.0
 40
1.0
 40
1.0
 10
113.1569904674573
 20
94.41200443551838
 30
0.0
 10
113.7846181231646
 20
94.51527799425399
 30
0.0
 10
114.4358188681961
 20
94.60410310600554
 30
0.0
 10
115.7445235722084
 20
94.76621081287585
 30
0.0
 10
116.4055680094996
 20
94.83951027716243
 30
0.0
 10
117.0705923285792
 20
94.90819809189011
 30
0.0
  0
SPLINE
  5
E2
330
1F
100
AcDbEntity
  8
0
  6
Continuous
 62
     7
370
    15
100
AcDbSpline
210
0.0
220
0.0
230
1.0
 70
     8
 71
     3
 72
    14
 73
    10
 74
     0
 42
0.00000001
 43
0.00000001
 40
0.0
 40
0.0
 40
0.0
 40
0.0
 40
0.4999999999999999
 40
0.4999999999999999
 40
0.7499999999999998
 40
0.7499999999999998
 40
0.8749999999999999
 40
0.8749999999999999
 40
1.0
 40
1.0
 40
1.0
 40
1.0
 10
109.5205923285794
 20
94.247655299159
 30
0.0
 10
110.1366692323347
 20
94.25338141938816
 30
0.0
 10
110.7508012284505
 20
94.26327178479019
 30
0.0
 10
111.6646978589641
 20
94.29390675245996
 30
0.0
 10
111.9681367865117
 20
94.30670021009793
 30
0.0
 10
112.4192734021492
 20
94.33462603805734
 30
0.0
 10
112.5689796516917
 20
94.3453956582171
 30
0.0
 10
112.8658207879398
 20
94.37252837381664
 30
0.0
 10
113.0132063404431
 20
94.38834534664386
 30
0.0
 10
113.1569904674574
 20
94.41200443551834
 30
0.0
  0
SPLINE
  5
E3
330
1F
100
AcDbEntity
  8
0
  6
Continuous
 62
     7
370
    15
100
AcDbSpline
210
0.0
220
0.0
230
1.0
 70
     8
 71
     3
 72
     8
 73
     4
 74
     0
 42
0.00000001
 43
0.00000001
 40
0.0000005954826279
 40
0.0000005954826279
 40
0.0000005954826279
 40
0.0000005954826279
 40
0.0000302093805348
 40
0.0000302093805348
 40
0.0000302093805348
 40
0.0000302093805348
 10
109.5105473981698
 20
94.25947042881089
 30
0.0
 10
109.51386342549
 20
94.25552364921509
 30
0.0
 10
109.5172119768822
 20
94.25158525808516
 30
0.0
 10
109.5205923285793
 20
94.247655299159
 30
0.0
  0
SPLINE
  5
E4
330
1F
100
AcDbEntity
  8
0
  6
Continuous
 62
     7
370
    15
100
AcDbSpline
210
0.0
220
0.0
230
1.0
 70
     8
 71
     3
 72
     8
 73
     4
 74
     0
 42
0.00000001
 43
0.00000001
 40
0.0000005099763572
 40
0.0000005099763572
 40
0.0000005099763572
 40
0.0000005099763572
 40
0.0000262827998699
 40
0.0000262827998699
 40
0.0000262827998699
 40
0.0000262827998699
 10
109.5205923285793
 20
135.9242246230816
 30
0.0
 10
109.5172235893516
 20
135.9209029541258
 30
0.0
 10
109.5138751363724
 20
135.9175749968469
 30
0.0
 10
109.5105473981611
 20
135.9142407499742
 30
0.0
  0
SPLINE
  5
E5
330
1F
100
AcDbEntity
  8
0
  6
Continuous
 62
     7
370
    15
100
AcDbSpline
210
0.0
220
0.0
230
1.0
 70
     8
 71
     3
 72
    10
 73
     6
 74
     0
 42
0.00000001
 43
0.00000001
 40
0.0
 40
0.0
 40
0.0
 40
0.0
 40
0.5
 40
0.5
 40
1.0
 40
1.0
 40
1.0
 40
1.0
 10
113.0705923285794
 20
135.8773742495144
 30
0.0
 10
112.4830067814888
 20
135.8984397697508
 30
0.0
 10
111.8922603880284
 20
135.909198255623
 30
0.0
 10
110.7082412227296
 20
135.9225630361586
 30
0.0
 10
110.1148272345241
 20
135.9247056788232
 30
0.0
 10
109.5205923285794
 20
135.9242246230817
 30
0.0
  0
SPLINE
  5
E6
330
1F
100
AcDbEntity
  8
0
  6
Continuous
 62
     7
370
    15
100
AcDbSpline
210
0.0
220
0.0
230
1.0
 70
     8
 71
     3
 72
    18
 73
    14
 74
     0
 42
0.00000001
 43
0.00000001
 40
0.0
 40
0.0
 40
0.0
 40
0.0
 40
0.2500000000000003
 40
0.2500000000000003
 40
0.4999999999999998
 40
0.4999999999999998
 40
0.7499999999999992
 40
0.7499999999999992
 40
0.8750000000000001
 40
0.8750000000000001
 40
0.9375
 40
0.9375
 40
1.0
 40
1.0
 40
1.0
 40
1.0
 10
114.4705923285794
 20
136.8983945300495
 30
0.0
 10
114.4705923285794
 20
136.8151876211924
 30
0.0
 10
114.4347432286411
 20
136.7264509658788
 30
0.0
 10
114.3098714926072
 20
136.5443257753186
 30
0.0
 10
114.2194710749594
 20
136.4491957266919
 30
0.0
 10
113.9972284202172
 20
136.2600142175676
 30
0.0
 10
113.8674636337714
 20
136.1650690494729
 30
0.0
 10
113.6268261764599
 20
136.026790341893
 30
0.0
 10
113.5390588783225
 20
135.9810799085906
 30
0.0
 10
113.3845347911156
 20
135.9232566033691
 30
0.0
 10
113.3279239050609
 20
135.9055418393312
 30
0.0
 10
113.2038798741543
 20
135.8810025360983
 30
0.0
 10
113.136165199136
 20
135.8750233975601
 30
0.0
 10
113.0705923285794
 20
135.8773742495143
 30
0.0
  0
LINE
  5
E7
330
1F
100
AcDbEntity
  8
0
  6
Continuous
 62
     7
370
    15
100
AcDbLine
 10
114.4705923286
 20
136.89839453
 30
0.0
 11
114.4705923286
 21
138.0823329499
 31
0.0
  0
SPLINE
  5
E8
330
1F
100
AcDbEntity
  8
0
  6
Continuous
 62
     7
370
    15
100
AcDbSpline
210
0.0
220
0.0
230
1.0
 70
     8
 71
     3
 72
    18
 73
    14
 74
     0
 42
0.00000001
 43
0.00000001
 40
0.0
 40
0.0
 40
0.0
 40
0.0
 40
0.0010671296451824
 40
0.1270947795731584
 40
0.2524053457512664
 40
0.3766468878986942
 40
0.4391415999050647
 40
0.5008278021400228
 40
0.5624255708817562
 40
0.62531624391613
 40
0.7499985144706809
 40
0.8752758950341303
 40
0.9999999999999999
 40
0.9999999999999999
 40
0.9999999999999999
 40
0.9999999999999999
 10
127.040893168652
 20
91.3969478347702
 30
0.0
 10
127.0399813360135
 20
91.39683305623359
 30
0.0
 10
126.9313823773767
 20
91.38316297136753
 30
0.0
 10
127.3190234450264
 20
91.4340824719833
 30
0.0
 10
128.1849881268616
 20
91.53366564502974
 30
0.0
 10
129.3853920516312
 20
91.60278952817335
 30
0.0
 10
130.4429679661199
 20
91.60674175731235
 30
0.0
 10
131.27010205303
 20
91.57925281885689
 30
0.0
 10
132.0953739206656
 20
91.52071264244974
 30
0.0
 10
133.1497391406631
 20
91.40719148271295
 30
0.0
 10
134.3115754221361
 20
91.22404065846536
 30
0.0
 10
135.2638102035193
 20
91.01943744883027
 30
0.0
 10
135.3895152643273
 20
90.99015209805422
 30
0.0
 10
135.4522286964725
 20
90.97554182821355
 30
0.0
  0
SPLINE
  5
E9
330
1F
100
AcDbEntity
  8
0
  6
Continuous
 62
     7
370
    15
100
AcDbSpline
210
0.0
220
0.0
230
1.0
 70
     8
 71
     3
 72
    18
 73
    14
 74
     0
 42
0.00000001
 43
0.00000001
 40
0.0
 40
0.0
 40
0.0
 40
0.0
 40
0.1248907792210126
 40
0.25053840203417
 40
0.3748721840485287
 40
0.4374907653352097
 40
0.4990776265894369
 40
0.5607931536355757
 40
0.6233901338664936
 40
0.7478191038417354
 40
0.8731940995934957
 40
0.9991614644710078
 40
1.0
 40
1.0
 40
1.0
 40
1.0
 10
135.4520099309486
 20
139.1329667066052
 30
0.0
 10
135.3882691782369
 20
139.1183054140071
 30
0.0
 10
135.2604014010604
 20
139.0888939807357
 30
0.0
 10
134.3084021800001
 20
138.8839408766732
 30
0.0
 10
133.1478584747957
 20
138.7006771008622
 30
0.0
 10
132.0955940227078
 20
138.5876495086131
 30
0.0
 10
131.271366907639
 20
138.5293858610719
 30
0.0
 10
130.4437631381198
 20
138.501939473068
 30
0.0
 10
129.3849459456346
 20
138.5059242789969
 30
0.0
 10
128.1827272476007
 20
138.5750137553784
 30
0.0
 10
127.3175433079133
 20
138.6746399719351
 30
0.0
 10
126.9314028863831
 20
138.7254560455354
 30
0.0
 10
127.0394744271634
 20
138.7117838654724
 30
0.0
 10
127.0401890770837
 20
138.7116934547841
 30
0.0
  0
SPLINE
  5
EA
330
1F
100
AcDbEntity
  8
0
  6
Continuous
 62
     7
370
    15
100
AcDbSpline
210
0.0
220
0.0
230
1.0
 70
     8
 71
     3
 72
    10
 73
     6
 74
     0
 42
0.00000001
 43
0.00000001
 40
0.0
 40
0.0
 40
0.0
 40
0.0
 40
0.5
 40
0.5
 40
1.0
 40
1.0
 40
1.0
 40
1.0
 10
108.3705923285789
 20
95.40112633273367
 30
0.0
 10
108.3705923285789
 20
95.38760980686591
 30
0.0
 10
108.3759118892072
 20
95.3834390345086
 30
0.0
 10
108.3890401214888
 20
95.4015700778962
 30
0.0
 10
108.3967327761428
 20
95.42447850295811
 30
0.0
 10
108.400869944188
 20
95.4641992974597
 30
0.0
  0
LINE
  5
EB
330
1F
100
AcDbEntity
  8
0
  6
Continuous
 62
     7
370
    15
100
AcDbLine
 10
108.3705923286
 20
95.4011263327
 30
0.0
 11
108.3705923286
 21
134.7449646042
 31
0.0
  0
SPLINE
  5
EC
330
1F
100
AcDbEntity
  8
0
  6
Continuous
 62
     7
370
    15
100
AcDbSpline
210
0.0
220
0.0
230
1.0
 70
     8
 71
     3
 72
    10
 73
     6
 74
     0
 42
0.00000001
 43
0.00000001
 40
0.0
 40
0.0
 40
0.0
 40
0.0
 40
0.5
 40
0.5
 40
1.0
 40
1.0
 40
1.0
 40
1.0
 10
108.4332557033028
 20
134.7288394024673
 30
0.0
 10
108.424351414194
 20
134.7745809216806
 30
0.0
 10
108.4078360340011
 20
134.7917717611495
 30
0.0
 10
108.3807280879394
 20
134.7914484842138
 30
0.0
 10
108.3705923285794
 20
134.7735709419174
 30
0.0
 10
108.3705923285794
 20
134.7449646041647
 30
0.0
  0
SPLINE
  5
ED
330
1F
100
AcDbEntity
  8
0
  6
Continuous
 62
     7
370
    15
100
AcDbSpline
210
0.0
220
0.0
230
1.0
 70
     8
 71
     3
 72
    26
 73
    22
 74
     0
 42
0.00000001
 43
0.00000001
 40
0.0
 40
0.0
 40
0.0
 40
0.0
 40
0.2499999999999856
 40
0.2499999999999856
 40
0.3749999999999788
 40
0.3749999999999788
 40
0.4374999999999773
 40
0.4374999999999773
 40
0.468749999999977
 40
0.468749999999977
 40
0.4999999999999768
 40
0.4999999999999768
 40
0.5312499999999766
 40
0.5312499999999766
 40
0.5624999999999762
 40
0.5624999999999762
 40
0.6249999999999807
 40
0.6249999999999807
 40
0.7499999999999875
 40
0.7499999999999875
 40
1.0
 40
1.0
 40
1.0
 40
1.0
 10
109.194745974684
 20
135.4444061912844
 30
0.0
 10
109.1561454518155
 20
135.326631494929
 30
0.0
 10
109.1098484492612
 20
135.202241808767
 30
0.0
 10
109.0159091008273
 20
134.9970224764135
 30
0.0
 10
108.9805976339138
 20
134.9254496099671
 30
0.0
 10
108.9144176581682
 20
134.8094963773666
 30
0.0
 10
108.8898792915
 20
134.7689118425564
 30
0.0
 10
108.8465065459461
 20
134.7047701606846
 30
0.0
 10
108.8309981445209
 20
134.6829037353996
 30
0.0
 10
108.7959554999339
 20
134.6373094670564
 30
0.0
 10
108.7764052092141
 20
134.6136391760889
 30
0.0
 10
108.7344779288435
 20
134.569022616749
 30
0.0
 10
108.7118258186118
 20
134.548142604231
 30
0.0
 10
108.6708521045252
 20
134.5172691904802
 30
0.0
 10
108.6532528046297
 20
134.5074303206477
 30
0.0
 10
108.6086258187736
 20
134.4884407049516
 30
0.0
 10
108.5880665961202
 20
134.4881163802982
 30
0.0
 10
108.5369411566236
 20
134.4973398211744
 30
0.0
 10
108.5160297436351
 20
134.5185867173914
 30
0.0
 10
108.4645798360741
 20
134.5925555962222
 30
0.0
 10
108.4469145367696
 20
134.6586736895369
 30
0.0
 10
108.4332557033028
 20
134.7288394024672
 30
0.0
  0
SPLINE
  5
EE
330
1F
100
AcDbEntity
  8
0
  6
Continuous
 62
     7
370
    15
100
AcDbSpline
210
0.0
220
0.0
230
1.0
 70
     8
 71
     3
 72
    10
 73
     6
 74
     0
 42
0.00000001
 43
0.00000001
 40
0.0
 40
0.0
 40
0.0
 40
0.0
 40
0.5
 40
0.5
 40
1.0
 40
1.0
 40
1.0
 40
1.0
 10
109.5105473981611
 20
135.9142407499742
 30
0.0
 10
109.4429881432429
 20
135.8465493571644
 30
0.0
 10
109.3793514879064
 20
135.7718421924108
 30
0.0
 10
109.2691307333345
 20
135.6128760599842
 30
0.0
 10
109.2223144401119
 20
135.5285207939762
 30
0.0
 10
109.1947459746838
 20
135.4444061912844
 30
0.0
  0
SPLINE
  5
EF
330
1F
100
AcDbEntity
  8
0
  6
Continuous
 62
     7
370
    15
100
AcDbSpline
210
0.0
220
0.0
230
1.0
 70
     8
 71
     3
 72
     8
 73
     4
 74
     0
 42
0.00000001
 43
0.00000001
 40
0.0
 40
0.0
 40
0.0
 40
0.0
 40
1.0
 40
1.0
 40
1.0
 40
1.0
 10
109.3095018987785
 20
94.61036455472095
 30
0.0
 10
109.3452155571484
 20
94.48713304946116
 30
0.0
 10
109.4208835960967
 20
94.36618947251415
 30
0.0
 10
109.5105473981698
 20
94.2594704288109
 30
0.0
  0
SPLINE
  5
F0
330
1F
100
AcDbEntity
  8
0
  6
Continuous
 62
     7
370
    15
100
AcDbSpline
210
0.0
220
0.0
230
1.0
 70
     8
 71
     3
 72
    26
 73
    22
 74
     0
 42
0.00000001
 43
0.00000001
 40
0.0
 40
0.0
 40
0.0
 40
0.0
 40
0.249999999999993
 40
0.249999999999993
 40
0.3749999999999895
 40
0.3749999999999895
 40
0.4374999999999885
 40
0.4374999999999885
 40
0.4687499999999892
 40
0.4687499999999892
 40
0.4999999999999899
 40
0.4999999999999899
 40
0.5312499999999906
 40
0.5312499999999906
 40
0.5624999999999912
 40
0.5624999999999912
 40
0.624999999999993
 40
0.624999999999993
 40
0.7499999999999958
 40
0.7499999999999958
 40
1.0
 40
1.0
 40
1.0
 40
1.0
 10
108.400869944188
 20
95.46419929745969
 30
0.0
 10
108.4115939775806
 20
95.56716033794866
 30
0.0
 10
108.4263269681751
 20
95.66615902742971
 30
0.0
 10
108.4786805274221
 20
95.78475470749484
 30
0.0
 10
108.5003858101417
 20
95.82046500744362
 30
0.0
 10
108.5592413175072
 20
95.84544444026535
 30
0.0
 10
108.5827035513543
 20
95.84982988802888
 30
0.0
 10
108.6388249280149
 20
95.83007705458473
 30
0.0
 10
108.6616122381455
 20
95.81842066377435
 30
0.0
 10
108.7168647906767
 20
95.7766403143371
 30
0.0
 10
108.7482710234175
 20
95.74636872696118
 30
0.0
 10
108.8032048440379
 20
95.6847263280472
 30
0.0
 10
108.8276286622374
 20
95.6532846757404
 30
0.0
 10
108.8710437682246
 20
95.59354983832662
 30
0.0
 10
108.8906183307929
 20
95.564384828454
 30
0.0
 10
108.9442510147409
 20
95.48054955272092
 30
0.0
 10
108.9740283627931
 20
95.42851693474472
 30
0.0
 10
109.0555624227659
 20
95.27745126077734
 30
0.0
 10
109.0988052174399
 20
95.1842602189066
 30
0.0
 10
109.2118598070947
 20
94.91987367991223
 30
0.0
 10
109.2658708045738
 20
94.76091551086239
 30
0.0
 10
109.3095018987778
 20
94.61036455472153
 30
0.0
  0
LINE
  5
F1
330
1F
100
AcDbEntity
  8
0
  6
Continuous
 62
     7
370
    15
100
AcDbLine
 10
254.2705923286
 20
97.0822758453
 30
0.0
 11
254.2705923286
 21
95.0542868577
 31
0.0
  0
LINE
  5
F2
330
1F
100
AcDbEntity
  8
0
  6
Continuous
 62
     7
370
    15
100
AcDbLine
 10
254.2705923286
 20
135.0542868577
 30
0.0
 11
254.2705923286
 21
134.7489077385
 31
0.0
  0
ELLIPSE
  5
F3
330
1F
100
AcDbEntity
  8
0
  6
Continuous
 62
     7
370
    15
100
AcDbEllipse
 10
313.152437987
 20
115.0542868577
 30
0.0
 11
190.2870637919226
 21
-2.813935298683717
 31
0.0
210
0.0
220
0.0
230
1.0
 40
0.1040588589
 41
1.886935594448532
 42
1.902998914450873
  0
SPLINE
  5
F4
330
1F
100
AcDbEntity
  8
0
  6
Continuous
 62
     7
370
    15
100
AcDbSpline
210
0.0
220
0.0
230
1.0
 70
     8
 71
     3
 72
    14
 73
    10
 74
     0
 42
0.00000001
 43
0.00000001
 40
0.0
 40
0.0
 40
0.0
 40
0.0
 40
0.25
 40
0.25
 40
0.5
 40
0.5
 40
0.75
 40
0.75
 40
1.0
 40
1.0
 40
1.0
 40
1.0
 10
251.3716880981735
 20
134.6904423862818
 30
0.0
 10
250.7339229642346
 20
134.6769855515142
 30
0.0
 10
250.1258539019522
 20
134.6443326846614
 30
0.0
 10
248.9686158713805
 20
134.5252396375562
 30
0.0
 10
248.4506568741141
 20
134.4415596355902
 30
0.0
 10
247.5346815568084
 20
134.2011493221648
 30
0.0
 10
247.1587495448907
 20
134.0496116255325
 30
0.0
 10
246.5578623751061
 20
133.6645903727681
 30
0.0
 10
246.3436553066889
 20
133.4375510771084
 30
0.0
 10
246.2033039200448
 20
133.1729477464381
 30
0.0
  0
ELLIPSE
  5
F5
330
1F
100
AcDbEntity
  8
0
  6
Continuous
 62
     7
370
    15
100
AcDbEllipse
 10
249.1259960631
 20
115.0542868577
 30
0.0
 11
-0.8021781934011472
 21
19.99887070822258
 31
0.0
210
0.0
220
0.0
230
0.9999999999999998
 40
0.2649452246
 41
0.4265913240725527
 42
2.41449492100688
  0
SPLINE
  5
F6
330
1F
100
AcDbEntity
  8
0
  6
Continuous
 62
     7
370
    15
100
AcDbSpline
210
0.0
220
0.0
230
1.0
 70
     8
 71
     3
 72
    20
 73
    16
 74
     0
 42
0.00000001
 43
0.00000001
 40
0.0
 40
0.0
 40
0.0
 40
0.0
 40
0.2499999999999975
 40
0.2499999999999975
 40
0.3749999999999979
 40
0.3749999999999979
 40
0.4999999999999983
 40
0.4999999999999983
 40
0.6249999999999988
 40
0.6249999999999988
 40
0.7499999999999991
 40
0.7499999999999991
 40
0.8749999999999996
 40
0.8749999999999996
 40
1.0
 40
1.0
 40
1.0
 40
1.0
 10
246.2033039200448
 20
99.97172490255237
 30
0.0
 10
246.3437136068606
 20
99.5611537720166
 30
0.0
 10
246.5565700751907
 20
99.19233801370375
 30
0.0
 10
247.0045112627993
 20
98.69677958693417
 30
0.0
 10
247.1759333241542
 20
98.54160082828727
 30
0.0
 10
247.5528370300791
 20
98.26007602426061
 30
0.0
 10
247.7595495382082
 20
98.13216562218297
 30
0.0
 10
248.2112115201985
 20
97.89992881745168
 30
0.0
 10
248.4589456366335
 20
97.79473963315274
 30
0.0
 10
248.9799171641004
 20
97.61255276485439
 30
0.0
 10
249.2528598350086
 20
97.53513546825604
 30
0.0
 10
249.8235575952198
 20
97.40465220766933
 30
0.0
 10
250.1235105961725
 20
97.35131864676701
 30
0.0
 10
250.7390038333775
 20
97.2697838900195
 30
0.0
 10
251.0524599710324
 20
97.24162454200676
 30
0.0
 10
251.3716880981736
 20
97.2255496980291
 30
0.0
  0
ELLIPSE
  5
F7
330
1F
100
AcDbEntity
  8
0
  6
Continuous
 62
     7
370
    15
100
AcDbEllipse
 10
313.152437987
 20
115.0542868577
 30
0.0
 11
190.2870637919226
 21
-2.813935298683717
 31
0.0
210
0.0
220
0.0
230
1.0
 40
0.1040588589
 41
4.383264002517444
 42
4.399327322519783
  0
ELLIPSE
  5
F8
330
1F
100
AcDbEntity
  8
0
  6
Continuous
 62
     7
370
    15
100
AcDbEllipse
 10
245.7695681262
 20
123.7715294971
 30
0.0
 11
0.08929898894007238
 21
2.39808798354099
 31
0.0
210
0.0
220
0.0
230
1.0
 40
0.2571121377
 41
5.656934414241479
 42
10.33868889870571
  0
SPLINE
  5
F9
330
1F
100
AcDbEntity
  8
0
  6
Continuous
 62
     7
370
    15
100
AcDbSpline
210
0.0
220
0.0
230
1.0
 70
     8
 71
     3
 72
     8
 73
     4
 74
     0
 42
0.00000001
 43
0.00000001
 40
0.0
 40
0.0
 40
0.0
 40
0.0
 40
1.0
 40
1.0
 40
1.0
 40
1.0
 10
161.6625251600684
 20
145.5214823308508
 30
0.0
 10
161.1673851307041
 20
144.6348026826705
 30
0.0
 10
160.6733024254251
 20
143.7475400469846
 30
0.0
 10
160.1805923285794
 20
142.8595210488582
 30
0.0
  0
LINE
  5
FA
330
1F
100
AcDbEntity
  8
0
  6
Continuous
 62
     7
370
    15
100
AcDbLine
 10
161.6625251601
 20
139.5129765201
 30
0.0
 11
161.6625251601
 21
145.5214823309
 31
0.0
  0
SPLINE
  5
FB
330
1F
100
AcDbEntity
  8
0
  6
Continuous
 62
     7
370
    15
100
AcDbSpline
210
0.0
220
0.0
230
1.0
 70
     8
 71
     3
 72
     8
 73
     4
 74
     0
 42
0.00000001
 43
0.00000001
 40
0.0
 40
0.0
 40
0.0
 40
0.0
 40
1.0
 40
1.0
 40
1.0
 40
1.0
 10
160.1805923285794
 20
136.1044305252699
 30
0.0
 10
160.6598704791692
 20
137.2454417551225
 30
0.0
 10
161.1554383183091
 20
138.3818261658903
 30
0.0
 10
161.6625251600684
 20
139.512976520054
 30
0.0
  0
LINE
  5
FC
330
1F
100
AcDbEntity
  8
0
  6
Continuous
 62
     7
370
    15
100
AcDbLine
 10
160.1805923286
 20
136.1044305253
 30
0.0
 11
160.1805923286
 21
142.8595210489
 31
0.0
  0
LINE
  5
FD
330
1F
100
AcDbEntity
  8
0
  6
Continuous
 62
     7
370
    15
100
AcDbLine
 10
165.6205923286
 20
145.5214823309
 30
0.0
 11
161.6625251601
 21
145.5214823309
 31
0.0
  0
LINE
  5
FE
330
1F
100
AcDbEntity
  8
0
  6
Continuous
 62
     7
370
    15
100
AcDbLine
 10
161.6625251601
 20
139.5129765201
 30
0.0
 11
165.6205923286
 21
139.5129765201
 31
0.0
  0
LINE
  5
FF
330
1F
100
AcDbEntity
  8
0
  6
Continuous
 62
     7
370
    15
100
AcDbLine
 10
160.1805923286
 20
135.1901534891
 30
0.0
 11
160.1805923286
 21
136.1044305253
 31
0.0
  0
SPLINE
  5
100
330
1F
100
AcDbEntity
  8
0
  6
Continuous
 62
     7
370
    15
100
AcDbSpline
210
0.0
220
0.0
230
1.0
 70
     8
 71
     3
 72
    12
 73
     8
 74
     0
 42
0.00000001
 43
0.00000001
 40
0.0
 40
0.0
 40
0.0
 40
0.0
 40
0.2500000000000033
 40
0.2500000000000033
 40
0.5000000000000067
 40
0.5000000000000067
 40
1.0
 40
1.0
 40
1.0
 40
1.0
 10
165.6205923285794
 20
139.512976520054
 30
0.0
 10
165.7117920504051
 20
139.512976520054
 30
0.0
 10
165.802387059541
 20
139.4847568214661
 30
0.0
 10
165.9557997859877
 20
139.390313814218
 30
0.0
 10
166.0210086533114
 20
139.3240268375127
 30
0.0
 10
166.1737931826513
 20
139.0984020142243
 30
0.0
 10
166.2205923285794
 20
138.9159757511918
 30
0.0
 10
166.2205923285794
 20
138.7352391189449
 30
0.0
  0
LINE
  5
101
330
1F
100
AcDbEntity
  8
0
  6
Continuous
 62
     7
370
    15
100
AcDbLine
 10
166.2205923286
 20
138.7352391189
 30
0.0
 11
166.2205923286
 21
134.9042868577
 31
0.0
  0
SPLINE
  5
102
330
1F
100
AcDbEntity
  8
0
  6
Continuous
 62
     7
370
    15
100
AcDbSpline
210
0.0
220
0.0
230
1.0
 70
     8
 71
     3
 72
     8
 73
     4
 74
     0
 42
0.00000001
 43
0.00000001
 40
0.0
 40
0.0
 40
0.0
 40
0.0
 40
1.0
 40
1.0
 40
1.0
 40
1.0
 10
154.8786594970903
 20
139.512976520054
 30
0.0
 10
155.3857463388496
 20
138.3818261658903
 30
0.0
 10
155.8813141779895
 20
137.2454417551225
 30
0.0
 10
156.3605923285793
 20
136.1044305252699
 30
0.0
  0
LINE
  5
103
330
1F
100
AcDbEntity
  8
0
  6
Continuous
 62
     7
370
    15
100
AcDbLine
 10
156.3605923286
 20
136.1044305253
 30
0.0
 11
156.3605923286
 21
135.1901534891
 31
0.0
  0
SPLINE
  5
104
330
1F
100
AcDbEntity
  8
0
  6
Continuous
 62
     7
370
    15
100
AcDbSpline
210
0.0
220
0.0
230
1.0
 70
     8
 71
     3
 72
    10
 73
     6
 74
     0
 42
0.00000001
 43
0.00000001
 40
0.0
 40
0.0
 40
0.0
 40
0.0
 40
0.5
 40
0.5
 40
1.0
 40
1.0
 40
1.0
 40
1.0
 10
166.2205923285794
 20
144.9007271814505
 30
0.0
 10
166.2205923285794
 20
145.0611324478013
 30
0.0
 10
166.1583544974725
 20
145.2201942607899
 30
0.0
 10
165.9392195737299
 20
145.4511067264202
 30
0.0
 10
165.7816308787381
 20
145.5214823308508
 30
0.0
 10
165.6205923285794
 20
145.5214823308508
 30
0.0
  0
LINE
  5
105
330
1F
100
AcDbEntity
  8
0
  6
Continuous
 62
     7
370
    15
100
AcDbLine
 10
166.2205923286
 20
138.7352391189
 30
0.0
 11
166.2205923286
 21
144.9007271815
 31
0.0
  0
SPLINE
  5
106
330
1F
100
AcDbEntity
  8
0
  6
Continuous
 62
     7
370
    15
100
AcDbSpline
210
0.0
220
0.0
230
1.0
 70
     8
 71
     3
 72
     8
 73
     4
 74
     0
 42
0.00000001
 43
0.00000001
 40
0.0
 40
0.0
 40
0.0
 40
0.0
 40
1.0
 40
1.0
 40
1.0
 40
1.0
 10
156.3605923285793
 20
142.8595210488582
 30
0.0
 10
155.8678822317336
 20
143.7475400469846
 30
0.0
 10
155.3737995264546
 20
144.6348026826705
 30
0.0
 10
154.8786594970903
 20
145.5214823308508
 30
0.0
  0
LINE
  5
107
330
1F
100
AcDbEntity
  8
0
  6
Continuous
 62
     7
370
    15
100
AcDbLine
 10
156.3605923286
 20
136.1044305253
 30
0.0
 11
156.3605923286
 21
142.8595210489
 31
0.0
  0
SPLINE
  5
108
330
1F
100
AcDbEntity
  8
0
  6
Continuous
 62
     7
370
    15
100
AcDbSpline
210
0.0
220
0.0
230
1.0
 70
     8
 71
     3
 72
    18
 73
    14
 74
     0
 42
0.00000001
 43
0.00000001
 40
0.0
 40
0.0
 40
0.0
 40
0.0
 40
0.2499999999999986
 40
0.2499999999999986
 40
0.4999999999999978
 40
0.4999999999999978
 40
0.6249999999999983
 40
0.6249999999999983
 40
0.7499999999999988
 40
0.7499999999999988
 40
0.8749999999999993
 40
0.8749999999999993
 40
1.0
 40
1.0
 40
1.0
 40
1.0
 10
246.2033039200448
 20
122.2889471411567
 30
0.0
 10
246.2562055114929
 20
122.5119205646137
 30
0.0
 10
246.3094827338108
 20
122.761218473961
 30
0.0
 10
246.3981336686762
 20
123.3141064395291
 30
0.0
 10
246.4324404743837
 20
123.6110371010023
 30
0.0
 10
246.4480521361886
 20
124.0878079500458
 30
0.0
 10
246.4469943777079
 20
124.2485212580569
 30
0.0
 10
246.4300409167241
 20
124.5710268191762
 30
0.0
 10
246.4137066137285
 20
124.7344992468212
 30
0.0
 10
246.3683535057094
 20
125.0429528908495
 30
0.0
 10
246.3388183918152
 20
125.1924367863056
 30
0.0
 10
246.2732689912385
 20
125.4671660377555
 30
0.0
 10
246.2380299689927
 20
125.5904960737528
 30
0.0
 10
246.2033039200448
 20
125.7010767131238
 30
0.0
  0
LINE
  5
109
330
1F
100
AcDbEntity
  8
0
  6
Continuous
 62
     7
370
    15
100
AcDbLine
 10
109.5205923286
 20
94.2417868577
 30
0.0
 11
109.5205923286
 21
94.2476552992
 31
0.0
  0
LINE
  5
10A
330
1F
100
AcDbEntity
  8
0
  6
Continuous
 62
     7
370
    15
100
AcDbLine
 10
266.7984473517
 20
133.1163848011
 30
0.0
 11
265.5017982884
 21
133.0223948992
 31
0.0
  0
ARC
  5
10B
330
1F
100
AcDbEntity
  8
0
  6
Continuous
 62
     7
370
    15
100
AcDbCircle
 10
265.7024840228
 20
130.700876819
 30
0.0
 40
2.330176165148604
100
AcDbArc
 50
94.9407028985
 51
275.089209146
  0
LINE
  5
10C
330
1F
100
AcDbEntity
  8
0
  6
Continuous
 62
     7
370
    15
100
AcDbLine
 10
265.9091862724
 20
128.3798866982
 30
0.0
 11
278.1552223381
 21
129.2675622931
 31
0.0
  0
LINE
  5
10D
330
1F
100
AcDbEntity
  8
0
  6
Continuous
 62
     7
370
    15
100
AcDbLine
 10
278.1552223381
 20
129.2675622931
 30
0.0
 11
277.6485436212
 21
123.5083807521
 31
0.0
  0
LINE
  5
10E
330
1F
100
AcDbEntity
  8
0
  6
Continuous
 62
     7
370
    15
100
AcDbLine
 10
277.6485436212
 20
123.5083807521
 30
0.0
 11
258.3677891571
 21
96.3724200415
 31
0.0
  0
ELLIPSE
  5
10F
330
1F
100
AcDbEntity
  8
0
  6
Continuous
 62
     7
370
    15
100
AcDbEllipse
 10
313.152437987
 20
115.0542868577
 30
0.0
 11
195.0442403867207
 21
-2.884283681150819
 31
0.0
210
0.0
220
0.0
230
1.0
 40
0.1040588589
 41
4.409941788983824
 42
4.429213907266703
  0
SPLINE
  5
110
330
1F
100
AcDbEntity
  8
0
  6
Continuous
 62
     7
370
    15
100
AcDbSpline
210
0.0
220
0.0
230
1.0
 70
     8
 71
     3
 72
     8
 73
     4
 74
     0
 42
0.00000001
 43
0.00000001
 40
0.0
 40
0.0
 40
0.0
 40
0.0
 40
1.0
 40
1.0
 40
1.0
 40
1.0
 10
254.7705923285794
 20
96.53854075675507
 30
0.0
 10
254.6037320562641
 20
96.71960610542486
 30
0.0
 10
254.4370603433051
 20
96.90084645160555
 30
0.0
 10
254.2705923285794
 20
97.082275845333
 30
0.0
  0
SPLINE
  5
111
330
1F
100
AcDbEntity
  8
0
  6
Continuous
 62
     7
370
    15
100
AcDbSpline
210
0.0
220
0.0
230
1.0
 70
     8
 71
     3
 72
     8
 73
     4
 74
     0
 42
0.00000001
 43
0.00000001
 40
0.0
 40
0.0
 40
0.0
 40
0.0
 40
1.0
 40
1.0
 40
1.0
 40
1.0
 10
254.2705923285793
 20
134.7489077385104
 30
0.0
 10
255.552038688704
 20
136.1080354190825
 30
0.0
 10
256.8452262244028
 20
137.4559228979425
 30
0.0
 10
258.1451104788822
 20
138.7973993944073
 30
0.0
  0
SPLINE
  5
112
330
1F
100
AcDbEntity
  8
0
  6
Continuous
 62
     7
370
    15
100
AcDbSpline
210
0.0
220
0.0
230
1.0
 70
     8
 71
     3
 72
     8
 73
     4
 74
     0
 42
0.00000001
 43
0.00000001
 40
0.0
 40
0.0
 40
0.0
 40
0.0
 40
1.0
 40
1.0
 40
1.0
 40
1.0
 10
267.3919872948246
 20
139.8628775396933
 30
0.0
 10
264.3084119196819
 20
139.5175290224846
 30
0.0
 10
261.2260536349677
 20
139.1628743873444
 30
0.0
 10
258.1451104788822
 20
138.7973993944073
 30
0.0
  0
LINE
  5
113
330
1F
100
AcDbEntity
  8
0
  6
Continuous
 62
     7
370
    15
100
AcDbLine
 10
267.3919872948
 20
139.8628775397
 30
0.0
 11
266.7984473517
 21
133.1163848011
 31
0.0
  0
CIRCLE
  5
114
330
1F
100
AcDbEntity
  8
0
  6
Continuous
 62
     7
370
    15
100
AcDbCircle
 10
268.8746103498
 20
123.3327110307
 30
0.0
 40
3.968711310895447
  0
LINE
  5
115
330
1F
100
AcDbEntity
  8
0
  6
Continuous
 62
     7
370
    15
100
AcDbLine
 10
254.7705923286
 20
96.5385407568
 30
0.0
 11
254.7705923286
 21
94.5542868577
 31
0.0
  0
LINE
  5
116
330
1F
100
AcDbEntity
  8
0
  6
Continuous
 62
     7
370
    15
100
AcDbLine
 10
258.1451104789
 20
138.7973993944
 30
0.0
 11
258.1451104789
 21
138.928805008
 31
0.0
  0
ELLIPSE
  5
117
330
1F
100
AcDbEntity
  8
0
  6
Continuous
 62
     7
370
    15
100
AcDbEllipse
 10
271.6148545644
 20
115.0542868577
 30
0.0
 11
14.59302442229102
 21
20.49991501981005
 31
0.0
210
0.0
220
0.0
230
1.0
 40
0.0040448756
 41
3.144472021887936
 42
3.568812240060589
  0
ARC
  5
118
330
1F
100
AcDbEntity
  8
0
  6
Continuous
 62
     7
370
    15
100
AcDbCircle
 10
265.1721654757
 20
130.0753695354
 30
0.0
 40
2.302177391394303
100
AcDbArc
 50
94.0264254939
 51
132.6006333256
  0
LINE
  5
119
330
1F
100
AcDbEntity
  8
0
  6
Continuous
 62
     7
370
    15
100
AcDbLine
 10
266.3071635743
 20
132.4658545291
 30
0.0
 11
266.7984473517
 21
133.1163848011
 31
0.0
  0
LINE
  5
11A
330
1F
100
AcDbEntity
  8
0
  6
Continuous
 62
     7
370
    15
100
AcDbLine
 10
266.3071635743
 20
132.4658545291
 30
0.0
 11
266.329470171
 21
132.4674714623
 31
0.0
  0
LINE
  5
11B
330
1F
100
AcDbEntity
  8
0
  6
Continuous
 62
     7
370
    15
100
AcDbLine
 10
266.2954122981
 20
132.0803514465
 30
0.0
 11
264.703200829
 21
131.9649371806
 31
0.0
  0
ELLIPSE
  5
11C
330
1F
100
AcDbEntity
  8
0
  6
Continuous
 62
     7
370
    15
100
AcDbEllipse
 10
264.790584062
 20
115.3170587969
 30
0.0
 11
2.521159715943156
 21
24.57077231890477
 31
0.0
210
0.0
220
0.0
230
0.9999999999999998
 40
0.0908883341
 41
6.246484712661346
 42
6.302267433840766
  0
ARC
  5
11D
330
1F
100
AcDbEntity
  8
0
  6
Continuous
 62
     7
370
    15
100
AcDbCircle
 10
265.1539070207
 20
130.3230978446
 30
0.0
 40
2.053778649613725
100
AcDbArc
 50
94.0035839219
 51
142.8589071709
  0
ARC
  5
11E
330
1F
100
AcDbEntity
  8
0
  6
Continuous
 62
     7
370
    15
100
AcDbCircle
 10
264.8477740795
 20
129.9123678078
 30
0.0
 40
2.057654600498979
100
AcDbArc
 50
94.0289889519
 51
131.5709724715
  0
LWPOLYLINE
  5
11F
330
1F
100
AcDbEntity
  8
0
  6
Continuous
 62
     7
370
    15
100
AcDbPolyline
 90
        3
 70
   128
 43
0.0
 10
275.0866507268
 20
133.3009059016
 10
275.0733836848
 20
133.5974453689
 10
275.061829189
 20
133.703546395
  0
LINE
  5
120
330
1F
100
AcDbEntity
  8
0
  6
HIDDEN
 62
     7
370
     0
100
AcDbLine
 10
145.2205923286
 20
83.5542868577
 30
0.0
 11
145.2205923286
 21
83.5701638748
 31
0.0
  0
SPLINE
  5
121
330
1F
100
AcDbEntity
  8
0
  6
HIDDEN
 62
     7
370
     0
100
AcDbSpline
210
0.0
220
0.0
230
1.0
 70
     8
 71
     3
 72
    30
 73
    26
 74
     0
 42
0.00000001
 43
0.00000001
 40
0.0
 40
0.0
 40
0.0
 40
0.0
 40
0.1250000000000003
 40
0.1250000000000003
 40
0.1875000000000005
 40
0.1875000000000005
 40
0.2500000000000007
 40
0.2500000000000007
 40
0.375000000000001
 40
0.375000000000001
 40
0.4375000000000011
 40
0.4375000000000011
 40
0.5000000000000011
 40
0.5000000000000011
 40
0.6250000000000012
 40
0.6250000000000012
 40
0.687500000000001
 40
0.687500000000001
 40
0.7500000000000009
 40
0.7500000000000009
 40
0.8125000000000007
 40
0.8125000000000007
 40
0.8750000000000006
 40
0.8750000000000006
 40
1.0
 40
1.0
 40
1.0
 40
1.0
 10
145.2205923285794
 20
83.57016387482422
 30
0.0
 10
145.2205923285794
 20
83.58704279283283
 30
0.0
 10
145.2730098945578
 20
83.61706035765754
 30
0.0
 10
145.4263893744601
 20
83.67987074693065
 30
0.0
 10
145.4900704951279
 20
83.70377465415754
 30
0.0
 10
145.6430253625795
 20
83.75720994659994
 30
0.0
 10
145.7325976613487
 20
83.78681681476749
 30
0.0
 10
146.0338216942019
 20
83.88126651348193
 30
0.0
 10
146.2791366902861
 20
83.95229390731114
 30
0.0
 10
146.7132336713563
 20
84.06630819401691
 30
0.0
 10
146.86990336046
 20
84.10576344515749
 30
0.0
 10
147.2018965243023
 20
84.18528488792815
 30
0.0
 10
147.3766020532948
 20
84.22522103042893
 30
0.0
 10
147.9262717358864
 20
84.34415743325708
 30
0.0
 10
148.3265226985976
 20
84.42232219714094
 30
0.0
 10
148.9801095652351
 20
84.53203163740982
 30
0.0
 10
149.2057856849123
 20
84.56711247411822
 30
0.0
 10
149.6654975060435
 20
84.63235275349784
 30
0.0
 10
149.9005508400866
 20
84.6626875695426
 30
0.0
 10
150.3810581223856
 20
84.71802594876443
 30
0.0
 10
150.6265116502998
 20
84.74303062532451
 30
0.0
 10
151.1281270751071
 20
84.78691043421522
 30
0.0
 10
151.3856194577077
 20
84.8058541189775
 30
0.0
 10
152.1636959741438
 20
84.8515738462477
 30
0.0
 10
152.6888582513886
 20
84.86736916143944
 30
0.0
 10
153.2205923285794
 20
84.86736916143943
 30
0.0
  0
LINE
  5
122
330
1F
100
AcDbEntity
  8
0
  6
HIDDEN
 62
     7
370
     0
100
AcDbLine
 10
153.2205923286
 20
84.8673691614
 30
0.0
 11
154.8786594971
 21
84.8673691614
 31
0.0
  0
LINE
  5
123
330
1F
100
AcDbEntity
  8
0
  6
HIDDEN
 62
     7
370
     0
100
AcDbLine
 10
154.8786594971
 20
145.5214823309
 30
0.0
 11
154.8786594971
 21
84.8673691614
 31
0.0
  0
LINE
  5
124
330
1F
100
AcDbEntity
  8
0
  6
HIDDEN
 62
     7
370
     0
100
AcDbLine
 10
153.2205923286
 20
145.5214823309
 30
0.0
 11
154.8786594971
 21
145.5214823309
 31
0.0
  0
SPLINE
  5
125
330
1F
100
AcDbEntity
  8
0
  6
HIDDEN
 62
     7
370
     0
100
AcDbSpline
210
0.0
220
0.0
230
1.0
 70
     8
 71
     3
 72
    24
 73
    20
 74
     0
 42
0.00000001
 43
0.00000001
 40
0.0
 40
0.0
 40
0.0
 40
0.0
 40
0.0096784717799321
 40
0.0638603789971701
 40
0.1151486849764497
 40
0.2187115859308351
 40
0.2715833806993763
 40
0.3233747670955811
 40
0.4279177545394229
 40
0.4812496785040082
 40
0.5239970062756446
 40
0.6100147404155665
 40
0.6968161018914266
 40
0.7499923213073707
 40
0.8035517191477742
 40
0.8583396387172382
 40
0.9135609003729626
 40
0.9566734035712756
 40
1.0
 40
1.0
 40
1.0
 40
1.0
 10
145.2247965259524
 20
146.5532201058869
 30
0.0
 10
145.2234729417694
 20
146.5535559422687
 30
0.0
 10
145.2147396841347
 20
146.5557718539447
 30
0.0
 10
145.2537249996675
 20
146.5458645930075
 30
0.0
 10
145.3725952408866
 20
146.5159055342133
 30
0.0
 10
145.602613492641
 20
146.4588387767966
 30
0.0
 10
145.9310958499441
 20
146.3810059617311
 30
0.0
 10
146.3263887068752
 20
146.2906182415779
 30
0.0
 10
146.8165667419806
 20
146.1851773182497
 30
0.0
 10
147.3652990922839
 20
146.0781358679822
 30
0.0
 10
147.9047251934587
 20
145.979900231386
 30
0.0
 10
148.6056271709859
 20
145.8648570580441
 30
0.0
 10
149.4151668557955
 20
145.7548594805277
 30
0.0
 10
150.1499917696618
 20
145.6737535296973
 30
0.0
 10
150.7859959414025
 20
145.6163238774051
 30
0.0
 10
151.4487406852176
 20
145.5704248193917
 30
0.0
 10
152.082280599443
 20
145.5408161535296
 30
0.0
 10
152.6749478926894
 20
145.5243158809199
 30
0.0
 10
153.0384107737775
 20
145.5224284058462
 30
0.0
 10
153.2205923285794
 20
145.5214823308508
 30
0.0
  0
SPLINE
  5
126
330
1F
100
AcDbEntity
  8
0
  6
HIDDEN
 62
     7
370
     0
100
AcDbSpline
210
0.0
220
0.0
230
1.0
 70
     8
 71
     3
 72
    76
 73
    72
 74
     0
 42
0.00000001
 43
0.00000001
 40
-0.03125
 40
-0.03125
 40
0.0
 40
0.0
 40
0.0312500000000001
 40
0.0312500000000001
 40
0.0468750000000001
 40
0.0468750000000001
 40
0.0625000000000002
 40
0.0625000000000002
 40
0.0937500000000003
 40
0.0937500000000003
 40
0.1250000000000004
 40
0.1250000000000004
 40
0.1562500000000005
 40
0.1562500000000005
 40
0.1875000000000006
 40
0.1875000000000006
 40
0.2187500000000006
 40
0.2187500000000006
 40
0.2500000000000007
 40
0.2500000000000007
 40
0.2812500000000008
 40
0.2812500000000008
 40
0.3125000000000009
 40
0.3125000000000009
 40
0.328125000000001
 40
0.328125000000001
 40
0.3437500000000011
 40
0.3437500000000011
 40
0.3750000000000009
 40
0.3750000000000009
 40
0.4062500000000009
 40
0.4062500000000009
 40
0.4375000000000008
 40
0.4375000000000008
 40
0.4687500000000007
 40
0.4687500000000007
 40
0.5000000000000006
 40
0.5000000000000006
 40
0.5312500000000006
 40
0.5312500000000006
 40
0.5625000000000004
 40
0.5625000000000004
 40
0.5937500000000003
 40
0.5937500000000003
 40
0.6250000000000002
 40
0.6250000000000002
 40
0.6562500000000002
 40
0.6562500000000002
 40
0.6875000000000002
 40
0.6875000000000002
 40
0.7031250000000001
 40
0.7031250000000001
 40
0.7187500000000001
 40
0.7187500000000001
 40
0.75
 40
0.75
 40
0.78125
 40
0.78125
 40
0.8125
 40
0.8125
 40
0.84375
 40
0.84375
 40
0.875
 40
0.875
 40
0.90625
 40
0.90625
 40
0.9375
 40
0.9375
 40
0.96875
 40
0.96875
 40
1.0
 40
1.0
 40
1.03125
 40
1.03125
 10
142.2705923285794
 20
115.3851708534806
 30
0.0
 10
142.2705923285794
 20
114.7234028618925
 30
0.0
 10
142.3031128063638
 20
114.3981516937966
 30
0.0
 10
142.3986060506458
 20
113.9183549729075
 30
0.0
 10
142.438280886057
 20
113.7597792891139
 30
0.0
 10
142.5336674993926
 20
113.4453969033208
 30
0.0
 10
142.5896117408033
 20
113.2892772797367
 30
0.0
 10
142.7779747642529
 20
112.8353367198347
 30
0.0
 10
142.9315870406713
 20
112.5483564738277
 30
0.0
 10
143.2944148344554
 20
112.0052433170884
 30
0.0
 10
143.5052499360379
 20
111.7485040255444
 30
0.0
 10
143.9657495060553
 20
111.2881193913135
 30
0.0
 10
144.2171124469731
 20
111.0813425745597
 30
0.0
 10
144.7634591413266
 20
110.7158183668962
 30
0.0
 10
145.0536737810445
 20
110.5608188081814
 30
0.0
 10
145.6550605973462
 20
110.3112877870872
 30
0.0
 10
145.9706902904366
 20
110.2150095133985
 30
0.0
 10
146.6163306917162
 20
110.0863605061555
 30
0.0
 10
146.9410864475295
 20
110.054474247039
 30
0.0
 10
147.5943864779209
 20
110.0541010995282
 30
0.0
 10
147.9262588187516
 20
110.0866805857743
 30
0.0
 10
148.5679100523552
 20
110.2144544904806
 30
0.0
 10
148.8798349692884
 20
110.3089869347777
 30
0.0
 10
149.3343245698053
 20
110.4971065293165
 30
0.0
 10
149.4841878776392
 20
110.5679895105372
 30
0.0
 10
149.7732731115618
 20
110.7226061168716
 30
0.0
 10
149.9131340258699
 20
110.8065287156095
 30
0.0
 10
150.3190104695741
 20
111.0777242390852
 30
0.0
 10
150.5720486160637
 20
111.2848242445265
 30
0.0
 10
151.0379481722271
 20
111.7504266975837
 30
0.0
 10
151.2444542467229
 20
112.002345549971
 30
0.0
 10
151.6065598101226
 20
112.5432491659719
 30
0.0
 10
151.7634189239378
 20
112.8357920087233
 30
0.0
 10
152.0143690408004
 20
113.4406596654809
 30
0.0
 10
152.1091801401314
 20
113.7523064969275
 30
0.0
 10
152.2376020029245
 20
114.3940598021491
 30
0.0
 10
152.2704652894157
 20
114.7257876210284
 30
0.0
 10
152.2707186155242
 20
115.3789073862893
 30
0.0
 10
152.2391626149549
 20
115.7038405926324
 30
0.0
 10
152.1109213935306
 20
116.3503675990855
 30
0.0
 10
152.0151153448722
 20
116.6653755529464
 30
0.0
 10
151.7659818337781
 20
117.267334221092
 30
0.0
 10
151.6105217120833
 20
117.5588103913675
 30
0.0
 10
151.2460674577236
 20
118.1044053278642
 30
0.0
 10
151.0396345502878
 20
118.3558824428694
 30
0.0
 10
150.5791654677699
 20
118.8172054669242
 30
0.0
 10
150.322368459714
 20
119.0283287678705
 30
0.0
 10
149.7803232458795
 20
119.3910595495865
 30
0.0
 10
149.493553665944
 20
119.5449484529721
 30
0.0
 10
149.0392464900583
 20
119.7338981796641
 30
0.0
 10
148.8831061892849
 20
119.7899709756839
 30
0.0
 10
148.5692602279388
 20
119.8854737412166
 30
0.0
 10
148.410873440245
 20
119.9252543842441
 30
0.0
 10
147.9313972003016
 20
120.0211369213694
 30
0.0
 10
147.6051572558748
 20
120.0540123693689
 30
0.0
 10
146.9442826585968
 20
120.05455793854
 30
0.0
 10
146.6191463112518
 20
120.0223914199266
 30
0.0
 10
145.9790638107654
 20
119.8956088819393
 30
0.0
 10
145.6607428866976
 20
119.799341128148
 30
0.0
 10
145.0558266078584
 20
119.5489468067229
 30
0.0
 10
144.7686776942069
 20
119.3956326450013
 30
0.0
 10
144.2247261405339
 20
119.0329247209815
 30
0.0
 10
143.9680801908074
 20
118.8224856482477
 30
0.0
 10
143.5074896373944
 20
118.3626046599713
 30
0.0
 10
143.3003407514036
 20
118.1113228602785
 30
0.0
 10
142.9338095079902
 20
117.5644026865385
 30
0.0
 10
142.7791253204857
 20
117.2752625349223
 30
0.0
 10
142.5290256671475
 20
116.674025861003
 30
0.0
 10
142.4323388926544
 20
116.3580501673622
 30
0.0
 10
142.3031173176982
 20
115.7120764092656
 30
0.0
 10
142.2705923285794
 20
115.3851708534806
 30
0.0
 10
142.2705923285794
 20
114.7234028618925
 30
0.0
  0
LINE
  5
127
330
1F
100
AcDbEntity
  8
0
  6
HIDDEN
 62
     7
370
     0
100
AcDbLine
 10
140.2705923286
 20
146.254286852
 30
0.0
 11
140.2705923286
 21
83.8542868577
 31
0.0
  0
SPLINE
  5
128
330
1F
100
AcDbEntity
  8
0
  6
HIDDEN
 62
     7
370
     0
100
AcDbSpline
210
0.0
220
0.0
230
1.0
 70
     8
 71
     3
 72
    10
 73
     6
 74
     0
 42
0.00000001
 43
0.00000001
 40
0.0
 40
0.0
 40
0.0
 40
0.0
 40
0.5
 40
0.5
 40
1.0
 40
1.0
 40
1.0
 40
1.0
 10
156.4582671309117
 20
88.65428685768659
 30
0.0
 10
156.4261119432897
 20
88.59200081217048
 30
0.0
 10
156.4014557120955
 20
88.5254703873013
 30
0.0
 10
156.3686429551699
 20
88.38861175693886
 30
0.0
 10
156.3605923285793
 20
88.31955416176052
 30
0.0
 10
156.3605923285793
 20
88.24989122935722
 30
0.0
  0
SPLINE
  5
129
330
1F
100
AcDbEntity
  8
0
  6
HIDDEN
 62
     7
370
     0
100
AcDbSpline
210
0.0
220
0.0
230
1.0
 70
    24
 71
     3
 72
    10
 73
     6
 74
     0
 42
0.00000001
 43
0.00000001
 40
0.0
 40
0.0
 40
0.0
 40
0.0
 40
0.5
 40
0.5
 40
1.0
 40
1.0
 40
1.0
 40
1.0
 10
156.3605923285793
 20
134.9042868576866
 30
0.0
 10
156.3605923285793
 20
134.9042868576866
 30
0.0
 10
156.3628141870641
 20
134.9042868576866
 30
0.0
 10
156.3715508587877
 20
134.9042868576866
 30
0.0
 10
156.378062372582
 20
134.9042868576866
 30
0.0
 10
156.3867399517395
 20
134.9042868576866
 30
0.0
  0
LINE
  5
12A
330
1F
100
AcDbEntity
  8
0
  6
HIDDEN
 62
     7
370
     0
100
AcDbLine
 10
156.3605923286
 20
135.1901534891
 30
0.0
 11
156.3605923286
 21
142.1739407087
 31
0.0
  0
LINE
  5
12B
330
1F
100
AcDbEntity
  8
0
  6
HIDDEN
 62
     7
370
     0
100
AcDbLine
 10
156.3605923286
 20
88.2498912294
 30
0.0
 11
156.3605923286
 21
134.9042868577
 31
0.0
  0
SPLINE
  5
12C
330
1F
100
AcDbEntity
  8
0
  6
HIDDEN
 62
     7
370
     0
100
AcDbSpline
210
0.0
220
0.0
230
1.0
 70
     8
 71
     3
 72
    10
 73
     6
 74
     0
 42
0.00000001
 43
0.00000001
 40
0.0
 40
0.0
 40
0.0
 40
0.0
 40
0.5
 40
0.5
 40
1.0
 40
1.0
 40
1.0
 40
1.0
 10
160.1805923285793
 20
88.24989122935722
 30
0.0
 10
160.1805923285793
 20
88.32012758972799
 30
0.0
 10
160.1723097164889
 20
88.39012169122549
 30
0.0
 10
160.1392097734303
 20
88.52708095578443
 30
0.0
 10
160.1148723814718
 20
88.59238886503967
 30
0.0
 10
160.0829175262471
 20
88.65428685768657
 30
0.0
  0
LINE
  5
12D
330
1F
100
AcDbEntity
  8
0
  6
HIDDEN
 62
     7
370
     0
100
AcDbLine
 10
160.1805923286
 20
135.1901534891
 30
0.0
 11
160.1805923286
 21
142.1739407087
 31
0.0
  0
SPLINE
  5
12E
330
1F
100
AcDbEntity
  8
0
  6
HIDDEN
 62
     7
370
     0
100
AcDbSpline
210
0.0
220
0.0
230
1.0
 70
    24
 71
     3
 72
    10
 73
     6
 74
     0
 42
0.00000001
 43
0.00000001
 40
0.0
 40
0.0
 40
0.0
 40
0.0
 40
0.5
 40
0.5
 40
1.0
 40
1.0
 40
1.0
 40
1.0
 10
160.1544447054192
 20
134.9042868576866
 30
0.0
 10
160.1631224803269
 20
134.9042868576866
 30
0.0
 10
160.1696755043338
 20
134.9042868576866
 30
0.0
 10
160.1784101138308
 20
134.9042868576866
 30
0.0
 10
160.1805923285793
 20
134.9042868576866
 30
0.0
 10
160.1805923285793
 20
134.9042868576866
 30
0.0
  0
LINE
  5
12F
330
1F
100
AcDbEntity
  8
0
  6
HIDDEN
 62
     7
370
     0
100
AcDbLine
 10
160.1805923286
 20
88.2498912294
 30
0.0
 11
160.1805923286
 21
134.9042868577
 31
0.0
  0
LINE
  5
130
330
1F
100
AcDbEntity
  8
0
  6
HIDDEN
 62
     7
370
     0
100
AcDbLine
 10
140.2705923286
 20
89.7303629366
 30
0.0
 11
140.2705923286
 21
140.3534243937
 31
0.0
  0
LINE
  5
131
330
1F
100
AcDbEntity
  8
0
  6
HIDDEN
 62
     7
370
     0
100
AcDbLine
 10
145.2205923286
 20
134.9042868577
 30
0.0
 11
152.4662126743
 21
134.9042868577
 31
0.0
  0
LWPOLYLINE
  5
132
330
1F
100
AcDbEntity
  8
0
  6
HIDDEN
 62
     7
370
     0
100
AcDbPolyline
 90
        2
 70
   128
 43
0.0
 10
160.1805923286
 20
134.9042868577
 10
160.1805923286
 20
134.9042868577
  0
LWPOLYLINE
  5
133
330
1F
100
AcDbEntity
  8
0
  6
HIDDEN
 62
     7
370
     0
100
AcDbPolyline
 90
        2
 70
   128
 43
0.0
 10
166.2205923286
 20
134.9042868577
 10
166.2205923286
 20
134.9042868577
  0
LWPOLYLINE
  5
134
330
1F
100
AcDbEntity
  8
0
  6
HIDDEN
 62
     7
370
     0
100
AcDbPolyline
 90
        2
 70
   128
 43
0.0
 10
156.3605923286
 20
134.9042868577
 10
156.3605923286
 20
134.9042868577
  0
LINE
  5
135
330
1F
100
AcDbEntity
  8
0
  6
HIDDEN
 62
     7
370
     0
100
AcDbLine
 10
138.2705923286
 20
139.2747177194
 30
0.0
 11
138.2705923286
 21
90.833855996
 31
0.0
  0
SPLINE
  5
136
330
1F
100
AcDbEntity
  8
0
  6
HIDDEN
 62
     7
370
     0
100
AcDbSpline
210
0.0
220
0.0
230
1.0
 70
     8
 71
     3
 72
    14
 73
    10
 74
     0
 42
0.00000001
 43
0.00000001
 40
0.0
 40
0.0
 40
0.0
 40
0.0
 40
0.5000000000000016
 40
0.5000000000000016
 40
0.7500000000000023
 40
0.7500000000000023
 40
0.8750000000000011
 40
0.8750000000000011
 40
1.0
 40
1.0
 40
1.0
 40
1.0
 10
109.5205923285794
 20
94.24765529915896
 30
0.0
 10
110.1366692323347
 20
94.2533814193881
 30
0.0
 10
110.7508012284506
 20
94.26327178479013
 30
0.0
 10
111.6646978589641
 20
94.29390675245989
 30
0.0
 10
111.9681367865117
 20
94.30670021009787
 30
0.0
 10
112.4192734021492
 20
94.33462603805727
 30
0.0
 10
112.5689796516918
 20
94.34539565821702
 30
0.0
 10
112.8658207879398
 20
94.37252837381655
 30
0.0
 10
113.0132063404431
 20
94.38834534664376
 30
0.0
 10
113.1569904674574
 20
94.41200443551821
 30
0.0
  0
SPLINE
  5
137
330
1F
100
AcDbEntity
  8
0
  6
HIDDEN
 62
     7
370
     0
100
AcDbSpline
210
0.0
220
0.0
230
1.0
 70
     8
 71
     3
 72
    10
 73
     6
 74
     0
 42
0.00000001
 43
0.00000001
 40
0.0
 40
0.0
 40
0.0
 40
0.0
 40
0.5
 40
0.5
 40
1.0
 40
1.0
 40
1.0
 40
1.0
 10
113.1569904674575
 20
94.41200443551823
 30
0.0
 10
113.7846181231648
 20
94.51527799425384
 30
0.0
 10
114.4358188681962
 20
94.60410310600537
 30
0.0
 10
115.7445235722084
 20
94.76621081287571
 30
0.0
 10
116.4055680094995
 20
94.83951027716229
 30
0.0
 10
117.0705923285791
 20
94.90819809188999
 30
0.0
  0
SPLINE
  5
138
330
1F
100
AcDbEntity
  8
0
  6
HIDDEN
 62
     7
370
     0
100
AcDbSpline
210
0.0
220
0.0
230
1.0
 70
     8
 71
     3
 72
    18
 73
    14
 74
     0
 42
0.00000001
 43
0.00000001
 40
0.0
 40
0.0
 40
0.0
 40
0.0
 40
0.0625000000000027
 40
0.0625000000000027
 40
0.1250000000000054
 40
0.1250000000000054
 40
0.2500000000000046
 40
0.2500000000000046
 40
0.5000000000000031
 40
0.5000000000000031
 40
0.7500000000000016
 40
0.7500000000000016
 40
1.0
 40
1.0
 40
1.0
 40
1.0
 10
117.0705923285793
 20
94.90819809188991
 30
0.0
 10
117.1071645389297
 20
94.91197549541737
 30
0.0
 10
117.1458150123651
 20
94.91141846753425
 30
0.0
 10
117.219906506079
 20
94.9013592623724
 30
0.0
 10
117.2552567998331
 20
94.89200538094785
 30
0.0
 10
117.3498510972225
 20
94.85762095451403
 30
0.0
 10
117.3999892703615
 20
94.8269092198512
 30
0.0
 10
117.5291825419427
 20
94.73097990981317
 30
0.0
 10
117.5874626866838
 20
94.66246441569592
 30
0.0
 10
117.6876577831073
 20
94.52589246576329
 30
0.0
 10
117.7276730345539
 20
94.45712756326039
 30
0.0
 10
117.7960724553717
 20
94.32209213415271
 30
0.0
 10
117.8244341792337
 20
94.25547410809955
 30
0.0
 10
117.8489880918396
 20
94.18991564040334
 30
0.0
  0
SPLINE
  5
139
330
1F
100
AcDbEntity
  8
0
  6
HIDDEN
 62
     7
370
     0
100
AcDbSpline
210
0.0
220
0.0
230
1.0
 70
     8
 71
     3
 72
    14
 73
    10
 74
     0
 42
0.00000001
 43
0.00000001
 40
0.0
 40
0.0
 40
0.0
 40
0.0
 40
0.25
 40
0.25
 40
0.5
 40
0.5
 40
0.75
 40
0.75
 40
1.0
 40
1.0
 40
1.0
 40
1.0
 10
117.8489880918396
 20
94.18991564040334
 30
0.0
 10
117.8874244766606
 20
94.0872912426918
 30
0.0
 10
117.9562258700524
 20
93.98809481925224
 30
0.0
 10
118.0995118822114
 20
93.79720278992573
 30
0.0
 10
118.1746939373183
 20
93.70494552389283
 30
0.0
 10
118.3068812259685
 20
93.52533820207783
 30
0.0
 10
118.3643984214383
 20
93.43802864763347
 30
0.0
 10
118.4464432197306
 20
93.26809481411773
 30
0.0
 10
118.4705923285794
 20
93.18619247224656
 30
0.0
 10
118.4705923285794
 20
93.10913859841065
 30
0.0
  0
LINE
  5
13A
330
1F
100
AcDbEntity
  8
0
  6
HIDDEN
 62
     7
370
     0
100
AcDbLine
 10
118.4705923286
 20
93.1091385984
 30
0.0
 11
118.4705923286
 21
91.8258399639
 31
0.0
  0
LINE
  5
13B
330
1F
100
AcDbEntity
  8
0
  6
HIDDEN
 62
     7
370
     0
100
AcDbLine
 10
114.4705923286
 20
138.0823329499
 30
0.0
 11
114.4705923286
 21
136.89839453
 31
0.0
  0
SPLINE
  5
13C
330
1F
100
AcDbEntity
  8
0
  6
HIDDEN
 62
     7
370
     0
100
AcDbSpline
210
0.0
220
0.0
230
1.0
 70
     8
 71
     3
 72
    18
 73
    14
 74
     0
 42
0.00000001
 43
0.00000001
 40
0.0
 40
0.0
 40
0.0
 40
0.0
 40
0.2499999999999989
 40
0.2499999999999989
 40
0.4999999999999978
 40
0.4999999999999978
 40
0.7499999999999967
 40
0.7499999999999967
 40
0.8749999999999983
 40
0.8749999999999983
 40
0.9374999999999991
 40
0.9374999999999991
 40
1.0
 40
1.0
 40
1.0
 40
1.0
 10
114.4705923285794
 20
136.8983945300495
 30
0.0
 10
114.4705923285794
 20
136.8151876211923
 30
0.0
 10
114.4347432286411
 20
136.7264509658788
 30
0.0
 10
114.3098714926072
 20
136.5443257753186
 30
0.0
 10
114.2194710749593
 20
136.4491957266919
 30
0.0
 10
113.9972284202172
 20
136.2600142175676
 30
0.0
 10
113.8674636337714
 20
136.1650690494729
 30
0.0
 10
113.6268261764599
 20
136.0267903418929
 30
0.0
 10
113.5390588783224
 20
135.9810799085906
 30
0.0
 10
113.3845347911156
 20
135.9232566033691
 30
0.0
 10
113.3279239050609
 20
135.9055418393312
 30
0.0
 10
113.2038798741543
 20
135.8810025360983
 30
0.0
 10
113.136165199136
 20
135.87502339756
 30
0.0
 10
113.0705923285794
 20
135.8773742495143
 30
0.0
  0
SPLINE
  5
13D
330
1F
100
AcDbEntity
  8
0
  6
HIDDEN
 62
     7
370
     0
100
AcDbSpline
210
0.0
220
0.0
230
1.0
 70
     8
 71
     3
 72
    10
 73
     6
 74
     0
 42
0.00000001
 43
0.00000001
 40
0.0
 40
0.0
 40
0.0
 40
0.0
 40
0.5
 40
0.5
 40
1.0
 40
1.0
 40
1.0
 40
1.0
 10
113.0705923285794
 20
135.8773742495143
 30
0.0
 10
112.4830067814888
 20
135.8984397697507
 30
0.0
 10
111.8922603880284
 20
135.909198255623
 30
0.0
 10
110.7082412227295
 20
135.9225630361586
 30
0.0
 10
110.1148272345241
 20
135.9247056788232
 30
0.0
 10
109.5205923285794
 20
135.9242246230816
 30
0.0
  0
SPLINE
  5
13E
330
1F
100
AcDbEntity
  8
0
  6
HIDDEN
 62
     7
370
     0
100
AcDbSpline
210
0.0
220
0.0
230
1.0
 70
     8
 71
     3
 72
     8
 73
     4
 74
     0
 42
0.00000001
 43
0.00000001
 40
0.0000005099763571
 40
0.0000005099763571
 40
0.0000005099763571
 40
0.0000005099763571
 40
0.0000262827998697
 40
0.0000262827998697
 40
0.0000262827998697
 40
0.0000262827998697
 10
109.5205923285794
 20
135.9242246230816
 30
0.0
 10
109.5172235893516
 20
135.9209029541257
 30
0.0
 10
109.5138751363725
 20
135.9175749968469
 30
0.0
 10
109.5105473981611
 20
135.9142407499742
 30
0.0
  0
SPLINE
  5
13F
330
1F
100
AcDbEntity
  8
0
  6
HIDDEN
 62
     7
370
     0
100
AcDbSpline
210
0.0
220
0.0
230
1.0
 70
     8
 71
     3
 72
     8
 73
     4
 74
     0
 42
0.00000001
 43
0.00000001
 40
0.0000005954826279
 40
0.0000005954826279
 40
0.0000005954826279
 40
0.0000005954826279
 40
0.0000302093805348
 40
0.0000302093805348
 40
0.0000302093805348
 40
0.0000302093805348
 10
109.5105473981698
 20
94.25947042881089
 30
0.0
 10
109.51386342549
 20
94.25552364921508
 30
0.0
 10
109.5172119768822
 20
94.25158525808516
 30
0.0
 10
109.5205923285793
 20
94.24765529915899
 30
0.0
  0
SPLINE
  5
140
330
1F
100
AcDbEntity
  8
0
  6
HIDDEN
 62
     7
370
     0
100
AcDbSpline
210
0.0
220
0.0
230
1.0
 70
     8
 71
     3
 72
    10
 73
     6
 74
     0
 42
0.00000001
 43
0.00000001
 40
0.0
 40
0.0
 40
0.0
 40
0.0
 40
0.2949159523317608
 40
0.5007639170797378
 40
1.0
 40
1.0
 40
1.0
 40
1.0
 10
128.265742533151
 20
91.5296872348648
 30
0.0
 10
128.0928103200636
 20
91.51194002209914
 30
0.0
 10
127.7991733983229
 20
91.48180545761896
 30
0.0
 10
127.1244242662527
 20
91.41372339886722
 30
0.0
 10
127.0755199567535
 20
91.40390193833109
 30
0.0
 10
127.040893168652
 20
91.3969478347702
 30
0.0
  0
SPLINE
  5
141
330
1F
100
AcDbEntity
  8
0
  6
HIDDEN
 62
     7
370
     0
100
AcDbSpline
210
0.0
220
0.0
230
1.0
 70
     8
 71
     3
 72
    16
 73
    12
 74
     0
 42
0.00000001
 43
0.00000001
 40
0.0
 40
0.0
 40
0.0
 40
0.0
 40
0.0014619398999441
 40
0.1695060946944866
 40
0.3368148262131685
 40
0.5027784258718646
 40
0.5863380399920288
 40
0.6685202984823472
 40
0.7507638349534446
 40
0.834194604174546
 40
1.0
 40
1.0
 40
1.0
 40
1.0
 10
135.4522286964725
 20
90.97554182821355
 30
0.0
 10
135.4531588011871
 20
90.97533357480057
 30
0.0
 10
135.5610007294661
 20
90.95118742300555
 30
0.0
 10
135.1729869966696
 20
91.0397342785515
 30
0.0
 10
134.3111963679906
 20
91.22333763631622
 30
0.0
 10
133.1208907015123
 20
91.41156755679667
 30
0.0
 10
132.0694904309303
 20
91.52297253679475
 30
0.0
 10
131.2434614750771
 20
91.58060815203113
 30
0.0
 10
130.4196735306737
 20
91.60709391028405
 30
0.0
 10
129.3495180589555
 20
91.60235432337107
 30
0.0
 10
128.6987011738818
 20
91.55871708755703
 30
0.0
 10
128.265742533151
 20
91.5296872348648
 30
0.0
  0
SPLINE
  5
142
330
1F
100
AcDbEntity
  8
0
  6
HIDDEN
 62
     7
370
     0
100
AcDbSpline
210
0.0
220
0.0
230
1.0
 70
     8
 71
     3
 72
    16
 73
    12
 74
     0
 42
0.00000001
 43
0.00000001
 40
0.0
 40
0.0
 40
0.0
 40
0.0
 40
0.1658979086808743
 40
0.2493608198222821
 40
0.3317589050038947
 40
0.4138911421869728
 40
0.497618166965096
 40
0.6634955966468968
 40
0.8305394509979777
 40
0.9983760749348632
 40
1.0
 40
1.0
 40
1.0
 40
1.0
 10
128.2656498128691
 20
138.5788698876683
 30
0.0
 10
128.699218225065
 20
138.5499170743813
 30
0.0
 10
129.350914051576
 20
138.5063981577485
 30
0.0
 10
130.4218799554607
 20
138.5016585285457
 30
0.0
 10
131.2461029946961
 20
138.5280602833099
 30
0.0
 10
132.0731212106722
 20
138.5857538462674
 30
0.0
 10
133.1242383935081
 20
138.6974127432949
 30
0.0
 10
134.3129502456939
 20
138.8856116180681
 30
0.0
 10
135.1736883333678
 20
139.0688711191792
 30
0.0
 10
135.561692926444
 20
139.1573945850669
 30
0.0
 10
135.453051036324
 20
139.1331985747764
 30
0.0
 10
135.4520099309486
 20
139.1329667066052
 30
0.0
  0
SPLINE
  5
143
330
1F
100
AcDbEntity
  8
0
  6
HIDDEN
 62
     7
370
     0
100
AcDbSpline
210
0.0
220
0.0
230
1.0
 70
     8
 71
     3
 72
    10
 73
     6
 74
     0
 42
0.00000001
 43
0.00000001
 40
0.0
 40
0.0
 40
0.0
 40
0.0
 40
0.4995493564858556
 40
0.5744878148481709
 40
1.0
 40
1.0
 40
1.0
 40
1.0
 10
127.0401890770837
 20
138.7116934547841
 30
0.0
 10
127.0604837931419
 20
138.7059012044707
 30
0.0
 10
127.0838229625951
 20
138.6992400464042
 30
0.0
 10
127.7160016010931
 20
138.6350934733299
 30
0.0
 10
128.0130673069444
 20
138.6047065844031
 30
0.0
 10
128.2656498128691
 20
138.5788698876683
 30
0.0
  0
LINE
  5
144
330
1F
100
AcDbEntity
  8
0
  6
HIDDEN
 62
     7
370
     0
100
AcDbLine
 10
166.2205923286
 20
92.0542868577
 30
0.0
 11
166.2205923286
 21
138.0542868577
 31
0.0
  0
SPLINE
  5
145
330
1F
100
AcDbEntity
  8
0
  6
HIDDEN
 62
     7
370
     0
100
AcDbSpline
210
0.0
220
0.0
230
1.0
 70
     8
 71
     3
 72
    68
 73
    64
 74
     0
 42
0.00000001
 43
0.00000001
 40
-0.0624999999999978
 40
-0.0624999999999978
 40
0.0
 40
0.0
 40
0.03125
 40
0.03125
 40
0.0625000000000001
 40
0.0625000000000001
 40
0.0937500000000001
 40
0.0937500000000001
 40
0.1250000000000001
 40
0.1250000000000001
 40
0.1562500000000003
 40
0.1562500000000003
 40
0.1875000000000004
 40
0.1875000000000004
 40
0.2187500000000006
 40
0.2187500000000006
 40
0.2500000000000007
 40
0.2500000000000007
 40
0.2812500000000009
 40
0.2812500000000009
 40
0.312500000000001
 40
0.312500000000001
 40
0.3437500000000012
 40
0.3437500000000012
 40
0.3750000000000013
 40
0.3750000000000013
 40
0.4062500000000014
 40
0.4062500000000014
 40
0.4375000000000016
 40
0.4375000000000016
 40
0.4687500000000017
 40
0.4687500000000017
 40
0.5000000000000018
 40
0.5000000000000018
 40
0.5312500000000018
 40
0.5312500000000018
 40
0.5625000000000019
 40
0.5625000000000019
 40
0.5937500000000019
 40
0.5937500000000019
 40
0.6250000000000019
 40
0.6250000000000019
 40
0.656250000000002
 40
0.656250000000002
 40
0.687500000000002
 40
0.687500000000002
 40
0.718750000000002
 40
0.718750000000002
 40
0.7500000000000021
 40
0.7500000000000021
 40
0.7812500000000021
 40
0.7812500000000021
 40
0.8125000000000021
 40
0.8125000000000021
 40
0.8437500000000021
 40
0.8437500000000021
 40
0.8750000000000022
 40
0.8750000000000022
 40
0.9062500000000022
 40
0.9062500000000022
 40
0.9375000000000022
 40
0.9375000000000022
 40
1.0
 40
1.0
 40
1.03125
 40
1.03125
 10
238.601262841256
 20
106.5447796818832
 30
0.0
 10
238.1052570722411
 20
106.5447796818832
 30
0.0
 10
237.9427173298185
 20
106.5595863307206
 30
0.0
 10
237.622990120121
 20
106.6176452134717
 30
0.0
 10
237.4641335435358
 20
106.6616140455707
 30
0.0
 10
237.1614616453067
 20
106.7764980834627
 30
0.0
 10
237.0179338297107
 20
106.8468672797511
 30
0.0
 10
236.7463020507634
 20
107.0135424817215
 30
0.0
 10
236.6178174184404
 20
107.110656477461
 30
0.0
 10
236.3874606624799
 20
107.3234677315792
 30
0.0
 10
236.284033162517
 20
107.4399226685674
 30
0.0
 10
236.1012680859618
 20
107.6938839108837
 30
0.0
 10
236.0237017102403
 20
107.8293575426018
 30
0.0
 10
235.8989665172442
 20
108.1109281053923
 30
0.0
 10
235.8508861739014
 20
108.2591122584349
 30
0.0
 10
235.78660266509
 20
108.563654943276
 30
0.0
 10
235.7706833375336
 20
108.7174028324131
 30
0.0
 10
235.7705020903473
 20
109.0278508259713
 30
0.0
 10
235.7867661196279
 20
109.1861794139496
 30
0.0
 10
235.850606337427
 20
109.4936502691562
 30
0.0
 10
235.8978398820141
 20
109.6437069804236
 30
0.0
 10
236.0231450482424
 20
109.936233614005
 30
0.0
 10
236.1013528258677
 20
110.0779639996604
 30
0.0
 10
236.2822047083658
 20
110.3412596399719
 30
0.0
 10
236.3855768720255
 20
110.4645706939622
 30
0.0
 10
236.6187134079028
 20
110.6928626907565
 30
0.0
 10
236.7448034448872
 20
110.7942815424892
 30
0.0
 10
237.0153455812102
 20
110.9723339118828
 30
0.0
 10
237.1615405417973
 20
111.0495931322333
 30
0.0
 10
237.4641658907471
 20
111.1734683734808
 30
0.0
 10
237.6199883892961
 20
111.2203016821169
 30
0.0
 10
237.9406215615746
 20
111.2837367142913
 30
0.0
 10
238.1064267421826
 20
111.3000014154148
 30
0.0
 10
238.4328805582925
 20
111.3001227623847
 30
0.0
 10
238.5952201605811
 20
111.2845041350977
 30
0.0
 10
238.9180821482356
 20
111.2211999404434
 30
0.0
 10
239.0758228586609
 20
111.1738045879825
 30
0.0
 10
239.3767751913333
 20
111.0509187397121
 30
0.0
 10
239.5222946692731
 20
110.974460030056
 30
0.0
 10
239.7954979251638
 20
110.7950661081647
 30
0.0
 10
239.9213285730949
 20
110.6936803400644
 30
0.0
 10
240.1520083966708
 20
110.4683904355217
 30
0.0
 10
240.2576258746099
 20
110.3430257418784
 30
0.0
 10
240.4391702619338
 20
110.0791301320327
 30
0.0
 10
240.5160887189273
 20
109.9400575224706
 30
0.0
 10
240.6419165140519
 20
109.6477523489536
 30
0.0
 10
240.6901767833376
 20
109.4949562713473
 30
0.0
 10
240.7540515521358
 20
109.1885672854881
 30
0.0
 10
240.7704417126016
 20
109.0333314105837
 30
0.0
 10
240.7707408975621
 20
108.7188655428433
 30
0.0
 10
240.7546515286472
 20
108.5648943860122
 30
0.0
 10
240.6913361217327
 20
108.2631337803571
 30
0.0
 10
240.6433224542419
 20
108.1137813431974
 30
0.0
 10
240.5180669152321
 20
107.8303201641891
 30
0.0
 10
240.4413964675837
 20
107.6963971373482
 30
0.0
 10
240.2601866833688
 20
107.4436946083785
 30
0.0
 10
240.1548236372816
 20
107.3246294796705
 30
0.0
 10
239.9246420189674
 20
107.1116897967894
 30
0.0
 10
239.7989766790916
 20
107.0163539391825
 30
0.0
 10
239.5258484446462
 20
106.8481691313993
 30
0.0
 10
239.3807287099264
 20
106.7770230486418
 30
0.0
 10
238.9297784596734
 20
106.6054307184496
 30
0.0
 10
238.601262841256
 20
106.5447796818832
 30
0.0
 10
238.1052570722411
 20
106.5447796818832
 30
0.0
  0
LINE
  5
146
330
1F
100
AcDbEntity
  8
0
  6
HIDDEN
 62
     7
370
     0
100
AcDbLine
 10
254.2705923286
 20
95.0542868577
 30
0.0
 11
254.2705923286
 21
135.0542868577
 31
0.0
  0
SPLINE
  5
147
330
1F
100
AcDbEntity
  8
0
  6
HIDDEN
 62
     7
370
     0
100
AcDbSpline
210
0.0
220
0.0
230
1.0
 70
    11
 71
     3
 72
    22
 73
    18
 74
     0
 42
0.00000001
 43
0.00000001
 40
0.0
 40
0.0
 40
0.0
 40
0.0
 40
0.125
 40
0.125
 40
0.25
 40
0.25
 40
0.375
 40
0.375
 40
0.5
 40
0.5
 40
0.625
 40
0.625
 40
0.75
 40
0.75
 40
0.875
 40
0.875
 40
1.0
 40
1.0
 40
1.0
 40
1.0
 10
134.025594330181
 20
134.891815333503
 30
0.0
 10
134.18453715915
 20
134.91388904155
 30
0.0
 10
134.3252287070404
 20
134.9305728595376
 30
0.0
 10
134.5712149445028
 20
134.95679455442
 30
0.0
 10
134.6772530271841
 20
134.9663738602653
 30
0.0
 10
134.8477450677512
 20
134.9804531273444
 30
0.0
 10
134.9117977672148
 20
134.9849597035915
 30
0.0
 10
134.9983018183079
 20
134.9908238734294
 30
0.0
 10
135.020535313668
 20
134.9921658059477
 30
0.0
 10
135.0206491196799
 20
134.9921729456972
 30
0.0
 10
134.9991911911946
 20
134.9908803102109
 30
0.0
 10
134.9132053983157
 20
134.9850588807008
 30
0.0
 10
134.8478912515662
 20
134.9804594114249
 30
0.0
 10
134.6788854176307
 20
134.9665143906151
 30
0.0
 10
134.5749263797549
 20
134.9571620037567
 30
0.0
 10
134.327415933516
 20
134.9308335332903
 30
0.0
 10
134.1845318434323
 20
134.9138883033123
 30
0.0
 10
134.0255943301813
 20
134.8918153335031
 30
0.0
  0
SPLINE
  5
148
330
1F
100
AcDbEntity
  8
0
  6
HIDDEN
 62
     7
370
     0
100
AcDbSpline
210
0.0
220
0.0
230
1.0
 70
    11
 71
     3
 72
    22
 73
    18
 74
     0
 42
0.00000001
 43
0.00000001
 40
0.0
 40
0.0
 40
0.0
 40
0.0
 40
0.1250000000000001
 40
0.1250000000000001
 40
0.2500000000000001
 40
0.2500000000000001
 40
0.3750000000000002
 40
0.3750000000000002
 40
0.5000000000000002
 40
0.5000000000000002
 40
0.6250000000000002
 40
0.6250000000000002
 40
0.7500000000000003
 40
0.7500000000000003
 40
0.8750000000000002
 40
0.8750000000000002
 40
1.0
 40
1.0
 40
1.0
 40
1.0
 10
134.0255943301809
 20
95.21675838187011
 30
0.0
 10
134.18453715915
 20
95.19468467382305
 30
0.0
 10
134.3252287070404
 20
95.17800085583545
 30
0.0
 10
134.5712149445028
 20
95.15177916095314
 30
0.0
 10
134.6772530271841
 20
95.14219985510783
 30
0.0
 10
134.8477450677511
 20
95.12812058802868
 30
0.0
 10
134.9117977672148
 20
95.12361401178164
 30
0.0
 10
134.9983018183079
 20
95.11774984194372
 30
0.0
 10
135.020535313668
 20
95.11640790942543
 30
0.0
 10
135.0206491196799
 20
95.11640076967592
 30
0.0
 10
134.9991911911946
 20
95.11769340516216
 30
0.0
 10
134.9132053983157
 20
95.12351483467236
 30
0.0
 10
134.8478912515662
 20
95.1281143039482
 30
0.0
 10
134.6788854176307
 20
95.14205932475804
 30
0.0
 10
134.5749263797549
 20
95.15141171161638
 30
0.0
 10
134.327415933516
 20
95.17774018208279
 30
0.0
 10
134.1845318434323
 20
95.19468541206079
 30
0.0
 10
134.0255943301813
 20
95.21675838187001
 30
0.0
  0
LINE
  5
149
330
1F
100
AcDbEntity
  8
0
  6
HIDDEN
 62
     7
370
     0
100
AcDbLine
 10
140.2705923286
 20
98.0542868577
 30
0.0
 11
140.2705923286
 21
132.0542868577
 31
0.0
  0
SPLINE
  5
14A
330
1F
100
AcDbEntity
  8
0
  6
HIDDEN
 62
     7
370
     0
100
AcDbSpline
210
0.0
220
0.0
230
1.0
 70
    11
 71
     3
 72
    56
 73
    52
 74
     0
 42
0.00000001
 43
0.00000001
 40
0.0
 40
0.0
 40
0.0
 40
0.0
 40
0.0625000000000001
 40
0.0625000000000001
 40
0.0937500000000002
 40
0.0937500000000002
 40
0.1250000000000002
 40
0.1250000000000002
 40
0.1562500000000002
 40
0.1562500000000002
 40
0.1875000000000003
 40
0.1875000000000003
 40
0.2187500000000003
 40
0.2187500000000003
 40
0.2500000000000003
 40
0.2500000000000003
 40
0.3125000000000002
 40
0.3125000000000002
 40
0.3437500000000002
 40
0.3437500000000002
 40
0.3750000000000002
 40
0.3750000000000002
 40
0.4062500000000002
 40
0.4062500000000002
 40
0.4375000000000002
 40
0.4375000000000002
 40
0.4687500000000002
 40
0.4687500000000002
 40
0.5000000000000002
 40
0.5000000000000002
 40
0.5625000000000003
 40
0.5625000000000003
 40
0.6250000000000004
 40
0.6250000000000004
 40
0.6875000000000004
 40
0.6875000000000004
 40
0.7187500000000003
 40
0.7187500000000003
 40
0.7500000000000001
 40
0.7500000000000001
 40
0.78125
 40
0.78125
 40
0.8124999999999999
 40
0.8124999999999999
 40
0.875
 40
0.875
 40
0.9375000000000001
 40
0.9375000000000001
 40
0.96875
 40
0.96875
 40
1.0
 40
1.0
 40
1.0
 40
1.0
 10
134.025594330181
 20
95.21675838187014
 30
0.0
 10
133.7698070196332
 20
95.25228168576368
 30
0.0
 10
133.4796172126899
 20
95.2878255547319
 30
0.0
 10
132.9929641143991
 20
95.33429725464076
 30
0.0
 10
132.8226182722379
 20
95.34854316787226
 30
0.0
 10
132.4756448621469
 20
95.37283108207068
 30
0.0
 10
132.2977069649122
 20
95.38300742839272
 30
0.0
 10
131.9327876873524
 20
95.39868275599662
 30
0.0
 10
131.7444530952571
 20
95.40416971720948
 30
0.0
 10
131.3705662428016
 20
95.40962971148521
 30
0.0
 10
131.1838760286317
 20
95.40968793474437
 30
0.0
 10
130.8109975377124
 20
95.40450379276757
 30
0.0
 10
130.62329329479
 20
95.39918831429615
 30
0.0
 10
130.2563743952425
 20
95.38368593327286
 30
0.0
 10
130.077924653178
 20
95.37358652551217
 30
0.0
 10
129.5571357498173
 20
95.33745468385825
 30
0.0
 10
129.2262520301463
 20
95.30502546284018
 30
0.0
 10
128.7897504718148
 20
95.25349897147309
 30
0.0
 10
128.6529649327622
 20
95.2357743604291
 30
0.0
 10
128.3972403233084
 20
95.20038003391981
 30
0.0
 10
128.2796165952028
 20
95.18288351253922
 30
0.0
 10
128.0695471420141
 20
95.1501811165507
 30
0.0
 10
127.9762123033291
 20
95.13484930760464
 30
0.0
 10
127.81326659265
 20
95.10725314825584
 30
0.0
 10
127.7435636298001
 20
95.09496646514224
 30
0.0
 10
127.632940563468
 20
95.07512147335576
 30
0.0
 10
127.5912588918576
 20
95.0674353608291
 30
0.0
 10
127.5350837514823
 20
95.05701798045185
 30
0.0
 10
127.5206454757218
 20
95.05429682277537
 30
0.0
 10
127.5204864806191
 20
95.05426701119478
 30
0.0
 10
127.5761458183559
 20
95.06492914134276
 30
0.0
 10
127.7989705788903
 20
95.10490981307773
 30
0.0
 10
127.960882864484
 20
95.13324606471005
 30
0.0
 10
128.3846744232198
 20
95.1992569736701
 30
0.0
 10
128.6395208457671
 20
95.23571684646133
 30
0.0
 10
129.0781645058808
 20
95.28756836944767
 30
0.0
 10
129.2348620421602
 20
95.30445600350764
 30
0.0
 10
129.5580619919388
 20
95.33514942412859
 30
0.0
 10
129.7257354733591
 20
95.34910923107246
 30
0.0
 10
130.0733203395478
 20
95.37330866022361
 30
0.0
 10
130.2548838203668
 20
95.3836056090544
 30
0.0
 10
130.6210700951756
 20
95.39911155591632
 30
0.0
 10
130.8057275110179
 20
95.40437753781332
 30
0.0
 10
131.3643239175763
 20
95.41230036106882
 30
0.0
 10
131.7466582590469
 20
95.4065862376952
 30
0.0
 10
132.4739554034153
 20
95.37552715153292
 30
0.0
 10
132.8296494775153
 20
95.34983851548297
 30
0.0
 10
133.3129617544662
 20
95.30376650527487
 30
0.0
 10
133.4666593616828
 20
95.28716434685857
 30
0.0
 10
133.7590815865259
 20
95.25254449164427
 30
0.0
 10
133.8976968097311
 20
95.23452057060591
 30
0.0
 10
134.025594330181
 20
95.21675838187011
 30
0.0
  0
SPLINE
  5
14B
330
1F
100
AcDbEntity
  8
0
  6
HIDDEN
 62
     7
370
     0
100
AcDbSpline
210
0.0
220
0.0
230
1.0
 70
    11
 71
     3
 72
    56
 73
    52
 74
     0
 42
0.00000001
 43
0.00000001
 40
0.0
 40
0.0
 40
0.0
 40
0.0
 40
0.0624999999999999
 40
0.0624999999999999
 40
0.0937499999999998
 40
0.0937499999999998
 40
0.1249999999999998
 40
0.1249999999999998
 40
0.1562499999999997
 40
0.1562499999999997
 40
0.1874999999999996
 40
0.1874999999999996
 40
0.2187499999999995
 40
0.2187499999999995
 40
0.2499999999999994
 40
0.2499999999999994
 40
0.3124999999999992
 40
0.3124999999999992
 40
0.3437499999999992
 40
0.3437499999999992
 40
0.3749999999999992
 40
0.3749999999999992
 40
0.4062499999999992
 40
0.4062499999999992
 40
0.4374999999999992
 40
0.4374999999999992
 40
0.4687499999999992
 40
0.4687499999999992
 40
0.4999999999999992
 40
0.4999999999999992
 40
0.5624999999999992
 40
0.5624999999999992
 40
0.6249999999999992
 40
0.6249999999999992
 40
0.6874999999999993
 40
0.6874999999999993
 40
0.7187499999999994
 40
0.7187499999999994
 40
0.7499999999999997
 40
0.7499999999999997
 40
0.7812499999999998
 40
0.7812499999999998
 40
0.8125
 40
0.8125
 40
0.875
 40
0.875
 40
0.9375
 40
0.9375
 40
0.96875
 40
0.96875
 40
1.0
 40
1.0
 40
1.0
 40
1.0
 10
134.025594330181
 20
134.891815333503
 30
0.0
 10
133.7698070196332
 20
134.8562920296095
 30
0.0
 10
133.4796172126899
 20
134.8207481606412
 30
0.0
 10
132.9929641143991
 20
134.7742764607324
 30
0.0
 10
132.8226182722379
 20
134.7600305475009
 30
0.0
 10
132.4756448621469
 20
134.7357426333025
 30
0.0
 10
132.2977069649121
 20
134.7255662869804
 30
0.0
 10
131.9327876873524
 20
134.7098909593765
 30
0.0
 10
131.744453095257
 20
134.7044039981636
 30
0.0
 10
131.3705662428015
 20
134.6989440038879
 30
0.0
 10
131.1838760286316
 20
134.6988857806288
 30
0.0
 10
130.8109975377124
 20
134.7040699226055
 30
0.0
 10
130.62329329479
 20
134.709385401077
 30
0.0
 10
130.2563743952425
 20
134.7248877821003
 30
0.0
 10
130.077924653178
 20
134.7349871898609
 30
0.0
 10
129.5571357498173
 20
134.7711190315148
 30
0.0
 10
129.2262520301463
 20
134.8035482525329
 30
0.0
 10
128.7897504718148
 20
134.8550747439
 30
0.0
 10
128.6529649327622
 20
134.872799354944
 30
0.0
 10
128.3972403233084
 20
134.9081936814533
 30
0.0
 10
128.2796165952027
 20
134.9256902028339
 30
0.0
 10
128.0695471420141
 20
134.9583925988224
 30
0.0
 10
127.9762123033291
 20
134.9737244077685
 30
0.0
 10
127.81326659265
 20
135.0013205671173
 30
0.0
 10
127.7435636298001
 20
135.0136072502309
 30
0.0
 10
127.632940563468
 20
135.0334522420173
 30
0.0
 10
127.5912588918576
 20
135.041138354544
 30
0.0
 10
127.5350837514823
 20
135.0515557349213
 30
0.0
 10
127.5206454757218
 20
135.0542768925977
 30
0.0
 10
127.5204864806191
 20
135.0543067041783
 30
0.0
 10
127.5761458183559
 20
135.0436445740304
 30
0.0
 10
127.7989705788903
 20
135.0036639022954
 30
0.0
 10
127.960882864484
 20
134.975327650663
 30
0.0
 10
128.3846744232198
 20
134.909316741703
 30
0.0
 10
128.6395208457671
 20
134.8728568689118
 30
0.0
 10
129.0781645058808
 20
134.8210053459254
 30
0.0
 10
129.2348620421603
 20
134.8041177118654
 30
0.0
 10
129.5580619919388
 20
134.7734242912445
 30
0.0
 10
129.7257354733592
 20
134.7594644843007
 30
0.0
 10
130.0733203395478
 20
134.7352650551495
 30
0.0
 10
130.2548838203668
 20
134.7249681063187
 30
0.0
 10
130.6210700951756
 20
134.7094621594568
 30
0.0
 10
130.8057275110179
 20
134.7041961775598
 30
0.0
 10
131.3643239175764
 20
134.6962733543043
 30
0.0
 10
131.7466582590469
 20
134.7019874776779
 30
0.0
 10
132.4739554034153
 20
134.7330465638402
 30
0.0
 10
132.8296494775153
 20
134.7587351998901
 30
0.0
 10
133.3129617544662
 20
134.8048072100982
 30
0.0
 10
133.4666593616828
 20
134.8214093685145
 30
0.0
 10
133.7590815865259
 20
134.8560292237288
 30
0.0
 10
133.8976968097311
 20
134.8740531447673
 30
0.0
 10
134.025594330181
 20
134.891815333503
 30
0.0
  0
LINE
  5
14C
330
1F
100
AcDbEntity
  8
0
  6
HIDDEN
 62
     7
370
     0
100
AcDbLine
 10
160.1544447054
 20
134.9042868577
 30
0.0
 11
166.2205923286
 21
134.9042868577
 31
0.0
  0
LINE
  5
14D
330
1F
100
AcDbEntity
  8
0
  6
HIDDEN
 62
     7
370
     0
100
AcDbLine
 10
152.4662126743
 20
134.9042868577
 30
0.0
 11
156.3867399517
 21
134.9042868577
 31
0.0
  0
LINE
  5
14E
330
1F
100
AcDbEntity
  8
0
  6
HIDDEN
 62
     7
370
     0
100
AcDbLine
 10
121.2745669248
 20
132.0542868577
 30
0.0
 11
121.2745669248
 21
98.0542868577
 31
0.0
  0
LINE
  5
14F
330
1F
100
AcDbEntity
  8
0
  6
HIDDEN
 62
     7
370
     0
100
AcDbLine
 10
108.3705923286
 20
99.0243514599
 30
0.0
 11
108.3705923286
 21
131.0842222555
 31
0.0
  0
LINE
  5
150
330
1F
100
AcDbEntity
  8
0
  6
HIDDEN
 62
     7
370
     0
100
AcDbLine
 10
147.9304182971
 20
132.0542868577
 30
0.0
 11
147.9304182971
 21
98.0542868577
 31
0.0
  0
LINE
  5
151
330
1F
100
AcDbEntity
  8
0
  6
HIDDEN
 62
     7
370
     0
100
AcDbLine
 10
150.2205923286
 20
130.7792868577
 30
0.0
 11
150.2205923286
 21
99.3292868577
 31
0.0
  0
LINE
  5
152
330
1F
100
AcDbEntity
  8
0
  6
HIDDEN
 62
     7
370
     0
100
AcDbLine
 10
109.5205923286
 20
99.2527964217
 30
0.0
 11
117.0705923286
 21
99.2527964217
 31
0.0
  0
LINE
  5
153
330
1F
100
AcDbEntity
  8
0
  6
HIDDEN
 62
     7
370
     0
100
AcDbLine
 10
109.5205923286
 20
130.8557772937
 30
0.0
 11
109.5205923286
 21
99.2527964217
 31
0.0
  0
LINE
  5
154
330
1F
100
AcDbEntity
  8
0
  6
HIDDEN
 62
     7
370
     0
100
AcDbLine
 10
113.0705923286
 20
130.8557772937
 30
0.0
 11
109.5205923286
 21
130.8557772937
 31
0.0
  0
SPLINE
  5
155
330
1F
100
AcDbEntity
  8
0
  6
HIDDEN
 62
     7
370
     0
100
AcDbSpline
210
0.0
220
0.0
230
1.0
 70
     8
 71
     3
 72
    18
 73
    14
 74
     0
 42
0.00000001
 43
0.00000001
 40
0.0
 40
0.0
 40
0.0
 40
0.0
 40
0.250000000000001
 40
0.250000000000001
 40
0.3750000000000007
 40
0.3750000000000007
 40
0.5000000000000004
 40
0.5000000000000004
 40
0.6250000000000001
 40
0.6250000000000001
 40
0.7499999999999999
 40
0.7499999999999999
 40
1.0
 40
1.0
 40
1.0
 40
1.0
 10
114.4705923285794
 20
131.3418004800907
 30
0.0
 10
114.4705923285794
 20
131.2873259595385
 30
0.0
 10
114.4356816371872
 20
131.230944900186
 30
0.0
 10
114.3336723358542
 20
131.1468680593325
 30
0.0
 10
114.292035981176
 20
131.1195343553416
 30
0.0
 10
114.1936301856873
 20
131.0665804397426
 30
0.0
 10
114.136086973983
 20
131.0406930860254
 30
0.0
 10
114.0087888004101
 20
130.9929155411922
 30
0.0
 10
113.9392014956526
 20
130.9709676230143
 30
0.0
 10
113.7877672504977
 20
130.9315350581016
 30
0.0
 10
113.7050833474037
 20
130.9139788088757
 30
0.0
 10
113.4489718853656
 20
130.8715400434552
 30
0.0
 10
113.2610568814776
 20
130.8557772937183
 30
0.0
 10
113.0705923285793
 20
130.8557772937183
 30
0.0
  0
LINE
  5
156
330
1F
100
AcDbEntity
  8
0
  6
HIDDEN
 62
     7
370
     0
100
AcDbLine
 10
114.4705923286
 20
131.3418004801
 30
0.0
 11
114.4705923286
 21
132.0542868577
 31
0.0
  0
SPLINE
  5
157
330
1F
100
AcDbEntity
  8
0
  6
HIDDEN
 62
     7
370
     0
100
AcDbSpline
210
0.0
220
0.0
230
1.0
 70
     8
 71
     3
 72
    18
 73
    14
 74
     0
 42
0.00000001
 43
0.00000001
 40
0.0
 40
0.0
 40
0.0
 40
0.0
 40
0.2500000000000021
 40
0.2500000000000021
 40
0.3750000000000017
 40
0.3750000000000017
 40
0.5000000000000014
 40
0.5000000000000014
 40
0.6250000000000011
 40
0.6250000000000011
 40
0.7500000000000008
 40
0.7500000000000008
 40
1.0
 40
1.0
 40
1.0
 40
1.0
 10
114.4705923285794
 20
131.3418004800907
 30
0.0
 10
114.4705923285794
 20
131.2873259595385
 30
0.0
 10
114.4356816371872
 20
131.230944900186
 30
0.0
 10
114.3336723358541
 20
131.1468680593325
 30
0.0
 10
114.292035981176
 20
131.1195343553416
 30
0.0
 10
114.1936301856873
 20
131.0665804397426
 30
0.0
 10
114.136086973983
 20
131.0406930860254
 30
0.0
 10
114.0087888004101
 20
130.9929155411922
 30
0.0
 10
113.9392014956526
 20
130.9709676230143
 30
0.0
 10
113.7877672504976
 20
130.9315350581016
 30
0.0
 10
113.7050833474037
 20
130.9139788088757
 30
0.0
 10
113.4489718853656
 20
130.8715400434552
 30
0.0
 10
113.2610568814776
 20
130.8557772937182
 30
0.0
 10
113.0705923285794
 20
130.8557772937182
 30
0.0
  0
LINE
  5
158
330
1F
100
AcDbEntity
  8
0
  6
HIDDEN
 62
     7
370
     0
100
AcDbLine
 10
113.0705923286
 20
130.8557772937
 30
0.0
 11
109.5205923286
 21
130.8557772937
 31
0.0
  0
LINE
  5
159
330
1F
100
AcDbEntity
  8
0
  6
HIDDEN
 62
     7
370
     0
100
AcDbLine
 10
109.5205923286
 20
99.2527964217
 30
0.0
 11
117.0705923286
 21
99.2527964217
 31
0.0
  0
SPLINE
  5
15A
330
1F
100
AcDbEntity
  8
0
  6
HIDDEN
 62
     7
370
     0
100
AcDbSpline
210
0.0
220
0.0
230
1.0
 70
     8
 71
     3
 72
    16
 73
    12
 74
     0
 42
0.00000001
 43
0.00000001
 40
0.0
 40
0.0
 40
0.0
 40
0.0
 40
0.1249999999999987
 40
0.1249999999999987
 40
0.2499999999999973
 40
0.2499999999999973
 40
0.4999999999999982
 40
0.4999999999999982
 40
0.7499999999999991
 40
0.7499999999999991
 40
1.0
 40
1.0
 40
1.0
 40
1.0
 10
117.0705923285794
 20
99.25279642165486
 30
0.0
 10
117.1657140832452
 20
99.25279642165486
 30
0.0
 10
117.2590441519733
 20
99.2489805882621
 30
0.0
 10
117.4423059127113
 20
99.23421003553229
 30
0.0
 10
117.5331836282683
 20
99.22305198755672
 30
0.0
 10
117.789985325788
 20
99.180580717415
 30
0.0
 10
117.94505269066
 20
99.1395345202122
 30
0.0
 10
118.1987991522146
 20
99.04438840363031
 30
0.0
 10
118.2996696038825
 20
98.98962566954872
 30
0.0
 10
118.4349160185774
 20
98.87836454564486
 30
0.0
 10
118.4705923285794
 20
98.82119480831616
 30
0.0
 10
118.4705923285794
 20
98.76677323528243
 30
0.0
  0
LINE
  5
15B
330
1F
100
AcDbEntity
  8
0
  6
HIDDEN
 62
     7
370
     0
100
AcDbLine
 10
118.4705923286
 20
98.7667732353
 30
0.0
 11
118.4705923286
 21
98.0542868577
 31
0.0
  0
SPLINE
  5
15C
330
1F
100
AcDbEntity
  8
0
  6
HIDDEN
 62
     7
370
     0
100
AcDbSpline
210
0.0
220
0.0
230
1.0
 70
     8
 71
     3
 72
    16
 73
    12
 74
     0
 42
0.00000001
 43
0.00000001
 40
0.0
 40
0.0
 40
0.0
 40
0.0
 40
0.1250000000000001
 40
0.1250000000000001
 40
0.2500000000000002
 40
0.2500000000000002
 40
0.5000000000000001
 40
0.5000000000000001
 40
0.75
 40
0.75
 40
1.0
 40
1.0
 40
1.0
 40
1.0
 10
117.0705923285794
 20
99.25279642165488
 30
0.0
 10
117.1657140832452
 20
99.25279642165488
 30
0.0
 10
117.2590441519733
 20
99.24898058826209
 30
0.0
 10
117.4423059127113
 20
99.23421003553229
 30
0.0
 10
117.5331836282683
 20
99.22305198755672
 30
0.0
 10
117.789985325788
 20
99.180580717415
 30
0.0
 10
117.94505269066
 20
99.13953452021218
 30
0.0
 10
118.1987991522147
 20
99.04438840363031
 30
0.0
 10
118.2996696038825
 20
98.98962566954872
 30
0.0
 10
118.4349160185774
 20
98.87836454564484
 30
0.0
 10
118.4705923285794
 20
98.82119480831615
 30
0.0
 10
118.4705923285794
 20
98.76677323528241
 30
0.0
  0
LINE
  5
15D
330
1F
100
AcDbEntity
  8
0
  6
HIDDEN
 62
     7
370
     0
100
AcDbLine
 10
109.5205923286
 20
99.2527964217
 30
0.0
 11
109.5205923286
 21
130.8557772937
 31
0.0
  0
LWPOLYLINE
  5
15E
330
1F
100
AcDbEntity
  8
0
  6
HIDDEN
 62
     7
370
     0
100
AcDbPolyline
 90
       21
 70
   128
 43
0.0
 10
235.224766825
 20
120.5602706658
 10
235.4339122497
 20
120.5547800827
 10
235.7188372866
 20
120.3681913182
 10
236.0516514879
 20
120.0187689807
 10
236.3997766807
 20
119.5407169631
 10
236.7291359457
 20
118.9808303276
 10
237.0074893032
 20
118.3939146793
 10
237.2075895871
 20
117.8374214108
 10
237.3098495876
 20
117.3658239608
 10
237.3042593832
 20
117.0252855734
 10
237.1913661821
 20
116.8491405187
 10
236.9822207574
 20
116.8546311018
 10
236.6972957205
 20
117.0412198663
 10
236.3644815192
 20
117.3906422038
 10
236.0163563264
 20
117.8686942214
 10
235.6869970614
 20
118.4285808568
 10
235.4086437039
 20
119.0154965052
 10
235.20854342
 20
119.5719897736
 10
235.1062834196
 20
120.0435872237
 10
235.111873624
 20
120.3841256111
 10
235.224766825
 20
120.5602706658
  0
SPLINE
  5
15F
330
1F
100
AcDbEntity
  8
0
  6
HIDDEN
 62
     7
370
     0
100
AcDbSpline
210
0.0
220
0.0
230
1.0
 70
     8
 71
     3
 72
    80
 73
    76
 74
     0
 42
0.00000001
 43
0.00000001
 40
0.0
 40
0.0
 40
0.0
 40
0.0
 40
0.0312499999999962
 40
0.0312499999999962
 40
0.0624999999999924
 40
0.0624999999999924
 40
0.0781249999999909
 40
0.0781249999999909
 40
0.0937499999999893
 40
0.0937499999999893
 40
0.1093749999999878
 40
0.1093749999999878
 40
0.1249999999999862
 40
0.1249999999999862
 40
0.1562499999999846
 40
0.1562499999999846
 40
0.1874999999999829
 40
0.1874999999999829
 40
0.2187499999999813
 40
0.2187499999999813
 40
0.2499999999999796
 40
0.2499999999999796
 40
0.281249999999978
 40
0.281249999999978
 40
0.3124999999999763
 40
0.3124999999999763
 40
0.3437499999999747
 40
0.3437499999999747
 40
0.3749999999999731
 40
0.3749999999999731
 40
0.4062499999999716
 40
0.4062499999999716
 40
0.43749999999997
 40
0.43749999999997
 40
0.45312499999997
 40
0.45312499999997
 40
0.46874999999997
 40
0.46874999999997
 40
0.48437499999997
 40
0.48437499999997
 40
0.49999999999997
 40
0.49999999999997
 40
0.5312499999999718
 40
0.5312499999999718
 40
0.5624999999999736
 40
0.5624999999999736
 40
0.5937499999999754
 40
0.5937499999999754
 40
0.6249999999999771
 40
0.6249999999999771
 40
0.6562499999999789
 40
0.6562499999999789
 40
0.6874999999999807
 40
0.6874999999999807
 40
0.7187499999999825
 40
0.7187499999999825
 40
0.7499999999999841
 40
0.7499999999999841
 40
0.7812499999999859
 40
0.7812499999999859
 40
0.8124999999999877
 40
0.8124999999999877
 40
0.8437499999999895
 40
0.8437499999999895
 40
0.8749999999999912
 40
0.8749999999999912
 40
0.8906249999999922
 40
0.8906249999999922
 40
0.9062499999999932
 40
0.9062499999999932
 40
0.9374999999999954
 40
0.9374999999999954
 40
0.9687499999999977
 40
0.9687499999999977
 40
1.0
 40
1.0
 40
1.0
 40
1.0
 10
237.9387715128898
 20
118.0264300913768
 30
0.0
 10
238.0554160849274
 20
117.9667463776402
 30
0.0
 10
238.1646025139484
 20
117.9161877210721
 30
0.0
 10
238.3576020983261
 20
117.822460099527
 30
0.0
 10
238.4432800053718
 20
117.7793543628704
 30
0.0
 10
238.5169712735699
 20
117.706694875175
 30
0.0
 10
238.5316336466094
 20
117.6807525169865
 30
0.0
 10
238.5327252113755
 20
117.6256024630669
 30
0.0
 10
238.5187573431229
 20
117.5957869090092
 30
0.0
 10
238.466803479935
 20
117.5375865986853
 30
0.0
 10
238.4287710140352
 20
117.5086286971847
 30
0.0
 10
238.3399526575816
 20
117.4560201682873
 30
0.0
 10
238.2891013938175
 20
117.4321124680264
 30
0.0
 10
238.1242702948916
 20
117.3694229088484
 30
0.0
 10
237.9986929978766
 20
117.3401241713256
 30
0.0
 10
237.7399886369054
 20
117.3145178472677
 30
0.0
 10
237.6046023743684
 20
117.317608323226
 30
0.0
 10
237.3292153959924
 20
117.3639713485762
 30
0.0
 10
237.1930875257405
 20
117.4064045649422
 30
0.0
 10
236.9276832018242
 20
117.5378731952458
 30
0.0
 10
236.8000673097205
 20
117.6269266327817
 30
0.0
 10
236.5721460097586
 20
117.8501428037494
 30
0.0
 10
236.4711554475875
 20
117.9856423053489
 30
0.0
 10
236.3120753841094
 20
118.2870654036267
 30
0.0
 10
236.2524036019449
 20
118.4561780909463
 30
0.0
 10
236.1798026506941
 20
118.8036486028779
 30
0.0
 10
236.1657878293028
 20
118.9853016925792
 30
0.0
 10
236.1783375829782
 20
119.3423194613089
 30
0.0
 10
236.2048653688702
 20
119.521189018325
 30
0.0
 10
236.2909525411437
 20
119.862392507873
 30
0.0
 10
236.3504079719482
 20
120.027095108843
 30
0.0
 10
236.5036583125249
 20
120.3452056588043
 30
0.0
 10
236.5949380510883
 20
120.4944205865165
 30
0.0
 10
236.7621315791187
 20
120.7023977762182
 30
0.0
 10
236.8232521357926
 20
120.7690060243032
 30
0.0
 10
236.9547964534117
 20
120.890549222627
 30
0.0
 10
237.0270522156951
 20
120.946745371394
 30
0.0
 10
237.1751602984024
 20
121.0397057967322
 30
0.0
 10
237.2520513547353
 20
121.0773435843467
 30
0.0
 10
237.4061930730776
 20
121.1345705327076
 30
0.0
 10
237.4814653964125
 20
121.1538268621716
 30
0.0
 10
237.7055186040976
 20
121.1925434338801
 30
0.0
 10
237.8505931587039
 20
121.1931324475995
 30
0.0
 10
238.1371766183089
 20
121.1652044028811
 30
0.0
 10
238.2810889853876
 20
121.1357930056869
 30
0.0
 10
238.5694484067308
 20
121.0506997898944
 30
0.0
 10
238.7128648314213
 20
120.9953833535965
 30
0.0
 10
239.0014379414193
 20
120.8571144784563
 30
0.0
 10
239.1484769848607
 20
120.7727240133663
 30
0.0
 10
239.4323616755303
 20
120.5769439595382
 30
0.0
 10
239.5725073244648
 20
120.4630767429427
 30
0.0
 10
239.8280481444877
 20
120.2135372384832
 30
0.0
 10
239.945579565007
 20
120.0751873042065
 30
0.0
 10
240.1367895444588
 20
119.7968507580465
 30
0.0
 10
240.2127096906302
 20
119.6537869147861
 30
0.0
 10
240.3181385563592
 20
119.385689163524
 30
0.0
 10
240.3491418771282
 20
119.258129827401
 30
0.0
 10
240.3757628476272
 20
119.0293912981159
 30
0.0
 10
240.3719936455962
 20
118.9248932090287
 30
0.0
 10
240.3404218003695
 20
118.741723152798
 30
0.0
 10
240.3128868857974
 20
118.6625157947924
 30
0.0
 10
240.2427981423301
 20
118.527487686407
 30
0.0
 10
240.1996627462972
 20
118.4714283362171
 30
0.0
 10
240.1113944882732
 20
118.3918424174257
 30
0.0
 10
240.0646287018342
 20
118.3667332785422
 30
0.0
 10
240.0161672809031
 20
118.3739595690787
 30
0.0
 10
240.0039323443801
 20
118.384370303296
 30
0.0
 10
239.9946102442824
 20
118.4267363313869
 30
0.0
 10
239.9977441431557
 20
118.4587131403249
 30
0.0
 10
240.0300795372525
 20
118.5857593312043
 30
0.0
 10
240.0792518417829
 20
118.7064308716294
 30
0.0
 10
240.1768077985706
 20
118.9715242919683
 30
0.0
 10
240.2268202151344
 20
119.1196882306646
 30
0.0
 10
240.3073128920172
 20
119.4298794708027
 30
0.0
 10
240.3386953342032
 20
119.5926306607645
 30
0.0
 10
240.3559984524261
 20
119.7635086589354
 30
0.0
  0
SPLINE
  5
160
330
1F
100
AcDbEntity
  8
0
  6
HIDDEN
 62
     7
370
     0
100
AcDbSpline
210
0.0
220
0.0
230
1.0
 70
     8
 71
     3
 72
    46
 73
    42
 74
     0
 42
0.00000001
 43
0.00000001
 40
0.0
 40
0.0
 40
0.0
 40
0.0
 40
0.0625000000000058
 40
0.0625000000000058
 40
0.1250000000000115
 40
0.1250000000000115
 40
0.1875000000000175
 40
0.1875000000000175
 40
0.2500000000000235
 40
0.2500000000000235
 40
0.3125000000000295
 40
0.3125000000000295
 40
0.3750000000000353
 40
0.3750000000000353
 40
0.4062500000000354
 40
0.4062500000000354
 40
0.4375000000000356
 40
0.4375000000000356
 40
0.4531250000000329
 40
0.4531250000000329
 40
0.4687500000000301
 40
0.4687500000000301
 40
0.5000000000000276
 40
0.5000000000000276
 40
0.5625000000000242
 40
0.5625000000000242
 40
0.6250000000000208
 40
0.6250000000000208
 40
0.6875000000000173
 40
0.6875000000000173
 40
0.7500000000000138
 40
0.7500000000000138
 40
0.8125000000000103
 40
0.8125000000000103
 40
0.8437500000000085
 40
0.8437500000000085
 40
0.8750000000000068
 40
0.8750000000000068
 40
0.9375000000000034
 40
0.9375000000000034
 40
1.0
 40
1.0
 40
1.0
 40
1.0
 10
240.3559984524261
 20
119.7635086589353
 30
0.0
 10
240.2330671314613
 20
119.7811755620192
 30
0.0
 10
240.111272117032
 20
119.8075041267616
 30
0.0
 10
239.8722332457769
 20
119.8920374228806
 30
0.0
 10
239.7523363961056
 20
119.9531843707931
 30
0.0
 10
239.5383017905807
 20
120.1198761280401
 30
0.0
 10
239.4428526513747
 20
120.2272950610432
 30
0.0
 10
239.2647172833189
 20
120.4506331122127
 30
0.0
 10
239.1794489357019
 20
120.5653275417042
 30
0.0
 10
238.9894900420172
 20
120.7785981482346
 30
0.0
 10
238.8867994664787
 20
120.8750813834446
 30
0.0
 10
238.6629848534128
 20
121.0374834032392
 30
0.0
 10
238.5402538950774
 20
121.1046145283341
 30
0.0
 10
238.3510832771208
 20
121.1798106899072
 30
0.0
 10
238.2868817589379
 20
121.2009795211026
 30
0.0
 10
238.1556925390337
 20
121.2353100363829
 30
0.0
 10
238.0886080194734
 20
121.249521153179
 30
0.0
 10
237.9837476652712
 20
121.2576458951355
 30
0.0
 10
237.9465962281051
 20
121.2587124461361
 30
0.0
 10
237.8778032590429
 20
121.2380335593283
 30
0.0
 10
237.8523605808741
 20
121.2146416358485
 30
0.0
 10
237.7954495347532
 20
121.1445994806946
 30
0.0
 10
237.7703581074138
 20
121.0934072623772
 30
0.0
 10
237.6995749583135
 20
120.9382488124201
 30
0.0
 10
237.6648816637073
 20
120.827770523375
 30
0.0
 10
237.6247292489986
 20
120.5975103245746
 30
0.0
 10
237.6194710955599
 20
120.4757525904971
 30
0.0
 10
237.6536997409209
 20
120.2202042984472
 30
0.0
 10
237.6942214946461
 20
120.0896871637974
 30
0.0
 10
237.8143217298099
 20
119.8360155212378
 30
0.0
 10
237.8930042470559
 20
119.7143293199292
 30
0.0
 10
238.0485643983972
 20
119.4736901822758
 30
0.0
 10
238.1251307578975
 20
119.3535085863696
 30
0.0
 10
238.1998780907098
 20
119.1538964375461
 30
0.0
 10
238.2172137159504
 20
119.0861658558006
 30
0.0
 10
238.2354085364329
 20
118.9477248888231
 30
0.0
 10
238.2361761164825
 20
118.8763067363182
 30
0.0
 10
238.2176219871795
 20
118.6673323056372
 30
0.0
 10
238.178855937362
 20
118.5312699023176
 30
0.0
 10
238.075494306991
 20
118.270689656785
 30
0.0
 10
238.0110504580254
 20
118.1465494984323
 30
0.0
 10
237.9387715128899
 20
118.0264300913767
 30
0.0
  0
SPLINE
  5
161
330
1F
100
AcDbEntity
  8
0
  6
HIDDEN
 62
     7
370
     0
100
AcDbSpline
210
0.0
220
0.0
230
1.0
 70
     8
 71
     3
 72
    18
 73
    14
 74
     0
 42
0.00000001
 43
0.00000001
 40
0.0
 40
0.0
 40
0.0
 40
0.0
 40
0.2499999999999976
 40
0.2499999999999976
 40
0.374999999999996
 40
0.374999999999996
 40
0.4999999999999944
 40
0.4999999999999944
 40
0.6249999999999929
 40
0.6249999999999929
 40
0.7499999999999913
 40
0.7499999999999913
 40
1.0
 40
1.0
 40
1.0
 40
1.0
 10
238.421437268776
 20
121.9906182821037
 30
0.0
 10
238.2461070764699
 20
121.9746383186068
 30
0.0
 10
238.0730089256271
 20
121.9378134421189
 30
0.0
 10
237.8079487910265
 20
121.8543878307088
 30
0.0
 10
237.7187818449524
 20
121.8217808265281
 30
0.0
 10
237.5405476930635
 20
121.7488482930376
 30
0.0
 10
237.4495575782618
 20
121.7076794644913
 30
0.0
 10
237.2731097347757
 20
121.6219959143292
 30
0.0
 10
237.185848602576
 20
121.5766904605374
 30
0.0
 10
237.0261262508648
 20
121.4888084537568
 30
0.0
 10
236.9522677774906
 20
121.4454549454965
 30
0.0
 10
236.7525927270223
 20
121.3186858656021
 30
0.0
 10
236.645093958631
 20
121.2366241374323
 30
0.0
 10
236.5528073000285
 20
121.1474155912371
 30
0.0
  0
SPLINE
  5
162
330
1F
100
AcDbEntity
  8
0
  6
HIDDEN
 62
     7
370
     0
100
AcDbSpline
210
0.0
220
0.0
230
1.0
 70
     8
 71
     3
 72
    26
 73
    22
 74
     0
 42
0.00000001
 43
0.00000001
 40
0.0
 40
0.0
 40
0.0
 40
0.0
 40
0.2499999999999686
 40
0.2499999999999686
 40
0.3749999999999532
 40
0.3749999999999532
 40
0.437499999999953
 40
0.437499999999953
 40
0.4999999999999529
 40
0.4999999999999529
 40
0.5312499999999527
 40
0.5312499999999527
 40
0.5624999999999524
 40
0.5624999999999524
 40
0.5937499999999521
 40
0.5937499999999521
 40
0.6249999999999519
 40
0.6249999999999519
 40
0.7499999999999707
 40
0.7499999999999707
 40
1.0
 40
1.0
 40
1.0
 40
1.0
 10
236.5528073000289
 20
121.1474155912367
 30
0.0
 10
236.7401554205464
 20
121.2032310492158
 30
0.0
 10
236.9294973899134
 20
121.2471416834344
 30
0.0
 10
237.2175528663333
 20
121.2912944003969
 30
0.0
 10
237.314243580677
 20
121.3023181112343
 30
0.0
 10
237.4606558976913
 20
121.3131835914117
 30
0.0
 10
237.509687713202
 20
121.3158413520249
 30
0.0
 10
237.6084111762825
 20
121.3198903359698
 30
0.0
 10
237.6580759362395
 20
121.320864872815
 30
0.0
 10
237.7336906104352
 20
121.3253981979642
 30
0.0
 10
237.7593957841212
 20
121.3273658089795
 30
0.0
 10
237.8101340561496
 20
121.3377876797724
 30
0.0
 10
237.8350689771271
 20
121.3478503182664
 30
0.0
 10
237.8740877896087
 20
121.3750930216554
 30
0.0
 10
237.889554696542
 20
121.3909565778875
 30
0.0
 10
237.9182553383351
 20
121.4225495475436
 30
0.0
 10
237.9314239097056
 20
121.4385651849486
 30
0.0
 10
237.9960258850575
 20
121.5184968436899
 30
0.0
 10
238.0447140580724
 20
121.5817228114073
 30
0.0
 10
238.1982092959686
 20
121.7652803907537
 30
0.0
 10
238.3067698377963
 20
121.8806718336506
 30
0.0
 10
238.4214372687759
 20
121.9906182821037
 30
0.0
  0
SPLINE
  5
163
330
1F
100
AcDbEntity
  8
0
  6
HIDDEN
 62
     7
370
     0
100
AcDbSpline
210
0.0
220
0.0
230
1.0
 70
     8
 71
     3
 72
    62
 73
    58
 74
     0
 42
0.00000001
 43
0.00000001
 40
-0.0312500000000019
 40
-0.0312500000000019
 40
0.0
 40
0.0
 40
0.0312500000000007
 40
0.0312500000000007
 40
0.0625000000000015
 40
0.0625000000000015
 40
0.1250000000000001
 40
0.1250000000000001
 40
0.1874999999999987
 40
0.1874999999999987
 40
0.2187499999999974
 40
0.2187499999999974
 40
0.2499999999999962
 40
0.2499999999999962
 40
0.2812499999999949
 40
0.2812499999999949
 40
0.3124999999999936
 40
0.3124999999999936
 40
0.3437499999999924
 40
0.3437499999999924
 40
0.3749999999999912
 40
0.3749999999999912
 40
0.4374999999999888
 40
0.4374999999999888
 40
0.4687499999999891
 40
0.4687499999999891
 40
0.4999999999999893
 40
0.4999999999999893
 40
0.5312499999999896
 40
0.5312499999999896
 40
0.5624999999999897
 40
0.5624999999999897
 40
0.5937499999999899
 40
0.5937499999999899
 40
0.62499999999999
 40
0.62499999999999
 40
0.6562499999999902
 40
0.6562499999999902
 40
0.6874999999999903
 40
0.6874999999999903
 40
0.7187499999999906
 40
0.7187499999999906
 40
0.7499999999999907
 40
0.7499999999999907
 40
0.7812499999999909
 40
0.7812499999999909
 40
0.8124999999999911
 40
0.8124999999999911
 40
0.8749999999999927
 40
0.8749999999999927
 40
0.9062499999999944
 40
0.9062499999999944
 40
0.9374999999999963
 40
0.9374999999999963
 40
0.9687499999999981
 40
0.9687499999999981
 40
1.0
 40
1.0
 40
1.031250000000001
 40
1.031250000000001
 10
238.4118547458663
 20
114.1810577562519
 30
0.0
 10
238.1293299112925
 20
114.1810577562519
 30
0.0
 10
237.9910068802414
 20
114.1970157808538
 30
0.0
 10
237.7197789345491
 20
114.2585494321601
 30
0.0
 10
237.5855685683808
 20
114.3049421624122
 30
0.0
 10
237.2065890606764
 20
114.4814174794607
 30
0.0
 10
236.9777125002168
 20
114.651423548489
 30
0.0
 10
236.5968196480655
 20
115.057342036058
 30
0.0
 10
236.4412215751985
 20
115.2974625544359
 30
0.0
 10
236.2820755296767
 20
115.6800786975383
 30
0.0
 10
236.2403101387264
 20
115.8143309904687
 30
0.0
 10
236.1849917249163
 20
116.0816549986478
 30
0.0
 10
236.1708858974458
 20
116.2150288893639
 30
0.0
 10
236.1703077393908
 20
116.481026266132
 30
0.0
 10
236.1842987883338
 20
116.6132512885556
 30
0.0
 10
236.2387972172104
 20
116.8635392085675
 30
0.0
 10
236.2796875561585
 20
116.9843706414987
 30
0.0
 10
236.3862955558349
 20
117.2114909365097
 30
0.0
 10
236.4510431029136
 20
117.3163776501782
 30
0.0
 10
236.6026039785411
 20
117.5109326241275
 30
0.0
 10
236.6898905756806
 20
117.600611555185
 30
0.0
 10
236.9755045301271
 20
117.839086264054
 30
0.0
 10
237.2048907251781
 20
117.9633704099944
 30
0.0
 10
237.5811093948315
 20
118.0886026081178
 30
0.0
 10
237.7135804498823
 20
118.1208676955677
 30
0.0
 10
237.9875354263342
 20
118.1643445181044
 30
0.0
 10
238.1255760896365
 20
118.1751863491049
 30
0.0
 10
238.4037936616176
 20
118.1757910603489
 30
0.0
 10
238.5456030203821
 20
118.1651297430246
 30
0.0
 10
238.8180595877133
 20
118.1228433756498
 30
0.0
 10
238.9499253187883
 20
118.0914698968269
 30
0.0
 10
239.205441738909
 20
118.0074082955254
 30
0.0
 10
239.3254284985491
 20
117.9558935844767
 30
0.0
 10
239.5505744958695
 20
117.8339542795562
 30
0.0
 10
239.6567012602534
 20
117.7626481102547
 30
0.0
 10
239.8480279079453
 20
117.6037614814162
 30
0.0
 10
239.9339642544787
 20
117.5160349785912
 30
0.0
 10
240.0864612156971
 20
117.3218819077026
 30
0.0
 10
240.1526062789256
 20
117.2153103888728
 30
0.0
 10
240.2588267141213
 20
116.9910558867762
 30
0.0
 10
240.29986732595
 20
116.8723070393983
 30
0.0
 10
240.3560539138986
 20
116.6197139511939
 30
0.0
 10
240.3702714854628
 20
116.4889605078265
 30
0.0
 10
240.3709023771485
 20
116.2244105321654
 30
0.0
 10
240.3571139953487
 20
116.0880068936272
 30
0.0
 10
240.3022704236048
 20
115.8192538649956
 30
0.0
 10
240.26176924155
 20
115.687554360159
 30
0.0
 10
240.1021800428667
 20
115.3007065034961
 30
0.0
 10
239.9474122091878
 20
115.0609805007883
 30
0.0
 10
239.6594324953072
 20
114.7534954911691
 30
0.0
 10
239.5554835727541
 20
114.6609165992044
 30
0.0
 10
239.331072374863
 20
114.4959671788492
 30
0.0
 10
239.2091418208146
 20
114.4230883852051
 30
0.0
 10
238.9568993673557
 20
114.3054508775625
 30
0.0
 10
238.8260221936664
 20
114.2599186227708
 30
0.0
 10
238.5538158452865
 20
114.1975289153
 30
0.0
 10
238.4118547458663
 20
114.1810577562519
 30
0.0
 10
238.1293299112925
 20
114.1810577562519
 30
0.0
  0
ARC
  5
164
330
1F
100
AcDbEntity
  8
0
  6
HIDDEN
 62
     7
370
     0
100
AcDbCircle
 10
238.2968274198
 20
120.0785604302
 30
0.0
 40
2.083132967472547
100
AcDbArc
 50
260.1026599615
 51
351.3012418187
  0
ARC
  5
165
330
1F
100
AcDbEntity
  8
0
  6
HIDDEN
 62
     7
370
     0
100
AcDbCircle
 10
238.2597725842
 20
119.8567388318
 30
0.0
 40
2.139994621134103
100
AcDbArc
 50
85.6674951178
 51
142.9062129557
  0
LINE
  5
166
330
1F
100
AcDbEntity
  8
0
  6
HIDDEN
 62
     7
370
     0
100
AcDbLine
 10
109.5205923286
 20
97.0642868577
 30
0.0
 11
109.5205923286
 21
94.2417868577
 31
0.0
  0
LINE
  5
167
330
1F
100
AcDbEntity
  8
0
  6
HIDDEN
 62
     7
370
     0
100
AcDbLine
 10
118.4705923286
 20
97.0642868577
 30
0.0
 11
118.4705923286
 21
93.1091385984
 31
0.0
  0
LINE
  5
168
330
1F
100
AcDbEntity
  8
0
  6
HIDDEN
 62
     7
370
     0
100
AcDbLine
 10
109.5205923286
 20
133.0442868577
 30
0.0
 11
109.5205923286
 21
135.9242246231
 31
0.0
  0
LINE
  5
169
330
1F
100
AcDbEntity
  8
0
  6
HIDDEN
 62
     7
370
     0
100
AcDbLine
 10
108.3705923286
 20
133.0442868577
 30
0.0
 11
108.3705923286
 21
134.7449646042
 31
0.0
  0
LINE
  5
16A
330
1F
100
AcDbEntity
  8
0
  6
HIDDEN
 62
     7
370
     0
100
AcDbLine
 10
108.3705923286
 20
97.0642868577
 30
0.0
 11
108.3705923286
 21
95.4011263327
 31
0.0
  0
LINE
  5
16B
330
1F
100
AcDbEntity
  8
0
  6
HIDDEN
 62
     7
370
     0
100
AcDbLine
 10
114.4705923286
 20
133.0442868577
 30
0.0
 11
114.4705923286
 21
136.89839453
 31
0.0
  0
LINE
  5
16C
330
1F
100
AcDbEntity
  8
0
  6
HIDDEN
 62
     7
370
     0
100
AcDbLine
 10
159.5705923286
 20
124.5542868577
 30
0.0
 11
159.5705923286
 21
105.5542868577
 31
0.0
  0
LWPOLYLINE
  5
16D
330
1F
100
AcDbEntity
  8
0
  6
HIDDEN
 62
     7
370
     0
100
AcDbPolyline
 90
        2
 70
   128
 43
0.0
 10
159.5705923286
 20
105.5542868577
 10
159.5705923286
 20
105.5542868577
  0
LINE
  5
16E
330
1F
100
AcDbEntity
  8
0
  6
HIDDEN
 62
     7
370
     0
100
AcDbLine
 10
162.0705923286
 20
124.5542868577
 30
0.0
 11
162.0705923286
 21
105.5542868577
 31
0.0
  0
LWPOLYLINE
  5
16F
330
1F
100
AcDbEntity
  8
0
  6
HIDDEN
 62
     7
370
     0
100
AcDbPolyline
 90
        2
 70
   128
 43
0.0
 10
166.2205923286
 20
88.6542868577
 10
166.2205923286
 20
88.6542868577
  0
LINE
  5
170
330
1F
100
AcDbEntity
  8
0
  6
HIDDEN
 62
     7
370
     0
100
AcDbLine
 10
156.4582671309
 20
88.6542868577
 30
0.0
 11
153.2205923286
 21
88.6542868577
 31
0.0
  0
LINE
  5
171
330
1F
100
AcDbEntity
  8
0
  6
HIDDEN
 62
     7
370
     0
100
AcDbLine
 10
156.3605923286
 20
88.2498912294
 30
0.0
 11
156.3605923286
 21
87.5564496986
 31
0.0
  0
LINE
  5
172
330
1F
100
AcDbEntity
  8
0
  6
HIDDEN
 62
     7
370
     0
100
AcDbLine
 10
166.2205923286
 20
88.6542868577
 30
0.0
 11
160.0829175262
 21
88.6542868577
 31
0.0
  0
LINE
  5
173
330
1F
100
AcDbEntity
  8
0
  6
HIDDEN
 62
     7
370
     0
100
AcDbLine
 10
160.1805923286
 20
87.5564496986
 30
0.0
 11
160.1805923286
 21
88.2498912294
 31
0.0
  0
LINE
  5
174
330
1F
100
AcDbEntity
  8
0
  6
HIDDEN
 62
     7
370
     0
100
AcDbLine
 10
166.2205923286
 20
88.6542868577
 30
0.0
 11
166.2205923286
 21
85.4940094571
 31
0.0
  0
LINE
  5
175
330
1F
100
AcDbEntity
  8
0
  6
HIDDEN
 62
     7
370
     0
100
AcDbLine
 10
145.2205923286
 20
83.5701638748
 30
0.0
 11
145.2205923286
 21
88.6542868577
 31
0.0
  0
LINE
  5
176
330
1F
100
AcDbEntity
  8
0
  6
HIDDEN
 62
     7
370
     0
100
AcDbLine
 10
153.2205923286
 20
88.6542868577
 30
0.0
 11
145.2205923286
 21
88.6542868577
 31
0.0
  0
LINE
  5
177
330
1F
100
AcDbEntity
  8
0
  6
HIDDEN
 62
     7
370
     0
100
AcDbLine
 10
150.7205923286
 20
123.5542868577
 30
0.0
 11
150.7205923286
 21
106.5542868577
 31
0.0
  0
LWPOLYLINE
  5
178
330
1F
100
AcDbEntity
  8
0
  6
HIDDEN
 62
     7
370
     0
100
AcDbPolyline
 90
        2
 70
   128
 43
0.0
 10
150.7205923286
 20
106.5542868577
 10
150.7205923286
 20
106.5542868577
  0
LINE
  5
179
330
1F
100
AcDbEntity
  8
0
  6
HIDDEN
 62
     7
370
     0
100
AcDbLine
 10
150.2205923286
 20
106.0542868577
 30
0.0
 11
150.2205923286
 21
124.0542868577
 31
0.0
  0
LINE
  5
17A
330
1F
100
AcDbEntity
  8
0
  6
HIDDEN
 62
     7
370
     0
100
AcDbLine
 10
254.7705923286
 20
94.5542868577
 30
0.0
 11
254.7705923286
 21
115.0542868577
 31
0.0
  0
SPLINE
  5
17B
330
1F
100
AcDbEntity
  8
0
  6
HIDDEN
 62
     7
370
     0
100
AcDbSpline
210
0.0
220
0.0
230
1.0
 70
     8
 71
     3
 72
    16
 73
    12
 74
     0
 42
0.00000001
 43
0.00000001
 40
0.0
 40
0.0
 40
0.0
 40
0.0
 40
0.2499999999999999
 40
0.2499999999999999
 40
0.4999999999999998
 40
0.4999999999999998
 40
0.6249999999999998
 40
0.6249999999999998
 40
0.7499999999999999
 40
0.7499999999999999
 40
1.0
 40
1.0
 40
1.0
 40
1.0
 10
258.1451104788822
 20
127.2912234395744
 30
0.0
 10
257.6586161862178
 20
126.3420629415599
 30
0.0
 10
257.2058786420524
 20
125.3779953003165
 30
0.0
 10
256.3900592507461
 20
123.4102676288632
 30
0.0
 10
256.0269305920361
 20
122.4066282708683
 30
0.0
 10
255.5716214984296
 20
120.8616968742358
 30
0.0
 10
255.4345085404671
 20
120.3383915469263
 30
0.0
 10
255.1975160865693
 20
119.2906238267865
 30
0.0
 10
255.0972390981414
 20
118.7651571629471
 30
0.0
 10
254.8545437826036
 20
117.1837066131715
 30
0.0
 10
254.7705923285794
 20
116.1226433938151
 30
0.0
 10
254.7705923285793
 20
115.0542868576865
 30
0.0
  0
LINE
  5
17C
330
1F
100
AcDbEntity
  8
0
  6
HIDDEN
 62
     7
370
     0
100
AcDbLine
 10
258.1451104789
 20
138.928805008
 30
0.0
 11
258.1451104789
 21
127.2912234396
 31
0.0
  0
ELLIPSE
  5
17D
330
1F
100
AcDbEntity
  8
0
  6
HIDDEN
 62
     7
370
     0
100
AcDbEllipse
 10
271.6148545644
 20
115.0542868577
 30
0.0
 11
14.59302442229102
 21
20.49991501981005
 31
0.0
210
0.0
220
0.0
230
1.0
 40
0.0040448756
 41
1.573675695089355
 42
3.144472021887936
  0
LINE
  5
17E
330
1F
100
AcDbEntity
  8
0
  6
HIDDEN
 62
     7
370
     0
100
AcDbLine
 10
159.5705923286
 20
106.5542868577
 30
0.0
 11
159.5705923286
 21
123.5293461677
 31
0.0
  0
LWPOLYLINE
  5
17F
330
1F
100
AcDbEntity
  8
0
  6
HIDDEN
 62
     7
370
     0
100
AcDbPolyline
 90
        2
 70
   128
 43
0.0
 10
166.2205923286
 20
141.4542868577
 10
166.2205923286
 20
141.4542868577
  0
LINE
  5
180
330
1F
100
AcDbEntity
  8
0
  6
HIDDEN
 62
     7
370
     0
100
AcDbLine
 10
166.2205923286
 20
141.4542868577
 30
0.0
 11
159.7862947969
 21
141.4542868577
 31
0.0
  0
LINE
  5
181
330
1F
100
AcDbEntity
  8
0
  6
HIDDEN
 62
     7
370
     0
100
AcDbLine
 10
160.1805923286
 20
142.8595210489
 30
0.0
 11
160.1805923286
 21
142.1739407087
 31
0.0
  0
LINE
  5
182
330
1F
100
AcDbEntity
  8
0
  6
HIDDEN
 62
     7
370
     0
100
AcDbLine
 10
166.2205923286
 20
141.4542868577
 30
0.0
 11
166.2205923286
 21
144.9007271815
 31
0.0
  0
LINE
  5
183
330
1F
100
AcDbEntity
  8
0
  6
HIDDEN
 62
     7
370
     0
100
AcDbLine
 10
156.7548898603
 20
141.4542868577
 30
0.0
 11
153.2205923286
 21
141.4542868577
 31
0.0
  0
LINE
  5
184
330
1F
100
AcDbEntity
  8
0
  6
HIDDEN
 62
     7
370
     0
100
AcDbLine
 10
156.3605923286
 20
142.1739407087
 30
0.0
 11
156.3605923286
 21
142.8595210489
 31
0.0
  0
LINE
  5
185
330
1F
100
AcDbEntity
  8
0
  6
HIDDEN
 62
     7
370
     0
100
AcDbLine
 10
153.2205923286
 20
141.4542868577
 30
0.0
 11
145.2205923286
 21
141.4542868577
 31
0.0
  0
ELLIPSE
  5
186
330
1F
100
AcDbEntity
  8
0
  6
HIDDEN
 62
     7
370
     0
100
AcDbEllipse
 10
104.2031604642
 20
115.0542868577
 30
0.0
 11
20.07002071827051
 21
-1.421085471520200E-14
 31
0.0
210
0.0
220
0.0
230
1.0
 40
0.8164965809
 41
1.302650465081198
 42
1.361629843993898
  0
LINE
  5
187
330
1F
100
AcDbEntity
  8
0
  6
HIDDEN
 62
     7
370
     0
100
AcDbLine
 10
108.3705923286
 20
133.0442868577
 30
0.0
 11
108.3705923286
 21
131.0842222555
 31
0.0
  0
ELLIPSE
  5
188
330
1F
100
AcDbEntity
  8
0
  6
HIDDEN
 62
     7
370
     0
100
AcDbEllipse
 10
104.2031604642
 20
115.0542868577
 30
0.0
 11
20.07002071827053
 21
-2.842170943040401E-14
 31
0.0
210
0.0
220
0.0
230
1.0
 40
0.8164965809
 41
4.921555463185704
 42
4.980534842098401
  0
LINE
  5
189
330
1F
100
AcDbEntity
  8
0
  6
HIDDEN
 62
     7
370
     0
100
AcDbLine
 10
108.3705923286
 20
97.0642868577
 30
0.0
 11
108.3705923286
 21
99.0243514599
 31
0.0
  0
LINE
  5
18A
330
1F
100
AcDbEntity
  8
0
  6
HIDDEN
 62
     7
370
     0
100
AcDbLine
 10
109.5205923286
 20
133.0442868577
 30
0.0
 11
109.5205923286
 21
130.8557772937
 31
0.0
  0
LINE
  5
18B
330
1F
100
AcDbEntity
  8
0
  6
HIDDEN
 62
     7
370
     0
100
AcDbLine
 10
114.4705923286
 20
133.0442868577
 30
0.0
 11
114.4705923286
 21
131.3418004801
 31
0.0
  0
LINE
  5
18C
330
1F
100
AcDbEntity
  8
0
  6
HIDDEN
 62
     7
370
     0
100
AcDbLine
 10
118.4705923286
 20
97.0642868577
 30
0.0
 11
118.4705923286
 21
98.7667732353
 31
0.0
  0
LINE
  5
18D
330
1F
100
AcDbEntity
  8
0
  6
HIDDEN
 62
     7
370
     0
100
AcDbLine
 10
109.5205923286
 20
97.0642868577
 30
0.0
 11
109.5205923286
 21
99.2527964217
 31
0.0
  0
SPLINE
  5
18E
330
1F
100
AcDbEntity
  8
0
  6
HIDDEN
 62
     7
370
     0
100
AcDbSpline
210
0.0
220
0.0
230
1.0
 70
    11
 71
     3
 72
    34
 73
    30
 74
     0
 42
0.00000001
 43
0.00000001
 40
0.0
 40
0.0
 40
0.0
 40
0.0
 40
0.0127738756313432
 40
0.0481305018861377
 40
0.0807425016924018
 40
0.1375890913626935
 40
0.1884518731192289
 40
0.2226712138150704
 40
0.2626938372949204
 40
0.2986558359810594
 40
0.3315197765429548
 40
0.3878459718944561
 40
0.3881259547070435
 40
0.4440926113325878
 40
0.4768435653244689
 40
0.5126448960710659
 40
0.5530084671478371
 40
0.5873855940016104
 40
0.6380121006395982
 40
0.6949796268749335
 40
0.7275539945508063
 40
0.7628079420081073
 40
0.8028703493977764
 40
0.8370831563378197
 40
0.8877749825785644
 40
0.8880089190148213
 40
0.9388397946263418
 40
0.972971275870777
 40
1.0
 40
1.0
 40
1.0
 40
1.0
 10
128.4306042410678
 20
91.98662500114752
 30
0.0
 10
128.4897978936306
 20
91.99271390495105
 30
0.0
 10
128.7128328039854
 20
92.01565619783521
 30
0.0
 10
129.2361852507627
 20
92.05230094964287
 30
0.0
 10
130.1089487092285
 20
92.07998497967681
 30
0.0
 10
131.2237866786703
 20
92.06942938282837
 30
0.0
 10
132.3368518249764
 20
91.9532843590244
 30
0.0
 10
133.2312939819621
 20
91.8316934000403
 30
0.0
 10
133.9151263206601
 20
91.70993549064848
 30
0.0
 10
134.4558856078493
 20
91.59357427507369
 30
0.0
 10
134.869280080325
 20
91.50010169315131
 30
0.0
 10
135.0974423011066
 20
91.43346359181766
 30
0.0
 10
134.943065195546
 20
91.47468401762701
 30
0.0
 10
134.91618712126
 20
91.48716039129592
 30
0.0
 10
134.4602631782559
 20
91.59274184948173
 30
0.0
 10
133.9363299963032
 20
91.7054903305674
 30
0.0
 10
133.2501231080586
 20
91.82858842550964
 30
0.0
 10
132.3570095437623
 20
91.95057981267978
 30
0.0
 10
131.2435732633222
 20
92.06833235337474
 30
0.0
 10
130.1328227370326
 20
92.08030294112716
 30
0.0
 10
129.2480702218899
 20
92.05324539176083
 30
0.0
 10
128.5808762456381
 20
92.00531331789315
 30
0.0
 10
128.03959642245
 20
91.94901912490633
 30
0.0
 10
127.6520433403214
 20
91.90393900187892
 30
0.0
 10
127.4580162430176
 20
91.86505636280584
 30
0.0
 10
127.5842435417603
 20
91.88646316310198
 30
0.0
 10
127.6134025772789
 20
91.89638447200467
 30
0.0
 10
127.9849833154948
 20
91.94401430099141
 30
0.0
 10
128.2940274039136
 20
91.97356539303156
 30
0.0
 10
128.4306042410678
 20
91.98662500114752
 30
0.0
  0
SPLINE
  5
18F
330
1F
100
AcDbEntity
  8
0
  6
HIDDEN
 62
     7
370
     0
100
AcDbSpline
210
0.0
220
0.0
230
1.0
 70
     8
 71
     3
 72
    38
 73
    34
 74
     0
 42
0.00000001
 43
0.00000001
 40
-0.093922140067779
 40
-0.0657752597753781
 40
-0.0344739496007944
 40
0.0
 40
0.0323124298479835
 40
0.0609695982577461
 40
0.0859698687835549
 40
0.107313175594656
 40
0.1250019290169609
 40
0.1562358721977444
 40
0.1978507372990771
 40
0.249816879324835
 40
0.278262948030722
 40
0.3049884159832859
 40
0.330004216891384
 40
0.3533239044418167
 40
0.3749644360933808
 40
0.4060267838322919
 40
0.4476555976010197
 40
0.4998320869201296
 40
0.5286685248934815
 40
0.5555536435543463
 40
0.5805015705746596
 40
0.6035302879119624
 40
0.62466296934292
 40
0.6685312637103242
 40
0.7183269153555463
 40
0.765237570611313
 40
0.7915712044406462
 40
0.8122937035710439
 40
0.8615656629637486
 40
0.906077859932221
 40
0.9342247402246219
 40
0.9655260503992056
 40
1.0
 40
1.032312429847984
 40
1.060969598257746
 40
1.085969868783555
 10
129.2108574927607
 20
138.057290883714
 30
0.0
 10
128.6067892742514
 20
138.1018243889299
 30
0.0
 10
128.1314742114052
 20
138.1498997751629
 30
0.0
 10
127.8118753854053
 20
138.1860625144288
 30
0.0
 10
127.6248809796914
 20
138.2124526486172
 30
0.0
 10
127.536575320139
 20
138.2285222584144
 30
0.0
 10
127.5071618242697
 20
138.2363459436644
 30
0.0
 10
127.5792938943385
 20
138.2181784450806
 30
0.0
 10
127.900405896533
 20
138.173571865118
 30
0.0
 10
128.4724333867476
 20
138.1128333364473
 30
0.0
 10
129.1229657345038
 20
138.0634891734273
 30
0.0
 10
129.6728418632453
 20
138.0411267129479
 30
0.0
 10
130.2282797290234
 20
138.0326445030435
 30
0.0
 10
130.7690552766599
 20
138.039095589192
 30
0.0
 10
131.3669851714592
 20
138.0625739657937
 30
0.0
 10
132.1066510286261
 20
138.1294938366309
 30
0.0
 10
133.038700661899
 20
138.2455952705661
 30
0.0
 10
133.8280373955726
 20
138.3809101551574
 30
0.0
 10
134.3669670834101
 20
138.4960219792246
 30
0.0
 10
134.6810714233059
 20
138.5657960557756
 30
0.0
 10
134.8863517916718
 20
138.6163561412715
 30
0.0
 10
134.9974217777627
 20
138.6470342811782
 30
0.0
 10
135.0436932795666
 20
138.6617612984344
 30
0.0
 10
134.9177284112204
 20
138.6239017048471
 30
0.0
 10
134.4474828823473
 20
138.513415920421
 30
0.0
 10
133.7942849187587
 20
138.3737117020448
 30
0.0
 10
133.1902659632427
 20
138.2705850958995
 30
0.0
 10
132.5159279136044
 20
138.17114907013
 30
0.0
 10
131.630578430617
 20
138.0776787358545
 30
0.0
 10
130.6610995400046
 20
138.0306702297817
 30
0.0
 10
129.8727639627376
 20
138.0343544448823
 30
0.0
 10
129.2108574927607
 20
138.057290883714
 30
0.0
 10
128.6067892742514
 20
138.1018243889299
 30
0.0
 10
128.1314742114052
 20
138.1498997751629
 30
0.0
  0
CIRCLE
  5
190
330
1F
100
AcDbEntity
  8
0
  6
HIDDEN
 62
     7
370
     0
100
AcDbCircle
 10
268.8298489775
 20
123.2639882895
 30
0.0
 40
3.473037885230181
  0
SPLINE
  5
191
330
1F
100
AcDbEntity
  8
0
  6
HIDDEN
 62
     7
370
     0
100
AcDbSpline
210
0.0
220
0.0
230
1.0
 70
     8
 71
     3
 72
    62
 73
    58
 74
     0
 42
0.00000001
 43
0.00000001
 40
-0.0312500000000009
 40
-0.0312500000000009
 40
0.0
 40
0.0
 40
0.0312500000000012
 40
0.0312500000000012
 40
0.0625000000000025
 40
0.0625000000000025
 40
0.1250000000000021
 40
0.1250000000000021
 40
0.1875000000000017
 40
0.1875000000000017
 40
0.2187500000000016
 40
0.2187500000000016
 40
0.2500000000000014
 40
0.2500000000000014
 40
0.2812500000000013
 40
0.2812500000000013
 40
0.3125000000000011
 40
0.3125000000000011
 40
0.3437500000000009
 40
0.3437500000000009
 40
0.3750000000000007
 40
0.3750000000000007
 40
0.4375000000000025
 40
0.4375000000000025
 40
0.4687500000000019
 40
0.4687500000000019
 40
0.5000000000000013
 40
0.5000000000000013
 40
0.5312500000000009
 40
0.5312500000000009
 40
0.5625000000000003
 40
0.5625000000000003
 40
0.5937499999999998
 40
0.5937499999999998
 40
0.6249999999999992
 40
0.6249999999999992
 40
0.6562499999999987
 40
0.6562499999999987
 40
0.6874999999999981
 40
0.6874999999999981
 40
0.7187499999999976
 40
0.7187499999999976
 40
0.749999999999997
 40
0.749999999999997
 40
0.7812499999999966
 40
0.7812499999999966
 40
0.812499999999996
 40
0.812499999999996
 40
0.8749999999999961
 40
0.8749999999999961
 40
0.9062499999999971
 40
0.9062499999999971
 40
0.9374999999999981
 40
0.9374999999999981
 40
0.9687499999999991
 40
0.9687499999999991
 40
1.0
 40
1.0
 40
1.031250000000001
 40
1.031250000000001
 10
238.1293299112924
 20
111.9330785906815
 30
0.0
 10
238.4118547458663
 20
111.9330785906815
 30
0.0
 10
238.5501777769175
 20
111.9439437845964
 30
0.0
 10
238.8214057226097
 20
111.9864661103445
 30
0.0
 10
238.955616088778
 20
112.0187129249592
 30
0.0
 10
239.3345955964823
 20
112.1441950625035
 30
0.0
 10
239.563472156942
 20
112.2681479137436
 30
0.0
 10
239.9443650090932
 20
112.5851738666942
 30
0.0
 10
240.0999630819603
 20
112.7818421732531
 30
0.0
 10
240.2591091274822
 20
113.1182546883488
 30
0.0
 10
240.3008745184324
 20
113.239904772179
 30
0.0
 10
240.3561929322425
 20
113.4903931547175
 30
0.0
 10
240.370298759713
 20
113.6193768542388
 30
0.0
 10
240.370876917768
 20
113.885195570629
 30
0.0
 10
240.356885868825
 20
114.021775121797
 30
0.0
 10
240.3023874399484
 20
114.2886558452162
 30
0.0
 10
240.2614971010003
 20
114.4218398004984
 30
0.0
 10
240.1548891013238
 20
114.6799373318103
 30
0.0
 10
240.0901415542452
 20
114.8031676890667
 30
0.0
 10
239.9385806786177
 20
115.0382161197173
 30
0.0
 10
239.8512940814782
 20
115.1501360309321
 30
0.0
 10
239.5656801270318
 20
115.4553507602907
 30
0.0
 10
239.3362939319807
 20
115.6257783079602
 30
0.0
 10
238.9600752623273
 20
115.8018424714951
 30
0.0
 10
238.8276042072766
 20
115.8482376097451
 30
0.0
 10
238.5536492308247
 20
115.9111375905527
 30
0.0
 10
238.4156085675224
 20
115.9270645861258
 30
0.0
 10
238.1373909955412
 20
115.9279485624876
 30
0.0
 10
237.9955816367767
 20
115.9122871735783
 30
0.0
 10
237.7231250694455
 20
115.8510832160977
 30
0.0
 10
237.5912593383704
 20
115.8059189484788
 30
0.0
 10
237.3357429182498
 20
115.6876485967112
 30
0.0
 10
237.2157561586097
 20
115.6162296020448
 30
0.0
 10
236.9906101612893
 20
115.45176672715
 30
0.0
 10
236.8844833969056
 20
115.3575945041737
 30
0.0
 10
236.6931567492136
 20
115.1540963001505
 30
0.0
 10
236.6072204026802
 20
115.0445113672022
 30
0.0
 10
236.4547234414617
 20
114.8096936060565
 30
0.0
 10
236.3885783782332
 20
114.6844043771166
 30
0.0
 10
236.2823579430375
 20
114.4293159971149
 30
0.0
 10
236.2413173312089
 20
114.2981855281955
 30
0.0
 10
236.1851307432601
 20
114.0284962015884
 30
0.0
 10
236.170913171696
 20
113.8933169008631
 30
0.0
 10
236.1702822800103
 20
113.6285719693253
 30
0.0
 10
236.1840706618101
 20
113.4964610998152
 30
0.0
 10
236.238914233554
 20
113.2444062993151
 30
0.0
 10
236.2794154156088
 20
113.1249420748541
 30
0.0
 10
236.4390046142921
 20
112.7844733548127
 30
0.0
 10
236.593772447971
 20
112.5880619993787
 30
0.0
 10
236.8817521618516
 20
112.3478440523378
 30
0.0
 10
236.9857010844045
 20
112.2777130379491
 30
0.0
 10
237.2101122822957
 20
112.1553219755485
 30
0.0
 10
237.3320428363442
 20
112.1027246975067
 30
0.0
 10
237.584285289803
 20
112.019070354783
 30
0.0
 10
237.7151624634923
 20
111.9874167033529
 30
0.0
 10
237.9873688118723
 20
111.9442940884262
 30
0.0
 10
238.1293299112924
 20
111.9330785906815
 30
0.0
 10
238.4118547458663
 20
111.9330785906815
 30
0.0
  0
LINE
  5
192
330
1F
100
AcDbEntity
  8
0
  6
HIDDEN
 62
     7
370
     0
100
AcDbLine
 10
241.2705923286
 20
119.2542868577
 30
0.0
 11
241.2705923286
 21
110.8542868577
 31
0.0
  0
LINE
  5
193
330
1F
100
AcDbEntity
  8
0
  6
HIDDEN
 62
     7
370
     0
100
AcDbLine
 10
162.0705923286
 20
110.8542868577
 30
0.0
 11
162.0705923286
 21
119.2296662777
 31
0.0
  0
CIRCLE
  5
194
330
1F
100
AcDbEntity
  8
0
  6
HIDDEN
 62
     7
370
     0
100
AcDbCircle
 10
268.4034358188
 20
122.6993560324
 30
0.0
 40
3.473037885230182
  0
ARC
  5
195
330
1F
100
AcDbEntity
  8
0
  6
HIDDEN
 62
     7
370
     0
100
AcDbCircle
 10
265.2302905535
 20
130.0686350501
 30
0.0
 40
2.346789875639273
100
AcDbArc
 50
133.5339640716
 51
274.5853510672
  0
LINE
  5
196
330
1F
100
AcDbEntity
  8
0
  6
HIDDEN
 62
     7
370
     0
100
AcDbLine
 10
278.1552223381
 20
129.2675622931
 30
0.0
 11
277.6639385607
 21
128.6170320212
 31
0.0
  0
LINE
  5
197
330
1F
100
AcDbEntity
  8
0
  6
HIDDEN
 62
     7
370
     0
100
AcDbLine
 10
275.1988835572
 20
120.2646790446
 30
0.0
 11
277.6485436212
 21
123.5083807521
 31
0.0
  0
LINE
  5
198
330
1F
100
AcDbEntity
  8
0
  6
HIDDEN
 62
     7
370
     0
100
AcDbLine
 10
266.329470171
 20
132.4674714623
 30
0.0
 11
266.810174155
 21
132.5023161412
 31
0.0
  0
LINE
  5
199
330
1F
100
AcDbEntity
  8
0
  6
HIDDEN
 62
     7
370
     0
100
AcDbLine
 10
266.502860473
 20
132.0953886945
 30
0.0
 11
266.810174155
 21
132.5023161412
 31
0.0
  0
LINE
  5
19A
330
1F
100
AcDbEntity
  8
0
  6
HIDDEN
 62
     7
370
     0
100
AcDbLine
 10
266.502860473
 20
132.0953886945
 30
0.0
 11
266.2954122981
 21
132.0803514465
 31
0.0
  0
ELLIPSE
  5
19B
330
1F
100
AcDbEntity
  8
0
  6
HIDDEN
 62
     7
370
     0
100
AcDbEllipse
 10
265.2953633947
 20
115.3176261361
 30
0.0
 11
2.526603040320254
 21
24.62382198612025
 31
0.0
210
0.0
220
0.0
230
0.9999999999999999
 40
0.0908883341
 41
0.1569119778046398
 42
0.2759154702797713
  0
LINE
  5
19C
330
1F
100
AcDbEntity
  8
0
  6
HIDDEN
 62
     7
370
     0
100
AcDbLine
 10
266.9374063145
 20
139.6295309079
 30
0.0
 11
267.4411934156
 21
139.674818867
 31
0.0
  0
ELLIPSE
  5
19D
330
1F
100
AcDbEntity
  8
0
  6
HIDDEN
 62
     7
370
     0
100
AcDbEllipse
 10
264.790584062
 20
115.3170587969
 30
0.0
 11
2.521159715943156
 21
24.57077231890477
 31
0.0
210
0.0
220
0.0
230
0.9999999999999998
 40
0.0908883341
 41
0.0190821266610222
 42
0.1547501362549183
  0
SPLINE
  5
19E
330
1F
100
AcDbEntity
  8
0
  6
HIDDEN
 62
     7
370
     0
100
AcDbSpline
210
0.0
220
0.0
230
1.0
 70
     8
 71
     3
 72
    10
 73
     6
 74
     0
 42
0.00000001
 43
0.00000001
 40
0.0
 40
0.0
 40
0.0
 40
0.0
 40
0.5
 40
0.5
 40
1.0
 40
1.0
 40
1.0
 40
1.0
 10
275.4748156501072
 20
130.5472373650465
 30
0.0
 10
272.5799420320965
 20
130.0425990039146
 30
0.0
 10
269.6876712113712
 20
129.5229386880252
 30
0.0
 10
263.9102644822
 20
128.4424391561216
 30
0.0
 10
261.0250948417333
 20
127.8817946233023
 30
0.0
 10
258.1451104788822
 20
127.2912234395744
 30
0.0
  0
SPLINE
  5
19F
330
1F
100
AcDbEntity
  8
0
  6
HIDDEN
 62
     7
370
     0
100
AcDbSpline
210
0.0
220
0.0
230
1.0
 70
     8
 71
     3
 72
    29
 73
    25
 74
     0
 42
0.00000001
 43
0.00000001
 40
0.0
 40
0.0
 40
0.0
 40
0.0
 40
0.0300663511351763
 40
0.0610012572818664
 40
0.0928040741203817
 40
0.1254741279467664
 40
0.1590107161716904
 40
0.193413107756134
 40
0.2286805435932736
 40
0.2648122368443756
 40
0.3018073732352165
 40
0.339665111318489
 40
0.3783845827068105
 40
0.4179648922802007
 40
0.4584051183713857
 40
0.4997043129316828
 40
0.5623455781955354
 40
0.6249572496736696
 40
0.6875392235670305
 40
0.7500913961292167
 40
0.8126136636668433
 40
0.8751059225398276
 40
0.9375680691617165
 40
1.0
 40
1.0
 40
1.0
 40
1.0
 10
277.5630698001548
 20
139.8704053602023
 30
0.0
 10
277.5442409720415
 20
139.8205272481642
 30
0.0
 10
277.506039389718
 20
139.7193301480741
 30
0.0
 10
277.4469827599297
 20
139.5536763034145
 30
0.0
 10
277.3856179260255
 20
139.374364700812
 30
0.0
 10
277.3218715128098
 20
139.1798170032111
 30
0.0
 10
277.2557639541799
 20
138.9695503221619
 30
0.0
 10
277.1872895058974
 20
138.7427728267665
 30
0.0
 10
277.1164497316101
 20
138.4987783770123
 30
0.0
 10
277.0432441431245
 20
138.2368394902277
 30
0.0
 10
276.9676729060457
 20
137.9562402843937
 30
0.0
 10
276.8897357000417
 20
137.6562707051398
 30
0.0
 10
276.8094335291612
 20
137.3362315279896
 30
0.0
 10
276.7267624527673
 20
136.9954373223638
 30
0.0
 10
276.6417375628388
 20
136.6332172935007
 30
0.0
 10
276.5398445091216
 20
136.1853927663286
 30
0.0
 10
276.4216952931305
 20
135.6446318495985
 30
0.0
 10
276.2879725901334
 20
135.0029260901486
 30
0.0
 10
276.1537426087778
 20
134.330701964808
 30
0.0
 10
276.0190297240183
 20
133.6290104295991
 30
0.0
 10
275.8838307800146
 20
132.8991397877467
 30
0.0
 10
275.7481340509866
 20
132.1416867677233
 30
0.0
 10
275.6119895575322
 20
131.3600350807314
 30
0.0
 10
275.5207804498385
 20
130.8181252342051
 30
0.0
 10
275.4751869291595
 20
130.5472358634125
 30
0.0
  0
SPLINE
  5
1A0
330
1F
100
AcDbEntity
  8
0
  6
HIDDEN
 62
     7
370
     0
100
AcDbSpline
210
0.0
220
0.0
230
1.0
 70
     8
 71
     3
 72
     8
 73
     4
 74
     0
 42
0.00000001
 43
0.00000001
 40
0.0
 40
0.0
 40
0.0
 40
0.0
 40
1.0
 40
1.0
 40
1.0
 40
1.0
 10
267.1167021345046
 20
139.0726416329757
 30
0.0
 10
270.5981314726232
 20
139.3446777490365
 30
0.0
 10
274.0801468023196
 20
139.6103623710274
 30
0.0
 10
277.5626851242453
 20
139.8703783415087
 30
0.0
  0
LWPOLYLINE
  5
1A1
330
1F
100
AcDbEntity
  8
0
  6
HIDDEN
 62
     7
370
     0
100
AcDbPolyline
 90
        2
 70
   128
 43
0.0
 10
145.2205923286
 20
88.6542868577
 10
145.2205923286
 20
88.6542868577
  0
ELLIPSE
  5
1A2
330
1F
100
AcDbEntity
  8
0
  6
HIDDEN
 62
     7
370
     0
100
AcDbEllipse
 10
270.9319394265
 20
129.462056347
 30
0.0
 11
0.9382876123696634
 21
2.751666891553271
 31
0.0
210
0.0
220
0.0
230
1.0
 40
0.8587453104
 41
4.575938033196809
 42
4.684963051302636
  0
ELLIPSE
  5
1A3
330
1F
100
AcDbEntity
  8
0
  6
HIDDEN
 62
     7
370
     0
100
AcDbEllipse
 10
270.9319394265
 20
129.462056347
 30
0.0
 11
0.9382876123696634
 21
2.751666891553271
 31
0.0
210
0.0
220
0.0
230
1.0
 40
0.8587453104
 41
2.217011811208298
 42
2.405553341234608
  0
ELLIPSE
  5
1A4
330
1F
100
AcDbEntity
  8
0
  6
HIDDEN
 62
     7
370
     0
100
AcDbEllipse
 10
270.4610866493
 20
128.3976596302
 30
0.0
 11
2.967222170038042
 21
0.5785035440250965
 31
0.0
210
0.0
220
0.0
230
1.0
 40
0.1845741307
 41
2.265121822756997
 42
2.853074040823737
  0
ELLIPSE
  5
1A5
330
1F
100
AcDbEntity
  8
0
  6
HIDDEN
 62
     7
370
     0
100
AcDbEllipse
 10
269.999737164
 20
127.3547457913
 30
0.0
 11
0.9382876123696634
 21
2.751666891553298
 31
0.0
210
0.0
220
0.0
230
1.0
 40
0.8587453104
 41
1.543370397712885
 42
1.629059593141572
  0
SPLINE
  5
1A6
330
1F
100
AcDbEntity
  8
0
  6
HIDDEN
 62
     7
370
     0
100
AcDbSpline
210
0.0
220
0.0
230
1.0
 70
     8
 71
     3
 72
    22
 73
    18
 74
     0
 42
0.00000001
 43
0.00000001
 40
0.0
 40
0.0
 40
0.0
 40
0.0
 40
0.125
 40
0.125
 40
0.25
 40
0.25
 40
0.5000000000000033
 40
0.5000000000000033
 40
0.6250000000000024
 40
0.6250000000000024
 40
0.7500000000000017
 40
0.7500000000000017
 40
0.8750000000000009
 40
0.8750000000000009
 40
0.9375000000000004
 40
0.9375000000000004
 40
1.0
 40
1.0
 40
1.0
 40
1.0
 10
266.5951024545532
 20
125.8207432798496
 30
0.0
 10
266.6244407448602
 20
125.8595913893342
 30
0.0
 10
266.6692353659062
 20
125.9028136155496
 30
0.0
 10
266.7822809444714
 20
125.9950331498353
 30
0.0
 10
266.8508637378726
 20
126.0441704824152
 30
0.0
 10
267.084358641217
 20
126.1942140193865
 30
0.0
 10
267.2761353410484
 20
126.2983808446675
 30
0.0
 10
267.6207247305617
 20
126.4442605206371
 30
0.0
 10
267.7453288407796
 20
126.4911664744575
 30
0.0
 10
268.0200784519527
 20
126.5771265351014
 30
0.0
 10
268.1701549419815
 20
126.6162935643882
 30
0.0
 10
268.5035515226589
 20
126.6768777654498
 30
0.0
 10
268.6874889652469
 20
126.6990494894784
 30
0.0
 10
269.0025109080157
 20
126.7013952444214
 30
0.0
 10
269.1157990248344
 20
126.6968859516096
 30
0.0
 10
269.3604022296719
 20
126.6693415940404
 30
0.0
 10
269.4908397450923
 20
126.6463305089334
 30
0.0
 10
269.6272316374297
 20
126.609168303362
 30
0.0
  0
SPLINE
  5
1A7
330
1F
100
AcDbEntity
  8
0
  6
HIDDEN
 62
     7
370
     0
100
AcDbSpline
210
0.0
220
0.0
230
1.0
 70
     8
 71
     3
 72
     8
 73
     4
 74
     0
 42
0.00000001
 43
0.00000001
 40
0.0
 40
0.0
 40
0.0
 40
0.0
 40
1.0
 40
1.0
 40
1.0
 40
1.0
 10
269.6272316374297
 20
126.609168303362
 30
0.0
 10
269.7644922355697
 20
126.5493626252066
 30
0.0
 10
269.905701548781
 20
126.4960098492701
 30
0.0
 10
270.0491257545898
 20
126.4500968720396
 30
0.0
  0
SPLINE
  5
1A8
330
1F
100
AcDbEntity
  8
0
  6
HIDDEN
 62
     7
370
     0
100
AcDbSpline
210
0.0
220
0.0
230
1.0
 70
     8
 71
     3
 72
    22
 73
    18
 74
     0
 42
0.00000001
 43
0.00000001
 40
0.0
 40
0.0
 40
0.0
 40
0.0
 40
0.0624999999999989
 40
0.0624999999999989
 40
0.1249999999999979
 40
0.1249999999999979
 40
0.1874999999999968
 40
0.1874999999999968
 40
0.2499999999999957
 40
0.2499999999999957
 40
0.3749999999999967
 40
0.3749999999999967
 40
0.4999999999999974
 40
0.4999999999999974
 40
0.7499999999999987
 40
0.7499999999999987
 40
1.0
 40
1.0
 40
1.0
 40
1.0
 10
270.0491257545894
 20
126.4500968720397
 30
0.0
 10
270.1735597607013
 20
126.3888449862157
 30
0.0
 10
270.2793637943488
 20
126.3231617340268
 30
0.0
 10
270.4683918633677
 20
126.1866824598127
 30
0.0
 10
270.5473811674312
 20
126.1188838297968
 30
0.0
 10
270.6871026164386
 20
125.984587057142
 30
0.0
 10
270.7479225806803
 20
125.9176420801794
 30
0.0
 10
270.8546843964542
 20
125.7878076333702
 30
0.0
 10
270.9009877589343
 20
125.7245518557502
 30
0.0
 10
271.0251917487644
 20
125.5387309941526
 30
0.0
 10
271.0886569763644
 20
125.4200515212218
 30
0.0
 10
271.1921406110149
 20
125.1913937914244
 30
0.0
 10
271.2317693371808
 20
125.0814553606753
 30
0.0
 10
271.3231373893097
 20
124.770174373697
 30
0.0
 10
271.3493018553785
 20
124.5843988365444
 30
0.0
 10
271.3511247549786
 20
124.2687927304986
 30
0.0
 10
271.3272676304026
 20
124.1376420987369
 30
0.0
 10
271.2678268859928
 20
124.0589340171644
 30
0.0
  0
ELLIPSE
  5
1A9
330
1F
100
AcDbEntity
  8
0
  6
HIDDEN
 62
     7
370
     0
100
AcDbEllipse
 10
270.181144759
 20
127.7648307645
 30
0.0
 11
2.967222170037985
 21
0.5785035440251249
 31
0.0
210
0.0
220
0.0
230
1.0
 40
0.1845741307
 41
6.189380907948092
 42
8.359765599910258
  0
LINE
  5
1AA
330
1F
100
AcDbEntity
  8
0
  6
HIDDEN
 62
     7
370
     0
100
AcDbLine
 10
145.2205923286
 20
83.5701638748
 30
0.0
 11
145.2205923286
 21
88.6542868577
 31
0.0
  0
LINE
  5
1AB
330
1F
100
AcDbEntity
  8
0
  6
HIDDEN
 62
     7
370
     0
100
AcDbLine
 10
145.2205923286
 20
88.6542868577
 30
0.0
 11
153.2205923286
 21
88.6542868577
 31
0.0
  0
ELLIPSE
  5
1AC
330
1F
100
AcDbEntity
  8
0
  6
HIDDEN
 62
     7
370
     0
100
AcDbEllipse
 10
267.7063007109
 20
121.7138935719
 30
0.0
 11
3.671213746604281
 21
-2.05839884117394
 31
0.0
210
0.0
220
0.0
230
1.0
 40
0.8772799171
 41
1.104348183352897
 42
2.379472024591301
  0
LINE
  5
1AD
330
1F
100
AcDbEntity
  8
0
  6
HIDDEN
 62
     7
370
     0
100
AcDbLine
 10
270.9701883514
 20
123.664817855
 30
0.0
 11
271.267826886
 21
124.0589340172
 31
0.0
  0
LINE
  5
1AE
330
1F
100
AcDbEntity
  8
0
  6
HIDDEN
 62
     7
370
     0
100
AcDbLine
 10
266.5951024546
 20
125.8207432798
 30
0.0
 11
266.2974639199
 21
125.4266271177
 31
0.0
  0
ELLIPSE
  5
1AF
330
1F
100
AcDbEntity
  8
0
  6
HIDDEN
 62
     7
370
     0
100
AcDbEllipse
 10
266.3839299544
 20
119.9628847916
 30
0.0
 11
-2.570105550204573
 21
-3.403188827857221
 31
0.0
210
0.0
220
0.0
230
1.0
 40
0.9848432766
 41
0.0
 42
6.283185307179586
  0
ARC
  5
1B0
330
1F
100
AcDbEntity
  8
0
  6
HIDDEN
 62
     7
370
     0
100
AcDbCircle
 10
268.3668627369
 20
122.6273633841
 30
0.0
 40
4.176517709843021
100
AcDbArc
 50
72.4357511617
 51
66.2472371865
  0
ARC
  5
1B1
330
1F
100
AcDbEntity
  8
0
  6
HIDDEN
 62
     7
370
     0
100
AcDbCircle
 10
265.2096874177
 20
130.3181839846
 30
0.0
 40
2.101421711171743
100
AcDbArc
 50
143.6704023188
 51
274.5000077371
  0
LINE
  5
1B2
330
1F
100
AcDbEntity
  8
0
  6
HIDDEN
 62
     7
370
     0
100
AcDbLine
 10
268.4804019825
 20
128.448372487
 30
0.0
 11
265.3745633478
 21
128.2232402775
 31
0.0
  0
LINE
  5
1B3
330
1F
100
AcDbEntity
  8
0
  6
HIDDEN
 62
     7
370
     0
100
AcDbLine
 10
265.417902495
 20
127.7293564263
 30
0.0
 11
268.6501374135
 21
127.9636506941
 31
0.0
  0
ARC
  5
1B4
330
1F
100
AcDbEntity
  8
0
  6
HIDDEN
 62
     7
370
     0
100
AcDbCircle
 10
264.8993210692
 20
129.9062767642
 30
0.0
 40
2.096699610448912
100
AcDbArc
 50
132.5143961094
 51
274.5938465538
  0
LINE
  5
1B5
330
1F
100
AcDbEntity
  8
0
  6
HIDDEN
 62
     7
370
     0
100
AcDbLine
 10
266.810174155
 20
132.5023161412
 30
0.0
 11
267.4411934156
 21
139.674818867
 31
0.0
  0
LINE
  5
1B6
330
1F
100
AcDbEntity
  8
0
  6
HIDDEN
 62
     7
370
     0
100
AcDbLine
 10
266.9374063145
 20
139.6295309079
 30
0.0
 11
266.3071635743
 21
132.4658545291
 31
0.0
  0
LINE
  5
1B7
330
1F
100
AcDbEntity
  8
0
  6
HIDDEN
 62
     7
370
     0
100
AcDbLine
 10
273.2683016422
 20
128.5811517156
 30
0.0
 11
273.3492044727
 21
128.8012962514
 31
0.0
  0
LINE
  5
1B8
330
1F
100
AcDbEntity
  8
0
  6
HIDDEN
 62
     7
370
     0
100
AcDbLine
 10
277.7079462842
 20
129.1172473648
 30
0.0
 11
273.3492044727
 21
128.8012962514
 31
0.0
  0
LINE
  5
1B9
330
1F
100
AcDbEntity
  8
0
  6
HIDDEN
 62
     7
370
     0
100
AcDbLine
 10
277.6639385607
 20
128.6170320212
 30
0.0
 11
277.7079462842
 21
129.1172473648
 31
0.0
  0
LINE
  5
1BA
330
1F
100
AcDbEntity
  8
0
  6
HIDDEN
 62
     7
370
     0
100
AcDbLine
 10
273.1453232612
 20
128.289492195
 30
0.0
 11
277.6639385607
 21
128.6170320212
 31
0.0
  0
LINE
  5
1BB
330
1F
100
AcDbEntity
  8
0
  6
HIDDEN
 62
     7
370
     0
100
AcDbLine
 10
270.9701883514
 20
123.664817855
 30
0.0
 11
272.0169212622
 21
126.8605992788
 31
0.0
  0
LINE
  5
1BC
330
1F
100
AcDbEntity
  8
0
  6
HIDDEN
 62
     7
370
     0
100
AcDbLine
 10
274.1464683611
 20
131.400032697
 30
0.0
 11
273.8532675502
 21
131.0117927183
 31
0.0
  0
LINE
  5
1BD
330
1F
100
AcDbEntity
  8
0
  6
HIDDEN
 62
     7
370
     0
100
AcDbLine
 10
273.0418907907
 20
128.3943688047
 30
0.0
 11
274.1464683611
 21
131.400032697
 31
0.0
  0
LINE
  5
1BE
330
1F
100
AcDbEntity
  8
0
  6
HIDDEN
 62
     7
370
     0
100
AcDbLine
 10
273.3492044727
 20
128.8012962514
 30
0.0
 11
273.0418907907
 21
128.3943688047
 31
0.0
  0
LINE
  5
1BF
330
1F
100
AcDbEntity
  8
0
  6
HIDDEN
 62
     7
370
     0
100
AcDbLine
 10
277.7079462842
 20
129.1172473648
 30
0.0
 11
277.4006326022
 21
128.7103199181
 31
0.0
  0
LWPOLYLINE
  5
1C0
330
1F
100
AcDbEntity
  8
0
  6
HIDDEN
 62
     7
370
     0
100
AcDbPolyline
 90
       21
 70
   128
 43
0.0
 10
238.2705923286
 20
108.7308302522
 10
238.9195280168
 20
108.8285810923
 10
239.5049413584
 20
109.1122650794
 10
239.9695280168
 20
109.5541132483
 10
240.2678110128
 20
110.1108744215
 10
240.3705923286
 20
110.7280489364
 10
240.2678110128
 20
111.3452234513
 10
239.9695280168
 20
111.9019846246
 10
239.5049413584
 20
112.3438327935
 10
238.9195280168
 20
112.6275167805
 10
238.2705923286
 20
112.7252676207
 10
237.6216566404
 20
112.6275167805
 10
237.0362432988
 20
112.3438327935
 10
236.5716566404
 20
111.9019846246
 10
236.2733736444
 20
111.3452234513
 10
236.1705923286
 20
110.7280489364
 10
236.2733736444
 20
110.1108744215
 10
236.5716566404
 20
109.5541132483
 10
237.0362432988
 20
109.1122650794
 10
237.6216566404
 20
108.8285810923
 10
238.2705923286
 20
108.7308302522
  0
ARC
  5
1C1
330
1F
100
AcDbEntity
  8
0
  6
HIDDEN
 62
     7
370
     0
100
AcDbCircle
 10
272.5061792965
 20
134.1270838369
 30
0.0
 40
3.182350724715031
100
AcDbArc
 50
301.0264118608
 51
197.6565764874
  0
LINE
  5
1C2
330
1F
100
AcDbEntity
  8
0
  6
HIDDEN
 62
     7
370
     0
100
AcDbLine
 10
269.4737439297
 20
133.1618419597
 30
0.0
 11
267.6633749482
 21
128.2356504226
 31
0.0
  0
LINE
  5
1C3
330
1F
100
AcDbEntity
  8
0
  6
HIDDEN
 62
     7
370
     0
100
AcDbLine
 10
278.3149382753
 20
139.102428247
 30
0.0
 11
277.5629064837
 21
139.8726128212
 31
0.0
  0
LINE
  5
1C4
330
1F
100
AcDbEntity
  8
0
  6
HIDDEN
 62
     7
370
     0
100
AcDbLine
 10
273.0418907907
 20
128.3943688047
 30
0.0
 11
277.4006326022
 21
128.7103199181
 31
0.0
  0
LINE
  5
1C5
330
1F
100
AcDbEntity
  8
0
  6
HIDDEN
 62
     7
370
     0
100
AcDbLine
 10
267.1167021345
 20
139.072641633
 30
0.0
 11
266.502860473
 21
132.0953886945
 31
0.0
  0
LINE
  5
1C6
330
1F
100
AcDbEntity
  8
0
  6
HIDDEN
 62
     7
370
     0
100
AcDbLine
 10
265.0672496658
 20
127.8163128308
 30
0.0
 11
267.5861289108
 21
127.9988982503
 31
0.0
  0
LINE
  5
1C7
330
1F
100
AcDbEntity
  8
0
  6
HIDDEN
 62
     7
370
     0
100
AcDbLine
 10
277.4006326022
 20
128.7103199181
 30
0.0
 11
278.3149017929
 21
139.1023929835
 31
0.0
  0
LINE
  5
1C8
330
1F
100
AcDbEntity
  8
0
  6
HIDDEN
 62
     7
370
     0
100
AcDbLine
 10
114.4705923286
 20
133.0442868577
 30
0.0
 11
114.4705923286
 21
131.3418004801
 31
0.0
  0
LINE
  5
1C9
330
1F
100
AcDbEntity
  8
0
  6
HIDDEN
 62
     7
370
     0
100
AcDbLine
 10
118.4705923286
 20
97.0642868577
 30
0.0
 11
118.4705923286
 21
98.7667732353
 31
0.0
  0
LINE
  5
1CA
330
1F
100
AcDbEntity
  8
0
  6
HIDDEN
 62
     7
370
     0
100
AcDbLine
 10
118.4705923286
 20
97.0642868577
 30
0.0
 11
118.4705923286
 21
93.1091385984
 31
0.0
  0
LINE
  5
1CB
330
1F
100
AcDbEntity
  8
0
  6
HIDDEN
 62
     7
370
     0
100
AcDbLine
 10
114.4705923286
 20
133.0442868577
 30
0.0
 11
114.4705923286
 21
136.89839453
 31
0.0
  0
SPLINE
  5
1CC
330
1F
100
AcDbEntity
  8
0
  6
HIDDEN
 62
     7
370
     0
100
AcDbSpline
210
0.0
220
0.0
230
1.0
 70
     8
 71
     3
 72
    10
 73
     6
 74
     0
 42
0.00000001
 43
0.00000001
 40
0.0
 40
0.0
 40
0.0
 40
0.0
 40
0.5
 40
0.5
 40
1.0
 40
1.0
 40
1.0
 40
1.0
 10
273.1616835405308
 20
130.4252814587925
 30
0.0
 10
273.325081350517
 20
130.5363605001749
 30
0.0
 10
273.4681031619627
 20
130.6474736794838
 30
0.0
 10
273.7066758568399
 20
130.8520474883969
 30
0.0
 10
273.803959426379
 20
130.9465016815127
 30
0.0
 10
273.8532675501509
 20
131.0117927182678
 30
0.0
  0
ARC
  5
1CD
330
1F
100
AcDbEntity
  8
0
  6
HIDDEN
 62
     7
370
     0
100
AcDbCircle
 10
271.9721456236
 20
133.3036749777
 30
0.0
 40
3.114506334114434
100
AcDbArc
 50
292.4535715239
 51
359.9490588951
  0
ARC
  5
1CE
330
1F
100
AcDbEntity
  8
0
  6
HIDDEN
 62
     7
370
     0
100
AcDbCircle
 10
271.9076905009
 20
133.370984268
 30
0.0
 40
3.171622365933251
100
AcDbArc
 50
6.0188427808
 51
206.1909954983
  0
SPLINE
  5
1CF
330
1F
100
AcDbEntity
  8
0
  6
HIDDEN
 62
     7
370
     0
100
AcDbSpline
210
0.0
220
0.0
230
1.0
 70
     8
 71
     3
 72
    10
 73
     6
 74
     0
 42
0.00000001
 43
0.00000001
 40
0.0
 40
0.0
 40
0.0
 40
0.0
 40
0.5
 40
0.5
 40
1.0
 40
1.0
 40
1.0
 40
1.0
 10
269.1805431187132
 20
132.7736019809505
 30
0.0
 10
269.1311470762019
 20
132.7081945271588
 30
0.0
 10
269.0994827529012
 20
132.5903247586407
 30
0.0
 10
269.0598740922702
 20
132.3106152726174
 30
0.0
 10
269.0528470508204
 20
132.1473853580392
 30
0.0
 10
269.0617057557405
 20
131.9711416831697
 30
0.0
  0
LINE
  5
1D0
330
1F
100
AcDbEntity
  8
0
  6
HIDDEN
 62
     7
370
     0
100
AcDbLine
 10
269.1805431187
 20
132.773601981
 30
0.0
 11
269.4737439297
 21
133.1618419597
 31
0.0
  0
ELLIPSE
  5
1D1
330
1F
100
AcDbEntity
  8
0
  6
HIDDEN
 62
     7
370
     0
100
AcDbEllipse
 10
104.2031604642
 20
115.0542868577
 30
0.0
 11
20.07002071827053
 21
-4.263256414560601E-14
 31
0.0
210
0.0
220
0.0
230
1.0
 40
0.8164965809
 41
4.921555463185703
 42
4.980534842098404
  0
LINE
  5
1D2
330
1F
100
AcDbEntity
  8
0
  6
HIDDEN
 62
     7
370
     0
100
AcDbLine
 10
109.5205923286
 20
97.0642868577
 30
0.0
 11
109.5205923286
 21
99.2527964217
 31
0.0
  0
LINE
  5
1D3
330
1F
100
AcDbEntity
  8
0
  6
HIDDEN
 62
     7
370
     0
100
AcDbLine
 10
108.3705923286
 20
97.0642868577
 30
0.0
 11
108.3705923286
 21
99.0243514599
 31
0.0
  0
ELLIPSE
  5
1D4
330
1F
100
AcDbEntity
  8
0
  6
HIDDEN
 62
     7
370
     0
100
AcDbEllipse
 10
104.2031604642
 20
115.0542868577
 30
0.0
 11
20.0700207182705
 21
0.0
 31
0.0
210
0.0
220
0.0
230
1.0
 40
0.8164965809
 41
1.302650465081197
 42
1.361629843993895
  0
LINE
  5
1D5
330
1F
100
AcDbEntity
  8
0
  6
HIDDEN
 62
     7
370
     0
100
AcDbLine
 10
108.3705923286
 20
131.0842222555
 30
0.0
 11
108.3705923286
 21
99.0243514599
 31
0.0
  0
LINE
  5
1D6
330
1F
100
AcDbEntity
  8
0
  6
HIDDEN
 62
     7
370
     0
100
AcDbLine
 10
109.5205923286
 20
97.0642868577
 30
0.0
 11
109.5205923286
 21
94.2476552992
 31
0.0
  0
LINE
  5
1D7
330
1F
100
AcDbEntity
  8
0
  6
HIDDEN
 62
     7
370
     0
100
AcDbLine
 10
109.5205923286
 20
133.0442868577
 30
0.0
 11
109.5205923286
 21
135.9242246231
 31
0.0
  0
SPLINE
  5
1D8
330
1F
100
AcDbEntity
  8
0
  6
HIDDEN
 62
     7
370
     0
100
AcDbSpline
210
0.0
220
0.0
230
1.0
 70
     8
 71
     3
 72
    10
 73
     6
 74
     0
 42
0.00000001
 43
0.00000001
 40
0.0
 40
0.0
 40
0.0
 40
0.0
 40
0.5
 40
0.5
 40
1.0
 40
1.0
 40
1.0
 40
1.0
 10
109.5105473981612
 20
135.9142407499742
 30
0.0
 10
109.4429881432429
 20
135.8465493571644
 30
0.0
 10
109.3793514879064
 20
135.7718421924108
 30
0.0
 10
109.2691307333346
 20
135.6128760599842
 30
0.0
 10
109.2223144401119
 20
135.5285207939762
 30
0.0
 10
109.1947459746839
 20
135.4444061912844
 30
0.0
  0
LINE
  5
1D9
330
1F
100
AcDbEntity
  8
0
  6
HIDDEN
 62
     7
370
     0
100
AcDbLine
 10
108.3705923286
 20
133.0442868577
 30
0.0
 11
108.3705923286
 21
134.7449646042
 31
0.0
  0
SPLINE
  5
1DA
330
1F
100
AcDbEntity
  8
0
  6
HIDDEN
 62
     7
370
     0
100
AcDbSpline
210
0.0
220
0.0
230
1.0
 70
     8
 71
     3
 72
    10
 73
     6
 74
     0
 42
0.00000001
 43
0.00000001
 40
0.0
 40
0.0
 40
0.0
 40
0.0
 40
0.5
 40
0.5
 40
1.0
 40
1.0
 40
1.0
 40
1.0
 10
108.4332557033028
 20
134.7288394024673
 30
0.0
 10
108.424351414194
 20
134.7745809216805
 30
0.0
 10
108.4078360340011
 20
134.7917717611495
 30
0.0
 10
108.3807280879394
 20
134.7914484842138
 30
0.0
 10
108.3705923285794
 20
134.7735709419173
 30
0.0
 10
108.3705923285794
 20
134.7449646041647
 30
0.0
  0
LINE
  5
1DB
330
1F
100
AcDbEntity
  8
0
  6
HIDDEN
 62
     7
370
     0
100
AcDbLine
 10
109.5205923286
 20
133.0442868577
 30
0.0
 11
109.5205923286
 21
130.8557772937
 31
0.0
  0
SPLINE
  5
1DC
330
1F
100
AcDbEntity
  8
0
  6
HIDDEN
 62
     7
370
     0
100
AcDbSpline
210
0.0
220
0.0
230
1.0
 70
     8
 71
     3
 72
     8
 73
     4
 74
     0
 42
0.00000001
 43
0.00000001
 40
0.0
 40
0.0
 40
0.0
 40
0.0
 40
1.0
 40
1.0
 40
1.0
 40
1.0
 10
109.3095018987785
 20
94.61036455472096
 30
0.0
 10
109.3452155571484
 20
94.48713304946118
 30
0.0
 10
109.4208835960967
 20
94.36618947251417
 30
0.0
 10
109.5105473981698
 20
94.25947042881091
 30
0.0
  0
SPLINE
  5
1DD
330
1F
100
AcDbEntity
  8
0
  6
HIDDEN
 62
     7
370
     0
100
AcDbSpline
210
0.0
220
0.0
230
1.0
 70
     8
 71
     3
 72
    10
 73
     6
 74
     0
 42
0.00000001
 43
0.00000001
 40
0.0
 40
0.0
 40
0.0
 40
0.0
 40
0.5
 40
0.5
 40
1.0
 40
1.0
 40
1.0
 40
1.0
 10
108.3705923285789
 20
95.40112633273365
 30
0.0
 10
108.3705923285789
 20
95.3876098068659
 30
0.0
 10
108.3759118892072
 20
95.38343903450858
 30
0.0
 10
108.3890401214888
 20
95.40157007789617
 30
0.0
 10
108.3967327761428
 20
95.4244785029581
 30
0.0
 10
108.400869944188
 20
95.46419929745969
 30
0.0
  0
LINE
  5
1DE
330
1F
100
AcDbEntity
  8
0
  6
HIDDEN
 62
     7
370
     0
100
AcDbLine
 10
108.3705923286
 20
97.0642868577
 30
0.0
 11
108.3705923286
 21
95.4011263327
 31
0.0
  0
LINE
  5
1DF
330
1F
100
AcDbEntity
  8
0
  6
HIDDEN
 62
     7
370
     0
100
AcDbLine
 10
108.3705923286
 20
133.0442868577
 30
0.0
 11
108.3705923286
 21
131.0842222555
 31
0.0
  0
SPLINE
  5
1E0
330
1F
100
AcDbEntity
  8
0
  6
HIDDEN
 62
     7
370
     0
100
AcDbSpline
210
0.0
220
0.0
230
1.0
 70
     8
 71
     3
 72
    32
 73
    28
 74
     0
 42
0.00000001
 43
0.00000001
 40
0.0
 40
0.0
 40
0.0
 40
0.0
 40
0.0312474136160692
 40
0.0624348133780272
 40
0.093575600064716
 40
0.12468323469602
 40
0.1557712213561228
 40
0.1868530897384766
 40
0.2179423775243426
 40
0.2490526127092774
 40
0.2801972959927337
 40
0.3113898833449684
 40
0.3426437688628032
 40
0.3739722680214337
 40
0.4053886014236281
 40
0.4369058791404393
 40
0.4685370857290996
 40
0.5002950660043886
 40
0.556631590305908
 40
0.6125908392574604
 40
0.6682459394280543
 40
0.7236712212559984
 40
0.7789419423960943
 40
0.834133992764934
 40
0.8893235868150614
 40
0.944586949161649
 40
1.0
 40
1.0
 40
1.0
 40
1.0
 10
276.1250648173149
 20
129.3679012826296
 30
0.0
 10
276.148534451823
 20
129.5101310559977
 30
0.0
 10
276.1954286450052
 20
129.7943174359058
 30
0.0
 10
276.2659338658564
 20
130.212345856795
 30
0.0
 10
276.3364581862295
 20
130.6237142640709
 30
0.0
 10
276.407019518602
 20
131.0278714150383
 30
0.0
 10
276.4776130234278
 20
131.4249643954544
 30
0.0
 10
276.5482399451728
 20
131.8149535450054
 30
0.0
 10
276.6188998997512
 20
132.1978491982112
 30
0.0
 10
276.689592939206
 20
132.5736483226626
 30
0.0
 10
276.7603189993331
 20
132.9423514916186
 30
0.0
 10
276.8310780475571
 20
133.3039583355532
 30
0.0
 10
276.9018700459054
 20
133.6584687697115
 30
0.0
 10
276.9726949530352
 20
134.0058826425291
 30
0.0
 10
277.0435527551347
 20
134.3461999182246
 30
0.0
 10
277.1144433414244
 20
134.6794203005207
 30
0.0
 10
277.1853669749269
 20
135.0055445625725
 30
0.0
 10
277.2745211783216
 20
135.4063929900693
 30
0.0
 10
277.3812176574605
 20
135.8710122218241
 30
0.0
 10
277.50457046223
 20
136.3850839115946
 30
0.0
 10
277.6260447913296
 20
136.8678956109724
 30
0.0
 10
277.7456401697651
 20
137.3194537033521
 30
0.0
 10
277.8633520792556
 20
137.7396993721713
 30
0.0
 10
277.9791948118402
 20
138.1288389671095
 30
0.0
 10
278.0931115610788
 20
138.4860875765789
 30
0.0
 10
278.205311502405
 20
138.8143675804086
 30
0.0
 10
278.2783108993257
 20
139.0062610789091
 30
0.0
 10
278.3148599631807
 20
139.1023375949612
 30
0.0
  0
SPLINE
  5
1E1
330
1F
100
AcDbEntity
  8
0
  6
HIDDEN
 62
     7
370
     0
100
AcDbSpline
210
0.0
220
0.0
230
1.0
 70
     8
 71
     3
 72
    10
 73
     6
 74
     0
 42
0.00000001
 43
0.00000001
 40
0.0
 40
0.0
 40
0.0
 40
0.0
 40
0.5
 40
0.5
 40
1.0
 40
1.0
 40
1.0
 40
1.0
 10
156.3605923285793
 20
142.1739407087224
 30
0.0
 10
156.3605923285793
 20
142.0303283571643
 30
0.0
 10
156.3967596036772
 20
141.8873549434457
 30
0.0
 10
156.5325155474311
 20
141.637362316732
 30
0.0
 10
156.632785238054
 20
141.5293600074532
 30
0.0
 10
156.7548898602704
 20
141.4542868576865
 30
0.0
  0
LINE
  5
1E2
330
1F
100
AcDbEntity
  8
0
  6
HIDDEN
 62
     7
370
     0
100
AcDbLine
 10
156.3605923286
 20
142.1739407087
 30
0.0
 11
156.3605923286
 21
88.2498912294
 31
0.0
  0
SPLINE
  5
1E3
330
1F
100
AcDbEntity
  8
0
  6
HIDDEN
 62
     7
370
     0
100
AcDbSpline
210
0.0
220
0.0
230
1.0
 70
     8
 71
     3
 72
    10
 73
     6
 74
     0
 42
0.00000001
 43
0.00000001
 40
0.0
 40
0.0
 40
0.0
 40
0.0
 40
0.5
 40
0.5
 40
1.0
 40
1.0
 40
1.0
 40
1.0
 10
156.3605923285794
 20
88.2498912293572
 30
0.0
 10
156.3605923285793
 20
88.32012758972772
 30
0.0
 10
156.3688749406698
 20
88.39012169122498
 30
0.0
 10
156.4019748837281
 20
88.52708095578345
 30
0.0
 10
156.4263122756865
 20
88.59238886503854
 30
0.0
 10
156.4582671309109
 20
88.65428685768528
 30
0.0
  0
SPLINE
  5
1E4
330
1F
100
AcDbEntity
  8
0
  6
HIDDEN
 62
     7
370
     0
100
AcDbSpline
210
0.0
220
0.0
230
1.0
 70
    24
 71
     3
 72
    12
 73
     8
 74
     0
 42
0.00000001
 43
0.00000001
 40
0.0
 40
0.0
 40
0.0
 40
0.0
 40
0.5
 40
0.5
 40
0.75
 40
0.75
 40
1.0
 40
1.0
 40
1.0
 40
1.0
 10
156.7548898602703
 20
141.4542868576866
 30
0.0
 10
156.7980132087039
 20
141.4542868576866
 30
0.0
 10
156.8477527960041
 20
141.4542868576866
 30
0.0
 10
156.9442737728261
 20
141.4542868576866
 30
0.0
 10
156.9798389036778
 20
141.4542868576866
 30
0.0
 10
157.0631872343007
 20
141.4542868576866
 30
0.0
 10
157.111657133991
 20
141.4542868576866
 30
0.0
 10
157.1605923285805
 20
141.4542868576866
 30
0.0
  0
SPLINE
  5
1E5
330
1F
100
AcDbEntity
  8
0
  6
HIDDEN
 62
     7
370
     0
100
AcDbSpline
210
0.0
220
0.0
230
1.0
 70
    24
 71
     3
 72
    14
 73
    10
 74
     0
 42
0.00000001
 43
0.00000001
 40
0.0
 40
0.0
 40
0.0
 40
0.0
 40
0.4999999999999989
 40
0.4999999999999989
 40
0.7499999999999994
 40
0.7499999999999994
 40
0.8749999999999997
 40
0.8749999999999997
 40
1.0
 40
1.0
 40
1.0
 40
1.0
 10
156.4582671309115
 20
88.65428685768656
 30
0.0
 10
156.5054736187514
 20
88.65428685768656
 30
0.0
 10
156.5688136221807
 20
88.65428685768656
 30
0.0
 10
156.7118767284365
 20
88.65428685768656
 30
0.0
 10
156.7679573787076
 20
88.65428685768656
 30
0.0
 10
156.8793927286169
 20
88.65428685768656
 30
0.0
 10
156.9213375192899
 20
88.65428685768656
 30
0.0
 10
157.02633396231
 20
88.65428685768656
 30
0.0
 10
157.0918978993908
 20
88.65428685768656
 30
0.0
 10
157.1605923285792
 20
88.65428685768656
 30
0.0
  0
LINE
  5
1E6
330
1F
100
AcDbEntity
  8
0
  6
HIDDEN
 62
     7
370
     0
100
AcDbLine
 10
160.1805923286
 20
142.1739407087
 30
0.0
 11
160.1805923286
 21
88.2498912294
 31
0.0
  0
SPLINE
  5
1E7
330
1F
100
AcDbEntity
  8
0
  6
HIDDEN
 62
     7
370
     0
100
AcDbSpline
210
0.0
220
0.0
230
1.0
 70
     8
 71
     3
 72
    10
 73
     6
 74
     0
 42
0.00000001
 43
0.00000001
 40
0.0
 40
0.0
 40
0.0
 40
0.0
 40
0.5
 40
0.5
 40
1.0
 40
1.0
 40
1.0
 40
1.0
 10
159.7862947968884
 20
141.4542868576866
 30
0.0
 10
159.9076073199862
 20
141.5288730039748
 30
0.0
 10
160.0090356822113
 20
141.6376973151262
 30
0.0
 10
160.1449792484714
 20
141.8887178337478
 30
0.0
 10
160.1805923285794
 20
142.0313005268871
 30
0.0
 10
160.1805923285793
 20
142.1739407087224
 30
0.0
  0
SPLINE
  5
1E8
330
1F
100
AcDbEntity
  8
0
  6
HIDDEN
 62
     7
370
     0
100
AcDbSpline
210
0.0
220
0.0
230
1.0
 70
     8
 71
     3
 72
    10
 73
     6
 74
     0
 42
0.00000001
 43
0.00000001
 40
0.0
 40
0.0
 40
0.0
 40
0.0
 40
0.5
 40
0.5
 40
1.0
 40
1.0
 40
1.0
 40
1.0
 10
160.0829175262471
 20
88.65428685768656
 30
0.0
 10
160.1150727138691
 20
88.59200081217044
 30
0.0
 10
160.1397289450633
 20
88.52547038730117
 30
0.0
 10
160.1725417019888
 20
88.3886117569387
 30
0.0
 10
160.1805923285794
 20
88.31955416176035
 30
0.0
 10
160.1805923285794
 20
88.24989122935703
 30
0.0
  0
SPLINE
  5
1E9
330
1F
100
AcDbEntity
  8
0
  6
HIDDEN
 62
     7
370
     0
100
AcDbSpline
210
0.0
220
0.0
230
1.0
 70
    24
 71
     3
 72
    12
 73
     8
 74
     0
 42
0.00000001
 43
0.00000001
 40
0.0
 40
0.0
 40
0.0
 40
0.0
 40
0.2500000000000008
 40
0.2500000000000008
 40
0.5000000000000017
 40
0.5000000000000017
 40
1.0
 40
1.0
 40
1.0
 40
1.0
 10
159.3805923285794
 20
141.4542868576866
 30
0.0
 10
159.4301274347973
 20
141.4542868576866
 30
0.0
 10
159.4785323233988
 20
141.4542868576866
 30
0.0
 10
159.5614188725764
 20
141.4542868576866
 30
0.0
 10
159.5979335940448
 20
141.4542868576866
 30
0.0
 10
159.6942664323994
 20
141.4542868576866
 30
0.0
 10
159.7430189800621
 20
141.4542868576866
 30
0.0
 10
159.7862947968928
 20
141.4542868576866
 30
0.0
  0
SPLINE
  5
1EA
330
1F
100
AcDbEntity
  8
0
  6
HIDDEN
 62
     7
370
     0
100
AcDbSpline
210
0.0
220
0.0
230
1.0
 70
    24
 71
     3
 72
    14
 73
    10
 74
     0
 42
0.00000001
 43
0.00000001
 40
0.0
 40
0.0
 40
0.0
 40
0.0
 40
0.1249999999999997
 40
0.1249999999999997
 40
0.2499999999999994
 40
0.2499999999999994
 40
0.4999999999999989
 40
0.4999999999999989
 40
1.0
 40
1.0
 40
1.0
 40
1.0
 10
159.3805923285794
 20
88.65428685768656
 30
0.0
 10
159.4496889609233
 20
88.65428685768656
 30
0.0
 10
159.5146821265313
 20
88.65428685768656
 30
0.0
 10
159.6190033251764
 20
88.65428685768656
 30
0.0
 10
159.6617836992849
 20
88.65428685768656
 30
0.0
 10
159.7741213589312
 20
88.65428685768654
 30
0.0
 10
159.8291685410735
 20
88.65428685768656
 30
0.0
 10
159.9730453148436
 20
88.65428685768656
 30
0.0
 10
160.0360746281186
 20
88.65428685768656
 30
0.0
 10
160.0829175262471
 20
88.65428685768656
 30
0.0
  0
LINE
  5
1EB
330
1F
100
AcDbEntity
  8
0
  6
HIDDEN
 62
     7
370
     0
100
AcDbLine
 10
157.1605923286
 20
141.4542868577
 30
0.0
 11
159.3805923286
 21
141.4542868577
 31
0.0
  0
LINE
  5
1EC
330
1F
100
AcDbEntity
  8
0
  6
HIDDEN
 62
     7
370
     0
100
AcDbLine
 10
157.1605923286
 20
88.6542868577
 30
0.0
 11
159.3805923286
 21
88.6542868577
 31
0.0
  0
SPLINE
  5
1ED
330
1F
100
AcDbEntity
  8
0
  6
HIDDEN
 62
     7
370
     0
100
AcDbSpline
210
0.0
220
0.0
230
1.0
 70
     8
 71
     3
 72
    12
 73
     8
 74
     0
 42
0.00000001
 43
0.00000001
 40
0.0
 40
0.0
 40
0.0
 40
0.0
 40
0.2500000000000039
 40
0.2500000000000039
 40
0.5000000000000078
 40
0.5000000000000078
 40
1.0
 40
1.0
 40
1.0
 40
1.0
 10
165.6205923285794
 20
145.5214823308508
 30
0.0
 10
165.7000852776276
 20
145.5214823308508
 30
0.0
 10
165.7811687789832
 20
145.50447958089
 30
0.0
 10
165.9275991761209
 20
145.4404190397784
 30
0.0
 10
165.9941477859947
 20
145.3932604241398
 30
0.0
 10
166.1584376599684
 20
145.2200383914475
 30
0.0
 10
166.2205923285795
 20
145.0599293012133
 30
0.0
 10
166.2205923285794
 20
144.9007271814499
 30
0.0
  0
SPLINE
  5
1EE
330
1F
100
AcDbEntity
  8
0
  6
HIDDEN
 62
     7
370
     0
100
AcDbSpline
210
0.0
220
0.0
230
1.0
 70
     8
 71
     3
 72
    12
 73
     8
 74
     0
 42
0.00000001
 43
0.00000001
 40
0.0
 40
0.0
 40
0.0
 40
0.0
 40
0.2500000000000019
 40
0.2500000000000019
 40
0.5000000000000039
 40
0.5000000000000039
 40
1.0
 40
1.0
 40
1.0
 40
1.0
 10
165.6205923285794
 20
84.86736916143941
 30
0.0
 10
165.7004733333265
 20
84.86736916143941
 30
0.0
 10
165.7810674635971
 20
84.88448624770527
 30
0.0
 10
165.927682909442
 20
84.94922235918035
 30
0.0
 10
165.994184102186
 20
84.9966796020607
 30
0.0
 10
166.1599190033232
 20
85.17350404460018
 30
0.0
 10
166.2205923285794
 20
85.33378055180587
 30
0.0
 10
166.2205923285794
 20
85.49400945709365
 30
0.0
  0
LINE
  5
1EF
330
1F
100
AcDbEntity
  8
0
  6
HIDDEN
 62
     7
370
     0
100
AcDbLine
 10
166.2205923286
 20
144.9007271815
 30
0.0
 11
166.2205923286
 21
85.4940094571
 31
0.0
  0
LINE
  5
1F0
330
1F
100
AcDbEntity
  8
0
  6
HIDDEN
 62
     7
370
     0
100
AcDbLine
 10
160.1805923286
 20
142.1739407087
 30
0.0
 11
160.1805923286
 21
142.8595210489
 31
0.0
  0
SPLINE
  5
1F1
330
1F
100
AcDbEntity
  8
0
  6
HIDDEN
 62
     7
370
     0
100
AcDbSpline
210
0.0
220
0.0
230
1.0
 70
     8
 71
     3
 72
     8
 73
     4
 74
     0
 42
0.00000001
 43
0.00000001
 40
0.0
 40
0.0
 40
0.0
 40
0.0
 40
1.0
 40
1.0
 40
1.0
 40
1.0
 10
160.1805923285794
 20
142.8595210488582
 30
0.0
 10
160.6733024254251
 20
143.7475400469846
 30
0.0
 10
161.1673851307041
 20
144.6348026826705
 30
0.0
 10
161.6625251600684
 20
145.5214823308508
 30
0.0
  0
LINE
  5
1F2
330
1F
100
AcDbEntity
  8
0
  6
HIDDEN
 62
     7
370
     0
100
AcDbLine
 10
161.6625251601
 20
145.5214823309
 30
0.0
 11
165.6205923286
 21
145.5214823309
 31
0.0
  0
LINE
  5
1F3
330
1F
100
AcDbEntity
  8
0
  6
HIDDEN
 62
     7
370
     0
100
AcDbLine
 10
159.7862947969
 20
141.4542868577
 30
0.0
 11
166.2205923286
 21
141.4542868577
 31
0.0
  0
LINE
  5
1F4
330
1F
100
AcDbEntity
  8
0
  6
HIDDEN
 62
     7
370
     0
100
AcDbLine
 10
166.2205923286
 20
144.9007271815
 30
0.0
 11
166.2205923286
 21
141.4542868577
 31
0.0
  0
LINE
  5
1F5
330
1F
100
AcDbEntity
  8
0
  6
HIDDEN
 62
     7
370
     0
100
AcDbLine
 10
156.3605923286
 20
142.8595210489
 30
0.0
 11
156.3605923286
 21
142.1739407087
 31
0.0
  0
SPLINE
  5
1F6
330
1F
100
AcDbEntity
  8
0
  6
HIDDEN
 62
     7
370
     0
100
AcDbSpline
210
0.0
220
0.0
230
1.0
 70
     8
 71
     3
 72
     8
 73
     4
 74
     0
 42
0.00000001
 43
0.00000001
 40
0.0
 40
0.0
 40
0.0
 40
0.0
 40
1.0
 40
1.0
 40
1.0
 40
1.0
 10
154.8786594970903
 20
145.5214823308508
 30
0.0
 10
155.3737995264546
 20
144.6348026826705
 30
0.0
 10
155.8678822317336
 20
143.7475400469846
 30
0.0
 10
156.3605923285793
 20
142.8595210488582
 30
0.0
  0
LINE
  5
1F7
330
1F
100
AcDbEntity
  8
0
  6
HIDDEN
 62
     7
370
     0
100
AcDbLine
 10
153.2205923286
 20
141.4542868577
 30
0.0
 11
156.7548898603
 21
141.4542868577
 31
0.0
  0
LINE
  5
1F8
330
1F
100
AcDbEntity
  8
0
  6
HIDDEN
 62
     7
370
     0
100
AcDbLine
 10
161.6625251601
 20
145.5214823309
 30
0.0
 11
161.6625251601
 21
84.8673691614
 31
0.0
  0
LINE
  5
1F9
330
1F
100
AcDbEntity
  8
0
  6
HIDDEN
 62
     7
370
     0
100
AcDbLine
 10
160.1805923286
 20
142.8595210489
 30
0.0
 11
160.1805923286
 21
87.5564496986
 31
0.0
  0
LINE
  5
1FA
330
1F
100
AcDbEntity
  8
0
  6
HIDDEN
 62
     7
370
     0
100
AcDbLine
 10
156.3605923286
 20
142.8595210489
 30
0.0
 11
156.3605923286
 21
87.5564496986
 31
0.0
  0
LWPOLYLINE
  5
1FB
330
1F
100
AcDbEntity
  8
0
  6
HIDDEN
 62
     7
370
     0
100
AcDbPolyline
 90
       12
 70
   128
 43
0.0
 10
267.3441968308
 20
128.6224085415
 10
267.6029937041
 20
129.0879160392
 10
268.0301025657
 20
129.4443452337
 10
268.5909215958
 20
129.6628203513
 10
269.2400165718
 20
129.7256418373
 10
269.924801679
 20
129.6277202686
 10
270.5897997008
 20
129.3769886684
 10
271.1811364522
 20
128.9937598196
 10
271.6509053465
 20
128.5090806444
 10
271.9610485016
 20
127.9622169673
 10
272.0864399637
 20
127.3974724308
 10
272.0169212622
 20
126.8605992788
  0
ELLIPSE
  5
1FC
330
1F
100
AcDbEntity
  8
0
  6
HIDDEN
 62
     7
370
     0
100
AcDbEllipse
 10
270.6306743973
 20
129.8893082959
 30
0.0
 11
0.9382876123695497
 21
2.75166689155327
 31
0.0
210
0.0
220
0.0
230
0.9999999999999997
 40
0.8587453104
 41
5.185286000754206
 42
7.326232755440945
  0
SPLINE
  5
1FD
330
1F
100
AcDbEntity
  8
0
  6
HIDDEN
 62
     7
370
     0
100
AcDbSpline
210
0.0
220
0.0
230
1.0
 70
     8
 71
     3
 72
    26
 73
    22
 74
     0
 42
0.00000001
 43
0.00000001
 40
0.0
 40
0.0
 40
0.0
 40
0.0
 40
0.249999999999984
 40
0.249999999999984
 40
0.3749999999999741
 40
0.3749999999999741
 40
0.4374999999999698
 40
0.4374999999999698
 40
0.4687499999999701
 40
0.4687499999999701
 40
0.4999999999999704
 40
0.4999999999999704
 40
0.5312499999999706
 40
0.5312499999999706
 40
0.5624999999999708
 40
0.5624999999999708
 40
0.6249999999999756
 40
0.6249999999999756
 40
0.7499999999999828
 40
0.7499999999999828
 40
1.0
 40
1.0
 40
1.0
 40
1.0
 10
109.1947459746839
 20
135.4444061912844
 30
0.0
 10
109.1561454518154
 20
135.3266314949289
 30
0.0
 10
109.1098484492612
 20
135.202241808767
 30
0.0
 10
109.0159091008272
 20
134.9970224764135
 30
0.0
 10
108.9805976339138
 20
134.925449609967
 30
0.0
 10
108.9144176581681
 20
134.8094963773666
 30
0.0
 10
108.8898792914999
 20
134.7689118425564
 30
0.0
 10
108.846506545946
 20
134.7047701606846
 30
0.0
 10
108.8309981445208
 20
134.6829037353995
 30
0.0
 10
108.7959554999338
 20
134.6373094670564
 30
0.0
 10
108.776405209214
 20
134.6136391760889
 30
0.0
 10
108.7344779288434
 20
134.569022616749
 30
0.0
 10
108.7118258186118
 20
134.5481426042311
 30
0.0
 10
108.6708521045252
 20
134.5172691904803
 30
0.0
 10
108.6532528046297
 20
134.5074303206479
 30
0.0
 10
108.6086258187736
 20
134.4884407049518
 30
0.0
 10
108.5880665961203
 20
134.4881163802983
 30
0.0
 10
108.5369411566236
 20
134.4973398211745
 30
0.0
 10
108.5160297436351
 20
134.5185867173915
 30
0.0
 10
108.4645798360742
 20
134.5925555962223
 30
0.0
 10
108.4469145367696
 20
134.658673689537
 30
0.0
 10
108.4332557033028
 20
134.7288394024673
 30
0.0
  0
SPLINE
  5
1FE
330
1F
100
AcDbEntity
  8
0
  6
HIDDEN
 62
     7
370
     0
100
AcDbSpline
210
0.0
220
0.0
230
1.0
 70
     8
 71
     3
 72
    26
 73
    22
 74
     0
 42
0.00000001
 43
0.00000001
 40
0.0
 40
0.0
 40
0.0
 40
0.0
 40
0.2499999999999929
 40
0.2499999999999929
 40
0.3749999999999897
 40
0.3749999999999897
 40
0.4374999999999881
 40
0.4374999999999881
 40
0.4687499999999872
 40
0.4687499999999872
 40
0.4999999999999865
 40
0.4999999999999865
 40
0.5312499999999857
 40
0.5312499999999857
 40
0.5624999999999849
 40
0.5624999999999849
 40
0.6249999999999866
 40
0.6249999999999866
 40
0.7499999999999909
 40
0.7499999999999909
 40
1.0
 40
1.0
 40
1.0
 40
1.0
 10
108.400869944188
 20
95.46419929745971
 30
0.0
 10
108.4115939775806
 20
95.56716033794868
 30
0.0
 10
108.4263269681751
 20
95.66615902742974
 30
0.0
 10
108.4786805274221
 20
95.78475470749487
 30
0.0
 10
108.5003858101417
 20
95.82046500744364
 30
0.0
 10
108.5592413175071
 20
95.84544444026538
 30
0.0
 10
108.5827035513543
 20
95.84982988802895
 30
0.0
 10
108.6388249280149
 20
95.83007705458482
 30
0.0
 10
108.6616122381455
 20
95.81842066377443
 30
0.0
 10
108.7168647906767
 20
95.77664031433719
 30
0.0
 10
108.7482710234175
 20
95.74636872696121
 30
0.0
 10
108.8032048440379
 20
95.68472632804722
 30
0.0
 10
108.8276286622374
 20
95.65328467574041
 30
0.0
 10
108.8710437682246
 20
95.59354983832665
 30
0.0
 10
108.8906183307929
 20
95.56438482845401
 30
0.0
 10
108.9442510147409
 20
95.48054955272093
 30
0.0
 10
108.9740283627931
 20
95.42851693474472
 30
0.0
 10
109.0555624227659
 20
95.27745126077734
 30
0.0
 10
109.0988052174399
 20
95.1842602189066
 30
0.0
 10
109.2118598070947
 20
94.91987367991223
 30
0.0
 10
109.2658708045738
 20
94.76091551086238
 30
0.0
 10
109.3095018987779
 20
94.61036455472153
 30
0.0
  0
LINE
  5
1FF
330
1F
100
AcDbEntity
  8
0
  6
HIDDEN
 62
     7
370
     0
100
AcDbLine
 10
108.3705923286
 20
134.7449646042
 30
0.0
 11
108.3705923286
 21
95.4011263327
 31
0.0
  0
LINE
  5
200
330
1F
100
AcDbEntity
  8
0
  6
HIDDEN
 62
     7
370
     0
100
AcDbLine
 10
156.3605923286
 20
87.5564496986
 30
0.0
 11
156.3605923286
 21
88.2498912294
 31
0.0
  0
SPLINE
  5
201
330
1F
100
AcDbEntity
  8
0
  6
HIDDEN
 62
     7
370
     0
100
AcDbSpline
210
0.0
220
0.0
230
1.0
 70
     8
 71
     3
 72
     8
 73
     4
 74
     0
 42
0.00000001
 43
0.00000001
 40
0.0
 40
0.0
 40
0.0
 40
0.0
 40
1.0
 40
1.0
 40
1.0
 40
1.0
 10
154.8786594970903
 20
84.86736916143941
 30
0.0
 10
155.374139157756
 20
85.76289524937275
 30
0.0
 10
155.8682532057982
 20
86.65917966442501
 30
0.0
 10
156.3605923285793
 20
87.5564496986317
 30
0.0
  0
LINE
  5
202
330
1F
100
AcDbEntity
  8
0
  6
HIDDEN
 62
     7
370
     0
100
AcDbLine
 10
153.2205923286
 20
88.6542868577
 30
0.0
 11
156.4582671309
 21
88.6542868577
 31
0.0
  0
LINE
  5
203
330
1F
100
AcDbEntity
  8
0
  6
HIDDEN
 62
     7
370
     0
100
AcDbLine
 10
160.1805923286
 20
88.2498912294
 30
0.0
 11
160.1805923286
 21
87.5564496986
 31
0.0
  0
SPLINE
  5
204
330
1F
100
AcDbEntity
  8
0
  6
HIDDEN
 62
     7
370
     0
100
AcDbSpline
210
0.0
220
0.0
230
1.0
 70
     8
 71
     3
 72
     8
 73
     4
 74
     0
 42
0.00000001
 43
0.00000001
 40
0.0
 40
0.0
 40
0.0
 40
0.0
 40
1.0
 40
1.0
 40
1.0
 40
1.0
 10
160.1805923285794
 20
87.5564496986317
 30
0.0
 10
160.6729314513605
 20
86.659179664425
 30
0.0
 10
161.1670454994027
 20
85.76289524937275
 30
0.0
 10
161.6625251600684
 20
84.8673691614394
 30
0.0
  0
LINE
  5
205
330
1F
100
AcDbEntity
  8
0
  6
HIDDEN
 62
     7
370
     0
100
AcDbLine
 10
161.6625251601
 20
84.8673691614
 30
0.0
 11
165.6205923286
 21
84.8673691614
 31
0.0
  0
LINE
  5
206
330
1F
100
AcDbEntity
  8
0
  6
HIDDEN
 62
     7
370
     0
100
AcDbLine
 10
160.0829175262
 20
88.6542868577
 30
0.0
 11
166.2205923286
 21
88.6542868577
 31
0.0
  0
LINE
  5
207
330
1F
100
AcDbEntity
  8
0
  6
HIDDEN
 62
     7
370
     0
100
AcDbLine
 10
166.2205923286
 20
85.4940094571
 30
0.0
 11
166.2205923286
 21
88.6542868577
 31
0.0
  0
LINE
  5
208
330
1F
100
AcDbEntity
  8
0
  6
HIDDEN
 62
     7
370
     0
100
AcDbLine
 10
267.3441968308
 20
128.6224085415
 30
0.0
 11
266.2974639199
 21
125.4266271177
 31
0.0
  0
LWPOLYLINE
  5
209
330
1F
100
AcDbEntity
  8
0
  6
HIDDEN
 62
     7
370
     0
100
AcDbPolyline
 90
       23
 70
   128
 43
0.0
 10
238.2705923286
 20
108.2761371887
 10
238.9749237207
 20
108.3724483672
 10
239.6221943722
 20
108.6535793438
 10
240.1599662645
 20
109.0967545587
 10
240.544672317
 20
109.6660705917
 10
240.7451459333
 20
110.3154048437
 10
240.7451459333
 20
110.9921521152
 10
240.544672317
 20
111.6414863671
 10
240.1599662645
 20
112.2108024001
 10
239.6221943722
 20
112.6539776151
 10
238.9749237207
 20
112.9351085917
 10
238.2705923286
 20
113.0314197702
 10
237.5662609365
 20
112.9351085917
 10
236.9189902849
 20
112.6539776151
 10
236.3812183927
 20
112.2108024001
 10
235.9965123402
 20
111.6414863671
 10
235.7960387239
 20
110.9921521152
 10
235.7960387239
 20
110.3154048437
 10
235.9965123402
 20
109.6660705917
 10
236.3812183927
 20
109.0967545587
 10
236.9189902849
 20
108.6535793438
 10
237.5662609365
 20
108.3724483672
 10
238.2705923286
 20
108.2761371887
  0
SPLINE
  5
20A
330
1F
100
AcDbEntity
  8
0
  6
HIDDEN
 62
     7
370
     0
100
AcDbSpline
210
0.0
220
0.0
230
1.0
 70
     8
 71
     3
 72
     9
 73
     5
 74
     0
 42
0.00000001
 43
0.00000001
 40
0.0
 40
0.0
 40
0.0
 40
0.0
 40
0.5055530393333091
 40
1.0
 40
1.0
 40
1.0
 40
1.0
 10
275.4768357123856
 20
130.5503162957646
 30
0.0
 10
275.5882122590996
 20
130.3518256356094
 30
0.0
 10
275.8085186128322
 20
129.9592047932602
 30
0.0
 10
276.0209944477933
 20
129.5622920324313
 30
0.0
 10
276.126052478605
 20
129.3660397241895
 30
0.0
  0
LINE
  5
20B
330
1F
100
AcDbEntity
  8
0
  6
HIDDEN
 62
     7
370
     0
100
AcDbLine
 10
275.1988835572
 20
120.2646790446
 30
0.0
 11
276.1250648167
 21
129.3679012827
 31
0.0
  0
LINE
  5
20C
330
1F
100
AcDbEntity
  8
0
  6
HIDDEN
 62
     7
370
     0
100
AcDbLine
 10
271.4899166682
 20
115.0542868577
 30
0.0
 11
275.1988835572
 21
120.2646790446
 31
0.0
  0
CIRCLE
  5
20D
330
1F
100
AcDbEntity
  8
0
  6
HIDDEN
 62
     7
370
     0
100
AcDbCircle
 10
147.2705923286
 20
115.0542868577
 30
0.0
 40
5.0
  0
LINE
  5
20E
330
1F
100
AcDbEntity
  8
0
  6
HIDDEN
 62
     7
370
     0
100
AcDbLine
 10
140.2705923286
 20
89.7303629366
 30
0.0
 11
140.3647531698
 21
90.4003521354
 31
0.0
  0
LINE
  5
20F
330
1F
100
AcDbEntity
  8
0
  6
HIDDEN
 62
     7
370
     0
100
AcDbLine
 10
140.3647531698
 20
139.70822158
 30
0.0
 11
140.2705923286
 21
140.3782107788
 31
0.0
  0
ARC
  5
210
330
1F
100
AcDbEntity
  8
0
  6
HIDDEN
 62
     7
370
     0
100
AcDbCircle
 10
139.7705923286
 20
90.483855996
 30
0.0
 40
0.5999999999999943
100
AcDbArc
 50
352.0
 51
0.0
  0
ARC
  5
211
330
1F
100
AcDbEntity
  8
0
  6
HIDDEN
 62
     7
370
     0
100
AcDbCircle
 10
139.7705923286
 20
90.483855996
 30
0.0
 40
0.6000000000000019
100
AcDbArc
 50
0.0
 51
33.5573097619
  0
ARC
  5
212
330
1F
100
AcDbEntity
  8
0
  6
HIDDEN
 62
     7
370
     0
100
AcDbCircle
 10
139.7705923286
 20
139.6247177194
 30
0.0
 40
0.599999999999998
100
AcDbArc
 50
348.75
 51
8.0
  0
LWPOLYLINE
  5
213
330
1F
100
AcDbEntity
  8
0
  6
HIDDEN
 62
     7
370
     0
100
AcDbPolyline
 90
        3
 70
   128
 43
0.0
 10
140.3590634968
 20
139.5076635262
 10
140.3249200481
 20
139.39510766
 10
140.2705923286
 20
139.2930552404
  0
LINE
  5
214
330
1F
100
AcDbEntity
  8
0
  6
HIDDEN
 62
     7
370
     0
100
AcDbLine
 10
140.3705923286
 20
90.483855996
 30
0.0
 11
140.3705923286
 21
139.6247177194
 31
0.0
  0
LINE
  5
215
330
1F
100
AcDbEntity
  8
0
  6
HIDDEN
 62
     7
370
     0
100
AcDbLine
 10
140.3705923286
 20
90.483855996
 30
0.0
 11
140.3705923286
 21
139.6247177194
 31
0.0
  0
ARC
  5
216
330
1F
100
AcDbEntity
  8
0
  6
HIDDEN
 62
     7
370
     0
100
AcDbCircle
 10
123.3530278939
 20
95.6542868577
 30
0.0
 40
0.6000000000000085
100
AcDbArc
 50
210.0
 51
270.0
  0
ARC
  5
217
330
1F
100
AcDbEntity
  8
0
  6
HIDDEN
 62
     7
370
     0
100
AcDbCircle
 10
123.3530278939
 20
134.4542868577
 30
0.0
 40
0.6000000000000052
100
AcDbArc
 50
90.0
 51
150.0
  0
ARC
  5
218
330
1F
100
AcDbEntity
  8
0
  6
HIDDEN
 62
     7
370
     0
100
AcDbCircle
 10
134.0255943302
 20
103.0542868577
 30
0.0
 40
7.999999999999997
100
AcDbArc
 50
277.1350968555
 51
321.3178125465
  0
ARC
  5
219
330
1F
100
AcDbEntity
  8
0
  6
HIDDEN
 62
     7
370
     0
100
AcDbCircle
 10
134.0255943302
 20
127.0542868577
 30
0.0
 40
8.000000000000023
100
AcDbArc
 50
38.6821874535
 51
82.8700888505
  0
LINE
  5
21A
330
1F
100
AcDbEntity
  8
0
  6
HIDDEN
 62
     7
370
     0
100
AcDbLine
 10
123.3530278939
 20
95.0542868577
 30
0.0
 11
127.5237097098
 21
95.0542868577
 31
0.0
  0
LINE
  5
21B
330
1F
100
AcDbEntity
  8
0
  6
HIDDEN
 62
     7
370
     0
100
AcDbLine
 10
127.5306147877
 20
135.0542868577
 30
0.0
 11
123.3530278939
 21
135.0542868577
 31
0.0
  0
LINE
  5
21C
330
1F
100
AcDbEntity
  8
0
  6
HIDDEN
 62
     7
370
     0
100
AcDbLine
 10
122.8334126516
 20
134.7542868577
 30
0.0
 11
121.2745669248
 21
132.0542868577
 31
0.0
  0
LINE
  5
21D
330
1F
100
AcDbEntity
  8
0
  6
HIDDEN
 62
     7
370
     0
100
AcDbLine
 10
121.2745669248
 20
98.0542868577
 30
0.0
 11
122.8334126516
 21
95.3542868577
 31
0.0
  0
ARC
  5
21E
330
1F
100
AcDbEntity
  8
0
  6
HIDDEN
 62
     7
370
     0
100
AcDbCircle
 10
148.7205923286
 20
99.3292868577
 30
0.0
 40
1.500000000000028
100
AcDbArc
 50
238.211669383
 51
0.0
  0
ARC
  5
21F
330
1F
100
AcDbEntity
  8
0
  6
HIDDEN
 62
     7
370
     0
100
AcDbCircle
 10
148.7205923286
 20
130.7792868577
 30
0.0
 40
1.500000000000028
100
AcDbArc
 50
0.0
 51
121.7883306171
  0
LINE
  5
220
330
1F
100
AcDbEntity
  8
0
  6
HIDDEN
 62
     7
370
     0
100
AcDbLine
 10
118.4705923286
 20
98.0542868577
 30
0.0
 11
121.2745669248
 21
98.0542868577
 31
0.0
  0
LINE
  5
221
330
1F
100
AcDbEntity
  8
0
  6
HIDDEN
 62
     7
370
     0
100
AcDbLine
 10
121.2745669248
 20
132.0542868577
 30
0.0
 11
114.4705923286
 21
132.0542868577
 31
0.0
  0
LINE
  5
222
330
1F
100
AcDbEntity
  8
0
  6
HIDDEN
 62
     7
370
     0
100
AcDbLine
 10
140.2705923286
 20
98.0542868577
 30
0.0
 11
147.9304182971
 21
98.0542868577
 31
0.0
  0
LINE
  5
223
330
1F
100
AcDbEntity
  8
0
  6
HIDDEN
 62
     7
370
     0
100
AcDbLine
 10
147.9304182971
 20
132.0542868577
 30
0.0
 11
140.2705923286
 21
132.0542868577
 31
0.0
  0
LINE
  5
224
330
1F
100
AcDbEntity
  8
0
  6
HIDDEN
 62
     7
370
     0
100
AcDbLine
 10
245.7671724258
 20
126.146894485
 30
0.0
 11
235.224766825
 21
120.5602706658
 31
0.0
  0
LINE
  5
225
330
1F
100
AcDbEntity
  8
0
  6
HIDDEN
 62
     7
370
     0
100
AcDbLine
 10
240.0946915374
 20
118.3876685548
 30
0.0
 11
245.7719638265
 21
121.3961645091
 31
0.0
  0
LINE
  5
226
330
1F
100
AcDbEntity
  8
0
  6
HIDDEN
 62
     7
370
     0
100
AcDbLine
 10
237.1913661821
 20
116.8491405187
 30
0.0
 11
238.3479544763
 21
117.4620389366
 31
0.0
  0
LINE
  5
227
330
1F
100
AcDbEntity
  8
0
  6
HIDDEN
 62
     7
370
     0
100
AcDbLine
 10
235.0954883815
 20
120.1909559274
 30
0.0
 11
235.1379932251
 21
118.1376531478
 31
0.0
  0
LINE
  5
228
330
1F
100
AcDbEntity
  8
0
  6
HIDDEN
 62
     7
370
     0
100
AcDbLine
 10
235.1379932251
 20
118.1376531478
 30
0.0
 11
236.8131777651
 21
116.9495387917
 31
0.0
  0
LINE
  5
229
330
1F
100
AcDbEntity
  8
0
  6
HIDDEN
 62
     7
370
     0
100
AcDbLine
 10
236.1705923286
 20
119.0806783042
 30
0.0
 11
236.1705923286
 21
116.3519054897
 31
0.0
  0
LINE
  5
22A
330
1F
100
AcDbEntity
  8
0
  6
HIDDEN
 62
     7
370
     0
100
AcDbLine
 10
240.3705923286
 20
116.3519462467
 30
0.0
 11
240.3705923286
 21
119.0080530096
 31
0.0
  0
LINE
  5
22B
330
1F
100
AcDbEntity
  8
0
  6
HIDDEN
 62
     7
370
     0
100
AcDbLine
 10
159.5705923286
 20
105.5542868577
 30
0.0
 11
162.0705923286
 21
105.5542868577
 31
0.0
  0
LINE
  5
22C
330
1F
100
AcDbEntity
  8
0
  6
HIDDEN
 62
     7
370
     0
100
AcDbLine
 10
162.0705923286
 20
124.5542868577
 30
0.0
 11
159.5705923286
 21
124.5542868577
 31
0.0
  0
LINE
  5
22D
330
1F
100
AcDbEntity
  8
0
  6
HIDDEN
 62
     7
370
     0
100
AcDbLine
 10
150.2205923286
 20
106.0542868577
 30
0.0
 11
150.7205923286
 21
106.5542868577
 31
0.0
  0
LINE
  5
22E
330
1F
100
AcDbEntity
  8
0
  6
HIDDEN
 62
     7
370
     0
100
AcDbLine
 10
150.7205923286
 20
123.5542868577
 30
0.0
 11
150.2205923286
 21
124.0542868577
 31
0.0
  0
LINE
  5
22F
330
1F
100
AcDbEntity
  8
0
  6
HIDDEN
 62
     7
370
     0
100
AcDbLine
 10
150.7205923286
 20
106.5542868577
 30
0.0
 11
159.5705923286
 21
106.5542868577
 31
0.0
  0
LINE
  5
230
330
1F
100
AcDbEntity
  8
0
  6
HIDDEN
 62
     7
370
     0
100
AcDbLine
 10
159.5705923286
 20
123.5542868577
 30
0.0
 11
150.7205923286
 21
123.5542868577
 31
0.0
  0
LINE
  5
231
330
1F
100
AcDbEntity
  8
0
  6
HIDDEN
 62
     7
370
     0
100
AcDbLine
 10
145.2205923286
 20
146.5542868577
 30
0.0
 11
145.2205923286
 21
141.4542868577
 31
0.0
  0
LINE
  5
232
330
1F
100
AcDbEntity
  8
0
  6
HIDDEN
 62
     7
370
     0
100
AcDbLine
 10
135.4550301591
 20
90.9749155241
 30
0.0
 11
135.0205980096
 21
91.4539815432
 31
0.0
  0
LINE
  5
233
330
1F
100
AcDbEntity
  8
0
  6
HIDDEN
 62
     7
370
     0
100
AcDbLine
 10
127.5205946845
 20
91.8756695024
 30
0.0
 11
127.0381609411
 21
91.3966035269
 31
0.0
  0
LINE
  5
234
330
1F
100
AcDbEntity
  8
0
  6
HIDDEN
 62
     7
370
     0
100
AcDbLine
 10
127.0380390129
 20
138.711964898
 30
0.0
 11
127.5205897639
 21
138.2328446401
 31
0.0
  0
LINE
  5
235
330
1F
100
AcDbEntity
  8
0
  6
HIDDEN
 62
     7
370
     0
100
AcDbLine
 10
135.0205922106
 20
138.6545424178
 30
0.0
 11
135.4551346009
 21
139.1336626683
 31
0.0
  0
LINE
  5
236
330
1F
100
AcDbEntity
  8
0
  6
HIDDEN
 62
     7
370
     0
100
AcDbLine
 10
162.0705923286
 20
110.8542868577
 30
0.0
 11
241.2705923286
 21
110.8542868577
 31
0.0
  0
LINE
  5
237
330
1F
100
AcDbEntity
  8
0
  6
HIDDEN
 62
     7
370
     0
100
AcDbLine
 10
241.2705923286
 20
119.2542868577
 30
0.0
 11
162.0705923286
 21
119.2542868577
 31
0.0
  0
LINE
  5
238
330
1F
100
AcDbEntity
  8
0
  6
HIDDEN
 62
     7
370
     0
100
AcDbLine
 10
241.2705923286
 20
110.8542868577
 30
0.0
 11
243.7942069285
 21
115.0542868577
 31
0.0
  0
LINE
  5
239
330
1F
100
AcDbEntity
  8
0
  6
HIDDEN
 62
     7
370
     0
100
AcDbLine
 10
243.7942069285
 20
115.0542868577
 30
0.0
 11
241.2705923286
 21
119.2542868577
 31
0.0
  0
LINE
  5
23A
330
1F
100
AcDbEntity
  8
0
  6
HIDDEN
 62
     7
370
     0
100
AcDbLine
 10
135.0205923286
 20
91.4544654449
 30
0.0
 11
135.0205923286
 21
95.1164506671
 31
0.0
  0
LINE
  5
23B
330
1F
100
AcDbEntity
  8
0
  6
HIDDEN
 62
     7
370
     0
100
AcDbLine
 10
127.5205923286
 20
95.0548711189
 30
0.0
 11
127.5205923286
 21
91.8759927402
 31
0.0
  0
LINE
  5
23C
330
1F
100
AcDbEntity
  8
0
  6
HIDDEN
 62
     7
370
     0
100
AcDbLine
 10
135.0205923286
 20
134.9921230483
 30
0.0
 11
135.0205923286
 21
138.6539889962
 31
0.0
  0
LINE
  5
23D
330
1F
100
AcDbEntity
  8
0
  6
HIDDEN
 62
     7
370
     0
100
AcDbLine
 10
127.5205923286
 20
138.2325894488
 30
0.0
 11
127.5205923286
 21
135.0524153105
 31
0.0
  0
LINE
  5
23E
330
1F
100
AcDbEntity
  8
0
  6
HIDDEN
 62
     7
370
     0
100
AcDbLine
 10
271.2485992507
 20
120.5967713723
 30
0.0
 11
271.6750124094
 21
121.1614036294
 31
0.0
  0
LINE
  5
23F
330
1F
100
AcDbEntity
  8
0
  6
HIDDEN
 62
     7
370
     0
100
AcDbLine
 10
266.0889996822
 20
125.379988915
 30
0.0
 11
265.6625865235
 21
124.815356658
 31
0.0
  0
LINE
  5
240
330
1F
100
AcDbEntity
  8
0
  6
HIDDEN
 62
     7
370
     0
100
AcDbLine
 10
263.8301880077
 20
132.1173801446
 30
0.0
 11
263.3389042304
 21
131.4668498727
 31
0.0
  0
LINE
  5
241
330
1F
100
AcDbEntity
  8
0
  6
HIDDEN
 62
     7
370
     0
100
AcDbLine
 10
271.3039447272
 20
124.1233031682
 30
0.0
 11
273.186839033
 21
128.3797217646
 31
0.0
  0
LINE
  5
242
330
1F
100
AcDbEntity
  8
0
  6
HIDDEN
 62
     7
370
     0
100
AcDbLine
 10
269.7355375907
 20
117.4317336202
 30
0.0
 11
271.7632355974
 21
120.1166969681
 31
0.0
  0
LINE
  5
243
330
1F
100
AcDbEntity
  8
0
  6
HIDDEN
 62
     7
370
     0
100
AcDbLine
 10
265.0600203248
 20
125.1789993109
 30
0.0
 11
263.0323223181
 21
122.494035963
 31
0.0
  0
LINE
  5
244
330
1F
100
AcDbEntity
  8
0
  6
HIDDEN
 62
     7
370
     0
100
AcDbLine
 10
263.5167351113
 20
131.5631280381
 30
0.0
 11
263.2094214293
 21
131.1562005914
 31
0.0
  0
LINE
  5
245
330
1F
100
AcDbEntity
  8
0
  6
HIDDEN
 62
     7
370
     0
100
AcDbLine
 10
236.1705923286
 20
113.7566274687
 30
0.0
 11
236.1705923286
 21
110.7280489364
 31
0.0
  0
LINE
  5
246
330
1F
100
AcDbEntity
  8
0
  6
HIDDEN
 62
     7
370
     0
100
AcDbLine
 10
240.3705923286
 20
110.7280489364
 30
0.0
 11
240.3705923286
 21
113.7566682257
 31
0.0
  0
ARC
  5
247
330
1F
100
AcDbEntity
  8
0
  6
HIDDEN
 62
     7
370
     0
100
AcDbCircle
 10
117.0705923286
 20
92.8417868577
 30
0.0
 40
1.400000000000005
100
AcDbArc
 50
37.6438857999
 51
90.0
  0
ARC
  5
248
330
1F
100
AcDbEntity
  8
0
  6
HIDDEN
 62
     7
370
     0
100
AcDbCircle
 10
113.0705923286
 20
137.3242868577
 30
0.0
 40
1.400000000000034
100
AcDbArc
 50
270.0
 51
302.5610026528
  0
LINE
  5
249
330
1F
100
AcDbEntity
  8
0
  6
HIDDEN
 62
     7
370
     0
100
AcDbLine
 10
269.9359424712
 20
136.0582621639
 30
0.0
 11
269.3505830769
 21
135.2831622655
 31
0.0
  0
LINE
  5
24A
330
1F
100
AcDbEntity
  8
0
  6
HIDDEN
 62
     7
370
     0
100
AcDbLine
 10
274.4577947132
 20
131.4261700043
 30
0.0
 11
275.0431541075
 21
132.2012699027
 31
0.0
  0
LINE
  5
24B
330
1F
100
AcDbEntity
  8
0
  6
HIDDEN
 62
     7
370
     0
100
AcDbLine
 10
109.5205923286
 20
94.2417868577
 30
0.0
 11
117.0705923286
 21
94.2417868577
 31
0.0
  0
LINE
  5
24C
330
1F
100
AcDbEntity
  8
0
  6
HIDDEN
 62
     7
370
     0
100
AcDbLine
 10
109.6682477327
 20
135.9242868577
 30
0.0
 11
109.66148073
 21
135.9242868577
 31
0.0
  0
LINE
  5
24D
330
1F
100
AcDbEntity
  8
0
  6
HIDDEN
 62
     7
370
     0
100
AcDbLine
 10
109.5117557868
 20
135.9154503159
 30
0.0
 11
108.3817599478
 21
134.7854544769
 31
0.0
  0
LINE
  5
24E
330
1F
100
AcDbEntity
  8
0
  6
HIDDEN
 62
     7
370
     0
100
AcDbLine
 10
108.3725411724
 20
95.3898380139
 30
0.0
 11
109.5205923286
 21
94.2417868577
 31
0.0
  0
LINE
  5
24F
330
1F
100
AcDbEntity
  8
0
  6
HIDDEN
 62
     7
370
     0
100
AcDbLine
 10
269.1451943548
 20
132.7109713847
 30
0.0
 11
267.3942699083
 21
128.7528801886
 31
0.0
  0
LINE
  5
250
330
1F
100
AcDbEntity
  8
0
  6
HIDDEN
 62
     7
370
     0
100
AcDbLine
 10
235.7705923286
 20
110.6537784794
 30
0.0
 11
235.7705923286
 21
108.8742634078
 31
0.0
  0
LINE
  5
251
330
1F
100
AcDbEntity
  8
0
  6
HIDDEN
 62
     7
370
     0
100
AcDbLine
 10
240.7705923286
 20
108.8739588667
 30
0.0
 11
240.7705923286
 21
110.6537784794
 31
0.0
  0
LINE
  5
252
330
1F
100
AcDbEntity
  8
VERMASSUNG
100
AcDbLine
 10
280.2705923286
 20
142.0542868577
 30
0.0
 11
280.2705923286
 21
121.4016880914
 31
0.0
  0
DIMENSION
  5
253
330
1F
100
AcDbEntity
  8
VERMASSUNG
100
AcDbDimension
  2
*D1
 10
280.2705923286
 20
152.893284746
 30
0.0
 11
210.2705923286
 21
152.893284746
 31
0.0
 70
   160
 71
     2
 42
-1.0
  3
SLDDIMSTYLE0
100
AcDbAlignedDimension
 13
140.2705923286
 23
146.2542868577
 33
0.0
 14
280.2705923286
 24
142.0542868577
 34
0.0
100
AcDbRotatedDimension
  0
DIMENSION
  5
25E
330
1F
100
AcDbEntity
  8
VERMASSUNG
100
AcDbDimension
  2
*D2
 10
280.2705923286
 20
159.1379031392
 30
0.0
 11
194.3205923286
 21
159.1379031392
 31
0.0
 70
   160
 71
     2
 42
-1.0
  3
SLDDIMSTYLE0
100
AcDbAlignedDimension
 13
108.3705923286
 23
134.7449646042
 33
0.0
 14
280.2705923286
 24
142.0542868577
 34
0.0
 50
0.0
100
AcDbRotatedDimension
  0
DIMENSION
  5
268
330
1F
100
AcDbEntity
  8
VERMASSUNG
100
AcDbDimension
  2
*D3
 10
286.4851616587
 20
115.0542868577
 30
0.0
 11
286.4851616587
 21
128.5542868577
 31
0.0
 70
   160
 71
     2
 42
-1.0
  3
SLDDIMSTYLE0
100
AcDbAlignedDimension
 13
280.2705923286
 23
142.0542868577
 33
0.0
 14
276.0991775612
 24
115.0542868577
 34
0.0
 50
90.0
100
AcDbRotatedDimension
  0
DIMENSION
  5
272
330
1F
100
AcDbEntity
  8
VERMASSUNG
100
AcDbDimension
  2
*D4
 10
280.2705923286
 20
142.0542868577
 30
0.0
 11
278.3896813811
 21
110.4705290467
 31
0.0
 70
   162
 71
     1
 42
-1.0
  3
SLDDIMSTYLE1
100
AcDb2LineAngularDimension
 13
277.6485436212
 23
123.5083807521
 33
0.0
 14
278.1552223381
 24
129.2675622931
 34
0.0
 15
280.2705923286
 25
121.4016880914
 35
0.0
 16
278.3896813811
 26
110.4705290467
 36
0.0
  0
DIMENSION
  5
27F
330
1F
100
AcDbEntity
  8
VERMASSUNG
100
AcDbDimension
  2
*D5
 10
103.0310148706
 20
83.5542868577
 30
0.0
 11
103.0310148706
 21
115.0542868577
 31
0.0
 70
   160
  1
HSK %%c<>
 71
     2
 42
-1.0
  3
SLDDIMSTYLE0
100
AcDbAlignedDimension
 13
140.5705923286
 23
146.5542868577
 33
0.0
 14
140.5705923286
 24
83.5542868577
 34
0.0
 50
90.0
100
AcDbRotatedDimension
  0
LINE
  5
28B
330
1F
100
AcDbEntity
  8
VERMASSUNG
  6
CENTERX2
370
     0
100
AcDbLine
 10
106.3061936902
 20
115.0542868577
 30
0.0
 11
276.0991775612
 21
115.0542868577
 31
0.0
  0
LINE
  5
28C
330
1F
100
AcDbEntity
  8
0
  6
Continuous
 62
     7
370
    15
100
AcDbLine
 10
63.7532646381
 20
141.3954092041
 30
0.0
 11
59.0654106413
 21
142.0542441178
 31
0.0
  0
LINE
  5
28D
330
1F
100
AcDbEntity
  8
0
  6
Continuous
 62
     7
370
    15
100
AcDbLine
 10
58.0943382672
 20
139.9182286035
 30
0.0
 11
57.6489030801
 21
139.3366500183
 31
0.0
  0
LINE
  5
28E
330
1F
100
AcDbEntity
  8
0
  6
Continuous
 62
     7
370
    15
100
AcDbLine
 10
58.2097081079
 20
140.1260500924
 30
0.0
 11
58.2039923281
 21
140.0982805851
 31
0.0
  0
LINE
  5
28F
330
1F
100
AcDbEntity
  8
0
  6
Continuous
 62
     7
370
    15
100
AcDbLine
 10
56.3765871667
 20
130.7263401866
 30
0.0
 11
56.6556488913
 21
130.0160385899
 31
0.0
  0
SPLINE
  5
290
330
1F
100
AcDbEntity
  8
0
  6
Continuous
 62
     7
370
    15
100
AcDbSpline
210
0.0
220
0.0
230
1.0
 70
     8
 71
     3
 72
    13
 73
     9
 74
     0
 42
0.00000001
 43
0.00000001
 40
0.0
 40
0.0
 40
0.0
 40
0.0
 40
0.0048735535989458
 40
0.2262549376263306
 40
0.4161181828504437
 40
0.580364964945134
 40
0.7543773684472244
 40
1.0
 40
1.0
 40
1.0
 40
1.0
 10
56.67424574950808
 20
130.0205420052337
 30
0.0
 10
56.67495843251859
 20
130.0193483433518
 30
0.0
 10
56.70804477225347
 20
129.9639325386119
 30
0.0
 10
56.72065195312298
 20
129.8455156961618
 30
0.0
 10
56.72225524055253
 20
129.7063409454034
 30
0.0
 10
56.7034569463931
 20
129.6169857380463
 30
0.0
 10
56.68649946628971
 20
129.5654856692765
 30
0.0
 10
56.68421547675329
 20
129.5609074457286
 30
0.0
 10
56.68287860191323
 20
129.5582276997071
 30
0.0
  0
LINE
  5
291
330
1F
100
AcDbEntity
  8
0
  6
Continuous
 62
     7
370
    15
100
AcDbLine
 10
55.7771531101
 20
128.4891181167
 30
0.0
 11
56.0744138517
 21
128.4473408439
 31
0.0
  0
LINE
  5
292
330
1F
100
AcDbEntity
  8
0
  6
Continuous
 62
     7
370
    15
100
AcDbLine
 10
66.3580949103
 20
140.3243896249
 30
0.0
 11
63.6949747508
 21
140.6986667551
 31
0.0
  0
LINE
  5
293
330
1F
100
AcDbEntity
  8
0
  6
Continuous
 62
     7
370
    15
100
AcDbLine
 10
66.6188719935
 20
139.9808762688
 30
0.0
 11
66.3682035253
 21
140.3173757297
 31
0.0
  0
LINE
  5
294
330
1F
100
AcDbEntity
  8
0
  6
Continuous
 62
     7
370
    15
100
AcDbLine
 10
56.1412899572
 20
127.2165598393
 30
0.0
 11
55.6529439009
 21
126.8443178537
 31
0.0
  0
LINE
  5
295
330
1F
100
AcDbEntity
  8
0
  6
Continuous
 62
     7
370
    15
100
AcDbLine
 10
54.6841281475
 20
119.9508355753
 30
0.0
 11
55.0509527091
 21
119.4584071972
 31
0.0
  0
LINE
  5
296
330
1F
100
AcDbEntity
  8
0
  6
Continuous
 62
     7
370
    15
100
AcDbLine
 10
55.7809735865
 20
128.4901182632
 30
0.0
 11
57.1735700687
 21
129.3579046304
 31
0.0
  0
ARC
  5
297
330
1F
100
AcDbEntity
  8
0
  6
Continuous
 62
     7
370
    15
100
AcDbCircle
 10
56.6720930565
 20
128.6764792736
 30
0.0
 40
0.9103978998332897
100
AcDbArc
 50
164.1226358657
 51
191.8121025197
  0
LINE
  5
298
330
1F
100
AcDbEntity
  8
0
  6
Continuous
 62
     7
370
    15
100
AcDbLine
 10
57.5807498895
 20
140.8306704198
 30
0.0
 11
55.7964273212
 21
128.9255452408
 31
0.0
  0
ARC
  5
299
330
1F
100
AcDbEntity
  8
0
  6
Continuous
 62
     7
370
    15
100
AcDbCircle
 10
58.6471739702
 20
140.7537937719
 30
0.0
 40
1.069191441660934
100
AcDbArc
 50
156.1884816747
 51
175.8767799399
  0
LINE
  5
29A
330
1F
100
AcDbEntity
  8
0
  6
Continuous
 62
     7
370
    15
100
AcDbLine
 10
59.0615901648
 20
142.0532439712
 30
0.0
 11
57.6689936826
 21
141.185457604
 31
0.0
  0
ARC
  5
29B
330
1F
100
AcDbEntity
  8
0
  6
Continuous
 62
     7
370
    15
100
AcDbCircle
 10
58.1704706948
 20
141.8668829608
 30
0.0
 40
0.9103978998331413
100
AcDbArc
 50
344.1226358657
 51
11.8121025197
  0
LINE
  5
29C
330
1F
100
AcDbEntity
  8
0
  6
Continuous
 62
     7
370
    15
100
AcDbLine
 10
57.2618138619
 20
129.7126918147
 30
0.0
 11
59.0461364302
 21
141.6178169936
 31
0.0
  0
ARC
  5
29D
330
1F
100
AcDbEntity
  8
0
  6
Continuous
 62
     7
370
    15
100
AcDbCircle
 10
56.1953897812
 20
129.7895684625
 30
0.0
 40
1.069191441659875
100
AcDbArc
 50
336.1884816747
 51
355.8767799399
  0
ARC
  5
29E
330
1F
100
AcDbEntity
  8
0
  6
Continuous
 62
     7
370
    15
100
AcDbCircle
 10
58.21243423
 20
141.8564456573
 30
0.0
 40
0.8648780048406655
100
AcDbArc
 50
344.1226358657
 51
11.8121025197
  0
LINE
  5
29F
330
1F
100
AcDbEntity
  8
0
  6
Continuous
 62
     7
370
    15
100
AcDbLine
 10
59.0589977265
 20
142.0334886172
 30
0.0
 11
57.6664012444
 21
141.1657022497
 31
0.0
  0
ARC
  5
2A0
330
1F
100
AcDbEntity
  8
0
  6
Continuous
 62
     7
370
    15
100
AcDbCircle
 10
58.5956725195
 20
140.7556216082
 30
0.0
 40
1.015731871780857
100
AcDbArc
 50
156.1884816708
 51
175.8767798772
  0
LINE
  5
2A1
330
1F
100
AcDbEntity
  8
0
  6
Continuous
 62
     7
370
    15
100
AcDbLine
 10
57.5825696407
 20
140.8286544249
 30
0.0
 11
55.7982470725
 21
128.923529246
 31
0.0
  0
ARC
  5
2A2
330
1F
100
AcDbEntity
  8
0
  6
Continuous
 62
     7
370
    15
100
AcDbCircle
 10
56.630129521
 20
128.6869165772
 30
0.0
 40
0.8648780048410143
100
AcDbArc
 50
164.1226358657
 51
191.8121025197
  0
LINE
  5
2A3
330
1F
100
AcDbEntity
  8
0
  6
Continuous
 62
     7
370
    15
100
AcDbLine
 10
55.7835660245
 20
128.5098736173
 30
0.0
 11
57.1761625068
 21
129.3776599845
 31
0.0
  0
ARC
  5
2A4
330
1F
100
AcDbEntity
  8
0
  6
Continuous
 62
     7
370
    15
100
AcDbCircle
 10
56.2468912336
 20
129.787740625
 30
0.0
 40
1.015731869578128
100
AcDbArc
 50
336.1884816747
 51
355.8767799399
  0
LINE
  5
2A5
330
1F
100
AcDbEntity
  8
0
  6
Continuous
 62
     7
370
    15
100
AcDbLine
 10
57.2599941103
 20
129.7147078095
 30
0.0
 11
59.0443166785
 21
141.6198329885
 31
0.0
  0
ARC
  5
2A6
330
1F
100
AcDbEntity
  8
0
  6
Continuous
 62
     7
370
    15
100
AcDbCircle
 10
62.7194465028
 20
141.2224272061
 30
0.0
 40
1.048190206276929
100
AcDbArc
 50
345.4435746887
 51
9.4989311381
  0
LINE
  5
2A7
330
1F
100
AcDbEntity
  8
0
  6
Continuous
 62
     7
370
    15
100
AcDbLine
 10
59.0743515488
 20
141.9961451281
 30
0.0
 11
59.0589977265
 21
142.0334886172
 31
0.0
  0
LINE
  5
2A8
330
1F
100
AcDbEntity
  8
0
  6
Continuous
 62
     7
370
    15
100
AcDbLine
 10
61.9496678587
 20
129.053856901
 30
0.0
 11
63.733990427
 21
140.95898208
 31
0.0
  0
LINE
  5
2A9
330
1F
100
AcDbEntity
  8
0
  6
Continuous
 62
     7
370
    15
100
AcDbLine
 10
57.8332127403
 20
140.7599841711
 30
0.0
 11
57.6664012444
 21
141.1657022497
 31
0.0
  0
LINE
  5
2AA
330
1F
100
AcDbEntity
  8
0
  6
Continuous
 62
     7
370
    15
100
AcDbLine
 10
58.1661451438
 20
140.1338612214
 30
0.0
 11
57.8332127403
 21
140.7599841711
 31
0.0
  0
ARC
  5
2AB
330
1F
100
AcDbEntity
  8
0
  6
Continuous
 62
     7
370
    15
100
AcDbCircle
 10
60.883243778
 20
129.1307335488
 30
0.0
 40
1.069191441661087
100
AcDbArc
 50
336.1884816747
 51
355.8767799399
  0
LINE
  5
2AC
330
1F
100
AcDbEntity
  8
0
  6
Continuous
 62
     7
370
    15
100
AcDbLine
 10
57.1853162265
 20
129.3895620275
 30
0.0
 11
57.1761625068
 21
129.3776599845
 31
0.0
  0
LINE
  5
2AD
330
1F
100
AcDbEntity
  8
0
  6
Continuous
 62
     7
370
    15
100
AcDbLine
 10
56.048890172
 20
128.8548589922
 30
0.0
 11
55.7835660245
 21
128.5098736173
 31
0.0
  0
LINE
  5
2AE
330
1F
100
AcDbEntity
  8
0
  6
Continuous
 62
     7
370
    15
100
AcDbLine
 10
56.7469292203
 20
129.6847878887
 30
0.0
 11
56.048890172
 21
128.8548589922
 31
0.0
  0
ARC
  5
2AF
330
1F
100
AcDbEntity
  8
0
  6
Continuous
 62
     7
370
    15
100
AcDbCircle
 10
56.2121085139
 20
139.3678148181
 30
0.0
 40
2.275994744394603
100
AcDbArc
 50
344.1226358433
 51
11.8121025628
  0
LINE
  5
2B0
330
1F
100
AcDbEntity
  8
0
  6
Continuous
 62
     7
370
    15
100
AcDbLine
 10
61.7830806516
 20
128.6502505882
 30
0.0
 11
61.8614240656
 21
128.6990697167
 31
0.0
  0
LINE
  5
2B1
330
1F
100
AcDbEntity
  8
0
  6
Continuous
 62
     7
370
    15
100
AcDbLine
 10
57.4026519808
 20
132.0822815233
 30
0.0
 11
58.401272847
 21
138.7451499007
 31
0.0
  0
ARC
  5
2B2
330
1F
100
AcDbEntity
  8
0
  6
Continuous
 62
     7
370
    15
100
AcDbCircle
 10
54.736591779
 20
132.2744731429
 30
0.0
 40
2.67297860415249
100
AcDbArc
 50
336.1884816747
 51
355.8767799399
  0
LINE
  5
2B3
330
1F
100
AcDbEntity
  8
0
  6
Continuous
 62
     7
370
    15
100
AcDbLine
 10
56.4026565675
 20
130.7096448898
 30
0.0
 11
57.1820424979
 21
131.1953135625
 31
0.0
  0
ARC
  5
2B4
330
1F
100
AcDbEntity
  8
0
  6
Continuous
 62
     7
370
    15
100
AcDbCircle
 10
58.6304552425
 20
131.1755474158
 30
0.0
 40
2.275994749581661
100
AcDbArc
 50
164.1226358657
 51
191.8121025197
  0
LINE
  5
2B5
330
1F
100
AcDbEntity
  8
0
  6
Continuous
 62
     7
370
    15
100
AcDbLine
 10
57.4399117702
 20
138.4610807112
 30
0.0
 11
56.4412909043
 21
131.7982123337
 31
0.0
  0
ARC
  5
2B6
330
1F
100
AcDbEntity
  8
0
  6
Continuous
 62
     7
370
    15
100
AcDbCircle
 10
60.105971972
 20
138.2688890916
 30
0.0
 40
2.672978604151861
100
AcDbArc
 50
156.1884816747
 51
175.8767799399
  0
LINE
  5
2B7
330
1F
100
AcDbEntity
  8
0
  6
Continuous
 62
     7
370
    15
100
AcDbLine
 10
58.4399071835
 20
139.8337173447
 30
0.0
 11
57.6605212531
 21
139.3480486719
 31
0.0
  0
LWPOLYLINE
  5
2B8
330
1F
100
AcDbEntity
  8
0
  6
Continuous
 62
     7
370
    15
100
AcDbPolyline
 90
       23
 70
   128
 43
0.0
 10
57.6560298143
 20
135.0116177839
 10
57.7538542046
 20
135.738287682
 10
57.8247355628
 20
136.4271558913
 10
57.8629315026
 20
137.0224144062
 10
57.8653476163
 20
137.4758389221
 10
57.8317881646
 20
137.7506956813
 10
57.7649719348
 20
137.8247174237
 10
57.6703119804
 20
137.6919073481
 10
57.5554770879
 20
137.3630249369
 10
57.4297704974
 20
136.8647142871
 10
57.3033762093
 20
136.2373455641
 10
57.1865339371
 20
135.5317444505
 10
57.0887095467
 20
134.8050745524
 10
57.0178281886
 20
134.1162063431
 10
56.9796322487
 20
133.5209478282
 10
56.9772161351
 20
133.0675233123
 10
57.0107755867
 20
132.7926665532
 10
57.0775918166
 20
132.7186448107
 10
57.172251771
 20
132.8514548863
 10
57.2870866635
 20
133.1803372975
 10
57.4127932539
 20
133.6786479473
 10
57.539187542
 20
134.3060166704
 10
57.6560298143
 20
135.0116177839
  0
LINE
  5
2B9
330
1F
100
AcDbEntity
  8
0
  6
Continuous
 62
     7
370
    15
100
AcDbLine
 10
58.1143651896
 20
139.9381552342
 30
0.0
 11
58.1091390122
 21
139.9073445182
 31
0.0
  0
LINE
  5
2BA
330
1F
100
AcDbEntity
  8
0
  6
Continuous
 62
     7
370
    15
100
AcDbLine
 10
56.048890172
 20
128.8548589922
 30
0.0
 11
55.7982470725
 21
128.923529246
 31
0.0
  0
LINE
  5
2BB
330
1F
100
AcDbEntity
  8
0
  6
Continuous
 62
     7
370
    15
100
AcDbLine
 10
57.8332127403
 20
140.7599841711
 30
0.0
 11
57.5825696407
 21
140.8286544249
 31
0.0
  0
LINE
  5
2BC
330
1F
100
AcDbEntity
  8
0
  6
Continuous
 62
     7
370
    15
100
AcDbLine
 10
64.8674570205
 20
129.6091786027
 30
0.0
 11
66.3099093824
 21
139.2333218146
 31
0.0
  0
LINE
  5
2BD
330
1F
100
AcDbEntity
  8
0
  6
Continuous
 62
     7
370
    15
100
AcDbLine
 10
66.5780660935
 20
139.2220385282
 30
0.0
 11
65.1356137316
 21
129.5978953163
 31
0.0
  0
ARC
  5
2BE
330
1F
100
AcDbEntity
  8
0
  6
Continuous
 62
     7
370
    15
100
AcDbCircle
 10
63.773549572
 20
139.8919346299
 30
0.0
 40
2.620475515690253
100
AcDbArc
 50
345.4435746887
 51
9.4989311382
  0
ARC
  5
2BF
330
1F
100
AcDbEntity
  8
0
  6
Continuous
 62
     7
370
    15
100
AcDbCircle
 10
64.4994504901
 20
139.7143304629
 30
0.0
 40
2.136116611007496
100
AcDbArc
 50
346.6757757005
 51
7.1680830091
  0
ARC
  5
2C0
330
1F
100
AcDbEntity
  8
0
  6
Continuous
 62
     7
370
    15
100
AcDbCircle
 10
60.82915361
 20
130.0850430556
 30
0.0
 40
4.066244140907333
100
AcDbArc
 50
340.9079612228
 51
353.2793886748
  0
LINE
  5
2C1
330
1F
100
AcDbEntity
  8
0
  6
Continuous
 62
     7
370
    15
100
AcDbLine
 10
64.6870792985
 20
128.7528721004
 30
0.0
 11
64.9811870936
 21
128.9770177438
 31
0.0
  0
ARC
  5
2C2
330
1F
100
AcDbEntity
  8
0
  6
Continuous
 62
     7
370
    15
100
AcDbCircle
 10
63.2693715903
 20
129.73242945
 30
0.0
 40
1.871085022905555
100
AcDbArc
 50
336.1884816747
 51
355.8767799399
  0
LWPOLYLINE
  5
2C3
330
1F
100
AcDbEntity
  8
0
  6
Continuous
 62
     7
370
    15
100
AcDbPolyline
 90
       27
 70
   128
 43
0.0
 10
55.032773681
 20
124.6254916663
 10
55.1770207273
 20
125.3649187915
 10
55.3229876358
 20
125.9897001347
 10
55.4621913406
 20
126.463525675
 10
55.5865418282
 20
126.7588583944
 10
55.6888123004
 20
126.8585346288
 10
55.7630591689
 20
126.7567615576
 10
55.8049674758
 20
126.459453862
 10
55.8121016624
 20
125.9838899844
 10
55.7840471159
 20
125.3577079688
 10
55.7224342645
 20
124.6172992379
 10
55.6308438231
 20
123.8056936559
 10
55.5145986954
 20
122.9700587891
 10
55.3804546255
 20
122.1589586986
 10
55.2362075793
 20
121.4195315733
 10
55.0902406707
 20
120.7947502302
 10
54.9510369659
 20
120.3209246899
 10
54.8266864783
 20
120.0255919705
 10
54.7244160062
 20
119.9259157361
 10
54.6501691376
 20
120.0276888072
 10
54.6082608308
 20
120.3249965029
 10
54.6011266441
 20
120.8005603805
 10
54.6291811906
 20
121.4267423961
 10
54.6907940421
 20
122.167151127
 10
54.7823844834
 20
122.978756709
 10
54.8986296112
 20
123.8143915758
 10
55.032773681
 20
124.6254916663
  0
LWPOLYLINE
  5
2C4
330
1F
100
AcDbEntity
  8
0
  6
Continuous
 62
     7
370
    15
100
AcDbPolyline
 90
       21
 70
   128
 43
0.0
 10
55.1072767406
 20
124.0969488875
 10
55.21484531
 20
124.634492235
 10
55.3216081565
 20
125.0504338281
 10
55.4171145888
 20
125.3040584055
 10
55.4920157717
 20
125.3705394264
 10
55.5389798558
 20
125.2433692655
 10
55.5534096691
 20
124.934996224
 10
55.5338927211
 20
124.4756060039
 10
55.4823394666
 20
123.9101669206
 10
55.4037962974
 20
123.2940280912
 10
55.305951566
 20
122.6875014774
 10
55.1983829965
 20
122.1499581298
 10
55.09162015
 20
121.7340165368
 10
54.9961137178
 20
121.4803919594
 10
54.9212125348
 20
121.4139109384
 10
54.8742484508
 20
121.5410810994
 10
54.8598186374
 20
121.8494541408
 10
54.8793355854
 20
122.308844361
 10
54.9308888399
 20
122.8742834443
 10
55.0094320092
 20
123.4904222736
 10
55.1072767406
 20
124.0969488875
  0
LINE
  5
2C5
330
1F
100
AcDbEntity
  8
0
  6
Continuous
 62
     7
370
    15
100
AcDbLine
 10
55.5461779515
 20
124.6843699965
 30
0.0
 11
55.5399176253
 21
124.685249828
 31
0.0
  0
LINE
  5
2C6
330
1F
100
AcDbEntity
  8
0
  6
Continuous
 62
     7
370
    15
100
AcDbLine
 10
55.3694234908
 20
123.0656205418
 30
0.0
 11
55.2520804835
 21
123.082112026
 31
0.0
  0
LINE
  5
2C7
330
1F
100
AcDbEntity
  8
0
  6
Continuous
 62
     7
370
    15
100
AcDbLine
 10
79.6076389377
 20
120.2646790446
 30
0.0
 11
56.5275020194
 21
123.5083807521
 31
0.0
  0
LINE
  5
2C8
330
1F
100
AcDbEntity
  8
0
  6
Continuous
 62
     7
370
    15
100
AcDbLine
 10
57.3906796378
 20
129.2675622931
 30
0.0
 11
56.5275020194
 21
123.5083807521
 31
0.0
  0
LINE
  5
2C9
330
1F
100
AcDbEntity
  8
0
  6
Continuous
 62
     7
370
    15
100
AcDbLine
 10
57.3906796378
 20
129.2675622931
 30
0.0
 11
62.0194430381
 21
128.6170320212
 31
0.0
  0
LINE
  5
2CA
330
1F
100
AcDbEntity
  8
0
  6
Continuous
 62
     7
370
    15
100
AcDbLine
 10
62.0194430381
 20
128.6170320212
 30
0.0
 11
62.0944145746
 21
129.1172473648
 31
0.0
  0
LINE
  5
2CB
330
1F
100
AcDbEntity
  8
0
  6
Continuous
 62
     7
370
    15
100
AcDbLine
 10
62.0944145746
 20
129.1172473648
 30
0.0
 11
64.9898538079
 21
128.7103199181
 31
0.0
  0
LINE
  5
2CC
330
1F
100
AcDbEntity
  8
0
  6
Continuous
 62
     7
370
    15
100
AcDbLine
 10
64.9898538079
 20
128.7103199181
 30
0.0
 11
65.0668225589
 21
129.2238608171
 31
0.0
  0
SPLINE
  5
2CD
330
1F
100
AcDbEntity
  8
0
  6
Continuous
 62
     7
370
    15
100
AcDbSpline
210
0.0
220
0.0
230
1.0
 70
     8
 71
     3
 72
    32
 73
    28
 74
     0
 42
0.00000001
 43
0.00000001
 40
0.0
 40
0.0
 40
0.0
 40
0.0
 40
0.0312474136160692
 40
0.0624348133780272
 40
0.093575600064716
 40
0.12468323469602
 40
0.1557712213561228
 40
0.1868530897384766
 40
0.2179423775243426
 40
0.2490526127092774
 40
0.2801972959927337
 40
0.3113898833449684
 40
0.3426437688628032
 40
0.3739722680214337
 40
0.4053886014236281
 40
0.4369058791404393
 40
0.4685370857290996
 40
0.5002950660043886
 40
0.556631590305908
 40
0.6125908392574604
 40
0.6682459394280543
 40
0.7236712212559984
 40
0.7789419423960943
 40
0.834133992764934
 40
0.8893235868150614
 40
0.944586949161649
 40
1.0
 40
1.0
 40
1.0
 40
1.0
 10
79.60763893117499
 20
129.3679012826296
 30
0.0
 10
79.50965278991723
 20
129.5101310559977
 30
0.0
 10
79.31386869980886
 20
129.7943174359058
 30
0.0
 10
79.00926660732502
 20
130.212345856795
 30
0.0
 10
78.6970783111512
 20
130.6237142640709
 30
0.0
 10
78.37649807836367
 20
131.0278714150383
 30
0.0
 10
78.04774155298216
 20
131.4249643954544
 30
0.0
 10
77.71075124706186
 20
131.8149535450054
 30
0.0
 10
77.36554279180748
 20
132.1978491982112
 30
0.0
 10
77.0121122611081
 20
132.5736483226626
 30
0.0
 10
76.6504609891453
 20
132.9423514916186
 30
0.0
 10
76.28058892124714
 20
133.3039583355532
 30
0.0
 10
75.90249637699267
 20
133.6584687697115
 30
0.0
 10
75.51618363863868
 20
134.0058826425291
 30
0.0
 10
75.12165081694017
 20
134.3461999182246
 30
0.0
 10
74.71889878991722
 20
134.6794203005207
 30
0.0
 10
74.30792555012074
 20
135.0055445625725
 30
0.0
 10
73.781227368939
 20
135.4063929900693
 30
0.0
 10
73.1341643028997
 20
135.8710122218241
 30
0.0
 10
72.3605207597513
 20
136.3850839115946
 30
0.0
 10
71.57270030501816
 20
136.8678956109724
 30
0.0
 10
70.77071518256285
 20
137.3194537033521
 30
0.0
 10
69.95454943125443
 20
137.7396993721713
 30
0.0
 10
69.12427603178803
 20
138.1288389671095
 30
0.0
 10
68.27964397605916
 20
138.4860875765789
 30
0.0
 10
67.42161314457836
 20
138.8143675804086
 30
0.0
 10
66.8393312053255
 20
139.0062610789091
 30
0.0
 10
66.54779647110749
 20
139.1023375949612
 30
0.0
  0
LINE
  5
2CE
330
1F
100
AcDbEntity
  8
0
  6
Continuous
 62
     7
370
    15
100
AcDbLine
 10
79.6076389377
 20
120.2646790446
 30
0.0
 11
79.6076389377
 21
129.3679012827
 31
0.0
  0
SPLINE
  5
2CF
330
1F
100
AcDbEntity
  8
0
  6
Continuous
 62
     7
370
    15
100
AcDbSpline
210
0.0
220
0.0
230
1.0
 70
     8
 71
     3
 72
    29
 73
    25
 74
     0
 42
0.00000001
 43
0.00000001
 40
0.0
 40
0.0
 40
0.0
 40
0.0
 40
0.0300663511351763
 40
0.0610012572818664
 40
0.0928040741203817
 40
0.1254741279467664
 40
0.1590107161716904
 40
0.193413107756134
 40
0.2286805435932736
 40
0.2648122368443756
 40
0.3018073732352165
 40
0.339665111318489
 40
0.3783845827068105
 40
0.4179648922802007
 40
0.4584051183713857
 40
0.4997043129316828
 40
0.5623455781955354
 40
0.6249572496736696
 40
0.6875392235670305
 40
0.7500913961292167
 40
0.8126136636668433
 40
0.8751059225398276
 40
0.9375680691617165
 40
1.0
 40
1.0
 40
1.0
 40
1.0
 10
66.5755480491411
 20
139.8704053602023
 30
0.0
 10
66.73131813837769
 20
139.8205272481642
 30
0.0
 10
67.04735819417355
 20
139.7193301480741
 30
0.0
 10
67.52418112053508
 20
139.5536763034145
 30
0.0
 10
68.01105239598208
 20
139.374364700812
 30
0.0
 10
68.50719035204322
 20
139.1798170032111
 30
0.0
 10
69.01213040388629
 20
138.9695503221619
 30
0.0
 10
69.52526727476275
 20
138.7427728267665
 30
0.0
 10
70.04598070275073
 20
138.4987783770123
 30
0.0
 10
70.57359843015925
 20
138.2368394902277
 30
0.0
 10
71.10740465339491
 20
137.9562402843937
 30
0.0
 10
71.64663575247992
 20
137.6562707051398
 30
0.0
 10
72.19048027256014
 20
137.3362315279896
 30
0.0
 10
72.73807550455386
 20
136.9954373223638
 30
0.0
 10
73.28851419022791
 20
136.6332172935007
 30
0.0
 10
73.93212653600646
 20
136.1853927663286
 30
0.0
 10
74.6572581819814
 20
135.6446318495985
 30
0.0
 10
75.45020011441738
 20
135.0029260901486
 30
0.0
 10
76.21670949037748
 20
134.330701964808
 30
0.0
 10
76.95555306628368
 20
133.6290104295991
 30
0.0
 10
77.66581463331445
 20
132.8991397877467
 30
0.0
 10
78.34561650081682
 20
132.1416867677233
 30
0.0
 10
78.99688624241779
 20
131.3600350807314
 30
0.0
 10
79.40412091265398
 20
130.8181252342051
 30
0.0
 10
79.60768898637025
 20
130.5472358634125
 30
0.0
  0
SPLINE
  5
2D0
330
1F
100
AcDbEntity
  8
0
  6
Continuous
 62
     7
370
    15
100
AcDbSpline
210
0.0
220
0.0
230
1.0
 70
    24
 71
     3
 72
     9
 73
     5
 74
     0
 42
0.00000001
 43
0.00000001
 40
0.0
 40
0.0
 40
0.0
 40
0.0
 40
0.5055530393333091
 40
1.0
 40
1.0
 40
1.0
 40
1.0
 10
79.6076389377324
 20
130.5503162957646
 30
0.0
 10
79.6076389377324
 20
130.3518256356094
 30
0.0
 10
79.60763893773242
 20
129.9592047932602
 30
0.0
 10
79.6076389377324
 20
129.5622920324313
 30
0.0
 10
79.6076389377324
 20
129.3660397241895
 30
0.0
  0
ARC
  5
2D1
330
1F
100
AcDbEntity
  8
0
  6
Continuous
 62
     7
370
    15
100
AcDbCircle
 10
75.5205442263
 20
127.9870824133
 30
0.0
 40
19.68749907881519
100
AcDbArc
 50
167.7259889551
 51
175.2260940843
  0
LWPOLYLINE
  5
2D2
330
1F
100
AcDbEntity
  8
0
  6
Continuous
 62
     7
370
    15
100
AcDbPolyline
 90
        3
 70
   128
 43
0.0
 10
55.8893917068
 20
128.4733440106
 10
55.8973830481
 20
128.4413453713
 10
55.9661655436
 20
128.3798866982
  0
LINE
  5
2D3
330
1F
100
AcDbEntity
  8
0
  6
Continuous
 62
     7
370
    15
100
AcDbLine
 10
56.5275020194
 20
123.5083807521
 30
0.0
 11
50.6673870303
 21
96.3724200415
 31
0.0
  0
ARC
  5
2D4
330
1F
100
AcDbEntity
  8
0
  6
Continuous
 62
     7
370
    15
100
AcDbCircle
 10
59.1076389377
 20
115.0542868577
 30
0.0
 40
20.49999999999995
100
AcDbArc
 50
244.5828853812
 51
245.6870964211
  0
SPLINE
  5
2D5
330
1F
100
AcDbEntity
  8
0
  6
Continuous
 62
     7
370
    15
100
AcDbSpline
210
0.0
220
0.0
230
1.0
 70
     8
 71
     3
 72
     8
 73
     4
 74
     0
 42
0.00000001
 43
0.00000001
 40
0.0
 40
0.0
 40
0.0
 40
0.0
 40
1.0
 40
1.0
 40
1.0
 40
1.0
 10
50.30893753776201
 20
96.53854075675507
 30
0.0
 10
50.31667453845375
 20
96.71960610542486
 30
0.0
 10
50.32445614659535
 20
96.90084645160555
 30
0.0
 10
50.33228594358784
 20
97.082275845333
 30
0.0
  0
ARC
  5
2D6
330
1F
100
AcDbEntity
  8
0
  6
Continuous
 62
     7
370
    15
100
AcDbCircle
 10
59.1076389377
 20
115.0542868577
 30
0.0
 40
19.99999999999996
100
AcDbArc
 50
243.0543608099
 51
243.974721251
  0
ARC
  5
2D7
330
1F
100
AcDbEntity
  8
0
  6
Continuous
 62
     7
370
    15
100
AcDbCircle
 10
59.1076389377
 20
115.0542868577
 30
0.0
 40
19.99999999999996
100
AcDbArc
 50
100.025278749
 51
100.9456391901
  0
SPLINE
  5
2D8
330
1F
100
AcDbEntity
  8
0
  6
Continuous
 62
     7
370
    15
100
AcDbSpline
210
0.0
220
0.0
230
1.0
 70
     8
 71
     3
 72
     8
 73
     4
 74
     0
 42
0.00000001
 43
0.00000001
 40
0.0
 40
0.0
 40
0.0
 40
0.0
 40
1.0
 40
1.0
 40
1.0
 40
1.0
 10
55.62598583028218
 20
134.7489077385104
 30
0.0
 10
55.95300783961775
 20
136.1080354190825
 30
0.0
 10
56.27969631659146
 20
137.4559228979425
 30
0.0
 10
56.60619455942569
 20
138.7973993944073
 30
0.0
  0
LINE
  5
2D9
330
1F
100
AcDbEntity
  8
0
  6
Continuous
 62
     7
370
    15
100
AcDbLine
 10
57.3861092395
 20
139.5320143673
 30
0.0
 11
56.6061945594
 21
138.7973993944
 31
0.0
  0
LWPOLYLINE
  5
2DA
330
1F
100
AcDbEntity
  8
0
  6
Continuous
 62
     7
370
    15
100
AcDbPolyline
 90
       17
 70
   128
 43
0.0
 10
56.1356080469
 20
127.3009738953
 10
56.2137842412
 20
127.1887130053
 10
56.260125473
 20
126.8834566413
 10
56.2723079994
 20
126.400511632
 10
56.2497209377
 20
125.7640948567
 10
56.1934968976
 20
125.0061189099
 10
56.106455187
 20
124.1645918707
 10
55.9929604409
 20
123.2817114188
 10
55.8587037597
 20
122.4017488666
 10
55.7104173341
 20
121.5688292108
 10
55.5555368646
 20
120.8247185209
 10
55.4018287047
 20
120.2067296142
 10
55.2570004233
 20
119.7458510348
 10
55.1283143152
 20
119.4651931593
 10
55.0222232393
 20
119.3788293453
 10
54.944047045
 20
119.4910902352
 10
54.9134311508
 20
119.6430172942
  0
LWPOLYLINE
  5
2DB
330
1F
100
AcDbEntity
  8
0
  6
Continuous
 62
     7
370
    15
100
AcDbPolyline
 90
        3
 70
   128
 43
0.0
 10
55.9582103118
 20
127.0770073031
 10
56.029516971
 20
127.2146100813
 10
56.1356080469
 20
127.3009738953
  0
LINE
  5
2DC
330
1F
100
AcDbEntity
  8
0
  6
Continuous
 62
     7
370
    15
100
AcDbLine
 10
55.9661655436
 20
128.3798866982
 30
0.0
 11
57.3906796378
 21
129.2675622931
 31
0.0
  0
LINE
  5
2DD
330
1F
100
AcDbEntity
  8
0
  6
Continuous
 62
     7
370
    15
100
AcDbLine
 10
62.0944145746
 20
129.1172473648
 30
0.0
 11
61.9451023713
 21
129.0242045515
 31
0.0
  0
LINE
  5
2DE
330
1F
100
AcDbEntity
  8
0
  6
Continuous
 62
     7
370
    15
100
AcDbLine
 10
79.6076389377
 20
115.0542868577
 30
0.0
 11
79.6076389377
 21
120.2646790446
 31
0.0
  0
ARC
  5
2DF
330
1F
100
AcDbEntity
  8
0
  6
Continuous
 62
     7
370
    15
100
AcDbCircle
 10
59.1076389377
 20
115.0542868577
 30
0.0
 40
20.50000000000004
100
AcDbArc
 50
245.6870964211
 51
0.0
  0
SPLINE
  5
2E0
330
1F
100
AcDbEntity
  8
0
  6
Continuous
 62
     7
370
    15
100
AcDbSpline
210
0.0
220
0.0
230
1.0
 70
     8
 71
     3
 72
    18
 73
    14
 74
     0
 42
0.00000001
 43
0.00000001
 40
0.0
 40
0.0
 40
0.0
 40
0.0
 40
0.2499999999999986
 40
0.2499999999999986
 40
0.4999999999999978
 40
0.4999999999999978
 40
0.6249999999999983
 40
0.6249999999999983
 40
0.7499999999999988
 40
0.7499999999999988
 40
0.8749999999999993
 40
0.8749999999999993
 40
1.0
 40
1.0
 40
1.0
 40
1.0
 10
49.10957298036157
 20
122.2889471411567
 30
0.0
 10
49.34028155016342
 20
122.5119205646137
 30
0.0
 10
49.53654434196756
 20
122.761218473961
 30
0.0
 10
49.8628152795882
 20
123.3141064395291
 30
0.0
 10
49.9888008213814
 20
123.6110371010023
 30
0.0
 10
50.09447614943874
 20
124.0878079500458
 30
0.0
 10
50.11452907387635
 20
124.2485212580569
 30
0.0
 10
50.1176298399845
 20
124.5710268191762
 30
0.0
 10
50.09985444422891
 20
124.7344992468212
 30
0.0
 10
50.02282994565722
 20
125.0429528908495
 30
0.0
 10
49.96271603610696
 20
125.1924367863056
 30
0.0
 10
49.80249593244381
 20
125.4671660377555
 30
0.0
 10
49.70444844947463
 20
125.5904960737528
 30
0.0
 10
49.58911651851847
 20
125.7010767131238
 30
0.0
  0
SPLINE
  5
2E1
330
1F
100
AcDbEntity
  8
0
  6
Continuous
 62
     7
370
    15
100
AcDbSpline
210
0.0
220
0.0
230
1.0
 70
     8
 71
     3
 72
    14
 73
    10
 74
     0
 42
0.00000001
 43
0.00000001
 40
0.0
 40
0.0
 40
0.0
 40
0.0
 40
0.25
 40
0.25
 40
0.5
 40
0.5
 40
0.75
 40
0.75
 40
1.0
 40
1.0
 40
1.0
 40
1.0
 10
55.31008761394251
 20
134.6904423862818
 30
0.0
 10
55.24050580243058
 20
134.6769855515142
 30
0.0
 10
55.06950520896401
 20
134.6443326846614
 30
0.0
 10
54.52960252913155
 20
134.5252396375562
 30
0.0
 10
54.17464011330034
 20
134.4415596355902
 30
0.0
 10
53.31121927271131
 20
134.2011493221648
 30
0.0
 10
52.82299495078797
 20
134.0496116255325
 30
0.0
 10
51.76082220154522
 20
133.6645903727681
 30
0.0
 10
51.20535325695645
 20
133.4375510771084
 30
0.0
 10
50.63921951032901
 20
133.1729477464381
 30
0.0
  0
SPLINE
  5
2E2
330
1F
100
AcDbEntity
  8
0
  6
Continuous
 62
     7
370
    15
100
AcDbSpline
210
0.0
220
0.0
230
1.0
 70
     8
 71
     3
 72
    20
 73
    16
 74
     0
 42
0.00000001
 43
0.00000001
 40
0.0
 40
0.0
 40
0.0
 40
0.0
 40
0.2499999999999975
 40
0.2499999999999975
 40
0.3749999999999979
 40
0.3749999999999979
 40
0.4999999999999983
 40
0.4999999999999983
 40
0.6249999999999988
 40
0.6249999999999988
 40
0.7499999999999991
 40
0.7499999999999991
 40
0.8749999999999996
 40
0.8749999999999996
 40
1.0
 40
1.0
 40
1.0
 40
1.0
 10
45.97309193870966
 20
99.97172490255237
 30
0.0
 10
46.44455582046788
 20
99.5611537720166
 30
0.0
 10
46.9127472726604
 20
99.19233801370375
 30
0.0
 10
47.59628989210472
 20
98.69677958693417
 30
0.0
 10
47.82066355668093
 20
98.54160082828727
 30
0.0
 10
48.24397953399471
 20
98.26007602426061
 30
0.0
 10
48.44504176128106
 20
98.13216562218297
 30
0.0
 10
48.82283627147872
 20
97.89992881745168
 30
0.0
 10
49.00112756694371
 20
97.79473963315274
 30
0.0
 10
49.31889773578364
 20
97.61255276485439
 30
0.0
 10
49.45890390087693
 20
97.53513546825604
 30
0.0
 10
49.69970877546297
 20
97.40465220766933
 30
0.0
 10
49.8010432700837
 20
97.35131864676701
 30
0.0
 10
49.95781595633174
 20
97.2697838900195
 30
0.0
 10
50.01311753035675
 20
97.24162454200676
 30
0.0
 10
50.04474032350047
 20
97.2255496980291
 30
0.0
  0
ELLIPSE
  5
2E3
330
1F
100
AcDbEntity
  8
0
  6
Continuous
 62
     7
370
    15
100
AcDbEllipse
 10
47.6833041947
 20
123.7715294971
 30
0.0
 11
1.944517034299835
 21
1.891116789252777
 31
0.0
210
0.0
220
0.0
230
1.0
 40
0.7584394521
 41
0.0265118118144917
 42
4.708266296278835
  0
ARC
  5
2E4
330
1F
100
AcDbEntity
  8
0
  6
Continuous
 62
     7
370
    15
100
AcDbCircle
 10
59.1076389377
 20
115.0542868577
 30
0.0
 40
20.00000000000004
100
AcDbArc
 50
115.0507569084
 51
228.9492430916
  0
SPLINE
  5
2E5
330
1F
100
AcDbEntity
  8
0
  6
Continuous
 62
     7
370
    15
100
AcDbSpline
210
0.0
220
0.0
230
1.0
 70
    24
 71
     3
 72
    10
 73
     6
 74
     0
 42
0.00000001
 43
0.00000001
 40
0.0
 40
0.0
 40
0.0
 40
0.0
 40
0.5
 40
0.5
 40
1.0
 40
1.0
 40
1.0
 40
1.0
 10
50.10763893773277
 20
85.49400945709374
 30
0.0
 10
50.10763893773277
 20
85.33412218890007
 30
0.0
 10
50.10763893773277
 20
85.17299493338548
 30
0.0
 10
50.10763893773277
 20
84.93889593503064
 30
0.0
 10
50.10763893773277
 20
84.86736916143941
 30
0.0
 10
50.10763893773277
 20
84.86736916143941
 30
0.0
  0
ARC
  5
2E6
330
1F
100
AcDbEntity
  8
0
  6
Continuous
 62
     7
370
    15
100
AcDbCircle
 10
59.1076389377
 20
115.0542868577
 30
0.0
 40
31.50000000000002
100
AcDbArc
 50
140.9381656697
 51
253.398450401
  0
SPLINE
  5
2E7
330
1F
100
AcDbEntity
  8
0
  6
Continuous
 62
     7
370
    15
100
AcDbSpline
210
0.0
220
0.0
230
1.0
 70
    24
 71
     3
 72
    12
 73
     8
 74
     0
 42
0.00000001
 43
0.00000001
 40
0.0
 40
0.0
 40
0.0
 40
0.0
 40
0.2500000000000013
 40
0.2500000000000013
 40
0.5000000000000027
 40
0.5000000000000027
 40
1.0
 40
1.0
 40
1.0
 40
1.0
 10
34.64894927536517
 20
134.9042868576866
 30
0.0
 10
34.64894927536516
 20
134.9042868576866
 30
0.0
 10
34.67677899566865
 20
134.9042868576866
 30
0.0
 10
34.77192145692531
 20
134.9042868576866
 30
0.0
 10
34.83834427322567
 20
134.9042868576866
 30
0.0
 10
35.06254370474579
 20
134.9042868576866
 30
0.0
 10
35.2465301072914
 20
134.9042868576866
 30
0.0
 10
35.42668667647438
 20
134.9042868576866
 30
0.0
  0
SPLINE
  5
2E8
330
1F
100
AcDbEntity
  8
0
  6
Continuous
 62
     7
370
    15
100
AcDbSpline
210
0.0
220
0.0
230
1.0
 70
    24
 71
     3
 72
    10
 73
     6
 74
     0
 42
0.00000001
 43
0.00000001
 40
0.0
 40
0.0
 40
0.0
 40
0.0
 40
0.5
 40
0.5
 40
1.0
 40
1.0
 40
1.0
 40
1.0
 10
51.10763893773278
 20
144.9007271814505
 30
0.0
 10
51.10763893773278
 20
145.0611324478013
 30
0.0
 10
51.10763893773278
 20
145.2201942607899
 30
0.0
 10
51.10763893773278
 20
145.4511067264202
 30
0.0
 10
51.10763893773278
 20
145.5214823308508
 30
0.0
 10
51.10763893773278
 20
145.5214823308508
 30
0.0
  0
SPLINE
  5
2E9
330
1F
100
AcDbEntity
  8
0
  6
Continuous
 62
     7
370
    15
100
AcDbSpline
210
0.0
220
0.0
230
1.0
 70
    24
 71
     3
 72
    12
 73
     8
 74
     0
 42
0.00000001
 43
0.00000001
 40
0.0
 40
0.0
 40
0.0
 40
0.0
 40
0.2500000000000033
 40
0.2500000000000033
 40
0.5000000000000067
 40
0.5000000000000067
 40
1.0
 40
1.0
 40
1.0
 40
1.0
 10
39.25763893773275
 20
139.512976520054
 30
0.0
 10
39.25763893773275
 20
139.512976520054
 30
0.0
 10
39.25763893773275
 20
139.4847568214661
 30
0.0
 10
39.25763893773275
 20
139.390313814218
 30
0.0
 10
39.25763893773275
 20
139.3240268375127
 30
0.0
 10
39.25763893773275
 20
139.0984020142243
 30
0.0
 10
39.25763893773275
 20
138.9159757511918
 30
0.0
 10
39.25763893773275
 20
138.7352391189449
 30
0.0
  0
ARC
  5
2EA
330
1F
100
AcDbEntity
  8
0
  6
Continuous
 62
     7
370
    15
100
AcDbCircle
 10
59.1076389377
 20
115.0542868577
 30
0.0
 40
31.50000000000001
100
AcDbArc
 50
104.7124579609
 51
129.0618343303
  0
SPLINE
  5
2EB
330
1F
100
AcDbEntity
  8
0
  6
Continuous
 62
     7
370
    15
100
AcDbSpline
210
0.0
220
0.0
230
1.0
 70
    24
 71
     3
 72
    12
 73
     8
 74
     0
 42
0.00000001
 43
0.00000001
 40
0.0
 40
0.0
 40
0.0
 40
0.0
 40
0.2500000000000039
 40
0.2500000000000039
 40
0.5000000000000078
 40
0.5000000000000078
 40
1.0
 40
1.0
 40
1.0
 40
1.0
 10
67.10763893773277
 20
145.5214823308508
 30
0.0
 10
67.10763893773277
 20
145.5214823308508
 30
0.0
 10
67.10763893773277
 20
145.50447958089
 30
0.0
 10
67.10763893773277
 20
145.4404190397784
 30
0.0
 10
67.10763893773277
 20
145.3932604241398
 30
0.0
 10
67.10763893773277
 20
145.2200383914475
 30
0.0
 10
67.10763893773277
 20
145.0599293012133
 30
0.0
 10
67.10763893773277
 20
144.9007271814499
 30
0.0
  0
ARC
  5
2EC
330
1F
100
AcDbEntity
  8
0
  6
Continuous
 62
     7
370
    15
100
AcDbCircle
 10
59.1076389377
 20
115.0542868577
 30
0.0
 40
31.49999999999999
100
AcDbArc
 50
286.601549599
 51
75.2875420391
  0
SPLINE
  5
2ED
330
1F
100
AcDbEntity
  8
0
  6
Continuous
 62
     7
370
    15
100
AcDbSpline
210
0.0
220
0.0
230
1.0
 70
    24
 71
     3
 72
    12
 73
     8
 74
     0
 42
0.00000001
 43
0.00000001
 40
0.0
 40
0.0
 40
0.0
 40
0.0
 40
0.2500000000000019
 40
0.2500000000000019
 40
0.5000000000000039
 40
0.5000000000000039
 40
1.0
 40
1.0
 40
1.0
 40
1.0
 10
68.10763893773279
 20
84.86736916143941
 30
0.0
 10
68.10763893773279
 20
84.86736916143941
 30
0.0
 10
68.10763893773279
 20
84.88448624770527
 30
0.0
 10
68.10763893773279
 20
84.94922235918035
 30
0.0
 10
68.10763893773279
 20
84.9966796020607
 30
0.0
 10
68.10763893773279
 20
85.17350404460018
 30
0.0
 10
68.10763893773279
 20
85.33378055180587
 30
0.0
 10
68.10763893773279
 20
85.49400945709365
 30
0.0
  0
LINE
  5
2EE
330
1F
100
AcDbEntity
  8
0
  6
Continuous
 62
     7
370
    15
100
AcDbLine
 10
67.1076389377
 20
141.4542868577
 30
0.0
 11
63.3343283645
 21
141.4542868577
 31
0.0
  0
LINE
  5
2EF
330
1F
100
AcDbEntity
  8
0
  6
Continuous
 62
     7
370
    15
100
AcDbLine
 10
58.1004024799
 20
141.4542868577
 30
0.0
 11
51.1076389377
 21
141.4542868577
 31
0.0
  0
LINE
  5
2F0
330
1F
100
AcDbEntity
  8
0
  6
Continuous
 62
     7
370
    15
100
AcDbLine
 10
68.1076389377
 20
88.6542868577
 30
0.0
 11
50.1076389377
 21
88.6542868577
 31
0.0
  0
LINE
  5
2F1
330
1F
100
AcDbEntity
  8
0
  6
Continuous
 62
     7
370
    15
100
AcDbLine
 10
67.1076389377
 20
144.9007271815
 30
0.0
 11
67.1076389377
 21
141.4542868577
 31
0.0
  0
LINE
  5
2F2
330
1F
100
AcDbEntity
  8
0
  6
Continuous
 62
     7
370
    15
100
AcDbLine
 10
68.1076389377
 20
85.4940094571
 30
0.0
 11
68.1076389377
 21
88.6542868577
 31
0.0
  0
LINE
  5
2F3
330
1F
100
AcDbEntity
  8
0
  6
Continuous
 62
     7
370
    15
100
AcDbLine
 10
51.1076389377
 20
141.4542868577
 30
0.0
 11
51.1076389377
 21
144.9007271815
 31
0.0
  0
LINE
  5
2F4
330
1F
100
AcDbEntity
  8
0
  6
Continuous
 62
     7
370
    15
100
AcDbLine
 10
50.1076389377
 20
88.6542868577
 30
0.0
 11
50.1076389377
 21
85.4940094571
 31
0.0
  0
LINE
  5
2F5
330
1F
100
AcDbEntity
  8
0
  6
Continuous
 62
     7
370
    15
100
AcDbLine
 10
39.2576389377
 20
138.7352391189
 30
0.0
 11
39.2576389377
 21
134.9042868577
 31
0.0
  0
LINE
  5
2F6
330
1F
100
AcDbEntity
  8
0
  6
Continuous
 62
     7
370
    15
100
AcDbLine
 10
35.4266866765
 20
134.9042868577
 30
0.0
 11
39.2576389377
 21
134.9042868577
 31
0.0
  0
SPLINE
  5
2F7
330
1F
100
AcDbEntity
  8
0
  6
Continuous
 62
     7
370
    15
100
AcDbSpline
210
0.0
220
0.0
230
1.0
 70
     8
 71
     3
 72
    30
 73
    26
 74
     0
 42
0.00000001
 43
0.00000001
 40
0.0
 40
0.0
 40
0.0
 40
0.0
 40
0.1250000000000003
 40
0.1250000000000003
 40
0.1875000000000005
 40
0.1875000000000005
 40
0.2500000000000007
 40
0.2500000000000007
 40
0.375000000000001
 40
0.375000000000001
 40
0.4375000000000011
 40
0.4375000000000011
 40
0.5000000000000011
 40
0.5000000000000011
 40
0.6250000000000012
 40
0.6250000000000012
 40
0.687500000000001
 40
0.687500000000001
 40
0.7500000000000009
 40
0.7500000000000009
 40
0.8125000000000007
 40
0.8125000000000007
 40
0.8750000000000006
 40
0.8750000000000006
 40
1.0
 40
1.0
 40
1.0
 40
1.0
 10
60.10763893773286
 20
83.57016387482422
 30
0.0
 10
60.63905686813345
 20
83.58704279283283
 30
0.0
 10
61.16071606570762
 20
83.61706035765754
 30
0.0
 10
61.92935785286665
 20
83.67987074693065
 30
0.0
 10
62.18324765203167
 20
83.70377465415754
 30
0.0
 10
62.68632042797775
 20
83.75720994659994
 30
0.0
 10
62.93578427619438
 20
83.78681681476749
 30
0.0
 10
63.66069517379126
 20
83.88126651348193
 30
0.0
 10
64.11857251068344
 20
83.95229390731114
 30
0.0
 10
64.76833973616627
 20
84.06630819401691
 30
0.0
 10
64.97972643957645
 20
84.10576344515749
 30
0.0
 10
65.3843602503466
 20
84.18528488792815
 30
0.0
 10
65.57710072184781
 20
84.22522103042893
 30
0.0
 10
66.12753159822475
 20
84.34415743325708
 30
0.0
 10
66.45771497550537
 20
84.42232219714094
 30
0.0
 10
66.8963907921558
 20
84.53203163740982
 30
0.0
 10
67.03218935064234
 20
84.56711247411822
 30
0.0
 10
67.2790663834885
 20
84.63235275349784
 30
0.0
 10
67.3908449208165
 20
84.6626875695426
 30
0.0
 10
67.59127511069012
 20
84.71802594876443
 30
0.0
 10
67.67992745389361
 20
84.74303062532451
 30
0.0
 10
67.83359500157472
 20
84.78691043421522
 30
0.0
 10
67.89884270582655
 20
84.8058541189775
 30
0.0
 10
68.05514775919083
 20
84.8515738462477
 30
0.0
 10
68.10763893773283
 20
84.86736916143944
 30
0.0
 10
68.10763893773284
 20
84.86736916143943
 30
0.0
  0
SPLINE
  5
2F8
330
1F
100
AcDbEntity
  8
0
  6
Continuous
 62
     7
370
    15
100
AcDbSpline
210
0.0
220
0.0
230
1.0
 70
     8
 71
     3
 72
    28
 73
    24
 74
     0
 42
0.00000001
 43
0.00000001
 40
0.0
 40
0.0
 40
0.0
 40
0.0
 40
0.1250000000000003
 40
0.1250000000000003
 40
0.1875000000000002
 40
0.1875000000000002
 40
0.2500000000000002
 40
0.2500000000000002
 40
0.3750000000000004
 40
0.3750000000000004
 40
0.4375000000000003
 40
0.4375000000000003
 40
0.5000000000000004
 40
0.5000000000000004
 40
0.6250000000000003
 40
0.6250000000000003
 40
0.7500000000000003
 40
0.7500000000000003
 40
0.8125000000000002
 40
0.8125000000000002
 40
0.8750000000000001
 40
0.8750000000000001
 40
1.0
 40
1.0
 40
1.0
 40
1.0
 10
50.10763893773282
 20
84.86736916143943
 30
0.0
 10
50.10763893773283
 20
84.86736916143943
 30
0.0
 10
50.16011528005105
 20
84.85158444748919
 30
0.0
 10
50.31391222760795
 20
84.80658903341298
 30
0.0
 10
50.37778720264196
 20
84.78803403833727
 30
0.0
 10
50.53128347129849
 20
84.74418131589078
 30
0.0
 10
50.62109844669219
 20
84.71883670893858
 30
0.0
 10
50.92307724174305
 20
84.63543463118846
 30
0.0
 10
51.16903067579881
 20
84.56956907203737
 30
0.0
 10
51.60439785522719
 20
84.4605987315456
 30
0.0
 10
51.76161303739954
 20
84.42235909577894
 30
0.0
 10
52.09377765794199
 20
84.34460035835959
 30
0.0
 10
52.26858492354488
 20
84.30509939618423
 30
0.0
 10
52.81864411413071
 20
84.18619165381824
 30
0.0
 10
53.21926749852618
 20
84.10637397239363
 30
0.0
 10
54.09185360987489
 20
83.95303081059755
 30
0.0
 10
54.55198905747646
 20
83.88169705732831
 30
0.0
 10
55.27195515144264
 20
83.7877535502537
 30
0.0
 10
55.51722886147717
 20
83.75855975689375
 30
0.0
 10
56.018685197906
 20
83.70509318263034
 30
0.0
 10
56.27611656727852
 20
83.68073384835517
 30
0.0
 10
57.05205636314302
 20
83.61714370291043
 30
0.0
 10
57.57628476304904
 20
83.5870407678212
 30
0.0
 10
58.10763893773286
 20
83.5701638748243
 30
0.0
  0
SPLINE
  5
2F9
330
1F
100
AcDbEntity
  8
0
  6
Continuous
 62
     7
370
    15
100
AcDbSpline
210
0.0
220
0.0
230
1.0
 70
     8
 71
     3
 72
    50
 73
    46
 74
     0
 42
0.00000001
 43
0.00000001
 40
0.0
 40
0.0
 40
0.0
 40
0.0
 40
0.0625000000000001
 40
0.0625000000000001
 40
0.09375
 40
0.09375
 40
0.1249999999999999
 40
0.1249999999999999
 40
0.1874999999999998
 40
0.1874999999999998
 40
0.2187499999999997
 40
0.2187499999999997
 40
0.2499999999999996
 40
0.2499999999999996
 40
0.3124999999999995
 40
0.3124999999999995
 40
0.3749999999999994
 40
0.3749999999999994
 40
0.4062499999999994
 40
0.4062499999999994
 40
0.4374999999999994
 40
0.4374999999999994
 40
0.4999999999999993
 40
0.4999999999999993
 40
0.5624999999999993
 40
0.5624999999999993
 40
0.6249999999999992
 40
0.6249999999999992
 40
0.6562499999999993
 40
0.6562499999999993
 40
0.6874999999999993
 40
0.6874999999999993
 40
0.7187499999999993
 40
0.7187499999999993
 40
0.7499999999999993
 40
0.7499999999999993
 40
0.8124999999999996
 40
0.8124999999999996
 40
0.8749999999999998
 40
0.8749999999999998
 40
0.9374999999999999
 40
0.9374999999999999
 40
0.96875
 40
0.96875
 40
1.0
 40
1.0
 40
1.0
 40
1.0
 10
51.10763893773282
 20
145.5214823308508
 30
0.0
 10
51.10763893773282
 20
145.5214823308508
 30
0.0
 10
51.15993307968589
 20
145.535348434232
 30
0.0
 10
51.31328561451865
 20
145.574785577116
 30
0.0
 10
51.37698310986986
 20
145.5910382793811
 30
0.0
 10
51.53007476015969
 20
145.6293869892314
 30
0.0
 10
51.61973086212051
 20
145.6515404356394
 30
0.0
 10
51.92131225029456
 20
145.7242963815015
 30
0.0
 10
52.16705368072854
 20
145.7815770843462
 30
0.0
 10
52.6022137470792
 20
145.875569523802
 30
0.0
 10
52.75935457454038
 20
145.9084284909952
 30
0.0
 10
53.09199366726469
 20
145.9750045444434
 30
0.0
 10
53.26705962270472
 20
146.0086479822823
 30
0.0
 10
53.81791515340633
 20
146.1092088468595
 30
0.0
 10
54.21909956259299
 20
146.1757716566095
 30
0.0
 10
55.09258876868038
 20
146.3004707119091
 30
0.0
 10
55.55462936166282
 20
146.3569937209797
 30
0.0
 10
56.27574477525673
 20
146.4276626555945
 30
0.0
 10
56.52130541294012
 20
146.448938865666
 30
0.0
 10
57.02309371209831
 20
146.4862445919079
 30
0.0
 10
57.28085492841497
 20
146.502335788768
 30
0.0
 10
58.05596739263474
 20
146.5409772603756
 30
0.0
 10
58.57639657635443
 20
146.554166678932
 30
0.0
 10
59.6245324171398
 20
146.5544054023901
 30
0.0
 10
60.15704074751356
 20
146.541005399686
 30
0.0
 10
61.18473100968016
 20
146.4899414114908
 30
0.0
 10
61.68449519026189
 20
146.4525022767366
 30
0.0
 10
62.41299019028235
 20
146.3813387938181
 30
0.0
 10
62.65234118272785
 20
146.3550703356256
 30
0.0
 10
63.11357965421471
 20
146.2993888628734
 30
0.0
 10
63.33684630928197
 20
146.2698510909375
 30
0.0
 10
63.76903391530404
 20
146.2082439459097
 30
0.0
 10
63.97795449554403
 20
146.1761730031886
 30
0.0
 10
64.38137942106772
 20
146.1103560262192
 30
0.0
 10
64.57685908103709
 20
146.076425807756
 30
0.0
 10
65.13271729457333
 20
145.9749971801757
 30
0.0
 10
65.46227468120489
 20
145.9080781514856
 30
0.0
 10
66.04167017899083
 20
145.7830525891438
 30
0.0
 10
66.29319015043521
 20
145.7244757949098
 30
0.0
 10
66.69464464704878
 20
145.6276409432648
 30
0.0
 10
66.84712764259588
 20
145.5888859837056
 30
0.0
 10
67.00243859177111
 20
145.5489584532693
 30
0.0
 10
67.04195203917726
 20
145.5386666620188
 30
0.0
 10
67.09446538647305
 20
145.5249504494799
 30
0.0
 10
67.10763893773283
 20
145.5214823308508
 30
0.0
 10
67.10763893773283
 20
145.5214823308508
 30
0.0
  0
SPLINE
  5
2FA
330
1F
100
AcDbEntity
  8
0
  6
Continuous
 62
     7
370
    15
100
AcDbSpline
210
0.0
220
0.0
230
1.0
 70
     8
 71
     3
 72
    20
 73
    16
 74
     0
 42
0.00000001
 43
0.00000001
 40
0.0
 40
0.0
 40
0.0
 40
0.0
 40
0.2499999999999997
 40
0.2499999999999997
 40
0.3749999999999997
 40
0.3749999999999997
 40
0.4999999999999998
 40
0.4999999999999998
 40
0.6249999999999998
 40
0.6249999999999998
 40
0.7499999999999999
 40
0.7499999999999999
 40
0.8749999999999999
 40
0.8749999999999999
 40
1.0
 40
1.0
 40
1.0
 40
1.0
 10
34.64894927536541
 20
134.9042868576866
 30
0.0
 10
35.17960604320008
 20
135.558149285984
 30
0.0
 10
35.71333403946164
 20
136.1619350679811
 30
0.0
 10
36.49630635745039
 20
136.9887738041497
 30
0.0
 10
36.75428995754706
 20
137.2512024421026
 30
0.0
 10
37.25868521395488
 20
137.7478650962076
 30
0.0
 10
37.50146363638287
 20
137.9784519752291
 30
0.0
 10
37.95214371589595
 20
138.3950061998117
 30
0.0
 10
38.16160758188721
 20
138.5825040017792
 30
0.0
 10
38.53989609847525
 20
138.9139009794156
 30
0.0
 10
38.70364378465973
 20
139.0534049669109
 30
0.0
 10
38.97182958685917
 20
139.2788584743819
 30
0.0
 10
39.07705399494592
 20
139.3654845859255
 30
0.0
 10
39.22111322025944
 20
139.4834653747796
 30
0.0
 10
39.25763893773281
 20
139.512976520054
 30
0.0
 10
39.25763893773281
 20
139.512976520054
 30
0.0
  0
ARC
  5
2FB
330
1F
100
AcDbEntity
  8
0
  6
Continuous
 62
     7
370
    15
100
AcDbCircle
 10
59.1076389377
 20
115.0542868577
 30
0.0
 40
31.50000000000001
100
AcDbArc
 50
268.180780706
 51
271.819219294
  0
CIRCLE
  5
2FC
330
1F
100
AcDbEntity
  8
VERMASSUNG
  6
CENTERX2
100
AcDbCircle
 10
59.1076389377
 20
117.0271744122
 30
0.0
 40
25.00000000000001
  0
DIMENSION
  5
2FD
330
1F
100
AcDbEntity
  8
VERMASSUNG
100
AcDbDimension
  2
*D6
 10
23.482664222
 20
142.0271744122
 30
0.0
 11
23.482664222
 21
117.0271744122
 31
0.0
 70
   160
  1
%%c<>
 71
     2
 42
-1.0
  3
SLDDIMSTYLE2
100
AcDbAlignedDimension
 13
59.1076389377
 23
92.0271744122
 33
0.0
 14
59.1076389377
 24
142.0271744122
 34
0.0
 50
90.0
100
AcDbRotatedDimension
  0
INSERT
  5
314
330
1F
100
AcDbEntity
  8
VERMASSUNG
100
AcDbBlockReference
  2
SW_CENTERMARKSYMBOL_0
 10
59.1076389377
 20
115.0542868577
 30
0.0
  0
OLE2FRAME
  5
315
330
1F
100
AcDbEntity
  8
0
100
AcDbOle2Frame
 70
     2
  3
Bitmap Image
 10
13.8511154363
 20
38.264191557
 30
0.0
 11
51.6290888628
 21
31.9806341108
 31
0.0
 71
     2
 72
     0
 73
     1
 90
    12928
310
80552BED0767C5B32B40DDAF6807D121434000000000000000006FFBDDFB85D0
310
4940DDAF6807D121434000000000000000006FFBDDFB85D04940416F4BD60AFB
310
3F4000000000000000002BED0767C5B32B40416F4BD60AFB3F40000000000000
310
0000000000000100000000010000010000000100000000000100000000320000
310
D0CF11E0A1B11AE1000000000000000000000000000000003E000300FEFF0900
310
0600000000000000000000000100000001000000000000000010000002000000
310
01000000FEFFFFFF0000000000000000FFFFFFFFFFFFFFFFFFFFFFFFFFFFFFFF
310
FFFFFFFFFFFFFFFFFFFFFFFFFFFFFFFFFFFFFFFFFFFFFFFFFFFFFFFFFFFFFFFF
310
FFFFFFFFFFFFFFFFFFFFFFFFFFFFFFFFFFFFFFFFFFFFFFFFFFFFFFFFFFFFFFFF
310
FFFFFFFFFFFFFFFFFFFFFFFFFFFFFFFFFFFFFFFFFFFFFFFFFFFFFFFFFFFFFFFF
310
FFFFFFFFFFFFFFFFFFFFFFFFFFFFFFFFFFFFFFFFFFFFFFFFFFFFFFFFFFFFFFFF
310
FFFFFFFFFFFFFFFFFFFFFFFFFFFFFFFFFFFFFFFFFFFFFFFFFFFFFFFFFFFFFFFF
310
FFFFFFFFFFFFFFFFFFFFFFFFFFFFFFFFFFFFFFFFFFFFFFFFFFFFFFFFFFFFFFFF
310
FFFFFFFFFFFFFFFFFFFFFFFFFFFFFFFFFFFFFFFFFFFFFFFFFFFFFFFFFFFFFFFF
310
FFFFFFFFFFFFFFFFFFFFFFFFFFFFFFFFFFFFFFFFFFFFFFFFFFFFFFFFFFFFFFFF
310
FFFFFFFFFFFFFFFFFFFFFFFFFFFFFFFFFFFFFFFFFFFFFFFFFFFFFFFFFFFFFFFF
310
FFFFFFFFFFFFFFFFFFFFFFFFFFFFFFFFFFFFFFFFFFFFFFFFFFFFFFFFFFFFFFFF
310
FFFFFFFFFFFFFFFFFFFFFFFFFFFFFFFFFFFFFFFFFFFFFFFFFFFFFFFFFFFFFFFF
310
FFFFFFFFFFFFFFFFFFFFFFFFFFFFFFFFFFFFFFFFFFFFFFFFFFFFFFFFFFFFFFFF
310
FFFFFFFFFFFFFFFFFFFFFFFFFFFFFFFFFFFFFFFFFFFFFFFFFFFFFFFFFFFFFFFF
310
FDFFFFFFFEFFFFFFFEFFFFFFFEFFFFFF05000000060000000700000008000000
310
090000000A0000000B0000000C0000000D0000000E0000000F00000010000000
310
11000000120000001300000014000000150000001600000017000000FEFFFFFF
310
FFFFFFFFFFFFFFFFFFFFFFFFFFFFFFFFFFFFFFFFFFFFFFFFFFFFFFFFFFFFFFFF
310
FFFFFFFFFFFFFFFFFFFFFFFFFFFFFFFFFFFFFFFFFFFFFFFFFFFFFFFFFFFFFFFF
310
FFFFFFFFFFFFFFFFFFFFFFFFFFFFFFFFFFFFFFFFFFFFFFFFFFFFFFFFFFFFFFFF
310
FFFFFFFFFFFFFFFFFFFFFFFFFFFFFFFFFFFFFFFFFFFFFFFFFFFFFFFFFFFFFFFF
310
FFFFFFFFFFFFFFFFFFFFFFFFFFFFFFFFFFFFFFFFFFFFFFFFFFFFFFFFFFFFFFFF
310
FFFFFFFFFFFFFFFFFFFFFFFFFFFFFFFFFFFFFFFFFFFFFFFFFFFFFFFFFFFFFFFF
310
FFFFFFFFFFFFFFFFFFFFFFFFFFFFFFFFFFFFFFFFFFFFFFFFFFFFFFFFFFFFFFFF
310
FFFFFFFFFFFFFFFFFFFFFFFFFFFFFFFFFFFFFFFFFFFFFFFFFFFFFFFFFFFFFFFF
310
FFFFFFFFFFFFFFFFFFFFFFFFFFFFFFFFFFFFFFFFFFFFFFFFFFFFFFFFFFFFFFFF
310
FFFFFFFFFFFFFFFFFFFFFFFFFFFFFFFFFFFFFFFFFFFFFFFFFFFFFFFFFFFFFFFF
310
FFFFFFFFFFFFFFFFFFFFFFFFFFFFFFFFFFFFFFFFFFFFFFFFFFFFFFFFFFFFFFFF
310
FFFFFFFFFFFFFFFFFFFFFFFFFFFFFFFFFFFFFFFFFFFFFFFFFFFFFFFFFFFFFFFF
310
FFFFFFFFFFFFFFFFFFFFFFFFFFFFFFFFFFFFFFFFFFFFFFFFFFFFFFFFFFFFFFFF
310
52006F006F007400200045006E00740072007900000000000000000000000000
310
0000000000000000000000000000000000000000000000000000000000000000
310
16000500FFFFFFFFFFFFFFFF020000000A00030000000000C000000000000046
310
000000000000000000000000603ACBF0B2D8CB0103000000C000000000000000
310
01004F006C006500000000000000000000000000000000000000000000000000
310
0000000000000000000000000000000000000000000000000000000000000000
310
0A000200FFFFFFFFFFFFFFFFFFFFFFFF00000000000000000000000000000000
310
0000000000000000000000000000000000000000000000001400000000000000
310
010043006F006D0070004F0062006A0000000000000000000000000000000000
310
0000000000000000000000000000000000000000000000000000000000000000
310
120002010100000003000000FFFFFFFF00000000000000000000000000000000
310
0000000000000000000000000000000000000000010000004D00000000000000
310
01004F006C006500310030004E00610074006900760065000000000000000000
310
0000000000000000000000000000000000000000000000000000000000000000
310
1A000200FFFFFFFFFFFFFFFFFFFFFFFF00000000000000000000000000000000
310
0000000000000000000000000000000000000000040000002426000000000000
310
FEFFFFFF02000000FEFFFFFFFFFFFFFFFFFFFFFFFFFFFFFFFFFFFFFFFFFFFFFF
310
FFFFFFFFFFFFFFFFFFFFFFFFFFFFFFFFFFFFFFFFFFFFFFFFFFFFFFFFFFFFFFFF
310
FFFFFFFFFFFFFFFFFFFFFFFFFFFFFFFFFFFFFFFFFFFFFFFFFFFFFFFFFFFFFFFF
310
FFFFFFFFFFFFFFFFFFFFFFFFFFFFFFFFFFFFFFFFFFFFFFFFFFFFFFFFFFFFFFFF
310
FFFFFFFFFFFFFFFFFFFFFFFFFFFFFFFFFFFFFFFFFFFFFFFFFFFFFFFFFFFFFFFF
310
FFFFFFFFFFFFFFFFFFFFFFFFFFFFFFFFFFFFFFFFFFFFFFFFFFFFFFFFFFFFFFFF
310
FFFFFFFFFFFFFFFFFFFFFFFFFFFFFFFFFFFFFFFFFFFFFFFFFFFFFFFFFFFFFFFF
310
FFFFFFFFFFFFFFFFFFFFFFFFFFFFFFFFFFFFFFFFFFFFFFFFFFFFFFFFFFFFFFFF
310
FFFFFFFFFFFFFFFFFFFFFFFFFFFFFFFFFFFFFFFFFFFFFFFFFFFFFFFFFFFFFFFF
310
FFFFFFFFFFFFFFFFFFFFFFFFFFFFFFFFFFFFFFFFFFFFFFFFFFFFFFFFFFFFFFFF
310
FFFFFFFFFFFFFFFFFFFFFFFFFFFFFFFFFFFFFFFFFFFFFFFFFFFFFFFFFFFFFFFF
310
FFFFFFFFFFFFFFFFFFFFFFFFFFFFFFFFFFFFFFFFFFFFFFFFFFFFFFFFFFFFFFFF
310
FFFFFFFFFFFFFFFFFFFFFFFFFFFFFFFFFFFFFFFFFFFFFFFFFFFFFFFFFFFFFFFF
310
FFFFFFFFFFFFFFFFFFFFFFFFFFFFFFFFFFFFFFFFFFFFFFFFFFFFFFFFFFFFFFFF
310
FFFFFFFFFFFFFFFFFFFFFFFFFFFFFFFFFFFFFFFFFFFFFFFFFFFFFFFFFFFFFFFF
310
FFFFFFFFFFFFFFFFFFFFFFFFFFFFFFFFFFFFFFFFFFFFFFFFFFFFFFFFFFFFFFFF
310
010000020000000000000000000000000000000061007200650064005C003100
310
30002E0030005C0044004C004C005300680061007200650064005C003B004300
310
0100FEFF030A0000FFFFFFFF0A00030000000000C00000000000004607000000
310
5042727573680007000000504272757368000700000050427275736800F439B2
310
71000000000000000000000000004100540049002E004100430045005C004300
310
6F00720065002D005300740061007400690063003B0043003A005C0050007200
310
6F006700720061006D002000460069006C006500730020002800780038003600
310
29005C0043006F006D006D006F006E002000460069006C00650073005C004100
310
750074006F006400650073006B0020005300680061007200650064005C003B00
310
43003A005C00500072006F006700720061006D002000460069006C0065007300
310
5C004E006F0072006D0061006E005C004E0070006D005C00420069006E000000
310
43003A005C00500072006F006700720061006D002000460069006C0065007300
310
5C0053006F006C006900640057006F0072006B007300200043006F0072007000
310
5C0053006F006C006900640057006F0072006B00730020002800320029005C00
310
730065007400750070005C0069003300380036005C0073007700610063007400
310
770069007A002E006500780065000000220043003A005C00500072006F006700
310
20260000424D0E260000000000003E00000028000000B40200006E0000000100
310
01000000000000000000130B0000130B00000200000002000000000000FFFFFF
310
FFFFFFFFFFFFFFFFFFFFFFFFFFFFFFFFFFFFFFFFFFFFFFFFFFFFFFFFFFFFFFFF
310
FFFFFFFFFFFFFFFFFFFFFFFFFFFFFFFFFFFFFFFFFFFFFFFFFFFFFFFFFFFFFFFF
310
FFFFFFFFFFFFFFFFFFFFFFFFFFFFFFFFFFFFFFFFFFFFFFFFF000FFFFFFFFFFFF
310
FFFFFFFFFFFFFFFFFFFFFFFFFFFFFFFFFFFFFFFFFFFFFFFFFFFFFFFFFFFFFFFF
310
FFFFFFFFFFFFFFFFFFFFFFFFFFFFFFFFFFFFFFFFFFFFFFFFFFFFFFFFFFFFFFFF
310
FFFFFFFFFFFFFFFFFFFFFFFFFFFFFFFFF000FFFFFFFFFFFFFFFFFFFFFFFFFFFF
310
FFFFFFFFFFFFFFFFFFFFFFFFFFFFFFFFFFFFFFFFFFFFFFFFFFFFFFFFFFFFFFFF
310
FFFFFFFFFFFFFFFFFFFFFFFFFFFFFFFFFFFFFFFFFFFFFFFFFFFFFFFFFFFFFFFF
310
FFFFFFFFFFFFFFFFF000FFFFFFFFFFFFFFFFFFFFFFFFFFFFFFFFFFFFFFFFFFFF
310
FFFFFFFFFFFFFFFFFFFFFFFFFFFFFFFFFFFFFFFFFFFFFFFFFFFFFFFFFFFFFFFF
310
FFFFFFFFFFFFFFFFFFFFFFFFFFFFFFFFFFFFFFFFFFFFFFFFFFFFFFFFFFFFFFFF
310
F000FFFFFFFFFFFFFFFFFFFFFFFFFFFFFFFFFFFFFFFFFFFFFFFFFFFFFFFFFFFF
310
FFFFFFFFFFFFFFFFFFFFFFFFFFFFFFFFFFFFFFFFFFFFFFFFFFFFFFFFFFFFFFFF
310
FFFFFFFFFFFFFFFFFFFFFFFFFFFFFFFFFFFFFFFFFFFFFFFFF000FFFFFFFFFFFF
310
FFFFFFFFFFFFFFFFFFFFFFFFFFFFFFFFFFFFFFFFFFFFFFFFFFFFFFFFFFFFFFFF
310
FFFFFFFFFFFFFFFFFFFFFFFFFFFFFFFFFFFFFFFFFFFFFFFFFFFFFFFFFFFFFFFF
310
FFFFFFFFFFFFFFFFFFFFFFFFFFFFFFFFF000FFFFFFFFFFFFFFFFFFFFFFFFFFFF
310
FFFFFFFFFFFFFFFFFFFFFFFFFFFFFFFFFFFFFFFFFFFFFFFFFFFFFFFFFFFFFFFF
310
FFFFFFFFFFFFFFFFFFFFFFFFFFFFFFFFFFFFFFFFFFFFFFFFFFFFFFFFFFFFFFFF
310
FFFFFFFFFFFFFFFFF000FFFFFFFFFFFFFFFFFFFFFFFFFFFFFFFFFFFFFFFFFFFF
310
FFFFFFFFFFFFFFFFFFFFFFFFFFFFFFFFFFFFFFFFFFFFFFFFFFFFFFFFFFFFFFFF
310
FFFFFFFFFFFFFFFFFFFFFFFFFFFFFFFFFFFFFFFFFFFFFFFFFFFFFFFFFFFFFFFF
310
F000FFFFFFFFFFFFFFFFFFFFFFFFFFFFFFFFFFFFFFFFFFFFFFFFFFFFFFFFFFFF
310
FFFFFFFFFFFFFFFFFFFFFFFFFFFFFFFFFFFFFFFFFFFFFFFFFFFFFFFFFFFFFFFF
310
FFFFFFFFFFFFFFFFFFFFFFFFFFFFFFFFFFFFFFFFFFFFFFFFF000FFFFFFFFFFFF
310
FFFFFFFFFFFFFFFFFFFFFFFFFFFFFFFFFFFFFFFFFFFFFFFFFFFFFFFFFFFFFFFF
310
FFFFFFFFFFFFFFFFFFFFFFFFFFFFFFFFFFFFFFFFFFFFFFFFFFFFFFFFFFFFFFFF
310
FFFFFFFFFFFFFFFFFFFFFFFFFFFFFFFFF000FFFFFFFFFFFFFFFFFFFFFFFFFFFF
310
FFFFFFFFFFFFFFFFFFFFFFFFFFFFFFFFFFFFFFFFFFFFFFFFFFFFFFFFFFFFFFFF
310
FFFFFFFFFFFFFFFFFFFFFFFFFFFFFFFFFFFFFFFFFFFFFFFFFFFFFFFFFFFFFFFF
310
FFFFFFFFFFFFFFFFF000FFFFFFFFFFFFFFFFFFFFFFFFFFFFFFFFFFFFFFFFFFFF
310
FFFFFFFFFFFFFFFFFFFFFFFFFFFFFFFFFFFFFFFFFFFFFFFFFFFFFFFFFFFFFFFF
310
FFFFFFFFFFFFFFFFFFFFFFFFFFFFFFFFFFFFFFFFFFFFFFFFFFFFFFFFFFFFFFFF
310
F000FFFFFFFFFFFFFFFFFFFFFFFFFFFFFFFFFFFFFFFFFFFFFFFFFFFFFFFFFFFF
310
FFFFFFFFFFFFFFFFFFFFFFFFFFFFFFFFFFFFFFFFFFFFFFFFFFFFFFFFFFFFFFFF
310
FFFFFFFFFFFFFFFFFFFFFFFFFFFFFFFFFFFFFFFFFFFFFFFFF000FFFFFFFFFFFF
310
FFFFFFFFFFFFFFFFFFFFFFFFFFFFFFFFFFFFFFFFFFFFFFFFFFFFFFFFFFFFFFFF
310
FFFFFFFFFFFFFFFFFFFFFFFFFFFFFFFFFFFFFFFFFFFFFFFFFFFFFFFFFFFFFFFF
310
FFFFFFFFFFFFFFFFFFFFFFFFFFFFFFFFF000FFFFFFFFFFFFFFFFFFFFFFFFFFFF
310
FFFFFFFFFFFFFFFFFFFFFFFFFFFFFFFFFFFFFFFFFFFFFFFFFFFFFFFFFFFFFFFF
310
FFFFFFFFFFFFFFFFFFFFFFFFFFFFFFFFFFFFFFFFFFFFFFFFFFFFFFFFFFFFFFFF
310
FFFFFFFFFFFFFFFFF000FFFFFFFFFFFFFFFFFFFFFFFFFFFFFFFFFFFFFFFFFFFF
310
FFFFFFFFFFFFFFFFFFFFFFFFFFFFFFFFFFFFFFFFFFFFFFFFFFFFFFFFFFFFFFFF
310
FFFFFFFFFFFFFFFFFFFFFFFFFFFFFFFFFFFFFFFFFFFFFFFFFFFFFFFFFFFFFFFF
310
F000FFFFFFFFFFFFFFFFFFFFFFFFFFFFFFFFFFFFFFFFFFFFFFFFFFFFFFFFFFFF
310
FFFFFFFFFFFFFFFFFFFFFFFFFFFFFFFFFFFFFFFFFFFFFFFFFFFFFFFFFFFFFFFF
310
FFFFFFFFFFFFFFFFFFFFFFFFFFFFFFFFFFFFFFFFFFFFFFFFF000FFFFFFFFFFFF
310
FFFFFFFFFFFFFFFFFFFFFFFFFFFFFFFFFFFFFFFFFFFFFFFFFFFFFFFFFFFFFFFF
310
FFFFFFFFFFFFFFFFFFFFFFFFFFFFFFFFFFFFFFFFFFFFFFFFFFFFFFFFFFFFFFFF
310
FFFFFFFFFFFFFFFFFFFFFFFFFFFFFFFFF000FFFFFFFFFFFFFFFFFFFFFFFFFFFF
310
FFFFFFFFFFFFFFFFFFFFFFFFFFFFFFFFFFFFFFFFFFFFFFFFFFFFFFFFFFFFFFFF
310
FFFFFFFFFFFFFFFFFFFFFFFFFFFFFFFFFFFFFFFFFFFFFFFFFFFFFFFFFFFFFFFF
310
FFFFFFFFFFFFFFFFF000FFFFF80003FFFFFFFFFFFFFFFFFFFFFFFFFFFFFFFFFF
310
FFFFF00007FFFFFFFFFF00007FFFFFF800000000000000007FFFFFFFFFFFFFFF
310
FFFFFFFC001FFFFFFFFFFFFFFC001FFFFFFFFFFFFFFFFFFFFFFFFFFE0007FFFF
310
F000FFFF8000007FFFFFFFF8000FFFFFC0007FFFFF80007FFFFF0000007FFFFF
310
FFF8000007FFFFF800000000000000007FFFFFF0001FFFFFFFFFFFC00001FFFF
310
FFFFFFFFC00001FFFFFFFF000000000003FFFFE000007FFFF000FFFE0000000F
310
FFFFFFF0000FFFFF80007FFFFF80007FFFFC0000001FFFFFFFC0000001FFFFF8
310
00000000000000007FFFFFF0001FFFFFFFFFFE0000003FFFFFFFFFFE0000003F
310
FFFFFF000000000003FFFF0000000FFFF000FFF800000003FFFFFFF00007FFFF
310
80007FFFFF80007FFFF000000007FFFFFF000000003FFFF80000000000000000
310
7FFFFFF0001FFFFFFFFFF80000000FFFFFFFFFF80000000FFFFFFF0000000000
310
03FFFC00000003FFF000FFE000000000FFFFFFF00007FFFF80003FFFFF80007F
310
FFC000000001FFFFFC000000001FFFF800000000000000007FFFFFF0001FFFFF
310
FFFFE000000003FFFFFFFFE000000003FFFFFF000000000003FFF000000000FF
310
F000FF80000000007FFFFFF00007FFFF80003FFFFF80007FFF8000000000FFFF
310
F80000000007FFF800000000000000007FFFFFF0001FFFFFFFFFC000000001FF
310
FFFFFFC000000001FFFFFF000000000003FFC0000000007FF000FF0000000000
310
3FFFFFE00007FFFF00003FFFFF80007FFE00000000003FFFF00000000003FFF8
310
00000000000000007FFFFFF0001FFFFFFFFF8000000000FFFFFFFF8000000000
310
FFFFFF000000000003FF80000000003FF000FE00000000001FFFFFE00003FFFF
310
00003FFFFF80007FFC00000000001FFFE00000000001FFF8000001FFFE000000
310
7FFFFFF0001FFFFFFFFE00000000003FFFFFFE00000000003FFFFF0000000000
310
03FF00000000001FF000FC00000000000FFFFFE00003FFFF00001FFFFF80007F
310
F800000000001FFFC00000000000FFF8000001FFFE0000007FFFFFF0001FFFFF
310
FFFC00000000001FFFFFFC00000000001FFFFF000000000003FE00000000000F
310
F000F8000000000007FFFFE00003FFFF00001FFFFF80007FF800000000000FFF
310
800000000000FFF8000001FFFE0000007FFFFFF0001FFFFFFFF800000000000F
310
FFFFF800000000000FFFFF000000000003FC000000000007F000F80000000000
310
03FFFFC00003FFFE00001FFFFF80007FF0000000000007FF0000000000007FF8
310
000001FFFE0000007FFFFFF0001FFFFFFFF0000000000007FFFFF00000000000
310
07FFFF000000000003F8000000000003F000F0000000000003FFFFC00001FFFE
310
00001FFFFF80007FE0000000000007FE0000000000003FF8000001FFFE000000
310
7FFFFFF0001FFFFFFFF0000000000007FFFFF0000000000007FFFF0000000000
310
03F800001F800003F000E00001FFF00001FFFFC00001FFFE00000FFFFF80007F
310
E00001FFE00003FE00001FFF00003FF8000001FFFE0000007FFFFFF0001FFFFF
310
FFE000003E000003FFFFE000003E000003FFFF000000000003F00001FFF80001
310
F000E00007FFFC0001FFFFC00001FFFE00000FFFFF80007FC0000FFFFC0003FC
310
0000FFFFC0001FF8000001FFFE0000007FFFFFF0001FFFFFFFC00003FFE00001
310
FFFFC00003FFE00001FFFF0001FFFFFFFFF00007FFFE0001F000E0000FFFFF00
310
00FFFF800001FFFC00000FFFFF80007FC0001FFFFE0001FC0001FFFFE0001FF8
310
000001FFFE0000007FFFFFF0001FFFFFFF80000FFFF80000FFFF80000FFFF800
310
00FFFF0003FFFFFFFFE0000FFFFF8000F000C0003FFFFF8000FFFF800000FFFC
310
000007FFFF80007F80003FFFFF0001FC0003FFFFF0001FF8000001FFFE000000
310
7FFFFFF0001FFFFFFF80003FFFFE0000FFFF80003FFFFE0000FFFF0003FFFFFF
310
FFE0003FFFFF8000F000C0003FFFFF8000FFFF800000FFFC000007FFFF80007F
310
80007FFFFF8001F80007FFFFF8000FF8000001FFFE0000007FFFFFF0001FFFFF
310
FF00007FFFFF00007FFF00007FFFFF00007FFF0003FFFFFFFFE0003FFFFFC000
310
F000C0007FFFFFC000FFFF000000FFFC000007FFFF80007F8000FFFFFF8000F8
310
000FFFFFF8000FF8000001FFFE0000007FFFFFF0001FFFFFFF0000FFFFFF8000
310
7FFF0000FFFFFF80007FFF0003FFFFFFFFC0007FFFFFC00070008000FFFFFFC0
310
00FFFF000000FFF8000007FFFF80007F8000FFFFFF8000F8000FFFFFF8000FF8
310
000001FFFE0000007FFFFFF0001FFFFFFE0001FFFFFFC0003FFE0001FFFFFFC0
310
003FFF0003FFFFFFFFC0007FFFFFE00070008000FFFFFFC0007FFF0000007FF8
310
000003FFFF80007F0001FFFFFF8000F8000FFFFFF8000FF8000001FFFE000000
310
7FFFFFF0001FFFFFFE0001FFFFFFC0003FFE0001FFFFFFC0003FFF0003FFFFFF
310
FFC000FFFFFFE00070008000FFFFFFC0007FFF0000007FF8000003FFFF80007F
310
0001FFFFFF8000F8001FFFFFF8000FF8000001FFFE0000007FFFFFF0001FFFFF
310
FE0003FFFFFFE0003FFE0003FFFFFFE0003FFF0003FFFFFFFFC000FFFFFFE000
310
70008000FFFFFFC0007FFE0000007FF8000003FFFF80007F0001FFFFFF8000F0
310
001FFFFFF8000FF8000001FFFE0000007FFFFFF0001FFFFFFC0003FFFFFFE000
310
1FFC0003FFFFFFE0001FFF0003FFFFFFFFC000FFFFFFC00070008000FFFFFF80
310
007FFE0000007FF0000003FFFF80007F0001FFFFFF0000F0001FFFFFF8000FF8
310
000001FFFE0000007FFFFFF0001FFFFFFC0007FFFFFFF0001FFC0007FFFFFFF0
310
001FFF0003FFFFFFFFC000FFFFFFC00070008001FFFFFF0000FFFE0000003FF0
310
000001FFFF80007F0001FFFFFF0000F8001FFFFFF0000FF8000001FFFE000000
310
7FFFFFF0001FFFFFFC0007FFFFFFF0001FFC0007FFFFFFF0001FFF0003FFFFFF
310
FFC001FFFFFF80007000FFFFFFFFFE0000FFFE0008003FF0008001FFFF80007F
310
FFFFFFFFFC0000FFFFFFFFFFE0000FF8000001FFFE0000007FFFFFF0001FFFFF
310
F8000FFFFFFFF8000FF8000FFFFFFFF8000FFF0003FFFFFFFFFFFFFFFFFF0000
310
7000FFFFFFFFFC0000FFFC0008003FF0008001FFFF80007FFFFFFFFFF80001FF
310
FFFFFFFF80000FF8000001FFFE0000007FFFFFF0001FFFFFF8000FFFFFFFF800
310
0FF8000FFFFFFFF8000FFF0003FFFFFFFFFFFFFFFFFE0000F000FFFFFFFFE000
310
00FFFC000C003FE000C001FFFF80007FFFFFFFFFC00001FFFFFFFFFE00001FF8
310
000001FFFE0000007FFFFFF0001FFFFFF8000FFFFFFFF8000FF8000FFFFFFFF8
310
000FFF0003FFFFFFFFFFFFFFFFF00000F000FFFFFFFE000001FFFC000C001FE0
310
00C000FFFF80007FFFFFFFFE000001FFFFFFFFE000001FF80FFFFFFFFFFFFFC0
310
7FFFFFF0001FFFFFF8000FFFFFFFF8000FF8000FFFFFFFF8000FFF0003FFFFFF
310
FFFFFFFFFF800000F000FFFFFFC0000001FFFC001C001FE001C000FFFF80007F
310
FFFFFF80000003FFFFFFF80000001FF80FFFFFFFFFFFFFC07FFFFFF0001FFFFF
310
F8001FFFFFFFFC000FF8001FFFFFFFFC000FFF0003FFFFFFFFFFFFFFF0000001
310
F000FFFFF800000001FFF8001C001FE001C000FFFF80007FFFFFF800000003FF
310
FFFF800000003FF80FFFFFFFFFFFFFC07FFFFFF0001FFFFFF8001FFFFFFFFC00
310
0FF8001FFFFFFFFC000FFF0003FFFFFFFFFFFFFE00000001F000FFFFC0000000
310
03FFF8001E001FC001E000FFFF80007FFFFF8000000007FFFFFC000000003FF8
310
0FFFFFFFFFFFFFC07FFFFFF0001FFFFFF8001FFFFFFFFC000FF8001FFFFFFFFC
310
000FFF0003FFFFFFFFFFFFE000000003F000FFFE0000000007FFF8001E000FC0
310
01E0007FFF80007FFFFE0000000007FFFFE0000000007FF80FFFFFFFFFFFFFC0
310
7FFFFFF0001FFFFFF0001FFFFFFFFC0007F0001FFFFFFFFC0007FF0003FFFFFF
310
FFFFFF0000000003F000FFF80000000007FFF8001E000FC003E0007FFF80007F
310
FFF0000000000FFFFF8000000000FFF80FFFFFFFFFFFFFC07FFFFFF0001FFFFF
310
F0001FFFFFFFFC0007F0001FFFFFFFFC0007FF0003FFFFFFFFFFFC0000000007
310
F000FFE0000000000FFFF0003E000FC003E0007FFF80007FFFC0000000001FFF
310
FE0000000001FFF80FFFFFFFFFFFFFC07FFFFFF0001FFFFFF0001FFFFFFFFC00
310
07F0001FFFFFFFFC0007FF0003FFFFFFFFFFF0000000000FF000FFC000000000
310
1FFFF0003F000F8003F0003FFF80007FFF80000000003FFFF80000000003FFF8
310
0FFFFFFFFFFFFFC07FFFFFF0001FFFFFF0001FFFFFFFFC0007F0001FFFFFFFFC
310
0007FF0003FFFFFFFFFFE0000000001FF000FF00000000007FFFF0003F000780
310
03F0003FFF80007FFF00000000007FFFF00000000007FFF80FFFFFFFFFFFFFC0
310
7FFFFFF0001FFFFFF0001FFFFFFFFC0007F0001FFFFFFFFC0007FF0003FFFFFF
310
FFFF80000000007FF000FE0000000000FFFFE0003F00078007F0003FFF80007F
310
FE0000000001FFFFE0000000001FFFF80FFFFFFFFFFFFFC07FFFFFF0001FFFFF
310
F0001FFFFFFFFC0007F0001FFFFFFFFC0007FF0003FFFFFFFFFF0000000000FF
310
F000FC0000000003FFFFE0007F00078007F0003FFF80007FFC0000000007FFFF
310
C0000000007FFFF80FFFFFFFFFFFFFC07FFFFFF0001FFFFFF8001FFFFFFFFC00
310
0FF8001FFFFFFFFC000FFF0003FFFFFFFFFE0000000003FFF000FC000000000F
310
FFFFE0007F80070007F8001FFF80007FF8000000001FFFFF8000000001FFFFF8
310
0FFFFFFFFFFFFFC07FFFFFF0001FFFFFF8001FFFFFFFFC000FF8001FFFFFFFFC
310
000FFF0003FFFFFFFFFC000000000FFFF000F8000000007FFFFFE0007F800700
310
07F8001FFF80007FF000000000FFFFFF800000000FFFFFF80FFFFFFFFFFFFFC0
310
7FFFFFF0001FFFFFF8000FFFFFFFF8000FF8000FFFFFFFF8000FFF0003FFFFFF
310
FFFC000000007FFFF000F800000007FFFFFFC0007F8003000FF8001FFF80007F
310
F000000007FFFFFF000000007FFFFFF80FFFFFFFFFFFFFC07FFFFFF0001FFFFF
310
F8000FFFFFFFF8000FF8000FFFFFFFF8000FFF0003FFFFFFFFF80000000FFFFF
310
F000F0000000FFFFFFFFC000FF8003000FF8001FFF80007FE0000000FFFFFFFF
310
0000000FFFFFFFF8000001FFFE0000007FFFFFF0001FFFFFF8000FFFFFFFF800
310
0FF8000FFFFFFFF8000FFF0003FFFFFFFFF8000000FFFFFFF000F000000FFFFF
310
FFFFC000FFC002000FF8000FFF80007FE000001FFFFFFFFE000001FFFFFFFFF8
310
000001FFFE0000007FFFFFF0001FFFFFF8000FFFFFFFF8000FF8000FFFFFFFF8
310
000FFF0003FFFFFFFFF000001FFFFFFFF000E00000FFFFFFFFFFC000FFC00200
310
0FFC000FFF80007FE00001FFFFFFFFFE00001FFFFFFFFFF8000001FFFE000000
310
7FFFFFF0001FFFFFFC000FFFFFFFF8001FFC000FFFFFFFF8001FFF0003FFFFFF
310
FFF00001FFFFFFFFF000E00007FFFFFFFFFF8000FFC000001FFC000FFF80007F
310
C0000FFFFFFFFFFE0000FFFFFFFFFFF8000001FFFE0000007FFFFFF0001FFFFF
310
FC0007FFFFFFF0001FFC0007FFFFFFF0001FFF0003FFFFFFFFF00007FFFFFFFF
310
F000E0001FFFFFFFFFFF8000FFC000001FFC000FFF80007FC0003FFFFFFFFFFE
310
0001FFFFFFFFFFF8000001FFFE0000007FFFFFF0001FFFFFFC0007FFFFFFF000
310
1FFC0007FFFFFFF0001FFF0003FFFFFFFFF0001FFFFFFFFFF000E0003FFFFF00
310
03FF8001FFE000001FFC0007FF80007FC0007FFFFF0007FC0003FFFFF0003FF8
310
000001FFFE0000007FFFFFF0001FFFFFFC0003FFFFFFE0001FFC0003FFFFFFE0
310
001FFF0003FFFFFFFFF0003FFFFFFFFFF000E0003FFFFF0001FF8001FFE00000
310
1FFE0007FF80007FC0007FFFFE0003FC0007FFFFE0003FF8000001FFFE000000
310
7FFFFFF0001FFFFFFE0003FFFFFFE0003FFE0003FFFFFFE0003FFF0003FFFFFF
310
FFF0003FFFFF8001F000E0003FFFFF0001FF0001FFE000001FFE0007FF80007F
310
C0007FFFFE0003FC0007FFFFE0003FF8000001FFFE0000007FFFFFF0001FFFFF
310
FE0001FFFFFFC0003FFE0001FFFFFFC0003FFF0003FFFFFFFFF0003FFFFF0001
310
F000E0003FFFFF0003FF0001FFE000003FFE0007FF80007FC0007FFFFE0003FC
310
0007FFFFE0003FF8000001FFFE0000007FFFFFF0001FFFFFFF0001FFFFFFC000
310
7FFF0001FFFFFFC0007FFF0003FFFFFFFFF0003FFFFF0001F000E0003FFFFE00
310
03FF0003FFF000003FFE0003FF80007FC0007FFFFC0003FE0007FFFFE0003FF8
310
000001FFFE0000007FFFFFF0001FFFFFFF0000FFFFFF80007FFF0000FFFFFF80
310
007FFF0003FFFFFFFFF0003FFFFF0001F000E0003FFFFE0003FF0003FFF00000
310
3FFF0003FF80007FC0007FFFFC0007FE0007FFFFC0003FF8000001FFFE000000
310
7FFFFFF0001FFFFFFF80007FFFFF0000FFFF80007FFFFF0000FFFF0003FFFFFF
310
FFF0003FFFFF0003F000E0003FFFFC0003FE0003FFF000003FFF0003FF80007F
310
E0003FFFF80007FE0003FFFFC0007FF8000001FFFE0000007FFFFFF0001FFFFF
310
FF80003FFFFE0000FFFF80003FFFFE0000FFFF0003FFFFFFFFF0001FFFFE0003
310
F000F0001FFFF80003FE0003FFF000007FFF0001FF80007FE0003FFFF00007FE
310
0001FFFF80007FF8000001FFFE0000007FFFFFF0001FFFFFFFC0000FFFF80001
310
FFFFC0000FFFF80001FFFF0003FFFFFFFFF0001FFFFC0003F000F0000FFFF000
310
07FE0007FFF800007FFF0001FF80007FE0001FFFE00007FF0000FFFE00007FF8
310
000001FFFE0000007FFFFFF0001FFFFFFFC00003FFE00001FFFFC00003FFE000
310
01FFFF0003FFFFFFFFF8000FFFF80003F000F00003FFC00007FC0007FFF80000
310
7FFF8001FF80007FF00007FF80000FFF00007FF80000FFF8000001FFFE000000
310
7F80000000000001FFE000003E000003FFFFE000003E000003FFFF0003FFFFFF
310
FFF80003FFE00007F000F800000000000FFC0007FFF800007FFF8001FF80007F
310
F000000000000FFF000000000000FFF8000001FFFE0000007F80000000000001
310
FFF0000000000007FFFFF0000000000007FFFF0003FFFFFFFFFC00007E000007
310
F000F800000000000FFC0007FFF80000FFFF8000FF80007FF800000000001FFF
310
800000000001FFF8000001FFFE0000007F80000000000001FFF800000000000F
310
FFFFF800000000000FFFFF0003FFFFFFFFFC00000000000FF000FC0000000000
310
1FFC0007FFFC0000FFFF8000FF80007FF800000000003FFFC00000000001FFF8
310
000001FFFE0000007F80000000000001FFF800000000000FFFFFF80000000000
310
0FFFFF0003FFFFFFFFFE00000000001FF000FE00000000003FF8000FFFFC0000
310
FFFF8000FF80007FFC00000000003FFFC00000000003FFF8000001FFFE000000
310
7F80000000000001FFFC00000000001FFFFFFC00000000001FFFFF0003FFFFFF
310
FFFF00000000001FF000FF00000000003FF8000FFFFC0000FFFFC000FF80007F
310
FE00000000007FFFE00000000007FFF8000001FFFE0000007F80000000000001
310
FFFE00000000003FFFFFFE00000000003FFFFF0003FFFFFFFFFF80000000003F
310
F000FF80000000007FF8000FFFFC0001FFFFC0007F80007FFF0000000000FFFF
310
F0000000000FFFF800000000000000007F80000000000001FFFF8000000000FF
310
FFFFFF8000000000FFFFFF0003FFFFFFFFFFC0000000007FF000FFC000000000
310
FFF8000FFFFE0001FFFFC0007F80007FFF8000000001FFFFF8000000001FFFF8
310
00000000000000007F80000000000001FFFFC000000001FFFFFFFFC000000001
310
FFFFFF0003FFFFFFFFFFE000000000FFF000FFE000000003FFF0001FFFFE0001
310
FFFFC0007F80007FFFC000000007FFFFFE000000003FFFF80000000000000000
310
7F80000000000001FFFFE000000003FFFFFFFFE000000003FFFFFF0003FFFFFF
310
FFFFF000000003FFF000FFF80000000FFFF0001FFFFE0001FFFFE0007F80007F
310
FFF00000000FFFFFFF00000000FFFFF800000000000000007F80000000000001
310
FFFFF80000000FFFFFFFFFF80000000FFFFFFF0003FFFFFFFFFFFC0000000FFF
310
F000FFFE0000003FFFF0001FFFFE0003FFFFE0003F80007FFFFC0000003FFFFF
310
FFC0000003FFFFF800000000000000007F80000000000001FFFFFE0000003FFF
310
FFFFFFFE0000003FFFFFFF0003FFFFFFFFFFFF0000003FFFF000FFFF800000FF
310
FFF0001FFFFF0003FFFFE0003F80007FFFFF000001FFFFFFFFF800001FFFFFF8
310
00000000000000007F80000000000001FFFFFFC00001FFFFFFFFFFFFC00001FF
310
FFFFFF0003FFFFFFFFFFFFC00000FFFFF000FFFFF8000FFFFFFFFFFFFFFFFFFF
310
FFFFFFFFFFFFFFFFFFFFF0001FFFFFFFFFFF0000FFFFFFF80000000000000000
310
7FFFFFFFFFFFFFFFFFFFFFFC001FFFFFFFFFFFFFFC001FFFFFFFFFFFFFFFFFFF
310
FFFFFFFC001FFFFFF000FFFFFFFFFFFFFFFFFFFFFFFFFFFFFFFFFFFFFFFFFFFF
310
FFFFFFFFFFFFFFFFFFFFFFFFFFFFFFFFFFFFFFFFFFFFFFFFFFFFFFFFFFFFFFFF
310
FFFFFFFFFFFFFFFFFFFFFFFFFFFFFFFFFFFFFFFFFFFFFFFFFFFFFFFFFFFFFFFF
310
F000FFFFFFFFFFFFFFFFFFFFFFFFFFFFFFFFFFFFFFFFFFFFFFFFFFFFFFFFFFFF
310
FFFFFFFFFFFFFFFFFFFFFFFFFFFFFFFFFFFFFFFFFFFFFFFFFFFFFFFFFFFFFFFF
310
FFFFFFFFFFFFFFFFFFFFFFFFFFFFFFFFFFFFFFFFFFFFFFFFF000FFFFFFFFFFFF
310
FFFFFFFFFFFFFFFFFFFFFFFFFFFFFFFFFFFFFFFFFFFFFFFFFFFFFFFFFFFFFFFF
310
FFFFFFFFFFFFFFFFFFFFFFFFFFFFFFFFFFFFFFFFFFFFFFFFFFFFFFFFFFFFFFFF
310
FFFFFFFFFFFFFFFFFFFFFFFFFFFFFFFFF000FFFFFFFFFFFFFFFFFFFFFFFFFFFF
310
FFFFFFFFFFFFFFFFFFFFFFFFFFFFFFFFFFFFFFFFFFFFFFFFFFFFFFFFFFFFFFFF
310
FFFFFFFFFFFFFFFFFFFFFFFFFFFFFFFFFFFFFFFFFFFFFFFFFFFFFFFFFFFFFFFF
310
FFFFFFFFFFFFFFFFF000FFFFFFFFFFFFFFFFFFFFFFFFFFFFFFFFFFFFFFFFFFFF
310
FFFFFFFFFFFFFFFFFFFFFFFFFFFFFFFFFFFFFFFFFFFFFFFFFFFFFFFFFFFFFFFF
310
FFFFFFFFFFFFFFFFFFFFFFFFFFFFFFFFFFFFFFFFFFFFFFFFFFFFFFFFFFFFFFFF
310
F000FFFFFFFFFFFFFFFFFFFFFFFFFFFFFFFFFFFFFFFFFFFFFFFFFFFFFFFFFFFF
310
FFFFFFFFFFFFFFFFFFFFFFFFFFFFFFFFFFFFFFFFFFFFFFFFFFFFFFFFFFFFFFFF
310
FFFFFFFFFFFFFFFFFFFFFFFFFFFFFFFFFFFFFFFFFFFFFFFFF000FFFFFFFFFFFF
310
FFFFFFFFFFFFFFFFFFFFFFFFFFFFFFFFFFFFFFFFFFFFFFFFFFFFFFFFFFFFFFFF
310
FFFFFFFFFFFFFFFFFFFFFFFFFFFFFFFFFFFFFFFFFFFFFFFFFFFFFFFFFFFFFFFF
310
FFFFFFFFFFFFFFFFFFFFFFFFFFFFFFFFF000FFFFFFFFFFFFFFFFFFFFFFFFFFFF
310
FFFFFFFFFFFFFFFFFFFFFFFFFFFFFFFFFFFFFFFFFFFFFFFFFFFFFFFFFFFFFFFF
310
FFFFFFFFFFFFFFFFFFFFFFFFFFFFFFFFFFFFFFFFFFFFFFFFFFFFFFFFFFFFFFFF
310
FFFFFFFFFFFFFFFFF000FFFFFFFFFFFFFFFFFFFFFFFFFFFFFFFFFFFFFFFFFFFF
310
FFFFFFFFFFFFFFFFFFFFFFFFFFFFFFFFFFFFFFFFFFFFFFFFFFFFFFFFFFFFFFFF
310
FFFFFFFFFFFFFFFFFFFFFFFFFFFFFFFFFFFFFFFFFFFFFFFFFFFFFFFFFFFFFFFF
310
F000FFFFFFFFFFFFFFFFFFFFFFFFFFFFFFFFFFFFFFFFFFFFFFFFFFFFFFFFFFFF
310
FFFFFFFFFFFFFFFFFFFFFFFFFFFFFFFFFFFFFFFFFFFFFFFFFFFFFFFFFFFFFFFF
310
FFFFFFFFFFFFFFFFFFFFFFFFFFFFFFFFFFFFFFFFFFFFFFFFF000FFFFFFFFFFFF
310
FFFFFFFFFFFFFFFFFFFFFFFFFFFFFFFFFFFFFFFFFFFFFFFFFFFFFFFFFFFFFFFF
310
FFFFFFFFFFFFFFFFFFFFFFFFFFFFFFFFFFFFFFFFFFFFFFFFFFFFFFFFFFFFFFFF
310
FFFFFFFFFFFFFFFFFFFFFFFFFFFFFFFFF000FFFFFFFFFFFFFFFFFFFFFFFFFFFF
310
FFFFFFFFFFFFFFFFFFFFFFFFFFFFFFFFFFFFFFFFFFFFFFFFFFFFFFFFFFFFFFFF
310
FFFFFFFFFFFFFFFFFFFFFFFFFFFFFFFFFFFFFFFFFFFFFFFFFFFFFFFFFFFFFFFF
310
FFFFFFFFFFFFFFFFF000FFFFFFFFFFFFFFFFFFFFFFFFFFFFFFFFFFFFFFFFFFFF
310
FFFFFFFFFFFFFFFFFFFFFFFFFFFFFFFFFFFFFFFFFFFFFFFFFFFFFFFFFFFFFFFF
310
FFFFFFFFFFFFFFFFFFFFFFFFFFFFFFFFFFFFFFFFFFFFFFFFFFFFFFFFFFFFFFFF
310
F000FFFFFFFFFFFFFFFFFFFFFFFFFFFFFFFFFFFFFFFFFFFFFFFFFFFFFFFFFFFF
310
FFFFFFFFFFFFFFFFFFFFFFFFFFFFFFFFFFFFFFFFFFFFFFFFFFFFFFFFFFFFFFFF
310
FFFFFFFFFFFFFFFFFFFFFFFFFFFFFFFFFFFFFFFFFFFFFFFFF000FFFFFFFFFFFF
310
FFFFFFFFFFFFFFFFFFFFFFFFFFFFFFFFFFFFFFFFFFFFFFFFFFFFFFFFFFFFFFFF
310
FFFFFFFFFFFFFFFFFFFFFFFFFFFFFFFFFFFFFFFFFFFFFFFFFFFFFFFFFFFFFFFF
310
FFFFFFFFFFFFFFFFFFFFFFFFFFFFFFFFF000FFFFFFFFFFFFFFFFFFFFFFFFFFFF
310
FFFFFFFFFFFFFFFFFFFFFFFFFFFFFFFFFFFFFFFFFFFFFFFFFFFFFFFFFFFFFFFF
310
FFFFFFFFFFFFFFFFFFFFFFFFFFFFFFFFFFFFFFFFFFFFFFFFFFFFFFFFFFFFFFFF
310
FFFFFFFFFFFFFFFFF000FFFFFFFFFFFFFFFFFFFFFFFFFFFFFFFFFFFFFFFFFFFF
310
FFFFFFFFFFFFFFFFFFFFFFFFFFFFFFFFFFFFFFFFFFFFFFFFFFFFFFFFFFFFFFFF
310
FFFFFFFFFFFFFFFFFFFFFFFFFFFFFFFFFFFFFFFFFFFFFFFFFFFFFFFFFFFFFFFF
310
F000FFFFFFFFFFFFFFFFFFFFFFFFFFFFFFFFFFFFFFFFFFFFFFFFFFFFFFFFFFFF
310
FFFFFFFFFFFFFFFFFFFFFFFFFFFFFFFFFFFFFFFFFFFFFFFFFFFFFFFFFFFFFFFF
310
FFFFFFFFFFFFFFFFFFFFFFFFFFFFFFFFFFFFFFFFFFFFFFFFF000FFFFFFFFFFFF
310
FFFFFFFFFFFFFFFFFFFFFFFFFFFFFFFFFFFFFFFFFFFFFFFFFFFFFFFFFFFFFFFF
310
FFFFFFFFFFFFFFFFFFFFFFFFFFFFFFFFFFFFFFFFFFFFFFFFFFFFFFFFFFFFFFFF
310
FFFFFFFFFFFFFFFFFFFFFFFFFFFFFFFFF000FFFFFFFFFFFFFFFFFFFFFFFFFFFF
310
FFFFFFFFFFFFFFFFFFFFFFFFFFFFFFFFFFFFFFFFFFFFFFFFFFFFFFFFFFFFFFFF
310
FFFFFFFFFFFFFFFFFFFFFFFFFFFFFFFFFFFFFFFFFFFFFFFFFFFFFFFFFFFFFFFF
310
FFFFFFFFFFFFFFFFF000FFFFFFFFFFFFFFFFFFFFFFFFFFFFFFFFFFFFFFFFFFFF
310
FFFFFFFFFFFFFFFFFFFFFFFFFFFFFFFFFFFFFFFFFFFFFFFFFFFFFFFFFFFFFFFF
310
FFFFFFFFFFFFFFFFFFFFFFFFFFFFFFFFFFFFFFFFFFFFFFFFFFFFFFFFFFFFFFFF
310
F000FFFFFFFFFFFFFFFFFFFFFFFFFFFFFFFFFFFFFFFFFFFFFFFFFFFFFFFFFFFF
310
FFFFFFFFFFFFFFFFFFFFFFFFFFFFFFFFFFFFFFFFFFFFFFFFFFFFFFFFFFFFFFFF
310
FFFFFFFFFFFFFFFFFFFFFFFFFFFFFFFFFFFFFFFFFFFFFFFFF000FFFFFFFFFFFF
310
FFFFFFFFFFFFFFFFFFFFFFFFFFFFFFFFFFFFFFFFFFFFFFFFFFFFFFFFFFFFFFFF
310
FFFFFFFFFFFFFFFFFFFFFFFFFFFFFFFFFFFFFFFFFFFFFFFFFFFFFFFFFFFFFFFF
310
FFFFFFFFFFFFFFFFFFFFFFFFFFFFFFFFF0000000000000000000000000000000
310
00000000EC000000EC000000EC00000000000000000000000000000000000000
310
0000000000000000000000000000000000000000000000000000000000000000
310
0000000000000000000000000000000000000000000000000000000000000000
310
000000000000000000000000B8310000D84D0000EC000000EC000000EC000000
310
EC00000000000000000000000000000000000000000000000000000000000000
310
0000000000000000000000000000000000000000000000000000000000000000
310
0000000000000000000000000000000000000000000000000000000000000000
310
F017000000260000EC000000EC000000EC000000EC0000000000000000000000
310
0000000000000000000000000000000000000000000000000000000000000000
310
0000000000000000000000000000000000000000000000000000000000000000
310
0000000000000000000000000000000000000000342E0000C83F0000EC000000
310
EC000000EC000000EC0000000000000000000000000000000000000000000000
310
0000000000000000000000000000000000000000000000000000000000000000
310
0000000000000000000000000000000000000000000000000000000000000000
310
000000000000000000260000183B0000EC000000EC000000EC000000EC000000
  1
OLE
  0
ENDSEC
  0
SECTION
  2
OBJECTS
  0
DICTIONARY
  5
C
330
0
100
AcDbDictionary
281
     1
  3
ACAD_GROUP
350
D
  3
ACAD_LAYOUT
350
1A
  3
ACAD_MLEADERSTYLE
350
317
  3
ACAD_MLINESTYLE
350
17
  3
ACAD_PLOTSETTINGS
350
19
  3
ACAD_PLOTSTYLENAME
350
E
  3
ACAD_TABLESTYLE
350
316
  3
ACAD_VISUALSTYLE
350
2A
  3
AcDbVariableDictionary
350
318
  0
DICTIONARY
  5
D
102
{ACAD_REACTORS
330
C
102
}
330
C
100
AcDbDictionary
281
     1
  0
DICTIONARY
  5
1A
102
{ACAD_REACTORS
330
C
102
}
330
C
100
AcDbDictionary
281
     1
  3
Layout1
350
1E
  3
Layout2
350
26
  3
Model
350
22
  0
DICTIONARY
  5
317
102
{ACAD_REACTORS
330
C
102
}
330
C
100
AcDbDictionary
281
     1
  0
DICTIONARY
  5
17
102
{ACAD_REACTORS
330
C
102
}
330
C
100
AcDbDictionary
281
     1
  3
Standard
350
18
  0
DICTIONARY
  5
19
102
{ACAD_REACTORS
330
C
102
}
330
C
100
AcDbDictionary
281
     1
  0
ACDBDICTIONARYWDFLT
  5
E
102
{ACAD_REACTORS
330
C
102
}
330
C
100
AcDbDictionary
281
     1
  3
Normal
350
F
100
AcDbDictionaryWithDefault
340
F
  0
DICTIONARY
  5
316
102
{ACAD_REACTORS
330
C
102
}
330
C
100
AcDbDictionary
281
     1
  0
DICTIONARY
  5
2A
102
{ACAD_REACTORS
330
C
102
}
330
C
100
AcDbDictionary
281
     1
  3
2dWireframe
350
2F
  3
3D Hidden
350
31
  3
3dWireframe
350
30
  3
Basic
350
32
  3
Brighten
350
36
  3
ColorChange
350
3A
  3
Conceptual
350
34
  3
Dim
350
35
  3
Facepattern
350
39
  3
Flat
350
2B
  3
FlatWithEdges
350
2C
  3
Gouraud
350
2D
  3
GouraudWithEdges
350
2E
  3
Linepattern
350
38
  3
Realistic
350
33
  3
Thicken
350
37
  0
DICTIONARY
  5
318
102
{ACAD_REACTORS
330
C
102
}
330
C
100
AcDbDictionary
281
     1
  3
PSOLHEIGHT
350
31A
  3
PSOLWIDTH
350
319
  0
LAYOUT
  5
1E
102
{ACAD_REACTORS
330
1A
102
}
330
1A
100
AcDbPlotSettings
  1

  2
none_device
  4

  6

 40
0.0
 41
0.0
 42
0.0
 43
0.0
 44
0.0
 45
0.0
 46
0.0
 47
0.0
 48
0.0
 49
0.0
140
0.0
141
0.0
142
1.0
143
1.0
 70
   688
 72
     0
 73
     0
 74
     5
  7

 75
    16
147
1.0
148
0.0
149
0.0
100
AcDbLayout
  1
Layout1
 70
     1
 71
     1
 10
0.0
 20
0.0
 11
420.0
 21
297.0
 12
0.0
 22
0.0
 32
0.0
 14
1.0000000000E+20
 24
1.0000000000E+20
 34
1.0000000000E+20
 15
-1.0000000000E+20
 25
-1.0000000000E+20
 35
-1.0000000000E+20
146
0.0
 13
0.0
 23
0.0
 33
0.0
 16
1.0
 26
0.0
 36
0.0
 17
0.0
 27
1.0
 37
0.0
 76
     0
330
1B
  0
LAYOUT
  5
26
102
{ACAD_REACTORS
330
1A
102
}
330
1A
100
AcDbPlotSettings
  1

  2
none_device
  4

  6

 40
0.0
 41
0.0
 42
0.0
 43
0.0
 44
0.0
 45
0.0
 46
0.0
 47
0.0
 48
0.0
 49
0.0
140
0.0
141
0.0
142
1.0
143
1.0
 70
   688
 72
     0
 73
     0
 74
     5
  7

 75
    16
147
1.0
148
0.0
149
0.0
100
AcDbLayout
  1
Layout2
 70
     1
 71
     2
 10
0.0
 20
0.0
 11
0.0
 21
0.0
 12
0.0
 22
0.0
 32
0.0
 14
0.0
 24
0.0
 34
0.0
 15
0.0
 25
0.0
 35
0.0
146
0.0
 13
0.0
 23
0.0
 33
0.0
 16
1.0
 26
0.0
 36
0.0
 17
0.0
 27
1.0
 37
0.0
 76
     0
330
23
  0
LAYOUT
  5
22
102
{ACAD_REACTORS
330
1A
102
}
330
1A
100
AcDbPlotSettings
  1

  2
none_device
  4

  6

 40
0.0
 41
0.0
 42
0.0
 43
0.0
 44
0.0
 45
0.0
 46
0.0
 47
0.0
 48
0.0
 49
0.0
140
0.0
141
0.0
142
1.0
143
1.0
 70
  1712
 72
     0
 73
     0
 74
     0
  7

 75
     0
147
1.0
148
0.0
149
0.0
100
AcDbLayout
  1
Model
 70
     1
 71
     0
 10
0.0
 20
0.0
 11
297.0
 21
210.0
 12
0.0
 22
0.0
 32
0.0
 14
0.0
 24
0.0
 34
0.0
 15
297.0
 25
210.0
 35
0.0
146
0.0
 13
0.0
 23
0.0
 33
0.0
 16
1.0
 26
0.0
 36
0.0
 17
0.0
 27
1.0
 37
0.0
 76
     0
330
1F
331
29
  0
MLINESTYLE
  5
18
102
{ACAD_REACTORS
330
17
102
}
330
17
100
AcDbMlineStyle
  2
Standard
 70
     0
  3

 62
   256
 51
90.0
 52
90.0
 71
     2
 49
0.5
 62
   256
  6
BYLAYER
 49
-0.5
 62
   256
  6
BYLAYER
  0
ACDBPLACEHOLDER
  5
F
102
{ACAD_REACTORS
330
E
102
}
330
E
  0
VISUALSTYLE
  5
2F
102
{ACAD_REACTORS
330
2A
102
}
330
2A
100
AcDbVisualStyle
  2
2dWireframe
 70
     4
 71
     0
 72
     2
 73
     0
 90
        0
 40
-0.6
 41
-30.0
 62
     5
 63
     7
 74
     1
 91
        4
 64
     7
 65
   257
 75
     1
175
     1
 42
1.0
 92
        0
 66
   257
 43
1.0
 76
     1
 77
     6
 78
     2
 67
     7
 79
     5
170
     0
171
     0
290
     0
174
     0
 93
        1
 44
0.0
173
     0
291
     0
 45
0.0
1001
ACAD
1000
AcDbSavedByObjectVersion
1070
     0
  0
VISUALSTYLE
  5
31
102
{ACAD_REACTORS
330
2A
102
}
330
2A
100
AcDbVisualStyle
  2
3D Hidden
 70
     6
 71
     1
 72
     2
 73
     2
 90
        0
 40
-0.6
 41
-30.0
 62
     5
 63
     7
 74
     2
 91
        2
 64
     7
 65
   257
 75
     2
175
     1
 42
40.0
 92
        0
 66
   257
 43
1.0
 76
     1
 77
     6
 78
     2
 67
     7
 79
     3
170
     0
171
     0
290
     0
174
     0
 93
        1
 44
0.0
173
     0
291
     0
 45
0.0
1001
ACAD
1000
AcDbSavedByObjectVersion
1070
     0
  0
VISUALSTYLE
  5
30
102
{ACAD_REACTORS
330
2A
102
}
330
2A
100
AcDbVisualStyle
  2
3dWireframe
 70
     5
 71
     0
 72
     2
 73
     0
 90
        0
 40
-0.6
 41
-30.0
 62
     5
 63
     7
 74
     1
 91
        4
 64
     7
 65
   257
 75
     1
175
     1
 42
1.0
 92
        0
 66
   257
 43
1.0
 76
     1
 77
     6
 78
     2
 67
     7
 79
     5
170
     0
171
     0
290
     0
174
     0
 93
        1
 44
0.0
173
     0
291
     0
 45
0.0
1001
ACAD
1000
AcDbSavedByObjectVersion
1070
     0
  0
VISUALSTYLE
  5
32
102
{ACAD_REACTORS
330
2A
102
}
330
2A
100
AcDbVisualStyle
  2
Basic
 70
     7
 71
     1
 72
     0
 73
     1
 90
        0
 40
-0.6
 41
-30.0
 62
     5
 63
     7
 74
     0
 91
        4
 64
     7
 65
   257
 75
     1
175
     1
 42
1.0
 92
        8
 66
     7
 43
1.0
 76
     1
 77
     6
 78
     2
 67
     7
 79
     5
170
     0
171
     0
290
     0
174
     0
 93
        1
 44
0.0
173
     0
291
     1
 45
0.0
1001
ACAD
1000
AcDbSavedByObjectVersion
1070
     0
  0
VISUALSTYLE
  5
36
102
{ACAD_REACTORS
330
2A
102
}
330
2A
100
AcDbVisualStyle
  2
Brighten
 70
    12
 71
     2
 72
     2
 73
     0
 90
        0
 40
-0.6
 41
-30.0
 62
     5
 63
     7
 74
     1
 91
        4
 64
     7
 65
   257
 75
     1
175
     1
 42
1.0
 92
        8
 66
     7
 43
1.0
 76
     1
 77
     6
 78
     2
 67
     7
 79
     5
170
     0
171
     0
290
     0
174
     0
 93
        1
 44
50.0
173
     0
291
     1
 45
0.0
1001
ACAD
1000
AcDbSavedByObjectVersion
1070
     0
  0
VISUALSTYLE
  5
3A
102
{ACAD_REACTORS
330
2A
102
}
330
2A
100
AcDbVisualStyle
  2
ColorChange
 70
    16
 71
     2
 72
     2
 73
     3
 90
        0
 40
-0.6
 41
-30.0
 62
     5
 63
     8
 74
     1
 91
        4
 64
     7
 65
   257
 75
     1
175
     1
 42
1.0
 92
        8
 66
     8
 43
1.0
 76
     1
 77
     6
 78
     2
 67
     7
 79
     5
170
     0
171
     0
290
     0
174
     0
 93
        1
 44
0.0
173
     0
291
     1
 45
0.0
1001
ACAD
1000
AcDbSavedByObjectVersion
1070
     0
  0
VISUALSTYLE
  5
34
102
{ACAD_REACTORS
330
2A
102
}
330
2A
100
AcDbVisualStyle
  2
Conceptual
 70
     9
 71
     3
 72
     2
 73
     0
 90
        0
 40
-0.6
 41
-30.0
 62
     5
 63
     7
 74
     2
 91
        2
 64
     7
 65
   257
 75
     1
175
     1
 42
40.0
 92
        8
 66
     7
 43
1.0
 76
     1
 77
     6
 78
     2
 67
     7
 79
     3
170
     0
171
     0
290
     0
174
     0
 93
        1
 44
0.0
173
     0
291
     0
 45
0.0
1001
ACAD
1000
AcDbSavedByObjectVersion
1070
     0
  0
VISUALSTYLE
  5
35
102
{ACAD_REACTORS
330
2A
102
}
330
2A
100
AcDbVisualStyle
  2
Dim
 70
    11
 71
     2
 72
     2
 73
     0
 90
        0
 40
-0.6
 41
-30.0
 62
     5
 63
     7
 74
     1
 91
        4
 64
     7
 65
   257
 75
     1
175
     1
 42
1.0
 92
        8
 66
     7
 43
1.0
 76
     1
 77
     6
 78
     2
 67
     7
 79
     5
170
     0
171
     0
290
     0
174
     0
 93
        1
 44
-50.0
173
     0
291
     1
 45
0.0
1001
ACAD
1000
AcDbSavedByObjectVersion
1070
     0
  0
VISUALSTYLE
  5
39
102
{ACAD_REACTORS
330
2A
102
}
330
2A
100
AcDbVisualStyle
  2
Facepattern
 70
    15
 71
     2
 72
     2
 73
     0
 90
        0
 40
-0.6
 41
-30.0
 62
     5
 63
     7
 74
     1
 91
        4
 64
     7
 65
   257
 75
     1
175
     1
 42
1.0
 92
        8
 66
     7
 43
1.0
 76
     1
 77
     6
 78
     2
 67
     7
 79
     5
170
     0
171
     0
290
     0
174
     0
 93
        1
 44
0.0
173
     0
291
     1
 45
0.0
1001
ACAD
1000
AcDbSavedByObjectVersion
1070
     0
  0
VISUALSTYLE
  5
2B
102
{ACAD_REACTORS
330
2A
102
}
330
2A
100
AcDbVisualStyle
  2
Flat
 70
     0
 71
     2
 72
     1
 73
     1
 90
        2
 40
-0.6
 41
30.0
 62
     5
 63
     7
 74
     0
 91
        4
 64
     7
 65
   257
 75
     1
175
     1
 42
1.0
 92
        8
 66
     7
 43
1.0
 76
     1
 77
     6
 78
     2
 67
     7
 79
     5
170
     0
171
     0
290
     0
174
     0
 93
       13
 44
0.0
173
     0
291
     1
 45
0.0
1001
ACAD
1000
AcDbSavedByObjectVersion
1070
     0
  0
VISUALSTYLE
  5
2C
102
{ACAD_REACTORS
330
2A
102
}
330
2A
100
AcDbVisualStyle
  2
FlatWithEdges
 70
     1
 71
     2
 72
     1
 73
     1
 90
        2
 40
-0.6
 41
30.0
 62
     5
 63
     7
 74
     1
 91
        4
 64
     7
 65
   257
 75
     1
175
     1
 42
1.0
 92
        0
 66
   257
 43
1.0
 76
     1
 77
     6
 78
     2
 67
     7
 79
     5
170
     0
171
     0
290
     0
174
     0
 93
       13
 44
0.0
173
     0
291
     1
 45
0.0
1001
ACAD
1000
AcDbSavedByObjectVersion
1070
     0
  0
VISUALSTYLE
  5
2D
102
{ACAD_REACTORS
330
2A
102
}
330
2A
100
AcDbVisualStyle
  2
Gouraud
 70
     2
 71
     2
 72
     2
 73
     1
 90
        2
 40
-0.6
 41
30.0
 62
     5
 63
     7
 74
     0
 91
        4
 64
     7
 65
   257
 75
     1
175
     1
 42
1.0
 92
        0
 66
     7
 43
1.0
 76
     1
 77
     6
 78
     2
 67
     7
 79
     5
170
     0
171
     0
290
     0
174
     0
 93
       13
 44
0.0
173
     0
291
     1
 45
0.0
1001
ACAD
1000
AcDbSavedByObjectVersion
1070
     0
  0
VISUALSTYLE
  5
2E
102
{ACAD_REACTORS
330
2A
102
}
330
2A
100
AcDbVisualStyle
  2
GouraudWithEdges
 70
     3
 71
     2
 72
     2
 73
     1
 90
        2
 40
-0.6
 41
30.0
 62
     5
 63
     7
 74
     1
 91
        4
 64
     7
 65
   257
 75
     1
175
     1
 42
1.0
 92
        0
 66
   257
 43
1.0
 76
     1
 77
     6
 78
     2
 67
     7
 79
     5
170
     0
171
     0
290
     0
174
     0
 93
       13
 44
0.0
173
     0
291
     1
 45
0.0
1001
ACAD
1000
AcDbSavedByObjectVersion
1070
     0
  0
VISUALSTYLE
  5
38
102
{ACAD_REACTORS
330
2A
102
}
330
2A
100
AcDbVisualStyle
  2
Linepattern
 70
    14
 71
     2
 72
     2
 73
     0
 90
        0
 40
-0.6
 41
-30.0
 62
     5
 63
     7
 74
     1
 91
        4
 64
     7
 65
   257
 75
     7
175
     7
 42
1.0
 92
        8
 66
     7
 43
1.0
 76
     1
 77
     6
 78
     2
 67
     7
 79
     5
170
     0
171
     0
290
     0
174
     0
 93
        1
 44
0.0
173
     0
291
     1
 45
0.0
1001
ACAD
1000
AcDbSavedByObjectVersion
1070
     0
  0
VISUALSTYLE
  5
33
102
{ACAD_REACTORS
330
2A
102
}
330
2A
100
AcDbVisualStyle
  2
Realistic
 70
     8
 71
     2
 72
     2
 73
     0
 90
        0
 40
-0.6
 41
-30.0
 62
     5
 63
     7
 74
     1
 91
        0
 64
     7
 65
   257
 75
     1
175
     1
 42
1.0
 92
        8
 66
     8
 43
1.0
 76
     1
 77
     6
 78
     2
 67
     7
 79
     5
170
     0
171
     0
290
     0
174
     0
 93
       13
 44
0.0
173
     0
291
     0
 45
0.0
1001
ACAD
1000
AcDbSavedByObjectVersion
1070
     0
  0
VISUALSTYLE
  5
37
102
{ACAD_REACTORS
330
2A
102
}
330
2A
100
AcDbVisualStyle
  2
Thicken
 70
    13
 71
     2
 72
     2
 73
     0
 90
        0
 40
-0.6
 41
-30.0
 62
     5
 63
     7
 74
     1
 91
        4
 64
     7
 65
   257
 75
     1
175
     1
 42
1.0
 92
       12
 66
     7
 43
1.0
 76
     1
 77
     6
 78
     2
 67
     7
 79
     5
170
     0
171
     0
290
     0
174
     0
 93
        1
 44
0.0
173
     0
291
     1
 45
0.0
1001
ACAD
1000
AcDbSavedByObjectVersion
1070
     0
  0
DICTIONARYVAR
  5
31A
102
{ACAD_REACTORS
330
318
102
}
330
318
100
DictionaryVariables
280
     0
  1
80.000000
  0
DICTIONARYVAR
  5
319
102
{ACAD_REACTORS
330
318
102
}
330
318
100
DictionaryVariables
280
     0
  1
5.000000
  0
ENDSEC
  0
EOF
