  0
SECTION
  2
HEADER
  9
$ACADVER
  1
AC1015
  9
$ACADMAINTVER
 70
     6
  9
$DWGCODEPAGE
  3
ANSI_1252
  9
$INSBASE
 10
0.0
 20
0.0
 30
0.0
  9
$EXTMIN
 10
0.0
 20
0.0
 30
0.0
  9
$EXTMAX
 10
297.0
 20
210.0
 30
0.0
  9
$LIMMIN
 10
0.0
 20
0.0
  9
$LIMMAX
 10
297.0
 20
210.0
  9
$ORTHOMODE
 70
     0
  9
$REGENMODE
 70
     1
  9
$FILLMODE
 70
     1
  9
$QTEXTMODE
 70
     0
  9
$MIRRTEXT
 70
     1
  9
$LTSCALE
 40
1.0
  9
$ATTMODE
 70
     1
  9
$TEXTSIZE
 40
2.0
  9
$TRACEWID
 40
1.0
  9
$TEXTSTYLE
  7
Standard
  9
$CLAYER
  8
0
  9
$CELTYPE
  6
ByLayer
  9
$CECOLOR
 62
   256
  9
$CELTSCALE
 40
1.0
  9
$DISPSILH
 70
     0
  9
$DIMSCALE
 40
1.0
  9
$DIMASZ
 40
3.0
  9
$DIMEXO
 40
0.0
  9
$DIMDLI
 40
3.75
  9
$DIMRND
 40
0.0
  9
$DIMDLE
 40
0.0
  9
$DIMEXE
 40
1.0
  9
$DIMTP
 40
0.0
  9
$DIMTM
 40
0.0
  9
$DIMTXT
 40
2.0
  9
$DIMCEN
 40
2.5
  9
$DIMTSZ
 40
0.0
  9
$DIMTOL
 70
     0
  9
$DIMLIM
 70
     0
  9
$DIMTIH
 70
     1
  9
$DIMTOH
 70
     1
  9
$DIMSE1
 70
     0
  9
$DIMSE2
 70
     0
  9
$DIMTAD
 70
     1
  9
$DIMZIN
 70
     0
  9
$DIMBLK
  1

  9
$DIMASO
 70
     1
  9
$DIMSHO
 70
     1
  9
$DIMPOST
  1

  9
$DIMAPOST
  1

  9
$DIMALT
 70
     0
  9
$DIMALTD
 70
     3
  9
$DIMALTF
 40
0.0393700787
  9
$DIMLFAC
 40
1.0
  9
$DIMTOFL
 70
     1
  9
$DIMTVP
 40
0.0
  9
$DIMTIX
 70
     0
  9
$DIMSOXD
 70
     0
  9
$DIMSAH
 70
     0
  9
$DIMBLK1
  1

  9
$DIMBLK2
  1

  9
$DIMSTYLE
  2
ISO-25
  9
$DIMCLRD
 70
     0
  9
$DIMCLRE
 70
     0
  9
$DIMCLRT
 70
     0
  9
$DIMTFAC
 40
1.0
  9
$DIMGAP
 40
1.524
  9
$DIMJUST
 70
     0
  9
$DIMSD1
 70
     0
  9
$DIMSD2
 70
     0
  9
$DIMTOLJ
 70
     0
  9
$DIMTZIN
 70
     0
  9
$DIMALTZ
 70
     0
  9
$DIMALTTZ
 70
     0
  9
$DIMUPT
 70
     0
  9
$DIMDEC
 70
     2
  9
$DIMTDEC
 70
     3
  9
$DIMALTU
 70
     2
  9
$DIMALTTD
 70
     3
  9
$DIMTXSTY
  7
Standard
  9
$DIMAUNIT
 70
     0
  9
$DIMADEC
 70
     2
  9
$DIMALTRND
 40
0.0
  9
$DIMAZIN
 70
     0
  9
$DIMDSEP
 70
    44
  9
$DIMATFIT
 70
     3
  9
$DIMFRAC
 70
     0
  9
$DIMLDRBLK
  1

  9
$DIMLUNIT
 70
     2
  9
$DIMLWD
 70
    -2
  9
$DIMLWE
 70
    -2
  9
$DIMTMOVE
 70
     0
  9
$LUNITS
 70
     2
  9
$LUPREC
 70
     2
  9
$SKETCHINC
 40
1.0
  9
$FILLETRAD
 40
10.0
  9
$AUNITS
 70
     0
  9
$AUPREC
 70
     2
  9
$MENU
  1
.
  9
$ELEVATION
 40
0.0
  9
$PELEVATION
 40
0.0
  9
$THICKNESS
 40
0.0
  9
$LIMCHECK
 70
     0
  9
$CHAMFERA
 40
10.0
  9
$CHAMFERB
 40
10.0
  9
$CHAMFERC
 40
20.0
  9
$CHAMFERD
 40
0.0
  9
$SKPOLY
 70
     0
  9
$TDCREATE
 40
2455608.614750208
  9
$TDUCREATE
 40
2455608.573083542
  9
$TDUPDATE
 40
2455608.61475022
  9
$TDUUPDATE
 40
2455608.573083553
  9
$TDINDWG
 40
0.0000000116
  9
$TDUSRTIMER
 40
0.0000000116
  9
$USRTIMER
 70
     1
  9
$ANGBASE
 50
0.0
  9
$ANGDIR
 70
     0
  9
$PDMODE
 70
     0
  9
$PDSIZE
 40
-1.0
  9
$PLINEWID
 40
0.0
  9
$SPLFRAME
 70
     0
  9
$SPLINETYPE
 70
     6
  9
$SPLINESEGS
 70
     8
  9
$HANDSEED
  5
310
  9
$SURFTAB1
 70
     6
  9
$SURFTAB2
 70
     6
  9
$SURFTYPE
 70
     6
  9
$SURFU
 70
     6
  9
$SURFV
 70
     6
  9
$UCSBASE
  2

  9
$UCSNAME
  2

  9
$UCSORG
 10
0.0
 20
0.0
 30
0.0
  9
$UCSXDIR
 10
1.0
 20
0.0
 30
0.0
  9
$UCSYDIR
 10
0.0
 20
1.0
 30
0.0
  9
$UCSORTHOREF
  2

  9
$UCSORTHOVIEW
 70
     0
  9
$UCSORGTOP
 10
0.0
 20
0.0
 30
0.0
  9
$UCSORGBOTTOM
 10
0.0
 20
0.0
 30
0.0
  9
$UCSORGLEFT
 10
0.0
 20
0.0
 30
0.0
  9
$UCSORGRIGHT
 10
0.0
 20
0.0
 30
0.0
  9
$UCSORGFRONT
 10
0.0
 20
0.0
 30
0.0
  9
$UCSORGBACK
 10
0.0
 20
0.0
 30
0.0
  9
$PUCSBASE
  2

  9
$PUCSNAME
  2

  9
$PUCSORG
 10
0.0
 20
0.0
 30
0.0
  9
$PUCSXDIR
 10
1.0
 20
0.0
 30
0.0
  9
$PUCSYDIR
 10
0.0
 20
1.0
 30
0.0
  9
$PUCSORTHOREF
  2

  9
$PUCSORTHOVIEW
 70
     0
  9
$PUCSORGTOP
 10
0.0
 20
0.0
 30
0.0
  9
$PUCSORGBOTTOM
 10
0.0
 20
0.0
 30
0.0
  9
$PUCSORGLEFT
 10
0.0
 20
0.0
 30
0.0
  9
$PUCSORGRIGHT
 10
0.0
 20
0.0
 30
0.0
  9
$PUCSORGFRONT
 10
0.0
 20
0.0
 30
0.0
  9
$PUCSORGBACK
 10
0.0
 20
0.0
 30
0.0
  9
$USERI1
 70
     0
  9
$USERI2
 70
     0
  9
$USERI3
 70
     0
  9
$USERI4
 70
     0
  9
$USERI5
 70
     0
  9
$USERR1
 40
0.0
  9
$USERR2
 40
0.0
  9
$USERR3
 40
0.0
  9
$USERR4
 40
0.0
  9
$USERR5
 40
0.0
  9
$WORLDVIEW
 70
     1
  9
$SHADEDGE
 70
     3
  9
$SHADEDIF
 70
    70
  9
$TILEMODE
 70
     1
  9
$MAXACTVP
 70
    64
  9
$PINSBASE
 10
0.0
 20
0.0
 30
0.0
  9
$PLIMCHECK
 70
     0
  9
$PEXTMIN
 10
1.0000000000E+20
 20
1.0000000000E+20
 30
1.0000000000E+20
  9
$PEXTMAX
 10
-1.0000000000E+20
 20
-1.0000000000E+20
 30
-1.0000000000E+20
  9
$PLIMMIN
 10
0.0
 20
0.0
  9
$PLIMMAX
 10
420.0
 20
297.0
  9
$UNITMODE
 70
     0
  9
$VISRETAIN
 70
     1
  9
$PLINEGEN
 70
     0
  9
$PSLTSCALE
 70
     1
  9
$TREEDEPTH
 70
  3020
  9
$CMLSTYLE
  2
Standard
  9
$CMLJUST
 70
     0
  9
$CMLSCALE
 40
20.0
  9
$PROXYGRAPHICS
 70
     1
  9
$MEASUREMENT
 70
     1
  9
$CELWEIGHT
370
    -1
  9
$ENDCAPS
280
     0
  9
$JOINSTYLE
280
     0
  9
$LWDISPLAY
290
     1
  9
$INSUNITS
 70
     4
  9
$HYPERLINKBASE
  1

  9
$STYLESHEET
  1

  9
$XEDIT
290
     1
  9
$CEPSNTYPE
380
     0
  9
$PSTYLEMODE
290
     1
  9
$FINGERPRINTGUID
  2
{EBD3D8DE-D9DD-41F8-9EA8-A261B94EE242}
  9
$VERSIONGUID
  2
{FAEB1C32-E019-11D5-929B-00C0DF256EC4}
  9
$EXTNAMES
290
     1
  9
$PSVPSCALE
 40
0.0
  9
$OLESTARTUP
290
     0
  0
ENDSEC
  0
SECTION
  2
CLASSES
  0
CLASS
  1
ACDBDICTIONARYWDFLT
  2
AcDbDictionaryWithDefault
  3
ObjectDBX Classes
 90
        0
280
     0
281
     0
  0
CLASS
  1
VISUALSTYLE
  2
AcDbVisualStyle
  3
ObjectDBX Classes
 90
     4095
280
     0
281
     0
  0
CLASS
  1
DICTIONARYVAR
  2
AcDbDictionaryVar
  3
ObjectDBX Classes
 90
        0
280
     0
281
     0
  0
CLASS
  1
ACDBPLACEHOLDER
  2
AcDbPlaceHolder
  3
ObjectDBX Classes
 90
        0
280
     0
281
     0
  0
CLASS
  1
LAYOUT
  2
AcDbLayout
  3
ObjectDBX Classes
 90
        0
280
     0
281
     0
  0
ENDSEC
  0
SECTION
  2
TABLES
  0
TABLE
  2
VPORT
  5
8
330
0
100
AcDbSymbolTable
 70
     1
  0
VPORT
  5
29
330
8
100
AcDbSymbolTableRecord
100
AcDbViewportTableRecord
  2
*Active
 70
     0
 10
0.0
 20
0.0
 11
1.0
 21
1.0
 12
148.5
 22
105.0
 13
0.0
 23
0.0
 14
10.0
 24
10.0
 15
10.0
 25
10.0
 16
0.0
 26
0.0
 36
1.0
 17
0.0
 27
0.0
 37
0.0
 40
210.0
 41
1.4142857143
 42
50.0
 43
0.0
 44
0.0
 50
0.0
 51
0.0
 71
     0
 72
  2000
 73
     1
 74
     3
 75
     0
 76
     0
 77
     0
 78
     0
281
     0
 65
     1
110
0.0
120
0.0
130
0.0
111
1.0
121
0.0
131
0.0
112
0.0
122
1.0
132
0.0
 79
     0
146
0.0
  0
ENDTAB
  0
TABLE
  2
LTYPE
  5
5
330
0
100
AcDbSymbolTable
 70
     6
  0
LTYPE
  5
14
330
5
100
AcDbSymbolTableRecord
100
AcDbLinetypeTableRecord
  2
ByBlock
 70
     0
  3

 72
    65
 73
     0
 40
0.0
  0
LTYPE
  5
15
330
5
100
AcDbSymbolTableRecord
100
AcDbLinetypeTableRecord
  2
ByLayer
 70
     0
  3

 72
    65
 73
     0
 40
0.0
  0
LTYPE
  5
16
330
5
100
AcDbSymbolTableRecord
100
AcDbLinetypeTableRecord
  2
Continuous
 70
     0
  3
Solid line
 72
    65
 73
     0
 40
0.0
  0
LTYPE
  5
3B
330
5
100
AcDbSymbolTableRecord
100
AcDbLinetypeTableRecord
  2
HIDDEN
 70
     0
  3
Hidden __ __ __ __ __ __ __ __ __ __ __ __ __ __
 72
    65
 73
     2
 40
1.905
 49
1.27
 74
     0
 49
-0.635
 74
     0
  0
LTYPE
  5
3C
330
5
100
AcDbSymbolTableRecord
100
AcDbLinetypeTableRecord
  2
PHANTOM
 70
     0
  3
Phantom ______  __  __  ______  __  __  ______
 72
    65
 73
     6
 40
12.7
 49
6.35
 74
     0
 49
-1.27
 74
     0
 49
1.27
 74
     0
 49
-1.27
 74
     0
 49
1.27
 74
     0
 49
-1.27
 74
     0
  0
LTYPE
  5
3D
330
5
100
AcDbSymbolTableRecord
100
AcDbLinetypeTableRecord
  2
CENTER
 70
     0
  3
Center ____ _ ____ _ ____ _ ____ _ ____ _ ____
 72
    65
 73
     4
 40
10.16
 49
6.35
 74
     0
 49
-1.27
 74
     0
 49
1.27
 74
     0
 49
-1.27
 74
     0
  0
LTYPE
  5
3E
330
5
100
AcDbSymbolTableRecord
100
AcDbLinetypeTableRecord
  2
CENTERX2
 70
     0
  3
Center (2x) ________  __  ________  __  _____
 72
    65
 73
     4
 40
20.32
 49
12.7
 74
     0
 49
-2.54
 74
     0
 49
2.54
 74
     0
 49
-2.54
 74
     0
  0
LTYPE
  5
3F
330
5
100
AcDbSymbolTableRecord
100
AcDbLinetypeTableRecord
  2
DOT2
 70
     0
  3
Dot (.5x) ........................................
 72
    65
 73
     2
 40
0.635
 49
0.0
 74
     0
 49
-0.635
 74
     0
  0
ENDTAB
  0
TABLE
  2
LAYER
  5
2
330
0
100
AcDbSymbolTable
 70
     5
  0
LAYER
  5
10
330
2
100
AcDbSymbolTableRecord
100
AcDbLayerTableRecord
  2
0
 70
     0
 62
     7
  6
Continuous
370
    -3
390
F
  0
LAYER
  5
40
330
2
100
AcDbSymbolTableRecord
100
AcDbLayerTableRecord
  2
FORMAT
 70
     0
 62
     7
  6
Continuous
370
    -3
390
F
  0
LAYER
  5
41
330
2
100
AcDbSymbolTableRecord
100
AcDbLayerTableRecord
  2
VERMASSUNG
 70
     0
 62
     7
  6
Continuous
370
    -3
390
F
  0
LAYER
  5
42
330
2
100
AcDbSymbolTableRecord
100
AcDbLayerTableRecord
  2
KOPF_DÜNN
 70
     0
 62
     7
  6
Continuous
370
    -3
390
F
  0
LAYER
  5
43
330
2
100
AcDbSymbolTableRecord
100
AcDbLayerTableRecord
  2
KOPF_DICK
 70
     0
 62
     7
  6
Continuous
370
    15
390
F
  0
ENDTAB
  0
TABLE
  2
STYLE
  5
3
330
0
100
AcDbSymbolTable
 70
     3
  0
STYLE
  5
11
330
3
100
AcDbSymbolTableRecord
100
AcDbTextStyleTableRecord
  2
Standard
 70
     0
 40
0.0
 41
1.0
 50
0.0
 71
     0
 42
2.5
  3
txt
  4

  0
STYLE
  5
44
330
3
100
AcDbSymbolTableRecord
100
AcDbTextStyleTableRecord
  2
SLDTEXTSTYLE0
 70
     0
 40
0.0
 41
0.7
 50
0.0
 71
     0
 42
0.2
  3
TXT
  4

  0
STYLE
  5
48
330
3
100
AcDbSymbolTableRecord
100
AcDbTextStyleTableRecord
  2
SLDTEXTSTYLE1
 70
     0
 40
0.0
 41
0.6526315789
 50
0.0
 71
     0
 42
0.2
  3
TXT
  4

  0
ENDTAB
  0
TABLE
  2
VIEW
  5
6
330
0
100
AcDbSymbolTable
 70
     0
  0
ENDTAB
  0
TABLE
  2
UCS
  5
7
330
0
100
AcDbSymbolTable
 70
     0
  0
ENDTAB
  0
TABLE
  2
APPID
  5
9
330
0
100
AcDbSymbolTable
 70
     1
  0
APPID
  5
12
330
9
100
AcDbSymbolTableRecord
100
AcDbRegAppTableRecord
  2
ACAD
 70
     0
  0
ENDTAB
  0
TABLE
  2
DIMSTYLE
  5
A
330
0
100
AcDbSymbolTable
 70
     3
100
AcDbDimStyleTable
  0
DIMSTYLE
105
27
330
A
100
AcDbSymbolTableRecord
100
AcDbDimStyleTableRecord
  2
ISO-25
 70
     0
 41
2.5
 42
0.625
 43
3.75
 44
1.25
 73
     0
 74
     0
 77
     1
 78
     8
140
2.5
141
2.5
143
0.0393700787
147
0.625
171
     3
172
     1
271
     2
272
     2
274
     3
278
    44
283
     0
284
     8
340
11
  0
DIMSTYLE
105
24D
102
{ACAD_REACTORS
330
24C
102
}
330
A
100
AcDbSymbolTableRecord
100
AcDbDimStyleTableRecord
  2
SLDDIMSTYLE0
 70
     0
 41
3.0
 44
0.0
 73
     0
 74
     0
 77
     1
 78
    12
140
2.0
147
0.5
173
     1
179
     2
272
     3
284
    12
340
44
  0
DIMSTYLE
105
25A
102
{ACAD_REACTORS
330
259
330
264
330
26E
330
278
102
}
330
A
100
AcDbSymbolTableRecord
100
AcDbDimStyleTableRecord
  2
SLDDIMSTYLE1
 70
     0
 41
3.0
 44
0.0
 45
0.000000001
 73
     0
 74
     0
 77
     1
 78
    12
140
2.0
147
0.5
173
     1
271
     2
272
     3
284
    12
340
44
  0
ENDTAB
  0
TABLE
  2
BLOCK_RECORD
  5
1
330
0
100
AcDbSymbolTable
 70
     7
  0
BLOCK_RECORD
  5
1F
330
1
100
AcDbSymbolTableRecord
100
AcDbBlockTableRecord
  2
*Model_Space
340
22
  0
BLOCK_RECORD
  5
1B
330
1
100
AcDbSymbolTableRecord
100
AcDbBlockTableRecord
  2
*Paper_Space
340
1E
  0
BLOCK_RECORD
  5
23
330
1
100
AcDbSymbolTableRecord
100
AcDbBlockTableRecord
  2
*Paper_Space0
340
26
  0
BLOCK_RECORD
  5
24E
330
1
100
AcDbSymbolTableRecord
100
AcDbBlockTableRecord
  2
*D1
340
0
  0
BLOCK_RECORD
  5
25B
330
1
100
AcDbSymbolTableRecord
100
AcDbBlockTableRecord
  2
*D2
340
0
  0
BLOCK_RECORD
  5
265
330
1
100
AcDbSymbolTableRecord
100
AcDbBlockTableRecord
  2
*D3
340
0
  0
BLOCK_RECORD
  5
26F
330
1
100
AcDbSymbolTableRecord
100
AcDbBlockTableRecord
  2
*D4
340
0
  0
BLOCK_RECORD
  5
279
330
1
100
AcDbSymbolTableRecord
100
AcDbBlockTableRecord
  2
*D5
340
0
  0
BLOCK_RECORD
  5
2FE
330
1
100
AcDbSymbolTableRecord
100
AcDbBlockTableRecord
  2
SW_CENTERMARKSYMBOL_0
340
0
102
{BLKREFS
331
309
102
}
  0
ENDTAB
  0
ENDSEC
  0
SECTION
  2
BLOCKS
  0
BLOCK
  5
20
330
1F
100
AcDbEntity
  8
0
100
AcDbBlockBegin
  2
*Model_Space
 70
     0
 10
0.0
 20
0.0
 30
0.0
  3
*Model_Space
  1

  0
ENDBLK
  5
21
330
1F
100
AcDbEntity
  8
0
100
AcDbBlockEnd
  0
BLOCK
  5
1C
330
1B
100
AcDbEntity
 67
     1
  8
0
100
AcDbBlockBegin
  2
*Paper_Space
 70
     0
 10
0.0
 20
0.0
 30
0.0
  3
*Paper_Space
  1

  0
ENDBLK
  5
1D
330
1B
100
AcDbEntity
 67
     1
  8
0
100
AcDbBlockEnd
  0
BLOCK
  5
24
330
23
100
AcDbEntity
  8
0
100
AcDbBlockBegin
  2
*Paper_Space0
 70
     0
 10
0.0
 20
0.0
 30
0.0
  3
*Paper_Space0
  1

  0
ENDBLK
  5
25
330
23
100
AcDbEntity
  8
0
100
AcDbBlockEnd
  0
BLOCK
  5
24F
330
24E
100
AcDbEntity
  8
0
100
AcDbBlockBegin
  2
*D1
 70
     1
 10
0.0
 20
0.0
 30
0.0
  3
*D1
  1

  0
ARC
  5
251
330
24E
100
AcDbEntity
  8
VERMASSUNG
100
AcDbCircle
 10
271.2040537594
 20
75.4178008673
 30
0.0
 40
52.37392667947032
100
AcDbArc
 50
177.0
 51
180.0
  0
ARC
  5
252
330
24E
100
AcDbEntity
  8
VERMASSUNG
100
AcDbCircle
 10
271.2040537594
 20
75.4178008673
 30
0.0
 40
52.37392667947032
100
AcDbArc
 50
170.4459991263
 51
177.0
  0
ARC
  5
253
330
24E
100
AcDbEntity
  8
VERMASSUNG
100
AcDbCircle
 10
271.2040537594
 20
75.4178008673
 30
0.0
 40
52.37392667947029
100
AcDbArc
 50
180.0
 51
186.5540008737
  0
SOLID
  5
254
330
24E
100
AcDbEntity
  8
VERMASSUNG
100
AcDbTrace
 10
218.9019037262
 20
78.1588404023
 30
0.0
 11
219.593070579
 21
81.1126156784
 31
0.0
 12
218.6960191451
 22
81.1854080191
 32
0.0
 13
218.6960191451
 23
81.1854080191
 33
0.0
  0
SOLID
  5
255
330
24E
100
AcDbEntity
  8
VERMASSUNG
100
AcDbTrace
 10
218.83012708
 20
75.4178008673
 30
0.0
 11
218.4661263461
 21
72.4061562227
 31
0.0
 12
219.365758059
 22
72.4319007595
 32
0.0
 13
219.365758059
 23
72.4319007595
 33
0.0
  0
LINE
  5
256
330
24E
100
AcDbEntity
  8
VERMASSUNG
100
AcDbLine
 10
224.745321975
 20
77.8525998285
 30
0.0
 11
217.9032741915
 21
78.2111763586
 31
0.0
  0
LINE
  5
257
330
24E
100
AcDbEntity
  8
VERMASSUNG
100
AcDbLine
 10
224.3906359562
 20
75.4178008673
 30
0.0
 11
217.83012708
 21
75.4178008673
 31
0.0
  0
MTEXT
  5
258
330
24E
100
AcDbEntity
  8
VERMASSUNG
100
AcDbMText
 10
216.2368134844
 20
75.5575294537
 30
0.0
 40
2.0
 41
0.0
 71
     1
 72
     1
  1
3°
  7
SLDTEXTSTYLE0
 11
0.02617694830785472
 21
0.9996573249755578
 31
0.0
 73
     1
 44
1.0
  0
ENDBLK
  5
250
330
24E
100
AcDbEntity
  8
0
100
AcDbBlockEnd
  0
BLOCK
  5
25C
330
25B
100
AcDbEntity
  8
0
100
AcDbBlockBegin
  2
*D2
 70
     1
 10
0.0
 20
0.0
 30
0.0
  3
*D2
  1

  0
SOLID
  5
25E
330
25B
100
AcDbEntity
  8
VERMASSUNG
100
AcDbTrace
 10
248.3066897342
 20
157.6321718503
 30
0.0
 11
245.3066897342
 21
158.0821718503
 31
0.0
 12
245.3066897342
 22
157.1821718503
 32
0.0
 13
245.3066897342
 23
157.1821718503
 33
0.0
  0
SOLID
  5
25F
330
25B
100
AcDbEntity
  8
VERMASSUNG
100
AcDbTrace
 10
178.3066897342
 20
157.6321718503
 30
0.0
 11
181.3066897342
 21
157.1821718503
 31
0.0
 12
181.3066897342
 22
158.0821718503
 32
0.0
 13
181.3066897342
 23
158.0821718503
 33
0.0
  0
LINE
  5
260
330
25B
100
AcDbEntity
  8
VERMASSUNG
100
AcDbLine
 10
248.3066897342
 20
75.4178008673
 30
0.0
 11
248.3066897342
 21
158.6321718503
 31
0.0
  0
LINE
  5
261
330
25B
100
AcDbEntity
  8
VERMASSUNG
100
AcDbLine
 10
178.3066897342
 20
151.6178008673
 30
0.0
 11
178.3066897342
 21
158.6321718503
 31
0.0
  0
LINE
  5
262
330
25B
100
AcDbEntity
  8
VERMASSUNG
100
AcDbLine
 10
248.3066897342
 20
157.6321718503
 30
0.0
 11
178.3066897342
 21
157.6321718503
 31
0.0
  0
MTEXT
  5
263
330
25B
100
AcDbEntity
  8
VERMASSUNG
100
AcDbMText
 10
211.9077472951
 20
160.2103072135
 30
0.0
 40
2.0
 41
0.0
 71
     1
 72
     1
  1
70
  7
SLDTEXTSTYLE0
 73
     1
 44
1.0
  0
ENDBLK
  5
25D
330
25B
100
AcDbEntity
  8
0
100
AcDbBlockEnd
  0
BLOCK
  5
266
330
265
100
AcDbEntity
  8
0
100
AcDbBlockBegin
  2
*D3
 70
     1
 10
0.0
 20
0.0
 30
0.0
  3
*D3
  1

  0
SOLID
  5
268
330
265
100
AcDbEntity
  8
VERMASSUNG
100
AcDbTrace
 10
248.3066897342
 20
163.6321718503
 30
0.0
 11
245.3066897342
 21
164.0821718503
 31
0.0
 12
245.3066897342
 22
163.1821718503
 32
0.0
 13
245.3066897342
 23
163.1821718503
 33
0.0
  0
SOLID
  5
269
330
265
100
AcDbEntity
  8
VERMASSUNG
100
AcDbTrace
 10
146.4066897342
 20
163.6321718503
 30
0.0
 11
149.4066897342
 21
163.1821718503
 31
0.0
 12
149.4066897342
 22
164.0821718503
 32
0.0
 13
149.4066897342
 23
164.0821718503
 33
0.0
  0
LINE
  5
26A
330
265
100
AcDbEntity
  8
VERMASSUNG
100
AcDbLine
 10
248.3066897342
 20
75.4178008673
 30
0.0
 11
248.3066897342
 21
164.6321718503
 31
0.0
  0
LINE
  5
26B
330
265
100
AcDbEntity
  8
VERMASSUNG
100
AcDbLine
 10
146.4066897342
 20
140.393861372
 30
0.0
 11
146.4066897342
 21
164.6321718503
 31
0.0
  0
LINE
  5
26C
330
265
100
AcDbEntity
  8
VERMASSUNG
100
AcDbLine
 10
248.3066897342
 20
163.6321718503
 30
0.0
 11
146.4066897342
 21
163.6321718503
 31
0.0
  0
MTEXT
  5
26D
330
265
100
AcDbEntity
  8
VERMASSUNG
100
AcDbMText
 10
194.6573219293
 20
166.2103072135
 30
0.0
 40
2.0
 41
0.0
 71
     1
 72
     1
  1
101.9
  7
SLDTEXTSTYLE0
 73
     1
 44
1.0
  0
ENDBLK
  5
267
330
265
100
AcDbEntity
  8
0
100
AcDbBlockEnd
  0
BLOCK
  5
270
330
26F
100
AcDbEntity
  8
0
100
AcDbBlockBegin
  2
*D4
 70
     1
 10
0.0
 20
0.0
 30
0.0
  3
*D4
  1

  0
SOLID
  5
272
330
26F
100
AcDbEntity
  8
VERMASSUNG
100
AcDbTrace
 10
256.3747930686
 20
120.4178008673
 30
0.0
 11
255.9247930686
 21
117.4178008673
 31
0.0
 12
256.8247930686
 22
117.4178008673
 32
0.0
 13
256.8247930686
 23
117.4178008673
 33
0.0
  0
SOLID
  5
273
330
26F
100
AcDbEntity
  8
VERMASSUNG
100
AcDbTrace
 10
256.3747930686
 20
75.4178008673
 30
0.0
 11
256.8247930686
 21
78.4178008673
 31
0.0
 12
255.9247930686
 22
78.4178008673
 32
0.0
 13
255.9247930686
 23
78.4178008673
 33
0.0
  0
LINE
  5
274
330
26F
100
AcDbEntity
  8
VERMASSUNG
100
AcDbLine
 10
244.9278283892
 20
120.4178008673
 30
0.0
 11
257.3747930686
 21
120.4178008673
 31
0.0
  0
LINE
  5
275
330
26F
100
AcDbEntity
  8
VERMASSUNG
100
AcDbLine
 10
248.3066897342
 20
75.4178008673
 30
0.0
 11
257.3747930686
 21
75.4178008673
 31
0.0
  0
LINE
  5
276
330
26F
100
AcDbEntity
  8
VERMASSUNG
100
AcDbLine
 10
256.3747930686
 20
120.4178008673
 30
0.0
 11
256.3747930686
 21
75.4178008673
 31
0.0
  0
MTEXT
  5
277
330
26F
100
AcDbEntity
  8
VERMASSUNG
100
AcDbMText
 10
253.7966577055
 20
96.4178784283
 30
0.0
 40
2.0
 41
0.0
 71
     1
 72
     1
  1
45
  7
SLDTEXTSTYLE0
 11
-7.044195017643634E-15
 21
1.0
 31
0.0
 73
     1
 44
1.0
  0
ENDBLK
  5
271
330
26F
100
AcDbEntity
  8
0
100
AcDbBlockEnd
  0
BLOCK
  5
27A
330
279
100
AcDbEntity
  8
0
100
AcDbBlockBegin
  2
*D5
 70
     1
 10
0.0
 20
0.0
 30
0.0
  3
*D5
  1

  0
SOLID
  5
27C
330
279
100
AcDbEntity
  8
VERMASSUNG
100
AcDbTrace
 10
136.2724262204
 20
151.9178008673
 30
0.0
 11
135.8224262204
 21
148.9178008673
 31
0.0
 12
136.7224262204
 22
148.9178008673
 32
0.0
 13
136.7224262204
 23
148.9178008673
 33
0.0
  0
SOLID
  5
27D
330
279
100
AcDbEntity
  8
VERMASSUNG
100
AcDbTrace
 10
136.2724262204
 20
88.9178008673
 30
0.0
 11
136.7224262204
 21
91.9178008673
 31
0.0
 12
135.8224262204
 22
91.9178008673
 32
0.0
 13
135.8224262204
 23
91.9178008673
 33
0.0
  0
LINE
  5
27E
330
279
100
AcDbEntity
  8
VERMASSUNG
100
AcDbLine
 10
178.6066897342
 20
151.9178008673
 30
0.0
 11
135.2724262204
 21
151.9178008673
 31
0.0
  0
LINE
  5
27F
330
279
100
AcDbEntity
  8
VERMASSUNG
100
AcDbLine
 10
178.6066897342
 20
88.9178008673
 30
0.0
 11
135.2724262204
 21
88.9178008673
 31
0.0
  0
LINE
  5
280
330
279
100
AcDbEntity
  8
VERMASSUNG
100
AcDbLine
 10
136.2724262204
 20
151.9178008673
 30
0.0
 11
136.2724262204
 21
88.9178008673
 31
0.0
  0
MTEXT
  5
281
330
279
100
AcDbEntity
  8
VERMASSUNG
100
AcDbMText
 10
133.4942907314
 20
114.2149196478
 30
0.0
 40
2.0
 41
0.0
 71
     1
 72
     1
  1
HSK 
  7
SLDTEXTSTYLE0
 11
-7.044195017643634E-15
 21
1.0
 31
0.0
 73
     1
 44
1.0
  0
MTEXT
  5
282
330
279
100
AcDbEntity
  8
VERMASSUNG
100
AcDbMText
 10
133.6942907409
 20
120.2149197
 30
0.0
 40
2.0
 41
0.0
 71
     1
 72
     1
  1
%%c
  7
SLDTEXTSTYLE0
 11
-7.044195017643634E-15
 21
1.0
 31
0.0
 73
     1
 44
1.0
  0
MTEXT
  5
283
330
279
100
AcDbEntity
  8
VERMASSUNG
100
AcDbMText
 10
133.6942908573
 20
123.8227972088
 30
0.0
 40
2.0
 41
0.0
 71
     1
 72
     1
  1
63
  7
SLDTEXTSTYLE0
 11
-7.044195017643634E-15
 21
1.0
 31
0.0
 73
     1
 44
1.0
  0
ENDBLK
  5
27B
330
279
100
AcDbEntity
  8
0
100
AcDbBlockEnd
  0
BLOCK
  5
2FF
330
2FE
100
AcDbEntity
  8
0
100
AcDbBlockBegin
  2
SW_CENTERMARKSYMBOL_0
 70
     0
 10
0.0
 20
0.0
 30
0.0
  3
SW_CENTERMARKSYMBOL_0
  1

  0
LINE
  5
301
330
2FE
100
AcDbEntity
  8
VERMASSUNG
 62
     0
100
AcDbLine
 10
0.0
 20
0.0
 30
0.0
 11
0.0
 21
2.5
 31
0.0
  0
LINE
  5
302
330
2FE
100
AcDbEntity
  8
VERMASSUNG
 62
     0
100
AcDbLine
 10
0.0
 20
0.0
 30
0.0
 11
-2.5
 21
0.0
 31
0.0
  0
LINE
  5
303
330
2FE
100
AcDbEntity
  8
VERMASSUNG
 62
     0
100
AcDbLine
 10
0.0
 20
0.0
 30
0.0
 11
0.0
 21
-2.5
 31
0.0
  0
LINE
  5
304
330
2FE
100
AcDbEntity
  8
VERMASSUNG
 62
     0
100
AcDbLine
 10
0.0
 20
0.0
 30
0.0
 11
2.5
 21
0.0
 31
0.0
  0
LINE
  5
305
330
2FE
100
AcDbEntity
  8
VERMASSUNG
 62
     0
100
AcDbLine
 10
0.0
 20
5.0
 30
0.0
 11
0.0
 21
34.0
 31
0.0
  0
LINE
  5
306
330
2FE
100
AcDbEntity
  8
VERMASSUNG
 62
     0
100
AcDbLine
 10
-5.0
 20
0.0
 30
0.0
 11
-34.0
 21
0.0
 31
0.0
  0
LINE
  5
307
330
2FE
100
AcDbEntity
  8
VERMASSUNG
 62
     0
100
AcDbLine
 10
0.0
 20
-5.0
 30
0.0
 11
0.0
 21
-47.7531507772
 31
0.0
  0
LINE
  5
308
330
2FE
100
AcDbEntity
  8
VERMASSUNG
 62
     0
100
AcDbLine
 10
5.0
 20
0.0
 30
0.0
 11
34.0
 21
0.0
 31
0.0
  0
ENDBLK
  5
300
330
2FE
100
AcDbEntity
  8
0
100
AcDbBlockEnd
  0
ENDSEC
  0
SECTION
  2
ENTITIES
  0
MTEXT
  5
45
330
1F
100
AcDbEntity
  8
KOPF_DÜNN
100
AcDbMText
 10
13.8892156294
 20
23.8442973028
 30
0.0
 40
3.0
 41
0.0
 71
     1
 72
     1
  1
HA6.PDF.LJA.070
  7
SLDTEXTSTYLE0
 73
     1
 44
1.0
  0
MTEXT
  5
46
330
1F
100
AcDbEntity
  8
VERMASSUNG
100
AcDbMText
 10
13.9329988022
 20
28.8834360957
 30
0.0
 40
3.0
 41
0.0
 71
     1
 72
     1
  1
Klemmhalter links_Turning tool left 55° /93°
  7
SLDTEXTSTYLE0
 73
     1
 44
1.0
  0
MTEXT
  5
47
330
1F
100
AcDbEntity
  8
VERMASSUNG
100
AcDbMText
 10
98.8601118557
 20
13.8365368179
 30
0.0
 40
2.0
 41
0.0
 71
     1
 72
     1
  1
Datum: 20.09.2010
  7
SLDTEXTSTYLE0
 73
     1
 44
1.0
  0
MTEXT
  5
49
330
1F
100
AcDbEntity
  8
VERMASSUNG
100
AcDbMText
 10
13.933048693
 20
18.0482802738
 30
0.0
 40
2.0
 41
0.0
 71
     1
 72
     1
  1
DIN 69893 HSK 63 A ICTM / DN.. 15 04..
  7
SLDTEXTSTYLE1
 73
     1
 44
1.0
  0
MTEXT
  5
4A
330
1F
100
AcDbEntity
  8
VERMASSUNG
100
AcDbMText
 10
13.9808475933
 20
13.9090973692
 30
0.0
 40
2.0
 41
0.0
 71
     1
 72
     1
  1
Gewicht: 1132g
  7
SLDTEXTSTYLE0
 73
     1
 44
1.0
  0
LINE
  5
4B
330
1F
100
AcDbEntity
  8
0
  6
Continuous
 62
     7
370
    15
100
AcDbLine
 10
234.5345313721
 20
81.1487653121
 30
0.0
 11
234.8722891938
 21
80.8390663001
 31
0.0
  0
LINE
  5
4C
330
1F
100
AcDbEntity
  8
0
  6
Continuous
 62
     7
370
    15
100
AcDbLine
 10
178.6066897342
 20
88.9178008673
 30
0.0
 11
183.2566897342
 21
88.9178008673
 31
0.0
  0
LINE
  5
4D
330
1F
100
AcDbEntity
  8
0
  6
Continuous
 62
     7
370
    15
100
AcDbLine
 10
183.2846780932
 20
151.9178008673
 30
0.0
 11
178.6066897342
 21
151.9178008673
 31
0.0
  0
ARC
  5
4E
330
1F
100
AcDbEntity
  8
0
  6
Continuous
 62
     7
370
    15
100
AcDbCircle
 10
178.6066897342
 20
89.2178008673
 30
0.0
 40
0.3000000000000114
100
AcDbArc
 50
180.0
 51
270.0
  0
ARC
  5
4F
330
1F
100
AcDbEntity
  8
0
  6
Continuous
 62
     7
370
    15
100
AcDbCircle
 10
178.6066897342
 20
151.6178008673
 30
0.0
 40
0.3000000000000114
100
AcDbArc
 50
90.0
 51
180.0
  0
ARC
  5
50
330
1F
100
AcDbEntity
  8
0
  6
Continuous
 62
     7
370
    15
100
AcDbCircle
 10
205.2566897342
 20
93.4178008673
 30
0.0
 40
1.000000000000003
100
AcDbArc
 50
90.0
 51
143.1139143113
  0
ARC
  5
51
330
1F
100
AcDbEntity
  8
0
  6
Continuous
 62
     7
370
    15
100
AcDbCircle
 10
205.2566897342
 20
147.4178008673
 30
0.0
 40
1.000000000000003
100
AcDbArc
 50
216.8996843908
 51
270.0
  0
LINE
  5
52
330
1F
100
AcDbEntity
  8
0
  6
Continuous
 62
     7
370
    15
100
AcDbLine
 10
205.2566897342
 20
94.4178008673
 30
0.0
 11
219.5393627462
 21
94.4178008673
 31
0.0
  0
LINE
  5
53
330
1F
100
AcDbEntity
  8
0
  6
Continuous
 62
     7
370
    15
100
AcDbLine
 10
219.5393627462
 20
146.4178008673
 30
0.0
 11
205.2566897342
 21
146.4178008673
 31
0.0
  0
ARC
  5
54
330
1F
100
AcDbEntity
  8
0
  6
Continuous
 62
     7
370
    15
100
AcDbCircle
 10
177.8066897342
 20
95.8473700056
 30
0.0
 40
0.5999999999999943
100
AcDbArc
 50
33.5573097619
 51
90.0
  0
ARC
  5
55
330
1F
100
AcDbEntity
  8
0
  6
Continuous
 62
     7
370
    15
100
AcDbCircle
 10
177.8066897342
 20
144.9882317291
 30
0.0
 40
0.6000000000000227
100
AcDbArc
 50
270.0
 51
326.4426902381
  0
LINE
  5
56
330
1F
100
AcDbEntity
  8
0
  6
Continuous
 62
     7
370
    15
100
AcDbLine
 10
176.3066897342
 20
96.1973700056
 30
0.0
 11
177.1634025075
 21
96.4269255014
 31
0.0
  0
LINE
  5
57
330
1F
100
AcDbEntity
  8
0
  6
Continuous
 62
     7
370
    15
100
AcDbLine
 10
177.1634025075
 20
144.4086762333
 30
0.0
 11
176.3066897342
 21
144.6382317291
 31
0.0
  0
LINE
  5
58
330
1F
100
AcDbEntity
  8
0
  6
Continuous
 62
     7
370
    15
100
AcDbLine
 10
165.0751809353
 20
144.0755308874
 30
0.0
 11
152.5066897342
 21
143.4458469595
 31
0.0
  0
LINE
  5
59
330
1F
100
AcDbEntity
  8
0
  6
Continuous
 62
     7
370
    15
100
AcDbLine
 10
176.3066897342
 20
144.6382317291
 30
0.0
 11
173.4896880768
 21
144.4970993815
 31
0.0
  0
LINE
  5
5A
330
1F
100
AcDbEntity
  8
0
  6
Continuous
 62
     7
370
    15
100
AcDbLine
 10
173.4897441669
 20
96.3384995431
 30
0.0
 11
176.3066897342
 21
96.1973700056
 31
0.0
  0
LINE
  5
5B
330
1F
100
AcDbEntity
  8
0
  6
Continuous
 62
     7
370
    15
100
AcDbLine
 10
156.5066897342
 20
97.1893539736
 30
0.0
 11
165.075583454
 21
96.760050681
 31
0.0
  0
ARC
  5
5C
330
1F
100
AcDbEntity
  8
0
  6
Continuous
 62
     7
370
    15
100
AcDbCircle
 10
177.3186939346
 20
95.8473700056
 30
0.0
 40
0.600000000000037
100
AcDbArc
 50
90.0
 51
105.0
  0
ARC
  5
5D
330
1F
100
AcDbEntity
  8
0
  6
Continuous
 62
     7
370
    15
100
AcDbCircle
 10
177.3186939346
 20
144.9882317291
 30
0.0
 40
0.6000000000000008
100
AcDbArc
 50
255.0
 51
270.0
  0
LINE
  5
5E
330
1F
100
AcDbEntity
  8
0
  6
Continuous
 62
     7
370
    15
100
AcDbLine
 10
177.3186939346
 20
96.4473700056
 30
0.0
 11
177.8066897342
 21
96.4473700056
 31
0.0
  0
LINE
  5
5F
330
1F
100
AcDbEntity
  8
0
  6
Continuous
 62
     7
370
    15
100
AcDbLine
 10
177.8066897342
 20
144.3882317291
 30
0.0
 11
177.3186939346
 21
144.3882317291
 31
0.0
  0
ARC
  5
60
330
1F
100
AcDbEntity
  8
0
  6
Continuous
 62
     7
370
    15
100
AcDbCircle
 10
219.5393627462
 20
147.4178008673
 30
0.0
 40
1.000000000000003
100
AcDbArc
 50
270.0
 51
345.0
  0
ARC
  5
61
330
1F
100
AcDbEntity
  8
0
  6
Continuous
 62
     7
370
    15
100
AcDbCircle
 10
219.5393627462
 20
93.4178008673
 30
0.0
 40
1.0
100
AcDbArc
 50
15.0
 51
90.0
  0
LINE
  5
62
330
1F
100
AcDbEntity
  8
0
  6
Continuous
 62
     7
370
    15
100
AcDbLine
 10
220.5746302518
 20
147.4177684925
 30
0.0
 11
220.5052885725
 21
147.1589818222
 31
0.0
  0
LINE
  5
63
330
1F
100
AcDbEntity
  8
0
  6
Continuous
 62
     7
370
    15
100
AcDbLine
 10
147.5566897342
 20
99.5478008673
 30
0.0
 11
155.1066897342
 21
99.5478008673
 31
0.0
  0
ARC
  5
64
330
1F
100
AcDbEntity
  8
0
  6
Continuous
 62
     7
370
    15
100
AcDbCircle
 10
155.1066897342
 20
98.1478008673
 30
0.0
 40
1.399999999999991
100
AcDbArc
 50
41.1788388679
 51
90.0
  0
ARC
  5
65
330
1F
100
AcDbEntity
  8
0
  6
Continuous
 62
     7
370
    15
100
AcDbCircle
 10
151.1066897342
 20
142.6878008673
 30
0.0
 40
1.400000000000006
100
AcDbArc
 50
270.0
 51
301.7485287426
  0
LINE
  5
66
330
1F
100
AcDbEntity
  8
0
  6
Continuous
 62
     7
370
    15
100
AcDbLine
 10
151.1066897342
 20
141.2878008673
 30
0.0
 11
147.680955468
 21
141.2878008673
 31
0.0
  0
LINE
  5
67
330
1F
100
AcDbEntity
  8
0
  6
Continuous
 62
     7
370
    15
100
AcDbLine
 10
147.5395584148
 20
141.2779100955
 30
0.0
 11
146.6719765602
 21
140.7770114782
 31
0.0
  0
LINE
  5
68
330
1F
100
AcDbEntity
  8
0
  6
Continuous
 62
     7
370
    15
100
AcDbLine
 10
147.5464564859
 20
99.553709036
 30
0.0
 11
147.5566897342
 21
99.5478008673
 31
0.0
  0
LINE
  5
69
330
1F
100
AcDbEntity
  8
0
  6
Continuous
 62
     7
370
    15
100
AcDbLine
 10
146.6323124083
 20
100.0814903653
 30
0.0
 11
147.5464564859
 21
99.553709036
 31
0.0
  0
LINE
  5
6A
330
1F
100
AcDbEntity
  8
0
  6
Continuous
 62
     7
370
    15
100
AcDbLine
 10
222.7298306919
 20
85.3745156992
 30
0.0
 11
224.745321975
 21
77.8525998285
 31
0.0
  0
LINE
  5
6B
330
1F
100
AcDbEntity
  8
0
  6
Continuous
 62
     7
370
    15
100
AcDbLine
 10
220.5052885725
 20
93.6766199124
 30
0.0
 11
221.5707999352
 21
89.7000773707
 31
0.0
  0
LINE
  5
6C
330
1F
100
AcDbEntity
  8
0
  6
Continuous
 62
     7
370
    15
100
AcDbLine
 10
224.745321975
 20
77.8525998285
 30
0.0
 11
232.0909318694
 21
77.4676327264
 31
0.0
  0
LINE
  5
6D
330
1F
100
AcDbEntity
  8
0
  6
Continuous
 62
     7
370
    15
100
AcDbLine
 10
240.6121374578
 20
87.997391286
 30
0.0
 11
240.4527253768
 21
88.1543815393
 31
0.0
  0
LINE
  5
6E
330
1F
100
AcDbEntity
  8
0
  6
Continuous
 62
     7
370
    15
100
AcDbLine
 10
232.5186218253
 20
76.6522135471
 30
0.0
 11
233.345187151
 21
75.838205606
 31
0.0
  0
LINE
  5
6F
330
1F
100
AcDbEntity
  8
0
  6
Continuous
 62
     7
370
    15
100
AcDbLine
 10
231.7487571061
 20
77.4855653459
 30
0.0
 11
232.359662208
 21
76.8839412651
 31
0.0
  0
ELLIPSE
  5
70
330
1F
100
AcDbEntity
  8
0
  6
Continuous
 62
     7
370
    15
100
AcDbEllipse
 10
236.4633975837
 20
82.5684851887
 30
0.0
 11
1.638720360290051
 21
1.684449447900505
 31
0.0
210
0.0
220
0.0
230
1.0
 40
0.9711290287
 41
4.574308320363152
 42
6.257469958747301
  0
ELLIPSE
  5
71
330
1F
100
AcDbEntity
  8
0
  6
Continuous
 62
     7
370
    15
100
AcDbEllipse
 10
236.4633975837
 20
82.5684851887
 30
0.0
 11
1.638720360290051
 21
1.684449447900505
 31
0.0
210
0.0
220
0.0
230
1.0
 40
0.9711290287
 41
2.915835274590304
 42
4.574308320363166
  0
LWPOLYLINE
  5
72
330
1F
100
AcDbEntity
  8
0
  6
Continuous
 62
     7
370
    15
100
AcDbPolyline
 90
       31
 70
   128
 43
0.0
 10
226.7541831737
 20
97.2469891059
 10
227.4646832122
 20
97.3888674132
 10
228.1846322224
 20
97.3806887838
 10
228.8825649778
 20
97.2228106632
 10
229.527978468
 20
96.9221330827
 10
230.0926650265
 20
96.4917970956
 10
230.5519451409
 20
95.9506104492
 10
230.8857460663
 20
95.3222255972
 10
231.0794791006
 20
94.6341059727
 10
231.1246771806
 20
93.9163257053
 10
231.0193649333
 20
93.2002552371
 10
230.7681450091
 20
92.5171902835
 10
230.3819969244
 20
91.8969840608
 10
229.8777972033
 20
91.366742557
 10
229.2775817931
 20
90.9496398701
 10
228.6075829873
 20
90.663905389
 10
227.8970829488
 20
90.5220270818
 10
227.1771339386
 20
90.5302057111
 10
226.4792011832
 20
90.6880838318
 10
225.833787693
 20
90.9887614122
 10
225.2691011345
 20
91.4190973994
 10
224.8098210202
 20
91.9602840457
 10
224.4760200947
 20
92.5886688978
 10
224.2822870604
 20
93.2767885223
 10
224.2370889804
 20
93.9945687896
 10
224.3424012277
 20
94.7106392579
 10
224.5936211519
 20
95.3937042114
 10
224.9797692366
 20
96.0139104341
 10
225.4839689577
 20
96.544151938
 10
226.0841843679
 20
96.9612546249
 10
226.7541831737
 20
97.2469891059
  0
LWPOLYLINE
  5
73
330
1F
100
AcDbEntity
  8
0
  6
Continuous
 62
     7
370
    15
100
AcDbPolyline
 90
       24
 70
   128
 43
0.0
 10
227.1513402766
 20
95.8363283095
 10
227.6828072816
 20
95.9251207304
 10
228.2141315773
 20
95.8678314798
 10
228.7059072715
 20
95.6687094393
 10
229.1216616107
 20
95.3425225796
 10
229.4305599973
 20
94.9134626881
 10
229.6096928513
 20
94.4133511739
 10
229.6457747083
 20
93.8792790202
 10
229.5361295421
 20
93.3508559156
 10
229.288889233
 20
92.8672725842
 10
228.9223904636
 20
92.4643941895
 10
228.4638147713
 20
92.172100379
 10
227.947172617
 20
92.0120692475
 10
227.4107809861
 20
91.9961695718
 10
226.8944215918
 20
92.1255805583
 10
226.4363904484
 20
92.390704386
 10
226.0706576303
 20
92.7718780336
 10
225.8243478675
 20
93.2408315953
 10
225.7157288284
 20
93.7627849307
 10
225.7528562902
 20
94.2990271488
 10
225.9329766789
 20
94.8097876174
 10
226.2427312893
 20
95.2571855691
 10
226.6591470389
 20
95.6080395446
 10
227.1513402766
 20
95.8363283095
  0
SPLINE
  5
74
330
1F
100
AcDbEntity
  8
0
  6
Continuous
 62
     7
370
    15
100
AcDbSpline
210
0.0
220
0.0
230
1.0
 70
     8
 71
     3
 72
    11
 73
     7
 74
     0
 42
0.00000001
 43
0.00000001
 40
0.0
 40
0.0
 40
0.0
 40
0.0
 40
0.1081100880371205
 40
0.4711580666043557
 40
0.8135808430836128
 40
1.0
 40
1.0
 40
1.0
 40
1.0
 10
227.2100450374824
 20
92.33615734193499
 30
0.0
 10
227.2607271923975
 20
92.35814383210614
 30
0.0
 10
227.4816067287547
 20
92.45396386507939
 30
0.0
 10
227.9202622208546
 20
92.61851126546328
 30
0.0
 10
228.4517847780882
 20
92.7614625385894
 30
0.0
 10
228.7484143092921
 20
92.8232716070232
 30
0.0
 10
228.8529775514095
 20
92.84505958127333
 30
0.0
  0
SPLINE
  5
75
330
1F
100
AcDbEntity
  8
0
  6
Continuous
 62
     7
370
    15
100
AcDbSpline
210
0.0
220
0.0
230
1.0
 70
     8
 71
     3
 72
    10
 73
     6
 74
     0
 42
0.00000001
 43
0.00000001
 40
0.0
 40
0.0
 40
0.0
 40
0.0
 40
0.4391165375904126
 40
0.7513669429073438
 40
0.9999999999999999
 40
0.9999999999999999
 40
0.9999999999999999
 40
0.9999999999999999
 10
228.8529775514095
 20
92.84505958127335
 30
0.0
 10
228.8958810123071
 20
93.10100182976755
 30
0.0
 10
228.9692926001095
 20
93.5389414843913
 30
0.0
 10
229.1339513761941
 20
94.11850232430957
 30
0.0
 10
229.2332630194121
 20
94.38987512108652
 30
0.0
 10
229.2772867054593
 20
94.51017149742212
 30
0.0
  0
SPLINE
  5
76
330
1F
100
AcDbEntity
  8
0
  6
Continuous
 62
     7
370
    15
100
AcDbSpline
210
0.0
220
0.0
230
1.0
 70
     8
 71
     3
 72
    10
 73
     6
 74
     0
 42
0.00000001
 43
0.00000001
 40
0.0
 40
0.0
 40
0.0
 40
0.0
 40
0.439116537590413
 40
0.7513669429073497
 40
1.0
 40
1.0
 40
1.0
 40
1.0
 10
229.2772867054593
 20
94.51017149742212
 30
0.0
 10
229.0849917112663
 20
94.69326046711765
 30
0.0
 10
228.7559580959166
 20
95.00654176641707
 30
0.0
 10
228.3355916892822
 20
95.40488966969235
 30
0.0
 10
228.1437184853241
 20
95.58606727005485
 30
0.0
 10
228.058663345582
 20
95.66638117423258
 30
0.0
  0
SPLINE
  5
77
330
1F
100
AcDbEntity
  8
0
  6
Continuous
 62
     7
370
    15
100
AcDbSpline
210
0.0
220
0.0
230
1.0
 70
     8
 71
     3
 72
    11
 73
     7
 74
     0
 42
0.00000001
 43
0.00000001
 40
0.0
 40
0.0
 40
0.0
 40
0.0
 40
0.186419156916386
 40
0.5288419333956422
 40
0.8918899119628713
 40
1.0
 40
1.0
 40
1.0
 40
1.0
 10
228.058663345582
 20
95.66638117423258
 30
0.0
 10
227.9541001034646
 20
95.64459319998245
 30
0.0
 10
227.6574705722608
 20
95.58278413154864
 30
0.0
 10
227.1259480150271
 20
95.43983285842253
 30
0.0
 10
226.6872925229272
 20
95.27528545803865
 30
0.0
 10
226.46641298657
 20
95.17946542506539
 30
0.0
 10
226.4157308316548
 20
95.15747893489423
 30
0.0
  0
SPLINE
  5
78
330
1F
100
AcDbEntity
  8
0
  6
Continuous
 62
     7
370
    15
100
AcDbSpline
210
0.0
220
0.0
230
1.0
 70
     8
 71
     3
 72
    10
 73
     6
 74
     0
 42
0.00000001
 43
0.00000001
 40
0.0
 40
0.0
 40
0.0
 40
0.0
 40
0.4391165375904099
 40
0.7513669429073462
 40
1.0
 40
1.0
 40
1.0
 40
1.0
 10
226.4157308316548
 20
95.15747893489423
 30
0.0
 10
226.337148039566
 20
94.93667396837947
 30
0.0
 10
226.2026859840466
 20
94.5588572876884
 30
0.0
 10
226.0651637048863
 20
93.95257221520953
 30
0.0
 10
226.0140706356404
 20
93.63371339294562
 30
0.0
 10
225.991421677605
 20
93.49236701874544
 30
0.0
  0
SPLINE
  5
79
330
1F
100
AcDbEntity
  8
0
  6
Continuous
 62
     7
370
    15
100
AcDbSpline
210
0.0
220
0.0
230
1.0
 70
     8
 71
     3
 72
    10
 73
     6
 74
     0
 42
0.00000001
 43
0.00000001
 40
0.0
 40
0.0
 40
0.0
 40
0.0
 40
0.4391165375904127
 40
0.7513669429073495
 40
0.9999999999999999
 40
0.9999999999999999
 40
0.9999999999999999
 40
0.9999999999999999
 10
225.991421677605
 20
93.49236701874544
 30
0.0
 10
226.1480373406068
 20
93.34441533102934
 30
0.0
 10
226.4160204882395
 20
93.09125700566261
 30
0.0
 10
226.8635233917981
 20
92.66618486982678
 30
0.0
 10
227.1036151697284
 20
92.4375212439773
 30
0.0
 10
227.2100450374824
 20
92.33615734193499
 30
0.0
  0
LINE
  5
7A
330
1F
100
AcDbEntity
  8
0
  6
Continuous
 62
     7
370
    15
100
AcDbLine
 10
225.9526695358
 20
93.5524804564
 30
0.0
 11
226.5619812158
 21
92.974375618
 31
0.0
  0
LINE
  5
7B
330
1F
100
AcDbEntity
  8
0
  6
Continuous
 62
     7
370
    15
100
AcDbLine
 10
226.5619812158
 20
92.974375618
 30
0.0
 11
227.2100450375
 21
92.3361573419
 31
0.0
  0
LINE
  5
7C
330
1F
100
AcDbEntity
  8
0
  6
Continuous
 62
     7
370
    15
100
AcDbLine
 10
228.2049137297
 20
93.4832778573
 30
0.0
 11
228.8529775514
 21
92.8450595813
 31
0.0
  0
LINE
  5
7D
330
1F
100
AcDbEntity
  8
0
  6
Continuous
 62
     7
370
    15
100
AcDbLine
 10
228.2049137297
 20
93.4832778573
 30
0.0
 11
228.4170683067
 21
94.3158338154
 31
0.0
  0
LINE
  5
7E
330
1F
100
AcDbEntity
  8
0
  6
Continuous
 62
     7
370
    15
100
AcDbLine
 10
228.4170683067
 20
94.3158338154
 30
0.0
 11
228.6292228838
 21
95.1483897735
 31
0.0
  0
LINE
  5
7F
330
1F
100
AcDbEntity
  8
0
  6
Continuous
 62
     7
370
    15
100
AcDbLine
 10
226.5619812158
 20
92.974375618
 30
0.0
 11
227.3834474728
 21
93.2288267377
 31
0.0
  0
LINE
  5
80
330
1F
100
AcDbEntity
  8
0
  6
Continuous
 62
     7
370
    15
100
AcDbLine
 10
227.3834474728
 20
93.2288267377
 30
0.0
 11
228.2049137297
 21
93.4832778573
 31
0.0
  0
ARC
  5
81
330
1F
100
AcDbEntity
  8
0
  6
Continuous
 62
     7
370
    15
100
AcDbCircle
 10
227.0186638001
 20
94.6833655015
 30
0.0
 40
1.445895813821504
100
AcDbArc
 50
345.2744292312
 51
46.1736142531
  0
ARC
  5
82
330
1F
100
AcDbEntity
  8
0
  6
Continuous
 62
     7
370
    15
100
AcDbCircle
 10
226.9259314181
 20
94.6988045938
 30
0.0
 40
1.539531044788379
100
AcDbArc
 50
287.2882364323
 51
345.5959663922
  0
ARC
  5
83
330
1F
100
AcDbEntity
  8
0
  6
Continuous
 62
     7
370
    15
100
AcDbCircle
 10
226.9439453447
 20
94.610268208
 30
0.0
 40
1.449669843976094
100
AcDbArc
 50
226.8591497682
 51
287.6483378491
  0
LINE
  5
84
330
1F
100
AcDbEntity
  8
0
  6
Continuous
 62
     7
370
    15
100
AcDbLine
 10
203.6566897342
 20
90.2308831711
 30
0.0
 11
199.6986225656
 21
90.2308831711
 31
0.0
  0
LINE
  5
85
330
1F
100
AcDbEntity
  8
0
  6
Continuous
 62
     7
370
    15
100
AcDbLine
 10
199.6986225656
 20
90.2308831711
 30
0.0
 11
199.6986225656
 21
140.2678008673
 31
0.0
  0
LINE
  5
86
330
1F
100
AcDbEntity
  8
0
  6
Continuous
 62
     7
370
    15
100
AcDbLine
 10
199.6986225656
 20
140.2678008673
 30
0.0
 11
203.6566897342
 21
140.2678008673
 31
0.0
  0
SPLINE
  5
87
330
1F
100
AcDbEntity
  8
0
  6
Continuous
 62
     7
370
    15
100
AcDbSpline
210
0.0
220
0.0
230
1.0
 70
     8
 71
     3
 72
     8
 73
     4
 74
     0
 42
0.00000001
 43
0.00000001
 40
0.0
 40
0.0
 40
0.0
 40
0.0
 40
1.0
 40
1.0
 40
1.0
 40
1.0
 10
199.6986225656449
 20
90.23088317109307
 30
0.0
 10
199.2031429049792
 20
91.12640925902642
 30
0.0
 10
198.709028856937
 20
92.02269367407865
 30
0.0
 10
198.2166897341558
 20
92.91996370828535
 30
0.0
  0
LINE
  5
88
330
1F
100
AcDbEntity
  8
0
  6
Continuous
 62
     7
370
    15
100
AcDbLine
 10
198.2166897342
 20
92.9199637083
 30
0.0
 11
198.2166897342
 21
140.2678008673
 31
0.0
  0
SPLINE
  5
89
330
1F
100
AcDbEntity
  8
0
  6
Continuous
 62
     7
370
    15
100
AcDbSpline
210
0.0
220
0.0
230
1.0
 70
    24
 71
     3
 72
     8
 73
     4
 74
     0
 42
0.00000001
 43
0.00000001
 40
0.0
 40
0.0
 40
0.0
 40
0.0
 40
1.0
 40
1.0
 40
1.0
 40
1.0
 10
198.2166897341558
 20
140.2678008673402
 30
0.0
 10
198.6966417285207
 20
140.2678008673402
 30
0.0
 10
199.1919424574943
 20
140.2678008673402
 30
0.0
 10
199.6986225656449
 20
140.2678008673402
 30
0.0
  0
LINE
  5
8A
330
1F
100
AcDbEntity
  8
0
  6
Continuous
 62
     7
370
    15
100
AcDbLine
 10
194.3966897342
 20
92.9199637083
 30
0.0
 11
194.3966897342
 21
140.2678008673
 31
0.0
  0
SPLINE
  5
8B
330
1F
100
AcDbEntity
  8
0
  6
Continuous
 62
     7
370
    15
100
AcDbSpline
210
0.0
220
0.0
230
1.0
 70
     8
 71
     3
 72
     8
 73
     4
 74
     0
 42
0.00000001
 43
0.00000001
 40
0.0
 40
0.0
 40
0.0
 40
0.0
 40
1.0
 40
1.0
 40
1.0
 40
1.0
 10
194.3966897341558
 20
92.91996370828535
 30
0.0
 10
193.9043506113746
 20
92.02269367407865
 30
0.0
 10
193.4102365633325
 20
91.12640925902642
 30
0.0
 10
192.9147569026668
 20
90.23088317109307
 30
0.0
  0
LINE
  5
8C
330
1F
100
AcDbEntity
  8
0
  6
Continuous
 62
     7
370
    15
100
AcDbLine
 10
192.9147569027
 20
90.2308831711
 30
0.0
 11
192.9147569027
 21
140.2678008673
 31
0.0
  0
SPLINE
  5
8D
330
1F
100
AcDbEntity
  8
0
  6
Continuous
 62
     7
370
    15
100
AcDbSpline
210
0.0
220
0.0
230
1.0
 70
    24
 71
     3
 72
     8
 73
     4
 74
     0
 42
0.00000001
 43
0.00000001
 40
0.0
 40
0.0
 40
0.0
 40
0.0
 40
1.0
 40
1.0
 40
1.0
 40
1.0
 10
192.9147569026668
 20
140.2678008673402
 30
0.0
 10
193.4214370108173
 20
140.2678008673402
 30
0.0
 10
193.9167377397909
 20
140.2678008673402
 30
0.0
 10
194.3966897341558
 20
140.2678008673402
 30
0.0
  0
LINE
  5
8E
330
1F
100
AcDbEntity
  8
0
  6
Continuous
 62
     7
370
    15
100
AcDbLine
 10
204.2566897342
 20
90.8575234667
 30
0.0
 11
204.2566897342
 21
140.2678008673
 31
0.0
  0
SPLINE
  5
8F
330
1F
100
AcDbEntity
  8
0
  6
Continuous
 62
     7
370
    15
100
AcDbSpline
210
0.0
220
0.0
230
1.0
 70
     8
 71
     3
 72
    10
 73
     6
 74
     0
 42
0.00000001
 43
0.00000001
 40
0.0
 40
0.0
 40
0.0
 40
0.0
 40
0.5
 40
0.5
 40
1.0
 40
1.0
 40
1.0
 40
1.0
 10
204.2566897341558
 20
90.85752346674738
 30
0.0
 10
204.2566897341558
 20
90.69763619855372
 30
0.0
 10
204.19538008292
 20
90.53650894303914
 30
0.0
 10
203.9762804453849
 20
90.3024099446843
 30
0.0
 10
203.8182322390714
 20
90.23088317109308
 30
0.0
 10
203.6566897341558
 20
90.23088317109307
 30
0.0
  0
SPLINE
  5
90
330
1F
100
AcDbEntity
  8
0
  6
Continuous
 62
     7
370
    15
100
AcDbSpline
210
0.0
220
0.0
230
1.0
 70
    24
 71
     3
 72
    12
 73
     8
 74
     0
 42
0.00000001
 43
0.00000001
 40
0.0
 40
0.0
 40
0.0
 40
0.0
 40
0.25
 40
0.25
 40
0.5
 40
0.5
 40
1.0
 40
1.0
 40
1.0
 40
1.0
 10
203.6566897341558
 20
140.2678008673402
 30
0.0
 10
203.7469288018429
 20
140.2678008673402
 30
0.0
 10
203.8378269159494
 20
140.2678008673402
 30
0.0
 10
203.9924239524379
 20
140.2678008673402
 30
0.0
 10
204.057402368546
 20
140.2678008673402
 30
0.0
 10
204.2092373964823
 20
140.2678008673402
 30
0.0
 10
204.2566897341558
 20
140.2678008673402
 30
0.0
 10
204.2566897341558
 20
140.2678008673402
 30
0.0
  0
LINE
  5
91
330
1F
100
AcDbEntity
  8
0
  6
Continuous
 62
     7
370
    15
100
AcDbLine
 10
183.2566897342
 20
140.2678008673
 30
0.0
 11
192.9147569027
 21
140.2678008673
 31
0.0
  0
LINE
  5
92
330
1F
100
AcDbEntity
  8
0
  6
Continuous
 62
     7
370
    15
100
AcDbLine
 10
192.9147569027
 20
90.2308831711
 30
0.0
 11
191.2566897342
 21
90.2308831711
 31
0.0
  0
SPLINE
  5
93
330
1F
100
AcDbEntity
  8
0
  6
Continuous
 62
     7
370
    15
100
AcDbSpline
210
0.0
220
0.0
230
1.0
 70
     8
 71
     3
 72
    28
 73
    24
 74
     0
 42
0.00000001
 43
0.00000001
 40
0.0
 40
0.0
 40
0.0
 40
0.0
 40
0.1250000000000003
 40
0.1250000000000003
 40
0.1875000000000006
 40
0.1875000000000006
 40
0.250000000000001
 40
0.250000000000001
 40
0.3750000000000016
 40
0.3750000000000016
 40
0.4375000000000018
 40
0.4375000000000018
 40
0.5000000000000018
 40
0.5000000000000018
 40
0.6250000000000013
 40
0.6250000000000013
 40
0.750000000000001
 40
0.750000000000001
 40
0.8125000000000008
 40
0.8125000000000008
 40
0.8750000000000006
 40
0.8750000000000006
 40
1.0
 40
1.0
 40
1.0
 40
1.0
 10
191.2566897341558
 20
90.23088317109307
 30
0.0
 10
190.7249819766629
 20
90.23088317109307
 30
0.0
 10
190.2027434113526
 20
90.21509845714286
 30
0.0
 10
189.4328729250776
 20
90.17010304306665
 30
0.0
 10
189.1785133528862
 20
90.15154804799093
 30
0.0
 10
188.6743917721877
 20
90.10769532554444
 30
0.0
 10
188.4246689547598
 20
90.08235071859224
 30
0.0
 10
187.6990790033134
 20
89.99894864084214
 30
0.0
 10
187.2407187417319
 20
89.93308308169104
 30
0.0
 10
186.590220798338
 20
89.82411274119924
 30
0.0
 10
186.3785387475455
 20
89.7858731054326
 30
0.0
 10
185.9744672584075
 20
89.70811436801326
 30
0.0
 10
185.7819607445866
 20
89.6686134058379
 30
0.0
 10
185.2321257735653
 20
89.5497056634719
 30
0.0
 10
184.9021969952566
 20
89.46988798204727
 30
0.0
 10
184.3177257266879
 20
89.31654482025122
 30
0.0
 10
184.0714485886744
 20
89.24521106698197
 30
0.0
 10
183.7716057959764
 20
89.15126755990734
 30
0.0
 10
183.6831489389042
 20
89.1220737665474
 30
0.0
 10
183.5297875855991
 20
89.06860719228399
 30
0.0
 10
183.4646993713728
 20
89.04424785800883
 30
0.0
 10
183.309105355432
 20
88.9806577125641
 30
0.0
 10
183.2566897341558
 20
88.95055477747485
 30
0.0
 10
183.2566897341558
 20
88.93367788447792
 30
0.0
  0
LINE
  5
94
330
1F
100
AcDbEntity
  8
0
  6
Continuous
 62
     7
370
    15
100
AcDbLine
 10
183.2566897342
 20
88.9336778845
 30
0.0
 11
183.2566897342
 21
88.9178008673
 31
0.0
  0
SPLINE
  5
95
330
1F
100
AcDbEntity
  8
0
  6
Continuous
 62
     7
370
    15
100
AcDbSpline
210
0.0
220
0.0
230
1.0
 70
     8
 71
     3
 72
    17
 73
    13
 74
     0
 42
0.00000001
 43
0.00000001
 40
0.0
 40
0.0
 40
0.0
 40
0.0
 40
0.1034796923964061
 40
0.2100239188807855
 40
0.3134862136955589
 40
0.4198361274354886
 40
0.5254127712915679
 40
0.633961069541978
 40
0.7409508756305029
 40
0.8511696089308178
 40
0.9558996534551947
 40
1.0
 40
1.0
 40
1.0
 40
1.0
 10
191.2566897341558
 20
150.8849963405044
 30
0.0
 10
190.8214413850458
 20
150.8904445370378
 30
0.0
 10
189.9380548784808
 20
150.9015022775496
 30
0.0
 10
188.6572272932521
 20
150.9878606704511
 30
0.0
 10
187.4398107573781
 20
151.1157308469889
 30
0.0
 10
186.3320049051316
 20
151.274676145582
 30
0.0
 10
185.3437661011833
 20
151.4491698332977
 30
0.0
 10
184.5190425436518
 20
151.6183356839375
 30
0.0
 10
183.8700890429925
 20
151.7662194664659
 30
0.0
 10
183.4530542275308
 20
151.8680100506966
 30
0.0
 10
183.2544575145663
 20
151.9183615732998
 30
0.0
 10
183.2777702359996
 20
151.9124558890775
 30
0.0
 10
183.2846780932371
 20
151.9107059593829
 30
0.0
  0
LINE
  5
96
330
1F
100
AcDbEntity
  8
0
  6
Continuous
 62
     7
370
    15
100
AcDbLine
 10
192.9147569027
 20
150.8849963405
 30
0.0
 11
191.2566897342
 21
150.8849963405
 31
0.0
  0
LINE
  5
97
330
1F
100
AcDbEntity
  8
0
  6
Continuous
 62
     7
370
    15
100
AcDbLine
 10
192.9147569027
 20
144.8764905297
 30
0.0
 11
192.9147569027
 21
150.8849963405
 31
0.0
  0
LINE
  5
98
330
1F
100
AcDbEntity
  8
0
  6
Continuous
 62
     7
370
    15
100
AcDbLine
 10
190.5023100798
 20
144.8764905297
 30
0.0
 11
192.9147569027
 21
144.8764905297
 31
0.0
  0
SPLINE
  5
99
330
1F
100
AcDbEntity
  8
0
  6
Continuous
 62
     7
370
    15
100
AcDbSpline
210
0.0
220
0.0
230
1.0
 70
     8
 71
     3
 72
    20
 73
    16
 74
     0
 42
0.00000001
 43
0.00000001
 40
0.0
 40
0.0
 40
0.0
 40
0.0
 40
0.2500000000000004
 40
0.2500000000000004
 40
0.3750000000000003
 40
0.3750000000000003
 40
0.5000000000000002
 40
0.5000000000000002
 40
0.6250000000000001
 40
0.6250000000000001
 40
0.75
 40
0.75
 40
0.875
 40
0.875
 40
1.0
 40
1.0
 40
1.0
 40
1.0
 10
183.2566897341558
 20
140.2678008673402
 30
0.0
 10
183.5050634684439
 20
140.9216632956376
 30
0.0
 10
183.8246335607892
 20
141.5254490776348
 30
0.0
 10
184.4469397939938
 20
142.3522878138033
 30
0.0
 10
184.6783640544246
 20
142.6147164517563
 30
0.0
 10
185.1995783940743
 20
143.1113791058612
 30
0.0
 10
185.4861988767094
 20
143.3419659848827
 30
0.0
 10
186.105683618017
 20
143.7585202094654
 30
0.0
 10
186.439983997504
 20
143.9460180114329
 30
0.0
 10
187.1652444701288
 20
144.2774149890693
 30
0.0
 10
187.5471595275192
 20
144.4169189765646
 30
0.0
 10
188.3419477036909
 20
144.6423724840355
 30
0.0
 10
188.7561058978973
 20
144.7289985955792
 30
0.0
 10
189.6216522384786
 20
144.8469793844333
 30
0.0
 10
190.0595398534905
 20
144.8764905297076
 30
0.0
 10
190.5023100798451
 20
144.8764905297076
 30
0.0
  0
LINE
  5
9A
330
1F
100
AcDbEntity
  8
0
  6
Continuous
 62
     7
370
    15
100
AcDbLine
 10
178.3066897342
 20
89.2178008673
 30
0.0
 11
178.3066897342
 21
151.6178008672
 31
0.0
  0
SPLINE
  5
9B
330
1F
100
AcDbEntity
  8
0
  6
Continuous
 62
     7
370
    15
100
AcDbSpline
210
0.0
220
0.0
230
1.0
 70
     8
 71
     3
 72
    10
 73
     6
 74
     0
 42
0.00000001
 43
0.00000001
 40
0.0
 40
0.0
 40
0.0
 40
0.0
 40
0.5
 40
0.5
 40
1.0
 40
1.0
 40
1.0
 40
1.0
 10
194.7909872658468
 20
146.8178008673402
 30
0.0
 10
194.6694470021783
 20
146.892527034552
 30
0.0
 10
194.5681126418293
 20
147.0014720504687
 30
0.0
 10
194.4324736989409
 20
147.2519025312303
 30
0.0
 10
194.3966897341558
 20
147.3943218933293
 30
0.0
 10
194.3966897341558
 20
147.537454718376
 30
0.0
  0
SPLINE
  5
9C
330
1F
100
AcDbEntity
  8
0
  6
Continuous
 62
     7
370
    15
100
AcDbSpline
210
0.0
220
0.0
230
1.0
 70
    24
 71
     3
 72
    12
 73
     8
 74
     0
 42
0.00000001
 43
0.00000001
 40
0.0
 40
0.0
 40
0.0
 40
0.0
 40
0.2500000000000029
 40
0.2500000000000029
 40
0.5000000000000058
 40
0.5000000000000058
 40
1.0
 40
1.0
 40
1.0
 40
1.0
 10
195.1966897341559
 20
146.8178008673402
 30
0.0
 10
195.1473463723462
 20
146.8178008673402
 30
0.0
 10
195.0986556740446
 20
146.8178008673402
 30
0.0
 10
195.0158045764742
 20
146.8178008673402
 30
0.0
 10
194.9796046088536
 20
146.8178008673402
 30
0.0
 10
194.8838546923042
 20
146.8178008673402
 30
0.0
 10
194.8339727224921
 20
146.8178008673402
 30
0.0
 10
194.7909872658468
 20
146.8178008673402
 30
0.0
  0
SPLINE
  5
9D
330
1F
100
AcDbEntity
  8
0
  6
Continuous
 62
     7
370
    15
100
AcDbSpline
210
0.0
220
0.0
230
1.0
 70
    24
 71
     3
 72
    14
 73
    10
 74
     0
 42
0.00000001
 43
0.00000001
 40
0.0
 40
0.0
 40
0.0
 40
0.0
 40
0.1250000000000017
 40
0.1250000000000017
 40
0.2500000000000034
 40
0.2500000000000034
 40
0.5000000000000032
 40
0.5000000000000032
 40
1.0
 40
1.0
 40
1.0
 40
1.0
 10
195.1966897341558
 20
94.01780086734021
 30
0.0
 10
195.1273430124247
 20
94.01780086734021
 30
0.0
 10
195.0621449590407
 20
94.01780086734021
 30
0.0
 10
194.9577657664137
 20
94.01780086734021
 30
0.0
 10
194.9148633954048
 20
94.01780086734021
 30
0.0
 10
194.8025377378
 20
94.01780086734021
 30
0.0
 10
194.7473140434462
 20
94.01780086734021
 30
0.0
 10
194.6032566646787
 20
94.01780086734021
 30
0.0
 10
194.5411759678472
 20
94.01780086734023
 30
0.0
 10
194.4943645364881
 20
94.01780086734021
 30
0.0
  0
SPLINE
  5
9E
330
1F
100
AcDbEntity
  8
0
  6
Continuous
 62
     7
370
    15
100
AcDbSpline
210
0.0
220
0.0
230
1.0
 70
     8
 71
     3
 72
     9
 73
     5
 74
     0
 42
0.00000001
 43
0.00000001
 40
0.0
 40
0.0
 40
0.0
 40
0.0
 40
0.5
 40
1.0
 40
1.0
 40
1.0
 40
1.0
 10
194.3966897341558
 20
140.5536674988016
 30
0.0
 10
194.3966897341558
 20
140.5054354466788
 30
0.0
 10
194.401095708861
 20
140.4095654332393
 30
0.0
 10
194.4141148889548
 20
140.314856803256
 30
0.0
 10
194.4228373573159
 20
140.2678008673402
 30
0.0
  0
SPLINE
  5
9F
330
1F
100
AcDbEntity
  8
0
  6
Continuous
 62
     7
370
    15
100
AcDbSpline
210
0.0
220
0.0
230
1.0
 70
    24
 71
     3
 72
    14
 73
    10
 74
     0
 42
0.00000001
 43
0.00000001
 40
0.0
 40
0.0
 40
0.0
 40
0.0
 40
0.4999999999999973
 40
0.4999999999999973
 40
0.7499999999999987
 40
0.7499999999999987
 40
0.8749999999999993
 40
0.8749999999999993
 40
1.0
 40
1.0
 40
1.0
 40
1.0
 10
198.1190149318236
 20
94.01780086734021
 30
0.0
 10
198.0722302267753
 20
94.01780086734021
 30
0.0
 10
198.0101790299957
 20
94.01780086734021
 30
0.0
 10
197.8667873914451
 20
94.01780086734021
 30
0.0
 10
197.8106437378939
 20
94.01780086734023
 30
0.0
 10
197.6976927157578
 20
94.01780086734021
 30
0.0
 10
197.6546919537196
 20
94.01780086734021
 30
0.0
 10
197.5506292434131
 20
94.01780086734021
 30
0.0
 10
197.4852970050562
 20
94.01780086734021
 30
0.0
 10
197.4166897341558
 20
94.01780086734021
 30
0.0
  0
SPLINE
  5
A0
330
1F
100
AcDbEntity
  8
0
  6
Continuous
 62
     7
370
    15
100
AcDbSpline
210
0.0
220
0.0
230
1.0
 70
    24
 71
     3
 72
    12
 73
     8
 74
     0
 42
0.00000001
 43
0.00000001
 40
0.0
 40
0.0
 40
0.0
 40
0.0
 40
0.5000000000000017
 40
0.5000000000000017
 40
0.7500000000000008
 40
0.7500000000000008
 40
1.0
 40
1.0
 40
1.0
 40
1.0
 10
197.8223922024648
 20
146.8178008673402
 30
0.0
 10
197.7793066528541
 20
146.8178008673402
 30
0.0
 10
197.730154451107
 20
146.8178008673402
 30
0.0
 10
197.6336818568174
 20
146.8178008673402
 30
0.0
 10
197.5975802716832
 20
146.8178008673402
 30
0.0
 10
197.5144745138206
 20
146.8178008673402
 30
0.0
 10
197.4664779168566
 20
146.8178008673402
 30
0.0
 10
197.4166897341558
 20
146.8178008673402
 30
0.0
  0
SPLINE
  5
A1
330
1F
100
AcDbEntity
  8
0
  6
Continuous
 62
     7
370
    15
100
AcDbSpline
210
0.0
220
0.0
230
1.0
 70
     8
 71
     3
 72
    10
 73
     6
 74
     0
 42
0.00000001
 43
0.00000001
 40
0.0
 40
0.0
 40
0.0
 40
0.0
 40
0.5
 40
0.5
 40
1.0
 40
1.0
 40
1.0
 40
1.0
 10
198.2166897341558
 20
147.537454718376
 30
0.0
 10
198.2166897341558
 20
147.393684660558
 30
0.0
 10
198.1806406754369
 20
147.2512652980628
 30
0.0
 10
198.0451318146629
 20
147.0013710047056
 30
0.0
 10
197.9452558215667
 20
146.8933406684574
 30
0.0
 10
197.8223922024648
 20
146.8178008673402
 30
0.0
  0
SPLINE
  5
A2
330
1F
100
AcDbEntity
  8
0
  6
Continuous
 62
     7
370
    15
100
AcDbSpline
210
0.0
220
0.0
230
1.0
 70
     8
 71
     3
 72
    10
 73
     6
 74
     0
 42
0.00000001
 43
0.00000001
 40
0.0
 40
0.0
 40
0.0
 40
0.0
 40
0.5
 40
0.5
 40
1.0
 40
1.0
 40
1.0
 40
1.0
 10
198.1905421109957
 20
140.2678008673402
 30
0.0
 10
198.1992317539074
 20
140.3146797166583
 30
0.0
 10
198.2057708186578
 20
140.3621021820596
 30
0.0
 10
198.2145294530509
 20
140.4580389806463
 30
0.0
 10
198.2166897341558
 20
140.5059542686568
 30
0.0
 10
198.2166897341558
 20
140.5536674988014
 30
0.0
  0
LINE
  5
A3
330
1F
100
AcDbEntity
  8
0
  6
Continuous
 62
     7
370
    15
100
AcDbLine
 10
197.4166897342
 20
146.8178008673
 30
0.0
 11
195.1966897342
 21
146.8178008673
 31
0.0
  0
LINE
  5
A4
330
1F
100
AcDbEntity
  8
0
  6
Continuous
 62
     7
370
    15
100
AcDbLine
 10
197.4166897342
 20
94.0178008673
 30
0.0
 11
195.1966897342
 21
94.0178008673
 31
0.0
  0
LINE
  5
A5
330
1F
100
AcDbEntity
  8
0
  6
Continuous
 62
     7
370
    15
100
AcDbLine
 10
204.4566886777
 20
146.8178008673
 30
0.0
 11
204.4118240321
 21
146.8178008673
 31
0.0
  0
SPLINE
  5
A6
330
1F
100
AcDbEntity
  8
0
  6
Continuous
 62
     7
370
    15
100
AcDbSpline
210
0.0
220
0.0
230
1.0
 70
    24
 71
     3
 72
    10
 73
     6
 74
     0
 42
0.00000001
 43
0.00000001
 40
0.0
 40
0.0
 40
0.0
 40
0.0
 40
0.5
 40
0.5
 40
1.0
 40
1.0
 40
1.0
 40
1.0
 10
204.4566897341305
 20
94.01780086734021
 30
0.0
 10
204.4566886004916
 20
94.01780086734021
 30
0.0
 10
204.4134837149842
 20
94.01780086734021
 30
0.0
 10
204.3125566775067
 20
94.01780086734021
 30
0.0
 10
204.2566897341558
 20
94.01780086734021
 30
0.0
 10
204.2566897341558
 20
94.01780086734021
 30
0.0
  0
ELLIPSE
  5
A7
330
1F
100
AcDbEntity
  8
0
  6
Continuous
 62
     7
370
    15
100
AcDbEllipse
 10
218.8780050945
 20
120.4178008673
 30
0.0
 11
1.299954407456312
 21
25.99774751943447
 31
0.0
210
0.0
220
0.0
230
0.9999999999999999
 40
0.263265937
 41
0.9013956214295915
 42
2.61558931320791
  0
SPLINE
  5
A8
330
1F
100
AcDbEntity
  8
0
  6
Continuous
 62
     7
370
    15
100
AcDbSpline
210
0.0
220
0.0
230
1.0
 70
     8
 71
     3
 72
    14
 73
    10
 74
     0
 42
0.00000001
 43
0.00000001
 40
0.0
 40
0.0
 40
0.0
 40
0.0
 40
0.25
 40
0.25
 40
0.5
 40
0.5
 40
0.75
 40
0.75
 40
1.0
 40
1.0
 40
1.0
 40
1.0
 10
219.0710401264962
 20
95.85657542681538
 30
0.0
 10
218.4463963597907
 20
95.89794645255562
 30
0.0
 10
217.8626650199519
 20
95.97456550219512
 30
0.0
 10
216.7766216197637
 20
96.2090474616956
 30
0.0
 10
216.3026883789244
 20
96.36139615497902
 30
0.0
 10
215.4828937904118
 20
96.74706202991663
 30
0.0
 10
215.1539558648783
 20
96.97244624232063
 30
0.0
 10
214.6299556637289
 20
97.49636536126236
 30
0.0
 10
214.443436068341
 20
97.78670975439542
 30
0.0
 10
214.3173742347633
 20
98.10624180201663
 30
0.0
  0
ELLIPSE
  5
A9
330
1F
100
AcDbEntity
  8
0
  6
Continuous
 62
     7
370
    15
100
AcDbEllipse
 10
290.8954074748
 20
120.4178008673
 30
0.0
 11
147.4511159362817
 21
4.655015242949119
 31
0.0
210
0.0
220
0.0
230
1.0
 40
0.1734804855
 41
4.198147323375356
 42
4.201780320235503
  0
ELLIPSE
  5
AA
330
1F
100
AcDbEntity
  8
0
  6
Continuous
 62
     7
370
    15
100
AcDbEllipse
 10
290.8954074748
 20
120.4178008673
 30
0.0
 11
147.4511159362817
 21
4.655015242949119
 31
0.0
210
0.0
220
0.0
230
1.0
 40
0.1734804855
 41
2.070451577396939
 42
2.074084574257086
  0
SPLINE
  5
AB
330
1F
100
AcDbEntity
  8
0
  6
Continuous
 62
     7
370
    15
100
AcDbSpline
210
0.0
220
0.0
230
1.0
 70
     8
 71
     3
 72
    20
 73
    16
 74
     0
 42
0.00000001
 43
0.00000001
 40
0.0
 40
0.0
 40
0.0
 40
0.0
 40
0.2500000000000007
 40
0.2500000000000007
 40
0.3750000000000006
 40
0.3750000000000006
 40
0.5000000000000004
 40
0.5000000000000004
 40
0.6250000000000003
 40
0.6250000000000003
 40
0.7500000000000002
 40
0.7500000000000002
 40
0.8750000000000001
 40
0.8750000000000001
 40
1.0
 40
1.0
 40
1.0
 40
1.0
 10
214.3173742347633
 20
136.8182002040051
 30
0.0
 10
214.4435105639383
 20
137.3014098605389
 30
0.0
 10
214.62945289037
 20
137.7526641460482
 30
0.0
 10
215.0178161167475
 20
138.381249385041
 30
0.0
 10
215.1670163850197
 20
138.5841251325777
 30
0.0
 10
215.5012076724976
 20
138.9650877903608
 30
0.0
 10
215.6853996375475
 20
139.142833533951
 30
0.0
 10
216.0903114635874
 20
139.4733575800268
 30
0.0
 10
216.3118073867107
 20
139.6266187636992
 30
0.0
 10
216.7924114118725
 20
139.9054935678127
 30
0.0
 10
217.0460920856899
 20
140.0281254036775
 30
0.0
 10
217.5803881525605
 20
140.2417724139247
 30
0.0
 10
217.8609840823194
 20
140.332803422352
 30
0.0
 10
218.451146500761
 20
140.4827641520049
 30
0.0
 10
218.758092841501
 20
140.5407748612306
 30
0.0
 10
219.0710401264962
 20
140.5806659728298
 30
0.0
  0
ELLIPSE
  5
AC
330
1F
100
AcDbEntity
  8
0
  6
Continuous
 62
     7
370
    15
100
AcDbEllipse
 10
213.530976755
 20
108.0344569982
 30
0.0
 11
-0.2506366587653304
 21
3.580131742809982
 31
0.0
210
0.0
220
0.0
230
0.9999999999999999
 40
0.2071261215
 41
0.0
 42
6.283185307179586
  0
LINE
  5
AD
330
1F
100
AcDbEntity
  8
0
  6
Continuous
 62
     7
370
    15
100
AcDbLine
 10
176.3066897342
 20
96.1973700056
 30
0.0
 11
176.3066897342
 21
144.6382317291
 31
0.0
  0
LINE
  5
AE
330
1F
100
AcDbEntity
  8
0
  6
Continuous
 62
     7
370
    15
100
AcDbLine
 10
156.5066897342
 20
97.1893539736
 30
0.0
 11
156.5066897342
 21
98.4434851592
 31
0.0
  0
SPLINE
  5
AF
330
1F
100
AcDbEntity
  8
0
  6
Continuous
 62
     7
370
    15
100
AcDbSpline
210
0.0
220
0.0
230
1.0
 70
     8
 71
     3
 72
    12
 73
     8
 74
     0
 42
0.00000001
 43
0.00000001
 40
0.0
 40
0.0
 40
0.0
 40
0.0
 40
0.2500000000000004
 40
0.2500000000000004
 40
0.5000000000000008
 40
0.5000000000000008
 40
1.0
 40
1.0
 40
1.0
 40
1.0
 10
155.7820170812888
 20
99.5583079793142
 30
0.0
 10
155.8308576516239
 20
99.45240833204292
 30
0.0
 10
155.9159045668238
 20
99.35047477063542
 30
0.0
 10
156.0855559753874
 20
99.15396856539718
 30
0.0
 10
156.1720179741136
 20
99.05894120379827
 30
0.0
 10
156.3974111790305
 20
98.78166270943926
 30
0.0
 10
156.5066897341558
 20
98.6069453366285
 30
0.0
 10
156.5066897341558
 20
98.44348515918315
 30
0.0
  0
SPLINE
  5
B0
330
1F
100
AcDbEntity
  8
0
  6
Continuous
 62
     7
370
    15
100
AcDbSpline
210
0.0
220
0.0
230
1.0
 70
     8
 71
     3
 72
    14
 73
    10
 74
     0
 42
0.00000001
 43
0.00000001
 40
0.0
 40
0.0
 40
0.0
 40
0.0
 40
0.1250000000000029
 40
0.1250000000000029
 40
0.2500000000000058
 40
0.2500000000000058
 40
0.500000000000007
 40
0.500000000000007
 40
1.0
 40
1.0
 40
1.0
 40
1.0
 10
155.1066897341559
 20
100.0948974417882
 30
0.0
 10
155.1634644893764
 20
100.1013658949269
 30
0.0
 10
155.2261475903055
 20
100.0955085917181
 30
0.0
 10
155.3320353648435
 20
100.0656122703803
 30
0.0
 10
155.3759396224446
 20
100.0437373284254
 30
0.0
 10
155.4883728706023
 20
99.97436604175859
 30
0.0
 10
155.5415010744646
 20
99.92186698755727
 30
0.0
 10
155.6764885362048
 20
99.76658397923896
 30
0.0
 10
155.7347492476846
 20
99.66079750540463
 30
0.0
 10
155.7820170813032
 20
99.55830797931503
 30
0.0
  0
SPLINE
  5
B1
330
1F
100
AcDbEntity
  8
0
  6
Continuous
 62
     7
370
    15
100
AcDbSpline
210
0.0
220
0.0
230
1.0
 70
     8
 71
     3
 72
    10
 73
     6
 74
     0
 42
0.00000001
 43
0.00000001
 40
0.0
 40
0.0
 40
0.0
 40
0.0
 40
0.5
 40
0.5
 40
1.0
 40
1.0
 40
1.0
 40
1.0
 10
152.3345633574409
 20
99.7214861194768
 30
0.0
 10
152.7815042986654
 20
99.79521157915583
 30
0.0
 10
153.2416161872076
 20
99.86154023103602
 30
0.0
 10
154.1685058909522
 20
99.98456969986944
 30
0.0
 10
154.636209622988
 20
100.0412947703198
 30
0.0
 10
155.1066897341559
 20
100.0948974417882
 30
0.0
  0
SPLINE
  5
B2
330
1F
100
AcDbEntity
  8
0
  6
Continuous
 62
     7
370
    15
100
AcDbSpline
210
0.0
220
0.0
230
1.0
 70
     8
 71
     3
 72
    14
 73
    10
 74
     0
 42
0.00000001
 43
0.00000001
 40
0.0
 40
0.0
 40
0.0
 40
0.0
 40
0.4999999999999989
 40
0.4999999999999989
 40
0.7499999999999994
 40
0.7499999999999994
 40
0.8749999999999997
 40
0.8749999999999997
 40
1.0
 40
1.0
 40
1.0
 40
1.0
 10
147.5566897341558
 20
99.54806533444932
 30
0.0
 10
148.3645867582538
 20
99.54947756647452
 30
0.0
 10
149.1703509265801
 20
99.55587054419169
 30
0.0
 10
150.3707915975883
 20
99.58492235582648
 30
0.0
 10
150.769610450882
 20
99.59775529160018
 30
0.0
 10
151.3631388010307
 20
99.62821347316567
 30
0.0
 10
151.5602016994288
 20
99.64022610342757
 30
0.0
 10
151.9511407342781
 20
99.67186757070606
 30
0.0
 10
152.1455157861016
 20
99.69030164338018
 30
0.0
 10
152.3345633574409
 20
99.72148611947674
 30
0.0
  0
SPLINE
  5
B3
330
1F
100
AcDbEntity
  8
0
  6
Continuous
 62
     7
370
    15
100
AcDbSpline
210
0.0
220
0.0
230
1.0
 70
     8
 71
     3
 72
     8
 73
     4
 74
     0
 42
0.00000001
 43
0.00000001
 40
0.0000003409637668
 40
0.0000003409637668
 40
0.0000003409637668
 40
0.0000003409637668
 40
0.000017415394438
 40
0.000017415394438
 40
0.000017415394438
 40
0.000017415394438
 10
147.5466448037376
 20
99.55406113224105
 30
0.0
 10
147.5499834544959
 20
99.55205889714367
 30
0.0
 10
147.5533318296756
 20
99.5500603053735
 30
0.0
 10
147.5566897341558
 20
99.54806533444932
 30
0.0
  0
SPLINE
  5
B4
330
1F
100
AcDbEntity
  8
0
  6
Continuous
 62
     7
370
    15
100
AcDbSpline
210
0.0
220
0.0
230
1.0
 70
     8
 71
     3
 72
     8
 73
     4
 74
     0
 42
0.00000001
 43
0.00000001
 40
0.0000003292049707
 40
0.0000003292049707
 40
0.0000003292049707
 40
0.0000003292049707
 40
0.0000169050949325
 40
0.0000169050949325
 40
0.0000169050949325
 40
0.0000169050949325
 10
147.5566897341558
 20
141.2877386327353
 30
0.0
 10
147.553333152019
 20
141.2858266386384
 30
0.0
 10
147.5499847878935
 20
141.2839113483833
 30
0.0
 10
147.5466448037244
 20
141.281992739768
 30
0.0
  0
SPLINE
  5
B5
330
1F
100
AcDbEntity
  8
0
  6
Continuous
 62
     7
370
    15
100
AcDbSpline
210
0.0
220
0.0
230
1.0
 70
     8
 71
     3
 72
    10
 73
     6
 74
     0
 42
0.00000001
 43
0.00000001
 40
0.0
 40
0.0
 40
0.0
 40
0.0
 40
0.5
 40
0.5
 40
1.0
 40
1.0
 40
1.0
 40
1.0
 10
151.1066897341558
 20
141.2408882591679
 30
0.0
 10
150.5191041870652
 20
141.2619537794043
 30
0.0
 10
149.9283577936048
 20
141.2727122652766
 30
0.0
 10
148.744338628306
 20
141.2860770458122
 30
0.0
 10
148.1509246401005
 20
141.2882196884768
 30
0.0
 10
147.5566897341558
 20
141.2877386327353
 30
0.0
  0
SPLINE
  5
B6
330
1F
100
AcDbEntity
  8
0
  6
Continuous
 62
     7
370
    15
100
AcDbSpline
210
0.0
220
0.0
230
1.0
 70
     8
 71
     3
 72
    18
 73
    14
 74
     0
 42
0.00000001
 43
0.00000001
 40
0.0
 40
0.0
 40
0.0
 40
0.0
 40
0.249999999999999
 40
0.249999999999999
 40
0.499999999999998
 40
0.499999999999998
 40
0.749999999999997
 40
0.749999999999997
 40
0.874999999999998
 40
0.874999999999998
 40
0.937499999999999
 40
0.937499999999999
 40
1.0
 40
1.0
 40
1.0
 40
1.0
 10
152.5066897341558
 20
142.2619085397032
 30
0.0
 10
152.5066897341558
 20
142.178701630846
 30
0.0
 10
152.4708406342176
 20
142.0899649755324
 30
0.0
 10
152.3459688981836
 20
141.9078397849722
 30
0.0
 10
152.2555684805358
 20
141.8127097363456
 30
0.0
 10
152.0333258257936
 20
141.6235282272212
 30
0.0
 10
151.9035610393478
 20
141.5285830591266
 30
0.0
 10
151.6629235820363
 20
141.3903043515466
 30
0.0
 10
151.5751562838988
 20
141.3445939182442
 30
0.0
 10
151.420632196692
 20
141.2867706130228
 30
0.0
 10
151.3640213106373
 20
141.2690558489849
 30
0.0
 10
151.2399772797307
 20
141.244516545752
 30
0.0
 10
151.1722626047124
 20
141.2385374072137
 30
0.0
 10
151.1066897341558
 20
141.240888259168
 30
0.0
  0
LINE
  5
B7
330
1F
100
AcDbEntity
  8
0
  6
Continuous
 62
     7
370
    15
100
AcDbLine
 10
152.5066897342
 20
142.2619085397
 30
0.0
 11
152.5066897342
 21
143.4458469595
 31
0.0
  0
SPLINE
  5
B8
330
1F
100
AcDbEntity
  8
0
  6
Continuous
 62
     7
370
    15
100
AcDbSpline
210
0.0
220
0.0
230
1.0
 70
     8
 71
     3
 72
    24
 73
    20
 74
     0
 42
0.00000001
 43
0.00000001
 40
0.0
 40
0.0
 40
0.0
 40
0.0
 40
0.0010489762969681
 40
0.063784312563679
 40
0.1272220590447885
 40
0.1903788924483973
 40
0.2526748653693586
 40
0.3146354154422261
 40
0.3770891997149649
 40
0.4393540298503558
 40
0.5008133242537848
 40
0.562184510459622
 40
0.6248438451115926
 40
0.6874304766625544
 40
0.7496743174679394
 40
0.8119848426976354
 40
0.8750960525413138
 40
0.9384412526964336
 40
1.0
 40
1.0
 40
1.0
 40
1.0
 10
165.0755955661315
 20
96.76029243876008
 30
0.0
 10
165.0751491060273
 20
96.7602341529412
 30
0.0
 10
165.0480015423333
 20
96.75669001099872
 30
0.0
 10
165.1436133199472
 20
96.76952375568136
 30
0.0
 10
165.3771735778404
 20
96.79877044088147
 30
0.0
 10
165.7727278851582
 20
96.84538476394432
 30
0.0
 10
166.2997681889945
 20
96.89556790560361
 30
0.0
 10
166.9432986009849
 20
96.93994436805346
 30
0.0
 10
167.681972456224
 20
96.96688914899153
 30
0.0
 10
168.4794869616583
 20
96.97036099969851
 30
0.0
 10
169.306065844105
 20
96.94273375566783
 30
0.0
 10
170.131588861717
 20
96.88425486669513
 30
0.0
 10
170.9237154097207
 20
96.7988098373338
 30
0.0
 10
171.65628768372
 20
96.69707559749752
 30
0.0
 10
172.29192792045
 20
96.58923247552514
 30
0.0
 10
172.8138390274561
 20
96.48760231878639
 30
0.0
 10
173.1954678045719
 20
96.4051171621082
 30
0.0
 10
173.4462822748062
 20
96.34896795575854
 30
0.0
 10
173.4754038307904
 20
96.34211849714477
 30
0.0
 10
173.4897563516065
 20
96.3387427504166
 30
0.0
  0
SPLINE
  5
B9
330
1F
100
AcDbEntity
  8
0
  6
Continuous
 62
     7
370
    15
100
AcDbSpline
210
0.0
220
0.0
230
1.0
 70
     8
 71
     3
 72
    24
 73
    20
 74
     0
 42
0.00000001
 43
0.00000001
 40
0.0
 40
0.0
 40
0.0
 40
0.0
 40
0.0614384276250087
 40
0.1250736755369634
 40
0.1884253490728543
 40
0.2508623904037467
 40
0.3129665632511462
 40
0.3753451453465216
 40
0.4377328972327364
 40
0.4990927322917388
 40
0.560580758844976
 40
0.6229469893028906
 40
0.6854686282028752
 40
0.7475477813740351
 40
0.8098225060807763
 40
0.8730684085990469
 40
0.9364041844530127
 40
0.9991757196257868
 40
1.0
 40
1.0
 40
1.0
 40
1.0
 10
173.4897015808036
 20
144.4968298417976
 30
0.0
 10
173.4751008564999
 20
144.493461784945
 30
0.0
 10
173.4453773377715
 20
144.4866052414712
 30
0.0
 10
173.1926395221237
 20
144.4302666209453
 30
0.0
 10
172.8096436056744
 20
144.3474095388153
 30
0.0
 10
172.2872880212369
 20
144.2455025088641
 30
0.0
 10
171.6525035432368
 20
144.1376633698201
 30
0.0
 10
170.9222799390631
 20
144.036196417845
 30
0.0
 10
170.1318113538293
 20
143.9511367041542
 30
0.0
 10
169.307327839
 20
143.8929324102679
 30
0.0
 10
168.4802913801177
 20
143.8653489714415
 30
0.0
 10
167.681967112465
 20
143.8688419489342
 30
0.0
 10
166.942143148176
 20
143.8957978687872
 30
0.0
 10
166.2978889152008
 20
143.9401518107867
 30
0.0
 10
165.7704816599871
 20
143.9903572605446
 30
0.0
 10
165.3758170578363
 20
144.0369671157427
 30
0.0
 10
165.1432877786516
 20
144.0661627082901
 30
0.0
 10
165.0479077460987
 20
144.0789407772318
 30
0.0
 10
165.0748413830004
 20
144.0753865187236
 30
0.0
 10
165.0751904762248
 20
144.0753404511403
 30
0.0
  0
SPLINE
  5
BA
330
1F
100
AcDbEntity
  8
0
  6
Continuous
 62
     7
370
    15
100
AcDbSpline
210
0.0
220
0.0
230
1.0
 70
     8
 71
     3
 72
    22
 73
    18
 74
     0
 42
0.00000001
 43
0.00000001
 40
0.0
 40
0.0
 40
0.0
 40
0.0
 40
0.124999999999992
 40
0.124999999999992
 40
0.2499999999999841
 40
0.2499999999999841
 40
0.3124999999999832
 40
0.3124999999999832
 40
0.3749999999999824
 40
0.3749999999999824
 40
0.4999999999999861
 40
0.4999999999999861
 40
0.6249999999999898
 40
0.6249999999999898
 40
0.7499999999999934
 40
0.7499999999999934
 40
1.0
 40
1.0
 40
1.0
 40
1.0
 10
147.5466448037249
 20
141.2819927397689
 30
0.0
 10
147.4860250828486
 20
141.2471705631217
 30
0.0
 10
147.4238357428821
 20
141.208666759421
 30
0.0
 10
147.2901062766526
 20
141.1227322716223
 30
0.0
 10
147.2178517349404
 20
141.0744256704201
 30
0.0
 10
147.0959537941046
 20
140.9980739522503
 30
0.0
 10
147.0521472409525
 20
140.9716594916432
 30
0.0
 10
146.9657520717777
 20
140.9231505671126
 30
0.0
 10
146.9234120954859
 20
140.9012164443862
 30
0.0
 10
146.8094413491169
 20
140.8448466544416
 30
0.0
 10
146.7510226231267
 20
140.8184898299079
 30
0.0
 10
146.6511150519392
 20
140.7663500054038
 30
0.0
 10
146.6097010611439
 20
140.7411894156912
 30
0.0
 10
146.5376760932665
 20
140.6860825723642
 30
0.0
 10
146.5073275519536
 20
140.6562261688692
 30
0.0
 10
146.4338358219215
 20
140.5588194668766
 30
0.0
 10
146.4066897341558
 20
140.4824877830662
 30
0.0
 10
146.4066897341558
 20
140.3938613719961
 30
0.0
  0
SPLINE
  5
BB
330
1F
100
AcDbEntity
  8
0
  6
Continuous
 62
     7
370
    15
100
AcDbSpline
210
0.0
220
0.0
230
1.0
 70
     8
 71
     3
 72
    22
 73
    18
 74
     0
 42
0.00000001
 43
0.00000001
 40
0.0
 40
0.0
 40
0.0
 40
0.0
 40
0.2500000000000038
 40
0.2500000000000038
 40
0.3750000000000053
 40
0.3750000000000053
 40
0.5000000000000069
 40
0.5000000000000069
 40
0.6250000000000083
 40
0.6250000000000083
 40
0.6875000000000099
 40
0.6875000000000099
 40
0.7500000000000075
 40
0.7500000000000075
 40
0.8750000000000039
 40
0.8750000000000039
 40
1.0
 40
1.0
 40
1.0
 40
1.0
 10
146.4066897341557
 20
100.4289784284696
 30
0.0
 10
146.4066897341557
 20
100.340914485663
 30
0.0
 10
146.434940315103
 20
100.264233190355
 30
0.0
 10
146.5099361156319
 20
100.1702392033359
 30
0.0
 10
146.5406727202962
 20
100.1419925502961
 30
0.0
 10
146.613329378515
 20
100.0907133743379
 30
0.0
 10
146.6551788363142
 20
100.067711976553
 30
0.0
 10
146.7553825702653
 20
100.0208137771506
 30
0.0
 10
146.8131625339642
 20
99.99797195589693
 30
0.0
 10
146.9278878018799
 20
99.94463770290025
 30
0.0
 10
146.9715634862607
 20
99.92276060571666
 30
0.0
 10
147.0599622004761
 20
99.87295705875086
 30
0.0
 10
147.1041001037651
 20
99.84548313295029
 30
0.0
 10
147.2253638880814
 20
99.76649481605523
 30
0.0
 10
147.2944970364491
 20
99.7178101577679
 30
0.0
 10
147.4252022698321
 20
99.62983462435568
 30
0.0
 10
147.4868127723562
 20
99.58994323008577
 30
0.0
 10
147.5466448037376
 20
99.55406113224099
 30
0.0
  0
LINE
  5
BC
330
1F
100
AcDbEntity
  8
0
  6
Continuous
 62
     7
370
    15
100
AcDbLine
 10
146.4066897342
 20
100.4289784285
 30
0.0
 11
146.4066897342
 21
140.393861372
 31
0.0
  0
SPLINE
  5
BD
330
1F
100
AcDbEntity
  8
0
  6
Continuous
 62
     7
370
    15
100
AcDbSpline
210
0.0
220
0.0
230
1.0
 70
     8
 71
     3
 72
     8
 73
     4
 74
     0
 42
0.00000001
 43
0.00000001
 40
0.0
 40
0.0
 40
0.0
 40
0.0
 40
1.0
 40
1.0
 40
1.0
 40
1.0
 10
199.6986225656449
 20
150.8849963405044
 30
0.0
 10
199.2034825362805
 20
149.9983166923242
 30
0.0
 10
198.7093998310016
 20
149.1110540566382
 30
0.0
 10
198.2166897341558
 20
148.2230350585118
 30
0.0
  0
LINE
  5
BE
330
1F
100
AcDbEntity
  8
0
  6
Continuous
 62
     7
370
    15
100
AcDbLine
 10
199.6986225656
 20
144.8764905297
 30
0.0
 11
199.6986225656
 21
150.8849963405
 31
0.0
  0
SPLINE
  5
BF
330
1F
100
AcDbEntity
  8
0
  6
Continuous
 62
     7
370
    15
100
AcDbSpline
210
0.0
220
0.0
230
1.0
 70
     8
 71
     3
 72
     8
 73
     4
 74
     0
 42
0.00000001
 43
0.00000001
 40
0.0
 40
0.0
 40
0.0
 40
0.0
 40
1.0
 40
1.0
 40
1.0
 40
1.0
 10
198.2166897341558
 20
141.4679445349235
 30
0.0
 10
198.6959678847457
 20
142.6089557647761
 30
0.0
 10
199.1915357238856
 20
143.745340175544
 30
0.0
 10
199.6986225656449
 20
144.8764905297076
 30
0.0
  0
LINE
  5
C0
330
1F
100
AcDbEntity
  8
0
  6
Continuous
 62
     7
370
    15
100
AcDbLine
 10
198.2166897342
 20
141.4679445349
 30
0.0
 11
198.2166897342
 21
148.2230350585
 31
0.0
  0
SPLINE
  5
C1
330
1F
100
AcDbEntity
  8
0
  6
Continuous
 62
     7
370
    15
100
AcDbSpline
210
0.0
220
0.0
230
1.0
 70
     8
 71
     3
 72
     8
 73
     4
 74
     0
 42
0.00000001
 43
0.00000001
 40
0.0
 40
0.0
 40
0.0
 40
0.0
 40
1.0
 40
1.0
 40
1.0
 40
1.0
 10
192.9147569026668
 20
144.8764905297076
 30
0.0
 10
193.421843744426
 20
143.745340175544
 30
0.0
 10
193.917411583566
 20
142.6089557647761
 30
0.0
 10
194.3966897341558
 20
141.4679445349235
 30
0.0
  0
LINE
  5
C2
330
1F
100
AcDbEntity
  8
0
  6
Continuous
 62
     7
370
    15
100
AcDbLine
 10
194.3966897342
 20
141.4679445349
 30
0.0
 11
194.3966897342
 21
140.5536674988
 31
0.0
  0
LINE
  5
C3
330
1F
100
AcDbEntity
  8
0
  6
Continuous
 62
     7
370
    15
100
AcDbLine
 10
199.6986225656
 20
144.8764905297
 30
0.0
 11
203.6566897342
 21
144.8764905297
 31
0.0
  0
SPLINE
  5
C4
330
1F
100
AcDbEntity
  8
0
  6
Continuous
 62
     7
370
    15
100
AcDbSpline
210
0.0
220
0.0
230
1.0
 70
     8
 71
     3
 72
    12
 73
     8
 74
     0
 42
0.00000001
 43
0.00000001
 40
0.0
 40
0.0
 40
0.0
 40
0.0
 40
0.2499999999999987
 40
0.2499999999999987
 40
0.4999999999999973
 40
0.4999999999999973
 40
1.0
 40
1.0
 40
1.0
 40
1.0
 10
203.6566897341558
 20
144.8764905297076
 30
0.0
 10
203.7478894559815
 20
144.8764905297076
 30
0.0
 10
203.8384844651175
 20
144.8482708311197
 30
0.0
 10
203.9918971915642
 20
144.7538278238716
 30
0.0
 10
204.0571060588878
 20
144.6875408471663
 30
0.0
 10
204.2098905882278
 20
144.461916023878
 30
0.0
 10
204.2566897341558
 20
144.2794897608455
 30
0.0
 10
204.2566897341558
 20
144.0987531285986
 30
0.0
  0
LINE
  5
C5
330
1F
100
AcDbEntity
  8
0
  6
Continuous
 62
     7
370
    15
100
AcDbLine
 10
198.2166897342
 20
140.5536674988
 30
0.0
 11
198.2166897342
 21
141.4679445349
 31
0.0
  0
LINE
  5
C6
330
1F
100
AcDbEntity
  8
0
  6
Continuous
 62
     7
370
    15
100
AcDbLine
 10
204.2566897342
 20
144.0987531286
 30
0.0
 11
204.2566897342
 21
140.2678008673
 31
0.0
  0
SPLINE
  5
C7
330
1F
100
AcDbEntity
  8
0
  6
Continuous
 62
     7
370
    15
100
AcDbSpline
210
0.0
220
0.0
230
1.0
 70
     8
 71
     3
 72
     8
 73
     4
 74
     0
 42
0.00000001
 43
0.00000001
 40
0.0
 40
0.0
 40
0.0
 40
0.0
 40
1.0
 40
1.0
 40
1.0
 40
1.0
 10
194.3966897341558
 20
148.2230350585118
 30
0.0
 10
193.9039796373101
 20
149.1110540566382
 30
0.0
 10
193.4098969320311
 20
149.9983166923242
 30
0.0
 10
192.9147569026668
 20
150.8849963405044
 30
0.0
  0
LINE
  5
C8
330
1F
100
AcDbEntity
  8
0
  6
Continuous
 62
     7
370
    15
100
AcDbLine
 10
194.3966897342
 20
141.4679445349
 30
0.0
 11
194.3966897342
 21
148.2230350585
 31
0.0
  0
SPLINE
  5
C9
330
1F
100
AcDbEntity
  8
0
  6
Continuous
 62
     7
370
    15
100
AcDbSpline
210
0.0
220
0.0
230
1.0
 70
     8
 71
     3
 72
    10
 73
     6
 74
     0
 42
0.00000001
 43
0.00000001
 40
0.0
 40
0.0
 40
0.0
 40
0.0
 40
0.5
 40
0.5
 40
1.0
 40
1.0
 40
1.0
 40
1.0
 10
204.2566897341558
 20
150.2642411911041
 30
0.0
 10
204.2566897341558
 20
150.4246464574549
 30
0.0
 10
204.194451903049
 20
150.5837082704435
 30
0.0
 10
203.9753169793064
 20
150.8146207360738
 30
0.0
 10
203.8177282843145
 20
150.8849963405044
 30
0.0
 10
203.6566897341558
 20
150.8849963405044
 30
0.0
  0
LINE
  5
CA
330
1F
100
AcDbEntity
  8
0
  6
Continuous
 62
     7
370
    15
100
AcDbLine
 10
204.2566897342
 20
144.0987531286
 30
0.0
 11
204.2566897342
 21
150.2642411911
 31
0.0
  0
LINE
  5
CB
330
1F
100
AcDbEntity
  8
0
  6
Continuous
 62
     7
370
    15
100
AcDbLine
 10
203.6566897342
 20
150.8849963405
 30
0.0
 11
199.6986225656
 21
150.8849963405
 31
0.0
  0
LINE
  5
CC
330
1F
100
AcDbEntity
  8
0
  6
Continuous
 62
     7
370
    15
100
AcDbLine
 10
240.3761332568
 20
120.9477555633
 30
0.0
 11
225.0227885834
 21
142.4045022617
 31
0.0
  0
LINE
  5
CD
330
1F
100
AcDbEntity
  8
0
  6
Continuous
 62
     7
370
    15
100
AcDbLine
 10
240.3761332568
 20
89.640434618
 30
0.0
 11
240.3761332568
 21
120.9477555633
 31
0.0
  0
ARC
  5
CE
330
1F
100
AcDbEntity
  8
0
  6
Continuous
 62
     7
370
    15
100
AcDbCircle
 10
248.6783665033
 20
89.6383763951
 30
0.0
 40
8.302233501658087
100
AcDbArc
 50
179.9857956915
 51
190.3860962121
  0
LINE
  5
CF
330
1F
100
AcDbEntity
  8
0
  6
Continuous
 62
     7
370
    15
100
AcDbLine
 10
240.5047721641
 20
88.153247496
 30
0.0
 11
240.5121630397
 21
88.1416459227
 31
0.0
  0
LINE
  5
D0
330
1F
100
AcDbEntity
  8
0
  6
Continuous
 62
     7
370
    15
100
AcDbLine
 10
222.0646350575
 20
88.5550381757
 30
0.0
 11
240.5047721641
 21
88.153247496
 31
0.0
  0
SPLINE
  5
D1
330
1F
100
AcDbEntity
  8
0
  6
Continuous
 62
     7
370
    15
100
AcDbSpline
210
0.0
220
0.0
230
1.0
 70
     8
 71
     3
 72
     8
 73
     4
 74
     0
 42
0.00000001
 43
0.00000001
 40
0.0
 40
0.0
 40
0.0
 40
0.0
 40
1.0
 40
1.0
 40
1.0
 40
1.0
 10
220.5052885724659
 20
94.93607925948959
 30
0.0
 10
221.0114582288358
 20
92.805234444039
 30
0.0
 10
221.5336584496202
 20
90.67890129109054
 30
0.0
 10
222.064635057487
 20
88.55503817572033
 30
0.0
  0
SPLINE
  5
D2
330
1F
100
AcDbEntity
  8
0
  6
Continuous
 62
     7
370
    15
100
AcDbSpline
210
0.0
220
0.0
230
1.0
 70
     8
 71
     3
 72
    12
 73
     8
 74
     0
 42
0.00000001
 43
0.00000001
 40
0.0
 40
0.0
 40
0.0
 40
0.0
 40
0.2500000000000026
 40
0.2500000000000026
 40
0.5000000000000051
 40
0.5000000000000051
 40
1.0
 40
1.0
 40
1.0
 40
1.0
 10
220.5052885724659
 20
94.93607925948959
 30
0.0
 10
220.4778345431997
 20
95.0516537021474
 30
0.0
 10
220.4353599513619
 20
95.15996182332732
 30
0.0
 10
220.3216813808287
 20
95.36267998698469
 30
0.0
 10
220.2492437139997
 20
95.45757783963563
 30
0.0
 10
219.9986799973771
 20
95.69883269008992
 30
0.0
 10
219.7785321625966
 20
95.81010814523202
 30
0.0
 10
219.5393627461769
 20
95.82575124883928
 30
0.0
  0
SPLINE
  5
D3
330
1F
100
AcDbEntity
  8
0
  6
Continuous
 62
     7
370
    15
100
AcDbSpline
210
0.0
220
0.0
230
1.0
 70
     8
 71
     3
 72
    10
 73
     6
 74
     0
 42
0.00000001
 43
0.00000001
 40
0.0
 40
0.0
 40
0.0
 40
0.0
 40
0.5
 40
0.5
 40
1.0
 40
1.0
 40
1.0
 40
1.0
 10
219.5393627461769
 20
140.6401691592046
 30
0.0
 10
219.7774719446753
 20
140.6703241821389
 30
0.0
 10
219.9964601176626
 20
140.7931856823813
 30
0.0
 10
220.3337537491422
 20
141.1381167210903
 30
0.0
 10
220.4505584970344
 20
141.3552410747832
 30
0.0
 10
220.5052885724659
 20
141.5889922416691
 30
0.0
  0
SPLINE
  5
D4
330
1F
100
AcDbEntity
  8
0
  6
Continuous
 62
     7
370
    15
100
AcDbSpline
210
0.0
220
0.0
230
1.0
 70
     8
 71
     3
 72
     8
 73
     4
 74
     0
 42
0.00000001
 43
0.00000001
 40
0.0
 40
0.0
 40
0.0
 40
0.0
 40
1.0
 40
1.0
 40
1.0
 40
1.0
 10
220.5746389265869
 20
141.8847279531341
 30
0.0
 10
220.5514884438424
 20
141.7861568030735
 30
0.0
 10
220.5283713347903
 20
141.6875783040072
 30
0.0
 10
220.5052885724659
 20
141.5889922416691
 30
0.0
  0
ELLIPSE
  5
D5
330
1F
100
AcDbEntity
  8
0
  6
Continuous
 62
     7
370
    15
100
AcDbEllipse
 10
290.8954074748
 20
120.4178008673
 30
0.0
 11
153.1223127030618
 21
4.834054290754864
 31
0.0
210
0.0
220
0.0
230
0.9999999999999999
 40
0.1734804855
 41
2.01002244887631
 42
2.042457775235515
  0
LWPOLYLINE
  5
D6
330
1F
100
AcDbEntity
  8
0
  6
Continuous
 62
     7
370
    15
100
AcDbPolyline
 90
       33
 70
   128
 43
0.0
 10
231.6182688468
 20
93.9554472475
 10
231.5190933337
 20
93.1865812425
 10
231.2724175532
 20
92.447262327
 10
230.887721117
 20
91.7659021121
 10
230.3797876934
 20
91.1686848889
 10
229.7681368792
 20
90.6785613803
 10
229.076274072
 20
90.3143667579
 10
228.3307871716
 20
90.0900968167
 10
227.5603248214
 20
90.0143701249
 10
226.7944954575
 20
90.0900968167
 10
226.0627294729
 20
90.3143667579
 10
225.3931482239
 20
90.6785613803
 10
224.8114833425
 20
91.1686848889
 10
224.3400878838
 20
91.7659021121
 10
223.997077311
 20
92.447262327
 10
223.7956333281
 20
93.1865812425
 10
223.7434973142
 20
93.9554472475
 10
223.8426728273
 20
94.7243132524
 10
224.0893486078
 20
95.463632168
 10
224.474045044
 20
96.1449923828
 10
224.9819784676
 20
96.742209606
 10
225.5936292818
 20
97.2323331147
 10
226.285492089
 20
97.5965277371
 10
227.0309789894
 20
97.8207976783
 10
227.8014413396
 20
97.8965243701
 10
228.5672707035
 20
97.8207976783
 10
229.2990366882
 20
97.5965277371
 10
229.9686179371
 20
97.2323331147
 10
230.5502828185
 20
96.742209606
 10
231.0216782772
 20
96.1449923828
 10
231.36468885
 20
95.463632168
 10
231.5661328329
 20
94.7243132524
 10
231.6182688468
 20
93.9554472475
  0
LINE
  5
D7
330
1F
100
AcDbEntity
  8
0
  6
Continuous
 62
     7
370
    15
100
AcDbLine
 10
220.5746389266
 20
141.8847279531
 30
0.0
 11
220.5746389266
 21
147.4177684925
 31
0.0
  0
ELLIPSE
  5
D8
330
1F
100
AcDbEntity
  8
0
  6
Continuous
 62
     7
370
    15
100
AcDbEllipse
 10
240.3048297503
 20
120.4178008673
 30
0.0
 11
-19.75908128153341
 21
26.99227138525109
 31
0.0
210
0.0
220
0.0
230
1.0
 40
0.0326926316
 41
5.640022221476611
 42
6.257709381657742
  0
SPLINE
  5
D9
330
1F
100
AcDbEntity
  8
0
  6
Continuous
 62
     7
370
    15
100
AcDbSpline
210
0.0
220
0.0
230
1.0
 70
     8
 71
     3
 72
    10
 73
     6
 74
     0
 42
0.00000001
 43
0.00000001
 40
0.0
 40
0.0
 40
0.0
 40
0.0
 40
0.3398413626517761
 40
0.6797878321146772
 40
1.0
 40
1.0
 40
1.0
 40
1.0
 10
222.064635057487
 20
88.55503817572033
 30
0.0
 10
221.9924486865927
 20
88.68540889457442
 30
0.0
 10
221.84805361886
 20
88.9461906535973
 30
0.0
 10
221.6824725657833
 20
89.32811262206064
 30
0.0
 10
221.6080600634034
 20
89.5787953325101
 30
0.0
 10
221.571966028793
 20
89.70038982453526
 30
0.0
  0
LINE
  5
DA
330
1F
100
AcDbEntity
  8
0
  6
Continuous
 62
     7
370
    15
100
AcDbLine
 10
222.6213431228
 20
85.9428672685
 30
0.0
 11
221.713869352
 21
89.2762171023
 31
0.0
  0
SPLINE
  5
DB
330
1F
100
AcDbEntity
  8
0
  6
Continuous
 62
     7
370
    15
100
AcDbSpline
210
0.0
220
0.0
230
1.0
 70
     8
 71
     3
 72
     8
 73
     4
 74
     0
 42
0.00000001
 43
0.00000001
 40
0.0
 40
0.0
 40
0.0
 40
0.0
 40
1.0
 40
1.0
 40
1.0
 40
1.0
 10
222.6213431228346
 20
85.94286726847037
 30
0.0
 10
222.6787301194569
 20
85.42984703775977
 30
0.0
 10
222.8499138021817
 20
84.91205522553182
 30
0.0
 10
223.1171349523682
 20
84.39023648931851
 30
0.0
  0
SPLINE
  5
DC
330
1F
100
AcDbEntity
  8
0
  6
Continuous
 62
     7
370
    15
100
AcDbSpline
210
0.0
220
0.0
230
1.0
 70
     8
 71
     3
 72
     8
 73
     4
 74
     0
 42
0.00000001
 43
0.00000001
 40
0.0
 40
0.0
 40
0.0
 40
0.0
 40
1.0
 40
1.0
 40
1.0
 40
1.0
 10
223.1171349523682
 20
84.39023648931854
 30
0.0
 10
223.6543240236767
 20
82.28472756642431
 30
0.0
 10
224.1978378378215
 20
80.18099868722368
 30
0.0
 10
224.7453219749804
 20
78.07838722079782
 30
0.0
  0
LINE
  5
DD
330
1F
100
AcDbEntity
  8
0
  6
Continuous
 62
     7
370
    15
100
AcDbLine
 10
224.745321975
 20
77.8525998285
 30
0.0
 11
224.745321975
 21
78.0783872208
 31
0.0
  0
LINE
  5
DE
330
1F
100
AcDbEntity
  8
0
  6
Continuous
 62
     7
370
    15
100
AcDbLine
 10
227.9331501721
 20
84.285300717
 30
0.0
 11
223.1171349524
 21
84.3902364893
 31
0.0
  0
LINE
  5
DF
330
1F
100
AcDbEntity
  8
0
  6
Continuous
 62
     7
370
    15
100
AcDbLine
 10
232.2159762684
 20
77.5624814811
 30
0.0
 11
227.9331501721
 21
84.285300717
 31
0.0
  0
ELLIPSE
  5
E0
330
1F
100
AcDbEntity
  8
0
  6
Continuous
 62
     7
370
    15
100
AcDbEllipse
 10
376.0062011769
 20
123.0237962483
 30
0.0
 11
286.3530075113733
 21
9.015396293139318
 31
0.0
210
0.0
220
0.0
230
0.9999999999999999
 40
0.1656412093
 41
4.150665276213738
 42
4.181106616676868
  0
LINE
  5
E1
330
1F
100
AcDbEntity
  8
0
  6
Continuous
 62
     7
370
    15
100
AcDbLine
 10
222.6213431228
 20
85.9428672685
 30
0.0
 11
226.332113974
 21
85.8620135777
 31
0.0
  0
LINE
  5
E2
330
1F
100
AcDbEntity
  8
0
  6
Continuous
 62
     7
370
    15
100
AcDbLine
 10
226.332113974
 20
85.8620135777
 30
0.0
 11
227.9331501721
 21
84.285300717
 31
0.0
  0
ELLIPSE
  5
E3
330
1F
100
AcDbEntity
  8
0
  6
Continuous
 62
     7
370
    15
100
AcDbEllipse
 10
204.8814009732
 20
118.9913340397
 30
0.0
 11
-27.28392697985381
 21
41.50632949203909
 31
0.0
210
0.0
220
0.0
230
1.0
 40
0.0443290021
 41
3.109019045901135
 42
3.180151886608789
  0
LINE
  5
E4
330
1F
100
AcDbEntity
  8
0
  6
Continuous
 62
     7
370
    15
100
AcDbLine
 10
240.5002831744
 20
88.1533453062
 30
0.0
 11
240.5121630397
 21
88.1416459227
 31
0.0
  0
LINE
  5
E5
330
1F
100
AcDbEntity
  8
0
  6
Continuous
 62
     7
370
    15
100
AcDbLine
 10
235.0772896299
 20
80.3966211508
 30
0.0
 11
235.5578525752
 21
80.4101179666
 31
0.0
  0
LINE
  5
E6
330
1F
100
AcDbEntity
  8
0
  6
Continuous
 62
     7
370
    15
100
AcDbLine
 10
238.4740718494
 20
83.7760878151
 30
0.0
 11
238.4705558451
 21
83.8422339669
 31
0.0
  0
LINE
  5
E7
330
1F
100
AcDbEntity
  8
0
  6
Continuous
 62
     7
370
    15
100
AcDbLine
 10
225.7104922398
 20
87.8047121608
 30
0.0
 11
233.2917909523
 21
75.9042287717
 31
0.0
  0
ARC
  5
E8
330
1F
100
AcDbEntity
  8
0
  6
Continuous
 62
     7
370
    15
100
AcDbCircle
 10
226.0557469015
 20
88.0140511016
 30
0.0
 40
0.4037617781518759
100
AcDbArc
 50
88.6620816983
 51
211.2297728373
  0
LINE
  5
E9
330
1F
100
AcDbEntity
  8
0
  6
Continuous
 62
     7
370
    15
100
AcDbLine
 10
240.3520842627
 20
88.1064064609
 30
0.0
 11
226.065174318
 21
88.4177028046
 31
0.0
  0
ARC
  5
EA
330
1F
100
AcDbEntity
  8
0
  6
Continuous
 62
     7
370
    15
100
AcDbCircle
 10
240.3455439786
 20
87.7265210058
 30
0.0
 40
0.3799417511814312
100
AcDbArc
 50
32.6260664383
 51
89.0136667436
  0
LINE
  5
EB
330
1F
100
AcDbEntity
  8
0
  6
Continuous
 62
     7
370
    15
100
AcDbLine
 10
248.246832369
 20
76.0308847312
 30
0.0
 11
240.6655336565
 21
87.9313681203
 31
0.0
  0
ARC
  5
EC
330
1F
100
AcDbEntity
  8
0
  6
Continuous
 62
     7
370
    15
100
AcDbCircle
 10
247.9015777073
 20
75.8215457904
 30
0.0
 40
0.4037617781519193
100
AcDbArc
 50
268.6620816983
 51
31.2297728373
  0
LINE
  5
ED
330
1F
100
AcDbEntity
  8
0
  6
Continuous
 62
     7
370
    15
100
AcDbLine
 10
233.6052403461
 20
75.7291904311
 30
0.0
 11
247.8921502908
 21
75.4178940874
 31
0.0
  0
ARC
  5
EE
330
1F
100
AcDbEntity
  8
0
  6
Continuous
 62
     7
370
    15
100
AcDbCircle
 10
233.6117806302
 20
76.1090758862
 30
0.0
 40
0.3799417511813166
100
AcDbArc
 50
212.6260664383
 51
269.0136667436
  0
ARC
  5
EF
330
1F
100
AcDbEntity
  8
0
  6
Continuous
 62
     7
370
    15
100
AcDbCircle
 10
247.9021371536
 20
75.8210639298
 30
0.0
 40
0.3835736892442922
100
AcDbArc
 50
268.6620816983
 51
31.2297728373
  0
LINE
  5
F0
330
1F
100
AcDbEntity
  8
0
  6
Continuous
 62
     7
370
    15
100
AcDbLine
 10
248.2301290822
 20
76.0199359236
 30
0.0
 11
240.6488303695
 21
87.9204193126
 31
0.0
  0
ARC
  5
F1
330
1F
100
AcDbEntity
  8
0
  6
Continuous
 62
     7
370
    15
100
AcDbCircle
 10
240.3448401748
 20
87.7258145529
 30
0.0
 40
0.3609446646862792
100
AcDbArc
 50
32.6260665027
 51
89.0136665951
  0
LINE
  5
F2
330
1F
100
AcDbEntity
  8
0
  6
Continuous
 62
     7
370
    15
100
AcDbLine
 10
240.3510534456
 20
88.0867057363
 30
0.0
 11
226.064143501
 21
88.3980020799
 31
0.0
  0
ARC
  5
F3
330
1F
100
AcDbEntity
  8
0
  6
Continuous
 62
     7
370
    15
100
AcDbCircle
 10
226.0551874552
 20
88.0145329621
 30
0.0
 40
0.3835736892442621
100
AcDbArc
 50
88.6620816983
 51
211.2297728373
  0
LINE
  5
F4
330
1F
100
AcDbEntity
  8
0
  6
Continuous
 62
     7
370
    15
100
AcDbLine
 10
225.7271955267
 20
87.8156609684
 30
0.0
 11
233.3084942391
 21
75.9151775793
 31
0.0
  0
ARC
  5
F5
330
1F
100
AcDbEntity
  8
0
  6
Continuous
 62
     7
370
    15
100
AcDbCircle
 10
233.6124844331
 20
76.109782338
 30
0.0
 40
0.3609446636223935
100
AcDbArc
 50
212.6260664383
 51
269.0136667436
  0
LINE
  5
F6
330
1F
100
AcDbEntity
  8
0
  6
Continuous
 62
     7
370
    15
100
AcDbLine
 10
233.6062711632
 20
75.7488911557
 30
0.0
 11
247.8931811079
 21
75.437594812
 31
0.0
  0
LINE
  5
F7
330
1F
100
AcDbEntity
  8
0
  6
Continuous
 62
     7
370
    15
100
AcDbLine
 10
226.0064607635
 20
88.0612067425
 30
0.0
 11
225.7271955267
 21
87.8156609684
 31
0.0
  0
LINE
  5
F8
330
1F
100
AcDbEntity
  8
0
  6
Continuous
 62
     7
370
    15
100
AcDbLine
 10
226.0064607635
 20
88.0612067425
 30
0.0
 11
226.064143501
 21
88.3980020799
 31
0.0
  0
LINE
  5
F9
330
1F
100
AcDbEntity
  8
0
  6
Continuous
 62
     7
370
    15
100
AcDbLine
 10
227.7536696423
 20
87.1285079613
 30
0.0
 11
226.0064607635
 21
88.0612067425
 31
0.0
  0
LINE
  5
FA
330
1F
100
AcDbEntity
  8
0
  6
Continuous
 62
     7
370
    15
100
AcDbLine
 10
240.2933707081
 20
87.7499103989
 30
0.0
 11
240.3510534456
 21
88.0867057363
 31
0.0
  0
LINE
  5
FB
330
1F
100
AcDbEntity
  8
0
  6
Continuous
 62
     7
370
    15
100
AcDbLine
 10
240.0065340306
 20
87.3717202164
 30
0.0
 11
240.2933707081
 21
87.7499103989
 31
0.0
  0
LINE
  5
FC
330
1F
100
AcDbEntity
  8
0
  6
Continuous
 62
     7
370
    15
100
AcDbLine
 10
228.4177278707
 20
87.1140388494
 30
0.0
 11
227.7536696423
 21
87.1285079613
 31
0.0
  0
LINE
  5
FD
330
1F
100
AcDbEntity
  8
0
  6
Continuous
 62
     7
370
    15
100
AcDbLine
 10
233.5877594759
 20
76.1607233534
 30
0.0
 11
233.3084942391
 21
75.9151775793
 31
0.0
  0
LINE
  5
FE
330
1F
100
AcDbEntity
  8
0
  6
Continuous
 62
     7
370
    15
100
AcDbLine
 10
227.7536696423
 20
87.1285079613
 30
0.0
 11
228.1060498149
 21
86.5753712826
 31
0.0
  0
LINE
  5
FF
330
1F
100
AcDbEntity
  8
0
  6
Continuous
 62
     7
370
    15
100
AcDbLine
 10
233.7879462526
 20
76.6242470299
 30
0.0
 11
233.5877594759
 21
76.1607233534
 31
0.0
  0
LINE
  5
100
330
1F
100
AcDbEntity
  8
0
  6
Continuous
 62
     7
370
    15
100
AcDbLine
 10
224.964751961
 20
88.4918477593
 30
0.0
 11
227.1586792997
 21
85.0480056366
 31
0.0
  0
LINE
  5
101
330
1F
100
AcDbEntity
  8
0
  6
Continuous
 62
     7
370
    15
100
AcDbLine
 10
231.9842552755
 20
77.4732234098
 30
0.0
 11
232.4652256266
 21
76.7182367128
 31
0.0
  0
SPLINE
  5
102
330
1F
100
AcDbEntity
  8
0
  6
Continuous
 62
     7
370
    15
100
AcDbSpline
210
0.0
220
0.0
230
1.0
 70
     8
 71
     3
 72
    14
 73
    10
 74
     0
 42
0.00000001
 43
0.00000001
 40
0.0
 40
0.0
 40
0.0
 40
0.0
 40
0.2210591904779542
 40
0.3460797326519151
 40
0.4396016244131358
 40
0.5338897453199789
 40
0.6146561933587552
 40
0.7517253237593795
 40
1.0
 40
1.0
 40
1.0
 40
1.0
 10
228.6965920533904
 20
86.60328276255314
 30
0.0
 10
228.7245316849827
 20
86.65522858790978
 30
0.0
 10
228.7682726405654
 20
86.73655249628442
 30
0.0
 10
228.7946868198784
 20
86.85103842243774
 30
0.0
 10
228.7893349270957
 20
86.93414875951264
 30
0.0
 10
228.7575679201244
 20
86.99836857192061
 30
0.0
 10
228.6971046741121
 20
87.05323923945375
 30
0.0
 10
228.5842654979864
 20
87.10276881983891
 30
0.0
 10
228.4829833463554
 20
87.10962284354754
 30
0.0
 10
228.4177278706692
 20
87.1140388494308
 30
0.0
  0
ARC
  5
103
330
1F
100
AcDbEntity
  8
0
  6
Continuous
 62
     7
370
    15
100
AcDbCircle
 10
230.8872115237
 20
85.3109513442
 30
0.0
 40
1.009404445379634
100
AcDbArc
 50
88.6620816983
 51
211.2297728373
  0
LINE
  5
104
330
1F
100
AcDbEntity
  8
0
  6
Continuous
 62
     7
370
    15
100
AcDbLine
 10
228.6965920534
 20
86.6032827626
 30
0.0
 11
228.6954311356
 21
86.6012763692
 31
0.0
  0
SPLINE
  5
105
330
1F
100
AcDbEntity
  8
0
  6
Continuous
 62
     7
370
    15
100
AcDbSpline
210
0.0
220
0.0
230
1.0
 70
     8
 71
     3
 72
    14
 73
    10
 74
     0
 42
0.00000001
 43
0.00000001
 40
0.0
 40
0.0
 40
0.0
 40
0.0
 40
0.2234968253973857
 40
0.3567622963774624
 40
0.453121256234133
 40
0.5344619041500399
 40
0.6157317558035452
 40
0.739616177892216
 40
1.0
 40
1.0
 40
1.0
 40
1.0
 10
228.1060498148754
 20
86.575371282602
 30
0.0
 10
228.1393907922159
 20
86.5278183612389
 30
0.0
 10
228.1926121461137
 20
86.45191084266546
 30
0.0
 10
228.2864490549318
 20
86.3792348689484
 30
0.0
 10
228.3632100103131
 20
86.35030311084081
 30
0.0
 10
228.4325297212139
 20
86.35003001702019
 30
0.0
 10
228.505111989035
 20
86.37602132456237
 30
0.0
 10
228.6040242785747
 20
86.45455528383239
 30
0.0
 10
228.6585106508056
 20
86.54201370800921
 30
0.0
 10
228.6954311355673
 20
86.60127636920126
 30
0.0
  0
LINE
  5
106
330
1F
100
AcDbEntity
  8
0
  6
Continuous
 62
     7
370
    15
100
AcDbLine
 10
230.0240748696
 20
84.7876039923
 30
0.0
 11
234.2670538129
 21
78.1273334568
 31
0.0
  0
LINE
  5
107
330
1F
100
AcDbEntity
  8
0
  6
Continuous
 62
     7
370
    15
100
AcDbLine
 10
238.9066473114
 20
86.1458592866
 30
0.0
 11
230.9107800651
 21
86.3200806016
 31
0.0
  0
ARC
  5
108
330
1F
100
AcDbEntity
  8
0
  6
Continuous
 62
     7
370
    15
100
AcDbCircle
 10
238.8902966012
 20
85.1961456489
 30
0.0
 40
0.9498543779535037
100
AcDbArc
 50
32.6260664383
 51
89.0136667436
  0
LINE
  5
109
330
1F
100
AcDbEntity
  8
0
  6
Continuous
 62
     7
370
    15
100
AcDbLine
 10
243.9332497393
 20
79.0479928997
 30
0.0
 11
239.690270796
 21
85.7082634351
 31
0.0
  0
ARC
  5
10A
330
1F
100
AcDbEntity
  8
0
  6
Continuous
 62
     7
370
    15
100
AcDbCircle
 10
243.0701130854
 20
78.5246455475
 30
0.0
 40
1.009404445347925
100
AcDbArc
 50
268.6620816833
 51
31.2297728583
  0
LINE
  5
10B
330
1F
100
AcDbEntity
  8
0
  6
Continuous
 62
     7
370
    15
100
AcDbLine
 10
235.0506772974
 20
77.6897376054
 30
0.0
 11
243.0465445437
 21
77.5155162901
 31
0.0
  0
ARC
  5
10C
330
1F
100
AcDbEntity
  8
0
  6
Continuous
 62
     7
370
    15
100
AcDbCircle
 10
235.0670280077
 20
78.6394512431
 30
0.0
 40
0.9498543779534953
100
AcDbArc
 50
212.6260664383
 51
269.0136667437
  0
LWPOLYLINE
  5
10D
330
1F
100
AcDbEntity
  8
0
  6
Continuous
 62
     7
370
    15
100
AcDbPolyline
 90
       27
 70
   128
 43
0.0
 10
236.8456868973
 20
79.3764049716
 10
237.4567718016
 20
79.4370225597
 10
238.0400707197
 20
79.6418138251
 10
238.5616844388
 20
79.9788770438
 10
238.9912986655
 20
80.4286233267
 10
239.3039457825
 20
80.9649150546
 10
239.4814558759
 20
81.5565849016
 10
239.5135127042
 20
82.1692471669
 10
239.398253241
 20
82.7672961464
 10
239.1423759474
 20
83.3159754075
 10
238.7607514817
 20
83.7833977057
 10
238.2755584707
 20
84.1423981561
 10
237.7149945685
 20
84.3721129574
 10
237.1116377115
 20
84.4591919204
 10
236.5005528073
 20
84.3985743323
 10
235.9172538891
 20
84.1937830669
 10
235.39564017
 20
83.8567198482
 10
234.9660259433
 20
83.4069735653
 10
234.6533788263
 20
82.8706818374
 10
234.4758687329
 20
82.2790119904
 10
234.4438119047
 20
81.6663497252
 10
234.5590713678
 20
81.0683007456
 10
234.8149486614
 20
80.5196214845
 10
235.1965731271
 20
80.0521991863
 10
235.6817661381
 20
79.6931987359
 10
236.2423300403
 20
79.4634839346
 10
236.8456868973
 20
79.3764049716
  0
LWPOLYLINE
  5
10E
330
1F
100
AcDbEntity
  8
0
  6
Continuous
 62
     7
370
    15
100
AcDbPolyline
 90
        3
 70
   128
 43
0.0
 10
236.0191215716
 20
80.1904129127
 10
236.6302064759
 20
80.2510305008
 10
236.7307405543
 20
80.2754872952
  0
LINE
  5
10F
330
1F
100
AcDbEntity
  8
0
  6
Continuous
 62
     7
370
    15
100
AcDbLine
 10
238.5642443635
 20
83.6039304443
 30
0.0
 11
238.3263850675
 21
84.1129741898
 31
0.0
  0
ARC
  5
110
330
1F
100
AcDbEntity
  8
0
  6
Continuous
 62
     7
370
    15
100
AcDbCircle
 10
236.0669816592
 20
82.6624897798
 30
0.0
 40
2.47254011589921
100
AcDbArc
 50
239.2927341105
 51
268.8908765212
  0
LINE
  5
111
330
1F
100
AcDbEntity
  8
0
  6
Continuous
 62
     7
370
    15
100
AcDbLine
 10
240.2933707081
 20
87.7499103989
 30
0.0
 11
240.6488303695
 21
87.9204193126
 31
0.0
  0
LINE
  5
112
330
1F
100
AcDbEntity
  8
0
  6
Continuous
 62
     7
370
    15
100
AcDbLine
 10
247.8746694206
 20
75.8494270097
 30
0.0
 11
248.2301290822
 21
76.0199359236
 31
0.0
  0
LINE
  5
113
330
1F
100
AcDbEntity
  8
0
  6
Continuous
 62
     7
370
    15
100
AcDbLine
 10
245.9258178823
 20
76.9807050453
 30
0.0
 11
247.8746694206
 21
75.8494270097
 31
0.0
  0
LINE
  5
114
330
1F
100
AcDbEntity
  8
0
  6
Continuous
 62
     7
370
    15
100
AcDbLine
 10
245.9258178823
 20
76.9807050453
 30
0.0
 11
245.5734377097
 21
77.533841724
 31
0.0
  0
SPLINE
  5
115
330
1F
100
AcDbEntity
  8
0
  6
Continuous
 62
     7
370
    15
100
AcDbSpline
210
0.0
220
0.0
230
1.0
 70
     8
 71
     3
 72
    11
 73
     7
 74
     0
 42
0.00000001
 43
0.00000001
 40
0.0
 40
0.0
 40
0.0
 40
0.0
 40
0.3280455501578628
 40
0.6557028173708929
 40
0.9906967996087653
 40
1.0
 40
1.0
 40
1.0
 40
1.0
 10
240.0065340306359
 20
87.37172021643572
 30
0.0
 10
239.9642834644621
 20
87.31239822382946
 30
0.0
 10
239.8798323409449
 20
87.19382445361596
 30
0.0
 10
239.7595167139228
 20
86.97996545808964
 30
0.0
 10
239.6921186644834
 20
86.8367845001115
 30
0.0
 10
239.6632855896627
 20
86.76748610282395
 30
0.0
 10
239.6625064956518
 20
86.7656136016555
 30
0.0
  0
SPLINE
  5
116
330
1F
100
AcDbEntity
  8
0
  6
Continuous
 62
     7
370
    15
100
AcDbSpline
210
0.0
220
0.0
230
1.0
 70
     8
 71
     3
 72
    11
 73
     7
 74
     0
 42
0.00000001
 43
0.00000001
 40
0.0
 40
0.0
 40
0.0
 40
0.0
 40
0.3280455501579949
 40
0.6557028173712051
 40
0.9906967996087672
 40
1.0
 40
1.0
 40
1.0
 40
1.0
 10
233.787946252649
 20
76.62424702988854
 30
0.0
 10
233.8200984432894
 20
76.69351398101284
 30
0.0
 10
233.8843647684308
 20
76.83196589715998
 30
0.0
 10
234.0090441771451
 20
77.04152740664303
 30
0.0
 10
234.0961232002407
 20
77.16532638917792
 30
0.0
 10
234.1393064924366
 20
77.22049258113661
 30
0.0
 10
234.1404733414296
 20
77.22198321819236
 30
0.0
  0
LINE
  5
117
330
1F
100
AcDbEntity
  8
0
  6
Continuous
 62
     7
370
    15
100
AcDbLine
 10
247.8746694206
 20
75.8494270097
 30
0.0
 11
247.8931811079
 21
75.437594812
 31
0.0
  0
LINE
  5
118
330
1F
100
AcDbEntity
  8
0
  6
Continuous
 62
     7
370
    15
100
AcDbLine
 10
233.5877594759
 20
76.1607233534
 30
0.0
 11
233.6062711632
 21
75.7488911557
 31
0.0
  0
LINE
  5
119
330
1F
100
AcDbEntity
  8
0
  6
Continuous
 62
     7
370
    15
100
AcDbLine
 10
245.2617596539
 20
76.9951741572
 30
0.0
 11
245.9258178823
 21
76.9807050453
 31
0.0
  0
LWPOLYLINE
  5
11A
330
1F
100
AcDbEntity
  8
0
  6
Continuous
 62
     7
370
    15
100
AcDbPolyline
 90
        3
 70
   128
 43
0.0
 10
232.4652256266
 20
76.7182367128
 10
232.4926155021
 20
76.6805874334
 10
232.5186218253
 20
76.6522135471
  0
LINE
  5
11B
330
1F
100
AcDbEntity
  8
0
  6
Continuous
 62
     7
370
    15
100
AcDbLine
 10
244.9828954712
 20
77.5059302441
 30
0.0
 11
244.984056389
 21
77.5079366374
 31
0.0
  0
SPLINE
  5
11C
330
1F
100
AcDbEntity
  8
0
  6
Continuous
 62
     7
370
    15
100
AcDbSpline
210
0.0
220
0.0
230
1.0
 70
     8
 71
     3
 72
    14
 73
    10
 74
     0
 42
0.00000001
 43
0.00000001
 40
0.0
 40
0.0
 40
0.0
 40
0.0
 40
0.2234968253973862
 40
0.3567622963774604
 40
0.453121256234123
 40
0.5344619041500221
 40
0.6157317558035444
 40
0.73961617789221
 40
0.9999999999999999
 40
0.9999999999999999
 40
0.9999999999999999
 40
0.9999999999999999
 10
245.573437709723
 20
77.5338417240166
 30
0.0
 10
245.5400967323824
 20
77.58139464537972
 30
0.0
 10
245.4868753784846
 20
77.65730216395316
 30
0.0
 10
245.3930384696665
 20
77.72997813767022
 30
0.0
 10
245.3162775142853
 20
77.75890989577776
 30
0.0
 10
245.2469578033844
 20
77.75918298959844
 30
0.0
 10
245.1743755355634
 20
77.73319168205626
 30
0.0
 10
245.0754632460236
 20
77.65465772278621
 30
0.0
 10
245.0209768737928
 20
77.56719929860942
 30
0.0
 10
244.984056389031
 20
77.50793663741736
 30
0.0
  0
SPLINE
  5
11D
330
1F
100
AcDbEntity
  8
0
  6
Continuous
 62
     7
370
    15
100
AcDbSpline
210
0.0
220
0.0
230
1.0
 70
     8
 71
     3
 72
    14
 73
    10
 74
     0
 42
0.00000001
 43
0.00000001
 40
0.0
 40
0.0
 40
0.0
 40
0.0
 40
0.2210591904779503
 40
0.3460797326519398
 40
0.4396016244131559
 40
0.5338897453200073
 40
0.6146561933587734
 40
0.7517253237593795
 40
1.0
 40
1.0
 40
1.0
 40
1.0
 10
244.9828954712079
 20
77.50593024406547
 30
0.0
 10
244.9549558396157
 20
77.45398441870883
 30
0.0
 10
244.911214884033
 20
77.37266051033419
 30
0.0
 10
244.8848007047199
 20
77.25817458418085
 30
0.0
 10
244.8901525975026
 20
77.17506424710596
 30
0.0
 10
244.9219196044739
 20
77.11084443469798
 30
0.0
 10
244.9823828504862
 20
77.05597376716489
 30
0.0
 10
245.0952220266119
 20
77.00644418677969
 30
0.0
 10
245.1965041782429
 20
76.99959016307106
 30
0.0
 10
245.2617596539291
 20
76.99517415718782
 30
0.0
  0
LINE
  5
11E
330
1F
100
AcDbEntity
  8
0
  6
Continuous
 62
     7
370
    15
100
AcDbLine
 10
234.9104499009
 20
76.496749299
 30
0.0
 11
242.9204376058
 21
76.3222203145
 31
0.0
  0
LINE
  5
11F
330
1F
100
AcDbEntity
  8
0
  6
Continuous
 62
     7
370
    15
100
AcDbLine
 10
225.485427066
 20
87.6745358881
 30
0.0
 11
227.1586792997
 21
85.0480056366
 31
0.0
  0
LINE
  5
120
330
1F
100
AcDbEntity
  8
0
  6
Continuous
 62
     7
370
    15
100
AcDbLine
 10
231.9842552755
 20
77.4732234098
 30
0.0
 11
232.3022250679
 21
76.974101244
 31
0.0
  0
LINE
  5
121
330
1F
100
AcDbEntity
  8
0
  6
Continuous
 62
     7
370
    15
100
AcDbLine
 10
224.6752740866
 20
88.4981551697
 30
0.0
 11
224.7109561936
 21
88.4372408077
 31
0.0
  0
LINE
  5
122
330
1F
100
AcDbEntity
  8
0
  6
Continuous
 62
     7
370
    15
100
AcDbLine
 10
224.7109561936
 20
88.4372408077
 30
0.0
 11
226.3842084273
 21
85.8107105562
 31
0.0
  0
LWPOLYLINE
  5
123
330
1F
100
AcDbEntity
  8
0
  6
Continuous
 62
     7
370
    15
100
AcDbPolyline
 90
        3
 70
   128
 43
0.0
 10
235.6553478169
 20
80.2248249861
 10
235.7296054684
 20
80.2315009198
 10
236.0404914581
 20
80.2787347729
  0
LINE
  5
124
330
1F
100
AcDbEntity
  8
0
  6
HIDDEN
 62
     7
370
     0
100
AcDbLine
 10
183.2566897342
 20
88.9178008673
 30
0.0
 11
183.2566897342
 21
88.9336778845
 31
0.0
  0
SPLINE
  5
125
330
1F
100
AcDbEntity
  8
0
  6
HIDDEN
 62
     7
370
     0
100
AcDbSpline
210
0.0
220
0.0
230
1.0
 70
     8
 71
     3
 72
    30
 73
    26
 74
     0
 42
0.00000001
 43
0.00000001
 40
0.0
 40
0.0
 40
0.0
 40
0.0
 40
0.1250000000000004
 40
0.1250000000000004
 40
0.1875000000000006
 40
0.1875000000000006
 40
0.2500000000000007
 40
0.2500000000000007
 40
0.3750000000000009
 40
0.3750000000000009
 40
0.4375000000000009
 40
0.4375000000000009
 40
0.5000000000000008
 40
0.5000000000000008
 40
0.6250000000000009
 40
0.6250000000000009
 40
0.6875000000000007
 40
0.6875000000000007
 40
0.7500000000000004
 40
0.7500000000000004
 40
0.8125000000000002
 40
0.8125000000000002
 40
0.875
 40
0.875
 40
1.0
 40
1.0
 40
1.0
 40
1.0
 10
183.2566897341558
 20
88.93367788447793
 30
0.0
 10
183.2566897341558
 20
88.95055680248652
 30
0.0
 10
183.3091073001342
 20
88.98057436731119
 30
0.0
 10
183.4624867800365
 20
89.0433847565843
 30
0.0
 10
183.5261679007043
 20
89.0672886638112
 30
0.0
 10
183.679122768156
 20
89.12072395625358
 30
0.0
 10
183.7686950669252
 20
89.15033082442118
 30
0.0
 10
184.0699190997784
 20
89.24478052313559
 30
0.0
 10
184.3152340958625
 20
89.31580791696479
 30
0.0
 10
184.7493310769327
 20
89.42982220367055
 30
0.0
 10
184.9060007660364
 20
89.46927745481113
 30
0.0
 10
185.2379939298788
 20
89.54879889758182
 30
0.0
 10
185.4126994588713
 20
89.5887350400826
 30
0.0
 10
185.9623691414628
 20
89.70767144291074
 30
0.0
 10
186.3626201041741
 20
89.7858362067946
 30
0.0
 10
187.0162069708116
 20
89.89554564706349
 30
0.0
 10
187.2418830904887
 20
89.93062648377187
 30
0.0
 10
187.70159491162
 20
89.9958667631515
 30
0.0
 10
187.9366482456631
 20
90.02620157919624
 30
0.0
 10
188.4171555279621
 20
90.08153995841806
 30
0.0
 10
188.6626090558762
 20
90.10654463497816
 30
0.0
 10
189.1642244806836
 20
90.15042444386884
 30
0.0
 10
189.4217168632841
 20
90.16936812863116
 30
0.0
 10
190.1997933797202
 20
90.21508785590134
 30
0.0
 10
190.7249556569651
 20
90.23088317109308
 30
0.0
 10
191.2566897341558
 20
90.23088317109307
 30
0.0
  0
LINE
  5
126
330
1F
100
AcDbEntity
  8
0
  6
HIDDEN
 62
     7
370
     0
100
AcDbLine
 10
191.2566897342
 20
90.2308831711
 30
0.0
 11
192.9147569027
 21
90.2308831711
 31
0.0
  0
LINE
  5
127
330
1F
100
AcDbEntity
  8
0
  6
HIDDEN
 62
     7
370
     0
100
AcDbLine
 10
192.9147569027
 20
150.8849963405
 30
0.0
 11
192.9147569027
 21
90.2308831711
 31
0.0
  0
LINE
  5
128
330
1F
100
AcDbEntity
  8
0
  6
HIDDEN
 62
     7
370
     0
100
AcDbLine
 10
191.2566897342
 20
150.8849963405
 30
0.0
 11
192.9147569027
 21
150.8849963405
 31
0.0
  0
SPLINE
  5
129
330
1F
100
AcDbEntity
  8
0
  6
HIDDEN
 62
     7
370
     0
100
AcDbSpline
210
0.0
220
0.0
230
1.0
 70
     8
 71
     3
 72
    17
 73
    13
 74
     0
 42
0.00000001
 43
0.00000001
 40
0.0
 40
0.0
 40
0.0
 40
0.0
 40
0.0638118569779114
 40
0.1662334015758577
 40
0.2715772286555431
 40
0.3750121755717067
 40
0.4812892574314435
 40
0.587561793975055
 40
0.6968792516928414
 40
0.8035874883160892
 40
0.9135588806005722
 40
0.9999999999999999
 40
0.9999999999999999
 40
0.9999999999999999
 40
0.9999999999999999
 10
183.2846780932371
 20
151.9107059593829
 30
0.0
 10
183.2814809595988
 20
151.9115100407207
 30
0.0
 10
183.2731522504033
 20
151.913604716887
 30
0.0
 10
183.5047880815498
 20
151.8551288777629
 30
0.0
 10
183.9398888381498
 20
151.7498191606572
 30
0.0
 10
184.5858912009218
 20
151.6040066996345
 30
0.0
 10
185.4101624014686
 20
151.4365570520321
 30
0.0
 10
186.4126946849258
 20
151.2615839472492
 30
0.0
 10
187.5554425747593
 20
151.1009957990833
 30
0.0
 10
188.8207766701537
 20
150.9736463891186
 30
0.0
 10
190.0675164860558
 20
150.8975583545637
 30
0.0
 10
190.893273976218
 20
150.8888353386217
 30
0.0
 10
191.2566897341558
 20
150.8849963405044
 30
0.0
  0
SPLINE
  5
12A
330
1F
100
AcDbEntity
  8
0
  6
HIDDEN
 62
     7
370
     0
100
AcDbSpline
210
0.0
220
0.0
230
1.0
 70
     8
 71
     3
 72
    76
 73
    72
 74
     0
 42
0.00000001
 43
0.00000001
 40
-0.03125
 40
-0.03125
 40
0.0
 40
0.0
 40
0.0312499999999999
 40
0.0312499999999999
 40
0.0468749999999999
 40
0.0468749999999999
 40
0.0624999999999999
 40
0.0624999999999999
 40
0.0937499999999998
 40
0.0937499999999998
 40
0.1249999999999998
 40
0.1249999999999998
 40
0.1562499999999997
 40
0.1562499999999997
 40
0.1874999999999997
 40
0.1874999999999997
 40
0.2187499999999996
 40
0.2187499999999996
 40
0.2499999999999996
 40
0.2499999999999996
 40
0.2812499999999996
 40
0.2812499999999996
 40
0.3124999999999996
 40
0.3124999999999996
 40
0.3281249999999996
 40
0.3281249999999996
 40
0.3437499999999995
 40
0.3437499999999995
 40
0.3749999999999994
 40
0.3749999999999994
 40
0.4062499999999994
 40
0.4062499999999994
 40
0.4374999999999994
 40
0.4374999999999994
 40
0.4687499999999994
 40
0.4687499999999994
 40
0.4999999999999993
 40
0.4999999999999993
 40
0.5312499999999992
 40
0.5312499999999992
 40
0.5624999999999992
 40
0.5624999999999992
 40
0.5937499999999992
 40
0.5937499999999992
 40
0.6249999999999991
 40
0.6249999999999991
 40
0.6562499999999991
 40
0.6562499999999991
 40
0.687499999999999
 40
0.687499999999999
 40
0.7031249999999991
 40
0.7031249999999991
 40
0.7187499999999991
 40
0.7187499999999991
 40
0.7499999999999992
 40
0.7499999999999992
 40
0.7812499999999994
 40
0.7812499999999994
 40
0.8124999999999996
 40
0.8124999999999996
 40
0.8437499999999997
 40
0.8437499999999997
 40
0.8749999999999999
 40
0.8749999999999999
 40
0.9062499999999999
 40
0.9062499999999999
 40
0.9374999999999999
 40
0.9374999999999999
 40
0.96875
 40
0.96875
 40
1.0
 40
1.0
 40
1.03125
 40
1.03125
 10
180.3066897341558
 20
120.7486848631343
 30
0.0
 10
180.3066897341558
 20
120.0869168715462
 30
0.0
 10
180.3392102119402
 20
119.7616657034503
 30
0.0
 10
180.4347034562222
 20
119.2818689825612
 30
0.0
 10
180.4743782916334
 20
119.1232932987676
 30
0.0
 10
180.569764904969
 20
118.8089109129745
 30
0.0
 10
180.6257091463797
 20
118.6527912893904
 30
0.0
 10
180.8140721698293
 20
118.1988507294884
 30
0.0
 10
180.9676844462477
 20
117.9118704834814
 30
0.0
 10
181.3305122400318
 20
117.3687573267421
 30
0.0
 10
181.5413473416143
 20
117.1120180351981
 30
0.0
 10
182.0018469116318
 20
116.6516334009672
 30
0.0
 10
182.2532098525496
 20
116.4448565842133
 30
0.0
 10
182.799556546903
 20
116.0793323765499
 30
0.0
 10
183.089771186621
 20
115.9243328178351
 30
0.0
 10
183.6911580029226
 20
115.6748017967409
 30
0.0
 10
184.006787696013
 20
115.5785235230522
 30
0.0
 10
184.6524280972926
 20
115.4498745158092
 30
0.0
 10
184.9771838531059
 20
115.4179882566926
 30
0.0
 10
185.6304838834973
 20
115.4176151091819
 30
0.0
 10
185.962356224328
 20
115.4501945954279
 30
0.0
 10
186.6040074579317
 20
115.5779685001343
 30
0.0
 10
186.9159323748648
 20
115.6725009444314
 30
0.0
 10
187.3704219753817
 20
115.8606205389701
 30
0.0
 10
187.5202852832157
 20
115.9315035201909
 30
0.0
 10
187.8093705171383
 20
116.0861201265253
 30
0.0
 10
187.9492314314463
 20
116.1700427252632
 30
0.0
 10
188.3551078751506
 20
116.4412382487389
 30
0.0
 10
188.6081460216402
 20
116.6483382541801
 30
0.0
 10
189.0740455778036
 20
117.1139407072374
 30
0.0
 10
189.2805516522994
 20
117.3658595596247
 30
0.0
 10
189.642657215699
 20
117.9067631756256
 30
0.0
 10
189.7995163295142
 20
118.199306018377
 30
0.0
 10
190.0504664463768
 20
118.8041736751345
 30
0.0
 10
190.1452775457078
 20
119.1158205065812
 30
0.0
 10
190.273699408501
 20
119.7575738118028
 30
0.0
 10
190.3065626949921
 20
120.0893016306821
 30
0.0
 10
190.3068160211007
 20
120.742421395943
 30
0.0
 10
190.2752600205314
 20
121.067354602286
 30
0.0
 10
190.147018799107
 20
121.7138816087391
 30
0.0
 10
190.0512127504487
 20
122.0288895626001
 30
0.0
 10
189.8020792393545
 20
122.6308482307457
 30
0.0
 10
189.6466191176598
 20
122.9223244010212
 30
0.0
 10
189.2821648633
 20
123.4679193375179
 30
0.0
 10
189.0757319558643
 20
123.719396452523
 30
0.0
 10
188.6152628733464
 20
124.1807194765778
 30
0.0
 10
188.3584658652904
 20
124.3918427775241
 30
0.0
 10
187.8164206514559
 20
124.7545735592402
 30
0.0
 10
187.5296510715204
 20
124.9084624626257
 30
0.0
 10
187.0753438956348
 20
125.0974121893178
 30
0.0
 10
186.9192035948613
 20
125.1534849853375
 30
0.0
 10
186.6053576335152
 20
125.2489877508703
 30
0.0
 10
186.4469708458214
 20
125.2887683938978
 30
0.0
 10
185.9674946058781
 20
125.3846509310231
 30
0.0
 10
185.6412546614512
 20
125.4175263790225
 30
0.0
 10
184.9803800641732
 20
125.4180719481937
 30
0.0
 10
184.6552437168283
 20
125.3859054295802
 30
0.0
 10
184.0151612163419
 20
125.259122891593
 30
0.0
 10
183.696840292274
 20
125.1628551378017
 30
0.0
 10
183.0919240134349
 20
124.9124608163765
 30
0.0
 10
182.8047750997834
 20
124.759146654655
 30
0.0
 10
182.2608235461104
 20
124.3964387306352
 30
0.0
 10
182.0041775963838
 20
124.1859996579013
 30
0.0
 10
181.5435870429709
 20
123.726118669625
 30
0.0
 10
181.33643815698
 20
123.4748368699322
 30
0.0
 10
180.9699069135667
 20
122.9279166961922
 30
0.0
 10
180.8152227260622
 20
122.638776544576
 30
0.0
 10
180.565123072724
 20
122.0375398706567
 30
0.0
 10
180.4684362982309
 20
121.7215641770159
 30
0.0
 10
180.3392147232746
 20
121.0755904189193
 30
0.0
 10
180.3066897341558
 20
120.7486848631343
 30
0.0
 10
180.3066897341558
 20
120.0869168715462
 30
0.0
  0
LINE
  5
12B
330
1F
100
AcDbEntity
  8
0
  6
HIDDEN
 62
     7
370
     0
100
AcDbLine
 10
178.3066897342
 20
151.6178008672
 30
0.0
 11
178.3066897342
 21
89.2178008673
 31
0.0
  0
SPLINE
  5
12C
330
1F
100
AcDbEntity
  8
0
  6
HIDDEN
 62
     7
370
     0
100
AcDbSpline
210
0.0
220
0.0
230
1.0
 70
     8
 71
     3
 72
    10
 73
     6
 74
     0
 42
0.00000001
 43
0.00000001
 40
0.0
 40
0.0
 40
0.0
 40
0.0
 40
0.5
 40
0.5
 40
1.0
 40
1.0
 40
1.0
 40
1.0
 10
194.4943645364881
 20
94.01780086734026
 30
0.0
 10
194.4622093488661
 20
93.95551482182415
 30
0.0
 10
194.4375531176719
 20
93.88898439695494
 30
0.0
 10
194.4047403607464
 20
93.7521257665925
 30
0.0
 10
194.3966897341558
 20
93.68306817141418
 30
0.0
 10
194.3966897341558
 20
93.61340523901089
 30
0.0
  0
SPLINE
  5
12D
330
1F
100
AcDbEntity
  8
0
  6
HIDDEN
 62
     7
370
     0
100
AcDbSpline
210
0.0
220
0.0
230
1.0
 70
    24
 71
     3
 72
    10
 73
     6
 74
     0
 42
0.00000001
 43
0.00000001
 40
0.0
 40
0.0
 40
0.0
 40
0.0
 40
0.5
 40
0.5
 40
1.0
 40
1.0
 40
1.0
 40
1.0
 10
194.3966897341558
 20
140.2678008673402
 30
0.0
 10
194.3966897341558
 20
140.2678008673402
 30
0.0
 10
194.3989115926405
 20
140.2678008673402
 30
0.0
 10
194.4076482643641
 20
140.2678008673402
 30
0.0
 10
194.4141597781584
 20
140.2678008673402
 30
0.0
 10
194.422837357316
 20
140.2678008673402
 30
0.0
  0
LINE
  5
12E
330
1F
100
AcDbEntity
  8
0
  6
HIDDEN
 62
     7
370
     0
100
AcDbLine
 10
194.3966897342
 20
140.5536674988
 30
0.0
 11
194.3966897342
 21
147.5374547184
 31
0.0
  0
LINE
  5
12F
330
1F
100
AcDbEntity
  8
0
  6
HIDDEN
 62
     7
370
     0
100
AcDbLine
 10
194.3966897342
 20
93.613405239
 30
0.0
 11
194.3966897342
 21
140.2678008673
 31
0.0
  0
SPLINE
  5
130
330
1F
100
AcDbEntity
  8
0
  6
HIDDEN
 62
     7
370
     0
100
AcDbSpline
210
0.0
220
0.0
230
1.0
 70
     8
 71
     3
 72
    10
 73
     6
 74
     0
 42
0.00000001
 43
0.00000001
 40
0.0
 40
0.0
 40
0.0
 40
0.0
 40
0.5
 40
0.5
 40
1.0
 40
1.0
 40
1.0
 40
1.0
 10
198.2166897341558
 20
93.61340523901089
 30
0.0
 10
198.2166897341558
 20
93.68364159938166
 30
0.0
 10
198.2084071220653
 20
93.75363570087913
 30
0.0
 10
198.1753071790068
 20
93.89059496543805
 30
0.0
 10
198.1509697870482
 20
93.95590287469332
 30
0.0
 10
198.1190149318236
 20
94.01780086734021
 30
0.0
  0
LINE
  5
131
330
1F
100
AcDbEntity
  8
0
  6
HIDDEN
 62
     7
370
     0
100
AcDbLine
 10
198.2166897342
 20
140.5536674988
 30
0.0
 11
198.2166897342
 21
147.5374547184
 31
0.0
  0
SPLINE
  5
132
330
1F
100
AcDbEntity
  8
0
  6
HIDDEN
 62
     7
370
     0
100
AcDbSpline
210
0.0
220
0.0
230
1.0
 70
    24
 71
     3
 72
    10
 73
     6
 74
     0
 42
0.00000001
 43
0.00000001
 40
0.0
 40
0.0
 40
0.0
 40
0.0
 40
0.5
 40
0.5
 40
1.0
 40
1.0
 40
1.0
 40
1.0
 10
198.1905421109957
 20
140.2678008673402
 30
0.0
 10
198.1992198859033
 20
140.2678008673402
 30
0.0
 10
198.2057729099102
 20
140.2678008673402
 30
0.0
 10
198.2145075194072
 20
140.2678008673402
 30
0.0
 10
198.2166897341558
 20
140.2678008673402
 30
0.0
 10
198.2166897341558
 20
140.2678008673402
 30
0.0
  0
LINE
  5
133
330
1F
100
AcDbEntity
  8
0
  6
HIDDEN
 62
     7
370
     0
100
AcDbLine
 10
198.2166897342
 20
93.613405239
 30
0.0
 11
198.2166897342
 21
140.2678008673
 31
0.0
  0
SPLINE
  5
134
330
1F
100
AcDbEntity
  8
0
  6
HIDDEN
 62
     7
370
     0
100
AcDbSpline
210
0.0
220
0.0
230
1.0
 70
    24
 71
     3
 72
    18
 73
    14
 74
     0
 42
0.00000001
 43
0.00000001
 40
0.0
 40
0.0
 40
0.0
 40
0.0
 40
0.4999999999999999
 40
0.4999999999999999
 40
0.7499999999999998
 40
0.7499999999999998
 40
0.8749999999999999
 40
0.8749999999999999
 40
0.9375
 40
0.9375
 40
0.96875
 40
0.96875
 40
1.0
 40
1.0
 40
1.0
 40
1.0
 10
204.2566897341558
 20
146.8178008673402
 30
0.0
 10
204.2566897341558
 20
146.8178008673402
 30
0.0
 10
204.3125388758096
 20
146.8178008673402
 30
0.0
 10
204.3882562700693
 20
146.8178008673402
 30
0.0
 10
204.4124456198334
 20
146.8178008673402
 30
0.0
 10
204.4381893844261
 20
146.8178008673402
 30
0.0
 10
204.4450350305917
 20
146.8178008673402
 30
0.0
 10
204.4519748483623
 20
146.8178008673402
 30
0.0
 10
204.453737290256
 20
146.8178008673402
 30
0.0
 10
204.4555054636946
 20
146.8178008673402
 30
0.0
 10
204.4559492592817
 20
146.8178008673402
 30
0.0
 10
204.4565414309868
 20
146.8178008673402
 30
0.0
 10
204.4566898005495
 20
146.8178008673402
 30
0.0
 10
204.4566897341319
 20
146.8178008673402
 30
0.0
  0
SPLINE
  5
135
330
1F
100
AcDbEntity
  8
0
  6
HIDDEN
 62
     7
370
     0
100
AcDbSpline
210
0.0
220
0.0
230
1.0
 70
    24
 71
     3
 72
    10
 73
     6
 74
     0
 42
0.00000001
 43
0.00000001
 40
0.0
 40
0.0
 40
0.0
 40
0.0
 40
0.0657430591560672
 40
0.5328406141737414
 40
1.0
 40
1.0
 40
1.0
 40
1.0
 10
204.4118240321193
 20
146.8178008673402
 30
0.0
 10
204.4097993472442
 20
146.8178008673402
 30
0.0
 10
204.3933894882237
 20
146.8178008673402
 30
0.0
 10
204.2932370486767
 20
146.8178008673402
 30
0.0
 10
204.2688727098214
 20
146.8178008673402
 30
0.0
 10
204.2566897341558
 20
146.8178008673402
 30
0.0
  0
LINE
  5
136
330
1F
100
AcDbEntity
  8
0
  6
HIDDEN
 62
     7
370
     0
100
AcDbLine
 10
204.2566897342
 20
146.8178008673
 30
0.0
 11
204.2566897342
 21
94.0178008673
 31
0.0
  0
SPLINE
  5
137
330
1F
100
AcDbEntity
  8
0
  6
HIDDEN
 62
     7
370
     0
100
AcDbSpline
210
0.0
220
0.0
230
1.0
 70
    24
 71
     3
 72
    18
 73
    14
 74
     0
 42
0.00000001
 43
0.00000001
 40
0.0
 40
0.0
 40
0.0
 40
0.0
 40
0.5
 40
0.5
 40
0.75
 40
0.75
 40
0.875
 40
0.875
 40
0.9375
 40
0.9375
 40
0.96875
 40
0.96875
 40
1.0
 40
1.0
 40
1.0
 40
1.0
 10
204.2566897341558
 20
94.01780086734021
 30
0.0
 10
204.2566897341558
 20
94.01780086734023
 30
0.0
 10
204.3125388997739
 20
94.01780086734021
 30
0.0
 10
204.3882563083247
 20
94.0178008673402
 30
0.0
 10
204.4124456593011
 20
94.01780086734021
 30
0.0
 10
204.4381894159341
 20
94.0178008673402
 30
0.0
 10
204.4450350578571
 20
94.01780086734021
 30
0.0
 10
204.4519748669609
 20
94.01780086734021
 30
0.0
 10
204.4537373055878
 20
94.01780086734021
 30
0.0
 10
204.455505473626
 20
94.01780086734021
 30
0.0
 10
204.45594926733
 20
94.01780086734021
 30
0.0
 10
204.4565414351184
 20
94.01780086734021
 30
0.0
 10
204.4566898025042
 20
94.01780086734021
 30
0.0
 10
204.4566897341305
 20
94.01780086734021
 30
0.0
  0
LINE
  5
138
330
1F
100
AcDbEntity
  8
0
  6
HIDDEN
 62
     7
370
     0
100
AcDbLine
 10
204.2566897342
 20
94.0178008673
 30
0.0
 11
204.2566897342
 21
146.8178008673
 31
0.0
  0
SPLINE
  5
139
330
1F
100
AcDbEntity
  8
0
  6
HIDDEN
 62
     7
370
     0
100
AcDbSpline
210
0.0
220
0.0
230
1.0
 70
     8
 71
     3
 72
    70
 73
    66
 74
     0
 42
0.00000001
 43
0.00000001
 40
-0.03125
 40
-0.03125
 40
0.0
 40
0.0
 40
0.03125
 40
0.03125
 40
0.0625
 40
0.0625
 40
0.09375
 40
0.09375
 40
0.125
 40
0.125
 40
0.15625
 40
0.15625
 40
0.1875
 40
0.1875
 40
0.21875
 40
0.21875
 40
0.25
 40
0.25
 40
0.28125
 40
0.28125
 40
0.3125
 40
0.3125
 40
0.34375
 40
0.34375
 40
0.375
 40
0.375
 40
0.40625
 40
0.40625
 40
0.4375
 40
0.4375
 40
0.46875
 40
0.46875
 40
0.5
 40
0.5
 40
0.53125
 40
0.53125
 40
0.5625
 40
0.5625
 40
0.59375
 40
0.59375
 40
0.625
 40
0.625
 40
0.65625
 40
0.65625
 40
0.6875
 40
0.6875
 40
0.71875
 40
0.71875
 40
0.75
 40
0.75
 40
0.78125
 40
0.78125
 40
0.8125
 40
0.8125
 40
0.84375
 40
0.84375
 40
0.875
 40
0.875
 40
0.90625
 40
0.90625
 40
0.9375
 40
0.9375
 40
0.96875
 40
0.96875
 40
1.0
 40
1.0
 40
1.03125
 40
1.03125
 10
208.5050611253898
 20
126.4318525874024
 30
0.0
 10
208.1083183429218
 20
126.4318525874024
 30
0.0
 10
207.9132951753525
 20
126.4509405009097
 30
0.0
 10
207.5296611429064
 20
126.5256128614321
 30
0.0
 10
207.3390498018786
 20
126.5821139736928
 30
0.0
 10
206.9758282889114
 20
126.7291877858511
 30
0.0
 10
206.8035831040751
 20
126.8190560371905
 30
0.0
 10
206.4776024822945
 20
127.0308021768673
 30
0.0
 10
206.3233876463558
 20
127.1537018941727
 30
0.0
 10
206.0469120869324
 20
127.421299416193
 30
0.0
 10
205.9227885940192
 20
127.566964572951
 30
0.0
 10
205.7034717755664
 20
127.8822696472477
 30
0.0
 10
205.6103740894588
 20
128.0494133891194
 30
0.0
 10
205.4607018016706
 20
128.3940175334359
 30
0.0
 10
205.4030228416361
 20
128.5740291841907
 30
0.0
 10
205.3258945432901
 20
128.9409756540043
 30
0.0
 10
205.3067982187957
 20
129.1247477192414
 30
0.0
 10
205.3065821624696
 20
129.4927911429225
 30
0.0
 10
205.3260914093254
 20
129.6789517617724
 30
0.0
 10
205.4026860680885
 20
130.0376542853501
 30
0.0
 10
205.4593567359562
 20
130.2112843440695
 30
0.0
 10
205.6096909309086
 20
130.5472915588971
 30
0.0
 10
205.703552603203
 20
130.708854009171
 30
0.0
 10
205.9205896787753
 20
131.0070302377719
 30
0.0
 10
206.0445817669727
 20
131.1456060246365
 30
0.0
 10
206.3244426869871
 20
131.4009630886941
 30
0.0
 10
206.4757891160915
 20
131.5136468379217
 30
0.0
 10
206.8004682989
 20
131.7106753633352
 30
0.0
 10
206.9758787250022
 20
131.795700204057
 30
0.0
 10
207.33908764181
 20
131.9317178898079
 30
0.0
 10
207.5260760417947
 20
131.9829240729176
 30
0.0
 10
207.9107688266262
 20
132.0522161428279
 30
0.0
 10
208.1097152993048
 20
132.0699425118222
 30
0.0
 10
208.5014307140681
 20
132.0700737383045
 30
0.0
 10
208.6962027357825
 20
132.0530517538645
 30
0.0
 10
209.0835244675621
 20
131.9839150797415
 30
0.0
 10
209.2728787444242
 20
131.932076162833
 30
0.0
 10
209.6340171967444
 20
131.7971733616293
 30
0.0
 10
209.8085710857071
 20
131.7130719872063
 30
0.0
 10
210.1365384999102
 20
131.5145183920686
 30
0.0
 10
210.2875635076136
 20
131.4018633026994
 30
0.0
 10
210.5643856762013
 20
131.1499772622429
 30
0.0
 10
210.6911365629089
 20
131.0090595908275
 30
0.0
 10
210.9090422905604
 20
130.7101711344878
 30
0.0
 10
211.0013367364162
 20
130.5516794311395
 30
0.0
 10
211.1522895709328
 20
130.2160034026664
 30
0.0
 10
211.2102147868027
 20
130.0391568857869
 30
0.0
 10
211.2868510725266
 20
129.6817282405281
 30
0.0
 10
211.3065050630426
 20
129.4992936398354
 30
0.0
 10
211.3068718402711
 20
129.126568832759
 30
0.0
 10
211.2875626607476
 20
128.9424231882935
 30
0.0
 10
211.211605077052
 20
128.5789097284472
 30
0.0
 10
211.1540266808452
 20
128.3975571753981
 30
0.0
 10
211.0037020391333
 20
128.0505895454959
 30
0.0
 10
210.9116928889983
 20
127.8853912712513
 30
0.0
 10
210.6942805497791
 20
127.5717277924974
 30
0.0
 10
210.5678124747066
 20
127.4227809390078
 30
0.0
 10
210.2915204388078
 20
127.1550036604383
 30
0.0
 10
210.1407120465182
 20
127.034387086056
 30
0.0
 10
209.8130459027041
 20
126.820796922005
 30
0.0
 10
209.6387548926748
 20
126.7298563297245
 30
0.0
 10
209.2779817164655
 20
126.5834140221943
 30
0.0
 10
209.0890714867749
 20
126.5268733158466
 30
0.0
 10
208.701201794262
 20
126.4509431416214
 30
0.0
 10
208.5050611253898
 20
126.4318525874024
 30
0.0
 10
208.1083183429218
 20
126.4318525874024
 30
0.0
  0
LINE
  5
13A
330
1F
100
AcDbEntity
  8
0
  6
HIDDEN
 62
     7
370
     0
100
AcDbLine
 10
178.3066897342
 20
95.0938769462
 30
0.0
 11
178.3066897342
 21
145.7417247885
 31
0.0
  0
LINE
  5
13B
330
1F
100
AcDbEntity
  8
0
  6
HIDDEN
 62
     7
370
     0
100
AcDbLine
 10
183.2566897342
 20
140.2678008673
 30
0.0
 11
190.5023100798
 21
140.2678008673
 31
0.0
  0
LWPOLYLINE
  5
13C
330
1F
100
AcDbEntity
  8
0
  6
HIDDEN
 62
     7
370
     0
100
AcDbPolyline
 90
        2
 70
   128
 43
0.0
 10
198.2166897342
 20
140.2678008673
 10
198.2166897342
 20
140.2678008673
  0
LWPOLYLINE
  5
13D
330
1F
100
AcDbEntity
  8
0
  6
HIDDEN
 62
     7
370
     0
100
AcDbPolyline
 90
        2
 70
   128
 43
0.0
 10
204.2566897342
 20
140.2678008673
 10
204.2566897342
 20
140.2678008673
  0
LWPOLYLINE
  5
13E
330
1F
100
AcDbEntity
  8
0
  6
HIDDEN
 62
     7
370
     0
100
AcDbPolyline
 90
        2
 70
   128
 43
0.0
 10
194.3966897342
 20
140.2678008673
 10
194.3966897342
 20
140.2678008673
  0
LINE
  5
13F
330
1F
100
AcDbEntity
  8
0
  6
HIDDEN
 62
     7
370
     0
100
AcDbLine
 10
176.3066897342
 20
144.6382317291
 30
0.0
 11
176.3066897342
 21
96.1973700056
 31
0.0
  0
SPLINE
  5
140
330
1F
100
AcDbEntity
  8
0
  6
HIDDEN
 62
     7
370
     0
100
AcDbSpline
210
0.0
220
0.0
230
1.0
 70
     8
 71
     3
 72
    14
 73
    10
 74
     0
 42
0.00000001
 43
0.00000001
 40
0.0
 40
0.0
 40
0.0
 40
0.0
 40
0.5000000000000021
 40
0.5000000000000021
 40
0.7500000000000022
 40
0.7500000000000022
 40
0.8750000000000011
 40
0.8750000000000011
 40
1.0
 40
1.0
 40
1.0
 40
1.0
 10
147.5566897341558
 20
99.54806533444932
 30
0.0
 10
148.3645867582538
 20
99.54947756647454
 30
0.0
 10
149.1703509265801
 20
99.5558705441917
 30
0.0
 10
150.3707915975883
 20
99.58492235582649
 30
0.0
 10
150.769610450882
 20
99.5977552916002
 30
0.0
 10
151.3631388010307
 20
99.6282134731657
 30
0.0
 10
151.5602016994288
 20
99.6402261034276
 30
0.0
 10
151.9511407342781
 20
99.67186757070608
 30
0.0
 10
152.1455157861016
 20
99.69030164338024
 30
0.0
 10
152.3345633574409
 20
99.72148611947682
 30
0.0
  0
SPLINE
  5
141
330
1F
100
AcDbEntity
  8
0
  6
HIDDEN
 62
     7
370
     0
100
AcDbSpline
210
0.0
220
0.0
230
1.0
 70
     8
 71
     3
 72
    10
 73
     6
 74
     0
 42
0.00000001
 43
0.00000001
 40
0.0
 40
0.0
 40
0.0
 40
0.0
 40
0.5
 40
0.5
 40
1.0
 40
1.0
 40
1.0
 40
1.0
 10
152.3345633574409
 20
99.72148611947684
 30
0.0
 10
152.7815042986654
 20
99.79521157915588
 30
0.0
 10
153.2416161872076
 20
99.86154023103607
 30
0.0
 10
154.1685058909522
 20
99.9845696998695
 30
0.0
 10
154.6362096229879
 20
100.0412947703198
 30
0.0
 10
155.1066897341558
 20
100.0948974417883
 30
0.0
  0
SPLINE
  5
142
330
1F
100
AcDbEntity
  8
0
  6
HIDDEN
 62
     7
370
     0
100
AcDbSpline
210
0.0
220
0.0
230
1.0
 70
     8
 71
     3
 72
    14
 73
    10
 74
     0
 42
0.00000001
 43
0.00000001
 40
0.0
 40
0.0
 40
0.0
 40
0.0
 40
0.1249999999999973
 40
0.1249999999999973
 40
0.2499999999999947
 40
0.2499999999999947
 40
0.4999999999999944
 40
0.4999999999999944
 40
1.0
 40
1.0
 40
1.0
 40
1.0
 10
155.1066897341558
 20
100.0948974417883
 30
0.0
 10
155.1634644893763
 20
100.101365894927
 30
0.0
 10
155.2261475903055
 20
100.0955085917182
 30
0.0
 10
155.3320353648436
 20
100.0656122703804
 30
0.0
 10
155.3759396224447
 20
100.0437373284254
 30
0.0
 10
155.4883728706023
 20
99.97436604175861
 30
0.0
 10
155.5415010744647
 20
99.92186698755728
 30
0.0
 10
155.6764885362049
 20
99.76658397923897
 30
0.0
 10
155.7347492476847
 20
99.66079750540463
 30
0.0
 10
155.7820170813032
 20
99.55830797931503
 30
0.0
  0
SPLINE
  5
143
330
1F
100
AcDbEntity
  8
0
  6
HIDDEN
 62
     7
370
     0
100
AcDbSpline
210
0.0
220
0.0
230
1.0
 70
     8
 71
     3
 72
    12
 73
     8
 74
     0
 42
0.00000001
 43
0.00000001
 40
0.0
 40
0.0
 40
0.0
 40
0.0
 40
0.2500000000000004
 40
0.2500000000000004
 40
0.5000000000000008
 40
0.5000000000000008
 40
1.0
 40
1.0
 40
1.0
 40
1.0
 10
155.7820170812889
 20
99.5583079793142
 30
0.0
 10
155.8308576516239
 20
99.4524083320429
 30
0.0
 10
155.9159045668239
 20
99.35047477063542
 30
0.0
 10
156.0855559753874
 20
99.15396856539718
 30
0.0
 10
156.1720179741137
 20
99.05894120379827
 30
0.0
 10
156.3974111790306
 20
98.78166270943925
 30
0.0
 10
156.5066897341559
 20
98.6069453366285
 30
0.0
 10
156.5066897341559
 20
98.44348515918314
 30
0.0
  0
LINE
  5
144
330
1F
100
AcDbEntity
  8
0
  6
HIDDEN
 62
     7
370
     0
100
AcDbLine
 10
156.5066897342
 20
98.4434851592
 30
0.0
 11
156.5066897342
 21
97.1893539736
 31
0.0
  0
LINE
  5
145
330
1F
100
AcDbEntity
  8
0
  6
HIDDEN
 62
     7
370
     0
100
AcDbLine
 10
152.5066897342
 20
143.4458469595
 30
0.0
 11
152.5066897342
 21
142.2619085397
 31
0.0
  0
SPLINE
  5
146
330
1F
100
AcDbEntity
  8
0
  6
HIDDEN
 62
     7
370
     0
100
AcDbSpline
210
0.0
220
0.0
230
1.0
 70
     8
 71
     3
 72
    18
 73
    14
 74
     0
 42
0.00000001
 43
0.00000001
 40
0.0
 40
0.0
 40
0.0
 40
0.0
 40
0.25
 40
0.25
 40
0.4999999999999992
 40
0.4999999999999992
 40
0.7499999999999984
 40
0.7499999999999984
 40
0.8749999999999992
 40
0.8749999999999992
 40
0.9374999999999996
 40
0.9374999999999996
 40
1.0
 40
1.0
 40
1.0
 40
1.0
 10
152.5066897341558
 20
142.2619085397032
 30
0.0
 10
152.5066897341558
 20
142.178701630846
 30
0.0
 10
152.4708406342176
 20
142.0899649755324
 30
0.0
 10
152.3459688981836
 20
141.9078397849722
 30
0.0
 10
152.2555684805358
 20
141.8127097363456
 30
0.0
 10
152.0333258257936
 20
141.6235282272212
 30
0.0
 10
151.9035610393478
 20
141.5285830591266
 30
0.0
 10
151.6629235820363
 20
141.3903043515466
 30
0.0
 10
151.5751562838988
 20
141.3445939182442
 30
0.0
 10
151.420632196692
 20
141.2867706130228
 30
0.0
 10
151.3640213106373
 20
141.2690558489849
 30
0.0
 10
151.2399772797307
 20
141.244516545752
 30
0.0
 10
151.1722626047124
 20
141.2385374072137
 30
0.0
 10
151.1066897341558
 20
141.240888259168
 30
0.0
  0
SPLINE
  5
147
330
1F
100
AcDbEntity
  8
0
  6
HIDDEN
 62
     7
370
     0
100
AcDbSpline
210
0.0
220
0.0
230
1.0
 70
     8
 71
     3
 72
    10
 73
     6
 74
     0
 42
0.00000001
 43
0.00000001
 40
0.0
 40
0.0
 40
0.0
 40
0.0
 40
0.5
 40
0.5
 40
1.0
 40
1.0
 40
1.0
 40
1.0
 10
151.1066897341558
 20
141.240888259168
 30
0.0
 10
150.5191041870652
 20
141.2619537794044
 30
0.0
 10
149.9283577936049
 20
141.2727122652766
 30
0.0
 10
148.744338628306
 20
141.2860770458123
 30
0.0
 10
148.1509246401006
 20
141.2882196884769
 30
0.0
 10
147.5566897341558
 20
141.2877386327353
 30
0.0
  0
SPLINE
  5
148
330
1F
100
AcDbEntity
  8
0
  6
HIDDEN
 62
     7
370
     0
100
AcDbSpline
210
0.0
220
0.0
230
1.0
 70
     8
 71
     3
 72
     8
 73
     4
 74
     0
 42
0.00000001
 43
0.00000001
 40
0.0000003292049693
 40
0.0000003292049693
 40
0.0000003292049693
 40
0.0000003292049693
 40
0.000016905094931
 40
0.000016905094931
 40
0.000016905094931
 40
0.000016905094931
 10
147.5566897341558
 20
141.2877386327353
 30
0.0
 10
147.553333152019
 20
141.2858266386384
 30
0.0
 10
147.5499847878934
 20
141.2839113483833
 30
0.0
 10
147.5466448037244
 20
141.281992739768
 30
0.0
  0
SPLINE
  5
149
330
1F
100
AcDbEntity
  8
0
  6
HIDDEN
 62
     7
370
     0
100
AcDbSpline
210
0.0
220
0.0
230
1.0
 70
     8
 71
     3
 72
     8
 73
     4
 74
     0
 42
0.00000001
 43
0.00000001
 40
0.0000003409637668
 40
0.0000003409637668
 40
0.0000003409637668
 40
0.0000003409637668
 40
0.000017415394438
 40
0.000017415394438
 40
0.000017415394438
 40
0.000017415394438
 10
147.5466448037376
 20
99.55406113224105
 30
0.0
 10
147.5499834544959
 20
99.55205889714367
 30
0.0
 10
147.5533318296756
 20
99.5500603053735
 30
0.0
 10
147.5566897341558
 20
99.54806533444932
 30
0.0
  0
SPLINE
  5
14A
330
1F
100
AcDbEntity
  8
0
  6
HIDDEN
 62
     7
370
     0
100
AcDbSpline
210
0.0
220
0.0
230
1.0
 70
     8
 71
     3
 72
    12
 73
     8
 74
     0
 42
0.00000001
 43
0.00000001
 40
0.0
 40
0.0
 40
0.0
 40
0.0
 40
0.1192152782090121
 40
0.248629149514959
 40
0.500718695438881
 40
0.7537054055439858
 40
1.0
 40
1.0
 40
1.0
 40
1.0
 10
166.3018399387274
 20
96.89320124451847
 30
0.0
 10
166.2196972406578
 20
96.88546529301908
 30
0.0
 10
166.0483847254606
 20
96.86933159714663
 30
0.0
 10
165.6820307617277
 20
96.8363569013579
 30
0.0
 10
165.3772677394712
 20
96.79817939932983
 30
0.0
 10
165.1188892809877
 20
96.76630344219281
 30
0.0
 10
165.0898972729826
 20
96.7622781221153
 30
0.0
 10
165.0755955661315
 20
96.76029243876008
 30
0.0
  0
SPLINE
  5
14B
330
1F
100
AcDbEntity
  8
0
  6
HIDDEN
 62
     7
370
     0
100
AcDbSpline
210
0.0
220
0.0
230
1.0
 70
     8
 71
     3
 72
    20
 73
    16
 74
     0
 42
0.00000001
 43
0.00000001
 40
0.0
 40
0.0
 40
0.0
 40
0.0
 40
0.0014371417843421
 40
0.0850458908086336
 40
0.1697599742259436
 40
0.2540983643787708
 40
0.3373295355548645
 40
0.4202346307100773
 40
0.5035601638150922
 40
0.586846510566592
 40
0.6687600060933063
 40
0.7507345792016866
 40
0.8338925024192402
 40
0.9172623649586591
 40
0.9999999999999999
 40
0.9999999999999999
 40
0.9999999999999999
 40
0.9999999999999999
 10
173.4897563516065
 20
96.33874275041661
 30
0.0
 10
173.4902093213839
 20
96.33863892458793
 30
0.0
 10
173.5170147616339
 20
96.33249481258329
 30
0.0
 10
173.4209862501813
 20
96.35459163468798
 30
0.0
 10
173.1879407130138
 20
96.40647126460846
 30
0.0
 10
172.7941556471701
 20
96.49152840268741
 30
0.0
 10
172.2696972687947
 20
96.5932836518862
 30
0.0
 10
171.6307339585682
 20
96.701179856138
 30
0.0
 10
170.8975687051773
 20
96.80222577158764
 30
0.0
 10
170.105005492261
 20
96.88663492702872
 30
0.0
 10
169.2802566984883
 20
96.94403854832119
 30
0.0
 10
168.453539440474
 20
96.97079662065627
 30
0.0
 10
167.6592320802104
 20
96.96636135933599
 30
0.0
 10
166.9158026416653
 20
96.93904587764415
 30
0.0
 10
166.50597421899
 20
96.90844396389251
 30
0.0
 10
166.3018399387274
 20
96.89320124451847
 30
0.0
  0
SPLINE
  5
14C
330
1F
100
AcDbEntity
  8
0
  6
HIDDEN
 62
     7
370
     0
100
AcDbSpline
210
0.0
220
0.0
230
1.0
 70
     8
 71
     3
 72
    20
 73
    16
 74
     0
 42
0.00000001
 43
0.00000001
 40
0.0
 40
0.0
 40
0.0
 40
0.0
 40
0.0828182133813295
 40
0.1661936881157299
 40
0.2493852825370399
 40
0.3315155124772276
 40
0.4133807586231844
 40
0.4968356081148759
 40
0.5800413781711401
 40
0.662979015418629
 40
0.7460493132171993
 40
0.8302847957804693
 40
0.9148461952092948
 40
0.998403848756671
 40
1.0
 40
1.0
 40
1.0
 40
1.0
 10
166.3017472184456
 20
143.9423838973219
 30
0.0
 10
166.5063989751452
 20
143.927193860155
 30
0.0
 10
166.9170795348509
 20
143.8967115761704
 30
0.0
 10
167.6608048265544
 20
143.8694011009613
 30
0.0
 10
168.4557643112329
 20
143.8649882239731
 30
0.0
 10
169.2828929497956
 20
143.8916565164554
 30
0.0
 10
170.1086346852951
 20
143.9491205186812
 30
0.0
 10
170.9009116822299
 20
144.033708044713
 30
0.0
 10
171.6337351400936
 20
144.1348816418
 30
0.0
 10
172.2716446321607
 20
144.2426672023142
 30
0.0
 10
172.7954995941159
 20
144.3442745744879
 30
0.0
 10
173.1886440793543
 20
144.4291646038618
 30
0.0
 10
173.4213066695056
 20
144.4809998651006
 30
0.0
 10
173.5173769103335
 20
144.5031021819854
 30
0.0
 10
173.4902107915705
 20
144.4969452493903
 30
0.0
 10
173.4897015808036
 20
144.4968298417976
 30
0.0
  0
SPLINE
  5
14D
330
1F
100
AcDbEntity
  8
0
  6
HIDDEN
 62
     7
370
     0
100
AcDbSpline
210
0.0
220
0.0
230
1.0
 70
     8
 71
     3
 72
    12
 73
     8
 74
     0
 42
0.00000001
 43
0.00000001
 40
0.0
 40
0.0
 40
0.0
 40
0.0
 40
0.2468412763863445
 40
0.4995707343914303
 40
0.7516700890846416
 40
0.8176861511894844
 40
1.0
 40
1.0
 40
1.0
 40
1.0
 10
165.0751904762248
 20
144.0753404511403
 30
0.0
 10
165.089304093239
 20
144.0733219704327
 30
0.0
 10
165.1178679951922
 20
144.069236859935
 30
0.0
 10
165.3786575044175
 20
144.0372387817916
 30
0.0
 10
165.6455459185358
 20
144.0029719846903
 30
0.0
 10
166.0042233887816
 20
143.9702800742691
 30
0.0
 10
166.1757899433804
 20
143.9541937965054
 30
0.0
 10
166.3017472184456
 20
143.9423838973219
 30
0.0
  0
LWPOLYLINE
  5
14E
330
1F
100
AcDbEntity
  8
0
  6
HIDDEN
 62
     7
370
     0
100
AcDbPolyline
 90
       26
 70
   128
 43
0.0
 10
208.4150451183
 20
116.2603044061
 10
208.5221025793
 20
116.0522111761
 10
208.5149715929
 20
115.7426181616
 10
208.3941002251
 20
115.3509782306
 10
208.1670832687
 20
114.9018995601
 10
207.8481850338
 20
114.4235994146
 10
207.4574430694
 20
113.9461311514
 10
207.0194091301
 20
113.4994958574
 10
206.5616064994
 20
113.1117572707
 10
206.1128006002
 20
112.8072784329
 10
205.7011915577
 20
112.6051908689
 10
205.352642282
 20
112.5181924838
 10
205.0890534057
 20
112.5517497059
 10
204.9269871875
 20
112.7037540117
 10
204.8766268439
 20
112.9646544115
 10
204.9411367005
 20
113.3180575738
 10
205.1164633657
 20
113.741757878
 10
205.3915904203
 20
114.2091326759
 10
205.7492306198
 20
114.6908150899
 10
206.1669121149
 20
115.1565392426
 10
206.6183904414
 20
115.5770419725
 10
207.0752975554
 20
115.9259015467
 10
207.5089243027
 20
116.1811978351
 10
207.8920243199
 20
116.326889633
 10
208.200526024
 20
116.3538225889
 10
208.4150451183
 20
116.2603044061
  0
SPLINE
  5
14F
330
1F
100
AcDbEntity
  8
0
  6
HIDDEN
 62
     7
370
     0
100
AcDbSpline
210
0.0
220
0.0
230
1.0
 70
     8
 71
     3
 72
    80
 73
    76
 74
     0
 42
0.00000001
 43
0.00000001
 40
0.0
 40
0.0
 40
0.0
 40
0.0
 40
0.0156249999999997
 40
0.0156249999999997
 40
0.0312499999999995
 40
0.0312499999999995
 40
0.0624999999999988
 40
0.0624999999999988
 40
0.093749999999998
 40
0.093749999999998
 40
0.1249999999999972
 40
0.1249999999999972
 40
0.1562499999999963
 40
0.1562499999999963
 40
0.1874999999999955
 40
0.1874999999999955
 40
0.2187499999999947
 40
0.2187499999999947
 40
0.2499999999999939
 40
0.2499999999999939
 40
0.2812499999999931
 40
0.2812499999999931
 40
0.3124999999999922
 40
0.3124999999999922
 40
0.3437499999999915
 40
0.3437499999999915
 40
0.3749999999999907
 40
0.3749999999999907
 40
0.4062499999999898
 40
0.4062499999999898
 40
0.4374999999999891
 40
0.4374999999999891
 40
0.4531249999999893
 40
0.4531249999999893
 40
0.4687499999999895
 40
0.4687499999999895
 40
0.4843749999999898
 40
0.4843749999999898
 40
0.49999999999999
 40
0.49999999999999
 40
0.5156249999999902
 40
0.5156249999999902
 40
0.5312499999999903
 40
0.5312499999999903
 40
0.5624999999999908
 40
0.5624999999999908
 40
0.5937499999999911
 40
0.5937499999999911
 40
0.6249999999999915
 40
0.6249999999999915
 40
0.6562499999999919
 40
0.6562499999999919
 40
0.6874999999999922
 40
0.6874999999999922
 40
0.7187499999999926
 40
0.7187499999999926
 40
0.7499999999999929
 40
0.7499999999999929
 40
0.7812499999999933
 40
0.7812499999999933
 40
0.8124999999999942
 40
0.8124999999999942
 40
0.8437499999999951
 40
0.8437499999999951
 40
0.8749999999999961
 40
0.8749999999999961
 40
0.906249999999997
 40
0.906249999999997
 40
0.9374999999999979
 40
0.9374999999999979
 40
0.9687499999999989
 40
0.9687499999999989
 40
0.9843749999999994
 40
0.9843749999999994
 40
1.0
 40
1.0
 40
1.0
 40
1.0
 10
206.1584598549395
 20
111.6917600113091
 30
0.0
 10
206.1447973852594
 20
111.7443423526825
 30
0.0
 10
206.1221477457809
 20
111.8084638078727
 30
0.0
 10
206.0736278000269
 20
111.9467893343811
 30
0.0
 10
206.0473964537812
 20
112.0215322934758
 30
0.0
 10
205.9727497593478
 20
112.2501283410873
 30
0.0
 10
205.9275216126464
 20
112.4105450525725
 30
0.0
 10
205.856683898136
 20
112.7426218786032
 30
0.0
 10
205.8305711272197
 20
112.916060051314
 30
0.0
 10
205.8037839890067
 20
113.2665218869261
 30
0.0
 10
205.8028112993958
 20
113.4431981218339
 30
0.0
 10
205.8300958938874
 20
113.7993534680504
 30
0.0
 10
205.858820476924
 20
113.9809329723053
 30
0.0
 10
205.9514339675884
 20
114.3369210539127
 30
0.0
 10
206.0144094603995
 20
114.5095546943391
 30
0.0
 10
206.1804188068684
 20
114.8418871020666
 30
0.0
 10
206.2817202605927
 20
114.9970107503689
 30
0.0
 10
206.5173791994753
 20
115.273419093841
 30
0.0
 10
206.6549318983642
 20
115.3971846025868
 30
0.0
 10
206.9481731300322
 20
115.5954208133805
 30
0.0
 10
207.1078554467894
 20
115.673073268468
 30
0.0
 10
207.4334335769451
 20
115.7801132493763
 30
0.0
 10
207.6008863297487
 20
115.8105163146065
 30
0.0
 10
207.9336867576581
 20
115.8297064899391
 30
0.0
 10
208.0969198324964
 20
115.8188510384715
 30
0.0
 10
208.4185418361915
 20
115.7631410373184
 30
0.0
 10
208.5775404414933
 20
115.7176517954579
 30
0.0
 10
208.880775317476
 20
115.5998512389237
 30
0.0
 10
209.02651804642
 20
115.5273911419069
 30
0.0
 10
209.3094265313341
 20
115.3576547837014
 30
0.0
 10
209.4470035050117
 20
115.2598035841505
 30
0.0
 10
209.6477571165846
 20
115.0963400183212
 30
0.0
 10
209.7141857049142
 20
115.0387141370431
 30
0.0
 10
209.8465375058087
 20
114.9184570577233
 30
0.0
 10
209.9129237869568
 20
114.8553224195374
 30
0.0
 10
210.0475624780537
 20
114.7265210817627
 30
0.0
 10
210.1149255876336
 20
114.6623547469621
 30
0.0
 10
210.2341174727105
 20
114.5519805982987
 30
0.0
 10
210.2864358245281
 20
114.5047085361843
 30
0.0
 10
210.3780574342088
 20
114.4194395816782
 30
0.0
 10
210.4186697085507
 20
114.3802201399614
 30
0.0
 10
210.4920176294463
 20
114.3040840127242
 30
0.0
 10
210.5249156111361
 20
114.2670800720018
 30
0.0
 10
210.6150673588546
 20
114.1552675302257
 30
0.0
 10
210.6638773018185
 20
114.0796130988246
 30
0.0
 10
210.7416517755402
 20
113.9185435446596
 30
0.0
 10
210.7704885529573
 20
113.8327943192431
 30
0.0
 10
210.8049649613319
 20
113.652320014758
 30
0.0
 10
210.8108882907333
 20
113.5573802509677
 30
0.0
 10
210.7965913614639
 20
113.3552073619658
 30
0.0
 10
210.7761019674805
 20
113.2469376065453
 30
0.0
 10
210.7023468507354
 20
113.0186262693381
 30
0.0
 10
210.6498763727088
 20
112.9001423628565
 30
0.0
 10
210.5053578565554
 20
112.6516425815016
 30
0.0
 10
210.4147250787881
 20
112.5246523353344
 30
0.0
 10
210.1953474620271
 20
112.271207463437
 30
0.0
 10
210.0670447358983
 20
112.1458203354467
 30
0.0
 10
209.7873439117661
 20
111.9120279032107
 30
0.0
 10
209.6339248542299
 20
111.8020292749422
 30
0.0
 10
209.3232075600878
 20
111.6083382802643
 30
0.0
 10
209.1633238141042
 20
111.5227961858802
 30
0.0
 10
208.8527258396512
 20
111.3778424880961
 30
0.0
 10
208.6981749281908
 20
111.3164859059736
 30
0.0
 10
208.4003461064658
 20
111.21508686762
 30
0.0
 10
208.2577568651602
 20
111.1750860662322
 30
0.0
 10
207.9831782708791
 20
111.111436487788
 30
0.0
 10
207.8504702868598
 20
111.0877881904661
 30
0.0
 10
207.5991744049708
 20
111.054088747135
 30
0.0
 10
207.4811214652859
 20
111.0441397512394
 30
0.0
 10
207.2612391956528
 20
111.0322486282153
 30
0.0
 10
207.15878106297
 20
111.0310910548573
 30
0.0
 10
207.0258270159262
 20
111.0235512039128
 30
0.0
 10
206.9846208145674
 20
111.0200347683381
 30
0.0
 10
206.9184753922185
 20
111.0021261909773
 30
0.0
 10
206.8937174192949
 20
110.9875808458163
 30
0.0
 10
206.8887661728097
 20
110.9585279212097
 30
0.0
  0
SPLINE
  5
150
330
1F
100
AcDbEntity
  8
0
  6
HIDDEN
 62
     7
370
     0
100
AcDbSpline
210
0.0
220
0.0
230
1.0
 70
     8
 71
     3
 72
     8
 73
     4
 74
     0
 42
0.00000001
 43
0.00000001
 40
0.0
 40
0.0
 40
0.0
 40
0.0
 40
1.0
 40
1.0
 40
1.0
 40
1.0
 10
206.8887661728118
 20
110.9585279212096
 30
0.0
 10
206.6455627575834
 20
111.1852772512276
 30
0.0
 10
206.4002892177785
 20
111.4288662567528
 30
0.0
 10
206.1584598549219
 20
111.6917600113361
 30
0.0
  0
SPLINE
  5
151
330
1F
100
AcDbEntity
  8
0
  6
HIDDEN
 62
     7
370
     0
100
AcDbSpline
210
0.0
220
0.0
230
1.0
 70
     8
 71
     3
 72
    64
 73
    60
 74
     0
 42
0.00000001
 43
0.00000001
 40
-0.0312499999999994
 40
-0.0312499999999994
 40
0.0
 40
0.0
 40
0.0312500000000003
 40
0.0312500000000003
 40
0.0625000000000005
 40
0.0625000000000005
 40
0.1250000000000005
 40
0.1250000000000005
 40
0.1562500000000004
 40
0.1562500000000004
 40
0.1875000000000003
 40
0.1875000000000003
 40
0.2187500000000002
 40
0.2187500000000002
 40
0.2500000000000002
 40
0.2500000000000002
 40
0.2812500000000002
 40
0.2812500000000002
 40
0.3125000000000001
 40
0.3125000000000001
 40
0.375
 40
0.375
 40
0.4062500000000002
 40
0.4062500000000002
 40
0.4375000000000003
 40
0.4375000000000003
 40
0.4687500000000005
 40
0.4687500000000005
 40
0.5000000000000007
 40
0.5000000000000007
 40
0.5312500000000008
 40
0.5312500000000008
 40
0.562500000000001
 40
0.562500000000001
 40
0.5937500000000011
 40
0.5937500000000011
 40
0.6250000000000012
 40
0.6250000000000012
 40
0.6562500000000014
 40
0.6562500000000014
 40
0.6875000000000016
 40
0.6875000000000016
 40
0.7187500000000018
 40
0.7187500000000018
 40
0.7500000000000019
 40
0.7500000000000019
 40
0.781250000000002
 40
0.781250000000002
 40
0.8125000000000022
 40
0.8125000000000022
 40
0.875000000000002
 40
0.875000000000002
 40
0.9062500000000016
 40
0.9062500000000016
 40
0.937500000000001
 40
0.937500000000001
 40
0.9687500000000006
 40
0.9687500000000006
 40
1.0
 40
1.0
 40
1.03125
 40
1.03125
 10
208.4763494234581
 20
116.9142830006175
 30
0.0
 10
208.1370300448536
 20
116.9142830006175
 30
0.0
 10
207.9713435200204
 20
116.9259431796422
 30
0.0
 10
207.6471074438462
 20
116.971636408649
 30
0.0
 10
207.4873006081183
 20
117.0062935615702
 30
0.0
 10
207.0381257857761
 20
117.1413914795272
 30
0.0
 10
206.7687005697119
 20
117.2751351574124
 30
0.0
 10
206.4306655585148
 20
117.537661528068
 30
0.0
 10
206.3271093941156
 20
117.637155313594
 30
0.0
 10
206.146721903478
 20
117.8551192826534
 30
0.0
 10
206.0695755694154
 20
117.97329559719
 30
0.0
 10
205.9420551586377
 20
118.2307179925857
 30
0.0
 10
205.8915315985976
 20
118.371904309011
 30
0.0
 10
205.824610770671
 20
118.6638308145698
 30
0.0
 10
205.8072517080327
 20
118.8156198925809
 30
0.0
 10
205.8061543314246
 20
119.1317004597689
 30
0.0
 10
205.8228802528978
 20
119.2938796443809
 30
0.0
 10
205.8882845377978
 20
119.6132081605203
 30
0.0
 10
205.9377703895294
 20
119.7740676247498
 30
0.0
 10
206.1283828044782
 20
120.2378367676605
 30
0.0
 10
206.312978600627
 20
120.5274465295961
 30
0.0
 10
206.6501947448327
 20
120.898274825498
 30
0.0
 10
206.7742226882187
 20
121.013006560653
 30
0.0
 10
207.0400535566432
 20
121.2166015118459
 30
0.0
 10
207.1804706808708
 20
121.3047727099269
 30
0.0
 10
207.4781041633241
 20
121.4518914872229
 30
0.0
 10
207.6376683876133
 20
121.5112767650115
 30
0.0
 10
207.9632795666217
 20
121.5910623187713
 30
0.0
 10
208.1293918021541
 20
121.6121210276939
 30
0.0
 10
208.4688908493683
 20
121.613343990143
 30
0.0
 10
208.6355642552261
 20
121.5934057335525
 30
0.0
 10
208.9614693034986
 20
121.5158817060715
 30
0.0
 10
209.1215597127
 20
121.4575688188361
 30
0.0
 10
209.4219059398425
 20
121.31122638205
 30
0.0
 10
209.5651693887975
 20
121.2220878525615
 30
0.0
 10
209.8323082860802
 20
121.0189706882581
 30
0.0
 10
209.9552677430015
 20
120.9060488588063
 30
0.0
 10
210.1817797246147
 20
120.6587668608834
 30
0.0
 10
210.2856264370537
 20
120.5234184670354
 30
0.0
 10
210.4657830156358
 20
120.2416064895814
 30
0.0
 10
210.5432807134597
 20
120.0940775977269
 30
0.0
 10
210.6717588719275
 20
119.7852524058484
 30
0.0
 10
210.7219836879209
 20
119.6244010767382
 30
0.0
 10
210.788760508692
 20
119.306082635446
 30
0.0
 10
210.8062972100446
 20
119.1464340413987
 30
0.0
 10
210.8070693569616
 20
118.8268745055021
 30
0.0
 10
210.7903027781938
 20
118.6737918596879
 30
0.0
 10
210.7243964742871
 20
118.3799475305739
 30
0.0
 10
210.6744429031498
 20
118.2383237213517
 30
0.0
 10
210.4833654008765
 20
117.8487648120039
 30
0.0
 10
210.2980632747993
 20
117.6277003860631
 30
0.0
 10
209.9590738964162
 20
117.3637523697442
 30
0.0
 10
209.8338669833037
 20
117.285509473195
 30
0.0
 10
209.5683343091809
 20
117.1525107896342
 30
0.0
 10
209.4275395131454
 20
117.0970639327126
 30
0.0
 10
209.1274764601493
 20
117.0066147347207
 30
0.0
 10
208.967248218428
 20
116.9718205514817
 30
0.0
 10
208.6429608485076
 20
116.926027222239
 30
0.0
 10
208.4763494234581
 20
116.9142830006175
 30
0.0
 10
208.1370300448536
 20
116.9142830006175
 30
0.0
  0
ARC
  5
152
330
1F
100
AcDbEntity
  8
0
  6
HIDDEN
 62
     7
370
     0
100
AcDbCircle
 10
208.1953697097
 20
112.9902299512
 30
0.0
 40
2.415579835452321
100
AcDbArc
 50
212.5163087197
 51
237.2546106129
  0
SPLINE
  5
153
330
1F
100
AcDbEntity
  8
0
  6
HIDDEN
 62
     7
370
     0
100
AcDbSpline
210
0.0
220
0.0
230
1.0
 70
    11
 71
     3
 72
    56
 73
    52
 74
     0
 42
0.00000001
 43
0.00000001
 40
0.0
 40
0.0
 40
0.0
 40
0.0
 40
0.0625000000000004
 40
0.0625000000000004
 40
0.0937500000000005
 40
0.0937500000000005
 40
0.1250000000000007
 40
0.1250000000000007
 40
0.1562500000000008
 40
0.1562500000000008
 40
0.187500000000001
 40
0.187500000000001
 40
0.2187500000000011
 40
0.2187500000000011
 40
0.2500000000000013
 40
0.2500000000000013
 40
0.3125000000000012
 40
0.3125000000000012
 40
0.3437500000000013
 40
0.3437500000000013
 40
0.3750000000000013
 40
0.3750000000000013
 40
0.4062500000000013
 40
0.4062500000000013
 40
0.4375000000000014
 40
0.4375000000000014
 40
0.4687500000000014
 40
0.4687500000000014
 40
0.5000000000000014
 40
0.5000000000000014
 40
0.5625000000000016
 40
0.5625000000000016
 40
0.6250000000000016
 40
0.6250000000000016
 40
0.6875000000000017
 40
0.6875000000000017
 40
0.7187500000000017
 40
0.7187500000000017
 40
0.7500000000000016
 40
0.7500000000000016
 40
0.7812500000000016
 40
0.7812500000000016
 40
0.8125000000000016
 40
0.8125000000000016
 40
0.8750000000000011
 40
0.8750000000000011
 40
0.9375000000000006
 40
0.9375000000000006
 40
0.9687500000000003
 40
0.9687500000000003
 40
1.0
 40
1.0
 40
1.0
 40
1.0
 10
172.0616917357574
 20
100.5802723915237
 30
0.0
 10
171.8059044252097
 20
100.6157956954173
 30
0.0
 10
171.5157146182663
 20
100.6513395643856
 30
0.0
 10
171.0290615199756
 20
100.6978112642944
 30
0.0
 10
170.8587156778144
 20
100.7120571775259
 30
0.0
 10
170.5117422677233
 20
100.7363450917243
 30
0.0
 10
170.3338043704886
 20
100.7465214380464
 30
0.0
 10
169.9688850929288
 20
100.7621967656503
 30
0.0
 10
169.7805505008335
 20
100.7676837268631
 30
0.0
 10
169.406663648378
 20
100.7731437211389
 30
0.0
 10
169.2199734342081
 20
100.773201944398
 30
0.0
 10
168.8470949432889
 20
100.7680178024212
 30
0.0
 10
168.6593907003665
 20
100.7627023239498
 30
0.0
 10
168.292471800819
 20
100.7471999429265
 30
0.0
 10
168.1140220587544
 20
100.7371005351658
 30
0.0
 10
167.5932331553937
 20
100.7009686935119
 30
0.0
 10
167.2623494357228
 20
100.6685394724938
 30
0.0
 10
166.8258478773912
 20
100.6170129811267
 30
0.0
 10
166.6890623383386
 20
100.5992883700828
 30
0.0
 10
166.4333377288848
 20
100.5638940435735
 30
0.0
 10
166.3157140007792
 20
100.5463975221929
 30
0.0
 10
166.1056445475906
 20
100.5136951262043
 30
0.0
 10
166.0123097089055
 20
100.4983633172583
 30
0.0
 10
165.8493639982264
 20
100.4707671579095
 30
0.0
 10
165.7796610353766
 20
100.4584804747959
 30
0.0
 10
165.6690379690444
 20
100.4386354830094
 30
0.0
 10
165.627356297434
 20
100.4309493704828
 30
0.0
 10
165.5711811570588
 20
100.4205319901055
 30
0.0
 10
165.5567428812982
 20
100.417810832429
 30
0.0
 10
165.5565838861956
 20
100.4177810208485
 30
0.0
 10
165.6122432239324
 20
100.4284431509964
 30
0.0
 10
165.8350679844668
 20
100.4684238227314
 30
0.0
 10
165.9969802700604
 20
100.4967600743637
 30
0.0
 10
166.4207718287962
 20
100.5627709833237
 30
0.0
 10
166.6756182513435
 20
100.599230856115
 30
0.0
 10
167.1142619114572
 20
100.6510823791013
 30
0.0
 10
167.2709594477367
 20
100.6679700131613
 30
0.0
 10
167.5941593975153
 20
100.6986634337822
 30
0.0
 10
167.7618328789356
 20
100.7126232407261
 30
0.0
 10
168.1094177451243
 20
100.7368226698773
 30
0.0
 10
168.2909812259432
 20
100.7471196187081
 30
0.0
 10
168.6571675007521
 20
100.76262556557
 30
0.0
 10
168.8418249165944
 20
100.767891547467
 30
0.0
 10
169.4004213231528
 20
100.7758143707225
 30
0.0
 10
169.7827556646234
 20
100.7701002473489
 30
0.0
 10
170.5100528089918
 20
100.7390411611866
 30
0.0
 10
170.8657468830918
 20
100.7133525251366
 30
0.0
 10
171.3490591600427
 20
100.6672805149285
 30
0.0
 10
171.5027567672592
 20
100.6506783565122
 30
0.0
 10
171.7951789921023
 20
100.6160585012979
 30
0.0
 10
171.9337942153076
 20
100.5980345802596
 30
0.0
 10
172.0616917357574
 20
100.5802723915237
 30
0.0
  0
SPLINE
  5
154
330
1F
100
AcDbEntity
  8
0
  6
HIDDEN
 62
     7
370
     0
100
AcDbSpline
210
0.0
220
0.0
230
1.0
 70
    11
 71
     3
 72
    56
 73
    52
 74
     0
 42
0.00000001
 43
0.00000001
 40
0.0
 40
0.0
 40
0.0
 40
0.0
 40
0.0625000000000005
 40
0.0625000000000005
 40
0.0937500000000008
 40
0.0937500000000008
 40
0.1250000000000011
 40
0.1250000000000011
 40
0.1562500000000011
 40
0.1562500000000011
 40
0.1875000000000011
 40
0.1875000000000011
 40
0.2187500000000011
 40
0.2187500000000011
 40
0.2500000000000011
 40
0.2500000000000011
 40
0.3125000000000008
 40
0.3125000000000008
 40
0.3437500000000007
 40
0.3437500000000007
 40
0.3750000000000004
 40
0.3750000000000004
 40
0.4062500000000003
 40
0.4062500000000003
 40
0.4375000000000001
 40
0.4375000000000001
 40
0.46875
 40
0.46875
 40
0.4999999999999999
 40
0.4999999999999999
 40
0.5624999999999997
 40
0.5624999999999997
 40
0.6249999999999994
 40
0.6249999999999994
 40
0.6874999999999992
 40
0.6874999999999992
 40
0.7187499999999991
 40
0.7187499999999991
 40
0.749999999999999
 40
0.749999999999999
 40
0.781249999999999
 40
0.781249999999999
 40
0.8124999999999989
 40
0.8124999999999989
 40
0.8749999999999991
 40
0.8749999999999991
 40
0.9374999999999996
 40
0.9374999999999996
 40
0.9687499999999999
 40
0.9687499999999999
 40
1.0
 40
1.0
 40
1.0
 40
1.0
 10
172.0616917357574
 20
140.2553293431567
 30
0.0
 10
171.8059044252097
 20
140.2198060392631
 30
0.0
 10
171.5157146182663
 20
140.1842621702949
 30
0.0
 10
171.0290615199756
 20
140.137790470386
 30
0.0
 10
170.8587156778144
 20
140.1235445571545
 30
0.0
 10
170.5117422677233
 20
140.0992566429561
 30
0.0
 10
170.3338043704886
 20
140.0890802966341
 30
0.0
 10
169.9688850929288
 20
140.0734049690302
 30
0.0
 10
169.7805505008335
 20
140.0679180078173
 30
0.0
 10
169.406663648378
 20
140.0624580135415
 30
0.0
 10
169.2199734342081
 20
140.0623997902824
 30
0.0
 10
168.8470949432889
 20
140.0675839322592
 30
0.0
 10
168.6593907003665
 20
140.0728994107306
 30
0.0
 10
168.292471800819
 20
140.0884017917539
 30
0.0
 10
168.1140220587544
 20
140.0985011995146
 30
0.0
 10
167.5932331553937
 20
140.1346330411685
 30
0.0
 10
167.2623494357228
 20
140.1670622621866
 30
0.0
 10
166.8258478773912
 20
140.2185887535537
 30
0.0
 10
166.6890623383386
 20
140.2363133645977
 30
0.0
 10
166.4333377288848
 20
140.271707691107
 30
0.0
 10
166.3157140007792
 20
140.2892042124875
 30
0.0
 10
166.1056445475906
 20
140.3219066084761
 30
0.0
 10
166.0123097089055
 20
140.3372384174221
 30
0.0
 10
165.8493639982264
 20
140.3648345767709
 30
0.0
 10
165.7796610353766
 20
140.3771212598845
 30
0.0
 10
165.6690379690444
 20
140.396966251671
 30
0.0
 10
165.627356297434
 20
140.4046523641977
 30
0.0
 10
165.5711811570588
 20
140.4150697445749
 30
0.0
 10
165.5567428812982
 20
140.4177909022514
 30
0.0
 10
165.5565838861956
 20
140.417820713832
 30
0.0
 10
165.6122432239324
 20
140.407158583684
 30
0.0
 10
165.8350679844668
 20
140.367177911949
 30
0.0
 10
165.9969802700604
 20
140.3388416603167
 30
0.0
 10
166.4207718287962
 20
140.2728307513567
 30
0.0
 10
166.6756182513435
 20
140.2363708785655
 30
0.0
 10
167.1142619114572
 20
140.1845193555791
 30
0.0
 10
167.2709594477367
 20
140.1676317215191
 30
0.0
 10
167.5941593975153
 20
140.1369383008982
 30
0.0
 10
167.7618328789356
 20
140.1229784939543
 30
0.0
 10
168.1094177451243
 20
140.0987790648032
 30
0.0
 10
168.2909812259432
 20
140.0884821159724
 30
0.0
 10
168.6571675007521
 20
140.0729761691104
 30
0.0
 10
168.8418249165944
 20
140.0677101872135
 30
0.0
 10
169.4004213231528
 20
140.059787363958
 30
0.0
 10
169.7827556646234
 20
140.0655014873316
 30
0.0
 10
170.5100528089918
 20
140.0965605734938
 30
0.0
 10
170.8657468830918
 20
140.1222492095438
 30
0.0
 10
171.3490591600427
 20
140.1683212197519
 30
0.0
 10
171.5027567672592
 20
140.1849233781682
 30
0.0
 10
171.7951789921023
 20
140.2195432333825
 30
0.0
 10
171.9337942153076
 20
140.2375671544208
 30
0.0
 10
172.0616917357574
 20
140.2553293431567
 30
0.0
  0
SPLINE
  5
155
330
1F
100
AcDbEntity
  8
0
  6
HIDDEN
 62
     7
370
     0
100
AcDbSpline
210
0.0
220
0.0
230
1.0
 70
    11
 71
     3
 72
    22
 73
    18
 74
     0
 42
0.00000001
 43
0.00000001
 40
0.0
 40
0.0
 40
0.0
 40
0.0
 40
0.1249999999999999
 40
0.1249999999999999
 40
0.2499999999999999
 40
0.2499999999999999
 40
0.3749999999999998
 40
0.3749999999999998
 40
0.4999999999999998
 40
0.4999999999999998
 40
0.6249999999999998
 40
0.6249999999999998
 40
0.7499999999999997
 40
0.7499999999999997
 40
0.8749999999999997
 40
0.8749999999999997
 40
1.0
 40
1.0
 40
1.0
 40
1.0
 10
172.0616917357574
 20
140.2553293431567
 30
0.0
 10
172.2206345647265
 20
140.2774030512037
 30
0.0
 10
172.3613261126168
 20
140.2940868691913
 30
0.0
 10
172.6073123500793
 20
140.3203085640736
 30
0.0
 10
172.7133504327606
 20
140.329887869919
 30
0.0
 10
172.8838424733276
 20
140.3439671369981
 30
0.0
 10
172.9478951727913
 20
140.3484737132452
 30
0.0
 10
173.0343992238843
 20
140.354337883083
 30
0.0
 10
173.0566327192444
 20
140.3556798156013
 30
0.0
 10
173.0567465252564
 20
140.3556869553508
 30
0.0
 10
173.0352885967711
 20
140.3543943198646
 30
0.0
 10
172.9493028038922
 20
140.3485728903544
 30
0.0
 10
172.8839886571426
 20
140.3439734210786
 30
0.0
 10
172.7149828232072
 20
140.3300284002687
 30
0.0
 10
172.6110237853314
 20
140.3206760134104
 30
0.0
 10
172.3635133390924
 20
140.294347542944
 30
0.0
 10
172.2206292490087
 20
140.277402312966
 30
0.0
 10
172.0616917357577
 20
140.2553293431568
 30
0.0
  0
SPLINE
  5
156
330
1F
100
AcDbEntity
  8
0
  6
HIDDEN
 62
     7
370
     0
100
AcDbSpline
210
0.0
220
0.0
230
1.0
 70
    11
 71
     3
 72
    22
 73
    18
 74
     0
 42
0.00000001
 43
0.00000001
 40
0.0
 40
0.0
 40
0.0
 40
0.0
 40
0.1249999999999999
 40
0.1249999999999999
 40
0.2499999999999998
 40
0.2499999999999998
 40
0.3749999999999998
 40
0.3749999999999998
 40
0.4999999999999998
 40
0.4999999999999998
 40
0.6249999999999998
 40
0.6249999999999998
 40
0.7499999999999998
 40
0.7499999999999998
 40
0.8749999999999999
 40
0.8749999999999999
 40
1.0
 40
1.0
 40
1.0
 40
1.0
 10
172.0616917357574
 20
100.5802723915238
 30
0.0
 10
172.2206345647265
 20
100.5581986834767
 30
0.0
 10
172.3613261126168
 20
100.5415148654891
 30
0.0
 10
172.6073123500793
 20
100.5152931706068
 30
0.0
 10
172.7133504327606
 20
100.5057138647615
 30
0.0
 10
172.8838424733276
 20
100.4916345976823
 30
0.0
 10
172.9478951727913
 20
100.4871280214353
 30
0.0
 10
173.0343992238843
 20
100.4812638515974
 30
0.0
 10
173.0566327192444
 20
100.4799219190791
 30
0.0
 10
173.0567465252564
 20
100.4799147793296
 30
0.0
 10
173.0352885967711
 20
100.4812074148158
 30
0.0
 10
172.9493028038922
 20
100.487028844326
 30
0.0
 10
172.8839886571426
 20
100.4916283136019
 30
0.0
 10
172.7149828232072
 20
100.5055733344117
 30
0.0
 10
172.6110237853314
 20
100.51492572127
 30
0.0
 10
172.3635133390924
 20
100.5412541917365
 30
0.0
 10
172.2206292490087
 20
100.5581994217145
 30
0.0
 10
172.0616917357577
 20
100.5802723915237
 30
0.0
  0
LINE
  5
157
330
1F
100
AcDbEntity
  8
0
  6
HIDDEN
 62
     7
370
     0
100
AcDbLine
 10
178.3066897342
 20
103.4178008673
 30
0.0
 11
178.3066897342
 21
137.3991160226
 31
0.0
  0
LINE
  5
158
330
1F
100
AcDbEntity
  8
0
  6
HIDDEN
 62
     7
370
     0
100
AcDbLine
 10
190.5023100798
 20
140.2678008673
 30
0.0
 11
194.4228373573
 21
140.2678008673
 31
0.0
  0
LINE
  5
159
330
1F
100
AcDbEntity
  8
0
  6
HIDDEN
 62
     7
370
     0
100
AcDbLine
 10
198.190542111
 20
140.2678008673
 30
0.0
 11
204.2566897342
 21
140.2678008673
 31
0.0
  0
LINE
  5
15A
330
1F
100
AcDbEntity
  8
0
  6
HIDDEN
 62
     7
370
     0
100
AcDbLine
 10
159.3106643304
 20
137.4178008673
 30
0.0
 11
159.3106643304
 21
103.4178008673
 31
0.0
  0
LWPOLYLINE
  5
15B
330
1F
100
AcDbEntity
  8
0
  6
HIDDEN
 62
     7
370
     0
100
AcDbPolyline
 90
        2
 70
   128
 43
0.0
 10
159.3106643304
 20
103.4178008673
 10
159.3106643304
 20
103.4178008673
  0
LINE
  5
15C
330
1F
100
AcDbEntity
  8
0
  6
HIDDEN
 62
     7
370
     0
100
AcDbLine
 10
146.4066897342
 20
104.1472868737
 30
0.0
 11
146.4066897342
 21
136.6638935451
 31
0.0
  0
LINE
  5
15D
330
1F
100
AcDbEntity
  8
0
  6
HIDDEN
 62
     7
370
     0
100
AcDbLine
 10
185.9665157027
 20
137.4178008673
 30
0.0
 11
185.9665157027
 21
103.4178008673
 31
0.0
  0
LINE
  5
15E
330
1F
100
AcDbEntity
  8
0
  6
HIDDEN
 62
     7
370
     0
100
AcDbLine
 10
188.2566897342
 20
136.1428008495
 30
0.0
 11
188.2566897342
 21
104.6928008673
 31
0.0
  0
LWPOLYLINE
  5
15F
330
1F
100
AcDbEntity
  8
0
  6
HIDDEN
 62
     7
370
     0
100
AcDbPolyline
 90
        2
 70
   128
 43
0.0
 10
188.2566897342
 20
104.6928008673
 10
188.2566897342
 20
104.6928008673
  0
LINE
  5
160
330
1F
100
AcDbEntity
  8
0
  6
HIDDEN
 62
     7
370
     0
100
AcDbLine
 10
147.5566897342
 20
104.5936154618
 30
0.0
 11
155.1066897342
 21
104.5936154618
 31
0.0
  0
LINE
  5
161
330
1F
100
AcDbEntity
  8
0
  6
HIDDEN
 62
     7
370
     0
100
AcDbLine
 10
147.5566897342
 20
136.2192913034
 30
0.0
 11
147.5566897342
 21
104.5936154618
 31
0.0
  0
LINE
  5
162
330
1F
100
AcDbEntity
  8
0
  6
HIDDEN
 62
     7
370
     0
100
AcDbLine
 10
151.1066897342
 20
136.2192913034
 30
0.0
 11
147.5566897342
 21
136.2192913034
 31
0.0
  0
SPLINE
  5
163
330
1F
100
AcDbEntity
  8
0
  6
HIDDEN
 62
     7
370
     0
100
AcDbSpline
210
0.0
220
0.0
230
1.0
 70
     8
 71
     3
 72
    18
 73
    14
 74
     0
 42
0.00000001
 43
0.00000001
 40
0.0
 40
0.0
 40
0.0
 40
0.0
 40
0.2500000000000018
 40
0.2500000000000018
 40
0.3750000000000024
 40
0.3750000000000024
 40
0.500000000000003
 40
0.500000000000003
 40
0.6250000000000036
 40
0.6250000000000036
 40
0.7500000000000041
 40
0.7500000000000041
 40
1.0
 40
1.0
 40
1.0
 40
1.0
 10
152.5066897341558
 20
136.7053144897443
 30
0.0
 10
152.5066897341558
 20
136.6508399691921
 30
0.0
 10
152.4717790427636
 20
136.5944589098397
 30
0.0
 10
152.3697697414306
 20
136.5103820689862
 30
0.0
 10
152.3281333867525
 20
136.4830483649953
 30
0.0
 10
152.2297275912638
 20
136.4300944493963
 30
0.0
 10
152.1721843795595
 20
136.4042070956791
 30
0.0
 10
152.0448862059865
 20
136.3564295508458
 30
0.0
 10
151.975298901229
 20
136.3344816326679
 30
0.0
 10
151.8238646560741
 20
136.2950490677553
 30
0.0
 10
151.7411807529801
 20
136.2774928185294
 30
0.0
 10
151.4850692909421
 20
136.2350540531089
 30
0.0
 10
151.2971542870541
 20
136.2192913033718
 30
0.0
 10
151.1066897341558
 20
136.2192913033718
 30
0.0
  0
LINE
  5
164
330
1F
100
AcDbEntity
  8
0
  6
HIDDEN
 62
     7
370
     0
100
AcDbLine
 10
152.5066897342
 20
136.7053144897
 30
0.0
 11
152.5066897342
 21
137.4178008673
 31
0.0
  0
SPLINE
  5
165
330
1F
100
AcDbEntity
  8
0
  6
HIDDEN
 62
     7
370
     0
100
AcDbSpline
210
0.0
220
0.0
230
1.0
 70
     8
 71
     3
 72
    18
 73
    14
 74
     0
 42
0.00000001
 43
0.00000001
 40
0.0
 40
0.0
 40
0.0
 40
0.0
 40
0.2499999999999989
 40
0.2499999999999989
 40
0.3749999999999983
 40
0.3749999999999983
 40
0.4999999999999978
 40
0.4999999999999978
 40
0.6249999999999972
 40
0.6249999999999972
 40
0.7499999999999967
 40
0.7499999999999967
 40
1.0
 40
1.0
 40
1.0
 40
1.0
 10
152.5066897341558
 20
136.7053144897443
 30
0.0
 10
152.5066897341558
 20
136.6508399691921
 30
0.0
 10
152.4717790427636
 20
136.5944589098397
 30
0.0
 10
152.3697697414306
 20
136.5103820689862
 30
0.0
 10
152.3281333867525
 20
136.4830483649953
 30
0.0
 10
152.2297275912637
 20
136.4300944493963
 30
0.0
 10
152.1721843795594
 20
136.4042070956791
 30
0.0
 10
152.0448862059865
 20
136.3564295508458
 30
0.0
 10
151.975298901229
 20
136.3344816326679
 30
0.0
 10
151.8238646560741
 20
136.2950490677552
 30
0.0
 10
151.7411807529801
 20
136.2774928185294
 30
0.0
 10
151.4850692909421
 20
136.2350540531089
 30
0.0
 10
151.2971542870541
 20
136.2192913033719
 30
0.0
 10
151.1066897341558
 20
136.2192913033719
 30
0.0
  0
LINE
  5
166
330
1F
100
AcDbEntity
  8
0
  6
HIDDEN
 62
     7
370
     0
100
AcDbLine
 10
151.1066897342
 20
136.2192913034
 30
0.0
 11
147.5566897342
 21
136.2192913034
 31
0.0
  0
LINE
  5
167
330
1F
100
AcDbEntity
  8
0
  6
HIDDEN
 62
     7
370
     0
100
AcDbLine
 10
147.5566897342
 20
104.5936154618
 30
0.0
 11
155.1066897342
 21
104.5936154618
 31
0.0
  0
SPLINE
  5
168
330
1F
100
AcDbEntity
  8
0
  6
HIDDEN
 62
     7
370
     0
100
AcDbSpline
210
0.0
220
0.0
230
1.0
 70
     8
 71
     3
 72
    16
 73
    12
 74
     0
 42
0.00000001
 43
0.00000001
 40
0.0
 40
0.0
 40
0.0
 40
0.0
 40
0.1249999999999998
 40
0.1249999999999998
 40
0.2499999999999997
 40
0.2499999999999997
 40
0.4999999999999998
 40
0.4999999999999998
 40
0.7499999999999999
 40
0.7499999999999999
 40
1.0
 40
1.0
 40
1.0
 40
1.0
 10
155.1066897341559
 20
104.5936154617656
 30
0.0
 10
155.201750323919
 20
104.5936154617656
 30
0.0
 10
155.2950247468499
 20
104.5898447902097
 30
0.0
 10
155.4781849401189
 20
104.575248281243
 30
0.0
 10
155.5690193332506
 20
104.5642216666844
 30
0.0
 10
155.8257578224424
 20
104.5222408727812
 30
0.0
 10
155.9808340106078
 20
104.4816625910062
 30
0.0
 10
156.2346699216663
 20
104.3875893383558
 30
0.0
 10
156.335622936978
 20
104.3334340981999
 30
0.0
 10
156.4709713918514
 20
104.2234560665969
 30
0.0
 10
156.5066897341558
 20
104.1669510799828
 30
0.0
 10
156.5066897341558
 20
104.1132050811823
 30
0.0
  0
LINE
  5
169
330
1F
100
AcDbEntity
  8
0
  6
HIDDEN
 62
     7
370
     0
100
AcDbLine
 10
156.5066897342
 20
104.1132050812
 30
0.0
 11
156.5066897342
 21
103.4178008673
 31
0.0
  0
SPLINE
  5
16A
330
1F
100
AcDbEntity
  8
0
  6
HIDDEN
 62
     7
370
     0
100
AcDbSpline
210
0.0
220
0.0
230
1.0
 70
     8
 71
     3
 72
    16
 73
    12
 74
     0
 42
0.00000001
 43
0.00000001
 40
0.0
 40
0.0
 40
0.0
 40
0.0
 40
0.1249999999999998
 40
0.1249999999999998
 40
0.2499999999999997
 40
0.2499999999999997
 40
0.4999999999999998
 40
0.4999999999999998
 40
0.7499999999999999
 40
0.7499999999999999
 40
1.0
 40
1.0
 40
1.0
 40
1.0
 10
155.1066897341559
 20
104.5936154617656
 30
0.0
 10
155.201750323919
 20
104.5936154617656
 30
0.0
 10
155.2950247468499
 20
104.5898447902097
 30
0.0
 10
155.4781849401189
 20
104.575248281243
 30
0.0
 10
155.5690193332506
 20
104.5642216666844
 30
0.0
 10
155.8257578224424
 20
104.5222408727812
 30
0.0
 10
155.9808340106078
 20
104.4816625910062
 30
0.0
 10
156.2346699216663
 20
104.3875893383558
 30
0.0
 10
156.335622936978
 20
104.3334340981999
 30
0.0
 10
156.4709713918514
 20
104.2234560665969
 30
0.0
 10
156.5066897341558
 20
104.1669510799828
 30
0.0
 10
156.5066897341558
 20
104.1132050811823
 30
0.0
  0
LINE
  5
16B
330
1F
100
AcDbEntity
  8
0
  6
HIDDEN
 62
     7
370
     0
100
AcDbLine
 10
147.5566897342
 20
104.5936154618
 30
0.0
 11
147.5566897342
 21
136.2192913034
 31
0.0
  0
SPLINE
  5
16C
330
1F
100
AcDbEntity
  8
0
  6
HIDDEN
 62
     7
370
     0
100
AcDbSpline
210
0.0
220
0.0
230
1.0
 70
     8
 71
     3
 72
    28
 73
    24
 74
     0
 42
0.00000001
 43
0.00000001
 40
0.0
 40
0.0
 40
0.0
 40
0.0
 40
0.0156250000000006
 40
0.0156250000000006
 40
0.0312500000000012
 40
0.0312500000000012
 40
0.0625000000000015
 40
0.0625000000000015
 40
0.1250000000000016
 40
0.1250000000000016
 40
0.2500000000000014
 40
0.2500000000000014
 40
0.3750000000000012
 40
0.3750000000000012
 40
0.500000000000001
 40
0.500000000000001
 40
0.6250000000000008
 40
0.6250000000000008
 40
0.7500000000000004
 40
0.7500000000000004
 40
0.8750000000000002
 40
0.8750000000000002
 40
1.0
 40
1.0
 40
1.0
 40
1.0
 10
220.5052885724659
 20
95.88225412983614
 30
0.0
 10
220.490187042483
 20
95.9377441819872
 30
0.0
 10
220.4726288357857
 20
95.99432319855006
 30
0.0
 10
220.4396866212007
 20
96.09683332802061
 30
0.0
 10
220.4241746187737
 20
96.1431444094705
 30
0.0
 10
220.3795546997444
 20
96.2748893669584
 30
0.0
 10
220.3520576856109
 20
96.35386627517283
 30
0.0
 10
220.2745533185511
 20
96.57748183301847
 30
0.0
 10
220.2284433791078
 20
96.71139162532843
 30
0.0
 10
220.0986395812147
 20
97.10325669604107
 30
0.0
 10
220.0241260558511
 20
97.34844728681952
 30
0.0
 10
219.8960453618282
 20
97.84010034735718
 30
0.0
 10
219.8426721913062
 20
98.08552274137158
 30
0.0
 10
219.7629156783993
 20
98.58738904723259
 30
0.0
 10
219.7365777527567
 20
98.84377202000636
 30
0.0
 10
219.722211551265
 20
99.37263699152464
 30
0.0
 10
219.7346852705473
 20
99.64647837431306
 30
0.0
 10
219.8099236783985
 20
100.1998747455994
 30
0.0
 10
219.8731512089122
 20
100.4779757713361
 30
0.0
 10
220.0405533367356
 20
101.0117074145838
 30
0.0
 10
220.1449714453319
 20
101.2666197417389
 30
0.0
 10
220.3497359231473
 20
101.7247051763595
 30
0.0
 10
220.4512664771039
 20
101.9283476348619
 30
0.0
 10
220.5052885724659
 20
102.0959595404932
 30
0.0
  0
SPLINE
  5
16D
330
1F
100
AcDbEntity
  8
0
  6
HIDDEN
 62
     7
370
     0
100
AcDbSpline
210
0.0
220
0.0
230
1.0
 70
     8
 71
     3
 72
    12
 73
     8
 74
     0
 42
0.00000001
 43
0.00000001
 40
0.0
 40
0.0
 40
0.0
 40
0.0
 40
0.25
 40
0.25
 40
0.5
 40
0.5
 40
1.0
 40
1.0
 40
1.0
 40
1.0
 10
221.7868761950843
 20
104.1460203823688
 30
0.0
 10
221.6540153120632
 20
104.0487612237039
 30
0.0
 10
221.5260686366082
 20
103.9295310398983
 30
0.0
 10
221.2832645552708
 20
103.6541310180557
 30
0.0
 10
221.1684255485142
 20
103.4981062941171
 30
0.0
 10
220.8451516588247
 20
102.9801602882898
 30
0.0
 10
220.6577721041033
 20
102.5690632796918
 30
0.0
 10
220.5052885724659
 20
102.0959595404932
 30
0.0
  0
SPLINE
  5
16E
330
1F
100
AcDbEntity
  8
0
  6
HIDDEN
 62
     7
370
     0
100
AcDbSpline
210
0.0
220
0.0
230
1.0
 70
     8
 71
     3
 72
    12
 73
     8
 74
     0
 42
0.00000001
 43
0.00000001
 40
0.0
 40
0.0
 40
0.0
 40
0.0
 40
0.2499999999999999
 40
0.2499999999999999
 40
0.4999999999999998
 40
0.4999999999999998
 40
1.0
 40
1.0
 40
1.0
 40
1.0
 10
220.5746389265869
 20
120.4178008673402
 30
0.0
 10
220.5746389265869
 20
119.0605958017164
 30
0.0
 10
220.6022121801857
 20
117.7014187854664
 30
0.0
 10
220.7111312675127
 20
114.9792191105694
 30
0.0
 10
220.7925654550895
 20
113.6155332027998
 30
0.0
 10
221.1084531676526
 20
109.5407232385872
 30
0.0
 10
221.4144977613043
 20
106.8384236959021
 30
0.0
 10
221.7868761950843
 20
104.1460203823687
 30
0.0
  0
LINE
  5
16F
330
1F
100
AcDbEntity
  8
0
  6
HIDDEN
 62
     7
370
     0
100
AcDbLine
 10
220.5746389266
 20
147.1586397549
 30
0.0
 11
220.5746389266
 21
120.4178008673
 31
0.0
  0
SPLINE
  5
170
330
1F
100
AcDbEntity
  8
0
  6
HIDDEN
 62
     7
370
     0
100
AcDbSpline
210
0.0
220
0.0
230
1.0
 70
     8
 71
     3
 72
     8
 73
     4
 74
     0
 42
0.00000001
 43
0.00000001
 40
0.0
 40
0.0
 40
0.0
 40
0.0
 40
1.0
 40
1.0
 40
1.0
 40
1.0
 10
220.5746389265869
 20
147.1586397549218
 30
0.0
 10
220.5572555009362
 20
147.2689089224835
 30
0.0
 10
220.5573430297678
 20
147.3551648629691
 30
0.0
 10
220.5746389265869
 20
147.4177684925
 30
0.0
  0
LINE
  5
171
330
1F
100
AcDbEntity
  8
0
  6
HIDDEN
 62
     7
370
     0
100
AcDbLine
 10
147.5566897342
 20
102.4278008673
 30
0.0
 11
147.5566897342
 21
99.5480653344
 31
0.0
  0
LINE
  5
172
330
1F
100
AcDbEntity
  8
0
  6
HIDDEN
 62
     7
370
     0
100
AcDbLine
 10
156.5066897342
 20
102.4278008673
 30
0.0
 11
156.5066897342
 21
98.4434851592
 31
0.0
  0
LINE
  5
173
330
1F
100
AcDbEntity
  8
0
  6
HIDDEN
 62
     7
370
     0
100
AcDbLine
 10
152.5066897342
 20
138.4078008673
 30
0.0
 11
152.5066897342
 21
142.2619085397
 31
0.0
  0
LINE
  5
174
330
1F
100
AcDbEntity
  8
0
  6
HIDDEN
 62
     7
370
     0
100
AcDbLine
 10
147.5566897342
 20
138.4078008673
 30
0.0
 11
147.5566897342
 21
141.2877386327
 31
0.0
  0
LINE
  5
175
330
1F
100
AcDbEntity
  8
0
  6
HIDDEN
 62
     7
370
     0
100
AcDbLine
 10
146.4066897342
 20
138.4078008673
 30
0.0
 11
146.4066897342
 21
140.393861372
 31
0.0
  0
LINE
  5
176
330
1F
100
AcDbEntity
  8
0
  6
HIDDEN
 62
     7
370
     0
100
AcDbLine
 10
146.4066897342
 20
102.4278008673
 30
0.0
 11
146.4066897342
 21
100.4289784285
 31
0.0
  0
LINE
  5
177
330
1F
100
AcDbEntity
  8
0
  6
HIDDEN
 62
     7
370
     0
100
AcDbLine
 10
197.6066897342
 20
129.9178008673
 30
0.0
 11
197.6066897342
 21
110.9178008673
 31
0.0
  0
LINE
  5
178
330
1F
100
AcDbEntity
  8
0
  6
HIDDEN
 62
     7
370
     0
100
AcDbLine
 10
200.1066897342
 20
129.9178008673
 30
0.0
 11
200.1066897342
 21
110.9178008673
 31
0.0
  0
LINE
  5
179
330
1F
100
AcDbEntity
  8
0
  6
HIDDEN
 62
     7
370
     0
100
AcDbLine
 10
234.0591433851
 20
127.1687761647
 30
0.0
 11
240.3761332568
 21
120.9477555633
 31
0.0
  0
LWPOLYLINE
  5
17A
330
1F
100
AcDbEntity
  8
0
  6
HIDDEN
 62
     7
370
     0
100
AcDbPolyline
 90
        2
 70
   128
 43
0.0
 10
204.2566897342
 20
94.0178008673
 10
204.2566897342
 20
94.0178008673
  0
LINE
  5
17B
330
1F
100
AcDbEntity
  8
0
  6
HIDDEN
 62
     7
370
     0
100
AcDbLine
 10
204.2566897342
 20
94.0178008673
 30
0.0
 11
198.1190149318
 21
94.0178008673
 31
0.0
  0
LINE
  5
17C
330
1F
100
AcDbEntity
  8
0
  6
HIDDEN
 62
     7
370
     0
100
AcDbLine
 10
198.2166897342
 20
92.9199637083
 30
0.0
 11
198.2166897342
 21
93.613405239
 31
0.0
  0
LINE
  5
17D
330
1F
100
AcDbEntity
  8
0
  6
HIDDEN
 62
     7
370
     0
100
AcDbLine
 10
204.2566897342
 20
94.0178008673
 30
0.0
 11
204.2566897342
 21
90.8575234667
 31
0.0
  0
LINE
  5
17E
330
1F
100
AcDbEntity
  8
0
  6
HIDDEN
 62
     7
370
     0
100
AcDbLine
 10
194.4943645365
 20
94.0178008673
 30
0.0
 11
191.2566897342
 21
94.0178008673
 31
0.0
  0
LINE
  5
17F
330
1F
100
AcDbEntity
  8
0
  6
HIDDEN
 62
     7
370
     0
100
AcDbLine
 10
194.3966897342
 20
93.613405239
 30
0.0
 11
194.3966897342
 21
92.9199637083
 31
0.0
  0
LINE
  5
180
330
1F
100
AcDbEntity
  8
0
  6
HIDDEN
 62
     7
370
     0
100
AcDbLine
 10
183.2566897342
 20
88.9336778845
 30
0.0
 11
183.2566897342
 21
94.0178008673
 31
0.0
  0
LINE
  5
181
330
1F
100
AcDbEntity
  8
0
  6
HIDDEN
 62
     7
370
     0
100
AcDbLine
 10
191.2566897342
 20
94.0178008673
 30
0.0
 11
183.2566897342
 21
94.0178008673
 31
0.0
  0
LINE
  5
182
330
1F
100
AcDbEntity
  8
0
  6
HIDDEN
 62
     7
370
     0
100
AcDbLine
 10
188.7566897342
 20
128.9178008673
 30
0.0
 11
188.7566897342
 21
111.9178008673
 31
0.0
  0
LINE
  5
183
330
1F
100
AcDbEntity
  8
0
  6
HIDDEN
 62
     7
370
     0
100
AcDbLine
 10
188.2566897342
 20
111.4178008673
 30
0.0
 11
188.2566897342
 21
129.3993094021
 31
0.0
  0
LINE
  5
184
330
1F
100
AcDbEntity
  8
0
  6
HIDDEN
 62
     7
370
     0
100
AcDbLine
 10
197.6066897342
 20
111.9178008673
 30
0.0
 11
197.6066897342
 21
128.8988193356
 31
0.0
  0
SPLINE
  5
185
330
1F
100
AcDbEntity
  8
0
  6
HIDDEN
 62
     7
370
     0
100
AcDbSpline
210
0.0
220
0.0
230
1.0
 70
     8
 71
     3
 72
    28
 73
    24
 74
     0
 42
0.00000001
 43
0.00000001
 40
0.0
 40
0.0
 40
0.0
 40
0.0
 40
0.0156250000000001
 40
0.0156250000000001
 40
0.0312500000000001
 40
0.0312500000000001
 40
0.0625000000000004
 40
0.0625000000000004
 40
0.1250000000000006
 40
0.1250000000000006
 40
0.1875000000000008
 40
0.1875000000000008
 40
0.250000000000001
 40
0.250000000000001
 40
0.3750000000000009
 40
0.3750000000000009
 40
0.500000000000001
 40
0.500000000000001
 40
0.7500000000000008
 40
0.7500000000000008
 40
0.8750000000000004
 40
0.8750000000000004
 40
1.0
 40
1.0
 40
1.0
 40
1.0
 10
220.5052885724659
 20
95.88225412983611
 30
0.0
 10
220.5288729219175
 20
95.79559424951344
 30
0.0
 10
220.5524017817538
 20
95.71451787785885
 30
0.0
 10
220.5993609382337
 20
95.5619038028232
 30
0.0
 10
220.6226483605254
 20
95.49093839406672
 30
0.0
 10
220.6892581783503
 20
95.29875983961901
 30
0.0
 10
220.730987635789
 20
95.19299865475715
 30
0.0
 10
220.8465345522575
 20
94.92592247185492
 30
0.0
 10
220.9141307682083
 20
94.80497156012798
 30
0.0
 10
221.0394865395228
 20
94.6136047894683
 30
0.0
 10
221.0975207336008
 20
94.54404350101673
 30
0.0
 10
221.2098076082362
 20
94.43346064366709
 30
0.0
 10
221.2639244702426
 20
94.39303228938836
 30
0.0
 10
221.4234970299585
 20
94.30224187077962
 30
0.0
 10
221.5253048277956
 20
94.28238051866096
 30
0.0
 10
221.7260252488327
 20
94.29191902875955
 30
0.0
 10
221.8250072969564
 20
94.32206196988201
 30
0.0
 10
222.121840746678
 20
94.47138023992001
 30
0.0
 10
222.3197635785064
 20
94.64842736851078
 30
0.0
 10
222.6198890283002
 20
95.0153739362222
 30
0.0
 10
222.7203744632263
 20
95.15502214275587
 30
0.0
 10
222.9219390371202
 20
95.47085721619933
 30
0.0
 10
223.0228412058661
 20
95.64682324472315
 30
0.0
 10
223.1228731619843
 20
95.84158683330432
 30
0.0
  0
SPLINE
  5
186
330
1F
100
AcDbEntity
  8
0
  6
HIDDEN
 62
     7
370
     0
100
AcDbSpline
210
0.0
220
0.0
230
1.0
 70
     8
 71
     3
 72
     9
 73
     5
 74
     0
 42
0.00000001
 43
0.00000001
 40
0.0
 40
0.0
 40
0.0
 40
0.0
 40
0.0557152115443132
 40
1.0
 40
1.0
 40
1.0
 40
1.0
 10
221.571966028793
 20
89.70038982453528
 30
0.0
 10
221.5695049122826
 20
89.70802546021146
 30
0.0
 10
221.5253317602451
 20
89.8450730539393
 30
0.0
 10
221.5056315491265
 20
89.98105032821697
 30
0.0
 10
221.4870289394378
 20
90.109451599893
 30
0.0
  0
LINE
  5
187
330
1F
100
AcDbEntity
  8
0
  6
HIDDEN
 62
     7
370
     0
100
AcDbLine
 10
221.713869352
 20
89.2762171023
 30
0.0
 11
221.4870289394
 21
90.1094515999
 31
0.0
  0
LINE
  5
188
330
1F
100
AcDbEntity
  8
0
  6
HIDDEN
 62
     7
370
     0
100
AcDbLine
 10
224.745321975
 20
87.5119299705
 30
0.0
 11
224.745321975
 21
77.8525998285
 31
0.0
  0
SPLINE
  5
189
330
1F
100
AcDbEntity
  8
0
  6
HIDDEN
 62
     7
370
     0
100
AcDbSpline
210
0.0
220
0.0
230
1.0
 70
     8
 71
     3
 72
     8
 73
     4
 74
     0
 42
0.00000001
 43
0.00000001
 40
0.0
 40
0.0
 40
0.0
 40
0.0
 40
1.0
 40
1.0
 40
1.0
 40
1.0
 10
223.1228731619842
 20
95.8415868333043
 30
0.0
 10
223.6247166416123
 20
93.05922026337993
 30
0.0
 10
224.1712064821421
 20
90.28351440565645
 30
0.0
 10
224.7453219749804
 20
87.51192997050072
 30
0.0
  0
LWPOLYLINE
  5
18A
330
1F
100
AcDbEntity
  8
0
  6
HIDDEN
 62
     7
370
     0
100
AcDbPolyline
 90
        2
 70
   128
 43
0.0
 10
204.2566897342
 20
146.8178008673
 10
204.2566897342
 20
146.8178008673
  0
LINE
  5
18B
330
1F
100
AcDbEntity
  8
0
  6
HIDDEN
 62
     7
370
     0
100
AcDbLine
 10
204.2566897342
 20
146.8178008673
 30
0.0
 11
197.8223922025
 21
146.8178008673
 31
0.0
  0
LINE
  5
18C
330
1F
100
AcDbEntity
  8
0
  6
HIDDEN
 62
     7
370
     0
100
AcDbLine
 10
198.2166897342
 20
148.2230350585
 30
0.0
 11
198.2166897342
 21
147.5374547184
 31
0.0
  0
LINE
  5
18D
330
1F
100
AcDbEntity
  8
0
  6
HIDDEN
 62
     7
370
     0
100
AcDbLine
 10
204.2566897342
 20
146.8178008673
 30
0.0
 11
204.2566897342
 21
150.2642411911
 31
0.0
  0
LINE
  5
18E
330
1F
100
AcDbEntity
  8
0
  6
HIDDEN
 62
     7
370
     0
100
AcDbLine
 10
194.7909872658
 20
146.8178008673
 30
0.0
 11
191.2566897342
 21
146.8178008673
 31
0.0
  0
LINE
  5
18F
330
1F
100
AcDbEntity
  8
0
  6
HIDDEN
 62
     7
370
     0
100
AcDbLine
 10
194.3966897342
 20
147.5374547184
 30
0.0
 11
194.3966897342
 21
148.2230350585
 31
0.0
  0
LINE
  5
190
330
1F
100
AcDbEntity
  8
0
  6
HIDDEN
 62
     7
370
     0
100
AcDbLine
 10
191.2566897342
 20
146.8178008673
 30
0.0
 11
183.2566897342
 21
146.8178008673
 31
0.0
  0
LWPOLYLINE
  5
191
330
1F
100
AcDbEntity
  8
0
  6
HIDDEN
 62
     7
370
     0
100
AcDbPolyline
 90
       31
 70
   128
 43
0.0
 10
231.0392715372
 20
94.0409522833
 10
230.9859176646
 20
94.7579237905
 10
230.7843232921
 20
95.4435602024
 10
230.4432990611
 20
96.0678959178
 10
229.9777493669
 20
96.60364447
 10
229.4080209651
 20
97.0273910765
 10
228.7590137206
 20
97.3206159771
 10
228.0590923645
 20
97.4705038369
 10
227.3388468185
 20
97.4705038369
 10
226.6297552691
 20
97.3206159771
 10
225.9628084196
 20
97.0273910765
 10
225.3671550477
 20
96.60364447
 10
224.868828064
 20
96.0678959178
 10
224.489606749
 20
95.4435602024
 10
224.2460648938
 20
94.7579237905
 10
224.1488464462
 20
94.0409522833
 10
224.2022003187
 20
93.3239807761
 10
224.4037946912
 20
92.6383443642
 10
224.7448189222
 20
92.0140086489
 10
225.2103686165
 20
91.4782600967
 10
225.7800970183
 20
91.0545134902
 10
226.4291042627
 20
90.7612885895
 10
227.1290256189
 20
90.6114007298
 10
227.8492711649
 20
90.6114007298
 10
228.5583627143
 20
90.7612885895
 10
229.2253095638
 20
91.0545134902
 10
229.8209629356
 20
91.4782600967
 10
230.3192899193
 20
92.0140086489
 10
230.6985112343
 20
92.6383443642
 10
230.9420530895
 20
93.3239807761
 10
231.0392715372
 20
94.0409522833
  0
LWPOLYLINE
  5
192
330
1F
100
AcDbEntity
  8
0
  6
HIDDEN
 62
     7
370
     0
100
AcDbPolyline
 90
       31
 70
   128
 43
0.0
 10
223.4404664927
 20
94.7385703535
 10
223.4938203653
 20
94.0215988464
 10
223.6954147378
 20
93.3359624345
 10
224.0364389688
 20
92.7116267191
 10
224.501988663
 20
92.1758781669
 10
225.0717170648
 20
91.7521315604
 10
225.7207243093
 20
91.4589066597
 10
226.4206456654
 20
91.3090188
 10
227.1408912114
 20
91.3090188
 10
227.8499827609
 20
91.4589066597
 10
228.5169296103
 20
91.7521315604
 10
229.1125829822
 20
92.1758781669
 10
229.6109099659
 20
92.7116267191
 10
229.9901312809
 20
93.3359624345
 10
230.2336731361
 20
94.0215988464
 10
230.3308915837
 20
94.7385703535
 10
230.2775377112
 20
95.4555418607
 10
230.0759433387
 20
96.1411782726
 10
229.7349191077
 20
96.765513988
 10
229.2693694135
 20
97.3012625402
 10
228.6996410116
 20
97.7250091467
 10
228.0506337672
 20
98.0182340474
 10
227.3507124111
 20
98.1681219071
 10
226.630466865
 20
98.1681219071
 10
225.9213753156
 20
98.0182340474
 10
225.2544284661
 20
97.7250091467
 10
224.6587750943
 20
97.3012625402
 10
224.1604481106
 20
96.765513988
 10
223.7812267956
 20
96.1411782726
 10
223.5376849404
 20
95.4555418607
 10
223.4404664927
 20
94.7385703535
  0
SPLINE
  5
193
330
1F
100
AcDbEntity
  8
0
  6
HIDDEN
 62
     7
370
     0
100
AcDbSpline
210
0.0
220
0.0
230
1.0
 70
     8
 71
     3
 72
     8
 73
     4
 74
     0
 42
0.00000001
 43
0.00000001
 40
0.0000002438860713
 40
0.0000002438860713
 40
0.0000002438860713
 40
0.0000002438860713
 40
0.0014006025853533
 40
0.0014006025853533
 40
0.0014006025853533
 40
0.0014006025853533
 10
147.5566897341558
 20
136.2192913033719
 30
0.0
 10
147.1739026615909
 20
136.3693628313476
 30
0.0
 10
146.7905492616348
 20
136.5175200332651
 30
0.0
 10
146.4066897341558
 20
136.6638935450683
 30
0.0
  0
LINE
  5
194
330
1F
100
AcDbEntity
  8
0
  6
HIDDEN
 62
     7
370
     0
100
AcDbLine
 10
146.4066897342
 20
138.4078008673
 30
0.0
 11
146.4066897342
 21
136.6638935451
 31
0.0
  0
SPLINE
  5
195
330
1F
100
AcDbEntity
  8
0
  6
HIDDEN
 62
     7
370
     0
100
AcDbSpline
210
0.0
220
0.0
230
1.0
 70
     8
 71
     3
 72
     8
 73
     4
 74
     0
 42
0.00000001
 43
0.00000001
 40
0.0000002432968744
 40
0.0000002432968744
 40
0.0000002432968744
 40
0.0000002432968744
 40
0.0014011510532366
 40
0.0014011510532366
 40
0.0014011510532366
 40
0.0014011510532366
 10
146.4066897341558
 20
104.147286873725
 30
0.0
 10
146.7905542008924
 20
104.2942257861872
 30
0.0
 10
147.173907822716
 20
104.4429581460051
 30
0.0
 10
147.5566897341558
 20
104.5936154617656
 30
0.0
  0
LINE
  5
196
330
1F
100
AcDbEntity
  8
0
  6
HIDDEN
 62
     7
370
     0
100
AcDbLine
 10
146.4066897342
 20
102.4278008673
 30
0.0
 11
146.4066897342
 21
104.1472868737
 31
0.0
  0
LINE
  5
197
330
1F
100
AcDbEntity
  8
0
  6
HIDDEN
 62
     7
370
     0
100
AcDbLine
 10
147.5566897342
 20
138.4078008673
 30
0.0
 11
147.5566897342
 21
136.2192913034
 31
0.0
  0
LINE
  5
198
330
1F
100
AcDbEntity
  8
0
  6
HIDDEN
 62
     7
370
     0
100
AcDbLine
 10
152.5066897342
 20
138.4078008673
 30
0.0
 11
152.5066897342
 21
136.7053144897
 31
0.0
  0
LINE
  5
199
330
1F
100
AcDbEntity
  8
0
  6
HIDDEN
 62
     7
370
     0
100
AcDbLine
 10
156.5066897342
 20
102.4278008673
 30
0.0
 11
156.5066897342
 21
104.1132050812
 31
0.0
  0
LINE
  5
19A
330
1F
100
AcDbEntity
  8
0
  6
HIDDEN
 62
     7
370
     0
100
AcDbLine
 10
147.5566897342
 20
102.4278008673
 30
0.0
 11
147.5566897342
 21
104.5936154618
 31
0.0
  0
SPLINE
  5
19B
330
1F
100
AcDbEntity
  8
0
  6
HIDDEN
 62
     7
370
     0
100
AcDbSpline
210
0.0
220
0.0
230
1.0
 70
     8
 71
     3
 72
    36
 73
    32
 74
     0
 42
0.00000001
 43
0.00000001
 40
0.0
 40
0.0
 40
0.0
 40
0.0
 40
0.0624999999999989
 40
0.0624999999999989
 40
0.1249999999999978
 40
0.1249999999999978
 40
0.2499999999999959
 40
0.2499999999999959
 40
0.3124999999999952
 40
0.3124999999999952
 40
0.3749999999999944
 40
0.3749999999999944
 40
0.4374999999999937
 40
0.4374999999999937
 40
0.4687499999999937
 40
0.4687499999999937
 40
0.4999999999999937
 40
0.4999999999999937
 40
0.5312499999999936
 40
0.5312499999999936
 40
0.5624999999999934
 40
0.5624999999999934
 40
0.6249999999999943
 40
0.6249999999999943
 40
0.6874999999999952
 40
0.6874999999999952
 40
0.749999999999996
 40
0.749999999999996
 40
0.8749999999999979
 40
0.8749999999999979
 40
1.0
 40
1.0
 40
1.0
 40
1.0
 10
229.6700911456311
 20
94.85142581129665
 30
0.0
 10
229.718386905781
 20
94.80386377226344
 30
0.0
 10
229.761998894503
 20
94.73900221902257
 30
0.0
 10
229.8404648444862
 20
94.58461504006644
 30
0.0
 10
229.8749947899653
 20
94.49575766286434
 30
0.0
 10
229.9641374509991
 20
94.20208257391316
 30
0.0
 10
230.0053739239293
 20
93.97125392299625
 30
0.0
 10
230.0207839500895
 20
93.57730226640267
 30
0.0
 10
230.0180252357869
 20
93.4376717616948
 30
0.0
 10
229.9874619119557
 20
93.13831440657003
 30
0.0
 10
229.9602583676478
 20
92.9811153963458
 30
0.0
 10
229.863359415436
 20
92.64486534801111
 30
0.0
 10
229.7941227994369
 20
92.4637189721489
 30
0.0
 10
229.6222516265447
 20
92.17413802387462
 30
0.0
 10
229.5538811221396
 20
92.07578374714356
 30
0.0
 10
229.3854599392957
 20
91.87935053083305
 30
0.0
 10
229.2849971943955
 20
91.78197754378502
 30
0.0
 10
229.060396105122
 20
91.60784592503482
 30
0.0
 10
228.940261900333
 20
91.53410192180891
 30
0.0
 10
228.7046172224061
 20
91.41639069223564
 30
0.0
 10
228.588442058826
 20
91.37151513980191
 30
0.0
 10
228.2569807933859
 20
91.26776199554973
 30
0.0
 10
228.0558570981482
 20
91.23684922946701
 30
0.0
 10
227.6861152549608
 20
91.20788151669234
 30
0.0
 10
227.517568437094
 20
91.21067526163016
 30
0.0
 10
227.2008288990595
 20
91.23430325925493
 30
0.0
 10
227.052939337885
 20
91.25553618539209
 30
0.0
 10
226.6350874837867
 20
91.33696513280768
 30
0.0
 10
226.3967207514486
 20
91.41286759940452
 30
0.0
 10
225.9971148849927
 20
91.58032806225955
 30
0.0
 10
225.8346696004058
 20
91.67204063147136
 30
0.0
 10
225.7375789350041
 20
91.76765627150412
 30
0.0
  0
ELLIPSE
  5
19C
330
1F
100
AcDbEntity
  8
0
  6
HIDDEN
 62
     7
370
     0
100
AcDbEllipse
 10
231.0496848861
 20
89.2876374989
 30
0.0
 11
3.827220889374388
 21
-0.7636100465516336
 31
0.0
210
0.0
220
0.0
230
1.0
 40
0.157545078
 41
3.377176369228611
 42
6.518769022818391
  0
SPLINE
  5
19D
330
1F
100
AcDbEntity
  8
0
  6
HIDDEN
 62
     7
370
     0
100
AcDbSpline
210
0.0
220
0.0
230
1.0
 70
    11
 71
     3
 72
    34
 73
    30
 74
     0
 42
0.00000001
 43
0.00000001
 40
0.0
 40
0.0
 40
0.0
 40
0.0
 40
0.0127738756313288
 40
0.0481305018861233
 40
0.0807425016923873
 40
0.137589091362679
 40
0.1884518731192144
 40
0.2226712138150558
 40
0.2626938372949059
 40
0.2986558359810449
 40
0.3315197765429403
 40
0.3878459718944415
 40
0.3881769475359427
 40
0.4440926113325732
 40
0.4768435653244543
 40
0.5126448960710513
 40
0.5530084671478225
 40
0.5873855940015957
 40
0.6380121006395837
 40
0.6949796268749189
 40
0.7275539945507916
 40
0.7628079420080927
 40
0.8028703493977617
 40
0.8370831563378052
 40
0.8877749825785499
 40
0.8880430796382993
 40
0.9388397946263274
 40
0.9729712758707625
 40
1.0
 40
1.0
 40
1.0
 40
1.0
 10
166.4667016466445
 20
97.35013901080119
 30
0.0
 10
166.5258952992467
 20
97.35622791459306
 30
0.0
 10
166.7489302097503
 20
97.37917020743335
 30
0.0
 10
167.2722826539541
 20
97.41581495999944
 30
0.0
 10
168.145046125221
 20
97.44349898626058
 30
0.0
 10
169.2598840154505
 20
97.43294341275812
 30
0.0
 10
170.3729494230628
 20
97.31679831194018
 30
0.0
 10
171.2673908922305
 20
97.19520755567453
 30
0.0
 10
171.9512258629177
 20
97.07344887056482
 30
0.0
 10
172.4919762164012
 20
96.95709028799293
 30
0.0
 10
172.9054073817818
 20
96.86360689168635
 30
0.0
 10
173.1335557300574
 20
96.79697322515347
 30
0.0
 10
172.9790101502869
 20
96.83823876198583
 30
0.0
 10
172.9521340400242
 20
96.85070876656025
 30
0.0
 10
172.4963523436737
 20
96.9562578774372
 30
0.0
 10
171.9724300284297
 20
97.06900369668122
 30
0.0
 10
171.2862199059247
 20
97.19210258489511
 30
0.0
 10
170.3931071760471
 20
97.31409376350773
 30
0.0
 10
169.2796706298814
 20
97.43184639269093
 30
0.0
 10
168.168920000988
 20
97.44381691652532
 30
0.0
 10
167.2841679436173
 20
97.41675946650332
 30
0.0
 10
166.6169722505086
 20
97.36882704433374
 30
0.0
 10
166.0756994736777
 20
97.31253427454399
 30
0.0
 10
165.6881196050231
 20
97.26744874302968
 30
0.0
 10
165.4941051881831
 20
97.22856878163543
 30
0.0
 10
165.6204326908103
 20
97.24999284281903
 30
0.0
 10
165.6495886844815
 20
97.25990941477319
 30
0.0
 10
166.0210846026218
 20
97.30752887699425
 30
0.0
 10
166.3301259991333
 20
97.33707957626366
 30
0.0
 10
166.4667016466445
 20
97.35013901080119
 30
0.0
  0
SPLINE
  5
19E
330
1F
100
AcDbEntity
  8
0
  6
HIDDEN
 62
     7
370
     0
100
AcDbSpline
210
0.0
220
0.0
230
1.0
 70
     8
 71
     3
 72
    38
 73
    34
 74
     0
 42
0.00000001
 43
0.00000001
 40
-0.0939221400677789
 40
-0.065775259775378
 40
-0.0344739496007944
 40
0.0
 40
0.0323124298479836
 40
0.060969598257746
 40
0.0859698687835549
 40
0.107313175594656
 40
0.1250019290169609
 40
0.1562358721977444
 40
0.197850737299077
 40
0.249816879324835
 40
0.278262948030722
 40
0.3049884159832859
 40
0.330004216891384
 40
0.3533239044418167
 40
0.3749644360933807
 40
0.406026783832292
 40
0.4476555976010197
 40
0.4998320869201297
 40
0.5286685248934814
 40
0.5555536435543464
 40
0.5805015705746597
 40
0.6035302879119624
 40
0.62466296934292
 40
0.6685312637103242
 40
0.7183269153555463
 40
0.765237570611313
 40
0.7915712044406462
 40
0.8122937035710439
 40
0.8615656629637486
 40
0.906077859932221
 40
0.9342247402246219
 40
0.9655260503992055
 40
0.9999999999999999
 40
1.032312429847984
 40
1.060969598257746
 40
1.085969868783555
 10
167.2469548983372
 20
143.4208048933677
 30
0.0
 10
166.6428866798279
 20
143.4653383985836
 30
0.0
 10
166.1675716169816
 20
143.5134137848165
 30
0.0
 10
165.8479727909818
 20
143.5495765240824
 30
0.0
 10
165.6609783852678
 20
143.5759666582708
 30
0.0
 10
165.5726727257154
 20
143.5920362680681
 30
0.0
 10
165.5432592298461
 20
143.599859953318
 30
0.0
 10
165.615391299915
 20
143.5816924547343
 30
0.0
 10
165.9365033021095
 20
143.5370858747716
 30
0.0
 10
166.5085307923241
 20
143.4763473461009
 30
0.0
 10
167.1590631400803
 20
143.4270031830809
 30
0.0
 10
167.7089392688218
 20
143.4046407226016
 30
0.0
 10
168.2643771345998
 20
143.3961585126971
 30
0.0
 10
168.8051526822364
 20
143.4026095988457
 30
0.0
 10
169.4030825770357
 20
143.4260879754474
 30
0.0
 10
170.1427484342026
 20
143.4930078462845
 30
0.0
 10
171.0747980674755
 20
143.6091092802197
 30
0.0
 10
171.8641348011491
 20
143.744424164811
 30
0.0
 10
172.4030644889865
 20
143.8595359888782
 30
0.0
 10
172.7171688288824
 20
143.9293100654292
 30
0.0
 10
172.9224491972482
 20
143.9798701509251
 30
0.0
 10
173.0335191833391
 20
144.0105482908319
 30
0.0
 10
173.0797906851431
 20
144.025275308088
 30
0.0
 10
172.9538258167968
 20
143.9874157145007
 30
0.0
 10
172.4835802879238
 20
143.8769299300746
 30
0.0
 10
171.8303823243351
 20
143.7372257116984
 30
0.0
 10
171.2263633688192
 20
143.6340991055531
 30
0.0
 10
170.5520253191808
 20
143.5346630797837
 30
0.0
 10
169.6666758361934
 20
143.4411927455081
 30
0.0
 10
168.6971969455811
 20
143.3941842394354
 30
0.0
 10
167.9088613683141
 20
143.3978684545359
 30
0.0
 10
167.2469548983372
 20
143.4208048933677
 30
0.0
 10
166.6428866798279
 20
143.4653383985836
 30
0.0
 10
166.1675716169816
 20
143.5134137848165
 30
0.0
  0
ELLIPSE
  5
19F
330
1F
100
AcDbEntity
  8
0
  6
HIDDEN
 62
     7
370
     0
100
AcDbEllipse
 10
317.7653840826
 20
122.8662636512
 30
0.0
 11
269.0429488264588
 21
8.470414977041898
 31
0.0
210
0.0
220
0.0
230
1.0
 40
0.1656412093
 41
4.380211496324763
 42
4.434623562515722
  0
SPLINE
  5
1A0
330
1F
100
AcDbEntity
  8
0
  6
HIDDEN
 62
     7
370
     0
100
AcDbSpline
210
0.0
220
0.0
230
1.0
 70
     8
 71
     3
 72
    42
 73
    38
 74
     0
 42
0.00000001
 43
0.00000001
 40
0.0
 40
0.0
 40
0.0
 40
0.0
 40
0.0312360224479771
 40
0.062304556763001
 40
0.0932064321507268
 40
0.1239424944855788
 40
0.1545136065922019
 40
0.1849206485297265
 40
0.2151645178786615
 40
0.245246130030357
 40
0.2751664184788198
 40
0.3049263351147466
 40
0.3345268505216006
 40
0.3639689542735191
 40
0.3932536552348694
 40
0.4223819818612007
 40
0.451354982501374
 40
0.4801737257006038
 40
0.5088393005041332
 40
0.5373528167612475
 40
0.5657154054293267
 40
0.5939282188775776
 40
0.6219924311901223
 40
0.6499092384680345
 40
0.6776798591299739
 40
0.7053055342109399
 40
0.7327875276587574
 40
0.7601271266278138
 40
0.7873256417695339
 40
0.8143844075191311
 40
0.8413047823780593
 40
0.8680881491916226
 40
0.894735915421162
 40
0.9212495134102134
 40
0.9476304006439893
 40
0.9738800600015555
 40
1.0
 40
1.0
 40
1.0
 40
1.0
 10
238.3989417131329
 20
86.59158535258696
 30
0.0
 10
238.4937483969159
 20
86.46126666562382
 30
0.0
 10
238.6828534092813
 20
86.20132806291929
 30
0.0
 10
238.9613305503162
 20
85.81980719287971
 30
0.0
 10
239.2350352618195
 20
85.44580893005211
 30
0.0
 10
239.5036557770026
 20
85.07987190567452
 30
0.0
 10
239.7672749592667
 20
84.72187885350863
 30
0.0
 10
240.0258707811846
 20
84.37188340950458
 30
0.0
 10
240.2794490944865
 20
84.029890396102
 30
0.0
 10
240.5280083405595
 20
83.69591426526954
 30
0.0
 10
240.7715489301785
 20
83.36996360922964
 30
0.0
 10
241.0100707504193
 20
83.05204532257568
 30
0.0
 10
241.2435738272984
 20
82.74216354174627
 30
0.0
 10
241.4720581496375
 20
82.4403199732031
 30
0.0
 10
241.6955237158701
 20
82.1465138530161
 30
0.0
 10
241.9139705215912
 20
81.86074200490533
 30
0.0
 10
242.1273985628572
 20
81.58299887256644
 30
0.0
 10
242.3358078352997
 20
81.31327655925345
 30
0.0
 10
242.539198334351
 20
81.05156486582251
 30
0.0
 10
242.7375700551757
 20
80.79785132954306
 30
0.0
 10
242.9309229926777
 20
80.55212126303708
 30
0.0
 10
243.119257141496
 20
80.31435779346953
 30
0.0
 10
243.3025724959714
 20
80.08454190199005
 30
0.0
 10
243.4808690502401
 20
79.86265246316678
 30
0.0
 10
243.6541467978552
 20
79.6486662853035
 30
0.0
 10
243.8224057331547
 20
79.44255814822517
 30
0.0
 10
243.9856458461671
 20
79.24430085107626
 30
0.0
 10
244.1438671414467
 20
79.05386522357807
 30
0.0
 10
244.2970695682959
 20
78.87122027303745
 30
0.0
 10
244.4452532791438
 20
78.69633282897823
 30
0.0
 10
244.5884176726487
 20
78.5291690484933
 30
0.0
 10
244.7265649375558
 20
78.36968903060607
 30
0.0
 10
244.8596869274685
 20
78.21786695229761
 30
0.0
 10
244.987813774049
 20
78.07361667818122
 30
0.0
 10
245.1108338257593
 20
77.93706748850192
 30
0.0
 10
245.2291606171784
 20
77.80754293746062
 30
0.0
 10
245.3040791250633
 20
77.72721267510127
 30
0.0
 10
245.3414455925328
 20
77.6871470328453
 30
0.0
  0
SPLINE
  5
1A1
330
1F
100
AcDbEntity
  8
0
  6
HIDDEN
 62
     7
370
     0
100
AcDbSpline
210
0.0
220
0.0
230
1.0
 70
     8
 71
     3
 72
     8
 73
     4
 74
     0
 42
0.00000001
 43
0.00000001
 40
0.0
 40
0.0
 40
0.0
 40
0.0
 40
1.0
 40
1.0
 40
1.0
 40
1.0
 10
238.3984302640832
 20
86.59145610294668
 30
0.0
 10
233.8472859038043
 20
86.89663596773265
 30
0.0
 10
229.2962460410099
 20
87.20341471350156
 30
0.0
 10
224.7453219749803
 20
87.51192997050069
 30
0.0
  0
ELLIPSE
  5
1A2
330
1F
100
AcDbEntity
  8
0
  6
HIDDEN
 62
     7
370
     0
100
AcDbEllipse
 10
204.8814009732
 20
118.9913340397
 30
0.0
 11
-27.28392697985381
 21
41.50632949203909
 31
0.0
210
0.0
220
0.0
230
1.0
 40
0.0443290021
 41
2.955848480381346
 42
3.109019045901135
  0
LINE
  5
1A3
330
1F
100
AcDbEntity
  8
0
  6
HIDDEN
 62
     7
370
     0
100
AcDbLine
 10
212.4066897342
 20
124.6178008673
 30
0.0
 11
212.4066897342
 21
116.2178008673
 31
0.0
  0
SPLINE
  5
1A4
330
1F
100
AcDbEntity
  8
0
  6
HIDDEN
 62
     7
370
     0
100
AcDbSpline
210
0.0
220
0.0
230
1.0
 70
     8
 71
     3
 72
    64
 73
    60
 74
     0
 42
0.00000001
 43
0.00000001
 40
-0.0312499999999996
 40
-0.0312499999999996
 40
0.0
 40
0.0
 40
0.0312500000000004
 40
0.0312500000000004
 40
0.0625000000000007
 40
0.0625000000000007
 40
0.1250000000000008
 40
0.1250000000000008
 40
0.1562500000000009
 40
0.1562500000000009
 40
0.187500000000001
 40
0.187500000000001
 40
0.2187500000000011
 40
0.2187500000000011
 40
0.2500000000000011
 40
0.2500000000000011
 40
0.2812500000000012
 40
0.2812500000000012
 40
0.3125000000000012
 40
0.3125000000000012
 40
0.3750000000000012
 40
0.3750000000000012
 40
0.4062500000000013
 40
0.4062500000000013
 40
0.4375000000000013
 40
0.4375000000000013
 40
0.4687500000000013
 40
0.4687500000000013
 40
0.5000000000000013
 40
0.5000000000000013
 40
0.5312500000000013
 40
0.5312500000000013
 40
0.5625000000000013
 40
0.5625000000000013
 40
0.5937500000000014
 40
0.5937500000000014
 40
0.6250000000000014
 40
0.6250000000000014
 40
0.6562500000000014
 40
0.6562500000000014
 40
0.6875000000000014
 40
0.6875000000000014
 40
0.7187500000000014
 40
0.7187500000000014
 40
0.7500000000000014
 40
0.7500000000000014
 40
0.7812500000000016
 40
0.7812500000000016
 40
0.8125000000000016
 40
0.8125000000000016
 40
0.8750000000000013
 40
0.8750000000000013
 40
0.906250000000001
 40
0.906250000000001
 40
0.9375000000000008
 40
0.9375000000000008
 40
0.9687500000000004
 40
0.9687500000000004
 40
1.0
 40
1.0
 40
1.03125
 40
1.03125
 10
208.1370300448536
 20
119.2228556301334
 30
0.0
 10
208.4763494234581
 20
119.2228556301334
 30
0.0
 10
208.6420359482912
 20
119.2432889147161
 30
0.0
 10
208.9662720244654
 20
119.3213247931416
 30
0.0
 10
209.1260788601934
 20
119.3798925246192
 30
0.0
 10
209.5752536825355
 20
119.5997921993649
 30
0.0
 10
209.8446788985998
 20
119.8084417647937
 30
0.0
 10
210.1827139097969
 20
120.1780475571913
 30
0.0
 10
210.2862700741961
 20
120.3130407263613
 30
0.0
 10
210.4666575648336
 20
120.5955138884925
 30
0.0
 10
210.5438038988963
 20
120.7427638218869
 30
0.0
 10
210.6713243096739
 20
121.0493226814377
 30
0.0
 10
210.7218478697141
 20
121.2106513342872
 30
0.0
 10
210.7887686976406
 20
121.5294602139394
 30
0.0
 10
210.806127760279
 20
121.6883602801663
 30
0.0
 10
210.8072251368871
 20
122.004887661184
 30
0.0
 10
210.7904992154139
 20
122.1602132754872
 30
0.0
 10
210.7250949305139
 20
122.4532511335019
 30
0.0
 10
210.6756090787823
 20
122.5943572042237
 30
0.0
 10
210.4849966638334
 20
122.984580985935
 30
0.0
 10
210.3004008676846
 20
123.2052904941465
 30
0.0
 10
209.9631847234789
 20
123.4690347047161
 30
0.0
 10
209.8391567800929
 20
123.5470394161282
 30
0.0
 10
209.5733259116684
 20
123.6809788061674
 30
0.0
 10
209.4329087874408
 20
123.7365274324347
 30
0.0
 10
209.1352753049875
 20
123.8270111014247
 30
0.0
 10
208.9757110806983
 20
123.8621936740116
 30
0.0
 10
208.6500999016898
 20
123.9089404851765
 30
0.0
 10
208.4839876661574
 20
123.9209591379389
 30
0.0
 10
208.1444886189433
 20
123.9216626875487
 30
0.0
 10
207.9778152130855
 20
123.9102893771432
 30
0.0
 10
207.651910164813
 20
123.8649137938063
 30
0.0
 10
207.4918197556116
 20
123.8304261618614
 30
0.0
 10
207.1914735284691
 20
123.7405672975981
 30
0.0
 10
207.0482100795141
 20
123.6844926725074
 30
0.0
 10
206.7810711822313
 20
123.5510532583534
 30
0.0
 10
206.6581117253101
 20
123.4744110485213
 30
0.0
 10
206.4315997436969
 20
123.2988329597906
 30
0.0
 10
206.3277530312579
 20
123.1990823284955
 30
0.0
 10
206.1475964526759
 20
122.9816797935432
 30
0.0
 10
206.0700987548519
 20
122.8633445529379
 30
0.0
 10
205.9416205963842
 20
122.6040242159176
 30
0.0
 10
205.8913957803908
 20
122.4632024319751
 30
0.0
 10
205.8246189596197
 20
122.1717089744947
 30
0.0
 10
205.807082258267
 20
122.0192434227975
 30
0.0
 10
205.80631011135
 20
121.6999982789951
 30
0.0
 10
205.8230766901179
 20
121.5400449561697
 30
0.0
 10
205.8889829940246
 20
121.2197113380205
 30
0.0
 10
205.9389365651619
 20
121.0581538409692
 30
0.0
 10
206.1300140674352
 20
120.5948989390136
 30
0.0
 10
206.3153161935123
 20
120.3046908182278
 30
0.0
 10
206.6543055718955
 20
119.9332637626025
 30
0.0
 10
206.779512485008
 20
119.8180492368618
 30
0.0
 10
207.0450451591308
 20
119.6156913686224
 30
0.0
 10
207.1858399551662
 20
119.5276232904422
 30
0.0
 10
207.4859030081624
 20
119.3804318121492
 30
0.0
 10
207.6461312498836
 20
119.3216366460569
 30
0.0
 10
207.970418619804
 20
119.2434350592816
 30
0.0
 10
208.1370300448536
 20
119.2228556301334
 30
0.0
 10
208.4763494234581
 20
119.2228556301334
 30
0.0
  0
LINE
  5
1A5
330
1F
100
AcDbEntity
  8
0
  6
HIDDEN
 62
     7
370
     0
100
AcDbLine
 10
200.1066897342
 20
116.2178008673
 30
0.0
 11
200.1066897342
 21
124.5987829421
 31
0.0
  0
LINE
  5
1A6
330
1F
100
AcDbEntity
  8
0
  6
HIDDEN
 62
     7
370
     0
100
AcDbLine
 10
238.9111268416
 20
89.7183587835
 30
0.0
 11
238.903735966
 21
89.7299603567
 31
0.0
  0
LINE
  5
1A7
330
1F
100
AcDbEntity
  8
0
  6
HIDDEN
 62
     7
370
     0
100
AcDbLine
 10
238.9111268416
 20
89.7183587835
 30
0.0
 11
240.5002831744
 21
88.1533453062
 31
0.0
  0
LINE
  5
1A8
330
1F
100
AcDbEntity
  8
0
  6
HIDDEN
 62
     7
370
     0
100
AcDbLine
 10
238.903735966
 20
89.7299603567
 30
0.0
 11
240.5047721641
 21
88.153247496
 31
0.0
  0
ELLIPSE
  5
1A9
330
1F
100
AcDbEntity
  8
0
  6
HIDDEN
 62
     7
370
     0
100
AcDbEllipse
 10
221.6555269544
 20
99.8892646751
 30
0.0
 11
3.085533036944753
 21
-3.038656856958483
 31
3.552713678800502E-15
210
-5.845176963228950E-16
220
5.756375591116198E-16
230
0.9999999999999999
 40
0.9698463104
 41
5.825898290979632
 42
8.585635669053367
  0
LINE
  5
1AA
330
1F
100
AcDbEntity
  8
0
  6
HIDDEN
 62
     7
370
     0
100
AcDbLine
 10
228.9421866854
 20
95.5682717672
 30
0.0
 11
229.6700911456
 21
94.8514258113
 31
0.0
  0
ELLIPSE
  5
1AB
330
1F
100
AcDbEntity
  8
0
  6
HIDDEN
 62
     7
370
     0
100
AcDbEllipse
 10
225.3710104877
 20
96.2302276854
 30
0.0
 11
3.128204630659212
 21
2.806765604355576
 31
0.0
210
0.0
220
0.0
230
1.0
 40
0.8058084352
 41
3.992644907494353
 42
5.267768748732752
  0
LINE
  5
1AC
330
1F
100
AcDbEntity
  8
0
  6
HIDDEN
 62
     7
370
     0
100
AcDbLine
 10
225.737578935
 20
91.7676562715
 30
0.0
 11
225.0096744748
 21
92.4845022274
 31
0.0
  0
LWPOLYLINE
  5
1AD
330
1F
100
AcDbEntity
  8
0
  6
HIDDEN
 62
     7
370
     0
100
AcDbPolyline
 90
       34
 70
   128
 43
0.0
 10
222.6783871376
 20
94.8104976058
 10
222.7291419217
 20
94.0273511687
 10
222.927485045
 20
93.2725096844
 10
223.2662478703
 20
92.5732550907
 10
223.7331866265
 20
91.9548602706
 10
224.3114249302
 20
91.4396756241
 10
224.9800637426
 20
91.0463212666
 10
225.714936715
 20
90.7890140494
 10
226.4894836233
 20
90.6770537259
 10
227.2757103243
 20
90.7144868337
 10
228.0452005365
 20
90.899960443
 10
228.7701428787
 20
91.226771054
 10
229.4243360459
 20
91.68310688
 10
229.9841357925
 20
92.2524747551
 10
230.4293094971
 20
92.914296241
 10
230.7437674223
 20
93.6446513846
 10
230.9161442391
 20
94.4171432483
 10
230.9402098004
 20
95.2038519633
 10
230.8150943141
 20
95.976343827
 10
230.5453197798
 20
96.7066989706
 10
230.1406365521
 20
97.3685204565
 10
229.6156709372
 20
97.9378883316
 10
228.9893965602
 20
98.3942241576
 10
228.2844486089
 20
98.7210347686
 10
227.526305739
 20
98.9065083779
 10
226.742369209
 20
98.9439414857
 10
225.9609725278
 20
98.8319811622
 10
225.2103574072
 20
98.574673945
 10
224.5176530335
 20
98.1813195875
 10
223.9078955474
 20
97.666134941
 10
223.4031231734
 20
97.0477401209
 10
223.0215797001
 20
96.3484855272
 10
222.7770551029
 20
95.5936440428
 10
222.6783871376
 20
94.8104976058
  0
LINE
  5
1AE
330
1F
100
AcDbEntity
  8
0
  6
HIDDEN
 62
     7
370
     0
100
AcDbLine
 10
236.1079261644
 20
86.6224880048
 30
0.0
 11
233.6222067604
 21
89.8450391762
 31
0.0
  0
LINE
  5
1AF
330
1F
100
AcDbEntity
  8
0
  6
HIDDEN
 62
     7
370
     0
100
AcDbLine
 10
235.5699314424
 20
87.1523093781
 30
0.0
 11
236.1079261644
 21
86.6224880048
 31
0.0
  0
LINE
  5
1B0
330
1F
100
AcDbEntity
  8
0
  6
HIDDEN
 62
     7
370
     0
100
AcDbLine
 10
231.5662613797
 20
91.9649505756
 30
0.0
 11
228.9421866854
 21
95.5682717672
 31
0.0
  0
LINE
  5
1B1
330
1F
100
AcDbEntity
  8
0
  6
HIDDEN
 62
     7
370
     0
100
AcDbLine
 10
233.6222067604
 20
89.8450391762
 30
0.0
 11
234.7992712797
 21
88.6858569118
 31
0.0
  0
LWPOLYLINE
  5
1B2
330
1F
100
AcDbEntity
  8
0
  6
HIDDEN
 62
     7
370
     0
100
AcDbPolyline
 90
        2
 70
   128
 43
0.0
 10
183.2566897342
 20
94.0178008673
 10
183.2566897342
 20
94.0178008673
  0
LINE
  5
1B3
330
1F
100
AcDbEntity
  8
0
  6
HIDDEN
 62
     7
370
     0
100
AcDbLine
 10
183.2566897342
 20
88.9336778845
 30
0.0
 11
183.2566897342
 21
94.0178008673
 31
0.0
  0
LINE
  5
1B4
330
1F
100
AcDbEntity
  8
0
  6
HIDDEN
 62
     7
370
     0
100
AcDbLine
 10
183.2566897342
 20
94.0178008673
 30
0.0
 11
191.2566897342
 21
94.0178008673
 31
0.0
  0
LWPOLYLINE
  5
1B5
330
1F
100
AcDbEntity
  8
0
  6
HIDDEN
 62
     7
370
     0
100
AcDbPolyline
 90
       26
 70
   128
 43
0.0
 10
208.3066897342
 20
124.1221786777
 10
208.9284144521
 20
124.1959841069
 10
209.5110739194
 20
124.4127629277
 10
210.018057499
 20
124.7588941298
 10
210.4175095479
 20
125.2126290165
 10
210.6843310249
 20
125.7454577564
 10
210.8017565552
 20
126.32390076
 10
210.762407861
 20
126.9116123262
 10
210.5687573653
 20
127.4716643756
 10
210.2329728411
 20
127.9688667784
 10
209.7761528649
 20
128.3719784789
 10
209.2270011159
 20
128.6556704866
 10
208.6200228181
 20
128.8021173892
 10
207.9933566502
 20
128.8021173892
 10
207.3863783524
 20
128.6556704866
 10
206.8372266034
 20
128.3719784789
 10
206.3804066272
 20
127.9688667784
 10
206.044622103
 20
127.4716643756
 10
205.8509716073
 20
126.9116123262
 10
205.8116229131
 20
126.32390076
 10
205.9290484434
 20
125.7454577564
 10
206.1958699204
 20
125.2126290165
 10
206.5953219693
 20
124.7588941298
 10
207.1023055489
 20
124.4127629277
 10
207.6849650162
 20
124.1959841069
 10
208.3066897342
 20
124.1221786777
  0
LINE
  5
1B6
330
1F
100
AcDbEntity
  8
0
  6
HIDDEN
 62
     7
370
     0
100
AcDbLine
 10
227.2031398444
 20
89.9849037143
 30
0.0
 11
232.1754139538
 21
83.538718465
 31
0.0
  0
ARC
  5
1B7
330
1F
100
AcDbEntity
  8
0
  6
HIDDEN
 62
     7
370
     0
100
AcDbCircle
 10
235.213947895
 20
83.4338899961
 30
0.0
 40
3.040341678162477
100
AcDbArc
 50
178.0240972362
 51
267.4237827198
  0
ARC
  5
1B8
330
1F
100
AcDbEntity
  8
0
  6
HIDDEN
 62
     7
370
     0
100
AcDbCircle
 10
235.2127434233
 20
83.6553811122
 30
0.0
 40
3.263561430580765
100
AcDbArc
 50
276.0701588283
 51
2.1196360386
  0
ARC
  5
1B9
330
1F
100
AcDbEntity
  8
0
  6
HIDDEN
 62
     7
370
     0
100
AcDbCircle
 10
235.4413571751
 20
83.6620493802
 30
0.0
 40
3.034552861209889
100
AcDbArc
 50
3.4040904617
 51
77.3109533165
  0
LINE
  5
1BA
330
1F
100
AcDbEntity
  8
0
  6
HIDDEN
 62
     7
370
     0
100
AcDbLine
 10
245.5899894524
 20
78.119396926
 30
0.0
 11
240.0470660691
 21
86.8202106193
 31
0.0
  0
LINE
  5
1BB
330
1F
100
AcDbEntity
  8
0
  6
HIDDEN
 62
     7
370
     0
100
AcDbLine
 10
245.3414035852
 20
77.6861284497
 30
0.0
 11
245.5899915349
 21
78.1193957737
 31
0.0
  0
ARC
  5
1BC
330
1F
100
AcDbEntity
  8
0
  6
HIDDEN
 62
     7
370
     0
100
AcDbCircle
 10
246.8973240089
 20
91.1768847271
 30
0.0
 40
8.118290652819857
100
AcDbArc
 50
190.3499122409
 51
212.4558247284
  0
LINE
  5
1BD
330
1F
100
AcDbEntity
  8
0
  6
HIDDEN
 62
     7
370
     0
100
AcDbLine
 10
226.332113974
 20
85.8620135777
 30
0.0
 11
231.3562243079
 21
77.975588858
 31
0.0
  0
LINE
  5
1BE
330
1F
100
AcDbEntity
  8
0
  6
HIDDEN
 62
     7
370
     0
100
AcDbLine
 10
227.2031398444
 20
89.9849037143
 30
0.0
 11
221.4870289394
 21
90.1094515999
 31
0.0
  0
LINE
  5
1BF
330
1F
100
AcDbEntity
  8
0
  6
HIDDEN
 62
     7
370
     0
100
AcDbLine
 10
238.903735966
 20
89.7299603567
 30
0.0
 11
233.6222067604
 21
89.8450391762
 31
0.0
  0
LINE
  5
1C0
330
1F
100
AcDbEntity
  8
0
  6
HIDDEN
 62
     7
370
     0
100
AcDbLine
 10
227.3000984925
 20
89.889418086
 30
0.0
 11
227.2031398444
 21
89.9849037143
 31
0.0
  0
ELLIPSE
  5
1C1
330
1F
100
AcDbEntity
  8
0
  6
HIDDEN
 62
     7
370
     0
100
AcDbEllipse
 10
238.8054281898
 20
120.4178008673
 30
0.0
 11
-0.8523741976695758
 21
26.99959507802721
 31
0.0
210
0.0
220
0.0
230
1.0
 40
0.1734804855
 41
1.31260205993165
 42
1.565319622021314
  0
ELLIPSE
  5
1C2
330
1F
100
AcDbEntity
  8
0
  6
HIDDEN
 62
     7
370
     0
100
AcDbEllipse
 10
240.3048297503
 20
120.4178008673
 30
0.0
 11
-19.75908128153341
 21
26.99227138525109
 31
0.0
210
0.0
220
0.0
230
1.0
 40
0.0326926316
 41
0.1147374025765821
 42
1.294151431056423
  0
LINE
  5
1C3
330
1F
100
AcDbEntity
  8
0
  6
HIDDEN
 62
     7
370
     0
100
AcDbLine
 10
156.5066897342
 20
102.4278008673
 30
0.0
 11
156.5066897342
 21
104.1132050812
 31
0.0
  0
LINE
  5
1C4
330
1F
100
AcDbEntity
  8
0
  6
HIDDEN
 62
     7
370
     0
100
AcDbLine
 10
152.5066897342
 20
138.4078008673
 30
0.0
 11
152.5066897342
 21
136.7053144897
 31
0.0
  0
LINE
  5
1C5
330
1F
100
AcDbEntity
  8
0
  6
HIDDEN
 62
     7
370
     0
100
AcDbLine
 10
156.5066897342
 20
102.4278008673
 30
0.0
 11
156.5066897342
 21
98.4434851592
 31
0.0
  0
LINE
  5
1C6
330
1F
100
AcDbEntity
  8
0
  6
HIDDEN
 62
     7
370
     0
100
AcDbLine
 10
152.5066897342
 20
138.4078008673
 30
0.0
 11
152.5066897342
 21
142.2619085397
 31
0.0
  0
SPLINE
  5
1C7
330
1F
100
AcDbEntity
  8
0
  6
HIDDEN
 62
     7
370
     0
100
AcDbSpline
210
0.0
220
0.0
230
1.0
 70
     8
 71
     3
 72
    10
 73
     6
 74
     0
 42
0.00000001
 43
0.00000001
 40
0.0
 40
0.0
 40
0.0
 40
0.0
 40
0.5
 40
0.5
 40
1.0
 40
1.0
 40
1.0
 40
1.0
 10
231.6374192318192
 20
84.06853983825951
 30
0.0
 10
231.5632401386005
 20
84.14159198437262
 30
0.0
 10
231.4910810032031
 20
84.26418797566159
 30
0.0
 10
231.3563641804902
 20
84.55195820766592
 30
0.0
 10
231.2938297132682
 20
84.7191034091064
 30
0.0
 10
231.2407244708074
 20
84.90247402158043
 30
0.0
  0
ARC
  5
1C8
330
1F
100
AcDbEntity
  8
0
  6
HIDDEN
 62
     7
370
     0
100
AcDbCircle
 10
234.3791820839
 20
84.4991425934
 30
0.0
 40
3.16426807178514
100
AcDbArc
 50
172.6769077376
 51
83.528254681
  0
SPLINE
  5
1C9
330
1F
100
AcDbEntity
  8
0
  6
HIDDEN
 62
     7
370
     0
100
AcDbSpline
210
0.0
220
0.0
230
1.0
 70
     8
 71
     3
 72
    10
 73
     6
 74
     0
 42
0.00000001
 43
0.00000001
 40
0.0
 40
0.0
 40
0.0
 40
0.0
 40
0.5
 40
0.5
 40
1.0
 40
1.0
 40
1.0
 40
1.0
 10
234.7358369676093
 20
87.64324655539724
 30
0.0
 10
234.9203312181245
 20
87.5628774318842
 30
0.0
 10
235.087044389763
 20
87.47741263122404
 30
0.0
 10
235.3737818794939
 20
87.30886133746085
 30
0.0
 10
235.4956652113566
 20
87.22544733821698
 30
0.0
 10
235.569931442447
 20
87.15230937805215
 30
0.0
  0
LINE
  5
1CA
330
1F
100
AcDbEntity
  8
0
  6
HIDDEN
 62
     7
370
     0
100
AcDbLine
 10
232.1754139538
 20
83.538718465
 30
0.0
 11
231.6374192318
 21
84.0685398383
 31
0.0
  0
LWPOLYLINE
  5
1CB
330
1F
100
AcDbEntity
  8
0
  6
HIDDEN
 62
     7
370
     0
100
AcDbPolyline
 90
        2
 70
   128
 43
0.0
 10
204.2566897342
 20
146.8178008673
 10
204.2566897342
 20
146.8178008673
  0
LWPOLYLINE
  5
1CC
330
1F
100
AcDbEntity
  8
0
  6
HIDDEN
 62
     7
370
     0
100
AcDbPolyline
 90
        2
 70
   128
 43
0.0
 10
204.2566897342
 20
94.0178008673
 10
204.2566897342
 20
94.0178008673
  0
LINE
  5
1CD
330
1F
100
AcDbEntity
  8
0
  6
HIDDEN
 62
     7
370
     0
100
AcDbLine
 10
147.5566897342
 20
102.4278008673
 30
0.0
 11
147.5566897342
 21
99.5480653344
 31
0.0
  0
SPLINE
  5
1CE
330
1F
100
AcDbEntity
  8
0
  6
HIDDEN
 62
     7
370
     0
100
AcDbSpline
210
0.0
220
0.0
230
1.0
 70
     8
 71
     3
 72
    22
 73
    18
 74
     0
 42
0.00000001
 43
0.00000001
 40
0.0
 40
0.0
 40
0.0
 40
0.0
 40
0.2499999999999946
 40
0.2499999999999946
 40
0.3749999999999916
 40
0.3749999999999916
 40
0.4999999999999886
 40
0.4999999999999886
 40
0.6249999999999856
 40
0.6249999999999856
 40
0.6874999999999859
 40
0.6874999999999859
 40
0.7499999999999898
 40
0.7499999999999898
 40
0.8749999999999949
 40
0.8749999999999949
 40
1.0
 40
1.0
 40
1.0
 40
1.0
 10
146.4066897341557
 20
100.4289784284696
 30
0.0
 10
146.4066897341557
 20
100.340914485663
 30
0.0
 10
146.434940315103
 20
100.264233190355
 30
0.0
 10
146.5099361156319
 20
100.1702392033359
 30
0.0
 10
146.5406727202962
 20
100.1419925502961
 30
0.0
 10
146.613329378515
 20
100.0907133743379
 30
0.0
 10
146.6551788363142
 20
100.067711976553
 30
0.0
 10
146.7553825702653
 20
100.0208137771506
 30
0.0
 10
146.8131625339642
 20
99.99797195589692
 30
0.0
 10
146.92788780188
 20
99.94463770290022
 30
0.0
 10
146.9715634862608
 20
99.92276060571663
 30
0.0
 10
147.0599622004761
 20
99.87295705875084
 30
0.0
 10
147.1041001037652
 20
99.84548313295028
 30
0.0
 10
147.2253638880814
 20
99.7664948160552
 30
0.0
 10
147.2944970364491
 20
99.7178101577679
 30
0.0
 10
147.4252022698321
 20
99.62983462435568
 30
0.0
 10
147.4868127723562
 20
99.58994323008577
 30
0.0
 10
147.5466448037376
 20
99.55406113224099
 30
0.0
  0
LINE
  5
1CF
330
1F
100
AcDbEntity
  8
0
  6
HIDDEN
 62
     7
370
     0
100
AcDbLine
 10
146.4066897342
 20
102.4278008673
 30
0.0
 11
146.4066897342
 21
100.4289784285
 31
0.0
  0
LINE
  5
1D0
330
1F
100
AcDbEntity
  8
0
  6
HIDDEN
 62
     7
370
     0
100
AcDbLine
 10
147.5566897342
 20
102.4278008673
 30
0.0
 11
147.5566897342
 21
104.5936154618
 31
0.0
  0
SPLINE
  5
1D1
330
1F
100
AcDbEntity
  8
0
  6
HIDDEN
 62
     7
370
     0
100
AcDbSpline
210
0.0
220
0.0
230
1.0
 70
     8
 71
     3
 72
     8
 73
     4
 74
     0
 42
0.00000001
 43
0.00000001
 40
0.0000002432968744
 40
0.0000002432968744
 40
0.0000002432968744
 40
0.0000002432968744
 40
0.0014011510532366
 40
0.0014011510532366
 40
0.0014011510532366
 40
0.0014011510532366
 10
146.4066897341558
 20
104.1472868737249
 30
0.0
 10
146.7905542008924
 20
104.2942257861872
 30
0.0
 10
147.173907822716
 20
104.4429581460051
 30
0.0
 10
147.5566897341558
 20
104.5936154617656
 30
0.0
  0
LINE
  5
1D2
330
1F
100
AcDbEntity
  8
0
  6
HIDDEN
 62
     7
370
     0
100
AcDbLine
 10
146.4066897342
 20
102.4278008673
 30
0.0
 11
146.4066897342
 21
104.1472868737
 31
0.0
  0
SPLINE
  5
1D3
330
1F
100
AcDbEntity
  8
0
  6
HIDDEN
 62
     7
370
     0
100
AcDbSpline
210
0.0
220
0.0
230
1.0
 70
     8
 71
     3
 72
     8
 73
     4
 74
     0
 42
0.00000001
 43
0.00000001
 40
0.0000002438860713
 40
0.0000002438860713
 40
0.0000002438860713
 40
0.0000002438860713
 40
0.0014006025853533
 40
0.0014006025853533
 40
0.0014006025853533
 40
0.0014006025853533
 10
147.5566897341558
 20
136.2192913033719
 30
0.0
 10
147.1739026615909
 20
136.3693628313476
 30
0.0
 10
146.7905492616348
 20
136.5175200332651
 30
0.0
 10
146.4066897341558
 20
136.6638935450683
 30
0.0
  0
LINE
  5
1D4
330
1F
100
AcDbEntity
  8
0
  6
HIDDEN
 62
     7
370
     0
100
AcDbLine
 10
146.4066897342
 20
136.6638935451
 30
0.0
 11
146.4066897342
 21
104.1472868737
 31
0.0
  0
LINE
  5
1D5
330
1F
100
AcDbEntity
  8
0
  6
HIDDEN
 62
     7
370
     0
100
AcDbLine
 10
147.5566897342
 20
138.4078008673
 30
0.0
 11
147.5566897342
 21
136.2192913034
 31
0.0
  0
LINE
  5
1D6
330
1F
100
AcDbEntity
  8
0
  6
HIDDEN
 62
     7
370
     0
100
AcDbLine
 10
146.4066897342
 20
138.4078008673
 30
0.0
 11
146.4066897342
 21
136.6638935451
 31
0.0
  0
LINE
  5
1D7
330
1F
100
AcDbEntity
  8
0
  6
HIDDEN
 62
     7
370
     0
100
AcDbLine
 10
147.5566897342
 20
138.4078008673
 30
0.0
 11
147.5566897342
 21
141.2877386327
 31
0.0
  0
LINE
  5
1D8
330
1F
100
AcDbEntity
  8
0
  6
HIDDEN
 62
     7
370
     0
100
AcDbLine
 10
146.4066897342
 20
138.4078008673
 30
0.0
 11
146.4066897342
 21
140.393861372
 31
0.0
  0
SPLINE
  5
1D9
330
1F
100
AcDbEntity
  8
0
  6
HIDDEN
 62
     7
370
     0
100
AcDbSpline
210
0.0
220
0.0
230
1.0
 70
     8
 71
     3
 72
    22
 73
    18
 74
     0
 42
0.00000001
 43
0.00000001
 40
0.0
 40
0.0
 40
0.0
 40
0.0
 40
0.1250000000000002
 40
0.1250000000000002
 40
0.2500000000000005
 40
0.2500000000000005
 40
0.3125000000000038
 40
0.3125000000000038
 40
0.3750000000000071
 40
0.3750000000000071
 40
0.5000000000000061
 40
0.5000000000000061
 40
0.6250000000000051
 40
0.6250000000000051
 40
0.7500000000000042
 40
0.7500000000000042
 40
1.0
 40
1.0
 40
1.0
 40
1.0
 10
147.5466448037249
 20
141.2819927397689
 30
0.0
 10
147.4860250828485
 20
141.2471705631217
 30
0.0
 10
147.4238357428819
 20
141.208666759421
 30
0.0
 10
147.2901062766525
 20
141.1227322716223
 30
0.0
 10
147.2178517349402
 20
141.0744256704201
 30
0.0
 10
147.0959537941045
 20
140.9980739522503
 30
0.0
 10
147.0521472409525
 20
140.9716594916433
 30
0.0
 10
146.9657520717776
 20
140.9231505671127
 30
0.0
 10
146.923412095486
 20
140.9012164443864
 30
0.0
 10
146.809441349117
 20
140.8448466544417
 30
0.0
 10
146.7510226231267
 20
140.818489829908
 30
0.0
 10
146.6511150519392
 20
140.7663500054039
 30
0.0
 10
146.6097010611439
 20
140.7411894156913
 30
0.0
 10
146.5376760932666
 20
140.6860825723643
 30
0.0
 10
146.5073275519536
 20
140.6562261688693
 30
0.0
 10
146.4338358219215
 20
140.5588194668767
 30
0.0
 10
146.4066897341558
 20
140.4824877830663
 30
0.0
 10
146.4066897341558
 20
140.3938613719962
 30
0.0
  0
SPLINE
  5
1DA
330
1F
100
AcDbEntity
  8
0
  6
HIDDEN
 62
     7
370
     0
100
AcDbSpline
210
0.0
220
0.0
230
1.0
 70
     8
 71
     3
 72
    10
 73
     6
 74
     0
 42
0.00000001
 43
0.00000001
 40
0.0
 40
0.0
 40
0.0
 40
0.0
 40
0.5
 40
0.5
 40
1.0
 40
1.0
 40
1.0
 40
1.0
 10
194.3966897341558
 20
147.537454718376
 30
0.0
 10
194.3966897341558
 20
147.3938423668179
 30
0.0
 10
194.4328570092536
 20
147.2508689530994
 30
0.0
 10
194.5686129530076
 20
147.0008763263857
 30
0.0
 10
194.6688826436305
 20
146.8928740171068
 30
0.0
 10
194.7909872658468
 20
146.8178008673401
 30
0.0
  0
LINE
  5
1DB
330
1F
100
AcDbEntity
  8
0
  6
HIDDEN
 62
     7
370
     0
100
AcDbLine
 10
194.3966897342
 20
147.5374547184
 30
0.0
 11
194.3966897342
 21
93.613405239
 31
0.0
  0
SPLINE
  5
1DC
330
1F
100
AcDbEntity
  8
0
  6
HIDDEN
 62
     7
370
     0
100
AcDbSpline
210
0.0
220
0.0
230
1.0
 70
     8
 71
     3
 72
    10
 73
     6
 74
     0
 42
0.00000001
 43
0.00000001
 40
0.0
 40
0.0
 40
0.0
 40
0.0
 40
0.5
 40
0.5
 40
1.0
 40
1.0
 40
1.0
 40
1.0
 10
194.3966897341558
 20
93.61340523901089
 30
0.0
 10
194.3966897341558
 20
93.68364159938142
 30
0.0
 10
194.4049723462463
 20
93.75363570087866
 30
0.0
 10
194.4380722893046
 20
93.89059496543713
 30
0.0
 10
194.4624096812629
 20
93.95590287469221
 30
0.0
 10
194.4943645364874
 20
94.01780086733893
 30
0.0
  0
SPLINE
  5
1DD
330
1F
100
AcDbEntity
  8
0
  6
HIDDEN
 62
     7
370
     0
100
AcDbSpline
210
0.0
220
0.0
230
1.0
 70
    24
 71
     3
 72
    12
 73
     8
 74
     0
 42
0.00000001
 43
0.00000001
 40
0.0
 40
0.0
 40
0.0
 40
0.0
 40
0.5
 40
0.5
 40
0.75
 40
0.75
 40
1.0
 40
1.0
 40
1.0
 40
1.0
 10
194.7909872658468
 20
146.8178008673402
 30
0.0
 10
194.8341106142804
 20
146.8178008673402
 30
0.0
 10
194.8838502015806
 20
146.8178008673402
 30
0.0
 10
194.9803711784025
 20
146.8178008673402
 30
0.0
 10
195.0159363092542
 20
146.8178008673402
 30
0.0
 10
195.0992846398772
 20
146.8178008673402
 30
0.0
 10
195.1477545395674
 20
146.8178008673402
 30
0.0
 10
195.196689734157
 20
146.8178008673402
 30
0.0
  0
SPLINE
  5
1DE
330
1F
100
AcDbEntity
  8
0
  6
HIDDEN
 62
     7
370
     0
100
AcDbSpline
210
0.0
220
0.0
230
1.0
 70
    24
 71
     3
 72
    14
 73
    10
 74
     0
 42
0.00000001
 43
0.00000001
 40
0.0
 40
0.0
 40
0.0
 40
0.0
 40
0.5000000000000031
 40
0.5000000000000031
 40
0.7500000000000047
 40
0.7500000000000047
 40
0.8750000000000023
 40
0.8750000000000023
 40
1.0
 40
1.0
 40
1.0
 40
1.0
 10
194.494364536488
 20
94.01780086734021
 30
0.0
 10
194.5415710243278
 20
94.01780086734021
 30
0.0
 10
194.6049110277571
 20
94.01780086734021
 30
0.0
 10
194.747974134013
 20
94.01780086734021
 30
0.0
 10
194.804054784284
 20
94.01780086734021
 30
0.0
 10
194.9154901341934
 20
94.01780086734021
 30
0.0
 10
194.9574349248664
 20
94.01780086734021
 30
0.0
 10
195.0624313678865
 20
94.0178008673402
 30
0.0
 10
195.1279953049672
 20
94.0178008673402
 30
0.0
 10
195.1966897341557
 20
94.01780086734021
 30
0.0
  0
LINE
  5
1DF
330
1F
100
AcDbEntity
  8
0
  6
HIDDEN
 62
     7
370
     0
100
AcDbLine
 10
198.2166897342
 20
147.5374547184
 30
0.0
 11
198.2166897342
 21
93.613405239
 31
0.0
  0
SPLINE
  5
1E0
330
1F
100
AcDbEntity
  8
0
  6
HIDDEN
 62
     7
370
     0
100
AcDbSpline
210
0.0
220
0.0
230
1.0
 70
     8
 71
     3
 72
    10
 73
     6
 74
     0
 42
0.00000001
 43
0.00000001
 40
0.0
 40
0.0
 40
0.0
 40
0.0
 40
0.5
 40
0.5
 40
1.0
 40
1.0
 40
1.0
 40
1.0
 10
197.8223922024649
 20
146.8178008673402
 30
0.0
 10
197.9437047255626
 20
146.8923870136284
 30
0.0
 10
198.0451330877878
 20
147.0012113247798
 30
0.0
 10
198.1810766540479
 20
147.2522318434014
 30
0.0
 10
198.2166897341558
 20
147.3948145365407
 30
0.0
 10
198.2166897341558
 20
147.537454718376
 30
0.0
  0
SPLINE
  5
1E1
330
1F
100
AcDbEntity
  8
0
  6
HIDDEN
 62
     7
370
     0
100
AcDbSpline
210
0.0
220
0.0
230
1.0
 70
     8
 71
     3
 72
    10
 73
     6
 74
     0
 42
0.00000001
 43
0.00000001
 40
0.0
 40
0.0
 40
0.0
 40
0.0
 40
0.5
 40
0.5
 40
1.0
 40
1.0
 40
1.0
 40
1.0
 10
198.1190149318236
 20
94.01780086734021
 30
0.0
 10
198.1511701194455
 20
93.95551482182408
 30
0.0
 10
198.1758263506398
 20
93.88898439695485
 30
0.0
 10
198.2086391075653
 20
93.75212576659236
 30
0.0
 10
198.2166897341558
 20
93.683068171414
 30
0.0
 10
198.2166897341558
 20
93.61340523901067
 30
0.0
  0
SPLINE
  5
1E2
330
1F
100
AcDbEntity
  8
0
  6
HIDDEN
 62
     7
370
     0
100
AcDbSpline
210
0.0
220
0.0
230
1.0
 70
    24
 71
     3
 72
    12
 73
     8
 74
     0
 42
0.00000001
 43
0.00000001
 40
0.0
 40
0.0
 40
0.0
 40
0.0
 40
0.25
 40
0.25
 40
0.5
 40
0.5
 40
1.0
 40
1.0
 40
1.0
 40
1.0
 10
197.4166897341558
 20
146.8178008673402
 30
0.0
 10
197.4662248403738
 20
146.8178008673402
 30
0.0
 10
197.5146297289753
 20
146.8178008673402
 30
0.0
 10
197.5975162781529
 20
146.8178008673402
 30
0.0
 10
197.6340309996212
 20
146.8178008673402
 30
0.0
 10
197.7303638379759
 20
146.8178008673402
 30
0.0
 10
197.7791163856386
 20
146.8178008673402
 30
0.0
 10
197.8223922024692
 20
146.8178008673402
 30
0.0
  0
SPLINE
  5
1E3
330
1F
100
AcDbEntity
  8
0
  6
HIDDEN
 62
     7
370
     0
100
AcDbSpline
210
0.0
220
0.0
230
1.0
 70
    24
 71
     3
 72
    14
 73
    10
 74
     0
 42
0.00000001
 43
0.00000001
 40
0.0
 40
0.0
 40
0.0
 40
0.0
 40
0.124999999999999
 40
0.124999999999999
 40
0.249999999999998
 40
0.249999999999998
 40
0.4999999999999987
 40
0.4999999999999987
 40
1.0
 40
1.0
 40
1.0
 40
1.0
 10
197.4166897341558
 20
94.01780086734021
 30
0.0
 10
197.4857863664998
 20
94.01780086734021
 30
0.0
 10
197.5507795321077
 20
94.01780086734021
 30
0.0
 10
197.6551007307529
 20
94.01780086734021
 30
0.0
 10
197.6978811048613
 20
94.01780086734021
 30
0.0
 10
197.8102187645076
 20
94.01780086734021
 30
0.0
 10
197.86526594665
 20
94.01780086734021
 30
0.0
 10
198.00914272042
 20
94.01780086734021
 30
0.0
 10
198.0721720336951
 20
94.01780086734021
 30
0.0
 10
198.1190149318236
 20
94.01780086734021
 30
0.0
  0
LINE
  5
1E4
330
1F
100
AcDbEntity
  8
0
  6
HIDDEN
 62
     7
370
     0
100
AcDbLine
 10
195.1966897342
 20
146.8178008673
 30
0.0
 11
197.4166897342
 21
146.8178008673
 31
0.0
  0
LINE
  5
1E5
330
1F
100
AcDbEntity
  8
0
  6
HIDDEN
 62
     7
370
     0
100
AcDbLine
 10
195.1966897342
 20
94.0178008673
 30
0.0
 11
197.4166897342
 21
94.0178008673
 31
0.0
  0
SPLINE
  5
1E6
330
1F
100
AcDbEntity
  8
0
  6
HIDDEN
 62
     7
370
     0
100
AcDbSpline
210
0.0
220
0.0
230
1.0
 70
     8
 71
     3
 72
    12
 73
     8
 74
     0
 42
0.00000001
 43
0.00000001
 40
0.0
 40
0.0
 40
0.0
 40
0.0
 40
0.25
 40
0.25
 40
0.5
 40
0.5
 40
1.0
 40
1.0
 40
1.0
 40
1.0
 10
203.6566897341558
 20
150.8849963405044
 30
0.0
 10
203.7361826832041
 20
150.8849963405044
 30
0.0
 10
203.8172661845596
 20
150.8679935905436
 30
0.0
 10
203.9636965816974
 20
150.803933049432
 30
0.0
 10
204.0302451915711
 20
150.7567744337934
 30
0.0
 10
204.1945350655448
 20
150.5835524011012
 30
0.0
 10
204.256689734156
 20
150.4234433108669
 30
0.0
 10
204.2566897341558
 20
150.2642411911035
 30
0.0
  0
SPLINE
  5
1E7
330
1F
100
AcDbEntity
  8
0
  6
HIDDEN
 62
     7
370
     0
100
AcDbSpline
210
0.0
220
0.0
230
1.0
 70
     8
 71
     3
 72
    12
 73
     8
 74
     0
 42
0.00000001
 43
0.00000001
 40
0.0
 40
0.0
 40
0.0
 40
0.0
 40
0.2500000000000019
 40
0.2500000000000019
 40
0.5000000000000039
 40
0.5000000000000039
 40
1.0
 40
1.0
 40
1.0
 40
1.0
 10
203.6566897341558
 20
90.23088317109307
 30
0.0
 10
203.7365707389029
 20
90.23088317109305
 30
0.0
 10
203.8171648691735
 20
90.24800025735892
 30
0.0
 10
203.9637803150184
 20
90.31273636883401
 30
0.0
 10
204.0302815077624
 20
90.36019361171435
 30
0.0
 10
204.1960164088997
 20
90.53701805425383
 30
0.0
 10
204.2566897341558
 20
90.69729456145956
 30
0.0
 10
204.2566897341558
 20
90.85752346674732
 30
0.0
  0
LINE
  5
1E8
330
1F
100
AcDbEntity
  8
0
  6
HIDDEN
 62
     7
370
     0
100
AcDbLine
 10
204.2566897342
 20
150.2642411911
 30
0.0
 11
204.2566897342
 21
90.8575234667
 31
0.0
  0
LINE
  5
1E9
330
1F
100
AcDbEntity
  8
0
  6
HIDDEN
 62
     7
370
     0
100
AcDbLine
 10
198.2166897342
 20
147.5374547184
 30
0.0
 11
198.2166897342
 21
148.2230350585
 31
0.0
  0
SPLINE
  5
1EA
330
1F
100
AcDbEntity
  8
0
  6
HIDDEN
 62
     7
370
     0
100
AcDbSpline
210
0.0
220
0.0
230
1.0
 70
     8
 71
     3
 72
     8
 73
     4
 74
     0
 42
0.00000001
 43
0.00000001
 40
0.0
 40
0.0
 40
0.0
 40
0.0
 40
1.0
 40
1.0
 40
1.0
 40
1.0
 10
198.2166897341558
 20
148.2230350585118
 30
0.0
 10
198.7093998310016
 20
149.1110540566382
 30
0.0
 10
199.2034825362806
 20
149.9983166923242
 30
0.0
 10
199.6986225656449
 20
150.8849963405044
 30
0.0
  0
LINE
  5
1EB
330
1F
100
AcDbEntity
  8
0
  6
HIDDEN
 62
     7
370
     0
100
AcDbLine
 10
199.6986225656
 20
150.8849963405
 30
0.0
 11
203.6566897342
 21
150.8849963405
 31
0.0
  0
LINE
  5
1EC
330
1F
100
AcDbEntity
  8
0
  6
HIDDEN
 62
     7
370
     0
100
AcDbLine
 10
204.2566897342
 20
150.2642411911
 30
0.0
 11
204.2566897342
 21
146.8178008673
 31
0.0
  0
LINE
  5
1ED
330
1F
100
AcDbEntity
  8
0
  6
HIDDEN
 62
     7
370
     0
100
AcDbLine
 10
197.8223922025
 20
146.8178008673
 30
0.0
 11
204.2566897342
 21
146.8178008673
 31
0.0
  0
LINE
  5
1EE
330
1F
100
AcDbEntity
  8
0
  6
HIDDEN
 62
     7
370
     0
100
AcDbLine
 10
194.3966897342
 20
148.2230350585
 30
0.0
 11
194.3966897342
 21
147.5374547184
 31
0.0
  0
SPLINE
  5
1EF
330
1F
100
AcDbEntity
  8
0
  6
HIDDEN
 62
     7
370
     0
100
AcDbSpline
210
0.0
220
0.0
230
1.0
 70
     8
 71
     3
 72
     8
 73
     4
 74
     0
 42
0.00000001
 43
0.00000001
 40
0.0
 40
0.0
 40
0.0
 40
0.0
 40
1.0
 40
1.0
 40
1.0
 40
1.0
 10
192.9147569026668
 20
150.8849963405044
 30
0.0
 10
193.4098969320311
 20
149.9983166923242
 30
0.0
 10
193.9039796373101
 20
149.1110540566382
 30
0.0
 10
194.3966897341558
 20
148.2230350585118
 30
0.0
  0
LINE
  5
1F0
330
1F
100
AcDbEntity
  8
0
  6
HIDDEN
 62
     7
370
     0
100
AcDbLine
 10
191.2566897342
 20
146.8178008673
 30
0.0
 11
194.7909872658
 21
146.8178008673
 31
0.0
  0
LINE
  5
1F1
330
1F
100
AcDbEntity
  8
0
  6
HIDDEN
 62
     7
370
     0
100
AcDbLine
 10
194.3966897342
 20
148.2230350585
 30
0.0
 11
194.3966897342
 21
92.9199637083
 31
0.0
  0
LINE
  5
1F2
330
1F
100
AcDbEntity
  8
0
  6
HIDDEN
 62
     7
370
     0
100
AcDbLine
 10
199.6986225656
 20
150.8849963405
 30
0.0
 11
199.6986225656
 21
90.2308831711
 31
0.0
  0
LINE
  5
1F3
330
1F
100
AcDbEntity
  8
0
  6
HIDDEN
 62
     7
370
     0
100
AcDbLine
 10
198.2166897342
 20
148.2230350585
 30
0.0
 11
198.2166897342
 21
92.9199637083
 31
0.0
  0
LINE
  5
1F4
330
1F
100
AcDbEntity
  8
0
  6
HIDDEN
 62
     7
370
     0
100
AcDbLine
 10
146.4066897342
 20
140.393861372
 30
0.0
 11
146.4066897342
 21
100.4289784285
 31
0.0
  0
ELLIPSE
  5
1F5
330
1F
100
AcDbEntity
  8
0
  6
HIDDEN
 62
     7
370
     0
100
AcDbEllipse
 10
232.1691099957
 20
87.3348544823
 30
0.0
 11
-1.737186289663043
 21
2.355075434760394
 31
0.0
210
0.0
220
0.0
230
1.0
 40
0.8537330573
 41
2.072096231964972
 42
4.261420602508132
  0
LWPOLYLINE
  5
1F6
330
1F
100
AcDbEntity
  8
0
  6
HIDDEN
 62
     7
370
     0
100
AcDbPolyline
 90
       13
 70
   128
 43
0.0
 10
227.633749169
 20
88.8811810358
 10
227.9558427555
 20
88.5834286398
 10
228.3899833006
 20
88.4110444765
 10
228.9065848435
 20
88.3757762417
 10
229.4704418428
 20
88.4800274075
 10
230.0431283759
 20
88.716693429
 10
230.5856168019
 20
89.0696459081
 10
231.0609374311
 20
89.5148317166
 10
231.4366979481
 20
90.0219121774
 10
231.6872908947
 20
90.5563305949
 10
231.7956387757
 20
91.0816672373
 10
231.754357862
 20
91.5621212806
 10
231.5662613797
 20
91.9649505756
  0
SPLINE
  5
1F7
330
1F
100
AcDbEntity
  8
0
  6
HIDDEN
 62
     7
370
     0
100
AcDbSpline
210
0.0
220
0.0
230
1.0
 70
     8
 71
     3
 72
    33
 73
    29
 74
     0
 42
0.00000001
 43
0.00000001
 40
0.0
 40
0.0
 40
0.0
 40
0.0
 40
0.0283156503944621
 40
0.0566544997559559
 40
0.0850242571177612
 40
0.1134326063511154
 40
0.1418872000632549
 40
0.1703956536208202
 40
0.198965539321101
 40
0.2276043807322421
 40
0.2563196472220413
 40
0.2851187486932692
 40
0.314009030541707
 40
0.3429977688512044
 40
0.3720921658381359
 40
0.4012993455556625
 40
0.4306263498662468
 40
0.4600801346888505
 40
0.4896675665253891
 40
0.5456934006712237
 40
0.6017845619985391
 40
0.6579862217823261
 40
0.7143432855982657
 40
0.7709002888564882
 40
0.8277012966753876
 40
0.8847898091540848
 40
0.9422086729613168
 40
1.0
 40
1.0
 40
1.0
 40
1.0
 10
245.5899792279837
 20
78.11940699509682
 30
0.0
 10
245.5489667852299
 20
78.16302867150574
 30
0.0
 10
245.4669082982935
 20
78.25030776349318
 30
0.0
 10
245.3371900329478
 20
78.39168170829363
 30
0.0
 10
245.202572905421
 20
78.54075642626351
 30
0.0
 10
245.0625818184214
 20
78.69828211735705
 30
0.0
 10
244.9173443588725
 20
78.86405733301424
 30
0.0
 10
244.7668263299021
 20
79.03813608350734
 30
0.0
 10
244.6110369861624
 20
79.22050376797554
 30
0.0
 10
244.4499739119861
 20
79.41116421264886
 30
0.0
 10
244.2836378313618
 20
79.61011628562854
 30
0.0
 10
244.1120286262813
 20
79.8173601838485
 30
0.0
 10
243.9351464085215
 20
80.03289574100867
 30
0.0
 10
243.7529912248155
 20
80.25672289183133
 30
0.0
 10
243.5655631584299
 20
80.4888415163374
 30
0.0
 10
243.3728622161534
 20
80.72925160065853
 30
0.0
 10
243.1748886781765
 20
80.97795275068908
 30
0.0
 10
242.9716418021223
 20
81.23494599009659
 30
0.0
 10
242.7013511489272
 20
81.57881695294678
 30
0.0
 10
242.3586467480509
 20
82.01844735238437
 30
0.0
 10
241.9366521153453
 20
82.56527171320391
 30
0.0
 10
241.4992526453501
 20
83.13733601353057
 30
0.0
 10
241.0464561038071
 20
83.73462805254486
 30
0.0
 10
240.5782437810449
 20
84.35718027627601
 30
0.0
 10
240.0946899095676
 20
85.0048648301733
 30
0.0
 10
239.5955214339275
 20
85.67815377961077
 30
0.0
 10
239.0817715114673
 20
86.3752624135993
 30
0.0
 10
238.7281873349647
 20
86.85867940747063
 30
0.0
 10
238.550823695256
 20
87.1011693242371
 30
0.0
  0
LINE
  5
1F8
330
1F
100
AcDbEntity
  8
0
  6
HIDDEN
 62
     7
370
     0
100
AcDbLine
 10
198.2166897342
 20
93.613405239
 30
0.0
 11
198.2166897342
 21
92.9199637083
 31
0.0
  0
SPLINE
  5
1F9
330
1F
100
AcDbEntity
  8
0
  6
HIDDEN
 62
     7
370
     0
100
AcDbSpline
210
0.0
220
0.0
230
1.0
 70
     8
 71
     3
 72
     8
 73
     4
 74
     0
 42
0.00000001
 43
0.00000001
 40
0.0
 40
0.0
 40
0.0
 40
0.0
 40
1.0
 40
1.0
 40
1.0
 40
1.0
 10
198.2166897341558
 20
92.91996370828535
 30
0.0
 10
198.709028856937
 20
92.02269367407865
 30
0.0
 10
199.2031429049791
 20
91.12640925902642
 30
0.0
 10
199.6986225656449
 20
90.23088317109307
 30
0.0
  0
LINE
  5
1FA
330
1F
100
AcDbEntity
  8
0
  6
HIDDEN
 62
     7
370
     0
100
AcDbLine
 10
199.6986225656
 20
90.2308831711
 30
0.0
 11
203.6566897342
 21
90.2308831711
 31
0.0
  0
LINE
  5
1FB
330
1F
100
AcDbEntity
  8
0
  6
HIDDEN
 62
     7
370
     0
100
AcDbLine
 10
204.2566897342
 20
90.8575234667
 30
0.0
 11
204.2566897342
 21
94.0178008673
 31
0.0
  0
LINE
  5
1FC
330
1F
100
AcDbEntity
  8
0
  6
HIDDEN
 62
     7
370
     0
100
AcDbLine
 10
198.1190149318
 20
94.0178008673
 30
0.0
 11
204.2566897342
 21
94.0178008673
 31
0.0
  0
LINE
  5
1FD
330
1F
100
AcDbEntity
  8
0
  6
HIDDEN
 62
     7
370
     0
100
AcDbLine
 10
194.3966897342
 20
92.9199637083
 30
0.0
 11
194.3966897342
 21
93.613405239
 31
0.0
  0
SPLINE
  5
1FE
330
1F
100
AcDbEntity
  8
0
  6
HIDDEN
 62
     7
370
     0
100
AcDbSpline
210
0.0
220
0.0
230
1.0
 70
     8
 71
     3
 72
     8
 73
     4
 74
     0
 42
0.00000001
 43
0.00000001
 40
0.0
 40
0.0
 40
0.0
 40
0.0
 40
1.0
 40
1.0
 40
1.0
 40
1.0
 10
192.9147569026668
 20
90.23088317109307
 30
0.0
 10
193.4102365633325
 20
91.12640925902642
 30
0.0
 10
193.9043506113746
 20
92.02269367407865
 30
0.0
 10
194.3966897341558
 20
92.91996370828535
 30
0.0
  0
LINE
  5
1FF
330
1F
100
AcDbEntity
  8
0
  6
HIDDEN
 62
     7
370
     0
100
AcDbLine
 10
191.2566897342
 20
94.0178008673
 30
0.0
 11
194.4943645365
 21
94.0178008673
 31
0.0
  0
LINE
  5
200
330
1F
100
AcDbEntity
  8
0
  6
HIDDEN
 62
     7
370
     0
100
AcDbLine
 10
225.0096744748
 20
92.4845022274
 30
0.0
 11
227.633749169
 21
88.8811810358
 31
0.0
  0
LWPOLYLINE
  5
201
330
1F
100
AcDbEntity
  8
0
  6
HIDDEN
 62
     7
370
     0
100
AcDbPolyline
 90
       29
 70
   128
 43
0.0
 10
208.3066897342
 20
123.7550855848
 10
208.974252536
 20
123.8257657526
 10
209.6083409515
 20
124.034262057
 10
210.1771591397
 20
124.3701196229
 10
210.6521841816
 20
124.8164971494
 10
211.0095963379
 20
125.3510114034
 10
211.2314734707
 20
125.9468596084
 10
211.3066897342
 20
126.5741634472
 10
211.2314734707
 20
127.201467286
 10
211.0095963379
 20
127.797315491
 10
210.6521841816
 20
128.331829745
 10
210.1771591397
 20
128.7782072715
 10
209.6083409515
 20
129.1140648374
 10
208.974252536
 20
129.3225611418
 10
208.3066897342
 20
129.3932413096
 10
207.6391269323
 20
129.3225611418
 10
207.0050385168
 20
129.1140648374
 10
206.4362203286
 20
128.7782072715
 10
205.9611952868
 20
128.331829745
 10
205.6037831304
 20
127.797315491
 10
205.3819059976
 20
127.201467286
 10
205.3066897342
 20
126.5741634472
 10
205.3819059976
 20
125.9468596084
 10
205.6037831304
 20
125.3510114034
 10
205.9611952868
 20
124.8164971494
 10
206.4362203286
 20
124.3701196229
 10
207.0050385168
 20
124.034262057
 10
207.6391269323
 20
123.8257657526
 10
208.3066897342
 20
123.7550855848
  0
CIRCLE
  5
202
330
1F
100
AcDbEntity
  8
0
  6
HIDDEN
 62
     7
370
     0
100
AcDbCircle
 10
185.3066897342
 20
120.4178008673
 30
0.0
 40
5.0
  0
LINE
  5
203
330
1F
100
AcDbEntity
  8
0
  6
HIDDEN
 62
     7
370
     0
100
AcDbLine
 10
238.550971706
 20
87.1016737819
 30
0.0
 11
238.3996177469
 21
86.5904538279
 31
0.0
  0
LINE
  5
204
330
1F
100
AcDbEntity
  8
0
  6
HIDDEN
 62
     7
370
     0
100
AcDbLine
 10
236.3455489266
 20
90.4654933991
 30
0.0
 11
238.5508236951
 21
87.1011693241
 31
0.0
  0
ELLIPSE
  5
205
330
1F
100
AcDbEntity
  8
0
  6
HIDDEN
 62
     7
370
     0
100
AcDbEllipse
 10
243.525114531
 20
95.0392934451
 30
0.0
 11
6.244531146197517
 21
-6.149662686701831
 31
3.552713678800501E-15
210
-2.888205087713080E-16
220
2.844326762669260E-16
230
1.0
 40
0.9698463104
 41
3.934644933755902
 42
4.493150294394089
  0
LINE
  5
206
330
1F
100
AcDbEntity
  8
0
  6
HIDDEN
 62
     7
370
     0
100
AcDbLine
 10
234.1169273928
 20
120.4178008673
 30
0.0
 11
234.8939883299
 21
95.0392934451
 31
0.0
  0
LINE
  5
207
330
1F
100
AcDbEntity
  8
0
  6
HIDDEN
 62
     7
370
     0
100
AcDbLine
 10
178.3066897342
 20
95.0938769462
 30
0.0
 11
178.4008505754
 21
95.763866145
 31
0.0
  0
LINE
  5
208
330
1F
100
AcDbEntity
  8
0
  6
HIDDEN
 62
     7
370
     0
100
AcDbLine
 10
178.4008505754
 20
145.0717355896
 30
0.0
 11
178.3066897342
 21
145.7417247885
 31
0.0
  0
ARC
  5
209
330
1F
100
AcDbEntity
  8
0
  6
HIDDEN
 62
     7
370
     0
100
AcDbCircle
 10
177.8066897342
 20
95.8473700056
 30
0.0
 40
0.6000000000000152
100
AcDbArc
 50
352.0
 51
0.0
  0
ARC
  5
20A
330
1F
100
AcDbEntity
  8
0
  6
HIDDEN
 62
     7
370
     0
100
AcDbCircle
 10
177.8066897342
 20
95.8473700056
 30
0.0
 40
0.5999999999999943
100
AcDbArc
 50
0.0
 51
33.5573097619
  0
ARC
  5
20B
330
1F
100
AcDbEntity
  8
0
  6
HIDDEN
 62
     7
370
     0
100
AcDbCircle
 10
177.8066897342
 20
144.9882317291
 30
0.0
 40
0.6000000000000093
100
AcDbArc
 50
348.75
 51
8.0
  0
LWPOLYLINE
  5
20C
330
1F
100
AcDbEntity
  8
0
  6
HIDDEN
 62
     7
370
     0
100
AcDbPolyline
 90
        3
 70
   128
 43
0.0
 10
178.3951609024
 20
144.8711775359
 10
178.3610174537
 20
144.7586216696
 10
178.3066897342
 20
144.65656925
  0
LINE
  5
20D
330
1F
100
AcDbEntity
  8
0
  6
HIDDEN
 62
     7
370
     0
100
AcDbLine
 10
178.4066897342
 20
95.8473700056
 30
0.0
 11
178.4066897342
 21
144.9882317291
 31
0.0
  0
LINE
  5
20E
330
1F
100
AcDbEntity
  8
0
  6
HIDDEN
 62
     7
370
     0
100
AcDbLine
 10
178.4066897342
 20
95.8473700056
 30
0.0
 11
178.4066897342
 21
144.9882317291
 31
0.0
  0
LINE
  5
20F
330
1F
100
AcDbEntity
  8
0
  6
HIDDEN
 62
     7
370
     0
100
AcDbLine
 10
207.6234022233
 20
116.2340019559
 30
0.0
 11
205.6803248783
 21
115.3976996388
 31
0.0
  0
LINE
  5
210
330
1F
100
AcDbEntity
  8
0
  6
HIDDEN
 62
     7
370
     0
100
AcDbLine
 10
205.6803248783
 20
115.3976996388
 30
0.0
 11
204.9701110404
 21
113.4050763832
 31
0.0
  0
LINE
  5
211
330
1F
100
AcDbEntity
  8
0
  6
HIDDEN
 62
     7
370
     0
100
AcDbLine
 10
210.3326408998
 20
114.4617629286
 30
0.0
 11
208.4150451183
 21
116.2603044061
 31
0.0
  0
LINE
  5
212
330
1F
100
AcDbEntity
  8
0
  6
HIDDEN
 62
     7
370
     0
100
AcDbLine
 10
213.4480725478
 20
111.5397534555
 30
0.0
 11
210.3326408998
 21
114.4617629286
 31
0.0
  0
LINE
  5
213
330
1F
100
AcDbEntity
  8
0
  6
HIDDEN
 62
     7
370
     0
100
AcDbLine
 10
204.9945344224
 20
112.6133732882
 30
0.0
 11
213.6138809623
 21
104.5291605409
 31
0.0
  0
LINE
  5
214
330
1F
100
AcDbEntity
  8
0
  6
HIDDEN
 62
     7
370
     0
100
AcDbLine
 10
210.8066897342
 20
113.5277005771
 30
0.0
 11
210.8066897342
 21
118.9815825289
 31
0.0
  0
LINE
  5
215
330
1F
100
AcDbEntity
  8
0
  6
HIDDEN
 62
     7
370
     0
100
AcDbLine
 10
205.8066897342
 20
118.9840639493
 30
0.0
 11
205.8066897342
 21
113.3525857955
 31
0.0
  0
LINE
  5
216
330
1F
100
AcDbEntity
  8
0
  6
HIDDEN
 62
     7
370
     0
100
AcDbLine
 10
161.3891252995
 20
100.4178008673
 30
0.0
 11
165.5598071153
 21
100.4178008673
 31
0.0
  0
LINE
  5
217
330
1F
100
AcDbEntity
  8
0
  6
HIDDEN
 62
     7
370
     0
100
AcDbLine
 10
165.5598071153
 20
140.4178008673
 30
0.0
 11
161.3891252995
 21
140.4178008673
 31
0.0
  0
ARC
  5
218
330
1F
100
AcDbEntity
  8
0
  6
HIDDEN
 62
     7
370
     0
100
AcDbCircle
 10
172.0616917358
 20
108.4178008673
 30
0.0
 40
7.999999999999998
100
AcDbArc
 50
277.1309890167
 51
321.3178125465
  0
ARC
  5
219
330
1F
100
AcDbEntity
  8
0
  6
HIDDEN
 62
     7
370
     0
100
AcDbCircle
 10
172.0616917358
 20
132.4178008673
 30
0.0
 40
8.000000000000021
100
AcDbArc
 50
38.6821874535
 51
82.8543929986
  0
ARC
  5
21A
330
1F
100
AcDbEntity
  8
0
  6
HIDDEN
 62
     7
370
     0
100
AcDbCircle
 10
161.3891252995
 20
101.0178008673
 30
0.0
 40
0.5999999999999909
100
AcDbArc
 50
210.0
 51
270.0
  0
ARC
  5
21B
330
1F
100
AcDbEntity
  8
0
  6
HIDDEN
 62
     7
370
     0
100
AcDbCircle
 10
161.3891252995
 20
139.8178008673
 30
0.0
 40
0.6000000000000227
100
AcDbArc
 50
90.0
 51
150.0
  0
LINE
  5
21C
330
1F
100
AcDbEntity
  8
0
  6
HIDDEN
 62
     7
370
     0
100
AcDbLine
 10
160.8695100572
 20
140.1178008673
 30
0.0
 11
159.3106643304
 21
137.4178008673
 31
0.0
  0
LINE
  5
21D
330
1F
100
AcDbEntity
  8
0
  6
HIDDEN
 62
     7
370
     0
100
AcDbLine
 10
159.3106643304
 20
103.4178008673
 30
0.0
 11
160.8695100572
 21
100.7178008673
 31
0.0
  0
ARC
  5
21E
330
1F
100
AcDbEntity
  8
0
  6
HIDDEN
 62
     7
370
     0
100
AcDbCircle
 10
186.7566897342
 20
104.6928008673
 30
0.0
 40
1.500000000000001
100
AcDbArc
 50
238.2116693829
 51
0.0
  0
ARC
  5
21F
330
1F
100
AcDbEntity
  8
0
  6
HIDDEN
 62
     7
370
     0
100
AcDbCircle
 10
186.7566897342
 20
136.1428008673
 30
0.0
 40
1.500000000000001
100
AcDbArc
 50
360.0
 51
121.7883306171
  0
LINE
  5
220
330
1F
100
AcDbEntity
  8
0
  6
HIDDEN
 62
     7
370
     0
100
AcDbLine
 10
178.3066897342
 20
103.4178008673
 30
0.0
 11
185.9665157027
 21
103.4178008673
 31
0.0
  0
LINE
  5
221
330
1F
100
AcDbEntity
  8
0
  6
HIDDEN
 62
     7
370
     0
100
AcDbLine
 10
185.9665157027
 20
137.4178008673
 30
0.0
 11
178.3066897342
 21
137.4178008673
 31
0.0
  0
LINE
  5
222
330
1F
100
AcDbEntity
  8
0
  6
HIDDEN
 62
     7
370
     0
100
AcDbLine
 10
156.5066897342
 20
103.4178008673
 30
0.0
 11
159.3106643304
 21
103.4178008673
 31
0.0
  0
LINE
  5
223
330
1F
100
AcDbEntity
  8
0
  6
HIDDEN
 62
     7
370
     0
100
AcDbLine
 10
159.3106643304
 20
137.4178008673
 30
0.0
 11
152.5066897342
 21
137.4178008673
 31
0.0
  0
LINE
  5
224
330
1F
100
AcDbEntity
  8
0
  6
HIDDEN
 62
     7
370
     0
100
AcDbLine
 10
197.6066897342
 20
110.9178008673
 30
0.0
 11
200.1066897342
 21
110.9178008673
 31
0.0
  0
LINE
  5
225
330
1F
100
AcDbEntity
  8
0
  6
HIDDEN
 62
     7
370
     0
100
AcDbLine
 10
200.1066897342
 20
129.9178008673
 30
0.0
 11
197.6066897342
 21
129.9178008673
 31
0.0
  0
LINE
  5
226
330
1F
100
AcDbEntity
  8
0
  6
HIDDEN
 62
     7
370
     0
100
AcDbLine
 10
188.2566897342
 20
111.4178008673
 30
0.0
 11
188.7566897342
 21
111.9178008673
 31
0.0
  0
LINE
  5
227
330
1F
100
AcDbEntity
  8
0
  6
HIDDEN
 62
     7
370
     0
100
AcDbLine
 10
188.7566897342
 20
128.9178008673
 30
0.0
 11
188.2566897342
 21
129.4178008673
 31
0.0
  0
LINE
  5
228
330
1F
100
AcDbEntity
  8
0
  6
HIDDEN
 62
     7
370
     0
100
AcDbLine
 10
188.7566897342
 20
111.9178008673
 30
0.0
 11
197.6066897342
 21
111.9178008673
 31
0.0
  0
LINE
  5
229
330
1F
100
AcDbEntity
  8
0
  6
HIDDEN
 62
     7
370
     0
100
AcDbLine
 10
197.6066897342
 20
128.9178008673
 30
0.0
 11
188.7566897342
 21
128.9178008673
 31
0.0
  0
LINE
  5
22A
330
1F
100
AcDbEntity
  8
0
  6
HIDDEN
 62
     7
370
     0
100
AcDbLine
 10
183.2566897342
 20
151.9178008673
 30
0.0
 11
183.2566897342
 21
146.8178008673
 31
0.0
  0
LINE
  5
22B
330
1F
100
AcDbEntity
  8
0
  6
HIDDEN
 62
     7
370
     0
100
AcDbLine
 10
230.0499174427
 20
96.5346963095
 30
0.0
 11
229.3415374893
 21
97.2323143798
 31
0.0
  0
LINE
  5
22C
330
1F
100
AcDbEntity
  8
0
  6
HIDDEN
 62
     7
370
     0
100
AcDbLine
 10
224.4298205872
 20
92.2448263273
 30
0.0
 11
225.1382005406
 21
91.5472082571
 31
0.0
  0
LINE
  5
22D
330
1F
100
AcDbEntity
  8
0
  6
HIDDEN
 62
     7
370
     0
100
AcDbLine
 10
234.8292748488
 20
88.6534309994
 30
0.0
 11
229.7044168964
 21
94.8138043885
 31
0.0
  0
LINE
  5
22E
330
1F
100
AcDbEntity
  8
0
  6
HIDDEN
 62
     7
370
     0
100
AcDbLine
 10
173.4911275646
 20
96.3384295338
 30
0.0
 11
173.0566954151
 21
96.8174955529
 31
0.0
  0
LINE
  5
22F
330
1F
100
AcDbEntity
  8
0
  6
HIDDEN
 62
     7
370
     0
100
AcDbLine
 10
165.5566920901
 20
97.239183512
 30
0.0
 11
165.0742583467
 21
96.7601175366
 31
0.0
  0
LINE
  5
230
330
1F
100
AcDbEntity
  8
0
  6
HIDDEN
 62
     7
370
     0
100
AcDbLine
 10
165.0741364185
 20
144.0754789077
 30
0.0
 11
165.5566871695
 21
143.5963586498
 31
0.0
  0
LINE
  5
231
330
1F
100
AcDbEntity
  8
0
  6
HIDDEN
 62
     7
370
     0
100
AcDbLine
 10
173.0566896162
 20
144.0180564274
 30
0.0
 11
173.4912320065
 21
144.497176678
 31
0.0
  0
LINE
  5
232
330
1F
100
AcDbEntity
  8
0
  6
HIDDEN
 62
     7
370
     0
100
AcDbLine
 10
212.4066897342
 20
116.2178008673
 30
0.0
 11
214.9303043341
 21
120.4178008673
 31
0.0
  0
LINE
  5
233
330
1F
100
AcDbEntity
  8
0
  6
HIDDEN
 62
     7
370
     0
100
AcDbLine
 10
214.9303043341
 20
120.4178008673
 30
0.0
 11
212.4066897342
 21
124.6178008673
 31
0.0
  0
LINE
  5
234
330
1F
100
AcDbEntity
  8
0
  6
HIDDEN
 62
     7
370
     0
100
AcDbLine
 10
200.1066897342
 20
116.2178008673
 30
0.0
 11
212.4066897342
 21
116.2178008673
 31
0.0
  0
LINE
  5
235
330
1F
100
AcDbEntity
  8
0
  6
HIDDEN
 62
     7
370
     0
100
AcDbLine
 10
212.4066897342
 20
124.6178008673
 30
0.0
 11
200.1066897342
 21
124.6178008673
 31
0.0
  0
LINE
  5
236
330
1F
100
AcDbEntity
  8
0
  6
HIDDEN
 62
     7
370
     0
100
AcDbLine
 10
173.0566897342
 20
96.8179794546
 30
0.0
 11
173.0566897342
 21
100.4799646767
 31
0.0
  0
LINE
  5
237
330
1F
100
AcDbEntity
  8
0
  6
HIDDEN
 62
     7
370
     0
100
AcDbLine
 10
165.5566897342
 20
100.4183851286
 30
0.0
 11
165.5566897342
 21
97.2395067498
 31
0.0
  0
LINE
  5
238
330
1F
100
AcDbEntity
  8
0
  6
HIDDEN
 62
     7
370
     0
100
AcDbLine
 10
173.0566897342
 20
140.355637058
 30
0.0
 11
173.0566897342
 21
144.0177651214
 31
0.0
  0
LINE
  5
239
330
1F
100
AcDbEntity
  8
0
  6
HIDDEN
 62
     7
370
     0
100
AcDbLine
 10
165.5566897342
 20
143.5962148705
 30
0.0
 11
165.5566897342
 21
140.4172166061
 31
0.0
  0
LINE
  5
23A
330
1F
100
AcDbEntity
  8
0
  6
HIDDEN
 62
     7
370
     0
100
AcDbLine
 10
229.7596723334
 20
97.8029904373
 30
0.0
 11
224.6025570957
 21
102.8817575066
 31
0.0
  0
LINE
  5
23B
330
1F
100
AcDbEntity
  8
0
  6
HIDDEN
 62
     7
370
     0
100
AcDbLine
 10
221.1526518946
 20
94.4897489698
 30
0.0
 11
223.8656120509
 21
91.8180047743
 31
0.0
  0
LINE
  5
23C
330
1F
100
AcDbEntity
  8
0
  6
HIDDEN
 62
     7
370
     0
100
AcDbLine
 10
210.8066897342
 20
121.8515377854
 30
0.0
 11
210.8066897342
 21
126.4714102297
 31
0.0
  0
LINE
  5
23D
330
1F
100
AcDbEntity
  8
0
  6
HIDDEN
 62
     7
370
     0
100
AcDbLine
 10
205.8066897342
 20
126.4714102297
 30
0.0
 11
205.8066897342
 21
121.8540192058
 31
0.0
  0
ARC
  5
23E
330
1F
100
AcDbEntity
  8
0
  6
HIDDEN
 62
     7
370
     0
100
AcDbCircle
 10
155.1066897342
 20
98.1478008673
 30
0.0
 40
1.399999999999989
100
AcDbArc
 50
41.1788388679
 51
90.0
  0
ARC
  5
23F
330
1F
100
AcDbEntity
  8
0
  6
HIDDEN
 62
     7
370
     0
100
AcDbCircle
 10
151.1066897342
 20
142.6878008673
 30
0.0
 40
1.400000000000015
100
AcDbArc
 50
270.0
 51
301.7485287426
  0
LINE
  5
240
330
1F
100
AcDbEntity
  8
0
  6
HIDDEN
 62
     7
370
     0
100
AcDbLine
 10
237.5708879511
 20
85.8258088665
 30
0.0
 11
236.5984581562
 21
86.7834652678
 31
0.0
  0
LINE
  5
241
330
1F
100
AcDbEntity
  8
0
  6
HIDDEN
 62
     7
370
     0
100
AcDbLine
 10
232.10774556
 20
82.2234761913
 30
0.0
 11
233.0801753549
 21
81.26581979
 31
0.0
  0
LINE
  5
242
330
1F
100
AcDbEntity
  8
0
  6
HIDDEN
 62
     7
370
     0
100
AcDbLine
 10
147.5566897342
 20
99.5478008673
 30
0.0
 11
155.1066897342
 21
99.5478008673
 31
0.0
  0
LINE
  5
243
330
1F
100
AcDbEntity
  8
0
  6
HIDDEN
 62
     7
370
     0
100
AcDbLine
 10
147.5464511127
 20
99.5537121382
 30
0.0
 11
147.5566897342
 21
99.5478008673
 31
0.0
  0
LINE
  5
244
330
1F
100
AcDbEntity
  8
0
  6
HIDDEN
 62
     7
370
     0
100
AcDbLine
 10
146.6282135481
 20
100.0838568433
 30
0.0
 11
146.6323124083
 21
100.0814903653
 31
0.0
  0
LINE
  5
245
330
1F
100
AcDbEntity
  8
0
  6
HIDDEN
 62
     7
370
     0
100
AcDbLine
 10
147.5402298897
 20
141.2782977717
 30
0.0
 11
147.5395584148
 21
141.2779100955
 31
0.0
  0
LINE
  5
246
330
1F
100
AcDbEntity
  8
0
  6
HIDDEN
 62
     7
370
     0
100
AcDbLine
 10
146.6719765602
 20
140.7770114782
 30
0.0
 11
146.6559263284
 21
140.7677448726
 31
0.0
  0
LINE
  5
247
330
1F
100
AcDbEntity
  8
0
  6
HIDDEN
 62
     7
370
     0
100
AcDbLine
 10
151.1066897342
 20
141.2878008673
 30
0.0
 11
147.680955468
 21
141.2878008673
 31
0.0
  0
LINE
  5
248
330
1F
100
AcDbEntity
  8
0
  6
HIDDEN
 62
     7
370
     0
100
AcDbLine
 10
227.6781046225
 20
88.8242231354
 30
0.0
 11
231.5996701917
 21
84.1102762513
 31
0.0
  0
LINE
  5
249
330
1F
100
AcDbEntity
  8
0
  6
HIDDEN
 62
     7
370
     0
100
AcDbLine
 10
211.3066897342
 20
126.5741634472
 30
0.0
 11
211.3066897342
 21
129.3103216762
 31
0.0
  0
LINE
  5
24A
330
1F
100
AcDbEntity
  8
0
  6
HIDDEN
 62
     7
370
     0
100
AcDbLine
 10
205.3066897342
 20
129.3099381985
 30
0.0
 11
205.3066897342
 21
126.5741634472
 31
0.0
  0
LINE
  5
24B
330
1F
100
AcDbEntity
  8
VERMASSUNG
100
AcDbLine
 10
248.3066897342
 20
75.4178008673
 30
0.0
 11
224.3906359562
 21
75.4178008673
 31
0.0
  0
DIMENSION
  5
24C
330
1F
100
AcDbEntity
  8
VERMASSUNG
100
AcDbDimension
  2
*D1
 10
224.3906359562
 20
75.4178008673
 30
0.0
 11
218.8480743166
 21
76.7887904387
 31
0.0
 70
   162
 71
     1
 42
-1.0
  3
SLDDIMSTYLE0
100
AcDb2LineAngularDimension
 13
224.745321975
 23
77.8525998285
 33
0.0
 14
232.0909318694
 24
77.4676327264
 34
0.0
 15
248.3066897342
 25
75.4178008673
 35
0.0
 16
218.8480743166
 26
76.7887904387
 36
0.0
  0
DIMENSION
  5
259
330
1F
100
AcDbEntity
  8
VERMASSUNG
100
AcDbDimension
  2
*D2
 10
178.3066897342
 20
157.6321718503
 30
0.0
 11
213.3066897342
 21
157.6321718503
 31
0.0
 70
   160
 71
     2
 42
-1.0
  3
SLDDIMSTYLE1
100
AcDbAlignedDimension
 13
248.3066897342
 23
75.4178008673
 33
0.0
 14
178.3066897342
 24
151.6178008673
 34
0.0
100
AcDbRotatedDimension
  0
DIMENSION
  5
264
330
1F
100
AcDbEntity
  8
VERMASSUNG
100
AcDbDimension
  2
*D3
 10
146.4066897342
 20
163.6321718503
 30
0.0
 11
197.3566897342
 21
163.6321718503
 31
0.0
 70
   160
 71
     2
 42
-1.0
  3
SLDDIMSTYLE1
100
AcDbAlignedDimension
 13
248.3066897342
 23
75.4178008673
 33
0.0
 14
146.4066897342
 24
140.393861372
 34
0.0
 50
0.0
100
AcDbRotatedDimension
  0
DIMENSION
  5
26E
330
1F
100
AcDbEntity
  8
VERMASSUNG
100
AcDbDimension
  2
*D4
 10
256.3747930686
 20
75.4178008673
 30
0.0
 11
256.3747930686
 21
97.9178008673
 31
0.0
 70
   160
 71
     2
 42
-1.0
  3
SLDDIMSTYLE1
100
AcDbAlignedDimension
 13
244.9278283892
 23
120.4178008673
 33
0.0
 14
248.3066897342
 24
75.4178008673
 34
0.0
 50
90.0
100
AcDbRotatedDimension
  0
DIMENSION
  5
278
330
1F
100
AcDbEntity
  8
VERMASSUNG
100
AcDbDimension
  2
*D5
 10
136.2724262204
 20
88.9178008673
 30
0.0
 11
136.2724262204
 21
120.4178008673
 31
0.0
 70
   160
  1
HSK %%c<>
 71
     2
 42
-1.0
  3
SLDDIMSTYLE1
100
AcDbAlignedDimension
 13
178.6066897342
 23
151.9178008673
 33
0.0
 14
178.6066897342
 24
88.9178008673
 34
0.0
 50
90.0
100
AcDbRotatedDimension
  0
LINE
  5
284
330
1F
100
AcDbEntity
  8
VERMASSUNG
  6
CENTERX2
370
     0
100
AcDbLine
 10
244.9278283892
 20
120.4178008673
 30
0.0
 11
139.223286642
 21
120.4178008673
 31
0.0
  0
LINE
  5
285
330
1F
100
AcDbEntity
  8
0
  6
Continuous
 62
     7
370
    15
100
AcDbLine
 10
65.1708114041
 20
80.2517953751
 30
0.0
 11
65.2697071513
 21
80.2649568258
 31
0.0
  0
LINE
  5
286
330
1F
100
AcDbEntity
  8
0
  6
Continuous
 62
     7
370
    15
100
AcDbLine
 10
60.6522850307
 20
97.6134269921
 30
0.0
 11
60.4600935789
 21
97.3296585915
 31
0.0
  0
LINE
  5
287
330
1F
100
AcDbEntity
  8
0
  6
Continuous
 62
     7
370
    15
100
AcDbLine
 10
61.6565855766
 20
90.5440162358
 30
0.0
 11
61.9342403101
 21
90.3430964289
 31
0.0
  0
LINE
  5
288
330
1F
100
AcDbEntity
  8
0
  6
Continuous
 62
     7
370
    15
100
AcDbLine
 10
67.745664945
 20
75.4179853437
 30
0.0
 11
72.3621334495
 21
76.2319948015
 31
0.0
  0
LINE
  5
289
330
1F
100
AcDbEntity
  8
0
  6
Continuous
 62
     7
370
    15
100
AcDbLine
 10
64.9908375075
 20
77.7278106151
 30
0.0
 11
65.4455774078
 21
77.1547231314
 31
0.0
  0
SPLINE
  5
28A
330
1F
100
AcDbEntity
  8
0
  6
Continuous
 62
     7
370
    15
100
AcDbSpline
210
0.0
220
0.0
230
1.0
 70
     8
 71
     3
 72
    10
 73
     6
 74
     0
 42
0.00000001
 43
0.00000001
 40
0.0
 40
0.0
 40
0.0
 40
0.0
 40
0.073331220596136
 40
0.6865127316756522
 40
1.0
 40
1.0
 40
1.0
 40
1.0
 10
65.45922081785916
 20
77.16252016403402
 30
0.0
 10
65.46491202024838
 20
77.1574105580442
 30
0.0
 10
65.51819195841074
 20
77.10957541310415
 30
0.0
 10
65.52616993477555
 20
77.05026394249343
 30
0.0
 10
65.5280616988488
 20
77.04955843670419
 30
0.0
 10
65.52870167287706
 20
77.04931976773467
 30
0.0
  0
SPLINE
  5
28B
330
1F
100
AcDbEntity
  8
0
  6
Continuous
 62
     7
370
    15
100
AcDbSpline
210
0.0
220
0.0
230
1.0
 70
     8
 71
     3
 72
    11
 73
     7
 74
     0
 42
0.00000001
 43
0.00000001
 40
0.0
 40
0.0
 40
0.0
 40
0.0
 40
0.0373140816252441
 40
0.4812319684365539
 40
0.8968963299966626
 40
0.9999999999999999
 40
0.9999999999999999
 40
0.9999999999999999
 40
0.9999999999999999
 10
63.00536604466559
 20
87.22497256972518
 30
0.0
 10
63.00504414502936
 20
87.22595318065066
 30
0.0
 10
63.00089267221173
 20
87.23859991629008
 30
0.0
 10
63.00886407164715
 20
87.19208216338238
 30
0.0
 10
63.02191330205719
 20
87.0895331872928
 30
0.0
 10
62.98222042822993
 20
87.00529009566237
 30
0.0
 10
62.97433158251167
 20
86.9885470209333
 30
0.0
  0
LINE
  5
28C
330
1F
100
AcDbEntity
  8
0
  6
Continuous
 62
     7
370
    15
100
AcDbLine
 10
62.9686044143
 20
86.9913745163
 30
0.0
 11
62.7260558853
 21
86.2635906277
 31
0.0
  0
LINE
  5
28D
330
1F
100
AcDbEntity
  8
0
  6
Continuous
 62
     7
370
    15
100
AcDbLine
 10
61.8307857389
 20
88.4692307053
 30
0.0
 11
61.5380407857
 21
88.4176130829
 31
0.0
  0
LINE
  5
28E
330
1F
100
AcDbEntity
  8
0
  6
Continuous
 62
     7
370
    15
100
AcDbLine
 10
72.3876968572
 20
76.2969191609
 30
0.0
 11
76.4858514616
 21
77.0195323465
 31
0.0
  0
LINE
  5
28F
330
1F
100
AcDbEntity
  8
0
  6
Continuous
 62
     7
370
    15
100
AcDbLine
 10
76.5132844994
 20
77.0402822135
 30
0.0
 11
76.7439144278
 21
77.3808035491
 31
0.0
  0
LINE
  5
290
330
1F
100
AcDbEntity
  8
0
  6
Continuous
 62
     7
370
    15
100
AcDbLine
 10
73.397312461
 20
89.4383649764
 30
0.0
 11
73.0922852257
 21
89.6590940145
 31
0.0
  0
ELLIPSE
  5
291
330
1F
100
AcDbEntity
  8
0
  6
Continuous
 62
     7
370
    15
100
AcDbEllipse
 10
64.7648116809
 20
82.5684851887
 30
0.0
 11
-0.4089770073148458
 21
2.316228079400403
 31
0.0
210
0.0
220
0.0
230
1.0
 40
0.1735823891
 41
2.069622238189392
 42
3.415822974261823
  0
LWPOLYLINE
  5
292
330
1F
100
AcDbEntity
  8
0
  6
Continuous
 62
     7
370
    15
100
AcDbPolyline
 90
       31
 70
   128
 43
0.0
 10
60.4175665961
 20
97.2469888119
 10
60.5197629506
 20
97.3888664929
 10
60.6501099268
 20
97.3806894807
 10
60.8029106246
 20
97.2228098152
 10
60.9714879269
 20
96.922132322
 10
61.1484732093
 20
96.4917979626
 10
61.326131838
 20
95.9506101397
 10
61.4966989109
 20
95.3222263096
 10
61.6527201222
 20
94.6341055868
 10
61.7873767936
 20
93.9163259653
 10
61.8947834322
 20
93.2002543894
 10
61.9702461721
 20
92.5171907482
 10
62.0104667345
 20
91.8969839303
 10
62.0136867823
 20
91.366742873
 10
61.9797666171
 20
90.9496407447
 10
61.9101879733
 20
90.6639053909
 10
61.8079920845
 20
90.5220277099
 10
61.6776451083
 20
90.5302065847
 10
61.5248439448
 20
90.6880843876
 10
61.3562671082
 20
90.9887618808
 10
61.1792818257
 20
91.4190981028
 10
61.0016231971
 20
91.960284063
 10
60.8310556585
 20
92.5886697558
 10
60.6750344472
 20
93.276788616
 10
60.5403777758
 20
93.9945682374
 10
60.4329711372
 20
94.7106398133
 10
60.3575083973
 20
95.3937034545
 10
60.3172883006
 20
96.0139102725
 10
60.3140677871
 20
96.5441513298
 10
60.3479879523
 20
96.9612553207
 10
60.4175665961
 20
97.2469888119
  0
LWPOLYLINE
  5
293
330
1F
100
AcDbEntity
  8
0
  6
Continuous
 62
     7
370
    15
100
AcDbPolyline
 90
       24
 70
   128
 43
0.0
 10
60.7374144332
 20
95.8363275466
 10
60.8169153878
 20
95.9251198409
 10
60.9221492508
 20
95.8678323267
 10
61.0453106077
 20
95.6687099723
 10
61.177265978
 20
95.3425216911
 10
61.3082280928
 20
94.9134632436
 10
61.4284841889
 20
94.4133504716
 10
61.5291159214
 20
93.8792798159
 10
61.6026596712
 20
93.3508567003
 10
61.6436606819
 20
92.8672730414
 10
61.6490786509
 20
92.4643940715
 10
61.6185112471
 20
92.1721003441
 10
61.554225775
 20
92.0120693234
 10
61.4609896751
 20
91.9961697844
 10
61.3457184831
 20
92.1255807815
 10
61.2169608088
 20
92.3907041041
 10
61.084266434
 20
92.7718776701
 10
60.9574761787
 20
93.240832114
 10
60.8459936069
 20
93.7627844004
 10
60.7580874661
 20
94.2990269003
 10
60.7002765486
 20
94.8097884146
 10
60.6768486636
 20
95.2571864662
 10
60.6895421246
 20
95.6080398945
 10
60.7374144332
 20
95.8363275466
  0
SPLINE
  5
294
330
1F
100
AcDbEntity
  8
0
  6
Continuous
 62
     7
370
    15
100
AcDbSpline
210
0.0
220
0.0
230
1.0
 70
     8
 71
     3
 72
     9
 73
     5
 74
     0
 42
0.00000001
 43
0.00000001
 40
0.0
 40
0.0
 40
0.0
 40
0.0
 40
0.5562942214294073
 40
1.0
 40
1.0
 40
1.0
 40
1.0
 10
61.18380339684607
 20
95.30284176149097
 30
0.0
 10
61.16034437124461
 20
95.27666448182883
 30
0.0
 10
61.1181741945687
 20
95.2296079447416
 30
0.0
 10
61.0374866567943
 20
95.1796470216696
 30
0.0
 10
61.00168513002517
 20
95.15747907139983
 30
0.0
  0
SPLINE
  5
295
330
1F
100
AcDbEntity
  8
0
  6
Continuous
 62
     7
370
    15
100
AcDbSpline
210
0.0
220
0.0
230
1.0
 70
     8
 71
     3
 72
    10
 73
     6
 74
     0
 42
0.00000001
 43
0.00000001
 40
0.0
 40
0.0
 40
0.0
 40
0.0
 40
0.4391164674738139
 40
0.7513672447697393
 40
1.0
 40
1.0
 40
1.0
 40
1.0
 10
61.00168513002517
 20
95.15747907139983
 30
0.0
 10
61.13247763679244
 20
94.93667383740653
 30
0.0
 10
61.35627522291259
 20
94.55885648691925
 30
0.0
 10
61.35799072857038
 20
93.95257223713516
 30
0.0
 10
61.26190957645914
 20
93.63371356057817
 30
0.0
 10
61.21931798624518
 20
93.49236744024482
 30
0.0
  0
SPLINE
  5
296
330
1F
100
AcDbEntity
  8
0
  6
Continuous
 62
     7
370
    15
100
AcDbSpline
210
0.0
220
0.0
230
1.0
 70
     8
 71
     3
 72
     9
 73
     5
 74
     0
 42
0.00000001
 43
0.00000001
 40
0.0
 40
0.0
 40
0.0
 40
0.0
 40
0.8914515802725639
 40
1.0
 40
1.0
 40
1.0
 40
1.0
 10
61.21931798624518
 20
93.49236744024482
 30
0.0
 10
61.39899054243606
 20
93.34774465886264
 30
0.0
 10
61.60054109231108
 20
93.18551175178993
 30
0.0
 10
61.63439808863475
 20
92.98224764198416
 30
0.0
 10
61.63807321208241
 20
92.96018364407745
 30
0.0
  0
LINE
  5
297
330
1F
100
AcDbEntity
  8
0
  6
Continuous
 62
     7
370
    15
100
AcDbLine
 10
61.2255005712
 20
95.1969429342
 30
0.0
 11
61.00168513
 21
95.1574790714
 31
0.0
  0
LINE
  5
298
330
1F
100
AcDbEntity
  8
0
  6
Continuous
 62
     7
370
    15
100
AcDbLine
 10
61.5773607591
 20
93.5554999349
 30
0.0
 11
61.2193179862
 21
93.4923674402
 31
0.0
  0
SPLINE
  5
299
330
1F
100
AcDbEntity
  8
0
  6
Continuous
 62
     7
370
    15
100
AcDbSpline
210
0.0
220
0.0
230
1.0
 70
     8
 71
     3
 72
    42
 73
    38
 74
     0
 42
0.00000001
 43
0.00000001
 40
0.0
 40
0.0
 40
0.0
 40
0.0
 40
0.0312360224479771
 40
0.062304556763001
 40
0.0932064321507268
 40
0.1239424944855788
 40
0.1545136065922019
 40
0.1849206485297265
 40
0.2151645178786615
 40
0.245246130030357
 40
0.2751664184788198
 40
0.3049263351147466
 40
0.3345268505216006
 40
0.3639689542735191
 40
0.3932536552348694
 40
0.4223819818612007
 40
0.451354982501374
 40
0.4801737257006038
 40
0.5088393005041332
 40
0.5373528167612475
 40
0.5657154054293267
 40
0.5939282188775776
 40
0.6219924311901223
 40
0.6499092384680345
 40
0.6776798591299739
 40
0.7053055342109399
 40
0.7327875276587574
 40
0.7601271266278138
 40
0.7873256417695339
 40
0.8143844075191311
 40
0.8413047823780593
 40
0.8680881491916226
 40
0.894735915421162
 40
0.9212495134102134
 40
0.9476304006439893
 40
0.9738800600015555
 40
1.0
 40
1.0
 40
1.0
 40
1.0
 10
94.81643318068014
 20
86.59158535258697
 30
0.0
 10
94.65980456065827
 20
86.46126666562384
 30
0.0
 10
94.34738716618642
 20
86.2013280629193
 30
0.0
 10
93.87135731083177
 20
85.81980719287971
 30
0.0
 10
93.39168131395556
 20
85.44580893005212
 30
0.0
 10
92.9078845182244
 20
85.07987190567454
 30
0.0
 10
92.42028048729121
 20
84.72187885350864
 30
0.0
 10
91.92897244660539
 20
84.37188340950459
 30
0.0
 10
91.43411863882515
 20
84.02989039610203
 30
0.0
 10
90.93586173901893
 20
83.69591426526956
 30
0.0
 10
90.4343475621782
 20
83.36996360922966
 30
0.0
 10
89.9297200387257
 20
83.05204532257571
 30
0.0
 10
89.42212249921768
 20
82.74216354174628
 30
0.0
 10
88.91169728345497
 20
82.44031997320312
 30
0.0
 10
88.39858579631614
 20
82.14651385301613
 30
0.0
 10
87.88292844620699
 20
81.86074200490535
 30
0.0
 10
87.36486461605966
 20
81.58299887256645
 30
0.0
 10
86.84453262702455
 20
81.31327655925347
 30
0.0
 10
86.3220697054436
 20
81.05156486582251
 30
0.0
 10
85.79761195028443
 20
80.79785132954306
 30
0.0
 10
85.27129430177723
 20
80.5521212630371
 30
0.0
 10
84.74325051105545
 20
80.31435779346954
 30
0.0
 10
84.213613110824
 20
80.08454190199006
 30
0.0
 10
83.68251338712082
 20
79.8626524631668
 30
0.0
 10
83.15008135184598
 20
79.64866628530352
 30
0.0
 10
82.61644571724682
 20
79.44255814822519
 30
0.0
 10
82.08173386791665
 20
79.24430085107629
 30
0.0
 10
81.54607184672318
 20
79.0538652235781
 30
0.0
 10
81.00958429383687
 20
78.87122027303747
 30
0.0
 10
80.47239456408242
 20
78.69633282897826
 30
0.0
 10
79.93462418849954
 20
78.52916904849332
 30
0.0
 10
79.3963947691682
 20
78.3696890306061
 30
0.0
 10
78.8578208666605
 20
78.21786695229763
 30
0.0
 10
78.31903625317783
 20
78.07361667818124
 30
0.0
 10
77.78009658613796
 20
77.93706748850194
 30
0.0
 10
77.24133983579634
 20
77.80754293746064
 30
0.0
 10
76.8809282973934
 20
77.72721267510128
 30
0.0
 10
76.70116889740572
 20
77.68714703284532
 30
0.0
  0
SPLINE
  5
29A
330
1F
100
AcDbEntity
  8
0
  6
Continuous
 62
     7
370
    15
100
AcDbSpline
210
0.0
220
0.0
230
1.0
 70
     8
 71
     3
 72
    33
 73
    29
 74
     0
 42
0.00000001
 43
0.00000001
 40
0.0
 40
0.0
 40
0.0
 40
0.0
 40
0.0283156503944621
 40
0.0566544997559559
 40
0.0850242571177612
 40
0.1134326063511154
 40
0.1418872000632549
 40
0.1703956536208202
 40
0.198965539321101
 40
0.2276043807322421
 40
0.2563196472220413
 40
0.2851187486932692
 40
0.314009030541707
 40
0.3429977688512044
 40
0.3720921658381359
 40
0.4012993455556625
 40
0.4306263498662468
 40
0.4600801346888505
 40
0.4896675665253891
 40
0.5456934006712237
 40
0.6017845619985391
 40
0.6579862217823261
 40
0.7143432855982657
 40
0.7709002888564882
 40
0.8277012966753876
 40
0.8847898091540848
 40
0.9422086729613168
 40
1.0
 40
1.0
 40
1.0
 40
1.0
 10
76.66949204908225
 20
78.11940699509684
 30
0.0
 10
76.86516818297306
 20
78.16302867150574
 30
0.0
 10
77.25668076789786
 20
78.25030776349318
 30
0.0
 10
77.84043922348839
 20
78.39168170829365
 30
0.0
 10
78.4218515118751
 20
78.54075642626351
 30
0.0
 10
79.00065529242885
 20
78.69828211735707
 30
0.0
 10
79.57692084171903
 20
78.86405733301426
 30
0.0
 10
80.15062915416004
 20
79.03813608350735
 30
0.0
 10
80.7217852093601
 20
79.22050376797554
 30
0.0
 10
81.2903875517364
 20
79.41116421264886
 30
0.0
 10
81.85643646423124
 20
79.61011628562856
 30
0.0
 10
82.41993177227212
 20
79.81736018384852
 30
0.0
 10
82.9808734322279
 20
80.03289574100869
 30
0.0
 10
83.5392613819506
 20
80.25672289183136
 30
0.0
 10
84.09509554862018
 20
80.4888415163374
 30
0.0
 10
84.64837596850167
 20
80.72925160065853
 30
0.0
 10
85.1991022971845
 20
80.9779527506891
 30
0.0
 10
85.7472756592667
 20
81.23494599009662
 30
0.0
 10
86.45453133604896
 20
81.5788169529468
 30
0.0
 10
87.31374926868615
 20
82.01844735238437
 30
0.0
 10
88.31518087132359
 20
82.56527171320393
 30
0.0
 10
89.29865592702234
 20
83.1373360135306
 30
0.0
 10
90.26417808731705
 20
83.73462805254486
 30
0.0
 10
91.21170704269127
 20
84.35718027627603
 30
0.0
 10
92.14139365373345
 20
85.0048648301733
 30
0.0
 10
93.052664741863
 20
85.6781537796108
 30
0.0
 10
93.94767418216985
 20
86.3752624135993
 30
0.0
 10
94.52608693238427
 20
86.85867940747063
 30
0.0
 10
94.81622828329733
 20
87.10116932423712
 30
0.0
  0
LINE
  5
29B
330
1F
100
AcDbEntity
  8
0
  6
Continuous
 62
     7
370
    15
100
AcDbLine
 10
94.8162289882
 20
87.1016729114
 30
0.0
 11
94.8162289882
 21
86.5904550491
 31
0.0
  0
LINE
  5
29C
330
1F
100
AcDbEntity
  8
0
  6
Continuous
 62
     7
370
    15
100
AcDbLine
 10
94.8162289882
 20
90.4654927043
 30
0.0
 11
94.8162289882
 21
87.1011699972
 31
0.0
  0
ARC
  5
29D
330
1F
100
AcDbEntity
  8
0
  6
Continuous
 62
     7
370
    15
100
AcDbCircle
 10
117.3848094172
 20
98.9061689735
 30
0.0
 40
44.90637260239208
100
AcDbArc
 50
191.8060394426
 51
192.982201471
  0
LINE
  5
29E
330
1F
100
AcDbEntity
  8
0
  6
Continuous
 62
     7
370
    15
100
AcDbLine
 10
73.428393955
 20
89.7183596579
 30
0.0
 11
64.4864110822
 21
88.1416473029
 31
0.0
  0
ARC
  5
29F
330
1F
100
AcDbEntity
  8
0
  6
Continuous
 62
     7
370
    15
100
AcDbCircle
 10
111.724979281
 20
98.0159211648
 30
0.0
 40
48.25954423507463
100
AcDbArc
 50
189.9943402192
 51
191.8065345585
  0
LINE
  5
2A0
330
1F
100
AcDbEntity
  8
0
  6
Continuous
 62
     7
370
    15
100
AcDbLine
 10
94.8162289882
 20
95.0392942367
 30
0.0
 11
94.8162289882
 21
90.4654927043
 31
0.0
  0
LINE
  5
2A1
330
1F
100
AcDbEntity
  8
0
  6
Continuous
 62
     7
370
    15
100
AcDbLine
 10
58.6774532298
 20
120.9477555429
 30
0.0
 11
52.145077529
 21
142.4045014618
 31
0.0
  0
LINE
  5
2A2
330
1F
100
AcDbEntity
  8
0
  6
Continuous
 62
     7
370
    15
100
AcDbLine
 10
64.1977783838
 20
89.6404340354
 30
0.0
 11
58.6774532298
 21
120.9477555429
 31
0.0
  0
LINE
  5
2A3
330
1F
100
AcDbEntity
  8
0
  6
Continuous
 62
     7
370
    15
100
AcDbLine
 10
61.1105423035
 20
88.555039042
 30
0.0
 11
64.4830420228
 21
88.1532478569
 31
0.0
  0
SPLINE
  5
2A4
330
1F
100
AcDbEntity
  8
0
  6
Continuous
 62
     7
370
    15
100
AcDbSpline
210
0.0
220
0.0
230
1.0
 70
     8
 71
     3
 72
     8
 73
     4
 74
     0
 42
0.00000001
 43
0.00000001
 40
0.0
 40
0.0
 40
0.0
 40
0.0
 40
1.0
 40
1.0
 40
1.0
 40
1.0
 10
59.70619605840027
 20
94.9360792594896
 30
0.0
 10
60.1725497045035
 20
92.80523444403902
 30
0.0
 10
60.64097804898745
 20
90.67890129109055
 30
0.0
 10
61.11054224593411
 20
88.55503817572034
 30
0.0
  0
SPLINE
  5
2A5
330
1F
100
AcDbEntity
  8
0
  6
Continuous
 62
     7
370
    15
100
AcDbSpline
210
0.0
220
0.0
230
1.0
 70
     8
 71
     3
 72
    12
 73
     8
 74
     0
 42
0.00000001
 43
0.00000001
 40
0.0
 40
0.0
 40
0.0
 40
0.0
 40
0.2500000000000026
 40
0.2500000000000026
 40
0.5000000000000051
 40
0.5000000000000051
 40
1.0
 40
1.0
 40
1.0
 40
1.0
 10
59.70619605840027
 20
94.9360792594896
 30
0.0
 10
59.68090160131967
 20
95.05165370214742
 30
0.0
 10
59.6541990044681
 20
95.15996182332734
 30
0.0
 10
59.59810050337133
 20
95.3626799869847
 30
0.0
 10
59.56839769673787
 20
95.45757783963563
 30
0.0
 10
59.48099524839343
 20
95.69883269008994
 30
0.0
 10
59.42195755007819
 20
95.81010814523204
 30
0.0
 10
59.37637665637356
 20
95.8257512488393
 30
0.0
  0
LINE
  5
2A6
330
1F
100
AcDbEntity
  8
0
  6
Continuous
 62
     7
370
    15
100
AcDbLine
 10
59.2870897112
 20
95.8565754268
 30
0.0
 11
59.3763766564
 21
95.8257512488
 31
0.0
  0
LINE
  5
2A7
330
1F
100
AcDbEntity
  8
0
  6
Continuous
 62
     7
370
    15
100
AcDbLine
 10
51.474385654
 20
140.6401691592
 30
0.0
 11
51.4010258603
 21
140.5806659728
 31
0.0
  0
SPLINE
  5
2A8
330
1F
100
AcDbEntity
  8
0
  6
Continuous
 62
     7
370
    15
100
AcDbSpline
210
0.0
220
0.0
230
1.0
 70
     8
 71
     3
 72
    10
 73
     6
 74
     0
 42
0.00000001
 43
0.00000001
 40
0.0
 40
0.0
 40
0.0
 40
0.0
 40
0.5
 40
0.5
 40
1.0
 40
1.0
 40
1.0
 40
1.0
 10
51.47438565403147
 20
140.6401691592046
 30
0.0
 10
51.51170127340762
 20
140.670324182139
 30
0.0
 10
51.52924667521659
 20
140.7931856823813
 30
0.0
 10
51.52881747607565
 20
141.1381167210904
 30
0.0
 10
51.51144614673211
 20
141.3552410747832
 30
0.0
 10
51.48002877099778
 20
141.5889922416692
 30
0.0
  0
SPLINE
  5
2A9
330
1F
100
AcDbEntity
  8
0
  6
Continuous
 62
     7
370
    15
100
AcDbSpline
210
0.0
220
0.0
230
1.0
 70
     8
 71
     3
 72
     8
 73
     4
 74
     0
 42
0.00000001
 43
0.00000001
 40
0.0
 40
0.0
 40
0.0
 40
0.0
 40
1.0
 40
1.0
 40
1.0
 40
1.0
 10
51.44029956629356
 20
141.8847279531341
 30
0.0
 10
51.45353529257049
 20
141.7861568030736
 30
0.0
 10
51.46677829013856
 20
141.6875783040072
 30
0.0
 10
51.48002877099778
 20
141.5889922416692
 30
0.0
  0
ARC
  5
2AA
330
1F
100
AcDbEntity
  8
0
  6
Continuous
 62
     7
370
    15
100
AcDbCircle
 10
67.8162282878
 20
120.4178008673
 30
0.0
 40
26.99999999999986
100
AcDbArc
 50
125.4795951163
 51
127.3380024238
  0
LWPOLYLINE
  5
2AB
330
1F
100
AcDbEntity
  8
0
  6
Continuous
 62
     7
370
    15
100
AcDbPolyline
 90
       33
 70
   128
 43
0.0
 10
61.8688549461
 20
93.9554471014
 10
61.9866695801
 20
93.1865807114
 10
62.0728648813
 20
92.4472614614
 10
62.1241281355
 20
91.7659021405
 10
62.1384900609
 20
91.168684089
 10
62.115397452
 20
90.6785606829
 10
62.0557387905
 20
90.3143669901
 10
61.961806527
 20
90.0900970636
 10
61.837210002
 20
90.0143693624
 10
61.6867376106
 20
90.0900970636
 10
61.5161724003
 20
90.3143669901
 10
61.3320685537
 20
90.6785606829
 10
61.1415008629
 20
91.168684089
 10
60.951793714
 20
91.7659021405
 10
60.7702361034
 20
92.4472614614
 10
60.603806431
 20
93.1865807114
 10
60.4588996233
 20
93.9554471014
 10
60.3410849893
 20
94.7243134914
 10
60.2548896881
 20
95.4636327414
 10
60.2036264339
 20
96.1449920622
 10
60.1892649742
 20
96.7422101138
 10
60.2123571174
 20
97.2323335198
 10
60.2720157789
 20
97.5965272126
 10
60.3659485081
 20
97.8207971392
 10
60.4905445674
 20
97.8965248404
 10
60.6410169588
 20
97.8207971392
 10
60.8115821691
 20
97.5965272126
 10
60.9956864813
 20
97.2323335198
 10
61.1862537065
 20
96.7422101138
 10
61.375961321
 20
96.1449920622
 10
61.557518466
 20
95.4636327414
 10
61.7239481384
 20
94.7243134914
 10
61.8688549461
 20
93.9554471014
  0
LINE
  5
2AC
330
1F
100
AcDbEntity
  8
0
  6
Continuous
 62
     7
370
    15
100
AcDbLine
 10
64.4830420228
 20
88.1532478569
 30
0.0
 11
64.4864110822
 21
88.1416473029
 31
0.0
  0
LINE
  5
2AD
330
1F
100
AcDbEntity
  8
0
  6
Continuous
 62
     7
370
    15
100
AcDbLine
 10
94.8162289882
 20
120.4178008673
 30
0.0
 11
94.8162289882
 21
95.0392942367
 31
0.0
  0
LINE
  5
2AE
330
1F
100
AcDbEntity
  8
0
  6
Continuous
 62
     7
370
    15
100
AcDbLine
 10
93.9586131448
 20
127.1687761372
 30
0.0
 11
58.6774532298
 21
120.9477555429
 31
0.0
  0
ARC
  5
2AF
330
1F
100
AcDbEntity
  8
0
  6
Continuous
 62
     7
370
    15
100
AcDbCircle
 10
67.8162282878
 20
120.4178008673
 30
0.0
 40
27.00000000000003
100
AcDbArc
 50
0.0
 51
14.4796497166
  0
ARC
  5
2B0
330
1F
100
AcDbEntity
  8
0
  6
Continuous
 62
     7
370
    15
100
AcDbCircle
 10
67.8162282878
 20
120.4178008673
 30
0.0
 40
26.99999999999997
100
AcDbArc
 50
90.0887277785
 51
125.4795951163
  0
SPLINE
  5
2B1
330
1F
100
AcDbEntity
  8
0
  6
Continuous
 62
     7
370
    15
100
AcDbSpline
210
0.0
220
0.0
230
1.0
 70
     8
 71
     3
 72
     8
 73
     4
 74
     0
 42
0.00000001
 43
0.00000001
 40
0.0
 40
0.0
 40
0.0
 40
0.0
 40
1.0
 40
1.0
 40
1.0
 40
1.0
 10
71.548189647288
 20
147.1586397549218
 30
0.0
 10
70.2887078519923
 20
147.2689089224836
 30
0.0
 10
69.03079125245878
 20
147.3551648629691
 30
0.0
 10
67.77441632396992
 20
147.4177684925
 30
0.0
  0
ARC
  5
2B2
330
1F
100
AcDbEntity
  8
0
  6
Continuous
 62
     7
370
    15
100
AcDbCircle
 10
67.8162282878
 20
120.4178008673
 30
0.0
 40
27.00000000000002
100
AcDbArc
 50
14.4796497166
 51
82.055095847
  0
SPLINE
  5
2B3
330
1F
100
AcDbEntity
  8
0
  6
Continuous
 62
     7
370
    15
100
AcDbSpline
210
0.0
220
0.0
230
1.0
 70
     8
 71
     3
 72
     8
 73
     4
 74
     0
 42
0.00000001
 43
0.00000001
 40
0.0
 40
0.0
 40
0.0
 40
0.0
 40
1.0
 40
1.0
 40
1.0
 40
1.0
 10
62.03335621553223
 20
84.39023648931854
 30
0.0
 10
62.5007963967528
 20
82.28472756642432
 30
0.0
 10
62.96905513516086
 20
80.18099868722369
 30
0.0
 10
63.43782771840403
 20
78.07838722079782
 30
0.0
  0
LINE
  5
2B4
330
1F
100
AcDbEntity
  8
0
  6
Continuous
 62
     7
370
    15
100
AcDbLine
 10
62.5973405862
 20
84.323045933
 30
0.0
 11
62.0333563151
 21
84.3902352689
 31
0.0
  0
ELLIPSE
  5
2B5
330
1F
100
AcDbEntity
  8
0
  6
Continuous
 62
     7
370
    15
100
AcDbEllipse
 10
82.595562514
 20
123.0237962483
 30
0.0
 11
49.72535407209325
 21
8.767921548193129
 31
0.0
210
0.0
220
0.0
230
1.0
 40
0.9548092459
 41
4.155880194750383
 42
4.179103356290826
  0
LINE
  5
2B6
330
1F
100
AcDbEntity
  8
0
  6
Continuous
 62
     7
370
    15
100
AcDbLine
 10
62.5521136993
 20
84.4787891445
 30
0.0
 11
62.0333563151
 21
84.3902352689
 31
0.0
  0
SPLINE
  5
2B7
330
1F
100
AcDbEntity
  8
0
  6
Continuous
 62
     7
370
    15
100
AcDbSpline
210
0.0
220
0.0
230
1.0
 70
     8
 71
     3
 72
    14
 73
    10
 74
     0
 42
0.00000001
 43
0.00000001
 40
0.0
 40
0.0
 40
0.0
 40
0.0
 40
0.25
 40
0.25
 40
0.5
 40
0.5
 40
0.75
 40
0.75
 40
1.0
 40
1.0
 40
1.0
 40
1.0
 10
59.28708971119011
 20
95.8565754268154
 30
0.0
 10
59.16795422279587
 20
95.89794645255564
 30
0.0
 10
58.94839089620599
 20
95.97456550219513
 30
0.0
 10
58.326942030959
 20
96.20904746169562
 30
0.0
 10
57.94073580393712
 20
96.36139615497903
 30
0.0
 10
57.04905213180817
 20
96.74706202991665
 30
0.0
 10
56.56233063951284
 20
96.97244624232064
 30
0.0
 10
55.5303559088568
 20
97.49636536126238
 30
0.0
 10
55.00135234226897
 20
97.78670975439543
 30
0.0
 10
54.46728330800929
 20
98.10624180201664
 30
0.0
  0
SPLINE
  5
2B8
330
1F
100
AcDbEntity
  8
0
  6
Continuous
 62
     7
370
    15
100
AcDbSpline
210
0.0
220
0.0
230
1.0
 70
     8
 71
     3
 72
    20
 73
    16
 74
     0
 42
0.00000001
 43
0.00000001
 40
0.0
 40
0.0
 40
0.0
 40
0.0
 40
0.2500000000000007
 40
0.2500000000000007
 40
0.3750000000000006
 40
0.3750000000000006
 40
0.5000000000000004
 40
0.5000000000000004
 40
0.6250000000000003
 40
0.6250000000000003
 40
0.7500000000000002
 40
0.7500000000000002
 40
0.8750000000000001
 40
0.8750000000000001
 40
1.0
 40
1.0
 40
1.0
 40
1.0
 10
47.64132056567497
 20
136.8182002040051
 30
0.0
 10
48.03412688923395
 20
137.3014098605389
 30
0.0
 10
48.42985318962995
 20
137.7526641460482
 30
0.0
 10
49.01737796562929
 20
138.381249385041
 30
0.0
 10
49.21362070194743
 20
138.5841251325777
 30
0.0
 10
49.59342679905634
 20
138.9650877903608
 30
0.0
 10
49.77652209038933
 20
139.142833533951
 30
0.0
 10
50.12601612332464
 20
139.4733575800268
 30
0.0
 10
50.2929612640772
 20
139.6266187636992
 30
0.0
 10
50.60363390542548
 20
139.9054935678127
 30
0.0
 10
50.74396927596177
 20
140.0281254036775
 30
0.0
 10
50.99252452471643
 20
140.2417724139247
 30
0.0
 10
51.10077366529625
 20
140.3328034223521
 30
0.0
 10
51.28108394648311
 20
140.4827641520049
 30
0.0
 10
51.35202743302066
 20
140.5407748612306
 30
0.0
 10
51.40102586027938
 20
140.5806659728298
 30
0.0
  0
ELLIPSE
  5
2B9
330
1F
100
AcDbEntity
  8
0
  6
Continuous
 62
     7
370
    15
100
AcDbEllipse
 10
49.7365205664
 20
108.0344569982
 30
0.0
 11
-2.594429360883069
 21
3.240968652627075
 31
0.0
210
0.0
220
0.0
230
1.0
 40
0.5866005609
 41
0.0
 42
6.283185307179586
  0
ARC
  5
2BA
330
1F
100
AcDbEntity
  8
0
  6
Continuous
 62
     7
370
    15
100
AcDbCircle
 10
67.8162282878
 20
120.4178008673
 30
0.0
 40
25.99999999999999
100
AcDbArc
 50
140.8919680966
 51
239.1080319034
  0
SPLINE
  5
2BB
330
1F
100
AcDbEntity
  8
0
  6
Continuous
 62
     7
370
    15
100
AcDbSpline
210
0.0
220
0.0
230
1.0
 70
     8
 71
     3
 72
    12
 73
     8
 74
     0
 42
0.00000001
 43
0.00000001
 40
0.0
 40
0.0
 40
0.0
 40
0.0
 40
0.2708511144200357
 40
0.5645593524266673
 40
0.8667422549438062
 40
0.9776448125324079
 40
1.0
 40
1.0
 40
1.0
 40
1.0
 10
49.73257208111414
 20
111.2133014438364
 30
0.0
 10
49.60504974332716
 20
111.1630068357824
 30
0.0
 10
49.33924345858983
 20
111.0581732580646
 30
0.0
 10
48.78678280510155
 20
111.0309255556867
 30
0.0
 10
48.30719690305835
 20
111.0357407395161
 30
0.0
 10
47.96761476507571
 20
110.9951222866821
 30
0.0
 10
47.8645089104492
 20
110.963785018164
 30
0.0
 10
47.84721197428831
 20
110.958527909002
 30
0.0
  0
LINE
  5
2BC
330
1F
100
AcDbEntity
  8
0
  6
Continuous
 62
     7
370
    15
100
AcDbLine
 10
47.8472119743
 20
110.958527909
 30
0.0
 11
47.6475196505
 21
111.5008929236
 31
0.0
  0
LWPOLYLINE
  5
2BD
330
1F
100
AcDbEntity
  8
0
  6
Continuous
 62
     7
370
    15
100
AcDbPolyline
 90
        8
 70
   128
 43
0.0
 10
47.6373719597
 20
111.5350575609
 10
47.6567844475
 20
111.4817216484
 10
47.6928284937
 20
111.3826931877
 10
47.7272781158
 20
111.2880438057
 10
47.7600327307
 20
111.1980482427
 10
47.7909992063
 20
111.1129691316
 10
47.820086273
 20
111.0330514101
 10
47.8472119743
 20
110.958527909
  0
SPLINE
  5
2BE
330
1F
100
AcDbEntity
  8
0
  6
Continuous
 62
     7
370
    15
100
AcDbSpline
210
0.0
220
0.0
230
1.0
 70
    24
 71
     3
 72
    10
 73
     6
 74
     0
 42
0.00000001
 43
0.00000001
 40
0.0
 40
0.0
 40
0.0
 40
0.0
 40
0.5
 40
0.5
 40
1.0
 40
1.0
 40
1.0
 40
1.0
 10
58.81622828784115
 20
90.8575234667474
 30
0.0
 10
58.81622828784115
 20
90.69763619855375
 30
0.0
 10
58.81622828784115
 20
90.53650894303915
 30
0.0
 10
58.81622828784115
 20
90.30240994468431
 30
0.0
 10
58.81622828784115
 20
90.2308831710931
 30
0.0
 10
58.81622828784115
 20
90.2308831710931
 30
0.0
  0
ARC
  5
2BF
330
1F
100
AcDbEntity
  8
0
  6
Continuous
 62
     7
370
    15
100
AcDbCircle
 10
67.8162282878
 20
120.4178008673
 30
0.0
 40
31.49999999999999
100
AcDbArc
 50
140.9381656697
 51
253.398450401
  0
SPLINE
  5
2C0
330
1F
100
AcDbEntity
  8
0
  6
Continuous
 62
     7
370
    15
100
AcDbSpline
210
0.0
220
0.0
230
1.0
 70
    24
 71
     3
 72
    12
 73
     8
 74
     0
 42
0.00000001
 43
0.00000001
 40
0.0
 40
0.0
 40
0.0
 40
0.0
 40
0.25
 40
0.25
 40
0.5
 40
0.5
 40
1.0
 40
1.0
 40
1.0
 40
1.0
 10
43.35753862547354
 20
140.2678008673402
 30
0.0
 10
43.35753862547354
 20
140.2678008673402
 30
0.0
 10
43.38536834577702
 20
140.2678008673402
 30
0.0
 10
43.4805108070337
 20
140.2678008673402
 30
0.0
 10
43.54693362333406
 20
140.2678008673402
 30
0.0
 10
43.77113305485418
 20
140.2678008673402
 30
0.0
 10
43.95511945739979
 20
140.2678008673402
 30
0.0
 10
44.13527602658277
 20
140.2678008673402
 30
0.0
  0
SPLINE
  5
2C1
330
1F
100
AcDbEntity
  8
0
  6
Continuous
 62
     7
370
    15
100
AcDbSpline
210
0.0
220
0.0
230
1.0
 70
    24
 71
     3
 72
    10
 73
     6
 74
     0
 42
0.00000001
 43
0.00000001
 40
0.0
 40
0.0
 40
0.0
 40
0.0
 40
0.5
 40
0.5
 40
1.0
 40
1.0
 40
1.0
 40
1.0
 10
59.81622828784118
 20
150.2642411911041
 30
0.0
 10
59.81622828784118
 20
150.4246464574549
 30
0.0
 10
59.81622828784118
 20
150.5837082704435
 30
0.0
 10
59.81622828784118
 20
150.8146207360738
 30
0.0
 10
59.81622828784118
 20
150.8849963405044
 30
0.0
 10
59.81622828784118
 20
150.8849963405044
 30
0.0
  0
SPLINE
  5
2C2
330
1F
100
AcDbEntity
  8
0
  6
Continuous
 62
     7
370
    15
100
AcDbSpline
210
0.0
220
0.0
230
1.0
 70
    24
 71
     3
 72
    12
 73
     8
 74
     0
 42
0.00000001
 43
0.00000001
 40
0.0
 40
0.0
 40
0.0
 40
0.0
 40
0.2499999999999987
 40
0.2499999999999987
 40
0.4999999999999973
 40
0.4999999999999973
 40
1.0
 40
1.0
 40
1.0
 40
1.0
 10
47.96622828784115
 20
144.8764905297076
 30
0.0
 10
47.96622828784115
 20
144.8764905297076
 30
0.0
 10
47.96622828784116
 20
144.8482708311197
 30
0.0
 10
47.96622828784116
 20
144.7538278238716
 30
0.0
 10
47.96622828784115
 20
144.6875408471663
 30
0.0
 10
47.96622828784115
 20
144.461916023878
 30
0.0
 10
47.96622828784116
 20
144.2794897608455
 30
0.0
 10
47.96622828784115
 20
144.0987531285986
 30
0.0
  0
ARC
  5
2C3
330
1F
100
AcDbEntity
  8
0
  6
Continuous
 62
     7
370
    15
100
AcDbCircle
 10
67.8162282878
 20
120.4178008673
 30
0.0
 40
31.49999999999999
100
AcDbArc
 50
104.7124579609
 51
129.0618343303
  0
SPLINE
  5
2C4
330
1F
100
AcDbEntity
  8
0
  6
Continuous
 62
     7
370
    15
100
AcDbSpline
210
0.0
220
0.0
230
1.0
 70
    24
 71
     3
 72
    12
 73
     8
 74
     0
 42
0.00000001
 43
0.00000001
 40
0.0
 40
0.0
 40
0.0
 40
0.0
 40
0.25
 40
0.25
 40
0.5
 40
0.5
 40
1.0
 40
1.0
 40
1.0
 40
1.0
 10
75.8162282878412
 20
150.8849963405044
 30
0.0
 10
75.8162282878412
 20
150.8849963405044
 30
0.0
 10
75.8162282878412
 20
150.8679935905437
 30
0.0
 10
75.8162282878412
 20
150.803933049432
 30
0.0
 10
75.8162282878412
 20
150.7567744337934
 30
0.0
 10
75.8162282878412
 20
150.5835524011012
 30
0.0
 10
75.8162282878412
 20
150.4234433108669
 30
0.0
 10
75.8162282878412
 20
150.2642411911035
 30
0.0
  0
ARC
  5
2C5
330
1F
100
AcDbEntity
  8
0
  6
Continuous
 62
     7
370
    15
100
AcDbCircle
 10
67.8162282878
 20
120.4178008673
 30
0.0
 40
31.49999999999998
100
AcDbArc
 50
328.9972808661
 51
75.2875420391
  0
LINE
  5
2C6
330
1F
100
AcDbEntity
  8
0
  6
Continuous
 62
     7
370
    15
100
AcDbLine
 10
75.8162286678
 20
150.264241868
 30
0.0
 11
75.8162286678
 21
146.8178007243
 31
0.0
  0
LINE
  5
2C7
330
1F
100
AcDbEntity
  8
0
  6
Continuous
 62
     7
370
    15
100
AcDbLine
 10
75.8162286678
 20
146.8178007243
 30
0.0
 11
73.4766169065
 21
146.8178007243
 31
0.0
  0
LINE
  5
2C8
330
1F
100
AcDbEntity
  8
0
  6
Continuous
 62
     7
370
    15
100
AcDbLine
 10
59.8162279079
 20
146.8178007243
 30
0.0
 11
59.8162279079
 21
150.264241868
 31
0.0
  0
LINE
  5
2C9
330
1F
100
AcDbEntity
  8
0
  6
Continuous
 62
     7
370
    15
100
AcDbLine
 10
58.8162286753
 20
94.0178010104
 30
0.0
 11
58.8162286753
 21
90.8575236289
 31
0.0
  0
LINE
  5
2CA
330
1F
100
AcDbEntity
  8
0
  6
Continuous
 62
     7
370
    15
100
AcDbLine
 10
47.9662275487
 20
144.0987523136
 30
0.0
 11
47.9662275487
 21
140.2678016064
 31
0.0
  0
LINE
  5
2CB
330
1F
100
AcDbEntity
  8
0
  6
Continuous
 62
     7
370
    15
100
AcDbLine
 10
44.1352768415
 20
140.2678016064
 30
0.0
 11
47.9662275487
 21
140.2678016064
 31
0.0
  0
LINE
  5
2CC
330
1F
100
AcDbEntity
  8
0
  6
Continuous
 62
     7
370
    15
100
AcDbLine
 10
62.1558396691
 20
146.8178007243
 30
0.0
 11
59.8162279079
 21
146.8178007243
 31
0.0
  0
LINE
  5
2CD
330
1F
100
AcDbEntity
  8
0
  6
Continuous
 62
     7
370
    15
100
AcDbLine
 10
59.9082919383
 20
94.0178010104
 30
0.0
 11
58.8162286753
 21
94.0178010104
 31
0.0
  0
SPLINE
  5
2CE
330
1F
100
AcDbEntity
  8
0
  6
Continuous
 62
     7
370
    15
100
AcDbSpline
210
0.0
220
0.0
230
1.0
 70
     8
 71
     3
 72
    12
 73
     8
 74
     0
 42
0.00000001
 43
0.00000001
 40
0.0
 40
0.0
 40
0.0
 40
0.0
 40
0.225368067139524
 40
0.4507624841182171
 40
0.6758478586987366
 40
0.9009709403164701
 40
1.0
 40
1.0
 40
1.0
 40
1.0
 10
58.81622867527141
 20
90.23088323452201
 30
0.0
 10
58.83776247211294
 20
90.22435573799869
 30
0.0
 10
58.88083258350887
 20
90.21129998176285
 30
0.0
 10
59.21153214912336
 20
90.11449390468175
 30
0.0
 10
59.74196701464747
 20
89.96912500334476
 30
0.0
 10
60.29630681082526
 20
89.82340066409404
 30
0.0
 10
60.72711956587909
 20
89.72826612470297
 30
0.0
 10
60.85873363407985
 20
89.69920235254493
 30
0.0
  0
SPLINE
  5
2CF
330
1F
100
AcDbEntity
  8
0
  6
Continuous
 62
     7
370
    15
100
AcDbSpline
210
0.0
220
0.0
230
1.0
 70
     8
 71
     3
 72
    50
 73
    46
 74
     0
 42
0.00000001
 43
0.00000001
 40
0.0
 40
0.0
 40
0.0
 40
0.0
 40
0.0624999999999999
 40
0.0624999999999999
 40
0.0937499999999999
 40
0.0937499999999999
 40
0.1249999999999999
 40
0.1249999999999999
 40
0.1875
 40
0.1875
 40
0.21875
 40
0.21875
 40
0.2499999999999999
 40
0.2499999999999999
 40
0.3124999999999998
 40
0.3124999999999998
 40
0.3749999999999998
 40
0.3749999999999998
 40
0.4062499999999998
 40
0.4062499999999998
 40
0.4374999999999998
 40
0.4374999999999998
 40
0.4999999999999998
 40
0.4999999999999998
 40
0.5624999999999998
 40
0.5624999999999998
 40
0.6249999999999997
 40
0.6249999999999997
 40
0.6562499999999998
 40
0.6562499999999998
 40
0.6874999999999998
 40
0.6874999999999998
 40
0.7187499999999999
 40
0.7187499999999999
 40
0.7499999999999999
 40
0.7499999999999999
 40
0.8125
 40
0.8125
 40
0.875
 40
0.875
 40
0.9375000000000001
 40
0.9375000000000001
 40
0.9687500000000001
 40
0.9687500000000001
 40
1.0
 40
1.0
 40
1.0
 40
1.0
 10
59.81622828784122
 20
150.8849963405044
 30
0.0
 10
59.81622828784122
 20
150.8849963405044
 30
0.0
 10
59.8685224297943
 20
150.8988624438857
 30
0.0
 10
60.02187496462705
 20
150.9382995867697
 30
0.0
 10
60.08557245997827
 20
150.9545522890347
 30
0.0
 10
60.23866411026809
 20
150.9929009988851
 30
0.0
 10
60.3283202122289
 20
151.0150544452931
 30
0.0
 10
60.62990160040296
 20
151.0878103911552
 30
0.0
 10
60.87564303083694
 20
151.1450910939999
 30
0.0
 10
61.3108030971876
 20
151.2390835334557
 30
0.0
 10
61.46794392464879
 20
151.2719425006489
 30
0.0
 10
61.80058301737309
 20
151.3385185540971
 30
0.0
 10
61.97564897281312
 20
151.372161991936
 30
0.0
 10
62.52650450351473
 20
151.4727228565131
 30
0.0
 10
62.92768891270138
 20
151.5392856662632
 30
0.0
 10
63.80117811878878
 20
151.6639847215628
 30
0.0
 10
64.26321871177122
 20
151.7205077306334
 30
0.0
 10
64.98433412536514
 20
151.7911766652482
 30
0.0
 10
65.22989476304852
 20
151.8124528753197
 30
0.0
 10
65.73168306220671
 20
151.8497586015616
 30
0.0
 10
65.98944427852338
 20
151.8658497984216
 30
0.0
 10
66.76455674274315
 20
151.9044912700293
 30
0.0
 10
67.28498592646282
 20
151.9176806885857
 30
0.0
 10
68.33312176724819
 20
151.9179194120438
 30
0.0
 10
68.86563009762196
 20
151.9045194093396
 30
0.0
 10
69.89332035978856
 20
151.8534554211444
 30
0.0
 10
70.39308454037028
 20
151.8160162863902
 30
0.0
 10
71.12157954039075
 20
151.7448528034718
 30
0.0
 10
71.36093053283625
 20
151.7185843452793
 30
0.0
 10
71.82216900432311
 20
151.662902872527
 30
0.0
 10
72.04543565939038
 20
151.6333651005911
 30
0.0
 10
72.47762326541245
 20
151.5717579555634
 30
0.0
 10
72.68654384565241
 20
151.5396870128422
 30
0.0
 10
73.08996877117613
 20
151.4738700358728
 30
0.0
 10
73.28544843114548
 20
151.4399398174096
 30
0.0
 10
73.84130664468172
 20
151.3385111898294
 30
0.0
 10
74.17086403131329
 20
151.2715921611393
 30
0.0
 10
74.75025952909924
 20
151.1465665987975
 30
0.0
 10
75.0017795005436
 20
151.0879898045634
 30
0.0
 10
75.40323399715717
 20
150.9911549529184
 30
0.0
 10
75.55571699270428
 20
150.9523999933593
 30
0.0
 10
75.71102794187952
 20
150.912472462923
 30
0.0
 10
75.75054138928566
 20
150.9021806716725
 30
0.0
 10
75.80305473658144
 20
150.8884644591335
 30
0.0
 10
75.81622828784124
 20
150.8849963405044
 30
0.0
 10
75.81622828784124
 20
150.8849963405044
 30
0.0
  0
SPLINE
  5
2D0
330
1F
100
AcDbEntity
  8
0
  6
Continuous
 62
     7
370
    15
100
AcDbSpline
210
0.0
220
0.0
230
1.0
 70
     8
 71
     3
 72
    20
 73
    16
 74
     0
 42
0.00000001
 43
0.00000001
 40
0.0
 40
0.0
 40
0.0
 40
0.0
 40
0.2500000000000004
 40
0.2500000000000004
 40
0.3750000000000003
 40
0.3750000000000003
 40
0.5000000000000002
 40
0.5000000000000002
 40
0.6250000000000001
 40
0.6250000000000001
 40
0.75
 40
0.75
 40
0.875
 40
0.875
 40
1.0
 40
1.0
 40
1.0
 40
1.0
 10
43.35753862547382
 20
140.2678008673402
 30
0.0
 10
43.88819539330849
 20
140.9216632956376
 30
0.0
 10
44.42192338957001
 20
141.5254490776348
 30
0.0
 10
45.20489570755876
 20
142.3522878138033
 30
0.0
 10
45.46287930765543
 20
142.6147164517563
 30
0.0
 10
45.96727456406326
 20
143.1113791058613
 30
0.0
 10
46.21005298649125
 20
143.3419659848828
 30
0.0
 10
46.66073306600433
 20
143.7585202094654
 30
0.0
 10
46.87019693199559
 20
143.9460180114329
 30
0.0
 10
47.24848544858363
 20
144.2774149890693
 30
0.0
 10
47.41223313476811
 20
144.4169189765646
 30
0.0
 10
47.68041893696756
 20
144.6423724840355
 30
0.0
 10
47.7856433450543
 20
144.7289985955792
 30
0.0
 10
47.92970257036783
 20
144.8469793844333
 30
0.0
 10
47.96622828784123
 20
144.8764905297076
 30
0.0
 10
47.96622828784123
 20
144.8764905297076
 30
0.0
  0
LINE
  5
2D1
330
1F
100
AcDbEntity
  8
0
  6
Continuous
 62
     7
370
    15
100
AcDbLine
 10
61.5862977305
 20
87.8047134218
 30
0.0
 11
65.042083765
 21
75.9042288599
 31
0.0
  0
ARC
  5
2D2
330
1F
100
AcDbEntity
  8
0
  6
Continuous
 62
     7
370
    15
100
AcDbCircle
 10
62.4598250278
 20
88.1763597242
 30
0.0
 40
0.9493002228394657
100
AcDbArc
 50
165.2719007402
 51
203.0475554572
  0
LINE
  5
2D3
330
1F
100
AcDbEntity
  8
0
  6
Continuous
 62
     7
370
    15
100
AcDbLine
 10
64.154635564
 20
88.1064060567
 30
0.0
 11
61.5417157845
 21
88.4177024899
 31
0.0
  0
ARC
  5
2D4
330
1F
100
AcDbEntity
  8
0
  6
Continuous
 62
     7
370
    15
100
AcDbCircle
 10
63.9511505435
 20
87.8961494271
 30
0.0
 40
0.2925987078940406
100
AcDbArc
 50
6.9134633386
 51
45.937662378
  0
LINE
  5
2D5
330
1F
100
AcDbEntity
  8
0
  6
Continuous
 62
     7
370
    15
100
AcDbLine
 10
67.6974077745
 20
76.0308850048
 30
0.0
 11
64.241621791
 21
87.9313695667
 31
0.0
  0
ARC
  5
2D6
330
1F
100
AcDbEntity
  8
0
  6
Continuous
 62
     7
370
    15
100
AcDbCircle
 10
66.8238909061
 20
75.6592393955
 30
0.0
 40
0.9492903551526969
100
AcDbArc
 50
345.2717009274
 51
23.0477633881
  0
LINE
  5
2D7
330
1F
100
AcDbEntity
  8
0
  6
Continuous
 62
     7
370
    15
100
AcDbLine
 10
65.129069992
 20
75.7291886447
 30
0.0
 11
67.7419897642
 21
75.4178959367
 31
0.0
  0
ARC
  5
2D8
330
1F
100
AcDbEntity
  8
0
  6
Continuous
 62
     7
370
    15
100
AcDbCircle
 10
65.3325654092
 20
75.9394496913
 30
0.0
 40
0.2926091122895387
100
AcDbArc
 50
186.9133527725
 51
225.9368009968
  0
ARC
  5
2D9
330
1F
100
AcDbEntity
  8
0
  6
Continuous
 62
     7
370
    15
100
AcDbCircle
 10
66.8664911229
 20
75.6668713313
 30
0.0
 40
0.9018407901479696
100
AcDbArc
 50
345.2719655215
 51
23.047477723
  0
LINE
  5
2DA
330
1F
100
AcDbEntity
  8
0
  6
Continuous
 62
     7
370
    15
100
AcDbLine
 10
67.6963476675
 20
76.0199363766
 30
0.0
 11
64.2405617131
 21
87.9204209385
 31
0.0
  0
ARC
  5
2DB
330
1F
100
AcDbEntity
  8
0
  6
Continuous
 62
     7
370
    15
100
AcDbCircle
 10
63.9646058588
 20
87.886959048
 30
0.0
 40
0.277977214249047
100
AcDbArc
 50
6.9138249701
 51
45.9370131129
  0
LINE
  5
2DC
330
1F
100
AcDbEntity
  8
0
  6
Continuous
 62
     7
370
    15
100
AcDbLine
 10
64.1579247625
 20
88.0867067216
 30
0.0
 11
61.5450052159
 21
88.3980031548
 31
0.0
  0
ARC
  5
2DD
330
1F
100
AcDbEntity
  8
0
  6
Continuous
 62
     7
370
    15
100
AcDbCircle
 10
62.4172092153
 20
88.1687266066
 30
0.0
 40
0.9018356569010295
100
AcDbArc
 50
165.2718476915
 51
203.0475827351
  0
LINE
  5
2DE
330
1F
100
AcDbEntity
  8
0
  6
Continuous
 62
     7
370
    15
100
AcDbLine
 10
61.5873580413
 20
87.81566205
 30
0.0
 11
65.0431438429
 21
75.9151774881
 31
0.0
  0
ARC
  5
2DF
330
1F
100
AcDbEntity
  8
0
  6
Continuous
 62
     7
370
    15
100
AcDbCircle
 10
65.3190877502
 20
75.9486334414
 30
0.0
 40
0.2779646394220052
100
AcDbArc
 50
186.9129065016
 51
225.9379315814
  0
LINE
  5
2E0
330
1F
100
AcDbEntity
  8
0
  6
Continuous
 62
     7
370
    15
100
AcDbLine
 10
65.1257807935
 20
75.7488917051
 30
0.0
 11
67.7387005584
 21
75.4375952718
 31
0.0
  0
LINE
  5
2E1
330
1F
100
AcDbEntity
  8
0
  6
Continuous
 62
     7
370
    15
100
AcDbLine
 10
72.313876039
 20
76.8448944626
 30
0.0
 11
68.8580902373
 21
88.7453752992
 31
0.0
  0
ARC
  5
2E2
330
1F
100
AcDbEntity
  8
0
  6
Continuous
 62
     7
370
    15
100
AcDbCircle
 10
71.3855698916
 20
76.4634534996
 30
0.0
 40
1.003618210022131
100
AcDbArc
 50
346.6661732074
 51
22.3377588365
  0
LINE
  5
2E3
330
1F
100
AcDbEntity
  8
0
  6
Continuous
 62
     7
370
    15
100
AcDbLine
 10
67.767884519
 20
75.517569804
 30
0.0
 11
67.7387005584
 21
75.4375952718
 31
0.0
  0
LINE
  5
2E4
330
1F
100
AcDbEntity
  8
0
  6
Continuous
 62
     7
370
    15
100
AcDbLine
 10
65.2760634279
 20
76.1607225476
 30
0.0
 11
65.1257807935
 21
75.7488917051
 31
0.0
  0
LINE
  5
2E5
330
1F
100
AcDbEntity
  8
0
  6
Continuous
 62
     7
370
    15
100
AcDbLine
 10
65.487430113
 20
76.6242455182
 30
0.0
 11
65.2760634279
 21
76.1607225476
 31
0.0
  0
ARC
  5
2E6
330
1F
100
AcDbEntity
  8
0
  6
Continuous
 62
     7
370
    15
100
AcDbCircle
 10
64.2092423033
 20
78.1188753963
 30
0.0
 40
2.373265535714189
100
AcDbArc
 50
345.2719712066
 51
23.0474734974
  0
LINE
  5
2E7
330
1F
100
AcDbEntity
  8
0
  6
Continuous
 62
     7
370
    15
100
AcDbLine
 10
66.3930756586
 20
79.0479938922
 30
0.0
 11
64.4589971365
 21
85.7082616029
 31
0.0
  0
LINE
  5
2E8
330
1F
100
AcDbEntity
  8
0
  6
Continuous
 62
     7
370
    15
100
AcDbLine
 10
62.8906298974
 20
84.7876045344
 30
0.0
 11
64.8247084195
 21
78.1273330984
 31
0.0
  0
ARC
  5
2E9
330
1F
100
AcDbEntity
  8
0
  6
Continuous
 62
     7
370
    15
100
AcDbCircle
 10
65.0744575284
 20
85.7167227884
 30
0.0
 40
2.373260173633724
100
AcDbArc
 50
165.2719311378
 51
203.0475222253
  0
LINE
  5
2EA
330
1F
100
AcDbEntity
  8
0
  6
Continuous
 62
     7
370
    15
100
AcDbLine
 10
64.2415316855
 20
86.1458602784
 30
0.0
 11
62.7791747996
 21
86.3200809298
 31
0.0
  0
ARC
  5
2EB
330
1F
100
AcDbEntity
  8
0
  6
Continuous
 62
     7
370
    15
100
AcDbCircle
 10
63.7328069458
 20
85.6202143397
 30
0.0
 40
0.7315083824538291
100
AcDbArc
 50
6.9131095813
 51
45.9372141273
  0
LINE
  5
2EC
330
1F
100
AcDbEntity
  8
0
  6
Continuous
 62
     7
370
    15
100
AcDbLine
 10
65.0421738705
 20
77.6897381482
 30
0.0
 11
66.5045306399
 21
77.5155174968
 31
0.0
  0
ARC
  5
2ED
330
1F
100
AcDbEntity
  8
0
  6
Continuous
 62
     7
370
    15
100
AcDbCircle
 10
65.5508926132
 20
78.2153818563
 30
0.0
 40
0.7315026090462887
100
AcDbArc
 50
186.9132823379
 51
225.9374301482
  0
LWPOLYLINE
  5
2EE
330
1F
100
AcDbEntity
  8
0
  6
Continuous
 62
     7
370
    15
100
AcDbPolyline
 90
       27
 70
   128
 43
0.0
 10
65.0661600834
 20
79.3764043091
 10
65.1648847001
 20
79.4370222328
 10
65.2332123449
 20
79.6418126164
 10
65.2671725569
 20
79.9788768826
 10
65.2647911651
 20
80.4286237297
 10
65.2262071693
 20
80.9649165211
 10
65.1536624959
 20
81.5565857527
 10
65.051373242
 20
82.1692469952
 10
64.9252842726
 20
82.7672976492
 10
64.7827232337
 20
83.3159770308
 10
64.6319751708
 20
83.7833966551
 10
64.4818012683
 20
84.1423991559
 10
64.3409291828
 20
84.3721117316
 10
64.2175454726
 20
84.4591903923
 10
64.1188208559
 20
84.3985761938
 10
64.0504932111
 20
84.193782085
 10
64.0165329991
 20
83.856721544
 10
64.0189143909
 20
83.4069746969
 10
64.0574983867
 20
82.8706819055
 10
64.1300430601
 20
82.2790126739
 10
64.232332314
 20
81.6663514314
 10
64.3584212834
 20
81.0683007775
 10
64.5009823223
 20
80.5196213958
 10
64.6517303852
 20
80.0521980462
 10
64.8019042877
 20
79.6931992707
 10
64.9427763732
 20
79.4634829698
 10
65.0661600834
 20
79.3764043091
  0
ARC
  5
2EF
330
1F
100
AcDbEntity
  8
0
  6
Continuous
 62
     7
370
    15
100
AcDbCircle
 10
68.315020182
 20
88.6150664276
 30
0.0
 40
0.5584849927063815
100
AcDbArc
 50
13.4929458638
 51
30.8309291024
  0
LINE
  5
2F0
330
1F
100
AcDbEntity
  8
0
  6
Continuous
 62
     7
370
    15
100
AcDbLine
 10
64.1980184322
 20
88.0376520989
 30
0.0
 11
64.1579247625
 21
88.0867067216
 31
0.0
  0
LINE
  5
2F1
330
1F
100
AcDbEntity
  8
0
  6
Continuous
 62
     7
370
    15
100
AcDbLine
 10
62.8962290088
 20
87.1285061774
 30
0.0
 11
61.8202776262
 21
88.0612071095
 31
0.0
  0
LINE
  5
2F2
330
1F
100
AcDbEntity
  8
0
  6
Continuous
 62
     7
370
    15
100
AcDbLine
 10
61.8202776262
 20
88.0612071095
 30
0.0
 11
61.5450052159
 21
88.3980031548
 31
0.0
  0
LINE
  5
2F3
330
1F
100
AcDbEntity
  8
0
  6
Continuous
 62
     7
370
    15
100
AcDbLine
 10
63.0176776634
 20
87.1140371499
 30
0.0
 11
62.8962290088
 21
87.1285061774
 31
0.0
  0
SPLINE
  5
2F4
330
1F
100
AcDbEntity
  8
0
  6
Continuous
 62
     7
370
    15
100
AcDbSpline
210
0.0
220
0.0
230
1.0
 70
     8
 71
     3
 72
    11
 73
     7
 74
     0
 42
0.00000001
 43
0.00000001
 40
0.0
 40
0.0
 40
0.0
 40
0.0
 40
0.3280460040021044
 40
0.6557059496773356
 40
0.9906968307053972
 40
1.0
 40
1.0
 40
1.0
 40
1.0
 10
65.48743011298298
 20
76.62424551822868
 30
0.0
 10
65.51095440194437
 20
76.69351279097214
 30
0.0
 10
65.55797529549508
 20
76.83196581982082
 30
0.0
 10
65.53039247071906
 20
77.04152637515477
 30
0.0
 10
65.46572263692951
 20
77.16532863723747
 30
0.0
 10
65.42112296866244
 20
77.2204926607374
 30
0.0
 10
65.41991784105717
 20
77.22198324777807
 30
0.0
  0
LINE
  5
2F5
330
1F
100
AcDbEntity
  8
0
  6
Continuous
 62
     7
370
    15
100
AcDbLine
 10
65.2760634279
 20
76.1607225476
 30
0.0
 11
65.0431438429
 21
75.9151774881
 31
0.0
  0
LINE
  5
2F6
330
1F
100
AcDbEntity
  8
0
  6
Continuous
 62
     7
370
    15
100
AcDbLine
 10
61.8202776262
 20
88.0612071095
 30
0.0
 11
61.5873580413
 21
87.81566205
 31
0.0
  0
LINE
  5
2F7
330
1F
100
AcDbEntity
  8
0
  6
Continuous
 62
     7
370
    15
100
AcDbLine
 10
62.8962290088
 20
87.1285061774
 30
0.0
 11
62.9512087056
 21
86.9391757486
 31
0.0
  0
LINE
  5
2F8
330
1F
100
AcDbEntity
  8
0
  6
Continuous
 62
     7
370
    15
100
AcDbLine
 10
72.0396942073
 20
77.7890767393
 30
0.0
 11
68.9323909195
 21
88.4895111857
 31
0.0
  0
ARC
  5
2F9
330
1F
100
AcDbEntity
  8
0
  6
Continuous
 62
     7
370
    15
100
AcDbCircle
 10
74.0444390143
 20
77.5981802225
 30
0.0
 40
2.509049242664645
100
AcDbArc
 50
346.6661667886
 51
22.3376960341
  0
LINE
  5
2FA
330
1F
100
AcDbEntity
  8
0
  6
Continuous
 62
     7
370
    15
100
AcDbLine
 10
76.3652088666
 20
78.5517814992
 30
0.0
 11
73.2579055788
 21
89.2522159455
 31
0.0
  0
ARC
  5
2FB
330
1F
100
AcDbEntity
  8
0
  6
Continuous
 62
     7
370
    15
100
AcDbCircle
 10
74.6931851715
 20
77.714002808
 30
0.0
 40
2.077621772295718
100
AcDbArc
 50
350.7713181354
 51
20.4191074444
  0
LINE
  5
2FC
330
1F
100
AcDbEntity
  8
0
  6
Continuous
 62
     7
370
    15
100
AcDbLine
 10
73.6262483137
 20
88.8180259106
 30
0.0
 11
76.6402610192
 21
78.4388530491
 31
0.0
  0
ARC
  5
2FD
330
1F
100
AcDbEntity
  8
0
  6
Continuous
 62
     7
370
    15
100
AcDbCircle
 10
72.1823388608
 20
89.0372310422
 30
0.0
 40
1.096841954615247
100
AcDbArc
 50
11.3033534266
 51
34.4742337689
  0
INSERT
  5
309
330
1F
100
AcDbEntity
  8
VERMASSUNG
100
AcDbBlockReference
  2
SW_CENTERMARKSYMBOL_0
 10
67.8162282878
 20
120.4178008673
 30
0.0
  0
OLE2FRAME
  5
30A
330
1F
100
AcDbEntity
  8
0
100
AcDbOle2Frame
 70
     2
  3
Bitmap Image
 10
13.8511154363
 20
38.264191557
 30
0.0
 11
51.6290888628
 21
31.9806341108
 31
0.0
 71
     2
 72
     0
 73
     1
 90
    12928
310
80552BED0767C5B32B40DDAF6807D121434000000000000000006FFBDDFB85D0
310
4940DDAF6807D121434000000000000000006FFBDDFB85D04940416F4BD60AFB
310
3F4000000000000000002BED0767C5B32B40416F4BD60AFB3F40000000000000
310
0000000000000100000000010000010000000100000000000100000000320000
310
D0CF11E0A1B11AE1000000000000000000000000000000003E000300FEFF0900
310
0600000000000000000000000100000001000000000000000010000002000000
310
01000000FEFFFFFF0000000000000000FFFFFFFFFFFFFFFFFFFFFFFFFFFFFFFF
310
FFFFFFFFFFFFFFFFFFFFFFFFFFFFFFFFFFFFFFFFFFFFFFFFFFFFFFFFFFFFFFFF
310
FFFFFFFFFFFFFFFFFFFFFFFFFFFFFFFFFFFFFFFFFFFFFFFFFFFFFFFFFFFFFFFF
310
FFFFFFFFFFFFFFFFFFFFFFFFFFFFFFFFFFFFFFFFFFFFFFFFFFFFFFFFFFFFFFFF
310
FFFFFFFFFFFFFFFFFFFFFFFFFFFFFFFFFFFFFFFFFFFFFFFFFFFFFFFFFFFFFFFF
310
FFFFFFFFFFFFFFFFFFFFFFFFFFFFFFFFFFFFFFFFFFFFFFFFFFFFFFFFFFFFFFFF
310
FFFFFFFFFFFFFFFFFFFFFFFFFFFFFFFFFFFFFFFFFFFFFFFFFFFFFFFFFFFFFFFF
310
FFFFFFFFFFFFFFFFFFFFFFFFFFFFFFFFFFFFFFFFFFFFFFFFFFFFFFFFFFFFFFFF
310
FFFFFFFFFFFFFFFFFFFFFFFFFFFFFFFFFFFFFFFFFFFFFFFFFFFFFFFFFFFFFFFF
310
FFFFFFFFFFFFFFFFFFFFFFFFFFFFFFFFFFFFFFFFFFFFFFFFFFFFFFFFFFFFFFFF
310
FFFFFFFFFFFFFFFFFFFFFFFFFFFFFFFFFFFFFFFFFFFFFFFFFFFFFFFFFFFFFFFF
310
FFFFFFFFFFFFFFFFFFFFFFFFFFFFFFFFFFFFFFFFFFFFFFFFFFFFFFFFFFFFFFFF
310
FFFFFFFFFFFFFFFFFFFFFFFFFFFFFFFFFFFFFFFFFFFFFFFFFFFFFFFFFFFFFFFF
310
FFFFFFFFFFFFFFFFFFFFFFFFFFFFFFFFFFFFFFFFFFFFFFFFFFFFFFFFFFFFFFFF
310
FDFFFFFFFEFFFFFFFEFFFFFFFEFFFFFF05000000060000000700000008000000
310
090000000A0000000B0000000C0000000D0000000E0000000F00000010000000
310
11000000120000001300000014000000150000001600000017000000FEFFFFFF
310
FFFFFFFFFFFFFFFFFFFFFFFFFFFFFFFFFFFFFFFFFFFFFFFFFFFFFFFFFFFFFFFF
310
FFFFFFFFFFFFFFFFFFFFFFFFFFFFFFFFFFFFFFFFFFFFFFFFFFFFFFFFFFFFFFFF
310
FFFFFFFFFFFFFFFFFFFFFFFFFFFFFFFFFFFFFFFFFFFFFFFFFFFFFFFFFFFFFFFF
310
FFFFFFFFFFFFFFFFFFFFFFFFFFFFFFFFFFFFFFFFFFFFFFFFFFFFFFFFFFFFFFFF
310
FFFFFFFFFFFFFFFFFFFFFFFFFFFFFFFFFFFFFFFFFFFFFFFFFFFFFFFFFFFFFFFF
310
FFFFFFFFFFFFFFFFFFFFFFFFFFFFFFFFFFFFFFFFFFFFFFFFFFFFFFFFFFFFFFFF
310
FFFFFFFFFFFFFFFFFFFFFFFFFFFFFFFFFFFFFFFFFFFFFFFFFFFFFFFFFFFFFFFF
310
FFFFFFFFFFFFFFFFFFFFFFFFFFFFFFFFFFFFFFFFFFFFFFFFFFFFFFFFFFFFFFFF
310
FFFFFFFFFFFFFFFFFFFFFFFFFFFFFFFFFFFFFFFFFFFFFFFFFFFFFFFFFFFFFFFF
310
FFFFFFFFFFFFFFFFFFFFFFFFFFFFFFFFFFFFFFFFFFFFFFFFFFFFFFFFFFFFFFFF
310
FFFFFFFFFFFFFFFFFFFFFFFFFFFFFFFFFFFFFFFFFFFFFFFFFFFFFFFFFFFFFFFF
310
FFFFFFFFFFFFFFFFFFFFFFFFFFFFFFFFFFFFFFFFFFFFFFFFFFFFFFFFFFFFFFFF
310
FFFFFFFFFFFFFFFFFFFFFFFFFFFFFFFFFFFFFFFFFFFFFFFFFFFFFFFFFFFFFFFF
310
52006F006F007400200045006E00740072007900000000000000000000000000
310
0000000000000000000000000000000000000000000000000000000000000000
310
16000500FFFFFFFFFFFFFFFF020000000A00030000000000C000000000000046
310
000000000000000000000000E0E6C79216CDCB0103000000C000000000000000
310
01004F006C006500000000000000000000000000000000000000000000000000
310
0000000000000000000000000000000000000000000000000000000000000000
310
0A000200FFFFFFFFFFFFFFFFFFFFFFFF00000000000000000000000000000000
310
0000000000000000000000000000000000000000000000001400000000000000
310
010043006F006D0070004F0062006A0000000000000000000000000000000000
310
0000000000000000000000000000000000000000000000000000000000000000
310
120002010100000003000000FFFFFFFF00000000000000000000000000000000
310
0000000000000000000000000000000000000000010000004D00000000000000
310
01004F006C006500310030004E00610074006900760065000000000000000000
310
0000000000000000000000000000000000000000000000000000000000000000
310
1A000200FFFFFFFFFFFFFFFFFFFFFFFF00000000000000000000000000000000
310
0000000000000000000000000000000000000000040000002426000000000000
310
FEFFFFFF02000000FEFFFFFFFFFFFFFFFFFFFFFFFFFFFFFFFFFFFFFFFFFFFFFF
310
FFFFFFFFFFFFFFFFFFFFFFFFFFFFFFFFFFFFFFFFFFFFFFFFFFFFFFFFFFFFFFFF
310
FFFFFFFFFFFFFFFFFFFFFFFFFFFFFFFFFFFFFFFFFFFFFFFFFFFFFFFFFFFFFFFF
310
FFFFFFFFFFFFFFFFFFFFFFFFFFFFFFFFFFFFFFFFFFFFFFFFFFFFFFFFFFFFFFFF
310
FFFFFFFFFFFFFFFFFFFFFFFFFFFFFFFFFFFFFFFFFFFFFFFFFFFFFFFFFFFFFFFF
310
FFFFFFFFFFFFFFFFFFFFFFFFFFFFFFFFFFFFFFFFFFFFFFFFFFFFFFFFFFFFFFFF
310
FFFFFFFFFFFFFFFFFFFFFFFFFFFFFFFFFFFFFFFFFFFFFFFFFFFFFFFFFFFFFFFF
310
FFFFFFFFFFFFFFFFFFFFFFFFFFFFFFFFFFFFFFFFFFFFFFFFFFFFFFFFFFFFFFFF
310
FFFFFFFFFFFFFFFFFFFFFFFFFFFFFFFFFFFFFFFFFFFFFFFFFFFFFFFFFFFFFFFF
310
FFFFFFFFFFFFFFFFFFFFFFFFFFFFFFFFFFFFFFFFFFFFFFFFFFFFFFFFFFFFFFFF
310
FFFFFFFFFFFFFFFFFFFFFFFFFFFFFFFFFFFFFFFFFFFFFFFFFFFFFFFFFFFFFFFF
310
FFFFFFFFFFFFFFFFFFFFFFFFFFFFFFFFFFFFFFFFFFFFFFFFFFFFFFFFFFFFFFFF
310
FFFFFFFFFFFFFFFFFFFFFFFFFFFFFFFFFFFFFFFFFFFFFFFFFFFFFFFFFFFFFFFF
310
FFFFFFFFFFFFFFFFFFFFFFFFFFFFFFFFFFFFFFFFFFFFFFFFFFFFFFFFFFFFFFFF
310
FFFFFFFFFFFFFFFFFFFFFFFFFFFFFFFFFFFFFFFFFFFFFFFFFFFFFFFFFFFFFFFF
310
FFFFFFFFFFFFFFFFFFFFFFFFFFFFFFFFFFFFFFFFFFFFFFFFFFFFFFFFFFFFFFFF
310
0100000200000000000000000000000000000000610072004E0082005C003104
310
A807250000000000A807250000000000680061007200650064005C003B004300
310
0100FEFF030A0000FFFFFFFF0A00030000000000C00000000000004607000000
310
5042727573680007000000504272757368000700000050427275736800F439B2
310
71000000000000000000000000004100540049002E004100430045005C004300
310
6F00720065002D005300740061007400690063003B0043003A005C0050007200
310
6F006700720061006D002000460069006C006500730020002800780038003600
310
29005C0043006F006D006D006F006E002000460069006C00650073005C004100
310
750074006F006400650073006B0020005300680061007200650064005C003B00
310
43003A005C00500072006F006700720061006D002000460069006C0065007300
310
5C004E006F0072006D0061006E005C004E0070006D005C00420069006E000000
310
43003A005C00500072006F006700720061006D002000460069006C0065007300
310
5C0053006F006C006900640057006F0072006B007300200043006F0072007000
310
5C0053006F006C006900640057006F0072006B00730020002800320029005C00
310
730065007400750070005C0069003300380036005C0073007700610063007400
310
770069007A002E006500780065000000220043003A005C00500072006F006700
310
20260000424D0E260000000000003E00000028000000B40200006E0000000100
310
01000000000000000000130B0000130B00000200000002000000000000FFFFFF
310
FFFFFFFFFFFFFFFFFFFFFFFFFFFFFFFFFFFFFFFFFFFFFFFFFFFFFFFFFFFFFFFF
310
FFFFFFFFFFFFFFFFFFFFFFFFFFFFFFFFFFFFFFFFFFFFFFFFFFFFFFFFFFFFFFFF
310
FFFFFFFFFFFFFFFFFFFFFFFFFFFFFFFFFFFFFFFFFFFFFFFFF000FFFFFFFFFFFF
310
FFFFFFFFFFFFFFFFFFFFFFFFFFFFFFFFFFFFFFFFFFFFFFFFFFFFFFFFFFFFFFFF
310
FFFFFFFFFFFFFFFFFFFFFFFFFFFFFFFFFFFFFFFFFFFFFFFFFFFFFFFFFFFFFFFF
310
FFFFFFFFFFFFFFFFFFFFFFFFFFFFFFFFF000FFFFFFFFFFFFFFFFFFFFFFFFFFFF
310
FFFFFFFFFFFFFFFFFFFFFFFFFFFFFFFFFFFFFFFFFFFFFFFFFFFFFFFFFFFFFFFF
310
FFFFFFFFFFFFFFFFFFFFFFFFFFFFFFFFFFFFFFFFFFFFFFFFFFFFFFFFFFFFFFFF
310
FFFFFFFFFFFFFFFFF000FFFFFFFFFFFFFFFFFFFFFFFFFFFFFFFFFFFFFFFFFFFF
310
FFFFFFFFFFFFFFFFFFFFFFFFFFFFFFFFFFFFFFFFFFFFFFFFFFFFFFFFFFFFFFFF
310
FFFFFFFFFFFFFFFFFFFFFFFFFFFFFFFFFFFFFFFFFFFFFFFFFFFFFFFFFFFFFFFF
310
F000FFFFFFFFFFFFFFFFFFFFFFFFFFFFFFFFFFFFFFFFFFFFFFFFFFFFFFFFFFFF
310
FFFFFFFFFFFFFFFFFFFFFFFFFFFFFFFFFFFFFFFFFFFFFFFFFFFFFFFFFFFFFFFF
310
FFFFFFFFFFFFFFFFFFFFFFFFFFFFFFFFFFFFFFFFFFFFFFFFF000FFFFFFFFFFFF
310
FFFFFFFFFFFFFFFFFFFFFFFFFFFFFFFFFFFFFFFFFFFFFFFFFFFFFFFFFFFFFFFF
310
FFFFFFFFFFFFFFFFFFFFFFFFFFFFFFFFFFFFFFFFFFFFFFFFFFFFFFFFFFFFFFFF
310
FFFFFFFFFFFFFFFFFFFFFFFFFFFFFFFFF000FFFFFFFFFFFFFFFFFFFFFFFFFFFF
310
FFFFFFFFFFFFFFFFFFFFFFFFFFFFFFFFFFFFFFFFFFFFFFFFFFFFFFFFFFFFFFFF
310
FFFFFFFFFFFFFFFFFFFFFFFFFFFFFFFFFFFFFFFFFFFFFFFFFFFFFFFFFFFFFFFF
310
FFFFFFFFFFFFFFFFF000FFFFFFFFFFFFFFFFFFFFFFFFFFFFFFFFFFFFFFFFFFFF
310
FFFFFFFFFFFFFFFFFFFFFFFFFFFFFFFFFFFFFFFFFFFFFFFFFFFFFFFFFFFFFFFF
310
FFFFFFFFFFFFFFFFFFFFFFFFFFFFFFFFFFFFFFFFFFFFFFFFFFFFFFFFFFFFFFFF
310
F000FFFFFFFFFFFFFFFFFFFFFFFFFFFFFFFFFFFFFFFFFFFFFFFFFFFFFFFFFFFF
310
FFFFFFFFFFFFFFFFFFFFFFFFFFFFFFFFFFFFFFFFFFFFFFFFFFFFFFFFFFFFFFFF
310
FFFFFFFFFFFFFFFFFFFFFFFFFFFFFFFFFFFFFFFFFFFFFFFFF000FFFFFFFFFFFF
310
FFFFFFFFFFFFFFFFFFFFFFFFFFFFFFFFFFFFFFFFFFFFFFFFFFFFFFFFFFFFFFFF
310
FFFFFFFFFFFFFFFFFFFFFFFFFFFFFFFFFFFFFFFFFFFFFFFFFFFFFFFFFFFFFFFF
310
FFFFFFFFFFFFFFFFFFFFFFFFFFFFFFFFF000FFFFFFFFFFFFFFFFFFFFFFFFFFFF
310
FFFFFFFFFFFFFFFFFFFFFFFFFFFFFFFFFFFFFFFFFFFFFFFFFFFFFFFFFFFFFFFF
310
FFFFFFFFFFFFFFFFFFFFFFFFFFFFFFFFFFFFFFFFFFFFFFFFFFFFFFFFFFFFFFFF
310
FFFFFFFFFFFFFFFFF000FFFFFFFFFFFFFFFFFFFFFFFFFFFFFFFFFFFFFFFFFFFF
310
FFFFFFFFFFFFFFFFFFFFFFFFFFFFFFFFFFFFFFFFFFFFFFFFFFFFFFFFFFFFFFFF
310
FFFFFFFFFFFFFFFFFFFFFFFFFFFFFFFFFFFFFFFFFFFFFFFFFFFFFFFFFFFFFFFF
310
F000FFFFFFFFFFFFFFFFFFFFFFFFFFFFFFFFFFFFFFFFFFFFFFFFFFFFFFFFFFFF
310
FFFFFFFFFFFFFFFFFFFFFFFFFFFFFFFFFFFFFFFFFFFFFFFFFFFFFFFFFFFFFFFF
310
FFFFFFFFFFFFFFFFFFFFFFFFFFFFFFFFFFFFFFFFFFFFFFFFF000FFFFFFFFFFFF
310
FFFFFFFFFFFFFFFFFFFFFFFFFFFFFFFFFFFFFFFFFFFFFFFFFFFFFFFFFFFFFFFF
310
FFFFFFFFFFFFFFFFFFFFFFFFFFFFFFFFFFFFFFFFFFFFFFFFFFFFFFFFFFFFFFFF
310
FFFFFFFFFFFFFFFFFFFFFFFFFFFFFFFFF000FFFFFFFFFFFFFFFFFFFFFFFFFFFF
310
FFFFFFFFFFFFFFFFFFFFFFFFFFFFFFFFFFFFFFFFFFFFFFFFFFFFFFFFFFFFFFFF
310
FFFFFFFFFFFFFFFFFFFFFFFFFFFFFFFFFFFFFFFFFFFFFFFFFFFFFFFFFFFFFFFF
310
FFFFFFFFFFFFFFFFF000FFFFFFFFFFFFFFFFFFFFFFFFFFFFFFFFFFFFFFFFFFFF
310
FFFFFFFFFFFFFFFFFFFFFFFFFFFFFFFFFFFFFFFFFFFFFFFFFFFFFFFFFFFFFFFF
310
FFFFFFFFFFFFFFFFFFFFFFFFFFFFFFFFFFFFFFFFFFFFFFFFFFFFFFFFFFFFFFFF
310
F000FFFFFFFFFFFFFFFFFFFFFFFFFFFFFFFFFFFFFFFFFFFFFFFFFFFFFFFFFFFF
310
FFFFFFFFFFFFFFFFFFFFFFFFFFFFFFFFFFFFFFFFFFFFFFFFFFFFFFFFFFFFFFFF
310
FFFFFFFFFFFFFFFFFFFFFFFFFFFFFFFFFFFFFFFFFFFFFFFFF000FFFFFFFFFFFF
310
FFFFFFFFFFFFFFFFFFFFFFFFFFFFFFFFFFFFFFFFFFFFFFFFFFFFFFFFFFFFFFFF
310
FFFFFFFFFFFFFFFFFFFFFFFFFFFFFFFFFFFFFFFFFFFFFFFFFFFFFFFFFFFFFFFF
310
FFFFFFFFFFFFFFFFFFFFFFFFFFFFFFFFF000FFFFFFFFFFFFFFFFFFFFFFFFFFFF
310
FFFFFFFFFFFFFFFFFFFFFFFFFFFFFFFFFFFFFFFFFFFFFFFFFFFFFFFFFFFFFFFF
310
FFFFFFFFFFFFFFFFFFFFFFFFFFFFFFFFFFFFFFFFFFFFFFFFFFFFFFFFFFFFFFFF
310
FFFFFFFFFFFFFFFFF000FFFFF80003FFFFFFFFFFFFFFFFFFFFFFFFFFFFFFFFFF
310
FFFFF00007FFFFFFFFFF00007FFFFFF800000000000000007FFFFFFFFFFFFFFF
310
FFFFFFFC001FFFFFFFFFFFFFFC001FFFFFFFFFFFFFFFFFFFFFFFFFFE0007FFFF
310
F000FFFF8000007FFFFFFFF8000FFFFFC0007FFFFF80007FFFFF0000007FFFFF
310
FFF8000007FFFFF800000000000000007FFFFFF0001FFFFFFFFFFFC00001FFFF
310
FFFFFFFFC00001FFFFFFFF000000000003FFFFE000007FFFF000FFFE0000000F
310
FFFFFFF0000FFFFF80007FFFFF80007FFFFC0000001FFFFFFFC0000001FFFFF8
310
00000000000000007FFFFFF0001FFFFFFFFFFE0000003FFFFFFFFFFE0000003F
310
FFFFFF000000000003FFFF0000000FFFF000FFF800000003FFFFFFF00007FFFF
310
80007FFFFF80007FFFF000000007FFFFFF000000003FFFF80000000000000000
310
7FFFFFF0001FFFFFFFFFF80000000FFFFFFFFFF80000000FFFFFFF0000000000
310
03FFFC00000003FFF000FFE000000000FFFFFFF00007FFFF80003FFFFF80007F
310
FFC000000001FFFFFC000000001FFFF800000000000000007FFFFFF0001FFFFF
310
FFFFE000000003FFFFFFFFE000000003FFFFFF000000000003FFF000000000FF
310
F000FF80000000007FFFFFF00007FFFF80003FFFFF80007FFF8000000000FFFF
310
F80000000007FFF800000000000000007FFFFFF0001FFFFFFFFFC000000001FF
310
FFFFFFC000000001FFFFFF000000000003FFC0000000007FF000FF0000000000
310
3FFFFFE00007FFFF00003FFFFF80007FFE00000000003FFFF00000000003FFF8
310
00000000000000007FFFFFF0001FFFFFFFFF8000000000FFFFFFFF8000000000
310
FFFFFF000000000003FF80000000003FF000FE00000000001FFFFFE00003FFFF
310
00003FFFFF80007FFC00000000001FFFE00000000001FFF8000001FFFE000000
310
7FFFFFF0001FFFFFFFFE00000000003FFFFFFE00000000003FFFFF0000000000
310
03FF00000000001FF000FC00000000000FFFFFE00003FFFF00001FFFFF80007F
310
F800000000001FFFC00000000000FFF8000001FFFE0000007FFFFFF0001FFFFF
310
FFFC00000000001FFFFFFC00000000001FFFFF000000000003FE00000000000F
310
F000F8000000000007FFFFE00003FFFF00001FFFFF80007FF800000000000FFF
310
800000000000FFF8000001FFFE0000007FFFFFF0001FFFFFFFF800000000000F
310
FFFFF800000000000FFFFF000000000003FC000000000007F000F80000000000
310
03FFFFC00003FFFE00001FFFFF80007FF0000000000007FF0000000000007FF8
310
000001FFFE0000007FFFFFF0001FFFFFFFF0000000000007FFFFF00000000000
310
07FFFF000000000003F8000000000003F000F0000000000003FFFFC00001FFFE
310
00001FFFFF80007FE0000000000007FE0000000000003FF8000001FFFE000000
310
7FFFFFF0001FFFFFFFF0000000000007FFFFF0000000000007FFFF0000000000
310
03F800001F800003F000E00001FFF00001FFFFC00001FFFE00000FFFFF80007F
310
E00001FFE00003FE00001FFF00003FF8000001FFFE0000007FFFFFF0001FFFFF
310
FFE000003E000003FFFFE000003E000003FFFF000000000003F00001FFF80001
310
F000E00007FFFC0001FFFFC00001FFFE00000FFFFF80007FC0000FFFFC0003FC
310
0000FFFFC0001FF8000001FFFE0000007FFFFFF0001FFFFFFFC00003FFE00001
310
FFFFC00003FFE00001FFFF0001FFFFFFFFF00007FFFE0001F000E0000FFFFF00
310
00FFFF800001FFFC00000FFFFF80007FC0001FFFFE0001FC0001FFFFE0001FF8
310
000001FFFE0000007FFFFFF0001FFFFFFF80000FFFF80000FFFF80000FFFF800
310
00FFFF0003FFFFFFFFE0000FFFFF8000F000C0003FFFFF8000FFFF800000FFFC
310
000007FFFF80007F80003FFFFF0001FC0003FFFFF0001FF8000001FFFE000000
310
7FFFFFF0001FFFFFFF80003FFFFE0000FFFF80003FFFFE0000FFFF0003FFFFFF
310
FFE0003FFFFF8000F000C0003FFFFF8000FFFF800000FFFC000007FFFF80007F
310
80007FFFFF8001F80007FFFFF8000FF8000001FFFE0000007FFFFFF0001FFFFF
310
FF00007FFFFF00007FFF00007FFFFF00007FFF0003FFFFFFFFE0003FFFFFC000
310
F000C0007FFFFFC000FFFF000000FFFC000007FFFF80007F8000FFFFFF8000F8
310
000FFFFFF8000FF8000001FFFE0000007FFFFFF0001FFFFFFF0000FFFFFF8000
310
7FFF0000FFFFFF80007FFF0003FFFFFFFFC0007FFFFFC00070008000FFFFFFC0
310
00FFFF000000FFF8000007FFFF80007F8000FFFFFF8000F8000FFFFFF8000FF8
310
000001FFFE0000007FFFFFF0001FFFFFFE0001FFFFFFC0003FFE0001FFFFFFC0
310
003FFF0003FFFFFFFFC0007FFFFFE00070008000FFFFFFC0007FFF0000007FF8
310
000003FFFF80007F0001FFFFFF8000F8000FFFFFF8000FF8000001FFFE000000
310
7FFFFFF0001FFFFFFE0001FFFFFFC0003FFE0001FFFFFFC0003FFF0003FFFFFF
310
FFC000FFFFFFE00070008000FFFFFFC0007FFF0000007FF8000003FFFF80007F
310
0001FFFFFF8000F8001FFFFFF8000FF8000001FFFE0000007FFFFFF0001FFFFF
310
FE0003FFFFFFE0003FFE0003FFFFFFE0003FFF0003FFFFFFFFC000FFFFFFE000
310
70008000FFFFFFC0007FFE0000007FF8000003FFFF80007F0001FFFFFF8000F0
310
001FFFFFF8000FF8000001FFFE0000007FFFFFF0001FFFFFFC0003FFFFFFE000
310
1FFC0003FFFFFFE0001FFF0003FFFFFFFFC000FFFFFFC00070008000FFFFFF80
310
007FFE0000007FF0000003FFFF80007F0001FFFFFF0000F0001FFFFFF8000FF8
310
000001FFFE0000007FFFFFF0001FFFFFFC0007FFFFFFF0001FFC0007FFFFFFF0
310
001FFF0003FFFFFFFFC000FFFFFFC00070008001FFFFFF0000FFFE0000003FF0
310
000001FFFF80007F0001FFFFFF0000F8001FFFFFF0000FF8000001FFFE000000
310
7FFFFFF0001FFFFFFC0007FFFFFFF0001FFC0007FFFFFFF0001FFF0003FFFFFF
310
FFC001FFFFFF80007000FFFFFFFFFE0000FFFE0008003FF0008001FFFF80007F
310
FFFFFFFFFC0000FFFFFFFFFFE0000FF8000001FFFE0000007FFFFFF0001FFFFF
310
F8000FFFFFFFF8000FF8000FFFFFFFF8000FFF0003FFFFFFFFFFFFFFFFFF0000
310
7000FFFFFFFFFC0000FFFC0008003FF0008001FFFF80007FFFFFFFFFF80001FF
310
FFFFFFFF80000FF8000001FFFE0000007FFFFFF0001FFFFFF8000FFFFFFFF800
310
0FF8000FFFFFFFF8000FFF0003FFFFFFFFFFFFFFFFFE0000F000FFFFFFFFE000
310
00FFFC000C003FE000C001FFFF80007FFFFFFFFFC00001FFFFFFFFFE00001FF8
310
000001FFFE0000007FFFFFF0001FFFFFF8000FFFFFFFF8000FF8000FFFFFFFF8
310
000FFF0003FFFFFFFFFFFFFFFFF00000F000FFFFFFFE000001FFFC000C001FE0
310
00C000FFFF80007FFFFFFFFE000001FFFFFFFFE000001FF80FFFFFFFFFFFFFC0
310
7FFFFFF0001FFFFFF8000FFFFFFFF8000FF8000FFFFFFFF8000FFF0003FFFFFF
310
FFFFFFFFFF800000F000FFFFFFC0000001FFFC001C001FE001C000FFFF80007F
310
FFFFFF80000003FFFFFFF80000001FF80FFFFFFFFFFFFFC07FFFFFF0001FFFFF
310
F8001FFFFFFFFC000FF8001FFFFFFFFC000FFF0003FFFFFFFFFFFFFFF0000001
310
F000FFFFF800000001FFF8001C001FE001C000FFFF80007FFFFFF800000003FF
310
FFFF800000003FF80FFFFFFFFFFFFFC07FFFFFF0001FFFFFF8001FFFFFFFFC00
310
0FF8001FFFFFFFFC000FFF0003FFFFFFFFFFFFFE00000001F000FFFFC0000000
310
03FFF8001E001FC001E000FFFF80007FFFFF8000000007FFFFFC000000003FF8
310
0FFFFFFFFFFFFFC07FFFFFF0001FFFFFF8001FFFFFFFFC000FF8001FFFFFFFFC
310
000FFF0003FFFFFFFFFFFFE000000003F000FFFE0000000007FFF8001E000FC0
310
01E0007FFF80007FFFFE0000000007FFFFE0000000007FF80FFFFFFFFFFFFFC0
310
7FFFFFF0001FFFFFF0001FFFFFFFFC0007F0001FFFFFFFFC0007FF0003FFFFFF
310
FFFFFF0000000003F000FFF80000000007FFF8001E000FC003E0007FFF80007F
310
FFF0000000000FFFFF8000000000FFF80FFFFFFFFFFFFFC07FFFFFF0001FFFFF
310
F0001FFFFFFFFC0007F0001FFFFFFFFC0007FF0003FFFFFFFFFFFC0000000007
310
F000FFE0000000000FFFF0003E000FC003E0007FFF80007FFFC0000000001FFF
310
FE0000000001FFF80FFFFFFFFFFFFFC07FFFFFF0001FFFFFF0001FFFFFFFFC00
310
07F0001FFFFFFFFC0007FF0003FFFFFFFFFFF0000000000FF000FFC000000000
310
1FFFF0003F000F8003F0003FFF80007FFF80000000003FFFF80000000003FFF8
310
0FFFFFFFFFFFFFC07FFFFFF0001FFFFFF0001FFFFFFFFC0007F0001FFFFFFFFC
310
0007FF0003FFFFFFFFFFE0000000001FF000FF00000000007FFFF0003F000780
310
03F0003FFF80007FFF00000000007FFFF00000000007FFF80FFFFFFFFFFFFFC0
310
7FFFFFF0001FFFFFF0001FFFFFFFFC0007F0001FFFFFFFFC0007FF0003FFFFFF
310
FFFF80000000007FF000FE0000000000FFFFE0003F00078007F0003FFF80007F
310
FE0000000001FFFFE0000000001FFFF80FFFFFFFFFFFFFC07FFFFFF0001FFFFF
310
F0001FFFFFFFFC0007F0001FFFFFFFFC0007FF0003FFFFFFFFFF0000000000FF
310
F000FC0000000003FFFFE0007F00078007F0003FFF80007FFC0000000007FFFF
310
C0000000007FFFF80FFFFFFFFFFFFFC07FFFFFF0001FFFFFF8001FFFFFFFFC00
310
0FF8001FFFFFFFFC000FFF0003FFFFFFFFFE0000000003FFF000FC000000000F
310
FFFFE0007F80070007F8001FFF80007FF8000000001FFFFF8000000001FFFFF8
310
0FFFFFFFFFFFFFC07FFFFFF0001FFFFFF8001FFFFFFFFC000FF8001FFFFFFFFC
310
000FFF0003FFFFFFFFFC000000000FFFF000F8000000007FFFFFE0007F800700
310
07F8001FFF80007FF000000000FFFFFF800000000FFFFFF80FFFFFFFFFFFFFC0
310
7FFFFFF0001FFFFFF8000FFFFFFFF8000FF8000FFFFFFFF8000FFF0003FFFFFF
310
FFFC000000007FFFF000F800000007FFFFFFC0007F8003000FF8001FFF80007F
310
F000000007FFFFFF000000007FFFFFF80FFFFFFFFFFFFFC07FFFFFF0001FFFFF
310
F8000FFFFFFFF8000FF8000FFFFFFFF8000FFF0003FFFFFFFFF80000000FFFFF
310
F000F0000000FFFFFFFFC000FF8003000FF8001FFF80007FE0000000FFFFFFFF
310
0000000FFFFFFFF8000001FFFE0000007FFFFFF0001FFFFFF8000FFFFFFFF800
310
0FF8000FFFFFFFF8000FFF0003FFFFFFFFF8000000FFFFFFF000F000000FFFFF
310
FFFFC000FFC002000FF8000FFF80007FE000001FFFFFFFFE000001FFFFFFFFF8
310
000001FFFE0000007FFFFFF0001FFFFFF8000FFFFFFFF8000FF8000FFFFFFFF8
310
000FFF0003FFFFFFFFF000001FFFFFFFF000E00000FFFFFFFFFFC000FFC00200
310
0FFC000FFF80007FE00001FFFFFFFFFE00001FFFFFFFFFF8000001FFFE000000
310
7FFFFFF0001FFFFFFC000FFFFFFFF8001FFC000FFFFFFFF8001FFF0003FFFFFF
310
FFF00001FFFFFFFFF000E00007FFFFFFFFFF8000FFC000001FFC000FFF80007F
310
C0000FFFFFFFFFFE0000FFFFFFFFFFF8000001FFFE0000007FFFFFF0001FFFFF
310
FC0007FFFFFFF0001FFC0007FFFFFFF0001FFF0003FFFFFFFFF00007FFFFFFFF
310
F000E0001FFFFFFFFFFF8000FFC000001FFC000FFF80007FC0003FFFFFFFFFFE
310
0001FFFFFFFFFFF8000001FFFE0000007FFFFFF0001FFFFFFC0007FFFFFFF000
310
1FFC0007FFFFFFF0001FFF0003FFFFFFFFF0001FFFFFFFFFF000E0003FFFFF00
310
03FF8001FFE000001FFC0007FF80007FC0007FFFFF0007FC0003FFFFF0003FF8
310
000001FFFE0000007FFFFFF0001FFFFFFC0003FFFFFFE0001FFC0003FFFFFFE0
310
001FFF0003FFFFFFFFF0003FFFFFFFFFF000E0003FFFFF0001FF8001FFE00000
310
1FFE0007FF80007FC0007FFFFE0003FC0007FFFFE0003FF8000001FFFE000000
310
7FFFFFF0001FFFFFFE0003FFFFFFE0003FFE0003FFFFFFE0003FFF0003FFFFFF
310
FFF0003FFFFF8001F000E0003FFFFF0001FF0001FFE000001FFE0007FF80007F
310
C0007FFFFE0003FC0007FFFFE0003FF8000001FFFE0000007FFFFFF0001FFFFF
310
FE0001FFFFFFC0003FFE0001FFFFFFC0003FFF0003FFFFFFFFF0003FFFFF0001
310
F000E0003FFFFF0003FF0001FFE000003FFE0007FF80007FC0007FFFFE0003FC
310
0007FFFFE0003FF8000001FFFE0000007FFFFFF0001FFFFFFF0001FFFFFFC000
310
7FFF0001FFFFFFC0007FFF0003FFFFFFFFF0003FFFFF0001F000E0003FFFFE00
310
03FF0003FFF000003FFE0003FF80007FC0007FFFFC0003FE0007FFFFE0003FF8
310
000001FFFE0000007FFFFFF0001FFFFFFF0000FFFFFF80007FFF0000FFFFFF80
310
007FFF0003FFFFFFFFF0003FFFFF0001F000E0003FFFFE0003FF0003FFF00000
310
3FFF0003FF80007FC0007FFFFC0007FE0007FFFFC0003FF8000001FFFE000000
310
7FFFFFF0001FFFFFFF80007FFFFF0000FFFF80007FFFFF0000FFFF0003FFFFFF
310
FFF0003FFFFF0003F000E0003FFFFC0003FE0003FFF000003FFF0003FF80007F
310
E0003FFFF80007FE0003FFFFC0007FF8000001FFFE0000007FFFFFF0001FFFFF
310
FF80003FFFFE0000FFFF80003FFFFE0000FFFF0003FFFFFFFFF0001FFFFE0003
310
F000F0001FFFF80003FE0003FFF000007FFF0001FF80007FE0003FFFF00007FE
310
0001FFFF80007FF8000001FFFE0000007FFFFFF0001FFFFFFFC0000FFFF80001
310
FFFFC0000FFFF80001FFFF0003FFFFFFFFF0001FFFFC0003F000F0000FFFF000
310
07FE0007FFF800007FFF0001FF80007FE0001FFFE00007FF0000FFFE00007FF8
310
000001FFFE0000007FFFFFF0001FFFFFFFC00003FFE00001FFFFC00003FFE000
310
01FFFF0003FFFFFFFFF8000FFFF80003F000F00003FFC00007FC0007FFF80000
310
7FFF8001FF80007FF00007FF80000FFF00007FF80000FFF8000001FFFE000000
310
7F80000000000001FFE000003E000003FFFFE000003E000003FFFF0003FFFFFF
310
FFF80003FFE00007F000F800000000000FFC0007FFF800007FFF8001FF80007F
310
F000000000000FFF000000000000FFF8000001FFFE0000007F80000000000001
310
FFF0000000000007FFFFF0000000000007FFFF0003FFFFFFFFFC00007E000007
310
F000F800000000000FFC0007FFF80000FFFF8000FF80007FF800000000001FFF
310
800000000001FFF8000001FFFE0000007F80000000000001FFF800000000000F
310
FFFFF800000000000FFFFF0003FFFFFFFFFC00000000000FF000FC0000000000
310
1FFC0007FFFC0000FFFF8000FF80007FF800000000003FFFC00000000001FFF8
310
000001FFFE0000007F80000000000001FFF800000000000FFFFFF80000000000
310
0FFFFF0003FFFFFFFFFE00000000001FF000FE00000000003FF8000FFFFC0000
310
FFFF8000FF80007FFC00000000003FFFC00000000003FFF8000001FFFE000000
310
7F80000000000001FFFC00000000001FFFFFFC00000000001FFFFF0003FFFFFF
310
FFFF00000000001FF000FF00000000003FF8000FFFFC0000FFFFC000FF80007F
310
FE00000000007FFFE00000000007FFF8000001FFFE0000007F80000000000001
310
FFFE00000000003FFFFFFE00000000003FFFFF0003FFFFFFFFFF80000000003F
310
F000FF80000000007FF8000FFFFC0001FFFFC0007F80007FFF0000000000FFFF
310
F0000000000FFFF800000000000000007F80000000000001FFFF8000000000FF
310
FFFFFF8000000000FFFFFF0003FFFFFFFFFFC0000000007FF000FFC000000000
310
FFF8000FFFFE0001FFFFC0007F80007FFF8000000001FFFFF8000000001FFFF8
310
00000000000000007F80000000000001FFFFC000000001FFFFFFFFC000000001
310
FFFFFF0003FFFFFFFFFFE000000000FFF000FFE000000003FFF0001FFFFE0001
310
FFFFC0007F80007FFFC000000007FFFFFE000000003FFFF80000000000000000
310
7F80000000000001FFFFE000000003FFFFFFFFE000000003FFFFFF0003FFFFFF
310
FFFFF000000003FFF000FFF80000000FFFF0001FFFFE0001FFFFE0007F80007F
310
FFF00000000FFFFFFF00000000FFFFF800000000000000007F80000000000001
310
FFFFF80000000FFFFFFFFFF80000000FFFFFFF0003FFFFFFFFFFFC0000000FFF
310
F000FFFE0000003FFFF0001FFFFE0003FFFFE0003F80007FFFFC0000003FFFFF
310
FFC0000003FFFFF800000000000000007F80000000000001FFFFFE0000003FFF
310
FFFFFFFE0000003FFFFFFF0003FFFFFFFFFFFF0000003FFFF000FFFF800000FF
310
FFF0001FFFFF0003FFFFE0003F80007FFFFF000001FFFFFFFFF800001FFFFFF8
310
00000000000000007F80000000000001FFFFFFC00001FFFFFFFFFFFFC00001FF
310
FFFFFF0003FFFFFFFFFFFFC00000FFFFF000FFFFF8000FFFFFFFFFFFFFFFFFFF
310
FFFFFFFFFFFFFFFFFFFFF0001FFFFFFFFFFF0000FFFFFFF80000000000000000
310
7FFFFFFFFFFFFFFFFFFFFFFC001FFFFFFFFFFFFFFC001FFFFFFFFFFFFFFFFFFF
310
FFFFFFFC001FFFFFF000FFFFFFFFFFFFFFFFFFFFFFFFFFFFFFFFFFFFFFFFFFFF
310
FFFFFFFFFFFFFFFFFFFFFFFFFFFFFFFFFFFFFFFFFFFFFFFFFFFFFFFFFFFFFFFF
310
FFFFFFFFFFFFFFFFFFFFFFFFFFFFFFFFFFFFFFFFFFFFFFFFFFFFFFFFFFFFFFFF
310
F000FFFFFFFFFFFFFFFFFFFFFFFFFFFFFFFFFFFFFFFFFFFFFFFFFFFFFFFFFFFF
310
FFFFFFFFFFFFFFFFFFFFFFFFFFFFFFFFFFFFFFFFFFFFFFFFFFFFFFFFFFFFFFFF
310
FFFFFFFFFFFFFFFFFFFFFFFFFFFFFFFFFFFFFFFFFFFFFFFFF000FFFFFFFFFFFF
310
FFFFFFFFFFFFFFFFFFFFFFFFFFFFFFFFFFFFFFFFFFFFFFFFFFFFFFFFFFFFFFFF
310
FFFFFFFFFFFFFFFFFFFFFFFFFFFFFFFFFFFFFFFFFFFFFFFFFFFFFFFFFFFFFFFF
310
FFFFFFFFFFFFFFFFFFFFFFFFFFFFFFFFF000FFFFFFFFFFFFFFFFFFFFFFFFFFFF
310
FFFFFFFFFFFFFFFFFFFFFFFFFFFFFFFFFFFFFFFFFFFFFFFFFFFFFFFFFFFFFFFF
310
FFFFFFFFFFFFFFFFFFFFFFFFFFFFFFFFFFFFFFFFFFFFFFFFFFFFFFFFFFFFFFFF
310
FFFFFFFFFFFFFFFFF000FFFFFFFFFFFFFFFFFFFFFFFFFFFFFFFFFFFFFFFFFFFF
310
FFFFFFFFFFFFFFFFFFFFFFFFFFFFFFFFFFFFFFFFFFFFFFFFFFFFFFFFFFFFFFFF
310
FFFFFFFFFFFFFFFFFFFFFFFFFFFFFFFFFFFFFFFFFFFFFFFFFFFFFFFFFFFFFFFF
310
F000FFFFFFFFFFFFFFFFFFFFFFFFFFFFFFFFFFFFFFFFFFFFFFFFFFFFFFFFFFFF
310
FFFFFFFFFFFFFFFFFFFFFFFFFFFFFFFFFFFFFFFFFFFFFFFFFFFFFFFFFFFFFFFF
310
FFFFFFFFFFFFFFFFFFFFFFFFFFFFFFFFFFFFFFFFFFFFFFFFF000FFFFFFFFFFFF
310
FFFFFFFFFFFFFFFFFFFFFFFFFFFFFFFFFFFFFFFFFFFFFFFFFFFFFFFFFFFFFFFF
310
FFFFFFFFFFFFFFFFFFFFFFFFFFFFFFFFFFFFFFFFFFFFFFFFFFFFFFFFFFFFFFFF
310
FFFFFFFFFFFFFFFFFFFFFFFFFFFFFFFFF000FFFFFFFFFFFFFFFFFFFFFFFFFFFF
310
FFFFFFFFFFFFFFFFFFFFFFFFFFFFFFFFFFFFFFFFFFFFFFFFFFFFFFFFFFFFFFFF
310
FFFFFFFFFFFFFFFFFFFFFFFFFFFFFFFFFFFFFFFFFFFFFFFFFFFFFFFFFFFFFFFF
310
FFFFFFFFFFFFFFFFF000FFFFFFFFFFFFFFFFFFFFFFFFFFFFFFFFFFFFFFFFFFFF
310
FFFFFFFFFFFFFFFFFFFFFFFFFFFFFFFFFFFFFFFFFFFFFFFFFFFFFFFFFFFFFFFF
310
FFFFFFFFFFFFFFFFFFFFFFFFFFFFFFFFFFFFFFFFFFFFFFFFFFFFFFFFFFFFFFFF
310
F000FFFFFFFFFFFFFFFFFFFFFFFFFFFFFFFFFFFFFFFFFFFFFFFFFFFFFFFFFFFF
310
FFFFFFFFFFFFFFFFFFFFFFFFFFFFFFFFFFFFFFFFFFFFFFFFFFFFFFFFFFFFFFFF
310
FFFFFFFFFFFFFFFFFFFFFFFFFFFFFFFFFFFFFFFFFFFFFFFFF000FFFFFFFFFFFF
310
FFFFFFFFFFFFFFFFFFFFFFFFFFFFFFFFFFFFFFFFFFFFFFFFFFFFFFFFFFFFFFFF
310
FFFFFFFFFFFFFFFFFFFFFFFFFFFFFFFFFFFFFFFFFFFFFFFFFFFFFFFFFFFFFFFF
310
FFFFFFFFFFFFFFFFFFFFFFFFFFFFFFFFF000FFFFFFFFFFFFFFFFFFFFFFFFFFFF
310
FFFFFFFFFFFFFFFFFFFFFFFFFFFFFFFFFFFFFFFFFFFFFFFFFFFFFFFFFFFFFFFF
310
FFFFFFFFFFFFFFFFFFFFFFFFFFFFFFFFFFFFFFFFFFFFFFFFFFFFFFFFFFFFFFFF
310
FFFFFFFFFFFFFFFFF000FFFFFFFFFFFFFFFFFFFFFFFFFFFFFFFFFFFFFFFFFFFF
310
FFFFFFFFFFFFFFFFFFFFFFFFFFFFFFFFFFFFFFFFFFFFFFFFFFFFFFFFFFFFFFFF
310
FFFFFFFFFFFFFFFFFFFFFFFFFFFFFFFFFFFFFFFFFFFFFFFFFFFFFFFFFFFFFFFF
310
F000FFFFFFFFFFFFFFFFFFFFFFFFFFFFFFFFFFFFFFFFFFFFFFFFFFFFFFFFFFFF
310
FFFFFFFFFFFFFFFFFFFFFFFFFFFFFFFFFFFFFFFFFFFFFFFFFFFFFFFFFFFFFFFF
310
FFFFFFFFFFFFFFFFFFFFFFFFFFFFFFFFFFFFFFFFFFFFFFFFF000FFFFFFFFFFFF
310
FFFFFFFFFFFFFFFFFFFFFFFFFFFFFFFFFFFFFFFFFFFFFFFFFFFFFFFFFFFFFFFF
310
FFFFFFFFFFFFFFFFFFFFFFFFFFFFFFFFFFFFFFFFFFFFFFFFFFFFFFFFFFFFFFFF
310
FFFFFFFFFFFFFFFFFFFFFFFFFFFFFFFFF000FFFFFFFFFFFFFFFFFFFFFFFFFFFF
310
FFFFFFFFFFFFFFFFFFFFFFFFFFFFFFFFFFFFFFFFFFFFFFFFFFFFFFFFFFFFFFFF
310
FFFFFFFFFFFFFFFFFFFFFFFFFFFFFFFFFFFFFFFFFFFFFFFFFFFFFFFFFFFFFFFF
310
FFFFFFFFFFFFFFFFF000FFFFFFFFFFFFFFFFFFFFFFFFFFFFFFFFFFFFFFFFFFFF
310
FFFFFFFFFFFFFFFFFFFFFFFFFFFFFFFFFFFFFFFFFFFFFFFFFFFFFFFFFFFFFFFF
310
FFFFFFFFFFFFFFFFFFFFFFFFFFFFFFFFFFFFFFFFFFFFFFFFFFFFFFFFFFFFFFFF
310
F000FFFFFFFFFFFFFFFFFFFFFFFFFFFFFFFFFFFFFFFFFFFFFFFFFFFFFFFFFFFF
310
FFFFFFFFFFFFFFFFFFFFFFFFFFFFFFFFFFFFFFFFFFFFFFFFFFFFFFFFFFFFFFFF
310
FFFFFFFFFFFFFFFFFFFFFFFFFFFFFFFFFFFFFFFFFFFFFFFFF000FFFFFFFFFFFF
310
FFFFFFFFFFFFFFFFFFFFFFFFFFFFFFFFFFFFFFFFFFFFFFFFFFFFFFFFFFFFFFFF
310
FFFFFFFFFFFFFFFFFFFFFFFFFFFFFFFFFFFFFFFFFFFFFFFFFFFFFFFFFFFFFFFF
310
FFFFFFFFFFFFFFFFFFFFFFFFFFFFFFFFF000FFFFFFFFFFFFFFFFFFFFFFFFFFFF
310
FFFFFFFFFFFFFFFFFFFFFFFFFFFFFFFFFFFFFFFFFFFFFFFFFFFFFFFFFFFFFFFF
310
FFFFFFFFFFFFFFFFFFFFFFFFFFFFFFFFFFFFFFFFFFFFFFFFFFFFFFFFFFFFFFFF
310
FFFFFFFFFFFFFFFFF000FFFFFFFFFFFFFFFFFFFFFFFFFFFFFFFFFFFFFFFFFFFF
310
FFFFFFFFFFFFFFFFFFFFFFFFFFFFFFFFFFFFFFFFFFFFFFFFFFFFFFFFFFFFFFFF
310
FFFFFFFFFFFFFFFFFFFFFFFFFFFFFFFFFFFFFFFFFFFFFFFFFFFFFFFFFFFFFFFF
310
F000FFFFFFFFFFFFFFFFFFFFFFFFFFFFFFFFFFFFFFFFFFFFFFFFFFFFFFFFFFFF
310
FFFFFFFFFFFFFFFFFFFFFFFFFFFFFFFFFFFFFFFFFFFFFFFFFFFFFFFFFFFFFFFF
310
FFFFFFFFFFFFFFFFFFFFFFFFFFFFFFFFFFFFFFFFFFFFFFFFF000FFFFFFFFFFFF
310
FFFFFFFFFFFFFFFFFFFFFFFFFFFFFFFFFFFFFFFFFFFFFFFFFFFFFFFFFFFFFFFF
310
FFFFFFFFFFFFFFFFFFFFFFFFFFFFFFFFFFFFFFFFFFFFFFFFFFFFFFFFFFFFFFFF
310
FFFFFFFFFFFFFFFFFFFFFFFFFFFFFFFFF0000000000000000000000000000000
310
00000000000000000000000042006C00610063006B0000000000000000000000
310
0000000000000000000000000000000000000000000000000000000000000000
310
0000000000000000000000000000FFFFFFFFFFFFFFFFFFFFFFFFFFFFFFFFFFFF
310
FFFFFFFFFFFFFFFFFFFFFFFFFFFFFFFFFFFFFFFFFFFFFFFFFFFFFFFFFFFFFFFF
310
FFFFFFFFFFFFFFFFFFFFFFFF6476000800000000FFFFFFFF20FF202026000000
310
1E00000008000000060000000000000011000000200000008403000000000000
310
6000000060000000200002FB200020000000002B00FFFFFF40002200E8030000
310
A80400001C020000AF0000804A20004000000000000000000100000000000000
310
616C000800000000E40100007001000002000000270000001100000000000000
310
00000000BC0200000000000003020122420065006C006C00200047006F007400
310
680069006300200053007400640020004C006900670068007400000000000000
310
00000000000000000000000000000000420065006C006C0047006F0074006800
310
690063005300740064002D0042006F006C006400000000000000000000000000
310
0000000000000000000000000000000000000000000000000000000000000000
310
0000000000000000000000000000000000000000000000000000000000000000
  1
OLE
  0
ENDSEC
  0
SECTION
  2
OBJECTS
  0
DICTIONARY
  5
C
330
0
100
AcDbDictionary
281
     1
  3
ACAD_GROUP
350
D
  3
ACAD_LAYOUT
350
1A
  3
ACAD_MLEADERSTYLE
350
30C
  3
ACAD_MLINESTYLE
350
17
  3
ACAD_PLOTSETTINGS
350
19
  3
ACAD_PLOTSTYLENAME
350
E
  3
ACAD_TABLESTYLE
350
30B
  3
ACAD_VISUALSTYLE
350
2A
  3
AcDbVariableDictionary
350
30D
  0
DICTIONARY
  5
D
102
{ACAD_REACTORS
330
C
102
}
330
C
100
AcDbDictionary
281
     1
  0
DICTIONARY
  5
1A
102
{ACAD_REACTORS
330
C
102
}
330
C
100
AcDbDictionary
281
     1
  3
Layout1
350
1E
  3
Layout2
350
26
  3
Model
350
22
  0
DICTIONARY
  5
30C
102
{ACAD_REACTORS
330
C
102
}
330
C
100
AcDbDictionary
281
     1
  0
DICTIONARY
  5
17
102
{ACAD_REACTORS
330
C
102
}
330
C
100
AcDbDictionary
281
     1
  3
Standard
350
18
  0
DICTIONARY
  5
19
102
{ACAD_REACTORS
330
C
102
}
330
C
100
AcDbDictionary
281
     1
  0
ACDBDICTIONARYWDFLT
  5
E
102
{ACAD_REACTORS
330
C
102
}
330
C
100
AcDbDictionary
281
     1
  3
Normal
350
F
100
AcDbDictionaryWithDefault
340
F
  0
DICTIONARY
  5
30B
102
{ACAD_REACTORS
330
C
102
}
330
C
100
AcDbDictionary
281
     1
  0
DICTIONARY
  5
2A
102
{ACAD_REACTORS
330
C
102
}
330
C
100
AcDbDictionary
281
     1
  3
2dWireframe
350
2F
  3
3D Hidden
350
31
  3
3dWireframe
350
30
  3
Basic
350
32
  3
Brighten
350
36
  3
ColorChange
350
3A
  3
Conceptual
350
34
  3
Dim
350
35
  3
Facepattern
350
39
  3
Flat
350
2B
  3
FlatWithEdges
350
2C
  3
Gouraud
350
2D
  3
GouraudWithEdges
350
2E
  3
Linepattern
350
38
  3
Realistic
350
33
  3
Thicken
350
37
  0
DICTIONARY
  5
30D
102
{ACAD_REACTORS
330
C
102
}
330
C
100
AcDbDictionary
281
     1
  3
PSOLHEIGHT
350
30F
  3
PSOLWIDTH
350
30E
  0
LAYOUT
  5
1E
102
{ACAD_REACTORS
330
1A
102
}
330
1A
100
AcDbPlotSettings
  1

  2
none_device
  4

  6

 40
0.0
 41
0.0
 42
0.0
 43
0.0
 44
0.0
 45
0.0
 46
0.0
 47
0.0
 48
0.0
 49
0.0
140
0.0
141
0.0
142
1.0
143
1.0
 70
   688
 72
     0
 73
     0
 74
     5
  7

 75
    16
147
1.0
148
0.0
149
0.0
100
AcDbLayout
  1
Layout1
 70
     1
 71
     1
 10
0.0
 20
0.0
 11
420.0
 21
297.0
 12
0.0
 22
0.0
 32
0.0
 14
1.0000000000E+20
 24
1.0000000000E+20
 34
1.0000000000E+20
 15
-1.0000000000E+20
 25
-1.0000000000E+20
 35
-1.0000000000E+20
146
0.0
 13
0.0
 23
0.0
 33
0.0
 16
1.0
 26
0.0
 36
0.0
 17
0.0
 27
1.0
 37
0.0
 76
     0
330
1B
  0
LAYOUT
  5
26
102
{ACAD_REACTORS
330
1A
102
}
330
1A
100
AcDbPlotSettings
  1

  2
none_device
  4

  6

 40
0.0
 41
0.0
 42
0.0
 43
0.0
 44
0.0
 45
0.0
 46
0.0
 47
0.0
 48
0.0
 49
0.0
140
0.0
141
0.0
142
1.0
143
1.0
 70
   688
 72
     0
 73
     0
 74
     5
  7

 75
    16
147
1.0
148
0.0
149
0.0
100
AcDbLayout
  1
Layout2
 70
     1
 71
     2
 10
0.0
 20
0.0
 11
0.0
 21
0.0
 12
0.0
 22
0.0
 32
0.0
 14
0.0
 24
0.0
 34
0.0
 15
0.0
 25
0.0
 35
0.0
146
0.0
 13
0.0
 23
0.0
 33
0.0
 16
1.0
 26
0.0
 36
0.0
 17
0.0
 27
1.0
 37
0.0
 76
     0
330
23
  0
LAYOUT
  5
22
102
{ACAD_REACTORS
330
1A
102
}
330
1A
100
AcDbPlotSettings
  1

  2
none_device
  4

  6

 40
0.0
 41
0.0
 42
0.0
 43
0.0
 44
0.0
 45
0.0
 46
0.0
 47
0.0
 48
0.0
 49
0.0
140
0.0
141
0.0
142
1.0
143
1.0
 70
  1712
 72
     0
 73
     0
 74
     0
  7

 75
     0
147
1.0
148
0.0
149
0.0
100
AcDbLayout
  1
Model
 70
     1
 71
     0
 10
0.0
 20
0.0
 11
297.0
 21
210.0
 12
0.0
 22
0.0
 32
0.0
 14
0.0
 24
0.0
 34
0.0
 15
297.0
 25
210.0
 35
0.0
146
0.0
 13
0.0
 23
0.0
 33
0.0
 16
1.0
 26
0.0
 36
0.0
 17
0.0
 27
1.0
 37
0.0
 76
     0
330
1F
331
29
  0
MLINESTYLE
  5
18
102
{ACAD_REACTORS
330
17
102
}
330
17
100
AcDbMlineStyle
  2
Standard
 70
     0
  3

 62
   256
 51
90.0
 52
90.0
 71
     2
 49
0.5
 62
   256
  6
BYLAYER
 49
-0.5
 62
   256
  6
BYLAYER
  0
ACDBPLACEHOLDER
  5
F
102
{ACAD_REACTORS
330
E
102
}
330
E
  0
VISUALSTYLE
  5
2F
102
{ACAD_REACTORS
330
2A
102
}
330
2A
100
AcDbVisualStyle
  2
2dWireframe
 70
     4
 71
     0
 72
     2
 73
     0
 90
        0
 40
-0.6
 41
-30.0
 62
     5
 63
     7
 74
     1
 91
        4
 64
     7
 65
   257
 75
     1
175
     1
 42
1.0
 92
        0
 66
   257
 43
1.0
 76
     1
 77
     6
 78
     2
 67
     7
 79
     5
170
     0
171
     0
290
     0
174
     0
 93
        1
 44
0.0
173
     0
291
     0
 45
0.0
1001
ACAD
1000
AcDbSavedByObjectVersion
1070
     0
  0
VISUALSTYLE
  5
31
102
{ACAD_REACTORS
330
2A
102
}
330
2A
100
AcDbVisualStyle
  2
3D Hidden
 70
     6
 71
     1
 72
     2
 73
     2
 90
        0
 40
-0.6
 41
-30.0
 62
     5
 63
     7
 74
     2
 91
        2
 64
     7
 65
   257
 75
     2
175
     1
 42
40.0
 92
        0
 66
   257
 43
1.0
 76
     1
 77
     6
 78
     2
 67
     7
 79
     3
170
     0
171
     0
290
     0
174
     0
 93
        1
 44
0.0
173
     0
291
     0
 45
0.0
1001
ACAD
1000
AcDbSavedByObjectVersion
1070
     0
  0
VISUALSTYLE
  5
30
102
{ACAD_REACTORS
330
2A
102
}
330
2A
100
AcDbVisualStyle
  2
3dWireframe
 70
     5
 71
     0
 72
     2
 73
     0
 90
        0
 40
-0.6
 41
-30.0
 62
     5
 63
     7
 74
     1
 91
        4
 64
     7
 65
   257
 75
     1
175
     1
 42
1.0
 92
        0
 66
   257
 43
1.0
 76
     1
 77
     6
 78
     2
 67
     7
 79
     5
170
     0
171
     0
290
     0
174
     0
 93
        1
 44
0.0
173
     0
291
     0
 45
0.0
1001
ACAD
1000
AcDbSavedByObjectVersion
1070
     0
  0
VISUALSTYLE
  5
32
102
{ACAD_REACTORS
330
2A
102
}
330
2A
100
AcDbVisualStyle
  2
Basic
 70
     7
 71
     1
 72
     0
 73
     1
 90
        0
 40
-0.6
 41
-30.0
 62
     5
 63
     7
 74
     0
 91
        4
 64
     7
 65
   257
 75
     1
175
     1
 42
1.0
 92
        8
 66
     7
 43
1.0
 76
     1
 77
     6
 78
     2
 67
     7
 79
     5
170
     0
171
     0
290
     0
174
     0
 93
        1
 44
0.0
173
     0
291
     1
 45
0.0
1001
ACAD
1000
AcDbSavedByObjectVersion
1070
     0
  0
VISUALSTYLE
  5
36
102
{ACAD_REACTORS
330
2A
102
}
330
2A
100
AcDbVisualStyle
  2
Brighten
 70
    12
 71
     2
 72
     2
 73
     0
 90
        0
 40
-0.6
 41
-30.0
 62
     5
 63
     7
 74
     1
 91
        4
 64
     7
 65
   257
 75
     1
175
     1
 42
1.0
 92
        8
 66
     7
 43
1.0
 76
     1
 77
     6
 78
     2
 67
     7
 79
     5
170
     0
171
     0
290
     0
174
     0
 93
        1
 44
50.0
173
     0
291
     1
 45
0.0
1001
ACAD
1000
AcDbSavedByObjectVersion
1070
     0
  0
VISUALSTYLE
  5
3A
102
{ACAD_REACTORS
330
2A
102
}
330
2A
100
AcDbVisualStyle
  2
ColorChange
 70
    16
 71
     2
 72
     2
 73
     3
 90
        0
 40
-0.6
 41
-30.0
 62
     5
 63
     8
 74
     1
 91
        4
 64
     7
 65
   257
 75
     1
175
     1
 42
1.0
 92
        8
 66
     8
 43
1.0
 76
     1
 77
     6
 78
     2
 67
     7
 79
     5
170
     0
171
     0
290
     0
174
     0
 93
        1
 44
0.0
173
     0
291
     1
 45
0.0
1001
ACAD
1000
AcDbSavedByObjectVersion
1070
     0
  0
VISUALSTYLE
  5
34
102
{ACAD_REACTORS
330
2A
102
}
330
2A
100
AcDbVisualStyle
  2
Conceptual
 70
     9
 71
     3
 72
     2
 73
     0
 90
        0
 40
-0.6
 41
-30.0
 62
     5
 63
     7
 74
     2
 91
        2
 64
     7
 65
   257
 75
     1
175
     1
 42
40.0
 92
        8
 66
     7
 43
1.0
 76
     1
 77
     6
 78
     2
 67
     7
 79
     3
170
     0
171
     0
290
     0
174
     0
 93
        1
 44
0.0
173
     0
291
     0
 45
0.0
1001
ACAD
1000
AcDbSavedByObjectVersion
1070
     0
  0
VISUALSTYLE
  5
35
102
{ACAD_REACTORS
330
2A
102
}
330
2A
100
AcDbVisualStyle
  2
Dim
 70
    11
 71
     2
 72
     2
 73
     0
 90
        0
 40
-0.6
 41
-30.0
 62
     5
 63
     7
 74
     1
 91
        4
 64
     7
 65
   257
 75
     1
175
     1
 42
1.0
 92
        8
 66
     7
 43
1.0
 76
     1
 77
     6
 78
     2
 67
     7
 79
     5
170
     0
171
     0
290
     0
174
     0
 93
        1
 44
-50.0
173
     0
291
     1
 45
0.0
1001
ACAD
1000
AcDbSavedByObjectVersion
1070
     0
  0
VISUALSTYLE
  5
39
102
{ACAD_REACTORS
330
2A
102
}
330
2A
100
AcDbVisualStyle
  2
Facepattern
 70
    15
 71
     2
 72
     2
 73
     0
 90
        0
 40
-0.6
 41
-30.0
 62
     5
 63
     7
 74
     1
 91
        4
 64
     7
 65
   257
 75
     1
175
     1
 42
1.0
 92
        8
 66
     7
 43
1.0
 76
     1
 77
     6
 78
     2
 67
     7
 79
     5
170
     0
171
     0
290
     0
174
     0
 93
        1
 44
0.0
173
     0
291
     1
 45
0.0
1001
ACAD
1000
AcDbSavedByObjectVersion
1070
     0
  0
VISUALSTYLE
  5
2B
102
{ACAD_REACTORS
330
2A
102
}
330
2A
100
AcDbVisualStyle
  2
Flat
 70
     0
 71
     2
 72
     1
 73
     1
 90
        2
 40
-0.6
 41
30.0
 62
     5
 63
     7
 74
     0
 91
        4
 64
     7
 65
   257
 75
     1
175
     1
 42
1.0
 92
        8
 66
     7
 43
1.0
 76
     1
 77
     6
 78
     2
 67
     7
 79
     5
170
     0
171
     0
290
     0
174
     0
 93
       13
 44
0.0
173
     0
291
     1
 45
0.0
1001
ACAD
1000
AcDbSavedByObjectVersion
1070
     0
  0
VISUALSTYLE
  5
2C
102
{ACAD_REACTORS
330
2A
102
}
330
2A
100
AcDbVisualStyle
  2
FlatWithEdges
 70
     1
 71
     2
 72
     1
 73
     1
 90
        2
 40
-0.6
 41
30.0
 62
     5
 63
     7
 74
     1
 91
        4
 64
     7
 65
   257
 75
     1
175
     1
 42
1.0
 92
        0
 66
   257
 43
1.0
 76
     1
 77
     6
 78
     2
 67
     7
 79
     5
170
     0
171
     0
290
     0
174
     0
 93
       13
 44
0.0
173
     0
291
     1
 45
0.0
1001
ACAD
1000
AcDbSavedByObjectVersion
1070
     0
  0
VISUALSTYLE
  5
2D
102
{ACAD_REACTORS
330
2A
102
}
330
2A
100
AcDbVisualStyle
  2
Gouraud
 70
     2
 71
     2
 72
     2
 73
     1
 90
        2
 40
-0.6
 41
30.0
 62
     5
 63
     7
 74
     0
 91
        4
 64
     7
 65
   257
 75
     1
175
     1
 42
1.0
 92
        0
 66
     7
 43
1.0
 76
     1
 77
     6
 78
     2
 67
     7
 79
     5
170
     0
171
     0
290
     0
174
     0
 93
       13
 44
0.0
173
     0
291
     1
 45
0.0
1001
ACAD
1000
AcDbSavedByObjectVersion
1070
     0
  0
VISUALSTYLE
  5
2E
102
{ACAD_REACTORS
330
2A
102
}
330
2A
100
AcDbVisualStyle
  2
GouraudWithEdges
 70
     3
 71
     2
 72
     2
 73
     1
 90
        2
 40
-0.6
 41
30.0
 62
     5
 63
     7
 74
     1
 91
        4
 64
     7
 65
   257
 75
     1
175
     1
 42
1.0
 92
        0
 66
   257
 43
1.0
 76
     1
 77
     6
 78
     2
 67
     7
 79
     5
170
     0
171
     0
290
     0
174
     0
 93
       13
 44
0.0
173
     0
291
     1
 45
0.0
1001
ACAD
1000
AcDbSavedByObjectVersion
1070
     0
  0
VISUALSTYLE
  5
38
102
{ACAD_REACTORS
330
2A
102
}
330
2A
100
AcDbVisualStyle
  2
Linepattern
 70
    14
 71
     2
 72
     2
 73
     0
 90
        0
 40
-0.6
 41
-30.0
 62
     5
 63
     7
 74
     1
 91
        4
 64
     7
 65
   257
 75
     7
175
     7
 42
1.0
 92
        8
 66
     7
 43
1.0
 76
     1
 77
     6
 78
     2
 67
     7
 79
     5
170
     0
171
     0
290
     0
174
     0
 93
        1
 44
0.0
173
     0
291
     1
 45
0.0
1001
ACAD
1000
AcDbSavedByObjectVersion
1070
     0
  0
VISUALSTYLE
  5
33
102
{ACAD_REACTORS
330
2A
102
}
330
2A
100
AcDbVisualStyle
  2
Realistic
 70
     8
 71
     2
 72
     2
 73
     0
 90
        0
 40
-0.6
 41
-30.0
 62
     5
 63
     7
 74
     1
 91
        0
 64
     7
 65
   257
 75
     1
175
     1
 42
1.0
 92
        8
 66
     8
 43
1.0
 76
     1
 77
     6
 78
     2
 67
     7
 79
     5
170
     0
171
     0
290
     0
174
     0
 93
       13
 44
0.0
173
     0
291
     0
 45
0.0
1001
ACAD
1000
AcDbSavedByObjectVersion
1070
     0
  0
VISUALSTYLE
  5
37
102
{ACAD_REACTORS
330
2A
102
}
330
2A
100
AcDbVisualStyle
  2
Thicken
 70
    13
 71
     2
 72
     2
 73
     0
 90
        0
 40
-0.6
 41
-30.0
 62
     5
 63
     7
 74
     1
 91
        4
 64
     7
 65
   257
 75
     1
175
     1
 42
1.0
 92
       12
 66
     7
 43
1.0
 76
     1
 77
     6
 78
     2
 67
     7
 79
     5
170
     0
171
     0
290
     0
174
     0
 93
        1
 44
0.0
173
     0
291
     1
 45
0.0
1001
ACAD
1000
AcDbSavedByObjectVersion
1070
     0
  0
DICTIONARYVAR
  5
30F
102
{ACAD_REACTORS
330
30D
102
}
330
30D
100
DictionaryVariables
280
     0
  1
80.000000
  0
DICTIONARYVAR
  5
30E
102
{ACAD_REACTORS
330
30D
102
}
330
30D
100
DictionaryVariables
280
     0
  1
5.000000
  0
ENDSEC
  0
EOF
