  0
SECTION
  2
HEADER
  9
$ACADVER
  1
AC1015
  9
$ACADMAINTVER
 70
     6
  9
$DWGCODEPAGE
  3
ANSI_1252
  9
$INSBASE
 10
0.0
 20
0.0
 30
0.0
  9
$EXTMIN
 10
0.0
 20
0.0
 30
0.0
  9
$EXTMAX
 10
297.0
 20
210.0
 30
0.0
  9
$LIMMIN
 10
0.0
 20
0.0
  9
$LIMMAX
 10
297.0
 20
210.0
  9
$ORTHOMODE
 70
     0
  9
$REGENMODE
 70
     1
  9
$FILLMODE
 70
     1
  9
$QTEXTMODE
 70
     0
  9
$MIRRTEXT
 70
     1
  9
$LTSCALE
 40
1.0
  9
$ATTMODE
 70
     1
  9
$TEXTSIZE
 40
2.0
  9
$TRACEWID
 40
1.0
  9
$TEXTSTYLE
  7
Standard
  9
$CLAYER
  8
0
  9
$CELTYPE
  6
ByLayer
  9
$CECOLOR
 62
   256
  9
$CELTSCALE
 40
1.0
  9
$DISPSILH
 70
     0
  9
$DIMSCALE
 40
1.0
  9
$DIMASZ
 40
3.0
  9
$DIMEXO
 40
0.0
  9
$DIMDLI
 40
3.75
  9
$DIMRND
 40
0.0
  9
$DIMDLE
 40
0.0
  9
$DIMEXE
 40
1.0
  9
$DIMTP
 40
0.0
  9
$DIMTM
 40
0.0
  9
$DIMTXT
 40
2.0
  9
$DIMCEN
 40
2.5
  9
$DIMTSZ
 40
0.0
  9
$DIMTOL
 70
     0
  9
$DIMLIM
 70
     0
  9
$DIMTIH
 70
     1
  9
$DIMTOH
 70
     1
  9
$DIMSE1
 70
     0
  9
$DIMSE2
 70
     0
  9
$DIMTAD
 70
     1
  9
$DIMZIN
 70
     0
  9
$DIMBLK
  1

  9
$DIMASO
 70
     1
  9
$DIMSHO
 70
     1
  9
$DIMPOST
  1

  9
$DIMAPOST
  1

  9
$DIMALT
 70
     0
  9
$DIMALTD
 70
     3
  9
$DIMALTF
 40
0.0393700787
  9
$DIMLFAC
 40
1.0
  9
$DIMTOFL
 70
     1
  9
$DIMTVP
 40
0.0
  9
$DIMTIX
 70
     0
  9
$DIMSOXD
 70
     0
  9
$DIMSAH
 70
     0
  9
$DIMBLK1
  1

  9
$DIMBLK2
  1

  9
$DIMSTYLE
  2
ISO-25
  9
$DIMCLRD
 70
     0
  9
$DIMCLRE
 70
     0
  9
$DIMCLRT
 70
     0
  9
$DIMTFAC
 40
1.0
  9
$DIMGAP
 40
1.524
  9
$DIMJUST
 70
     0
  9
$DIMSD1
 70
     0
  9
$DIMSD2
 70
     0
  9
$DIMTOLJ
 70
     0
  9
$DIMTZIN
 70
     0
  9
$DIMALTZ
 70
     0
  9
$DIMALTTZ
 70
     0
  9
$DIMUPT
 70
     0
  9
$DIMDEC
 70
     2
  9
$DIMTDEC
 70
     3
  9
$DIMALTU
 70
     2
  9
$DIMALTTD
 70
     3
  9
$DIMTXSTY
  7
Standard
  9
$DIMAUNIT
 70
     0
  9
$DIMADEC
 70
     2
  9
$DIMALTRND
 40
0.0
  9
$DIMAZIN
 70
     0
  9
$DIMDSEP
 70
    44
  9
$DIMATFIT
 70
     3
  9
$DIMFRAC
 70
     0
  9
$DIMLDRBLK
  1

  9
$DIMLUNIT
 70
     2
  9
$DIMLWD
 70
    -2
  9
$DIMLWE
 70
    -2
  9
$DIMTMOVE
 70
     0
  9
$LUNITS
 70
     2
  9
$LUPREC
 70
     2
  9
$SKETCHINC
 40
1.0
  9
$FILLETRAD
 40
10.0
  9
$AUNITS
 70
     0
  9
$AUPREC
 70
     2
  9
$MENU
  1
.
  9
$ELEVATION
 40
0.0
  9
$PELEVATION
 40
0.0
  9
$THICKNESS
 40
0.0
  9
$LIMCHECK
 70
     0
  9
$CHAMFERA
 40
10.0
  9
$CHAMFERB
 40
10.0
  9
$CHAMFERC
 40
20.0
  9
$CHAMFERD
 40
0.0
  9
$SKPOLY
 70
     0
  9
$TDCREATE
 40
2455608.425676702
  9
$TDUCREATE
 40
2455608.384010035
  9
$TDUPDATE
 40
2455608.425676713
  9
$TDUUPDATE
 40
2455608.384010046
  9
$TDINDWG
 40
0.0000000116
  9
$TDUSRTIMER
 40
0.0000000116
  9
$USRTIMER
 70
     1
  9
$ANGBASE
 50
0.0
  9
$ANGDIR
 70
     0
  9
$PDMODE
 70
     0
  9
$PDSIZE
 40
-1.0
  9
$PLINEWID
 40
0.0
  9
$SPLFRAME
 70
     0
  9
$SPLINETYPE
 70
     6
  9
$SPLINESEGS
 70
     8
  9
$HANDSEED
  5
2FD
  9
$SURFTAB1
 70
     6
  9
$SURFTAB2
 70
     6
  9
$SURFTYPE
 70
     6
  9
$SURFU
 70
     6
  9
$SURFV
 70
     6
  9
$UCSBASE
  2

  9
$UCSNAME
  2

  9
$UCSORG
 10
0.0
 20
0.0
 30
0.0
  9
$UCSXDIR
 10
1.0
 20
0.0
 30
0.0
  9
$UCSYDIR
 10
0.0
 20
1.0
 30
0.0
  9
$UCSORTHOREF
  2

  9
$UCSORTHOVIEW
 70
     0
  9
$UCSORGTOP
 10
0.0
 20
0.0
 30
0.0
  9
$UCSORGBOTTOM
 10
0.0
 20
0.0
 30
0.0
  9
$UCSORGLEFT
 10
0.0
 20
0.0
 30
0.0
  9
$UCSORGRIGHT
 10
0.0
 20
0.0
 30
0.0
  9
$UCSORGFRONT
 10
0.0
 20
0.0
 30
0.0
  9
$UCSORGBACK
 10
0.0
 20
0.0
 30
0.0
  9
$PUCSBASE
  2

  9
$PUCSNAME
  2

  9
$PUCSORG
 10
0.0
 20
0.0
 30
0.0
  9
$PUCSXDIR
 10
1.0
 20
0.0
 30
0.0
  9
$PUCSYDIR
 10
0.0
 20
1.0
 30
0.0
  9
$PUCSORTHOREF
  2

  9
$PUCSORTHOVIEW
 70
     0
  9
$PUCSORGTOP
 10
0.0
 20
0.0
 30
0.0
  9
$PUCSORGBOTTOM
 10
0.0
 20
0.0
 30
0.0
  9
$PUCSORGLEFT
 10
0.0
 20
0.0
 30
0.0
  9
$PUCSORGRIGHT
 10
0.0
 20
0.0
 30
0.0
  9
$PUCSORGFRONT
 10
0.0
 20
0.0
 30
0.0
  9
$PUCSORGBACK
 10
0.0
 20
0.0
 30
0.0
  9
$USERI1
 70
     0
  9
$USERI2
 70
     0
  9
$USERI3
 70
     0
  9
$USERI4
 70
     0
  9
$USERI5
 70
     0
  9
$USERR1
 40
0.0
  9
$USERR2
 40
0.0
  9
$USERR3
 40
0.0
  9
$USERR4
 40
0.0
  9
$USERR5
 40
0.0
  9
$WORLDVIEW
 70
     1
  9
$SHADEDGE
 70
     3
  9
$SHADEDIF
 70
    70
  9
$TILEMODE
 70
     1
  9
$MAXACTVP
 70
    64
  9
$PINSBASE
 10
0.0
 20
0.0
 30
0.0
  9
$PLIMCHECK
 70
     0
  9
$PEXTMIN
 10
1.0000000000E+20
 20
1.0000000000E+20
 30
1.0000000000E+20
  9
$PEXTMAX
 10
-1.0000000000E+20
 20
-1.0000000000E+20
 30
-1.0000000000E+20
  9
$PLIMMIN
 10
0.0
 20
0.0
  9
$PLIMMAX
 10
420.0
 20
297.0
  9
$UNITMODE
 70
     0
  9
$VISRETAIN
 70
     1
  9
$PLINEGEN
 70
     0
  9
$PSLTSCALE
 70
     1
  9
$TREEDEPTH
 70
  3020
  9
$CMLSTYLE
  2
Standard
  9
$CMLJUST
 70
     0
  9
$CMLSCALE
 40
20.0
  9
$PROXYGRAPHICS
 70
     1
  9
$MEASUREMENT
 70
     1
  9
$CELWEIGHT
370
    -1
  9
$ENDCAPS
280
     0
  9
$JOINSTYLE
280
     0
  9
$LWDISPLAY
290
     1
  9
$INSUNITS
 70
     4
  9
$HYPERLINKBASE
  1

  9
$STYLESHEET
  1

  9
$XEDIT
290
     1
  9
$CEPSNTYPE
380
     0
  9
$PSTYLEMODE
290
     1
  9
$FINGERPRINTGUID
  2
{5E1C8A7D-B423-4C1B-8F46-03FDB885281A}
  9
$VERSIONGUID
  2
{FAEB1C32-E019-11D5-929B-00C0DF256EC4}
  9
$EXTNAMES
290
     1
  9
$PSVPSCALE
 40
0.0
  9
$OLESTARTUP
290
     0
  0
ENDSEC
  0
SECTION
  2
CLASSES
  0
CLASS
  1
ACDBDICTIONARYWDFLT
  2
AcDbDictionaryWithDefault
  3
ObjectDBX Classes
 90
        0
280
     0
281
     0
  0
CLASS
  1
VISUALSTYLE
  2
AcDbVisualStyle
  3
ObjectDBX Classes
 90
     4095
280
     0
281
     0
  0
CLASS
  1
DICTIONARYVAR
  2
AcDbDictionaryVar
  3
ObjectDBX Classes
 90
        0
280
     0
281
     0
  0
CLASS
  1
ACDBPLACEHOLDER
  2
AcDbPlaceHolder
  3
ObjectDBX Classes
 90
        0
280
     0
281
     0
  0
CLASS
  1
LAYOUT
  2
AcDbLayout
  3
ObjectDBX Classes
 90
        0
280
     0
281
     0
  0
ENDSEC
  0
SECTION
  2
TABLES
  0
TABLE
  2
VPORT
  5
8
330
0
100
AcDbSymbolTable
 70
     1
  0
VPORT
  5
29
330
8
100
AcDbSymbolTableRecord
100
AcDbViewportTableRecord
  2
*Active
 70
     0
 10
0.0
 20
0.0
 11
1.0
 21
1.0
 12
148.5
 22
105.0
 13
0.0
 23
0.0
 14
10.0
 24
10.0
 15
10.0
 25
10.0
 16
0.0
 26
0.0
 36
1.0
 17
0.0
 27
0.0
 37
0.0
 40
210.0
 41
1.4142857143
 42
50.0
 43
0.0
 44
0.0
 50
0.0
 51
0.0
 71
     0
 72
  2000
 73
     1
 74
     3
 75
     0
 76
     0
 77
     0
 78
     0
281
     0
 65
     1
110
0.0
120
0.0
130
0.0
111
1.0
121
0.0
131
0.0
112
0.0
122
1.0
132
0.0
 79
     0
146
0.0
  0
ENDTAB
  0
TABLE
  2
LTYPE
  5
5
330
0
100
AcDbSymbolTable
 70
     6
  0
LTYPE
  5
14
330
5
100
AcDbSymbolTableRecord
100
AcDbLinetypeTableRecord
  2
ByBlock
 70
     0
  3

 72
    65
 73
     0
 40
0.0
  0
LTYPE
  5
15
330
5
100
AcDbSymbolTableRecord
100
AcDbLinetypeTableRecord
  2
ByLayer
 70
     0
  3

 72
    65
 73
     0
 40
0.0
  0
LTYPE
  5
16
330
5
100
AcDbSymbolTableRecord
100
AcDbLinetypeTableRecord
  2
Continuous
 70
     0
  3
Solid line
 72
    65
 73
     0
 40
0.0
  0
LTYPE
  5
3B
330
5
100
AcDbSymbolTableRecord
100
AcDbLinetypeTableRecord
  2
HIDDEN
 70
     0
  3
Hidden __ __ __ __ __ __ __ __ __ __ __ __ __ __
 72
    65
 73
     2
 40
1.905
 49
1.27
 74
     0
 49
-0.635
 74
     0
  0
LTYPE
  5
3C
330
5
100
AcDbSymbolTableRecord
100
AcDbLinetypeTableRecord
  2
PHANTOM
 70
     0
  3
Phantom ______  __  __  ______  __  __  ______
 72
    65
 73
     6
 40
12.7
 49
6.35
 74
     0
 49
-1.27
 74
     0
 49
1.27
 74
     0
 49
-1.27
 74
     0
 49
1.27
 74
     0
 49
-1.27
 74
     0
  0
LTYPE
  5
3D
330
5
100
AcDbSymbolTableRecord
100
AcDbLinetypeTableRecord
  2
CENTER
 70
     0
  3
Center ____ _ ____ _ ____ _ ____ _ ____ _ ____
 72
    65
 73
     4
 40
10.16
 49
6.35
 74
     0
 49
-1.27
 74
     0
 49
1.27
 74
     0
 49
-1.27
 74
     0
  0
LTYPE
  5
3E
330
5
100
AcDbSymbolTableRecord
100
AcDbLinetypeTableRecord
  2
CENTERX2
 70
     0
  3
Center (2x) ________  __  ________  __  _____
 72
    65
 73
     4
 40
20.32
 49
12.7
 74
     0
 49
-2.54
 74
     0
 49
2.54
 74
     0
 49
-2.54
 74
     0
  0
LTYPE
  5
3F
330
5
100
AcDbSymbolTableRecord
100
AcDbLinetypeTableRecord
  2
DOT2
 70
     0
  3
Dot (.5x) ........................................
 72
    65
 73
     2
 40
0.635
 49
0.0
 74
     0
 49
-0.635
 74
     0
  0
ENDTAB
  0
TABLE
  2
LAYER
  5
2
330
0
100
AcDbSymbolTable
 70
     5
  0
LAYER
  5
10
330
2
100
AcDbSymbolTableRecord
100
AcDbLayerTableRecord
  2
0
 70
     0
 62
     7
  6
Continuous
370
    -3
390
F
  0
LAYER
  5
40
330
2
100
AcDbSymbolTableRecord
100
AcDbLayerTableRecord
  2
FORMAT
 70
     0
 62
     7
  6
Continuous
370
    -3
390
F
  0
LAYER
  5
41
330
2
100
AcDbSymbolTableRecord
100
AcDbLayerTableRecord
  2
VERMASSUNG
 70
     0
 62
     7
  6
Continuous
370
    -3
390
F
  0
LAYER
  5
42
330
2
100
AcDbSymbolTableRecord
100
AcDbLayerTableRecord
  2
KOPF_DÜNN
 70
     0
 62
     7
  6
Continuous
370
    -3
390
F
  0
LAYER
  5
43
330
2
100
AcDbSymbolTableRecord
100
AcDbLayerTableRecord
  2
KOPF_DICK
 70
     0
 62
     7
  6
Continuous
370
    15
390
F
  0
ENDTAB
  0
TABLE
  2
STYLE
  5
3
330
0
100
AcDbSymbolTable
 70
     3
  0
STYLE
  5
11
330
3
100
AcDbSymbolTableRecord
100
AcDbTextStyleTableRecord
  2
Standard
 70
     0
 40
0.0
 41
1.0
 50
0.0
 71
     0
 42
2.5
  3
txt
  4

  0
STYLE
  5
44
330
3
100
AcDbSymbolTableRecord
100
AcDbTextStyleTableRecord
  2
SLDTEXTSTYLE0
 70
     0
 40
0.0
 41
0.7
 50
0.0
 71
     0
 42
0.2
  3
TXT
  4

  0
STYLE
  5
48
330
3
100
AcDbSymbolTableRecord
100
AcDbTextStyleTableRecord
  2
SLDTEXTSTYLE1
 70
     0
 40
0.0
 41
0.6526315789
 50
0.0
 71
     0
 42
0.2
  3
TXT
  4

  0
ENDTAB
  0
TABLE
  2
VIEW
  5
6
330
0
100
AcDbSymbolTable
 70
     0
  0
ENDTAB
  0
TABLE
  2
UCS
  5
7
330
0
100
AcDbSymbolTable
 70
     0
  0
ENDTAB
  0
TABLE
  2
APPID
  5
9
330
0
100
AcDbSymbolTable
 70
     1
  0
APPID
  5
12
330
9
100
AcDbSymbolTableRecord
100
AcDbRegAppTableRecord
  2
ACAD
 70
     0
  0
ENDTAB
  0
TABLE
  2
DIMSTYLE
  5
A
330
0
100
AcDbSymbolTable
 70
     4
100
AcDbDimStyleTable
  0
DIMSTYLE
105
27
330
A
100
AcDbSymbolTableRecord
100
AcDbDimStyleTableRecord
  2
ISO-25
 70
     0
 41
2.5
 42
0.625
 43
3.75
 44
1.25
 73
     0
 74
     0
 77
     1
 78
     8
140
2.5
141
2.5
143
0.0393700787
147
0.625
171
     3
172
     1
271
     2
272
     2
274
     3
278
    44
283
     0
284
     8
340
11
  0
DIMSTYLE
105
23E
102
{ACAD_REACTORS
330
23D
102
}
330
A
100
AcDbSymbolTableRecord
100
AcDbDimStyleTableRecord
  2
SLDDIMSTYLE0
 70
     0
 41
3.0
 44
0.0
 73
     0
 74
     0
 77
     1
 78
    12
140
2.0
147
0.5
173
     1
272
     3
284
    12
340
44
  0
DIMSTYLE
105
249
102
{ACAD_REACTORS
330
248
330
255
330
25F
330
269
102
}
330
A
100
AcDbSymbolTableRecord
100
AcDbDimStyleTableRecord
  2
SLDDIMSTYLE1
 70
     0
 41
3.0
 44
0.0
 45
0.000000001
 73
     0
 74
     0
 77
     1
 78
    12
140
2.0
147
0.5
173
     1
271
     2
272
     3
284
    12
340
44
  0
DIMSTYLE
105
2E0
102
{ACAD_REACTORS
330
2DF
102
}
330
A
100
AcDbSymbolTableRecord
100
AcDbDimStyleTableRecord
  2
SLDDIMSTYLE2
 70
     0
 41
3.0
 44
0.0
 45
0.000000001
 73
     0
 74
     0
 77
     1
 78
    12
140
2.0
147
0.5
173
     1
271
     2
272
     3
284
    12
340
44
  0
ENDTAB
  0
TABLE
  2
BLOCK_RECORD
  5
1
330
0
100
AcDbSymbolTable
 70
     8
  0
BLOCK_RECORD
  5
1F
330
1
100
AcDbSymbolTableRecord
100
AcDbBlockTableRecord
  2
*Model_Space
340
22
  0
BLOCK_RECORD
  5
1B
330
1
100
AcDbSymbolTableRecord
100
AcDbBlockTableRecord
  2
*Paper_Space
340
1E
  0
BLOCK_RECORD
  5
23
330
1
100
AcDbSymbolTableRecord
100
AcDbBlockTableRecord
  2
*Paper_Space0
340
26
  0
BLOCK_RECORD
  5
23F
330
1
100
AcDbSymbolTableRecord
100
AcDbBlockTableRecord
  2
*D1
340
0
  0
BLOCK_RECORD
  5
24A
330
1
100
AcDbSymbolTableRecord
100
AcDbBlockTableRecord
  2
*D2
340
0
  0
BLOCK_RECORD
  5
256
330
1
100
AcDbSymbolTableRecord
100
AcDbBlockTableRecord
  2
*D3
340
0
  0
BLOCK_RECORD
  5
260
330
1
100
AcDbSymbolTableRecord
100
AcDbBlockTableRecord
  2
*D4
340
0
  0
BLOCK_RECORD
  5
26A
330
1
100
AcDbSymbolTableRecord
100
AcDbBlockTableRecord
  2
*D5
340
0
  0
BLOCK_RECORD
  5
2E1
330
1
100
AcDbSymbolTableRecord
100
AcDbBlockTableRecord
  2
*D6
340
0
  0
BLOCK_RECORD
  5
2EB
330
1
100
AcDbSymbolTableRecord
100
AcDbBlockTableRecord
  2
SW_CENTERMARKSYMBOL_0
340
0
102
{BLKREFS
331
2F6
102
}
  0
ENDTAB
  0
ENDSEC
  0
SECTION
  2
BLOCKS
  0
BLOCK
  5
20
330
1F
100
AcDbEntity
  8
0
100
AcDbBlockBegin
  2
*Model_Space
 70
     0
 10
0.0
 20
0.0
 30
0.0
  3
*Model_Space
  1

  0
ENDBLK
  5
21
330
1F
100
AcDbEntity
  8
0
100
AcDbBlockEnd
  0
BLOCK
  5
1C
330
1B
100
AcDbEntity
 67
     1
  8
0
100
AcDbBlockBegin
  2
*Paper_Space
 70
     0
 10
0.0
 20
0.0
 30
0.0
  3
*Paper_Space
  1

  0
ENDBLK
  5
1D
330
1B
100
AcDbEntity
 67
     1
  8
0
100
AcDbBlockEnd
  0
BLOCK
  5
24
330
23
100
AcDbEntity
  8
0
100
AcDbBlockBegin
  2
*Paper_Space0
 70
     0
 10
0.0
 20
0.0
 30
0.0
  3
*Paper_Space0
  1

  0
ENDBLK
  5
25
330
23
100
AcDbEntity
  8
0
100
AcDbBlockEnd
  0
BLOCK
  5
240
330
23F
100
AcDbEntity
  8
0
100
AcDbBlockBegin
  2
*D1
 70
     1
 10
0.0
 20
0.0
 30
0.0
  3
*D1
  1

  0
ARC
  5
242
330
23F
100
AcDbEntity
  8
VERMASSUNG
100
AcDbCircle
 10
259.0463169627
 20
159.8382831025
 30
0.0
 40
43.45990386368972
100
AcDbArc
 50
266.9675391515
 51
270.0
  0
ARC
  5
243
330
23F
100
AcDbEntity
  8
VERMASSUNG
100
AcDbCircle
 10
259.0463169627
 20
159.8382831025
 30
0.0
 40
43.45990386368972
100
AcDbArc
 50
259.0746061037
 51
266.9675391515
  0
ARC
  5
244
330
23F
100
AcDbEntity
  8
VERMASSUNG
100
AcDbCircle
 10
259.0463169627
 20
159.8382831025
 30
0.0
 40
43.45990386368972
100
AcDbArc
 50
270.0
 51
280.3344196713
  0
SOLID
  5
245
330
23F
100
AcDbEntity
  8
VERMASSUNG
100
AcDbTrace
 10
256.7472132946
 20
116.4392351157
 30
0.0
 11
253.797934385
 21
117.1493434973
 31
0.0
 12
253.7193867434
 22
116.2527776782
 32
0.0
 13
253.7193867434
 23
116.2527776782
 33
0.0
  0
SOLID
  5
246
330
23F
100
AcDbEntity
  8
VERMASSUNG
100
AcDbTrace
 10
259.0463169627
 20
116.3783792388
 30
0.0
 11
262.0600398007
 21
116.0320056607
 31
0.0
 12
262.0290320215
 22
116.9314713452
 32
0.0
 13
262.0290320215
 23
116.9314713452
 33
0.0
  0
MTEXT
  5
247
330
23F
100
AcDbEntity
  8
VERMASSUNG
100
AcDbMText
 10
262.4078267966
 20
119.0742407102
 30
0.0
 40
2.0
 41
0.0
 71
     1
 72
     1
  1
3°
  7
SLDTEXTSTYLE0
 11
0.9935039064250433
 21
0.1137980136829232
 31
0.0
 73
     1
 44
1.0
  0
ENDBLK
  5
241
330
23F
100
AcDbEntity
  8
0
100
AcDbBlockEnd
  0
BLOCK
  5
24B
330
24A
100
AcDbEntity
  8
0
100
AcDbBlockBegin
  2
*D2
 70
     1
 10
0.0
 20
0.0
 30
0.0
  3
*D2
  1

  0
SOLID
  5
24D
330
24A
100
AcDbEntity
  8
VERMASSUNG
100
AcDbTrace
 10
150.4030759307
 20
75.6829024133
 30
0.0
 11
150.8530759307
 21
78.6829024133
 31
0.0
 12
149.9530759307
 22
78.6829024133
 32
0.0
 13
149.9530759307
 23
78.6829024133
 33
0.0
  0
SOLID
  5
24E
330
24A
100
AcDbEntity
  8
VERMASSUNG
100
AcDbTrace
 10
150.4030759307
 20
138.6829024133
 30
0.0
 11
149.9530759307
 21
135.6829024133
 31
0.0
 12
150.8530759307
 22
135.6829024133
 32
0.0
 13
150.8530759307
 23
135.6829024133
 33
0.0
  0
LINE
  5
24F
330
24A
100
AcDbEntity
  8
VERMASSUNG
100
AcDbLine
 10
189.3463169627
 20
75.6829024133
 30
0.0
 11
149.4030759307
 21
75.6829024133
 31
0.0
  0
LINE
  5
250
330
24A
100
AcDbEntity
  8
VERMASSUNG
100
AcDbLine
 10
189.3463169627
 20
138.6829024133
 30
0.0
 11
149.4030759307
 21
138.6829024133
 31
0.0
  0
LINE
  5
251
330
24A
100
AcDbEntity
  8
VERMASSUNG
100
AcDbLine
 10
150.4030759307
 20
75.6829024133
 30
0.0
 11
150.4030759307
 21
138.6829024133
 31
0.0
  0
MTEXT
  5
252
330
24A
100
AcDbEntity
  8
VERMASSUNG
100
AcDbMText
 10
147.6249404417
 20
100.9800211938
 30
0.0
 40
2.0
 41
0.0
 71
     1
 72
     1
  1
HSK 
  7
SLDTEXTSTYLE0
 11
6.123233995736766E-17
 21
1.0
 31
0.0
 73
     1
 44
1.0
  0
MTEXT
  5
253
330
24A
100
AcDbEntity
  8
VERMASSUNG
100
AcDbMText
 10
147.8249404512
 20
106.9800212459
 30
0.0
 40
2.0
 41
0.0
 71
     1
 72
     1
  1
%%c
  7
SLDTEXTSTYLE0
 11
6.123233995736766E-17
 21
1.0
 31
0.0
 73
     1
 44
1.0
  0
MTEXT
  5
254
330
24A
100
AcDbEntity
  8
VERMASSUNG
100
AcDbMText
 10
147.8249405676
 20
110.5878987548
 30
0.0
 40
2.0
 41
0.0
 71
     1
 72
     1
  1
63
  7
SLDTEXTSTYLE0
 11
6.123233995736766E-17
 21
1.0
 31
0.0
 73
     1
 44
1.0
  0
ENDBLK
  5
24C
330
24A
100
AcDbEntity
  8
0
100
AcDbBlockEnd
  0
BLOCK
  5
257
330
256
100
AcDbEntity
  8
0
100
AcDbBlockBegin
  2
*D3
 70
     1
 10
0.0
 20
0.0
 30
0.0
  3
*D3
  1

  0
SOLID
  5
259
330
256
100
AcDbEntity
  8
VERMASSUNG
100
AcDbTrace
 10
259.0463169627
 20
155.7689557839
 30
0.0
 11
256.0463169627
 21
156.2189557839
 31
0.0
 12
256.0463169627
 22
155.3189557839
 32
0.0
 13
256.0463169627
 23
155.3189557839
 33
0.0
  0
SOLID
  5
25A
330
256
100
AcDbEntity
  8
VERMASSUNG
100
AcDbTrace
 10
189.0463169627
 20
155.7689557839
 30
0.0
 11
192.0463169627
 21
155.3189557839
 31
0.0
 12
192.0463169627
 22
156.2189557839
 32
0.0
 13
192.0463169627
 23
156.2189557839
 33
0.0
  0
LINE
  5
25B
330
256
100
AcDbEntity
  8
VERMASSUNG
100
AcDbLine
 10
259.0463169627
 20
152.1829024133
 30
0.0
 11
259.0463169627
 21
156.7689557839
 31
0.0
  0
LINE
  5
25C
330
256
100
AcDbEntity
  8
VERMASSUNG
100
AcDbLine
 10
189.0463169627
 20
138.3829024133
 30
0.0
 11
189.0463169627
 21
156.7689557839
 31
0.0
  0
LINE
  5
25D
330
256
100
AcDbEntity
  8
VERMASSUNG
100
AcDbLine
 10
259.0463169627
 20
155.7689557839
 30
0.0
 11
189.0463169627
 21
155.7689557839
 31
0.0
  0
MTEXT
  5
25E
330
256
100
AcDbEntity
  8
VERMASSUNG
100
AcDbMText
 10
222.6473745237
 20
158.3470911471
 30
0.0
 40
2.0
 41
0.0
 71
     1
 72
     1
  1
70
  7
SLDTEXTSTYLE0
 73
     1
 44
1.0
  0
ENDBLK
  5
258
330
256
100
AcDbEntity
  8
0
100
AcDbBlockEnd
  0
BLOCK
  5
261
330
260
100
AcDbEntity
  8
0
100
AcDbBlockBegin
  2
*D4
 70
     1
 10
0.0
 20
0.0
 30
0.0
  3
*D4
  1

  0
SOLID
  5
263
330
260
100
AcDbEntity
  8
VERMASSUNG
100
AcDbTrace
 10
259.0463169627
 20
161.7689557839
 30
0.0
 11
256.0463169627
 21
162.2189557839
 31
0.0
 12
256.0463169627
 22
161.3189557839
 32
0.0
 13
256.0463169627
 23
161.3189557839
 33
0.0
  0
SOLID
  5
264
330
260
100
AcDbEntity
  8
VERMASSUNG
100
AcDbTrace
 10
157.1463169627
 20
161.7689557839
 30
0.0
 11
160.1463169627
 21
161.3189557839
 31
0.0
 12
160.1463169627
 22
162.2189557839
 32
0.0
 13
160.1463169627
 23
162.2189557839
 33
0.0
  0
LINE
  5
265
330
260
100
AcDbEntity
  8
VERMASSUNG
100
AcDbLine
 10
259.0463169627
 20
152.1829024133
 30
0.0
 11
259.0463169627
 21
162.7689557839
 31
0.0
  0
LINE
  5
266
330
260
100
AcDbEntity
  8
VERMASSUNG
100
AcDbLine
 10
157.1463169627
 20
126.8735801598
 30
0.0
 11
157.1463169627
 21
162.7689557839
 31
0.0
  0
LINE
  5
267
330
260
100
AcDbEntity
  8
VERMASSUNG
100
AcDbLine
 10
259.0463169627
 20
161.7689557839
 30
0.0
 11
157.1463169627
 21
161.7689557839
 31
0.0
  0
MTEXT
  5
268
330
260
100
AcDbEntity
  8
VERMASSUNG
100
AcDbMText
 10
205.3969491578
 20
164.3470911471
 30
0.0
 40
2.0
 41
0.0
 71
     1
 72
     1
  1
101.9
  7
SLDTEXTSTYLE0
 73
     1
 44
1.0
  0
ENDBLK
  5
262
330
260
100
AcDbEntity
  8
0
100
AcDbBlockEnd
  0
BLOCK
  5
26B
330
26A
100
AcDbEntity
  8
0
100
AcDbBlockBegin
  2
*D5
 70
     1
 10
0.0
 20
0.0
 30
0.0
  3
*D5
  1

  0
SOLID
  5
26D
330
26A
100
AcDbEntity
  8
VERMASSUNG
100
AcDbTrace
 10
268.7483608404
 20
152.1829024133
 30
0.0
 11
268.2983608404
 21
149.1829024133
 31
0.0
 12
269.1983608404
 22
149.1829024133
 32
0.0
 13
269.1983608404
 23
149.1829024133
 33
0.0
  0
SOLID
  5
26E
330
26A
100
AcDbEntity
  8
VERMASSUNG
100
AcDbTrace
 10
268.7483608404
 20
107.1829024133
 30
0.0
 11
269.1983608404
 21
110.1829024133
 31
0.0
 12
268.2983608404
 22
110.1829024133
 32
0.0
 13
268.2983608404
 23
110.1829024133
 33
0.0
  0
LINE
  5
26F
330
26A
100
AcDbEntity
  8
VERMASSUNG
100
AcDbLine
 10
259.0463169627
 20
152.1829024133
 30
0.0
 11
269.7483608404
 21
152.1829024133
 31
0.0
  0
LINE
  5
270
330
26A
100
AcDbEntity
  8
VERMASSUNG
100
AcDbLine
 10
257.294100321
 20
107.1829024133
 30
0.0
 11
269.7483608404
 21
107.1829024133
 31
0.0
  0
LINE
  5
271
330
26A
100
AcDbEntity
  8
VERMASSUNG
100
AcDbLine
 10
268.7483608404
 20
152.1829024133
 30
0.0
 11
268.7483608404
 21
107.1829024133
 31
0.0
  0
MTEXT
  5
272
330
26A
100
AcDbEntity
  8
VERMASSUNG
100
AcDbMText
 10
266.1702254773
 20
128.1829799743
 30
0.0
 40
2.0
 41
0.0
 71
     1
 72
     1
  1
45
  7
SLDTEXTSTYLE0
 11
-7.044195017643634E-15
 21
1.0
 31
0.0
 73
     1
 44
1.0
  0
ENDBLK
  5
26C
330
26A
100
AcDbEntity
  8
0
100
AcDbBlockEnd
  0
BLOCK
  5
2E2
330
2E1
100
AcDbEntity
  8
0
100
AcDbBlockBegin
  2
*D6
 70
     1
 10
0.0
 20
0.0
 30
0.0
  3
*D6
  1

  0
SOLID
  5
2E4
330
2E1
100
AcDbEntity
  8
VERMASSUNG
100
AcDbTrace
 10
31.9175073069
 20
72.1556503073
 30
0.0
 11
32.3675073069
 21
75.1556503073
 31
0.0
 12
31.4675073069
 22
75.1556503073
 32
0.0
 13
31.4675073069
 23
75.1556503073
 33
0.0
  0
SOLID
  5
2E5
330
2E1
100
AcDbEntity
  8
VERMASSUNG
100
AcDbTrace
 10
31.9175073069
 20
152.1556503073
 30
0.0
 11
31.4675073069
 21
149.1556503073
 31
0.0
 12
32.3675073069
 22
149.1556503073
 32
0.0
 13
32.3675073069
 23
149.1556503073
 33
0.0
  0
LINE
  5
2E6
330
2E1
100
AcDbEntity
  8
VERMASSUNG
100
AcDbLine
 10
75.0252848583
 20
72.1556503073
 30
0.0
 11
30.9175073069
 21
72.1556503073
 31
0.0
  0
LINE
  5
2E7
330
2E1
100
AcDbEntity
  8
VERMASSUNG
100
AcDbLine
 10
75.0252848583
 20
152.1556503073
 30
0.0
 11
30.9175073069
 21
152.1556503073
 31
0.0
  0
LINE
  5
2E8
330
2E1
100
AcDbEntity
  8
VERMASSUNG
100
AcDbLine
 10
31.9175073069
 20
72.1556503073
 30
0.0
 11
31.9175073069
 21
152.1556503073
 31
0.0
  0
MTEXT
  5
2E9
330
2E1
100
AcDbEntity
  8
VERMASSUNG
100
AcDbMText
 10
29.3393718273
 20
108.9526139658
 30
0.0
 40
2.0
 41
0.0
 71
     1
 72
     1
  1
%%c
  7
SLDTEXTSTYLE0
 11
6.123233995736766E-17
 21
1.0
 31
0.0
 73
     1
 44
1.0
  0
MTEXT
  5
2EA
330
2E1
100
AcDbEntity
  8
VERMASSUNG
100
AcDbMText
 10
29.3393719437
 20
112.5608017707
 30
0.0
 40
2.0
 41
0.0
 71
     1
 72
     1
  1
80
  7
SLDTEXTSTYLE0
 11
6.123233995736766E-17
 21
1.0
 31
0.0
 73
     1
 44
1.0
  0
ENDBLK
  5
2E3
330
2E1
100
AcDbEntity
  8
0
100
AcDbBlockEnd
  0
BLOCK
  5
2EC
330
2EB
100
AcDbEntity
  8
0
100
AcDbBlockBegin
  2
SW_CENTERMARKSYMBOL_0
 70
     0
 10
0.0
 20
0.0
 30
0.0
  3
SW_CENTERMARKSYMBOL_0
  1

  0
LINE
  5
2EE
330
2EB
100
AcDbEntity
  8
VERMASSUNG
 62
     0
100
AcDbLine
 10
0.0
 20
0.0
 30
0.0
 11
0.0
 21
2.5
 31
0.0
  0
LINE
  5
2EF
330
2EB
100
AcDbEntity
  8
VERMASSUNG
 62
     0
100
AcDbLine
 10
0.0
 20
0.0
 30
0.0
 11
-2.5
 21
0.0
 31
0.0
  0
LINE
  5
2F0
330
2EB
100
AcDbEntity
  8
VERMASSUNG
 62
     0
100
AcDbLine
 10
0.0
 20
0.0
 30
0.0
 11
0.0
 21
-2.5
 31
0.0
  0
LINE
  5
2F1
330
2EB
100
AcDbEntity
  8
VERMASSUNG
 62
     0
100
AcDbLine
 10
0.0
 20
0.0
 30
0.0
 11
2.5
 21
0.0
 31
0.0
  0
LINE
  5
2F2
330
2EB
100
AcDbEntity
  8
VERMASSUNG
 62
     0
100
AcDbLine
 10
0.0
 20
5.0
 30
0.0
 11
0.0
 21
46.4608566368
 31
0.0
  0
LINE
  5
2F3
330
2EB
100
AcDbEntity
  8
VERMASSUNG
 62
     0
100
AcDbLine
 10
-5.0
 20
0.0
 30
0.0
 11
-34.0
 21
0.0
 31
0.0
  0
LINE
  5
2F4
330
2EB
100
AcDbEntity
  8
VERMASSUNG
 62
     0
100
AcDbLine
 10
0.0
 20
-5.0
 30
0.0
 11
0.0
 21
-34.0
 31
0.0
  0
LINE
  5
2F5
330
2EB
100
AcDbEntity
  8
VERMASSUNG
 62
     0
100
AcDbLine
 10
5.0
 20
0.0
 30
0.0
 11
34.0
 21
0.0
 31
0.0
  0
ENDBLK
  5
2ED
330
2EB
100
AcDbEntity
  8
0
100
AcDbBlockEnd
  0
ENDSEC
  0
SECTION
  2
ENTITIES
  0
MTEXT
  5
45
330
1F
100
AcDbEntity
  8
KOPF_DÜNN
100
AcDbMText
 10
13.8892156294
 20
23.8442973028
 30
0.0
 40
3.0
 41
0.0
 71
     1
 72
     1
  1
HA6.PDF.RUA.070
  7
SLDTEXTSTYLE0
 73
     1
 44
1.0
  0
MTEXT
  5
46
330
1F
100
AcDbEntity
  8
VERMASSUNG
100
AcDbMText
 10
13.9329988022
 20
28.8834360957
 30
0.0
 40
3.0
 41
0.0
 71
     1
 72
     1
  1
Klemmhalter rechts_Turning tool right 93° /55°
  7
SLDTEXTSTYLE0
 73
     1
 44
1.0
  0
MTEXT
  5
47
330
1F
100
AcDbEntity
  8
VERMASSUNG
100
AcDbMText
 10
98.8601118557
 20
13.8365368179
 30
0.0
 40
2.0
 41
0.0
 71
     1
 72
     1
  1
Datum: 15.02.2011
  7
SLDTEXTSTYLE0
 73
     1
 44
1.0
  0
MTEXT
  5
49
330
1F
100
AcDbEntity
  8
VERMASSUNG
100
AcDbMText
 10
13.933048693
 20
18.0482802738
 30
0.0
 40
2.0
 41
0.0
 71
     1
 72
     1
  1
DIN 69893 HSK 63 A ICTM / DN.. 15 04..
  7
SLDTEXTSTYLE1
 73
     1
 44
1.0
  0
MTEXT
  5
4A
330
1F
100
AcDbEntity
  8
VERMASSUNG
100
AcDbMText
 10
13.9808475933
 20
13.9090973692
 30
0.0
 40
2.0
 41
0.0
 71
     1
 72
     1
  1
Gewicht: 1148g
  7
SLDTEXTSTYLE0
 73
     1
 44
1.0
  0
LINE
  5
4B
330
1F
100
AcDbEntity
  8
0
  6
Continuous
 62
     7
370
    15
100
AcDbLine
 10
245.4979552511
 20
143.5720567217
 30
0.0
 11
245.3469643789
 21
143.3225968427
 31
0.0
  0
LINE
  5
4C
330
1F
100
AcDbEntity
  8
0
  6
Continuous
 62
     7
370
    15
100
AcDbLine
 10
250.1755668141
 20
141.7206847566
 30
0.0
 11
249.5788575848
 21
140.9740212196
 31
0.0
  0
LINE
  5
4D
330
1F
100
AcDbEntity
  8
0
  6
Continuous
 62
     7
370
    15
100
AcDbLine
 10
246.0540191934
 20
144.638355269
 30
0.0
 11
245.5564637082
 21
143.8163179547
 31
0.0
  0
LINE
  5
4E
330
1F
100
AcDbEntity
  8
0
  6
Continuous
 62
     7
370
    15
100
AcDbLine
 10
257.8161702601
 20
136.6174094569
 30
0.0
 11
258.2345761771
 21
137.30867965
 31
0.0
  0
LINE
  5
4F
330
1F
100
AcDbEntity
  8
0
  6
Continuous
 62
     7
370
    15
100
AcDbLine
 10
189.3463169627
 20
75.6829024133
 30
0.0
 11
193.9963169627
 21
75.6829024133
 31
0.0
  0
LINE
  5
50
330
1F
100
AcDbEntity
  8
0
  6
Continuous
 62
     7
370
    15
100
AcDbLine
 10
194.0005211601
 20
138.6829024133
 30
0.0
 11
189.3463169627
 21
138.6829024133
 31
0.0
  0
ARC
  5
51
330
1F
100
AcDbEntity
  8
0
  6
Continuous
 62
     7
370
    15
100
AcDbCircle
 10
189.3463169627
 20
75.9829024133
 30
0.0
 40
0.2999999999999829
100
AcDbArc
 50
180.0
 51
270.0
  0
ARC
  5
52
330
1F
100
AcDbEntity
  8
0
  6
Continuous
 62
     7
370
    15
100
AcDbCircle
 10
189.3463169627
 20
138.3829024133
 30
0.0
 40
0.3000000000000114
100
AcDbArc
 50
90.0
 51
180.0
  0
ARC
  5
53
330
1F
100
AcDbEntity
  8
0
  6
Continuous
 62
     7
370
    15
100
AcDbCircle
 10
215.9963169627
 20
80.1829024133
 30
0.0
 40
1.0
100
AcDbArc
 50
90.0
 51
143.1139143113
  0
ARC
  5
54
330
1F
100
AcDbEntity
  8
0
  6
Continuous
 62
     7
370
    15
100
AcDbCircle
 10
215.9963169627
 20
134.1829024133
 30
0.0
 40
1.0
100
AcDbArc
 50
216.8996843908
 51
270.0
  0
LINE
  5
55
330
1F
100
AcDbEntity
  8
0
  6
Continuous
 62
     7
370
    15
100
AcDbLine
 10
215.9963169627
 20
81.1829024133
 30
0.0
 11
230.2789899747
 21
81.1829024133
 31
0.0
  0
LINE
  5
56
330
1F
100
AcDbEntity
  8
0
  6
Continuous
 62
     7
370
    15
100
AcDbLine
 10
230.2789899747
 20
133.1829024133
 30
0.0
 11
215.9963169627
 21
133.1829024133
 31
0.0
  0
ARC
  5
57
330
1F
100
AcDbEntity
  8
0
  6
Continuous
 62
     7
370
    15
100
AcDbCircle
 10
188.5463169627
 20
82.6124715516
 30
0.0
 40
0.5999999999999943
100
AcDbArc
 50
33.5573097619
 51
90.0
  0
ARC
  5
58
330
1F
100
AcDbEntity
  8
0
  6
Continuous
 62
     7
370
    15
100
AcDbCircle
 10
188.5463169627
 20
131.753333275
 30
0.0
 40
0.5999999999999943
100
AcDbArc
 50
270.0
 51
326.4426902381
  0
LINE
  5
59
330
1F
100
AcDbEntity
  8
0
  6
Continuous
 62
     7
370
    15
100
AcDbLine
 10
187.0463169627
 20
82.9624715516
 30
0.0
 11
187.9030297361
 21
83.1920270473
 31
0.0
  0
LINE
  5
5A
330
1F
100
AcDbEntity
  8
0
  6
Continuous
 62
     7
370
    15
100
AcDbLine
 10
187.9030297361
 20
131.1737777792
 30
0.0
 11
187.0463169627
 21
131.403333275
 31
0.0
  0
LINE
  5
5B
330
1F
100
AcDbEntity
  8
0
  6
Continuous
 62
     7
370
    15
100
AcDbLine
 10
175.8148081639
 20
130.8406324334
 30
0.0
 11
163.2463169627
 21
130.2109485055
 31
0.0
  0
LINE
  5
5C
330
1F
100
AcDbEntity
  8
0
  6
Continuous
 62
     7
370
    15
100
AcDbLine
 10
187.0463169627
 20
131.403333275
 30
0.0
 11
184.2293153053
 21
131.2622009275
 31
0.0
  0
LINE
  5
5D
330
1F
100
AcDbEntity
  8
0
  6
Continuous
 62
     7
370
    15
100
AcDbLine
 10
184.2293713954
 20
83.103601089
 30
0.0
 11
187.0463169627
 21
82.9624715516
 31
0.0
  0
LINE
  5
5E
330
1F
100
AcDbEntity
  8
0
  6
Continuous
 62
     7
370
    15
100
AcDbLine
 10
167.2463169627
 20
83.9544555195
 30
0.0
 11
175.8152106825
 21
83.5251522269
 31
0.0
  0
ARC
  5
5F
330
1F
100
AcDbEntity
  8
0
  6
Continuous
 62
     7
370
    15
100
AcDbCircle
 10
188.0583211631
 20
82.6124715516
 30
0.0
 40
0.6000000000000085
100
AcDbArc
 50
90.0
 51
105.0
  0
ARC
  5
60
330
1F
100
AcDbEntity
  8
0
  6
Continuous
 62
     7
370
    15
100
AcDbCircle
 10
188.0583211631
 20
131.753333275
 30
0.0
 40
0.6000000000000227
100
AcDbArc
 50
255.0
 51
270.0
  0
LINE
  5
61
330
1F
100
AcDbEntity
  8
0
  6
Continuous
 62
     7
370
    15
100
AcDbLine
 10
188.0583211631
 20
83.2124715516
 30
0.0
 11
188.5463169627
 21
83.2124715516
 31
0.0
  0
LINE
  5
62
330
1F
100
AcDbEntity
  8
0
  6
Continuous
 62
     7
370
    15
100
AcDbLine
 10
188.5463169627
 20
131.153333275
 30
0.0
 11
188.0583211631
 21
131.153333275
 31
0.0
  0
ARC
  5
63
330
1F
100
AcDbEntity
  8
0
  6
Continuous
 62
     7
370
    15
100
AcDbCircle
 10
230.2789899747
 20
134.1829024133
 30
0.0
 40
1.000000000000016
100
AcDbArc
 50
270.0
 51
345.0
  0
ARC
  5
64
330
1F
100
AcDbEntity
  8
0
  6
Continuous
 62
     7
370
    15
100
AcDbCircle
 10
230.2789899747
 20
80.1829024133
 30
0.0
 40
1.000000000000016
100
AcDbArc
 50
15.0
 51
90.0
  0
LINE
  5
65
330
1F
100
AcDbEntity
  8
0
  6
Continuous
 62
     7
370
    15
100
AcDbLine
 10
231.3142661551
 20
80.1829024133
 30
0.0
 11
232.4701285029
 21
80.1829024133
 31
0.0
  0
LINE
  5
66
330
1F
100
AcDbEntity
  8
0
  6
Continuous
 62
     7
370
    15
100
AcDbLine
 10
231.4336963815
 20
134.6286220862
 30
0.0
 11
231.244915801
 21
133.9240833682
 31
0.0
  0
LINE
  5
67
330
1F
100
AcDbEntity
  8
0
  6
Continuous
 62
     7
370
    15
100
AcDbLine
 10
231.244915801
 20
80.4417214584
 30
0.0
 11
231.3142661551
 21
80.1829024133
 31
0.0
  0
LINE
  5
68
330
1F
100
AcDbEntity
  8
0
  6
Continuous
 62
     7
370
    15
100
AcDbLine
 10
158.2963169627
 20
86.3704024133
 30
0.0
 11
165.8463169627
 21
86.3704024133
 31
0.0
  0
ARC
  5
69
330
1F
100
AcDbEntity
  8
0
  6
Continuous
 62
     7
370
    15
100
AcDbCircle
 10
165.8463169627
 20
84.9704024133
 30
0.0
 40
1.40000000000002
100
AcDbArc
 50
37.6443616934
 51
90.0
  0
LINE
  5
6A
330
1F
100
AcDbEntity
  8
0
  6
Continuous
 62
     7
370
    15
100
AcDbLine
 10
158.2874804209
 20
128.0440658715
 30
0.0
 11
157.1574845819
 21
126.9140700325
 31
0.0
  0
LINE
  5
6B
330
1F
100
AcDbEntity
  8
0
  6
Continuous
 62
     7
370
    15
100
AcDbLine
 10
157.143736083
 20
87.522983293
 30
0.0
 11
158.2963169627
 21
86.3704024133
 31
0.0
  0
ARC
  5
6C
330
1F
100
AcDbEntity
  8
0
  6
Continuous
 62
     7
370
    15
100
AcDbCircle
 10
161.8463169627
 20
129.4529024133
 30
0.0
 40
1.40000000000001
100
AcDbArc
 50
270.0
 51
303.0982988698
  0
LINE
  5
6D
330
1F
100
AcDbEntity
  8
0
  6
Continuous
 62
     7
370
    15
100
AcDbLine
 10
161.8463169627
 20
128.0529024133
 30
0.0
 11
158.4372053641
 21
128.0529024133
 31
0.0
  0
LINE
  5
6E
330
1F
100
AcDbEntity
  8
0
  6
Continuous
 62
     7
370
    15
100
AcDbLine
 10
245.6736552098
 20
143.5267359305
 30
0.0
 11
231.4336963815
 21
134.6286220862
 31
0.0
  0
LINE
  5
6F
330
1F
100
AcDbEntity
  8
0
  6
Continuous
 62
     7
370
    15
100
AcDbLine
 10
244.9721435406
 20
133.6465679442
 30
0.0
 11
244.8052595181
 21
130.4963804155
 31
0.0
  0
ARC
  5
70
330
1F
100
AcDbEntity
  8
0
  6
Continuous
 62
     7
370
    15
100
AcDbCircle
 10
245.3317713534
 20
129.6764562271
 30
0.0
 40
0.9939519164425762
100
AcDbArc
 50
177.1341110944
 51
217.3795488676
  0
LINE
  5
71
330
1F
100
AcDbEntity
  8
0
  6
Continuous
 62
     7
370
    15
100
AcDbLine
 10
244.5059465945
 20
132.8763397043
 30
0.0
 11
244.3390625719
 21
129.7261521756
 31
0.0
  0
CIRCLE
  5
72
330
1F
100
AcDbEntity
  8
0
  6
Continuous
 62
     7
370
    15
100
AcDbCircle
 10
249.8838087859
 20
125.7319082952
 30
0.0
 40
3.462730894345052
  0
CIRCLE
  5
73
330
1F
100
AcDbEntity
  8
0
  6
Continuous
 62
     7
370
    15
100
AcDbCircle
 10
249.9132783351
 20
125.7412193627
 30
0.0
 40
1.976085904419447
  0
SPLINE
  5
74
330
1F
100
AcDbEntity
  8
0
  6
Continuous
 62
     7
370
    15
100
AcDbSpline
210
0.0
220
0.0
230
1.0
 70
     8
 71
     3
 72
    11
 73
     7
 74
     0
 42
0.00000001
 43
0.00000001
 40
0.0
 40
0.0
 40
0.0
 40
0.0
 40
0.1081100880371147
 40
0.4711580666043667
 40
0.8135808430836229
 40
1.0
 40
1.0
 40
1.0
 40
1.0
 10
249.2990177778188
 20
124.1239509477631
 30
0.0
 10
249.3536604543807
 20
124.1267570846098
 30
0.0
 10
249.5918004680508
 20
124.138986600239
 30
0.0
 10
250.0560921094161
 20
124.1803183649542
 30
0.0
 10
250.5997355678259
 20
124.2677596717901
 30
0.0
 10
250.8970979784868
 20
124.3284539933385
 30
0.0
 10
251.0019195639048
 20
124.3498490143045
 30
0.0
  0
SPLINE
  5
75
330
1F
100
AcDbEntity
  8
0
  6
Continuous
 62
     7
370
    15
100
AcDbSpline
210
0.0
220
0.0
230
1.0
 70
     8
 71
     3
 72
    10
 73
     6
 74
     0
 42
0.00000001
 43
0.00000001
 40
0.0
 40
0.0
 40
0.0
 40
0.0
 40
0.4391165375904106
 40
0.7513669429073558
 40
1.0
 40
1.0
 40
1.0
 40
1.0
 10
251.0019195639048
 20
124.3498490143045
 30
0.0
 10
251.0808987030245
 20
124.5579243600304
 30
0.0
 10
251.2160389431062
 20
124.9139595421037
 30
0.0
 10
251.4473676924983
 20
125.4891442167796
 30
0.0
 10
251.5729545672075
 20
125.7926920222976
 30
0.0
 10
251.6286257550431
 20
125.9272512024444
 30
0.0
  0
SPLINE
  5
76
330
1F
100
AcDbEntity
  8
0
  6
Continuous
 62
     7
370
    15
100
AcDbSpline
210
0.0
220
0.0
230
1.0
 70
     8
 71
     3
 72
    10
 73
     6
 74
     0
 42
0.00000001
 43
0.00000001
 40
0.0
 40
0.0
 40
0.0
 40
0.0
 40
0.4391165375904205
 40
0.7513669429073383
 40
1.0
 40
1.0
 40
1.0
 40
1.0
 10
251.6286257550431
 20
125.9272512024444
 30
0.0
 10
251.4638213754465
 20
126.1029874984479
 30
0.0
 10
251.1818266148877
 20
126.4036877276183
 30
0.0
 10
250.8067759663968
 20
126.8984332749813
 30
0.0
 10
250.6305493508172
 20
127.1619440775028
 30
0.0
 10
250.5524301600955
 20
127.278755324043
 30
0.0
  0
SPLINE
  5
77
330
1F
100
AcDbEntity
  8
0
  6
Continuous
 62
     7
370
    15
100
AcDbSpline
210
0.0
220
0.0
230
1.0
 70
     8
 71
     3
 72
    11
 73
     7
 74
     0
 42
0.00000001
 43
0.00000001
 40
0.0
 40
0.0
 40
0.0
 40
0.0
 40
0.1864191569163967
 40
0.5288419333956408
 40
0.8918899119628702
 40
1.0
 40
1.0
 40
1.0
 40
1.0
 10
250.5524301600955
 20
127.278755324043
 30
0.0
 10
250.4476085746775
 20
127.257360303077
 30
0.0
 10
250.1502461640166
 20
127.1966659815286
 30
0.0
 10
249.6066027056067
 20
127.1092246746927
 30
0.0
 10
249.1423110642415
 20
127.0678929099776
 30
0.0
 10
248.9041710505714
 20
127.0556633943483
 30
0.0
 10
248.8495283740094
 20
127.0528572575016
 30
0.0
  0
SPLINE
  5
78
330
1F
100
AcDbEntity
  8
0
  6
Continuous
 62
     7
370
    15
100
AcDbSpline
210
0.0
220
0.0
230
1.0
 70
     8
 71
     3
 72
    10
 73
     6
 74
     0
 42
0.00000001
 43
0.00000001
 40
0.0
 40
0.0
 40
0.0
 40
0.0
 40
0.439116537590405
 40
0.7513669429073436
 40
1.0
 40
1.0
 40
1.0
 40
1.0
 10
248.8495283740094
 20
127.0528572575016
 30
0.0
 10
248.7490718677791
 20
126.8092980356939
 30
0.0
 10
248.5771819672175
 20
126.3925468267535
 30
0.0
 10
248.3621881794708
 20
125.8443499924324
 30
0.0
 10
248.2656267371384
 20
125.5887566144931
 30
0.0
 10
248.2228221828711
 20
125.4754550693616
 30
0.0
  0
SPLINE
  5
79
330
1F
100
AcDbEntity
  8
0
  6
Continuous
 62
     7
370
    15
100
AcDbSpline
210
0.0
220
0.0
230
1.0
 70
     8
 71
     3
 72
    10
 73
     6
 74
     0
 42
0.00000001
 43
0.00000001
 40
0.0
 40
0.0
 40
0.0
 40
0.0
 40
0.4391165375904149
 40
0.7513669429073517
 40
1.0
 40
1.0
 40
1.0
 40
1.0
 10
248.2228221828711
 20
125.4754550693616
 30
0.0
 10
248.3661491953571
 20
125.2642348972764
 30
0.0
 10
248.6113942954359
 20
124.902818641239
 30
0.0
 10
249.0027799055722
 20
124.4350609342307
 30
0.0
 10
249.2080319535287
 20
124.219504559288
 30
0.0
 10
249.2990177778188
 20
124.1239509477631
 30
0.0
  0
LINE
  5
7A
330
1F
100
AcDbEntity
  8
0
  6
Continuous
 62
     7
370
    15
100
AcDbLine
 10
250.8563955983
 20
124.3209404165
 30
0.0
 11
250.9251671237
 21
124.4940364481
 31
0.0
  0
LINE
  5
7B
330
1F
100
AcDbEntity
  8
0
  6
Continuous
 62
     7
370
    15
100
AcDbLine
 10
250.9251671237
 20
124.4940364481
 30
0.0
 11
251.2385202193
 21
125.2827375422
 31
0.0
  0
LINE
  5
7C
330
1F
100
AcDbEntity
  8
0
  6
Continuous
 62
     7
370
    15
100
AcDbLine
 10
251.2385202193
 20
125.2827375422
 30
0.0
 11
251.628625755
 21
125.9272512024
 31
0.0
  0
LINE
  5
7D
330
1F
100
AcDbEntity
  8
0
  6
Continuous
 62
     7
370
    15
100
AcDbLine
 10
251.2385202193
 20
125.2827375422
 30
0.0
 11
250.7004224218
 21
125.958489603
 31
0.0
  0
LINE
  5
7E
330
1F
100
AcDbEntity
  8
0
  6
Continuous
 62
     7
370
    15
100
AcDbLine
 10
250.7004224218
 20
125.958489603
 30
0.0
 11
250.1623246243
 21
126.6342416638
 31
0.0
  0
LINE
  5
7F
330
1F
100
AcDbEntity
  8
0
  6
Continuous
 62
     7
370
    15
100
AcDbLine
 10
250.1623246243
 20
126.6342416638
 30
0.0
 11
250.5524301601
 21
127.278755324
 31
0.0
  0
LINE
  5
80
330
1F
100
AcDbEntity
  8
0
  6
Continuous
 62
     7
370
    15
100
AcDbLine
 10
250.1623246243
 20
126.6342416638
 30
0.0
 11
249.3108737313
 21
126.5212926305
 31
0.0
  0
LINE
  5
81
330
1F
100
AcDbEntity
  8
0
  6
Continuous
 62
     7
370
    15
100
AcDbLine
 10
249.3108737313
 20
126.5212926305
 30
0.0
 11
248.593483709
 21
126.4261274129
 31
0.0
  0
ARC
  5
82
330
1F
100
AcDbEntity
  8
0
  6
Continuous
 62
     7
370
    15
100
AcDbCircle
 10
249.5501264507
 20
125.0324855635
 30
0.0
 40
1.47670725003788
100
AcDbArc
 50
338.6152963378
 51
38.8345419652
  0
LWPOLYLINE
  5
83
330
1F
100
AcDbEntity
  8
0
  6
Continuous
 62
     7
370
    15
100
AcDbPolyline
 90
        3
 70
   128
 43
0.0
 10
250.9251671237
 20
124.4940364481
 10
250.842437102
 20
124.3205433427
 10
250.8280511279
 20
124.2955221455
  0
ARC
  5
84
330
1F
100
AcDbEntity
  8
0
  6
Continuous
 62
     7
370
    15
100
AcDbCircle
 10
249.500882538
 20
125.0675063873
 30
0.0
 40
1.466150670162442
100
AcDbArc
 50
97.4463082021
 51
134.9662195314
  0
ARC
  5
85
330
1F
100
AcDbEntity
  8
0
  6
Continuous
 62
     7
370
    15
100
AcDbCircle
 10
249.507299407
 20
125.0094788634
 30
0.0
 40
1.524520879609808
100
AcDbArc
 50
38.4987599794
 51
97.4028082648
  0
ARC
  5
86
330
1F
100
AcDbEntity
  8
0
  6
Continuous
 62
     7
370
    15
100
AcDbCircle
 10
251.2754765374
 20
139.635483432
 30
0.0
 40
2.756798047725912
100
AcDbArc
 50
94.9826613038
 51
121.3453909135
  0
ELLIPSE
  5
87
330
1F
100
AcDbEntity
  8
0
  6
Continuous
 62
     7
370
    15
100
AcDbEllipse
 10
252.0173334478
 20
140.2610658307
 30
0.0
 11
1.980360473108391
 21
-1.266117462755034
 31
0.0
210
0.0
220
0.0
230
0.9999999999999998
 40
0.9803342941
 41
1.990847558493974
 42
3.698303031969295
  0
ELLIPSE
  5
88
330
1F
100
AcDbEntity
  8
0
  6
Continuous
 62
     7
370
    15
100
AcDbEllipse
 10
252.0173334478
 20
140.2610658307
 30
0.0
 11
1.980360473108391
 21
-1.266117462755034
 31
0.0
210
0.0
220
0.0
230
0.9999999999999998
 40
0.9803342941
 41
0.2146141315567877
 42
1.990847558493998
  0
SPLINE
  5
89
330
1F
100
AcDbEntity
  8
0
  6
Continuous
 62
     7
370
    15
100
AcDbSpline
210
0.0
220
0.0
230
1.0
 70
     8
 71
     3
 72
    10
 73
     6
 74
     0
 42
0.00000001
 43
0.00000001
 40
0.0
 40
0.0
 40
0.0
 40
0.0
 40
0.3739048230559077
 40
0.8978133138824709
 40
1.0
 40
1.0
 40
1.0
 40
1.0
 10
250.2193512103827
 20
141.753345361109
 30
0.0
 10
250.1394566351902
 20
141.7117074415072
 30
0.0
 10
249.9476152656977
 20
141.6117272426016
 30
0.0
 10
249.7559570801399
 20
141.4657239543424
 30
0.0
 10
249.6615459477477
 20
141.3575560900827
 30
0.0
 10
249.6461368516437
 20
141.3399017205872
 30
0.0
  0
LINE
  5
8A
330
1F
100
AcDbEntity
  8
0
  6
Continuous
 62
     7
370
    15
100
AcDbLine
 10
245.8508936903
 20
129.8202093114
 30
0.0
 11
258.1031838841
 21
137.1778895284
 31
0.0
  0
ARC
  5
8B
330
1F
100
AcDbEntity
  8
0
  6
Continuous
 62
     7
370
    15
100
AcDbCircle
 10
245.645960218
 20
130.1678450798
 30
0.0
 40
0.4035447379891666
100
AcDbArc
 50
177.4229820073
 51
300.5196171078
  0
LINE
  5
8C
330
1F
100
AcDbEntity
  8
0
  6
Continuous
 62
     7
370
    15
100
AcDbLine
 10
245.9989544357
 20
144.459099054
 30
0.0
 11
245.2428235908
 21
130.1859893736
 31
0.0
  0
ARC
  5
8D
330
1F
100
AcDbEntity
  8
0
  6
Continuous
 62
     7
370
    15
100
AcDbCircle
 10
246.3831933042
 20
144.4391131224
 30
0.0
 40
0.3847582949291538
100
AcDbArc
 50
120.933424075
 51
177.0224810537
  0
LINE
  5
8E
330
1F
100
AcDbEntity
  8
0
  6
Continuous
 62
     7
370
    15
100
AcDbLine
 10
258.4377016801
 20
152.1268256076
 30
0.0
 11
246.1854114863
 21
144.7691453906
 31
0.0
  0
ARC
  5
8F
330
1F
100
AcDbEntity
  8
0
  6
Continuous
 62
     7
370
    15
100
AcDbCircle
 10
258.6426351524
 20
151.7791898392
 30
0.0
 40
0.4035447379891998
100
AcDbArc
 50
357.4229820073
 51
120.5196171078
  0
LINE
  5
90
330
1F
100
AcDbEntity
  8
0
  6
Continuous
 62
     7
370
    15
100
AcDbLine
 10
258.2896409347
 20
137.4879358649
 30
0.0
 11
259.0457717796
 21
151.7610455454
 31
0.0
  0
ARC
  5
91
330
1F
100
AcDbEntity
  8
0
  6
Continuous
 62
     7
370
    15
100
AcDbCircle
 10
257.9054020662
 20
137.5079217966
 30
0.0
 40
0.3847582949293031
100
AcDbArc
 50
300.933424075
 51
357.0224810537
  0
ARC
  5
92
330
1F
100
AcDbEntity
  8
0
  6
Continuous
 62
     7
370
    15
100
AcDbCircle
 10
258.6429288051
 20
151.7796759677
 30
0.0
 40
0.383367501089717
100
AcDbArc
 50
357.4229820073
 51
120.5196171078
  0
LINE
  5
93
330
1F
100
AcDbEntity
  8
0
  6
Continuous
 62
     7
370
    15
100
AcDbLine
 10
258.4482420063
 20
152.1099299476
 30
0.0
 11
246.1959518127
 21
144.7522497304
 31
0.0
  0
ARC
  5
94
330
1F
100
AcDbEntity
  8
0
  6
Continuous
 62
     7
370
    15
100
AcDbCircle
 10
246.3838445406
 20
144.4387190748
 30
0.0
 40
0.3655203813237251
100
AcDbArc
 50
120.9334241415
 51
177.0224808999
  0
LINE
  5
95
330
1F
100
AcDbEntity
  8
0
  6
Continuous
 62
     7
370
    15
100
AcDbLine
 10
246.0188176145
 20
144.4577057109
 30
0.0
 11
245.2626867696
 21
130.1845960305
 31
0.0
  0
ARC
  5
96
330
1F
100
AcDbEntity
  8
0
  6
Continuous
 62
     7
370
    15
100
AcDbCircle
 10
245.6456665654
 20
130.1673589514
 30
0.0
 40
0.383367501089611
100
AcDbArc
 50
177.4229820073
 51
300.5196171078
  0
LINE
  5
97
330
1F
100
AcDbEntity
  8
0
  6
Continuous
 62
     7
370
    15
100
AcDbLine
 10
245.8403533641
 20
129.8371049714
 30
0.0
 11
258.0926435579
 21
137.1947851884
 31
0.0
  0
ARC
  5
98
330
1F
100
AcDbEntity
  8
0
  6
Continuous
 62
     7
370
    15
100
AcDbCircle
 10
257.9047508309
 20
137.5083158432
 30
0.0
 40
0.3655203801830642
100
AcDbArc
 50
300.933424075
 51
357.0224810537
  0
LINE
  5
99
330
1F
100
AcDbEntity
  8
0
  6
Continuous
 62
     7
370
    15
100
AcDbLine
 10
258.269777756
 20
137.4893292081
 30
0.0
 11
259.0259086009
 21
151.7624388885
 31
0.0
  0
LWPOLYLINE
  5
9A
330
1F
100
AcDbEntity
  8
0
  6
Continuous
 62
     7
370
    15
100
AcDbPolyline
 90
        3
 70
   128
 43
0.0
 10
244.7452681057
 20
129.3639520592
 10
244.7543413472
 20
129.257070724
 10
244.7873433539
 20
129.1651722628
  0
LINE
  5
9B
330
1F
100
AcDbEntity
  8
0
  6
Continuous
 62
     7
370
    15
100
AcDbLine
 10
245.6171543421
 20
130.1202339989
 30
0.0
 11
245.8403533641
 21
129.8371049714
 31
0.0
  0
LINE
  5
9C
330
1F
100
AcDbEntity
  8
0
  6
Continuous
 62
     7
370
    15
100
AcDbLine
 10
245.6171543421
 20
130.1202339989
 30
0.0
 11
245.2626867696
 21
130.1845960305
 31
0.0
  0
LINE
  5
9D
330
1F
100
AcDbEntity
  8
0
  6
Continuous
 62
     7
370
    15
100
AcDbLine
 10
257.8694445358
 20
137.4779142159
 30
0.0
 11
258.0926435579
 21
137.1947851884
 31
0.0
  0
LINE
  5
9E
330
1F
100
AcDbEntity
  8
0
  6
Continuous
 62
     7
370
    15
100
AcDbLine
 10
246.6557750623
 20
131.8479314939
 30
0.0
 11
245.6171543421
 21
130.1202339989
 31
0.0
  0
LINE
  5
9F
330
1F
100
AcDbEntity
  8
0
  6
Continuous
 62
     7
370
    15
100
AcDbLine
 10
246.6557750623
 20
131.8479314939
 30
0.0
 11
247.2252637866
 21
132.1899178372
 31
0.0
  0
LINE
  5
A0
330
1F
100
AcDbEntity
  8
0
  6
Continuous
 62
     7
370
    15
100
AcDbLine
 10
257.4258861828
 20
137.6859578007
 30
0.0
 11
257.8694445358
 21
137.4779142159
 31
0.0
  0
LINE
  5
A1
330
1F
100
AcDbEntity
  8
0
  6
Continuous
 62
     7
370
    15
100
AcDbLine
 10
245.5013989505
 20
143.6370617397
 30
0.0
 11
245.489456819
 21
143.4116360014
 31
0.0
  0
LINE
  5
A2
330
1F
100
AcDbEntity
  8
0
  6
Continuous
 62
     7
370
    15
100
AcDbLine
 10
244.9721435406
 20
133.6465679442
 30
0.0
 11
244.7452681057
 21
129.3639520592
 31
0.0
  0
LINE
  5
A3
330
1F
100
AcDbEntity
  8
0
  6
Continuous
 62
     7
370
    15
100
AcDbLine
 10
246.373285187
 20
144.3933436793
 30
0.0
 11
246.0188176145
 21
144.4577057109
 31
0.0
  0
LINE
  5
A4
330
1F
100
AcDbEntity
  8
0
  6
Continuous
 62
     7
370
    15
100
AcDbLine
 10
246.7646841618
 20
144.099124871
 30
0.0
 11
246.373285187
 21
144.3933436793
 31
0.0
  0
LINE
  5
A5
330
1F
100
AcDbEntity
  8
0
  6
Continuous
 62
     7
370
    15
100
AcDbLine
 10
246.6909201644
 20
132.5113482834
 30
0.0
 11
246.6557750623
 21
131.8479314939
 31
0.0
  0
ARC
  5
A6
330
1F
100
AcDbEntity
  8
0
  6
Continuous
 62
     7
370
    15
100
AcDbCircle
 10
248.5188087139
 20
134.9448381377
 30
0.0
 40
1.008861844972885
100
AcDbArc
 50
177.4229820073
 51
300.5196171078
  0
LINE
  5
A7
330
1F
100
AcDbEntity
  8
0
  6
Continuous
 62
     7
370
    15
100
AcDbLine
 10
247.2153370755
 20
132.7806412497
 30
0.0
 11
247.2173273633
 21
132.7794440068
 31
0.0
  0
SPLINE
  5
A8
330
1F
100
AcDbEntity
  8
0
  6
Continuous
 62
     7
370
    15
100
AcDbSpline
210
0.0
220
0.0
230
1.0
 70
     8
 71
     3
 72
    14
 73
    10
 74
     0
 42
0.00000001
 43
0.00000001
 40
0.0
 40
0.0
 40
0.0
 40
0.0
 40
0.2210591904779853
 40
0.3460797326519232
 40
0.4396016244131509
 40
0.5338897453199786
 40
0.6146561933587674
 40
0.7517253237594066
 40
0.9999999999999999
 40
0.9999999999999999
 40
0.9999999999999999
 40
0.9999999999999999
 10
247.2153370755044
 20
132.7806412496933
 30
0.0
 10
247.1637427746827
 20
132.8095225370691
 30
0.0
 10
247.0829691963659
 20
132.8547377040661
 30
0.0
 10
246.9681707309453
 20
132.8832470884152
 30
0.0
 10
246.8840751083649
 20
132.8794300382046
 30
0.0
 10
246.8182395678994
 20
132.8488646061449
 30
0.0
 10
246.7609580792041
 20
132.7894468136859
 30
0.0
 10
246.7074508521126
 20
132.6775842064651
 30
0.0
 10
246.6973974867367
 20
132.5764855404033
 30
0.0
 10
246.6909201644318
 20
132.5113482833558
 30
0.0
  0
SPLINE
  5
A9
330
1F
100
AcDbEntity
  8
0
  6
Continuous
 62
     7
370
    15
100
AcDbSpline
210
0.0
220
0.0
230
1.0
 70
     8
 71
     3
 72
    14
 73
    10
 74
     0
 42
0.00000001
 43
0.00000001
 40
0.0
 40
0.0
 40
0.0
 40
0.0
 40
0.2234968253973369
 40
0.3567622963774882
 40
0.453121256234146
 40
0.5344619041500275
 40
0.6157317558035214
 40
0.7396161778921969
 40
1.0
 40
1.0
 40
1.0
 40
1.0
 10
247.2252637866412
 20
132.1899178371957
 30
0.0
 10
247.2743167024249
 20
132.2223635419749
 30
0.0
 10
247.3526186239304
 20
132.2741557950596
 30
0.0
 10
247.4289129934577
 20
132.3666002432148
 30
0.0
 10
247.4605036509284
 20
132.4427846324863
 30
0.0
 10
247.4629228652342
 20
132.5120601899223
 30
0.0
 10
247.4389194872991
 20
132.5850805472087
 30
0.0
 10
247.3626693245175
 20
132.6853844905869
 30
0.0
 10
247.2760329773166
 20
132.7414520765587
 30
0.0
 10
247.2173273633131
 20
132.779444006811
 30
0.0
  0
LINE
  5
AA
330
1F
100
AcDbEntity
  8
0
  6
Continuous
 62
     7
370
    15
100
AcDbLine
 10
249.0311423947
 20
134.0757487166
 30
0.0
 11
255.8883064863
 21
138.1935764683
 31
0.0
  0
LINE
  5
AB
330
1F
100
AcDbEntity
  8
0
  6
Continuous
 62
     7
370
    15
100
AcDbLine
 10
247.9341462575
 20
142.9783426093
 30
0.0
 11
247.510967146
 21
134.9901988722
 31
0.0
  0
ARC
  5
AC
330
1F
100
AcDbEntity
  8
0
  6
Continuous
 62
     7
370
    15
100
AcDbCircle
 10
248.8947434287
 20
142.9283777802
 30
0.0
 40
0.9618957373233982
100
AcDbArc
 50
120.933424075
 51
177.0224810537
  0
LINE
  5
AD
330
1F
100
AcDbEntity
  8
0
  6
Continuous
 62
     7
370
    15
100
AcDbLine
 10
255.2574529757
 20
147.8712862024
 30
0.0
 11
248.4002888841
 21
143.7534584507
 31
0.0
  0
ARC
  5
AE
330
1F
100
AcDbEntity
  8
0
  6
Continuous
 62
     7
370
    15
100
AcDbCircle
 10
255.7697866569
 20
147.0021967816
 30
0.0
 40
1.008861844953781
100
AcDbArc
 50
357.4229819929
 51
120.5196171286
  0
LINE
  5
AF
330
1F
100
AcDbEntity
  8
0
  6
Continuous
 62
     7
370
    15
100
AcDbLine
 10
256.354449113
 20
138.9686923097
 30
0.0
 11
256.7776282247
 21
146.9568360468
 31
0.0
  0
ARC
  5
B0
330
1F
100
AcDbEntity
  8
0
  6
Continuous
 62
     7
370
    15
100
AcDbCircle
 10
255.3938519417
 20
139.0186571388
 30
0.0
 40
0.9618957373234225
100
AcDbArc
 50
300.933424075
 51
357.0224810537
  0
LWPOLYLINE
  5
B1
330
1F
100
AcDbEntity
  8
0
  6
Continuous
 62
     7
370
    15
100
AcDbPolyline
 90
       27
 70
   128
 43
0.0
 10
254.7066477444
 20
140.7937761942
 10
254.6643275094
 20
141.4056334918
 10
254.475552301
 20
141.9923777763
 10
254.1512930481
 20
142.5199096026
 10
253.7103945199
 20
142.9575707384
 10
253.1784801361
 20
143.2799259094
 10
252.5864628274
 20
143.4682410047
 10
251.9687484878
 20
143.5115718355
 10
251.3612364295
 20
143.4074001715
 10
250.799233045
 20
143.161780091
 10
250.3153999283
 20
142.7889861404
 10
249.9378557015
 20
142.310683749
 10
249.6885418627
 20
141.7546701133
 10
249.581947626
 20
141.1532587247
 10
249.624267861
 20
140.5414014271
 10
249.8130430694
 20
139.9546571427
 10
250.1373023223
 20
139.4271253164
 10
250.5782008506
 20
138.9894641806
 10
251.1101152343
 20
138.6671090096
 10
251.702132543
 20
138.4787939143
 10
252.3198468826
 20
138.4354630834
 10
252.9273589409
 20
138.5396347475
 10
253.4893623254
 20
138.7852548279
 10
253.9731954421
 20
139.1580487785
 10
254.3507396689
 20
139.6363511699
 10
254.6000535077
 20
140.1923648056
 10
254.7066477444
 20
140.7937761942
  0
ARC
  5
B2
330
1F
100
AcDbEntity
  8
0
  6
Continuous
 62
     7
370
    15
100
AcDbCircle
 10
251.6042606146
 20
140.142098321
 30
0.0
 40
2.553005586281145
100
AcDbArc
 50
67.3641546851
 51
137.2807865881
  0
SPLINE
  5
B3
330
1F
100
AcDbEntity
  8
0
  6
Continuous
 62
     7
370
    15
100
AcDbSpline
210
0.0
220
0.0
230
1.0
 70
     8
 71
     3
 72
    11
 73
     7
 74
     0
 42
0.00000001
 43
0.00000001
 40
0.0
 40
0.0
 40
0.0
 40
0.0
 40
0.3280455501580198
 40
0.655702817371173
 40
0.9906967996088272
 40
1.0
 40
1.0
 40
1.0
 40
1.0
 10
257.4258861827704
 20
137.6859578006766
 30
0.0
 10
257.3590684238117
 20
137.7193016805167
 30
0.0
 10
257.2255119930705
 20
137.7859499735438
 30
0.0
 10
257.0168145634087
 20
137.914450370678
 30
0.0
 10
256.8903196664954
 20
138.0038922763914
 30
0.0
 10
256.8329060130686
 20
138.0481629568051
 30
0.0
 10
256.8313546477075
 20
138.0493591879452
 30
0.0
  0
LINE
  5
B4
330
1F
100
AcDbEntity
  8
0
  6
Continuous
 62
     7
370
    15
100
AcDbLine
 10
257.4655747669
 20
149.8227883615
 30
0.0
 11
258.6255753807
 21
151.7510238963
 31
0.0
  0
LINE
  5
B5
330
1F
100
AcDbEntity
  8
0
  6
Continuous
 62
     7
370
    15
100
AcDbLine
 10
258.6255753807
 20
151.7510238963
 30
0.0
 11
259.0259086009
 21
151.7624388885
 31
0.0
  0
LINE
  5
B6
330
1F
100
AcDbEntity
  8
0
  6
Continuous
 62
     7
370
    15
100
AcDbLine
 10
257.8694445358
 20
137.4779142159
 30
0.0
 11
258.269777756
 21
137.4893292081
 31
0.0
  0
LINE
  5
B7
330
1F
100
AcDbEntity
  8
0
  6
Continuous
 62
     7
370
    15
100
AcDbLine
 10
257.4304296648
 20
149.159371572
 30
0.0
 11
257.4655747669
 21
149.8227883615
 31
0.0
  0
SPLINE
  5
B8
330
1F
100
AcDbEntity
  8
0
  6
Continuous
 62
     7
370
    15
100
AcDbSpline
210
0.0
220
0.0
230
1.0
 70
     8
 71
     3
 72
    11
 73
     7
 74
     0
 42
0.00000001
 43
0.00000001
 40
0.0
 40
0.0
 40
0.0
 40
0.0
 40
0.3280455501578599
 40
0.6557028173708862
 40
0.9906967996087653
 40
0.9999999999999999
 40
0.9999999999999999
 40
0.9999999999999999
 40
0.9999999999999999
 10
246.7646841618158
 20
144.099124871015
 30
0.0
 10
246.825423148799
 20
144.0557379355995
 30
0.0
 10
246.9468292305762
 20
143.9690154186338
 30
0.0
 10
247.1581534623188
 20
143.8448548979396
 30
0.0
 10
247.2964954281695
 20
143.7749861514487
 30
0.0
 10
247.3625472728526
 20
143.7449870764184
 30
0.0
 10
247.3643320494302
 20
143.744176476098
 30
0.0
  0
LINE
  5
B9
330
1F
100
AcDbEntity
  8
0
  6
Continuous
 62
     7
370
    15
100
AcDbLine
 10
246.373285187
 20
144.3933436793
 30
0.0
 11
246.1959518127
 21
144.7522497304
 31
0.0
  0
LINE
  5
BA
330
1F
100
AcDbEntity
  8
0
  6
Continuous
 62
     7
370
    15
100
AcDbLine
 10
258.6255753807
 20
151.7510238963
 30
0.0
 11
258.4482420063
 21
152.1099299476
 31
0.0
  0
LINE
  5
BB
330
1F
100
AcDbEntity
  8
0
  6
Continuous
 62
     7
370
    15
100
AcDbLine
 10
257.4655747669
 20
149.8227883615
 30
0.0
 11
256.8960860426
 21
149.4808020182
 31
0.0
  0
ARC
  5
BC
330
1F
100
AcDbEntity
  8
0
  6
Continuous
 62
     7
370
    15
100
AcDbCircle
 10
245.8861246488
 20
143.6169655424
 30
0.0
 40
0.3852502044914809
100
AcDbArc
 50
148.8378267265
 51
177.0098650011
  0
LINE
  5
BD
330
1F
100
AcDbEntity
  8
0
  6
Continuous
 62
     7
370
    15
100
AcDbLine
 10
256.9060127537
 20
148.8900786057
 30
0.0
 11
256.9040224659
 21
148.8912758486
 31
0.0
  0
SPLINE
  5
BE
330
1F
100
AcDbEntity
  8
0
  6
Continuous
 62
     7
370
    15
100
AcDbSpline
210
0.0
220
0.0
230
1.0
 70
     8
 71
     3
 72
    14
 73
    10
 74
     0
 42
0.00000001
 43
0.00000001
 40
0.0
 40
0.0
 40
0.0
 40
0.0
 40
0.2234968253973667
 40
0.356762296377457
 40
0.4531212562341406
 40
0.5344619041500377
 40
0.615731755803538
 40
0.7396161778922036
 40
1.0
 40
1.0
 40
1.0
 40
1.0
 10
256.8960860425681
 20
149.4808020181734
 30
0.0
 10
256.8470331267844
 20
149.4483563133942
 30
0.0
 10
256.7687312052789
 20
149.3965640603095
 30
0.0
 10
256.6924368357517
 20
149.3041196121544
 30
0.0
 10
256.660846178281
 20
149.2279352228829
 30
0.0
 10
256.6584269639751
 20
149.1586596654469
 30
0.0
 10
256.6824303419103
 20
149.0856393081605
 30
0.0
 10
256.7586805046918
 20
148.9853353647822
 30
0.0
 10
256.8453168518927
 20
148.9292677788104
 30
0.0
 10
256.9040224658963
 20
148.8912758485581
 30
0.0
  0
SPLINE
  5
BF
330
1F
100
AcDbEntity
  8
0
  6
Continuous
 62
     7
370
    15
100
AcDbSpline
210
0.0
220
0.0
230
1.0
 70
     8
 71
     3
 72
    14
 73
    10
 74
     0
 42
0.00000001
 43
0.00000001
 40
0.0
 40
0.0
 40
0.0
 40
0.0
 40
0.2210591904779491
 40
0.346079732651921
 40
0.4396016244131445
 40
0.5338897453200384
 40
0.6146561933587606
 40
0.7517253237594024
 40
0.9999999999999999
 40
0.9999999999999999
 40
0.9999999999999999
 40
0.9999999999999999
 10
256.906012753705
 20
148.8900786056759
 30
0.0
 10
256.9576070545266
 20
148.8611973183
 30
0.0
 10
257.0383806328434
 20
148.815982151303
 30
0.0
 10
257.153179098264
 20
148.787472766954
 30
0.0
 10
257.2372747208445
 20
148.7912898171645
 30
0.0
 10
257.3031102613099
 20
148.8218552492242
 30
0.0
 10
257.3603917500054
 20
148.8812730416833
 30
0.0
 10
257.4138989770968
 20
148.993135648904
 30
0.0
 10
257.4239523424726
 20
149.0942343149659
 30
0.0
 10
257.4304296647775
 20
149.1593715720134
 30
0.0
  0
LINE
  5
C0
330
1F
100
AcDbEntity
  8
0
  6
Continuous
 62
     7
370
    15
100
AcDbLine
 10
214.3963169627
 20
76.995984717
 30
0.0
 11
210.4382497942
 21
76.995984717
 31
0.0
  0
LINE
  5
C1
330
1F
100
AcDbEntity
  8
0
  6
Continuous
 62
     7
370
    15
100
AcDbLine
 10
210.4382497942
 20
76.995984717
 30
0.0
 11
210.4382497942
 21
127.0329024133
 31
0.0
  0
LINE
  5
C2
330
1F
100
AcDbEntity
  8
0
  6
Continuous
 62
     7
370
    15
100
AcDbLine
 10
210.4382497942
 20
127.0329024133
 30
0.0
 11
214.3963169627
 21
127.0329024133
 31
0.0
  0
SPLINE
  5
C3
330
1F
100
AcDbEntity
  8
0
  6
Continuous
 62
     7
370
    15
100
AcDbSpline
210
0.0
220
0.0
230
1.0
 70
     8
 71
     3
 72
     8
 73
     4
 74
     0
 42
0.00000001
 43
0.00000001
 40
0.0
 40
0.0
 40
0.0
 40
0.0
 40
1.0
 40
1.0
 40
1.0
 40
1.0
 10
210.4382497941752
 20
76.9959847170454
 30
0.0
 10
209.9427701335095
 20
77.89151080497875
 30
0.0
 10
209.4486560854674
 20
78.78779522003099
 30
0.0
 10
208.9563169626862
 20
79.68506525423768
 30
0.0
  0
LINE
  5
C4
330
1F
100
AcDbEntity
  8
0
  6
Continuous
 62
     7
370
    15
100
AcDbLine
 10
208.9563169627
 20
79.6850652542
 30
0.0
 11
208.9563169627
 21
127.0329024133
 31
0.0
  0
SPLINE
  5
C5
330
1F
100
AcDbEntity
  8
0
  6
Continuous
 62
     7
370
    15
100
AcDbSpline
210
0.0
220
0.0
230
1.0
 70
    24
 71
     3
 72
     8
 73
     4
 74
     0
 42
0.00000001
 43
0.00000001
 40
0.0
 40
0.0
 40
0.0
 40
0.0
 40
1.0
 40
1.0
 40
1.0
 40
1.0
 10
208.9563169626862
 20
127.0329024132926
 30
0.0
 10
209.4362689570511
 20
127.0329024132926
 30
0.0
 10
209.9315696860247
 20
127.0329024132926
 30
0.0
 10
210.4382497941752
 20
127.0329024132926
 30
0.0
  0
LINE
  5
C6
330
1F
100
AcDbEntity
  8
0
  6
Continuous
 62
     7
370
    15
100
AcDbLine
 10
214.9963169627
 20
77.6226250127
 30
0.0
 11
214.9963169627
 21
127.0329024133
 31
0.0
  0
SPLINE
  5
C7
330
1F
100
AcDbEntity
  8
0
  6
Continuous
 62
     7
370
    15
100
AcDbSpline
210
0.0
220
0.0
230
1.0
 70
     8
 71
     3
 72
    10
 73
     6
 74
     0
 42
0.00000001
 43
0.00000001
 40
0.0
 40
0.0
 40
0.0
 40
0.0
 40
0.5
 40
0.5
 40
1.0
 40
1.0
 40
1.0
 40
1.0
 10
214.9963169626862
 20
77.62262501269973
 30
0.0
 10
214.9963169626862
 20
77.46273774450607
 30
0.0
 10
214.9350073114504
 20
77.30161048899149
 30
0.0
 10
214.7159076739153
 20
77.06751149063663
 30
0.0
 10
214.5578594676018
 20
76.99598471704542
 30
0.0
 10
214.3963169626862
 20
76.99598471704542
 30
0.0
  0
SPLINE
  5
C8
330
1F
100
AcDbEntity
  8
0
  6
Continuous
 62
     7
370
    15
100
AcDbSpline
210
0.0
220
0.0
230
1.0
 70
    24
 71
     3
 72
    12
 73
     8
 74
     0
 42
0.00000001
 43
0.00000001
 40
0.0
 40
0.0
 40
0.0
 40
0.0
 40
0.249999999999998
 40
0.249999999999998
 40
0.499999999999996
 40
0.499999999999996
 40
1.0
 40
1.0
 40
1.0
 40
1.0
 10
214.3963169626862
 20
127.0329024132926
 30
0.0
 10
214.4865560303732
 20
127.0329024132926
 30
0.0
 10
214.5774541444797
 20
127.0329024132926
 30
0.0
 10
214.7320511809683
 20
127.0329024132926
 30
0.0
 10
214.7970295970764
 20
127.0329024132926
 30
0.0
 10
214.9488646250126
 20
127.0329024132926
 30
0.0
 10
214.9963169626862
 20
127.0329024132926
 30
0.0
 10
214.9963169626862
 20
127.0329024132926
 30
0.0
  0
LINE
  5
C9
330
1F
100
AcDbEntity
  8
0
  6
Continuous
 62
     7
370
    15
100
AcDbLine
 10
193.9963169627
 20
127.0329024133
 30
0.0
 11
203.6543841312
 21
127.0329024133
 31
0.0
  0
LINE
  5
CA
330
1F
100
AcDbEntity
  8
0
  6
Continuous
 62
     7
370
    15
100
AcDbLine
 10
203.6543841312
 20
76.995984717
 30
0.0
 11
203.6543841312
 21
127.0329024133
 31
0.0
  0
LINE
  5
CB
330
1F
100
AcDbEntity
  8
0
  6
Continuous
 62
     7
370
    15
100
AcDbLine
 10
203.6543841312
 20
76.995984717
 30
0.0
 11
201.9963169627
 21
76.995984717
 31
0.0
  0
SPLINE
  5
CC
330
1F
100
AcDbEntity
  8
0
  6
Continuous
 62
     7
370
    15
100
AcDbSpline
210
0.0
220
0.0
230
1.0
 70
     8
 71
     3
 72
    28
 73
    24
 74
     0
 42
0.00000001
 43
0.00000001
 40
0.0
 40
0.0
 40
0.0
 40
0.0
 40
0.1250000000000007
 40
0.1250000000000007
 40
0.1875000000000009
 40
0.1875000000000009
 40
0.2500000000000011
 40
0.2500000000000011
 40
0.3750000000000012
 40
0.3750000000000012
 40
0.4375000000000012
 40
0.4375000000000012
 40
0.5000000000000011
 40
0.5000000000000011
 40
0.6250000000000009
 40
0.6250000000000009
 40
0.7500000000000008
 40
0.7500000000000008
 40
0.8125000000000006
 40
0.8125000000000006
 40
0.8750000000000003
 40
0.8750000000000003
 40
1.0
 40
1.0
 40
1.0
 40
1.0
 10
201.9963169626862
 20
76.9959847170454
 30
0.0
 10
201.4646092051933
 20
76.9959847170454
 30
0.0
 10
200.9423706398829
 20
76.98020000309519
 30
0.0
 10
200.1725001536079
 20
76.93520458901898
 30
0.0
 10
199.9181405814166
 20
76.91664959394328
 30
0.0
 10
199.4140190007181
 20
76.87279687149679
 30
0.0
 10
199.1642961832902
 20
76.84745226454456
 30
0.0
 10
198.4387062318437
 20
76.76405018679446
 30
0.0
 10
197.9803459702622
 20
76.69818462764336
 30
0.0
 10
197.3298480268683
 20
76.58921428715158
 30
0.0
 10
197.1181659760758
 20
76.55097465138492
 30
0.0
 10
196.7140944869379
 20
76.47321591396557
 30
0.0
 10
196.521587973117
 20
76.43371495179024
 30
0.0
 10
195.9717530020957
 20
76.31480720942425
 30
0.0
 10
195.6418242237869
 20
76.23498952799962
 30
0.0
 10
195.0573529552182
 20
76.08164636620356
 30
0.0
 10
194.8110758172048
 20
76.01031261293429
 30
0.0
 10
194.5112330245067
 20
75.91636910585969
 30
0.0
 10
194.4227761674345
 20
75.88717531249974
 30
0.0
 10
194.2694148141294
 20
75.83370873823633
 30
0.0
 10
194.2043265999032
 20
75.80934940396116
 30
0.0
 10
194.0487325839624
 20
75.74575925851643
 30
0.0
 10
193.9963169626862
 20
75.71565632342717
 30
0.0
 10
193.9963169626862
 20
75.69877943043024
 30
0.0
  0
LINE
  5
CD
330
1F
100
AcDbEntity
  8
0
  6
Continuous
 62
     7
370
    15
100
AcDbLine
 10
193.9963169627
 20
75.6987794304
 30
0.0
 11
193.9963169627
 21
75.6829024133
 31
0.0
  0
SPLINE
  5
CE
330
1F
100
AcDbEntity
  8
0
  6
Continuous
 62
     7
370
    15
100
AcDbSpline
210
0.0
220
0.0
230
1.0
 70
     8
 71
     3
 72
    23
 73
    19
 74
     0
 42
0.00000001
 43
0.00000001
 40
0.0
 40
0.0
 40
0.0
 40
0.0
 40
0.0518255573265009
 40
0.1565081979543675
 40
0.2099949790153869
 40
0.2618040557469941
 40
0.3663992823944632
 40
0.4197730562975888
 40
0.5256601391314201
 40
0.579382795382803
 40
0.6338670208272037
 40
0.6871878645845718
 40
0.7408884369110423
 40
0.7958045253850521
 40
0.8511490715431194
 40
0.9035396881600669
 40
0.9563116953005324
 40
0.9999999999999999
 40
0.9999999999999999
 40
0.9999999999999999
 40
0.9999999999999999
 10
201.9963169626862
 20
137.6500978864568
 30
0.0
 10
201.7784360467166
 20
137.6515077889462
 30
0.0
 10
201.1204566387534
 20
137.6557655588437
 30
0.0
 10
200.2454193761731
 20
137.695342128978
 30
0.0
 10
199.4006454557936
 20
137.7583107022907
 30
0.0
 10
198.5809832795102
 20
137.8363572528451
 30
0.0
 10
197.8052189222012
 20
137.9332720947238
 30
0.0
 10
196.9075049924114
 20
138.0687120213143
 30
0.0
 10
196.2499379108638
 20
138.1848661115613
 30
0.0
 10
195.6722178046868
 20
138.2986388369621
 30
0.0
 10
195.2808896452671
 20
138.3807230472923
 30
0.0
 10
194.9370843676984
 20
138.4567090349078
 30
0.0
 10
194.6419886474152
 20
138.5247777812574
 30
0.0
 10
194.3967095719363
 20
138.583364465937
 30
0.0
 10
194.2087563584159
 20
138.6295019268656
 30
0.0
 10
194.0803660571173
 20
138.6616113758583
 30
0.0
 10
194.0068171652887
 20
138.6802324704326
 30
0.0
 10
194.0024838037274
 20
138.6813359013007
 30
0.0
 10
194.0005211600592
 20
138.6818356614929
 30
0.0
  0
LINE
  5
CF
330
1F
100
AcDbEntity
  8
0
  6
Continuous
 62
     7
370
    15
100
AcDbLine
 10
203.6543841312
 20
137.6500978865
 30
0.0
 11
201.9963169627
 21
137.6500978865
 31
0.0
  0
LINE
  5
D0
330
1F
100
AcDbEntity
  8
0
  6
Continuous
 62
     7
370
    15
100
AcDbLine
 10
203.6543841312
 20
131.6415920757
 30
0.0
 11
203.6543841312
 21
137.6500978865
 31
0.0
  0
LINE
  5
D1
330
1F
100
AcDbEntity
  8
0
  6
Continuous
 62
     7
370
    15
100
AcDbLine
 10
201.2419373084
 20
131.6415920757
 30
0.0
 11
203.6543841312
 21
131.6415920757
 31
0.0
  0
SPLINE
  5
D2
330
1F
100
AcDbEntity
  8
0
  6
Continuous
 62
     7
370
    15
100
AcDbSpline
210
0.0
220
0.0
230
1.0
 70
     8
 71
     3
 72
    20
 73
    16
 74
     0
 42
0.00000001
 43
0.00000001
 40
0.0
 40
0.0
 40
0.0
 40
0.0
 40
0.2500000000000006
 40
0.2500000000000006
 40
0.3750000000000006
 40
0.3750000000000006
 40
0.5000000000000006
 40
0.5000000000000006
 40
0.6250000000000004
 40
0.6250000000000004
 40
0.7500000000000002
 40
0.7500000000000002
 40
0.8750000000000001
 40
0.8750000000000001
 40
1.0
 40
1.0
 40
1.0
 40
1.0
 10
193.9963169626862
 20
127.0329024132926
 30
0.0
 10
194.2446906969743
 20
127.6867648415899
 30
0.0
 10
194.5642607893195
 20
128.2905506235871
 30
0.0
 10
195.1865670225242
 20
129.1173893597557
 30
0.0
 10
195.4179912829549
 20
129.3798179977086
 30
0.0
 10
195.9392056226047
 20
129.8764806518136
 30
0.0
 10
196.2258261052397
 20
130.1070675308351
 30
0.0
 10
196.8453108465474
 20
130.5236217554177
 30
0.0
 10
197.1796112260343
 20
130.7111195573852
 30
0.0
 10
197.9048716986591
 20
131.0425165350216
 30
0.0
 10
198.2867867560496
 20
131.1820205225169
 30
0.0
 10
199.0815749322213
 20
131.4074740299879
 30
0.0
 10
199.4957331264276
 20
131.4941001415315
 30
0.0
 10
200.361279467009
 20
131.6120809303856
 30
0.0
 10
200.7991670820208
 20
131.64159207566
 30
0.0
 10
201.2419373083754
 20
131.64159207566
 30
0.0
  0
LINE
  5
D3
330
1F
100
AcDbEntity
  8
0
  6
Continuous
 62
     7
370
    15
100
AcDbLine
 10
205.1363169627
 20
79.6850652542
 30
0.0
 11
205.1363169627
 21
127.0329024133
 31
0.0
  0
SPLINE
  5
D4
330
1F
100
AcDbEntity
  8
0
  6
Continuous
 62
     7
370
    15
100
AcDbSpline
210
0.0
220
0.0
230
1.0
 70
     8
 71
     3
 72
     8
 73
     4
 74
     0
 42
0.00000001
 43
0.00000001
 40
0.0
 40
0.0
 40
0.0
 40
0.0
 40
1.0
 40
1.0
 40
1.0
 40
1.0
 10
205.1363169626862
 20
79.68506525423768
 30
0.0
 10
204.643977839905
 20
78.78779522003099
 30
0.0
 10
204.1498637918629
 20
77.89151080497875
 30
0.0
 10
203.6543841311971
 20
76.9959847170454
 30
0.0
  0
SPLINE
  5
D5
330
1F
100
AcDbEntity
  8
0
  6
Continuous
 62
     7
370
    15
100
AcDbSpline
210
0.0
220
0.0
230
1.0
 70
    24
 71
     3
 72
     8
 73
     4
 74
     0
 42
0.00000001
 43
0.00000001
 40
0.0
 40
0.0
 40
0.0
 40
0.0
 40
1.0
 40
1.0
 40
1.0
 40
1.0
 10
203.6543841311971
 20
127.0329024132926
 30
0.0
 10
204.1610642393477
 20
127.0329024132926
 30
0.0
 10
204.6563649683213
 20
127.0329024132926
 30
0.0
 10
205.1363169626862
 20
127.0329024132926
 30
0.0
  0
LINE
  5
D6
330
1F
100
AcDbEntity
  8
0
  6
Continuous
 62
     7
370
    15
100
AcDbLine
 10
189.0463169627
 20
75.9829024133
 30
0.0
 11
189.0463169627
 21
138.3829024098
 31
0.0
  0
SPLINE
  5
D7
330
1F
100
AcDbEntity
  8
0
  6
Continuous
 62
     7
370
    15
100
AcDbSpline
210
0.0
220
0.0
230
1.0
 70
    24
 71
     3
 72
    14
 73
    10
 74
     0
 42
0.00000001
 43
0.00000001
 40
0.0
 40
0.0
 40
0.0
 40
0.0
 40
0.5000000000000002
 40
0.5000000000000002
 40
0.7499999999999988
 40
0.7499999999999988
 40
0.8749999999999993
 40
0.8749999999999993
 40
1.0
 40
1.0
 40
1.0
 40
1.0
 10
208.8586421603539
 20
80.78290241329256
 30
0.0
 10
208.8118574553057
 20
80.78290241329255
 30
0.0
 10
208.7498062585261
 20
80.78290241329256
 30
0.0
 10
208.6064146199755
 20
80.78290241329256
 30
0.0
 10
208.5502709664243
 20
80.78290241329256
 30
0.0
 10
208.4373199442881
 20
80.78290241329255
 30
0.0
 10
208.39431918225
 20
80.78290241329255
 30
0.0
 10
208.2902564719435
 20
80.78290241329256
 30
0.0
 10
208.2249242335866
 20
80.78290241329256
 30
0.0
 10
208.1563169626862
 20
80.78290241329256
 30
0.0
  0
SPLINE
  5
D8
330
1F
100
AcDbEntity
  8
0
  6
Continuous
 62
     7
370
    15
100
AcDbSpline
210
0.0
220
0.0
230
1.0
 70
    24
 71
     3
 72
    12
 73
     8
 74
     0
 42
0.00000001
 43
0.00000001
 40
0.0
 40
0.0
 40
0.0
 40
0.0
 40
0.5
 40
0.5
 40
0.75
 40
0.75
 40
1.0
 40
1.0
 40
1.0
 40
1.0
 10
208.5620194309952
 20
133.5829024132926
 30
0.0
 10
208.5189338813844
 20
133.5829024132925
 30
0.0
 10
208.4697816796374
 20
133.5829024132925
 30
0.0
 10
208.3733090853478
 20
133.5829024132926
 30
0.0
 10
208.3372075002136
 20
133.5829024132926
 30
0.0
 10
208.254101742351
 20
133.5829024132926
 30
0.0
 10
208.206105145387
 20
133.5829024132926
 30
0.0
 10
208.1563169626862
 20
133.5829024132926
 30
0.0
  0
SPLINE
  5
D9
330
1F
100
AcDbEntity
  8
0
  6
Continuous
 62
     7
370
    15
100
AcDbSpline
210
0.0
220
0.0
230
1.0
 70
     8
 71
     3
 72
    10
 73
     6
 74
     0
 42
0.00000001
 43
0.00000001
 40
0.0
 40
0.0
 40
0.0
 40
0.0
 40
0.5
 40
0.5
 40
1.0
 40
1.0
 40
1.0
 40
1.0
 10
208.9563169626862
 20
134.3025562643284
 30
0.0
 10
208.9563169626862
 20
134.1587862065103
 30
0.0
 10
208.9202679039673
 20
134.0163668440152
 30
0.0
 10
208.7847590431933
 20
133.7664725506579
 30
0.0
 10
208.6848830500971
 20
133.6584422144097
 30
0.0
 10
208.5620194309952
 20
133.5829024132925
 30
0.0
  0
SPLINE
  5
DA
330
1F
100
AcDbEntity
  8
0
  6
Continuous
 62
     7
370
    15
100
AcDbSpline
210
0.0
220
0.0
230
1.0
 70
     8
 71
     3
 72
    10
 73
     6
 74
     0
 42
0.00000001
 43
0.00000001
 40
0.0
 40
0.0
 40
0.0
 40
0.0
 40
0.5
 40
0.5
 40
1.0
 40
1.0
 40
1.0
 40
1.0
 10
208.930169339526
 20
127.0329024132926
 30
0.0
 10
208.9388589824377
 20
127.0797812626107
 30
0.0
 10
208.9453980471882
 20
127.127203728012
 30
0.0
 10
208.9541566815812
 20
127.2231405265987
 30
0.0
 10
208.9563169626862
 20
127.2710558146092
 30
0.0
 10
208.9563169626862
 20
127.3187690447538
 30
0.0
  0
SPLINE
  5
DB
330
1F
100
AcDbEntity
  8
0
  6
Continuous
 62
     7
370
    15
100
AcDbSpline
210
0.0
220
0.0
230
1.0
 70
     8
 71
     3
 72
    10
 73
     6
 74
     0
 42
0.00000001
 43
0.00000001
 40
0.0
 40
0.0
 40
0.0
 40
0.0
 40
0.5
 40
0.5
 40
1.0
 40
1.0
 40
1.0
 40
1.0
 10
205.5306144943771
 20
133.5829024132925
 30
0.0
 10
205.4090742307086
 20
133.6576285805043
 30
0.0
 10
205.3077398703597
 20
133.7665735964211
 30
0.0
 10
205.1721009274713
 20
134.0170040771827
 30
0.0
 10
205.1363169626862
 20
134.1594234392816
 30
0.0
 10
205.1363169626862
 20
134.3025562643284
 30
0.0
  0
SPLINE
  5
DC
330
1F
100
AcDbEntity
  8
0
  6
Continuous
 62
     7
370
    15
100
AcDbSpline
210
0.0
220
0.0
230
1.0
 70
    24
 71
     3
 72
    12
 73
     8
 74
     0
 42
0.00000001
 43
0.00000001
 40
0.0
 40
0.0
 40
0.0
 40
0.0
 40
0.2500000000000008
 40
0.2500000000000008
 40
0.5000000000000017
 40
0.5000000000000017
 40
1.0
 40
1.0
 40
1.0
 40
1.0
 10
205.9363169626862
 20
133.5829024132926
 30
0.0
 10
205.8869736008765
 20
133.5829024132925
 30
0.0
 10
205.8382829025749
 20
133.5829024132926
 30
0.0
 10
205.7554318050045
 20
133.5829024132926
 30
0.0
 10
205.7192318373839
 20
133.5829024132926
 30
0.0
 10
205.6234819208345
 20
133.5829024132926
 30
0.0
 10
205.5735999510224
 20
133.5829024132926
 30
0.0
 10
205.5306144943771
 20
133.5829024132926
 30
0.0
  0
SPLINE
  5
DD
330
1F
100
AcDbEntity
  8
0
  6
Continuous
 62
     7
370
    15
100
AcDbSpline
210
0.0
220
0.0
230
1.0
 70
    24
 71
     3
 72
    14
 73
    10
 74
     0
 42
0.00000001
 43
0.00000001
 40
0.0
 40
0.0
 40
0.0
 40
0.0
 40
0.1250000000000017
 40
0.1250000000000017
 40
0.2500000000000034
 40
0.2500000000000034
 40
0.5000000000000032
 40
0.5000000000000032
 40
1.0
 40
1.0
 40
1.0
 40
1.0
 10
205.9363169626862
 20
80.78290241329256
 30
0.0
 10
205.866970240955
 20
80.78290241329256
 30
0.0
 10
205.8017721875711
 20
80.78290241329256
 30
0.0
 10
205.6973929949441
 20
80.78290241329256
 30
0.0
 10
205.6544906239351
 20
80.78290241329256
 30
0.0
 10
205.5421649663304
 20
80.78290241329256
 30
0.0
 10
205.4869412719766
 20
80.78290241329255
 30
0.0
 10
205.342883893209
 20
80.78290241329256
 30
0.0
 10
205.2808031963776
 20
80.78290241329256
 30
0.0
 10
205.2339917650185
 20
80.78290241329256
 30
0.0
  0
SPLINE
  5
DE
330
1F
100
AcDbEntity
  8
0
  6
Continuous
 62
     7
370
    15
100
AcDbSpline
210
0.0
220
0.0
230
1.0
 70
     8
 71
     3
 72
     9
 73
     5
 74
     0
 42
0.00000001
 43
0.00000001
 40
0.0
 40
0.0
 40
0.0
 40
0.0
 40
0.5
 40
1.0
 40
1.0
 40
1.0
 40
1.0
 10
205.1363169626862
 20
127.3187690447539
 30
0.0
 10
205.1363169626862
 20
127.2705369926312
 30
0.0
 10
205.1407229373914
 20
127.1746669791917
 30
0.0
 10
205.1537421174852
 20
127.0799583492083
 30
0.0
 10
205.1624645858463
 20
127.0329024132925
 30
0.0
  0
LINE
  5
DF
330
1F
100
AcDbEntity
  8
0
  6
Continuous
 62
     7
370
    15
100
AcDbLine
 10
208.1563169627
 20
133.5829024133
 30
0.0
 11
205.9363169627
 21
133.5829024133
 31
0.0
  0
LINE
  5
E0
330
1F
100
AcDbEntity
  8
0
  6
Continuous
 62
     7
370
    15
100
AcDbLine
 10
208.1563169627
 20
80.7829024133
 30
0.0
 11
205.9363169627
 21
80.7829024133
 31
0.0
  0
LINE
  5
E1
330
1F
100
AcDbEntity
  8
0
  6
Continuous
 62
     7
370
    15
100
AcDbLine
 10
215.1963158982
 20
133.5829024133
 30
0.0
 11
215.1524735613
 21
133.5829024133
 31
0.0
  0
SPLINE
  5
E2
330
1F
100
AcDbEntity
  8
0
  6
Continuous
 62
     7
370
    15
100
AcDbSpline
210
0.0
220
0.0
230
1.0
 70
    24
 71
     3
 72
    10
 73
     6
 74
     0
 42
0.00000001
 43
0.00000001
 40
0.0
 40
0.0
 40
0.0
 40
0.0
 40
0.5000000000000001
 40
0.5000000000000001
 40
1.0
 40
1.0
 40
1.0
 40
1.0
 10
215.1963169626604
 20
80.78290241329256
 30
0.0
 10
215.196315819713
 20
80.78290241329256
 30
0.0
 10
215.1531109316028
 20
80.78290241329255
 30
0.0
 10
215.0521838994022
 20
80.78290241329255
 30
0.0
 10
214.9963169626862
 20
80.78290241329256
 30
0.0
 10
214.9963169626862
 20
80.78290241329256
 30
0.0
  0
ELLIPSE
  5
E3
330
1F
100
AcDbEntity
  8
0
  6
Continuous
 62
     7
370
    15
100
AcDbEllipse
 10
330.5231275037
 20
107.1829024133
 30
0.0
 11
247.3730250899313
 21
-4.563722727181215
 31
0.0
210
0.0
220
0.0
230
1.0
 40
0.1034726254
 41
1.989940014263134
 42
1.990521898093068
  0
SPLINE
  5
E4
330
1F
100
AcDbEntity
  8
0
  6
Continuous
 62
     7
370
    15
100
AcDbSpline
210
0.0
220
0.0
230
1.0
 70
     8
 71
     3
 72
    16
 73
    12
 74
     0
 42
0.00000001
 43
0.00000001
 40
0.0
 40
0.0
 40
0.0
 40
0.0
 40
0.2500000000000026
 40
0.2500000000000026
 40
0.3750000000000027
 40
0.3750000000000027
 40
0.5000000000000028
 40
0.5000000000000028
 40
0.7500000000000013
 40
0.7500000000000013
 40
1.0
 40
1.0
 40
1.0
 40
1.0
 10
230.1474127322802
 20
132.4172594419022
 30
0.0
 10
229.4999518551113
 20
132.3993237183001
 30
0.0
 10
228.8833460142264
 20
132.355086517848
 30
0.0
 10
228.0101733192316
 20
132.2410051726781
 30
0.0
 10
227.7356223705193
 20
132.1957927518965
 30
0.0
 10
227.2174095904688
 20
132.0893094238998
 30
0.0
 10
226.9728484672855
 20
132.027749061216
 30
0.0
 10
226.2915567767448
 20
131.8162678568353
 30
0.0
 10
225.9200975327248
 20
131.6442305595538
 30
0.0
 10
225.3284107868184
 20
131.2274392496011
 30
0.0
 10
225.1181395811977
 20
130.9901141353648
 30
0.0
 10
224.9790285541517
 20
130.720429084313
 30
0.0
  0
ELLIPSE
  5
E5
330
1F
100
AcDbEntity
  8
0
  6
Continuous
 62
     7
370
    15
100
AcDbEllipse
 10
228.9886550607
 20
107.1829024133
 30
0.0
 11
-1.299954407456312
 21
25.99774751943447
 31
0.0
210
0.0
220
0.0
230
0.9999999999999999
 40
0.263265937
 41
0.4255724090936541
 42
2.340627963448432
  0
SPLINE
  5
E6
330
1F
100
AcDbEntity
  8
0
  6
Continuous
 62
     7
370
    15
100
AcDbSpline
210
0.0
220
0.0
230
1.0
 70
     8
 71
     3
 72
    20
 73
    16
 74
     0
 42
0.00000001
 43
0.00000001
 40
0.0
 40
0.0
 40
0.0
 40
0.0
 40
0.2499999999999977
 40
0.2499999999999977
 40
0.3749999999999976
 40
0.3749999999999976
 40
0.4999999999999974
 40
0.4999999999999974
 40
0.6249999999999981
 40
0.6249999999999981
 40
0.7499999999999987
 40
0.7499999999999987
 40
0.8749999999999993
 40
0.8749999999999993
 40
1.0
 40
1.0
 40
1.0
 40
1.0
 10
224.9790285541517
 20
88.84236349710318
 30
0.0
 10
225.118277258292
 20
88.39192744612566
 30
0.0
 10
225.3284865556029
 20
87.97814376181842
 30
0.0
 10
225.7692958093743
 20
87.41053425863943
 30
0.0
 10
225.938647057246
 20
87.22959403066042
 30
0.0
 10
226.3116539403491
 20
86.89744631316063
 30
0.0
 10
226.5162869445035
 20
86.7445879838923
 30
0.0
 10
226.9636177508734
 20
86.46410661439789
 30
0.0
 10
227.2078475793853
 20
86.33580093966543
 30
0.0
 10
227.731838269085
 20
86.10764737403737
 30
0.0
 10
228.006319277042
 20
86.00981566082264
 30
0.0
 10
228.5799911058918
 20
85.84402088271858
 30
0.0
 10
228.8791678901792
 20
85.77604856906221
 30
0.0
 10
229.5038679653153
 20
85.67013424931896
 30
0.0
 10
229.8230225940788
 20
85.63331875696362
 30
0.0
 10
230.1474127322802
 20
85.61249162847778
 30
0.0
  0
ELLIPSE
  5
E7
330
1F
100
AcDbEntity
  8
0
  6
Continuous
 62
     7
370
    15
100
AcDbEllipse
 10
330.5231275037
 20
107.1829024133
 30
0.0
 11
247.3730250899313
 21
-4.563722727181215
 31
0.0
210
0.0
220
0.0
230
1.0
 40
0.1034726254
 41
4.296481285335239
 42
4.297063169165174
  0
ELLIPSE
  5
E8
330
1F
100
AcDbEntity
  8
0
  6
Continuous
 62
     7
370
    15
100
AcDbEllipse
 10
223.7618387961
 20
118.773957587
 30
0.0
 11
0.2401414008675147
 21
3.588339610199256
 31
0.0
210
0.0
220
0.0
230
0.9999999999999998
 40
0.2051898077
 41
0.0
 42
6.283185307179586
  0
LINE
  5
E9
330
1F
100
AcDbEntity
  8
0
  6
Continuous
 62
     7
370
    15
100
AcDbLine
 10
187.0463169627
 20
82.9624715516
 30
0.0
 11
187.0463169627
 21
131.403333275
 31
0.0
  0
LINE
  5
EA
330
1F
100
AcDbEntity
  8
0
  6
Continuous
 62
     7
370
    15
100
AcDbLine
 10
167.2463169627
 20
83.9544555195
 30
0.0
 11
167.2463169627
 21
85.237754154
 31
0.0
  0
SPLINE
  5
EB
330
1F
100
AcDbEntity
  8
0
  6
Continuous
 62
     7
370
    15
100
AcDbSpline
210
0.0
220
0.0
230
1.0
 70
     8
 71
     3
 72
    14
 73
    10
 74
     0
 42
0.00000001
 43
0.00000001
 40
0.0
 40
0.0
 40
0.0
 40
0.0
 40
0.25
 40
0.25
 40
0.5
 40
0.5
 40
0.75
 40
0.75
 40
1.0
 40
1.0
 40
1.0
 40
1.0
 10
166.6247127259464
 20
86.31853119600932
 30
0.0
 10
166.6631491107674
 20
86.2159067982978
 30
0.0
 10
166.7319505041592
 20
86.11671037485823
 30
0.0
 10
166.8752365163182
 20
85.92581834553171
 30
0.0
 10
166.9504185714251
 20
85.83356107949879
 30
0.0
 10
167.0826058600752
 20
85.65395375768381
 30
0.0
 10
167.140123055545
 20
85.56664420323945
 30
0.0
 10
167.2221678538374
 20
85.3967103697237
 30
0.0
 10
167.2463169626862
 20
85.31480802785255
 30
0.0
 10
167.2463169626862
 20
85.23775415401664
 30
0.0
  0
SPLINE
  5
EC
330
1F
100
AcDbEntity
  8
0
  6
Continuous
 62
     7
370
    15
100
AcDbSpline
210
0.0
220
0.0
230
1.0
 70
     8
 71
     3
 72
    18
 73
    14
 74
     0
 42
0.00000001
 43
0.00000001
 40
0.0
 40
0.0
 40
0.0
 40
0.0
 40
0.0625000000000014
 40
0.0625000000000014
 40
0.1250000000000028
 40
0.1250000000000028
 40
0.2500000000000043
 40
0.2500000000000043
 40
0.5000000000000029
 40
0.5000000000000029
 40
0.7500000000000016
 40
0.7500000000000016
 40
1.0
 40
1.0
 40
1.0
 40
1.0
 10
165.8463169626862
 20
87.03681364749596
 30
0.0
 10
165.8828891730366
 20
87.04059105102341
 30
0.0
 10
165.921539646472
 20
87.04003402314027
 30
0.0
 10
165.9956311401859
 20
87.0299748179784
 30
0.0
 10
166.03098143394
 20
87.02062093655383
 30
0.0
 10
166.1255757313294
 20
86.98623651012001
 30
0.0
 10
166.1757139044684
 20
86.95552477545718
 30
0.0
 10
166.3049071760495
 20
86.85959546541913
 30
0.0
 10
166.3631873207907
 20
86.79107997130188
 30
0.0
 10
166.4633824172141
 20
86.65450802136927
 30
0.0
 10
166.5033976686608
 20
86.58574311886636
 30
0.0
 10
166.5717970894785
 20
86.45070768975869
 30
0.0
 10
166.6001588133404
 20
86.38408966370554
 30
0.0
 10
166.6247127259464
 20
86.31853119600932
 30
0.0
  0
SPLINE
  5
ED
330
1F
100
AcDbEntity
  8
0
  6
Continuous
 62
     7
370
    15
100
AcDbSpline
210
0.0
220
0.0
230
1.0
 70
     8
 71
     3
 72
    10
 73
     6
 74
     0
 42
0.00000001
 43
0.00000001
 40
0.0
 40
0.0
 40
0.0
 40
0.0
 40
0.5
 40
0.5
 40
1.0
 40
1.0
 40
1.0
 40
1.0
 10
161.9327151015642
 20
86.5406199911243
 30
0.0
 10
162.5603427572715
 20
86.64389354985992
 30
0.0
 10
163.211543502303
 20
86.73271866161147
 30
0.0
 10
164.5202482063152
 20
86.8948263684818
 30
0.0
 10
165.1812926436064
 20
86.96812583276838
 30
0.0
 10
165.8463169626861
 20
87.03681364749606
 30
0.0
  0
SPLINE
  5
EE
330
1F
100
AcDbEntity
  8
0
  6
Continuous
 62
     7
370
    15
100
AcDbSpline
210
0.0
220
0.0
230
1.0
 70
     8
 71
     3
 72
    14
 73
    10
 74
     0
 42
0.00000001
 43
0.00000001
 40
0.0
 40
0.0
 40
0.0
 40
0.0
 40
0.4999999999999986
 40
0.4999999999999986
 40
0.7499999999999978
 40
0.7499999999999978
 40
0.8749999999999989
 40
0.8749999999999989
 40
1.0
 40
1.0
 40
1.0
 40
1.0
 10
158.2963169626862
 20
86.37627085476497
 30
0.0
 10
158.9123938664415
 20
86.38199697499412
 30
0.0
 10
159.5265258625573
 20
86.39188734039615
 30
0.0
 10
160.4404224930709
 20
86.42252230806592
 30
0.0
 10
160.7438614206185
 20
86.43531576570389
 30
0.0
 10
161.194998036256
 20
86.46324159366328
 30
0.0
 10
161.3447042857985
 20
86.47401121382303
 30
0.0
 10
161.6415454220466
 20
86.50114392942257
 30
0.0
 10
161.7889309745499
 20
86.51696090224979
 30
0.0
 10
161.9327151015642
 20
86.54061999112425
 30
0.0
  0
SPLINE
  5
EF
330
1F
100
AcDbEntity
  8
0
  6
Continuous
 62
     7
370
    15
100
AcDbSpline
210
0.0
220
0.0
230
1.0
 70
     8
 71
     3
 72
     8
 73
     4
 74
     0
 42
0.00000001
 43
0.00000001
 40
0.0000005954826279
 40
0.0000005954826279
 40
0.0000005954826279
 40
0.0000005954826279
 40
0.0000302093805348
 40
0.0000302093805348
 40
0.0000302093805348
 40
0.0000302093805348
 10
158.2862720322766
 20
86.38808598441689
 30
0.0
 10
158.2895880595968
 20
86.38413920482108
 30
0.0
 10
158.292936610989
 20
86.38020081369115
 30
0.0
 10
158.2963169626861
 20
86.37627085476498
 30
0.0
  0
SPLINE
  5
F0
330
1F
100
AcDbEntity
  8
0
  6
Continuous
 62
     7
370
    15
100
AcDbSpline
210
0.0
220
0.0
230
1.0
 70
     8
 71
     3
 72
     8
 73
     4
 74
     0
 42
0.00000001
 43
0.00000001
 40
0.0000005099763573
 40
0.0000005099763573
 40
0.0000005099763573
 40
0.0000005099763573
 40
0.0000262827998699
 40
0.0000262827998699
 40
0.0000262827998699
 40
0.0000262827998699
 10
158.2963169626861
 20
128.0528401786876
 30
0.0
 10
158.2929482234584
 20
128.0495185097317
 30
0.0
 10
158.2895997704792
 20
128.0461905524529
 30
0.0
 10
158.2862720322679
 20
128.0428563055802
 30
0.0
  0
SPLINE
  5
F1
330
1F
100
AcDbEntity
  8
0
  6
Continuous
 62
     7
370
    15
100
AcDbSpline
210
0.0
220
0.0
230
1.0
 70
     8
 71
     3
 72
    10
 73
     6
 74
     0
 42
0.00000001
 43
0.00000001
 40
0.0
 40
0.0
 40
0.0
 40
0.0
 40
0.5
 40
0.5
 40
1.0
 40
1.0
 40
1.0
 40
1.0
 10
161.8463169626862
 20
128.0059898051203
 30
0.0
 10
161.2587314155956
 20
128.0270553253567
 30
0.0
 10
160.6679850221352
 20
128.0378138112289
 30
0.0
 10
159.4839658568363
 20
128.0511785917646
 30
0.0
 10
158.8905518686309
 20
128.0533212344292
 30
0.0
 10
158.2963169626861
 20
128.0528401786876
 30
0.0
  0
SPLINE
  5
F2
330
1F
100
AcDbEntity
  8
0
  6
Continuous
 62
     7
370
    15
100
AcDbSpline
210
0.0
220
0.0
230
1.0
 70
     8
 71
     3
 72
    18
 73
    14
 74
     0
 42
0.00000001
 43
0.00000001
 40
0.0
 40
0.0
 40
0.0
 40
0.0
 40
0.2500000000000009
 40
0.2500000000000009
 40
0.5000000000000019
 40
0.5000000000000019
 40
0.7500000000000029
 40
0.7500000000000029
 40
0.8750000000000028
 40
0.8750000000000028
 40
0.9375000000000014
 40
0.9375000000000014
 40
1.0
 40
1.0
 40
1.0
 40
1.0
 10
163.2463169626862
 20
129.0270100856555
 30
0.0
 10
163.2463169626862
 20
128.9438031767984
 30
0.0
 10
163.2104678627479
 20
128.8550665214848
 30
0.0
 10
163.085596126714
 20
128.6729413309245
 30
0.0
 10
162.9951957090661
 20
128.5778112822979
 30
0.0
 10
162.7729530543239
 20
128.3886297731736
 30
0.0
 10
162.6431882678781
 20
128.2936846050789
 30
0.0
 10
162.4025508105667
 20
128.1554058974989
 30
0.0
 10
162.3147835124292
 20
128.1096954641966
 30
0.0
 10
162.1602594252224
 20
128.0518721589751
 30
0.0
 10
162.1036485391676
 20
128.0341573949373
 30
0.0
 10
161.979604508261
 20
128.0096180917043
 30
0.0
 10
161.9118898332428
 20
128.003638953166
 30
0.0
 10
161.8463169626862
 20
128.0059898051203
 30
0.0
  0
LINE
  5
F3
330
1F
100
AcDbEntity
  8
0
  6
Continuous
 62
     7
370
    15
100
AcDbLine
 10
163.2463169627
 20
129.0270100857
 30
0.0
 11
163.2463169627
 21
130.2109485055
 31
0.0
  0
SPLINE
  5
F4
330
1F
100
AcDbEntity
  8
0
  6
Continuous
 62
     7
370
    15
100
AcDbSpline
210
0.0
220
0.0
230
1.0
 70
     8
 71
     3
 72
    24
 73
    20
 74
     0
 42
0.00000001
 43
0.00000001
 40
0.0
 40
0.0
 40
0.0
 40
0.0
 40
0.0010489762969675
 40
0.0637843125636785
 40
0.1272220590447881
 40
0.190378892448397
 40
0.2526748653693582
 40
0.3146354154422258
 40
0.3770891997149647
 40
0.4393540298503557
 40
0.5008133242537848
 40
0.5621845104596219
 40
0.6248438451115926
 40
0.6874304766625545
 40
0.7496743174679398
 40
0.8119848426976359
 40
0.8750960525413144
 40
0.9384412526964342
 40
1.0
 40
1.0
 40
1.0
 40
1.0
 10
175.8152227946619
 20
83.5253939847124
 30
0.0
 10
175.8147763345576
 20
83.5253356988935
 30
0.0
 10
175.7876287708637
 20
83.52179155695127
 30
0.0
 10
175.8832405484775
 20
83.53462530163357
 30
0.0
 10
176.1168008063708
 20
83.56387198683382
 30
0.0
 10
176.5123551136886
 20
83.61048630989661
 30
0.0
 10
177.0393954175248
 20
83.66066945155592
 30
0.0
 10
177.6829258295152
 20
83.70504591400577
 30
0.0
 10
178.4215996847543
 20
83.73199069494386
 30
0.0
 10
179.2191141901886
 20
83.73546254565083
 30
0.0
 10
180.0456930726354
 20
83.70783530162014
 30
0.0
 10
180.8712160902473
 20
83.64935641264745
 30
0.0
 10
181.663342638251
 20
83.56391138328611
 30
0.0
 10
182.3959149122504
 20
83.46217714344984
 30
0.0
 10
183.0315551489803
 20
83.35433402147743
 30
0.0
 10
183.5534662559865
 20
83.25270386473872
 30
0.0
 10
183.9350950331023
 20
83.17021870806052
 30
0.0
 10
184.1859095033366
 20
83.11406950171084
 30
0.0
 10
184.2150310593208
 20
83.10722004309709
 30
0.0
 10
184.2293835801368
 20
83.10384429636892
 30
0.0
  0
SPLINE
  5
F5
330
1F
100
AcDbEntity
  8
0
  6
Continuous
 62
     7
370
    15
100
AcDbSpline
210
0.0
220
0.0
230
1.0
 70
     8
 71
     3
 72
    24
 73
    20
 74
     0
 42
0.00000001
 43
0.00000001
 40
0.0
 40
0.0
 40
0.0
 40
0.0
 40
0.0614384276250093
 40
0.1250736755369639
 40
0.1884253490728547
 40
0.250862390403747
 40
0.3129665632511464
 40
0.3753451453465216
 40
0.4377328972327366
 40
0.4990927322917386
 40
0.560580758844976
 40
0.6229469893028905
 40
0.6854686282028751
 40
0.7475477813740348
 40
0.8098225060807759
 40
0.8730684085990463
 40
0.9364041844530121
 40
0.9991757196257862
 40
1.0
 40
1.0
 40
1.0
 40
1.0
 10
184.2293288093339
 20
131.2619313877499
 30
0.0
 10
184.2147280850303
 20
131.2585633308973
 30
0.0
 10
184.1850045663019
 20
131.2517067874235
 30
0.0
 10
183.932266750654
 20
131.1953681668977
 30
0.0
 10
183.5492708342048
 20
131.1125110847676
 30
0.0
 10
183.0269152497672
 20
131.0106040548164
 30
0.0
 10
182.3921307717672
 20
130.9027649157725
 30
0.0
 10
181.6619071675935
 20
130.8012979637973
 30
0.0
 10
180.8714385823597
 20
130.7162382501065
 30
0.0
 10
180.0469550675304
 20
130.6580339562203
 30
0.0
 10
179.2199186086481
 20
130.6304505173938
 30
0.0
 10
178.4215943409953
 20
130.6339434948866
 30
0.0
 10
177.6817703767064
 20
130.6608994147395
 30
0.0
 10
177.0375161437312
 20
130.705253356739
 30
0.0
 10
176.5101088885175
 20
130.7554588064969
 30
0.0
 10
176.1154442863666
 20
130.802068661695
 30
0.0
 10
175.882915007182
 20
130.8312642542425
 30
0.0
 10
175.7875349746292
 20
130.8440423231839
 30
0.0
 10
175.8144686115308
 20
130.840488064676
 30
0.0
 10
175.8148177047551
 20
130.8404419970926
 30
0.0
  0
SPLINE
  5
F6
330
1F
100
AcDbEntity
  8
0
  6
Continuous
 62
     7
370
    15
100
AcDbSpline
210
0.0
220
0.0
230
1.0
 70
     8
 71
     3
 72
     9
 73
     5
 74
     0
 42
0.00000001
 43
0.00000001
 40
0.0
 40
0.0
 40
0.0
 40
0.0
 40
0.5865083119587412
 40
1.0
 40
1.0
 40
1.0
 40
1.0
 10
157.1528367606371
 20
87.53208397071364
 30
0.0
 10
157.1568373896153
 20
87.52628388968465
 30
0.0
 10
157.1636584847244
 20
87.51639471861797
 30
0.0
 10
157.1728103557116
 20
87.57045951085856
 30
0.0
 10
157.1765945782948
 20
87.5928148530657
 30
0.0
  0
LINE
  5
F7
330
1F
100
AcDbEntity
  8
0
  6
Continuous
 62
     7
370
    15
100
AcDbLine
 10
157.1463169627
 20
87.5297418883
 30
0.0
 11
157.1463169627
 21
126.8735801598
 31
0.0
  0
SPLINE
  5
F8
330
1F
100
AcDbEntity
  8
0
  6
Continuous
 62
     7
370
    15
100
AcDbSpline
210
0.0
220
0.0
230
1.0
 70
     8
 71
     3
 72
    10
 73
     6
 74
     0
 42
0.00000001
 43
0.00000001
 40
0.0
 40
0.0
 40
0.0
 40
0.0
 40
0.5
 40
0.5
 40
1.0
 40
1.0
 40
1.0
 40
1.0
 10
157.2089803374096
 20
126.8574549580733
 30
0.0
 10
157.2000760483008
 20
126.9031964772865
 30
0.0
 10
157.1835606681078
 20
126.9203873167555
 30
0.0
 10
157.1564527220462
 20
126.9200640398198
 30
0.0
 10
157.1463169626862
 20
126.9021864975233
 30
0.0
 10
157.1463169626862
 20
126.8735801597707
 30
0.0
  0
SPLINE
  5
F9
330
1F
100
AcDbEntity
  8
0
  6
Continuous
 62
     7
370
    15
100
AcDbSpline
210
0.0
220
0.0
230
1.0
 70
     8
 71
     3
 72
    26
 73
    22
 74
     0
 42
0.00000001
 43
0.00000001
 40
0.0
 40
0.0
 40
0.0
 40
0.0
 40
0.2499999999999972
 40
0.2499999999999972
 40
0.3749999999999961
 40
0.3749999999999961
 40
0.4374999999999985
 40
0.4374999999999985
 40
0.4687499999999993
 40
0.4687499999999993
 40
0.5
 40
0.5
 40
0.5312500000000008
 40
0.5312500000000008
 40
0.5625000000000016
 40
0.5625000000000016
 40
0.6250000000000014
 40
0.6250000000000014
 40
0.7500000000000019
 40
0.7500000000000019
 40
1.0
 40
1.0
 40
1.0
 40
1.0
 10
157.9704706087907
 20
127.5730217468904
 30
0.0
 10
157.9318700859222
 20
127.4552470505349
 30
0.0
 10
157.8855730833679
 20
127.330857364373
 30
0.0
 10
157.791633734934
 20
127.1256380320196
 30
0.0
 10
157.7563222680206
 20
127.0540651655731
 30
0.0
 10
157.6901422922749
 20
126.9381119329727
 30
0.0
 10
157.6656039256067
 20
126.8975273981624
 30
0.0
 10
157.6222311800529
 20
126.8333857162907
 30
0.0
 10
157.6067227786277
 20
126.8115192910056
 30
0.0
 10
157.5716801340407
 20
126.7659250226624
 30
0.0
 10
157.5521298433209
 20
126.742254731695
 30
0.0
 10
157.5102025629503
 20
126.6976381723551
 30
0.0
 10
157.4875504527187
 20
126.6767581598372
 30
0.0
 10
157.446576738632
 20
126.6458847460864
 30
0.0
 10
157.4289774387366
 20
126.6360458762539
 30
0.0
 10
157.3843504528805
 20
126.6170562605577
 30
0.0
 10
157.3637912302271
 20
126.6167319359043
 30
0.0
 10
157.3126657907305
 20
126.6259553767805
 30
0.0
 10
157.2917543777419
 20
126.6472022729975
 30
0.0
 10
157.2403044701809
 20
126.7211711518283
 30
0.0
 10
157.2226391708764
 20
126.787289245143
 30
0.0
 10
157.2089803374096
 20
126.8574549580733
 30
0.0
  0
SPLINE
  5
FA
330
1F
100
AcDbEntity
  8
0
  6
Continuous
 62
     7
370
    15
100
AcDbSpline
210
0.0
220
0.0
230
1.0
 70
     8
 71
     3
 72
    10
 73
     6
 74
     0
 42
0.00000001
 43
0.00000001
 40
0.0
 40
0.0
 40
0.0
 40
0.0
 40
0.5
 40
0.5
 40
1.0
 40
1.0
 40
1.0
 40
1.0
 10
158.2862720322679
 20
128.0428563055802
 30
0.0
 10
158.2187127773497
 20
127.9751649127704
 30
0.0
 10
158.1550761220132
 20
127.9004577480168
 30
0.0
 10
158.0448553674413
 20
127.7414916155902
 30
0.0
 10
157.9980390742187
 20
127.6571363495822
 30
0.0
 10
157.9704706087907
 20
127.5730217468904
 30
0.0
  0
SPLINE
  5
FB
330
1F
100
AcDbEntity
  8
0
  6
Continuous
 62
     7
370
    15
100
AcDbSpline
210
0.0
220
0.0
230
1.0
 70
     8
 71
     3
 72
     8
 73
     4
 74
     0
 42
0.00000001
 43
0.00000001
 40
0.0
 40
0.0
 40
0.0
 40
0.0
 40
1.0
 40
1.0
 40
1.0
 40
1.0
 10
158.0852265328853
 20
86.73898011032693
 30
0.0
 10
158.1209401912552
 20
86.61574860506714
 30
0.0
 10
158.1966082302035
 20
86.49480502812015
 30
0.0
 10
158.2862720322766
 20
86.3880859844169
 30
0.0
  0
SPLINE
  5
FC
330
1F
100
AcDbEntity
  8
0
  6
Continuous
 62
     7
370
    15
100
AcDbSpline
210
0.0
220
0.0
230
1.0
 70
     8
 71
     3
 72
    26
 73
    22
 74
     0
 42
0.00000001
 43
0.00000001
 40
0.0
 40
0.0
 40
0.0
 40
0.0
 40
0.2500000000000026
 40
0.2500000000000026
 40
0.3750000000000032
 40
0.3750000000000032
 40
0.4375000000000043
 40
0.4375000000000043
 40
0.4687500000000044
 40
0.4687500000000044
 40
0.5000000000000044
 40
0.5000000000000044
 40
0.5312500000000047
 40
0.5312500000000047
 40
0.5625000000000048
 40
0.5625000000000048
 40
0.625000000000005
 40
0.625000000000005
 40
0.7500000000000028
 40
0.7500000000000028
 40
1.0
 40
1.0
 40
1.0
 40
1.0
 10
157.1765945782948
 20
87.59281485306565
 30
0.0
 10
157.1873186116874
 20
87.69577589355464
 30
0.0
 10
157.2020516022819
 20
87.7947745830357
 30
0.0
 10
157.254405161529
 20
87.91337026310083
 30
0.0
 10
157.2761104442486
 20
87.94908056304962
 30
0.0
 10
157.334965951614
 20
87.97405999587131
 30
0.0
 10
157.3584281854612
 20
87.97844544363487
 30
0.0
 10
157.4145495621218
 20
87.95869261019065
 30
0.0
 10
157.4373368722524
 20
87.94703621938021
 30
0.0
 10
157.4925894247837
 20
87.90525586994292
 30
0.0
 10
157.5239956575244
 20
87.87498428256701
 30
0.0
 10
157.5789294781448
 20
87.81334188365301
 30
0.0
 10
157.6033532963443
 20
87.78190023134623
 30
0.0
 10
157.6467684023315
 20
87.72216539393249
 30
0.0
 10
157.6663429648997
 20
87.69300038405987
 30
0.0
 10
157.7199756488477
 20
87.6091651083268
 30
0.0
 10
157.7497529968999
 20
87.55713249035058
 30
0.0
 10
157.8312870568727
 20
87.40606681638324
 30
0.0
 10
157.8745298515467
 20
87.31287577451252
 30
0.0
 10
157.9875844412014
 20
87.04848923551818
 30
0.0
 10
158.0415954386806
 20
86.88953106646835
 30
0.0
 10
158.0852265328846
 20
86.7389801103275
 30
0.0
  0
SPLINE
  5
FD
330
1F
100
AcDbEntity
  8
0
  6
Continuous
 62
     7
370
    15
100
AcDbSpline
210
0.0
220
0.0
230
1.0
 70
     8
 71
     3
 72
     8
 73
     4
 74
     0
 42
0.00000001
 43
0.00000001
 40
0.0
 40
0.0
 40
0.0
 40
0.0
 40
1.0
 40
1.0
 40
1.0
 40
1.0
 10
205.1363169626862
 20
134.9881366044642
 30
0.0
 10
204.6436068658404
 20
135.8761556025905
 30
0.0
 10
204.1495241605614
 20
136.7634182382765
 30
0.0
 10
203.6543841311971
 20
137.6500978864568
 30
0.0
  0
LINE
  5
FE
330
1F
100
AcDbEntity
  8
0
  6
Continuous
 62
     7
370
    15
100
AcDbLine
 10
205.1363169627
 20
128.2330460809
 30
0.0
 11
205.1363169627
 21
134.9881366045
 31
0.0
  0
SPLINE
  5
FF
330
1F
100
AcDbEntity
  8
0
  6
Continuous
 62
     7
370
    15
100
AcDbSpline
210
0.0
220
0.0
230
1.0
 70
     8
 71
     3
 72
     8
 73
     4
 74
     0
 42
0.00000001
 43
0.00000001
 40
0.0
 40
0.0
 40
0.0
 40
0.0
 40
1.0
 40
1.0
 40
1.0
 40
1.0
 10
203.6543841311971
 20
131.64159207566
 30
0.0
 10
204.1614709729564
 20
130.5104417214963
 30
0.0
 10
204.6570388120963
 20
129.3740573107285
 30
0.0
 10
205.1363169626862
 20
128.2330460808759
 30
0.0
  0
LINE
  5
100
330
1F
100
AcDbEntity
  8
0
  6
Continuous
 62
     7
370
    15
100
AcDbLine
 10
205.1363169627
 20
128.2330460809
 30
0.0
 11
205.1363169627
 21
127.3187690448
 31
0.0
  0
SPLINE
  5
101
330
1F
100
AcDbEntity
  8
0
  6
Continuous
 62
     7
370
    15
100
AcDbSpline
210
0.0
220
0.0
230
1.0
 70
     8
 71
     3
 72
     8
 73
     4
 74
     0
 42
0.00000001
 43
0.00000001
 40
0.0
 40
0.0
 40
0.0
 40
0.0
 40
1.0
 40
1.0
 40
1.0
 40
1.0
 10
210.4382497941752
 20
137.6500978864568
 30
0.0
 10
209.9431097648109
 20
136.7634182382765
 30
0.0
 10
209.4490270595319
 20
135.8761556025906
 30
0.0
 10
208.9563169626862
 20
134.9881366044642
 30
0.0
  0
LINE
  5
102
330
1F
100
AcDbEntity
  8
0
  6
Continuous
 62
     7
370
    15
100
AcDbLine
 10
210.4382497942
 20
131.6415920757
 30
0.0
 11
210.4382497942
 21
137.6500978865
 31
0.0
  0
SPLINE
  5
103
330
1F
100
AcDbEntity
  8
0
  6
Continuous
 62
     7
370
    15
100
AcDbSpline
210
0.0
220
0.0
230
1.0
 70
     8
 71
     3
 72
     8
 73
     4
 74
     0
 42
0.00000001
 43
0.00000001
 40
0.0
 40
0.0
 40
0.0
 40
0.0
 40
1.0
 40
1.0
 40
1.0
 40
1.0
 10
208.9563169626862
 20
128.2330460808759
 30
0.0
 10
209.435595113276
 20
129.3740573107285
 30
0.0
 10
209.9311629524159
 20
130.5104417214963
 30
0.0
 10
210.4382497941752
 20
131.64159207566
 30
0.0
  0
LINE
  5
104
330
1F
100
AcDbEntity
  8
0
  6
Continuous
 62
     7
370
    15
100
AcDbLine
 10
208.9563169627
 20
128.2330460809
 30
0.0
 11
208.9563169627
 21
134.9881366045
 31
0.0
  0
SPLINE
  5
105
330
1F
100
AcDbEntity
  8
0
  6
Continuous
 62
     7
370
    15
100
AcDbSpline
210
0.0
220
0.0
230
1.0
 70
     8
 71
     3
 72
    10
 73
     6
 74
     0
 42
0.00000001
 43
0.00000001
 40
0.0
 40
0.0
 40
0.0
 40
0.0
 40
0.5
 40
0.5
 40
1.0
 40
1.0
 40
1.0
 40
1.0
 10
214.9963169626862
 20
137.0293427370565
 30
0.0
 10
214.9963169626862
 20
137.1897480034073
 30
0.0
 10
214.9340791315793
 20
137.3488098163958
 30
0.0
 10
214.7149442078368
 20
137.5797222820262
 30
0.0
 10
214.5573555128449
 20
137.6500978864568
 30
0.0
 10
214.3963169626862
 20
137.6500978864568
 30
0.0
  0
SPLINE
  5
106
330
1F
100
AcDbEntity
  8
0
  6
Continuous
 62
     7
370
    15
100
AcDbSpline
210
0.0
220
0.0
230
1.0
 70
     8
 71
     3
 72
    12
 73
     8
 74
     0
 42
0.00000001
 43
0.00000001
 40
0.0
 40
0.0
 40
0.0
 40
0.0
 40
0.2499999999999987
 40
0.2499999999999987
 40
0.4999999999999973
 40
0.4999999999999973
 40
1.0
 40
1.0
 40
1.0
 40
1.0
 10
214.3963169626862
 20
131.64159207566
 30
0.0
 10
214.4875166845119
 20
131.64159207566
 30
0.0
 10
214.5781116936479
 20
131.6133723770721
 30
0.0
 10
214.7315244200945
 20
131.518929369824
 30
0.0
 10
214.7967332874182
 20
131.4526423931187
 30
0.0
 10
214.9495178167581
 20
131.2270175698303
 30
0.0
 10
214.9963169626862
 20
131.0445913067978
 30
0.0
 10
214.9963169626862
 20
130.8638546745509
 30
0.0
  0
LINE
  5
107
330
1F
100
AcDbEntity
  8
0
  6
Continuous
 62
     7
370
    15
100
AcDbLine
 10
214.9963169627
 20
130.8638546746
 30
0.0
 11
214.9963169627
 21
137.0293427371
 31
0.0
  0
LINE
  5
108
330
1F
100
AcDbEntity
  8
0
  6
Continuous
 62
     7
370
    15
100
AcDbLine
 10
208.9563169627
 20
127.3187690448
 30
0.0
 11
208.9563169627
 21
128.2330460809
 31
0.0
  0
LINE
  5
109
330
1F
100
AcDbEntity
  8
0
  6
Continuous
 62
     7
370
    15
100
AcDbLine
 10
210.4382497942
 20
131.6415920757
 30
0.0
 11
214.3963169627
 21
131.6415920757
 31
0.0
  0
LINE
  5
10A
330
1F
100
AcDbEntity
  8
0
  6
Continuous
 62
     7
370
    15
100
AcDbLine
 10
214.9963169627
 20
130.8638546746
 30
0.0
 11
214.9963169627
 21
127.0329024133
 31
0.0
  0
LINE
  5
10B
330
1F
100
AcDbEntity
  8
0
  6
Continuous
 62
     7
370
    15
100
AcDbLine
 10
214.3963169627
 20
137.6500978865
 30
0.0
 11
210.4382497942
 21
137.6500978865
 31
0.0
  0
LINE
  5
10C
330
1F
100
AcDbEntity
  8
0
  6
Continuous
 62
     7
370
    15
100
AcDbLine
 10
245.4383404868
 20
134.4167961842
 30
0.0
 11
242.7878344556
 21
132.8251283831
 31
0.0
  0
ARC
  5
10D
330
1F
100
AcDbEntity
  8
0
  6
Continuous
 62
     7
370
    15
100
AcDbCircle
 10
243.9141285041
 20
131.0632864284
 30
0.0
 40
2.091082341024236
100
AcDbArc
 50
122.5895920301
 51
301.3262094742
  0
LINE
  5
10E
330
1F
100
AcDbEntity
  8
0
  6
Continuous
 62
     7
370
    15
100
AcDbLine
 10
245.001302962
 20
129.2770397895
 30
0.0
 11
257.8356026578
 21
136.9842252607
 31
0.0
  0
LINE
  5
10F
330
1F
100
AcDbEntity
  8
0
  6
Continuous
 62
     7
370
    15
100
AcDbLine
 10
257.8356026578
 20
136.9842252607
 30
0.0
 11
256.6346627538
 21
114.3146739713
 31
0.0
  0
LINE
  5
110
330
1F
100
AcDbEntity
  8
0
  6
Continuous
 62
     7
370
    15
100
AcDbLine
 10
256.6346627538
 20
114.3146739713
 30
0.0
 11
235.0888463811
 21
84.2378519958
 31
0.0
  0
ELLIPSE
  5
111
330
1F
100
AcDbEntity
  8
0
  6
Continuous
 62
     7
370
    15
100
AcDbEllipse
 10
330.5231275037
 20
107.1829024133
 30
0.0
 11
256.8873722087747
 21
-4.739250524380509
 31
0.0
210
0.0
220
0.0
230
1.0
 40
0.1034726254
 41
4.317794676324507
 42
4.333671913122852
  0
SPLINE
  5
112
330
1F
100
AcDbEntity
  8
0
  6
Continuous
 62
     7
370
    15
100
AcDbSpline
210
0.0
220
0.0
230
1.0
 70
     8
 71
     3
 72
     8
 73
     4
 74
     0
 42
0.00000001
 43
0.00000001
 40
0.0
 40
0.0
 40
0.0
 40
0.0
 40
1.0
 40
1.0
 40
1.0
 40
1.0
 10
231.3142661551173
 20
84.46668531033453
 30
0.0
 10
231.291128319479
 20
84.56030255878672
 30
0.0
 10
231.2680113309628
 20
84.65392469634628
 30
0.0
 10
231.2449158009963
 20
84.74755186640631
 30
0.0
  0
SPLINE
  5
113
330
1F
100
AcDbEntity
  8
0
  6
Continuous
 62
     7
370
    15
100
AcDbSpline
210
0.0
220
0.0
230
1.0
 70
     8
 71
     3
 72
    10
 73
     6
 74
     0
 42
0.00000001
 43
0.00000001
 40
0.0
 40
0.0
 40
0.0
 40
0.0
 40
0.5
 40
0.5
 40
1.0
 40
1.0
 40
1.0
 40
1.0
 10
230.2789899747072
 20
85.60404859244363
 30
0.0
 10
230.5104121529639
 20
85.5892070556006
 30
0.0
 10
230.7293694695934
 20
85.48799944417162
 30
0.0
 10
231.0709692030906
 20
85.17549685020911
 30
0.0
 10
231.18983591953
 20
84.97084067754847
 30
0.0
 10
231.2449158009963
 20
84.74755186640631
 30
0.0
  0
SPLINE
  5
114
330
1F
100
AcDbEntity
  8
0
  6
Continuous
 62
     7
370
    15
100
AcDbSpline
210
0.0
220
0.0
230
1.0
 70
     8
 71
     3
 72
    12
 73
     8
 74
     0
 42
0.00000001
 43
0.00000001
 40
0.0
 40
0.0
 40
0.0
 40
0.0
 40
0.2500000000000028
 40
0.2500000000000028
 40
0.5000000000000056
 40
0.5000000000000056
 40
1.0
 40
1.0
 40
1.0
 40
1.0
 10
231.2449158009963
 20
133.2421377981313
 30
0.0
 10
231.2173561638877
 20
133.1314195358854
 30
0.0
 10
231.1744677631968
 20
133.0275209137165
 30
0.0
 10
231.0580397708655
 20
132.8333601306033
 30
0.0
 10
230.9855049323498
 20
132.7456005365299
 30
0.0
 10
230.7314506214558
 20
132.5220919246437
 30
0.0
 10
230.5106482522972
 20
132.4273002178661
 30
0.0
 10
230.2789899747077
 20
132.4208996036098
 30
0.0
  0
SPLINE
  5
115
330
1F
100
AcDbEntity
  8
0
  6
Continuous
 62
     7
370
    15
100
AcDbSpline
210
0.0
220
0.0
230
1.0
 70
     8
 71
     3
 72
     8
 73
     4
 74
     0
 42
0.00000001
 43
0.00000001
 40
0.0
 40
0.0
 40
0.0
 40
0.0
 40
1.0
 40
1.0
 40
1.0
 40
1.0
 10
231.2449158009963
 20
133.2421377981313
 30
0.0
 10
231.3076881939205
 20
133.4943200106251
 30
0.0
 10
231.3706190200858
 20
133.7464592838689
 30
0.0
 10
231.433696381531
 20
133.9985588424985
 30
0.0
  0
SPLINE
  5
116
330
1F
100
AcDbEntity
  8
0
  6
Continuous
 62
     7
370
    15
100
AcDbSpline
210
0.0
220
0.0
230
1.0
 70
     8
 71
     3
 72
    10
 73
     6
 74
     0
 42
0.00000001
 43
0.00000001
 40
0.0
 40
0.0
 40
0.0
 40
0.0
 40
0.5000000000000001
 40
0.5000000000000001
 40
1.0
 40
1.0
 40
1.0
 40
1.0
 10
245.9242975720336
 20
143.5899688221321
 30
0.0
 10
243.4868843542851
 20
142.0245706242603
 30
0.0
 10
241.0574743214739
 20
140.4472750360183
 30
0.0
 10
236.2233161019138
 20
137.2560220040156
 30
0.0
 10
233.8183626749973
 20
135.642369666586
 30
0.0
 10
231.433696381531
 20
133.9985588424985
 30
0.0
  0
LINE
  5
117
330
1F
100
AcDbEntity
  8
0
  6
Continuous
 62
     7
370
    15
100
AcDbLine
 10
245.924297572
 20
143.5899688221
 30
0.0
 11
245.4383404868
 21
134.4167961842
 31
0.0
  0
LWPOLYLINE
  5
118
330
1F
100
AcDbEntity
  8
0
  6
Continuous
 62
     7
370
    15
100
AcDbPolyline
 90
       31
 70
   128
 43
0.0
 10
249.9537322863
 20
122.3007999992
 10
250.6774368372
 20
122.3629129952
 10
251.3695120264
 20
122.5729542408
 10
251.9997108474
 20
122.9217439256
 10
252.5404905876
 20
123.3940382667
 10
252.9682165773
 20
123.9691957351
 10
253.2641951384
 20
124.6220791896
 10
253.4154905876
 20
125.3241544902
 10
253.4154905876
 20
126.0447375775
 10
253.2641951384
 20
126.7523355127
 10
252.9682165773
 20
127.4160228707
 10
252.5404905876
 20
128.0067933291
 10
251.9997108474
 20
128.4988273842
 10
251.3695120264
 20
128.8706207867
 10
250.6774368372
 20
129.1059243808
 10
249.9537322863
 20
129.1944542703
 10
249.2300277354
 20
129.1323412743
 10
248.5379525461
 20
128.9223000287
 10
247.9077537251
 20
128.5735103439
 10
247.366973985
 20
128.1012160028
 10
246.9392479952
 20
127.5260585344
 10
246.6432694341
 20
126.8731750799
 10
246.491973985
 20
126.1710997793
 10
246.491973985
 20
125.450516692
 10
246.6432694341
 20
124.7429187568
 10
246.9392479952
 20
124.0792313988
 10
247.366973985
 20
123.4884609404
 10
247.9077537251
 20
122.9964268853
 10
248.5379525461
 20
122.6246334828
 10
249.2300277354
 20
122.3893298887
 10
249.9537322863
 20
122.3007999992
  0
ELLIPSE
  5
119
330
1F
100
AcDbEntity
  8
0
  6
Continuous
 62
     7
370
    15
100
AcDbEllipse
 10
251.6838499963
 20
107.1829024133
 30
0.0
 11
19.21745301714495
 21
26.99894037096037
 31
0.0
210
0.0
220
0.0
230
1.0
 40
0.0124472587
 41
2.595293268886666
 42
4.721248526267163
  0
LINE
  5
11A
330
1F
100
AcDbEntity
  8
0
  6
Continuous
 62
     7
370
    15
100
AcDbLine
 10
231.3142661551
 20
84.4666853103
 30
0.0
 11
231.3142661551
 21
80.1829024133
 31
0.0
  0
LINE
  5
11B
330
1F
100
AcDbEntity
  8
0
  6
Continuous
 62
     7
370
    15
100
AcDbLine
 10
231.4336963815
 20
133.9985588425
 30
0.0
 11
231.4336963815
 21
134.6286220862
 31
0.0
  0
LINE
  5
11C
330
1F
100
AcDbEntity
  8
0
  6
Continuous
 62
     7
370
    15
100
AcDbLine
 10
256.6346627538
 20
114.3146739713
 30
0.0
 11
253.0456642254
 21
108.3851026982
 31
0.0
  0
LINE
  5
11D
330
1F
100
AcDbEntity
  8
0
  6
Continuous
 62
     7
370
    15
100
AcDbLine
 10
253.0456642254
 20
108.3851026982
 30
0.0
 11
252.1901552826
 21
107.1829024133
 31
0.0
  0
LINE
  5
11E
330
1F
100
AcDbEntity
  8
0
  6
Continuous
 62
     7
370
    15
100
AcDbLine
 10
158.2963169627
 20
86.3704024133
 30
0.0
 11
158.2963169627
 21
86.3762708548
 31
0.0
  0
ELLIPSE
  5
11F
330
1F
100
AcDbEntity
  8
0
  6
Continuous
 62
     7
370
    15
100
AcDbEllipse
 10
243.4260520609
 20
108.7143907437
 30
0.0
 11
2.47708865658629
 21
34.87781477030992
 31
0.0
210
0.0
220
0.0
230
1.0
 40
0.0939603561
 41
6.276713526925552
 42
6.351501579501925
  0
LINE
  5
120
330
1F
100
AcDbEntity
  8
0
  6
Continuous
 62
     7
370
    15
100
AcDbLine
 10
244.4745880555
 20
132.8245306299
 30
0.0
 11
245.4383404868
 21
134.4167961842
 31
0.0
  0
LINE
  5
121
330
1F
100
AcDbEntity
  8
0
  6
Continuous
 62
     7
370
    15
100
AcDbLine
 10
244.4745880555
 20
132.8245306299
 30
0.0
 11
241.8240820242
 21
131.2328628288
 31
0.0
  0
LINE
  5
122
330
1F
100
AcDbEntity
  8
0
  6
HIDDEN
 62
     7
370
     0
100
AcDbLine
 10
193.9963169627
 20
75.6829024133
 30
0.0
 11
193.9963169627
 21
75.6987794304
 31
0.0
  0
SPLINE
  5
123
330
1F
100
AcDbEntity
  8
0
  6
HIDDEN
 62
     7
370
     0
100
AcDbSpline
210
0.0
220
0.0
230
1.0
 70
     8
 71
     3
 72
    30
 73
    26
 74
     0
 42
0.00000001
 43
0.00000001
 40
0.0
 40
0.0
 40
0.0
 40
0.0
 40
0.1250000000000002
 40
0.1250000000000002
 40
0.1875000000000003
 40
0.1875000000000003
 40
0.2500000000000004
 40
0.2500000000000004
 40
0.3750000000000004
 40
0.3750000000000004
 40
0.4375000000000005
 40
0.4375000000000005
 40
0.5000000000000006
 40
0.5000000000000006
 40
0.6250000000000003
 40
0.6250000000000003
 40
0.6875000000000002
 40
0.6875000000000002
 40
0.75
 40
0.75
 40
0.8124999999999999
 40
0.8124999999999999
 40
0.8749999999999998
 40
0.8749999999999998
 40
1.0
 40
1.0
 40
1.0
 40
1.0
 10
193.9963169626862
 20
75.69877943043024
 30
0.0
 10
193.9963169626862
 20
75.71565834843884
 30
0.0
 10
194.0487345286646
 20
75.74567591326354
 30
0.0
 10
194.2021140085669
 20
75.80848630253664
 30
0.0
 10
194.2657951292346
 20
75.83239020976355
 30
0.0
 10
194.4187499966863
 20
75.88582550220593
 30
0.0
 10
194.5083222954556
 20
75.91543237037348
 30
0.0
 10
194.8095463283087
 20
76.00988206908792
 30
0.0
 10
195.0548613243929
 20
76.08090946291713
 30
0.0
 10
195.4889583054631
 20
76.1949237496229
 30
0.0
 10
195.6456279945668
 20
76.23437900076347
 30
0.0
 10
195.9776211584091
 20
76.31390044353414
 30
0.0
 10
196.1523266874016
 20
76.35383658603493
 30
0.0
 10
196.7019963699932
 20
76.47277298886308
 30
0.0
 10
197.1022473327045
 20
76.55093775274695
 30
0.0
 10
197.755834199342
 20
76.66064719301582
 30
0.0
 10
197.981510319019
 20
76.69572802972422
 30
0.0
 10
198.4412221401503
 20
76.76096830910384
 30
0.0
 10
198.6762754741934
 20
76.79130312514859
 30
0.0
 10
199.1567827564924
 20
76.84664150437042
 30
0.0
 10
199.4022362844066
 20
76.87164618093051
 30
0.0
 10
199.9038517092139
 20
76.9155259898212
 30
0.0
 10
200.1613440918145
 20
76.93446967458351
 30
0.0
 10
200.9394206082506
 20
76.98018940185369
 30
0.0
 10
201.4645828854954
 20
76.9959847170454
 30
0.0
 10
201.9963169626862
 20
76.9959847170454
 30
0.0
  0
LINE
  5
124
330
1F
100
AcDbEntity
  8
0
  6
HIDDEN
 62
     7
370
     0
100
AcDbLine
 10
201.9963169627
 20
76.995984717
 30
0.0
 11
203.6543841312
 21
76.995984717
 31
0.0
  0
LINE
  5
125
330
1F
100
AcDbEntity
  8
0
  6
HIDDEN
 62
     7
370
     0
100
AcDbLine
 10
203.6543841312
 20
137.6500978865
 30
0.0
 11
203.6543841312
 21
76.995984717
 31
0.0
  0
LINE
  5
126
330
1F
100
AcDbEntity
  8
0
  6
HIDDEN
 62
     7
370
     0
100
AcDbLine
 10
201.9963169627
 20
137.6500978865
 30
0.0
 11
203.6543841312
 21
137.6500978865
 31
0.0
  0
SPLINE
  5
127
330
1F
100
AcDbEntity
  8
0
  6
HIDDEN
 62
     7
370
     0
100
AcDbSpline
210
0.0
220
0.0
230
1.0
 70
     8
 71
     3
 72
    24
 73
    20
 74
     0
 42
0.00000001
 43
0.00000001
 40
0.0
 40
0.0
 40
0.0
 40
0.0
 40
0.0096786162622403
 40
0.0638613323186419
 40
0.1151504039407837
 40
0.2187148509044276
 40
0.2715874349544922
 40
0.3233795945036517
 40
0.4279241425876939
 40
0.4812568627027101
 40
0.5874627085531509
 40
0.6419372573040933
 40
0.6968115758969897
 40
0.7499885891389739
 40
0.8035487865255874
 40
0.8583375239808978
 40
0.9135596099914929
 40
0.9566727567825258
 40
1.0
 40
1.0
 40
1.0
 40
1.0
 10
194.0005211600592
 20
138.6818356614929
 30
0.0
 10
193.9991975760908
 20
138.6821714978411
 30
0.0
 10
193.9904643198719
 20
138.6843874092956
 30
0.0
 10
194.0294495874221
 20
138.6744801558682
 30
0.0
 10
194.1483200986943
 20
138.6445210548069
 30
0.0
 10
194.3783367091739
 20
138.5874545542732
 30
0.0
 10
194.7068229429812
 20
138.5096211324794
 30
0.0
 10
195.1021002766603
 20
138.4192358419368
 30
0.0
 10
195.5923745679478
 20
138.3137798531416
 30
0.0
 10
196.3143854860246
 20
138.1729258605256
 30
0.0
 10
196.9819674589563
 20
138.0564003193322
 30
0.0
 10
197.7221398471514
 20
137.9466604309541
 30
0.0
 10
198.3120742771876
 20
137.8701029615572
 30
0.0
 10
198.925727464234
 20
137.8023669542504
 30
0.0
 10
199.5617175259928
 20
137.7449400205706
 30
0.0
 10
200.2244661580295
 20
137.6990402134019
 30
0.0
 10
200.8580050633694
 20
137.6694317419248
 30
0.0
 10
201.4506725651067
 20
137.6529314291444
 30
0.0
 10
201.8141354206756
 20
137.6510439589877
 30
0.0
 10
201.9963169626862
 20
137.6500978864568
 30
0.0
  0
SPLINE
  5
128
330
1F
100
AcDbEntity
  8
0
  6
HIDDEN
 62
     7
370
     0
100
AcDbSpline
210
0.0
220
0.0
230
1.0
 70
     8
 71
     3
 72
    76
 73
    72
 74
     0
 42
0.00000001
 43
0.00000001
 40
-0.03125
 40
-0.03125
 40
0.0
 40
0.0
 40
0.03125
 40
0.03125
 40
0.046875
 40
0.046875
 40
0.0625
 40
0.0625
 40
0.0937499999999999
 40
0.0937499999999999
 40
0.1249999999999998
 40
0.1249999999999998
 40
0.1562499999999998
 40
0.1562499999999998
 40
0.1874999999999997
 40
0.1874999999999997
 40
0.2187499999999996
 40
0.2187499999999996
 40
0.2499999999999996
 40
0.2499999999999996
 40
0.2812499999999995
 40
0.2812499999999995
 40
0.3124999999999994
 40
0.3124999999999994
 40
0.3281249999999994
 40
0.3281249999999994
 40
0.3437499999999994
 40
0.3437499999999994
 40
0.3749999999999994
 40
0.3749999999999994
 40
0.4062499999999994
 40
0.4062499999999994
 40
0.4374999999999994
 40
0.4374999999999994
 40
0.4687499999999993
 40
0.4687499999999993
 40
0.4999999999999993
 40
0.4999999999999993
 40
0.5312499999999993
 40
0.5312499999999993
 40
0.5624999999999993
 40
0.5624999999999993
 40
0.5937499999999993
 40
0.5937499999999993
 40
0.6249999999999993
 40
0.6249999999999993
 40
0.6562499999999992
 40
0.6562499999999992
 40
0.6874999999999992
 40
0.6874999999999992
 40
0.7031249999999992
 40
0.7031249999999992
 40
0.7187499999999992
 40
0.7187499999999992
 40
0.7499999999999993
 40
0.7499999999999993
 40
0.7812499999999994
 40
0.7812499999999994
 40
0.8124999999999996
 40
0.8124999999999996
 40
0.8437499999999997
 40
0.8437499999999997
 40
0.8749999999999997
 40
0.8749999999999997
 40
0.9062499999999998
 40
0.9062499999999998
 40
0.9374999999999999
 40
0.9374999999999999
 40
0.96875
 40
0.96875
 40
1.0
 40
1.0
 40
1.03125
 40
1.03125
 10
191.0463169626862
 20
107.5137864090866
 30
0.0
 10
191.0463169626862
 20
106.8520184174985
 30
0.0
 10
191.0788374404706
 20
106.5267672494026
 30
0.0
 10
191.1743306847526
 20
106.0469705285135
 30
0.0
 10
191.2140055201638
 20
105.8883948447199
 30
0.0
 10
191.3093921334994
 20
105.5740124589268
 30
0.0
 10
191.36533637491
 20
105.4178928353427
 30
0.0
 10
191.5536993983597
 20
104.9639522754407
 30
0.0
 10
191.7073116747781
 20
104.6769720294337
 30
0.0
 10
192.0701394685622
 20
104.1338588726944
 30
0.0
 10
192.2809745701447
 20
103.8771195811505
 30
0.0
 10
192.7414741401621
 20
103.4167349469195
 30
0.0
 10
192.99283708108
 20
103.2099581301656
 30
0.0
 10
193.5391837754334
 20
102.8444339225022
 30
0.0
 10
193.8293984151513
 20
102.6894343637874
 30
0.0
 10
194.430785231453
 20
102.4399033426932
 30
0.0
 10
194.7464149245434
 20
102.3436250690045
 30
0.0
 10
195.392055325823
 20
102.2149760617615
 30
0.0
 10
195.7168110816363
 20
102.183089802645
 30
0.0
 10
196.3701111120277
 20
102.1827166551342
 30
0.0
 10
196.7019834528584
 20
102.2152961413802
 30
0.0
 10
197.3436346864621
 20
102.3430700460866
 30
0.0
 10
197.6555596033951
 20
102.4376024903837
 30
0.0
 10
198.1100492039121
 20
102.6257220849224
 30
0.0
 10
198.2599125117461
 20
102.6966050661432
 30
0.0
 10
198.5489977456687
 20
102.8512216724776
 30
0.0
 10
198.6888586599767
 20
102.9351442712155
 30
0.0
 10
199.094735103681
 20
103.2063397946912
 30
0.0
 10
199.3477732501705
 20
103.4134398001325
 30
0.0
 10
199.813672806334
 20
103.8790422531897
 30
0.0
 10
200.0201788808297
 20
104.130961105577
 30
0.0
 10
200.3822844442294
 20
104.6718647215779
 30
0.0
 10
200.5391435580446
 20
104.9644075643293
 30
0.0
 10
200.7900936749072
 20
105.5692752210868
 30
0.0
 10
200.8849047742382
 20
105.8809220525335
 30
0.0
 10
201.0133266370313
 20
106.5226753577551
 30
0.0
 10
201.0461899235225
 20
106.8544031766344
 30
0.0
 10
201.046443249631
 20
107.5075229418953
 30
0.0
 10
201.0148872490618
 20
107.8324561482384
 30
0.0
 10
200.8866460276374
 20
108.4789831546915
 30
0.0
 10
200.790839978979
 20
108.7939911085524
 30
0.0
 10
200.5417064678849
 20
109.395949776698
 30
0.0
 10
200.3862463461901
 20
109.6874259469735
 30
0.0
 10
200.0217920918303
 20
110.2330208834702
 30
0.0
 10
199.8153591843946
 20
110.4844979984754
 30
0.0
 10
199.3548901018767
 20
110.9458210225302
 30
0.0
 10
199.0980930938208
 20
111.1569443234765
 30
0.0
 10
198.5560478799863
 20
111.5196751051925
 30
0.0
 10
198.2692783000508
 20
111.6735640085781
 30
0.0
 10
197.8149711241651
 20
111.8625137352701
 30
0.0
 10
197.6588308233916
 20
111.9185865312899
 30
0.0
 10
197.3449848620455
 20
112.0140892968226
 30
0.0
 10
197.1865980743518
 20
112.0538699398501
 30
0.0
 10
196.7071218344084
 20
112.1497524769754
 30
0.0
 10
196.3808818899815
 20
112.1826279249749
 30
0.0
 10
195.7200072927036
 20
112.183173494146
 30
0.0
 10
195.3948709453587
 20
112.1510069755326
 30
0.0
 10
194.7547884448722
 20
112.0242244375453
 30
0.0
 10
194.4364675208044
 20
111.927956683754
 30
0.0
 10
193.8315512419653
 20
111.6775623623289
 30
0.0
 10
193.5444023283137
 20
111.5242482006073
 30
0.0
 10
193.0004507746408
 20
111.1615402765875
 30
0.0
 10
192.7438048249142
 20
110.9511012038537
 30
0.0
 10
192.2832142715012
 20
110.4912202155773
 30
0.0
 10
192.0760653855104
 20
110.2399384158845
 30
0.0
 10
191.7095341420971
 20
109.6930182421445
 30
0.0
 10
191.5548499545926
 20
109.4038780905283
 30
0.0
 10
191.3047503012544
 20
108.802641416609
 30
0.0
 10
191.2080635267613
 20
108.4866657229682
 30
0.0
 10
191.078841951805
 20
107.8406919648716
 30
0.0
 10
191.0463169626862
 20
107.5137864090866
 30
0.0
 10
191.0463169626862
 20
106.8520184174985
 30
0.0
  0
LINE
  5
129
330
1F
100
AcDbEntity
  8
0
  6
HIDDEN
 62
     7
370
     0
100
AcDbLine
 10
189.0463169627
 20
138.3829024098
 30
0.0
 11
189.0463169627
 21
75.9829024133
 31
0.0
  0
SPLINE
  5
12A
330
1F
100
AcDbEntity
  8
0
  6
HIDDEN
 62
     7
370
     0
100
AcDbSpline
210
0.0
220
0.0
230
1.0
 70
     8
 71
     3
 72
    10
 73
     6
 74
     0
 42
0.00000001
 43
0.00000001
 40
0.0
 40
0.0
 40
0.0
 40
0.0
 40
0.5
 40
0.5
 40
1.0
 40
1.0
 40
1.0
 40
1.0
 10
208.9563169626862
 20
80.37850678496322
 30
0.0
 10
208.9563169626862
 20
80.44874314533398
 30
0.0
 10
208.9480343505957
 20
80.51873724683148
 30
0.0
 10
208.9149344075371
 20
80.6556965113904
 30
0.0
 10
208.8905970155786
 20
80.72100442064567
 30
0.0
 10
208.8586421603539
 20
80.78290241329258
 30
0.0
  0
LINE
  5
12B
330
1F
100
AcDbEntity
  8
0
  6
HIDDEN
 62
     7
370
     0
100
AcDbLine
 10
208.9563169627
 20
127.3187690448
 30
0.0
 11
208.9563169627
 21
134.3025562643
 31
0.0
  0
SPLINE
  5
12C
330
1F
100
AcDbEntity
  8
0
  6
HIDDEN
 62
     7
370
     0
100
AcDbSpline
210
0.0
220
0.0
230
1.0
 70
    24
 71
     3
 72
    10
 73
     6
 74
     0
 42
0.00000001
 43
0.00000001
 40
0.0
 40
0.0
 40
0.0
 40
0.0
 40
0.5
 40
0.5
 40
1.0
 40
1.0
 40
1.0
 40
1.0
 10
208.9301693395261
 20
127.0329024132926
 30
0.0
 10
208.9388471144337
 20
127.0329024132926
 30
0.0
 10
208.9454001384406
 20
127.0329024132926
 30
0.0
 10
208.9541347479376
 20
127.0329024132926
 30
0.0
 10
208.9563169626862
 20
127.0329024132926
 30
0.0
 10
208.9563169626862
 20
127.0329024132926
 30
0.0
  0
LINE
  5
12D
330
1F
100
AcDbEntity
  8
0
  6
HIDDEN
 62
     7
370
     0
100
AcDbLine
 10
208.9563169627
 20
80.378506785
 30
0.0
 11
208.9563169627
 21
127.0329024133
 31
0.0
  0
SPLINE
  5
12E
330
1F
100
AcDbEntity
  8
0
  6
HIDDEN
 62
     7
370
     0
100
AcDbSpline
210
0.0
220
0.0
230
1.0
 70
     8
 71
     3
 72
    10
 73
     6
 74
     0
 42
0.00000001
 43
0.00000001
 40
0.0
 40
0.0
 40
0.0
 40
0.0
 40
0.5
 40
0.5
 40
1.0
 40
1.0
 40
1.0
 40
1.0
 10
205.2339917650185
 20
80.78290241329259
 30
0.0
 10
205.2018365773965
 20
80.72061636777649
 30
0.0
 10
205.1771803462023
 20
80.65408594290729
 30
0.0
 10
205.1443675892768
 20
80.51722731254483
 30
0.0
 10
205.1363169626862
 20
80.44816971736651
 30
0.0
 10
205.1363169626862
 20
80.37850678496322
 30
0.0
  0
SPLINE
  5
12F
330
1F
100
AcDbEntity
  8
0
  6
HIDDEN
 62
     7
370
     0
100
AcDbSpline
210
0.0
220
0.0
230
1.0
 70
    24
 71
     3
 72
    10
 73
     6
 74
     0
 42
0.00000001
 43
0.00000001
 40
0.0
 40
0.0
 40
0.0
 40
0.0
 40
0.5
 40
0.5
 40
1.0
 40
1.0
 40
1.0
 40
1.0
 10
205.1363169626862
 20
127.0329024132926
 30
0.0
 10
205.1363169626862
 20
127.0329024132926
 30
0.0
 10
205.1385388211709
 20
127.0329024132926
 30
0.0
 10
205.1472754928945
 20
127.0329024132926
 30
0.0
 10
205.1537870066888
 20
127.0329024132926
 30
0.0
 10
205.1624645858463
 20
127.0329024132926
 30
0.0
  0
LINE
  5
130
330
1F
100
AcDbEntity
  8
0
  6
HIDDEN
 62
     7
370
     0
100
AcDbLine
 10
205.1363169627
 20
127.3187690448
 30
0.0
 11
205.1363169627
 21
134.3025562643
 31
0.0
  0
LINE
  5
131
330
1F
100
AcDbEntity
  8
0
  6
HIDDEN
 62
     7
370
     0
100
AcDbLine
 10
205.1363169627
 20
80.378506785
 30
0.0
 11
205.1363169627
 21
127.0329024133
 31
0.0
  0
SPLINE
  5
132
330
1F
100
AcDbEntity
  8
0
  6
HIDDEN
 62
     7
370
     0
100
AcDbSpline
210
0.0
220
0.0
230
1.0
 70
    24
 71
     3
 72
    18
 73
    14
 74
     0
 42
0.00000001
 43
0.00000001
 40
0.0
 40
0.0
 40
0.0
 40
0.0
 40
0.5
 40
0.5
 40
0.75
 40
0.75
 40
0.875
 40
0.875
 40
0.9375
 40
0.9375
 40
0.96875
 40
0.96875
 40
1.0
 40
1.0
 40
1.0
 40
1.0
 10
214.9963169626862
 20
133.5829024132926
 30
0.0
 10
214.9963169626862
 20
133.5829024132925
 30
0.0
 10
215.0521661105066
 20
133.5829024132925
 30
0.0
 10
215.1278835084437
 20
133.5829024132926
 30
0.0
 10
215.1520728585197
 20
133.5829024132926
 30
0.0
 10
215.1778166210642
 20
133.5829024132926
 30
0.0
 10
215.1846622661381
 20
133.5829024132925
 30
0.0
 10
215.1916020816786
 20
133.5829024132926
 30
0.0
 10
215.1933645227316
 20
133.5829024132925
 30
0.0
 10
215.1951326947806
 20
133.5829024132926
 30
0.0
 10
215.1955764898831
 20
133.5829024132926
 30
0.0
 10
215.1961686605803
 20
133.5829024132926
 30
0.0
 10
215.1963170295828
 20
133.5829024132926
 30
0.0
 10
215.1963169626619
 20
133.5829024132926
 30
0.0
  0
SPLINE
  5
133
330
1F
100
AcDbEntity
  8
0
  6
HIDDEN
 62
     7
370
     0
100
AcDbSpline
210
0.0
220
0.0
230
1.0
 70
    24
 71
     3
 72
    10
 73
     6
 74
     0
 42
0.00000001
 43
0.00000001
 40
0.0
 40
0.0
 40
0.0
 40
0.0
 40
0.0751094240425517
 40
0.5375241065584405
 40
1.0
 40
1.0
 40
1.0
 40
1.0
 10
215.152473561317
 20
133.5829024132926
 30
0.0
 10
215.1501651125944
 20
133.5829024132926
 30
0.0
 10
215.1336445913286
 20
133.5829024132926
 30
0.0
 10
215.0330126715201
 20
133.5829024132926
 30
0.0
 10
215.0085494053052
 20
133.5829024132926
 30
0.0
 10
214.9963169626862
 20
133.5829024132925
 30
0.0
  0
LINE
  5
134
330
1F
100
AcDbEntity
  8
0
  6
HIDDEN
 62
     7
370
     0
100
AcDbLine
 10
214.9963169627
 20
133.5829024133
 30
0.0
 11
214.9963169627
 21
80.7829024133
 31
0.0
  0
SPLINE
  5
135
330
1F
100
AcDbEntity
  8
0
  6
HIDDEN
 62
     7
370
     0
100
AcDbSpline
210
0.0
220
0.0
230
1.0
 70
    24
 71
     3
 72
    18
 73
    14
 74
     0
 42
0.00000001
 43
0.00000001
 40
0.0
 40
0.0
 40
0.0
 40
0.0
 40
0.5000000000000001
 40
0.5000000000000001
 40
0.7500000000000002
 40
0.7500000000000002
 40
0.8750000000000001
 40
0.8750000000000001
 40
0.9375
 40
0.9375
 40
0.96875
 40
0.96875
 40
1.0
 40
1.0
 40
1.0
 40
1.0
 10
214.9963169626862
 20
80.78290241329256
 30
0.0
 10
214.9963169626862
 20
80.78290241329256
 30
0.0
 10
215.0521661351821
 20
80.78290241329256
 30
0.0
 10
215.1278835478345
 20
80.78290241329256
 30
0.0
 10
215.1520728991588
 20
80.78290241329256
 30
0.0
 10
215.1778166535074
 20
80.78290241329255
 30
0.0
 10
215.1846622942128
 20
80.78290241329256
 30
0.0
 10
215.1916021008292
 20
80.78290241329255
 30
0.0
 10
215.1933645385185
 20
80.78290241329256
 30
0.0
 10
215.1951327050067
 20
80.78290241329256
 30
0.0
 10
215.1955764981702
 20
80.78290241329256
 30
0.0
 10
215.1961686648345
 20
80.78290241329256
 30
0.0
 10
215.1963170315956
 20
80.78290241329256
 30
0.0
 10
215.1963169626604
 20
80.78290241329256
 30
0.0
  0
LINE
  5
136
330
1F
100
AcDbEntity
  8
0
  6
HIDDEN
 62
     7
370
     0
100
AcDbLine
 10
214.9963169627
 20
80.7829024133
 30
0.0
 11
214.9963169627
 21
133.5829024133
 31
0.0
  0
SPLINE
  5
137
330
1F
100
AcDbEntity
  8
0
  6
HIDDEN
 62
     7
370
     0
100
AcDbSpline
210
0.0
220
0.0
230
1.0
 70
     8
 71
     3
 72
    70
 73
    66
 74
     0
 42
0.00000001
 43
0.00000001
 40
-0.0312499999999999
 40
-0.0312499999999999
 40
0.0
 40
0.0
 40
0.0312500000000005
 40
0.0312500000000005
 40
0.062500000000001
 40
0.062500000000001
 40
0.093750000000001
 40
0.093750000000001
 40
0.125000000000001
 40
0.125000000000001
 40
0.156250000000001
 40
0.156250000000001
 40
0.187500000000001
 40
0.187500000000001
 40
0.218750000000001
 40
0.218750000000001
 40
0.250000000000001
 40
0.250000000000001
 40
0.281250000000001
 40
0.281250000000001
 40
0.312500000000001
 40
0.312500000000001
 40
0.343750000000001
 40
0.343750000000001
 40
0.375000000000001
 40
0.375000000000001
 40
0.406250000000001
 40
0.406250000000001
 40
0.437500000000001
 40
0.437500000000001
 40
0.468750000000001
 40
0.468750000000001
 40
0.500000000000001
 40
0.500000000000001
 40
0.5312500000000009
 40
0.5312500000000009
 40
0.5625000000000009
 40
0.5625000000000009
 40
0.5937500000000008
 40
0.5937500000000008
 40
0.6250000000000008
 40
0.6250000000000008
 40
0.6562500000000007
 40
0.6562500000000007
 40
0.6875000000000007
 40
0.6875000000000007
 40
0.7187500000000006
 40
0.7187500000000006
 40
0.7500000000000006
 40
0.7500000000000006
 40
0.7812500000000004
 40
0.7812500000000004
 40
0.8125000000000004
 40
0.8125000000000004
 40
0.8437500000000003
 40
0.8437500000000003
 40
0.8750000000000003
 40
0.8750000000000003
 40
0.9062500000000002
 40
0.9062500000000002
 40
0.9375000000000002
 40
0.9375000000000002
 40
0.9687500000000001
 40
0.9687500000000001
 40
1.0
 40
1.0
 40
1.03125
 40
1.03125
 10
218.8479455714522
 20
101.1688506932304
 30
0.0
 10
219.2446883539202
 20
101.1688506932304
 30
0.0
 10
219.4397115214895
 20
101.149762779723
 30
0.0
 10
219.8233455539356
 20
101.0750904192007
 30
0.0
 10
220.0139568949634
 20
101.01858930694
 30
0.0
 10
220.3771784079306
 20
100.8715154947817
 30
0.0
 10
220.5494235927669
 20
100.7816472434423
 30
0.0
 10
220.8754042145475
 20
100.5699011037655
 30
0.0
 10
221.0296190504861
 20
100.4470013864601
 30
0.0
 10
221.3060946099095
 20
100.1794038644398
 30
0.0
 10
221.4302181028228
 20
100.0337387076818
 30
0.0
 10
221.6495349212756
 20
99.71843363338508
 30
0.0
 10
221.7426326073831
 20
99.55128989151336
 30
0.0
 10
221.8923048951713
 20
99.20668574719687
 30
0.0
 10
221.9499838552059
 20
99.02667409644206
 30
0.0
 10
222.0271121535518
 20
98.65972762662845
 30
0.0
 10
222.0462084780463
 20
98.47595556139139
 30
0.0
 10
222.0464245343724
 20
98.10791213771029
 30
0.0
 10
222.0269152875165
 20
97.9217515188604
 30
0.0
 10
221.9503206287535
 20
97.56304899528264
 30
0.0
 10
221.8936499608858
 20
97.38941893656327
 30
0.0
 10
221.7433157659334
 20
97.05341172173566
 30
0.0
 10
221.649454093639
 20
96.89184927146174
 30
0.0
 10
221.4324170180667
 20
96.59367304286087
 30
0.0
 10
221.3084249298692
 20
96.45509725599626
 30
0.0
 10
221.0285640098549
 20
96.19974019193867
 30
0.0
 10
220.8772175807505
 20
96.08705644271109
 30
0.0
 10
220.552538397942
 20
95.89002791729756
 30
0.0
 10
220.3771279718397
 20
95.80500307657574
 30
0.0
 10
220.0139190550319
 20
95.66898539082486
 30
0.0
 10
219.8269306550473
 20
95.61777920771513
 30
0.0
 10
219.4422378702157
 20
95.54848713780486
 30
0.0
 10
219.2432913975372
 20
95.5307607688105
 30
0.0
 10
218.8515759827739
 20
95.53062954232827
 30
0.0
 10
218.6568039610594
 20
95.54765152676822
 30
0.0
 10
218.2694822292799
 20
95.61678820089128
 30
0.0
 10
218.0801279524178
 20
95.66862711779974
 30
0.0
 10
217.7189895000976
 20
95.80352991900347
 30
0.0
 10
217.5444356111349
 20
95.88763129342645
 30
0.0
 10
217.2164681969318
 20
96.08618488856413
 30
0.0
 10
217.0654431892284
 20
96.1988399779333
 30
0.0
 10
216.7886210206407
 20
96.45072601838986
 30
0.0
 10
216.6618701339331
 20
96.59164368980521
 30
0.0
 10
216.4439644062815
 20
96.89053214614499
 30
0.0
 10
216.3516699604258
 20
97.04902384949324
 30
0.0
 10
216.2007171259092
 20
97.38469987796627
 30
0.0
 10
216.1427919100393
 20
97.56154639484579
 30
0.0
 10
216.0661556243153
 20
97.91897504010463
 30
0.0
 10
216.0465016337994
 20
98.10140964079736
 30
0.0
 10
216.0461348565709
 20
98.47413444787378
 30
0.0
 10
216.0654440360943
 20
98.65828009233927
 30
0.0
 10
216.14140161979
 20
99.02179355218557
 30
0.0
 10
216.1989800159968
 20
99.20314610523464
 30
0.0
 10
216.3493046577087
 20
99.55011373513685
 30
0.0
 10
216.4413138078437
 20
99.71531200938142
 30
0.0
 10
216.6587261470628
 20
100.0289754881353
 30
0.0
 10
216.7851942221355
 20
100.177922341625
 30
0.0
 10
217.0614862580342
 20
100.4456996201945
 30
0.0
 10
217.2122946503238
 20
100.5663161945767
 30
0.0
 10
217.5399607941379
 20
100.7799063586277
 30
0.0
 10
217.7142518041672
 20
100.8708469509082
 30
0.0
 10
218.0750249803765
 20
101.0172892584385
 30
0.0
 10
218.263935210067
 20
101.0738299647862
 30
0.0
 10
218.65180490258
 20
101.1497601390114
 30
0.0
 10
218.8479455714522
 20
101.1688506932304
 30
0.0
 10
219.2446883539202
 20
101.1688506932304
 30
0.0
  0
LINE
  5
138
330
1F
100
AcDbEntity
  8
0
  6
HIDDEN
 62
     7
370
     0
100
AcDbLine
 10
189.0463169627
 20
81.8589784922
 30
0.0
 11
189.0463169627
 21
132.5068263344
 31
0.0
  0
LINE
  5
139
330
1F
100
AcDbEntity
  8
0
  6
HIDDEN
 62
     7
370
     0
100
AcDbLine
 10
193.9963169627
 20
127.0329024133
 30
0.0
 11
201.2419373084
 21
127.0329024133
 31
0.0
  0
LWPOLYLINE
  5
13A
330
1F
100
AcDbEntity
  8
0
  6
HIDDEN
 62
     7
370
     0
100
AcDbPolyline
 90
        2
 70
   128
 43
0.0
 10
208.9563169627
 20
127.0329024133
 10
208.9563169627
 20
127.0329024133
  0
LWPOLYLINE
  5
13B
330
1F
100
AcDbEntity
  8
0
  6
HIDDEN
 62
     7
370
     0
100
AcDbPolyline
 90
        2
 70
   128
 43
0.0
 10
214.9963169627
 20
127.0329024133
 10
214.9963169627
 20
127.0329024133
  0
LWPOLYLINE
  5
13C
330
1F
100
AcDbEntity
  8
0
  6
HIDDEN
 62
     7
370
     0
100
AcDbPolyline
 90
        2
 70
   128
 43
0.0
 10
205.1363169627
 20
127.0329024133
 10
205.1363169627
 20
127.0329024133
  0
LINE
  5
13D
330
1F
100
AcDbEntity
  8
0
  6
HIDDEN
 62
     7
370
     0
100
AcDbLine
 10
187.0463169627
 20
131.403333275
 30
0.0
 11
187.0463169627
 21
82.9624715516
 31
0.0
  0
SPLINE
  5
13E
330
1F
100
AcDbEntity
  8
0
  6
HIDDEN
 62
     7
370
     0
100
AcDbSpline
210
0.0
220
0.0
230
1.0
 70
     8
 71
     3
 72
    14
 73
    10
 74
     0
 42
0.00000001
 43
0.00000001
 40
0.0
 40
0.0
 40
0.0
 40
0.0
 40
0.5000000000000014
 40
0.5000000000000014
 40
0.7500000000000009
 40
0.7500000000000009
 40
0.8750000000000006
 40
0.8750000000000006
 40
1.0
 40
1.0
 40
1.0
 40
1.0
 10
158.2963169626862
 20
86.37627085476497
 30
0.0
 10
158.9123938664414
 20
86.38199697499411
 30
0.0
 10
159.5265258625573
 20
86.39188734039614
 30
0.0
 10
160.4404224930709
 20
86.42252230806591
 30
0.0
 10
160.7438614206185
 20
86.43531576570388
 30
0.0
 10
161.194998036256
 20
86.46324159366327
 30
0.0
 10
161.3447042857986
 20
86.47401121382303
 30
0.0
 10
161.6415454220466
 20
86.50114392942257
 30
0.0
 10
161.7889309745499
 20
86.51696090224979
 30
0.0
 10
161.9327151015642
 20
86.54061999112425
 30
0.0
  0
SPLINE
  5
13F
330
1F
100
AcDbEntity
  8
0
  6
HIDDEN
 62
     7
370
     0
100
AcDbSpline
210
0.0
220
0.0
230
1.0
 70
     8
 71
     3
 72
    10
 73
     6
 74
     0
 42
0.00000001
 43
0.00000001
 40
0.0
 40
0.0
 40
0.0
 40
0.0
 40
0.5
 40
0.5
 40
1.0
 40
1.0
 40
1.0
 40
1.0
 10
161.9327151015642
 20
86.54061999112432
 30
0.0
 10
162.5603427572715
 20
86.64389354985992
 30
0.0
 10
163.2115435023029
 20
86.73271866161146
 30
0.0
 10
164.5202482063151
 20
86.89482636848179
 30
0.0
 10
165.1812926436063
 20
86.96812583276837
 30
0.0
 10
165.8463169626859
 20
87.03681364749605
 30
0.0
  0
SPLINE
  5
140
330
1F
100
AcDbEntity
  8
0
  6
HIDDEN
 62
     7
370
     0
100
AcDbSpline
210
0.0
220
0.0
230
1.0
 70
     8
 71
     3
 72
    18
 73
    14
 74
     0
 42
0.00000001
 43
0.00000001
 40
0.0
 40
0.0
 40
0.0
 40
0.0
 40
0.0625000000000024
 40
0.0625000000000024
 40
0.1250000000000048
 40
0.1250000000000048
 40
0.2500000000000031
 40
0.2500000000000031
 40
0.5000000000000021
 40
0.5000000000000021
 40
0.7500000000000011
 40
0.7500000000000011
 40
1.0
 40
1.0
 40
1.0
 40
1.0
 10
165.8463169626861
 20
87.03681364749593
 30
0.0
 10
165.8828891730365
 20
87.04059105102338
 30
0.0
 10
165.9215396464719
 20
87.04003402314027
 30
0.0
 10
165.9956311401858
 20
87.02997481797841
 30
0.0
 10
166.0309814339399
 20
87.02062093655384
 30
0.0
 10
166.1255757313293
 20
86.98623651012002
 30
0.0
 10
166.1757139044683
 20
86.9555247754572
 30
0.0
 10
166.3049071760495
 20
86.85959546541916
 30
0.0
 10
166.3631873207906
 20
86.79107997130191
 30
0.0
 10
166.4633824172141
 20
86.65450802136928
 30
0.0
 10
166.5033976686607
 20
86.58574311886636
 30
0.0
 10
166.5717970894785
 20
86.4507076897587
 30
0.0
 10
166.6001588133405
 20
86.38408966370555
 30
0.0
 10
166.6247127259464
 20
86.31853119600932
 30
0.0
  0
SPLINE
  5
141
330
1F
100
AcDbEntity
  8
0
  6
HIDDEN
 62
     7
370
     0
100
AcDbSpline
210
0.0
220
0.0
230
1.0
 70
     8
 71
     3
 72
    14
 73
    10
 74
     0
 42
0.00000001
 43
0.00000001
 40
0.0
 40
0.0
 40
0.0
 40
0.0
 40
0.25
 40
0.25
 40
0.5
 40
0.5
 40
0.75
 40
0.75
 40
1.0
 40
1.0
 40
1.0
 40
1.0
 10
166.6247127259464
 20
86.31853119600932
 30
0.0
 10
166.6631491107674
 20
86.2159067982978
 30
0.0
 10
166.7319505041592
 20
86.11671037485824
 30
0.0
 10
166.8752365163182
 20
85.92581834553171
 30
0.0
 10
166.9504185714251
 20
85.8335610794988
 30
0.0
 10
167.0826058600753
 20
85.65395375768381
 30
0.0
 10
167.1401230555451
 20
85.56664420323945
 30
0.0
 10
167.2221678538374
 20
85.3967103697237
 30
0.0
 10
167.2463169626862
 20
85.31480802785255
 30
0.0
 10
167.2463169626862
 20
85.23775415401664
 30
0.0
  0
LINE
  5
142
330
1F
100
AcDbEntity
  8
0
  6
HIDDEN
 62
     7
370
     0
100
AcDbLine
 10
167.2463169627
 20
85.237754154
 30
0.0
 11
167.2463169627
 21
83.9544555195
 31
0.0
  0
LINE
  5
143
330
1F
100
AcDbEntity
  8
0
  6
HIDDEN
 62
     7
370
     0
100
AcDbLine
 10
163.2463169627
 20
130.2109485055
 30
0.0
 11
163.2463169627
 21
129.0270100857
 31
0.0
  0
SPLINE
  5
144
330
1F
100
AcDbEntity
  8
0
  6
HIDDEN
 62
     7
370
     0
100
AcDbSpline
210
0.0
220
0.0
230
1.0
 70
     8
 71
     3
 72
    18
 73
    14
 74
     0
 42
0.00000001
 43
0.00000001
 40
0.0
 40
0.0
 40
0.0
 40
0.0
 40
0.2499999999999988
 40
0.2499999999999988
 40
0.4999999999999977
 40
0.4999999999999977
 40
0.7499999999999964
 40
0.7499999999999964
 40
0.8749999999999964
 40
0.8749999999999964
 40
0.9374999999999982
 40
0.9374999999999982
 40
1.0
 40
1.0
 40
1.0
 40
1.0
 10
163.2463169626862
 20
129.0270100856555
 30
0.0
 10
163.2463169626862
 20
128.9438031767984
 30
0.0
 10
163.2104678627479
 20
128.8550665214848
 30
0.0
 10
163.085596126714
 20
128.6729413309245
 30
0.0
 10
162.9951957090661
 20
128.5778112822979
 30
0.0
 10
162.7729530543239
 20
128.3886297731736
 30
0.0
 10
162.6431882678781
 20
128.2936846050789
 30
0.0
 10
162.4025508105667
 20
128.1554058974989
 30
0.0
 10
162.3147835124292
 20
128.1096954641966
 30
0.0
 10
162.1602594252224
 20
128.0518721589751
 30
0.0
 10
162.1036485391676
 20
128.0341573949373
 30
0.0
 10
161.979604508261
 20
128.0096180917043
 30
0.0
 10
161.9118898332428
 20
128.003638953166
 30
0.0
 10
161.8463169626862
 20
128.0059898051203
 30
0.0
  0
SPLINE
  5
145
330
1F
100
AcDbEntity
  8
0
  6
HIDDEN
 62
     7
370
     0
100
AcDbSpline
210
0.0
220
0.0
230
1.0
 70
     8
 71
     3
 72
    10
 73
     6
 74
     0
 42
0.00000001
 43
0.00000001
 40
0.0
 40
0.0
 40
0.0
 40
0.0
 40
0.5
 40
0.5
 40
1.0
 40
1.0
 40
1.0
 40
1.0
 10
161.8463169626862
 20
128.0059898051203
 30
0.0
 10
161.2587314155956
 20
128.0270553253567
 30
0.0
 10
160.6679850221352
 20
128.0378138112289
 30
0.0
 10
159.4839658568363
 20
128.0511785917646
 30
0.0
 10
158.8905518686309
 20
128.0533212344292
 30
0.0
 10
158.2963169626861
 20
128.0528401786876
 30
0.0
  0
SPLINE
  5
146
330
1F
100
AcDbEntity
  8
0
  6
HIDDEN
 62
     7
370
     0
100
AcDbSpline
210
0.0
220
0.0
230
1.0
 70
     8
 71
     3
 72
     8
 73
     4
 74
     0
 42
0.00000001
 43
0.00000001
 40
0.0000005099763571
 40
0.0000005099763571
 40
0.0000005099763571
 40
0.0000005099763571
 40
0.0000262827998697
 40
0.0000262827998697
 40
0.0000262827998697
 40
0.0000262827998697
 10
158.2963169626861
 20
128.0528401786876
 30
0.0
 10
158.2929482234584
 20
128.0495185097317
 30
0.0
 10
158.2895997704792
 20
128.0461905524529
 30
0.0
 10
158.2862720322679
 20
128.0428563055802
 30
0.0
  0
SPLINE
  5
147
330
1F
100
AcDbEntity
  8
0
  6
HIDDEN
 62
     7
370
     0
100
AcDbSpline
210
0.0
220
0.0
230
1.0
 70
     8
 71
     3
 72
     8
 73
     4
 74
     0
 42
0.00000001
 43
0.00000001
 40
0.0000005954826279
 40
0.0000005954826279
 40
0.0000005954826279
 40
0.0000005954826279
 40
0.0000302093805348
 40
0.0000302093805348
 40
0.0000302093805348
 40
0.0000302093805348
 10
158.2862720322765
 20
86.38808598441689
 30
0.0
 10
158.2895880595968
 20
86.38413920482108
 30
0.0
 10
158.292936610989
 20
86.38020081369115
 30
0.0
 10
158.2963169626861
 20
86.37627085476498
 30
0.0
  0
SPLINE
  5
148
330
1F
100
AcDbEntity
  8
0
  6
HIDDEN
 62
     7
370
     0
100
AcDbSpline
210
0.0
220
0.0
230
1.0
 70
     8
 71
     3
 72
    12
 73
     8
 74
     0
 42
0.00000001
 43
0.00000001
 40
0.0
 40
0.0
 40
0.0
 40
0.0
 40
0.1192152782091901
 40
0.2486291495149585
 40
0.5007186954388798
 40
0.753705405543984
 40
1.0
 40
1.0
 40
1.0
 40
1.0
 10
177.0414671672577
 20
83.65830279047077
 30
0.0
 10
176.959324469188
 20
83.65056683897139
 30
0.0
 10
176.7880119539908
 20
83.6344331430989
 30
0.0
 10
176.421657990258
 20
83.60145844731022
 30
0.0
 10
176.1168949680015
 20
83.56328094528213
 30
0.0
 10
175.858516509518
 20
83.53140498814513
 30
0.0
 10
175.829524501513
 20
83.52737966806761
 30
0.0
 10
175.8152227946619
 20
83.5253939847124
 30
0.0
  0
SPLINE
  5
149
330
1F
100
AcDbEntity
  8
0
  6
HIDDEN
 62
     7
370
     0
100
AcDbSpline
210
0.0
220
0.0
230
1.0
 70
     8
 71
     3
 72
    20
 73
    16
 74
     0
 42
0.00000001
 43
0.00000001
 40
0.0
 40
0.0
 40
0.0
 40
0.0
 40
0.001437141784343
 40
0.0850458908086345
 40
0.1697599742259444
 40
0.2540983643787714
 40
0.3373295355548653
 40
0.4202346307100782
 40
0.5035601638150928
 40
0.5868465105665925
 40
0.6687600060933069
 40
0.750734579201687
 40
0.8338925024192405
 40
0.9172623649586594
 40
1.0
 40
1.0
 40
1.0
 40
1.0
 10
184.2293835801368
 20
83.1038442963689
 30
0.0
 10
184.2298365499143
 20
83.10374047054025
 30
0.0
 10
184.2566419901642
 20
83.09759635853564
 30
0.0
 10
184.1606134787116
 20
83.11969318064028
 30
0.0
 10
183.9275679415441
 20
83.17157281056079
 30
0.0
 10
183.5337828757004
 20
83.25662994863973
 30
0.0
 10
183.0093244973251
 20
83.35838519783852
 30
0.0
 10
182.3703611870985
 20
83.4662814020903
 30
0.0
 10
181.6371959337077
 20
83.56732731753996
 30
0.0
 10
180.8446327207913
 20
83.65173647298101
 30
0.0
 10
180.0198839270187
 20
83.70914009427351
 30
0.0
 10
179.1931666690044
 20
83.73589816660862
 30
0.0
 10
178.3988593087408
 20
83.7314629052883
 30
0.0
 10
177.6554298701957
 20
83.70414742359647
 30
0.0
 10
177.2456014475204
 20
83.67354550984483
 30
0.0
 10
177.0414671672577
 20
83.65830279047077
 30
0.0
  0
SPLINE
  5
14A
330
1F
100
AcDbEntity
  8
0
  6
HIDDEN
 62
     7
370
     0
100
AcDbSpline
210
0.0
220
0.0
230
1.0
 70
     8
 71
     3
 72
    20
 73
    16
 74
     0
 42
0.00000001
 43
0.00000001
 40
0.0
 40
0.0
 40
0.0
 40
0.0
 40
0.0828182133813295
 40
0.16619368811573
 40
0.2493852825370401
 40
0.331515512477228
 40
0.4133807586231846
 40
0.4968356081148763
 40
0.5800413781711405
 40
0.6629790154186295
 40
0.7460493132171999
 40
0.8302847957804699
 40
0.9148461952092956
 40
0.9984038487566718
 40
1.0
 40
1.0
 40
1.0
 40
1.0
 10
177.0413744469759
 20
130.7074854432743
 30
0.0
 10
177.2460262036755
 20
130.6922954061074
 30
0.0
 10
177.6567067633813
 20
130.6618131221228
 30
0.0
 10
178.4004320550848
 20
130.6345026469137
 30
0.0
 10
179.1953915397633
 20
130.6300897699255
 30
0.0
 10
180.022520178326
 20
130.6567580624077
 30
0.0
 10
180.8482619138254
 20
130.7142220646335
 30
0.0
 10
181.6405389107603
 20
130.7988095906653
 30
0.0
 10
182.373362368624
 20
130.8999831877523
 30
0.0
 10
183.011271860691
 20
131.0077687482665
 30
0.0
 10
183.5351268226462
 20
131.1093761204403
 30
0.0
 10
183.9282713078847
 20
131.1942661498142
 30
0.0
 10
184.160933898036
 20
131.2461014110529
 30
0.0
 10
184.2570041388639
 20
131.2682037279377
 30
0.0
 10
184.2298380201008
 20
131.2620467953426
 30
0.0
 10
184.2293288093339
 20
131.2619313877499
 30
0.0
  0
SPLINE
  5
14B
330
1F
100
AcDbEntity
  8
0
  6
HIDDEN
 62
     7
370
     0
100
AcDbSpline
210
0.0
220
0.0
230
1.0
 70
     8
 71
     3
 72
    12
 73
     8
 74
     0
 42
0.00000001
 43
0.00000001
 40
0.0
 40
0.0
 40
0.0
 40
0.0
 40
0.2468412763863427
 40
0.499570734391429
 40
0.7516700890846411
 40
0.8176861511891814
 40
1.0
 40
1.0
 40
1.0
 40
1.0
 10
175.8148177047551
 20
130.8404419970926
 30
0.0
 10
175.8289313217693
 20
130.8384235163851
 30
0.0
 10
175.8574952237226
 20
130.8343384058874
 30
0.0
 10
176.1182847329478
 20
130.8023403277439
 30
0.0
 10
176.385173147066
 20
130.7680735306426
 30
0.0
 10
176.7438506173117
 20
130.7353816202214
 30
0.0
 10
176.9154171719105
 20
130.7192953424577
 30
0.0
 10
177.0413744469759
 20
130.7074854432743
 30
0.0
  0
LWPOLYLINE
  5
14C
330
1F
100
AcDbEntity
  8
0
  6
HIDDEN
 62
     7
370
     0
100
AcDbPolyline
 90
       26
 70
   128
 43
0.0
 10
215.0435574892
 20
113.9619447186
 10
215.2525675662
 20
114.0516814339
 10
215.5564471389
 20
114.0217141857
 10
215.9361023362
 20
113.8739259265
 10
216.3676780258
 20
113.6176027361
 10
216.8240567198
 20
113.2688503433
 10
217.2765624665
 20
112.8495821436
 10
217.6967626657
 20
112.3861422999
 10
218.0582545934
 20
111.907650442
 10
218.3383243822
 20
111.444171973
 10
218.5193742175
 20
111.0248289498
 10
218.5900280721
 20
110.6759702368
 10
218.5458465045
 20
110.4195159098
 10
218.3896056052
 20
110.2715799375
 10
218.1311225644
 20
110.241457681
 10
217.7866388222
 20
110.3310418325
 10
217.377799559
 20
110.5347034903
 10
216.9302936494
 20
110.8396458434
 10
216.4722395355
 20
111.2267082422
 10
216.0324184419
 20
111.6715701328
 10
215.6384659454
 20
112.1462792065
 10
215.3151355302
 20
112.6210077463
 10
215.0827432355
 20
113.065926812
 10
214.9558911238
 20
113.4530805027
 10
214.9425497798
 20
113.7581425278
 10
215.0435574892
 20
113.9619447186
  0
SPLINE
  5
14D
330
1F
100
AcDbEntity
  8
0
  6
HIDDEN
 62
     7
370
     0
100
AcDbSpline
210
0.0
220
0.0
230
1.0
 70
     8
 71
     3
 72
    10
 73
     6
 74
     0
 42
0.00000001
 43
0.00000001
 40
0.0
 40
0.0
 40
0.0
 40
0.0
 40
0.5
 40
0.5
 40
1.0
 40
1.0
 40
1.0
 40
1.0
 10
218.1546361898174
 20
116.9020671169244
 30
0.0
 10
217.9404178283146
 20
116.6939650762485
 30
0.0
 10
217.7150274055298
 20
116.4759281429552
 30
0.0
 10
217.2134900074679
 20
116.0098601593951
 30
0.0
 10
216.9567265098949
 20
115.777212348695
 30
0.0
 10
216.7066623381293
 20
115.5351375586042
 30
0.0
  0
SPLINE
  5
14E
330
1F
100
AcDbEntity
  8
0
  6
HIDDEN
 62
     7
370
     0
100
AcDbSpline
210
0.0
220
0.0
230
1.0
 70
     8
 71
     3
 72
    78
 73
    74
 74
     0
 42
0.00000001
 43
0.00000001
 40
0.0
 40
0.0
 40
0.0
 40
0.0
 40
0.0156250000000001
 40
0.0156250000000001
 40
0.0312500000000002
 40
0.0312500000000002
 40
0.0468750000000003
 40
0.0468750000000003
 40
0.0625000000000004
 40
0.0625000000000004
 40
0.0937500000000002
 40
0.0937500000000002
 40
0.125
 40
0.125
 40
0.1562499999999999
 40
0.1562499999999999
 40
0.1874999999999997
 40
0.1874999999999997
 40
0.2187499999999995
 40
0.2187499999999995
 40
0.2499999999999993
 40
0.2499999999999993
 40
0.2812499999999992
 40
0.2812499999999992
 40
0.3124999999999991
 40
0.3124999999999991
 40
0.3437499999999989
 40
0.3437499999999989
 40
0.3749999999999987
 40
0.3749999999999987
 40
0.4062499999999986
 40
0.4062499999999986
 40
0.4374999999999984
 40
0.4374999999999984
 40
0.4531249999999985
 40
0.4531249999999985
 40
0.4687499999999986
 40
0.4687499999999986
 40
0.4843749999999986
 40
0.4843749999999986
 40
0.4999999999999986
 40
0.4999999999999986
 40
0.5312499999999984
 40
0.5312499999999984
 40
0.5624999999999981
 40
0.5624999999999981
 40
0.5937499999999979
 40
0.5937499999999979
 40
0.6249999999999977
 40
0.6249999999999977
 40
0.6874999999999974
 40
0.6874999999999974
 40
0.7187499999999978
 40
0.7187499999999978
 40
0.749999999999998
 40
0.749999999999998
 40
0.7812499999999983
 40
0.7812499999999983
 40
0.8124999999999987
 40
0.8124999999999987
 40
0.843749999999999
 40
0.843749999999999
 40
0.8749999999999992
 40
0.8749999999999992
 40
0.9062499999999996
 40
0.9062499999999996
 40
0.9374999999999999
 40
0.9374999999999999
 40
0.953125
 40
0.953125
 40
0.9687500000000002
 40
0.9687500000000002
 40
1.0
 40
1.0
 40
1.0
 40
1.0
 10
216.7066623381294
 20
115.5351375586042
 30
0.0
 10
216.7233586893619
 20
115.547577070756
 30
0.0
 10
216.739330281625
 20
115.5537393802257
 30
0.0
 10
216.7642367039445
 20
115.5450877032499
 30
0.0
 10
216.772936475291
 20
115.5293822551672
 30
0.0
 10
216.775005902775
 20
115.4672856304673
 30
0.0
 10
216.7681163489519
 20
115.419800313721
 30
0.0
 10
216.743561712514
 20
115.3038612094407
 30
0.0
 10
216.7262450715584
 20
115.234961756488
 30
0.0
 10
216.6723957685151
 20
115.0163730599451
 30
0.0
 10
216.6338644711975
 20
114.8512522993069
 30
0.0
 10
216.5762872238946
 20
114.5101143150606
 30
0.0
 10
216.5563058093917
 20
114.3335737455284
 30
0.0
 10
216.5420875367086
 20
113.9710674314916
 30
0.0
 10
216.5479698892829
 20
113.7829656398774
 30
0.0
 10
216.5926742111076
 20
113.4090111368684
 30
0.0
 10
216.6309943340965
 20
113.2230432930932
 30
0.0
 10
216.7480092587856
 20
112.8543096884796
 30
0.0
 10
216.8259477067277
 20
112.6752940294945
 30
0.0
 10
217.0228581942393
 20
112.3415601234519
 30
0.0
 10
217.1434629584527
 20
112.1855373920623
 30
0.0
 10
217.4153598323109
 20
111.9198238184416
 30
0.0
 10
217.5712532794033
 20
111.8059157225727
 30
0.0
 10
217.8983250037952
 20
111.6333461131965
 30
0.0
 10
218.0731356476146
 20
111.572221325578
 30
0.0
 10
218.4241402407111
 20
111.5011319140079
 30
0.0
 10
218.6025566521818
 20
111.490294338141
 30
0.0
 10
218.9525522672461
 20
111.5110145745303
 30
0.0
 10
219.1229011016763
 20
111.5419559446438
 30
0.0
 10
219.457198037395
 20
111.6385039358519
 30
0.0
 10
219.6216348897592
 20
111.7047608238271
 30
0.0
 10
219.9368061492436
 20
111.8648867197589
 30
0.0
 10
220.0887322388367
 20
111.9589395169026
 30
0.0
 10
220.3146490525665
 20
112.1218954095492
 30
0.0
 10
220.3894765951463
 20
112.1798222818852
 30
0.0
 10
220.537516343477
 20
112.3011650574328
 30
0.0
 10
220.6119986980629
 20
112.3656734321628
 30
0.0
 10
220.7563017977039
 20
112.4952895244951
 30
0.0
 10
220.8277755554089
 20
112.561769528716
 30
0.0
 10
220.9571300004574
 20
112.6851759818769
 30
0.0
 10
221.0163414245274
 20
112.7434007644425
 30
0.0
 10
221.1726635698002
 20
112.9045242946717
 30
0.0
 10
221.2526061718267
 20
112.9983589173098
 30
0.0
 10
221.3825853962772
 20
113.18504940216
 30
0.0
 10
221.4324273246675
 20
113.2773585233709
 30
0.0
 10
221.5068854584066
 20
113.4711294438709
 30
0.0
 10
221.5311925431124
 20
113.5729668417344
 30
0.0
 10
221.5510926968321
 20
113.7848359153595
 30
0.0
 10
221.5470667108491
 20
113.8953062978383
 30
0.0
 10
221.4859747060486
 20
114.2467509766953
 30
0.0
 10
221.3754951934773
 20
114.5142670540585
 30
0.0
 10
221.0781196587497
 20
114.9240832619772
 30
0.0
 10
220.9604839957779
 20
115.0584051041421
 30
0.0
 10
220.6837965926597
 20
115.3227245449522
 30
0.0
 10
220.5333635409272
 20
115.4444146785241
 30
0.0
 10
220.2122617198289
 20
115.6684735478182
 30
0.0
 10
220.0486908605348
 20
115.7659215618368
 30
0.0
 10
219.7195308349451
 20
115.9369483126863
 30
0.0
 10
219.559620613749
 20
116.0076225786353
 30
0.0
 10
219.2487032039598
 20
116.1273020198798
 30
0.0
 10
219.0964734470865
 20
116.1764505323667
 30
0.0
 10
218.8102984810915
 20
116.2555727515854
 30
0.0
 10
218.6751126994538
 20
116.2859973950984
 30
0.0
 10
218.4209420822637
 20
116.3352967976797
 30
0.0
 10
218.3010879760176
 20
116.3539101249832
 30
0.0
 10
218.0882808835075
 20
116.3898824313926
 30
0.0
 10
217.9930988278554
 20
116.4062822791781
 30
0.0
 10
217.9007993829816
 20
116.4556043996279
 30
0.0
 10
217.878576611456
 20
116.4770758309467
 30
0.0
 10
217.8646599189094
 20
116.53694226379
 30
0.0
 10
217.8736552253971
 20
116.5752179564618
 30
0.0
 10
217.9441635000616
 20
116.7064329715104
 30
0.0
 10
218.0414963852917
 20
116.8085342214939
 30
0.0
 10
218.1546361898174
 20
116.9020671169243
 30
0.0
  0
LINE
  5
14F
330
1F
100
AcDbEntity
  8
0
  6
HIDDEN
 62
     7
370
     0
100
AcDbLine
 10
157.1463169627
 20
87.5297418883
 30
0.0
 11
157.1528367606
 21
87.5320839707
 31
0.0
  0
SPLINE
  5
150
330
1F
100
AcDbEntity
  8
0
  6
HIDDEN
 62
     7
370
     0
100
AcDbSpline
210
0.0
220
0.0
230
1.0
 70
     8
 71
     3
 72
    64
 73
    60
 74
     0
 42
0.00000001
 43
0.00000001
 40
-0.03125
 40
-0.03125
 40
0.0
 40
0.0
 40
0.0312499999999998
 40
0.0312499999999998
 40
0.0624999999999996
 40
0.0624999999999996
 40
0.1249999999999998
 40
0.1249999999999998
 40
0.1562499999999999
 40
0.1562499999999999
 40
0.1875
 40
0.1875
 40
0.2187500000000001
 40
0.2187500000000001
 40
0.2500000000000002
 40
0.2500000000000002
 40
0.2812500000000002
 40
0.2812500000000002
 40
0.3125000000000002
 40
0.3125000000000002
 40
0.3750000000000003
 40
0.3750000000000003
 40
0.4062500000000003
 40
0.4062500000000003
 40
0.4375000000000003
 40
0.4375000000000003
 40
0.4687500000000003
 40
0.4687500000000003
 40
0.5000000000000003
 40
0.5000000000000003
 40
0.5312500000000003
 40
0.5312500000000003
 40
0.5625000000000003
 40
0.5625000000000003
 40
0.5937500000000003
 40
0.5937500000000003
 40
0.6250000000000003
 40
0.6250000000000003
 40
0.6562500000000004
 40
0.6562500000000004
 40
0.6875000000000004
 40
0.6875000000000004
 40
0.7187500000000004
 40
0.7187500000000004
 40
0.7500000000000004
 40
0.7500000000000004
 40
0.7812500000000004
 40
0.7812500000000004
 40
0.8125000000000003
 40
0.8125000000000003
 40
0.8750000000000002
 40
0.8750000000000002
 40
0.9062500000000002
 40
0.9062500000000002
 40
0.9375000000000001
 40
0.9375000000000001
 40
0.96875
 40
0.96875
 40
1.0
 40
1.0
 40
1.03125
 40
1.03125
 10
218.8766572733834
 20
110.6864202800152
 30
0.0
 10
219.215976651988
 20
110.6864202800152
 30
0.0
 10
219.3816631768211
 20
110.6747601009906
 30
0.0
 10
219.7058992529954
 20
110.6290668719838
 30
0.0
 10
219.8657060887233
 20
110.5944097190626
 30
0.0
 10
220.3148809110655
 20
110.4593118011055
 30
0.0
 10
220.5843061271297
 20
110.3255681232203
 30
0.0
 10
220.9223411383268
 20
110.0630417525647
 30
0.0
 10
221.025897302726
 20
109.9635479670387
 30
0.0
 10
221.2062847933635
 20
109.7455839979794
 30
0.0
 10
221.2834311274262
 20
109.6274076834428
 30
0.0
 10
221.4109515382039
 20
109.369985288047
 30
0.0
 10
221.461475098244
 20
109.2287989716217
 30
0.0
 10
221.5283959261705
 20
108.9368724660629
 30
0.0
 10
221.5457549888089
 20
108.7850833880518
 30
0.0
 10
221.546852365417
 20
108.4690028208638
 30
0.0
 10
221.5301264439438
 20
108.3068236362518
 30
0.0
 10
221.4647221590438
 20
107.9874951201124
 30
0.0
 10
221.4152363073122
 20
107.8266356558829
 30
0.0
 10
221.2246238923634
 20
107.3628665129722
 30
0.0
 10
221.0400280962145
 20
107.0732567510366
 30
0.0
 10
220.7028119520089
 20
106.7024284551347
 30
0.0
 10
220.5787840086228
 20
106.5876967199797
 30
0.0
 10
220.3129531401983
 20
106.3841017687868
 30
0.0
 10
220.1725360159707
 20
106.2959305707058
 30
0.0
 10
219.8749025335174
 20
106.1488117934098
 30
0.0
 10
219.7153383092282
 20
106.0894265156213
 30
0.0
 10
219.3897271302197
 20
106.0096409618614
 30
0.0
 10
219.2236148946873
 20
105.9885822529389
 30
0.0
 10
218.8841158474731
 20
105.9873592904897
 30
0.0
 10
218.7174424416154
 20
106.0072975470803
 30
0.0
 10
218.3915373933429
 20
106.0848215745613
 30
0.0
 10
218.2314469841415
 20
106.1431344617967
 30
0.0
 10
217.931100756999
 20
106.2894768985828
 30
0.0
 10
217.787837308044
 20
106.3786154280713
 30
0.0
 10
217.5206984107612
 20
106.5817325923747
 30
0.0
 10
217.39773895384
 20
106.6946544218265
 30
0.0
 10
217.1712269722269
 20
106.9419364197494
 30
0.0
 10
217.0673802597878
 20
107.0772848135974
 30
0.0
 10
216.8872236812058
 20
107.3590967910514
 30
0.0
 10
216.8097259833818
 20
107.5066256829059
 30
0.0
 10
216.6812478249141
 20
107.8154508747844
 30
0.0
 10
216.6310230089207
 20
107.9763022038946
 30
0.0
 10
216.5642461881496
 20
108.2946206451869
 30
0.0
 10
216.5467094867969
 20
108.4542692392341
 30
0.0
 10
216.54593733988
 20
108.7738287751308
 30
0.0
 10
216.5627039186478
 20
108.9269114209449
 30
0.0
 10
216.6286102225545
 20
109.2207557500589
 30
0.0
 10
216.6785637936918
 20
109.3623795592811
 30
0.0
 10
216.8696412959651
 20
109.7519384686289
 30
0.0
 10
217.0549434220423
 20
109.9730028945697
 30
0.0
 10
217.3939328004255
 20
110.2369509108885
 30
0.0
 10
217.5191397135379
 20
110.3151938074378
 30
0.0
 10
217.7846723876607
 20
110.4481924909985
 30
0.0
 10
217.9254671836962
 20
110.5036393479201
 30
0.0
 10
218.2255302366923
 20
110.5940885459121
 30
0.0
 10
218.3857584784136
 20
110.628882729151
 30
0.0
 10
218.710045848334
 20
110.6746760583937
 30
0.0
 10
218.8766572733834
 20
110.6864202800152
 30
0.0
 10
219.215976651988
 20
110.6864202800152
 30
0.0
  0
ARC
  5
151
330
1F
100
AcDbEntity
  8
0
  6
HIDDEN
 62
     7
370
     0
100
AcDbCircle
 10
218.9513482955
 20
114.6077421288
 30
0.0
 40
2.428719277806609
100
AcDbArc
 50
109.14973055
 51
157.5519583674
  0
SPLINE
  5
152
330
1F
100
AcDbEntity
  8
0
  6
HIDDEN
 62
     7
370
     0
100
AcDbSpline
210
0.0
220
0.0
230
1.0
 70
    11
 71
     3
 72
    56
 73
    52
 74
     0
 42
0.00000001
 43
0.00000001
 40
0.0
 40
0.0
 40
0.0
 40
0.0
 40
0.0625000000000002
 40
0.0625000000000002
 40
0.0937500000000002
 40
0.0937500000000002
 40
0.1250000000000003
 40
0.1250000000000003
 40
0.1562500000000004
 40
0.1562500000000004
 40
0.1875000000000004
 40
0.1875000000000004
 40
0.2187500000000005
 40
0.2187500000000005
 40
0.2500000000000006
 40
0.2500000000000006
 40
0.3125000000000004
 40
0.3125000000000004
 40
0.3437500000000003
 40
0.3437500000000003
 40
0.3750000000000002
 40
0.3750000000000002
 40
0.4062500000000002
 40
0.4062500000000002
 40
0.4375000000000001
 40
0.4375000000000001
 40
0.46875
 40
0.46875
 40
0.4999999999999999
 40
0.4999999999999999
 40
0.5624999999999997
 40
0.5624999999999997
 40
0.6249999999999996
 40
0.6249999999999996
 40
0.6874999999999994
 40
0.6874999999999994
 40
0.7187499999999996
 40
0.7187499999999996
 40
0.7499999999999996
 40
0.7499999999999996
 40
0.7812499999999997
 40
0.7812499999999997
 40
0.8124999999999998
 40
0.8124999999999998
 40
0.8749999999999998
 40
0.8749999999999998
 40
0.9374999999999999
 40
0.9374999999999999
 40
0.9687499999999999
 40
0.9687499999999999
 40
1.0
 40
1.0
 40
1.0
 40
1.0
 10
182.8013189642878
 20
87.34537393747608
 30
0.0
 10
182.54553165374
 20
87.38089724136964
 30
0.0
 10
182.2553418467967
 20
87.41644111033787
 30
0.0
 10
181.7686887485059
 20
87.46291281024676
 30
0.0
 10
181.5983429063448
 20
87.47715872347827
 30
0.0
 10
181.2513694962537
 20
87.50144663767668
 30
0.0
 10
181.073431599019
 20
87.5116229839987
 30
0.0
 10
180.7085123214592
 20
87.5272983116026
 30
0.0
 10
180.5201777293638
 20
87.53278527281547
 30
0.0
 10
180.1462908769084
 20
87.5382452670912
 30
0.0
 10
179.9596006627385
 20
87.53830349035037
 30
0.0
 10
179.5867221718192
 20
87.53311934837357
 30
0.0
 10
179.3990179288969
 20
87.52780386990214
 30
0.0
 10
179.0320990293493
 20
87.51230148887886
 30
0.0
 10
178.8536492872848
 20
87.50220208111817
 30
0.0
 10
178.3328603839241
 20
87.46607023946424
 30
0.0
 10
178.0019766642531
 20
87.43364101844618
 30
0.0
 10
177.5654751059216
 20
87.38211452707907
 30
0.0
 10
177.428689566869
 20
87.3643899160351
 30
0.0
 10
177.1729649574152
 20
87.3289955895258
 30
0.0
 10
177.0553412293096
 20
87.3114990681452
 30
0.0
 10
176.845271776121
 20
87.2787966721567
 30
0.0
 10
176.7519369374359
 20
87.26346486321064
 30
0.0
 10
176.5889912267568
 20
87.23586870386184
 30
0.0
 10
176.5192882639069
 20
87.2235820207482
 30
0.0
 10
176.4086651975748
 20
87.20373702896177
 30
0.0
 10
176.3669835259644
 20
87.1960509164351
 30
0.0
 10
176.3108083855892
 20
87.18563353605784
 30
0.0
 10
176.2963701098286
 20
87.18291237838139
 30
0.0
 10
176.296211114726
 20
87.18288256680076
 30
0.0
 10
176.3518704524627
 20
87.19354469694875
 30
0.0
 10
176.5746952129971
 20
87.23352536868374
 30
0.0
 10
176.7366074985908
 20
87.26186162031604
 30
0.0
 10
177.1603990573266
 20
87.32787252927609
 30
0.0
 10
177.4152454798739
 20
87.36433240206732
 30
0.0
 10
177.8538891399876
 20
87.41618392505369
 30
0.0
 10
178.0105866762671
 20
87.43307155911364
 30
0.0
 10
178.3337866260457
 20
87.46376497973459
 30
0.0
 10
178.5014601074659
 20
87.47772478667845
 30
0.0
 10
178.8490449736546
 20
87.50192421582962
 30
0.0
 10
179.0306084544736
 20
87.51222116466043
 30
0.0
 10
179.3967947292824
 20
87.52772711152235
 30
0.0
 10
179.5814521451248
 20
87.53299309341934
 30
0.0
 10
180.1400485516832
 20
87.54091591667483
 30
0.0
 10
180.5223828931537
 20
87.53520179330121
 30
0.0
 10
181.2496800375221
 20
87.50414270713893
 30
0.0
 10
181.6053741116221
 20
87.47845407108896
 30
0.0
 10
182.0886863885731
 20
87.43238206088087
 30
0.0
 10
182.2423839957896
 20
87.41577990246458
 30
0.0
 10
182.5348062206327
 20
87.38116004725029
 30
0.0
 10
182.6734214438379
 20
87.36313612621191
 30
0.0
 10
182.8013189642878
 20
87.3453739374761
 30
0.0
  0
SPLINE
  5
153
330
1F
100
AcDbEntity
  8
0
  6
HIDDEN
 62
     7
370
     0
100
AcDbSpline
210
0.0
220
0.0
230
1.0
 70
    11
 71
     3
 72
    56
 73
    52
 74
     0
 42
0.00000001
 43
0.00000001
 40
0.0
 40
0.0
 40
0.0
 40
0.0
 40
0.0624999999999999
 40
0.0624999999999999
 40
0.0937499999999998
 40
0.0937499999999998
 40
0.1249999999999998
 40
0.1249999999999998
 40
0.1562499999999998
 40
0.1562499999999998
 40
0.1874999999999998
 40
0.1874999999999998
 40
0.2187499999999997
 40
0.2187499999999997
 40
0.2499999999999997
 40
0.2499999999999997
 40
0.3124999999999999
 40
0.3124999999999999
 40
0.34375
 40
0.34375
 40
0.3750000000000001
 40
0.3750000000000001
 40
0.4062500000000002
 40
0.4062500000000002
 40
0.4375000000000003
 40
0.4375000000000003
 40
0.4687500000000004
 40
0.4687500000000004
 40
0.5000000000000006
 40
0.5000000000000006
 40
0.5625000000000008
 40
0.5625000000000008
 40
0.6250000000000009
 40
0.6250000000000009
 40
0.6875000000000011
 40
0.6875000000000011
 40
0.7187500000000011
 40
0.7187500000000011
 40
0.750000000000001
 40
0.750000000000001
 40
0.781250000000001
 40
0.781250000000001
 40
0.8125000000000011
 40
0.8125000000000011
 40
0.8750000000000007
 40
0.8750000000000007
 40
0.9375000000000003
 40
0.9375000000000003
 40
0.9687500000000002
 40
0.9687500000000002
 40
1.0
 40
1.0
 40
1.0
 40
1.0
 10
182.8013189642878
 20
127.020430889109
 30
0.0
 10
182.54553165374
 20
126.9849075852155
 30
0.0
 10
182.2553418467967
 20
126.9493637162472
 30
0.0
 10
181.7686887485059
 20
126.9028920163383
 30
0.0
 10
181.5983429063448
 20
126.8886461031069
 30
0.0
 10
181.2513694962537
 20
126.8643581889085
 30
0.0
 10
181.073431599019
 20
126.8541818425864
 30
0.0
 10
180.7085123214592
 20
126.8385065149825
 30
0.0
 10
180.5201777293638
 20
126.8330195537696
 30
0.0
 10
180.1462908769084
 20
126.8275595594939
 30
0.0
 10
179.9596006627385
 20
126.8275013362347
 30
0.0
 10
179.5867221718192
 20
126.8326854782115
 30
0.0
 10
179.3990179288969
 20
126.838000956683
 30
0.0
 10
179.0320990293493
 20
126.8535033377063
 30
0.0
 10
178.8536492872848
 20
126.8636027454669
 30
0.0
 10
178.3328603839241
 20
126.8997345871208
 30
0.0
 10
178.0019766642531
 20
126.9321638081389
 30
0.0
 10
177.5654751059216
 20
126.983690299506
 30
0.0
 10
177.428689566869
 20
127.00141491055
 30
0.0
 10
177.1729649574152
 20
127.0368092370593
 30
0.0
 10
177.0553412293096
 20
127.0543057584399
 30
0.0
 10
176.845271776121
 20
127.0870081544284
 30
0.0
 10
176.7519369374359
 20
127.1023399633745
 30
0.0
 10
176.5889912267568
 20
127.1299361227233
 30
0.0
 10
176.519288263907
 20
127.1422228058369
 30
0.0
 10
176.4086651975748
 20
127.1620677976234
 30
0.0
 10
176.3669835259644
 20
127.16975391015
 30
0.0
 10
176.3108083855892
 20
127.1801712905273
 30
0.0
 10
176.2963701098286
 20
127.1828924482037
 30
0.0
 10
176.296211114726
 20
127.1829222597843
 30
0.0
 10
176.3518704524627
 20
127.1722601296363
 30
0.0
 10
176.5746952129971
 20
127.1322794579014
 30
0.0
 10
176.7366074985908
 20
127.1039432062691
 30
0.0
 10
177.1603990573266
 20
127.037932297309
 30
0.0
 10
177.4152454798739
 20
127.0014724245178
 30
0.0
 10
177.8538891399876
 20
126.9496209015314
 30
0.0
 10
178.0105866762671
 20
126.9327332674714
 30
0.0
 10
178.3337866260457
 20
126.9020398468505
 30
0.0
 10
178.5014601074659
 20
126.8880800399067
 30
0.0
 10
178.8490449736546
 20
126.8638806107555
 30
0.0
 10
179.0306084544736
 20
126.8535836619247
 30
0.0
 10
179.3967947292824
 20
126.8380777150628
 30
0.0
 10
179.5814521451248
 20
126.8328117331658
 30
0.0
 10
180.1400485516832
 20
126.8248889099103
 30
0.0
 10
180.5223828931537
 20
126.8306030332839
 30
0.0
 10
181.2496800375221
 20
126.8616621194462
 30
0.0
 10
181.6053741116221
 20
126.8873507554961
 30
0.0
 10
182.0886863885731
 20
126.9334227657042
 30
0.0
 10
182.2423839957896
 20
126.9500249241206
 30
0.0
 10
182.5348062206327
 20
126.9846447793348
 30
0.0
 10
182.6734214438379
 20
127.0026687003732
 30
0.0
 10
182.8013189642878
 20
127.020430889109
 30
0.0
  0
SPLINE
  5
154
330
1F
100
AcDbEntity
  8
0
  6
HIDDEN
 62
     7
370
     0
100
AcDbSpline
210
0.0
220
0.0
230
1.0
 70
    11
 71
     3
 72
    22
 73
    18
 74
     0
 42
0.00000001
 43
0.00000001
 40
0.0
 40
0.0
 40
0.0
 40
0.0
 40
0.125
 40
0.125
 40
0.25
 40
0.25
 40
0.375
 40
0.375
 40
0.5
 40
0.5
 40
0.625
 40
0.625
 40
0.75
 40
0.75
 40
0.875
 40
0.875
 40
1.0
 40
1.0
 40
1.0
 40
1.0
 10
182.8013189642878
 20
127.020430889109
 30
0.0
 10
182.9602617932568
 20
127.0425045971561
 30
0.0
 10
183.1009533411472
 20
127.0591884151437
 30
0.0
 10
183.3469395786096
 20
127.0854101100259
 30
0.0
 10
183.4529776612909
 20
127.0949894158713
 30
0.0
 10
183.623469701858
 20
127.1090686829504
 30
0.0
 10
183.6875224013217
 20
127.1135752591974
 30
0.0
 10
183.7740264524147
 20
127.1194394290354
 30
0.0
 10
183.7962599477748
 20
127.1207813615537
 30
0.0
 10
183.7963737537868
 20
127.1207885013032
 30
0.0
 10
183.7749158253015
 20
127.1194958658169
 30
0.0
 10
183.6889300324225
 20
127.1136744363068
 30
0.0
 10
183.623615885673
 20
127.1090749670309
 30
0.0
 10
183.4546100517375
 20
127.0951299462211
 30
0.0
 10
183.3506510138618
 20
127.0857775593627
 30
0.0
 10
183.1031405676228
 20
127.0594490888963
 30
0.0
 10
182.9602564775391
 20
127.0425038589183
 30
0.0
 10
182.8013189642881
 20
127.0204308891091
 30
0.0
  0
SPLINE
  5
155
330
1F
100
AcDbEntity
  8
0
  6
HIDDEN
 62
     7
370
     0
100
AcDbSpline
210
0.0
220
0.0
230
1.0
 70
    11
 71
     3
 72
    22
 73
    18
 74
     0
 42
0.00000001
 43
0.00000001
 40
0.0
 40
0.0
 40
0.0
 40
0.0
 40
0.1250000000000001
 40
0.1250000000000001
 40
0.2500000000000001
 40
0.2500000000000001
 40
0.375
 40
0.375
 40
0.5
 40
0.5
 40
0.625
 40
0.625
 40
0.7499999999999999
 40
0.7499999999999999
 40
0.8749999999999999
 40
0.8749999999999999
 40
1.0
 40
1.0
 40
1.0
 40
1.0
 10
182.8013189642878
 20
87.34537393747608
 30
0.0
 10
182.9602617932568
 20
87.32330022942904
 30
0.0
 10
183.1009533411472
 20
87.30661641144144
 30
0.0
 10
183.3469395786096
 20
87.28039471655913
 30
0.0
 10
183.4529776612909
 20
87.27081541071382
 30
0.0
 10
183.623469701858
 20
87.25673614363467
 30
0.0
 10
183.6875224013217
 20
87.25222956738764
 30
0.0
 10
183.7740264524147
 20
87.24636539754972
 30
0.0
 10
183.7962599477748
 20
87.24502346503142
 30
0.0
 10
183.7963737537868
 20
87.24501632528191
 30
0.0
 10
183.7749158253015
 20
87.24630896076815
 30
0.0
 10
183.6889300324225
 20
87.25213039027835
 30
0.0
 10
183.623615885673
 20
87.25672985955418
 30
0.0
 10
183.4546100517375
 20
87.27067488036404
 30
0.0
 10
183.3506510138618
 20
87.28002726722237
 30
0.0
 10
183.1031405676228
 20
87.30635573768878
 30
0.0
 10
182.9602564775391
 20
87.32330096766677
 30
0.0
 10
182.8013189642881
 20
87.34537393747598
 30
0.0
  0
LINE
  5
156
330
1F
100
AcDbEntity
  8
0
  6
HIDDEN
 62
     7
370
     0
100
AcDbLine
 10
189.0463169627
 20
90.1829024133
 30
0.0
 11
189.0463169627
 21
124.1642175685
 31
0.0
  0
LINE
  5
157
330
1F
100
AcDbEntity
  8
0
  6
HIDDEN
 62
     7
370
     0
100
AcDbLine
 10
201.2419373084
 20
127.0329024133
 30
0.0
 11
205.1624645858
 21
127.0329024133
 31
0.0
  0
LINE
  5
158
330
1F
100
AcDbEntity
  8
0
  6
HIDDEN
 62
     7
370
     0
100
AcDbLine
 10
208.9301693395
 20
127.0329024133
 30
0.0
 11
214.9963169627
 21
127.0329024133
 31
0.0
  0
LINE
  5
159
330
1F
100
AcDbEntity
  8
0
  6
HIDDEN
 62
     7
370
     0
100
AcDbLine
 10
170.0502915589
 20
124.1829024133
 30
0.0
 11
170.0502915589
 21
90.1829024133
 31
0.0
  0
LWPOLYLINE
  5
15A
330
1F
100
AcDbEntity
  8
0
  6
HIDDEN
 62
     7
370
     0
100
AcDbPolyline
 90
        2
 70
   128
 43
0.0
 10
170.0502915589
 20
90.1829024133
 10
170.0502915589
 20
90.1829024133
  0
LINE
  5
15B
330
1F
100
AcDbEntity
  8
0
  6
HIDDEN
 62
     7
370
     0
100
AcDbLine
 10
157.1463169627
 20
91.1529670155
 30
0.0
 11
157.1463169627
 21
123.2128378111
 31
0.0
  0
LINE
  5
15C
330
1F
100
AcDbEntity
  8
0
  6
HIDDEN
 62
     7
370
     0
100
AcDbLine
 10
196.7061429312
 20
124.1829024133
 30
0.0
 11
196.7061429312
 21
90.1829024133
 31
0.0
  0
LINE
  5
15D
330
1F
100
AcDbEntity
  8
0
  6
HIDDEN
 62
     7
370
     0
100
AcDbLine
 10
198.9963169627
 20
122.9079023888
 30
0.0
 11
198.9963169627
 21
91.4579024133
 31
0.0
  0
LWPOLYLINE
  5
15E
330
1F
100
AcDbEntity
  8
0
  6
HIDDEN
 62
     7
370
     0
100
AcDbPolyline
 90
        2
 70
   128
 43
0.0
 10
198.9963169627
 20
91.4579024133
 10
198.9963169627
 20
91.4579024133
  0
LINE
  5
15F
330
1F
100
AcDbEntity
  8
0
  6
HIDDEN
 62
     7
370
     0
100
AcDbLine
 10
158.2963169627
 20
91.3814119773
 30
0.0
 11
165.8463169627
 21
91.3814119773
 31
0.0
  0
LINE
  5
160
330
1F
100
AcDbEntity
  8
0
  6
HIDDEN
 62
     7
370
     0
100
AcDbLine
 10
158.2963169627
 20
122.9843928493
 30
0.0
 11
158.2963169627
 21
91.3814119773
 31
0.0
  0
LINE
  5
161
330
1F
100
AcDbEntity
  8
0
  6
HIDDEN
 62
     7
370
     0
100
AcDbLine
 10
161.8463169627
 20
122.9843928493
 30
0.0
 11
158.2963169627
 21
122.9843928493
 31
0.0
  0
SPLINE
  5
162
330
1F
100
AcDbEntity
  8
0
  6
HIDDEN
 62
     7
370
     0
100
AcDbSpline
210
0.0
220
0.0
230
1.0
 70
     8
 71
     3
 72
    18
 73
    14
 74
     0
 42
0.00000001
 43
0.00000001
 40
0.0
 40
0.0
 40
0.0
 40
0.0
 40
0.2500000000000025
 40
0.2500000000000025
 40
0.3750000000000029
 40
0.3750000000000029
 40
0.5000000000000033
 40
0.5000000000000033
 40
0.6250000000000038
 40
0.6250000000000038
 40
0.7500000000000041
 40
0.7500000000000041
 40
1.0
 40
1.0
 40
1.0
 40
1.0
 10
163.2463169626862
 20
123.4704160356967
 30
0.0
 10
163.2463169626862
 20
123.4159415151445
 30
0.0
 10
163.211406271294
 20
123.359560455792
 30
0.0
 10
163.1093969699609
 20
123.2754836149385
 30
0.0
 10
163.0677606152828
 20
123.2481499109476
 30
0.0
 10
162.9693548197941
 20
123.1951959953486
 30
0.0
 10
162.9118116080898
 20
123.1693086416314
 30
0.0
 10
162.7845134345168
 20
123.1215310967982
 30
0.0
 10
162.7149261297594
 20
123.0995831786203
 30
0.0
 10
162.5634918846044
 20
123.0601506137076
 30
0.0
 10
162.4808079815105
 20
123.0425943644817
 30
0.0
 10
162.2246965194724
 20
123.0001555990612
 30
0.0
 10
162.0367815155845
 20
122.9843928493242
 30
0.0
 10
161.8463169626862
 20
122.9843928493242
 30
0.0
  0
LINE
  5
163
330
1F
100
AcDbEntity
  8
0
  6
HIDDEN
 62
     7
370
     0
100
AcDbLine
 10
163.2463169627
 20
123.4704160357
 30
0.0
 11
163.2463169627
 21
124.1829024133
 31
0.0
  0
SPLINE
  5
164
330
1F
100
AcDbEntity
  8
0
  6
HIDDEN
 62
     7
370
     0
100
AcDbSpline
210
0.0
220
0.0
230
1.0
 70
     8
 71
     3
 72
    18
 73
    14
 74
     0
 42
0.00000001
 43
0.00000001
 40
0.0
 40
0.0
 40
0.0
 40
0.0
 40
0.2499999999999974
 40
0.2499999999999974
 40
0.3749999999999971
 40
0.3749999999999971
 40
0.4999999999999968
 40
0.4999999999999968
 40
0.6249999999999964
 40
0.6249999999999964
 40
0.7499999999999961
 40
0.7499999999999961
 40
1.0
 40
1.0
 40
1.0
 40
1.0
 10
163.2463169626862
 20
123.4704160356967
 30
0.0
 10
163.2463169626862
 20
123.4159415151445
 30
0.0
 10
163.211406271294
 20
123.359560455792
 30
0.0
 10
163.1093969699609
 20
123.2754836149385
 30
0.0
 10
163.0677606152828
 20
123.2481499109476
 30
0.0
 10
162.9693548197941
 20
123.1951959953486
 30
0.0
 10
162.9118116080898
 20
123.1693086416314
 30
0.0
 10
162.7845134345169
 20
123.1215310967982
 30
0.0
 10
162.7149261297594
 20
123.0995831786203
 30
0.0
 10
162.5634918846044
 20
123.0601506137076
 30
0.0
 10
162.4808079815105
 20
123.0425943644817
 30
0.0
 10
162.2246965194724
 20
123.0001555990612
 30
0.0
 10
162.0367815155844
 20
122.9843928493242
 30
0.0
 10
161.8463169626862
 20
122.9843928493242
 30
0.0
  0
LINE
  5
165
330
1F
100
AcDbEntity
  8
0
  6
HIDDEN
 62
     7
370
     0
100
AcDbLine
 10
161.8463169627
 20
122.9843928493
 30
0.0
 11
158.2963169627
 21
122.9843928493
 31
0.0
  0
LINE
  5
166
330
1F
100
AcDbEntity
  8
0
  6
HIDDEN
 62
     7
370
     0
100
AcDbLine
 10
158.2963169627
 20
91.3814119773
 30
0.0
 11
165.8463169627
 21
91.3814119773
 31
0.0
  0
SPLINE
  5
167
330
1F
100
AcDbEntity
  8
0
  6
HIDDEN
 62
     7
370
     0
100
AcDbSpline
210
0.0
220
0.0
230
1.0
 70
     8
 71
     3
 72
    16
 73
    12
 74
     0
 42
0.00000001
 43
0.00000001
 40
0.0
 40
0.0
 40
0.0
 40
0.0
 40
0.1250000000000018
 40
0.1250000000000018
 40
0.2500000000000037
 40
0.2500000000000037
 40
0.5000000000000024
 40
0.5000000000000024
 40
0.7500000000000012
 40
0.7500000000000012
 40
1.0
 40
1.0
 40
1.0
 40
1.0
 10
165.8463169626862
 20
91.38141197726088
 30
0.0
 10
165.941438717352
 20
91.3814119772609
 30
0.0
 10
166.0347687860801
 20
91.3775961438681
 30
0.0
 10
166.2180305468181
 20
91.36282559113829
 30
0.0
 10
166.3089082623751
 20
91.3516675431627
 30
0.0
 10
166.5657099598948
 20
91.30919627302099
 30
0.0
 10
166.7207773247668
 20
91.26815007581818
 30
0.0
 10
166.9745237863214
 20
91.1730039592363
 30
0.0
 10
167.0753942379893
 20
91.11824122515472
 30
0.0
 10
167.2106406526842
 20
91.00698010125085
 30
0.0
 10
167.2463169626862
 20
90.94981036392215
 30
0.0
 10
167.2463169626862
 20
90.89538879088843
 30
0.0
  0
LINE
  5
168
330
1F
100
AcDbEntity
  8
0
  6
HIDDEN
 62
     7
370
     0
100
AcDbLine
 10
167.2463169627
 20
90.8953887909
 30
0.0
 11
167.2463169627
 21
90.1829024133
 31
0.0
  0
SPLINE
  5
169
330
1F
100
AcDbEntity
  8
0
  6
HIDDEN
 62
     7
370
     0
100
AcDbSpline
210
0.0
220
0.0
230
1.0
 70
     8
 71
     3
 72
    16
 73
    12
 74
     0
 42
0.00000001
 43
0.00000001
 40
0.0
 40
0.0
 40
0.0
 40
0.0
 40
0.1249999999999987
 40
0.1249999999999987
 40
0.2499999999999973
 40
0.2499999999999973
 40
0.4999999999999982
 40
0.4999999999999982
 40
0.7499999999999991
 40
0.7499999999999991
 40
1.0
 40
1.0
 40
1.0
 40
1.0
 10
165.8463169626862
 20
91.38141197726088
 30
0.0
 10
165.941438717352
 20
91.38141197726088
 30
0.0
 10
166.0347687860801
 20
91.37759614386809
 30
0.0
 10
166.2180305468181
 20
91.36282559113829
 30
0.0
 10
166.3089082623751
 20
91.3516675431627
 30
0.0
 10
166.5657099598948
 20
91.30919627302099
 30
0.0
 10
166.7207773247668
 20
91.26815007581818
 30
0.0
 10
166.9745237863214
 20
91.1730039592363
 30
0.0
 10
167.0753942379893
 20
91.11824122515472
 30
0.0
 10
167.2106406526842
 20
91.00698010125085
 30
0.0
 10
167.2463169626862
 20
90.94981036392215
 30
0.0
 10
167.2463169626862
 20
90.89538879088842
 30
0.0
  0
LINE
  5
16A
330
1F
100
AcDbEntity
  8
0
  6
HIDDEN
 62
     7
370
     0
100
AcDbLine
 10
158.2963169627
 20
91.3814119773
 30
0.0
 11
158.2963169627
 21
122.9843928493
 31
0.0
  0
LINE
  5
16B
330
1F
100
AcDbEntity
  8
0
  6
HIDDEN
 62
     7
370
     0
100
AcDbLine
 10
231.3142661551
 20
80.1829024133
 30
0.0
 11
231.3142661551
 21
107.1829024133
 31
0.0
  0
SPLINE
  5
16C
330
1F
100
AcDbEntity
  8
0
  6
HIDDEN
 62
     7
370
     0
100
AcDbSpline
210
0.0
220
0.0
230
1.0
 70
     8
 71
     3
 72
     8
 73
     4
 74
     0
 42
0.00000001
 43
0.00000001
 40
0.0
 40
0.0
 40
0.0
 40
0.0
 40
1.0
 40
1.0
 40
1.0
 40
1.0
 10
231.4336963815324
 20
112.1091107285833
 30
0.0
 10
231.3548923978823
 20
110.4705687585292
 30
0.0
 10
231.3142661551173
 20
108.8285731522551
 30
0.0
 10
231.3142661551173
 20
107.1829024132926
 30
0.0
  0
LINE
  5
16D
330
1F
100
AcDbEntity
  8
0
  6
HIDDEN
 62
     7
370
     0
100
AcDbLine
 10
231.4336963815
 20
134.6286220862
 30
0.0
 11
231.4336963815
 21
112.1091107286
 31
0.0
  0
LINE
  5
16E
330
1F
100
AcDbEntity
  8
0
  6
HIDDEN
 62
     7
370
     0
100
AcDbLine
 10
158.2963169627
 20
89.1929024133
 30
0.0
 11
158.2963169627
 21
86.3704024133
 31
0.0
  0
LINE
  5
16F
330
1F
100
AcDbEntity
  8
0
  6
HIDDEN
 62
     7
370
     0
100
AcDbLine
 10
167.2463169627
 20
89.1929024133
 30
0.0
 11
167.2463169627
 21
85.237754154
 31
0.0
  0
LINE
  5
170
330
1F
100
AcDbEntity
  8
0
  6
HIDDEN
 62
     7
370
     0
100
AcDbLine
 10
158.2963169627
 20
125.1729024133
 30
0.0
 11
158.2963169627
 21
128.0528401787
 31
0.0
  0
LINE
  5
171
330
1F
100
AcDbEntity
  8
0
  6
HIDDEN
 62
     7
370
     0
100
AcDbLine
 10
157.1463169627
 20
125.1729024133
 30
0.0
 11
157.1463169627
 21
126.8735801598
 31
0.0
  0
LINE
  5
172
330
1F
100
AcDbEntity
  8
0
  6
HIDDEN
 62
     7
370
     0
100
AcDbLine
 10
157.1463169627
 20
89.1929024133
 30
0.0
 11
157.1463169627
 21
87.5297418883
 31
0.0
  0
LINE
  5
173
330
1F
100
AcDbEntity
  8
0
  6
HIDDEN
 62
     7
370
     0
100
AcDbLine
 10
163.2463169627
 20
125.1729024133
 30
0.0
 11
163.2463169627
 21
129.0270100857
 31
0.0
  0
LINE
  5
174
330
1F
100
AcDbEntity
  8
0
  6
HIDDEN
 62
     7
370
     0
100
AcDbLine
 10
208.3463169627
 20
116.6829024133
 30
0.0
 11
208.3463169627
 21
97.6829024133
 31
0.0
  0
LINE
  5
175
330
1F
100
AcDbEntity
  8
0
  6
HIDDEN
 62
     7
370
     0
100
AcDbLine
 10
210.8463169627
 20
116.6829024133
 30
0.0
 11
210.8463169627
 21
97.6829024133
 31
0.0
  0
LWPOLYLINE
  5
176
330
1F
100
AcDbEntity
  8
0
  6
HIDDEN
 62
     7
370
     0
100
AcDbPolyline
 90
        2
 70
   128
 43
0.0
 10
214.9963169627
 20
80.7829024133
 10
214.9963169627
 20
80.7829024133
  0
LINE
  5
177
330
1F
100
AcDbEntity
  8
0
  6
HIDDEN
 62
     7
370
     0
100
AcDbLine
 10
199.4963169627
 20
115.6829024133
 30
0.0
 11
199.4963169627
 21
98.6829024133
 31
0.0
  0
LINE
  5
178
330
1F
100
AcDbEntity
  8
0
  6
HIDDEN
 62
     7
370
     0
100
AcDbLine
 10
198.9963169627
 20
98.1829024133
 30
0.0
 11
198.9963169627
 21
116.164410948
 31
0.0
  0
LINE
  5
179
330
1F
100
AcDbEntity
  8
0
  6
HIDDEN
 62
     7
370
     0
100
AcDbLine
 10
193.9963169627
 20
75.6987794304
 30
0.0
 11
193.9963169627
 21
80.7829024133
 31
0.0
  0
LINE
  5
17A
330
1F
100
AcDbEntity
  8
0
  6
HIDDEN
 62
     7
370
     0
100
AcDbLine
 10
201.9963169627
 20
80.7829024133
 30
0.0
 11
193.9963169627
 21
80.7829024133
 31
0.0
  0
LINE
  5
17B
330
1F
100
AcDbEntity
  8
0
  6
HIDDEN
 62
     7
370
     0
100
AcDbLine
 10
205.233991765
 20
80.7829024133
 30
0.0
 11
201.9963169627
 21
80.7829024133
 31
0.0
  0
LINE
  5
17C
330
1F
100
AcDbEntity
  8
0
  6
HIDDEN
 62
     7
370
     0
100
AcDbLine
 10
205.1363169627
 20
80.378506785
 30
0.0
 11
205.1363169627
 21
79.6850652542
 31
0.0
  0
LINE
  5
17D
330
1F
100
AcDbEntity
  8
0
  6
HIDDEN
 62
     7
370
     0
100
AcDbLine
 10
214.9963169627
 20
80.7829024133
 30
0.0
 11
208.8586421604
 21
80.7829024133
 31
0.0
  0
LINE
  5
17E
330
1F
100
AcDbEntity
  8
0
  6
HIDDEN
 62
     7
370
     0
100
AcDbLine
 10
208.9563169627
 20
79.6850652542
 30
0.0
 11
208.9563169627
 21
80.378506785
 31
0.0
  0
LINE
  5
17F
330
1F
100
AcDbEntity
  8
0
  6
HIDDEN
 62
     7
370
     0
100
AcDbLine
 10
214.9963169627
 20
80.7829024133
 30
0.0
 11
214.9963169627
 21
77.6226250127
 31
0.0
  0
LINE
  5
180
330
1F
100
AcDbEntity
  8
0
  6
HIDDEN
 62
     7
370
     0
100
AcDbLine
 10
208.3463169627
 20
98.6829024133
 30
0.0
 11
208.3463169627
 21
115.6639208816
 31
0.0
  0
LWPOLYLINE
  5
181
330
1F
100
AcDbEntity
  8
0
  6
HIDDEN
 62
     7
370
     0
100
AcDbPolyline
 90
        2
 70
   128
 43
0.0
 10
214.9963169627
 20
133.5829024133
 10
214.9963169627
 20
133.5829024133
  0
LINE
  5
182
330
1F
100
AcDbEntity
  8
0
  6
HIDDEN
 62
     7
370
     0
100
AcDbLine
 10
201.9963169627
 20
133.5829024133
 30
0.0
 11
193.9963169627
 21
133.5829024133
 31
0.0
  0
LINE
  5
183
330
1F
100
AcDbEntity
  8
0
  6
HIDDEN
 62
     7
370
     0
100
AcDbLine
 10
214.9963169627
 20
133.5829024133
 30
0.0
 11
208.562019431
 21
133.5829024133
 31
0.0
  0
LINE
  5
184
330
1F
100
AcDbEntity
  8
0
  6
HIDDEN
 62
     7
370
     0
100
AcDbLine
 10
208.9563169627
 20
134.9881366045
 30
0.0
 11
208.9563169627
 21
134.3025562643
 31
0.0
  0
LINE
  5
185
330
1F
100
AcDbEntity
  8
0
  6
HIDDEN
 62
     7
370
     0
100
AcDbLine
 10
214.9963169627
 20
133.5829024133
 30
0.0
 11
214.9963169627
 21
137.0293427371
 31
0.0
  0
LINE
  5
186
330
1F
100
AcDbEntity
  8
0
  6
HIDDEN
 62
     7
370
     0
100
AcDbLine
 10
205.5306144944
 20
133.5829024133
 30
0.0
 11
201.9963169627
 21
133.5829024133
 31
0.0
  0
LINE
  5
187
330
1F
100
AcDbEntity
  8
0
  6
HIDDEN
 62
     7
370
     0
100
AcDbLine
 10
205.1363169627
 20
134.3025562643
 30
0.0
 11
205.1363169627
 21
134.9881366045
 31
0.0
  0
ELLIPSE
  5
188
330
1F
100
AcDbEntity
  8
0
  6
HIDDEN
 62
     7
370
     0
100
AcDbEllipse
 10
152.9788850984
 20
107.1829024133
 30
0.0
 11
20.07002071827051
 21
-1.421085471520200E-14
 31
0.0
210
0.0
220
0.0
230
1.0
 40
0.8164965809
 41
1.302650465081199
 42
1.361629843993899
  0
LINE
  5
189
330
1F
100
AcDbEntity
  8
0
  6
HIDDEN
 62
     7
370
     0
100
AcDbLine
 10
157.1463169627
 20
125.1729024133
 30
0.0
 11
157.1463169627
 21
123.2128378111
 31
0.0
  0
ELLIPSE
  5
18A
330
1F
100
AcDbEntity
  8
0
  6
HIDDEN
 62
     7
370
     0
100
AcDbEllipse
 10
152.9788850984
 20
107.1829024133
 30
0.0
 11
20.07002071827054
 21
-2.842170943040401E-14
 31
0.0
210
0.0
220
0.0
230
1.0
 40
0.8164965809
 41
4.921555463185704
 42
4.980534842098404
  0
LINE
  5
18B
330
1F
100
AcDbEntity
  8
0
  6
HIDDEN
 62
     7
370
     0
100
AcDbLine
 10
157.1463169627
 20
89.1929024133
 30
0.0
 11
157.1463169627
 21
91.1529670155
 31
0.0
  0
LINE
  5
18C
330
1F
100
AcDbEntity
  8
0
  6
HIDDEN
 62
     7
370
     0
100
AcDbLine
 10
167.2463169627
 20
89.1929024133
 30
0.0
 11
167.2463169627
 21
90.8953887909
 31
0.0
  0
LINE
  5
18D
330
1F
100
AcDbEntity
  8
0
  6
HIDDEN
 62
     7
370
     0
100
AcDbLine
 10
158.2963169627
 20
89.1929024133
 30
0.0
 11
158.2963169627
 21
91.3814119773
 31
0.0
  0
LINE
  5
18E
330
1F
100
AcDbEntity
  8
0
  6
HIDDEN
 62
     7
370
     0
100
AcDbLine
 10
163.2463169627
 20
125.1729024133
 30
0.0
 11
163.2463169627
 21
123.4704160357
 31
0.0
  0
LINE
  5
18F
330
1F
100
AcDbEntity
  8
0
  6
HIDDEN
 62
     7
370
     0
100
AcDbLine
 10
158.2963169627
 20
125.1729024133
 30
0.0
 11
158.2963169627
 21
122.9843928493
 31
0.0
  0
LWPOLYLINE
  5
190
330
1F
100
AcDbEntity
  8
0
  6
HIDDEN
 62
     7
370
     0
100
AcDbPolyline
 90
       31
 70
   128
 43
0.0
 10
249.4750548959
 20
121.5099521679
 10
250.1987594468
 20
121.5720651639
 10
250.8908346361
 20
121.7821064094
 10
251.5210334571
 20
122.1308960942
 10
252.0618131972
 20
122.6031904354
 10
252.489539187
 20
123.1783479038
 10
252.7855177481
 20
123.8312313583
 10
252.9368131972
 20
124.5333066589
 10
252.9368131972
 20
125.2538897462
 10
252.7855177481
 20
125.9614876814
 10
252.489539187
 20
126.6251750394
 10
252.0618131972
 20
127.2159454978
 10
251.5210334571
 20
127.7079795529
 10
250.8908346361
 20
128.0797729554
 10
250.1987594468
 20
128.3150765494
 10
249.4750548959
 20
128.403606439
 10
248.7513503451
 20
128.341493443
 10
248.0592751558
 20
128.1314521974
 10
247.4290763348
 20
127.7826625126
 10
246.8882965947
 20
127.3103681715
 10
246.4605706049
 20
126.7352107031
 10
246.1645920438
 20
126.0823272486
 10
246.0132965947
 20
125.380251948
 10
246.0132965947
 20
124.6596688607
 10
246.1645920438
 20
123.9520709255
 10
246.4605706049
 20
123.2883835675
 10
246.8882965947
 20
122.6976131091
 10
247.4290763348
 20
122.205579054
 10
248.0592751558
 20
121.8337856515
 10
248.7513503451
 20
121.5984820574
 10
249.4750548959
 20
121.5099521679
  0
ELLIPSE
  5
191
330
1F
100
AcDbEntity
  8
0
  6
HIDDEN
 62
     7
370
     0
100
AcDbEllipse
 10
243.4260520609
 20
108.7143907437
 30
0.0
 11
2.47708865658629
 21
34.87781477030992
 31
0.0
210
0.0
220
0.0
230
1.0
 40
0.0939603561
 41
0.0683162723221865
 42
0.2574003047093993
  0
SPLINE
  5
192
330
1F
100
AcDbEntity
  8
0
  6
HIDDEN
 62
     7
370
     0
100
AcDbSpline
210
0.0
220
0.0
230
1.0
 70
     8
 71
     3
 72
    24
 73
    20
 74
     0
 42
0.00000001
 43
0.00000001
 40
0.0
 40
0.0
 40
0.0
 40
0.0
 40
0.0312499999999999
 40
0.0312499999999999
 40
0.0624999999999999
 40
0.0624999999999999
 40
0.1249999999999997
 40
0.1249999999999997
 40
0.2499999999999996
 40
0.2499999999999996
 40
0.3124999999999996
 40
0.3124999999999996
 40
0.3749999999999997
 40
0.3749999999999997
 40
0.4999999999999999
 40
0.4999999999999999
 40
0.7499999999999999
 40
0.7499999999999999
 40
1.0
 40
1.0
 40
1.0
 40
1.0
 10
231.4336963815393
 20
112.109110728583
 30
0.0
 10
231.5388579211228
 20
112.4752177095416
 30
0.0
 10
231.655286788483
 20
112.8407495467046
 30
0.0
 10
231.9065109116969
 20
113.5622701451392
 30
0.0
 10
232.0411949087416
 20
113.9182182205017
 30
0.0
 10
232.469766334847
 20
114.9730560698705
 30
0.0
 10
232.7880826075749
 20
115.6589875214718
 30
0.0
 10
233.8230378150073
 20
117.674342348623
 30
0.0
 10
234.6187897074409
 20
118.9618001188163
 30
0.0
 10
235.9215713308969
 20
120.8350859600318
 30
0.0
 10
236.3734333055619
 20
121.4483667143625
 30
0.0
 10
237.2981849088124
 20
122.6465249573424
 30
0.0
 10
237.7722731143566
 20
123.2331123364708
 30
0.0
 10
239.2232580630489
 20
124.9622431029509
 30
0.0
 10
240.2285537560643
 20
126.0744978862262
 30
0.0
 10
243.3238827975766
 20
129.3265342387347
 30
0.0
 10
245.4915617915314
 20
131.3835036538382
 30
0.0
 10
249.9407843076171
 20
135.3760014579375
 30
0.0
 10
252.2238906853972
 20
137.309862999525
 30
0.0
 10
254.5429779365349
 20
139.2053495155378
 30
0.0
  0
SPLINE
  5
193
330
1F
100
AcDbEntity
  8
0
  6
HIDDEN
 62
     7
370
     0
100
AcDbSpline
210
0.0
220
0.0
230
1.0
 70
     8
 71
     3
 72
    25
 73
    21
 74
     0
 42
0.00000001
 43
0.00000001
 40
0.0
 40
0.0
 40
0.0
 40
0.0
 40
0.0310354678805044
 40
0.0649876448281874
 40
0.1018464557017013
 40
0.141600899804517
 40
0.1842390525840403
 40
0.2297480668375158
 40
0.2781141736087243
 40
0.3293226828860502
 40
0.3833579841708163
 40
0.4402035469601971
 40
0.4998419211741182
 40
0.5903454637669062
 40
0.6744135892862826
 40
0.7521011502912017
 40
0.823458918633278
 40
0.8885335865458124
 40
0.9473677679306314
 40
1.0
 40
1.0
 40
1.0
 40
1.0
 10
256.9476876409113
 20
149.6184935943883
 30
0.0
 10
256.9240180420609
 20
149.5579791606372
 30
0.0
 10
256.8744543786663
 20
149.4312631548487
 30
0.0
 10
256.7959186574722
 20
149.2187340427172
 30
0.0
 10
256.7101071129363
 20
148.975931404456
 30
0.0
 10
256.6169400127513
 20
148.698825441216
 30
0.0
 10
256.516440650973
 20
148.3845950351291
 30
0.0
 10
256.4086015718117
 20
148.0298364360351
 30
0.0
 10
256.2934243016647
 20
147.6311242454865
 30
0.0
 10
256.1709091482172
 20
147.1848706656987
 30
0.0
 10
256.0410513915492
 20
146.6873940879852
 30
0.0
 10
255.9038698734842
 20
146.134940118879
 30
0.0
 10
255.7365854854173
 20
145.4276951733905
 30
0.0
 10
255.5467333042101
 20
144.5749554606104
 30
0.0
 10
255.342041892399
 20
143.5927060670986
 30
0.0
 10
255.1526687610681
 20
142.6316211859694
 30
0.0
 10
254.9786395175219
 20
141.7050534477076
 30
0.0
 10
254.819960443111
 20
140.8237866222622
 30
0.0
 10
254.6765863245168
 20
140.000198434581
 30
0.0
 10
254.5862978982523
 20
139.4604835116555
 30
0.0
 10
254.5436654921572
 20
139.2056408178391
 30
0.0
  0
SPLINE
  5
194
330
1F
100
AcDbEntity
  8
0
  6
HIDDEN
 62
     7
370
     0
100
AcDbSpline
210
0.0
220
0.0
230
1.0
 70
     8
 71
     3
 72
     8
 73
     4
 74
     0
 42
0.00000001
 43
0.00000001
 40
0.0
 40
0.0
 40
0.0
 40
0.0
 40
1.0
 40
1.0
 40
1.0
 40
1.0
 10
244.9872823010564
 20
142.5024074800411
 30
0.0
 10
248.9714298191305
 20
144.8782943647278
 30
0.0
 10
252.9584549243777
 20
147.2495306518124
 30
0.0
 10
256.947098158258
 20
149.6181518086898
 30
0.0
  0
ARC
  5
195
330
1F
100
AcDbEntity
  8
0
  6
HIDDEN
 62
     7
370
     0
100
AcDbCircle
 10
242.9503760727
 20
129.4710208741
 30
0.0
 40
2.091082341024275
100
AcDbArc
 50
122.5895920301
 51
301.3262094742
  0
LINE
  5
196
330
1F
100
AcDbEntity
  8
0
  6
HIDDEN
 62
     7
370
     0
100
AcDbLine
 10
257.8356026578
 20
136.9842252607
 30
0.0
 11
256.8718502265
 21
135.3919597064
 31
0.0
  0
SPLINE
  5
197
330
1F
100
AcDbEntity
  8
0
  6
HIDDEN
 62
     7
370
     0
100
AcDbSpline
210
0.0
220
0.0
230
1.0
 70
    11
 71
     3
 72
    34
 73
    30
 74
     0
 42
0.00000001
 43
0.00000001
 40
0.0
 40
0.0
 40
0.0
 40
0.0
 40
0.0127738756313435
 40
0.0481305018861379
 40
0.080742501692402
 40
0.1375890913626937
 40
0.188451873119229
 40
0.2226712138150705
 40
0.2626938372949205
 40
0.2986558359810595
 40
0.3315197765429548
 40
0.387845971894456
 40
0.3881753096201915
 40
0.4440926113325877
 40
0.4768435653244688
 40
0.5126448960710659
 40
0.5530084671478371
 40
0.5873855940016103
 40
0.6380121006395981
 40
0.6949796268749334
 40
0.7275539945508062
 40
0.7628079420081072
 40
0.8028703493977764
 40
0.8370831563378198
 40
0.8877749825785645
 40
0.8880416622852164
 40
0.938839794626342
 40
0.9729712758707774
 40
1.0
 40
1.0
 40
1.0
 40
1.0
 10
177.2063288751746
 20
84.11524055675349
 30
0.0
 10
177.2655225277757
 20
84.12132946054574
 30
0.0
 10
177.4885574382746
 20
84.14427175338743
 30
0.0
 10
178.011909882561
 20
84.1809165059292
 30
0.0
 10
178.8846733534172
 20
84.20860053231138
 30
0.0
 10
179.9995112461878
 20
84.19804495805998
 30
0.0
 10
181.1125766454175
 20
84.08189985971262
 30
0.0
 10
182.0070181366504
 20
83.96030909694383
 30
0.0
 10
182.6908530229032
 20
83.83855043671889
 30
0.0
 10
183.2316036629805
 20
83.72219176968116
 30
0.0
 10
183.6450336512508
 20
83.62870872029642
 30
0.0
 10
183.8731824418446
 20
83.56207491229674
 30
0.0
 10
183.7186422713476
 20
83.6033390007635
 30
0.0
 10
183.6917661031399
 20
83.61580920840572
 30
0.0
 10
183.2359798368117
 20
83.72135935858935
 30
0.0
 10
182.7120571726207
 20
83.83410526329607
 30
0.0
 10
182.0258471539514
 20
83.95720412603637
 30
0.0
 10
181.1327343973664
 20
84.07919531136264
 30
0.0
 10
180.0192978592444
 20
84.19694793760598
 30
0.0
 10
178.9085472355073
 20
84.20891846386857
 30
0.0
 10
178.0237951590161
 20
84.18186100976402
 30
0.0
 10
177.3565995371104
 20
84.13392860202376
 30
0.0
 10
176.8153264681786
 20
84.0776357732421
 30
0.0
 10
176.4277477099008
 20
84.03255046592014
 30
0.0
 10
176.2337327689451
 20
83.9936703938439
 30
0.0
 10
176.3600561153054
 20
84.01509373909873
 30
0.0
 10
176.3892122321155
 20
84.02501050697528
 30
0.0
 10
176.7607116701419
 20
84.07263039946017
 30
0.0
 10
177.0697531783161
 20
84.1021811150177
 30
0.0
 10
177.2063288751746
 20
84.11524055675349
 30
0.0
  0
SPLINE
  5
198
330
1F
100
AcDbEntity
  8
0
  6
HIDDEN
 62
     7
370
     0
100
AcDbSpline
210
0.0
220
0.0
230
1.0
 70
     8
 71
     3
 72
    38
 73
    34
 74
     0
 42
0.00000001
 43
0.00000001
 40
-0.093922140067779
 40
-0.0657752597753781
 40
-0.0344739496007944
 40
0.0
 40
0.0323124298479836
 40
0.060969598257746
 40
0.0859698687835549
 40
0.107313175594656
 40
0.1250019290169609
 40
0.1562358721977444
 40
0.197850737299077
 40
0.249816879324835
 40
0.278262948030722
 40
0.3049884159832858
 40
0.3300042168913839
 40
0.3533239044418166
 40
0.3749644360933807
 40
0.406026783832292
 40
0.4476555976010197
 40
0.4998320869201296
 40
0.5286685248934815
 40
0.5555536435543463
 40
0.5805015705746596
 40
0.6035302879119623
 40
0.6246629693429199
 40
0.668531263710324
 40
0.718326915355546
 40
0.7652375706113129
 40
0.7915712044406461
 40
0.8122937035710438
 40
0.8615656629637486
 40
0.906077859932221
 40
0.9342247402246219
 40
0.9655260503992056
 40
1.0
 40
1.032312429847984
 40
1.060969598257746
 40
1.085969868783555
 10
177.9865821268676
 20
130.18590643932
 30
0.0
 10
177.3825139083582
 20
130.2304399445359
 30
0.0
 10
176.907198845512
 20
130.2785153307689
 30
0.0
 10
176.5876000195122
 20
130.3146780700347
 30
0.0
 10
176.4006056137982
 20
130.3410682042232
 30
0.0
 10
176.3122999542458
 20
130.3571378140204
 30
0.0
 10
176.2828864583765
 20
130.3649614992704
 30
0.0
 10
176.3550185284454
 20
130.3467940006866
 30
0.0
 10
176.6761305306399
 20
130.302187420724
 30
0.0
 10
177.2481580208544
 20
130.2414488920533
 30
0.0
 10
177.8986903686107
 20
130.1921047290333
 30
0.0
 10
178.4485664973521
 20
130.1697422685539
 30
0.0
 10
179.0040043631302
 20
130.1612600586494
 30
0.0
 10
179.5447799107667
 20
130.167711144798
 30
0.0
 10
180.1427098055661
 20
130.1911895213997
 30
0.0
 10
180.882375662733
 20
130.2581093922369
 30
0.0
 10
181.8144252960059
 20
130.3742108261721
 30
0.0
 10
182.6037620296794
 20
130.5095257107634
 30
0.0
 10
183.1426917175169
 20
130.6246375348306
 30
0.0
 10
183.4567960574128
 20
130.6944116113816
 30
0.0
 10
183.6620764257786
 20
130.7449716968775
 30
0.0
 10
183.7731464118695
 20
130.7756498367842
 30
0.0
 10
183.8194179136735
 20
130.7903768540404
 30
0.0
 10
183.6934530453272
 20
130.752517260453
 30
0.0
 10
183.2232075164541
 20
130.642031476027
 30
0.0
 10
182.5700095528655
 20
130.5023272576508
 30
0.0
 10
181.9659905973495
 20
130.3992006515055
 30
0.0
 10
181.2916525477112
 20
130.299764625736
 30
0.0
 10
180.4063030647238
 20
130.2062942914605
 30
0.0
 10
179.4368241741115
 20
130.1592857853877
 30
0.0
 10
178.6484885968445
 20
130.1629700004883
 30
0.0
 10
177.9865821268676
 20
130.18590643932
 30
0.0
 10
177.3825139083582
 20
130.2304399445359
 30
0.0
 10
176.907198845512
 20
130.2785153307689
 30
0.0
  0
LINE
  5
199
330
1F
100
AcDbEntity
  8
0
  6
HIDDEN
 62
     7
370
     0
100
AcDbLine
 10
223.1463169627
 20
111.3829024133
 30
0.0
 11
223.1463169627
 21
102.9829024133
 31
0.0
  0
SPLINE
  5
19A
330
1F
100
AcDbEntity
  8
0
  6
HIDDEN
 62
     7
370
     0
100
AcDbSpline
210
0.0
220
0.0
230
1.0
 70
     8
 71
     3
 72
    64
 73
    60
 74
     0
 42
0.00000001
 43
0.00000001
 40
-0.03125
 40
-0.03125
 40
0.0
 40
0.0
 40
0.0312500000000002
 40
0.0312500000000002
 40
0.0625000000000004
 40
0.0625000000000004
 40
0.1250000000000002
 40
0.1250000000000002
 40
0.1562500000000001
 40
0.1562500000000001
 40
0.1875
 40
0.1875
 40
0.2187499999999999
 40
0.2187499999999999
 40
0.2499999999999998
 40
0.2499999999999998
 40
0.2812499999999997
 40
0.2812499999999997
 40
0.3124999999999996
 40
0.3124999999999996
 40
0.3749999999999995
 40
0.3749999999999995
 40
0.4062499999999996
 40
0.4062499999999996
 40
0.4374999999999998
 40
0.4374999999999998
 40
0.4687499999999999
 40
0.4687499999999999
 40
0.5
 40
0.5
 40
0.5312500000000002
 40
0.5312500000000002
 40
0.5625000000000002
 40
0.5625000000000002
 40
0.5937500000000003
 40
0.5937500000000003
 40
0.6250000000000004
 40
0.6250000000000004
 40
0.6562500000000006
 40
0.6562500000000006
 40
0.6875000000000006
 40
0.6875000000000006
 40
0.7187500000000007
 40
0.7187500000000007
 40
0.7500000000000009
 40
0.7500000000000009
 40
0.7812500000000011
 40
0.7812500000000011
 40
0.8125000000000012
 40
0.8125000000000012
 40
0.8750000000000011
 40
0.8750000000000011
 40
0.9062500000000006
 40
0.9062500000000006
 40
0.9374999999999999
 40
0.9374999999999999
 40
0.96875
 40
0.96875
 40
1.0
 40
1.0
 40
1.03125
 40
1.03125
 10
219.2159766519881
 20
108.3778476504993
 30
0.0
 10
218.8766572733836
 20
108.3778476504993
 30
0.0
 10
218.7109707485505
 20
108.3574143659166
 30
0.0
 10
218.3867346723763
 20
108.2793784874911
 30
0.0
 10
218.2269278366483
 20
108.2208107560135
 30
0.0
 10
217.7777530143061
 20
108.0009110812679
 30
0.0
 10
217.5083277982419
 20
107.7922615158391
 30
0.0
 10
217.1702927870448
 20
107.4226557234414
 30
0.0
 10
217.0667366226457
 20
107.2876625542715
 30
0.0
 10
216.8863491320081
 20
107.0051893921403
 30
0.0
 10
216.8092027979454
 20
106.8579394587459
 30
0.0
 10
216.6816823871677
 20
106.5513805991951
 30
0.0
 10
216.6311588271276
 20
106.3900519463455
 30
0.0
 10
216.5642379992011
 20
106.0712430666934
 30
0.0
 10
216.5468789365627
 20
105.9123430004665
 30
0.0
 10
216.5457815599546
 20
105.5958156194488
 30
0.0
 10
216.5625074814278
 20
105.4404900051456
 30
0.0
 10
216.6279117663278
 20
105.1474521471309
 30
0.0
 10
216.6773976180594
 20
105.006346076409
 30
0.0
 10
216.8680100330082
 20
104.6161222946978
 30
0.0
 10
217.052605829157
 20
104.3954127864863
 30
0.0
 10
217.3898219733627
 20
104.1316685759167
 30
0.0
 10
217.5138499167487
 20
104.0536638645046
 30
0.0
 10
217.7796807851732
 20
103.9197244744654
 30
0.0
 10
217.9200979094009
 20
103.8641758481981
 30
0.0
 10
218.2177313918541
 20
103.7736921792081
 30
0.0
 10
218.3772956161433
 20
103.7385096066212
 30
0.0
 10
218.7029067951518
 20
103.6917627954563
 30
0.0
 10
218.8690190306842
 20
103.6797441426938
 30
0.0
 10
219.2085180778984
 20
103.679040593084
 30
0.0
 10
219.3751914837561
 20
103.6904139034896
 30
0.0
 10
219.7010965320286
 20
103.7357894868264
 30
0.0
 10
219.86118694123
 20
103.7702771187714
 30
0.0
 10
220.1615331683725
 20
103.8601359830346
 30
0.0
 10
220.3047966173275
 20
103.9162106081253
 30
0.0
 10
220.5719355146103
 20
104.0496500222794
 30
0.0
 10
220.6948949715315
 20
104.1262922321114
 30
0.0
 10
220.9214069531447
 20
104.3018703208422
 30
0.0
 10
221.0252536655838
 20
104.4016209521373
 30
0.0
 10
221.2054102441658
 20
104.6190234870895
 30
0.0
 10
221.2829079419897
 20
104.7373587276948
 30
0.0
 10
221.4113861004575
 20
104.9966790647151
 30
0.0
 10
221.4616109164509
 20
105.1375008486576
 30
0.0
 10
221.528387737222
 20
105.428994306138
 30
0.0
 10
221.5459244385746
 20
105.5814598578352
 30
0.0
 10
221.5466965854916
 20
105.9007050016376
 30
0.0
 10
221.5299300067238
 20
106.060658324463
 30
0.0
 10
221.4640237028171
 20
106.3809919426122
 30
0.0
 10
221.4140701316798
 20
106.5425494396635
 30
0.0
 10
221.2229926294065
 20
107.0058043416191
 30
0.0
 10
221.0376905033294
 20
107.296012462405
 30
0.0
 10
220.6987011249462
 20
107.6674395180302
 30
0.0
 10
220.5734942118337
 20
107.782654043771
 30
0.0
 10
220.307961537711
 20
107.9850119120103
 30
0.0
 10
220.1671667416755
 20
108.0730799901905
 30
0.0
 10
219.8671036886794
 20
108.2202714684836
 30
0.0
 10
219.7068754469581
 20
108.2790666345758
 30
0.0
 10
219.3825880770377
 20
108.3572682213512
 30
0.0
 10
219.2159766519881
 20
108.3778476504993
 30
0.0
 10
218.8766572733836
 20
108.3778476504993
 30
0.0
  0
LINE
  5
19B
330
1F
100
AcDbEntity
  8
0
  6
HIDDEN
 62
     7
370
     0
100
AcDbLine
 10
210.8463169627
 20
102.9829024133
 30
0.0
 11
210.8463169627
 21
111.3638844881
 31
0.0
  0
SPLINE
  5
19C
330
1F
100
AcDbEntity
  8
0
  6
HIDDEN
 62
     7
370
     0
100
AcDbSpline
210
0.0
220
0.0
230
1.0
 70
     8
 71
     3
 72
    36
 73
    32
 74
     0
 42
0.00000001
 43
0.00000001
 40
0.0
 40
0.0
 40
0.0
 40
0.0
 40
0.1249999999999999
 40
0.1249999999999999
 40
0.2499999999999999
 40
0.2499999999999999
 40
0.3124999999999999
 40
0.3124999999999999
 40
0.3749999999999998
 40
0.3749999999999998
 40
0.4374999999999998
 40
0.4374999999999998
 40
0.4687499999999997
 40
0.4687499999999997
 40
0.4999999999999997
 40
0.4999999999999997
 40
0.5312499999999998
 40
0.5312499999999998
 40
0.5624999999999998
 40
0.5624999999999998
 40
0.5937499999999998
 40
0.5937499999999998
 40
0.6249999999999998
 40
0.6249999999999998
 40
0.6874999999999997
 40
0.6874999999999997
 40
0.7499999999999997
 40
0.7499999999999997
 40
0.8749999999999998
 40
0.8749999999999998
 40
1.0
 40
1.0
 40
1.0
 40
1.0
 10
246.7685240825531
 20
127.451544528751
 30
0.0
 10
246.826868266809
 20
127.5479379923246
 30
0.0
 10
246.9436636715201
 20
127.6745822685262
 30
0.0
 10
247.2515992802037
 20
127.9530316855421
 30
0.0
 10
247.4450776916793
 20
128.1062215053191
 30
0.0
 10
247.7955211990705
 20
128.3326628760202
 30
0.0
 10
247.9227956567121
 20
128.4078330058032
 30
0.0
 10
248.2060100821423
 20
128.5536214708963
 30
0.0
 10
248.3631277962886
 20
128.624961671833
 30
0.0
 10
248.7157278827738
 20
128.7518349822469
 30
0.0
 10
248.9102703989679
 20
128.8087267329078
 30
0.0
 10
249.2620976056847
 20
128.8635723357988
 30
0.0
 10
249.3880749953582
 20
128.8760229807109
 30
0.0
 10
249.6558382097668
 20
128.8805515211189
 30
0.0
 10
249.7966801260014
 20
128.8721702487903
 30
0.0
 10
250.0754292462082
 20
128.8287890534983
 30
0.0
 10
250.2088484708865
 20
128.7942727503667
 30
0.0
 10
250.4454284974071
 20
128.7112506712599
 30
0.0
 10
250.5510671032679
 20
128.6624145267564
 30
0.0
 10
250.7357867115303
 20
128.5610571933101
 30
0.0
 10
250.8175011744916
 20
128.5072224729242
 30
0.0
 10
250.9624859519676
 20
128.3990213568542
 30
0.0
 10
251.026153933544
 20
128.3444557672044
 30
0.0
 10
251.1991688356916
 20
128.1803356285567
 30
0.0
 10
251.291215503117
 20
128.0697615439276
 30
0.0
 10
251.4440386674412
 20
127.8546700602159
 30
0.0
 10
251.5049328198184
 20
127.7497662211612
 30
0.0
 10
251.6551458527457
 20
127.444648258038
 30
0.0
 10
251.7130926638619
 20
127.2527985100846
 30
0.0
 10
251.7606445256523
 20
126.9162867010082
 30
0.0
 10
251.7509484214615
 20
126.7725465220453
 30
0.0
 10
251.6927404657908
 20
126.6763781288081
 30
0.0
  0
ELLIPSE
  5
19D
330
1F
100
AcDbEntity
  8
0
  6
HIDDEN
 62
     7
370
     0
100
AcDbEllipse
 10
250.3853064898
 20
131.8999479821
 30
0.0
 11
3.105839292631316
 21
2.305055007060077
 31
0.0
210
0.0
220
0.0
230
0.9999999999999998
 40
0.0904236958
 41
6.065479689651062
 42
9.207072343240657
  0
ELLIPSE
  5
19E
330
1F
100
AcDbEntity
  8
0
  6
HIDDEN
 62
     7
370
     0
100
AcDbEllipse
 10
246.5037878235
 20
120.0477943212
 30
0.0
 11
2.220506159017845
 21
3.668613800738158
 31
0.0
210
0.0
220
0.0
230
1.0
 40
0.9794128731
 41
0.0
 42
6.283185307179586
  0
LINE
  5
19F
330
1F
100
AcDbEntity
  8
0
  6
HIDDEN
 62
     7
370
     0
100
AcDbLine
 10
251.6927404658
 20
126.6763781288
 30
0.0
 11
251.2545744242
 21
125.9524612054
 31
0.0
  0
LINE
  5
1A0
330
1F
100
AcDbEntity
  8
0
  6
HIDDEN
 62
     7
370
     0
100
AcDbLine
 10
246.330358041
 20
126.7276276053
 30
0.0
 11
246.7685240826
 21
127.4515445288
 31
0.0
  0
ELLIPSE
  5
1A1
330
1F
100
AcDbEntity
  8
0
  6
HIDDEN
 62
     7
370
     0
100
AcDbEllipse
 10
248.5632919389
 20
123.4504082657
 30
0.0
 11
3.953222233227706
 21
-1.478682026362534
 31
0.0
210
0.0
220
0.0
230
1.0
 40
0.8454008504
 41
1.170661207113725
 42
2.445785048352136
  0
LWPOLYLINE
  5
1A2
330
1F
100
AcDbEntity
  8
0
  6
HIDDEN
 62
     7
370
     0
100
AcDbPolyline
 90
       34
 70
   128
 43
0.0
 10
249.4310899699
 20
120.7479499982
 10
250.2215908962
 20
120.8082688281
 10
250.9835210593
 20
121.0159003544
 10
251.689342318
 20
121.3633402326
 10
252.313544453
 20
121.8380310803
 10
252.8335671729
 20
122.4228163334
 10
253.2306155016
 20
123.0965603294
 10
253.490339078
 20
123.8349122047
 10
253.6033508154
 20
124.6111859988
 10
253.5655661751
 20
125.3973251542
 10
253.3783507924
 20
126.1649165536
 10
253.0484711192
 20
126.886217444
 10
252.5878498662
 20
127.5351581316
 10
252.0131350857
 20
128.0882842094
 10
251.3450984673
 20
128.5256042597
 10
250.6078845949
 20
128.8313123965
 10
249.8281382986
 20
128.9943595312
 10
249.0340416413
 20
129.0088527155
 10
248.254295345
 20
128.8742681279
 10
247.5170814726
 20
128.5954700063
 10
246.8490448542
 20
128.1825348409
 10
246.2743300737
 20
127.6503871847
 10
245.8137088207
 20
127.0182602404
 10
245.4838291475
 20
126.3090007228
 10
245.2966137648
 20
125.5482431187
 10
245.2588291245
 20
124.7634831902
 10
245.3718408619
 20
123.9830842058
 10
245.6315644383
 20
123.235251818
 10
246.028612767
 20
122.5470146377
 10
246.5486354868
 20
121.94324735
 10
247.1728376219
 20
121.4457716775
 10
247.8786588806
 20
121.0725676874
 10
248.6405890437
 20
120.8371239442
 10
249.4310899699
 20
120.7479499982
  0
LWPOLYLINE
  5
1A3
330
1F
100
AcDbEntity
  8
0
  6
HIDDEN
 62
     7
370
     0
100
AcDbPolyline
 90
        2
 70
   128
 43
0.0
 10
193.9963169627
 20
80.7829024133
 10
193.9963169627
 20
80.7829024133
  0
LINE
  5
1A4
330
1F
100
AcDbEntity
  8
0
  6
HIDDEN
 62
     7
370
     0
100
AcDbLine
 10
251.2545744242
 20
125.9524612054
 30
0.0
 11
251.6292787273
 21
130.6770709262
 31
0.0
  0
LINE
  5
1A5
330
1F
100
AcDbEntity
  8
0
  6
HIDDEN
 62
     7
370
     0
100
AcDbLine
 10
253.3348197575
 20
136.9988978642
 30
0.0
 11
253.0109709139
 21
136.4638503336
 31
0.0
  0
LINE
  5
1A6
330
1F
100
AcDbEntity
  8
0
  6
HIDDEN
 62
     7
370
     0
100
AcDbLine
 10
252.7543130106
 20
132.9193181319
 30
0.0
 11
253.3348197575
 21
136.9988978642
 31
0.0
  0
LINE
  5
1A7
330
1F
100
AcDbEntity
  8
0
  6
HIDDEN
 62
     7
370
     0
100
AcDbLine
 10
253.4628533881
 20
134.0899345686
 30
0.0
 11
252.7543130106
 21
132.9193181319
 31
0.0
  0
LINE
  5
1A8
330
1F
100
AcDbEntity
  8
0
  6
HIDDEN
 62
     7
370
     0
100
AcDbLine
 10
193.9963169627
 20
75.6987794304
 30
0.0
 11
193.9963169627
 21
80.7829024133
 31
0.0
  0
LINE
  5
1A9
330
1F
100
AcDbEntity
  8
0
  6
HIDDEN
 62
     7
370
     0
100
AcDbLine
 10
193.9963169627
 20
80.7829024133
 30
0.0
 11
201.9963169627
 21
80.7829024133
 31
0.0
  0
LWPOLYLINE
  5
1AA
330
1F
100
AcDbEntity
  8
0
  6
HIDDEN
 62
     7
370
     0
100
AcDbPolyline
 90
       26
 70
   128
 43
0.0
 10
219.0463169627
 20
103.4785246029
 10
219.6680416806
 20
103.4047191738
 10
220.2507011479
 20
103.1879403529
 10
220.7576847275
 20
102.8418091509
 10
221.1571367764
 20
102.3880742641
 10
221.4239582534
 20
101.8552455242
 10
221.5413837838
 20
101.2768025206
 10
221.5020350895
 20
100.6890909545
 10
221.3083845939
 20
100.129038905
 10
220.9726000696
 20
99.6318365023
 10
220.5157800934
 20
99.2287248017
 10
219.9666283444
 20
98.945032794
 10
219.3596500466
 20
98.7985858915
 10
218.7329838788
 20
98.7985858915
 10
218.126005581
 20
98.945032794
 10
217.576853832
 20
99.2287248017
 10
217.1200338557
 20
99.6318365023
 10
216.7842493315
 20
100.129038905
 10
216.5905988359
 20
100.6890909545
 10
216.5512501416
 20
101.2768025206
 10
216.6686756719
 20
101.8552455242
 10
216.9354971489
 20
102.3880742641
 10
217.3349491979
 20
102.8418091509
 10
217.8419327774
 20
103.1879403529
 10
218.4245922448
 20
103.4047191738
 10
219.0463169627
 20
103.4785246029
  0
ARC
  5
1AB
330
1F
100
AcDbEntity
  8
0
  6
HIDDEN
 62
     7
370
     0
100
AcDbCircle
 10
251.1779411919
 20
139.3254411706
 30
0.0
 40
3.172527210755402
100
AcDbArc
 50
312.832807747
 51
209.2751054724
  0
LINE
  5
1AC
330
1F
100
AcDbEntity
  8
0
  6
HIDDEN
 62
     7
370
     0
100
AcDbLine
 10
248.4106033742
 20
137.7740642642
 30
0.0
 11
247.2493948069
 21
129.6135338971
 31
0.0
  0
LINE
  5
1AD
330
1F
100
AcDbEntity
  8
0
  6
HIDDEN
 62
     7
370
     0
100
AcDbLine
 10
257.6043476
 20
149.2188466487
 30
0.0
 11
256.9471673836
 21
149.6193690008
 31
0.0
  0
LINE
  5
1AE
330
1F
100
AcDbEntity
  8
0
  6
HIDDEN
 62
     7
370
     0
100
AcDbLine
 10
244.9872823011
 20
142.50240748
 30
0.0
 11
244.4745880555
 21
132.8245306299
 31
0.0
  0
LINE
  5
1AF
330
1F
100
AcDbEntity
  8
0
  6
HIDDEN
 62
     7
370
     0
100
AcDbLine
 10
244.0375505307
 20
127.6847742352
 30
0.0
 11
247.2493948069
 21
129.6135338971
 31
0.0
  0
LINE
  5
1B0
330
1F
100
AcDbEntity
  8
0
  6
HIDDEN
 62
     7
370
     0
100
AcDbLine
 10
252.7543130106
 20
132.9193181319
 30
0.0
 11
256.8718502265
 21
135.3919597064
 31
0.0
  0
LINE
  5
1B1
330
1F
100
AcDbEntity
  8
0
  6
HIDDEN
 62
     7
370
     0
100
AcDbLine
 10
256.8718502265
 20
135.3919597064
 30
0.0
 11
257.6043414888
 21
149.218836626
 31
0.0
  0
LINE
  5
1B2
330
1F
100
AcDbEntity
  8
0
  6
HIDDEN
 62
     7
370
     0
100
AcDbLine
 10
247.2493948069
 20
129.6135338971
 30
0.0
 11
247.3077595915
 21
129.7099613955
 31
0.0
  0
LINE
  5
1B3
330
1F
100
AcDbEntity
  8
0
  6
HIDDEN
 62
     7
370
     0
100
AcDbLine
 10
163.2463169627
 20
125.1729024133
 30
0.0
 11
163.2463169627
 21
123.4704160357
 31
0.0
  0
LINE
  5
1B4
330
1F
100
AcDbEntity
  8
0
  6
HIDDEN
 62
     7
370
     0
100
AcDbLine
 10
167.2463169627
 20
89.1929024133
 30
0.0
 11
167.2463169627
 21
90.8953887909
 31
0.0
  0
LINE
  5
1B5
330
1F
100
AcDbEntity
  8
0
  6
HIDDEN
 62
     7
370
     0
100
AcDbLine
 10
163.2463169627
 20
125.1729024133
 30
0.0
 11
163.2463169627
 21
129.0270100857
 31
0.0
  0
LINE
  5
1B6
330
1F
100
AcDbEntity
  8
0
  6
HIDDEN
 62
     7
370
     0
100
AcDbLine
 10
167.2463169627
 20
89.1929024133
 30
0.0
 11
167.2463169627
 21
85.237754154
 31
0.0
  0
LWPOLYLINE
  5
1B7
330
1F
100
AcDbEntity
  8
0
  6
HIDDEN
 62
     7
370
     0
100
AcDbPolyline
 90
        2
 70
   128
 43
0.0
 10
214.9963169627
 20
133.5829024133
 10
214.9963169627
 20
133.5829024133
  0
LWPOLYLINE
  5
1B8
330
1F
100
AcDbEntity
  8
0
  6
HIDDEN
 62
     7
370
     0
100
AcDbPolyline
 90
        2
 70
   128
 43
0.0
 10
214.9963169627
 20
80.7829024133
 10
214.9963169627
 20
80.7829024133
  0
SPLINE
  5
1B9
330
1F
100
AcDbEntity
  8
0
  6
HIDDEN
 62
     7
370
     0
100
AcDbSpline
210
0.0
220
0.0
230
1.0
 70
     8
 71
     3
 72
    10
 73
     6
 74
     0
 42
0.00000001
 43
0.00000001
 40
0.0
 40
0.0
 40
0.0
 40
0.0
 40
0.5
 40
0.5
 40
1.0
 40
1.0
 40
1.0
 40
1.0
 10
253.0109709138623
 20
136.4638503336331
 30
0.0
 10
252.9663184059874
 20
136.3900776012487
 30
0.0
 10
252.8854928869175
 20
136.2829757419769
 30
0.0
 10
252.6878499699201
 20
136.0455668749457
 30
0.0
 10
252.5695041429832
 20
135.9139855125441
 30
0.0
 10
252.433347898097
 20
135.777912632304
 30
0.0
  0
ARC
  5
1BA
330
1F
100
AcDbEntity
  8
0
  6
HIDDEN
 62
     7
370
     0
100
AcDbCircle
 10
250.5984467891
 20
138.3670630941
 30
0.0
 40
3.173414910414273
100
AcDbArc
 50
305.324761146
 51
216.7831520734
  0
SPLINE
  5
1BB
330
1F
100
AcDbEntity
  8
0
  6
HIDDEN
 62
     7
370
     0
100
AcDbSpline
210
0.0
220
0.0
230
1.0
 70
     8
 71
     3
 72
    10
 73
     6
 74
     0
 42
0.00000001
 43
0.00000001
 40
0.0
 40
0.0
 40
0.0
 40
0.0
 40
0.5
 40
0.5
 40
1.0
 40
1.0
 40
1.0
 40
1.0
 10
248.0568350492617
 20
136.4668599581939
 30
0.0
 10
248.0284957070987
 20
136.6288487564193
 30
0.0
 10
248.016403999911
 20
136.7809727050801
 30
0.0
 10
248.0236829921836
 20
137.0483420027807
 30
0.0
 10
248.0420495696341
 20
137.1651573406705
 30
0.0
 10
248.0867545306239
 20
137.2390167335764
 30
0.0
  0
LINE
  5
1BC
330
1F
100
AcDbEntity
  8
0
  6
HIDDEN
 62
     7
370
     0
100
AcDbLine
 10
248.0867545306
 20
137.2390167336
 30
0.0
 11
248.4106033742
 21
137.7740642642
 31
0.0
  0
LINE
  5
1BD
330
1F
100
AcDbEntity
  8
0
  6
HIDDEN
 62
     7
370
     0
100
AcDbLine
 10
158.2963169627
 20
125.1729024133
 30
0.0
 11
158.2963169627
 21
122.9843928493
 31
0.0
  0
LINE
  5
1BE
330
1F
100
AcDbEntity
  8
0
  6
HIDDEN
 62
     7
370
     0
100
AcDbLine
 10
158.2963169627
 20
125.1729024133
 30
0.0
 11
158.2963169627
 21
128.0528401787
 31
0.0
  0
SPLINE
  5
1BF
330
1F
100
AcDbEntity
  8
0
  6
HIDDEN
 62
     7
370
     0
100
AcDbSpline
210
0.0
220
0.0
230
1.0
 70
     8
 71
     3
 72
    10
 73
     6
 74
     0
 42
0.00000001
 43
0.00000001
 40
0.0
 40
0.0
 40
0.0
 40
0.0
 40
0.5
 40
0.5
 40
1.0
 40
1.0
 40
1.0
 40
1.0
 10
158.2862720322679
 20
128.0428563055802
 30
0.0
 10
158.2187127773497
 20
127.9751649127704
 30
0.0
 10
158.1550761220132
 20
127.9004577480168
 30
0.0
 10
158.0448553674413
 20
127.7414916155902
 30
0.0
 10
157.9980390742188
 20
127.6571363495822
 30
0.0
 10
157.9704706087907
 20
127.5730217468904
 30
0.0
  0
LINE
  5
1C0
330
1F
100
AcDbEntity
  8
0
  6
HIDDEN
 62
     7
370
     0
100
AcDbLine
 10
157.1463169627
 20
125.1729024133
 30
0.0
 11
157.1463169627
 21
126.8735801598
 31
0.0
  0
SPLINE
  5
1C1
330
1F
100
AcDbEntity
  8
0
  6
HIDDEN
 62
     7
370
     0
100
AcDbSpline
210
0.0
220
0.0
230
1.0
 70
     8
 71
     3
 72
    10
 73
     6
 74
     0
 42
0.00000001
 43
0.00000001
 40
0.0
 40
0.0
 40
0.0
 40
0.0
 40
0.5
 40
0.5
 40
1.0
 40
1.0
 40
1.0
 40
1.0
 10
157.2089803374096
 20
126.8574549580733
 30
0.0
 10
157.2000760483008
 20
126.9031964772865
 30
0.0
 10
157.1835606681078
 20
126.9203873167555
 30
0.0
 10
157.1564527220462
 20
126.9200640398198
 30
0.0
 10
157.1463169626862
 20
126.9021864975233
 30
0.0
 10
157.1463169626862
 20
126.8735801597707
 30
0.0
  0
ELLIPSE
  5
1C2
330
1F
100
AcDbEntity
  8
0
  6
HIDDEN
 62
     7
370
     0
100
AcDbEllipse
 10
152.9788850984
 20
107.1829024133
 30
0.0
 11
20.07002071827051
 21
0.0
 31
0.0
210
0.0
220
0.0
230
1.0
 40
0.8164965809
 41
1.302650465081199
 42
1.361629843993898
  0
LINE
  5
1C3
330
1F
100
AcDbEntity
  8
0
  6
HIDDEN
 62
     7
370
     0
100
AcDbLine
 10
157.1463169627
 20
125.1729024133
 30
0.0
 11
157.1463169627
 21
123.2128378111
 31
0.0
  0
LINE
  5
1C4
330
1F
100
AcDbEntity
  8
0
  6
HIDDEN
 62
     7
370
     0
100
AcDbLine
 10
158.2963169627
 20
89.1929024133
 30
0.0
 11
158.2963169627
 21
86.3762708548
 31
0.0
  0
ELLIPSE
  5
1C5
330
1F
100
AcDbEntity
  8
0
  6
HIDDEN
 62
     7
370
     0
100
AcDbEllipse
 10
152.9788850984
 20
107.1829024133
 30
0.0
 11
20.07002071827054
 21
-1.421085471520200E-14
 31
0.0
210
0.0
220
0.0
230
1.0
 40
0.8164965809
 41
4.921555463185705
 42
4.980534842098403
  0
LINE
  5
1C6
330
1F
100
AcDbEntity
  8
0
  6
HIDDEN
 62
     7
370
     0
100
AcDbLine
 10
157.1463169627
 20
123.2128378111
 30
0.0
 11
157.1463169627
 21
91.1529670155
 31
0.0
  0
SPLINE
  5
1C7
330
1F
100
AcDbEntity
  8
0
  6
HIDDEN
 62
     7
370
     0
100
AcDbSpline
210
0.0
220
0.0
230
1.0
 70
     8
 71
     3
 72
     8
 73
     4
 74
     0
 42
0.00000001
 43
0.00000001
 40
0.0
 40
0.0
 40
0.0
 40
0.0
 40
1.0
 40
1.0
 40
1.0
 40
1.0
 10
158.0852265328853
 20
86.73898011032695
 30
0.0
 10
158.1209401912552
 20
86.61574860506715
 30
0.0
 10
158.1966082302035
 20
86.49480502812015
 30
0.0
 10
158.2862720322766
 20
86.3880859844169
 30
0.0
  0
SPLINE
  5
1C8
330
1F
100
AcDbEntity
  8
0
  6
HIDDEN
 62
     7
370
     0
100
AcDbSpline
210
0.0
220
0.0
230
1.0
 70
     8
 71
     3
 72
    10
 73
     6
 74
     0
 42
0.00000001
 43
0.00000001
 40
0.0
 40
0.0
 40
0.0
 40
0.0
 40
0.5
 40
0.5
 40
1.0
 40
1.0
 40
1.0
 40
1.0
 10
157.1463169626857
 20
87.52974188833963
 30
0.0
 10
157.1463169626857
 20
87.51622536247187
 30
0.0
 10
157.151636523314
 20
87.51205459011457
 30
0.0
 10
157.1647647555956
 20
87.53018563350216
 30
0.0
 10
157.1724574102496
 20
87.5530940585641
 30
0.0
 10
157.1765945782948
 20
87.59281485306568
 30
0.0
  0
LINE
  5
1C9
330
1F
100
AcDbEntity
  8
0
  6
HIDDEN
 62
     7
370
     0
100
AcDbLine
 10
157.1463169627
 20
89.1929024133
 30
0.0
 11
157.1463169627
 21
87.5297418883
 31
0.0
  0
LINE
  5
1CA
330
1F
100
AcDbEntity
  8
0
  6
HIDDEN
 62
     7
370
     0
100
AcDbLine
 10
158.2963169627
 20
89.1929024133
 30
0.0
 11
158.2963169627
 21
91.3814119773
 31
0.0
  0
LINE
  5
1CB
330
1F
100
AcDbEntity
  8
0
  6
HIDDEN
 62
     7
370
     0
100
AcDbLine
 10
157.1463169627
 20
89.1929024133
 30
0.0
 11
157.1463169627
 21
91.1529670155
 31
0.0
  0
SPLINE
  5
1CC
330
1F
100
AcDbEntity
  8
0
  6
HIDDEN
 62
     7
370
     0
100
AcDbSpline
210
0.0
220
0.0
230
1.0
 70
     8
 71
     3
 72
    10
 73
     6
 74
     0
 42
0.00000001
 43
0.00000001
 40
0.0
 40
0.0
 40
0.0
 40
0.0
 40
0.5
 40
0.5
 40
1.0
 40
1.0
 40
1.0
 40
1.0
 10
205.1363169626862
 20
134.3025562643284
 30
0.0
 10
205.1363169626862
 20
134.1589439127703
 30
0.0
 10
205.172484237784
 20
134.0159704990517
 30
0.0
 10
205.308240181538
 20
133.765977872338
 30
0.0
 10
205.4085098721608
 20
133.6579755630592
 30
0.0
 10
205.5306144943772
 20
133.5829024132925
 30
0.0
  0
LINE
  5
1CD
330
1F
100
AcDbEntity
  8
0
  6
HIDDEN
 62
     7
370
     0
100
AcDbLine
 10
205.1363169627
 20
134.3025562643
 30
0.0
 11
205.1363169627
 21
80.378506785
 31
0.0
  0
SPLINE
  5
1CE
330
1F
100
AcDbEntity
  8
0
  6
HIDDEN
 62
     7
370
     0
100
AcDbSpline
210
0.0
220
0.0
230
1.0
 70
     8
 71
     3
 72
    10
 73
     6
 74
     0
 42
0.00000001
 43
0.00000001
 40
0.0
 40
0.0
 40
0.0
 40
0.0
 40
0.5
 40
0.5
 40
1.0
 40
1.0
 40
1.0
 40
1.0
 10
205.1363169626862
 20
80.37850678496322
 30
0.0
 10
205.1363169626862
 20
80.44874314533375
 30
0.0
 10
205.1445995747766
 20
80.518737246831
 30
0.0
 10
205.177699517835
 20
80.65569651138945
 30
0.0
 10
205.2020369097933
 20
80.72100442064455
 30
0.0
 10
205.2339917650178
 20
80.78290241329127
 30
0.0
  0
SPLINE
  5
1CF
330
1F
100
AcDbEntity
  8
0
  6
HIDDEN
 62
     7
370
     0
100
AcDbSpline
210
0.0
220
0.0
230
1.0
 70
    24
 71
     3
 72
    12
 73
     8
 74
     0
 42
0.00000001
 43
0.00000001
 40
0.0
 40
0.0
 40
0.0
 40
0.0
 40
0.5000000000000058
 40
0.5000000000000058
 40
0.7500000000000029
 40
0.7500000000000029
 40
1.0
 40
1.0
 40
1.0
 40
1.0
 10
205.5306144943771
 20
133.5829024132926
 30
0.0
 10
205.5737378428107
 20
133.5829024132926
 30
0.0
 10
205.6234774301109
 20
133.5829024132926
 30
0.0
 10
205.7199984069329
 20
133.5829024132926
 30
0.0
 10
205.7555635377846
 20
133.5829024132926
 30
0.0
 10
205.8389118684075
 20
133.5829024132926
 30
0.0
 10
205.8873817680978
 20
133.5829024132926
 30
0.0
 10
205.9363169626874
 20
133.5829024132926
 30
0.0
  0
SPLINE
  5
1D0
330
1F
100
AcDbEntity
  8
0
  6
HIDDEN
 62
     7
370
     0
100
AcDbSpline
210
0.0
220
0.0
230
1.0
 70
    24
 71
     3
 72
    14
 73
    10
 74
     0
 42
0.00000001
 43
0.00000001
 40
0.0
 40
0.0
 40
0.0
 40
0.0
 40
0.5000000000000007
 40
0.5000000000000007
 40
0.7500000000000021
 40
0.7500000000000021
 40
0.875000000000001
 40
0.875000000000001
 40
1.0
 40
1.0
 40
1.0
 40
1.0
 10
205.2339917650183
 20
80.78290241329256
 30
0.0
 10
205.2811982528582
 20
80.78290241329256
 30
0.0
 10
205.3445382562875
 20
80.78290241329256
 30
0.0
 10
205.4876013625434
 20
80.78290241329255
 30
0.0
 10
205.5436820128144
 20
80.78290241329256
 30
0.0
 10
205.6551173627237
 20
80.78290241329256
 30
0.0
 10
205.6970621533967
 20
80.78290241329256
 30
0.0
 10
205.8020585964169
 20
80.78290241329256
 30
0.0
 10
205.8676225334976
 20
80.78290241329256
 30
0.0
 10
205.936316962686
 20
80.78290241329256
 30
0.0
  0
LINE
  5
1D1
330
1F
100
AcDbEntity
  8
0
  6
HIDDEN
 62
     7
370
     0
100
AcDbLine
 10
208.9563169627
 20
134.3025562643
 30
0.0
 11
208.9563169627
 21
80.378506785
 31
0.0
  0
SPLINE
  5
1D2
330
1F
100
AcDbEntity
  8
0
  6
HIDDEN
 62
     7
370
     0
100
AcDbSpline
210
0.0
220
0.0
230
1.0
 70
     8
 71
     3
 72
    10
 73
     6
 74
     0
 42
0.00000001
 43
0.00000001
 40
0.0
 40
0.0
 40
0.0
 40
0.0
 40
0.5
 40
0.5
 40
1.0
 40
1.0
 40
1.0
 40
1.0
 10
208.5620194309952
 20
133.5829024132926
 30
0.0
 10
208.683331954093
 20
133.6574885595808
 30
0.0
 10
208.7847603163181
 20
133.7663128707322
 30
0.0
 10
208.9207038825782
 20
134.0173333893538
 30
0.0
 10
208.9563169626862
 20
134.1599160824931
 30
0.0
 10
208.9563169626862
 20
134.3025562643284
 30
0.0
  0
SPLINE
  5
1D3
330
1F
100
AcDbEntity
  8
0
  6
HIDDEN
 62
     7
370
     0
100
AcDbSpline
210
0.0
220
0.0
230
1.0
 70
     8
 71
     3
 72
    10
 73
     6
 74
     0
 42
0.00000001
 43
0.00000001
 40
0.0
 40
0.0
 40
0.0
 40
0.0
 40
0.5
 40
0.5
 40
1.0
 40
1.0
 40
1.0
 40
1.0
 10
208.8586421603539
 20
80.78290241329255
 30
0.0
 10
208.8907973479759
 20
80.72061636777642
 30
0.0
 10
208.9154535791701
 20
80.65408594290719
 30
0.0
 10
208.9482663360956
 20
80.51722731254468
 30
0.0
 10
208.9563169626862
 20
80.44816971736631
 30
0.0
 10
208.9563169626862
 20
80.37850678496298
 30
0.0
  0
SPLINE
  5
1D4
330
1F
100
AcDbEntity
  8
0
  6
HIDDEN
 62
     7
370
     0
100
AcDbSpline
210
0.0
220
0.0
230
1.0
 70
    24
 71
     3
 72
    12
 73
     8
 74
     0
 42
0.00000001
 43
0.00000001
 40
0.0
 40
0.0
 40
0.0
 40
0.0
 40
0.25
 40
0.25
 40
0.5
 40
0.5
 40
1.0
 40
1.0
 40
1.0
 40
1.0
 10
208.1563169626862
 20
133.5829024132926
 30
0.0
 10
208.2058520689042
 20
133.5829024132925
 30
0.0
 10
208.2542569575056
 20
133.5829024132926
 30
0.0
 10
208.3371435066833
 20
133.5829024132926
 30
0.0
 10
208.3736582281516
 20
133.5829024132926
 30
0.0
 10
208.4699910665063
 20
133.5829024132926
 30
0.0
 10
208.5187436141689
 20
133.5829024132926
 30
0.0
 10
208.5620194309996
 20
133.5829024132926
 30
0.0
  0
SPLINE
  5
1D5
330
1F
100
AcDbEntity
  8
0
  6
HIDDEN
 62
     7
370
     0
100
AcDbSpline
210
0.0
220
0.0
230
1.0
 70
    24
 71
     3
 72
    14
 73
    10
 74
     0
 42
0.00000001
 43
0.00000001
 40
0.0
 40
0.0
 40
0.0
 40
0.0
 40
0.1250000000000017
 40
0.1250000000000017
 40
0.2500000000000034
 40
0.2500000000000034
 40
0.5000000000000032
 40
0.5000000000000032
 40
1.0
 40
1.0
 40
1.0
 40
1.0
 10
208.1563169626862
 20
80.78290241329256
 30
0.0
 10
208.2254135950302
 20
80.78290241329256
 30
0.0
 10
208.2904067606381
 20
80.78290241329256
 30
0.0
 10
208.3947279592832
 20
80.78290241329256
 30
0.0
 10
208.4375083333917
 20
80.78290241329256
 30
0.0
 10
208.5498459930379
 20
80.78290241329256
 30
0.0
 10
208.6048931751803
 20
80.78290241329255
 30
0.0
 10
208.7487699489504
 20
80.78290241329256
 30
0.0
 10
208.8117992622255
 20
80.78290241329256
 30
0.0
 10
208.8586421603539
 20
80.78290241329256
 30
0.0
  0
LINE
  5
1D6
330
1F
100
AcDbEntity
  8
0
  6
HIDDEN
 62
     7
370
     0
100
AcDbLine
 10
205.9363169627
 20
133.5829024133
 30
0.0
 11
208.1563169627
 21
133.5829024133
 31
0.0
  0
LINE
  5
1D7
330
1F
100
AcDbEntity
  8
0
  6
HIDDEN
 62
     7
370
     0
100
AcDbLine
 10
205.9363169627
 20
80.7829024133
 30
0.0
 11
208.1563169627
 21
80.7829024133
 31
0.0
  0
LINE
  5
1D8
330
1F
100
AcDbEntity
  8
0
  6
HIDDEN
 62
     7
370
     0
100
AcDbLine
 10
205.1363169627
 20
134.9881366045
 30
0.0
 11
205.1363169627
 21
134.3025562643
 31
0.0
  0
SPLINE
  5
1D9
330
1F
100
AcDbEntity
  8
0
  6
HIDDEN
 62
     7
370
     0
100
AcDbSpline
210
0.0
220
0.0
230
1.0
 70
     8
 71
     3
 72
     8
 73
     4
 74
     0
 42
0.00000001
 43
0.00000001
 40
0.0
 40
0.0
 40
0.0
 40
0.0
 40
1.0
 40
1.0
 40
1.0
 40
1.0
 10
203.6543841311971
 20
137.6500978864568
 30
0.0
 10
204.1495241605614
 20
136.7634182382765
 30
0.0
 10
204.6436068658404
 20
135.8761556025905
 30
0.0
 10
205.1363169626862
 20
134.9881366044642
 30
0.0
  0
LINE
  5
1DA
330
1F
100
AcDbEntity
  8
0
  6
HIDDEN
 62
     7
370
     0
100
AcDbLine
 10
201.9963169627
 20
133.5829024133
 30
0.0
 11
205.5306144944
 21
133.5829024133
 31
0.0
  0
SPLINE
  5
1DB
330
1F
100
AcDbEntity
  8
0
  6
HIDDEN
 62
     7
370
     0
100
AcDbSpline
210
0.0
220
0.0
230
1.0
 70
     8
 71
     3
 72
    12
 73
     8
 74
     0
 42
0.00000001
 43
0.00000001
 40
0.0
 40
0.0
 40
0.0
 40
0.0
 40
0.2499999999999961
 40
0.2499999999999961
 40
0.4999999999999922
 40
0.4999999999999922
 40
1.0
 40
1.0
 40
1.0
 40
1.0
 10
214.3963169626862
 20
137.6500978864568
 30
0.0
 10
214.4758099117344
 20
137.6500978864568
 30
0.0
 10
214.55689341309
 20
137.633095136496
 30
0.0
 10
214.7033238102278
 20
137.5690345953843
 30
0.0
 10
214.7698724201015
 20
137.5218759797457
 30
0.0
 10
214.9341622940752
 20
137.3486539470535
 30
0.0
 10
214.9963169626863
 20
137.1885448568192
 30
0.0
 10
214.9963169626862
 20
137.0293427370559
 30
0.0
  0
SPLINE
  5
1DC
330
1F
100
AcDbEntity
  8
0
  6
HIDDEN
 62
     7
370
     0
100
AcDbSpline
210
0.0
220
0.0
230
1.0
 70
     8
 71
     3
 72
    12
 73
     8
 74
     0
 42
0.00000001
 43
0.00000001
 40
0.0
 40
0.0
 40
0.0
 40
0.0
 40
0.2499999999999999
 40
0.2499999999999999
 40
0.4999999999999998
 40
0.4999999999999998
 40
1.0
 40
1.0
 40
1.0
 40
1.0
 10
214.3963169626862
 20
76.99598471704542
 30
0.0
 10
214.4761979674333
 20
76.9959847170454
 30
0.0
 10
214.5567920977039
 20
77.01310180331126
 30
0.0
 10
214.7034075435488
 20
77.07783791478637
 30
0.0
 10
214.7699087362928
 20
77.1252951576667
 30
0.0
 10
214.93564363743
 20
77.30211960020618
 30
0.0
 10
214.9963169626862
 20
77.46239610741189
 30
0.0
 10
214.9963169626862
 20
77.62262501269966
 30
0.0
  0
LINE
  5
1DD
330
1F
100
AcDbEntity
  8
0
  6
HIDDEN
 62
     7
370
     0
100
AcDbLine
 10
214.9963169627
 20
137.0293427371
 30
0.0
 11
214.9963169627
 21
77.6226250127
 31
0.0
  0
LINE
  5
1DE
330
1F
100
AcDbEntity
  8
0
  6
HIDDEN
 62
     7
370
     0
100
AcDbLine
 10
208.9563169627
 20
134.3025562643
 30
0.0
 11
208.9563169627
 21
134.9881366045
 31
0.0
  0
SPLINE
  5
1DF
330
1F
100
AcDbEntity
  8
0
  6
HIDDEN
 62
     7
370
     0
100
AcDbSpline
210
0.0
220
0.0
230
1.0
 70
     8
 71
     3
 72
     8
 73
     4
 74
     0
 42
0.00000001
 43
0.00000001
 40
0.0
 40
0.0
 40
0.0
 40
0.0
 40
1.0
 40
1.0
 40
1.0
 40
1.0
 10
208.9563169626862
 20
134.9881366044642
 30
0.0
 10
209.4490270595319
 20
135.8761556025906
 30
0.0
 10
209.9431097648109
 20
136.7634182382765
 30
0.0
 10
210.4382497941752
 20
137.6500978864568
 30
0.0
  0
LINE
  5
1E0
330
1F
100
AcDbEntity
  8
0
  6
HIDDEN
 62
     7
370
     0
100
AcDbLine
 10
210.4382497942
 20
137.6500978865
 30
0.0
 11
214.3963169627
 21
137.6500978865
 31
0.0
  0
LINE
  5
1E1
330
1F
100
AcDbEntity
  8
0
  6
HIDDEN
 62
     7
370
     0
100
AcDbLine
 10
214.9963169627
 20
137.0293427371
 30
0.0
 11
214.9963169627
 21
133.5829024133
 31
0.0
  0
LINE
  5
1E2
330
1F
100
AcDbEntity
  8
0
  6
HIDDEN
 62
     7
370
     0
100
AcDbLine
 10
208.562019431
 20
133.5829024133
 30
0.0
 11
214.9963169627
 21
133.5829024133
 31
0.0
  0
LINE
  5
1E3
330
1F
100
AcDbEntity
  8
0
  6
HIDDEN
 62
     7
370
     0
100
AcDbLine
 10
205.1363169627
 20
134.9881366045
 30
0.0
 11
205.1363169627
 21
79.6850652542
 31
0.0
  0
LINE
  5
1E4
330
1F
100
AcDbEntity
  8
0
  6
HIDDEN
 62
     7
370
     0
100
AcDbLine
 10
208.9563169627
 20
134.9881366045
 30
0.0
 11
208.9563169627
 21
79.6850652542
 31
0.0
  0
LINE
  5
1E5
330
1F
100
AcDbEntity
  8
0
  6
HIDDEN
 62
     7
370
     0
100
AcDbLine
 10
210.4382497942
 20
137.6500978865
 30
0.0
 11
210.4382497942
 21
76.995984717
 31
0.0
  0
SPLINE
  5
1E6
330
1F
100
AcDbEntity
  8
0
  6
HIDDEN
 62
     7
370
     0
100
AcDbSpline
210
0.0
220
0.0
230
1.0
 70
     8
 71
     3
 72
    32
 73
    28
 74
     0
 42
0.00000001
 43
0.00000001
 40
0.0
 40
0.0
 40
0.0
 40
0.0
 40
0.0312417979875585
 40
0.0624501748954326
 40
0.0936327448560696
 40
0.1247971409175003
 40
0.1559510094861866
 40
0.1871020047209109
 40
0.2182577828981649
 40
0.2494259967697404
 40
0.2806142899332955
 40
0.3118302912365545
 40
0.3430816092355098
 40
0.3743758267265447
 40
0.4057204953717563
 40
0.4371231304359927
 40
0.4685912056531837
 40
0.5001321482384876
 40
0.556136950274127
 40
0.611926571620835
 40
0.6675430781438818
 40
0.7230289294440855
 40
0.7784268855440135
 40
0.8337799101628355
 40
0.8891310716476263
 40
0.9445234426912991
 40
1.0
 40
1.0
 40
1.0
 40
1.0
 10
255.1723126519889
 20
138.7021126122725
 30
0.0
 10
255.1978164249349
 20
138.8555038736706
 30
0.0
 10
255.24879668803
 20
139.1621223053482
 30
0.0
 10
255.3254273405942
 20
139.6124317391668
 30
0.0
 10
255.4021139998044
 20
140.0553261432222
 30
0.0
 10
255.4788719341616
 20
140.4901401123913
 30
0.0
 10
255.5556970397328
 20
140.9170516311134
 30
0.0
 10
255.6325903977977
 20
141.336012940504
 30
0.0
 10
255.7095517010945
 20
141.7470367355155
 30
0.0
 10
255.7865810142576
 20
142.1501195249806
 30
0.0
 10
255.8636783024062
 20
142.5452621631127
 30
0.0
 10
255.9408435571823
 20
142.9324643469563
 30
0.0
 10
256.0180767644674
 20
143.3117260946628
 30
0.0
 10
256.0953779078058
 20
143.6830473387064
 30
0.0
 10
256.1727469874493
 20
144.0464280747164
 30
0.0
 10
256.2501839409243
 20
144.4018681737235
 30
0.0
 10
256.3276889428703
 20
144.749367986188
 30
0.0
 10
256.425249552999
 20
145.176420951053
 30
0.0
 10
256.5424808810679
 20
145.6723177126766
 30
0.0
 10
256.6788901890624
 20
146.2231967252292
 30
0.0
 10
256.8142606786159
 20
146.7435387040067
 30
0.0
 10
256.9485921622591
 20
147.2333536707228
 30
0.0
 10
257.0818822176298
 20
147.6925866463436
 30
0.0
 10
257.2141392338398
 20
148.1214396770913
 30
0.0
 10
257.345330612788
 20
148.5191533722569
 30
0.0
 10
257.4755769970923
 20
148.8885602267656
 30
0.0
 10
257.5613892119262
 20
149.1086738118988
 30
0.0
 10
257.6043278993003
 20
149.2188141740502
 30
0.0
  0
SPLINE
  5
1E7
330
1F
100
AcDbEntity
  8
0
  6
HIDDEN
 62
     7
370
     0
100
AcDbSpline
210
0.0
220
0.0
230
1.0
 70
     8
 71
     3
 72
    26
 73
    22
 74
     0
 42
0.00000001
 43
0.00000001
 40
0.0
 40
0.0
 40
0.0
 40
0.0
 40
0.2500000000000019
 40
0.2500000000000019
 40
0.3750000000000037
 40
0.3750000000000037
 40
0.4375000000000063
 40
0.4375000000000063
 40
0.4687500000000072
 40
0.4687500000000072
 40
0.500000000000008
 40
0.500000000000008
 40
0.5312500000000089
 40
0.5312500000000089
 40
0.5625000000000098
 40
0.5625000000000098
 40
0.6250000000000081
 40
0.6250000000000081
 40
0.7500000000000044
 40
0.7500000000000044
 40
1.0
 40
1.0
 40
1.0
 40
1.0
 10
157.9704706087907
 20
127.5730217468904
 30
0.0
 10
157.9318700859222
 20
127.4552470505349
 30
0.0
 10
157.8855730833679
 20
127.330857364373
 30
0.0
 10
157.791633734934
 20
127.1256380320195
 30
0.0
 10
157.7563222680206
 20
127.0540651655731
 30
0.0
 10
157.6901422922749
 20
126.9381119329726
 30
0.0
 10
157.6656039256066
 20
126.8975273981624
 30
0.0
 10
157.6222311800528
 20
126.8333857162907
 30
0.0
 10
157.6067227786276
 20
126.8115192910056
 30
0.0
 10
157.5716801340406
 20
126.7659250226624
 30
0.0
 10
157.5521298433208
 20
126.742254731695
 30
0.0
 10
157.5102025629503
 20
126.6976381723551
 30
0.0
 10
157.4875504527186
 20
126.6767581598372
 30
0.0
 10
157.446576738632
 20
126.6458847460864
 30
0.0
 10
157.4289774387366
 20
126.636045876254
 30
0.0
 10
157.3843504528805
 20
126.6170562605578
 30
0.0
 10
157.3637912302272
 20
126.6167319359044
 30
0.0
 10
157.3126657907305
 20
126.6259553767806
 30
0.0
 10
157.2917543777419
 20
126.6472022729975
 30
0.0
 10
157.240304470181
 20
126.7211711518283
 30
0.0
 10
157.2226391708764
 20
126.787289245143
 30
0.0
 10
157.2089803374096
 20
126.8574549580733
 30
0.0
  0
SPLINE
  5
1E8
330
1F
100
AcDbEntity
  8
0
  6
HIDDEN
 62
     7
370
     0
100
AcDbSpline
210
0.0
220
0.0
230
1.0
 70
     8
 71
     3
 72
    26
 73
    22
 74
     0
 42
0.00000001
 43
0.00000001
 40
0.0
 40
0.0
 40
0.0
 40
0.0
 40
0.2500000000000106
 40
0.2500000000000106
 40
0.375000000000016
 40
0.375000000000016
 40
0.4375000000000174
 40
0.4375000000000174
 40
0.4687500000000183
 40
0.4687500000000183
 40
0.5000000000000192
 40
0.5000000000000192
 40
0.5312500000000202
 40
0.5312500000000202
 40
0.5625000000000211
 40
0.5625000000000211
 40
0.6250000000000181
 40
0.6250000000000181
 40
0.750000000000012
 40
0.750000000000012
 40
1.0
 40
1.0
 40
1.0
 40
1.0
 10
157.1765945782948
 20
87.59281485306569
 30
0.0
 10
157.1873186116873
 20
87.69577589355468
 30
0.0
 10
157.2020516022819
 20
87.79477458303575
 30
0.0
 10
157.2544051615289
 20
87.91337026310087
 30
0.0
 10
157.2761104442485
 20
87.94908056304968
 30
0.0
 10
157.334965951614
 20
87.9740599958714
 30
0.0
 10
157.3584281854612
 20
87.97844544363495
 30
0.0
 10
157.4145495621217
 20
87.95869261019077
 30
0.0
 10
157.4373368722524
 20
87.94703621938035
 30
0.0
 10
157.4925894247836
 20
87.90525586994308
 30
0.0
 10
157.5239956575244
 20
87.87498428256707
 30
0.0
 10
157.5789294781448
 20
87.81334188365308
 30
0.0
 10
157.6033532963444
 20
87.78190023134626
 30
0.0
 10
157.6467684023315
 20
87.7221653939325
 30
0.0
 10
157.6663429648998
 20
87.69300038405987
 30
0.0
 10
157.7199756488478
 20
87.6091651083268
 30
0.0
 10
157.7497529969
 20
87.5571324903506
 30
0.0
 10
157.8312870568728
 20
87.40606681638326
 30
0.0
 10
157.8745298515468
 20
87.31287577451253
 30
0.0
 10
157.9875844412015
 20
87.04848923551818
 30
0.0
 10
158.0415954386806
 20
86.88953106646835
 30
0.0
 10
158.0852265328847
 20
86.7389801103275
 30
0.0
  0
LINE
  5
1E9
330
1F
100
AcDbEntity
  8
0
  6
HIDDEN
 62
     7
370
     0
100
AcDbLine
 10
157.1463169627
 20
126.8735801598
 30
0.0
 11
157.1463169627
 21
87.5297418883
 31
0.0
  0
SPLINE
  5
1EA
330
1F
100
AcDbEntity
  8
0
  6
HIDDEN
 62
     7
370
     0
100
AcDbSpline
210
0.0
220
0.0
230
1.0
 70
     8
 71
     3
 72
     8
 73
     4
 74
     0
 42
0.00000001
 43
0.00000001
 40
0.0
 40
0.0
 40
0.0
 40
0.0
 40
1.0
 40
1.0
 40
1.0
 40
1.0
 10
208.9563169626862
 20
79.68506525423768
 30
0.0
 10
209.4486560854673
 20
78.78779522003099
 30
0.0
 10
209.9427701335095
 20
77.89151080497875
 30
0.0
 10
210.4382497941752
 20
76.9959847170454
 30
0.0
  0
LINE
  5
1EB
330
1F
100
AcDbEntity
  8
0
  6
HIDDEN
 62
     7
370
     0
100
AcDbLine
 10
208.9563169627
 20
80.378506785
 30
0.0
 11
208.9563169627
 21
79.6850652542
 31
0.0
  0
LINE
  5
1EC
330
1F
100
AcDbEntity
  8
0
  6
HIDDEN
 62
     7
370
     0
100
AcDbLine
 10
210.4382497942
 20
76.995984717
 30
0.0
 11
214.3963169627
 21
76.995984717
 31
0.0
  0
LINE
  5
1ED
330
1F
100
AcDbEntity
  8
0
  6
HIDDEN
 62
     7
370
     0
100
AcDbLine
 10
214.9963169627
 20
77.6226250127
 30
0.0
 11
214.9963169627
 21
80.7829024133
 31
0.0
  0
LINE
  5
1EE
330
1F
100
AcDbEntity
  8
0
  6
HIDDEN
 62
     7
370
     0
100
AcDbLine
 10
208.8586421604
 20
80.7829024133
 30
0.0
 11
214.9963169627
 21
80.7829024133
 31
0.0
  0
LINE
  5
1EF
330
1F
100
AcDbEntity
  8
0
  6
HIDDEN
 62
     7
370
     0
100
AcDbLine
 10
205.1363169627
 20
79.6850652542
 30
0.0
 11
205.1363169627
 21
80.378506785
 31
0.0
  0
SPLINE
  5
1F0
330
1F
100
AcDbEntity
  8
0
  6
HIDDEN
 62
     7
370
     0
100
AcDbSpline
210
0.0
220
0.0
230
1.0
 70
     8
 71
     3
 72
     8
 73
     4
 74
     0
 42
0.00000001
 43
0.00000001
 40
0.0
 40
0.0
 40
0.0
 40
0.0
 40
1.0
 40
1.0
 40
1.0
 40
1.0
 10
203.6543841311971
 20
76.99598471704539
 30
0.0
 10
204.1498637918629
 20
77.89151080497875
 30
0.0
 10
204.643977839905
 20
78.78779522003099
 30
0.0
 10
205.1363169626862
 20
79.68506525423768
 30
0.0
  0
LINE
  5
1F1
330
1F
100
AcDbEntity
  8
0
  6
HIDDEN
 62
     7
370
     0
100
AcDbLine
 10
201.9963169627
 20
80.7829024133
 30
0.0
 11
205.233991765
 21
80.7829024133
 31
0.0
  0
ELLIPSE
  5
1F2
330
1F
100
AcDbEntity
  8
0
  6
HIDDEN
 62
     7
370
     0
100
AcDbEllipse
 10
250.0537850329
 20
134.7779576862
 30
0.0
 11
0.31248247745404
 21
2.947022789647605
 31
0.0
210
0.0
220
0.0
230
1.0
 40
0.8407155321
 41
5.146056947021485
 42
7.335381317564625
  0
LWPOLYLINE
  5
1F3
330
1F
100
AcDbEntity
  8
0
  6
HIDDEN
 62
     7
370
     0
100
AcDbPolyline
 90
       13
 70
   128
 43
0.0
 10
251.6292787273
 20
130.6770709262
 10
251.5818106774
 20
131.1495725388
 10
251.3697888923
 20
131.6162871019
 10
251.0076623062
 20
132.0454087893
 10
250.5201092474
 20
132.4076936672
 10
249.9403556513
 20
132.6784526198
 10
249.3079107673
 20
132.8392338721
 10
248.6658746691
 20
132.8790804473
 10
248.0580010558
 20
132.7952768671
 10
247.5257155096
 20
132.5935342072
 10
247.1052924107
 20
132.2876008964
 10
246.8253828986
 20
131.8983257842
 10
246.705062344
 20
131.4522373262
  0
LINE
  5
1F4
330
1F
100
AcDbEntity
  8
0
  6
HIDDEN
 62
     7
370
     0
100
AcDbLine
 10
246.705062344
 20
131.4522373262
 30
0.0
 11
246.330358041
 21
126.7276276053
 31
0.0
  0
LWPOLYLINE
  5
1F5
330
1F
100
AcDbEntity
  8
0
  6
HIDDEN
 62
     7
370
     0
100
AcDbPolyline
 90
       29
 70
   128
 43
0.0
 10
219.0463169627
 20
103.8456176958
 10
219.7138797646
 20
103.7749375281
 10
220.34796818
 20
103.5664412236
 10
220.9167863683
 20
103.2305836578
 10
221.3918114101
 20
102.7842061313
 10
221.7492235664
 20
102.2496918772
 10
221.9711006992
 20
101.6538436723
 10
222.0463169627
 20
101.0265398334
 10
221.9711006992
 20
100.3992359946
 10
221.7492235664
 20
99.8033877896
 10
221.3918114101
 20
99.2688735356
 10
220.9167863683
 20
98.8224960091
 10
220.34796818
 20
98.4866384433
 10
219.7138797646
 20
98.2781421388
 10
219.0463169627
 20
98.2074619711
 10
218.3787541608
 20
98.2781421388
 10
217.7446657453
 20
98.4866384433
 10
217.1758475571
 20
98.8224960091
 10
216.7008225153
 20
99.2688735356
 10
216.343410359
 20
99.8033877896
 10
216.1215332261
 20
100.3992359946
 10
216.0463169627
 20
101.0265398334
 10
216.1215332261
 20
101.6538436723
 10
216.343410359
 20
102.2496918772
 10
216.7008225153
 20
102.7842061313
 10
217.1758475571
 20
103.2305836578
 10
217.7446657453
 20
103.5664412236
 10
218.3787541608
 20
103.7749375281
 10
219.0463169627
 20
103.8456176958
  0
CIRCLE
  5
1F6
330
1F
100
AcDbEntity
  8
0
  6
HIDDEN
 62
     7
370
     0
100
AcDbCircle
 10
196.0463169627
 20
107.1829024133
 30
0.0
 40
5.000000000000014
  0
LINE
  5
1F7
330
1F
100
AcDbEntity
  8
0
  6
HIDDEN
 62
     7
370
     0
100
AcDbLine
 10
254.5435584681
 20
139.2070684252
 30
0.0
 11
255.1726328579
 21
138.7018544872
 31
0.0
  0
LINE
  5
1F8
330
1F
100
AcDbEntity
  8
0
  6
HIDDEN
 62
     7
370
     0
100
AcDbLine
 10
255.1723126514
 20
138.7021126123
 30
0.0
 11
253.0456642254
 21
108.3851026982
 31
0.0
  0
LINE
  5
1F9
330
1F
100
AcDbEntity
  8
0
  6
HIDDEN
 62
     7
370
     0
100
AcDbLine
 10
189.0463169627
 20
81.8589784922
 30
0.0
 11
189.1404778039
 21
82.528967691
 31
0.0
  0
LINE
  5
1FA
330
1F
100
AcDbEntity
  8
0
  6
HIDDEN
 62
     7
370
     0
100
AcDbLine
 10
189.1404778039
 20
131.8368371356
 30
0.0
 11
189.0463169627
 21
132.5068263344
 31
0.0
  0
ARC
  5
1FB
330
1F
100
AcDbEntity
  8
0
  6
HIDDEN
 62
     7
370
     0
100
AcDbCircle
 10
188.5463169627
 20
82.6124715516
 30
0.0
 40
0.5999999999999943
100
AcDbArc
 50
352.0
 51
0.0
  0
ARC
  5
1FC
330
1F
100
AcDbEntity
  8
0
  6
HIDDEN
 62
     7
370
     0
100
AcDbCircle
 10
188.5463169627
 20
82.6124715516
 30
0.0
 40
0.5999999999999943
100
AcDbArc
 50
0.0
 51
33.5573097619
  0
ARC
  5
1FD
330
1F
100
AcDbEntity
  8
0
  6
HIDDEN
 62
     7
370
     0
100
AcDbCircle
 10
188.5463169627
 20
131.753333275
 30
0.0
 40
0.5999999999999851
100
AcDbArc
 50
348.75
 51
8.0
  0
LWPOLYLINE
  5
1FE
330
1F
100
AcDbEntity
  8
0
  6
HIDDEN
 62
     7
370
     0
100
AcDbPolyline
 90
        3
 70
   128
 43
0.0
 10
189.1347881309
 20
131.6362790818
 10
189.1006446822
 20
131.5237232156
 10
189.0463169627
 20
131.421670796
  0
LINE
  5
1FF
330
1F
100
AcDbEntity
  8
0
  6
HIDDEN
 62
     7
370
     0
100
AcDbLine
 10
189.1463169627
 20
82.6124715516
 30
0.0
 11
189.1463169627
 21
131.753333275
 31
0.0
  0
LINE
  5
200
330
1F
100
AcDbEntity
  8
0
  6
HIDDEN
 62
     7
370
     0
100
AcDbLine
 10
189.1463169627
 20
82.6124715516
 30
0.0
 11
189.1463169627
 21
131.753333275
 31
0.0
  0
LINE
  5
201
330
1F
100
AcDbEntity
  8
0
  6
HIDDEN
 62
     7
370
     0
100
AcDbLine
 10
215.0190728926
 20
113.2282170867
 30
0.0
 11
215.7379537468
 21
111.1765791692
 31
0.0
  0
LINE
  5
202
330
1F
100
AcDbEntity
  8
0
  6
HIDDEN
 62
     7
370
     0
100
AcDbLine
 10
215.7379537468
 20
111.1765791692
 30
0.0
 11
217.7473092504
 21
110.3468212001
 31
0.0
  0
LINE
  5
203
330
1F
100
AcDbEntity
  8
0
  6
HIDDEN
 62
     7
370
     0
100
AcDbLine
 10
216.8582632085
 20
115.680190429
 30
0.0
 11
215.0435574892
 21
113.9619447186
 31
0.0
  0
LINE
  5
204
330
1F
100
AcDbEntity
  8
0
  6
HIDDEN
 62
     7
370
     0
100
AcDbLine
 10
223.8366367671
 20
122.2876311313
 30
0.0
 11
218.0696019536
 21
116.8271409127
 31
0.0
  0
LINE
  5
205
330
1F
100
AcDbEntity
  8
0
  6
HIDDEN
 62
     7
370
     0
100
AcDbLine
 10
218.4812797884
 20
110.3312333017
 30
0.0
 11
223.6870408252
 21
115.2602840427
 31
0.0
  0
LINE
  5
206
330
1F
100
AcDbEntity
  8
0
  6
HIDDEN
 62
     7
370
     0
100
AcDbLine
 10
221.5463169627
 20
108.6181231884
 30
0.0
 11
221.5463169627
 21
113.7907540188
 31
0.0
  0
LINE
  5
207
330
1F
100
AcDbEntity
  8
0
  6
HIDDEN
 62
     7
370
     0
100
AcDbLine
 10
216.5463169627
 20
114.0069882527
 30
0.0
 11
216.5463169627
 21
108.6192542193
 31
0.0
  0
LINE
  5
208
330
1F
100
AcDbEntity
  8
0
  6
HIDDEN
 62
     7
370
     0
100
AcDbLine
 10
172.128752528
 20
87.1829024133
 30
0.0
 11
176.3063394218
 21
87.1829024133
 31
0.0
  0
LINE
  5
209
330
1F
100
AcDbEntity
  8
0
  6
HIDDEN
 62
     7
370
     0
100
AcDbLine
 10
176.3063394218
 20
127.1829024133
 30
0.0
 11
172.128752528
 21
127.1829024133
 31
0.0
  0
ARC
  5
20A
330
1F
100
AcDbEntity
  8
0
  6
HIDDEN
 62
     7
370
     0
100
AcDbCircle
 10
172.128752528
 20
87.7829024133
 30
0.0
 40
0.6000000000000084
100
AcDbArc
 50
210.0
 51
270.0
  0
ARC
  5
20B
330
1F
100
AcDbEntity
  8
0
  6
HIDDEN
 62
     7
370
     0
100
AcDbCircle
 10
172.128752528
 20
126.5829024133
 30
0.0
 40
0.6000000000000084
100
AcDbArc
 50
90.0
 51
150.0
  0
ARC
  5
20C
330
1F
100
AcDbEntity
  8
0
  6
HIDDEN
 62
     7
370
     0
100
AcDbCircle
 10
182.8013189643
 20
95.1829024133
 30
0.0
 40
8.000000000000007
100
AcDbArc
 50
277.1305521505
 51
321.3178125465
  0
ARC
  5
20D
330
1F
100
AcDbEntity
  8
0
  6
HIDDEN
 62
     7
370
     0
100
AcDbCircle
 10
182.8013189643
 20
119.1829024133
 30
0.0
 40
8.000000000000016
100
AcDbArc
 50
38.6821874535
 51
82.8536980483
  0
LINE
  5
20E
330
1F
100
AcDbEntity
  8
0
  6
HIDDEN
 62
     7
370
     0
100
AcDbLine
 10
171.6091372857
 20
126.8829024133
 30
0.0
 11
170.0502915589
 21
124.1829024133
 31
0.0
  0
LINE
  5
20F
330
1F
100
AcDbEntity
  8
0
  6
HIDDEN
 62
     7
370
     0
100
AcDbLine
 10
170.0502915589
 20
90.1829024133
 30
0.0
 11
171.6091372857
 21
87.4829024133
 31
0.0
  0
ARC
  5
210
330
1F
100
AcDbEntity
  8
0
  6
HIDDEN
 62
     7
370
     0
100
AcDbCircle
 10
197.4963169627
 20
91.4579024133
 30
0.0
 40
1.500000000000004
100
AcDbArc
 50
238.2116693829
 51
0.0
  0
ARC
  5
211
330
1F
100
AcDbEntity
  8
0
  6
HIDDEN
 62
     7
370
     0
100
AcDbCircle
 10
197.4963169627
 20
122.9079024133
 30
0.0
 40
1.500000000000004
100
AcDbArc
 50
0.0
 51
121.7883306171
  0
LINE
  5
212
330
1F
100
AcDbEntity
  8
0
  6
HIDDEN
 62
     7
370
     0
100
AcDbLine
 10
167.2463169627
 20
90.1829024133
 30
0.0
 11
170.0502915589
 21
90.1829024133
 31
0.0
  0
LINE
  5
213
330
1F
100
AcDbEntity
  8
0
  6
HIDDEN
 62
     7
370
     0
100
AcDbLine
 10
170.0502915589
 20
124.1829024133
 30
0.0
 11
163.2463169627
 21
124.1829024133
 31
0.0
  0
LINE
  5
214
330
1F
100
AcDbEntity
  8
0
  6
HIDDEN
 62
     7
370
     0
100
AcDbLine
 10
189.0463169627
 20
90.1829024133
 30
0.0
 11
196.7061429312
 21
90.1829024133
 31
0.0
  0
LINE
  5
215
330
1F
100
AcDbEntity
  8
0
  6
HIDDEN
 62
     7
370
     0
100
AcDbLine
 10
196.7061429312
 20
124.1829024133
 30
0.0
 11
189.0463169627
 21
124.1829024133
 31
0.0
  0
LINE
  5
216
330
1F
100
AcDbEntity
  8
0
  6
HIDDEN
 62
     7
370
     0
100
AcDbLine
 10
208.3463169627
 20
97.6829024133
 30
0.0
 11
210.8463169627
 21
97.6829024133
 31
0.0
  0
LINE
  5
217
330
1F
100
AcDbEntity
  8
0
  6
HIDDEN
 62
     7
370
     0
100
AcDbLine
 10
210.8463169627
 20
116.6829024133
 30
0.0
 11
208.3463169627
 21
116.6829024133
 31
0.0
  0
LINE
  5
218
330
1F
100
AcDbEntity
  8
0
  6
HIDDEN
 62
     7
370
     0
100
AcDbLine
 10
198.9963169627
 20
98.1829024133
 30
0.0
 11
199.4963169627
 21
98.6829024133
 31
0.0
  0
LINE
  5
219
330
1F
100
AcDbEntity
  8
0
  6
HIDDEN
 62
     7
370
     0
100
AcDbLine
 10
199.4963169627
 20
115.6829024133
 30
0.0
 11
198.9963169627
 21
116.1829024133
 31
0.0
  0
LINE
  5
21A
330
1F
100
AcDbEntity
  8
0
  6
HIDDEN
 62
     7
370
     0
100
AcDbLine
 10
199.4963169627
 20
98.6829024133
 30
0.0
 11
208.3463169627
 21
98.6829024133
 31
0.0
  0
LINE
  5
21B
330
1F
100
AcDbEntity
  8
0
  6
HIDDEN
 62
     7
370
     0
100
AcDbLine
 10
208.3463169627
 20
115.6829024133
 30
0.0
 11
199.4963169627
 21
115.6829024133
 31
0.0
  0
LINE
  5
21C
330
1F
100
AcDbEntity
  8
0
  6
HIDDEN
 62
     7
370
     0
100
AcDbLine
 10
193.9963169627
 20
138.6829024133
 30
0.0
 11
193.9963169627
 21
133.5829024133
 31
0.0
  0
LINE
  5
21D
330
1F
100
AcDbEntity
  8
0
  6
HIDDEN
 62
     7
370
     0
100
AcDbLine
 10
246.9594926339
 20
127.5599540655
 30
0.0
 11
246.4808152435
 21
126.7691062342
 31
0.0
  0
LINE
  5
21E
330
1F
100
AcDbEntity
  8
0
  6
HIDDEN
 62
     7
370
     0
100
AcDbLine
 10
252.4692945483
 20
123.1444523727
 30
0.0
 11
252.9479719387
 21
123.935300204
 31
0.0
  0
LINE
  5
21F
330
1F
100
AcDbEntity
  8
0
  6
HIDDEN
 62
     7
370
     0
100
AcDbLine
 10
242.0980249174
 20
132.1384802447
 30
0.0
 11
241.134272486
 21
130.5462146904
 31
0.0
  0
LINE
  5
220
330
1F
100
AcDbEntity
  8
0
  6
HIDDEN
 62
     7
370
     0
100
AcDbLine
 10
184.2307547932
 20
83.1035310797
 30
0.0
 11
183.7963226437
 21
83.5825970988
 31
0.0
  0
LINE
  5
221
330
1F
100
AcDbEntity
  8
0
  6
HIDDEN
 62
     7
370
     0
100
AcDbLine
 10
176.2963193186
 20
84.004285058
 30
0.0
 11
175.8138855753
 21
83.5252190825
 31
0.0
  0
LINE
  5
222
330
1F
100
AcDbEntity
  8
0
  6
HIDDEN
 62
     7
370
     0
100
AcDbLine
 10
175.813763647
 20
130.8405804536
 30
0.0
 11
176.296314398
 21
130.3614601957
 31
0.0
  0
LINE
  5
223
330
1F
100
AcDbEntity
  8
0
  6
HIDDEN
 62
     7
370
     0
100
AcDbLine
 10
183.7963168447
 20
130.7831579734
 30
0.0
 11
184.230859235
 21
131.262278224
 31
0.0
  0
LINE
  5
224
330
1F
100
AcDbEntity
  8
0
  6
HIDDEN
 62
     7
370
     0
100
AcDbLine
 10
210.8463169627
 20
102.9829024133
 30
0.0
 11
223.1463169627
 21
102.9829024133
 31
0.0
  0
LINE
  5
225
330
1F
100
AcDbEntity
  8
0
  6
HIDDEN
 62
     7
370
     0
100
AcDbLine
 10
223.1463169627
 20
111.3829024133
 30
0.0
 11
210.8463169627
 21
111.3829024133
 31
0.0
  0
LINE
  5
226
330
1F
100
AcDbEntity
  8
0
  6
HIDDEN
 62
     7
370
     0
100
AcDbLine
 10
223.1463169627
 20
102.9829024133
 30
0.0
 11
225.6699315626
 21
107.1829024133
 31
0.0
  0
LINE
  5
227
330
1F
100
AcDbEntity
  8
0
  6
HIDDEN
 62
     7
370
     0
100
AcDbLine
 10
225.6699315626
 20
107.1829024133
 30
0.0
 11
223.1463169627
 21
111.3829024133
 31
0.0
  0
LINE
  5
228
330
1F
100
AcDbEntity
  8
0
  6
HIDDEN
 62
     7
370
     0
100
AcDbLine
 10
183.7963169627
 20
127.1207386039
 30
0.0
 11
183.7963169627
 21
130.7828666673
 31
0.0
  0
LINE
  5
229
330
1F
100
AcDbEntity
  8
0
  6
HIDDEN
 62
     7
370
     0
100
AcDbLine
 10
176.2963169627
 20
130.3613164165
 30
0.0
 11
176.2963169627
 21
127.1810308661
 31
0.0
  0
LINE
  5
22A
330
1F
100
AcDbEntity
  8
0
  6
HIDDEN
 62
     7
370
     0
100
AcDbLine
 10
183.7963169627
 20
83.5830810006
 30
0.0
 11
183.7963169627
 21
87.2450662227
 31
0.0
  0
LINE
  5
22B
330
1F
100
AcDbEntity
  8
0
  6
HIDDEN
 62
     7
370
     0
100
AcDbLine
 10
176.2963169627
 20
87.1847739605
 30
0.0
 11
176.2963169627
 21
84.0046082958
 31
0.0
  0
LINE
  5
22C
330
1F
100
AcDbEntity
  8
0
  6
HIDDEN
 62
     7
370
     0
100
AcDbLine
 10
251.7326710998
 20
126.7781781676
 30
0.0
 11
253.4955944471
 21
134.1616233532
 31
0.0
  0
LINE
  5
22D
330
1F
100
AcDbEntity
  8
0
  6
HIDDEN
 62
     7
370
     0
100
AcDbLine
 10
245.8380023871
 20
127.0589348778
 30
0.0
 11
242.9107002406
 21
122.2225866381
 31
0.0
  0
LINE
  5
22E
330
1F
100
AcDbEntity
  8
0
  6
HIDDEN
 62
     7
370
     0
100
AcDbLine
 10
250.0968754064
 20
117.8730020042
 30
0.0
 11
253.0241775528
 21
122.7093502439
 31
0.0
  0
LINE
  5
22F
330
1F
100
AcDbEntity
  8
0
  6
HIDDEN
 62
     7
370
     0
100
AcDbLine
 10
221.5463169627
 20
101.1292930509
 30
0.0
 11
221.5463169627
 21
105.7465506073
 31
0.0
  0
LINE
  5
230
330
1F
100
AcDbEntity
  8
0
  6
HIDDEN
 62
     7
370
     0
100
AcDbLine
 10
216.5463169627
 20
105.7468818676
 30
0.0
 11
216.5463169627
 21
101.1292930509
 31
0.0
  0
ARC
  5
231
330
1F
100
AcDbEntity
  8
0
  6
HIDDEN
 62
     7
370
     0
100
AcDbCircle
 10
161.8463169627
 20
129.4529024133
 30
0.0
 40
1.400000000000025
100
AcDbArc
 50
270.0
 51
303.0982988698
  0
ARC
  5
232
330
1F
100
AcDbEntity
  8
0
  6
HIDDEN
 62
     7
370
     0
100
AcDbCircle
 10
165.8463169627
 20
84.9704024133
 30
0.0
 40
1.40000000000002
100
AcDbArc
 50
37.6443616934
 51
90.0
  0
LINE
  5
233
330
1F
100
AcDbEntity
  8
0
  6
HIDDEN
 62
     7
370
     0
100
AcDbLine
 10
248.4115961756
 20
140.9864274532
 30
0.0
 11
247.8262367813
 21
140.0193247304
 31
0.0
  0
LINE
  5
234
330
1F
100
AcDbEntity
  8
0
  6
HIDDEN
 62
     7
370
     0
100
AcDbLine
 10
253.3014178599
 20
136.7053554856
 30
0.0
 11
253.8867772542
 21
137.6724582083
 31
0.0
  0
LINE
  5
235
330
1F
100
AcDbEntity
  8
0
  6
HIDDEN
 62
     7
370
     0
100
AcDbLine
 10
161.8463169627
 20
128.0529024133
 30
0.0
 11
158.4372053641
 21
128.0529024133
 31
0.0
  0
LINE
  5
236
330
1F
100
AcDbEntity
  8
0
  6
HIDDEN
 62
     7
370
     0
100
AcDbLine
 10
158.2874804209
 20
128.0440658715
 30
0.0
 11
157.1574845819
 21
126.9140700325
 31
0.0
  0
LINE
  5
237
330
1F
100
AcDbEntity
  8
0
  6
HIDDEN
 62
     7
370
     0
100
AcDbLine
 10
158.2963169627
 20
86.3704024133
 30
0.0
 11
165.8463169627
 21
86.3704024133
 31
0.0
  0
LINE
  5
238
330
1F
100
AcDbEntity
  8
0
  6
HIDDEN
 62
     7
370
     0
100
AcDbLine
 10
157.1482658065
 20
87.5184535695
 30
0.0
 11
158.2963169627
 21
86.3704024133
 31
0.0
  0
LINE
  5
239
330
1F
100
AcDbEntity
  8
0
  6
HIDDEN
 62
     7
370
     0
100
AcDbLine
 10
248.0434617642
 20
137.1231354698
 30
0.0
 11
246.7355235724
 21
131.6452512724
 31
0.0
  0
LINE
  5
23A
330
1F
100
AcDbEntity
  8
0
  6
HIDDEN
 62
     7
370
     0
100
AcDbLine
 10
222.0463169627
 20
98.2906032557
 30
0.0
 11
222.0463169627
 21
101.0265398334
 31
0.0
  0
LINE
  5
23B
330
1F
100
AcDbEntity
  8
0
  6
HIDDEN
 62
     7
370
     0
100
AcDbLine
 10
216.0463169627
 20
101.0265398334
 30
0.0
 11
216.0463169627
 21
98.2903801619
 31
0.0
  0
LINE
  5
23C
330
1F
100
AcDbEntity
  8
VERMASSUNG
100
AcDbLine
 10
259.0463169627
 20
152.1829024133
 30
0.0
 11
259.0463169627
 21
114.6782075343
 31
0.0
  0
DIMENSION
  5
23D
330
1F
100
AcDbEntity
  8
VERMASSUNG
100
AcDbDimension
  2
*D1
 10
259.0463169627
 20
152.1829024133
 30
0.0
 11
263.9919676972
 21
116.6606988411
 31
0.0
 70
   162
 71
     1
 42
-1.0
  3
SLDDIMSTYLE0
100
AcDb2LineAngularDimension
 13
256.6346627538
 23
114.3146739713
 33
0.0
 14
257.8356026578
 24
136.9842252607
 34
0.0
 15
259.0463169627
 25
114.6782075343
 35
0.0
 16
257.8963624946
 26
116.3935958719
 36
0.0
  0
DIMENSION
  5
248
330
1F
100
AcDbEntity
  8
VERMASSUNG
100
AcDbDimension
  2
*D2
 10
150.4030759307
 20
138.6829024133
 30
0.0
 11
150.4030759307
 21
107.1829024133
 31
0.0
 70
   160
  1
HSK %%c<>
 71
     2
 42
-1.0
  3
SLDDIMSTYLE1
100
AcDbAlignedDimension
 13
189.3463169627
 23
75.6829024133
 33
0.0
 14
189.3463169627
 24
138.6829024133
 34
0.0
 50
90.0
100
AcDbRotatedDimension
  0
DIMENSION
  5
255
330
1F
100
AcDbEntity
  8
VERMASSUNG
100
AcDbDimension
  2
*D3
 10
189.0463169627
 20
155.7689557839
 30
0.0
 11
224.0463169627
 21
155.7689557839
 31
0.0
 70
   160
 71
     2
 42
-1.0
  3
SLDDIMSTYLE1
100
AcDbAlignedDimension
 13
259.0463169627
 23
152.1829024133
 33
0.0
 14
189.0463169627
 24
138.3829024133
 34
0.0
100
AcDbRotatedDimension
  0
DIMENSION
  5
25F
330
1F
100
AcDbEntity
  8
VERMASSUNG
100
AcDbDimension
  2
*D4
 10
157.1463169627
 20
161.7689557839
 30
0.0
 11
208.0963169627
 21
161.7689557839
 31
0.0
 70
   160
 71
     2
 42
-1.0
  3
SLDDIMSTYLE1
100
AcDbAlignedDimension
 13
259.0463169627
 23
152.1829024133
 33
0.0
 14
157.1463169627
 24
126.8735801598
 34
0.0
100
AcDbRotatedDimension
  0
DIMENSION
  5
269
330
1F
100
AcDbEntity
  8
VERMASSUNG
100
AcDbDimension
  2
*D5
 10
268.7483608404
 20
107.1829024133
 30
0.0
 11
268.7483608404
 21
129.6829024133
 31
0.0
 70
   160
 71
     2
 42
-1.0
  3
SLDDIMSTYLE1
100
AcDbAlignedDimension
 13
259.0463169627
 23
152.1829024133
 33
0.0
 14
257.294100321
 24
107.1829024133
 34
0.0
 50
90.0
100
AcDbRotatedDimension
  0
LINE
  5
273
330
1F
100
AcDbEntity
  8
VERMASSUNG
  6
CENTERX2
370
     0
100
AcDbLine
 10
152.86600276
 20
107.1829024133
 30
0.0
 11
257.294100321
 21
107.1829024133
 31
0.0
  0
LINE
  5
274
330
1F
100
AcDbEntity
  8
0
  6
Continuous
 62
     7
370
    15
100
AcDbLine
 10
83.854885036
 20
150.0908258733
 30
0.0
 11
79.5951804238
 21
150.8419263539
 31
0.0
  0
LINE
  5
275
330
1F
100
AcDbEntity
  8
0
  6
Continuous
 62
     7
370
    15
100
AcDbLine
 10
84.1035146358
 20
149.7384208616
 30
0.0
 11
83.8647430854
 21
150.0834646997
 31
0.0
  0
LINE
  5
276
330
1F
100
AcDbEntity
  8
0
  6
Continuous
 62
     7
370
    15
100
AcDbLine
 10
79.6448217796
 20
151.3607996878
 30
0.0
 11
74.9828166689
 21
152.1828371462
 31
0.0
  0
LINE
  5
277
330
1F
100
AcDbEntity
  8
0
  6
Continuous
 62
     7
370
    15
100
AcDbLine
 10
74.3616206663
 20
148.534917402
 30
0.0
 11
73.9199564185
 21
147.9981589493
 31
0.0
  0
LINE
  5
278
330
1F
100
AcDbEntity
  8
0
  6
Continuous
 62
     7
370
    15
100
AcDbLine
 10
70.6668549309
 20
133.9554853168
 30
0.0
 11
70.9000264386
 21
133.2951515344
 31
0.0
  0
LINE
  5
279
330
1F
100
AcDbEntity
  8
0
  6
Continuous
 62
     7
370
    15
100
AcDbLine
 10
69.6414743642
 20
129.7642003175
 30
0.0
 11
69.9471050965
 21
129.7103084054
 31
0.0
  0
LINE
  5
27A
330
1F
100
AcDbEntity
  8
0
  6
Continuous
 62
     7
370
    15
100
AcDbLine
 10
77.071259925
 20
136.9727748808
 30
0.0
 11
79.406766882
 21
149.8065787729
 31
0.0
  0
LINE
  5
27B
330
1F
100
AcDbEntity
  8
0
  6
Continuous
 62
     7
370
    15
100
AcDbLine
 10
81.4394412654
 20
136.2025468972
 30
0.0
 11
83.7749486881
 21
149.036352652
 31
0.0
  0
LINE
  5
27C
330
1F
100
AcDbEntity
  8
0
  6
Continuous
 62
     7
370
    15
100
AcDbLine
 10
84.0406587439
 20
149.0054439184
 30
0.0
 11
81.7051517869
 21
136.1716381636
 31
0.0
  0
ARC
  5
27D
330
1F
100
AcDbEntity
  8
0
  6
Continuous
 62
     7
370
    15
100
AcDbCircle
 10
81.2532275115
 20
149.7577829956
 30
0.0
 40
2.622887613481127
100
AcDbArc
 50
344.0348901406
 51
7.2948618246
  0
ARC
  5
27E
330
1F
100
AcDbEntity
  8
0
  6
Continuous
 62
     7
370
    15
100
AcDbCircle
 10
81.9798316521
 20
149.5513521626
 30
0.0
 40
2.131906215857566
100
AcDbArc
 50
345.1632527575
 51
5.0340155839
  0
ARC
  5
27F
330
1F
100
AcDbEntity
  8
0
  6
Continuous
 62
     7
370
    15
100
AcDbCircle
 10
75.7250673437
 20
137.1627880888
 30
0.0
 40
5.794491562080379
100
AcDbArc
 50
342.7428032458
 51
350.461156808
  0
ARC
  5
280
330
1F
100
AcDbEntity
  8
0
  6
Continuous
 62
     7
370
    15
100
AcDbCircle
 10
77.7980036871
 20
136.8243616858
 30
0.0
 40
3.961294519484129
100
AcDbArc
 50
342.4375004652
 51
350.5158181277
  0
LINE
  5
281
330
1F
100
AcDbEntity
  8
0
  6
Continuous
 62
     7
370
    15
100
AcDbLine
 10
81.574655799
 20
135.6290570822
 30
0.0
 11
81.4943492504
 21
135.4022353318
 31
0.0
  0
LWPOLYLINE
  5
282
330
1F
100
AcDbEntity
  8
0
  6
Continuous
 62
     7
370
    15
100
AcDbPolyline
 90
       31
 70
   128
 43
0.0
 10
70.2464787381
 20
129.1646837619
 10
70.327626271
 20
129.1849214014
 10
70.3813403005
 20
129.0549311218
 10
70.4052729624
 20
128.7803958532
 10
70.398378847
 20
128.3733147558
 10
70.3609592373
 20
127.8514779535
 10
70.29464907
 20
127.2376916733
 10
70.2023470866
 20
126.5587835935
 10
70.0880863795
 20
125.8444256511
 10
69.9568616318
 20
125.1258339164
 10
69.8144074621
 20
124.434420037
 10
69.6669497619
 20
123.8003979799
 10
69.5209332833
 20
123.2514801797
 10
69.3827399144
 20
122.8116556433
 10
69.258409282
 20
122.5001477998
 10
69.1533747221
 20
122.3305697915
 10
69.0722271891
 20
122.3103330833
 10
69.0185131597
 20
122.4403233629
 10
68.9945800321
 20
122.7148586315
 10
69.0014741475
 20
123.1219406602
 10
69.0388942229
 20
123.6437774625
 10
69.1052039245
 20
124.25756188
 10
69.1975063736
 20
124.9364699599
 10
69.3117670806
 20
125.6508297649
 10
69.4429918284
 20
126.369419637
 10
69.5854459981
 20
127.0608335164
 10
69.7329036983
 20
127.6948555735
 10
69.8789197112
 20
128.2437733736
 10
70.0171135457
 20
128.6835979101
 10
70.1414441781
 20
128.9951066848
 10
70.2464787381
 20
129.1646837619
  0
LWPOLYLINE
  5
283
330
1F
100
AcDbEntity
  8
0
  6
Continuous
 62
     7
370
    15
100
AcDbPolyline
 90
       24
 70
   128
 43
0.0
 10
70.012242263
 20
127.7002311674
 10
70.0696890334
 20
127.6981990215
 10
70.0997120792
 20
127.5515008148
 10
70.1000850739
 20
127.2710181203
 10
70.0707800778
 20
126.877552959
 10
70.0139707977
 20
126.4002855298
 10
69.9338700714
 20
125.8746135411
 10
69.8364188055
 20
125.3395240185
 10
69.7288445288
 20
124.8347006169
 10
69.619125882
 20
124.3975862291
 10
69.5153993646
 20
124.0605964687
 10
69.4253586324
 20
123.8487280336
 10
69.3556812683
 20
123.7776904729
 10
69.3115351813
 20
123.8527550724
 10
69.2961944359
 20
124.0683543858
 10
69.3107961768
 20
124.4084957418
 10
69.3542582074
 20
124.8479551998
 10
69.4233567545
 20
125.3541401949
 10
69.5129676813
 20
125.8895072517
 10
69.6164441386
 20
126.4143522259
 10
69.7261120284
 20
126.8897495594
 10
69.8338381106
 20
127.2804393795
 10
69.9316321032
 20
127.5574482408
 10
70.012242263
 20
127.7002311674
  0
LINE
  5
284
330
1F
100
AcDbEntity
  8
0
  6
Continuous
 62
     7
370
    15
100
AcDbLine
 10
69.9008509608
 20
125.7038164314
 30
0.0
 11
69.7407845499
 21
125.4754542735
 31
0.0
  0
LINE
  5
285
330
1F
100
AcDbEntity
  8
0
  6
Continuous
 62
     7
370
    15
100
AcDbLine
 10
69.7407845499
 20
125.4754542735
 30
0.0
 11
69.8105522523
 21
125.2159486887
 31
0.0
  0
LINE
  5
286
330
1F
100
AcDbEntity
  8
0
  6
Continuous
 62
     7
370
    15
100
AcDbLine
 10
70.0864453891
 20
127.0527440485
 30
0.0
 11
70.0858083645
 21
127.0528576699
 31
0.0
  0
LINE
  5
287
330
1F
100
AcDbEntity
  8
0
  6
Continuous
 62
     7
370
    15
100
AcDbLine
 10
69.8587356227
 20
125.4546578404
 30
0.0
 11
69.7407845499
 21
125.4754542735
 31
0.0
  0
ELLIPSE
  5
288
330
1F
100
AcDbEntity
  8
0
  6
Continuous
 62
     7
370
    15
100
AcDbEllipse
 10
72.4996970196
 20
140.2610658307
 30
0.0
 11
0.4087148498875592
 21
2.317396459798914
 31
0.0
210
0.0
220
0.0
230
1.0
 40
0.1043907487
 41
0.3772567585355454
 42
1.645821917583061
  0
LINE
  5
289
330
1F
100
AcDbEntity
  8
0
  6
Continuous
 62
     7
370
    15
100
AcDbLine
 10
69.6738485338
 20
129.8202100572
 30
0.0
 11
72.2788397314
 21
137.1778893646
 31
0.0
  0
LWPOLYLINE
  5
28A
330
1F
100
AcDbEntity
  8
0
  6
Continuous
 62
     7
370
    15
100
AcDbPolyline
 90
        9
 70
   128
 43
0.0
 10
69.6734489964
 20
130.185988861
 10
69.6555713283
 20
130.0791084197
 10
69.6417854259
 20
129.9780673709
 10
69.6331101561
 20
129.8903330591
 10
69.6301867346
 20
129.8223912147
 10
69.6332316937
 20
129.7792635289
 10
69.6420191879
 20
129.7641388503
 10
69.6559000852
 20
129.7781310406
 10
69.6738485338
 20
129.8202100572
  0
LINE
  5
28B
330
1F
100
AcDbEntity
  8
0
  6
Continuous
 62
     7
370
    15
100
AcDbLine
 10
72.2708818129
 20
144.4590996381
 30
0.0
 11
69.6734489964
 21
130.185988861
 31
0.0
  0
ARC
  5
28C
330
1F
100
AcDbEntity
  8
0
  6
Continuous
 62
     7
370
    15
100
AcDbCircle
 10
74.5035320039
 20
144.0861110413
 30
0.0
 40
2.263591696639776
100
AcDbArc
 50
162.4374024716
 51
170.5157006137
  0
LINE
  5
28D
330
1F
100
AcDbEntity
  8
0
  6
Continuous
 62
     7
370
    15
100
AcDbLine
 10
74.9504421536
 20
152.1268274066
 30
0.0
 11
72.3454511816
 21
144.7691443738
 31
0.0
  0
LWPOLYLINE
  5
28E
330
1F
100
AcDbEntity
  8
0
  6
Continuous
 62
     7
370
    15
100
AcDbPolyline
 90
        9
 70
   128
 43
0.0
 10
74.9508419238
 20
151.7610448775
 10
74.9687196429
 20
151.8679271814
 10
74.982505549
 20
151.9689682302
 10
74.9911807351
 20
152.056702542
 10
74.9941040184
 20
152.1246443865
 10
74.991059343
 20
152.1677720722
 10
74.9822717361
 20
152.1828967509
 10
74.9683906932
 20
152.1689045605
 10
74.9504421536
 20
152.1268274066
  0
LINE
  5
28F
330
1F
100
AcDbEntity
  8
0
  6
Continuous
 62
     7
370
    15
100
AcDbLine
 10
72.3534091002
 20
137.487935963
 30
0.0
 11
74.9508419238
 21
151.7610448775
 31
0.0
  0
ARC
  5
290
330
1F
100
AcDbEntity
  8
0
  6
Continuous
 62
     7
370
    15
100
AcDbCircle
 10
70.1207509162
 20
137.8609223788
 30
0.0
 40
2.263599220893914
100
AcDbArc
 50
342.4374712031
 51
350.5157884021
  0
LWPOLYLINE
  5
291
330
1F
100
AcDbEntity
  8
0
  6
Continuous
 62
     7
370
    15
100
AcDbPolyline
 90
        9
 70
   128
 43
0.0
 10
74.9489676954
 20
151.762438136
 10
74.9659515303
 20
151.8639746484
 10
74.9790481412
 20
151.9599642035
 10
74.9872895675
 20
152.0433138487
 10
74.9900666877
 20
152.1078582284
 10
74.9871742472
 20
152.1488289711
 10
74.9788260208
 20
152.1631974158
 10
74.9656390279
 20
152.14990558
 10
74.9485879122
 20
152.1099294898
  0
LINE
  5
292
330
1F
100
AcDbEntity
  8
0
  6
Continuous
 62
     7
370
    15
100
AcDbLine
 10
74.9485879122
 20
152.1099294898
 30
0.0
 11
72.3435969183
 21
144.7522501823
 31
0.0
  0
ARC
  5
293
330
1F
100
AcDbEntity
  8
0
  6
Continuous
 62
     7
370
    15
100
AcDbCircle
 10
74.3938684363
 20
144.1033478866
 30
0.0
 40
2.150508657673692
100
AcDbArc
 50
162.4376400831
 51
170.515608303
  0
LINE
  5
294
330
1F
100
AcDbEntity
  8
0
  6
Continuous
 62
     7
370
    15
100
AcDbLine
 10
72.2727560995
 20
144.4577063796
 30
0.0
 11
69.6753232831
 21
130.1845956024
 31
0.0
  0
LWPOLYLINE
  5
295
330
1F
100
AcDbEntity
  8
0
  6
Continuous
 62
     7
370
    15
100
AcDbPolyline
 90
        9
 70
   128
 43
0.0
 10
69.6753232831
 20
130.1845956024
 10
69.658339219
 20
130.0830590901
 10
69.645242961
 20
129.9870695349
 10
69.6370012218
 20
129.9037217524
 10
69.6342240179
 20
129.8391792354
 10
69.6371167058
 20
129.79820663
 10
69.6454650814
 20
129.7838381854
 10
69.6586516777
 20
129.7971300211
 10
69.6757027971
 20
129.8371042487
  0
LINE
  5
296
330
1F
100
AcDbEntity
  8
0
  6
Continuous
 62
     7
370
    15
100
AcDbLine
 10
69.6757027971
 20
129.8371042487
 30
0.0
 11
72.2806939947
 21
137.1947854188
 31
0.0
  0
ARC
  5
297
330
1F
100
AcDbEntity
  8
0
  6
Continuous
 62
     7
370
    15
100
AcDbCircle
 10
70.2305027742
 20
137.8436684021
 30
0.0
 40
2.150426275565897
100
AcDbArc
 50
342.4374850941
 51
350.5157632919
  0
LINE
  5
298
330
1F
100
AcDbEntity
  8
0
  6
Continuous
 62
     7
370
    15
100
AcDbLine
 10
72.3515348135
 20
137.4893292215
 30
0.0
 11
74.9489676954
 21
151.762438136
 31
0.0
  0
ARC
  5
299
330
1F
100
AcDbEntity
  8
0
  6
Continuous
 62
     7
370
    15
100
AcDbCircle
 10
78.6041488508
 20
151.2275814724
 30
0.0
 40
1.049165019320749
100
AcDbArc
 50
344.0349371397
 51
7.2948506955
  0
LINE
  5
29A
330
1F
100
AcDbEntity
  8
0
  6
Continuous
 62
     7
370
    15
100
AcDbLine
 10
77.0154143309
 20
136.6658985045
 30
0.0
 11
79.6128471473
 21
150.939007419
 31
0.0
  0
LINE
  5
29B
330
1F
100
AcDbEntity
  8
0
  6
Continuous
 62
     7
370
    15
100
AcDbLine
 10
74.9865690658
 20
152.0340490517
 30
0.0
 11
74.9485879122
 21
152.1099294898
 31
0.0
  0
LINE
  5
29C
330
1F
100
AcDbEntity
  8
0
  6
Continuous
 62
     7
370
    15
100
AcDbLine
 10
72.5232427566
 20
144.3933445391
 30
0.0
 11
72.3435969183
 21
144.7522501823
 31
0.0
  0
LINE
  5
29D
330
1F
100
AcDbEntity
  8
0
  6
Continuous
 62
     7
370
    15
100
AcDbLine
 10
72.5976226011
 20
144.3038891432
 30
0.0
 11
72.5232427566
 21
144.3933445391
 31
0.0
  0
ARC
  5
29E
330
1F
100
AcDbEntity
  8
0
  6
Continuous
 62
     7
370
    15
100
AcDbCircle
 10
74.7827270064
 20
137.0388911186
 30
0.0
 40
2.263628984432673
100
AcDbArc
 50
342.4375450828
 51
350.5157551961
  0
LINE
  5
29F
330
1F
100
AcDbEntity
  8
0
  6
Continuous
 62
     7
370
    15
100
AcDbLine
 10
76.8906211805
 20
136.2139965769
 30
0.0
 11
76.9408450786
 21
136.3558519062
 31
0.0
  0
LWPOLYLINE
  5
2A0
330
1F
100
AcDbEntity
  8
0
  6
Continuous
 62
     7
370
    15
100
AcDbPolyline
 90
        9
 70
   128
 43
0.0
 10
73.8616610969
 20
146.9568360028
 10
73.9063553836
 20
147.2240399
 10
73.9408201397
 20
147.4766443845
 10
73.9625080813
 20
147.6959783014
 10
73.9698162859
 20
147.8658291873
 10
73.962204703
 20
147.9736502644
 10
73.9402356183
 20
148.0114656862
 10
73.9055330258
 20
147.9764814851
 10
73.8606616713
 20
147.8712867376
  0
LINE
  5
2A1
330
1F
100
AcDbEntity
  8
0
  6
Continuous
 62
     7
370
    15
100
AcDbLine
 10
72.4079717973
 20
138.9686922905
 30
0.0
 11
73.8616610969
 21
146.9568360028
 31
0.0
  0
ARC
  5
2A2
330
1F
100
AcDbEntity
  8
0
  6
Continuous
 62
     7
370
    15
100
AcDbCircle
 10
66.826313774
 20
139.901162593
 30
0.0
 40
5.659011146389702
100
AcDbArc
 50
342.437477781
 51
350.5157667898
  0
LINE
  5
2A3
330
1F
100
AcDbEntity
  8
0
  6
Continuous
 62
     7
370
    15
100
AcDbLine
 10
70.7636291253
 20
134.0757488635
 30
0.0
 11
72.2215484919
 21
138.193576726
 31
0.0
  0
LWPOLYLINE
  5
2A4
330
1F
100
AcDbEntity
  8
0
  6
Continuous
 62
     7
370
    15
100
AcDbPolyline
 90
        9
 70
   128
 43
0.0
 10
70.7626298161
 20
134.9901995984
 10
70.7179356458
 20
134.7229957011
 10
70.6834706569
 20
134.4703912166
 10
70.6617829481
 20
134.2510591623
 10
70.6544743942
 20
134.0812045511
 10
70.6620860936
 20
133.9733871993
 10
70.6840550618
 20
133.9355699149
 10
70.7187580036
 20
133.9705541161
 10
70.7636291253
 20
134.0757488635
  0
LINE
  5
2A5
330
1F
100
AcDbEntity
  8
0
  6
Continuous
 62
     7
370
    15
100
AcDbLine
 10
72.2163191157
 20
142.978341448
 30
0.0
 11
70.7626298161
 21
134.9901995984
 31
0.0
  0
ARC
  5
2A6
330
1F
100
AcDbEntity
  8
0
  6
Continuous
 62
     7
370
    15
100
AcDbCircle
 10
77.7979660573
 20
142.0458779141
 30
0.0
 40
5.658999100805138
100
AcDbArc
 50
162.4374912822
 51
170.5158158963
  0
LINE
  5
2A7
330
1F
100
AcDbEntity
  8
0
  6
Continuous
 62
     7
370
    15
100
AcDbLine
 10
73.8606616713
 20
147.8712867376
 30
0.0
 11
72.4027424211
 21
143.7534588751
 31
0.0
  0
LWPOLYLINE
  5
2A8
330
1F
100
AcDbEntity
  8
0
  6
Continuous
 62
     7
370
    15
100
AcDbPolyline
 90
       27
 70
   128
 43
0.0
 10
72.553920755
 20
140.7937753376
 10
72.6572910415
 20
141.4056319174
 10
72.7406027353
 20
141.9923763153
 10
72.7990138902
 20
142.5199109492
 10
72.8291303011
 20
142.9575692293
 10
72.8292013144
 20
143.2799260494
 10
72.7992229721
 20
143.468239474
 10
72.7409373129
 20
143.5115720507
 10
72.6577320228
 20
143.4074017581
 10
72.5544422956
 20
143.1617784676
 10
72.437071204
 20
142.7889849421
 10
72.3124399873
 20
142.3106837448
 10
72.187791541
 20
141.7546692666
 10
72.070370158
 20
141.1532584008
 10
71.9669998715
 20
140.5414018211
 10
71.8836881777
 20
139.9546574232
 10
71.8252770228
 20
139.4271265146
 10
71.7951606119
 20
138.9894645092
 10
71.7950895986
 20
138.6671076891
 10
71.8250679409
 20
138.4787942645
 10
71.8833536001
 20
138.4354616877
 10
71.9665588902
 20
138.5396357056
 10
72.0698486174
 20
138.7852552709
 10
72.187219709
 20
139.1580487963
 10
72.3118509257
 20
139.6363499936
 10
72.436499372
 20
140.1923644718
 10
72.553920755
 20
140.7937753376
  0
LINE
  5
2A9
330
1F
100
AcDbEntity
  8
0
  6
Continuous
 62
     7
370
    15
100
AcDbLine
 10
69.788441723
 20
130.1555308875
 30
0.0
 11
69.6753232831
 21
130.1845956024
 31
0.0
  0
LINE
  5
2AA
330
1F
100
AcDbEntity
  8
0
  6
Continuous
 62
     7
370
    15
100
AcDbLine
 10
72.5232427566
 20
144.3933445391
 30
0.0
 11
72.2727560995
 21
144.4577063796
 31
0.0
  0
LINE
  5
2AB
330
1F
100
AcDbEntity
  8
0
  6
Continuous
 62
     7
370
    15
100
AcDbLine
 10
68.3970150629
 20
114.3146740635
 30
0.0
 11
102.0252855586
 21
108.3851027199
 31
0.0
  0
LINE
  5
2AC
330
1F
100
AcDbEntity
  8
0
  6
Continuous
 62
     7
370
    15
100
AcDbLine
 10
72.5224397237
 20
136.9842245605
 30
0.0
 11
68.3970150629
 21
114.3146740635
 31
0.0
  0
LINE
  5
2AD
330
1F
100
AcDbEntity
  8
0
  6
Continuous
 62
     7
370
    15
100
AcDbLine
 10
72.5224397237
 20
136.9842245605
 30
0.0
 11
81.5526262948
 21
135.3919591185
 31
0.0
  0
LINE
  5
2AE
330
1F
100
AcDbEntity
  8
0
  6
Continuous
 62
     7
370
    15
100
AcDbLine
 10
81.5526262948
 20
135.3919591185
 30
0.0
 11
81.6313142048
 21
135.8243572888
 31
0.0
  0
SPLINE
  5
2AF
330
1F
100
AcDbEntity
  8
0
  6
Continuous
 62
     7
370
    15
100
AcDbSpline
210
0.0
220
0.0
230
1.0
 70
     8
 71
     3
 72
    32
 73
    28
 74
     0
 42
0.00000001
 43
0.00000001
 40
0.0
 40
0.0
 40
0.0
 40
0.0
 40
0.0312417979875585
 40
0.0624501748954326
 40
0.0936327448560696
 40
0.1247971409175003
 40
0.1559510094861866
 40
0.1871020047209109
 40
0.2182577828981649
 40
0.2494259967697404
 40
0.2806142899332955
 40
0.3118302912365545
 40
0.3430816092355098
 40
0.3743758267265447
 40
0.4057204953717563
 40
0.4371231304359927
 40
0.4685912056531837
 40
0.5001321482384876
 40
0.556136950274127
 40
0.611926571620835
 40
0.6675430781438818
 40
0.7230289294440855
 40
0.7784268855440135
 40
0.8337799101628355
 40
0.8891310716476263
 40
0.9445234426912991
 40
1.0
 40
1.0
 40
1.0
 40
1.0
 10
102.0252848523985
 20
138.7021126122725
 30
0.0
 10
101.8690287379888
 20
138.8555038736706
 30
0.0
 10
101.5566836649795
 20
139.1621223053482
 30
0.0
 10
101.0793172293048
 20
139.6124317391668
 30
0.0
 10
100.5958447272951
 20
140.0553261432222
 30
0.0
 10
100.1056096648309
 20
140.4901401123913
 30
0.0
 10
99.608787853407
 20
140.9170516311134
 30
0.0
 10
99.10533232849389
 20
141.336012940504
 30
0.0
 10
98.5952557841902
 20
141.7470367355155
 30
0.0
 10
98.0785549400853
 20
142.1501195249806
 30
0.0
 10
97.55523080088729
 20
142.5452621631127
 30
0.0
 10
97.02528322995352
 20
142.9324643469563
 30
0.0
 10
96.48871239040528
 20
143.3117260946628
 30
0.0
 10
95.94551840644003
 20
143.6830473387064
 30
0.0
 10
95.39570127214215
 20
144.0464280747164
 30
0.0
 10
94.83926155373125
 20
144.4018681737235
 30
0.0
 10
94.2761976609053
 20
144.749367986188
 30
0.0
 10
93.55972472046379
 20
145.176420951053
 30
0.0
 10
92.68596024337452
 20
145.6723177126766
 30
0.0
 10
91.64982130773434
 20
146.2231967252292
 30
0.0
 10
90.60198990533536
 20
146.7435387040067
 30
0.0
 10
89.54247547336527
 20
147.2333536707228
 30
0.0
 10
88.47126281150179
 20
147.6925866463436
 30
0.0
 10
87.38841321718525
 20
148.1214396770913
 30
0.0
 10
86.29370761874337
 20
148.5191533722569
 30
0.0
 10
85.18797317956748
 20
148.8885602267656
 30
0.0
 10
84.44216702256882
 20
149.1086738118988
 30
0.0
 10
84.06898078703117
 20
149.2188141740502
 30
0.0
  0
LINE
  5
2B0
330
1F
100
AcDbEntity
  8
0
  6
Continuous
 62
     7
370
    15
100
AcDbLine
 10
102.0252855586
 20
138.702114242
 30
0.0
 11
102.0252855586
 21
108.3851027199
 31
0.0
  0
LWPOLYLINE
  5
2B1
330
1F
100
AcDbEntity
  8
0
  6
Continuous
 62
     7
370
    15
100
AcDbPolyline
 90
       12
 70
   128
 43
0.0
 10
70.1159208173
 20
132.6174094704
 10
70.0691181326
 20
132.4536159065
 10
69.9486012662
 20
131.9684806642
 10
69.8313081728
 20
131.4090221551
 10
69.7267420681
 20
130.8205659863
 10
69.6433742622
 20
130.2507846978
 10
69.5879582407
 20
129.7458383617
 10
69.5649839098
 20
129.3466362533
 10
69.5763120519
 20
129.0855176177
 10
69.6210253144
 20
128.9836383787
 10
69.695501318
 20
129.049250054
 10
69.7937060239
 20
129.2770403799
  0
LINE
  5
2B2
330
1F
100
AcDbEntity
  8
0
  6
Continuous
 62
     7
370
    15
100
AcDbLine
 10
68.3970150629
 20
114.3146740635
 30
0.0
 11
60.7941692786
 21
84.2378522631
 31
0.0
  0
ARC
  5
2B3
330
1F
100
AcDbEntity
  8
0
  6
Continuous
 62
     7
370
    15
100
AcDbCircle
 10
75.0252848583
 20
107.1829024133
 30
0.0
 40
26.99999999999984
100
AcDbArc
 50
237.2820376596
 51
238.1917363184
  0
SPLINE
  5
2B4
330
1F
100
AcDbEntity
  8
0
  6
Continuous
 62
     7
370
    15
100
AcDbSpline
210
0.0
220
0.0
230
1.0
 70
     8
 71
     3
 72
     8
 73
     4
 74
     0
 42
0.00000001
 43
0.00000001
 40
0.0
 40
0.0
 40
0.0
 40
0.0
 40
1.0
 40
1.0
 40
1.0
 40
1.0
 10
60.43167390923384
 20
84.46668531033453
 30
0.0
 10
60.44571175573653
 20
84.56030255878672
 30
0.0
 10
60.45975268924317
 20
84.65392469634628
 30
0.0
 10
60.47379680029281
 20
84.74755186640631
 30
0.0
  0
SPLINE
  5
2B5
330
1F
100
AcDbEntity
  8
0
  6
Continuous
 62
     7
370
    15
100
AcDbSpline
210
0.0
220
0.0
230
1.0
 70
     8
 71
     3
 72
    10
 73
     6
 74
     0
 42
0.00000001
 43
0.00000001
 40
0.0
 40
0.0
 40
0.0
 40
0.0
 40
0.5
 40
0.5
 40
1.0
 40
1.0
 40
1.0
 40
1.0
 10
60.52173123238294
 20
85.60404859244363
 30
0.0
 10
60.54381294851088
 20
85.5892070556006
 30
0.0
 10
60.5493356751678
 20
85.48799944417162
 30
0.0
 10
60.53069048564179
 20
85.17549685020911
 30
0.0
 10
60.50729020672398
 20
84.97084067754847
 30
0.0
 10
60.4737968002928
 20
84.74755186640631
 30
0.0
  0
LINE
  5
2B6
330
1F
100
AcDbEntity
  8
0
  6
Continuous
 62
     7
370
    15
100
AcDbLine
 10
60.5091773024
 20
85.6124916285
 30
0.0
 11
60.5217312324
 21
85.6040485924
 31
0.0
  0
LINE
  5
2B7
330
1F
100
AcDbEntity
  8
0
  6
Continuous
 62
     7
370
    15
100
AcDbLine
 10
68.7768052175
 20
132.4208996036
 30
0.0
 11
68.7621206937
 21
132.4172594419
 31
0.0
  0
SPLINE
  5
2B8
330
1F
100
AcDbEntity
  8
0
  6
Continuous
 62
     7
370
    15
100
AcDbSpline
210
0.0
220
0.0
230
1.0
 70
     8
 71
     3
 72
    12
 73
     8
 74
     0
 42
0.00000001
 43
0.00000001
 40
0.0
 40
0.0
 40
0.0
 40
0.0
 40
0.2500000000000028
 40
0.2500000000000028
 40
0.5000000000000056
 40
0.5000000000000056
 40
1.0
 40
1.0
 40
1.0
 40
1.0
 10
69.02470071834111
 20
133.2421377981313
 30
0.0
 10
69.00223678161001
 20
133.1314195358854
 30
0.0
 10
68.97933935935765
 20
133.0275209137165
 30
0.0
 10
68.93267772299367
 20
132.8333601306033
 30
0.0
 10
68.90946201186017
 20
132.7456005365299
 30
0.0
 10
68.84293730487147
 20
132.5220919246437
 30
0.0
 10
68.80265769580686
 20
132.4273002178661
 30
0.0
 10
68.77680521746001
 20
132.4208996036098
 30
0.0
  0
SPLINE
  5
2B9
330
1F
100
AcDbEntity
  8
0
  6
Continuous
 62
     7
370
    15
100
AcDbSpline
210
0.0
220
0.0
230
1.0
 70
     8
 71
     3
 72
     8
 73
     4
 74
     0
 42
0.00000001
 43
0.00000001
 40
0.0
 40
0.0
 40
0.0
 40
0.0
 40
1.0
 40
1.0
 40
1.0
 40
1.0
 10
69.02470071834111
 20
133.2421377981313
 30
0.0
 10
69.07586667011142
 20
133.4943200106251
 30
0.0
 10
69.12704195942209
 20
133.7464592838689
 30
0.0
 10
69.1782258850459
 20
133.9985588424985
 30
0.0
  0
LWPOLYLINE
  5
2BA
330
1F
100
AcDbEntity
  8
0
  6
Continuous
 62
     7
370
    15
100
AcDbPolyline
 90
       31
 70
   128
 43
0.0
 10
69.0921579579
 20
122.3008000654
 10
69.1803481521
 20
122.3629127619
 10
69.291246319
 20
122.5729539421
 10
69.4200053903
 20
122.9217435595
 10
69.5609987805
 20
123.3940377262
 10
69.7080639282
 20
123.9691964713
 10
69.8547733108
 20
124.6220796731
 10
69.9947152378
 20
125.3241553333
 10
70.121773714
 20
126.0447382358
 10
70.2303952629
 20
126.7523347762
 10
70.3158324676
 20
127.4160231826
 10
70.3743521216
 20
128.0067927566
 10
70.4033958817
 20
128.4988272366
 10
70.401694821
 20
128.8706205216
 10
70.3693229797
 20
129.105924758
 10
70.3076955022
 20
129.1944544193
 10
70.219505308
 20
129.1323407915
 10
70.1086071411
 20
128.9222996113
 10
69.9798476042
 20
128.5735099938
 10
69.838854214
 20
128.1012158272
 10
69.6917895319
 20
127.5260589447
 10
69.5450796837
 20
126.8731757429
 10
69.4051377567
 20
126.1711000827
 10
69.2780797461
 20
125.4505171802
 10
69.1694581973
 20
124.7429187772
 10
69.0840205269
 20
124.0792322334
 10
69.0255013386
 20
123.4884607968
 10
68.9964575784
 20
122.9964263168
 10
68.9981586391
 20
122.6246330318
 10
69.0305304805
 20
122.3893297267
 10
69.0921579579
 20
122.3008000654
  0
LINE
  5
2BB
330
1F
100
AcDbEntity
  8
0
  6
Continuous
 62
     7
370
    15
100
AcDbLine
 10
69.7937060239
 20
129.2770403799
 30
0.0
 11
72.5224397237
 21
136.9842245605
 31
0.0
  0
SPLINE
  5
2BC
330
1F
100
AcDbEntity
  8
0
  6
Continuous
 62
     7
370
    15
100
AcDbSpline
210
0.0
220
0.0
230
1.0
 70
     8
 71
     3
 72
     9
 73
     5
 74
     0
 42
0.00000001
 43
0.00000001
 40
0.0
 40
0.0
 40
0.0
 40
0.0
 40
0.3733698482890102
 40
1.0
 40
1.0
 40
1.0
 40
1.0
 10
71.76433825848446
 20
141.6755999800402
 30
0.0
 10
71.44438269687711
 20
140.7385791351615
 30
0.0
 10
70.58744268666058
 20
138.2289473339525
 30
0.0
 10
69.7211013015581
 20
135.6282403793754
 30
0.0
 10
69.17822566797783
 20
133.9985589858729
 30
0.0
  0
SPLINE
  5
2BD
330
1F
100
AcDbEntity
  8
0
  6
Continuous
 62
     7
370
    15
100
AcDbSpline
210
0.0
220
0.0
230
1.0
 70
     8
 71
     3
 72
    25
 73
    21
 74
     0
 42
0.00000001
 43
0.00000001
 40
0.0
 40
0.0
 40
0.0
 40
0.0
 40
0.0310354678805044
 40
0.0649876448281874
 40
0.1018464557017013
 40
0.141600899804517
 40
0.1842390525840403
 40
0.2297480668375158
 40
0.2781141736087243
 40
0.3293226828860502
 40
0.3833579841708163
 40
0.4402035469601971
 40
0.4998419211741182
 40
0.5903454637669062
 40
0.6744135892862826
 40
0.7521011502912017
 40
0.823458918633278
 40
0.8885335865458124
 40
0.9473677679306314
 40
1.0
 40
1.0
 40
1.0
 40
1.0
 10
84.0692822406143
 20
149.6184935943883
 30
0.0
 10
84.27774420716247
 20
149.5579791606372
 30
0.0
 10
84.71425936763559
 20
149.4312631548487
 30
0.0
 10
85.3940872836996
 20
149.2187340427172
 30
0.0
 10
86.12814416751758
 20
148.975931404456
 30
0.0
 10
86.91461601361854
 20
148.698825441216
 30
0.0
 10
87.75187842125682
 20
148.3845950351291
 30
0.0
 10
88.63794554839919
 20
148.0298364360351
 30
0.0
 10
89.57060817077242
 20
147.6311242454865
 30
0.0
 10
90.54736589081111
 20
147.1848706656987
 30
0.0
 10
91.56541421138371
 20
146.6873940879852
 30
0.0
 10
92.62163971557898
 20
146.134940118879
 30
0.0
 10
93.88380681195345
 20
145.4276951733905
 30
0.0
 10
95.2816226520021
 20
144.5749554606104
 30
0.0
 10
96.74615391493714
 20
143.5927060670986
 30
0.0
 10
98.0620468863689
 20
142.6316211859694
 30
0.0
 10
99.23743658796916
 20
141.7050534477076
 30
0.0
 10
100.2795708902731
 20
140.8237866222622
 30
0.0
 10
101.19852394356
 20
140.000198434581
 30
0.0
 10
101.7603314825527
 20
139.4604835116555
 30
0.0
 10
102.0256058719789
 20
139.2056408178391
 30
0.0
  0
LINE
  5
2BE
330
1F
100
AcDbEntity
  8
0
  6
Continuous
 62
     7
370
    15
100
AcDbLine
 10
102.0252855586
 20
139.2070698914
 30
0.0
 11
102.0252855586
 21
138.7018534717
 31
0.0
  0
ARC
  5
2BF
330
1F
100
AcDbEntity
  8
0
  6
Continuous
 62
     7
370
    15
100
AcDbCircle
 10
75.0252848583
 20
107.1829024133
 30
0.0
 40
26.99999999999999
100
AcDbArc
 50
238.1917363184
 51
0.0
  0
LINE
  5
2C0
330
1F
100
AcDbEntity
  8
0
  6
Continuous
 62
     7
370
    15
100
AcDbLine
 10
102.0252855586
 20
108.3851027199
 30
0.0
 11
102.0252855586
 21
107.1829024133
 31
0.0
  0
SPLINE
  5
2C1
330
1F
100
AcDbEntity
  8
0
  6
Continuous
 62
     7
370
    15
100
AcDbSpline
210
0.0
220
0.0
230
1.0
 70
     8
 71
     3
 72
    16
 73
    12
 74
     0
 42
0.00000001
 43
0.00000001
 40
0.0
 40
0.0
 40
0.0
 40
0.0
 40
0.2500000000000026
 40
0.2500000000000026
 40
0.3750000000000027
 40
0.3750000000000027
 40
0.5000000000000028
 40
0.5000000000000028
 40
0.7500000000000013
 40
0.7500000000000013
 40
1.0
 40
1.0
 40
1.0
 40
1.0
 10
68.76212069365681
 20
132.4172594419022
 30
0.0
 10
68.68985746678815
 20
132.3993237183001
 30
0.0
 10
68.51023984477291
 20
132.355086517848
 30
0.0
 10
68.08895642525478
 20
132.2410051726781
 30
0.0
 10
67.92659050546554
 20
132.1957927518965
 30
0.0
 10
67.56157033883977
 20
132.0893094238998
 30
0.0
 10
67.35797922554421
 20
132.027749061216
 30
0.0
 10
66.69382463680353
 20
131.8162678568353
 30
0.0
 10
66.19478005718713
 20
131.6442305595538
 30
0.0
 10
65.11596409201854
 20
131.2274392496011
 30
0.0
 10
64.55534140110956
 20
130.9901141353648
 30
0.0
 10
63.98061020432844
 20
130.720429084313
 30
0.0
  0
SPLINE
  5
2C2
330
1F
100
AcDbEntity
  8
0
  6
Continuous
 62
     7
370
    15
100
AcDbSpline
210
0.0
220
0.0
230
1.0
 70
     8
 71
     3
 72
    20
 73
    16
 74
     0
 42
0.00000001
 43
0.00000001
 40
0.0
 40
0.0
 40
0.0
 40
0.0
 40
0.2499999999999977
 40
0.2499999999999977
 40
0.3749999999999976
 40
0.3749999999999976
 40
0.4999999999999974
 40
0.4999999999999974
 40
0.6249999999999981
 40
0.6249999999999981
 40
0.7499999999999987
 40
0.7499999999999987
 40
0.8749999999999993
 40
0.8749999999999993
 40
1.0
 40
1.0
 40
1.0
 40
1.0
 10
56.59637734142466
 20
88.84236349710318
 30
0.0
 10
57.04465350292067
 20
88.39192744612566
 30
0.0
 10
57.4893737993262
 20
87.97814376181842
 30
0.0
 10
58.1393087111984
 20
87.41053425863943
 30
0.0
 10
58.35392528991478
 20
87.22959403066042
 30
0.0
 10
58.75970721468745
 20
86.89744631316063
 30
0.0
 10
58.95270097400378
 20
86.7445879838923
 30
0.0
 10
59.31591981459317
 20
86.46410661439789
 30
0.0
 10
59.48708879002924
 20
86.33580093966543
 30
0.0
 10
59.7979803713578
 20
86.10764737403737
 30
0.0
 10
59.93485348350505
 20
86.00981566082264
 30
0.0
 10
60.17022320480562
 20
85.84402088271858
 30
0.0
 10
60.2687470956738
 20
85.77604856906221
 30
0.0
 10
60.42358618413326
 20
85.67013424931896
 30
0.0
 10
60.47822894273594
 20
85.63331875696362
 30
0.0
 10
60.50917730235492
 20
85.61249162847778
 30
0.0
  0
ELLIPSE
  5
2C3
330
1F
100
AcDbEntity
  8
0
  6
Continuous
 62
     7
370
    15
100
AcDbEllipse
 10
57.2614337923
 20
118.773957587
 30
0.0
 11
2.533896397776048
 21
3.263429543944938
 31
0.0
210
0.0
220
0.0
230
1.0
 40
0.5891566581
 41
0.0
 42
6.283185307179586
  0
ARC
  5
2C4
330
1F
100
AcDbEntity
  8
0
  6
Continuous
 62
     7
370
    15
100
AcDbCircle
 10
75.0252848583
 20
107.1829024133
 30
0.0
 40
26.00000000000002
100
AcDbArc
 50
115.1376996012
 51
224.8623003988
  0
SPLINE
  5
2C5
330
1F
100
AcDbEntity
  8
0
  6
Continuous
 62
     7
370
    15
100
AcDbSpline
210
0.0
220
0.0
230
1.0
 70
     8
 71
     3
 72
    10
 73
     6
 74
     0
 42
0.00000001
 43
0.00000001
 40
0.0
 40
0.0
 40
0.0
 40
0.0
 40
0.5
 40
0.5
 40
1.0
 40
1.0
 40
1.0
 40
1.0
 10
55.15086051783378
 20
116.9020671169244
 30
0.0
 10
54.97025744977074
 20
116.6939650762485
 30
0.0
 10
54.82291734685869
 20
116.4759281429552
 30
0.0
 10
54.65733242818587
 20
116.0098601593951
 30
0.0
 10
54.64220025757125
 20
115.777212348695
 30
0.0
 10
54.65333884626661
 20
115.5351375586042
 30
0.0
  0
SPLINE
  5
2C6
330
1F
100
AcDbEntity
  8
0
  6
Continuous
 62
     7
370
    15
100
AcDbSpline
210
0.0
220
0.0
230
1.0
 70
     8
 71
     3
 72
    11
 73
     7
 74
     0
 42
0.00000001
 43
0.00000001
 40
0.0
 40
0.0
 40
0.0
 40
0.0
 40
0.4145440844845841
 40
0.6903778448858127
 40
0.9657925398872835
 40
1.0
 40
1.0
 40
1.0
 40
1.0
 10
54.6533392833715
 20
115.5351373728949
 30
0.0
 10
54.79700432446823
 20
115.5470917776471
 30
0.0
 10
55.03626274153406
 20
115.5670005316218
 30
0.0
 10
55.35679172910317
 20
115.4542143060359
 30
0.0
 10
55.53507225747287
 20
115.3434677827631
 30
0.0
 10
55.59754482401181
 20
115.2581668060126
 30
0.0
 10
55.60444687476212
 20
115.2487426426846
 30
0.0
  0
SPLINE
  5
2C7
330
1F
100
AcDbEntity
  8
0
  6
Continuous
 62
     7
370
    15
100
AcDbSpline
210
0.0
220
0.0
230
1.0
 70
     8
 71
     3
 72
    14
 73
    10
 74
     0
 42
0.00000001
 43
0.00000001
 40
0.0
 40
0.0
 40
0.0
 40
0.0
 40
0.1024061977625118
 40
0.4563410926461045
 40
0.5966736410001492
 40
0.7384039274368068
 40
0.821392813797509
 40
0.9238084242755377
 40
1.0
 40
1.0
 40
1.0
 40
1.0
 10
57.84880761971527
 20
116.0314214777786
 30
0.0
 10
57.79501928743513
 20
116.0748337285477
 30
0.0
 10
57.55532845952988
 20
116.2682868044655
 30
0.0
 10
57.00588222049955
 20
116.3335214363797
 30
0.0
 10
56.38296323266757
 20
116.3995761426826
 30
0.0
 10
55.97228492895729
 20
116.4589980339436
 30
0.0
 10
55.60373536523498
 20
116.6010429151685
 30
0.0
 10
55.35514133825183
 20
116.7563491450327
 30
0.0
 10
55.21194631083098
 20
116.858493822599
 30
0.0
 10
55.15086111595684
 20
116.9020674553353
 30
0.0
  0
LWPOLYLINE
  5
2C8
330
1F
100
AcDbEntity
  8
0
  6
Continuous
 62
     7
370
    15
100
AcDbPolyline
 90
        9
 70
   128
 43
0.0
 10
54.6533392834
 20
115.5351373729
 10
54.7361189591
 20
115.7625756588
 10
54.814608963
 20
115.9782243323
 10
54.8879301267
 20
116.1796740618
 10
54.9552647488
 20
116.364674772
 10
55.0158603208
 20
116.5311579954
 10
55.0690388398
 20
116.6772657436
 10
55.1142079847
 20
116.8013644767
 10
55.150861116
 20
116.9020674553
  0
SPLINE
  5
2C9
330
1F
100
AcDbEntity
  8
0
  6
Continuous
 62
     7
370
    15
100
AcDbSpline
210
0.0
220
0.0
230
1.0
 70
    24
 71
     3
 72
    10
 73
     6
 74
     0
 42
0.00000001
 43
0.00000001
 40
0.0
 40
0.0
 40
0.0
 40
0.0
 40
0.5
 40
0.5
 40
1.0
 40
1.0
 40
1.0
 40
1.0
 10
66.02528485825115
 20
77.62262501269973
 30
0.0
 10
66.02528485825115
 20
77.46273774450607
 30
0.0
 10
66.02528485825115
 20
77.30161048899149
 30
0.0
 10
66.02528485825117
 20
77.06751149063663
 30
0.0
 10
66.02528485825117
 20
76.99598471704542
 30
0.0
 10
66.02528485825117
 20
76.99598471704542
 30
0.0
  0
ARC
  5
2CA
330
1F
100
AcDbEntity
  8
0
  6
Continuous
 62
     7
370
    15
100
AcDbCircle
 10
75.0252848583
 20
107.1829024133
 30
0.0
 40
31.5
100
AcDbArc
 50
140.9381656697
 51
253.398450401
  0
SPLINE
  5
2CB
330
1F
100
AcDbEntity
  8
0
  6
Continuous
 62
     7
370
    15
100
AcDbSpline
210
0.0
220
0.0
230
1.0
 70
    24
 71
     3
 72
    12
 73
     8
 74
     0
 42
0.00000001
 43
0.00000001
 40
0.0
 40
0.0
 40
0.0
 40
0.0
 40
0.249999999999998
 40
0.249999999999998
 40
0.499999999999996
 40
0.499999999999996
 40
1.0
 40
1.0
 40
1.0
 40
1.0
 10
50.56659519588356
 20
127.0329024132926
 30
0.0
 10
50.56659519588356
 20
127.0329024132926
 30
0.0
 10
50.59442491618704
 20
127.0329024132926
 30
0.0
 10
50.68956737744371
 20
127.0329024132926
 30
0.0
 10
50.75599019374408
 20
127.0329024132926
 30
0.0
 10
50.9801896252642
 20
127.0329024132926
 30
0.0
 10
51.1641760278098
 20
127.0329024132926
 30
0.0
 10
51.34433259699278
 20
127.0329024132926
 30
0.0
  0
SPLINE
  5
2CC
330
1F
100
AcDbEntity
  8
0
  6
Continuous
 62
     7
370
    15
100
AcDbSpline
210
0.0
220
0.0
230
1.0
 70
    24
 71
     3
 72
    10
 73
     6
 74
     0
 42
0.00000001
 43
0.00000001
 40
0.0
 40
0.0
 40
0.0
 40
0.0
 40
0.5
 40
0.5
 40
1.0
 40
1.0
 40
1.0
 40
1.0
 10
67.02528485825117
 20
137.0293427370565
 30
0.0
 10
67.02528485825115
 20
137.1897480034073
 30
0.0
 10
67.02528485825117
 20
137.3488098163958
 30
0.0
 10
67.02528485825117
 20
137.5797222820262
 30
0.0
 10
67.02528485825117
 20
137.6500978864568
 30
0.0
 10
67.02528485825117
 20
137.6500978864568
 30
0.0
  0
SPLINE
  5
2CD
330
1F
100
AcDbEntity
  8
0
  6
Continuous
 62
     7
370
    15
100
AcDbSpline
210
0.0
220
0.0
230
1.0
 70
    24
 71
     3
 72
    12
 73
     8
 74
     0
 42
0.00000001
 43
0.00000001
 40
0.0
 40
0.0
 40
0.0
 40
0.0
 40
0.2499999999999987
 40
0.2499999999999987
 40
0.4999999999999973
 40
0.4999999999999973
 40
1.0
 40
1.0
 40
1.0
 40
1.0
 10
55.17528485825115
 20
131.64159207566
 30
0.0
 10
55.17528485825115
 20
131.64159207566
 30
0.0
 10
55.17528485825115
 20
131.6133723770721
 30
0.0
 10
55.17528485825115
 20
131.518929369824
 30
0.0
 10
55.17528485825115
 20
131.4526423931187
 30
0.0
 10
55.17528485825115
 20
131.2270175698303
 30
0.0
 10
55.17528485825115
 20
131.0445913067978
 30
0.0
 10
55.17528485825115
 20
130.8638546745509
 30
0.0
  0
ARC
  5
2CE
330
1F
100
AcDbEntity
  8
0
  6
Continuous
 62
     7
370
    15
100
AcDbCircle
 10
75.0252848583
 20
107.1829024133
 30
0.0
 40
31.5
100
AcDbArc
 50
104.7124579609
 51
129.0618343303
  0
ARC
  5
2CF
330
1F
100
AcDbEntity
  8
0
  6
Continuous
 62
     7
370
    15
100
AcDbCircle
 10
75.0252848583
 20
107.1829024133
 30
0.0
 40
31.5
100
AcDbArc
 50
286.601549599
 51
31.0027191339
  0
SPLINE
  5
2D0
330
1F
100
AcDbEntity
  8
0
  6
Continuous
 62
     7
370
    15
100
AcDbSpline
210
0.0
220
0.0
230
1.0
 70
    24
 71
     3
 72
    12
 73
     8
 74
     0
 42
0.00000001
 43
0.00000001
 40
0.0
 40
0.0
 40
0.0
 40
0.0
 40
0.2499999999999999
 40
0.2499999999999999
 40
0.4999999999999998
 40
0.4999999999999998
 40
1.0
 40
1.0
 40
1.0
 40
1.0
 10
84.02528485825117
 20
76.99598471704542
 30
0.0
 10
84.02528485825117
 20
76.9959847170454
 30
0.0
 10
84.02528485825117
 20
77.01310180331126
 30
0.0
 10
84.02528485825117
 20
77.07783791478637
 30
0.0
 10
84.02528485825117
 20
77.1252951576667
 30
0.0
 10
84.02528485825117
 20
77.30211960020618
 30
0.0
 10
84.02528485825117
 20
77.46239610741189
 30
0.0
 10
84.02528485825117
 20
77.62262501269966
 30
0.0
  0
LINE
  5
2D1
330
1F
100
AcDbEntity
  8
0
  6
Continuous
 62
     7
370
    15
100
AcDbLine
 10
84.0252844708
 20
77.6226251748
 30
0.0
 11
84.0252844708
 21
80.7829025563
 31
0.0
  0
LINE
  5
2D2
330
1F
100
AcDbEntity
  8
0
  6
Continuous
 62
     7
370
    15
100
AcDbLine
 10
84.0252844708
 20
80.7829025563
 30
0.0
 11
80.685673477
 21
80.7829025563
 31
0.0
  0
LINE
  5
2D3
330
1F
100
AcDbEntity
  8
0
  6
Continuous
 62
     7
370
    15
100
AcDbLine
 10
67.0252844783
 20
133.5829022702
 30
0.0
 11
67.0252844783
 21
137.029343414
 31
0.0
  0
LINE
  5
2D4
330
1F
100
AcDbEntity
  8
0
  6
Continuous
 62
     7
370
    15
100
AcDbLine
 10
66.0252852457
 20
80.7829025563
 30
0.0
 11
66.0252852457
 21
77.6226251748
 31
0.0
  0
LINE
  5
2D5
330
1F
100
AcDbEntity
  8
0
  6
Continuous
 62
     7
370
    15
100
AcDbLine
 10
55.1752841192
 20
130.8638538596
 30
0.0
 11
55.1752841192
 21
127.0329031524
 31
0.0
  0
LINE
  5
2D6
330
1F
100
AcDbEntity
  8
0
  6
Continuous
 62
     7
370
    15
100
AcDbLine
 10
51.344333412
 20
127.0329031524
 30
0.0
 11
55.1752841192
 21
127.0329031524
 31
0.0
  0
LINE
  5
2D7
330
1F
100
AcDbEntity
  8
0
  6
Continuous
 62
     7
370
    15
100
AcDbLine
 10
69.0938632095
 20
133.5829022702
 30
0.0
 11
67.0252844783
 21
133.5829022702
 31
0.0
  0
LINE
  5
2D8
330
1F
100
AcDbEntity
  8
0
  6
Continuous
 62
     7
370
    15
100
AcDbLine
 10
69.3648962395
 20
80.7829025563
 30
0.0
 11
66.0252852457
 21
80.7829025563
 31
0.0
  0
SPLINE
  5
2D9
330
1F
100
AcDbEntity
  8
0
  6
Continuous
 62
     7
370
    15
100
AcDbSpline
210
0.0
220
0.0
230
1.0
 70
     8
 71
     3
 72
    30
 73
    26
 74
     0
 42
0.00000001
 43
0.00000001
 40
0.0
 40
0.0
 40
0.0
 40
0.0
 40
0.1250000000000002
 40
0.1250000000000002
 40
0.1875000000000003
 40
0.1875000000000003
 40
0.2500000000000004
 40
0.2500000000000004
 40
0.3750000000000004
 40
0.3750000000000004
 40
0.4375000000000005
 40
0.4375000000000005
 40
0.5000000000000006
 40
0.5000000000000006
 40
0.6250000000000003
 40
0.6250000000000003
 40
0.6875000000000002
 40
0.6875000000000002
 40
0.75
 40
0.75
 40
0.8124999999999999
 40
0.8124999999999999
 40
0.8749999999999998
 40
0.8749999999999998
 40
1.0
 40
1.0
 40
1.0
 40
1.0
 10
76.02528485825123
 20
75.69877943043024
 30
0.0
 10
76.55670278865183
 20
75.71565834843884
 30
0.0
 10
77.078361986226
 20
75.74567591326354
 30
0.0
 10
77.84700377338503
 20
75.80848630253664
 30
0.0
 10
78.10089357255004
 20
75.83239020976355
 30
0.0
 10
78.60396634849613
 20
75.88582550220593
 30
0.0
 10
78.85343019671276
 20
75.91543237037348
 30
0.0
 10
79.57834109430962
 20
76.00988206908792
 30
0.0
 10
80.03621843120182
 20
76.08090946291713
 30
0.0
 10
80.68598565668465
 20
76.1949237496229
 30
0.0
 10
80.89737236009482
 20
76.23437900076347
 30
0.0
 10
81.30200617086498
 20
76.31390044353414
 30
0.0
 10
81.4947466423662
 20
76.35383658603493
 30
0.0
 10
82.04517751874313
 20
76.47277298886308
 30
0.0
 10
82.37536089602375
 20
76.55093775274695
 30
0.0
 10
82.81403671267418
 20
76.66064719301582
 30
0.0
 10
82.94983527116071
 20
76.69572802972422
 30
0.0
 10
83.19671230400688
 20
76.76096830910384
 30
0.0
 10
83.30849084133489
 20
76.79130312514859
 30
0.0
 10
83.50892103120849
 20
76.84664150437042
 30
0.0
 10
83.59757337441198
 20
76.87164618093051
 30
0.0
 10
83.7512409220931
 20
76.9155259898212
 30
0.0
 10
83.81648862634495
 20
76.93446967458351
 30
0.0
 10
83.97279367970921
 20
76.98018940185369
 30
0.0
 10
84.02528485825121
 20
76.9959847170454
 30
0.0
 10
84.02528485825121
 20
76.9959847170454
 30
0.0
  0
SPLINE
  5
2DA
330
1F
100
AcDbEntity
  8
0
  6
Continuous
 62
     7
370
    15
100
AcDbSpline
210
0.0
220
0.0
230
1.0
 70
     8
 71
     3
 72
    28
 73
    24
 74
     0
 42
0.00000001
 43
0.00000001
 40
0.0
 40
0.0
 40
0.0
 40
0.0
 40
0.1250000000000007
 40
0.1250000000000007
 40
0.1875000000000009
 40
0.1875000000000009
 40
0.2500000000000011
 40
0.2500000000000011
 40
0.3750000000000012
 40
0.3750000000000012
 40
0.4375000000000012
 40
0.4375000000000012
 40
0.5000000000000011
 40
0.5000000000000011
 40
0.6250000000000009
 40
0.6250000000000009
 40
0.7500000000000008
 40
0.7500000000000008
 40
0.8125000000000006
 40
0.8125000000000006
 40
0.8750000000000003
 40
0.8750000000000003
 40
1.0
 40
1.0
 40
1.0
 40
1.0
 10
66.02528485825121
 20
76.9959847170454
 30
0.0
 10
66.02528485825121
 20
76.9959847170454
 30
0.0
 10
66.07776120056944
 20
76.98020000309519
 30
0.0
 10
66.23155814812634
 20
76.93520458901898
 30
0.0
 10
66.29543312316035
 20
76.91664959394328
 30
0.0
 10
66.44892939181688
 20
76.87279687149679
 30
0.0
 10
66.53874436721057
 20
76.84745226454456
 30
0.0
 10
66.84072316226143
 20
76.76405018679446
 30
0.0
 10
67.08667659631719
 20
76.69818462764336
 30
0.0
 10
67.52204377574557
 20
76.58921428715158
 30
0.0
 10
67.67925895791792
 20
76.55097465138492
 30
0.0
 10
68.01142357846037
 20
76.47321591396557
 30
0.0
 10
68.18623084406325
 20
76.43371495179024
 30
0.0
 10
68.73629003464909
 20
76.31480720942425
 30
0.0
 10
69.13691341904456
 20
76.23498952799962
 30
0.0
 10
70.00949953039326
 20
76.08164636620356
 30
0.0
 10
70.46963497799483
 20
76.01031261293429
 30
0.0
 10
71.18960107196101
 20
75.91636910585969
 30
0.0
 10
71.43487478199553
 20
75.88717531249974
 30
0.0
 10
71.93633111842438
 20
75.83370873823633
 30
0.0
 10
72.19376248779689
 20
75.80934940396116
 30
0.0
 10
72.96970228366139
 20
75.74575925851643
 30
0.0
 10
73.49393068356741
 20
75.71565632342717
 30
0.0
 10
74.02528485825123
 20
75.69877943043024
 30
0.0
  0
SPLINE
  5
2DB
330
1F
100
AcDbEntity
  8
0
  6
Continuous
 62
     7
370
    15
100
AcDbSpline
210
0.0
220
0.0
230
1.0
 70
     8
 71
     3
 72
    13
 73
     9
 74
     0
 42
0.00000001
 43
0.00000001
 40
0.0
 40
0.0
 40
0.0
 40
0.0
 40
0.1663105764000481
 40
0.3326370189958796
 40
0.4987791597919413
 40
0.664942819127497
 40
0.8345136934627517
 40
1.0
 40
1.0
 40
1.0
 40
1.0
 10
67.02528447827159
 20
137.650097849651
 30
0.0
 10
67.04691710125803
 20
137.6559200632935
 30
0.0
 10
67.09018441100481
 20
137.6675650460234
 30
0.0
 10
67.42702657438701
 20
137.7537029895584
 30
0.0
 10
67.95644118692532
 20
137.8819665730866
 30
0.0
 10
68.6829087871234
 20
138.0409484811206
 30
0.0
 10
69.57325137654716
 20
138.2147203702044
 30
0.0
 10
70.28995411502139
 20
138.3228649082967
 30
0.0
 10
70.6439369449562
 20
138.3762780007559
 30
0.0
  0
SPLINE
  5
2DC
330
1F
100
AcDbEntity
  8
0
  6
Continuous
 62
     7
370
    15
100
AcDbSpline
210
0.0
220
0.0
230
1.0
 70
     8
 71
     3
 72
    20
 73
    16
 74
     0
 42
0.00000001
 43
0.00000001
 40
0.0
 40
0.0
 40
0.0
 40
0.0
 40
0.2500000000000006
 40
0.2500000000000006
 40
0.3750000000000006
 40
0.3750000000000006
 40
0.5000000000000006
 40
0.5000000000000006
 40
0.6250000000000004
 40
0.6250000000000004
 40
0.7500000000000002
 40
0.7500000000000002
 40
0.8750000000000001
 40
0.8750000000000001
 40
1.0
 40
1.0
 40
1.0
 40
1.0
 10
50.56659519588383
 20
127.0329024132926
 30
0.0
 10
51.0972519637185
 20
127.6867648415899
 30
0.0
 10
51.63097995998002
 20
128.2905506235871
 30
0.0
 10
52.41395227796876
 20
129.1173893597557
 30
0.0
 10
52.67193587806543
 20
129.3798179977086
 30
0.0
 10
53.17633113447326
 20
129.8764806518136
 30
0.0
 10
53.41910955690125
 20
130.1070675308351
 30
0.0
 10
53.86978963641432
 20
130.5236217554177
 30
0.0
 10
54.0792535024056
 20
130.7111195573852
 30
0.0
 10
54.45754201899365
 20
131.0425165350216
 30
0.0
 10
54.62128970517813
 20
131.1820205225169
 30
0.0
 10
54.88947550737756
 20
131.4074740299879
 30
0.0
 10
54.99469991546431
 20
131.4941001415315
 30
0.0
 10
55.13875914077782
 20
131.6120809303856
 30
0.0
 10
55.1752848582512
 20
131.64159207566
 30
0.0
 10
55.17528485825121
 20
131.64159207566
 30
0.0
  0
ARC
  5
2DD
330
1F
100
AcDbEntity
  8
0
  6
Continuous
 62
     7
370
    15
100
AcDbCircle
 10
75.0252848583
 20
107.1829024133
 30
0.0
 40
31.50000000000001
100
AcDbArc
 50
268.180780706
 51
271.819219294
  0
CIRCLE
  5
2DE
330
1F
100
AcDbEntity
  8
VERMASSUNG
  6
CENTERX2
100
AcDbCircle
 10
75.0252848583
 20
112.1556503073
 30
0.0
 40
40.00000000000001
  0
DIMENSION
  5
2DF
330
1F
100
AcDbEntity
  8
VERMASSUNG
100
AcDbDimension
  2
*D6
 10
31.9175073069
 20
152.1556503073
 30
0.0
 11
31.9175073069
 21
112.1556503073
 31
0.0
 70
   160
  1
%%c<>
 71
     2
 42
-1.0
  3
SLDDIMSTYLE2
100
AcDbAlignedDimension
 13
75.0252848583
 23
72.1556503073
 33
0.0
 14
75.0252848583
 24
152.1556503073
 34
0.0
 50
90.0
100
AcDbRotatedDimension
  0
INSERT
  5
2F6
330
1F
100
AcDbEntity
  8
VERMASSUNG
100
AcDbBlockReference
  2
SW_CENTERMARKSYMBOL_0
 10
75.0252848583
 20
107.1829024133
 30
0.0
  0
OLE2FRAME
  5
2F7
330
1F
100
AcDbEntity
  8
0
100
AcDbOle2Frame
 70
     2
  3
Bitmap Image
 10
13.8511154363
 20
38.264191557
 30
0.0
 11
51.6290888628
 21
31.9806341108
 31
0.0
 71
     2
 72
     0
 73
     1
 90
    12928
310
80552BED0767C5B32B40DDAF6807D121434000000000000000006FFBDDFB85D0
310
4940DDAF6807D121434000000000000000006FFBDDFB85D04940416F4BD60AFB
310
3F4000000000000000002BED0767C5B32B40416F4BD60AFB3F40000000000000
310
0000000000000100000000010000010000000100000000000100000000320000
310
D0CF11E0A1B11AE1000000000000000000000000000000003E000300FEFF0900
310
0600000000000000000000000100000001000000000000000010000002000000
310
01000000FEFFFFFF0000000000000000FFFFFFFFFFFFFFFFFFFFFFFFFFFFFFFF
310
FFFFFFFFFFFFFFFFFFFFFFFFFFFFFFFFFFFFFFFFFFFFFFFFFFFFFFFFFFFFFFFF
310
FFFFFFFFFFFFFFFFFFFFFFFFFFFFFFFFFFFFFFFFFFFFFFFFFFFFFFFFFFFFFFFF
310
FFFFFFFFFFFFFFFFFFFFFFFFFFFFFFFFFFFFFFFFFFFFFFFFFFFFFFFFFFFFFFFF
310
FFFFFFFFFFFFFFFFFFFFFFFFFFFFFFFFFFFFFFFFFFFFFFFFFFFFFFFFFFFFFFFF
310
FFFFFFFFFFFFFFFFFFFFFFFFFFFFFFFFFFFFFFFFFFFFFFFFFFFFFFFFFFFFFFFF
310
FFFFFFFFFFFFFFFFFFFFFFFFFFFFFFFFFFFFFFFFFFFFFFFFFFFFFFFFFFFFFFFF
310
FFFFFFFFFFFFFFFFFFFFFFFFFFFFFFFFFFFFFFFFFFFFFFFFFFFFFFFFFFFFFFFF
310
FFFFFFFFFFFFFFFFFFFFFFFFFFFFFFFFFFFFFFFFFFFFFFFFFFFFFFFFFFFFFFFF
310
FFFFFFFFFFFFFFFFFFFFFFFFFFFFFFFFFFFFFFFFFFFFFFFFFFFFFFFFFFFFFFFF
310
FFFFFFFFFFFFFFFFFFFFFFFFFFFFFFFFFFFFFFFFFFFFFFFFFFFFFFFFFFFFFFFF
310
FFFFFFFFFFFFFFFFFFFFFFFFFFFFFFFFFFFFFFFFFFFFFFFFFFFFFFFFFFFFFFFF
310
FFFFFFFFFFFFFFFFFFFFFFFFFFFFFFFFFFFFFFFFFFFFFFFFFFFFFFFFFFFFFFFF
310
FFFFFFFFFFFFFFFFFFFFFFFFFFFFFFFFFFFFFFFFFFFFFFFFFFFFFFFFFFFFFFFF
310
FDFFFFFFFEFFFFFFFEFFFFFFFEFFFFFF05000000060000000700000008000000
310
090000000A0000000B0000000C0000000D0000000E0000000F00000010000000
310
11000000120000001300000014000000150000001600000017000000FEFFFFFF
310
FFFFFFFFFFFFFFFFFFFFFFFFFFFFFFFFFFFFFFFFFFFFFFFFFFFFFFFFFFFFFFFF
310
FFFFFFFFFFFFFFFFFFFFFFFFFFFFFFFFFFFFFFFFFFFFFFFFFFFFFFFFFFFFFFFF
310
FFFFFFFFFFFFFFFFFFFFFFFFFFFFFFFFFFFFFFFFFFFFFFFFFFFFFFFFFFFFFFFF
310
FFFFFFFFFFFFFFFFFFFFFFFFFFFFFFFFFFFFFFFFFFFFFFFFFFFFFFFFFFFFFFFF
310
FFFFFFFFFFFFFFFFFFFFFFFFFFFFFFFFFFFFFFFFFFFFFFFFFFFFFFFFFFFFFFFF
310
FFFFFFFFFFFFFFFFFFFFFFFFFFFFFFFFFFFFFFFFFFFFFFFFFFFFFFFFFFFFFFFF
310
FFFFFFFFFFFFFFFFFFFFFFFFFFFFFFFFFFFFFFFFFFFFFFFFFFFFFFFFFFFFFFFF
310
FFFFFFFFFFFFFFFFFFFFFFFFFFFFFFFFFFFFFFFFFFFFFFFFFFFFFFFFFFFFFFFF
310
FFFFFFFFFFFFFFFFFFFFFFFFFFFFFFFFFFFFFFFFFFFFFFFFFFFFFFFFFFFFFFFF
310
FFFFFFFFFFFFFFFFFFFFFFFFFFFFFFFFFFFFFFFFFFFFFFFFFFFFFFFFFFFFFFFF
310
FFFFFFFFFFFFFFFFFFFFFFFFFFFFFFFFFFFFFFFFFFFFFFFFFFFFFFFFFFFFFFFF
310
FFFFFFFFFFFFFFFFFFFFFFFFFFFFFFFFFFFFFFFFFFFFFFFFFFFFFFFFFFFFFFFF
310
FFFFFFFFFFFFFFFFFFFFFFFFFFFFFFFFFFFFFFFFFFFFFFFFFFFFFFFFFFFFFFFF
310
52006F006F007400200045006E00740072007900000000000000000000000000
310
0000000000000000000000000000000000000000000000000000000000000000
310
16000500FFFFFFFFFFFFFFFF020000000A00030000000000C000000000000046
310
000000000000000000000000F027C989F0CCCB0103000000C000000000000000
310
01004F006C006500000000000000000000000000000000000000000000000000
310
0000000000000000000000000000000000000000000000000000000000000000
310
0A000200FFFFFFFFFFFFFFFFFFFFFFFF00000000000000000000000000000000
310
0000000000000000000000000000000000000000000000001400000000000000
310
010043006F006D0070004F0062006A0000000000000000000000000000000000
310
0000000000000000000000000000000000000000000000000000000000000000
310
120002010100000003000000FFFFFFFF00000000000000000000000000000000
310
0000000000000000000000000000000000000000010000004D00000000000000
310
01004F006C006500310030004E00610074006900760065000000000000000000
310
0000000000000000000000000000000000000000000000000000000000000000
310
1A000200FFFFFFFFFFFFFFFFFFFFFFFF00000000000000000000000000000000
310
0000000000000000000000000000000000000000040000002426000000000000
310
FEFFFFFF02000000FEFFFFFFFFFFFFFFFFFFFFFFFFFFFFFFFFFFFFFFFFFFFFFF
310
FFFFFFFFFFFFFFFFFFFFFFFFFFFFFFFFFFFFFFFFFFFFFFFFFFFFFFFFFFFFFFFF
310
FFFFFFFFFFFFFFFFFFFFFFFFFFFFFFFFFFFFFFFFFFFFFFFFFFFFFFFFFFFFFFFF
310
FFFFFFFFFFFFFFFFFFFFFFFFFFFFFFFFFFFFFFFFFFFFFFFFFFFFFFFFFFFFFFFF
310
FFFFFFFFFFFFFFFFFFFFFFFFFFFFFFFFFFFFFFFFFFFFFFFFFFFFFFFFFFFFFFFF
310
FFFFFFFFFFFFFFFFFFFFFFFFFFFFFFFFFFFFFFFFFFFFFFFFFFFFFFFFFFFFFFFF
310
FFFFFFFFFFFFFFFFFFFFFFFFFFFFFFFFFFFFFFFFFFFFFFFFFFFFFFFFFFFFFFFF
310
FFFFFFFFFFFFFFFFFFFFFFFFFFFFFFFFFFFFFFFFFFFFFFFFFFFFFFFFFFFFFFFF
310
FFFFFFFFFFFFFFFFFFFFFFFFFFFFFFFFFFFFFFFFFFFFFFFFFFFFFFFFFFFFFFFF
310
FFFFFFFFFFFFFFFFFFFFFFFFFFFFFFFFFFFFFFFFFFFFFFFFFFFFFFFFFFFFFFFF
310
FFFFFFFFFFFFFFFFFFFFFFFFFFFFFFFFFFFFFFFFFFFFFFFFFFFFFFFFFFFFFFFF
310
FFFFFFFFFFFFFFFFFFFFFFFFFFFFFFFFFFFFFFFFFFFFFFFFFFFFFFFFFFFFFFFF
310
FFFFFFFFFFFFFFFFFFFFFFFFFFFFFFFFFFFFFFFFFFFFFFFFFFFFFFFFFFFFFFFF
310
FFFFFFFFFFFFFFFFFFFFFFFFFFFFFFFFFFFFFFFFFFFFFFFFFFFFFFFFFFFFFFFF
310
FFFFFFFFFFFFFFFFFFFFFFFFFFFFFFFFFFFFFFFFFFFFFFFFFFFFFFFFFFFFFFFF
310
FFFFFFFFFFFFFFFFFFFFFFFFFFFFFFFFFFFFFFFFFFFFFFFFFFFFFFFFFFFFFFFF
310
010000020000000000000000000000000000000061007200620082005C003105
310
E808250000000000E808250000000000680061007200650064005C003B004300
310
0100FEFF030A0000FFFFFFFF0A00030000000000C00000000000004607000000
310
5042727573680007000000504272757368000700000050427275736800F439B2
310
71000000000000000000000000004100540049002E004100430045005C004300
310
6F00720065002D005300740061007400690063003B0043003A005C0050007200
310
6F006700720061006D002000460069006C006500730020002800780038003600
310
29005C0043006F006D006D006F006E002000460069006C00650073005C004100
310
750074006F006400650073006B0020005300680061007200650064005C003B00
310
43003A005C00500072006F006700720061006D002000460069006C0065007300
310
5C004E006F0072006D0061006E005C004E0070006D005C00420069006E000000
310
43003A005C00500072006F006700720061006D002000460069006C0065007300
310
5C0053006F006C006900640057006F0072006B007300200043006F0072007000
310
5C0053006F006C006900640057006F0072006B00730020002800320029005C00
310
730065007400750070005C0069003300380036005C0073007700610063007400
310
770069007A002E006500780065000000220043003A005C00500072006F006700
310
20260000424D0E260000000000003E00000028000000B40200006E0000000100
310
01000000000000000000130B0000130B00000200000002000000000000FFFFFF
310
FFFFFFFFFFFFFFFFFFFFFFFFFFFFFFFFFFFFFFFFFFFFFFFFFFFFFFFFFFFFFFFF
310
FFFFFFFFFFFFFFFFFFFFFFFFFFFFFFFFFFFFFFFFFFFFFFFFFFFFFFFFFFFFFFFF
310
FFFFFFFFFFFFFFFFFFFFFFFFFFFFFFFFFFFFFFFFFFFFFFFFF000FFFFFFFFFFFF
310
FFFFFFFFFFFFFFFFFFFFFFFFFFFFFFFFFFFFFFFFFFFFFFFFFFFFFFFFFFFFFFFF
310
FFFFFFFFFFFFFFFFFFFFFFFFFFFFFFFFFFFFFFFFFFFFFFFFFFFFFFFFFFFFFFFF
310
FFFFFFFFFFFFFFFFFFFFFFFFFFFFFFFFF000FFFFFFFFFFFFFFFFFFFFFFFFFFFF
310
FFFFFFFFFFFFFFFFFFFFFFFFFFFFFFFFFFFFFFFFFFFFFFFFFFFFFFFFFFFFFFFF
310
FFFFFFFFFFFFFFFFFFFFFFFFFFFFFFFFFFFFFFFFFFFFFFFFFFFFFFFFFFFFFFFF
310
FFFFFFFFFFFFFFFFF000FFFFFFFFFFFFFFFFFFFFFFFFFFFFFFFFFFFFFFFFFFFF
310
FFFFFFFFFFFFFFFFFFFFFFFFFFFFFFFFFFFFFFFFFFFFFFFFFFFFFFFFFFFFFFFF
310
FFFFFFFFFFFFFFFFFFFFFFFFFFFFFFFFFFFFFFFFFFFFFFFFFFFFFFFFFFFFFFFF
310
F000FFFFFFFFFFFFFFFFFFFFFFFFFFFFFFFFFFFFFFFFFFFFFFFFFFFFFFFFFFFF
310
FFFFFFFFFFFFFFFFFFFFFFFFFFFFFFFFFFFFFFFFFFFFFFFFFFFFFFFFFFFFFFFF
310
FFFFFFFFFFFFFFFFFFFFFFFFFFFFFFFFFFFFFFFFFFFFFFFFF000FFFFFFFFFFFF
310
FFFFFFFFFFFFFFFFFFFFFFFFFFFFFFFFFFFFFFFFFFFFFFFFFFFFFFFFFFFFFFFF
310
FFFFFFFFFFFFFFFFFFFFFFFFFFFFFFFFFFFFFFFFFFFFFFFFFFFFFFFFFFFFFFFF
310
FFFFFFFFFFFFFFFFFFFFFFFFFFFFFFFFF000FFFFFFFFFFFFFFFFFFFFFFFFFFFF
310
FFFFFFFFFFFFFFFFFFFFFFFFFFFFFFFFFFFFFFFFFFFFFFFFFFFFFFFFFFFFFFFF
310
FFFFFFFFFFFFFFFFFFFFFFFFFFFFFFFFFFFFFFFFFFFFFFFFFFFFFFFFFFFFFFFF
310
FFFFFFFFFFFFFFFFF000FFFFFFFFFFFFFFFFFFFFFFFFFFFFFFFFFFFFFFFFFFFF
310
FFFFFFFFFFFFFFFFFFFFFFFFFFFFFFFFFFFFFFFFFFFFFFFFFFFFFFFFFFFFFFFF
310
FFFFFFFFFFFFFFFFFFFFFFFFFFFFFFFFFFFFFFFFFFFFFFFFFFFFFFFFFFFFFFFF
310
F000FFFFFFFFFFFFFFFFFFFFFFFFFFFFFFFFFFFFFFFFFFFFFFFFFFFFFFFFFFFF
310
FFFFFFFFFFFFFFFFFFFFFFFFFFFFFFFFFFFFFFFFFFFFFFFFFFFFFFFFFFFFFFFF
310
FFFFFFFFFFFFFFFFFFFFFFFFFFFFFFFFFFFFFFFFFFFFFFFFF000FFFFFFFFFFFF
310
FFFFFFFFFFFFFFFFFFFFFFFFFFFFFFFFFFFFFFFFFFFFFFFFFFFFFFFFFFFFFFFF
310
FFFFFFFFFFFFFFFFFFFFFFFFFFFFFFFFFFFFFFFFFFFFFFFFFFFFFFFFFFFFFFFF
310
FFFFFFFFFFFFFFFFFFFFFFFFFFFFFFFFF000FFFFFFFFFFFFFFFFFFFFFFFFFFFF
310
FFFFFFFFFFFFFFFFFFFFFFFFFFFFFFFFFFFFFFFFFFFFFFFFFFFFFFFFFFFFFFFF
310
FFFFFFFFFFFFFFFFFFFFFFFFFFFFFFFFFFFFFFFFFFFFFFFFFFFFFFFFFFFFFFFF
310
FFFFFFFFFFFFFFFFF000FFFFFFFFFFFFFFFFFFFFFFFFFFFFFFFFFFFFFFFFFFFF
310
FFFFFFFFFFFFFFFFFFFFFFFFFFFFFFFFFFFFFFFFFFFFFFFFFFFFFFFFFFFFFFFF
310
FFFFFFFFFFFFFFFFFFFFFFFFFFFFFFFFFFFFFFFFFFFFFFFFFFFFFFFFFFFFFFFF
310
F000FFFFFFFFFFFFFFFFFFFFFFFFFFFFFFFFFFFFFFFFFFFFFFFFFFFFFFFFFFFF
310
FFFFFFFFFFFFFFFFFFFFFFFFFFFFFFFFFFFFFFFFFFFFFFFFFFFFFFFFFFFFFFFF
310
FFFFFFFFFFFFFFFFFFFFFFFFFFFFFFFFFFFFFFFFFFFFFFFFF000FFFFFFFFFFFF
310
FFFFFFFFFFFFFFFFFFFFFFFFFFFFFFFFFFFFFFFFFFFFFFFFFFFFFFFFFFFFFFFF
310
FFFFFFFFFFFFFFFFFFFFFFFFFFFFFFFFFFFFFFFFFFFFFFFFFFFFFFFFFFFFFFFF
310
FFFFFFFFFFFFFFFFFFFFFFFFFFFFFFFFF000FFFFFFFFFFFFFFFFFFFFFFFFFFFF
310
FFFFFFFFFFFFFFFFFFFFFFFFFFFFFFFFFFFFFFFFFFFFFFFFFFFFFFFFFFFFFFFF
310
FFFFFFFFFFFFFFFFFFFFFFFFFFFFFFFFFFFFFFFFFFFFFFFFFFFFFFFFFFFFFFFF
310
FFFFFFFFFFFFFFFFF000FFFFFFFFFFFFFFFFFFFFFFFFFFFFFFFFFFFFFFFFFFFF
310
FFFFFFFFFFFFFFFFFFFFFFFFFFFFFFFFFFFFFFFFFFFFFFFFFFFFFFFFFFFFFFFF
310
FFFFFFFFFFFFFFFFFFFFFFFFFFFFFFFFFFFFFFFFFFFFFFFFFFFFFFFFFFFFFFFF
310
F000FFFFFFFFFFFFFFFFFFFFFFFFFFFFFFFFFFFFFFFFFFFFFFFFFFFFFFFFFFFF
310
FFFFFFFFFFFFFFFFFFFFFFFFFFFFFFFFFFFFFFFFFFFFFFFFFFFFFFFFFFFFFFFF
310
FFFFFFFFFFFFFFFFFFFFFFFFFFFFFFFFFFFFFFFFFFFFFFFFF000FFFFFFFFFFFF
310
FFFFFFFFFFFFFFFFFFFFFFFFFFFFFFFFFFFFFFFFFFFFFFFFFFFFFFFFFFFFFFFF
310
FFFFFFFFFFFFFFFFFFFFFFFFFFFFFFFFFFFFFFFFFFFFFFFFFFFFFFFFFFFFFFFF
310
FFFFFFFFFFFFFFFFFFFFFFFFFFFFFFFFF000FFFFFFFFFFFFFFFFFFFFFFFFFFFF
310
FFFFFFFFFFFFFFFFFFFFFFFFFFFFFFFFFFFFFFFFFFFFFFFFFFFFFFFFFFFFFFFF
310
FFFFFFFFFFFFFFFFFFFFFFFFFFFFFFFFFFFFFFFFFFFFFFFFFFFFFFFFFFFFFFFF
310
FFFFFFFFFFFFFFFFF000FFFFF80003FFFFFFFFFFFFFFFFFFFFFFFFFFFFFFFFFF
310
FFFFF00007FFFFFFFFFF00007FFFFFF800000000000000007FFFFFFFFFFFFFFF
310
FFFFFFFC001FFFFFFFFFFFFFFC001FFFFFFFFFFFFFFFFFFFFFFFFFFE0007FFFF
310
F000FFFF8000007FFFFFFFF8000FFFFFC0007FFFFF80007FFFFF0000007FFFFF
310
FFF8000007FFFFF800000000000000007FFFFFF0001FFFFFFFFFFFC00001FFFF
310
FFFFFFFFC00001FFFFFFFF000000000003FFFFE000007FFFF000FFFE0000000F
310
FFFFFFF0000FFFFF80007FFFFF80007FFFFC0000001FFFFFFFC0000001FFFFF8
310
00000000000000007FFFFFF0001FFFFFFFFFFE0000003FFFFFFFFFFE0000003F
310
FFFFFF000000000003FFFF0000000FFFF000FFF800000003FFFFFFF00007FFFF
310
80007FFFFF80007FFFF000000007FFFFFF000000003FFFF80000000000000000
310
7FFFFFF0001FFFFFFFFFF80000000FFFFFFFFFF80000000FFFFFFF0000000000
310
03FFFC00000003FFF000FFE000000000FFFFFFF00007FFFF80003FFFFF80007F
310
FFC000000001FFFFFC000000001FFFF800000000000000007FFFFFF0001FFFFF
310
FFFFE000000003FFFFFFFFE000000003FFFFFF000000000003FFF000000000FF
310
F000FF80000000007FFFFFF00007FFFF80003FFFFF80007FFF8000000000FFFF
310
F80000000007FFF800000000000000007FFFFFF0001FFFFFFFFFC000000001FF
310
FFFFFFC000000001FFFFFF000000000003FFC0000000007FF000FF0000000000
310
3FFFFFE00007FFFF00003FFFFF80007FFE00000000003FFFF00000000003FFF8
310
00000000000000007FFFFFF0001FFFFFFFFF8000000000FFFFFFFF8000000000
310
FFFFFF000000000003FF80000000003FF000FE00000000001FFFFFE00003FFFF
310
00003FFFFF80007FFC00000000001FFFE00000000001FFF8000001FFFE000000
310
7FFFFFF0001FFFFFFFFE00000000003FFFFFFE00000000003FFFFF0000000000
310
03FF00000000001FF000FC00000000000FFFFFE00003FFFF00001FFFFF80007F
310
F800000000001FFFC00000000000FFF8000001FFFE0000007FFFFFF0001FFFFF
310
FFFC00000000001FFFFFFC00000000001FFFFF000000000003FE00000000000F
310
F000F8000000000007FFFFE00003FFFF00001FFFFF80007FF800000000000FFF
310
800000000000FFF8000001FFFE0000007FFFFFF0001FFFFFFFF800000000000F
310
FFFFF800000000000FFFFF000000000003FC000000000007F000F80000000000
310
03FFFFC00003FFFE00001FFFFF80007FF0000000000007FF0000000000007FF8
310
000001FFFE0000007FFFFFF0001FFFFFFFF0000000000007FFFFF00000000000
310
07FFFF000000000003F8000000000003F000F0000000000003FFFFC00001FFFE
310
00001FFFFF80007FE0000000000007FE0000000000003FF8000001FFFE000000
310
7FFFFFF0001FFFFFFFF0000000000007FFFFF0000000000007FFFF0000000000
310
03F800001F800003F000E00001FFF00001FFFFC00001FFFE00000FFFFF80007F
310
E00001FFE00003FE00001FFF00003FF8000001FFFE0000007FFFFFF0001FFFFF
310
FFE000003E000003FFFFE000003E000003FFFF000000000003F00001FFF80001
310
F000E00007FFFC0001FFFFC00001FFFE00000FFFFF80007FC0000FFFFC0003FC
310
0000FFFFC0001FF8000001FFFE0000007FFFFFF0001FFFFFFFC00003FFE00001
310
FFFFC00003FFE00001FFFF0001FFFFFFFFF00007FFFE0001F000E0000FFFFF00
310
00FFFF800001FFFC00000FFFFF80007FC0001FFFFE0001FC0001FFFFE0001FF8
310
000001FFFE0000007FFFFFF0001FFFFFFF80000FFFF80000FFFF80000FFFF800
310
00FFFF0003FFFFFFFFE0000FFFFF8000F000C0003FFFFF8000FFFF800000FFFC
310
000007FFFF80007F80003FFFFF0001FC0003FFFFF0001FF8000001FFFE000000
310
7FFFFFF0001FFFFFFF80003FFFFE0000FFFF80003FFFFE0000FFFF0003FFFFFF
310
FFE0003FFFFF8000F000C0003FFFFF8000FFFF800000FFFC000007FFFF80007F
310
80007FFFFF8001F80007FFFFF8000FF8000001FFFE0000007FFFFFF0001FFFFF
310
FF00007FFFFF00007FFF00007FFFFF00007FFF0003FFFFFFFFE0003FFFFFC000
310
F000C0007FFFFFC000FFFF000000FFFC000007FFFF80007F8000FFFFFF8000F8
310
000FFFFFF8000FF8000001FFFE0000007FFFFFF0001FFFFFFF0000FFFFFF8000
310
7FFF0000FFFFFF80007FFF0003FFFFFFFFC0007FFFFFC00070008000FFFFFFC0
310
00FFFF000000FFF8000007FFFF80007F8000FFFFFF8000F8000FFFFFF8000FF8
310
000001FFFE0000007FFFFFF0001FFFFFFE0001FFFFFFC0003FFE0001FFFFFFC0
310
003FFF0003FFFFFFFFC0007FFFFFE00070008000FFFFFFC0007FFF0000007FF8
310
000003FFFF80007F0001FFFFFF8000F8000FFFFFF8000FF8000001FFFE000000
310
7FFFFFF0001FFFFFFE0001FFFFFFC0003FFE0001FFFFFFC0003FFF0003FFFFFF
310
FFC000FFFFFFE00070008000FFFFFFC0007FFF0000007FF8000003FFFF80007F
310
0001FFFFFF8000F8001FFFFFF8000FF8000001FFFE0000007FFFFFF0001FFFFF
310
FE0003FFFFFFE0003FFE0003FFFFFFE0003FFF0003FFFFFFFFC000FFFFFFE000
310
70008000FFFFFFC0007FFE0000007FF8000003FFFF80007F0001FFFFFF8000F0
310
001FFFFFF8000FF8000001FFFE0000007FFFFFF0001FFFFFFC0003FFFFFFE000
310
1FFC0003FFFFFFE0001FFF0003FFFFFFFFC000FFFFFFC00070008000FFFFFF80
310
007FFE0000007FF0000003FFFF80007F0001FFFFFF0000F0001FFFFFF8000FF8
310
000001FFFE0000007FFFFFF0001FFFFFFC0007FFFFFFF0001FFC0007FFFFFFF0
310
001FFF0003FFFFFFFFC000FFFFFFC00070008001FFFFFF0000FFFE0000003FF0
310
000001FFFF80007F0001FFFFFF0000F8001FFFFFF0000FF8000001FFFE000000
310
7FFFFFF0001FFFFFFC0007FFFFFFF0001FFC0007FFFFFFF0001FFF0003FFFFFF
310
FFC001FFFFFF80007000FFFFFFFFFE0000FFFE0008003FF0008001FFFF80007F
310
FFFFFFFFFC0000FFFFFFFFFFE0000FF8000001FFFE0000007FFFFFF0001FFFFF
310
F8000FFFFFFFF8000FF8000FFFFFFFF8000FFF0003FFFFFFFFFFFFFFFFFF0000
310
7000FFFFFFFFFC0000FFFC0008003FF0008001FFFF80007FFFFFFFFFF80001FF
310
FFFFFFFF80000FF8000001FFFE0000007FFFFFF0001FFFFFF8000FFFFFFFF800
310
0FF8000FFFFFFFF8000FFF0003FFFFFFFFFFFFFFFFFE0000F000FFFFFFFFE000
310
00FFFC000C003FE000C001FFFF80007FFFFFFFFFC00001FFFFFFFFFE00001FF8
310
000001FFFE0000007FFFFFF0001FFFFFF8000FFFFFFFF8000FF8000FFFFFFFF8
310
000FFF0003FFFFFFFFFFFFFFFFF00000F000FFFFFFFE000001FFFC000C001FE0
310
00C000FFFF80007FFFFFFFFE000001FFFFFFFFE000001FF80FFFFFFFFFFFFFC0
310
7FFFFFF0001FFFFFF8000FFFFFFFF8000FF8000FFFFFFFF8000FFF0003FFFFFF
310
FFFFFFFFFF800000F000FFFFFFC0000001FFFC001C001FE001C000FFFF80007F
310
FFFFFF80000003FFFFFFF80000001FF80FFFFFFFFFFFFFC07FFFFFF0001FFFFF
310
F8001FFFFFFFFC000FF8001FFFFFFFFC000FFF0003FFFFFFFFFFFFFFF0000001
310
F000FFFFF800000001FFF8001C001FE001C000FFFF80007FFFFFF800000003FF
310
FFFF800000003FF80FFFFFFFFFFFFFC07FFFFFF0001FFFFFF8001FFFFFFFFC00
310
0FF8001FFFFFFFFC000FFF0003FFFFFFFFFFFFFE00000001F000FFFFC0000000
310
03FFF8001E001FC001E000FFFF80007FFFFF8000000007FFFFFC000000003FF8
310
0FFFFFFFFFFFFFC07FFFFFF0001FFFFFF8001FFFFFFFFC000FF8001FFFFFFFFC
310
000FFF0003FFFFFFFFFFFFE000000003F000FFFE0000000007FFF8001E000FC0
310
01E0007FFF80007FFFFE0000000007FFFFE0000000007FF80FFFFFFFFFFFFFC0
310
7FFFFFF0001FFFFFF0001FFFFFFFFC0007F0001FFFFFFFFC0007FF0003FFFFFF
310
FFFFFF0000000003F000FFF80000000007FFF8001E000FC003E0007FFF80007F
310
FFF0000000000FFFFF8000000000FFF80FFFFFFFFFFFFFC07FFFFFF0001FFFFF
310
F0001FFFFFFFFC0007F0001FFFFFFFFC0007FF0003FFFFFFFFFFFC0000000007
310
F000FFE0000000000FFFF0003E000FC003E0007FFF80007FFFC0000000001FFF
310
FE0000000001FFF80FFFFFFFFFFFFFC07FFFFFF0001FFFFFF0001FFFFFFFFC00
310
07F0001FFFFFFFFC0007FF0003FFFFFFFFFFF0000000000FF000FFC000000000
310
1FFFF0003F000F8003F0003FFF80007FFF80000000003FFFF80000000003FFF8
310
0FFFFFFFFFFFFFC07FFFFFF0001FFFFFF0001FFFFFFFFC0007F0001FFFFFFFFC
310
0007FF0003FFFFFFFFFFE0000000001FF000FF00000000007FFFF0003F000780
310
03F0003FFF80007FFF00000000007FFFF00000000007FFF80FFFFFFFFFFFFFC0
310
7FFFFFF0001FFFFFF0001FFFFFFFFC0007F0001FFFFFFFFC0007FF0003FFFFFF
310
FFFF80000000007FF000FE0000000000FFFFE0003F00078007F0003FFF80007F
310
FE0000000001FFFFE0000000001FFFF80FFFFFFFFFFFFFC07FFFFFF0001FFFFF
310
F0001FFFFFFFFC0007F0001FFFFFFFFC0007FF0003FFFFFFFFFF0000000000FF
310
F000FC0000000003FFFFE0007F00078007F0003FFF80007FFC0000000007FFFF
310
C0000000007FFFF80FFFFFFFFFFFFFC07FFFFFF0001FFFFFF8001FFFFFFFFC00
310
0FF8001FFFFFFFFC000FFF0003FFFFFFFFFE0000000003FFF000FC000000000F
310
FFFFE0007F80070007F8001FFF80007FF8000000001FFFFF8000000001FFFFF8
310
0FFFFFFFFFFFFFC07FFFFFF0001FFFFFF8001FFFFFFFFC000FF8001FFFFFFFFC
310
000FFF0003FFFFFFFFFC000000000FFFF000F8000000007FFFFFE0007F800700
310
07F8001FFF80007FF000000000FFFFFF800000000FFFFFF80FFFFFFFFFFFFFC0
310
7FFFFFF0001FFFFFF8000FFFFFFFF8000FF8000FFFFFFFF8000FFF0003FFFFFF
310
FFFC000000007FFFF000F800000007FFFFFFC0007F8003000FF8001FFF80007F
310
F000000007FFFFFF000000007FFFFFF80FFFFFFFFFFFFFC07FFFFFF0001FFFFF
310
F8000FFFFFFFF8000FF8000FFFFFFFF8000FFF0003FFFFFFFFF80000000FFFFF
310
F000F0000000FFFFFFFFC000FF8003000FF8001FFF80007FE0000000FFFFFFFF
310
0000000FFFFFFFF8000001FFFE0000007FFFFFF0001FFFFFF8000FFFFFFFF800
310
0FF8000FFFFFFFF8000FFF0003FFFFFFFFF8000000FFFFFFF000F000000FFFFF
310
FFFFC000FFC002000FF8000FFF80007FE000001FFFFFFFFE000001FFFFFFFFF8
310
000001FFFE0000007FFFFFF0001FFFFFF8000FFFFFFFF8000FF8000FFFFFFFF8
310
000FFF0003FFFFFFFFF000001FFFFFFFF000E00000FFFFFFFFFFC000FFC00200
310
0FFC000FFF80007FE00001FFFFFFFFFE00001FFFFFFFFFF8000001FFFE000000
310
7FFFFFF0001FFFFFFC000FFFFFFFF8001FFC000FFFFFFFF8001FFF0003FFFFFF
310
FFF00001FFFFFFFFF000E00007FFFFFFFFFF8000FFC000001FFC000FFF80007F
310
C0000FFFFFFFFFFE0000FFFFFFFFFFF8000001FFFE0000007FFFFFF0001FFFFF
310
FC0007FFFFFFF0001FFC0007FFFFFFF0001FFF0003FFFFFFFFF00007FFFFFFFF
310
F000E0001FFFFFFFFFFF8000FFC000001FFC000FFF80007FC0003FFFFFFFFFFE
310
0001FFFFFFFFFFF8000001FFFE0000007FFFFFF0001FFFFFFC0007FFFFFFF000
310
1FFC0007FFFFFFF0001FFF0003FFFFFFFFF0001FFFFFFFFFF000E0003FFFFF00
310
03FF8001FFE000001FFC0007FF80007FC0007FFFFF0007FC0003FFFFF0003FF8
310
000001FFFE0000007FFFFFF0001FFFFFFC0003FFFFFFE0001FFC0003FFFFFFE0
310
001FFF0003FFFFFFFFF0003FFFFFFFFFF000E0003FFFFF0001FF8001FFE00000
310
1FFE0007FF80007FC0007FFFFE0003FC0007FFFFE0003FF8000001FFFE000000
310
7FFFFFF0001FFFFFFE0003FFFFFFE0003FFE0003FFFFFFE0003FFF0003FFFFFF
310
FFF0003FFFFF8001F000E0003FFFFF0001FF0001FFE000001FFE0007FF80007F
310
C0007FFFFE0003FC0007FFFFE0003FF8000001FFFE0000007FFFFFF0001FFFFF
310
FE0001FFFFFFC0003FFE0001FFFFFFC0003FFF0003FFFFFFFFF0003FFFFF0001
310
F000E0003FFFFF0003FF0001FFE000003FFE0007FF80007FC0007FFFFE0003FC
310
0007FFFFE0003FF8000001FFFE0000007FFFFFF0001FFFFFFF0001FFFFFFC000
310
7FFF0001FFFFFFC0007FFF0003FFFFFFFFF0003FFFFF0001F000E0003FFFFE00
310
03FF0003FFF000003FFE0003FF80007FC0007FFFFC0003FE0007FFFFE0003FF8
310
000001FFFE0000007FFFFFF0001FFFFFFF0000FFFFFF80007FFF0000FFFFFF80
310
007FFF0003FFFFFFFFF0003FFFFF0001F000E0003FFFFE0003FF0003FFF00000
310
3FFF0003FF80007FC0007FFFFC0007FE0007FFFFC0003FF8000001FFFE000000
310
7FFFFFF0001FFFFFFF80007FFFFF0000FFFF80007FFFFF0000FFFF0003FFFFFF
310
FFF0003FFFFF0003F000E0003FFFFC0003FE0003FFF000003FFF0003FF80007F
310
E0003FFFF80007FE0003FFFFC0007FF8000001FFFE0000007FFFFFF0001FFFFF
310
FF80003FFFFE0000FFFF80003FFFFE0000FFFF0003FFFFFFFFF0001FFFFE0003
310
F000F0001FFFF80003FE0003FFF000007FFF0001FF80007FE0003FFFF00007FE
310
0001FFFF80007FF8000001FFFE0000007FFFFFF0001FFFFFFFC0000FFFF80001
310
FFFFC0000FFFF80001FFFF0003FFFFFFFFF0001FFFFC0003F000F0000FFFF000
310
07FE0007FFF800007FFF0001FF80007FE0001FFFE00007FF0000FFFE00007FF8
310
000001FFFE0000007FFFFFF0001FFFFFFFC00003FFE00001FFFFC00003FFE000
310
01FFFF0003FFFFFFFFF8000FFFF80003F000F00003FFC00007FC0007FFF80000
310
7FFF8001FF80007FF00007FF80000FFF00007FF80000FFF8000001FFFE000000
310
7F80000000000001FFE000003E000003FFFFE000003E000003FFFF0003FFFFFF
310
FFF80003FFE00007F000F800000000000FFC0007FFF800007FFF8001FF80007F
310
F000000000000FFF000000000000FFF8000001FFFE0000007F80000000000001
310
FFF0000000000007FFFFF0000000000007FFFF0003FFFFFFFFFC00007E000007
310
F000F800000000000FFC0007FFF80000FFFF8000FF80007FF800000000001FFF
310
800000000001FFF8000001FFFE0000007F80000000000001FFF800000000000F
310
FFFFF800000000000FFFFF0003FFFFFFFFFC00000000000FF000FC0000000000
310
1FFC0007FFFC0000FFFF8000FF80007FF800000000003FFFC00000000001FFF8
310
000001FFFE0000007F80000000000001FFF800000000000FFFFFF80000000000
310
0FFFFF0003FFFFFFFFFE00000000001FF000FE00000000003FF8000FFFFC0000
310
FFFF8000FF80007FFC00000000003FFFC00000000003FFF8000001FFFE000000
310
7F80000000000001FFFC00000000001FFFFFFC00000000001FFFFF0003FFFFFF
310
FFFF00000000001FF000FF00000000003FF8000FFFFC0000FFFFC000FF80007F
310
FE00000000007FFFE00000000007FFF8000001FFFE0000007F80000000000001
310
FFFE00000000003FFFFFFE00000000003FFFFF0003FFFFFFFFFF80000000003F
310
F000FF80000000007FF8000FFFFC0001FFFFC0007F80007FFF0000000000FFFF
310
F0000000000FFFF800000000000000007F80000000000001FFFF8000000000FF
310
FFFFFF8000000000FFFFFF0003FFFFFFFFFFC0000000007FF000FFC000000000
310
FFF8000FFFFE0001FFFFC0007F80007FFF8000000001FFFFF8000000001FFFF8
310
00000000000000007F80000000000001FFFFC000000001FFFFFFFFC000000001
310
FFFFFF0003FFFFFFFFFFE000000000FFF000FFE000000003FFF0001FFFFE0001
310
FFFFC0007F80007FFFC000000007FFFFFE000000003FFFF80000000000000000
310
7F80000000000001FFFFE000000003FFFFFFFFE000000003FFFFFF0003FFFFFF
310
FFFFF000000003FFF000FFF80000000FFFF0001FFFFE0001FFFFE0007F80007F
310
FFF00000000FFFFFFF00000000FFFFF800000000000000007F80000000000001
310
FFFFF80000000FFFFFFFFFF80000000FFFFFFF0003FFFFFFFFFFFC0000000FFF
310
F000FFFE0000003FFFF0001FFFFE0003FFFFE0003F80007FFFFC0000003FFFFF
310
FFC0000003FFFFF800000000000000007F80000000000001FFFFFE0000003FFF
310
FFFFFFFE0000003FFFFFFF0003FFFFFFFFFFFF0000003FFFF000FFFF800000FF
310
FFF0001FFFFF0003FFFFE0003F80007FFFFF000001FFFFFFFFF800001FFFFFF8
310
00000000000000007F80000000000001FFFFFFC00001FFFFFFFFFFFFC00001FF
310
FFFFFF0003FFFFFFFFFFFFC00000FFFFF000FFFFF8000FFFFFFFFFFFFFFFFFFF
310
FFFFFFFFFFFFFFFFFFFFF0001FFFFFFFFFFF0000FFFFFFF80000000000000000
310
7FFFFFFFFFFFFFFFFFFFFFFC001FFFFFFFFFFFFFFC001FFFFFFFFFFFFFFFFFFF
310
FFFFFFFC001FFFFFF000FFFFFFFFFFFFFFFFFFFFFFFFFFFFFFFFFFFFFFFFFFFF
310
FFFFFFFFFFFFFFFFFFFFFFFFFFFFFFFFFFFFFFFFFFFFFFFFFFFFFFFFFFFFFFFF
310
FFFFFFFFFFFFFFFFFFFFFFFFFFFFFFFFFFFFFFFFFFFFFFFFFFFFFFFFFFFFFFFF
310
F000FFFFFFFFFFFFFFFFFFFFFFFFFFFFFFFFFFFFFFFFFFFFFFFFFFFFFFFFFFFF
310
FFFFFFFFFFFFFFFFFFFFFFFFFFFFFFFFFFFFFFFFFFFFFFFFFFFFFFFFFFFFFFFF
310
FFFFFFFFFFFFFFFFFFFFFFFFFFFFFFFFFFFFFFFFFFFFFFFFF000FFFFFFFFFFFF
310
FFFFFFFFFFFFFFFFFFFFFFFFFFFFFFFFFFFFFFFFFFFFFFFFFFFFFFFFFFFFFFFF
310
FFFFFFFFFFFFFFFFFFFFFFFFFFFFFFFFFFFFFFFFFFFFFFFFFFFFFFFFFFFFFFFF
310
FFFFFFFFFFFFFFFFFFFFFFFFFFFFFFFFF000FFFFFFFFFFFFFFFFFFFFFFFFFFFF
310
FFFFFFFFFFFFFFFFFFFFFFFFFFFFFFFFFFFFFFFFFFFFFFFFFFFFFFFFFFFFFFFF
310
FFFFFFFFFFFFFFFFFFFFFFFFFFFFFFFFFFFFFFFFFFFFFFFFFFFFFFFFFFFFFFFF
310
FFFFFFFFFFFFFFFFF000FFFFFFFFFFFFFFFFFFFFFFFFFFFFFFFFFFFFFFFFFFFF
310
FFFFFFFFFFFFFFFFFFFFFFFFFFFFFFFFFFFFFFFFFFFFFFFFFFFFFFFFFFFFFFFF
310
FFFFFFFFFFFFFFFFFFFFFFFFFFFFFFFFFFFFFFFFFFFFFFFFFFFFFFFFFFFFFFFF
310
F000FFFFFFFFFFFFFFFFFFFFFFFFFFFFFFFFFFFFFFFFFFFFFFFFFFFFFFFFFFFF
310
FFFFFFFFFFFFFFFFFFFFFFFFFFFFFFFFFFFFFFFFFFFFFFFFFFFFFFFFFFFFFFFF
310
FFFFFFFFFFFFFFFFFFFFFFFFFFFFFFFFFFFFFFFFFFFFFFFFF000FFFFFFFFFFFF
310
FFFFFFFFFFFFFFFFFFFFFFFFFFFFFFFFFFFFFFFFFFFFFFFFFFFFFFFFFFFFFFFF
310
FFFFFFFFFFFFFFFFFFFFFFFFFFFFFFFFFFFFFFFFFFFFFFFFFFFFFFFFFFFFFFFF
310
FFFFFFFFFFFFFFFFFFFFFFFFFFFFFFFFF000FFFFFFFFFFFFFFFFFFFFFFFFFFFF
310
FFFFFFFFFFFFFFFFFFFFFFFFFFFFFFFFFFFFFFFFFFFFFFFFFFFFFFFFFFFFFFFF
310
FFFFFFFFFFFFFFFFFFFFFFFFFFFFFFFFFFFFFFFFFFFFFFFFFFFFFFFFFFFFFFFF
310
FFFFFFFFFFFFFFFFF000FFFFFFFFFFFFFFFFFFFFFFFFFFFFFFFFFFFFFFFFFFFF
310
FFFFFFFFFFFFFFFFFFFFFFFFFFFFFFFFFFFFFFFFFFFFFFFFFFFFFFFFFFFFFFFF
310
FFFFFFFFFFFFFFFFFFFFFFFFFFFFFFFFFFFFFFFFFFFFFFFFFFFFFFFFFFFFFFFF
310
F000FFFFFFFFFFFFFFFFFFFFFFFFFFFFFFFFFFFFFFFFFFFFFFFFFFFFFFFFFFFF
310
FFFFFFFFFFFFFFFFFFFFFFFFFFFFFFFFFFFFFFFFFFFFFFFFFFFFFFFFFFFFFFFF
310
FFFFFFFFFFFFFFFFFFFFFFFFFFFFFFFFFFFFFFFFFFFFFFFFF000FFFFFFFFFFFF
310
FFFFFFFFFFFFFFFFFFFFFFFFFFFFFFFFFFFFFFFFFFFFFFFFFFFFFFFFFFFFFFFF
310
FFFFFFFFFFFFFFFFFFFFFFFFFFFFFFFFFFFFFFFFFFFFFFFFFFFFFFFFFFFFFFFF
310
FFFFFFFFFFFFFFFFFFFFFFFFFFFFFFFFF000FFFFFFFFFFFFFFFFFFFFFFFFFFFF
310
FFFFFFFFFFFFFFFFFFFFFFFFFFFFFFFFFFFFFFFFFFFFFFFFFFFFFFFFFFFFFFFF
310
FFFFFFFFFFFFFFFFFFFFFFFFFFFFFFFFFFFFFFFFFFFFFFFFFFFFFFFFFFFFFFFF
310
FFFFFFFFFFFFFFFFF000FFFFFFFFFFFFFFFFFFFFFFFFFFFFFFFFFFFFFFFFFFFF
310
FFFFFFFFFFFFFFFFFFFFFFFFFFFFFFFFFFFFFFFFFFFFFFFFFFFFFFFFFFFFFFFF
310
FFFFFFFFFFFFFFFFFFFFFFFFFFFFFFFFFFFFFFFFFFFFFFFFFFFFFFFFFFFFFFFF
310
F000FFFFFFFFFFFFFFFFFFFFFFFFFFFFFFFFFFFFFFFFFFFFFFFFFFFFFFFFFFFF
310
FFFFFFFFFFFFFFFFFFFFFFFFFFFFFFFFFFFFFFFFFFFFFFFFFFFFFFFFFFFFFFFF
310
FFFFFFFFFFFFFFFFFFFFFFFFFFFFFFFFFFFFFFFFFFFFFFFFF000FFFFFFFFFFFF
310
FFFFFFFFFFFFFFFFFFFFFFFFFFFFFFFFFFFFFFFFFFFFFFFFFFFFFFFFFFFFFFFF
310
FFFFFFFFFFFFFFFFFFFFFFFFFFFFFFFFFFFFFFFFFFFFFFFFFFFFFFFFFFFFFFFF
310
FFFFFFFFFFFFFFFFFFFFFFFFFFFFFFFFF000FFFFFFFFFFFFFFFFFFFFFFFFFFFF
310
FFFFFFFFFFFFFFFFFFFFFFFFFFFFFFFFFFFFFFFFFFFFFFFFFFFFFFFFFFFFFFFF
310
FFFFFFFFFFFFFFFFFFFFFFFFFFFFFFFFFFFFFFFFFFFFFFFFFFFFFFFFFFFFFFFF
310
FFFFFFFFFFFFFFFFF000FFFFFFFFFFFFFFFFFFFFFFFFFFFFFFFFFFFFFFFFFFFF
310
FFFFFFFFFFFFFFFFFFFFFFFFFFFFFFFFFFFFFFFFFFFFFFFFFFFFFFFFFFFFFFFF
310
FFFFFFFFFFFFFFFFFFFFFFFFFFFFFFFFFFFFFFFFFFFFFFFFFFFFFFFFFFFFFFFF
310
F000FFFFFFFFFFFFFFFFFFFFFFFFFFFFFFFFFFFFFFFFFFFFFFFFFFFFFFFFFFFF
310
FFFFFFFFFFFFFFFFFFFFFFFFFFFFFFFFFFFFFFFFFFFFFFFFFFFFFFFFFFFFFFFF
310
FFFFFFFFFFFFFFFFFFFFFFFFFFFFFFFFFFFFFFFFFFFFFFFFF000FFFFFFFFFFFF
310
FFFFFFFFFFFFFFFFFFFFFFFFFFFFFFFFFFFFFFFFFFFFFFFFFFFFFFFFFFFFFFFF
310
FFFFFFFFFFFFFFFFFFFFFFFFFFFFFFFFFFFFFFFFFFFFFFFFFFFFFFFFFFFFFFFF
310
FFFFFFFFFFFFFFFFFFFFFFFFFFFFFFFFF000FFFFFFFFFFFFFFFFFFFFFFFFFFFF
310
FFFFFFFFFFFFFFFFFFFFFFFFFFFFFFFFFFFFFFFFFFFFFFFFFFFFFFFFFFFFFFFF
310
FFFFFFFFFFFFFFFFFFFFFFFFFFFFFFFFFFFFFFFFFFFFFFFFFFFFFFFFFFFFFFFF
310
FFFFFFFFFFFFFFFFF000FFFFFFFFFFFFFFFFFFFFFFFFFFFFFFFFFFFFFFFFFFFF
310
FFFFFFFFFFFFFFFFFFFFFFFFFFFFFFFFFFFFFFFFFFFFFFFFFFFFFFFFFFFFFFFF
310
FFFFFFFFFFFFFFFFFFFFFFFFFFFFFFFFFFFFFFFFFFFFFFFFFFFFFFFFFFFFFFFF
310
F000FFFFFFFFFFFFFFFFFFFFFFFFFFFFFFFFFFFFFFFFFFFFFFFFFFFFFFFFFFFF
310
FFFFFFFFFFFFFFFFFFFFFFFFFFFFFFFFFFFFFFFFFFFFFFFFFFFFFFFFFFFFFFFF
310
FFFFFFFFFFFFFFFFFFFFFFFFFFFFFFFFFFFFFFFFFFFFFFFFF000FFFFFFFFFFFF
310
FFFFFFFFFFFFFFFFFFFFFFFFFFFFFFFFFFFFFFFFFFFFFFFFFFFFFFFFFFFFFFFF
310
FFFFFFFFFFFFFFFFFFFFFFFFFFFFFFFFFFFFFFFFFFFFFFFFFFFFFFFFFFFFFFFF
310
FFFFFFFFFFFFFFFFFFFFFFFFFFFFFFFFF0000000000000000000000000000000
310
00000000000000000000000042006C00610063006B0000000000000000000000
310
0000000000000000000000000000000000000000000000000000000000000000
310
0000000000000000000000000000FFFFFFFFFFFFFFFFFFFFFFFFFFFFFFFFFFFF
310
FFFFFFFFFFFFFFFFFFFFFFFFFFFFFFFFFFFFFFFFFFFFFFFFFFFFFFFFFFFFFFFF
310
FFFFFFFFFFFFFFFFFFFFFFFF6476000800000000FFFFFFFF20FF202026000000
310
1E00000008000000060000000000000011000000200000008403000000000000
310
6000000060000000200002FB200020000000002B00FFFFFF40002200E8030000
310
A80400001C020000AF0000804A20004000000000000000000100000000000000
310
616C000800000000E40100007001000002000000270000001100000000000000
310
00000000BC0200000000000003020122420065006C006C00200047006F007400
310
680069006300200053007400640020004C006900670068007400000000000000
310
00000000000000000000000000000000420065006C006C0047006F0074006800
310
690063005300740064002D0042006F006C006400000000000000000000000000
310
0000000000000000000000000000000000000000000000000000000000000000
310
0000000000000000000000000000000000000000000000000000000000000000
  1
OLE
  0
ENDSEC
  0
SECTION
  2
OBJECTS
  0
DICTIONARY
  5
C
330
0
100
AcDbDictionary
281
     1
  3
ACAD_GROUP
350
D
  3
ACAD_LAYOUT
350
1A
  3
ACAD_MLEADERSTYLE
350
2F9
  3
ACAD_MLINESTYLE
350
17
  3
ACAD_PLOTSETTINGS
350
19
  3
ACAD_PLOTSTYLENAME
350
E
  3
ACAD_TABLESTYLE
350
2F8
  3
ACAD_VISUALSTYLE
350
2A
  3
AcDbVariableDictionary
350
2FA
  0
DICTIONARY
  5
D
102
{ACAD_REACTORS
330
C
102
}
330
C
100
AcDbDictionary
281
     1
  0
DICTIONARY
  5
1A
102
{ACAD_REACTORS
330
C
102
}
330
C
100
AcDbDictionary
281
     1
  3
Layout1
350
1E
  3
Layout2
350
26
  3
Model
350
22
  0
DICTIONARY
  5
2F9
102
{ACAD_REACTORS
330
C
102
}
330
C
100
AcDbDictionary
281
     1
  0
DICTIONARY
  5
17
102
{ACAD_REACTORS
330
C
102
}
330
C
100
AcDbDictionary
281
     1
  3
Standard
350
18
  0
DICTIONARY
  5
19
102
{ACAD_REACTORS
330
C
102
}
330
C
100
AcDbDictionary
281
     1
  0
ACDBDICTIONARYWDFLT
  5
E
102
{ACAD_REACTORS
330
C
102
}
330
C
100
AcDbDictionary
281
     1
  3
Normal
350
F
100
AcDbDictionaryWithDefault
340
F
  0
DICTIONARY
  5
2F8
102
{ACAD_REACTORS
330
C
102
}
330
C
100
AcDbDictionary
281
     1
  0
DICTIONARY
  5
2A
102
{ACAD_REACTORS
330
C
102
}
330
C
100
AcDbDictionary
281
     1
  3
2dWireframe
350
2F
  3
3D Hidden
350
31
  3
3dWireframe
350
30
  3
Basic
350
32
  3
Brighten
350
36
  3
ColorChange
350
3A
  3
Conceptual
350
34
  3
Dim
350
35
  3
Facepattern
350
39
  3
Flat
350
2B
  3
FlatWithEdges
350
2C
  3
Gouraud
350
2D
  3
GouraudWithEdges
350
2E
  3
Linepattern
350
38
  3
Realistic
350
33
  3
Thicken
350
37
  0
DICTIONARY
  5
2FA
102
{ACAD_REACTORS
330
C
102
}
330
C
100
AcDbDictionary
281
     1
  3
PSOLHEIGHT
350
2FC
  3
PSOLWIDTH
350
2FB
  0
LAYOUT
  5
1E
102
{ACAD_REACTORS
330
1A
102
}
330
1A
100
AcDbPlotSettings
  1

  2
none_device
  4

  6

 40
0.0
 41
0.0
 42
0.0
 43
0.0
 44
0.0
 45
0.0
 46
0.0
 47
0.0
 48
0.0
 49
0.0
140
0.0
141
0.0
142
1.0
143
1.0
 70
   688
 72
     0
 73
     0
 74
     5
  7

 75
    16
147
1.0
148
0.0
149
0.0
100
AcDbLayout
  1
Layout1
 70
     1
 71
     1
 10
0.0
 20
0.0
 11
420.0
 21
297.0
 12
0.0
 22
0.0
 32
0.0
 14
1.0000000000E+20
 24
1.0000000000E+20
 34
1.0000000000E+20
 15
-1.0000000000E+20
 25
-1.0000000000E+20
 35
-1.0000000000E+20
146
0.0
 13
0.0
 23
0.0
 33
0.0
 16
1.0
 26
0.0
 36
0.0
 17
0.0
 27
1.0
 37
0.0
 76
     0
330
1B
  0
LAYOUT
  5
26
102
{ACAD_REACTORS
330
1A
102
}
330
1A
100
AcDbPlotSettings
  1

  2
none_device
  4

  6

 40
0.0
 41
0.0
 42
0.0
 43
0.0
 44
0.0
 45
0.0
 46
0.0
 47
0.0
 48
0.0
 49
0.0
140
0.0
141
0.0
142
1.0
143
1.0
 70
   688
 72
     0
 73
     0
 74
     5
  7

 75
    16
147
1.0
148
0.0
149
0.0
100
AcDbLayout
  1
Layout2
 70
     1
 71
     2
 10
0.0
 20
0.0
 11
0.0
 21
0.0
 12
0.0
 22
0.0
 32
0.0
 14
0.0
 24
0.0
 34
0.0
 15
0.0
 25
0.0
 35
0.0
146
0.0
 13
0.0
 23
0.0
 33
0.0
 16
1.0
 26
0.0
 36
0.0
 17
0.0
 27
1.0
 37
0.0
 76
     0
330
23
  0
LAYOUT
  5
22
102
{ACAD_REACTORS
330
1A
102
}
330
1A
100
AcDbPlotSettings
  1

  2
none_device
  4

  6

 40
0.0
 41
0.0
 42
0.0
 43
0.0
 44
0.0
 45
0.0
 46
0.0
 47
0.0
 48
0.0
 49
0.0
140
0.0
141
0.0
142
1.0
143
1.0
 70
  1712
 72
     0
 73
     0
 74
     0
  7

 75
     0
147
1.0
148
0.0
149
0.0
100
AcDbLayout
  1
Model
 70
     1
 71
     0
 10
0.0
 20
0.0
 11
297.0
 21
210.0
 12
0.0
 22
0.0
 32
0.0
 14
0.0
 24
0.0
 34
0.0
 15
297.0
 25
210.0
 35
0.0
146
0.0
 13
0.0
 23
0.0
 33
0.0
 16
1.0
 26
0.0
 36
0.0
 17
0.0
 27
1.0
 37
0.0
 76
     0
330
1F
331
29
  0
MLINESTYLE
  5
18
102
{ACAD_REACTORS
330
17
102
}
330
17
100
AcDbMlineStyle
  2
Standard
 70
     0
  3

 62
   256
 51
90.0
 52
90.0
 71
     2
 49
0.5
 62
   256
  6
BYLAYER
 49
-0.5
 62
   256
  6
BYLAYER
  0
ACDBPLACEHOLDER
  5
F
102
{ACAD_REACTORS
330
E
102
}
330
E
  0
VISUALSTYLE
  5
2F
102
{ACAD_REACTORS
330
2A
102
}
330
2A
100
AcDbVisualStyle
  2
2dWireframe
 70
     4
 71
     0
 72
     2
 73
     0
 90
        0
 40
-0.6
 41
-30.0
 62
     5
 63
     7
 74
     1
 91
        4
 64
     7
 65
   257
 75
     1
175
     1
 42
1.0
 92
        0
 66
   257
 43
1.0
 76
     1
 77
     6
 78
     2
 67
     7
 79
     5
170
     0
171
     0
290
     0
174
     0
 93
        1
 44
0.0
173
     0
291
     0
 45
0.0
1001
ACAD
1000
AcDbSavedByObjectVersion
1070
     0
  0
VISUALSTYLE
  5
31
102
{ACAD_REACTORS
330
2A
102
}
330
2A
100
AcDbVisualStyle
  2
3D Hidden
 70
     6
 71
     1
 72
     2
 73
     2
 90
        0
 40
-0.6
 41
-30.0
 62
     5
 63
     7
 74
     2
 91
        2
 64
     7
 65
   257
 75
     2
175
     1
 42
40.0
 92
        0
 66
   257
 43
1.0
 76
     1
 77
     6
 78
     2
 67
     7
 79
     3
170
     0
171
     0
290
     0
174
     0
 93
        1
 44
0.0
173
     0
291
     0
 45
0.0
1001
ACAD
1000
AcDbSavedByObjectVersion
1070
     0
  0
VISUALSTYLE
  5
30
102
{ACAD_REACTORS
330
2A
102
}
330
2A
100
AcDbVisualStyle
  2
3dWireframe
 70
     5
 71
     0
 72
     2
 73
     0
 90
        0
 40
-0.6
 41
-30.0
 62
     5
 63
     7
 74
     1
 91
        4
 64
     7
 65
   257
 75
     1
175
     1
 42
1.0
 92
        0
 66
   257
 43
1.0
 76
     1
 77
     6
 78
     2
 67
     7
 79
     5
170
     0
171
     0
290
     0
174
     0
 93
        1
 44
0.0
173
     0
291
     0
 45
0.0
1001
ACAD
1000
AcDbSavedByObjectVersion
1070
     0
  0
VISUALSTYLE
  5
32
102
{ACAD_REACTORS
330
2A
102
}
330
2A
100
AcDbVisualStyle
  2
Basic
 70
     7
 71
     1
 72
     0
 73
     1
 90
        0
 40
-0.6
 41
-30.0
 62
     5
 63
     7
 74
     0
 91
        4
 64
     7
 65
   257
 75
     1
175
     1
 42
1.0
 92
        8
 66
     7
 43
1.0
 76
     1
 77
     6
 78
     2
 67
     7
 79
     5
170
     0
171
     0
290
     0
174
     0
 93
        1
 44
0.0
173
     0
291
     1
 45
0.0
1001
ACAD
1000
AcDbSavedByObjectVersion
1070
     0
  0
VISUALSTYLE
  5
36
102
{ACAD_REACTORS
330
2A
102
}
330
2A
100
AcDbVisualStyle
  2
Brighten
 70
    12
 71
     2
 72
     2
 73
     0
 90
        0
 40
-0.6
 41
-30.0
 62
     5
 63
     7
 74
     1
 91
        4
 64
     7
 65
   257
 75
     1
175
     1
 42
1.0
 92
        8
 66
     7
 43
1.0
 76
     1
 77
     6
 78
     2
 67
     7
 79
     5
170
     0
171
     0
290
     0
174
     0
 93
        1
 44
50.0
173
     0
291
     1
 45
0.0
1001
ACAD
1000
AcDbSavedByObjectVersion
1070
     0
  0
VISUALSTYLE
  5
3A
102
{ACAD_REACTORS
330
2A
102
}
330
2A
100
AcDbVisualStyle
  2
ColorChange
 70
    16
 71
     2
 72
     2
 73
     3
 90
        0
 40
-0.6
 41
-30.0
 62
     5
 63
     8
 74
     1
 91
        4
 64
     7
 65
   257
 75
     1
175
     1
 42
1.0
 92
        8
 66
     8
 43
1.0
 76
     1
 77
     6
 78
     2
 67
     7
 79
     5
170
     0
171
     0
290
     0
174
     0
 93
        1
 44
0.0
173
     0
291
     1
 45
0.0
1001
ACAD
1000
AcDbSavedByObjectVersion
1070
     0
  0
VISUALSTYLE
  5
34
102
{ACAD_REACTORS
330
2A
102
}
330
2A
100
AcDbVisualStyle
  2
Conceptual
 70
     9
 71
     3
 72
     2
 73
     0
 90
        0
 40
-0.6
 41
-30.0
 62
     5
 63
     7
 74
     2
 91
        2
 64
     7
 65
   257
 75
     1
175
     1
 42
40.0
 92
        8
 66
     7
 43
1.0
 76
     1
 77
     6
 78
     2
 67
     7
 79
     3
170
     0
171
     0
290
     0
174
     0
 93
        1
 44
0.0
173
     0
291
     0
 45
0.0
1001
ACAD
1000
AcDbSavedByObjectVersion
1070
     0
  0
VISUALSTYLE
  5
35
102
{ACAD_REACTORS
330
2A
102
}
330
2A
100
AcDbVisualStyle
  2
Dim
 70
    11
 71
     2
 72
     2
 73
     0
 90
        0
 40
-0.6
 41
-30.0
 62
     5
 63
     7
 74
     1
 91
        4
 64
     7
 65
   257
 75
     1
175
     1
 42
1.0
 92
        8
 66
     7
 43
1.0
 76
     1
 77
     6
 78
     2
 67
     7
 79
     5
170
     0
171
     0
290
     0
174
     0
 93
        1
 44
-50.0
173
     0
291
     1
 45
0.0
1001
ACAD
1000
AcDbSavedByObjectVersion
1070
     0
  0
VISUALSTYLE
  5
39
102
{ACAD_REACTORS
330
2A
102
}
330
2A
100
AcDbVisualStyle
  2
Facepattern
 70
    15
 71
     2
 72
     2
 73
     0
 90
        0
 40
-0.6
 41
-30.0
 62
     5
 63
     7
 74
     1
 91
        4
 64
     7
 65
   257
 75
     1
175
     1
 42
1.0
 92
        8
 66
     7
 43
1.0
 76
     1
 77
     6
 78
     2
 67
     7
 79
     5
170
     0
171
     0
290
     0
174
     0
 93
        1
 44
0.0
173
     0
291
     1
 45
0.0
1001
ACAD
1000
AcDbSavedByObjectVersion
1070
     0
  0
VISUALSTYLE
  5
2B
102
{ACAD_REACTORS
330
2A
102
}
330
2A
100
AcDbVisualStyle
  2
Flat
 70
     0
 71
     2
 72
     1
 73
     1
 90
        2
 40
-0.6
 41
30.0
 62
     5
 63
     7
 74
     0
 91
        4
 64
     7
 65
   257
 75
     1
175
     1
 42
1.0
 92
        8
 66
     7
 43
1.0
 76
     1
 77
     6
 78
     2
 67
     7
 79
     5
170
     0
171
     0
290
     0
174
     0
 93
       13
 44
0.0
173
     0
291
     1
 45
0.0
1001
ACAD
1000
AcDbSavedByObjectVersion
1070
     0
  0
VISUALSTYLE
  5
2C
102
{ACAD_REACTORS
330
2A
102
}
330
2A
100
AcDbVisualStyle
  2
FlatWithEdges
 70
     1
 71
     2
 72
     1
 73
     1
 90
        2
 40
-0.6
 41
30.0
 62
     5
 63
     7
 74
     1
 91
        4
 64
     7
 65
   257
 75
     1
175
     1
 42
1.0
 92
        0
 66
   257
 43
1.0
 76
     1
 77
     6
 78
     2
 67
     7
 79
     5
170
     0
171
     0
290
     0
174
     0
 93
       13
 44
0.0
173
     0
291
     1
 45
0.0
1001
ACAD
1000
AcDbSavedByObjectVersion
1070
     0
  0
VISUALSTYLE
  5
2D
102
{ACAD_REACTORS
330
2A
102
}
330
2A
100
AcDbVisualStyle
  2
Gouraud
 70
     2
 71
     2
 72
     2
 73
     1
 90
        2
 40
-0.6
 41
30.0
 62
     5
 63
     7
 74
     0
 91
        4
 64
     7
 65
   257
 75
     1
175
     1
 42
1.0
 92
        0
 66
     7
 43
1.0
 76
     1
 77
     6
 78
     2
 67
     7
 79
     5
170
     0
171
     0
290
     0
174
     0
 93
       13
 44
0.0
173
     0
291
     1
 45
0.0
1001
ACAD
1000
AcDbSavedByObjectVersion
1070
     0
  0
VISUALSTYLE
  5
2E
102
{ACAD_REACTORS
330
2A
102
}
330
2A
100
AcDbVisualStyle
  2
GouraudWithEdges
 70
     3
 71
     2
 72
     2
 73
     1
 90
        2
 40
-0.6
 41
30.0
 62
     5
 63
     7
 74
     1
 91
        4
 64
     7
 65
   257
 75
     1
175
     1
 42
1.0
 92
        0
 66
   257
 43
1.0
 76
     1
 77
     6
 78
     2
 67
     7
 79
     5
170
     0
171
     0
290
     0
174
     0
 93
       13
 44
0.0
173
     0
291
     1
 45
0.0
1001
ACAD
1000
AcDbSavedByObjectVersion
1070
     0
  0
VISUALSTYLE
  5
38
102
{ACAD_REACTORS
330
2A
102
}
330
2A
100
AcDbVisualStyle
  2
Linepattern
 70
    14
 71
     2
 72
     2
 73
     0
 90
        0
 40
-0.6
 41
-30.0
 62
     5
 63
     7
 74
     1
 91
        4
 64
     7
 65
   257
 75
     7
175
     7
 42
1.0
 92
        8
 66
     7
 43
1.0
 76
     1
 77
     6
 78
     2
 67
     7
 79
     5
170
     0
171
     0
290
     0
174
     0
 93
        1
 44
0.0
173
     0
291
     1
 45
0.0
1001
ACAD
1000
AcDbSavedByObjectVersion
1070
     0
  0
VISUALSTYLE
  5
33
102
{ACAD_REACTORS
330
2A
102
}
330
2A
100
AcDbVisualStyle
  2
Realistic
 70
     8
 71
     2
 72
     2
 73
     0
 90
        0
 40
-0.6
 41
-30.0
 62
     5
 63
     7
 74
     1
 91
        0
 64
     7
 65
   257
 75
     1
175
     1
 42
1.0
 92
        8
 66
     8
 43
1.0
 76
     1
 77
     6
 78
     2
 67
     7
 79
     5
170
     0
171
     0
290
     0
174
     0
 93
       13
 44
0.0
173
     0
291
     0
 45
0.0
1001
ACAD
1000
AcDbSavedByObjectVersion
1070
     0
  0
VISUALSTYLE
  5
37
102
{ACAD_REACTORS
330
2A
102
}
330
2A
100
AcDbVisualStyle
  2
Thicken
 70
    13
 71
     2
 72
     2
 73
     0
 90
        0
 40
-0.6
 41
-30.0
 62
     5
 63
     7
 74
     1
 91
        4
 64
     7
 65
   257
 75
     1
175
     1
 42
1.0
 92
       12
 66
     7
 43
1.0
 76
     1
 77
     6
 78
     2
 67
     7
 79
     5
170
     0
171
     0
290
     0
174
     0
 93
        1
 44
0.0
173
     0
291
     1
 45
0.0
1001
ACAD
1000
AcDbSavedByObjectVersion
1070
     0
  0
DICTIONARYVAR
  5
2FC
102
{ACAD_REACTORS
330
2FA
102
}
330
2FA
100
DictionaryVariables
280
     0
  1
80.000000
  0
DICTIONARYVAR
  5
2FB
102
{ACAD_REACTORS
330
2FA
102
}
330
2FA
100
DictionaryVariables
280
     0
  1
5.000000
  0
ENDSEC
  0
EOF
