  0
SECTION
  2
HEADER
  9
$ACADVER
  1
AC1015
  9
$ACADMAINTVER
 70
     6
  9
$DWGCODEPAGE
  3
ANSI_1252
  9
$INSBASE
 10
0.0
 20
0.0
 30
0.0
  9
$EXTMIN
 10
0.0
 20
0.0
 30
0.0
  9
$EXTMAX
 10
297.0
 20
210.0
 30
0.0
  9
$LIMMIN
 10
0.0
 20
0.0
  9
$LIMMAX
 10
297.0
 20
210.0
  9
$ORTHOMODE
 70
     0
  9
$REGENMODE
 70
     1
  9
$FILLMODE
 70
     1
  9
$QTEXTMODE
 70
     0
  9
$MIRRTEXT
 70
     1
  9
$LTSCALE
 40
1.0
  9
$ATTMODE
 70
     1
  9
$TEXTSIZE
 40
2.0
  9
$TRACEWID
 40
1.0
  9
$TEXTSTYLE
  7
Standard
  9
$CLAYER
  8
0
  9
$CELTYPE
  6
ByLayer
  9
$CECOLOR
 62
   256
  9
$CELTSCALE
 40
1.0
  9
$DISPSILH
 70
     0
  9
$DIMSCALE
 40
1.0
  9
$DIMASZ
 40
3.0
  9
$DIMEXO
 40
0.0
  9
$DIMDLI
 40
3.75
  9
$DIMRND
 40
0.0
  9
$DIMDLE
 40
0.0
  9
$DIMEXE
 40
1.0
  9
$DIMTP
 40
0.0
  9
$DIMTM
 40
0.0
  9
$DIMTXT
 40
2.0
  9
$DIMCEN
 40
2.5
  9
$DIMTSZ
 40
0.0
  9
$DIMTOL
 70
     0
  9
$DIMLIM
 70
     0
  9
$DIMTIH
 70
     1
  9
$DIMTOH
 70
     1
  9
$DIMSE1
 70
     0
  9
$DIMSE2
 70
     0
  9
$DIMTAD
 70
     1
  9
$DIMZIN
 70
     0
  9
$DIMBLK
  1

  9
$DIMASO
 70
     1
  9
$DIMSHO
 70
     1
  9
$DIMPOST
  1

  9
$DIMAPOST
  1

  9
$DIMALT
 70
     0
  9
$DIMALTD
 70
     3
  9
$DIMALTF
 40
0.0393700787
  9
$DIMLFAC
 40
1.0
  9
$DIMTOFL
 70
     1
  9
$DIMTVP
 40
0.0
  9
$DIMTIX
 70
     0
  9
$DIMSOXD
 70
     0
  9
$DIMSAH
 70
     0
  9
$DIMBLK1
  1

  9
$DIMBLK2
  1

  9
$DIMSTYLE
  2
ISO-25
  9
$DIMCLRD
 70
     0
  9
$DIMCLRE
 70
     0
  9
$DIMCLRT
 70
     0
  9
$DIMTFAC
 40
1.0
  9
$DIMGAP
 40
1.524
  9
$DIMJUST
 70
     0
  9
$DIMSD1
 70
     0
  9
$DIMSD2
 70
     0
  9
$DIMTOLJ
 70
     0
  9
$DIMTZIN
 70
     0
  9
$DIMALTZ
 70
     0
  9
$DIMALTTZ
 70
     0
  9
$DIMUPT
 70
     0
  9
$DIMDEC
 70
     2
  9
$DIMTDEC
 70
     3
  9
$DIMALTU
 70
     2
  9
$DIMALTTD
 70
     3
  9
$DIMTXSTY
  7
Standard
  9
$DIMAUNIT
 70
     0
  9
$DIMADEC
 70
     2
  9
$DIMALTRND
 40
0.0
  9
$DIMAZIN
 70
     0
  9
$DIMDSEP
 70
    44
  9
$DIMATFIT
 70
     3
  9
$DIMFRAC
 70
     0
  9
$DIMLDRBLK
  1

  9
$DIMLUNIT
 70
     2
  9
$DIMLWD
 70
    -2
  9
$DIMLWE
 70
    -2
  9
$DIMTMOVE
 70
     0
  9
$LUNITS
 70
     2
  9
$LUPREC
 70
     2
  9
$SKETCHINC
 40
1.0
  9
$FILLETRAD
 40
10.0
  9
$AUNITS
 70
     0
  9
$AUPREC
 70
     2
  9
$MENU
  1
.
  9
$ELEVATION
 40
0.0
  9
$PELEVATION
 40
0.0
  9
$THICKNESS
 40
0.0
  9
$LIMCHECK
 70
     0
  9
$CHAMFERA
 40
0.0
  9
$CHAMFERB
 40
0.0
  9
$CHAMFERC
 40
0.0
  9
$CHAMFERD
 40
0.0
  9
$SKPOLY
 70
     0
  9
$TDCREATE
 40
2458163.324718276
  9
$TDUCREATE
 40
2458163.283051609
  9
$TDUPDATE
 40
2458163.324720185
  9
$TDUUPDATE
 40
2458163.283053519
  9
$TDINDWG
 40
0.0000000116
  9
$TDUSRTIMER
 40
0.0000000116
  9
$USRTIMER
 70
     1
  9
$ANGBASE
 50
0.0
  9
$ANGDIR
 70
     0
  9
$PDMODE
 70
     0
  9
$PDSIZE
 40
-1.0
  9
$PLINEWID
 40
0.0
  9
$SPLFRAME
 70
     0
  9
$SPLINETYPE
 70
     6
  9
$SPLINESEGS
 70
     8
  9
$HANDSEED
  5
27B
  9
$SURFTAB1
 70
     6
  9
$SURFTAB2
 70
     6
  9
$SURFTYPE
 70
     6
  9
$SURFU
 70
     6
  9
$SURFV
 70
     6
  9
$UCSBASE
  2

  9
$UCSNAME
  2

  9
$UCSORG
 10
0.0
 20
0.0
 30
0.0
  9
$UCSXDIR
 10
1.0
 20
0.0
 30
0.0
  9
$UCSYDIR
 10
0.0
 20
1.0
 30
0.0
  9
$UCSORTHOREF
  2

  9
$UCSORTHOVIEW
 70
     0
  9
$UCSORGTOP
 10
0.0
 20
0.0
 30
0.0
  9
$UCSORGBOTTOM
 10
0.0
 20
0.0
 30
0.0
  9
$UCSORGLEFT
 10
0.0
 20
0.0
 30
0.0
  9
$UCSORGRIGHT
 10
0.0
 20
0.0
 30
0.0
  9
$UCSORGFRONT
 10
0.0
 20
0.0
 30
0.0
  9
$UCSORGBACK
 10
0.0
 20
0.0
 30
0.0
  9
$PUCSBASE
  2

  9
$PUCSNAME
  2

  9
$PUCSORG
 10
0.0
 20
0.0
 30
0.0
  9
$PUCSXDIR
 10
1.0
 20
0.0
 30
0.0
  9
$PUCSYDIR
 10
0.0
 20
1.0
 30
0.0
  9
$PUCSORTHOREF
  2

  9
$PUCSORTHOVIEW
 70
     0
  9
$PUCSORGTOP
 10
0.0
 20
0.0
 30
0.0
  9
$PUCSORGBOTTOM
 10
0.0
 20
0.0
 30
0.0
  9
$PUCSORGLEFT
 10
0.0
 20
0.0
 30
0.0
  9
$PUCSORGRIGHT
 10
0.0
 20
0.0
 30
0.0
  9
$PUCSORGFRONT
 10
0.0
 20
0.0
 30
0.0
  9
$PUCSORGBACK
 10
0.0
 20
0.0
 30
0.0
  9
$USERI1
 70
     0
  9
$USERI2
 70
     0
  9
$USERI3
 70
     0
  9
$USERI4
 70
     0
  9
$USERI5
 70
     0
  9
$USERR1
 40
0.0
  9
$USERR2
 40
0.0
  9
$USERR3
 40
0.0
  9
$USERR4
 40
0.0
  9
$USERR5
 40
0.0
  9
$WORLDVIEW
 70
     1
  9
$SHADEDGE
 70
     3
  9
$SHADEDIF
 70
    70
  9
$TILEMODE
 70
     1
  9
$MAXACTVP
 70
    64
  9
$PINSBASE
 10
0.0
 20
0.0
 30
0.0
  9
$PLIMCHECK
 70
     0
  9
$PEXTMIN
 10
1.0000000000E+20
 20
1.0000000000E+20
 30
1.0000000000E+20
  9
$PEXTMAX
 10
-1.0000000000E+20
 20
-1.0000000000E+20
 30
-1.0000000000E+20
  9
$PLIMMIN
 10
0.0
 20
0.0
  9
$PLIMMAX
 10
420.0
 20
297.0
  9
$UNITMODE
 70
     0
  9
$VISRETAIN
 70
     1
  9
$PLINEGEN
 70
     0
  9
$PSLTSCALE
 70
     1
  9
$TREEDEPTH
 70
  3020
  9
$CMLSTYLE
  2
Standard
  9
$CMLJUST
 70
     0
  9
$CMLSCALE
 40
20.0
  9
$PROXYGRAPHICS
 70
     1
  9
$MEASUREMENT
 70
     1
  9
$CELWEIGHT
370
    -1
  9
$ENDCAPS
280
     0
  9
$JOINSTYLE
280
     0
  9
$LWDISPLAY
290
     1
  9
$INSUNITS
 70
     4
  9
$HYPERLINKBASE
  1

  9
$STYLESHEET
  1

  9
$XEDIT
290
     1
  9
$CEPSNTYPE
380
     0
  9
$PSTYLEMODE
290
     1
  9
$FINGERPRINTGUID
  2
{FA696849-3C56-4DE0-B27E-67F1A202CA52}
  9
$VERSIONGUID
  2
{FAEB1C32-E019-11D5-929B-00C0DF256EC4}
  9
$EXTNAMES
290
     1
  9
$PSVPSCALE
 40
0.0
  9
$OLESTARTUP
290
     0
  0
ENDSEC
  0
SECTION
  2
CLASSES
  0
CLASS
  1
ACDBDICTIONARYWDFLT
  2
AcDbDictionaryWithDefault
  3
ObjectDBX Classes
 90
        0
280
     0
281
     0
  0
CLASS
  1
VISUALSTYLE
  2
AcDbVisualStyle
  3
ObjectDBX Classes
 90
     4095
280
     0
281
     0
  0
CLASS
  1
MATERIAL
  2
AcDbMaterial
  3
ObjectDBX Classes
 90
     1153
280
     0
281
     0
  0
CLASS
  1
SCALE
  2
AcDbScale
  3
ObjectDBX Classes
 90
     1153
280
     0
281
     0
  0
CLASS
  1
TABLESTYLE
  2
AcDbTableStyle
  3
ObjectDBX Classes
 90
     4095
280
     0
281
     0
  0
CLASS
  1
MLEADERSTYLE
  2
AcDbMLeaderStyle
  3
ACDB_MLEADERSTYLE_CLASS
 90
     4095
280
     0
281
     0
  0
CLASS
  1
SUN
  2
AcDbSun
  3
SCENEOE
 90
     1153
280
     0
281
     0
  0
CLASS
  1
ACDBPLACEHOLDER
  2
AcDbPlaceHolder
  3
ObjectDBX Classes
 90
        0
280
     0
281
     0
  0
CLASS
  1
LAYOUT
  2
AcDbLayout
  3
ObjectDBX Classes
 90
        0
280
     0
281
     0
  0
ENDSEC
  0
SECTION
  2
TABLES
  0
TABLE
  2
VPORT
  5
8
330
0
100
AcDbSymbolTable
 70
     1
  0
VPORT
  5
29
330
8
100
AcDbSymbolTableRecord
100
AcDbViewportTableRecord
  2
*Active
 70
     0
 10
0.0
 20
0.0
 11
1.0
 21
1.0
 12
148.5
 22
105.0
 13
0.0
 23
0.0
 14
10.0
 24
10.0
 15
10.0
 25
10.0
 16
0.0
 26
0.0
 36
1.0
 17
0.0
 27
0.0
 37
0.0
 40
210.0
 41
1.4142857143
 42
50.0
 43
0.0
 44
0.0
 50
0.0
 51
0.0
 71
     0
 72
  2000
 73
     1
 74
     3
 75
     0
 76
     0
 77
     0
 78
     0
281
     0
 65
     1
110
0.0
120
0.0
130
0.0
111
1.0
121
0.0
131
0.0
112
0.0
122
1.0
132
0.0
 79
     0
146
0.0
  0
ENDTAB
  0
TABLE
  2
LTYPE
  5
5
330
0
100
AcDbSymbolTable
 70
     6
  0
LTYPE
  5
14
330
5
100
AcDbSymbolTableRecord
100
AcDbLinetypeTableRecord
  2
ByBlock
 70
     0
  3

 72
    65
 73
     0
 40
0.0
  0
LTYPE
  5
15
330
5
100
AcDbSymbolTableRecord
100
AcDbLinetypeTableRecord
  2
ByLayer
 70
     0
  3

 72
    65
 73
     0
 40
0.0
  0
LTYPE
  5
16
330
5
100
AcDbSymbolTableRecord
100
AcDbLinetypeTableRecord
  2
Continuous
 70
     0
  3
Solid line
 72
    65
 73
     0
 40
0.0
  0
LTYPE
  5
6E
330
5
100
AcDbSymbolTableRecord
100
AcDbLinetypeTableRecord
  2
HIDDEN
 70
     0
  3
Hidden __ __ __ __ __ __ __ __ __ __ __ __ __ __
 72
    65
 73
     2
 40
1.905
 49
1.27
 74
     0
 49
-0.635
 74
     0
  0
LTYPE
  5
6F
330
5
100
AcDbSymbolTableRecord
100
AcDbLinetypeTableRecord
  2
PHANTOM
 70
     0
  3
Phantom ______  __  __  ______  __  __  ______
 72
    65
 73
     6
 40
12.7
 49
6.35
 74
     0
 49
-1.27
 74
     0
 49
1.27
 74
     0
 49
-1.27
 74
     0
 49
1.27
 74
     0
 49
-1.27
 74
     0
  0
LTYPE
  5
70
330
5
100
AcDbSymbolTableRecord
100
AcDbLinetypeTableRecord
  2
CENTER
 70
     0
  3
Center ____ _ ____ _ ____ _ ____ _ ____ _ ____
 72
    65
 73
     4
 40
10.16
 49
6.35
 74
     0
 49
-1.27
 74
     0
 49
1.27
 74
     0
 49
-1.27
 74
     0
  0
LTYPE
  5
71
330
5
100
AcDbSymbolTableRecord
100
AcDbLinetypeTableRecord
  2
CENTERX2
 70
     0
  3
Center (2x) ________  __  ________  __  _____
 72
    65
 73
     4
 40
20.32
 49
12.7
 74
     0
 49
-2.54
 74
     0
 49
2.54
 74
     0
 49
-2.54
 74
     0
  0
LTYPE
  5
72
330
5
100
AcDbSymbolTableRecord
100
AcDbLinetypeTableRecord
  2
DOT2
 70
     0
  3
Dot (.5x) ........................................
 72
    65
 73
     2
 40
0.635
 49
0.0
 74
     0
 49
-0.635
 74
     0
  0
ENDTAB
  0
TABLE
  2
LAYER
  5
2
330
0
100
AcDbSymbolTable
 70
     5
  0
LAYER
  5
10
330
2
100
AcDbSymbolTableRecord
100
AcDbLayerTableRecord
  2
0
 70
     0
 62
     7
  6
Continuous
370
    -3
390
F
  0
LAYER
  5
73
330
2
100
AcDbSymbolTableRecord
100
AcDbLayerTableRecord
  2
FORMAT
 70
     0
 62
     7
  6
Continuous
370
    -3
390
F
  0
LAYER
  5
74
330
2
100
AcDbSymbolTableRecord
100
AcDbLayerTableRecord
  2
VERMASSUNG
 70
     0
 62
     7
  6
Continuous
370
    -3
390
F
  0
LAYER
  5
75
330
2
100
AcDbSymbolTableRecord
100
AcDbLayerTableRecord
  2
KOPF_DÜNN
 70
     0
 62
     7
  6
Continuous
370
    -3
390
F
  0
LAYER
  5
76
330
2
100
AcDbSymbolTableRecord
100
AcDbLayerTableRecord
  2
KOPF_DICK
 70
     0
 62
     7
  6
Continuous
370
    25
390
F
  0
ENDTAB
  0
TABLE
  2
STYLE
  5
3
330
0
100
AcDbSymbolTable
 70
     3
  0
STYLE
  5
11
330
3
100
AcDbSymbolTableRecord
100
AcDbTextStyleTableRecord
  2
Standard
 70
     0
 40
0.0
 41
1.0
 50
0.0
 71
     0
 42
2.0
  3
txt
  4

  0
STYLE
  5
77
330
3
100
AcDbSymbolTableRecord
100
AcDbTextStyleTableRecord
  2
SLDTEXTSTYLE0
 70
     0
 40
0.0
 41
0.7
 50
0.0
 71
     0
 42
2.0
  3
TXT
  4

  0
STYLE
  5
7B
330
3
100
AcDbSymbolTableRecord
100
AcDbTextStyleTableRecord
  2
SLDTEXTSTYLE1
 70
     0
 40
0.0
 41
0.6473684211
 50
0.0
 71
     0
 42
2.0
  3
TXT
  4

  0
ENDTAB
  0
TABLE
  2
VIEW
  5
6
330
0
100
AcDbSymbolTable
 70
     0
  0
ENDTAB
  0
TABLE
  2
UCS
  5
7
330
0
100
AcDbSymbolTable
 70
     0
  0
ENDTAB
  0
TABLE
  2
APPID
  5
9
330
0
100
AcDbSymbolTable
 70
     1
  0
APPID
  5
12
330
9
100
AcDbSymbolTableRecord
100
AcDbRegAppTableRecord
  2
ACAD
 70
     0
  0
ENDTAB
  0
TABLE
  2
DIMSTYLE
  5
A
330
0
100
AcDbSymbolTable
 70
     4
100
AcDbDimStyleTable
  0
DIMSTYLE
105
27
330
A
100
AcDbSymbolTableRecord
100
AcDbDimStyleTableRecord
  2
ISO-25
 70
     0
 41
2.5
 42
0.625
 43
3.75
 44
1.25
 73
     0
 74
     0
 77
     1
 78
     8
140
2.5
141
2.5
143
0.0393700787
147
0.625
171
     3
172
     1
178
     0
271
     2
272
     2
274
     3
278
    44
283
     0
284
     8
340
11
  0
DIMSTYLE
105
21F
102
{ACAD_REACTORS
330
21E
330
244
330
250
330
25B
330
265
330
26F
102
}
330
A
100
AcDbSymbolTableRecord
100
AcDbDimStyleTableRecord
  2
SLDDIMSTYLE0
 70
     0
 41
3.0
 44
0.0
 45
0.000000001
 73
     0
 74
     0
 77
     1
 78
    12
 79
     3
140
2.0
147
0.5
173
     1
178
     0
271
     2
272
     3
276
     2
284
    12
340
77
  0
DIMSTYLE
105
22C
102
{ACAD_REACTORS
330
22B
102
}
330
A
100
AcDbSymbolTableRecord
100
AcDbDimStyleTableRecord
  2
SLDDIMSTYLE1
 70
     0
 41
3.0
 44
0.0
 45
0.000000001
 73
     0
 74
     0
 77
     1
 78
    12
 79
     3
140
2.0
147
0.5
173
     1
178
     0
271
     2
272
     2
276
     2
284
    12
340
77
  0
DIMSTYLE
105
237
102
{ACAD_REACTORS
330
236
102
}
330
A
100
AcDbSymbolTableRecord
100
AcDbDimStyleTableRecord
  2
SLDDIMSTYLE2
 70
     0
 41
3.0
 44
0.0
 45
0.000000001
 73
     0
 74
     0
 77
     1
 78
    12
 79
     3
140
2.0
147
0.5
172
     1
173
     1
178
     0
271
     2
272
     2
276
     2
284
    12
289
     0
340
77
  0
ENDTAB
  0
TABLE
  2
BLOCK_RECORD
  5
1
330
0
100
AcDbSymbolTable
 70
     9
  0
BLOCK_RECORD
  5
1F
330
1
100
AcDbSymbolTableRecord
100
AcDbBlockTableRecord
  2
*Model_Space
340
22
  0
BLOCK_RECORD
  5
1B
330
1
100
AcDbSymbolTableRecord
100
AcDbBlockTableRecord
  2
*Paper_Space
340
1E
  0
BLOCK_RECORD
  5
23
330
1
100
AcDbSymbolTableRecord
100
AcDbBlockTableRecord
  2
*Paper_Space0
340
26
  0
BLOCK_RECORD
  5
220
330
1
100
AcDbSymbolTableRecord
100
AcDbBlockTableRecord
  2
_D
340
0
  0
BLOCK_RECORD
  5
22D
330
1
100
AcDbSymbolTableRecord
100
AcDbBlockTableRecord
  2
_D_1
340
0
  0
BLOCK_RECORD
  5
238
330
1
100
AcDbSymbolTableRecord
100
AcDbBlockTableRecord
  2
_D_2
340
0
  0
BLOCK_RECORD
  5
245
330
1
100
AcDbSymbolTableRecord
100
AcDbBlockTableRecord
  2
_D_3
340
0
  0
BLOCK_RECORD
  5
251
330
1
100
AcDbSymbolTableRecord
100
AcDbBlockTableRecord
  2
_D_4
340
0
  0
BLOCK_RECORD
  5
25C
330
1
100
AcDbSymbolTableRecord
100
AcDbBlockTableRecord
  2
_D_5
340
0
  0
BLOCK_RECORD
  5
266
330
1
100
AcDbSymbolTableRecord
100
AcDbBlockTableRecord
  2
_D_6
340
0
  0
BLOCK_RECORD
  5
270
330
1
100
AcDbSymbolTableRecord
100
AcDbBlockTableRecord
  2
_D_7
340
0
  0
ENDTAB
  0
ENDSEC
  0
SECTION
  2
BLOCKS
  0
BLOCK
  5
20
330
1F
100
AcDbEntity
  8
0
100
AcDbBlockBegin
  2
*Model_Space
 70
     0
 10
0.0
 20
0.0
 30
0.0
  3
*Model_Space
  1

  0
ENDBLK
  5
21
330
1F
100
AcDbEntity
  8
0
100
AcDbBlockEnd
  0
BLOCK
  5
1C
330
1B
100
AcDbEntity
 67
     1
  8
0
100
AcDbBlockBegin
  2
*Paper_Space
 70
     0
 10
0.0
 20
0.0
 30
0.0
  3
*Paper_Space
  1

  0
ENDBLK
  5
1D
330
1B
100
AcDbEntity
 67
     1
  8
0
100
AcDbBlockEnd
  0
BLOCK
  5
24
330
23
100
AcDbEntity
  8
0
100
AcDbBlockBegin
  2
*Paper_Space0
 70
     0
 10
0.0
 20
0.0
 30
0.0
  3
*Paper_Space0
  1

  0
ENDBLK
  5
25
330
23
100
AcDbEntity
  8
0
100
AcDbBlockEnd
  0
BLOCK
  5
221
330
220
100
AcDbEntity
  8
0
100
AcDbBlockBegin
  2
_D
 70
     0
 10
0.0
 20
0.0
 30
0.0
  3
_D
  1

  0
SOLID
  5
223
330
220
100
AcDbEntity
  8
VERMASSUNG
100
AcDbTrace
 10
81.9433260394
 20
138.7046587216
 30
0.0
 11
81.4933260394
 21
135.7046587216
 31
0.0
 12
82.3933260394
 22
135.7046587216
 32
0.0
 13
82.3933260394
 23
135.7046587216
 33
0.0
  0
SOLID
  5
224
330
220
100
AcDbEntity
  8
VERMASSUNG
100
AcDbTrace
 10
81.9433260394
 20
75.7046587216
 30
0.0
 11
82.3933260394
 21
78.7046587216
 31
0.0
 12
81.4933260394
 22
78.7046587216
 32
0.0
 13
81.4933260394
 23
78.7046587216
 33
0.0
  0
LINE
  5
225
330
220
100
AcDbEntity
  8
VERMASSUNG
100
AcDbLine
 10
121.9828749917
 20
138.7046587216
 30
0.0
 11
80.9433260394
 21
138.7046587216
 31
0.0
  0
LINE
  5
226
330
220
100
AcDbEntity
  8
VERMASSUNG
100
AcDbLine
 10
121.9828749917
 20
75.7046587216
 30
0.0
 11
80.9433260394
 21
75.7046587216
 31
0.0
  0
LINE
  5
227
330
220
100
AcDbEntity
  8
VERMASSUNG
100
AcDbLine
 10
81.9433260394
 20
138.7046587216
 30
0.0
 11
81.9433260394
 21
75.7046587216
 31
0.0
  0
MTEXT
  5
228
330
220
100
AcDbEntity
  8
VERMASSUNG
100
AcDbMText
 10
79.1651907832
 20
99.5014267741
 30
0.0
 40
2.0
 41
0.0
 71
     1
 72
     1
  1
HSK A
  7
SLDTEXTSTYLE0
 11
-7.044195017643634E-15
 21
1.0
 31
0.0
 73
     1
 44
1.0
  0
MTEXT
  5
229
330
220
100
AcDbEntity
  8
VERMASSUNG
100
AcDbMText
 10
79.3651907345
 20
108.5014263866
 30
0.0
 40
2.0
 41
0.0
 71
     1
 72
     1
  1
%%c
  7
SLDTEXTSTYLE0
 11
-7.044195017643634E-15
 21
1.0
 31
0.0
 73
     1
 44
1.0
  0
MTEXT
  5
22A
330
220
100
AcDbEntity
  8
VERMASSUNG
100
AcDbMText
 10
79.3651904434
 20
112.1096981089
 30
0.0
 40
2.0
 41
0.0
 71
     1
 72
     1
  1
63
  7
SLDTEXTSTYLE0
 11
-7.044195017643634E-15
 21
1.0
 31
0.0
 73
     1
 44
1.0
  0
ENDBLK
  5
222
330
220
100
AcDbEntity
  8
0
100
AcDbBlockEnd
  0
BLOCK
  5
22E
330
22D
100
AcDbEntity
  8
0
100
AcDbBlockBegin
  2
_D_1
 70
     0
 10
0.0
 20
0.0
 30
0.0
  3
_D_1
  1

  0
SOLID
  5
230
330
22D
100
AcDbEntity
  8
VERMASSUNG
100
AcDbTrace
 10
165.1828749917
 20
136.7046587216
 30
0.0
 11
168.1828749917
 21
136.2546587216
 31
0.0
 12
168.1828749917
 22
137.1546587216
 32
0.0
 13
168.1828749917
 23
137.1546587216
 33
0.0
  0
SOLID
  5
231
330
22D
100
AcDbEntity
  8
VERMASSUNG
100
AcDbTrace
 10
201.6828749917
 20
136.7046587216
 30
0.0
 11
198.6828749917
 21
137.1546587216
 31
0.0
 12
198.6828749917
 22
136.2546587216
 32
0.0
 13
198.6828749917
 23
136.2546587216
 33
0.0
  0
LINE
  5
232
330
22D
100
AcDbEntity
  8
VERMASSUNG
100
AcDbLine
 10
165.1828749917
 20
110.1046587216
 30
0.0
 11
165.1828749917
 21
137.7046587216
 31
0.0
  0
LINE
  5
233
330
22D
100
AcDbEntity
  8
VERMASSUNG
100
AcDbLine
 10
201.6828749917
 20
115.8558777382
 30
0.0
 11
201.6828749917
 21
137.7046587216
 31
0.0
  0
LINE
  5
234
330
22D
100
AcDbEntity
  8
VERMASSUNG
100
AcDbLine
 10
165.1828749917
 20
136.7046587216
 30
0.0
 11
201.6828749917
 21
136.7046587216
 31
0.0
  0
MTEXT
  5
235
330
22D
100
AcDbEntity
  8
VERMASSUNG
100
AcDbMText
 10
181.0330850573
 20
139.2827943175
 30
0.0
 40
2.0
 41
0.0
 71
     1
 72
     1
  1
36.5
  7
SLDTEXTSTYLE0
 73
     1
 44
1.0
  0
ENDBLK
  5
22F
330
22D
100
AcDbEntity
  8
0
100
AcDbBlockEnd
  0
BLOCK
  5
239
330
238
100
AcDbEntity
  8
0
100
AcDbBlockBegin
  2
_D_2
 70
     0
 10
0.0
 20
0.0
 30
0.0
  3
_D_2
  1

  0
SOLID
  5
23B
330
238
100
AcDbEntity
  8
VERMASSUNG
100
AcDbTrace
 10
211.792764712
 20
104.2046587216
 30
0.0
 11
211.342764712
 21
101.2046587216
 31
0.0
 12
212.242764712
 22
101.2046587216
 32
0.0
 13
212.242764712
 23
101.2046587216
 33
0.0
  0
SOLID
  5
23C
330
238
100
AcDbEntity
  8
VERMASSUNG
100
AcDbTrace
 10
211.792764712
 20
110.2046587216
 30
0.0
 11
212.242764712
 21
113.2046587216
 31
0.0
 12
211.342764712
 22
113.2046587216
 32
0.0
 13
211.342764712
 23
113.2046587216
 33
0.0
  0
LINE
  5
23D
330
238
100
AcDbEntity
  8
VERMASSUNG
100
AcDbLine
 10
198.1828749917
 20
104.2046587216
 30
0.0
 11
212.792764712
 21
104.2046587216
 31
0.0
  0
LINE
  5
23E
330
238
100
AcDbEntity
  8
VERMASSUNG
100
AcDbLine
 10
198.1828749917
 20
110.2046587216
 30
0.0
 11
212.792764712
 21
110.2046587216
 31
0.0
  0
LINE
  5
23F
330
238
100
AcDbEntity
  8
VERMASSUNG
100
AcDbLine
 10
211.792764712
 20
104.2046587216
 30
0.0
 11
211.792764712
 21
98.2046587216
 31
0.0
  0
LINE
  5
240
330
238
100
AcDbEntity
  8
VERMASSUNG
100
AcDbLine
 10
211.792764712
 20
104.2046587216
 30
0.0
 11
211.792764712
 21
110.2046587216
 31
0.0
  0
LINE
  5
241
330
238
100
AcDbEntity
  8
VERMASSUNG
100
AcDbLine
 10
211.792764712
 20
110.2046587216
 30
0.0
 11
211.792764712
 21
116.2046587216
 31
0.0
  0
MTEXT
  5
242
330
238
100
AcDbEntity
  8
VERMASSUNG
100
AcDbMText
 10
209.2146291742
 20
104.700581041
 30
0.0
 40
2.0
 41
0.0
 71
     1
 72
     1
  1
%%c
  7
SLDTEXTSTYLE0
 11
6.123233995736766E-17
 21
1.0
 31
0.0
 73
     1
 44
1.0
  0
MTEXT
  5
243
330
238
100
AcDbEntity
  8
VERMASSUNG
100
AcDbMText
 10
209.214629116
 20
108.309640122
 30
0.0
 40
2.0
 41
0.0
 71
     1
 72
     1
  1
6
  7
SLDTEXTSTYLE0
 11
6.123233995736766E-17
 21
1.0
 31
0.0
 73
     1
 44
1.0
  0
ENDBLK
  5
23A
330
238
100
AcDbEntity
  8
0
100
AcDbBlockEnd
  0
BLOCK
  5
246
330
245
100
AcDbEntity
  8
0
100
AcDbBlockBegin
  2
_D_3
 70
     0
 10
0.0
 20
0.0
 30
0.0
  3
_D_3
  1

  0
SOLID
  5
248
330
245
100
AcDbEntity
  8
VERMASSUNG
100
AcDbTrace
 10
217.792764712
 20
96.7046587216
 30
0.0
 11
218.242764712
 21
99.7046587216
 31
0.0
 12
217.342764712
 22
99.7046587216
 32
0.0
 13
217.342764712
 23
99.7046587216
 33
0.0
  0
SOLID
  5
249
330
245
100
AcDbEntity
  8
VERMASSUNG
100
AcDbTrace
 10
217.792764712
 20
117.7046587216
 30
0.0
 11
217.342764712
 21
114.7046587216
 31
0.0
 12
218.242764712
 22
114.7046587216
 32
0.0
 13
218.242764712
 23
114.7046587216
 33
0.0
  0
LINE
  5
24A
330
245
100
AcDbEntity
  8
VERMASSUNG
100
AcDbLine
 10
201.6828749917
 20
96.7046587216
 30
0.0
 11
218.792764712
 21
96.7046587216
 31
0.0
  0
LINE
  5
24B
330
245
100
AcDbEntity
  8
VERMASSUNG
100
AcDbLine
 10
201.6828749917
 20
117.7046587216
 30
0.0
 11
218.792764712
 21
117.7046587216
 31
0.0
  0
LINE
  5
24C
330
245
100
AcDbEntity
  8
VERMASSUNG
100
AcDbLine
 10
217.792764712
 20
96.7046587216
 30
0.0
 11
217.792764712
 21
117.7046587216
 31
0.0
  0
MTEXT
  5
24D
330
245
100
AcDbEntity
  8
VERMASSUNG
100
AcDbMText
 10
215.2146291742
 20
103.6002867303
 30
0.0
 40
2.0
 41
0.0
 71
     1
 72
     1
  1
%%c
  7
SLDTEXTSTYLE0
 11
6.123233995736766E-17
 21
1.0
 31
0.0
 73
     1
 44
1.0
  0
MTEXT
  5
24E
330
245
100
AcDbEntity
  8
VERMASSUNG
100
AcDbMText
 10
215.214629116
 20
107.2093458113
 30
0.0
 40
2.0
 41
0.0
 71
     1
 72
     1
  1
21
  7
SLDTEXTSTYLE0
 11
6.123233995736766E-17
 21
1.0
 31
0.0
 73
     1
 44
1.0
  0
MTEXT
  5
24F
330
245
100
AcDbEntity
  8
VERMASSUNG
100
AcDbMText
 10
215.214629116
 20
110.7966357456
 30
0.0
 40
2.0
 41
0.0
 71
     1
 72
     1
  1

  7
SLDTEXTSTYLE0
 11
6.123233995736766E-17
 21
1.0
 31
0.0
 73
     1
 44
1.0
  0
ENDBLK
  5
247
330
245
100
AcDbEntity
  8
0
100
AcDbBlockEnd
  0
BLOCK
  5
252
330
251
100
AcDbEntity
  8
0
100
AcDbBlockBegin
  2
_D_4
 70
     0
 10
0.0
 20
0.0
 30
0.0
  3
_D_4
  1

  0
SOLID
  5
254
330
251
100
AcDbEntity
  8
VERMASSUNG
100
AcDbTrace
 10
223.792764712
 20
94.2046587216
 30
0.0
 11
224.242764712
 21
97.2046587216
 31
0.0
 12
223.342764712
 22
97.2046587216
 32
0.0
 13
223.342764712
 23
97.2046587216
 33
0.0
  0
SOLID
  5
255
330
251
100
AcDbEntity
  8
VERMASSUNG
100
AcDbTrace
 10
223.792764712
 20
120.2046587216
 30
0.0
 11
223.342764712
 21
117.2046587216
 31
0.0
 12
224.242764712
 22
117.2046587216
 32
0.0
 13
224.242764712
 23
117.2046587216
 33
0.0
  0
LINE
  5
256
330
251
100
AcDbEntity
  8
VERMASSUNG
100
AcDbLine
 10
168.6828749917
 20
94.2046587216
 30
0.0
 11
224.792764712
 21
94.2046587216
 31
0.0
  0
LINE
  5
257
330
251
100
AcDbEntity
  8
VERMASSUNG
100
AcDbLine
 10
168.6828749917
 20
120.2046587216
 30
0.0
 11
224.792764712
 21
120.2046587216
 31
0.0
  0
LINE
  5
258
330
251
100
AcDbEntity
  8
VERMASSUNG
100
AcDbLine
 10
223.792764712
 20
94.2046587216
 30
0.0
 11
223.792764712
 21
120.2046587216
 31
0.0
  0
MTEXT
  5
259
330
251
100
AcDbEntity
  8
VERMASSUNG
100
AcDbMText
 10
221.2146291742
 20
104.001032901
 30
0.0
 40
2.0
 41
0.0
 71
     1
 72
     1
  1
%%c
  7
SLDTEXTSTYLE0
 11
6.123233995736766E-17
 21
1.0
 31
0.0
 73
     1
 44
1.0
  0
MTEXT
  5
25A
330
251
100
AcDbEntity
  8
VERMASSUNG
100
AcDbMText
 10
221.214629116
 20
107.610091982
 30
0.0
 40
2.0
 41
0.0
 71
     1
 72
     1
  1
26
  7
SLDTEXTSTYLE0
 11
6.123233995736766E-17
 21
1.0
 31
0.0
 73
     1
 44
1.0
  0
ENDBLK
  5
253
330
251
100
AcDbEntity
  8
0
100
AcDbBlockEnd
  0
BLOCK
  5
25D
330
25C
100
AcDbEntity
  8
0
100
AcDbBlockBegin
  2
_D_5
 70
     0
 10
0.0
 20
0.0
 30
0.0
  3
_D_5
  1

  0
SOLID
  5
25F
330
25C
100
AcDbEntity
  8
VERMASSUNG
100
AcDbTrace
 10
121.6828749917
 20
148.7046587216
 30
0.0
 11
124.6828749917
 21
148.2546587216
 31
0.0
 12
124.6828749917
 22
149.1546587216
 32
0.0
 13
124.6828749917
 23
149.1546587216
 33
0.0
  0
SOLID
  5
260
330
25C
100
AcDbEntity
  8
VERMASSUNG
100
AcDbTrace
 10
201.6828749917
 20
148.7046587216
 30
0.0
 11
198.6828749917
 21
149.1546587216
 31
0.0
 12
198.6828749917
 22
148.2546587216
 32
0.0
 13
198.6828749917
 23
148.2546587216
 33
0.0
  0
LINE
  5
261
330
25C
100
AcDbEntity
  8
VERMASSUNG
100
AcDbLine
 10
121.6828749917
 20
138.4046587216
 30
0.0
 11
121.6828749917
 21
149.7046587216
 31
0.0
  0
LINE
  5
262
330
25C
100
AcDbEntity
  8
VERMASSUNG
100
AcDbLine
 10
201.6828749917
 20
115.8558777382
 30
0.0
 11
201.6828749917
 21
149.7046587216
 31
0.0
  0
LINE
  5
263
330
25C
100
AcDbEntity
  8
VERMASSUNG
100
AcDbLine
 10
121.6828749917
 20
148.7046587216
 30
0.0
 11
201.6828749917
 21
148.7046587216
 31
0.0
  0
MTEXT
  5
264
330
25C
100
AcDbEntity
  8
VERMASSUNG
100
AcDbMText
 10
160.2837787116
 20
151.2827943175
 30
0.0
 40
2.0
 41
0.0
 71
     1
 72
     1
  1
80
  7
SLDTEXTSTYLE0
 73
     1
 44
1.0
  0
ENDBLK
  5
25E
330
25C
100
AcDbEntity
  8
0
100
AcDbBlockEnd
  0
BLOCK
  5
267
330
266
100
AcDbEntity
  8
0
100
AcDbBlockBegin
  2
_D_6
 70
     0
 10
0.0
 20
0.0
 30
0.0
  3
_D_6
  1

  0
SOLID
  5
269
330
266
100
AcDbEntity
  8
VERMASSUNG
100
AcDbTrace
 10
147.6328749917
 20
142.7046587216
 30
0.0
 11
150.6328749917
 21
142.2546587216
 31
0.0
 12
150.6328749917
 22
143.1546587216
 32
0.0
 13
150.6328749917
 23
143.1546587216
 33
0.0
  0
SOLID
  5
26A
330
266
100
AcDbEntity
  8
VERMASSUNG
100
AcDbTrace
 10
201.6828749917
 20
142.7046587216
 30
0.0
 11
198.6828749917
 21
143.1546587216
 31
0.0
 12
198.6828749917
 22
142.2546587216
 32
0.0
 13
198.6828749917
 23
142.2546587216
 33
0.0
  0
LINE
  5
26B
330
266
100
AcDbEntity
  8
VERMASSUNG
100
AcDbLine
 10
147.6328749917
 20
137.0510990453
 30
0.0
 11
147.6328749917
 21
143.7046587216
 31
0.0
  0
LINE
  5
26C
330
266
100
AcDbEntity
  8
VERMASSUNG
100
AcDbLine
 10
201.6828749917
 20
115.8558777382
 30
0.0
 11
201.6828749917
 21
143.7046587216
 31
0.0
  0
LINE
  5
26D
330
266
100
AcDbEntity
  8
VERMASSUNG
100
AcDbLine
 10
147.6328749917
 20
142.7046587216
 30
0.0
 11
201.6828749917
 21
142.7046587216
 31
0.0
  0
MTEXT
  5
26E
330
266
100
AcDbEntity
  8
VERMASSUNG
100
AcDbMText
 10
171.4589362608
 20
145.2827943175
 30
0.0
 40
2.0
 41
0.0
 71
     1
 72
     1
  1
54.05
  7
SLDTEXTSTYLE0
 73
     1
 44
1.0
  0
ENDBLK
  5
268
330
266
100
AcDbEntity
  8
0
100
AcDbBlockEnd
  0
BLOCK
  5
271
330
270
100
AcDbEntity
  8
0
100
AcDbBlockBegin
  2
_D_7
 70
     0
 10
0.0
 20
0.0
 30
0.0
  3
_D_7
  1

  0
SOLID
  5
273
330
270
100
AcDbEntity
  8
VERMASSUNG
100
AcDbTrace
 10
89.7828749917
 20
154.7046587216
 30
0.0
 11
92.7828749917
 21
154.2546587216
 31
0.0
 12
92.7828749917
 22
155.1546587216
 32
0.0
 13
92.7828749917
 23
155.1546587216
 33
0.0
  0
SOLID
  5
274
330
270
100
AcDbEntity
  8
VERMASSUNG
100
AcDbTrace
 10
201.6828749917
 20
154.7046587216
 30
0.0
 11
198.6828749917
 21
155.1546587216
 31
0.0
 12
198.6828749917
 22
154.2546587216
 32
0.0
 13
198.6828749917
 23
154.2546587216
 33
0.0
  0
LINE
  5
275
330
270
100
AcDbEntity
  8
VERMASSUNG
100
AcDbLine
 10
89.7828749917
 20
126.895336468
 30
0.0
 11
89.7828749917
 21
155.7046587216
 31
0.0
  0
LINE
  5
276
330
270
100
AcDbEntity
  8
VERMASSUNG
100
AcDbLine
 10
201.6828749917
 20
115.8558777382
 30
0.0
 11
201.6828749917
 21
155.7046587216
 31
0.0
  0
LINE
  5
277
330
270
100
AcDbEntity
  8
VERMASSUNG
100
AcDbLine
 10
89.7828749917
 20
154.7046587216
 30
0.0
 11
201.6828749917
 21
154.7046587216
 31
0.0
  0
MTEXT
  5
278
330
270
100
AcDbEntity
  8
VERMASSUNG
100
AcDbMText
 10
143.2334844009
 20
157.2827943175
 30
0.0
 40
2.0
 41
0.0
 71
     1
 72
     1
  1
111.9
  7
SLDTEXTSTYLE0
 73
     1
 44
1.0
  0
ENDBLK
  5
272
330
270
100
AcDbEntity
  8
0
100
AcDbBlockEnd
  0
ENDSEC
  0
SECTION
  2
ENTITIES
  0
MTEXT
  5
78
330
1F
100
AcDbEntity
  8
KOPF_DÜNN
100
AcDbMText
 10
13.8892156294
 20
23.8442973028
 30
0.0
 40
3.0
 41
0.0
 71
     1
 72
     1
  1
HA6.S06.K21.080
  7
SLDTEXTSTYLE0
 73
     1
 44
1.0
  0
MTEXT
  5
79
330
1F
100
AcDbEntity
  8
VERMASSUNG
100
AcDbMText
 10
13.9329988022
 20
28.8834360957
 30
0.0
 40
3.0
 41
0.0
 71
     1
 72
     1
  1
Schrumpffutter_Heat shrink chuck
  7
SLDTEXTSTYLE0
 73
     1
 44
1.0
  0
MTEXT
  5
7A
330
1F
100
AcDbEntity
  8
VERMASSUNG
100
AcDbMText
 10
98.8601118557
 20
13.8365368761
 30
0.0
 40
2.0
 41
0.0
 71
     1
 72
     1
  1
Datum: 27.04.2011
  7
SLDTEXTSTYLE0
 73
     1
 44
1.0
  0
MTEXT
  5
7C
330
1F
100
AcDbEntity
  8
VERMASSUNG
100
AcDbMText
 10
13.933048693
 20
18.0482802738
 30
0.0
 40
2.0
 41
0.0
 71
     1
 72
     1
  1
DIN 69 893 HSK A 63
  7
SLDTEXTSTYLE1
 73
     1
 44
1.0
  0
MTEXT
  5
7D
330
1F
100
AcDbEntity
  8
VERMASSUNG
100
AcDbMText
 10
13.9808475933
 20
13.9090974274
 30
0.0
 40
2.0
 41
0.0
 71
     1
 72
     1
  1
Gewicht: 818g
  7
SLDTEXTSTYLE0
 73
     1
 44
1.0
  0
LINE
  5
7E
330
1F
100
AcDbEntity
  8
0
  6
Continuous
 62
     7
370
    25
100
AcDbLine
 10
201.6828732035
 20
99.3402905734
 30
0.0
 11
201.760195329
 21
99.487255604
 31
0.0
  0
LINE
  5
7F
330
1F
100
AcDbEntity
  8
0
  6
Continuous
 62
     7
370
    25
100
AcDbLine
 10
201.760195329
 20
114.9220618391
 30
0.0
 11
201.6828732035
 21
115.0690268697
 31
0.0
  0
LINE
  5
80
330
1F
100
AcDbEntity
  8
0
  6
Continuous
 62
     7
370
    25
100
AcDbLine
 10
121.9828750059
 20
75.7046582149
 30
0.0
 11
126.6328749648
 21
75.7046582149
 31
0.0
  0
LINE
  5
81
330
1F
100
AcDbEntity
  8
0
  6
Continuous
 62
     7
370
    25
100
AcDbLine
 10
126.6608635365
 20
138.7046592282
 30
0.0
 11
121.9828750059
 21
138.7046592282
 31
0.0
  0
ARC
  5
82
330
1F
100
AcDbEntity
  8
0
  6
Continuous
 62
     7
370
    25
100
AcDbCircle
 10
121.9828749917
 20
76.0046587216
 30
0.0
 40
0.3000000000000114
100
AcDbArc
 50
180.0
 51
270.0
  0
ARC
  5
83
330
1F
100
AcDbEntity
  8
0
  6
Continuous
 62
     7
370
    25
100
AcDbCircle
 10
121.9828749917
 20
138.4046587216
 30
0.0
 40
0.3000000000000114
100
AcDbArc
 50
90.0
 51
180.0
  0
ARC
  5
84
330
1F
100
AcDbEntity
  8
0
  6
Continuous
 62
     7
370
    25
100
AcDbCircle
 10
121.182868239
 20
82.6342211072
 30
0.0
 40
0.6000067526677242
100
AcDbArc
 50
33.5571153394
 51
90.0
  0
ARC
  5
85
330
1F
100
AcDbEntity
  8
0
  6
Continuous
 62
     7
370
    25
100
AcDbCircle
 10
121.182868239
 20
131.775096336
 30
0.0
 40
0.6000067526677242
100
AcDbArc
 50
270.0
 51
326.4428846606
  0
LINE
  5
86
330
1F
100
AcDbEntity
  8
0
  6
Continuous
 62
     7
370
    25
100
AcDbLine
 10
119.6828748967
 20
82.984227498
 30
0.0
 11
120.5395878229
 21
83.2137836115
 31
0.0
  0
LINE
  5
87
330
1F
100
AcDbEntity
  8
0
  6
Continuous
 62
     7
370
    25
100
AcDbLine
 10
120.5395878229
 20
131.1955338316
 30
0.0
 11
119.6828748967
 21
131.4250899451
 31
0.0
  0
LINE
  5
88
330
1F
100
AcDbEntity
  8
0
  6
Continuous
 62
     7
370
    25
100
AcDbLine
 10
108.4513665578
 20
130.8623885708
 30
0.0
 11
95.8828741155
 21
130.2327046143
 31
0.0
  0
LINE
  5
89
330
1F
100
AcDbEntity
  8
0
  6
Continuous
 62
     7
370
    25
100
AcDbLine
 10
119.6828748967
 20
131.4250899451
 30
0.0
 11
116.8658734701
 21
131.2839573221
 31
0.0
  0
LINE
  5
8A
330
1F
100
AcDbEntity
  8
0
  6
Continuous
 62
     7
370
    25
100
AcDbLine
 10
116.8659293494
 20
83.1253582584
 30
0.0
 11
119.6828748967
 21
82.984227498
 31
0.0
  0
LINE
  5
8B
330
1F
100
AcDbEntity
  8
0
  6
Continuous
 62
     7
370
    25
100
AcDbLine
 10
99.8828747711
 20
83.9762126999
 30
0.0
 11
108.4517688892
 21
83.5469083832
 31
0.0
  0
ARC
  5
8C
330
1F
100
AcDbEntity
  8
0
  6
Continuous
 62
     7
370
    25
100
AcDbCircle
 10
120.6948791921
 20
82.6342278598
 30
0.0
 40
0.5999999999999943
100
AcDbArc
 50
90.0
 51
105.0
  0
ARC
  5
8D
330
1F
100
AcDbEntity
  8
0
  6
Continuous
 62
     7
370
    25
100
AcDbCircle
 10
120.6948791921
 20
131.7750895833
 30
0.0
 40
0.5999999999999943
100
AcDbArc
 50
255.0
 51
270.0
  0
LINE
  5
8E
330
1F
100
AcDbEntity
  8
0
  6
Continuous
 62
     7
370
    25
100
AcDbLine
 10
120.6948792265
 20
83.2342280047
 30
0.0
 11
121.1828682158
 21
83.2342280047
 31
0.0
  0
LINE
  5
8F
330
1F
100
AcDbEntity
  8
0
  6
Continuous
 62
     7
370
    25
100
AcDbLine
 10
121.1828682158
 20
131.1750894384
 30
0.0
 11
120.6948792265
 21
131.1750894384
 31
0.0
  0
ARC
  5
90
330
1F
100
AcDbEntity
  8
0
  6
Continuous
 62
     7
370
    25
100
AcDbCircle
 10
150.6328749917
 20
91.2046587216
 30
0.0
 40
3.0
100
AcDbArc
 50
90.0
 51
180.0
  0
ARC
  5
91
330
1F
100
AcDbEntity
  8
0
  6
Continuous
 62
     7
370
    25
100
AcDbCircle
 10
150.6328749917
 20
123.2046587216
 30
0.0
 40
3.0
100
AcDbArc
 50
180.0
 51
270.0
  0
LINE
  5
92
330
1F
100
AcDbEntity
  8
0
  6
Continuous
 62
     7
370
    25
100
AcDbLine
 10
169.9173638067
 20
94.2046584533
 30
0.0
 11
199.8397932789
 21
96.5596053721
 31
0.0
  0
LINE
  5
93
330
1F
100
AcDbEntity
  8
0
  6
Continuous
 62
     7
370
    25
100
AcDbLine
 10
199.8397932789
 20
117.849712071
 30
0.0
 11
169.9173638067
 21
120.2046589898
 31
0.0
  0
LINE
  5
94
330
1F
100
AcDbEntity
  8
0
  6
Continuous
 62
     7
370
    25
100
AcDbLine
 10
162.1030458651
 20
94.2046584533
 30
0.0
 11
169.9173638067
 21
94.2046584533
 31
0.0
  0
LINE
  5
95
330
1F
100
AcDbEntity
  8
0
  6
Continuous
 62
     7
370
    25
100
AcDbLine
 10
150.6328751735
 20
94.2046584533
 30
0.0
 11
155.1663094602
 21
94.2046584533
 31
0.0
  0
LINE
  5
96
330
1F
100
AcDbEntity
  8
0
  6
Continuous
 62
     7
370
    25
100
AcDbLine
 10
155.1540830574
 20
120.2046589898
 30
0.0
 11
150.6328751735
 21
120.2046589898
 31
0.0
  0
LINE
  5
97
330
1F
100
AcDbEntity
  8
0
  6
Continuous
 62
     7
370
    25
100
AcDbLine
 10
169.9173638067
 20
120.2046589898
 30
0.0
 11
162.0956288121
 21
120.2046589898
 31
0.0
  0
LINE
  5
98
330
1F
100
AcDbEntity
  8
0
  6
Continuous
 62
     7
370
    25
100
AcDbLine
 10
91.0662115953
 20
86.3346585976
 30
0.0
 11
98.4828752867
 21
86.3346585976
 31
0.0
  0
ARC
  5
99
330
1F
100
AcDbEntity
  8
0
  6
Continuous
 62
     7
370
    25
100
AcDbCircle
 10
199.6828749917
 20
98.5534397049
 30
0.0
 40
1.999999999999988
100
AcDbArc
 50
274.5
 51
0.0
  0
ARC
  5
9A
330
1F
100
AcDbEntity
  8
0
  6
Continuous
 62
     7
370
    25
100
AcDbCircle
 10
199.6828749917
 20
115.8558777382
 30
0.0
 40
2.000000000000002
100
AcDbArc
 50
0.0
 51
85.5
  0
ARC
  5
9B
330
1F
100
AcDbEntity
  8
0
  6
Continuous
 62
     7
370
    25
100
AcDbCircle
 10
98.4828749917
 20
84.9346587216
 30
0.0
 40
1.400000000000006
100
AcDbArc
 50
42.2465410162
 51
90.0
  0
LINE
  5
9C
330
1F
100
AcDbEntity
  8
0
  6
Continuous
 62
     7
370
    25
100
AcDbLine
 10
89.7839070699
 20
87.48362567
 30
0.0
 11
90.9240377537
 21
86.3434949862
 31
0.0
  0
LINE
  5
9D
330
1F
100
AcDbEntity
  8
0
  6
Continuous
 62
     7
370
    25
100
AcDbLine
 10
90.9240377537
 20
128.0658224569
 30
0.0
 11
89.7927769861
 21
126.9345598267
 31
0.0
  0
ARC
  5
9E
330
1F
100
AcDbEntity
  8
0
  6
Continuous
 62
     7
370
    25
100
AcDbCircle
 10
94.4828749917
 20
129.4746587216
 30
0.0
 40
1.400000000000008
100
AcDbArc
 50
270.0
 51
301.7485287426
  0
LINE
  5
9F
330
1F
100
AcDbEntity
  8
0
  6
Continuous
 62
     7
370
    25
100
AcDbLine
 10
94.4828746311
 20
128.0746588455
 30
0.0
 11
91.0571405134
 21
128.0746588455
 31
0.0
  0
LWPOLYLINE
  5
A0
330
1F
100
AcDbEntity
  8
0
  6
Continuous
 62
     7
370
    25
100
AcDbPolyline
 90
        8
 70
   128
 43
0.0
 10
201.6828732035
 20
101.4552375274
 10
201.6959415219
 20
101.1225877302
 10
201.712317898
 20
100.7058157557
 10
201.7286942742
 20
100.2890437813
 10
201.7430962465
 20
99.9225404085
 10
201.7537803791
 20
99.6505117947
 10
201.7594726226
 20
99.5057684341
 10
201.760195329
 20
99.487255604
  0
LWPOLYLINE
  5
A1
330
1F
100
AcDbEntity
  8
0
  6
Continuous
 62
     7
370
    25
100
AcDbPolyline
 90
        8
 70
   128
 43
0.0
 10
201.760195329
 20
114.9220618391
 10
201.7594726226
 20
114.903549009
 10
201.7537803791
 20
114.7588056484
 10
201.7430962465
 20
114.4867770346
 10
201.7286942742
 20
114.1202736618
 10
201.712317898
 20
113.7035016874
 10
201.6959415219
 20
113.286729713
 10
201.6828732035
 20
112.9540799158
  0
LINE
  5
A2
330
1F
100
AcDbEntity
  8
0
  6
Continuous
 62
     7
370
    25
100
AcDbLine
 10
143.0748069129
 20
77.0177410887
 30
0.0
 11
143.0748069129
 21
127.0546594607
 31
0.0
  0
SPLINE
  5
A3
330
1F
100
AcDbEntity
  8
0
  6
Continuous
 62
     7
370
    25
100
AcDbSpline
210
0.0
220
0.0
230
1.0
 70
     8
 71
     3
 72
     8
 73
     4
 74
     0
 42
0.000000001
 43
0.00000001
 40
0.0
 40
0.0
 40
0.0
 40
0.0
 40
1.0
 40
1.0
 40
1.0
 40
1.0
 10
143.0748078231549
 20
77.017741025313
 30
0.0
 10
142.5793281624891
 20
77.91326711324636
 30
0.0
 10
142.085214114447
 20
78.8095515282986
 30
0.0
 10
141.5928749916658
 20
79.7068215625053
 30
0.0
  0
LINE
  5
A4
330
1F
100
AcDbEntity
  8
0
  6
Continuous
 62
     7
370
    25
100
AcDbLine
 10
141.5928752563
 20
79.7068214016
 30
0.0
 11
141.5928752563
 21
127.0546594607
 31
0.0
  0
SPLINE
  5
A5
330
1F
100
AcDbEntity
  8
0
  6
Continuous
 62
     7
370
    25
100
AcDbSpline
210
0.0
220
0.0
230
1.0
 70
    24
 71
     3
 72
     8
 73
     4
 74
     0
 42
0.000000001
 43
0.00000001
 40
0.0
 40
0.0
 40
0.0
 40
0.0
 40
1.0
 40
1.0
 40
1.0
 40
1.0
 10
141.5928749916658
 20
127.0546587215602
 30
0.0
 10
142.0728269860307
 20
127.0546587215602
 30
0.0
 10
142.5681277150044
 20
127.0546587215602
 30
0.0
 10
143.0748078231549
 20
127.0546587215602
 30
0.0
  0
LINE
  5
A6
330
1F
100
AcDbEntity
  8
0
  6
Continuous
 62
     7
370
    25
100
AcDbLine
 10
126.6328749648
 20
127.0546594607
 30
0.0
 11
136.290942452
 21
127.0546594607
 31
0.0
  0
LINE
  5
A7
330
1F
100
AcDbEntity
  8
0
  6
Continuous
 62
     7
370
    25
100
AcDbLine
 10
136.290942452
 20
77.0177410887
 30
0.0
 11
136.290942452
 21
127.0546594607
 31
0.0
  0
LINE
  5
A8
330
1F
100
AcDbEntity
  8
0
  6
Continuous
 62
     7
370
    25
100
AcDbLine
 10
136.290942452
 20
77.0177410887
 30
0.0
 11
134.6328753448
 21
77.0177410887
 31
0.0
  0
SPLINE
  5
A9
330
1F
100
AcDbEntity
  8
0
  6
Continuous
 62
     7
370
    25
100
AcDbSpline
210
0.0
220
0.0
230
1.0
 70
     8
 71
     3
 72
    28
 73
    24
 74
     0
 42
0.000000001
 43
0.00000001
 40
0.0
 40
0.0
 40
0.0
 40
0.0
 40
0.1250000000000001
 40
0.1250000000000001
 40
0.1875000000000001
 40
0.1875000000000001
 40
0.2500000000000001
 40
0.2500000000000001
 40
0.3749999999999999
 40
0.3749999999999999
 40
0.4375
 40
0.4375
 40
0.4999999999999999
 40
0.4999999999999999
 40
0.6249999999999999
 40
0.6249999999999999
 40
0.7499999999999997
 40
0.7499999999999997
 40
0.8124999999999998
 40
0.8124999999999998
 40
0.8749999999999998
 40
0.8749999999999998
 40
1.0
 40
1.0
 40
1.0
 40
1.0
 10
134.6328749916658
 20
77.017741025313
 30
0.0
 10
134.1011672341729
 20
77.017741025313
 30
0.0
 10
133.5789286688626
 20
77.00195631136279
 30
0.0
 10
132.8090581825876
 20
76.95696089728659
 30
0.0
 10
132.5546986103962
 20
76.93840590221085
 30
0.0
 10
132.0505770296977
 20
76.89455317976434
 30
0.0
 10
131.8008542122698
 20
76.86920857281216
 30
0.0
 10
131.0752642608234
 20
76.78580649506206
 30
0.0
 10
130.6169039992418
 20
76.71994093591097
 30
0.0
 10
129.966406055848
 20
76.61097059541918
 30
0.0
 10
129.7547240050555
 20
76.57273095965253
 30
0.0
 10
129.3506525159175
 20
76.49497222223317
 30
0.0
 10
129.1581460020966
 20
76.4554712600578
 30
0.0
 10
128.6083110310753
 20
76.33656351769181
 30
0.0
 10
128.2783822527666
 20
76.25674583626721
 30
0.0
 10
127.6939109841979
 20
76.10340267447114
 30
0.0
 10
127.4476338461844
 20
76.0320689212019
 30
0.0
 10
127.1477910534863
 20
75.93812541412727
 30
0.0
 10
127.0593341964142
 20
75.90893162076733
 30
0.0
 10
126.905972843109
 20
75.85546504650392
 30
0.0
 10
126.8408846288828
 20
75.83110571222875
 30
0.0
 10
126.685290612942
 20
75.76751556678401
 30
0.0
 10
126.6328749916658
 20
75.73741263169475
 30
0.0
 10
126.6328749916658
 20
75.72053573869783
 30
0.0
  0
LINE
  5
AA
330
1F
100
AcDbEntity
  8
0
  6
Continuous
 62
     7
370
    25
100
AcDbLine
 10
126.6328749648
 20
75.7205354022
 30
0.0
 11
126.6328749648
 21
75.7046582149
 31
0.0
  0
SPLINE
  5
AB
330
1F
100
AcDbEntity
  8
0
  6
Continuous
 62
     7
370
    25
100
AcDbSpline
210
0.0
220
0.0
230
1.0
 70
     8
 71
     3
 72
    17
 73
    13
 74
     0
 42
0.000000001
 43
0.00000001
 40
0.0
 40
0.0
 40
0.0
 40
0.0
 40
0.1034797280380778
 40
0.2100239090909901
 40
0.3134862262879433
 40
0.4198361712144981
 40
0.5254127947779869
 40
0.6339610881168427
 40
0.7409508662120068
 40
0.8511696072047016
 40
0.9558996557845765
 40
1.0
 40
1.0
 40
1.0
 40
1.0
 10
134.6328753448234
 20
137.6718541579186
 30
0.0
 10
134.1976268530974
 20
137.6773021495563
 30
0.0
 10
133.3142404025204
 20
137.6883594698849
 30
0.0
 10
132.0334125402977
 20
137.7747182302599
 30
0.0
 10
130.8159963448557
 20
137.9025893733929
 30
0.0
 10
129.7081897285299
 20
138.0615337807114
 30
0.0
 10
128.7199512492011
 20
138.236028353696
 30
0.0
 10
127.8952281493853
 20
138.4051947868829
 30
0.0
 10
127.2462744918867
 20
138.5530755953506
 30
0.0
 10
126.829239188407
 20
138.6548663468731
 30
0.0
 10
126.630642445529
 20
138.7052232465076
 30
0.0
 10
126.653955562517
 20
138.6993136415321
 30
0.0
 10
126.6608635365174
 20
138.6975625501811
 30
0.0
  0
LINE
  5
AC
330
1F
100
AcDbEntity
  8
0
  6
Continuous
 62
     7
370
    25
100
AcDbLine
 10
136.290942452
 20
137.6718541579
 30
0.0
 11
134.6328753448
 21
137.6718541579
 31
0.0
  0
LINE
  5
AD
330
1F
100
AcDbEntity
  8
0
  6
Continuous
 62
     7
370
    25
100
AcDbLine
 10
136.290942452
 20
131.6633483367
 30
0.0
 11
136.290942452
 21
137.6718541579
 31
0.0
  0
LINE
  5
AE
330
1F
100
AcDbEntity
  8
0
  6
Continuous
 62
     7
370
    25
100
AcDbLine
 10
133.8784956775
 20
131.6633483367
 30
0.0
 11
136.290942452
 21
131.6633483367
 31
0.0
  0
SPLINE
  5
AF
330
1F
100
AcDbEntity
  8
0
  6
Continuous
 62
     7
370
    25
100
AcDbSpline
210
0.0
220
0.0
230
1.0
 70
     8
 71
     3
 72
    20
 73
    16
 74
     0
 42
0.000000001
 43
0.00000001
 40
0.0
 40
0.0
 40
0.0
 40
0.0
 40
0.2499999999999997
 40
0.2499999999999997
 40
0.3749999999999997
 40
0.3749999999999997
 40
0.4999999999999998
 40
0.4999999999999998
 40
0.6249999999999998
 40
0.6249999999999998
 40
0.7499999999999999
 40
0.7499999999999999
 40
0.8749999999999999
 40
0.8749999999999999
 40
1.0
 40
1.0
 40
1.0
 40
1.0
 10
126.6328749916658
 20
127.0546587215602
 30
0.0
 10
126.8812487259539
 20
127.7085211498576
 30
0.0
 10
127.2008188182991
 20
128.3123069318547
 30
0.0
 10
127.8231250515038
 20
129.1391456680233
 30
0.0
 10
128.0545493119346
 20
129.4015743059762
 30
0.0
 10
128.5757636515843
 20
129.8982369600812
 30
0.0
 10
128.8623841342194
 20
130.1288238391027
 30
0.0
 10
129.481868875527
 20
130.5453780636854
 30
0.0
 10
129.8161692550139
 20
130.7328758656529
 30
0.0
 10
130.5414297276387
 20
131.0642728432893
 30
0.0
 10
130.9233447850292
 20
131.2037768307846
 30
0.0
 10
131.7181329612009
 20
131.4292303382555
 30
0.0
 10
132.1322911554073
 20
131.5158564497991
 30
0.0
 10
132.9978374959887
 20
131.6338372386533
 30
0.0
 10
133.4357251110005
 20
131.6633483839276
 30
0.0
 10
133.8784953373551
 20
131.6633483839276
 30
0.0
  0
SPLINE
  5
B0
330
1F
100
AcDbEntity
  8
0
  6
Continuous
 62
     7
370
    25
100
AcDbSpline
210
0.0
220
0.0
230
1.0
 70
    11
 71
     3
 72
    70
 73
    66
 74
     0
 42
0.000000001
 43
0.00000001
 40
0.0
 40
0.0
 40
0.0
 40
0.0
 40
0.0312499999999997
 40
0.0312499999999997
 40
0.0624999999999994
 40
0.0624999999999994
 40
0.0937499999999993
 40
0.0937499999999993
 40
0.1249999999999991
 40
0.1249999999999991
 40
0.156249999999999
 40
0.156249999999999
 40
0.1874999999999989
 40
0.1874999999999989
 40
0.2187499999999988
 40
0.2187499999999988
 40
0.2499999999999986
 40
0.2499999999999986
 40
0.2812499999999987
 40
0.2812499999999987
 40
0.3124999999999988
 40
0.3124999999999988
 40
0.3437499999999989
 40
0.3437499999999989
 40
0.3749999999999989
 40
0.3749999999999989
 40
0.4062499999999991
 40
0.4062499999999991
 40
0.4374999999999992
 40
0.4374999999999992
 40
0.4687499999999992
 40
0.4687499999999992
 40
0.4999999999999993
 40
0.4999999999999993
 40
0.5312499999999993
 40
0.5312499999999993
 40
0.5624999999999994
 40
0.5624999999999994
 40
0.5937499999999994
 40
0.5937499999999994
 40
0.6249999999999994
 40
0.6249999999999994
 40
0.6562499999999996
 40
0.6562499999999996
 40
0.6874999999999996
 40
0.6874999999999996
 40
0.7187499999999996
 40
0.7187499999999996
 40
0.7499999999999996
 40
0.7499999999999996
 40
0.7812499999999997
 40
0.7812499999999997
 40
0.8124999999999997
 40
0.8124999999999997
 40
0.8437499999999997
 40
0.8437499999999997
 40
0.8749999999999998
 40
0.8749999999999998
 40
0.9062499999999998
 40
0.9062499999999998
 40
0.9374999999999998
 40
0.9374999999999998
 40
0.9687499999999999
 40
0.9687499999999999
 40
1.0
 40
1.0
 40
1.0
 40
1.0
 10
125.6828749916658
 20
121.5053594633558
 30
0.0
 10
125.6828749916658
 20
121.7410707700758
 30
0.0
 10
125.7088600670498
 20
121.9712843299919
 30
0.0
 10
125.8106249696338
 20
122.4213471180541
 30
0.0
 10
125.8876593554398
 20
122.6435080585451
 30
0.0
 10
126.088525642877
 20
123.0642922760176
 30
0.0
 10
126.2114046914683
 20
123.2625595736619
 30
0.0
 10
126.5016693535321
 20
123.6358464621284
 30
0.0
 10
126.6704429293839
 20
123.8113575076434
 30
0.0
 10
127.0390809506703
 20
124.1246568579462
 30
0.0
 10
127.2402739986228
 20
124.2645891484889
 30
0.0
 10
127.677411523877
 20
124.5110459074804
 30
0.0
 10
127.9098261915003
 20
124.6151762454304
 30
0.0
 10
128.3910104136127
 20
124.7822982241146
 30
0.0
 10
128.6433454195706
 20
124.8465099908746
 30
0.0
 10
129.1597902852584
 20
124.9322949374076
 30
0.0
 10
129.4194955333107
 20
124.9534962440034
 30
0.0
 10
129.9418025904638
 20
124.9537383264086
 30
0.0
 10
130.2071089057778
 20
124.9320772845613
 30
0.0
 10
130.7203149959071
 20
124.8468837948395
 30
0.0
 10
130.9697824342189
 20
124.7838075790772
 30
0.0
 10
131.4543850437107
 20
124.6159201735328
 30
0.0
 10
131.6882547024952
 20
124.5109240715851
 30
0.0
 10
132.1213970237504
 20
124.2670562943154
 30
0.0
 10
132.3235739395162
 20
124.1271979576256
 30
0.0
 10
132.6968487318259
 20
123.8101362586822
 30
0.0
 10
132.8621710259758
 20
123.6378931959626
 30
0.0
 10
133.151886013311
 20
123.2661251939507
 30
0.0
 10
133.2772892789417
 20
123.0641718984662
 30
0.0
 10
133.4781047269536
 20
122.6434628583299
 30
0.0
 10
133.5538892840595
 20
122.4255611120336
 30
0.0
 10
133.6564990027918
 20
121.9742445567907
 30
0.0
 10
133.68277653565
 20
121.7393953052121
 30
0.0
 10
133.6829728824714
 20
121.2740030402639
 30
0.0
 10
133.6577396362538
 20
121.041091208471
 30
0.0
 10
133.5553391503366
 20
120.5749911381605
 30
0.0
 10
133.4786508532775
 20
120.3458385184847
 30
0.0
 10
133.279434742961
 20
119.906168606389
 30
0.0
 10
133.1553281089565
 20
119.6922811857248
 30
0.0
 10
132.8634517609549
 20
119.2887984635812
 30
0.0
 10
132.6981794567731
 20
119.1019255062036
 30
0.0
 10
132.3297963535894
 20
118.7579774827776
 30
0.0
 10
132.1242864469618
 20
118.5997453711452
 30
0.0
 10
131.6901821030297
 20
118.3269560219285
 30
0.0
 10
131.4606968154023
 20
118.210916952009
 30
0.0
 10
130.9764841380417
 20
118.0207363964093
 30
0.0
 10
130.7224908122698
 20
117.9475878753564
 30
0.0
 10
130.2111126761436
 20
117.8507015873076
 30
0.0
 10
129.9509826520764
 20
117.8257934398952
 30
0.0
 10
129.4219784381845
 20
117.8253408598576
 30
0.0
 10
129.1618907073974
 20
117.8497878678973
 30
0.0
 10
128.6501731846887
 20
117.9458299982121
 30
0.0
 10
128.3958620669555
 20
118.0186206592033
 30
0.0
 10
127.9114842209899
 20
118.2079286750875
 30
0.0
 10
127.6817194642271
 20
118.3235969829437
 30
0.0
 10
127.2467574073539
 20
118.5959252986115
 30
0.0
 10
127.0410811452241
 20
118.7537799925588
 30
0.0
 10
126.6722383000981
 20
119.0969929088517
 30
0.0
 10
126.5065545824438
 20
119.2836420454307
 30
0.0
 10
126.2136531654437
 20
119.687105242842
 30
0.0
 10
126.089442433518
 20
119.9003675021974
 30
0.0
 10
125.8894338815962
 20
120.339614825766
 30
0.0
 10
125.8122963320099
 20
120.5685558288352
 30
0.0
 10
125.7088633017391
 20
121.0351181408531
 30
0.0
 10
125.6828749916658
 20
121.2696481566359
 30
0.0
 10
125.6828749916658
 20
121.5053594633558
 30
0.0
  0
SPLINE
  5
B1
330
1F
100
AcDbEntity
  8
0
  6
Continuous
 62
     7
370
    25
100
AcDbSpline
210
0.0
220
0.0
230
1.0
 70
    11
 71
     3
 72
    70
 73
    66
 74
     0
 42
0.000000001
 43
0.00000001
 40
0.0
 40
0.0
 40
0.0
 40
0.0
 40
0.03125
 40
0.03125
 40
0.0624999999999999
 40
0.0624999999999999
 40
0.0937499999999999
 40
0.0937499999999999
 40
0.1249999999999999
 40
0.1249999999999999
 40
0.1562499999999999
 40
0.1562499999999999
 40
0.1874999999999998
 40
0.1874999999999998
 40
0.2187499999999998
 40
0.2187499999999998
 40
0.2499999999999998
 40
0.2499999999999998
 40
0.2812499999999999
 40
0.2812499999999999
 40
0.3125000000000002
 40
0.3125000000000002
 40
0.3437500000000003
 40
0.3437500000000003
 40
0.3750000000000006
 40
0.3750000000000006
 40
0.4062500000000007
 40
0.4062500000000007
 40
0.4375000000000009
 40
0.4375000000000009
 40
0.4687500000000011
 40
0.4687500000000011
 40
0.5000000000000013
 40
0.5000000000000013
 40
0.5312500000000012
 40
0.5312500000000012
 40
0.562500000000001
 40
0.562500000000001
 40
0.5937500000000009
 40
0.5937500000000009
 40
0.6250000000000008
 40
0.6250000000000008
 40
0.6562500000000007
 40
0.6562500000000007
 40
0.6875000000000004
 40
0.6875000000000004
 40
0.7187500000000003
 40
0.7187500000000003
 40
0.7500000000000002
 40
0.7500000000000002
 40
0.7812500000000002
 40
0.7812500000000002
 40
0.8125000000000001
 40
0.8125000000000001
 40
0.8437500000000001
 40
0.8437500000000001
 40
0.8750000000000001
 40
0.8750000000000001
 40
0.9062500000000001
 40
0.9062500000000001
 40
0.9375
 40
0.9375
 40
0.96875
 40
0.96875
 40
1.0
 40
1.0
 40
1.0
 40
1.0
 10
125.6828749916658
 20
134.48445894077
 30
0.0
 10
125.6828749916658
 20
134.6167314327894
 30
0.0
 10
125.7088600670498
 20
134.7438835269443
 30
0.0
 10
125.8106249696338
 20
134.9886925226822
 30
0.0
 10
125.8876593554398
 20
135.1075545217552
 30
0.0
 10
126.088525642877
 20
135.3292643481007
 30
0.0
 10
126.2114046914683
 20
135.4319796870262
 30
0.0
 10
126.5016693535321
 20
135.622671707604
 30
0.0
 10
126.6704429293839
 20
135.710861404915
 30
0.0
 10
127.0390809506703
 20
135.8663605210121
 30
0.0
 10
127.2402739986228
 20
135.9347731784761
 30
0.0
 10
127.677411523877
 20
136.0541037978212
 30
0.0
 10
127.9098261915003
 20
136.1038634900035
 30
0.0
 10
128.3910104136127
 20
136.1832374670763
 30
0.0
 10
128.6433454195706
 20
136.2134331513161
 30
0.0
 10
129.1597902852584
 20
136.253681039159
 30
0.0
 10
129.4194955333107
 20
136.2635653239418
 30
0.0
 10
129.9418025904638
 20
136.2636784267239
 30
0.0
 10
130.2071089057779
 20
136.2535788209926
 30
0.0
 10
130.7203149959071
 20
136.2136086310162
 30
0.0
 10
130.9697824342189
 20
136.183951467245
 30
0.0
 10
131.4543850437107
 20
136.1042196402844
 30
0.0
 10
131.6882547024952
 20
136.0540405869713
 30
0.0
 10
132.1213970237504
 20
135.9359719123852
 30
0.0
 10
132.3235739395162
 20
135.8676187519845
 30
0.0
 10
132.6968487318259
 20
135.7102582398801
 30
0.0
 10
132.8621710259758
 20
135.6237028228117
 30
0.0
 10
133.151886013311
 20
135.4338154025679
 30
0.0
 10
133.2772892789417
 20
135.3292013821165
 30
0.0
 10
133.4781047269536
 20
135.1075302451751
 30
0.0
 10
133.5538892840595
 20
134.9909639606302
 30
0.0
 10
133.6564990027918
 20
134.7455141369581
 30
0.0
 10
133.68277653565
 20
134.6157835814809
 30
0.0
 10
133.6829728824714
 20
134.3546378471775
 30
0.0
 10
133.6577396362538
 20
134.2219586851447
 30
0.0
 10
133.5553391503367
 20
133.9526014318295
 30
0.0
 10
133.4786508532775
 20
133.8182299934829
 30
0.0
 10
133.279434742961
 20
133.5571978635788
 30
0.0
 10
133.1553281089565
 20
133.428535226285
 30
0.0
 10
132.8634517609549
 20
133.1832275049469
 30
0.0
 10
132.6981794567731
 20
133.0682708972175
 30
0.0
 10
132.3297963535894
 20
132.8549397175325
 30
0.0
 10
132.1242864469618
 20
132.7558215299964
 30
0.0
 10
131.6901821030297
 20
132.5838992677254
 30
0.0
 10
131.4606968154023
 20
132.5101877789377
 30
0.0
 10
130.9764841380417
 20
132.388935307611
 30
0.0
 10
130.7224908122698
 20
132.3420269769271
 30
0.0
 10
130.2111126761436
 20
132.2798177435522
 30
0.0
 10
129.9509826520764
 20
132.2637687518998
 30
0.0
 10
129.4219784381845
 20
132.2634774661058
 30
0.0
 10
129.1618907073974
 20
132.2792297067523
 30
0.0
 10
128.6501731846887
 20
132.3408995845499
 30
0.0
 10
128.3958620669555
 20
132.3875812603901
 30
0.0
 10
127.9114842209899
 20
132.5082875488473
 30
0.0
 10
127.6817194642271
 20
132.5817717632887
 30
0.0
 10
127.2467574073539
 20
132.7534242108125
 30
0.0
 10
127.0410811452241
 20
132.85231909111
 30
0.0
 10
126.6722383000981
 20
133.0652282047288
 30
0.0
 10
126.5065545824438
 20
133.1800691544129
 30
0.0
 10
126.2136531654437
 20
133.4254111605727
 30
0.0
 10
126.089442433518
 20
133.5537232402541
 30
0.0
 10
125.8894338815962
 20
133.8145646681605
 30
0.0
 10
125.8122963320099
 20
133.9488479402428
 30
0.0
 10
125.7088633017391
 20
134.2185405213834
 30
0.0
 10
125.6828749916658
 20
134.3521864487505
 30
0.0
 10
125.6828749916658
 20
134.48445894077
 30
0.0
  0
LINE
  5
B2
330
1F
100
AcDbEntity
  8
0
  6
Continuous
 62
     7
370
    25
100
AcDbLine
 10
147.6328746817
 20
77.6443814831
 30
0.0
 11
147.6328746817
 21
127.0546594607
 31
0.0
  0
SPLINE
  5
B3
330
1F
100
AcDbEntity
  8
0
  6
Continuous
 62
     7
370
    25
100
AcDbSpline
210
0.0
220
0.0
230
1.0
 70
     8
 71
     3
 72
    10
 73
     6
 74
     0
 42
0.000000001
 43
0.00000001
 40
0.0
 40
0.0
 40
0.0
 40
0.0
 40
0.5
 40
0.5
 40
1.0
 40
1.0
 40
1.0
 40
1.0
 10
147.6328749916658
 20
77.64438132096733
 30
0.0
 10
147.6328749916658
 20
77.48449405277366
 30
0.0
 10
147.57156534043
 20
77.32336679725906
 30
0.0
 10
147.3524657028949
 20
77.08926779890422
 30
0.0
 10
147.1944174965814
 20
77.017741025313
 30
0.0
 10
147.0328749916658
 20
77.017741025313
 30
0.0
  0
SPLINE
  5
B4
330
1F
100
AcDbEntity
  8
0
  6
Continuous
 62
     7
370
    25
100
AcDbSpline
210
0.0
220
0.0
230
1.0
 70
    24
 71
     3
 72
    12
 73
     8
 74
     0
 42
0.000000001
 43
0.00000001
 40
0.0
 40
0.0
 40
0.0
 40
0.0
 40
0.2500000000000033
 40
0.2500000000000033
 40
0.5000000000000067
 40
0.5000000000000067
 40
1.0
 40
1.0
 40
1.0
 40
1.0
 10
147.0328749916658
 20
127.0546587215602
 30
0.0
 10
147.1231140593528
 20
127.0546587215602
 30
0.0
 10
147.2140121734594
 20
127.0546587215602
 30
0.0
 10
147.3686092099479
 20
127.0546587215602
 30
0.0
 10
147.433587626056
 20
127.0546587215602
 30
0.0
 10
147.5854226539923
 20
127.0546587215602
 30
0.0
 10
147.6328749916658
 20
127.0546587215602
 30
0.0
 10
147.6328749916658
 20
127.0546587215602
 30
0.0
  0
LINE
  5
B5
330
1F
100
AcDbEntity
  8
0
  6
Continuous
 62
     7
370
    25
100
AcDbLine
 10
137.7728750399
 20
79.7068214016
 30
0.0
 11
137.7728750399
 21
127.0546594607
 31
0.0
  0
SPLINE
  5
B6
330
1F
100
AcDbEntity
  8
0
  6
Continuous
 62
     7
370
    25
100
AcDbSpline
210
0.0
220
0.0
230
1.0
 70
     8
 71
     3
 72
     8
 73
     4
 74
     0
 42
0.000000001
 43
0.00000001
 40
0.0
 40
0.0
 40
0.0
 40
0.0
 40
1.0
 40
1.0
 40
1.0
 40
1.0
 10
137.7728749916658
 20
79.7068215625053
 30
0.0
 10
137.2805358688846
 20
78.8095515282986
 30
0.0
 10
136.7864218208425
 20
77.91326711324635
 30
0.0
 10
136.2909421601768
 20
77.017741025313
 30
0.0
  0
SPLINE
  5
B7
330
1F
100
AcDbEntity
  8
0
  6
Continuous
 62
     7
370
    25
100
AcDbSpline
210
0.0
220
0.0
230
1.0
 70
    24
 71
     3
 72
     8
 73
     4
 74
     0
 42
0.000000001
 43
0.00000001
 40
0.0
 40
0.0
 40
0.0
 40
0.0
 40
1.0
 40
1.0
 40
1.0
 40
1.0
 10
136.2909421601768
 20
127.0546587215602
 30
0.0
 10
136.7976222683273
 20
127.0546587215602
 30
0.0
 10
137.2929229973009
 20
127.0546587215602
 30
0.0
 10
137.7728749916658
 20
127.0546587215602
 30
0.0
  0
LINE
  5
B8
330
1F
100
AcDbEntity
  8
0
  6
Continuous
 62
     7
370
    25
100
AcDbLine
 10
121.6828749917
 20
76.0046595679
 30
0.0
 11
121.6828749917
 21
138.4046578752
 31
0.0
  0
LINE
  5
B9
330
1F
100
AcDbEntity
  8
0
  6
Continuous
 62
     7
370
    25
100
AcDbLine
 10
147.032875701
 20
77.0177410887
 30
0.0
 11
143.0748069129
 21
77.0177410887
 31
0.0
  0
LINE
  5
BA
330
1F
100
AcDbEntity
  8
0
  6
Continuous
 62
     7
370
    25
100
AcDbLine
 10
143.0748069129
 20
127.0546594607
 30
0.0
 11
147.032875701
 21
127.0546594607
 31
0.0
  0
ARC
  5
BB
330
1F
100
AcDbEntity
  8
0
  6
Continuous
 62
     7
370
    25
100
AcDbCircle
 10
129.8459066607
 20
119.2557223594
 30
0.0
 40
3.910302898829151
100
AcDbArc
 50
18.6027300042
 51
92.3895113437
  0
ARC
  5
BC
330
1F
100
AcDbEntity
  8
0
  6
Continuous
 62
     7
370
    25
100
AcDbCircle
 10
129.5654456454
 20
119.1860390138
 30
0.0
 40
3.978319643506281
100
AcDbArc
 50
88.3085308075
 51
160.0118829425
  0
SPLINE
  5
BD
330
1F
100
AcDbEntity
  8
0
  6
Continuous
 62
     7
370
    25
100
AcDbSpline
210
0.0
220
0.0
230
1.0
 70
    24
 71
     3
 72
    14
 73
    10
 74
     0
 42
0.000000001
 43
0.00000001
 40
0.0
 40
0.0
 40
0.0
 40
0.0
 40
0.5000000000000013
 40
0.5000000000000013
 40
0.750000000000002
 40
0.750000000000002
 40
0.875000000000001
 40
0.875000000000001
 40
1.0
 40
1.0
 40
1.0
 40
1.0
 10
141.4952001893335
 20
80.80465872156017
 30
0.0
 10
141.4484154842853
 20
80.80465872156016
 30
0.0
 10
141.3863642875057
 20
80.80465872156017
 30
0.0
 10
141.2429726489551
 20
80.80465872156017
 30
0.0
 10
141.1868289954039
 20
80.80465872156016
 30
0.0
 10
141.0738779732678
 20
80.80465872156016
 30
0.0
 10
141.0308772112296
 20
80.80465872156017
 30
0.0
 10
140.9268145009231
 20
80.80465872156016
 30
0.0
 10
140.8614822625662
 20
80.80465872156017
 30
0.0
 10
140.7928749916658
 20
80.80465872156017
 30
0.0
  0
SPLINE
  5
BE
330
1F
100
AcDbEntity
  8
0
  6
Continuous
 62
     7
370
    25
100
AcDbSpline
210
0.0
220
0.0
230
1.0
 70
    24
 71
     3
 72
    12
 73
     8
 74
     0
 42
0.000000001
 43
0.00000001
 40
0.0
 40
0.0
 40
0.0
 40
0.0
 40
0.5000000000000017
 40
0.5000000000000017
 40
0.7500000000000008
 40
0.7500000000000008
 40
1.0
 40
1.0
 40
1.0
 40
1.0
 10
141.1985774599748
 20
133.6046587215602
 30
0.0
 10
141.1554919103639
 20
133.6046587215602
 30
0.0
 10
141.1063397086146
 20
133.6046587215602
 30
0.0
 10
141.0098671143267
 20
133.6046587215602
 30
0.0
 10
140.9737655291921
 20
133.6046587215602
 30
0.0
 10
140.8906597713308
 20
133.6046587215602
 30
0.0
 10
140.8426631743645
 20
133.6046587215602
 30
0.0
 10
140.7928749916658
 20
133.6046587215602
 30
0.0
  0
SPLINE
  5
BF
330
1F
100
AcDbEntity
  8
0
  6
Continuous
 62
     7
370
    25
100
AcDbSpline
210
0.0
220
0.0
230
1.0
 70
     8
 71
     3
 72
    10
 73
     6
 74
     0
 42
0.000000001
 43
0.00000001
 40
0.0
 40
0.0
 40
0.0
 40
0.0
 40
0.5
 40
0.5
 40
1.0
 40
1.0
 40
1.0
 40
1.0
 10
141.5928749916658
 20
134.3243125725959
 30
0.0
 10
141.5928749916658
 20
134.1805425147779
 30
0.0
 10
141.5568259329469
 20
134.0381231522828
 30
0.0
 10
141.4213170721729
 20
133.7882288589255
 30
0.0
 10
141.3214410790768
 20
133.6801985226774
 30
0.0
 10
141.1985774599748
 20
133.6046587215601
 30
0.0
  0
SPLINE
  5
C0
330
1F
100
AcDbEntity
  8
0
  6
Continuous
 62
     7
370
    25
100
AcDbSpline
210
0.0
220
0.0
230
1.0
 70
     8
 71
     3
 72
    10
 73
     6
 74
     0
 42
0.000000001
 43
0.00000001
 40
0.0
 40
0.0
 40
0.0
 40
0.0
 40
0.5
 40
0.5
 40
1.0
 40
1.0
 40
1.0
 40
1.0
 10
141.5667273685057
 20
127.0546587215602
 30
0.0
 10
141.5754170114174
 20
127.1015375708783
 30
0.0
 10
141.5819560761679
 20
127.1489600362796
 30
0.0
 10
141.5907147105609
 20
127.2448968348663
 30
0.0
 10
141.5928749916658
 20
127.2928121228768
 30
0.0
 10
141.5928749916658
 20
127.3405253530213
 30
0.0
  0
SPLINE
  5
C1
330
1F
100
AcDbEntity
  8
0
  6
Continuous
 62
     7
370
    25
100
AcDbSpline
210
0.0
220
0.0
230
1.0
 70
     8
 71
     3
 72
    10
 73
     6
 74
     0
 42
0.000000001
 43
0.00000001
 40
0.0
 40
0.0
 40
0.0
 40
0.0
 40
0.5
 40
0.5
 40
1.0
 40
1.0
 40
1.0
 40
1.0
 10
138.1671725233568
 20
133.6046587215602
 30
0.0
 10
138.0456322596883
 20
133.6793848887719
 30
0.0
 10
137.9442978993393
 20
133.7883299046887
 30
0.0
 10
137.8086589564509
 20
134.0387603854503
 30
0.0
 10
137.7728749916658
 20
134.1811797475493
 30
0.0
 10
137.7728749916658
 20
134.3243125725959
 30
0.0
  0
SPLINE
  5
C2
330
1F
100
AcDbEntity
  8
0
  6
Continuous
 62
     7
370
    25
100
AcDbSpline
210
0.0
220
0.0
230
1.0
 70
    24
 71
     3
 72
    12
 73
     8
 74
     0
 42
0.000000001
 43
0.00000001
 40
0.0
 40
0.0
 40
0.0
 40
0.0
 40
0.2500000000000037
 40
0.2500000000000037
 40
0.5000000000000074
 40
0.5000000000000074
 40
1.0
 40
1.0
 40
1.0
 40
1.0
 10
138.5728749916658
 20
133.6046587215602
 30
0.0
 10
138.5229983093484
 20
133.6046587215602
 30
0.0
 10
138.4749951159448
 20
133.6046587215602
 30
0.0
 10
138.3919470132328
 20
133.6046587215602
 30
0.0
 10
138.355817433765
 20
133.6046587215602
 30
0.0
 10
138.2599054028207
 20
133.6046587215602
 30
0.0
 10
138.2101467348519
 20
133.6046587215602
 30
0.0
 10
138.1671725233568
 20
133.6046587215602
 30
0.0
  0
SPLINE
  5
C3
330
1F
100
AcDbEntity
  8
0
  6
Continuous
 62
     7
370
    25
100
AcDbSpline
210
0.0
220
0.0
230
1.0
 70
    24
 71
     3
 72
    14
 73
    10
 74
     0
 42
0.000000001
 43
0.00000001
 40
0.0
 40
0.0
 40
0.0
 40
0.0
 40
0.1249999999999991
 40
0.1249999999999991
 40
0.2499999999999982
 40
0.2499999999999982
 40
0.4999999999999998
 40
0.4999999999999998
 40
1.0
 40
1.0
 40
1.0
 40
1.0
 10
138.5728749916658
 20
80.80465872156017
 30
0.0
 10
138.5044371437794
 20
80.80465872156017
 30
0.0
 10
138.4388871050143
 20
80.80465872156017
 30
0.0
 10
138.3344604656064
 20
80.80465872156017
 30
0.0
 10
138.2919158558449
 20
80.80465872156017
 30
0.0
 10
138.1793063953047
 20
80.80465872156016
 30
0.0
 10
138.1237673482852
 20
80.80465872156017
 30
0.0
 10
137.9811556528214
 20
80.80465872156016
 30
0.0
 10
137.9177502978256
 20
80.80465872156016
 30
0.0
 10
137.8705497939981
 20
80.80465872156017
 30
0.0
  0
SPLINE
  5
C4
330
1F
100
AcDbEntity
  8
0
  6
Continuous
 62
     7
370
    25
100
AcDbSpline
210
0.0
220
0.0
230
1.0
 70
     8
 71
     3
 72
    10
 73
     6
 74
     0
 42
0.000000001
 43
0.00000001
 40
0.0
 40
0.0
 40
0.0
 40
0.0
 40
0.5
 40
0.5
 40
1.0
 40
1.0
 40
1.0
 40
1.0
 10
137.7728749916658
 20
127.3405253530215
 30
0.0
 10
137.7728749916658
 20
127.2927538450282
 30
0.0
 10
137.775036235263
 20
127.2450441229666
 30
0.0
 10
137.7837076091232
 20
127.1497490054183
 30
0.0
 10
137.7902367920791
 20
127.1020564414517
 30
0.0
 10
137.799022614826
 20
127.0546587215602
 30
0.0
  0
LINE
  5
C5
330
1F
100
AcDbEntity
  8
0
  6
Continuous
 62
     7
370
    25
100
AcDbLine
 10
140.7928747527
 20
133.6046585785
 30
0.0
 11
138.5728755436
 21
133.6046585785
 31
0.0
  0
LINE
  5
C6
330
1F
100
AcDbEntity
  8
0
  6
Continuous
 62
     7
370
    25
100
AcDbLine
 10
140.7928747527
 20
80.8046588646
 30
0.0
 11
138.5728755436
 21
80.8046588646
 31
0.0
  0
LINE
  5
C7
330
1F
100
AcDbEntity
  8
0
  6
Continuous
 62
     7
370
    25
100
AcDbLine
 10
119.6828748967
 20
82.984227498
 30
0.0
 11
119.6828748967
 21
131.4250899451
 31
0.0
  0
LINE
  5
C8
330
1F
100
AcDbEntity
  8
0
  6
Continuous
 62
     7
370
    25
100
AcDbLine
 10
99.8828747711
 20
83.9762126999
 30
0.0
 11
99.8828747711
 21
85.2409208165
 31
0.0
  0
SPLINE
  5
C9
330
1F
100
AcDbEntity
  8
0
  6
Continuous
 62
     7
370
    25
100
AcDbSpline
210
0.0
220
0.0
230
1.0
 70
     8
 71
     3
 72
    14
 73
    10
 74
     0
 42
0.000000001
 43
0.00000001
 40
0.0
 40
0.0
 40
0.0
 40
0.0
 40
0.25
 40
0.25
 40
0.5
 40
0.5
 40
0.75
 40
0.75
 40
1.0
 40
1.0
 40
1.0
 40
1.0
 10
99.1045878737501
 20
86.37150739800022
 30
0.0
 10
99.16121454895219
 20
86.26380994416336
 30
0.0
 10
99.25573720924193
 20
86.16102036244403
 30
0.0
 10
99.43878218480417
 20
85.9626630502239
 30
0.0
 10
99.53040876175886
 20
85.86660354154564
 30
0.0
 10
99.68926207945206
 20
85.6790744988364
 30
0.0
 10
99.75715268707377
 20
85.58766552605285
 30
0.0
 10
99.85406971278135
 20
85.40928930514269
 30
0.0
 10
99.8828749916664
 20
85.32206739889651
 30
0.0
 10
99.8828749916664
 20
85.24092119036227
 30
0.0
  0
SPLINE
  5
CA
330
1F
100
AcDbEntity
  8
0
  6
Continuous
 62
     7
370
    25
100
AcDbSpline
210
0.0
220
0.0
230
1.0
 70
     8
 71
     3
 72
    14
 73
    10
 74
     0
 42
0.000000001
 43
0.00000001
 40
0.0
 40
0.0
 40
0.0
 40
0.0
 40
0.1250000000000025
 40
0.1250000000000025
 40
0.250000000000005
 40
0.250000000000005
 40
0.5000000000000046
 40
0.5000000000000046
 40
1.0
 40
1.0
 40
1.0
 40
1.0
 10
98.48287499166582
 20
86.81818926027954
 30
0.0
 10
98.53141940032299
 20
86.82393757355983
 30
0.0
 10
98.58433475510789
 20
86.8208366849036
 30
0.0
 10
98.67963010009093
 20
86.79864184074127
 30
0.0
 10
98.71988109737588
 20
86.78140961364541
 30
0.0
 10
98.82415111088885
 20
86.72508169719336
 30
0.0
 10
98.87447308604219
 20
86.68089535124754
 30
0.0
 10
99.00215603356757
 20
86.54988745239692
 30
0.0
 10
99.05824148062983
 20
86.45965293216663
 30
0.0
 10
99.10458787375157
 20
86.37150739800074
 30
0.0
  0
SPLINE
  5
CB
330
1F
100
AcDbEntity
  8
0
  6
Continuous
 62
     7
370
    25
100
AcDbSpline
210
0.0
220
0.0
230
1.0
 70
     8
 71
     3
 72
     8
 73
     4
 74
     0
 42
0.000000001
 43
0.00000001
 40
0.0
 40
0.0
 40
0.0
 40
0.0
 40
1.0
 40
1.0
 40
1.0
 40
1.0
 10
96.21434989871959
 20
86.50834397369674
 30
0.0
 10
96.94892692520256
 20
86.6269689847657
 30
0.0
 10
97.7124019945982
 20
86.72695485690198
 30
0.0
 10
98.48287499166582
 20
86.81818926027954
 30
0.0
  0
SPLINE
  5
CC
330
1F
100
AcDbEntity
  8
0
  6
Continuous
 62
     7
370
    25
100
AcDbSpline
210
0.0
220
0.0
230
1.0
 70
     8
 71
     3
 72
    14
 73
    10
 74
     0
 42
0.000000001
 43
0.00000001
 40
0.0
 40
0.0
 40
0.0
 40
0.0
 40
0.4999999999999989
 40
0.4999999999999989
 40
0.7499999999999983
 40
0.7499999999999983
 40
0.8749999999999991
 40
0.8749999999999991
 40
1.0
 40
1.0
 40
1.0
 40
1.0
 10
90.93287499166583
 20
86.3347209561651
 30
0.0
 10
91.82502112221941
 20
86.33399872996445
 30
0.0
 10
92.71499755801298
 20
86.33858493642191
 30
0.0
 10
94.04159272508859
 20
86.36630994081345
 30
0.0
 10
94.48243965358732
 20
86.3789164784376
 30
0.0
 10
95.13887989100975
 20
86.40993262644506
 30
0.0
 10
95.35689354760163
 20
86.42227579907184
 30
0.0
 10
95.78960240128438
 20
86.4552998542351
 30
0.0
 10
96.00487886644918
 20
86.47451701937355
 30
0.0
 10
96.21434989871958
 20
86.50834397369675
 30
0.0
  0
SPLINE
  5
CD
330
1F
100
AcDbEntity
  8
0
  6
Continuous
 62
     7
370
    25
100
AcDbSpline
210
0.0
220
0.0
230
1.0
 70
     8
 71
     3
 72
     8
 73
     4
 74
     0
 42
0.000000001
 43
0.00000001
 40
0.0000005163856998
 40
0.0000005163856998
 40
0.0000005163856998
 40
0.0000005163856998
 40
0.000026289209185
 40
0.000026289209185
 40
0.000026289209185
 40
0.000026289209185
 10
90.92283006125821
 20
86.34470482926187
 30
0.0
 10
90.92615779946605
 20
86.34137058239276
 30
0.0
 10
90.92950625244164
 20
86.33804262511745
 30
0.0
 10
90.9328749916658
 20
86.33472095616509
 30
0.0
  0
SPLINE
  5
CE
330
1F
100
AcDbEntity
  8
0
  6
Continuous
 62
     7
370
    25
100
AcDbSpline
210
0.0
220
0.0
230
1.0
 70
     8
 71
     3
 72
     8
 73
     4
 74
     0
 42
0.000000001
 43
0.00000001
 40
0.0000005099763573
 40
0.0000005099763573
 40
0.0000005099763573
 40
0.0000005099763573
 40
0.0000262827998699
 40
0.0000262827998699
 40
0.0000262827998699
 40
0.0000262827998699
 10
90.9328749916658
 20
128.0745964869552
 30
0.0
 10
90.92950625243806
 20
128.0712748179994
 30
0.0
 10
90.92615779945892
 20
128.0679468607205
 30
0.0
 10
90.92283006124758
 20
128.0646126138478
 30
0.0
  0
SPLINE
  5
CF
330
1F
100
AcDbEntity
  8
0
  6
Continuous
 62
     7
370
    25
100
AcDbSpline
210
0.0
220
0.0
230
1.0
 70
     8
 71
     3
 72
    10
 73
     6
 74
     0
 42
0.000000001
 43
0.00000001
 40
0.0
 40
0.0
 40
0.0
 40
0.0
 40
0.5
 40
0.5
 40
1.0
 40
1.0
 40
1.0
 40
1.0
 10
94.48287499166582
 20
128.0277461133879
 30
0.0
 10
93.89528944457523
 20
128.0488116336243
 30
0.0
 10
93.30454305111485
 20
128.0595701194965
 30
0.0
 10
92.12052388581598
 20
128.0729349000322
 30
0.0
 10
91.52710989761054
 20
128.0750775426968
 30
0.0
 10
90.93287499166583
 20
128.0745964869552
 30
0.0
  0
SPLINE
  5
D0
330
1F
100
AcDbEntity
  8
0
  6
Continuous
 62
     7
370
    25
100
AcDbSpline
210
0.0
220
0.0
230
1.0
 70
     8
 71
     3
 72
    18
 73
    14
 74
     0
 42
0.000000001
 43
0.00000001
 40
0.0
 40
0.0
 40
0.0
 40
0.0
 40
0.2499999999999991
 40
0.2499999999999991
 40
0.499999999999999
 40
0.499999999999999
 40
0.7499999999999989
 40
0.7499999999999989
 40
0.8749999999999999
 40
0.8749999999999999
 40
0.9374999999999999
 40
0.9374999999999999
 40
1.0
 40
1.0
 40
1.0
 40
1.0
 10
95.88287499166584
 20
129.0487663939232
 30
0.0
 10
95.88287499166584
 20
128.965559485066
 30
0.0
 10
95.84702589172757
 20
128.8768228297524
 30
0.0
 10
95.72215415569366
 20
128.6946976391921
 30
0.0
 10
95.63175373804579
 20
128.5995675905655
 30
0.0
 10
95.40951108330361
 20
128.4103860814412
 30
0.0
 10
95.27974629685784
 20
128.3154409133465
 30
0.0
 10
95.03910883954632
 20
128.1771622057666
 30
0.0
 10
94.95134154140888
 20
128.1314517724642
 30
0.0
 10
94.79681745420206
 20
128.0736284672427
 30
0.0
 10
94.7402065681473
 20
128.0559137032049
 30
0.0
 10
94.61616253724071
 20
128.0313743999719
 30
0.0
 10
94.54844786222242
 20
128.0253952614337
 30
0.0
 10
94.48287499166582
 20
128.0277461133879
 30
0.0
  0
LINE
  5
D1
330
1F
100
AcDbEntity
  8
0
  6
Continuous
 62
     7
370
    25
100
AcDbLine
 10
95.8828741155
 20
129.0487663792
 30
0.0
 11
95.8828741155
 21
130.2327046143
 31
0.0
  0
SPLINE
  5
D2
330
1F
100
AcDbEntity
  8
0
  6
Continuous
 62
     7
370
    25
100
AcDbSpline
210
0.0
220
0.0
230
1.0
 70
     8
 71
     3
 72
    24
 73
    20
 74
     0
 42
0.000000001
 43
0.00000001
 40
0.0
 40
0.0
 40
0.0
 40
0.0
 40
0.0010489815523775
 40
0.0637843212772741
 40
0.1272220630088516
 40
0.1903789073370505
 40
0.2526748662763491
 40
0.3146354150030102
 40
0.3770891884518245
 40
0.4393540587943444
 40
0.5008133488401828
 40
0.5621845177353679
 40
0.6248438462901906
 40
0.6874304788646655
 40
0.7496743245911356
 40
0.811984857412469
 40
0.8750960476811308
 40
0.9384412548145236
 40
1.0
 40
1.0
 40
1.0
 40
1.0
 10
108.4517809963927
 20
83.5471505271136
 30
0.0
 10
108.451334330642
 20
83.54709188214713
 30
0.0
 10
108.4241743947184
 20
83.54352591916643
 30
0.0
 10
108.5198043178502
 20
83.55639052864164
 30
0.0
 10
108.7533574938707
 20
83.5856250109817
 30
0.0
 10
109.1489134461051
 20
83.63224422172313
 30
0.0
 10
109.6759534464751
 20
83.68242502114828
 30
0.0
 10
110.3194838883114
 20
83.72680369459133
 30
0.0
 10
111.0581577225811
 20
83.75374689110213
 30
0.0
 10
111.8556723927
 20
83.75721863940426
 30
0.0
 10
112.6822514424646
 20
83.72959319311084
 30
0.0
 10
113.5077742638832
 20
83.6711120501322
 30
0.0
 10
114.2999007347989
 20
83.58566898673361
 30
0.0
 10
115.0324731136362
 20
83.4839338182411
 30
0.0
 10
115.6681132954569
 20
83.37609016719317
 30
0.0
 10
116.1900242260032
 20
83.27445877191835
 30
0.0
 10
116.5716530636421
 20
83.19197680762584
 30
0.0
 10
116.8224677395755
 20
83.13582470011893
 30
0.0
 10
116.8515890552827
 20
83.12897584920606
 30
0.0
 10
116.8659414566264
 20
83.12560040222995
 30
0.0
  0
SPLINE
  5
D3
330
1F
100
AcDbEntity
  8
0
  6
Continuous
 62
     7
370
    25
100
AcDbSpline
210
0.0
220
0.0
230
1.0
 70
     8
 71
     3
 72
    24
 73
    20
 74
     0
 42
0.000000001
 43
0.00000001
 40
0.0
 40
0.0
 40
0.0
 40
0.0
 40
0.061438429114026
 40
0.1250736777967296
 40
0.1884253375120635
 40
0.2508623992448768
 40
0.3129665476325514
 40
0.3753451442328022
 40
0.4377328732174486
 40
0.499092717251918
 40
0.560580729454827
 40
0.622946985474185
 40
0.6854686070210457
 40
0.7475477863222202
 40
0.8098225081553685
 40
0.873068419947611
 40
0.936404185690527
 40
0.9991757203144552
 40
1.0
 40
1.0
 40
1.0
 40
1.0
 10
116.8658869742558
 20
131.283687238568
 30
0.0
 10
116.8512861658036
 20
131.280319080695
 30
0.0
 10
116.8215624759526
 20
131.2734623316106
 30
0.0
 10
116.5688244759667
 20
131.2171245117146
 30
0.0
 10
116.1858291769455
 20
131.1342666988293
 30
0.0
 10
115.6634732200626
 20
131.0323599506083
 30
0.0
 10
115.0286888753609
 20
130.9245213807192
 30
0.0
 10
114.2984651387467
 20
130.8230551274902
 30
0.0
 10
113.5079970438357
 20
130.737993048923
 30
0.0
 10
112.6835133163779
 20
130.6797916919664
 30
0.0
 10
111.8564769358979
 20
130.6522072442818
 30
0.0
 10
111.0581524769074
 20
130.655701172816
 30
0.0
 10
110.3183287259078
 20
130.6826548314897
 30
0.0
 10
109.6740738544482
 20
130.7270103321031
 30
0.0
 10
109.1466669973506
 20
130.7772155158258
 30
0.0
 10
108.7520017570375
 20
130.823822975871
 30
0.0
 10
108.5194730714494
 20
130.8530261527094
 30
0.0
 10
108.4240938427831
 20
130.8657842914266
 30
0.0
 10
108.4510267871099
 20
130.8622444615078
 30
0.0
 10
108.4513758710728
 20
130.8621985809743
 30
0.0
  0
SPLINE
  5
D4
330
1F
100
AcDbEntity
  8
0
  6
Continuous
 62
     7
370
    25
100
AcDbSpline
210
0.0
220
0.0
230
1.0
 70
     8
 71
     3
 72
     9
 73
     5
 74
     0
 42
0.000000001
 43
0.00000001
 40
0.0
 40
0.0
 40
0.0
 40
0.0
 40
0.7009339503679092
 40
0.9999999999999999
 40
0.9999999999999999
 40
0.9999999999999999
 40
0.9999999999999999
 10
89.80365855909442
 20
87.50337902175777
 30
0.0
 10
89.81279923004426
 20
87.48554973799686
 30
0.0
 10
89.82583993230305
 20
87.46011327033607
 30
0.0
 10
89.84100339557133
 20
87.51399262980962
 30
0.0
 10
89.84553827262972
 20
87.53010611700408
 30
0.0
  0
LINE
  5
D5
330
1F
100
AcDbEntity
  8
0
  6
Continuous
 62
     7
370
    25
100
AcDbLine
 10
89.7828751645
 20
87.5139811979
 30
0.0
 11
89.7828751645
 21
126.8953362452
 31
0.0
  0
SPLINE
  5
D6
330
1F
100
AcDbEntity
  8
0
  6
Continuous
 62
     7
370
    25
100
AcDbSpline
210
0.0
220
0.0
230
1.0
 70
     8
 71
     3
 72
    10
 73
     6
 74
     0
 42
0.000000001
 43
0.00000001
 40
0.0
 40
0.0
 40
0.0
 40
0.0
 40
0.5
 40
0.5
 40
1.0
 40
1.0
 40
1.0
 40
1.0
 10
89.84553836638922
 20
126.8792112663409
 30
0.0
 10
89.83663407728048
 20
126.9249527855541
 30
0.0
 10
89.82011869708751
 20
126.9421436250231
 30
0.0
 10
89.79301075102589
 20
126.9418203480873
 30
0.0
 10
89.78287499166584
 20
126.9239428057909
 30
0.0
 10
89.78287499166584
 20
126.8953364680383
 30
0.0
  0
SPLINE
  5
D7
330
1F
100
AcDbEntity
  8
0
  6
Continuous
 62
     7
370
    25
100
AcDbSpline
210
0.0
220
0.0
230
1.0
 70
     8
 71
     3
 72
    26
 73
    22
 74
     0
 42
0.000000001
 43
0.00000001
 40
0.0
 40
0.0
 40
0.0
 40
0.0
 40
0.2500000000000165
 40
0.2500000000000165
 40
0.3750000000000256
 40
0.3750000000000256
 40
0.4375000000000291
 40
0.4375000000000291
 40
0.4687500000000291
 40
0.4687500000000291
 40
0.5000000000000292
 40
0.5000000000000292
 40
0.5312500000000293
 40
0.5312500000000293
 40
0.5625000000000293
 40
0.5625000000000293
 40
0.625000000000026
 40
0.625000000000026
 40
0.7500000000000173
 40
0.7500000000000173
 40
1.0
 40
1.0
 40
1.0
 40
1.0
 10
90.60702863777034
 20
127.594778055158
 30
0.0
 10
90.56842811490188
 20
127.4770033588026
 30
0.0
 10
90.52213111234761
 20
127.3526136726406
 30
0.0
 10
90.42819176391367
 20
127.1473943402871
 30
0.0
 10
90.39288029700022
 20
127.0758214738407
 30
0.0
 10
90.32670032125456
 20
126.9598682412403
 30
0.0
 10
90.30216195458632
 20
126.91928370643
 30
0.0
 10
90.25878920903253
 20
126.8551420245583
 30
0.0
 10
90.24328080760732
 20
126.8332755992732
 30
0.0
 10
90.20823816302031
 20
126.78768133093
 30
0.0
 10
90.18868787230053
 20
126.7640110399626
 30
0.0
 10
90.14676059192995
 20
126.7193944806227
 30
0.0
 10
90.1241084816983
 20
126.6985144681048
 30
0.0
 10
90.08313476761165
 20
126.6676410543539
 30
0.0
 10
90.06553546771623
 20
126.6578021845215
 30
0.0
 10
90.02090848186009
 20
126.6388125688254
 30
0.0
 10
90.00034925920674
 20
126.6384882441719
 30
0.0
 10
89.94922381971008
 20
126.6477116850481
 30
0.0
 10
89.92831240672156
 20
126.6689585812651
 30
0.0
 10
89.87686249916062
 20
126.7429274600959
 30
0.0
 10
89.85919719985607
 20
126.8090455534106
 30
0.0
 10
89.84553836638922
 20
126.8792112663409
 30
0.0
  0
SPLINE
  5
D8
330
1F
100
AcDbEntity
  8
0
  6
Continuous
 62
     7
370
    25
100
AcDbSpline
210
0.0
220
0.0
230
1.0
 70
     8
 71
     3
 72
    10
 73
     6
 74
     0
 42
0.000000001
 43
0.00000001
 40
0.0
 40
0.0
 40
0.0
 40
0.0
 40
0.5
 40
0.5
 40
1.0
 40
1.0
 40
1.0
 40
1.0
 10
90.92283006124761
 20
128.0646126138478
 30
0.0
 10
90.85527080632937
 20
127.9969212210381
 30
0.0
 10
90.79163415099288
 20
127.9222140562844
 30
0.0
 10
90.68141339642104
 20
127.7632479238578
 30
0.0
 10
90.6345971031984
 20
127.6788926578498
 30
0.0
 10
90.60702863777034
 20
127.594778055158
 30
0.0
  0
SPLINE
  5
D9
330
1F
100
AcDbEntity
  8
0
  6
Continuous
 62
     7
370
    25
100
AcDbSpline
210
0.0
220
0.0
230
1.0
 70
     8
 71
     3
 72
    10
 73
     6
 74
     0
 42
0.000000001
 43
0.00000001
 40
0.0
 40
0.0
 40
0.0
 40
0.0
 40
0.5
 40
0.5
 40
1.0
 40
1.0
 40
1.0
 40
1.0
 10
90.60702863777037
 20
86.8145393879622
 30
0.0
 10
90.63450605252434
 20
86.73070259149432
 30
0.0
 10
90.68121468281376
 20
86.64639210390519
 30
0.0
 10
90.79149314555971
 20
86.48727087341847
 30
0.0
 10
90.85538068417362
 20
86.41228612932882
 30
0.0
 10
90.92283006125822
 20
86.34470482926187
 30
0.0
  0
SPLINE
  5
DA
330
1F
100
AcDbEntity
  8
0
  6
Continuous
 62
     7
370
    25
100
AcDbSpline
210
0.0
220
0.0
230
1.0
 70
     8
 71
     3
 72
    24
 73
    20
 74
     0
 42
0.000000001
 43
0.00000001
 40
0.0
 40
0.0
 40
0.0
 40
0.0
 40
0.25
 40
0.25
 40
0.374999999999999
 40
0.374999999999999
 40
0.4374999999999993
 40
0.4374999999999993
 40
0.4687499999999994
 40
0.4687499999999994
 40
0.4999999999999995
 40
0.4999999999999995
 40
0.5624999999999971
 40
0.5624999999999971
 40
0.6249999999999947
 40
0.6249999999999947
 40
0.7499999999999947
 40
0.7499999999999947
 40
1.0
 40
1.0
 40
1.0
 40
1.0
 10
89.84553836638922
 20
87.53010617677943
 30
0.0
 10
89.85929148505947
 20
87.6007562347697
 30
0.0
 10
89.87706405246533
 20
87.66735434753464
 30
0.0
 10
89.92931514402069
 20
87.74145236776783
 30
0.0
 10
89.95035021960224
 20
87.7627101749294
 30
0.0
 10
90.00325062723068
 20
87.77085610107564
 30
0.0
 10
90.02435630010861
 20
87.76991629767987
 30
0.0
 10
90.07040846878655
 20
87.74890030610253
 30
0.0
 10
90.08877894076996
 20
87.7379914999949
 30
0.0
 10
90.13033057583567
 20
87.70535658904754
 30
0.0
 10
90.15289724859257
 20
87.68386460867616
 30
0.0
 10
90.21567826505259
 20
87.61539866508986
 30
0.0
 10
90.24880802602048
 20
87.56932420688476
 30
0.0
 10
90.3057257125055
 20
87.4843163185501
 30
0.0
 10
90.32991173800927
 20
87.44403601736872
 30
0.0
 10
90.39511968838903
 20
87.32909979090277
 30
0.0
 10
90.42983574858027
 20
87.25851680575576
 30
0.0
 10
90.52305101891115
 20
87.05431104667716
 30
0.0
 10
90.56872355427183
 20
86.93141266434979
 30
0.0
 10
90.60702863777037
 20
86.81453938796221
 30
0.0
  0
SPLINE
  5
DB
330
1F
100
AcDbEntity
  8
0
  6
Continuous
 62
     7
370
    25
100
AcDbSpline
210
0.0
220
0.0
230
1.0
 70
     8
 71
     3
 72
     8
 73
     4
 74
     0
 42
0.000000001
 43
0.00000001
 40
0.0
 40
0.0
 40
0.0
 40
0.0
 40
1.0
 40
1.0
 40
1.0
 40
1.0
 10
143.0748078231549
 20
137.6718541947244
 30
0.0
 10
142.5796677937905
 20
136.7851745465441
 30
0.0
 10
142.0855850885116
 20
135.8979119108581
 30
0.0
 10
141.5928749916658
 20
135.0098929127318
 30
0.0
  0
LINE
  5
DC
330
1F
100
AcDbEntity
  8
0
  6
Continuous
 62
     7
370
    25
100
AcDbLine
 10
143.0748069129
 20
131.6633483367
 30
0.0
 11
143.0748069129
 21
137.6718541579
 31
0.0
  0
SPLINE
  5
DD
330
1F
100
AcDbEntity
  8
0
  6
Continuous
 62
     7
370
    25
100
AcDbSpline
210
0.0
220
0.0
230
1.0
 70
     8
 71
     3
 72
     8
 73
     4
 74
     0
 42
0.000000001
 43
0.00000001
 40
0.0
 40
0.0
 40
0.0
 40
0.0
 40
1.0
 40
1.0
 40
1.0
 40
1.0
 10
141.5928749916658
 20
128.2548023891435
 30
0.0
 10
142.0721531422557
 20
129.3958136189961
 30
0.0
 10
142.5677209813956
 20
130.5321980297639
 30
0.0
 10
143.0748078231549
 20
131.6633483839276
 30
0.0
  0
LINE
  5
DE
330
1F
100
AcDbEntity
  8
0
  6
Continuous
 62
     7
370
    25
100
AcDbLine
 10
141.5928752563
 20
128.2548027085
 30
0.0
 11
141.5928752563
 21
135.0098920958
 31
0.0
  0
LINE
  5
DF
330
1F
100
AcDbEntity
  8
0
  6
Continuous
 62
     7
370
    25
100
AcDbLine
 10
147.032875701
 20
137.6718541579
 30
0.0
 11
143.0748069129
 21
137.6718541579
 31
0.0
  0
LINE
  5
E0
330
1F
100
AcDbEntity
  8
0
  6
Continuous
 62
     7
370
    25
100
AcDbLine
 10
143.0748069129
 20
131.6633483367
 30
0.0
 11
147.032875701
 21
131.6633483367
 31
0.0
  0
SPLINE
  5
E1
330
1F
100
AcDbEntity
  8
0
  6
Continuous
 62
     7
370
    25
100
AcDbSpline
210
0.0
220
0.0
230
1.0
 70
     8
 71
     3
 72
    12
 73
     8
 74
     0
 42
0.000000001
 43
0.00000001
 40
0.0
 40
0.0
 40
0.0
 40
0.0
 40
0.250000000000002
 40
0.250000000000002
 40
0.500000000000004
 40
0.500000000000004
 40
1.0
 40
1.0
 40
1.0
 40
1.0
 10
147.0328749916658
 20
131.6633483839276
 30
0.0
 10
147.1240747134915
 20
131.6633483839276
 30
0.0
 10
147.2146697226275
 20
131.6351286853397
 30
0.0
 10
147.3680824490742
 20
131.5406856780916
 30
0.0
 10
147.4332913163979
 20
131.4743987013863
 30
0.0
 10
147.5860758457378
 20
131.248773878098
 30
0.0
 10
147.6328749916658
 20
131.0663476150654
 30
0.0
 10
147.6328749916658
 20
130.8856109828185
 30
0.0
  0
LINE
  5
E2
330
1F
100
AcDbEntity
  8
0
  6
Continuous
 62
     7
370
    25
100
AcDbLine
 10
141.5928752563
 20
127.3405251996
 30
0.0
 11
141.5928752563
 21
128.2548027085
 31
0.0
  0
LINE
  5
E3
330
1F
100
AcDbEntity
  8
0
  6
Continuous
 62
     7
370
    25
100
AcDbLine
 10
147.6328746817
 20
130.8856101679
 30
0.0
 11
147.6328746817
 21
127.0546594607
 31
0.0
  0
SPLINE
  5
E4
330
1F
100
AcDbEntity
  8
0
  6
Continuous
 62
     7
370
    25
100
AcDbSpline
210
0.0
220
0.0
230
1.0
 70
     8
 71
     3
 72
    10
 73
     6
 74
     0
 42
0.000000001
 43
0.00000001
 40
0.0
 40
0.0
 40
0.0
 40
0.0
 40
0.5
 40
0.5
 40
1.0
 40
1.0
 40
1.0
 40
1.0
 10
147.6328749916658
 20
137.0510990453241
 30
0.0
 10
147.6328749916658
 20
137.2115043116749
 30
0.0
 10
147.570637160559
 20
137.3705661246635
 30
0.0
 10
147.3515022368164
 20
137.6014785902938
 30
0.0
 10
147.1939135418245
 20
137.6718541947244
 30
0.0
 10
147.0328749916658
 20
137.6718541947244
 30
0.0
  0
LINE
  5
E5
330
1F
100
AcDbEntity
  8
0
  6
Continuous
 62
     7
370
    25
100
AcDbLine
 10
147.6328746817
 20
130.8856101679
 30
0.0
 11
147.6328746817
 21
137.0510997223
 31
0.0
  0
SPLINE
  5
E6
330
1F
100
AcDbEntity
  8
0
  6
Continuous
 62
     7
370
    25
100
AcDbSpline
210
0.0
220
0.0
230
1.0
 70
     8
 71
     3
 72
     8
 73
     4
 74
     0
 42
0.000000001
 43
0.00000001
 40
0.0
 40
0.0
 40
0.0
 40
0.0
 40
1.0
 40
1.0
 40
1.0
 40
1.0
 10
137.7728749916658
 20
135.0098929127318
 30
0.0
 10
137.2801648948201
 20
135.8979119108582
 30
0.0
 10
136.7860821895411
 20
136.7851745465441
 30
0.0
 10
136.2909421601768
 20
137.6718541947244
 30
0.0
  0
SPLINE
  5
E7
330
1F
100
AcDbEntity
  8
0
  6
Continuous
 62
     7
370
    25
100
AcDbSpline
210
0.0
220
0.0
230
1.0
 70
     8
 71
     3
 72
     8
 73
     4
 74
     0
 42
0.000000001
 43
0.00000001
 40
0.0
 40
0.0
 40
0.0
 40
0.0
 40
1.0
 40
1.0
 40
1.0
 40
1.0
 10
136.2909421601768
 20
131.6633483839276
 30
0.0
 10
136.798029001936
 20
130.5321980297639
 30
0.0
 10
137.293596841076
 20
129.3958136189961
 30
0.0
 10
137.7728749916658
 20
128.2548023891435
 30
0.0
  0
LINE
  5
E8
330
1F
100
AcDbEntity
  8
0
  6
Continuous
 62
     7
370
    25
100
AcDbLine
 10
137.7728750399
 20
128.2548027085
 30
0.0
 11
137.7728750399
 21
135.0098920958
 31
0.0
  0
LINE
  5
E9
330
1F
100
AcDbEntity
  8
0
  6
Continuous
 62
     7
370
    25
100
AcDbLine
 10
137.7728750399
 20
128.2548027085
 30
0.0
 11
137.7728750399
 21
127.3405251996
 31
0.0
  0
ARC
  5
EA
330
1F
100
AcDbEntity
  8
0
  6
Continuous
 62
     7
370
    25
100
AcDbCircle
 10
129.7732345212
 20
126.2842902359
 30
0.0
 40
6.866565027598671
100
AcDbArc
 50
70.6090395086
 51
90.753993783
  0
ARC
  5
EB
330
1F
100
AcDbEntity
  8
0
  6
Continuous
 62
     7
370
    25
100
AcDbCircle
 10
129.5912098731
 20
126.2974486378
 30
0.0
 40
6.853425115367004
100
AcDbArc
 50
89.2336382596
 51
109.5925272818
  0
SPLINE
  5
EC
330
1F
100
AcDbEntity
  8
0
  6
Continuous
 62
     7
370
    25
100
AcDbSpline
210
0.0
220
0.0
230
1.0
 70
    11
 71
     3
 72
    62
 73
    58
 74
     0
 42
0.000000001
 43
0.00000001
 40
0.0
 40
0.0
 40
0.0
 40
0.0
 40
0.0624999999999998
 40
0.0624999999999998
 40
0.1249999999999996
 40
0.1249999999999996
 40
0.1874999999999994
 40
0.1874999999999994
 40
0.2499999999999993
 40
0.2499999999999993
 40
0.2812499999999988
 40
0.2812499999999988
 40
0.3124999999999983
 40
0.3124999999999983
 40
0.3437499999999978
 40
0.3437499999999978
 40
0.3749999999999974
 40
0.3749999999999974
 40
0.406249999999997
 40
0.406249999999997
 40
0.4374999999999966
 40
0.4374999999999966
 40
0.4999999999999963
 40
0.4999999999999963
 40
0.5312499999999966
 40
0.5312499999999966
 40
0.5624999999999968
 40
0.5624999999999968
 40
0.5937499999999971
 40
0.5937499999999971
 40
0.6249999999999973
 40
0.6249999999999973
 40
0.6562499999999976
 40
0.6562499999999976
 40
0.6874999999999978
 40
0.6874999999999978
 40
0.718749999999998
 40
0.718749999999998
 40
0.7499999999999982
 40
0.7499999999999982
 40
0.7812499999999986
 40
0.7812499999999986
 40
0.8124999999999988
 40
0.8124999999999988
 40
0.843749999999999
 40
0.843749999999999
 40
0.8593749999999991
 40
0.8593749999999991
 40
0.8749999999999991
 40
0.8749999999999991
 40
0.9062499999999993
 40
0.9062499999999993
 40
0.9374999999999997
 40
0.9374999999999997
 40
0.9687499999999999
 40
0.9687499999999999
 40
1.0
 40
1.0
 40
1.0
 40
1.0
 10
156.3110113518977
 20
109.3808486519626
 30
0.0
 10
156.6499097912232
 20
109.6336946078527
 30
0.0
 10
157.0245148594256
 20
109.8194963139304
 30
0.0
 10
157.8324801969726
 20
110.0716358212749
 30
0.0
 10
158.2485043145059
 20
110.1318636172706
 30
0.0
 10
159.095973044413
 20
110.1237104538621
 30
0.0
 10
159.5086296543001
 20
110.0559464455461
 30
0.0
 10
160.3112041042677
 20
109.7882815494008
 30
0.0
 10
160.6811779901597
 20
109.5951846631216
 30
0.0
 10
161.1787705110031
 20
109.2071243439003
 30
0.0
 10
161.332811811383
 20
109.0620970804653
 30
0.0
 10
161.606192916959
 20
108.7461821013385
 30
0.0
 10
161.7281374944328
 20
108.5720880147187
 30
0.0
 10
161.9280246018625
 20
108.2008643779998
 30
0.0
 10
162.0054480628176
 20
108.0059413128656
 30
0.0
 10
162.1100511416052
 20
107.5952001647379
 30
0.0
 10
162.1353650814236
 20
107.3841446766458
 30
0.0
 10
162.1299946902366
 20
106.9641356472744
 30
0.0
 10
162.0985903853501
 20
106.7508159064114
 30
0.0
 10
161.9845096135254
 20
106.3458569677852
 30
0.0
 10
161.9010758196339
 20
106.1494786581157
 30
0.0
 10
161.5879845035863
 20
105.5996608937074
 30
0.0
 10
161.2963650118012
 20
105.28452963569
 30
0.0
 10
160.7931661574407
 20
104.9073487816076
 30
0.0
 10
160.6119246520804
 20
104.7957501828982
 30
0.0
 10
160.2367286855489
 20
104.6064155982859
 30
0.0
 10
160.0423851075589
 20
104.5280216096835
 30
0.0
 10
159.6407323357933
 20
104.4021742405653
 30
0.0
 10
159.4325788094703
 20
104.3548983846476
 30
0.0
 10
159.0167816460431
 20
104.2939499723182
 30
0.0
 10
158.8075414944647
 20
104.2796502140668
 30
0.0
 10
158.3863762494736
 20
104.2833471708655
 30
0.0
 10
158.1733707880846
 20
104.3017779780504
 30
0.0
 10
157.758992675137
 20
104.37045689147
 30
0.0
 10
157.5559288587957
 20
104.4205434268449
 30
0.0
 10
157.1582050623261
 20
104.5530409173305
 30
0.0
 10
156.9618389574279
 20
104.6365194896135
 30
0.0
 10
156.5915358002918
 20
104.8325783766846
 30
0.0
 10
156.4164901493391
 20
104.9451502071457
 30
0.0
 10
156.0878631487169
 20
105.2015697276683
 30
0.0
 10
155.9326297545513
 20
105.34740030011
 30
0.0
 10
155.6576630812829
 20
105.6655018851787
 30
0.0
 10
155.5376347208964
 20
105.8371227776638
 30
0.0
 10
155.3373254199611
 20
106.2092613457997
 30
0.0
 10
155.2591505027177
 20
106.4073727663241
 30
0.0
 10
155.181858216098
 20
106.7116633948453
 30
0.0
 10
155.1624894065781
 20
106.814840602375
 30
0.0
 10
155.1373143764965
 20
107.0249051172299
 30
0.0
 10
155.1316312773834
 20
107.1322694076988
 30
0.0
 10
155.1360606593475
 20
107.4494351732187
 30
0.0
 10
155.1667614533289
 20
107.6576681859657
 30
0.0
 10
155.2826401532693
 20
108.0678443580277
 30
0.0
 10
155.3656815982362
 20
108.2619978311364
 30
0.0
 10
155.5748963148716
 20
108.6286140403229
 30
0.0
 10
155.7013659223377
 20
108.8005580336871
 30
0.0
 10
155.9833908050081
 20
109.1119235855147
 30
0.0
 10
156.1415621322349
 20
109.2544256740175
 30
0.0
 10
156.3110113518977
 20
109.3808486519626
 30
0.0
  0
CIRCLE
  5
ED
330
1F
100
AcDbEntity
  8
0
  6
Continuous
 62
     7
370
    25
100
AcDbCircle
 10
158.6328749917
 20
107.2046587216
 30
0.0
 40
2.75
  0
LINE
  5
EE
330
1F
100
AcDbEntity
  8
0
  6
Continuous
 62
     7
370
    25
100
AcDbLine
 10
169.9173638067
 20
94.2046584533
 30
0.0
 11
169.9173638067
 21
120.2046589898
 31
0.0
  0
SPLINE
  5
EF
330
1F
100
AcDbEntity
  8
0
  6
Continuous
 62
     7
370
    25
100
AcDbSpline
210
0.0
220
0.0
230
1.0
 70
     8
 71
     3
 72
    18
 73
    14
 74
     0
 42
0.000000001
 43
0.00000001
 40
0.0
 40
0.0
 40
0.0
 40
0.0
 40
0.0342089945727092
 40
0.1129543519178948
 40
0.1958588730363006
 40
0.2918480666654439
 40
0.4050342405506329
 40
0.5320796782710632
 40
0.6645189899314383
 40
0.795425980376423
 40
0.8900363774455092
 40
0.9851943308104286
 40
1.0
 40
1.0
 40
1.0
 40
1.0
 10
162.0956288120852
 20
120.1978566096961
 30
0.0
 10
162.1050193688244
 20
120.1995667993
 30
0.0
 10
162.1360259582868
 20
120.2052136579928
 30
0.0
 10
161.889620351505
 20
120.1602514674049
 30
0.0
 10
161.3991380013489
 20
120.0795140614534
 30
0.0
 10
160.6174337154436
 20
119.974061282248
 30
0.0
 10
159.5580528909239
 20
119.8825123359909
 30
0.0
 10
158.2870364910333
 20
119.858398593132
 30
0.0
 10
156.99472221542
 20
119.9327540360785
 30
0.0
 10
155.9653565016061
 20
120.0630183929319
 30
0.0
 10
155.3490508496581
 20
120.16461041239
 30
0.0
 10
155.0980805938624
 20
120.2109821590705
 30
0.0
 10
155.1474375604528
 20
120.2020111805044
 30
0.0
 10
155.1540830574141
 20
120.2008033143222
 30
0.0
  0
SPLINE
  5
F0
330
1F
100
AcDbEntity
  8
0
  6
Continuous
 62
     7
370
    25
100
AcDbSpline
210
0.0
220
0.0
230
1.0
 70
     8
 71
     3
 72
    18
 73
    14
 74
     0
 42
0.000000001
 43
0.00000001
 40
0.0
 40
0.0
 40
0.0
 40
0.0
 40
0.0259873207587374
 40
0.1049731531135378
 40
0.1869649722362506
 40
0.2813253151464546
 40
0.3927554170470154
 40
0.5187483556790053
 40
0.6509730859000591
 40
0.7823852691965955
 40
0.8792534533263217
 40
0.976713632512521
 40
1.0
 40
1.0
 40
1.0
 40
1.0
 10
155.1663094601736
 20
94.21075302826755
 30
0.0
 10
155.1565773639156
 20
94.20898141970537
 30
0.0
 10
155.1172655456603
 20
94.20182518614895
 30
0.0
 10
155.3404560213073
 20
94.24274348528772
 30
0.0
 10
155.8025477664463
 20
94.31986153419716
 30
0.0
 10
156.5558105838931
 20
94.42439545571389
 30
0.0
 10
157.5874539060222
 20
94.5195509953954
 30
0.0
 10
158.8439767643117
 20
94.55297383663128
 30
0.0
 10
160.1445077648816
 20
94.48818459053835
 30
0.0
 10
161.2041015453555
 20
94.36060517227962
 30
0.0
 10
161.8696813656459
 20
94.25317969995626
 30
0.0
 10
162.156497327062
 20
94.20035528010844
 30
0.0
 10
162.1116875730703
 20
94.20852077253792
 30
0.0
 10
162.1030458650694
 20
94.21009551452987
 30
0.0
  0
LINE
  5
F1
330
1F
100
AcDbEntity
  8
0
  6
Continuous
 62
     7
370
    25
100
AcDbLine
 10
201.6828732035
 20
98.5534394132
 30
0.0
 11
201.6828732035
 21
115.8558780299
 31
0.0
  0
LWPOLYLINE
  5
F2
330
1F
100
AcDbEntity
  8
0
  6
HIDDEN
 62
     7
370
    18
100
AcDbPolyline
 90
       10
 70
   128
 43
0.0
 10
196.1655618093
 20
101.7879231805
 10
196.1771549127
 20
101.4928089427
 10
196.1926074169
 20
101.0995211983
 10
196.2104068539
 20
100.6465584943
 10
196.2288023374
 20
100.1782597015
 10
196.246005728
 20
99.7404649826
 10
196.2603257439
 20
99.3760291459
 10
196.270361676
 20
99.1206251057
 10
196.2751300476
 20
98.9992542164
 10
196.2754504225
 20
98.9910427453
  0
LWPOLYLINE
  5
F3
330
1F
100
AcDbEntity
  8
0
  6
HIDDEN
 62
     7
370
    18
100
AcDbPolyline
 90
        3
 70
   128
 43
0.0
 10
196.1576716445
 20
101.9887302974
 10
196.1589605949
 20
101.9559770794
 10
196.1655618093
 20
101.7879231805
  0
LWPOLYLINE
  5
F4
330
1F
100
AcDbEntity
  8
0
  6
HIDDEN
 62
     7
370
    18
100
AcDbPolyline
 90
        8
 70
   128
 43
0.0
 10
195.6829430006
 20
101.3356142649
 10
195.6930459879
 20
101.0785487452
 10
195.7067848585
 20
100.728876234
 10
195.7220734499
 20
100.3398311296
 10
195.7365722797
 20
99.9706422882
 10
195.7480908773
 20
99.6775150271
 10
195.7548709056
 20
99.5050755301
 10
195.7562045596
 20
99.4710277738
  0
LWPOLYLINE
  5
F5
330
1F
100
AcDbEntity
  8
0
  6
HIDDEN
 62
     7
370
    18
100
AcDbPolyline
 90
        3
 70
   128
 43
0.0
 10
195.6776828907
 20
101.4694858314
 10
195.6780181668
 20
101.4609372215
 10
195.6829430006
 20
101.3356142649
  0
LWPOLYLINE
  5
F6
330
1F
100
AcDbEntity
  8
0
  6
HIDDEN
 62
     7
370
    18
100
AcDbPolyline
 90
       10
 70
   128
 43
0.0
 10
201.4994995139
 20
101.9974940428
 10
201.5110926173
 20
101.702379805
 10
201.5265451214
 20
101.3090920606
 10
201.5443445585
 20
100.8561293566
 10
201.562740042
 20
100.3878305638
 10
201.5799434326
 20
99.9500358449
 10
201.5942634485
 20
99.5856000082
 10
201.6042993806
 20
99.330195968
 10
201.6090677521
 20
99.2088250788
 10
201.6093881271
 20
99.2006136076
  0
LWPOLYLINE
  5
F7
330
1F
100
AcDbEntity
  8
0
  6
HIDDEN
 62
     7
370
    18
100
AcDbPolyline
 90
        3
 70
   128
 43
0.0
 10
201.491609349
 20
102.1983011598
 10
201.4928982995
 20
102.1655479418
 10
201.4994995139
 20
101.9974940428
  0
LWPOLYLINE
  5
F8
330
1F
100
AcDbEntity
  8
0
  6
HIDDEN
 62
     7
370
    18
100
AcDbPolyline
 90
        3
 70
   128
 43
0.0
 10
201.670855417
 20
101.7611192511
 10
201.6815470002
 20
101.4890906373
 10
201.6828732035
 20
101.4552375274
  0
LWPOLYLINE
  5
F9
330
1F
100
AcDbEntity
  8
0
  6
HIDDEN
 62
     7
370
    18
100
AcDbPolyline
 90
        3
 70
   128
 43
0.0
 10
201.6644404671
 20
101.9243754418
 10
201.665170624
 20
101.9058626117
 10
201.670855417
 20
101.7611192511
  0
LINE
  5
FA
330
1F
100
AcDbEntity
  8
0
  6
HIDDEN
 62
     7
370
    18
100
AcDbLine
 10
199.7138635657
 20
100.6272959495
 30
0.0
 11
199.6844188712
 21
101.3767177211
 31
0.0
  0
LINE
  5
FB
330
1F
100
AcDbEntity
  8
0
  6
HIDDEN
 62
     7
370
    18
100
AcDbLine
 10
199.7138635657
 20
100.6272959495
 30
0.0
 11
201.712317898
 21
100.7058157557
 31
0.0
  0
LINE
  5
FC
330
1F
100
AcDbEntity
  8
0
  6
HIDDEN
 62
     7
370
    18
100
AcDbLine
 10
199.7138635657
 20
100.6272959495
 30
0.0
 11
199.7433082602
 21
99.8778741779
 31
0.0
  0
LINE
  5
FD
330
1F
100
AcDbEntity
  8
0
  6
HIDDEN
 62
     7
370
    18
100
AcDbLine
 10
199.6844188712
 20
101.3767177211
 30
0.0
 11
201.6828732035
 21
101.4552375274
 31
0.0
  0
LINE
  5
FE
330
1F
100
AcDbEntity
  8
0
  6
HIDDEN
 62
     7
370
    18
100
AcDbLine
 10
199.7433082602
 20
99.8778741779
 30
0.0
 11
201.7417625926
 21
99.9563939841
 31
0.0
  0
LWPOLYLINE
  5
FF
330
1F
100
AcDbEntity
  8
0
  6
HIDDEN
 62
     7
370
    18
100
AcDbPolyline
 90
       12
 70
   128
 43
0.0
 10
201.6093881271
 20
115.2087038355
 10
201.6090677521
 20
115.2004923643
 10
201.6042993806
 20
115.0791214751
 10
201.5942634485
 20
114.8237174349
 10
201.5799434326
 20
114.4592815982
 10
201.562740042
 20
114.0214868793
 10
201.5443445585
 20
113.5531880865
 10
201.5265451214
 20
113.1002253825
 10
201.5110926173
 20
112.7069376381
 10
201.4994995139
 20
112.4118234003
 10
201.4928982995
 20
112.2437695013
 10
201.491609349
 20
112.2110162834
  0
LWPOLYLINE
  5
100
330
1F
100
AcDbEntity
  8
0
  6
HIDDEN
 62
     7
370
    18
100
AcDbPolyline
 90
       12
 70
   128
 43
0.0
 10
196.2754504225
 20
115.4182746978
 10
196.2751300476
 20
115.4100632267
 10
196.270361676
 20
115.2886923374
 10
196.2603257439
 20
115.0332882972
 10
196.246005728
 20
114.6688524606
 10
196.2288023374
 20
114.2310577417
 10
196.2104068539
 20
113.7627589488
 10
196.1926074169
 20
113.3097962448
 10
196.1771549127
 20
112.9165085005
 10
196.1655618093
 20
112.6213942626
 10
196.1589605949
 20
112.4533403637
 10
196.1576716445
 20
112.4205871457
  0
LWPOLYLINE
  5
101
330
1F
100
AcDbEntity
  8
0
  6
HIDDEN
 62
     7
370
    18
100
AcDbPolyline
 90
        5
 70
   128
 43
0.0
 10
201.6828732035
 20
112.9540799158
 10
201.6815470002
 20
112.9202268058
 10
201.670855417
 20
112.648198192
 10
201.665170624
 20
112.5034548314
 10
201.6644404671
 20
112.4849420013
  0
LWPOLYLINE
  5
102
330
1F
100
AcDbEntity
  8
0
  6
HIDDEN
 62
     7
370
    18
100
AcDbPolyline
 90
       10
 70
   128
 43
0.0
 10
195.7562045596
 20
114.9382896693
 10
195.7548709056
 20
114.904241913
 10
195.7480908773
 20
114.731802416
 10
195.7365722797
 20
114.4386751549
 10
195.7220734499
 20
114.0694863135
 10
195.7067848585
 20
113.6804412091
 10
195.6930459879
 20
113.3307686979
 10
195.6829430006
 20
113.0737031782
 10
195.6780181668
 20
112.9483802216
 10
195.6776828907
 20
112.9398316117
  0
LINE
  5
103
330
1F
100
AcDbEntity
  8
0
  6
HIDDEN
 62
     7
370
    18
100
AcDbLine
 10
199.7138635657
 20
113.7820214936
 30
0.0
 11
199.6844188712
 21
113.032599722
 31
0.0
  0
LINE
  5
104
330
1F
100
AcDbEntity
  8
0
  6
HIDDEN
 62
     7
370
    18
100
AcDbLine
 10
199.7433082602
 20
114.5314432653
 30
0.0
 11
199.7138635657
 21
113.7820214936
 31
0.0
  0
LINE
  5
105
330
1F
100
AcDbEntity
  8
0
  6
HIDDEN
 62
     7
370
    18
100
AcDbLine
 10
199.7138635657
 20
113.7820214936
 30
0.0
 11
201.712317898
 21
113.7035016874
 31
0.0
  0
LINE
  5
106
330
1F
100
AcDbEntity
  8
0
  6
HIDDEN
 62
     7
370
    18
100
AcDbLine
 10
199.6844188712
 20
113.032599722
 30
0.0
 11
201.6828732035
 21
112.9540799158
 31
0.0
  0
LINE
  5
107
330
1F
100
AcDbEntity
  8
0
  6
HIDDEN
 62
     7
370
    18
100
AcDbLine
 10
199.7433082602
 20
114.5314432653
 30
0.0
 11
201.7417625926
 21
114.452923459
 31
0.0
  0
LINE
  5
108
330
1F
100
AcDbEntity
  8
0
  6
HIDDEN
 62
     7
370
    18
100
AcDbLine
 10
164.7828744195
 20
105.2181439446
 30
0.0
 11
164.7828744195
 21
109.7046586657
 31
0.0
  0
LINE
  5
109
330
1F
100
AcDbEntity
  8
0
  6
HIDDEN
 62
     7
370
    18
100
AcDbLine
 10
164.7828744195
 20
104.7046587774
 30
0.0
 11
164.7828744195
 21
105.2181439446
 31
0.0
  0
LINE
  5
10A
330
1F
100
AcDbEntity
  8
0
  6
HIDDEN
 62
     7
370
    18
100
AcDbLine
 10
153.5828748188
 20
105.2181439446
 30
0.0
 11
153.5828748188
 21
109.7046586657
 31
0.0
  0
LINE
  5
10B
330
1F
100
AcDbEntity
  8
0
  6
HIDDEN
 62
     7
370
    18
100
AcDbLine
 10
153.5828748188
 20
104.7046587774
 30
0.0
 11
153.5828748188
 21
105.2181439446
 31
0.0
  0
LINE
  5
10C
330
1F
100
AcDbEntity
  8
0
  6
HIDDEN
 62
     7
370
    18
100
AcDbLine
 10
153.1828754983
 20
105.5359861785
 30
0.0
 11
153.1828754983
 21
109.3046586467
 31
0.0
  0
LINE
  5
10D
330
1F
100
AcDbEntity
  8
0
  6
HIDDEN
 62
     7
370
    18
100
AcDbLine
 10
153.1828754983
 20
105.1046587964
 30
0.0
 11
153.1828754983
 21
105.5359861785
 31
0.0
  0
LINE
  5
10E
330
1F
100
AcDbEntity
  8
0
  6
HIDDEN
 62
     7
370
    18
100
AcDbLine
 10
167.1828740678
 20
107.5311819878
 30
0.0
 11
166.1828757665
 21
107.5311819878
 31
0.0
  0
LINE
  5
10F
330
1F
100
AcDbEntity
  8
0
  6
HIDDEN
 62
     7
370
    18
100
AcDbLine
 10
167.1828740678
 20
105.1046587964
 30
0.0
 11
167.1828740678
 21
107.5311819878
 31
0.0
  0
LINE
  5
110
330
1F
100
AcDbEntity
  8
0
  6
HIDDEN
 62
     7
370
    18
100
AcDbLine
 10
166.1828757665
 20
105.288923529
 30
0.0
 11
167.1828740678
 21
105.288923529
 31
0.0
  0
LINE
  5
111
330
1F
100
AcDbEntity
  8
0
  6
HIDDEN
 62
     7
370
    18
100
AcDbLine
 10
167.1828740678
 20
106.8781354553
 30
0.0
 11
166.1828757665
 21
106.8781354553
 31
0.0
  0
LINE
  5
112
330
1F
100
AcDbEntity
  8
0
  6
HIDDEN
 62
     7
370
    18
100
AcDbLine
 10
167.1828740678
 20
109.1203939142
 30
0.0
 11
167.1828740678
 21
109.3046586467
 31
0.0
  0
LINE
  5
113
330
1F
100
AcDbEntity
  8
0
  6
HIDDEN
 62
     7
370
    18
100
AcDbLine
 10
166.1828757665
 20
109.1203939142
 30
0.0
 11
167.1828740678
 21
109.1203939142
 31
0.0
  0
LINE
  5
114
330
1F
100
AcDbEntity
  8
0
  6
HIDDEN
 62
     7
370
    18
100
AcDbLine
 10
166.1828757665
 20
107.5311819878
 30
0.0
 11
166.1828757665
 21
109.1203939142
 31
0.0
  0
SPLINE
  5
115
330
1F
100
AcDbEntity
  8
0
  6
HIDDEN
 62
     7
370
    18
100
AcDbSpline
210
0.0
220
0.0
230
1.0
 70
     8
 71
     3
 72
    11
 73
     7
 74
     0
 42
0.000000001
 43
0.00000001
 40
0.0
 40
0.0
 40
0.0
 40
0.0
 40
0.1224246087527083
 40
0.4773573702883326
 40
0.814492797471691
 40
1.0
 40
1.0
 40
1.0
 40
1.0
 10
153.2895007572279
 20
107.7597610857203
 30
0.0
 10
153.3157837611257
 20
107.7933505434378
 30
0.0
 10
153.4182663073374
 20
107.9243223747454
 30
0.0
 10
153.5195975889427
 20
108.1710436434942
 30
0.0
 10
153.4388250879767
 20
108.4407679041163
 30
0.0
 10
153.3286178163663
 20
108.5849095109267
 30
0.0
 10
153.2895007572279
 20
108.6360712507605
 30
0.0
  0
SPLINE
  5
116
330
1F
100
AcDbEntity
  8
0
  6
HIDDEN
 62
     7
370
    18
100
AcDbSpline
210
0.0
220
0.0
230
1.0
 70
     8
 71
     3
 72
    10
 73
     6
 74
     0
 42
0.000000001
 43
0.00000001
 40
0.0
 40
0.0
 40
0.0
 40
0.0
 40
0.4391120612991699
 40
0.751363737896282
 40
1.0
 40
1.0
 40
1.0
 40
1.0
 10
153.2895007572279
 20
106.32834855652
 30
0.0
 10
153.3751117476696
 20
106.5332640928624
 30
0.0
 10
153.5216005359599
 20
106.8838946423483
 30
0.0
 10
153.4564870764129
 20
107.3935998458309
 30
0.0
 10
153.3407887288331
 20
107.6472987752386
 30
0.0
 10
153.2895007572279
 20
107.7597610857203
 30
0.0
  0
LINE
  5
117
330
1F
100
AcDbEntity
  8
0
  6
HIDDEN
 62
     7
370
    18
100
AcDbLine
 10
153.2895007572
 20
105.7732461924
 30
0.0
 11
153.3495971403
 21
105.8499721549
 31
0.0
  0
SPLINE
  5
118
330
1F
100
AcDbEntity
  8
0
  6
HIDDEN
 62
     7
370
    18
100
AcDbSpline
210
0.0
220
0.0
230
1.0
 70
     8
 71
     3
 72
    10
 73
     6
 74
     0
 42
0.000000001
 43
0.00000001
 40
0.0
 40
0.0
 40
0.0
 40
0.0
 40
0.1464698331556271
 40
0.6216382411304133
 40
1.0
 40
1.0
 40
1.0
 40
1.0
 10
153.4379237732992
 20
105.9627343639597
 30
0.0
 10
153.453885789143
 20
105.9803329205159
 30
0.0
 10
153.5216307932868
 20
106.0550236299157
 30
0.0
 10
153.4504154207566
 20
106.186740812292
 30
0.0
 10
153.3389238874959
 20
106.284855329511
 30
0.0
 10
153.2895007572279
 20
106.32834855652
 30
0.0
  0
SPLINE
  5
119
330
1F
100
AcDbEntity
  8
0
  6
HIDDEN
 62
     7
370
    18
100
AcDbSpline
210
0.0
220
0.0
230
1.0
 70
     8
 71
     3
 72
    11
 73
     7
 74
     0
 42
0.000000001
 43
0.00000001
 40
0.0
 40
0.0
 40
0.0
 40
0.0
 40
0.1855071745507258
 40
0.5226426023432353
 40
0.8775753415664926
 40
1.0
 40
1.0
 40
1.0
 40
1.0
 10
153.2895007572279
 20
106.6495563574
 30
0.0
 10
153.3286178163477
 20
106.5983946165077
 30
0.0
 10
153.4388250987556
 20
106.454252992524
 30
0.0
 10
153.5195975977214
 20
106.1845287410837
 30
0.0
 10
153.4182662674475
 20
105.9378075372925
 30
0.0
 10
153.3157837602731
 20
105.8068356708048
 30
0.0
 10
153.2895007572279
 20
105.7732461923598
 30
0.0
  0
SPLINE
  5
11A
330
1F
100
AcDbEntity
  8
0
  6
HIDDEN
 62
     7
370
    18
100
AcDbSpline
210
0.0
220
0.0
230
1.0
 70
     8
 71
     3
 72
    10
 73
     6
 74
     0
 42
0.000000001
 43
0.00000001
 40
0.0
 40
0.0
 40
0.0
 40
0.0
 40
0.4391120612991699
 40
0.751363737896282
 40
1.0
 40
1.0
 40
1.0
 40
1.0
 10
153.2895007572279
 20
108.0809688866004
 30
0.0
 10
153.3751117476696
 20
107.876053350258
 30
0.0
 10
153.5216005359599
 20
107.525422800772
 30
0.0
 10
153.4564870764129
 20
107.0157175972894
 30
0.0
 10
153.3407887288331
 20
106.7620186678818
 30
0.0
 10
153.2895007572279
 20
106.6495563574
 30
0.0
  0
SPLINE
  5
11B
330
1F
100
AcDbEntity
  8
0
  6
HIDDEN
 62
     7
370
    18
100
AcDbSpline
210
0.0
220
0.0
230
1.0
 70
     8
 71
     3
 72
    10
 73
     6
 74
     0
 42
0.000000001
 43
0.00000001
 40
0.0
 40
0.0
 40
0.0
 40
0.0
 40
0.3486922718918942
 40
0.7112815139464544
 40
0.9999999999999999
 40
0.9999999999999999
 40
0.9999999999999999
 40
0.9999999999999999
 10
153.3495971403227
 20
108.5593452881887
 30
0.0
 10
153.4058705809715
 20
108.5048569868308
 30
0.0
 10
153.5206602143711
 20
108.3937087779189
 30
0.0
 10
153.4549099807889
 20
108.2228651064049
 30
0.0
 10
153.3403043410922
 20
108.1245507156403
 30
0.0
 10
153.2895007572279
 20
108.0809688866004
 30
0.0
  0
LINE
  5
11C
330
1F
100
AcDbEntity
  8
0
  6
HIDDEN
 62
     7
370
    18
100
AcDbLine
 10
166.1828757665
 20
106.9358388923
 30
0.0
 11
166.1828757665
 21
107.5311819878
 31
0.0
  0
LINE
  5
11D
330
1F
100
AcDbEntity
  8
0
  6
HIDDEN
 62
     7
370
    18
100
AcDbLine
 10
166.1828757665
 20
106.9358388923
 30
0.0
 11
166.9557505689
 21
106.9358388923
 31
0.0
  0
SPLINE
  5
11E
330
1F
100
AcDbEntity
  8
0
  6
HIDDEN
 62
     7
370
    18
100
AcDbSpline
210
0.0
220
0.0
230
1.0
 70
     8
 71
     3
 72
    11
 73
     7
 74
     0
 42
0.000000001
 43
0.00000001
 40
0.0
 40
0.0
 40
0.0
 40
0.0
 40
0.1224237616130991
 40
0.4773574164736258
 40
0.8144936058459358
 40
1.0
 40
1.0
 40
1.0
 40
1.0
 10
167.0762488088713
 20
105.7732461923598
 30
0.0
 10
167.0499673157838
 20
105.8068357216032
 30
0.0
 10
166.94748994149
 20
105.9378087507676
 30
0.0
 10
166.8461474869008
 20
106.1845285541211
 30
0.0
 10
166.9269305268351
 20
106.4542521557471
 30
0.0
 10
167.0371334575047
 20
106.598394554794
 30
0.0
 10
167.0762488088713
 20
106.6495563574
 30
0.0
  0
LINE
  5
11F
330
1F
100
AcDbEntity
  8
0
  6
HIDDEN
 62
     7
370
    18
100
AcDbLine
 10
166.9557505689
 20
105.8842667118
 30
0.0
 11
167.0762488089
 21
105.7732461924
 31
0.0
  0
SPLINE
  5
120
330
1F
100
AcDbEntity
  8
0
  6
HIDDEN
 62
     7
370
    18
100
AcDbSpline
210
0.0
220
0.0
230
1.0
 70
     8
 71
     3
 72
     9
 73
     5
 74
     0
 42
0.000000001
 43
0.00000001
 40
0.0
 40
0.0
 40
0.0
 40
0.0
 40
0.7432415911871926
 40
1.0
 40
1.0
 40
1.0
 40
1.0
 10
167.1828740677938
 20
105.6910510379686
 30
0.0
 10
167.1247113956391
 20
105.7381151418794
 30
0.0
 10
167.0464559900693
 20
105.8014378951655
 30
0.0
 10
166.9742818788351
 20
105.8673446088279
 30
0.0
 10
166.9557505688772
 20
105.884266711758
 30
0.0
  0
LINE
  5
121
330
1F
100
AcDbEntity
  8
0
  6
HIDDEN
 62
     7
370
    18
100
AcDbLine
 10
167.0762488089
 20
106.6495563574
 30
0.0
 11
166.9557505689
 21
106.9358388923
 31
0.0
  0
LINE
  5
122
330
1F
100
AcDbEntity
  8
0
  6
HIDDEN
 62
     7
370
    18
100
AcDbLine
 10
166.9557505689
 20
106.9358388923
 30
0.0
 11
167.1828740678
 21
107.1290544715
 31
0.0
  0
LINE
  5
123
330
1F
100
AcDbEntity
  8
0
  6
HIDDEN
 62
     7
370
    18
100
AcDbLine
 10
157.182876154
 20
106.6495563574
 30
0.0
 11
157.182876154
 21
107.3652626511
 31
0.0
  0
LINE
  5
124
330
1F
100
AcDbEntity
  8
0
  6
HIDDEN
 62
     7
370
    18
100
AcDbLine
 10
163.1828734121
 20
107.3652626511
 30
0.0
 11
163.1828734121
 21
106.6495563574
 31
0.0
  0
LINE
  5
125
330
1F
100
AcDbEntity
  8
0
  6
HIDDEN
 62
     7
370
    18
100
AcDbLine
 10
163.1828734121
 20
108.0809688866
 30
0.0
 11
163.1828734121
 21
107.3652626511
 31
0.0
  0
LINE
  5
126
330
1F
100
AcDbEntity
  8
0
  6
HIDDEN
 62
     7
370
    18
100
AcDbLine
 10
157.182876154
 20
107.3652626511
 30
0.0
 11
157.182876154
 21
108.0809688866
 31
0.0
  0
LINE
  5
127
330
1F
100
AcDbEntity
  8
0
  6
HIDDEN
 62
     7
370
    18
100
AcDbLine
 10
157.182876154
 20
106.2114013331
 30
0.0
 11
157.182876154
 21
106.6495563574
 31
0.0
  0
LINE
  5
128
330
1F
100
AcDbEntity
  8
0
  6
HIDDEN
 62
     7
370
    18
100
AcDbLine
 10
157.182876154
 20
106.6495563574
 30
0.0
 11
153.2895007572
 21
106.6495563574
 31
0.0
  0
LINE
  5
129
330
1F
100
AcDbEntity
  8
0
  6
HIDDEN
 62
     7
370
    18
100
AcDbLine
 10
163.1828734121
 20
106.6495563574
 30
0.0
 11
163.1828734121
 21
106.2114013331
 31
0.0
  0
LINE
  5
12A
330
1F
100
AcDbEntity
  8
0
  6
HIDDEN
 62
     7
370
    18
100
AcDbLine
 10
163.1828734121
 20
106.6495563574
 30
0.0
 11
167.0762488089
 21
106.6495563574
 31
0.0
  0
LINE
  5
12B
330
1F
100
AcDbEntity
  8
0
  6
HIDDEN
 62
     7
370
    18
100
AcDbLine
 10
157.182876154
 20
108.0809688866
 30
0.0
 11
157.182876154
 21
108.3585201269
 31
0.0
  0
LINE
  5
12C
330
1F
100
AcDbEntity
  8
0
  6
HIDDEN
 62
     7
370
    18
100
AcDbLine
 10
157.182876154
 20
108.0809688866
 30
0.0
 11
153.2895007572
 21
108.0809688866
 31
0.0
  0
LINE
  5
12D
330
1F
100
AcDbEntity
  8
0
  6
HIDDEN
 62
     7
370
    18
100
AcDbLine
 10
163.1828734121
 20
108.3585201269
 30
0.0
 11
163.1828734121
 21
108.0809688866
 31
0.0
  0
LINE
  5
12E
330
1F
100
AcDbEntity
  8
0
  6
HIDDEN
 62
     7
370
    18
100
AcDbLine
 10
163.1828734121
 20
108.0809688866
 30
0.0
 11
166.1828757665
 21
108.0809688866
 31
0.0
  0
LINE
  5
12F
330
1F
100
AcDbEntity
  8
0
  6
HIDDEN
 62
     7
370
    18
100
AcDbLine
 10
167.1828740678
 20
108.7182664052
 30
0.0
 11
167.1828740678
 21
109.1203939142
 31
0.0
  0
SPLINE
  5
130
330
1F
100
AcDbEntity
  8
0
  6
HIDDEN
 62
     7
370
    18
100
AcDbSpline
210
0.0
220
0.0
230
1.0
 70
     8
 71
     3
 72
     9
 73
     5
 74
     0
 42
0.000000001
 43
0.00000001
 40
0.0
 40
0.0
 40
0.0
 40
0.0
 40
0.7432415911871926
 40
1.0
 40
1.0
 40
1.0
 40
1.0
 10
167.1828740677938
 20
108.7182664051517
 30
0.0
 10
167.1247113956391
 20
108.671202301241
 30
0.0
 10
167.0464559900693
 20
108.6078795479548
 30
0.0
 10
166.9742818788351
 20
108.5419728342924
 30
0.0
 10
166.9557505688772
 20
108.5250507313623
 30
0.0
  0
LINE
  5
131
330
1F
100
AcDbEntity
  8
0
  6
HIDDEN
 62
     7
370
    18
100
AcDbLine
 10
166.9557505689
 20
108.5250507314
 30
0.0
 11
166.1828757665
 21
108.5250507314
 31
0.0
  0
LINE
  5
132
330
1F
100
AcDbEntity
  8
0
  6
HIDDEN
 62
     7
370
    18
100
AcDbLine
 10
163.1828734121
 20
106.2114013331
 30
0.0
 11
163.1828734121
 21
105.7732461924
 31
0.0
  0
LINE
  5
133
330
1F
100
AcDbEntity
  8
0
  6
HIDDEN
 62
     7
370
    18
100
AcDbLine
 10
157.182876154
 20
105.7732461924
 30
0.0
 11
157.182876154
 21
106.2114013331
 31
0.0
  0
LINE
  5
134
330
1F
100
AcDbEntity
  8
0
  6
HIDDEN
 62
     7
370
    18
100
AcDbLine
 10
163.1828734121
 20
108.6360712508
 30
0.0
 11
163.1828734121
 21
108.3585201269
 31
0.0
  0
LINE
  5
135
330
1F
100
AcDbEntity
  8
0
  6
HIDDEN
 62
     7
370
    18
100
AcDbLine
 10
157.182876154
 20
108.3585201269
 30
0.0
 11
157.182876154
 21
108.6360712508
 31
0.0
  0
LINE
  5
136
330
1F
100
AcDbEntity
  8
0
  6
HIDDEN
 62
     7
370
    18
100
AcDbLine
 10
166.9557505689
 20
107.4734785508
 30
0.0
 11
167.1828740678
 21
107.2802629716
 31
0.0
  0
LINE
  5
137
330
1F
100
AcDbEntity
  8
0
  6
HIDDEN
 62
     7
370
    18
100
AcDbLine
 10
167.0762488089
 20
107.7597610857
 30
0.0
 11
166.9557505689
 21
107.4734785508
 31
0.0
  0
SPLINE
  5
138
330
1F
100
AcDbEntity
  8
0
  6
HIDDEN
 62
     7
370
    18
100
AcDbSpline
210
0.0
220
0.0
230
1.0
 70
     8
 71
     3
 72
    11
 73
     7
 74
     0
 42
0.000000001
 43
0.00000001
 40
0.0
 40
0.0
 40
0.0
 40
0.0
 40
0.1855064221318827
 40
0.5226426108951409
 40
0.8775762880681277
 40
1.0
 40
1.0
 40
1.0
 40
1.0
 10
167.0762488088713
 20
108.6360712507605
 30
0.0
 10
167.0371334574862
 20
108.584909449213
 30
0.0
 10
166.926930537614
 20
108.4407670673396
 30
0.0
 10
166.8461474956793
 20
108.1710434565313
 30
0.0
 10
166.9474899016006
 20
107.9243235882211
 30
0.0
 10
167.049967314931
 20
107.7933505942362
 30
0.0
 10
167.0762488088713
 20
107.7597610857203
 30
0.0
  0
LINE
  5
139
330
1F
100
AcDbEntity
  8
0
  6
HIDDEN
 62
     7
370
    18
100
AcDbLine
 10
167.1828740678
 20
108.7182664052
 30
0.0
 11
167.1828740678
 21
107.5311819878
 31
0.0
  0
LINE
  5
13A
330
1F
100
AcDbEntity
  8
0
  6
HIDDEN
 62
     7
370
    18
100
AcDbLine
 10
166.9557505689
 20
108.5250507314
 30
0.0
 11
167.0762488089
 21
108.6360712508
 31
0.0
  0
LINE
  5
13B
330
1F
100
AcDbEntity
  8
0
  6
HIDDEN
 62
     7
370
    18
100
AcDbLine
 10
157.182876154
 20
106.3283485565
 30
0.0
 11
153.2895007572
 21
106.3283485565
 31
0.0
  0
LINE
  5
13C
330
1F
100
AcDbEntity
  8
0
  6
HIDDEN
 62
     7
370
    18
100
AcDbLine
 10
157.182876154
 20
105.7732461924
 30
0.0
 11
153.2895007572
 21
105.7732461924
 31
0.0
  0
LINE
  5
13D
330
1F
100
AcDbEntity
  8
0
  6
HIDDEN
 62
     7
370
    18
100
AcDbLine
 10
163.1828734121
 20
106.3283485565
 30
0.0
 11
166.1828757665
 21
106.3283485565
 31
0.0
  0
LINE
  5
13E
330
1F
100
AcDbEntity
  8
0
  6
HIDDEN
 62
     7
370
    18
100
AcDbLine
 10
166.1828757665
 20
105.8842667118
 30
0.0
 11
166.1828757665
 21
106.3283485565
 31
0.0
  0
LINE
  5
13F
330
1F
100
AcDbEntity
  8
0
  6
HIDDEN
 62
     7
370
    18
100
AcDbLine
 10
166.9557505689
 20
105.8842667118
 30
0.0
 11
166.1828757665
 21
105.8842667118
 31
0.0
  0
LINE
  5
140
330
1F
100
AcDbEntity
  8
0
  6
HIDDEN
 62
     7
370
    18
100
AcDbLine
 10
163.1828734121
 20
105.7732461924
 30
0.0
 11
167.0762488089
 21
105.7732461924
 31
0.0
  0
LINE
  5
141
330
1F
100
AcDbEntity
  8
0
  6
HIDDEN
 62
     7
370
    18
100
AcDbLine
 10
166.1828757665
 20
105.288923529
 30
0.0
 11
166.1828757665
 21
105.8842667118
 31
0.0
  0
LINE
  5
142
330
1F
100
AcDbEntity
  8
0
  6
HIDDEN
 62
     7
370
    18
100
AcDbLine
 10
157.182876154
 20
107.7597610857
 30
0.0
 11
153.2895007572
 21
107.7597610857
 31
0.0
  0
LINE
  5
143
330
1F
100
AcDbEntity
  8
0
  6
HIDDEN
 62
     7
370
    18
100
AcDbLine
 10
157.182876154
 20
108.6360712508
 30
0.0
 11
153.2895007572
 21
108.6360712508
 31
0.0
  0
LINE
  5
144
330
1F
100
AcDbEntity
  8
0
  6
HIDDEN
 62
     7
370
    18
100
AcDbLine
 10
163.1828734121
 20
107.7597610857
 30
0.0
 11
167.0762488089
 21
107.7597610857
 31
0.0
  0
LINE
  5
145
330
1F
100
AcDbEntity
  8
0
  6
HIDDEN
 62
     7
370
    18
100
AcDbLine
 10
163.1828734121
 20
108.6360712508
 30
0.0
 11
167.0762488089
 21
108.6360712508
 31
0.0
  0
LINE
  5
146
330
1F
100
AcDbEntity
  8
0
  6
HIDDEN
 62
     7
370
    18
100
AcDbLine
 10
166.1828757665
 20
107.4734785508
 30
0.0
 11
166.9557505689
 21
107.4734785508
 31
0.0
  0
LINE
  5
147
330
1F
100
AcDbEntity
  8
0
  6
HIDDEN
 62
     7
370
    18
100
AcDbLine
 10
166.1828757665
 20
106.3283485565
 30
0.0
 11
166.1828757665
 21
106.9358388923
 31
0.0
  0
LINE
  5
148
330
1F
100
AcDbEntity
  8
0
  6
HIDDEN
 62
     7
370
    18
100
AcDbLine
 10
136.290942452
 20
131.6633483367
 30
0.0
 11
136.290942452
 21
127.0546594607
 31
0.0
  0
LWPOLYLINE
  5
149
330
1F
100
AcDbEntity
  8
0
  6
HIDDEN
 62
     7
370
    18
100
AcDbPolyline
 90
       22
 70
   128
 43
0.0
 10
133.5519087902
 20
120.5031264545
 10
133.5701208032
 20
120.4388502957
 10
133.6783442116
 20
119.768182558
 10
133.642160467
 20
119.0913857864
 10
133.4628780774
 20
118.4329202371
 10
133.1469762541
 20
117.8165858583
 10
132.7058730117
 20
117.2646589549
 10
132.1555107302
 20
116.7970856624
 10
131.5157815284
 20
116.4307666914
 10
130.8098054893
 20
116.1789417239
 10
130.0630989886
 20
116.0507116439
 10
129.3026508234
 20
116.0507116439
 10
128.5559447884
 20
116.1789417239
 10
127.8499687492
 20
116.4307666914
 10
127.2102390818
 20
116.7970856624
 10
126.6598768002
 20
117.2646589549
 10
126.2187735579
 20
117.8165858583
 10
125.9028717346
 20
118.4329202371
 10
125.723589345
 20
119.0913857864
 10
125.6874056003
 20
119.768182558
 10
125.7956285431
 20
120.4388502957
 10
125.8267659164
 20
120.5459291087
  0
LINE
  5
14A
330
1F
100
AcDbEntity
  8
0
  6
HIDDEN
 62
     7
370
    18
100
AcDbLine
 10
109.6780254907
 20
83.6800595717
 30
0.0
 11
109.4291602663
 21
83.6567969965
 31
0.0
  0
LINE
  5
14B
330
1F
100
AcDbEntity
  8
0
  6
HIDDEN
 62
     7
370
    18
100
AcDbLine
 10
109.2965995363
 20
130.7647449868
 30
0.0
 11
109.6779323585
 21
130.7292411076
 31
0.0
  0
SPLINE
  5
14C
330
1F
100
AcDbEntity
  8
0
  6
HIDDEN
 62
     7
370
    18
100
AcDbSpline
210
0.0
220
0.0
230
1.0
 70
     8
 71
     3
 72
    15
 73
    11
 74
     0
 42
0.000000001
 43
0.00000001
 40
0.0
 40
0.0
 40
0.0
 40
0.0
 40
0.1409172263352446
 40
0.281889861653346
 40
0.4212989542022905
 40
0.5593768841673977
 40
0.6988856533029646
 40
0.840367202775075
 40
0.9813164473602943
 40
1.0
 40
1.0
 40
1.0
 40
1.0
 10
115.4378770320818
 20
87.36713025438182
 30
0.0
 10
115.1218353124692
 20
87.40748357615651
 30
0.0
 10
114.4896276049008
 20
87.48820608672634
 30
0.0
 10
113.2554644325865
 20
87.56476403310909
 30
0.0
 10
111.9847423087709
 20
87.56008596509416
 30
0.0
 10
110.7961828422344
 20
87.47928949987094
 30
0.0
 10
109.803060162944
 20
87.35489495301671
 30
0.0
 10
109.1636516316302
 20
87.24848800625549
 30
0.0
 10
108.8826316432768
 20
87.19541094694593
 30
0.0
 10
108.9491922117656
 20
87.20766543890782
 30
0.0
 10
108.9569825149283
 20
87.20909971463077
 30
0.0
  0
SPLINE
  5
14D
330
1F
100
AcDbEntity
  8
0
  6
HIDDEN
 62
     7
370
    18
100
AcDbSpline
210
0.0
220
0.0
230
1.0
 70
     8
 71
     3
 72
    15
 73
    11
 74
     0
 42
0.000000001
 43
0.00000001
 40
0.0
 40
0.0
 40
0.0
 40
0.0
 40
0.1201202497733958
 40
0.2584739452442804
 40
0.3987302041697883
 40
0.5404022600041716
 40
0.680739511736143
 40
0.8190355942651634
 40
0.9577823154231621
 40
1.0
 40
1.0
 40
1.0
 40
1.0
 10
108.9569825149283
 20
127.2002177284895
 30
0.0
 10
108.9776917637318
 20
127.1961932244153
 30
0.0
 10
109.0222537859668
 20
127.1875333236267
 30
0.0
 10
109.5846932556953
 20
127.0882404049155
 30
0.0
 10
110.4781555111425
 20
126.9643243932042
 30
0.0
 10
111.6371343349947
 20
126.8646130176705
 30
0.0
 10
112.9101712038144
 20
126.8374759599725
 30
0.0
 10
114.1444565505415
 20
126.8928133221026
 30
0.0
 10
114.9724196282374
 20
126.979293057894
 30
0.0
 10
115.3498299408837
 20
127.0302899770311
 30
0.0
 10
115.4378770320818
 20
127.0421871887385
 30
0.0
  0
SPLINE
  5
14E
330
1F
100
AcDbEntity
  8
0
  6
HIDDEN
 62
     7
370
    18
100
AcDbSpline
210
0.0
220
0.0
230
1.0
 70
     8
 71
     3
 72
    10
 73
     6
 74
     0
 42
0.000000001
 43
0.00000001
 40
0.0
 40
0.0
 40
0.0
 40
0.0
 40
0.4475770529605919
 40
0.8951374478168815
 40
1.0
 40
1.0
 40
1.0
 40
1.0
 10
115.4378770320818
 20
127.0421871887385
 30
0.0
 10
115.6845825693043
 20
127.0716988627066
 30
0.0
 10
116.1779844617624
 20
127.1307211122653
 30
0.0
 10
116.4669986550961
 20
127.1446643498668
 30
0.0
 10
116.4066306348798
 20
127.140770987877
 30
0.0
 10
116.3951713993356
 20
127.1400319384276
 30
0.0
  0
SPLINE
  5
14F
330
1F
100
AcDbEntity
  8
0
  6
HIDDEN
 62
     7
370
    18
100
AcDbSpline
210
0.0
220
0.0
230
1.0
 70
     8
 71
     3
 72
    10
 73
     6
 74
     0
 42
0.000000001
 43
0.00000001
 40
0.0
 40
0.0
 40
0.0
 40
0.0
 40
0.3454691164194381
 40
0.7966953010443469
 40
1.0
 40
1.0
 40
1.0
 40
1.0
 10
116.3951504445777
 20
87.26928736733787
 30
0.0
 10
116.3855903428643
 20
87.26984222234857
 30
0.0
 10
116.3635435440317
 20
87.27112178789805
 30
0.0
 10
115.9466041183539
 20
87.30108121680003
 30
0.0
 10
115.5584439673206
 20
87.35147681218936
 30
0.0
 10
115.4378770320818
 20
87.36713025438182
 30
0.0
  0
LINE
  5
150
330
1F
100
AcDbEntity
  8
0
  6
HIDDEN
 62
     7
370
    18
100
AcDbLine
 10
102.6868504874
 20
90.2046577977
 30
0.0
 11
102.6868504874
 21
124.2046596454
 31
0.0
  0
LWPOLYLINE
  5
151
330
1F
100
AcDbEntity
  8
0
  6
HIDDEN
 62
     7
370
    18
100
AcDbPolyline
 90
       28
 70
   128
 43
0.0
 10
132.0530186809
 20
132.7613497125
 10
132.4431906856
 20
132.5977293746
 10
132.9411791108
 20
132.3103753822
 10
133.3214027277
 20
131.9810913848
 10
133.5701208032
 20
131.6217796849
 10
133.6783442116
 20
131.2454247819
 10
133.642160467
 20
130.865631436
 10
133.4628780774
 20
130.4961254792
 10
133.1469762541
 20
130.1502602147
 10
132.7058730117
 20
129.8405395793
 10
132.1555107302
 20
129.578154345
 10
131.5157815284
 20
129.3725909637
 10
130.8098054893
 20
129.2312758015
 10
130.0630989886
 20
129.1593180941
 10
129.3026508234
 20
129.1593180941
 10
128.5559447884
 20
129.2312758015
 10
127.8499687492
 20
129.3725909637
 10
127.2102390818
 20
129.578154345
 10
126.6598768002
 20
129.8405395793
 10
126.2187735579
 20
130.1502602147
 10
125.9028717346
 20
130.4961254792
 10
125.723589345
 20
130.865631436
 10
125.6874056003
 20
131.2454247819
 10
125.7956285431
 20
131.6217796849
 10
126.0443470842
 20
131.9810913848
 10
126.4245711669
 20
132.3103753822
 10
126.9225591264
 20
132.5977293746
 10
127.2930597357
 20
132.7540686326
  0
SPLINE
  5
152
330
1F
100
AcDbEntity
  8
0
  6
HIDDEN
 62
     7
370
    18
100
AcDbSpline
210
0.0
220
0.0
230
1.0
 70
     8
 71
     3
 72
    11
 73
     7
 74
     0
 42
0.000000001
 43
0.00000001
 40
0.0
 40
0.0
 40
0.0
 40
0.0
 40
0.0005779865010845
 40
0.0005779865010845
 40
0.0005779865010845
 40
0.0011559733324421
 40
0.0011559733324421
 40
0.0011559733324421
 40
0.0011559733324421
 10
89.78287499166585
 20
109.2044993297201
 30
0.0
 10
89.94954224647181
 20
109.202515690379
 30
0.0
 10
90.11620867614945
 20
109.2004780833704
 30
0.0
 10
90.28287501460127
 20
109.198366619964
 30
0.0
 10
90.44954144342769
 20
109.1962551554127
 30
0.0
 10
90.61620781706539
 20
109.1940695922563
 30
0.0
 10
90.78287499166584
 20
109.1917870149247
 30
0.0
  0
SPLINE
  5
153
330
1F
100
AcDbEntity
  8
0
  6
HIDDEN
 62
     7
370
    18
100
AcDbSpline
210
0.0
220
0.0
230
1.0
 70
     8
 71
     3
 72
     8
 73
     4
 74
     0
 42
0.000000001
 43
0.00000001
 40
0.0
 40
0.0
 40
0.0
 40
0.0
 40
0.0011564765856722
 40
0.0011564765856722
 40
0.0011564765856722
 40
0.0011564765856722
 10
90.78287499166582
 20
105.2079584193439
 30
0.0
 10
90.44956706109697
 20
105.2070832637606
 30
0.0
 10
90.11623182870477
 20
105.2060284125091
 30
0.0
 10
89.78287499166582
 20
105.2048573254715
 30
0.0
  0
LINE
  5
154
330
1F
100
AcDbEntity
  8
0
  6
HIDDEN
 62
     7
370
    18
100
AcDbLine
 10
129.3427009537
 20
90.2046577977
 30
0.0
 11
129.3427009537
 21
124.2046596454
 31
0.0
  0
LINE
  5
155
330
1F
100
AcDbEntity
  8
0
  6
HIDDEN
 62
     7
370
    18
100
AcDbLine
 10
131.6328748531
 20
91.4796588914
 30
0.0
 11
131.6328748531
 21
122.9296585517
 31
0.0
  0
SPLINE
  5
156
330
1F
100
AcDbEntity
  8
0
  6
HIDDEN
 62
     7
370
    18
100
AcDbSpline
210
0.0
220
0.0
230
1.0
 70
     8
 71
     3
 72
    16
 73
    12
 74
     0
 42
0.000000001
 43
0.00000001
 40
0.0
 40
0.0
 40
0.0
 40
0.0
 40
0.124999999999998
 40
0.124999999999998
 40
0.249999999999996
 40
0.249999999999996
 40
0.4999999999999973
 40
0.4999999999999973
 40
0.7499999999999987
 40
0.7499999999999987
 40
1.0
 40
1.0
 40
1.0
 40
1.0
 10
98.48287499166582
 20
91.40316828552851
 30
0.0
 10
98.57799674633166
 20
91.40316828552851
 30
0.0
 10
98.67132681505973
 20
91.3993524521357
 30
0.0
 10
98.85458857579773
 20
91.3845818994059
 30
0.0
 10
98.94546629135475
 20
91.37342385143032
 30
0.0
 10
99.20226798887448
 20
91.3309525812886
 30
0.0
 10
99.35733535374646
 20
91.2899063840858
 30
0.0
 10
99.61108181530109
 20
91.19476026750391
 30
0.0
 10
99.71195226696895
 20
91.13999753342233
 30
0.0
 10
99.8471986816638
 20
91.02873640951844
 30
0.0
 10
99.88287499166583
 20
90.97156667218977
 30
0.0
 10
99.88287499166583
 20
90.91714509915604
 30
0.0
  0
SPLINE
  5
157
330
1F
100
AcDbEntity
  8
0
  6
HIDDEN
 62
     7
370
    18
100
AcDbSpline
210
0.0
220
0.0
230
1.0
 70
     8
 71
     3
 72
     8
 73
     4
 74
     0
 42
0.000000001
 43
0.00000001
 40
0.0
 40
0.0
 40
0.0
 40
0.0
 40
1.0
 40
1.0
 40
1.0
 40
1.0
 10
91.08287499498103
 20
93.54797123161075
 30
0.0
 10
91.08287499498294
 20
92.66407408929382
 30
0.0
 10
91.06939436907317
 20
91.94949084423187
 30
0.0
 10
91.06804300088385
 20
91.40316828552851
 30
0.0
  0
SPLINE
  5
158
330
1F
100
AcDbEntity
  8
0
  6
HIDDEN
 62
     7
370
    18
100
AcDbSpline
210
0.0
220
0.0
230
1.0
 70
     8
 71
     3
 72
    10
 73
     6
 74
     0
 42
0.000000001
 43
0.00000001
 40
0.0
 40
0.0
 40
0.0
 40
0.0
 40
0.5
 40
0.5
 40
1.0
 40
1.0
 40
1.0
 40
1.0
 10
90.78287499166582
 20
94.57288149731396
 30
0.0
 10
90.87426610735872
 20
94.39824270969653
 30
0.0
 10
90.94691794109178
 20
94.22464088244095
 30
0.0
 10
91.05441683409994
 20
93.88102746343424
 30
0.0
 10
91.0828749949754
 20
93.71270163690279
 30
0.0
 10
91.08287499498103
 20
93.54797123167022
 30
0.0
  0
LINE
  5
159
330
1F
100
AcDbEntity
  8
0
  6
HIDDEN
 62
     7
370
    18
100
AcDbLine
 10
90.7828753284
 20
97.6038321825
 30
0.0
 11
90.7828753284
 21
94.5728810476
 31
0.0
  0
SPLINE
  5
15A
330
1F
100
AcDbEntity
  8
0
  6
HIDDEN
 62
     7
370
    18
100
AcDbSpline
210
0.0
220
0.0
230
1.0
 70
     8
 71
     3
 72
    10
 73
     6
 74
     0
 42
0.000000001
 43
0.00000001
 40
0.0
 40
0.0
 40
0.0
 40
0.0
 40
0.5
 40
0.5
 40
1.0
 40
1.0
 40
1.0
 40
1.0
 10
91.08287499485354
 20
98.97167234591733
 30
0.0
 10
91.08287499485351
 20
98.72968837831053
 30
0.0
 10
91.05472496578294
 20
98.49534594934552
 30
0.0
 10
90.95113505164053
 20
98.03997092706783
 30
0.0
 10
90.87450634204903
 20
97.81836636396046
 30
0.0
 10
90.78287499166584
 20
97.60383192916252
 30
0.0
  0
LINE
  5
15B
330
1F
100
AcDbEntity
  8
0
  6
HIDDEN
 62
     7
370
    18
100
AcDbLine
 10
91.0828748188
 20
110.8092924552
 30
0.0
 11
91.0828748188
 21
98.9716721671
 31
0.0
  0
SPLINE
  5
15C
330
1F
100
AcDbEntity
  8
0
  6
HIDDEN
 62
     7
370
    18
100
AcDbSpline
210
0.0
220
0.0
230
1.0
 70
     8
 71
     3
 72
     8
 73
     4
 74
     0
 42
0.000000001
 43
0.00000001
 40
0.0
 40
0.0
 40
0.0
 40
0.0
 40
1.0
 40
1.0
 40
1.0
 40
1.0
 10
90.78287499166582
 20
116.8115980426285
 30
0.0
 10
90.96390645822473
 20
116.3794905569658
 30
0.0
 10
91.08287499485925
 20
115.9253451508662
 30
0.0
 10
91.08287499485355
 20
115.4376450971721
 30
0.0
  0
LINE
  5
15D
330
1F
100
AcDbEntity
  8
0
  6
HIDDEN
 62
     7
370
    18
100
AcDbLine
 10
90.7828753284
 20
119.8448006036
 30
0.0
 11
90.7828753284
 21
116.811598462
 31
0.0
  0
SPLINE
  5
15E
330
1F
100
AcDbEntity
  8
0
  6
HIDDEN
 62
     7
370
    18
100
AcDbSpline
210
0.0
220
0.0
230
1.0
 70
     8
 71
     3
 72
    10
 73
     6
 74
     0
 42
0.000000001
 43
0.00000001
 40
0.0
 40
0.0
 40
0.0
 40
0.0
 40
0.5
 40
0.5
 40
1.0
 40
1.0
 40
1.0
 40
1.0
 10
91.08287499505904
 20
120.86134621148
 30
0.0
 10
91.08287499505725
 20
120.696709864874
 30
0.0
 10
91.05571632430174
 20
120.5295546410435
 30
0.0
 10
90.94995132898333
 20
120.1909316332419
 30
0.0
 10
90.87353654068619
 20
120.0186598559509
 30
0.0
 10
90.78287499166585
 20
119.8448010286069
 30
0.0
  0
SPLINE
  5
15F
330
1F
100
AcDbEntity
  8
0
  6
HIDDEN
 62
     7
370
    18
100
AcDbSpline
210
0.0
220
0.0
230
1.0
 70
     8
 71
     3
 72
    18
 73
    14
 74
     0
 42
0.000000001
 43
0.00000001
 40
0.0
 40
0.0
 40
0.0
 40
0.0
 40
0.2500000000000033
 40
0.2500000000000033
 40
0.3750000000000029
 40
0.3750000000000029
 40
0.5000000000000026
 40
0.5000000000000026
 40
0.6250000000000022
 40
0.6250000000000022
 40
0.7500000000000018
 40
0.7500000000000018
 40
1.0
 40
1.0
 40
1.0
 40
1.0
 10
95.88287499166584
 20
123.4921723439643
 30
0.0
 10
95.88287499166583
 20
123.4376978234121
 30
0.0
 10
95.84796430027365
 20
123.3813167640596
 30
0.0
 10
95.7459549989406
 20
123.2972399232061
 30
0.0
 10
95.70431864426249
 20
123.2699062192152
 30
0.0
 10
95.60591284877374
 20
123.2169523036162
 30
0.0
 10
95.54836963706947
 20
123.1910649498991
 30
0.0
 10
95.42107146349652
 20
123.1432874050658
 30
0.0
 10
95.35148415873905
 20
123.1213394868879
 30
0.0
 10
95.2000499135841
 20
123.0819069219752
 30
0.0
 10
95.11736601049014
 20
123.0643506727493
 30
0.0
 10
94.8612545484521
 20
123.0219119073288
 30
0.0
 10
94.67333954456412
 20
123.0061491575918
 30
0.0
 10
94.48287499166582
 20
123.0061491575918
 30
0.0
  0
LINE
  5
160
330
1F
100
AcDbEntity
  8
0
  6
HIDDEN
 62
     7
370
    18
100
AcDbLine
 10
94.4828746311
 20
123.0061499374
 30
0.0
 11
91.0828748188
 21
123.0061499374
 31
0.0
  0
LINE
  5
161
330
1F
100
AcDbEntity
  8
0
  6
HIDDEN
 62
     7
370
    18
100
AcDbLine
 10
91.0139066569
 20
91.4031675057
 30
0.0
 11
98.4828752867
 21
91.4031675057
 31
0.0
  0
SPLINE
  5
162
330
1F
100
AcDbEntity
  8
0
  6
HIDDEN
 62
     7
370
    18
100
AcDbSpline
210
0.0
220
0.0
230
1.0
 70
     8
 71
     3
 72
    22
 73
    18
 74
     0
 42
0.000000001
 43
0.00000001
 40
0.0
 40
0.0
 40
0.0
 40
0.0
 40
0.1249999999999998
 40
0.1249999999999998
 40
0.2499999999999995
 40
0.2499999999999995
 40
0.4999999999999992
 40
0.4999999999999992
 40
0.5624999999999993
 40
0.5624999999999993
 40
0.6249999999999994
 40
0.6249999999999994
 40
0.7499999999999996
 40
0.7499999999999996
 40
0.8749999999999998
 40
0.8749999999999998
 40
1.0
 40
1.0
 40
1.0
 40
1.0
 10
91.01390600502376
 20
91.40316828552851
 30
0.0
 10
91.00082361229539
 20
91.65827399567618
 30
0.0
 10
90.98760404885556
 20
91.95143225478009
 30
0.0
 10
90.96515687106144
 20
92.6137327204049
 30
0.0
 10
90.95567840403697
 20
92.98400664101628
 30
0.0
 10
90.93648044310041
 20
94.20656344413005
 30
0.0
 10
90.93759421609731
 20
95.14370237026193
 30
0.0
 10
90.95650500905037
 20
96.46357359977692
 30
0.0
 10
90.96113453690938
 20
96.73507550875324
 30
0.0
 10
90.97161575665534
 20
97.29346034355554
 30
0.0
 10
90.97741101793976
 20
97.58058319949514
 30
0.0
 10
90.9957202388447
 20
98.45317245386683
 30
0.0
 10
91.00975517312506
 20
99.05362813022269
 30
0.0
 10
91.03921234526187
 20
100.2911026227188
 30
0.0
 10
91.05476803624344
 20
100.9281187793622
 30
0.0
 10
91.07856258624034
 20
102.2396073770468
 30
0.0
 10
91.08658163838571
 20
102.9157299887073
 30
0.0
 10
91.08287499166583
 20
103.6000250999921
 30
0.0
  0
LINE
  5
163
330
1F
100
AcDbEntity
  8
0
  6
HIDDEN
 62
     7
370
    18
100
AcDbLine
 10
91.0828748188
 20
110.8092924552
 30
0.0
 11
91.0828748188
 21
123.0061499374
 31
0.0
  0
SPLINE
  5
164
330
1F
100
AcDbEntity
  8
0
  6
HIDDEN
 62
     7
370
    18
100
AcDbSpline
210
0.0
220
0.0
230
1.0
 70
     8
 71
     3
 72
    10
 73
     6
 74
     0
 42
0.000000001
 43
0.00000001
 40
0.0
 40
0.0
 40
0.0
 40
0.0
 40
0.5
 40
0.5
 40
1.0
 40
1.0
 40
1.0
 40
1.0
 10
91.08287499166583
 20
103.600025099977
 30
0.0
 10
91.08287499166565
 20
103.8739402480514
 30
0.0
 10
91.05711576179795
 20
104.1448818267814
 30
0.0
 10
90.95390982906481
 20
104.6805729083843
 30
0.0
 10
90.87657166518959
 20
104.9463197119063
 30
0.0
 10
90.78287499166582
 20
105.2079584193439
 30
0.0
  0
SPLINE
  5
165
330
1F
100
AcDbEntity
  8
0
  6
HIDDEN
 62
     7
370
    18
100
AcDbSpline
210
0.0
220
0.0
230
1.0
 70
     8
 71
     3
 72
    10
 73
     6
 74
     0
 42
0.000000001
 43
0.00000001
 40
0.0
 40
0.0
 40
0.0
 40
0.0
 40
0.5
 40
0.5
 40
1.0
 40
1.0
 40
1.0
 40
1.0
 10
90.78287499166582
 20
109.1917870149247
 30
0.0
 10
90.87610557305683
 20
109.4556808229948
 30
0.0
 10
90.95113518529361
 20
109.7218611336331
 30
0.0
 10
91.0562022844717
 20
110.2601837085913
 30
0.0
 10
91.08287499505792
 20
110.5329318248368
 30
0.0
 10
91.0828749950591
 20
110.8092923431273
 30
0.0
  0
LINE
  5
166
330
1F
100
AcDbEntity
  8
0
  6
HIDDEN
 62
     7
370
    18
100
AcDbLine
 10
90.7828753284
 20
105.2079585353
 30
0.0
 11
90.7828753284
 21
109.1917870073
 31
0.0
  0
LINE
  5
167
330
1F
100
AcDbEntity
  8
0
  6
HIDDEN
 62
     7
370
    18
100
AcDbLine
 10
156.3110129378
 20
120.0212182449
 30
0.0
 11
156.6563100956
 21
119.9873488368
 31
0.0
  0
SPLINE
  5
168
330
1F
100
AcDbEntity
  8
0
  6
HIDDEN
 62
     7
370
    18
100
AcDbSpline
210
0.0
220
0.0
230
1.0
 70
     8
 71
     3
 72
     9
 73
     5
 74
     0
 42
0.000000001
 43
0.00000001
 40
0.0
 40
0.0
 40
0.0
 40
0.0
 40
0.5354940707423547
 40
1.0
 40
1.0
 40
1.0
 40
1.0
 10
155.9967697999582
 20
120.0651757391035
 30
0.0
 10
156.0462782699452
 20
120.0574863997734
 30
0.0
 10
156.1387320853876
 20
120.0431270636944
 30
0.0
 10
156.2563696100744
 20
120.0281671933706
 30
0.0
 10
156.3110129377947
 20
120.0212182449042
 30
0.0
  0
SPLINE
  5
169
330
1F
100
AcDbEntity
  8
0
  6
HIDDEN
 62
     7
370
    18
100
AcDbSpline
210
0.0
220
0.0
230
1.0
 70
     8
 71
     3
 72
     9
 73
     5
 74
     0
 42
0.000000001
 43
0.00000001
 40
0.0
 40
0.0
 40
0.0
 40
0.0
 40
0.3897380559121454
 40
1.0
 40
1.0
 40
1.0
 40
1.0
 10
156.4963126025305
 20
94.41006257849328
 30
0.0
 10
156.4324888631107
 20
94.40276490796667
 30
0.0
 10
156.2687282591575
 20
94.3840403558838
 30
0.0
 10
156.1455978468518
 20
94.36485253411558
 30
0.0
 10
156.0704560420618
 20
94.35314293670051
 30
0.0
  0
LINE
  5
16A
330
1F
100
AcDbEntity
  8
0
  6
HIDDEN
 62
     7
370
    18
100
AcDbLine
 10
90.9328741423
 20
89.2146581756
 30
0.0
 11
90.9328741423
 21
86.3347200649
 31
0.0
  0
LINE
  5
16B
330
1F
100
AcDbEntity
  8
0
  6
HIDDEN
 62
     7
370
    18
100
AcDbLine
 10
99.8828747711
 20
89.2146581756
 30
0.0
 11
99.8828747711
 21
85.2409208165
 31
0.0
  0
LINE
  5
16C
330
1F
100
AcDbEntity
  8
0
  6
HIDDEN
 62
     7
370
    18
100
AcDbLine
 10
90.9328741423
 20
125.1946592675
 30
0.0
 11
90.9328741423
 21
128.0745973782
 31
0.0
  0
LINE
  5
16D
330
1F
100
AcDbEntity
  8
0
  6
HIDDEN
 62
     7
370
    18
100
AcDbLine
 10
95.8828741155
 20
125.1946592675
 30
0.0
 11
95.8828741155
 21
129.0487663792
 31
0.0
  0
LINE
  5
16E
330
1F
100
AcDbEntity
  8
0
  6
HIDDEN
 62
     7
370
    18
100
AcDbLine
 10
140.4828747205
 20
97.704659027
 30
0.0
 11
140.4828747205
 21
116.7046584161
 31
0.0
  0
LINE
  5
16F
330
1F
100
AcDbEntity
  8
0
  6
HIDDEN
 62
     7
370
    18
100
AcDbLine
 10
143.4828752122
 20
97.704659027
 30
0.0
 11
143.4828752122
 21
116.7046584161
 31
0.0
  0
LINE
  5
170
330
1F
100
AcDbEntity
  8
0
  6
HIDDEN
 62
     7
370
    18
100
AcDbLine
 10
132.132874935
 20
98.7046582596
 30
0.0
 11
132.132874935
 21
115.7046591835
 31
0.0
  0
LINE
  5
171
330
1F
100
AcDbEntity
  8
0
  6
HIDDEN
 62
     7
370
    18
100
AcDbLine
 10
137.8705502889
 20
80.8046588646
 30
0.0
 11
134.6328753448
 21
80.8046588646
 31
0.0
  0
LINE
  5
172
330
1F
100
AcDbEntity
  8
0
  6
HIDDEN
 62
     7
370
    18
100
AcDbLine
 10
126.6328749648
 20
75.7205354022
 30
0.0
 11
126.6328749648
 21
80.8046588646
 31
0.0
  0
LINE
  5
173
330
1F
100
AcDbEntity
  8
0
  6
HIDDEN
 62
     7
370
    18
100
AcDbLine
 10
134.6328753448
 20
80.8046588646
 30
0.0
 11
126.6328749648
 21
80.8046588646
 31
0.0
  0
LINE
  5
174
330
1F
100
AcDbEntity
  8
0
  6
HIDDEN
 62
     7
370
    18
100
AcDbLine
 10
147.6328746817
 20
80.8046588646
 30
0.0
 11
141.4952000073
 21
80.8046588646
 31
0.0
  0
LINE
  5
175
330
1F
100
AcDbEntity
  8
0
  6
HIDDEN
 62
     7
370
    18
100
AcDbLine
 10
138.1671728037
 20
133.6046585785
 30
0.0
 11
134.6328753448
 21
133.6046585785
 31
0.0
  0
LINE
  5
176
330
1F
100
AcDbEntity
  8
0
  6
HIDDEN
 62
     7
370
    18
100
AcDbLine
 10
134.6328753448
 20
133.6046585785
 30
0.0
 11
126.6328749648
 21
133.6046585785
 31
0.0
  0
LINE
  5
177
330
1F
100
AcDbEntity
  8
0
  6
HIDDEN
 62
     7
370
    18
100
AcDbLine
 10
147.6328746817
 20
133.6046585785
 30
0.0
 11
141.1985774926
 21
133.6046585785
 31
0.0
  0
SPLINE
  5
178
330
1F
100
AcDbEntity
  8
0
  6
HIDDEN
 62
     7
370
    18
100
AcDbSpline
210
0.0
220
0.0
230
1.0
 70
     8
 71
     3
 72
    11
 73
     7
 74
     0
 42
0.000000001
 43
0.00000001
 40
0.0
 40
0.0
 40
0.0
 40
0.0
 40
0.0008203708524183
 40
0.0008203708524183
 40
0.0008203708524183
 40
0.0016409967870154
 40
0.0016409967870154
 40
0.0016409967870154
 40
0.0016409967870154
 10
90.93287499166583
 20
91.35262597091743
 30
0.0
 10
90.74171669136717
 20
91.3114469422983
 30
0.0
 10
90.550289621295
 20
91.27269297006829
 30
0.0
 10
90.35864399777437
 20
91.23632521078976
 30
0.0
 10
90.16693859269391
 20
91.19994610702372
 30
0.0
 10
89.97499964063495
 20
91.16595185625617
 30
0.0
 10
89.78287499356414
 20
91.13430373086497
 30
0.0
  0
ELLIPSE
  5
179
330
1F
100
AcDbEntity
  8
0
  6
HIDDEN
 62
     7
370
    18
100
AcDbEllipse
 10
85.5404431231
 20
107.2046587216
 30
0.0
 11
20.19992453366626
 21
-1.421085471520200E-14
 31
0.0
210
0.0
220
0.0
230
1.0
 40
0.8164965809
 41
1.300566354718001
 42
1.359198697209605
  0
LINE
  5
17A
330
1F
100
AcDbEntity
  8
0
  6
HIDDEN
 62
     7
370
    18
100
AcDbLine
 10
99.8828747711
 20
89.2146581756
 30
0.0
 11
99.8828747711
 21
90.9171456443
 31
0.0
  0
LINE
  5
17B
330
1F
100
AcDbEntity
  8
0
  6
HIDDEN
 62
     7
370
    18
100
AcDbLine
 10
90.9328741423
 20
89.2146581756
 30
0.0
 11
90.9328741423
 21
91.3526264923
 31
0.0
  0
LINE
  5
17C
330
1F
100
AcDbEntity
  8
0
  6
HIDDEN
 62
     7
370
    18
100
AcDbLine
 10
91.0139066569
 20
91.4031675057
 30
0.0
 11
90.9328741423
 21
91.3526264923
 31
0.0
  0
LINE
  5
17D
330
1F
100
AcDbEntity
  8
0
  6
HIDDEN
 62
     7
370
    18
100
AcDbLine
 10
95.8828741155
 20
125.1946592675
 30
0.0
 11
95.8828741155
 21
123.4921717988
 31
0.0
  0
LINE
  5
17E
330
1F
100
AcDbEntity
  8
0
  6
HIDDEN
 62
     7
370
    18
100
AcDbLine
 10
90.9328741423
 20
125.1946592675
 30
0.0
 11
90.9328741423
 21
123.0992840575
 31
0.0
  0
SPLINE
  5
17F
330
1F
100
AcDbEntity
  8
0
  6
HIDDEN
 62
     7
370
    18
100
AcDbSpline
210
0.0
220
0.0
230
1.0
 70
     8
 71
     3
 72
     8
 73
     4
 74
     0
 42
0.000000001
 43
0.00000001
 40
0.0
 40
0.0
 40
0.0
 40
0.0
 40
1.0
 40
1.0
 40
1.0
 40
1.0
 10
90.93287499166583
 20
123.0992831726188
 30
0.0
 10
90.98288049060957
 20
123.0682473983997
 30
0.0
 10
91.03288056127398
 20
123.0372027533721
 30
0.0
 10
91.0828749950591
 20
123.0061491575918
 30
0.0
  0
LWPOLYLINE
  5
180
330
1F
100
AcDbEntity
  8
0
  6
HIDDEN
 62
     7
370
    18
100
AcDbPolyline
 90
       17
 70
   128
 43
0.0
 10
116.4314906514
 20
83.6047248887
 10
116.2028486311
 20
83.6657730834
 10
115.8657373331
 20
83.7434584247
 10
115.3470460727
 20
83.8524585562
 10
114.6052695281
 20
83.9825643198
 10
113.8750604755
 20
84.0831434326
 10
112.7036401472
 20
84.1957217054
 10
111.3820598862
 20
84.2218043255
 10
110.6935172743
 20
84.2006409513
 10
110.0433907873
 20
84.1566713499
 10
109.4627446897
 20
84.0996948974
 10
109.1267672769
 20
84.058932771
 10
108.9328947879
 20
84.0260440456
 10
109.1218936659
 20
84.058092718
 10
109.4538812927
 20
84.0985102551
 10
110.0267322204
 20
84.1551868217
 10
110.0267322204
 20
84.1551868217
  0
SPLINE
  5
181
330
1F
100
AcDbEntity
  8
0
  6
HIDDEN
 62
     7
370
    18
100
AcDbSpline
210
0.0
220
0.0
230
1.0
 70
     8
 71
     3
 72
    27
 73
    23
 74
     0
 42
0.000000001
 43
0.00000001
 40
0.0
 40
0.0
 40
0.0
 40
0.0
 40
0.0008085591006349
 40
0.0456910698863066
 40
0.1022727339052982
 40
0.1705508216279965
 40
0.2091424780851575
 40
0.250669716491954
 40
0.3211154737113109
 40
0.3862092241347784
 40
0.4266883951181778
 40
0.4648196562279712
 40
0.5006239193214489
 40
0.5452157483450667
 40
0.601709998720382
 40
0.6701159320702823
 40
0.7088532990839164
 40
0.7505820338442188
 40
0.8222466258419032
 40
0.8877860351962378
 40
0.9472597935351534
 40
1.0
 40
1.0
 40
1.0
 40
1.0
 10
108.9335429883704
 20
130.3830722318827
 30
0.0
 10
108.9333208396809
 20
130.3831202543981
 30
0.0
 10
108.9207673834297
 20
130.385833970815
 30
0.0
 10
108.9698278066154
 20
130.373992354926
 30
0.0
 10
109.1149408253145
 20
130.3505563946201
 30
0.0
 10
109.387990201982
 20
130.3166473084117
 30
0.0
 10
109.7165165128366
 20
130.2830797072115
 30
0.0
 10
110.1092443474103
 20
130.2448966753132
 30
0.0
 10
110.6589722195745
 20
130.2059285903478
 30
0.0
 10
111.2849948311496
 20
130.1864669617111
 30
0.0
 10
111.8281866748042
 20
130.1842818056078
 30
0.0
 10
112.2732554234316
 20
130.1927965268733
 30
0.0
 10
112.7397032781814
 20
130.2125800770637
 30
0.0
 10
113.2769442033387
 20
130.2567399587349
 30
0.0
 10
113.9251571749442
 20
130.329159794246
 30
0.0
 10
114.5106963119724
 20
130.4100574523154
 30
0.0
 10
114.991665474902
 20
130.4882268139714
 30
0.0
 10
115.4370804768831
 20
130.5729973708221
 30
0.0
 10
115.8755805332794
 20
130.6667821451072
 30
0.0
 10
116.2146054201693
 20
130.744684370818
 30
0.0
 10
116.401946330858
 20
130.794875401552
 30
0.0
 10
116.4224364048579
 20
130.8015427438207
 30
0.0
 10
116.4320666744516
 20
130.8046763734757
 30
0.0
  0
LINE
  5
182
330
1F
100
AcDbEntity
  8
0
  6
HIDDEN
 62
     7
370
    18
100
AcDbLine
 10
147.7828753582
 20
103.0046588713
 30
0.0
 11
147.7828753582
 21
111.4046585718
 31
0.0
  0
LINE
  5
183
330
1F
100
AcDbEntity
  8
0
  6
HIDDEN
 62
     7
370
    18
100
AcDbLine
 10
149.0446814737
 20
105.1046587964
 30
0.0
 11
149.0446814737
 21
109.3046586467
 31
0.0
  0
LINE
  5
184
330
1F
100
AcDbEntity
  8
0
  6
HIDDEN
 62
     7
370
    18
100
AcDbLine
 10
198.1828735612
 20
104.2046586955
 30
0.0
 11
198.1828735612
 21
110.2046587476
 31
0.0
  0
SPLINE
  5
185
330
1F
100
AcDbEntity
  8
0
  6
HIDDEN
 62
     7
370
    18
100
AcDbSpline
210
0.0
220
0.0
230
1.0
 70
     8
 71
     3
 72
    12
 73
     8
 74
     0
 42
0.000000001
 43
0.00000001
 40
0.0
 40
0.0
 40
0.0
 40
0.0
 40
0.1993126148321079
 40
0.3980874812936352
 40
0.6103027424996522
 40
0.833639674008195
 40
1.0
 40
1.0
 40
1.0
 40
1.0
 10
167.1828740677938
 20
110.1440464118361
 30
0.0
 10
167.3414804249061
 20
110.1518129218275
 30
0.0
 10
167.6582652168429
 20
110.1673249876521
 30
0.0
 10
168.0871320102015
 20
110.2736288450057
 30
0.0
 10
168.4319654553574
 20
110.3941605999285
 30
0.0
 10
168.6527325026972
 20
110.4907996521567
 30
0.0
 10
168.6643135428509
 20
110.4962237068652
 30
0.0
 10
168.6692574462996
 20
110.4985392158716
 30
0.0
  0
LWPOLYLINE
  5
186
330
1F
100
AcDbEntity
  8
0
  6
HIDDEN
 62
     7
370
    18
100
AcDbPolyline
 90
       13
 70
   128
 43
0.0
 10
167.3459300242
 20
110.1569056483
 10
166.9942775211
 20
110.1500904625
 10
166.5632092795
 20
110.2086538887
 10
166.1773399851
 20
110.3112812126
 10
165.8639611147
 20
110.4263875605
 10
165.6992213271
 20
110.4972616741
 10
165.7059454761
 20
110.4942365056
 10
165.8528150461
 20
110.430966408
 10
166.1326029739
 20
110.3260484962
 10
166.5506923041
 20
110.2112608934
 10
167.0533345482
 20
110.1468995185
 10
167.1828740678
 20
110.1440464118
 10
167.1828740678
 20
110.1440464118
  0
SPLINE
  5
187
330
1F
100
AcDbEntity
  8
0
  6
HIDDEN
 62
     7
370
    18
100
AcDbSpline
210
0.0
220
0.0
230
1.0
 70
     8
 71
     3
 72
    17
 73
    13
 74
     0
 42
0.000000001
 43
0.00000001
 40
0.0
 40
0.0
 40
0.0
 40
0.0
 40
0.1002334719951458
 40
0.2002654754513822
 40
0.3055835657945803
 40
0.4172378370410219
 40
0.5227407975401279
 40
0.6183424161045081
 40
0.7161996067910203
 40
0.8240711470989018
 40
0.9353049477234858
 40
1.0
 40
1.0
 40
1.0
 40
1.0
 10
168.6828733823404
 20
103.9046587394416
 30
0.0
 10
168.667903550767
 20
103.9116002709594
 30
0.0
 10
168.6379939768711
 20
103.925469381568
 30
0.0
 10
168.406742355623
 20
104.0242923733686
 30
0.0
 10
168.0556711850847
 20
104.1468807298416
 30
0.0
 10
167.5922695004876
 20
104.2512773039517
 30
0.0
 10
167.0873960431939
 20
104.2773049472669
 30
0.0
 10
166.6204328874213
 20
104.2219078521527
 30
0.0
 10
166.2107030937767
 20
104.115354944398
 30
0.0
 10
165.8869436778215
 20
103.9955967964849
 30
0.0
 10
165.6975846237688
 20
103.9114182875735
 30
0.0
 10
165.7006252181358
 20
103.9127067588887
 30
0.0
 10
165.701743348609
 20
103.9131805738299
 30
0.0
  0
LINE
  5
188
330
1F
100
AcDbEntity
  8
0
  6
HIDDEN
 62
     7
370
    18
100
AcDbLine
 10
165.18287374
 20
104.3046587584
 30
0.0
 11
165.18287374
 21
110.1046586847
 31
0.0
  0
LINE
  5
189
330
1F
100
AcDbEntity
  8
0
  6
HIDDEN
 62
     7
370
    18
100
AcDbLine
 10
179.6828733227
 20
104.2046586955
 30
0.0
 11
179.6828733227
 21
110.2046587476
 31
0.0
  0
LINE
  5
18A
330
1F
100
AcDbEntity
  8
0
  6
HIDDEN
 62
     7
370
    18
100
AcDbLine
 10
161.3828764699
 20
94.6376712965
 30
0.0
 11
155.8828764997
 21
94.6376712965
 31
0.0
  0
LINE
  5
18B
330
1F
100
AcDbEntity
  8
0
  6
HIDDEN
 62
     7
370
    18
100
AcDbLine
 10
158.6328746221
 20
119.7716461466
 30
0.0
 11
161.3828764699
 21
119.7716461466
 31
0.0
  0
LINE
  5
18C
330
1F
100
AcDbEntity
  8
0
  6
HIDDEN
 62
     7
370
    18
100
AcDbLine
 10
155.8828764997
 20
119.7716461466
 30
0.0
 11
158.6328746221
 21
119.7716461466
 31
0.0
  0
LINE
  5
18D
330
1F
100
AcDbEntity
  8
0
  6
HIDDEN
 62
     7
370
    18
100
AcDbLine
 10
158.6328746221
 20
112.2046586098
 30
0.0
 11
161.3828764699
 21
112.2046586098
 31
0.0
  0
LINE
  5
18E
330
1F
100
AcDbEntity
  8
0
  6
HIDDEN
 62
     7
370
    18
100
AcDbLine
 10
155.8828764997
 20
112.2046586098
 30
0.0
 11
158.6328746221
 21
112.2046586098
 31
0.0
  0
LINE
  5
18F
330
1F
100
AcDbEntity
  8
0
  6
HIDDEN
 62
     7
370
    18
100
AcDbLine
 10
161.3828764699
 20
102.2046588333
 30
0.0
 11
155.8828764997
 21
102.2046588333
 31
0.0
  0
SPLINE
  5
190
330
1F
100
AcDbEntity
  8
0
  6
HIDDEN
 62
     7
370
    18
100
AcDbSpline
210
0.0
220
0.0
230
1.0
 70
     8
 71
     3
 72
    19
 73
    15
 74
     0
 42
0.000000001
 43
0.00000001
 40
0.0
 40
0.0
 40
0.0
 40
0.0
 40
0.0838018401816817
 40
0.1672280895982942
 40
0.2833469556183336
 40
0.401941645286491
 40
0.4680630087107409
 40
0.5348545580509888
 40
0.5919402568806634
 40
0.69237158649849
 40
0.798970867320969
 40
0.8954356366854239
 40
0.9925522975452867
 40
1.0
 40
1.0
 40
1.0
 40
1.0
 10
168.6828733823404
 20
113.7502675847947
 30
0.0
 10
168.6746399902324
 20
113.7604257316905
 30
0.0
 10
168.6582101071873
 20
113.7806964977687
 30
0.0
 10
168.5268754866143
 20
113.9464856772473
 30
0.0
 10
168.3264285637767
 20
114.2166445084859
 30
0.0
 10
168.1232423614409
 20
114.5460136147149
 30
0.0
 10
168.0112234171088
 20
114.8739911537544
 30
0.0
 10
168.0068076882702
 20
115.1465082546195
 30
0.0
 10
168.0978325720624
 20
115.4435665734889
 30
0.0
 10
168.2731347143593
 20
115.7385796836515
 30
0.0
 10
168.4805223075649
 20
116.0115252992292
 30
0.0
 10
168.6296762102829
 20
116.190703391898
 30
0.0
 10
168.6954289213511
 20
116.2668416386467
 30
0.0
 10
168.6807035602492
 20
116.2496633493771
 30
0.0
 10
168.6796547315226
 20
116.2484398083626
 30
0.0
  0
SPLINE
  5
191
330
1F
100
AcDbEntity
  8
0
  6
HIDDEN
 62
     7
370
    18
100
AcDbSpline
210
0.0
220
0.0
230
1.0
 70
     8
 71
     3
 72
     9
 73
     5
 74
     0
 42
0.000000001
 43
0.00000001
 40
0.0
 40
0.0
 40
0.0
 40
0.0
 40
0.8686285602896757
 40
1.0
 40
1.0
 40
1.0
 40
1.0
 10
165.688462688695
 20
116.251832616502
 30
0.0
 10
165.6954014996047
 20
116.2525794027262
 30
0.0
 10
165.7033897367259
 20
116.2534391329474
 30
0.0
 10
165.7500773933901
 20
116.2752336653316
 30
0.0
 10
165.7562108180628
 20
116.2780968444287
 30
0.0
  0
SPLINE
  5
192
330
1F
100
AcDbEntity
  8
0
  6
HIDDEN
 62
     7
370
    18
100
AcDbSpline
210
0.0
220
0.0
230
1.0
 70
     8
 71
     3
 72
    18
 73
    14
 74
     0
 42
0.000000001
 43
0.00000001
 40
0.0
 40
0.0
 40
0.0
 40
0.0
 40
0.0436851097714929
 40
0.1331061520468539
 40
0.2286361560647031
 40
0.3424060098168024
 40
0.4800379198442709
 40
0.5477351574974205
 40
0.615693537470866
 40
0.7077716254067175
 40
0.8521769811950934
 40
0.9725053718209122
 40
0.9999999999999999
 40
0.9999999999999999
 40
0.9999999999999999
 40
0.9999999999999999
 10
165.6934024236307
 20
113.8803863869845
 30
0.0
 10
165.6910477038983
 20
113.8776419321015
 30
0.0
 10
165.6838730010222
 20
113.8692797274315
 30
0.0
 10
165.7556851716675
 20
113.9529744849999
 30
0.0
 10
165.8931432133142
 20
114.1191273617024
 30
0.0
 10
166.0997820208414
 20
114.3921913256127
 30
0.0
 10
166.2925558729338
 20
114.712964017432
 30
0.0
 10
166.3659697391567
 20
115.0450487100264
 30
0.0
 10
166.3361379818992
 20
115.3300160576259
 30
0.0
 10
166.1927348869518
 20
115.6682212015275
 30
0.0
 10
165.9760967579235
 20
115.9919002784925
 30
0.0
 10
165.8216525229959
 20
116.1947983693284
 30
0.0
 10
165.7664738770046
 20
116.265033352874
 30
0.0
 10
165.7562108180628
 20
116.2780968444287
 30
0.0
  0
LINE
  5
193
330
1F
100
AcDbEntity
  8
0
  6
HIDDEN
 62
     7
370
    18
100
AcDbLine
 10
168.6828733823
 20
118.204658662
 30
0.0
 11
165.6828747532
 21
118.204658662
 31
0.0
  0
LWPOLYLINE
  5
194
330
1F
100
AcDbEntity
  8
0
  6
HIDDEN
 62
     7
370
    18
100
AcDbPolyline
 90
       14
 70
   128
 43
0.0
 10
168.6796547315
 20
98.1608776348
 10
168.6504596315
 20
98.1949686976
 10
168.5537548206
 20
98.310470392
 10
168.3533155761
 20
98.5684048356
 10
168.1335644267
 20
98.9210547851
 10
168.0365392408
 20
99.1794502335
 10
168.012838944
 20
99.4183661388
 10
168.0548117898
 20
99.6533788713
 10
168.2055258594
 20
99.9883844489
 10
168.4566588543
 20
100.3669079365
 10
168.6082744441
 20
100.5654728943
 10
168.6757841549
 20
100.6502479287
 10
168.6828733823
 20
100.6590498583
 10
168.6828733823
 20
100.6590498583
  0
LINE
  5
195
330
1F
100
AcDbEntity
  8
0
  6
HIDDEN
 62
     7
370
    18
100
AcDbLine
 10
167.1828740678
 20
96.7046588631
 30
0.0
 11
168.6828733823
 21
96.7046588631
 31
0.0
  0
LINE
  5
196
330
1F
100
AcDbEntity
  8
0
  6
HIDDEN
 62
     7
370
    18
100
AcDbLine
 10
165.6828747532
 20
96.7046588631
 30
0.0
 11
167.1828740678
 21
96.7046588631
 31
0.0
  0
SPLINE
  5
197
330
1F
100
AcDbEntity
  8
0
  6
HIDDEN
 62
     7
370
    18
100
AcDbSpline
210
0.0
220
0.0
230
1.0
 70
     8
 71
     3
 72
     9
 73
     5
 74
     0
 42
0.000000001
 43
0.00000001
 40
0.0
 40
0.0
 40
0.0
 40
0.0
 40
0.9127673271160514
 40
1.0
 40
1.0
 40
1.0
 40
1.0
 10
165.7562108180628
 20
98.13122059869163
 30
0.0
 10
165.7128980793692
 20
98.14772979940933
 30
0.0
 10
165.6654459659918
 20
98.16581677538585
 30
0.0
 10
165.6866159724469
 20
98.15815332948758
 30
0.0
 10
165.688462688695
 20
98.15748482661836
 30
0.0
  0
SPLINE
  5
198
330
1F
100
AcDbEntity
  8
0
  6
HIDDEN
 62
     7
370
    18
100
AcDbSpline
210
0.0
220
0.0
230
1.0
 70
     8
 71
     3
 72
    17
 73
    13
 74
     0
 42
0.000000001
 43
0.00000001
 40
0.0
 40
0.0
 40
0.0
 40
0.0
 40
0.1236626477753597
 40
0.2464323666432987
 40
0.3531989338141485
 40
0.4234333053200926
 40
0.4941244831528032
 40
0.5801598133101363
 40
0.7140609295238144
 40
0.8512841487734106
 40
0.9473212972763101
 40
1.0
 40
1.0
 40
1.0
 40
1.0
 10
165.7562108180628
 20
98.13122059869163
 30
0.0
 10
165.8098581547669
 20
98.1999397681133
 30
0.0
 10
165.9167654577073
 20
98.33688190754661
 30
0.0
 10
166.1317434947148
 20
98.6459975189124
 30
0.0
 10
166.294304562717
 20
98.9554400115348
 30
0.0
 10
166.3657774386988
 20
99.25459187493102
 30
0.0
 10
166.3395550172291
 20
99.53985085227987
 30
0.0
 10
166.2020339699243
 20
99.86215498656054
 30
0.0
 10
165.9783696137412
 20
100.1844050983754
 30
0.0
 10
165.7847666171626
 20
100.4223148089915
 30
0.0
 10
165.6873312628586
 20
100.5360218478931
 30
0.0
 10
165.6918143922404
 20
100.5307857920447
 30
0.0
 10
165.6934024236307
 20
100.5289310561358
 30
0.0
  0
LWPOLYLINE
  5
199
330
1F
100
AcDbEntity
  8
0
  6
HIDDEN
 62
     7
370
    18
100
AcDbPolyline
 90
        9
 70
   128
 43
0.0
 10
165.6615549169
 20
100.5403416203
 10
165.6644494674
 20
100.4666414084
 10
165.6727941177
 20
100.2542388597
 10
165.685605391
 20
99.9281995902
 10
165.7013708196
 20
99.5269997949
 10
165.7182240329
 20
99.0979855852
 10
165.7341831765
 20
98.6917845877
 10
165.7473632536
 20
98.3563343035
 10
165.7562108181
 20
98.1312205987
  0
LWPOLYLINE
  5
19A
330
1F
100
AcDbEntity
  8
0
  6
HIDDEN
 62
     7
370
    18
100
AcDbPolyline
 90
        9
 70
   128
 43
0.0
 10
165.6615549169
 20
113.8689758228
 10
165.6644494674
 20
113.9426760347
 10
165.6727941177
 20
114.1550785834
 10
165.685605391
 20
114.481117853
 10
165.7013708196
 20
114.8823176483
 10
165.7182240329
 20
115.3113318579
 10
165.7341831765
 20
115.7175328554
 10
165.7473632536
 20
116.0529831396
 10
165.7562108181
 20
116.2780968444
  0
SPLINE
  5
19B
330
1F
100
AcDbEntity
  8
0
  6
HIDDEN
 62
     7
370
    18
100
AcDbSpline
210
0.0
220
0.0
230
1.0
 70
     8
 71
     3
 72
     8
 73
     4
 74
     0
 42
0.000000001
 43
0.00000001
 40
0.0
 40
0.0
 40
0.0
 40
0.0
 40
0.000159097695343
 40
0.000159097695343
 40
0.000159097695343
 40
0.000159097695343
 10
91.06804300088385
 20
91.40316828552851
 30
0.0
 10
91.0229915303795
 20
91.37518940120474
 30
0.0
 10
90.9779354919647
 20
91.34721787082967
 30
0.0
 10
90.93287499166583
 20
91.31925353147714
 30
0.0
  0
SPLINE
  5
19C
330
1F
100
AcDbEntity
  8
0
  6
HIDDEN
 62
     7
370
    18
100
AcDbSpline
210
0.0
220
0.0
230
1.0
 70
     8
 71
     3
 72
    11
 73
     7
 74
     0
 42
0.000000001
 43
0.00000001
 40
0.0
 40
0.0
 40
0.0
 40
0.0
 40
0.0008212909311456
 40
0.0008212909311456
 40
0.0008212909311456
 40
0.001642825724306
 40
0.001642825724306
 40
0.001642825724306
 40
0.001642825724306
 10
90.93287499166583
 20
91.31925353147714
 30
0.0
 10
90.74172997018366
 20
91.27596734262458
 30
0.0
 10
90.55031163450718
 20
91.2350308329873
 30
0.0
 10
90.35866555984603
 20
91.19642906160072
 30
0.0
 10
90.16696247830444
 20
91.15781580776364
 30
0.0
 10
89.97501735501892
 20
91.12153559847764
 30
0.0
 10
89.78287499166575
 20
91.08756869212611
 30
0.0
  0
LINE
  5
19D
330
1F
100
AcDbEntity
  8
0
  6
HIDDEN
 62
     7
370
    18
100
AcDbLine
 10
137.7728750399
 20
127.3405251996
 30
0.0
 11
137.7728750399
 21
127.0546594607
 31
0.0
  0
LINE
  5
19E
330
1F
100
AcDbEntity
  8
0
  6
HIDDEN
 62
     7
370
    18
100
AcDbLine
 10
141.5928752563
 20
127.3405251996
 30
0.0
 11
141.5928752563
 21
127.0546594607
 31
0.0
  0
LINE
  5
19F
330
1F
100
AcDbEntity
  8
0
  6
HIDDEN
 62
     7
370
    18
100
AcDbLine
 10
143.0748069129
 20
131.6633483367
 30
0.0
 11
143.0748069129
 21
127.0546594607
 31
0.0
  0
SPLINE
  5
1A0
330
1F
100
AcDbEntity
  8
0
  6
HIDDEN
 62
     7
370
    18
100
AcDbSpline
210
0.0
220
0.0
230
1.0
 70
     8
 71
     3
 72
    24
 73
    20
 74
     0
 42
0.000000001
 43
0.00000001
 40
0.0
 40
0.0
 40
0.0
 40
0.0
 40
0.25
 40
0.25
 40
0.374999999999999
 40
0.374999999999999
 40
0.4374999999999993
 40
0.4374999999999993
 40
0.4687499999999994
 40
0.4687499999999994
 40
0.4999999999999995
 40
0.4999999999999995
 40
0.5624999999999971
 40
0.5624999999999971
 40
0.6249999999999947
 40
0.6249999999999947
 40
0.7499999999999947
 40
0.7499999999999947
 40
1.0
 40
1.0
 40
1.0
 40
1.0
 10
89.84553836638922
 20
87.53010617677943
 30
0.0
 10
89.85929148505947
 20
87.6007562347697
 30
0.0
 10
89.87706405246533
 20
87.66735434753464
 30
0.0
 10
89.92931514402069
 20
87.74145236776783
 30
0.0
 10
89.95035021960224
 20
87.7627101749294
 30
0.0
 10
90.00325062723068
 20
87.77085610107564
 30
0.0
 10
90.02435630010861
 20
87.76991629767987
 30
0.0
 10
90.07040846878655
 20
87.74890030610253
 30
0.0
 10
90.08877894076996
 20
87.7379914999949
 30
0.0
 10
90.13033057583567
 20
87.70535658904754
 30
0.0
 10
90.15289724859257
 20
87.68386460867616
 30
0.0
 10
90.21567826505259
 20
87.61539866508986
 30
0.0
 10
90.24880802602048
 20
87.56932420688476
 30
0.0
 10
90.3057257125055
 20
87.4843163185501
 30
0.0
 10
90.32991173800927
 20
87.44403601736872
 30
0.0
 10
90.39511968838903
 20
87.32909979090277
 30
0.0
 10
90.42983574858027
 20
87.25851680575576
 30
0.0
 10
90.52305101891115
 20
87.05431104667716
 30
0.0
 10
90.56872355427183
 20
86.93141266434979
 30
0.0
 10
90.60702863777037
 20
86.81453938796221
 30
0.0
  0
SPLINE
  5
1A1
330
1F
100
AcDbEntity
  8
0
  6
HIDDEN
 62
     7
370
    18
100
AcDbSpline
210
0.0
220
0.0
230
1.0
 70
     8
 71
     3
 72
    11
 73
     7
 74
     0
 42
0.000000001
 43
0.00000001
 40
0.0
 40
0.0
 40
0.0
 40
0.0
 40
0.0005781862223978
 40
0.0005781862223978
 40
0.0005781862223978
 40
0.0011563724723928
 40
0.0011563724723928
 40
0.0011563724723928
 40
0.0011563724723928
 10
90.78287499166582
 20
119.8448010286069
 30
0.0
 10
90.61621443739021
 20
119.9093305400205
 30
0.0
 10
90.44955114048373
 20
119.9738332438643
 30
0.0
 10
90.28288455665351
 20
120.0383196922979
 30
0.0
 10
90.11621796439442
 20
120.1028061439929
 30
0.0
 10
89.94954809876853
 20
120.167276152721
 30
0.0
 10
89.78287499166579
 20
120.2317319194536
 30
0.0
  0
SPLINE
  5
1A2
330
1F
100
AcDbEntity
  8
0
  6
HIDDEN
 62
     7
370
    18
100
AcDbSpline
210
0.0
220
0.0
230
1.0
 70
     8
 71
     3
 72
    11
 73
     7
 74
     0
 42
0.000000001
 43
0.00000001
 40
0.0
 40
0.0
 40
0.0
 40
0.0
 40
0.0005778746105108
 40
0.0005778746105108
 40
0.0005778746105108
 40
0.0011557494857226
 40
0.0011557494857226
 40
0.0011557494857226
 40
0.0011557494857226
 10
89.7828749916658
 20
94.17743686607027
 30
0.0
 10
89.94954186807914
 20
94.24324899276412
 30
0.0
 10
90.11620858764059
 20
94.30910747290174
 30
0.0
 10
90.28287523568923
 20
94.37501504583238
 30
0.0
 10
90.4495419602079
 20
94.44092264900274
 30
0.0
 10
90.61620865462848
 20
94.50687975739125
 30
0.0
 10
90.78287499166582
 20
94.57288149731396
 30
0.0
  0
SPLINE
  5
1A3
330
1F
100
AcDbEntity
  8
0
  6
HIDDEN
 62
     7
370
    18
100
AcDbSpline
210
0.0
220
0.0
230
1.0
 70
     8
 71
     3
 72
    11
 73
     7
 74
     0
 42
0.000000001
 43
0.00000001
 40
0.0000000000000006
 40
0.0000000000000006
 40
0.0000000000000006
 40
0.0000000000000006
 40
0.0005780486062768
 40
0.0005780486062768
 40
0.0005780486062768
 40
0.0011560973514127
 40
0.0011560973514127
 40
0.0011560973514127
 40
0.0011560973514127
 10
89.7828749916658
 20
117.1854732232519
 30
0.0
 10
89.94954484771073
 20
117.1231013617374
 30
0.0
 10
90.11621255179497
 20
117.0607475014397
 30
0.0
 10
90.28287885624863
 20
116.9984279412536
 30
0.0
 10
90.44954519694237
 20
116.9361083675167
 30
0.0
 10
90.61621015357116
 20
116.8738231631972
 30
0.0
 10
90.78287499166584
 20
116.8115980426285
 30
0.0
  0
SPLINE
  5
1A4
330
1F
100
AcDbEntity
  8
0
  6
HIDDEN
 62
     7
370
    18
100
AcDbSpline
210
0.0
220
0.0
230
1.0
 70
     8
 71
     3
 72
    11
 73
     7
 74
     0
 42
0.000000001
 43
0.00000001
 40
0.0
 40
0.0
 40
0.0
 40
0.0
 40
0.0005782401583533
 40
0.0005782401583533
 40
0.0005782401583533
 40
0.0011564805960993
 40
0.0011564805960993
 40
0.0011564805960993
 40
0.0011564805960993
 10
90.78287499166582
 20
97.60383192916251
 30
0.0
 10
90.61622404131691
 20
97.54040647110172
 30
0.0
 10
90.44956444873428
 20
97.47705094744644
 30
0.0
 10
90.28289739630573
 20
97.41375336309649
 30
0.0
 10
90.11623025974191
 20
97.35045574679324
 30
0.0
 10
89.94955565229584
 20
97.28721595185252
 30
0.0
 10
89.78287499166578
 20
97.22401594521368
 30
0.0
  0
CIRCLE
  5
1A5
330
1F
100
AcDbEntity
  8
0
  6
HIDDEN
 62
     7
370
    18
100
AcDbCircle
 10
128.6828749917
 20
107.2046587216
 30
0.0
 40
5.0
  0
LINE
  5
1A6
330
1F
100
AcDbEntity
  8
0
  6
HIDDEN
 62
     7
370
    18
100
AcDbLine
 10
196.1576716445
 20
101.9887302974
 30
0.0
 11
195.6776828907
 21
101.4694858314
 31
0.0
  0
LINE
  5
1A7
330
1F
100
AcDbEntity
  8
0
  6
HIDDEN
 62
     7
370
    18
100
AcDbLine
 10
195.7562045596
 20
99.4710277738
 30
0.0
 11
196.2754504225
 21
98.9910427453
 31
0.0
  0
LINE
  5
1A8
330
1F
100
AcDbEntity
  8
0
  6
HIDDEN
 62
     7
370
    18
100
AcDbLine
 10
201.491609349
 20
102.1983011598
 30
0.0
 11
196.1576716445
 21
101.9887302974
 31
0.0
  0
LINE
  5
1A9
330
1F
100
AcDbEntity
  8
0
  6
HIDDEN
 62
     7
370
    18
100
AcDbLine
 10
196.2754504225
 20
98.9910427453
 30
0.0
 11
201.6093881271
 21
99.2006136076
 31
0.0
  0
LINE
  5
1AA
330
1F
100
AcDbEntity
  8
0
  6
HIDDEN
 62
     7
370
    18
100
AcDbLine
 10
201.6093881271
 20
99.2006136076
 30
0.0
 11
201.6828732035
 21
99.3402905734
 31
0.0
  0
LINE
  5
1AB
330
1F
100
AcDbEntity
  8
0
  6
HIDDEN
 62
     7
370
    18
100
AcDbLine
 10
201.6644404671
 20
101.9243754418
 30
0.0
 11
201.491609349
 21
102.1983011598
 31
0.0
  0
LINE
  5
1AC
330
1F
100
AcDbEntity
  8
0
  6
HIDDEN
 62
     7
370
    18
100
AcDbLine
 10
201.6093881271
 20
115.2087038355
 30
0.0
 11
196.2754504225
 21
115.4182746978
 31
0.0
  0
LINE
  5
1AD
330
1F
100
AcDbEntity
  8
0
  6
HIDDEN
 62
     7
370
    18
100
AcDbLine
 10
196.1576716445
 20
112.4205871457
 30
0.0
 11
201.491609349
 21
112.2110162834
 31
0.0
  0
LINE
  5
1AE
330
1F
100
AcDbEntity
  8
0
  6
HIDDEN
 62
     7
370
    18
100
AcDbLine
 10
201.491609349
 20
112.2110162834
 30
0.0
 11
201.6644404671
 21
112.4849420013
 31
0.0
  0
LINE
  5
1AF
330
1F
100
AcDbEntity
  8
0
  6
HIDDEN
 62
     7
370
    18
100
AcDbLine
 10
201.6828732035
 20
115.0690268697
 30
0.0
 11
201.6093881271
 21
115.2087038355
 31
0.0
  0
LINE
  5
1B0
330
1F
100
AcDbEntity
  8
0
  6
HIDDEN
 62
     7
370
    18
100
AcDbLine
 10
196.2754504225
 20
115.4182746978
 30
0.0
 11
195.7562045596
 21
114.9382896693
 31
0.0
  0
LINE
  5
1B1
330
1F
100
AcDbEntity
  8
0
  6
HIDDEN
 62
     7
370
    18
100
AcDbLine
 10
195.6776828907
 20
112.9398316117
 30
0.0
 11
196.1576716445
 21
112.4205871457
 31
0.0
  0
LINE
  5
1B2
330
1F
100
AcDbEntity
  8
0
  6
HIDDEN
 62
     7
370
    18
100
AcDbLine
 10
164.7828744195
 20
104.7046587774
 30
0.0
 11
165.18287374
 21
105.1046587964
 31
0.0
  0
LINE
  5
1B3
330
1F
100
AcDbEntity
  8
0
  6
HIDDEN
 62
     7
370
    18
100
AcDbLine
 10
165.18287374
 20
109.3046586467
 30
0.0
 11
164.7828744195
 21
109.7046586657
 31
0.0
  0
LINE
  5
1B4
330
1F
100
AcDbEntity
  8
0
  6
HIDDEN
 62
     7
370
    18
100
AcDbLine
 10
153.5828748188
 20
104.7046587774
 30
0.0
 11
164.7828744195
 21
104.7046587774
 31
0.0
  0
LINE
  5
1B5
330
1F
100
AcDbEntity
  8
0
  6
HIDDEN
 62
     7
370
    18
100
AcDbLine
 10
164.7828744195
 20
109.7046586657
 30
0.0
 11
153.5828748188
 21
109.7046586657
 31
0.0
  0
LINE
  5
1B6
330
1F
100
AcDbEntity
  8
0
  6
HIDDEN
 62
     7
370
    18
100
AcDbLine
 10
153.5828748188
 20
109.7046586657
 30
0.0
 11
153.1828754983
 21
109.3046586467
 31
0.0
  0
LINE
  5
1B7
330
1F
100
AcDbEntity
  8
0
  6
HIDDEN
 62
     7
370
    18
100
AcDbLine
 10
153.1828754983
 20
105.1046587964
 30
0.0
 11
153.5828748188
 21
104.7046587774
 31
0.0
  0
LINE
  5
1B8
330
1F
100
AcDbEntity
  8
0
  6
HIDDEN
 62
     7
370
    18
100
AcDbLine
 10
165.18287374
 20
105.1046587964
 30
0.0
 11
167.1828740678
 21
105.1046587964
 31
0.0
  0
LINE
  5
1B9
330
1F
100
AcDbEntity
  8
0
  6
HIDDEN
 62
     7
370
    18
100
AcDbLine
 10
167.1828740678
 20
109.3046586467
 30
0.0
 11
165.18287374
 21
109.3046586467
 31
0.0
  0
LINE
  5
1BA
330
1F
100
AcDbEntity
  8
0
  6
HIDDEN
 62
     7
370
    18
100
AcDbLine
 10
153.1828754983
 20
105.654658677
 30
0.0
 11
153.3638948045
 21
105.8356770519
 31
0.0
  0
LINE
  5
1BB
330
1F
100
AcDbEntity
  8
0
  6
HIDDEN
 62
     7
370
    18
100
AcDbLine
 10
153.3638948045
 20
108.5736403912
 30
0.0
 11
153.1828754983
 21
108.7546587661
 31
0.0
  0
LINE
  5
1BC
330
1F
100
AcDbEntity
  8
0
  6
HIDDEN
 62
     7
370
    18
100
AcDbLine
 10
166.9896656118
 20
105.8478684137
 30
0.0
 11
167.1828740678
 21
105.654658677
 31
0.0
  0
LINE
  5
1BD
330
1F
100
AcDbEntity
  8
0
  6
HIDDEN
 62
     7
370
    18
100
AcDbLine
 10
157.182876154
 20
105.9546587495
 30
0.0
 11
163.1828734121
 21
105.9546587495
 31
0.0
  0
LINE
  5
1BE
330
1F
100
AcDbEntity
  8
0
  6
HIDDEN
 62
     7
370
    18
100
AcDbLine
 10
163.1828734121
 20
108.4546586936
 30
0.0
 11
157.182876154
 21
108.4546586936
 31
0.0
  0
LINE
  5
1BF
330
1F
100
AcDbEntity
  8
0
  6
HIDDEN
 62
     7
370
    18
100
AcDbLine
 10
167.1828740678
 20
108.7546587661
 30
0.0
 11
166.9896656118
 21
108.5614490295
 31
0.0
  0
LINE
  5
1C0
330
1F
100
AcDbEntity
  8
0
  6
HIDDEN
 62
     7
370
    18
100
AcDbLine
 10
133.682875096
 20
119.5985989617
 30
0.0
 11
133.682875096
 21
121.5024914564
 31
0.0
  0
LINE
  5
1C1
330
1F
100
AcDbEntity
  8
0
  6
HIDDEN
 62
     7
370
    18
100
AcDbLine
 10
125.6828751817
 20
121.5053589987
 30
0.0
 11
125.6828751817
 21
119.5985989617
 31
0.0
  0
LINE
  5
1C2
330
1F
100
AcDbEntity
  8
0
  6
HIDDEN
 62
     7
370
    18
100
AcDbLine
 10
121.6828749917
 20
81.8807275938
 30
0.0
 11
121.7770357639
 21
82.550715466
 31
0.0
  0
LINE
  5
1C3
330
1F
100
AcDbEntity
  8
0
  6
HIDDEN
 62
     7
370
    18
100
AcDbLine
 10
121.7770357639
 20
131.8586019771
 30
0.0
 11
121.6828749917
 21
132.5285898493
 31
0.0
  0
ARC
  5
1C4
330
1F
100
AcDbEntity
  8
0
  6
HIDDEN
 62
     7
370
    18
100
AcDbCircle
 10
121.182868239
 20
82.6342211072
 30
0.0
 40
0.6000067526677343
100
AcDbArc
 50
352.0
 51
0.0
  0
ARC
  5
1C5
330
1F
100
AcDbEntity
  8
0
  6
HIDDEN
 62
     7
370
    18
100
AcDbCircle
 10
121.182868239
 20
82.6342211072
 30
0.0
 40
0.6000067526677242
100
AcDbArc
 50
0.0
 51
33.5571153394
  0
ARC
  5
1C6
330
1F
100
AcDbEntity
  8
0
  6
HIDDEN
 62
     7
370
    18
100
AcDbCircle
 10
121.182868239
 20
131.775096336
 30
0.0
 40
0.6000067526677323
100
AcDbArc
 50
348.75
 51
8.0
  0
LWPOLYLINE
  5
1C7
330
1F
100
AcDbEntity
  8
0
  6
HIDDEN
 62
     7
370
    18
100
AcDbPolyline
 90
        3
 70
   128
 43
0.0
 10
121.7713460306
 20
131.6580416607
 10
121.7372021988
 20
131.5454838769
 10
121.6828749917
 20
131.4434314119
  0
LINE
  5
1C8
330
1F
100
AcDbEntity
  8
0
  6
HIDDEN
 62
     7
370
    18
100
AcDbLine
 10
121.7828749891
 20
82.6342215733
 30
0.0
 11
121.7828749891
 21
131.7750958698
 31
0.0
  0
LINE
  5
1C9
330
1F
100
AcDbEntity
  8
0
  6
HIDDEN
 62
     7
370
    18
100
AcDbLine
 10
104.7653110168
 20
87.2046591686
 30
0.0
 11
108.9569825149
 21
87.2046591686
 31
0.0
  0
LINE
  5
1CA
330
1F
100
AcDbEntity
  8
0
  6
HIDDEN
 62
     7
370
    18
100
AcDbLine
 10
108.9569825149
 20
127.2046582745
 30
0.0
 11
104.7653110168
 21
127.2046582745
 31
0.0
  0
ARC
  5
1CB
330
1F
100
AcDbEntity
  8
0
  6
HIDDEN
 62
     7
370
    18
100
AcDbCircle
 10
104.765310557
 20
87.8046587216
 30
0.0
 40
0.6000000000000085
100
AcDbArc
 50
210.0
 51
270.0
  0
ARC
  5
1CC
330
1F
100
AcDbEntity
  8
0
  6
HIDDEN
 62
     7
370
    18
100
AcDbCircle
 10
104.765310557
 20
126.6046587216
 30
0.0
 40
0.5999999999999962
100
AcDbArc
 50
90.0
 51
150.0
  0
ARC
  5
1CD
330
1F
100
AcDbEntity
  8
0
  6
HIDDEN
 62
     7
370
    18
100
AcDbCircle
 10
115.4378769933
 20
95.2046587216
 30
0.0
 40
7.999999999999996
100
AcDbArc
 50
276.8737317617
 51
321.3178125465
  0
ARC
  5
1CE
330
1F
100
AcDbEntity
  8
0
  6
HIDDEN
 62
     7
370
    18
100
AcDbCircle
 10
115.4378769933
 20
119.2046587216
 30
0.0
 40
7.999999999999994
100
AcDbArc
 50
38.6821874535
 51
83.1187088915
  0
LINE
  5
1CF
330
1F
100
AcDbEntity
  8
0
  6
HIDDEN
 62
     7
370
    18
100
AcDbLine
 10
104.2456944875
 20
126.9046587841
 30
0.0
 11
102.6868504874
 21
124.2046596454
 31
0.0
  0
LINE
  5
1D0
330
1F
100
AcDbEntity
  8
0
  6
HIDDEN
 62
     7
370
    18
100
AcDbLine
 10
102.6868504874
 20
90.2046577977
 30
0.0
 11
104.2456944875
 21
87.504658659
 31
0.0
  0
LINE
  5
1D1
330
1F
100
AcDbEntity
  8
0
  6
HIDDEN
 62
     7
370
    18
100
AcDbLine
 10
133.682875096
 20
131.1502603786
 30
0.0
 11
133.682875096
 21
134.4789879368
 31
0.0
  0
LINE
  5
1D2
330
1F
100
AcDbEntity
  8
0
  6
HIDDEN
 62
     7
370
    18
100
AcDbLine
 10
125.6828751817
 20
134.4844585257
 30
0.0
 11
125.6828751817
 21
131.1502603786
 31
0.0
  0
ARC
  5
1D3
330
1F
100
AcDbEntity
  8
0
  6
HIDDEN
 62
     7
370
    18
100
AcDbCircle
 10
130.1328749917
 20
91.4796587216
 30
0.0
 40
1.500000000000028
100
AcDbArc
 50
238.211669383
 51
0.0
  0
ARC
  5
1D4
330
1F
100
AcDbEntity
  8
0
  6
HIDDEN
 62
     7
370
    18
100
AcDbCircle
 10
130.1328749917
 20
122.9296587216
 30
0.0
 40
1.500000000000028
100
AcDbArc
 50
0.0
 51
121.7883306171
  0
LINE
  5
1D5
330
1F
100
AcDbEntity
  8
0
  6
HIDDEN
 62
     7
370
    18
100
AcDbLine
 10
121.6828749917
 20
90.2046577977
 30
0.0
 11
129.3427009537
 21
90.2046577977
 31
0.0
  0
LINE
  5
1D6
330
1F
100
AcDbEntity
  8
0
  6
HIDDEN
 62
     7
370
    18
100
AcDbLine
 10
129.3427009537
 20
124.2046596454
 30
0.0
 11
121.6828749917
 21
124.2046596454
 31
0.0
  0
LINE
  5
1D7
330
1F
100
AcDbEntity
  8
0
  6
HIDDEN
 62
     7
370
    18
100
AcDbLine
 10
99.8828747711
 20
90.2046577977
 30
0.0
 11
102.6868504874
 21
90.2046577977
 31
0.0
  0
LINE
  5
1D8
330
1F
100
AcDbEntity
  8
0
  6
HIDDEN
 62
     7
370
    18
100
AcDbLine
 10
102.6868504874
 20
124.2046596454
 30
0.0
 11
95.8828741155
 21
124.2046596454
 31
0.0
  0
LINE
  5
1D9
330
1F
100
AcDbEntity
  8
0
  6
HIDDEN
 62
     7
370
    18
100
AcDbLine
 10
140.4828747205
 20
97.704659027
 30
0.0
 11
143.4828752122
 21
97.704659027
 31
0.0
  0
LINE
  5
1DA
330
1F
100
AcDbEntity
  8
0
  6
HIDDEN
 62
     7
370
    18
100
AcDbLine
 10
143.4828752122
 20
116.7046584161
 30
0.0
 11
140.4828747205
 21
116.7046584161
 31
0.0
  0
LINE
  5
1DB
330
1F
100
AcDbEntity
  8
0
  6
HIDDEN
 62
     7
370
    18
100
AcDbLine
 10
131.6328748531
 20
98.204659109
 30
0.0
 11
132.132874935
 21
98.7046582596
 31
0.0
  0
LINE
  5
1DC
330
1F
100
AcDbEntity
  8
0
  6
HIDDEN
 62
     7
370
    18
100
AcDbLine
 10
132.132874935
 20
115.7046591835
 30
0.0
 11
131.6328748531
 21
116.2046583341
 31
0.0
  0
LINE
  5
1DD
330
1F
100
AcDbEntity
  8
0
  6
HIDDEN
 62
     7
370
    18
100
AcDbLine
 10
132.132874935
 20
98.7046582596
 30
0.0
 11
140.4828747205
 21
98.7046582596
 31
0.0
  0
LINE
  5
1DE
330
1F
100
AcDbEntity
  8
0
  6
HIDDEN
 62
     7
370
    18
100
AcDbLine
 10
140.4828747205
 20
115.7046591835
 30
0.0
 11
132.132874935
 21
115.7046591835
 31
0.0
  0
LINE
  5
1DF
330
1F
100
AcDbEntity
  8
0
  6
HIDDEN
 62
     7
370
    18
100
AcDbLine
 10
126.6328749648
 20
138.7046592282
 30
0.0
 11
126.6328749648
 21
133.6046585785
 31
0.0
  0
LINE
  5
1E0
330
1F
100
AcDbEntity
  8
0
  6
HIDDEN
 62
     7
370
    18
100
AcDbLine
 10
116.8673128291
 20
83.1252874778
 30
0.0
 11
116.4328806504
 21
83.6043542223
 31
0.0
  0
LINE
  5
1E1
330
1F
100
AcDbEntity
  8
0
  6
HIDDEN
 62
     7
370
    18
100
AcDbLine
 10
108.9328770927
 20
84.0260421829
 30
0.0
 11
108.4504436172
 21
83.5469754385
 31
0.0
  0
LINE
  5
1E2
330
1F
100
AcDbEntity
  8
0
  6
HIDDEN
 62
     7
370
    18
100
AcDbLine
 10
108.4503216139
 20
130.8623364167
 30
0.0
 11
108.9328724361
 21
130.3832156556
 31
0.0
  0
LINE
  5
1E3
330
1F
100
AcDbEntity
  8
0
  6
HIDDEN
 62
     7
370
    18
100
AcDbLine
 10
116.4328750624
 20
130.8049147921
 30
0.0
 11
116.8674171372
 21
131.2840336906
 31
0.0
  0
LINE
  5
1E4
330
1F
100
AcDbEntity
  8
0
  6
HIDDEN
 62
     7
370
    18
100
AcDbLine
 10
147.7828753582
 20
103.0046588713
 30
0.0
 11
149.0446814737
 21
105.1046587964
 31
0.0
  0
LINE
  5
1E5
330
1F
100
AcDbEntity
  8
0
  6
HIDDEN
 62
     7
370
    18
100
AcDbLine
 10
149.0446814737
 20
109.3046586467
 30
0.0
 11
147.7828753582
 21
111.4046585718
 31
0.0
  0
LINE
  5
1E6
330
1F
100
AcDbEntity
  8
0
  6
HIDDEN
 62
     7
370
    18
100
AcDbLine
 10
143.4828752122
 20
103.0046588713
 30
0.0
 11
147.7828753582
 21
103.0046588713
 31
0.0
  0
LINE
  5
1E7
330
1F
100
AcDbEntity
  8
0
  6
HIDDEN
 62
     7
370
    18
100
AcDbLine
 10
147.7828753582
 20
111.4046585718
 30
0.0
 11
143.4828752122
 21
111.4046585718
 31
0.0
  0
ARC
  5
1E8
330
1F
100
AcDbEntity
  8
0
  6
HIDDEN
 62
     7
370
    18
100
AcDbCircle
 10
201.1828749917
 20
103.1679644735
 30
0.0
 40
0.5000000000000154
100
AcDbArc
 50
0.0
 51
80.0
  0
ARC
  5
1E9
330
1F
100
AcDbEntity
  8
0
  6
HIDDEN
 62
     7
370
    18
100
AcDbCircle
 10
201.1828749917
 20
111.2413529696
 30
0.0
 40
0.5000000000000014
100
AcDbArc
 50
280.0
 51
0.0
  0
LINE
  5
1EA
330
1F
100
AcDbEntity
  8
0
  6
HIDDEN
 62
     7
370
    18
100
AcDbLine
 10
116.4328750624
 20
83.6048366474
 30
0.0
 11
116.4328750624
 21
87.269257565
 31
0.0
  0
LINE
  5
1EB
330
1F
100
AcDbEntity
  8
0
  6
HIDDEN
 62
     7
370
    18
100
AcDbLine
 10
108.9328752301
 20
87.2090363847
 30
0.0
 11
108.9328752301
 21
84.0263644205
 31
0.0
  0
LINE
  5
1EC
330
1F
100
AcDbEntity
  8
0
  6
HIDDEN
 62
     7
370
    18
100
AcDbLine
 10
116.4328750624
 20
127.1400598781
 30
0.0
 11
116.4328750624
 21
130.8046223568
 31
0.0
  0
LINE
  5
1ED
330
1F
100
AcDbEntity
  8
0
  6
HIDDEN
 62
     7
370
    18
100
AcDbLine
 10
108.9328752301
 20
130.3830722319
 30
0.0
 11
108.9328752301
 21
127.2002810584
 31
0.0
  0
LINE
  5
1EE
330
1F
100
AcDbEntity
  8
0
  6
HIDDEN
 62
     7
370
    18
100
AcDbLine
 10
201.2697012565
 20
110.7489490388
 30
0.0
 11
198.1828735612
 21
110.2046587476
 31
0.0
  0
LINE
  5
1EF
330
1F
100
AcDbEntity
  8
0
  6
HIDDEN
 62
     7
370
    18
100
AcDbLine
 10
198.1828735612
 20
104.2046586955
 30
0.0
 11
201.2697012565
 21
103.6603684043
 31
0.0
  0
LINE
  5
1F0
330
1F
100
AcDbEntity
  8
0
  6
HIDDEN
 62
     7
370
    18
100
AcDbLine
 10
168.6828733823
 20
103.9046587394
 30
0.0
 11
178.7880995712
 21
103.9046587394
 31
0.0
  0
LINE
  5
1F1
330
1F
100
AcDbEntity
  8
0
  6
HIDDEN
 62
     7
370
    18
100
AcDbLine
 10
165.5828767858
 20
103.9046587394
 30
0.0
 11
165.7017433486
 21
103.9046587394
 31
0.0
  0
LINE
  5
1F2
330
1F
100
AcDbEntity
  8
0
  6
HIDDEN
 62
     7
370
    18
100
AcDbLine
 10
165.7022946916
 20
110.5046587037
 30
0.0
 11
165.5828767858
 21
110.5046587037
 31
0.0
  0
LINE
  5
1F3
330
1F
100
AcDbEntity
  8
0
  6
HIDDEN
 62
     7
370
    18
100
AcDbLine
 10
178.7880995712
 20
110.5046587037
 30
0.0
 11
168.6692574463
 21
110.5046587037
 31
0.0
  0
ARC
  5
1F4
330
1F
100
AcDbEntity
  8
0
  6
HIDDEN
 62
     7
370
    18
100
AcDbCircle
 10
165.5828749917
 20
104.3046587216
 30
0.0
 40
0.4000000000000057
100
AcDbArc
 50
180.0
 51
270.0
  0
ARC
  5
1F5
330
1F
100
AcDbEntity
  8
0
  6
HIDDEN
 62
     7
370
    18
100
AcDbCircle
 10
165.5828749917
 20
110.1046587216
 30
0.0
 40
0.4000000000000057
100
AcDbArc
 50
90.0
 51
180.0
  0
ARC
  5
1F6
330
1F
100
AcDbEntity
  8
0
  6
HIDDEN
 62
     7
370
    18
100
AcDbCircle
 10
178.7881009735
 20
104.3046587216
 30
0.0
 40
0.4000000000000074
100
AcDbArc
 50
270.0
 51
290.0
  0
ARC
  5
1F7
330
1F
100
AcDbEntity
  8
0
  6
HIDDEN
 62
     7
370
    18
100
AcDbCircle
 10
178.7881009735
 20
110.1046587216
 30
0.0
 40
0.4000000000000074
100
AcDbArc
 50
70.0
 51
90.0
  0
LINE
  5
1F8
330
1F
100
AcDbEntity
  8
0
  6
HIDDEN
 62
     7
370
    18
100
AcDbLine
 10
178.9249108574
 20
103.9287816239
 30
0.0
 11
179.6828733227
 21
104.2046586955
 31
0.0
  0
LINE
  5
1F9
330
1F
100
AcDbEntity
  8
0
  6
HIDDEN
 62
     7
370
    18
100
AcDbLine
 10
179.6828733227
 20
110.2046587476
 30
0.0
 11
178.9249108574
 21
110.4805358192
 31
0.0
  0
LINE
  5
1FA
330
1F
100
AcDbEntity
  8
0
  6
HIDDEN
 62
     7
370
    18
100
AcDbLine
 10
162.1328742645
 20
94.2046584533
 30
0.0
 11
161.3828764699
 21
94.6376712965
 31
0.0
  0
LINE
  5
1FB
330
1F
100
AcDbEntity
  8
0
  6
HIDDEN
 62
     7
370
    18
100
AcDbLine
 10
155.8828764997
 20
94.6376712965
 30
0.0
 11
155.1328749797
 21
94.2046584533
 31
0.0
  0
LINE
  5
1FC
330
1F
100
AcDbEntity
  8
0
  6
HIDDEN
 62
     7
370
    18
100
AcDbLine
 10
155.1328749797
 20
120.2046589898
 30
0.0
 11
155.8828764997
 21
119.7716461466
 31
0.0
  0
LINE
  5
1FD
330
1F
100
AcDbEntity
  8
0
  6
HIDDEN
 62
     7
370
    18
100
AcDbLine
 10
161.3828764699
 20
119.7716461466
 30
0.0
 11
162.1328742645
 21
120.2046589898
 31
0.0
  0
LINE
  5
1FE
330
1F
100
AcDbEntity
  8
0
  6
HIDDEN
 62
     7
370
    18
100
AcDbLine
 10
179.6828733227
 20
104.2046586955
 30
0.0
 11
198.1828735612
 21
104.2046586955
 31
0.0
  0
LINE
  5
1FF
330
1F
100
AcDbEntity
  8
0
  6
HIDDEN
 62
     7
370
    18
100
AcDbLine
 10
198.1828735612
 20
110.2046587476
 30
0.0
 11
179.6828733227
 21
110.2046587476
 31
0.0
  0
LINE
  5
200
330
1F
100
AcDbEntity
  8
0
  6
HIDDEN
 62
     7
370
    18
100
AcDbLine
 10
155.8828764997
 20
119.7716461466
 30
0.0
 11
155.8828764997
 21
112.2046586098
 31
0.0
  0
LINE
  5
201
330
1F
100
AcDbEntity
  8
0
  6
HIDDEN
 62
     7
370
    18
100
AcDbLine
 10
161.3828764699
 20
112.2046586098
 30
0.0
 11
161.3828764699
 21
119.7716461466
 31
0.0
  0
LINE
  5
202
330
1F
100
AcDbEntity
  8
0
  6
HIDDEN
 62
     7
370
    18
100
AcDbLine
 10
155.8828764997
 20
112.2046586098
 30
0.0
 11
158.6328746221
 21
110.5522921281
 31
0.0
  0
LINE
  5
203
330
1F
100
AcDbEntity
  8
0
  6
HIDDEN
 62
     7
370
    18
100
AcDbLine
 10
158.6328746221
 20
110.5522921281
 30
0.0
 11
161.3828764699
 21
112.2046586098
 31
0.0
  0
LINE
  5
204
330
1F
100
AcDbEntity
  8
0
  6
HIDDEN
 62
     7
370
    18
100
AcDbLine
 10
161.3828764699
 20
102.2046588333
 30
0.0
 11
158.6328746221
 21
103.857025315
 31
0.0
  0
LINE
  5
205
330
1F
100
AcDbEntity
  8
0
  6
HIDDEN
 62
     7
370
    18
100
AcDbLine
 10
158.6328746221
 20
103.857025315
 30
0.0
 11
155.8828764997
 21
102.2046588333
 31
0.0
  0
LINE
  5
206
330
1F
100
AcDbEntity
  8
0
  6
HIDDEN
 62
     7
370
    18
100
AcDbLine
 10
161.3828764699
 20
94.6376712965
 30
0.0
 11
161.3828764699
 21
102.2046588333
 31
0.0
  0
LINE
  5
207
330
1F
100
AcDbEntity
  8
0
  6
HIDDEN
 62
     7
370
    18
100
AcDbLine
 10
155.8828764997
 20
102.2046588333
 30
0.0
 11
155.8828764997
 21
94.6376712965
 31
0.0
  0
LINE
  5
208
330
1F
100
AcDbEntity
  8
0
  6
HIDDEN
 62
     7
370
    18
100
AcDbLine
 10
165.18287374
 20
109.7046586657
 30
0.0
 11
164.7828744195
 21
109.3046586467
 31
0.0
  0
LINE
  5
209
330
1F
100
AcDbEntity
  8
0
  6
HIDDEN
 62
     7
370
    18
100
AcDbLine
 10
164.7828744195
 20
105.1046587964
 30
0.0
 11
165.18287374
 21
104.7046587774
 31
0.0
  0
LINE
  5
20A
330
1F
100
AcDbEntity
  8
0
  6
HIDDEN
 62
     7
370
    18
100
AcDbLine
 10
149.0446814737
 20
105.1046587964
 30
0.0
 11
164.7828744195
 21
105.1046587964
 31
0.0
  0
LINE
  5
20B
330
1F
100
AcDbEntity
  8
0
  6
HIDDEN
 62
     7
370
    18
100
AcDbLine
 10
164.7828744195
 20
109.3046586467
 30
0.0
 11
149.0446814737
 21
109.3046586467
 31
0.0
  0
LINE
  5
20C
330
1F
100
AcDbEntity
  8
0
  6
HIDDEN
 62
     7
370
    18
100
AcDbLine
 10
165.6828747532
 20
113.880386387
 30
0.0
 11
165.6828747532
 21
110.4958798243
 31
0.0
  0
LINE
  5
20D
330
1F
100
AcDbEntity
  8
0
  6
HIDDEN
 62
     7
370
    18
100
AcDbLine
 10
165.6828747532
 20
118.204658662
 30
0.0
 11
165.6828747532
 21
116.2518326165
 31
0.0
  0
LINE
  5
20E
330
1F
100
AcDbEntity
  8
0
  6
HIDDEN
 62
     7
370
    18
100
AcDbLine
 10
168.6828733823
 20
116.2484398084
 30
0.0
 11
168.6828733823
 21
118.204658662
 31
0.0
  0
LINE
  5
20F
330
1F
100
AcDbEntity
  8
0
  6
HIDDEN
 62
     7
370
    18
100
AcDbLine
 10
168.6828733823
 20
110.4985862477
 30
0.0
 11
168.6828733823
 21
113.7502675848
 31
0.0
  0
LINE
  5
210
330
1F
100
AcDbEntity
  8
0
  6
HIDDEN
 62
     7
370
    18
100
AcDbLine
 10
165.6828747532
 20
98.1574848266
 30
0.0
 11
165.6828747532
 21
96.7046588631
 31
0.0
  0
LINE
  5
211
330
1F
100
AcDbEntity
  8
0
  6
HIDDEN
 62
     7
370
    18
100
AcDbLine
 10
165.6828747532
 20
103.9131686995
 30
0.0
 11
165.6828747532
 21
100.5289310561
 31
0.0
  0
LINE
  5
212
330
1F
100
AcDbEntity
  8
0
  6
HIDDEN
 62
     7
370
    18
100
AcDbLine
 10
168.6828733823
 20
100.6590498583
 30
0.0
 11
168.6828733823
 21
103.9046587394
 31
0.0
  0
LINE
  5
213
330
1F
100
AcDbEntity
  8
0
  6
HIDDEN
 62
     7
370
    18
100
AcDbLine
 10
168.6828733823
 20
96.7046588631
 30
0.0
 11
168.6828733823
 21
98.1608776348
 31
0.0
  0
LINE
  5
214
330
1F
100
AcDbEntity
  8
0
  6
HIDDEN
 62
     7
370
    18
100
AcDbLine
 10
165.6828747532
 20
96.7046588631
 30
0.0
 11
167.1828740678
 21
95.8033677162
 31
0.0
  0
LINE
  5
215
330
1F
100
AcDbEntity
  8
0
  6
HIDDEN
 62
     7
370
    18
100
AcDbLine
 10
167.1828740678
 20
95.8033677162
 30
0.0
 11
168.6828733823
 21
96.7046588631
 31
0.0
  0
LINE
  5
216
330
1F
100
AcDbEntity
  8
0
  6
HIDDEN
 62
     7
370
    18
100
AcDbLine
 10
168.6798186443
 20
98.1570005389
 30
0.0
 11
201.6828732035
 21
99.4536944637
 31
0.0
  0
LINE
  5
217
330
1F
100
AcDbEntity
  8
0
  6
HIDDEN
 62
     7
370
    18
100
AcDbLine
 10
201.6828732035
 20
101.9556231769
 30
0.0
 11
168.6828733823
 21
100.6590498583
 31
0.0
  0
LINE
  5
218
330
1F
100
AcDbEntity
  8
0
  6
HIDDEN
 62
     7
370
    18
100
AcDbLine
 10
168.6828733823
 20
113.7502675848
 30
0.0
 11
201.6828732035
 21
112.4536942663
 31
0.0
  0
LINE
  5
219
330
1F
100
AcDbEntity
  8
0
  6
HIDDEN
 62
     7
370
    18
100
AcDbLine
 10
201.6828732035
 20
114.9556229794
 30
0.0
 11
168.6798186443
 21
116.2523169042
 31
0.0
  0
LINE
  5
21A
330
1F
100
AcDbEntity
  8
0
  6
HIDDEN
 62
     7
370
    18
100
AcDbLine
 10
165.6615549169
 20
100.5403416203
 30
0.0
 11
164.9601311824
 21
99.2618182646
 31
0.0
  0
LINE
  5
21B
330
1F
100
AcDbEntity
  8
0
  6
HIDDEN
 62
     7
370
    18
100
AcDbLine
 10
164.9601311824
 20
99.2618182646
 30
0.0
 11
165.6854787312
 21
98.1554796891
 31
0.0
  0
LINE
  5
21C
330
1F
100
AcDbEntity
  8
0
  6
HIDDEN
 62
     7
370
    18
100
AcDbLine
 10
165.6854787312
 20
116.253837754
 30
0.0
 11
164.9601311824
 21
115.1474991785
 31
0.0
  0
LINE
  5
21D
330
1F
100
AcDbEntity
  8
0
  6
HIDDEN
 62
     7
370
    18
100
AcDbLine
 10
164.9601311824
 20
115.1474991785
 30
0.0
 11
165.6615549169
 21
113.8689758228
 31
0.0
  0
DIMENSION
  5
21E
330
1F
100
AcDbEntity
  8
VERMASSUNG
100
AcDbDimension
  2
_D
 10
81.9433260394
 20
75.7046587216
 30
0.0
 11
81.9433260394
 21
107.2046587216
 31
0.0
 70
   160
  1
HSK A %%c<>
 71
     2
 42
-1.0
  3
SLDDIMSTYLE0
100
AcDbAlignedDimension
 13
121.9828749917
 23
138.7046587216
 33
0.0
 14
121.9828749917
 24
75.7046587216
 34
0.0
 50
90.0
100
AcDbRotatedDimension
  0
DIMENSION
  5
22B
330
1F
100
AcDbEntity
  8
VERMASSUNG
100
AcDbDimension
  2
_D_1
 10
201.6828749917
 20
136.7046587216
 30
0.0
 11
183.4328749917
 21
136.7046587216
 31
0.0
 70
   160
  1
<>
 71
     2
 42
-1.0
  3
SLDDIMSTYLE1
100
AcDbAlignedDimension
 13
165.1828749917
 23
110.1046587216
 33
0.0
 14
201.6828749917
 24
115.8558777382
 34
0.0
100
AcDbRotatedDimension
  0
DIMENSION
  5
236
330
1F
100
AcDbEntity
  8
VERMASSUNG
100
AcDbDimension
  2
_D_2
 10
211.792764712
 20
110.2046587216
 30
0.0
 11
211.792764712
 21
107.2046587216
 31
0.0
 70
   160
  1
%%c<>
 71
     2
 42
-1.0
  3
SLDDIMSTYLE2
100
AcDbAlignedDimension
 13
198.1828749917
 23
104.2046587216
 33
0.0
 14
198.1828749917
 24
110.2046587216
 34
0.0
 50
90.0
100
AcDbRotatedDimension
  0
DIMENSION
  5
244
330
1F
100
AcDbEntity
  8
VERMASSUNG
100
AcDbDimension
  2
_D_3
 10
217.792764712
 20
117.7046587216
 30
0.0
 11
217.792764712
 21
107.2046587216
 31
0.0
 70
   160
  1
%%c<> 
 71
     2
 42
-1.0
  3
SLDDIMSTYLE0
100
AcDbAlignedDimension
 13
201.6828749917
 23
96.7046587216
 33
0.0
 14
201.6828749917
 24
117.7046587216
 34
0.0
 50
90.0
100
AcDbRotatedDimension
  0
DIMENSION
  5
250
330
1F
100
AcDbEntity
  8
VERMASSUNG
100
AcDbDimension
  2
_D_4
 10
223.792764712
 20
120.2046587216
 30
0.0
 11
223.792764712
 21
107.2046587216
 31
0.0
 70
   160
  1
%%c<>
 71
     2
 42
-1.0
  3
SLDDIMSTYLE0
100
AcDbAlignedDimension
 13
168.6828749917
 23
94.2046587216
 33
0.0
 14
168.6828749917
 24
120.2046587216
 34
0.0
 50
90.0
100
AcDbRotatedDimension
  0
DIMENSION
  5
25B
330
1F
100
AcDbEntity
  8
VERMASSUNG
100
AcDbDimension
  2
_D_5
 10
201.6828749917
 20
148.7046587216
 30
0.0
 11
161.6828749917
 21
148.7046587216
 31
0.0
 70
   160
  1
<>
 71
     2
 42
-1.0
  3
SLDDIMSTYLE0
100
AcDbAlignedDimension
 13
121.6828749917
 23
138.4046587216
 33
0.0
 14
201.6828749917
 24
115.8558777382
 34
0.0
100
AcDbRotatedDimension
  0
DIMENSION
  5
265
330
1F
100
AcDbEntity
  8
VERMASSUNG
100
AcDbDimension
  2
_D_6
 10
201.6828749917
 20
142.7046587216
 30
0.0
 11
174.6578749917
 21
142.7046587216
 31
0.0
 70
   160
  1
<>
 71
     2
 42
-1.0
  3
SLDDIMSTYLE0
100
AcDbAlignedDimension
 13
147.6328749917
 23
137.0510990453
 33
0.0
 14
201.6828749917
 24
115.8558777382
 34
0.0
100
AcDbRotatedDimension
  0
DIMENSION
  5
26F
330
1F
100
AcDbEntity
  8
VERMASSUNG
100
AcDbDimension
  2
_D_7
 10
201.6828749917
 20
154.7046587216
 30
0.0
 11
145.7328749917
 21
154.7046587216
 31
0.0
 70
   160
  1
<>
 71
     2
 42
-1.0
  3
SLDDIMSTYLE0
100
AcDbAlignedDimension
 13
89.7828749917
 23
126.895336468
 33
0.0
 14
201.6828749917
 24
115.8558777382
 34
0.0
100
AcDbRotatedDimension
  0
LINE
  5
279
330
1F
100
AcDbEntity
  8
VERMASSUNG
  6
CENTERX2
370
    18
100
AcDbLine
 10
87.8289299065
 20
107.2046587216
 30
0.0
 11
203.6828749917
 21
107.2046587216
 31
0.0
  0
OLE2FRAME
  5
27A
330
1F
100
AcDbEntity
  8
0
100
AcDbOle2Frame
 70
     2
  3
Paintbrush-Bild
 10
13.8511154363
 20
38.264191557
 30
0.0
 11
51.6290888628
 21
31.9806341108
 31
0.0
 71
     2
 72
     0
 73
     1
 90
    12928
310
80552BED0767C5B32B40DDAF6807D121434000000000000000006FFBDDFB85D0
310
4940DDAF6807D121434000000000000000006FFBDDFB85D04940416F4BD60AFB
310
3F4000000000000000002BED0767C5B32B40416F4BD60AFB3F40000000000000
310
0000000000000100000000010000010000000100000000000100000000320000
310
D0CF11E0A1B11AE1000000000000000000000000000000003E000300FEFF0900
310
0600000000000000000000000100000001000000000000000010000002000000
310
01000000FEFFFFFF0000000000000000FFFFFFFFFFFFFFFFFFFFFFFFFFFFFFFF
310
FFFFFFFFFFFFFFFFFFFFFFFFFFFFFFFFFFFFFFFFFFFFFFFFFFFFFFFFFFFFFFFF
310
FFFFFFFFFFFFFFFFFFFFFFFFFFFFFFFFFFFFFFFFFFFFFFFFFFFFFFFFFFFFFFFF
310
FFFFFFFFFFFFFFFFFFFFFFFFFFFFFFFFFFFFFFFFFFFFFFFFFFFFFFFFFFFFFFFF
310
FFFFFFFFFFFFFFFFFFFFFFFFFFFFFFFFFFFFFFFFFFFFFFFFFFFFFFFFFFFFFFFF
310
FFFFFFFFFFFFFFFFFFFFFFFFFFFFFFFFFFFFFFFFFFFFFFFFFFFFFFFFFFFFFFFF
310
FFFFFFFFFFFFFFFFFFFFFFFFFFFFFFFFFFFFFFFFFFFFFFFFFFFFFFFFFFFFFFFF
310
FFFFFFFFFFFFFFFFFFFFFFFFFFFFFFFFFFFFFFFFFFFFFFFFFFFFFFFFFFFFFFFF
310
FFFFFFFFFFFFFFFFFFFFFFFFFFFFFFFFFFFFFFFFFFFFFFFFFFFFFFFFFFFFFFFF
310
FFFFFFFFFFFFFFFFFFFFFFFFFFFFFFFFFFFFFFFFFFFFFFFFFFFFFFFFFFFFFFFF
310
FFFFFFFFFFFFFFFFFFFFFFFFFFFFFFFFFFFFFFFFFFFFFFFFFFFFFFFFFFFFFFFF
310
FFFFFFFFFFFFFFFFFFFFFFFFFFFFFFFFFFFFFFFFFFFFFFFFFFFFFFFFFFFFFFFF
310
FFFFFFFFFFFFFFFFFFFFFFFFFFFFFFFFFFFFFFFFFFFFFFFFFFFFFFFFFFFFFFFF
310
FFFFFFFFFFFFFFFFFFFFFFFFFFFFFFFFFFFFFFFFFFFFFFFFFFFFFFFFFFFFFFFF
310
FDFFFFFFFEFFFFFFFEFFFFFFFEFFFFFF05000000060000000700000008000000
310
090000000A0000000B0000000C0000000D0000000E0000000F00000010000000
310
11000000120000001300000014000000150000001600000017000000FEFFFFFF
310
FFFFFFFFFFFFFFFFFFFFFFFFFFFFFFFFFFFFFFFFFFFFFFFFFFFFFFFFFFFFFFFF
310
FFFFFFFFFFFFFFFFFFFFFFFFFFFFFFFFFFFFFFFFFFFFFFFFFFFFFFFFFFFFFFFF
310
FFFFFFFFFFFFFFFFFFFFFFFFFFFFFFFFFFFFFFFFFFFFFFFFFFFFFFFFFFFFFFFF
310
FFFFFFFFFFFFFFFFFFFFFFFFFFFFFFFFFFFFFFFFFFFFFFFFFFFFFFFFFFFFFFFF
310
FFFFFFFFFFFFFFFFFFFFFFFFFFFFFFFFFFFFFFFFFFFFFFFFFFFFFFFFFFFFFFFF
310
FFFFFFFFFFFFFFFFFFFFFFFFFFFFFFFFFFFFFFFFFFFFFFFFFFFFFFFFFFFFFFFF
310
FFFFFFFFFFFFFFFFFFFFFFFFFFFFFFFFFFFFFFFFFFFFFFFFFFFFFFFFFFFFFFFF
310
FFFFFFFFFFFFFFFFFFFFFFFFFFFFFFFFFFFFFFFFFFFFFFFFFFFFFFFFFFFFFFFF
310
FFFFFFFFFFFFFFFFFFFFFFFFFFFFFFFFFFFFFFFFFFFFFFFFFFFFFFFFFFFFFFFF
310
FFFFFFFFFFFFFFFFFFFFFFFFFFFFFFFFFFFFFFFFFFFFFFFFFFFFFFFFFFFFFFFF
310
FFFFFFFFFFFFFFFFFFFFFFFFFFFFFFFFFFFFFFFFFFFFFFFFFFFFFFFFFFFFFFFF
310
FFFFFFFFFFFFFFFFFFFFFFFFFFFFFFFFFFFFFFFFFFFFFFFFFFFFFFFFFFFFFFFF
310
FFFFFFFFFFFFFFFFFFFFFFFFFFFFFFFFFFFFFFFFFFFFFFFFFFFFFFFFFFFFFFFF
310
52006F006F007400200045006E00740072007900000000000000000000000000
310
0000000000000000000000000000000000000000000000000000000000000000
310
16000500FFFFFFFFFFFFFFFF020000000A00030000000000C000000000000046
310
000000000000000000000000F031098896A4D30103000000C000000000000000
310
01004F006C006500000000000000000000000000000000000000000000000000
310
0000000000000000000000000000000000000000000000000000000000000000
310
0A000200FFFFFFFFFFFFFFFFFFFFFFFF00000000000000000000000000000000
310
0000000000000000000000000000000000000000000000001400000000000000
310
010043006F006D0070004F0062006A0000000000000000000000000000000000
310
0000000000000000000000000000000000000000000000000000000000000000
310
120002010100000003000000FFFFFFFF00000000000000000000000000000000
310
0000000000000000000000000000000000000000010000004D00000000000000
310
01004F006C006500310030004E00610074006900760065000000000000000000
310
0000000000000000000000000000000000000000000000000000000000000000
310
1A000200FFFFFFFFFFFFFFFFFFFFFFFF00000000000000000000000000000000
310
0000000000000000000000000000000000000000040000002426000000000000
310
FEFFFFFF02000000FEFFFFFFFFFFFFFFFFFFFFFFFFFFFFFFFFFFFFFFFFFFFFFF
310
FFFFFFFFFFFFFFFFFFFFFFFFFFFFFFFFFFFFFFFFFFFFFFFFFFFFFFFFFFFFFFFF
310
FFFFFFFFFFFFFFFFFFFFFFFFFFFFFFFFFFFFFFFFFFFFFFFFFFFFFFFFFFFFFFFF
310
FFFFFFFFFFFFFFFFFFFFFFFFFFFFFFFFFFFFFFFFFFFFFFFFFFFFFFFFFFFFFFFF
310
FFFFFFFFFFFFFFFFFFFFFFFFFFFFFFFFFFFFFFFFFFFFFFFFFFFFFFFFFFFFFFFF
310
FFFFFFFFFFFFFFFFFFFFFFFFFFFFFFFFFFFFFFFFFFFFFFFFFFFFFFFFFFFFFFFF
310
FFFFFFFFFFFFFFFFFFFFFFFFFFFFFFFFFFFFFFFFFFFFFFFFFFFFFFFFFFFFFFFF
310
FFFFFFFFFFFFFFFFFFFFFFFFFFFFFFFFFFFFFFFFFFFFFFFFFFFFFFFFFFFFFFFF
310
FFFFFFFFFFFFFFFFFFFFFFFFFFFFFFFFFFFFFFFFFFFFFFFFFFFFFFFFFFFFFFFF
310
FFFFFFFFFFFFFFFFFFFFFFFFFFFFFFFFFFFFFFFFFFFFFFFFFFFFFFFFFFFFFFFF
310
FFFFFFFFFFFFFFFFFFFFFFFFFFFFFFFFFFFFFFFFFFFFFFFFFFFFFFFFFFFFFFFF
310
FFFFFFFFFFFFFFFFFFFFFFFFFFFFFFFFFFFFFFFFFFFFFFFFFFFFFFFFFFFFFFFF
310
FFFFFFFFFFFFFFFFFFFFFFFFFFFFFFFFFFFFFFFFFFFFFFFFFFFFFFFFFFFFFFFF
310
FFFFFFFFFFFFFFFFFFFFFFFFFFFFFFFFFFFFFFFFFFFFFFFFFFFFFFFFFFFFFFFF
310
FFFFFFFFFFFFFFFFFFFFFFFFFFFFFFFFFFFFFFFFFFFFFFFFFFFFFFFFFFFFFFFF
310
FFFFFFFFFFFFFFFFFFFFFFFFFFFFFFFFFFFFFFFFFFFFFFFFFFFFFFFFFFFFFFFF
310
0100000200000000000000000000000000000000000000000000000000000000
310
0000000000000000000000000000000000000000000000000000000000000000
310
0100FEFF030A0000FFFFFFFF0A00030000000000C00000000000004607000000
310
5042727573680007000000504272757368000700000050427275736800F439B2
310
7100000000000000000000000000000000000000000000000000000000000000
310
0000000000000000000000000000000000000000000000000000000000000000
310
0000000000000000000000000000000000000000000000000000000000000000
310
0000000000000000000000000000000000000000000000000000000000000000
310
0000000000000000000000000000000000000000000000000000000000000000
310
0000000000000000000000000000000000000000000000000000000000000000
310
0000000000000000000000000000000000000000000000000000000000000000
310
0000000000000000000000000000000000000000000000000000000000000000
310
0000000000000000000000000000000000000000000000000000000000000000
310
0000000000000000000000000000000000000000000000000000000000000000
310
0000000000000000000000000000000000000000000000000000000000000000
310
0000000000000000000000000000000000000000000000000000000000000000
310
20260000424D0E260000000000003E00000028000000B40200006E0000000100
310
01000000000000000000130B0000130B00000200000002000000000000FFFFFF
310
FFFFFFFFFFFFFFFFFFFFFFFFFFFFFFFFFFFFFFFFFFFFFFFFFFFFFFFFFFFFFFFF
310
FFFFFFFFFFFFFFFFFFFFFFFFFFFFFFFFFFFFFFFFFFFFFFFFFFFFFFFFFFFFFFFF
310
FFFFFFFFFFFFFFFFFFFFFFFFFFFFFFFFFFFFFFFFFFFFFFFFF000FFFFFFFFFFFF
310
FFFFFFFFFFFFFFFFFFFFFFFFFFFFFFFFFFFFFFFFFFFFFFFFFFFFFFFFFFFFFFFF
310
FFFFFFFFFFFFFFFFFFFFFFFFFFFFFFFFFFFFFFFFFFFFFFFFFFFFFFFFFFFFFFFF
310
FFFFFFFFFFFFFFFFFFFFFFFFFFFFFFFFF000FFFFFFFFFFFFFFFFFFFFFFFFFFFF
310
FFFFFFFFFFFFFFFFFFFFFFFFFFFFFFFFFFFFFFFFFFFFFFFFFFFFFFFFFFFFFFFF
310
FFFFFFFFFFFFFFFFFFFFFFFFFFFFFFFFFFFFFFFFFFFFFFFFFFFFFFFFFFFFFFFF
310
FFFFFFFFFFFFFFFFF000FFFFFFFFFFFFFFFFFFFFFFFFFFFFFFFFFFFFFFFFFFFF
310
FFFFFFFFFFFFFFFFFFFFFFFFFFFFFFFFFFFFFFFFFFFFFFFFFFFFFFFFFFFFFFFF
310
FFFFFFFFFFFFFFFFFFFFFFFFFFFFFFFFFFFFFFFFFFFFFFFFFFFFFFFFFFFFFFFF
310
F000FFFFFFFFFFFFFFFFFFFFFFFFFFFFFFFFFFFFFFFFFFFFFFFFFFFFFFFFFFFF
310
FFFFFFFFFFFFFFFFFFFFFFFFFFFFFFFFFFFFFFFFFFFFFFFFFFFFFFFFFFFFFFFF
310
FFFFFFFFFFFFFFFFFFFFFFFFFFFFFFFFFFFFFFFFFFFFFFFFF000FFFFFFFFFFFF
310
FFFFFFFFFFFFFFFFFFFFFFFFFFFFFFFFFFFFFFFFFFFFFFFFFFFFFFFFFFFFFFFF
310
FFFFFFFFFFFFFFFFFFFFFFFFFFFFFFFFFFFFFFFFFFFFFFFFFFFFFFFFFFFFFFFF
310
FFFFFFFFFFFFFFFFFFFFFFFFFFFFFFFFF000FFFFFFFFFFFFFFFFFFFFFFFFFFFF
310
FFFFFFFFFFFFFFFFFFFFFFFFFFFFFFFFFFFFFFFFFFFFFFFFFFFFFFFFFFFFFFFF
310
FFFFFFFFFFFFFFFFFFFFFFFFFFFFFFFFFFFFFFFFFFFFFFFFFFFFFFFFFFFFFFFF
310
FFFFFFFFFFFFFFFFF000FFFFFFFFFFFFFFFFFFFFFFFFFFFFFFFFFFFFFFFFFFFF
310
FFFFFFFFFFFFFFFFFFFFFFFFFFFFFFFFFFFFFFFFFFFFFFFFFFFFFFFFFFFFFFFF
310
FFFFFFFFFFFFFFFFFFFFFFFFFFFFFFFFFFFFFFFFFFFFFFFFFFFFFFFFFFFFFFFF
310
F000FFFFFFFFFFFFFFFFFFFFFFFFFFFFFFFFFFFFFFFFFFFFFFFFFFFFFFFFFFFF
310
FFFFFFFFFFFFFFFFFFFFFFFFFFFFFFFFFFFFFFFFFFFFFFFFFFFFFFFFFFFFFFFF
310
FFFFFFFFFFFFFFFFFFFFFFFFFFFFFFFFFFFFFFFFFFFFFFFFF000FFFFFFFFFFFF
310
FFFFFFFFFFFFFFFFFFFFFFFFFFFFFFFFFFFFFFFFFFFFFFFFFFFFFFFFFFFFFFFF
310
FFFFFFFFFFFFFFFFFFFFFFFFFFFFFFFFFFFFFFFFFFFFFFFFFFFFFFFFFFFFFFFF
310
FFFFFFFFFFFFFFFFFFFFFFFFFFFFFFFFF000FFFFFFFFFFFFFFFFFFFFFFFFFFFF
310
FFFFFFFFFFFFFFFFFFFFFFFFFFFFFFFFFFFFFFFFFFFFFFFFFFFFFFFFFFFFFFFF
310
FFFFFFFFFFFFFFFFFFFFFFFFFFFFFFFFFFFFFFFFFFFFFFFFFFFFFFFFFFFFFFFF
310
FFFFFFFFFFFFFFFFF000FFFFFFFFFFFFFFFFFFFFFFFFFFFFFFFFFFFFFFFFFFFF
310
FFFFFFFFFFFFFFFFFFFFFFFFFFFFFFFFFFFFFFFFFFFFFFFFFFFFFFFFFFFFFFFF
310
FFFFFFFFFFFFFFFFFFFFFFFFFFFFFFFFFFFFFFFFFFFFFFFFFFFFFFFFFFFFFFFF
310
F000FFFFFFFFFFFFFFFFFFFFFFFFFFFFFFFFFFFFFFFFFFFFFFFFFFFFFFFFFFFF
310
FFFFFFFFFFFFFFFFFFFFFFFFFFFFFFFFFFFFFFFFFFFFFFFFFFFFFFFFFFFFFFFF
310
FFFFFFFFFFFFFFFFFFFFFFFFFFFFFFFFFFFFFFFFFFFFFFFFF000FFFFFFFFFFFF
310
FFFFFFFFFFFFFFFFFFFFFFFFFFFFFFFFFFFFFFFFFFFFFFFFFFFFFFFFFFFFFFFF
310
FFFFFFFFFFFFFFFFFFFFFFFFFFFFFFFFFFFFFFFFFFFFFFFFFFFFFFFFFFFFFFFF
310
FFFFFFFFFFFFFFFFFFFFFFFFFFFFFFFFF000FFFFFFFFFFFFFFFFFFFFFFFFFFFF
310
FFFFFFFFFFFFFFFFFFFFFFFFFFFFFFFFFFFFFFFFFFFFFFFFFFFFFFFFFFFFFFFF
310
FFFFFFFFFFFFFFFFFFFFFFFFFFFFFFFFFFFFFFFFFFFFFFFFFFFFFFFFFFFFFFFF
310
FFFFFFFFFFFFFFFFF000FFFFFFFFFFFFFFFFFFFFFFFFFFFFFFFFFFFFFFFFFFFF
310
FFFFFFFFFFFFFFFFFFFFFFFFFFFFFFFFFFFFFFFFFFFFFFFFFFFFFFFFFFFFFFFF
310
FFFFFFFFFFFFFFFFFFFFFFFFFFFFFFFFFFFFFFFFFFFFFFFFFFFFFFFFFFFFFFFF
310
F000FFFFFFFFFFFFFFFFFFFFFFFFFFFFFFFFFFFFFFFFFFFFFFFFFFFFFFFFFFFF
310
FFFFFFFFFFFFFFFFFFFFFFFFFFFFFFFFFFFFFFFFFFFFFFFFFFFFFFFFFFFFFFFF
310
FFFFFFFFFFFFFFFFFFFFFFFFFFFFFFFFFFFFFFFFFFFFFFFFF000FFFFFFFFFFFF
310
FFFFFFFFFFFFFFFFFFFFFFFFFFFFFFFFFFFFFFFFFFFFFFFFFFFFFFFFFFFFFFFF
310
FFFFFFFFFFFFFFFFFFFFFFFFFFFFFFFFFFFFFFFFFFFFFFFFFFFFFFFFFFFFFFFF
310
FFFFFFFFFFFFFFFFFFFFFFFFFFFFFFFFF000FFFFFFFFFFFFFFFFFFFFFFFFFFFF
310
FFFFFFFFFFFFFFFFFFFFFFFFFFFFFFFFFFFFFFFFFFFFFFFFFFFFFFFFFFFFFFFF
310
FFFFFFFFFFFFFFFFFFFFFFFFFFFFFFFFFFFFFFFFFFFFFFFFFFFFFFFFFFFFFFFF
310
FFFFFFFFFFFFFFFFF000FFFFF80003FFFFFFFFFFFFFFFFFFFFFFFFFFFFFFFFFF
310
FFFFF00007FFFFFFFFFF00007FFFFFF800000000000000007FFFFFFFFFFFFFFF
310
FFFFFFFC001FFFFFFFFFFFFFFC001FFFFFFFFFFFFFFFFFFFFFFFFFFE0007FFFF
310
F000FFFF8000007FFFFFFFF8000FFFFFC0007FFFFF80007FFFFF0000007FFFFF
310
FFF8000007FFFFF800000000000000007FFFFFF0001FFFFFFFFFFFC00001FFFF
310
FFFFFFFFC00001FFFFFFFF000000000003FFFFE000007FFFF000FFFE0000000F
310
FFFFFFF0000FFFFF80007FFFFF80007FFFFC0000001FFFFFFFC0000001FFFFF8
310
00000000000000007FFFFFF0001FFFFFFFFFFE0000003FFFFFFFFFFE0000003F
310
FFFFFF000000000003FFFF0000000FFFF000FFF800000003FFFFFFF00007FFFF
310
80007FFFFF80007FFFF000000007FFFFFF000000003FFFF80000000000000000
310
7FFFFFF0001FFFFFFFFFF80000000FFFFFFFFFF80000000FFFFFFF0000000000
310
03FFFC00000003FFF000FFE000000000FFFFFFF00007FFFF80003FFFFF80007F
310
FFC000000001FFFFFC000000001FFFF800000000000000007FFFFFF0001FFFFF
310
FFFFE000000003FFFFFFFFE000000003FFFFFF000000000003FFF000000000FF
310
F000FF80000000007FFFFFF00007FFFF80003FFFFF80007FFF8000000000FFFF
310
F80000000007FFF800000000000000007FFFFFF0001FFFFFFFFFC000000001FF
310
FFFFFFC000000001FFFFFF000000000003FFC0000000007FF000FF0000000000
310
3FFFFFE00007FFFF00003FFFFF80007FFE00000000003FFFF00000000003FFF8
310
00000000000000007FFFFFF0001FFFFFFFFF8000000000FFFFFFFF8000000000
310
FFFFFF000000000003FF80000000003FF000FE00000000001FFFFFE00003FFFF
310
00003FFFFF80007FFC00000000001FFFE00000000001FFF8000001FFFE000000
310
7FFFFFF0001FFFFFFFFE00000000003FFFFFFE00000000003FFFFF0000000000
310
03FF00000000001FF000FC00000000000FFFFFE00003FFFF00001FFFFF80007F
310
F800000000001FFFC00000000000FFF8000001FFFE0000007FFFFFF0001FFFFF
310
FFFC00000000001FFFFFFC00000000001FFFFF000000000003FE00000000000F
310
F000F8000000000007FFFFE00003FFFF00001FFFFF80007FF800000000000FFF
310
800000000000FFF8000001FFFE0000007FFFFFF0001FFFFFFFF800000000000F
310
FFFFF800000000000FFFFF000000000003FC000000000007F000F80000000000
310
03FFFFC00003FFFE00001FFFFF80007FF0000000000007FF0000000000007FF8
310
000001FFFE0000007FFFFFF0001FFFFFFFF0000000000007FFFFF00000000000
310
07FFFF000000000003F8000000000003F000F0000000000003FFFFC00001FFFE
310
00001FFFFF80007FE0000000000007FE0000000000003FF8000001FFFE000000
310
7FFFFFF0001FFFFFFFF0000000000007FFFFF0000000000007FFFF0000000000
310
03F800001F800003F000E00001FFF00001FFFFC00001FFFE00000FFFFF80007F
310
E00001FFE00003FE00001FFF00003FF8000001FFFE0000007FFFFFF0001FFFFF
310
FFE000003E000003FFFFE000003E000003FFFF000000000003F00001FFF80001
310
F000E00007FFFC0001FFFFC00001FFFE00000FFFFF80007FC0000FFFFC0003FC
310
0000FFFFC0001FF8000001FFFE0000007FFFFFF0001FFFFFFFC00003FFE00001
310
FFFFC00003FFE00001FFFF0001FFFFFFFFF00007FFFE0001F000E0000FFFFF00
310
00FFFF800001FFFC00000FFFFF80007FC0001FFFFE0001FC0001FFFFE0001FF8
310
000001FFFE0000007FFFFFF0001FFFFFFF80000FFFF80000FFFF80000FFFF800
310
00FFFF0003FFFFFFFFE0000FFFFF8000F000C0003FFFFF8000FFFF800000FFFC
310
000007FFFF80007F80003FFFFF0001FC0003FFFFF0001FF8000001FFFE000000
310
7FFFFFF0001FFFFFFF80003FFFFE0000FFFF80003FFFFE0000FFFF0003FFFFFF
310
FFE0003FFFFF8000F000C0003FFFFF8000FFFF800000FFFC000007FFFF80007F
310
80007FFFFF8001F80007FFFFF8000FF8000001FFFE0000007FFFFFF0001FFFFF
310
FF00007FFFFF00007FFF00007FFFFF00007FFF0003FFFFFFFFE0003FFFFFC000
310
F000C0007FFFFFC000FFFF000000FFFC000007FFFF80007F8000FFFFFF8000F8
310
000FFFFFF8000FF8000001FFFE0000007FFFFFF0001FFFFFFF0000FFFFFF8000
310
7FFF0000FFFFFF80007FFF0003FFFFFFFFC0007FFFFFC00070008000FFFFFFC0
310
00FFFF000000FFF8000007FFFF80007F8000FFFFFF8000F8000FFFFFF8000FF8
310
000001FFFE0000007FFFFFF0001FFFFFFE0001FFFFFFC0003FFE0001FFFFFFC0
310
003FFF0003FFFFFFFFC0007FFFFFE00070008000FFFFFFC0007FFF0000007FF8
310
000003FFFF80007F0001FFFFFF8000F8000FFFFFF8000FF8000001FFFE000000
310
7FFFFFF0001FFFFFFE0001FFFFFFC0003FFE0001FFFFFFC0003FFF0003FFFFFF
310
FFC000FFFFFFE00070008000FFFFFFC0007FFF0000007FF8000003FFFF80007F
310
0001FFFFFF8000F8001FFFFFF8000FF8000001FFFE0000007FFFFFF0001FFFFF
310
FE0003FFFFFFE0003FFE0003FFFFFFE0003FFF0003FFFFFFFFC000FFFFFFE000
310
70008000FFFFFFC0007FFE0000007FF8000003FFFF80007F0001FFFFFF8000F0
310
001FFFFFF8000FF8000001FFFE0000007FFFFFF0001FFFFFFC0003FFFFFFE000
310
1FFC0003FFFFFFE0001FFF0003FFFFFFFFC000FFFFFFC00070008000FFFFFF80
310
007FFE0000007FF0000003FFFF80007F0001FFFFFF0000F0001FFFFFF8000FF8
310
000001FFFE0000007FFFFFF0001FFFFFFC0007FFFFFFF0001FFC0007FFFFFFF0
310
001FFF0003FFFFFFFFC000FFFFFFC00070008001FFFFFF0000FFFE0000003FF0
310
000001FFFF80007F0001FFFFFF0000F8001FFFFFF0000FF8000001FFFE000000
310
7FFFFFF0001FFFFFFC0007FFFFFFF0001FFC0007FFFFFFF0001FFF0003FFFFFF
310
FFC001FFFFFF80007000FFFFFFFFFE0000FFFE0008003FF0008001FFFF80007F
310
FFFFFFFFFC0000FFFFFFFFFFE0000FF8000001FFFE0000007FFFFFF0001FFFFF
310
F8000FFFFFFFF8000FF8000FFFFFFFF8000FFF0003FFFFFFFFFFFFFFFFFF0000
310
7000FFFFFFFFFC0000FFFC0008003FF0008001FFFF80007FFFFFFFFFF80001FF
310
FFFFFFFF80000FF8000001FFFE0000007FFFFFF0001FFFFFF8000FFFFFFFF800
310
0FF8000FFFFFFFF8000FFF0003FFFFFFFFFFFFFFFFFE0000F000FFFFFFFFE000
310
00FFFC000C003FE000C001FFFF80007FFFFFFFFFC00001FFFFFFFFFE00001FF8
310
000001FFFE0000007FFFFFF0001FFFFFF8000FFFFFFFF8000FF8000FFFFFFFF8
310
000FFF0003FFFFFFFFFFFFFFFFF00000F000FFFFFFFE000001FFFC000C001FE0
310
00C000FFFF80007FFFFFFFFE000001FFFFFFFFE000001FF80FFFFFFFFFFFFFC0
310
7FFFFFF0001FFFFFF8000FFFFFFFF8000FF8000FFFFFFFF8000FFF0003FFFFFF
310
FFFFFFFFFF800000F000FFFFFFC0000001FFFC001C001FE001C000FFFF80007F
310
FFFFFF80000003FFFFFFF80000001FF80FFFFFFFFFFFFFC07FFFFFF0001FFFFF
310
F8001FFFFFFFFC000FF8001FFFFFFFFC000FFF0003FFFFFFFFFFFFFFF0000001
310
F000FFFFF800000001FFF8001C001FE001C000FFFF80007FFFFFF800000003FF
310
FFFF800000003FF80FFFFFFFFFFFFFC07FFFFFF0001FFFFFF8001FFFFFFFFC00
310
0FF8001FFFFFFFFC000FFF0003FFFFFFFFFFFFFE00000001F000FFFFC0000000
310
03FFF8001E001FC001E000FFFF80007FFFFF8000000007FFFFFC000000003FF8
310
0FFFFFFFFFFFFFC07FFFFFF0001FFFFFF8001FFFFFFFFC000FF8001FFFFFFFFC
310
000FFF0003FFFFFFFFFFFFE000000003F000FFFE0000000007FFF8001E000FC0
310
01E0007FFF80007FFFFE0000000007FFFFE0000000007FF80FFFFFFFFFFFFFC0
310
7FFFFFF0001FFFFFF0001FFFFFFFFC0007F0001FFFFFFFFC0007FF0003FFFFFF
310
FFFFFF0000000003F000FFF80000000007FFF8001E000FC003E0007FFF80007F
310
FFF0000000000FFFFF8000000000FFF80FFFFFFFFFFFFFC07FFFFFF0001FFFFF
310
F0001FFFFFFFFC0007F0001FFFFFFFFC0007FF0003FFFFFFFFFFFC0000000007
310
F000FFE0000000000FFFF0003E000FC003E0007FFF80007FFFC0000000001FFF
310
FE0000000001FFF80FFFFFFFFFFFFFC07FFFFFF0001FFFFFF0001FFFFFFFFC00
310
07F0001FFFFFFFFC0007FF0003FFFFFFFFFFF0000000000FF000FFC000000000
310
1FFFF0003F000F8003F0003FFF80007FFF80000000003FFFF80000000003FFF8
310
0FFFFFFFFFFFFFC07FFFFFF0001FFFFFF0001FFFFFFFFC0007F0001FFFFFFFFC
310
0007FF0003FFFFFFFFFFE0000000001FF000FF00000000007FFFF0003F000780
310
03F0003FFF80007FFF00000000007FFFF00000000007FFF80FFFFFFFFFFFFFC0
310
7FFFFFF0001FFFFFF0001FFFFFFFFC0007F0001FFFFFFFFC0007FF0003FFFFFF
310
FFFF80000000007FF000FE0000000000FFFFE0003F00078007F0003FFF80007F
310
FE0000000001FFFFE0000000001FFFF80FFFFFFFFFFFFFC07FFFFFF0001FFFFF
310
F0001FFFFFFFFC0007F0001FFFFFFFFC0007FF0003FFFFFFFFFF0000000000FF
310
F000FC0000000003FFFFE0007F00078007F0003FFF80007FFC0000000007FFFF
310
C0000000007FFFF80FFFFFFFFFFFFFC07FFFFFF0001FFFFFF8001FFFFFFFFC00
310
0FF8001FFFFFFFFC000FFF0003FFFFFFFFFE0000000003FFF000FC000000000F
310
FFFFE0007F80070007F8001FFF80007FF8000000001FFFFF8000000001FFFFF8
310
0FFFFFFFFFFFFFC07FFFFFF0001FFFFFF8001FFFFFFFFC000FF8001FFFFFFFFC
310
000FFF0003FFFFFFFFFC000000000FFFF000F8000000007FFFFFE0007F800700
310
07F8001FFF80007FF000000000FFFFFF800000000FFFFFF80FFFFFFFFFFFFFC0
310
7FFFFFF0001FFFFFF8000FFFFFFFF8000FF8000FFFFFFFF8000FFF0003FFFFFF
310
FFFC000000007FFFF000F800000007FFFFFFC0007F8003000FF8001FFF80007F
310
F000000007FFFFFF000000007FFFFFF80FFFFFFFFFFFFFC07FFFFFF0001FFFFF
310
F8000FFFFFFFF8000FF8000FFFFFFFF8000FFF0003FFFFFFFFF80000000FFFFF
310
F000F0000000FFFFFFFFC000FF8003000FF8001FFF80007FE0000000FFFFFFFF
310
0000000FFFFFFFF8000001FFFE0000007FFFFFF0001FFFFFF8000FFFFFFFF800
310
0FF8000FFFFFFFF8000FFF0003FFFFFFFFF8000000FFFFFFF000F000000FFFFF
310
FFFFC000FFC002000FF8000FFF80007FE000001FFFFFFFFE000001FFFFFFFFF8
310
000001FFFE0000007FFFFFF0001FFFFFF8000FFFFFFFF8000FF8000FFFFFFFF8
310
000FFF0003FFFFFFFFF000001FFFFFFFF000E00000FFFFFFFFFFC000FFC00200
310
0FFC000FFF80007FE00001FFFFFFFFFE00001FFFFFFFFFF8000001FFFE000000
310
7FFFFFF0001FFFFFFC000FFFFFFFF8001FFC000FFFFFFFF8001FFF0003FFFFFF
310
FFF00001FFFFFFFFF000E00007FFFFFFFFFF8000FFC000001FFC000FFF80007F
310
C0000FFFFFFFFFFE0000FFFFFFFFFFF8000001FFFE0000007FFFFFF0001FFFFF
310
FC0007FFFFFFF0001FFC0007FFFFFFF0001FFF0003FFFFFFFFF00007FFFFFFFF
310
F000E0001FFFFFFFFFFF8000FFC000001FFC000FFF80007FC0003FFFFFFFFFFE
310
0001FFFFFFFFFFF8000001FFFE0000007FFFFFF0001FFFFFFC0007FFFFFFF000
310
1FFC0007FFFFFFF0001FFF0003FFFFFFFFF0001FFFFFFFFFF000E0003FFFFF00
310
03FF8001FFE000001FFC0007FF80007FC0007FFFFF0007FC0003FFFFF0003FF8
310
000001FFFE0000007FFFFFF0001FFFFFFC0003FFFFFFE0001FFC0003FFFFFFE0
310
001FFF0003FFFFFFFFF0003FFFFFFFFFF000E0003FFFFF0001FF8001FFE00000
310
1FFE0007FF80007FC0007FFFFE0003FC0007FFFFE0003FF8000001FFFE000000
310
7FFFFFF0001FFFFFFE0003FFFFFFE0003FFE0003FFFFFFE0003FFF0003FFFFFF
310
FFF0003FFFFF8001F000E0003FFFFF0001FF0001FFE000001FFE0007FF80007F
310
C0007FFFFE0003FC0007FFFFE0003FF8000001FFFE0000007FFFFFF0001FFFFF
310
FE0001FFFFFFC0003FFE0001FFFFFFC0003FFF0003FFFFFFFFF0003FFFFF0001
310
F000E0003FFFFF0003FF0001FFE000003FFE0007FF80007FC0007FFFFE0003FC
310
0007FFFFE0003FF8000001FFFE0000007FFFFFF0001FFFFFFF0001FFFFFFC000
310
7FFF0001FFFFFFC0007FFF0003FFFFFFFFF0003FFFFF0001F000E0003FFFFE00
310
03FF0003FFF000003FFE0003FF80007FC0007FFFFC0003FE0007FFFFE0003FF8
310
000001FFFE0000007FFFFFF0001FFFFFFF0000FFFFFF80007FFF0000FFFFFF80
310
007FFF0003FFFFFFFFF0003FFFFF0001F000E0003FFFFE0003FF0003FFF00000
310
3FFF0003FF80007FC0007FFFFC0007FE0007FFFFC0003FF8000001FFFE000000
310
7FFFFFF0001FFFFFFF80007FFFFF0000FFFF80007FFFFF0000FFFF0003FFFFFF
310
FFF0003FFFFF0003F000E0003FFFFC0003FE0003FFF000003FFF0003FF80007F
310
E0003FFFF80007FE0003FFFFC0007FF8000001FFFE0000007FFFFFF0001FFFFF
310
FF80003FFFFE0000FFFF80003FFFFE0000FFFF0003FFFFFFFFF0001FFFFE0003
310
F000F0001FFFF80003FE0003FFF000007FFF0001FF80007FE0003FFFF00007FE
310
0001FFFF80007FF8000001FFFE0000007FFFFFF0001FFFFFFFC0000FFFF80001
310
FFFFC0000FFFF80001FFFF0003FFFFFFFFF0001FFFFC0003F000F0000FFFF000
310
07FE0007FFF800007FFF0001FF80007FE0001FFFE00007FF0000FFFE00007FF8
310
000001FFFE0000007FFFFFF0001FFFFFFFC00003FFE00001FFFFC00003FFE000
310
01FFFF0003FFFFFFFFF8000FFFF80003F000F00003FFC00007FC0007FFF80000
310
7FFF8001FF80007FF00007FF80000FFF00007FF80000FFF8000001FFFE000000
310
7F80000000000001FFE000003E000003FFFFE000003E000003FFFF0003FFFFFF
310
FFF80003FFE00007F000F800000000000FFC0007FFF800007FFF8001FF80007F
310
F000000000000FFF000000000000FFF8000001FFFE0000007F80000000000001
310
FFF0000000000007FFFFF0000000000007FFFF0003FFFFFFFFFC00007E000007
310
F000F800000000000FFC0007FFF80000FFFF8000FF80007FF800000000001FFF
310
800000000001FFF8000001FFFE0000007F80000000000001FFF800000000000F
310
FFFFF800000000000FFFFF0003FFFFFFFFFC00000000000FF000FC0000000000
310
1FFC0007FFFC0000FFFF8000FF80007FF800000000003FFFC00000000001FFF8
310
000001FFFE0000007F80000000000001FFF800000000000FFFFFF80000000000
310
0FFFFF0003FFFFFFFFFE00000000001FF000FE00000000003FF8000FFFFC0000
310
FFFF8000FF80007FFC00000000003FFFC00000000003FFF8000001FFFE000000
310
7F80000000000001FFFC00000000001FFFFFFC00000000001FFFFF0003FFFFFF
310
FFFF00000000001FF000FF00000000003FF8000FFFFC0000FFFFC000FF80007F
310
FE00000000007FFFE00000000007FFF8000001FFFE0000007F80000000000001
310
FFFE00000000003FFFFFFE00000000003FFFFF0003FFFFFFFFFF80000000003F
310
F000FF80000000007FF8000FFFFC0001FFFFC0007F80007FFF0000000000FFFF
310
F0000000000FFFF800000000000000007F80000000000001FFFF8000000000FF
310
FFFFFF8000000000FFFFFF0003FFFFFFFFFFC0000000007FF000FFC000000000
310
FFF8000FFFFE0001FFFFC0007F80007FFF8000000001FFFFF8000000001FFFF8
310
00000000000000007F80000000000001FFFFC000000001FFFFFFFFC000000001
310
FFFFFF0003FFFFFFFFFFE000000000FFF000FFE000000003FFF0001FFFFE0001
310
FFFFC0007F80007FFFC000000007FFFFFE000000003FFFF80000000000000000
310
7F80000000000001FFFFE000000003FFFFFFFFE000000003FFFFFF0003FFFFFF
310
FFFFF000000003FFF000FFF80000000FFFF0001FFFFE0001FFFFE0007F80007F
310
FFF00000000FFFFFFF00000000FFFFF800000000000000007F80000000000001
310
FFFFF80000000FFFFFFFFFF80000000FFFFFFF0003FFFFFFFFFFFC0000000FFF
310
F000FFFE0000003FFFF0001FFFFE0003FFFFE0003F80007FFFFC0000003FFFFF
310
FFC0000003FFFFF800000000000000007F80000000000001FFFFFE0000003FFF
310
FFFFFFFE0000003FFFFFFF0003FFFFFFFFFFFF0000003FFFF000FFFF800000FF
310
FFF0001FFFFF0003FFFFE0003F80007FFFFF000001FFFFFFFFF800001FFFFFF8
310
00000000000000007F80000000000001FFFFFFC00001FFFFFFFFFFFFC00001FF
310
FFFFFF0003FFFFFFFFFFFFC00000FFFFF000FFFFF8000FFFFFFFFFFFFFFFFFFF
310
FFFFFFFFFFFFFFFFFFFFF0001FFFFFFFFFFF0000FFFFFFF80000000000000000
310
7FFFFFFFFFFFFFFFFFFFFFFC001FFFFFFFFFFFFFFC001FFFFFFFFFFFFFFFFFFF
310
FFFFFFFC001FFFFFF000FFFFFFFFFFFFFFFFFFFFFFFFFFFFFFFFFFFFFFFFFFFF
310
FFFFFFFFFFFFFFFFFFFFFFFFFFFFFFFFFFFFFFFFFFFFFFFFFFFFFFFFFFFFFFFF
310
FFFFFFFFFFFFFFFFFFFFFFFFFFFFFFFFFFFFFFFFFFFFFFFFFFFFFFFFFFFFFFFF
310
F000FFFFFFFFFFFFFFFFFFFFFFFFFFFFFFFFFFFFFFFFFFFFFFFFFFFFFFFFFFFF
310
FFFFFFFFFFFFFFFFFFFFFFFFFFFFFFFFFFFFFFFFFFFFFFFFFFFFFFFFFFFFFFFF
310
FFFFFFFFFFFFFFFFFFFFFFFFFFFFFFFFFFFFFFFFFFFFFFFFF000FFFFFFFFFFFF
310
FFFFFFFFFFFFFFFFFFFFFFFFFFFFFFFFFFFFFFFFFFFFFFFFFFFFFFFFFFFFFFFF
310
FFFFFFFFFFFFFFFFFFFFFFFFFFFFFFFFFFFFFFFFFFFFFFFFFFFFFFFFFFFFFFFF
310
FFFFFFFFFFFFFFFFFFFFFFFFFFFFFFFFF000FFFFFFFFFFFFFFFFFFFFFFFFFFFF
310
FFFFFFFFFFFFFFFFFFFFFFFFFFFFFFFFFFFFFFFFFFFFFFFFFFFFFFFFFFFFFFFF
310
FFFFFFFFFFFFFFFFFFFFFFFFFFFFFFFFFFFFFFFFFFFFFFFFFFFFFFFFFFFFFFFF
310
FFFFFFFFFFFFFFFFF000FFFFFFFFFFFFFFFFFFFFFFFFFFFFFFFFFFFFFFFFFFFF
310
FFFFFFFFFFFFFFFFFFFFFFFFFFFFFFFFFFFFFFFFFFFFFFFFFFFFFFFFFFFFFFFF
310
FFFFFFFFFFFFFFFFFFFFFFFFFFFFFFFFFFFFFFFFFFFFFFFFFFFFFFFFFFFFFFFF
310
F000FFFFFFFFFFFFFFFFFFFFFFFFFFFFFFFFFFFFFFFFFFFFFFFFFFFFFFFFFFFF
310
FFFFFFFFFFFFFFFFFFFFFFFFFFFFFFFFFFFFFFFFFFFFFFFFFFFFFFFFFFFFFFFF
310
FFFFFFFFFFFFFFFFFFFFFFFFFFFFFFFFFFFFFFFFFFFFFFFFF000FFFFFFFFFFFF
310
FFFFFFFFFFFFFFFFFFFFFFFFFFFFFFFFFFFFFFFFFFFFFFFFFFFFFFFFFFFFFFFF
310
FFFFFFFFFFFFFFFFFFFFFFFFFFFFFFFFFFFFFFFFFFFFFFFFFFFFFFFFFFFFFFFF
310
FFFFFFFFFFFFFFFFFFFFFFFFFFFFFFFFF000FFFFFFFFFFFFFFFFFFFFFFFFFFFF
310
FFFFFFFFFFFFFFFFFFFFFFFFFFFFFFFFFFFFFFFFFFFFFFFFFFFFFFFFFFFFFFFF
310
FFFFFFFFFFFFFFFFFFFFFFFFFFFFFFFFFFFFFFFFFFFFFFFFFFFFFFFFFFFFFFFF
310
FFFFFFFFFFFFFFFFF000FFFFFFFFFFFFFFFFFFFFFFFFFFFFFFFFFFFFFFFFFFFF
310
FFFFFFFFFFFFFFFFFFFFFFFFFFFFFFFFFFFFFFFFFFFFFFFFFFFFFFFFFFFFFFFF
310
FFFFFFFFFFFFFFFFFFFFFFFFFFFFFFFFFFFFFFFFFFFFFFFFFFFFFFFFFFFFFFFF
310
F000FFFFFFFFFFFFFFFFFFFFFFFFFFFFFFFFFFFFFFFFFFFFFFFFFFFFFFFFFFFF
310
FFFFFFFFFFFFFFFFFFFFFFFFFFFFFFFFFFFFFFFFFFFFFFFFFFFFFFFFFFFFFFFF
310
FFFFFFFFFFFFFFFFFFFFFFFFFFFFFFFFFFFFFFFFFFFFFFFFF000FFFFFFFFFFFF
310
FFFFFFFFFFFFFFFFFFFFFFFFFFFFFFFFFFFFFFFFFFFFFFFFFFFFFFFFFFFFFFFF
310
FFFFFFFFFFFFFFFFFFFFFFFFFFFFFFFFFFFFFFFFFFFFFFFFFFFFFFFFFFFFFFFF
310
FFFFFFFFFFFFFFFFFFFFFFFFFFFFFFFFF000FFFFFFFFFFFFFFFFFFFFFFFFFFFF
310
FFFFFFFFFFFFFFFFFFFFFFFFFFFFFFFFFFFFFFFFFFFFFFFFFFFFFFFFFFFFFFFF
310
FFFFFFFFFFFFFFFFFFFFFFFFFFFFFFFFFFFFFFFFFFFFFFFFFFFFFFFFFFFFFFFF
310
FFFFFFFFFFFFFFFFF000FFFFFFFFFFFFFFFFFFFFFFFFFFFFFFFFFFFFFFFFFFFF
310
FFFFFFFFFFFFFFFFFFFFFFFFFFFFFFFFFFFFFFFFFFFFFFFFFFFFFFFFFFFFFFFF
310
FFFFFFFFFFFFFFFFFFFFFFFFFFFFFFFFFFFFFFFFFFFFFFFFFFFFFFFFFFFFFFFF
310
F000FFFFFFFFFFFFFFFFFFFFFFFFFFFFFFFFFFFFFFFFFFFFFFFFFFFFFFFFFFFF
310
FFFFFFFFFFFFFFFFFFFFFFFFFFFFFFFFFFFFFFFFFFFFFFFFFFFFFFFFFFFFFFFF
310
FFFFFFFFFFFFFFFFFFFFFFFFFFFFFFFFFFFFFFFFFFFFFFFFF000FFFFFFFFFFFF
310
FFFFFFFFFFFFFFFFFFFFFFFFFFFFFFFFFFFFFFFFFFFFFFFFFFFFFFFFFFFFFFFF
310
FFFFFFFFFFFFFFFFFFFFFFFFFFFFFFFFFFFFFFFFFFFFFFFFFFFFFFFFFFFFFFFF
310
FFFFFFFFFFFFFFFFFFFFFFFFFFFFFFFFF000FFFFFFFFFFFFFFFFFFFFFFFFFFFF
310
FFFFFFFFFFFFFFFFFFFFFFFFFFFFFFFFFFFFFFFFFFFFFFFFFFFFFFFFFFFFFFFF
310
FFFFFFFFFFFFFFFFFFFFFFFFFFFFFFFFFFFFFFFFFFFFFFFFFFFFFFFFFFFFFFFF
310
FFFFFFFFFFFFFFFFF000FFFFFFFFFFFFFFFFFFFFFFFFFFFFFFFFFFFFFFFFFFFF
310
FFFFFFFFFFFFFFFFFFFFFFFFFFFFFFFFFFFFFFFFFFFFFFFFFFFFFFFFFFFFFFFF
310
FFFFFFFFFFFFFFFFFFFFFFFFFFFFFFFFFFFFFFFFFFFFFFFFFFFFFFFFFFFFFFFF
310
F000FFFFFFFFFFFFFFFFFFFFFFFFFFFFFFFFFFFFFFFFFFFFFFFFFFFFFFFFFFFF
310
FFFFFFFFFFFFFFFFFFFFFFFFFFFFFFFFFFFFFFFFFFFFFFFFFFFFFFFFFFFFFFFF
310
FFFFFFFFFFFFFFFFFFFFFFFFFFFFFFFFFFFFFFFFFFFFFFFFF000FFFFFFFFFFFF
310
FFFFFFFFFFFFFFFFFFFFFFFFFFFFFFFFFFFFFFFFFFFFFFFFFFFFFFFFFFFFFFFF
310
FFFFFFFFFFFFFFFFFFFFFFFFFFFFFFFFFFFFFFFFFFFFFFFFFFFFFFFFFFFFFFFF
310
FFFFFFFFFFFFFFFFFFFFFFFFFFFFFFFFF000FFFFFFFFFFFFFFFFFFFFFFFFFFFF
310
FFFFFFFFFFFFFFFFFFFFFFFFFFFFFFFFFFFFFFFFFFFFFFFFFFFFFFFFFFFFFFFF
310
FFFFFFFFFFFFFFFFFFFFFFFFFFFFFFFFFFFFFFFFFFFFFFFFFFFFFFFFFFFFFFFF
310
FFFFFFFFFFFFFFFFF000FFFFFFFFFFFFFFFFFFFFFFFFFFFFFFFFFFFFFFFFFFFF
310
FFFFFFFFFFFFFFFFFFFFFFFFFFFFFFFFFFFFFFFFFFFFFFFFFFFFFFFFFFFFFFFF
310
FFFFFFFFFFFFFFFFFFFFFFFFFFFFFFFFFFFFFFFFFFFFFFFFFFFFFFFFFFFFFFFF
310
F000FFFFFFFFFFFFFFFFFFFFFFFFFFFFFFFFFFFFFFFFFFFFFFFFFFFFFFFFFFFF
310
FFFFFFFFFFFFFFFFFFFFFFFFFFFFFFFFFFFFFFFFFFFFFFFFFFFFFFFFFFFFFFFF
310
FFFFFFFFFFFFFFFFFFFFFFFFFFFFFFFFFFFFFFFFFFFFFFFFF000FFFFFFFFFFFF
310
FFFFFFFFFFFFFFFFFFFFFFFFFFFFFFFFFFFFFFFFFFFFFFFFFFFFFFFFFFFFFFFF
310
FFFFFFFFFFFFFFFFFFFFFFFFFFFFFFFFFFFFFFFFFFFFFFFFFFFFFFFFFFFFFFFF
310
FFFFFFFFFFFFFFFFFFFFFFFFFFFFFFFFF0000000000000000000000000000000
310
0000000000000000000000000000000000000000000000000000000000000000
310
0000000000000000000000000000000000000000000000000000000000000000
310
0000000000000000000000000000000000000000000000000000000000000000
310
0000000000000000000000000000000000000000000000000000000000000000
310
0000000000000000000000000000000000000000000000000000000000000000
310
0000000000000000000000000000000000000000000000000000000000000000
310
0000000000000000000000000000000000000000000000000000000000000000
310
0000000000000000000000000000000000000000000000000000000000000000
310
0000000000000000000000000000000000000000000000000000000000000000
310
0000000000000000000000000000000000000000000000000000000000000000
310
0000000000000000000000000000000000000000000000000000000000000000
310
0000000000000000000000000000000000000000000000000000000000000000
310
0000000000000000000000000000000000000000000000000000000000000000
310
0000000000000000000000000000000000000000000000000000000000000000
310
0000000000000000000000000000000000000000000000000000000000000000
  1
OLE
  0
ENDSEC
  0
SECTION
  2
OBJECTS
  0
DICTIONARY
  5
C
330
0
100
AcDbDictionary
281
     1
  3
ACAD_GROUP
350
D
  3
ACAD_LAYOUT
350
1A
  3
ACAD_MLINESTYLE
350
17
  3
ACAD_PLOTSETTINGS
350
19
  3
ACAD_PLOTSTYLENAME
350
E
  3
ACAD_SCALELIST
350
47
  0
DICTIONARY
  5
D
102
{ACAD_REACTORS
330
C
102
}
330
C
100
AcDbDictionary
281
     1
  0
DICTIONARY
  5
1A
102
{ACAD_REACTORS
330
C
102
}
330
C
100
AcDbDictionary
281
     1
  3
Layout1
350
1E
  3
Layout2
350
26
  3
Model
350
22
  0
DICTIONARY
  5
17
102
{ACAD_REACTORS
330
C
102
}
330
C
100
AcDbDictionary
281
     1
  3
Standard
350
18
  0
DICTIONARY
  5
19
102
{ACAD_REACTORS
330
C
102
}
330
C
100
AcDbDictionary
281
     1
  0
ACDBDICTIONARYWDFLT
  5
E
102
{ACAD_REACTORS
330
C
102
}
330
C
100
AcDbDictionary
281
     1
  3
Normal
350
F
100
AcDbDictionaryWithDefault
340
F
  0
DICTIONARY
  5
47
102
{ACAD_REACTORS
330
C
102
}
330
C
100
AcDbDictionary
281
     1
  3
A0
350
48
  3
A1
350
49
  3
A2
350
4A
  3
A3
350
4B
  3
A4
350
4C
  3
A5
350
4D
  3
A6
350
4E
  3
A7
350
4F
  3
A8
350
50
  3
A9
350
51
  3
B0
350
52
  3
B1
350
53
  3
B2
350
54
  3
B3
350
55
  3
B4
350
56
  3
B5
350
57
  3
B6
350
58
  3
B7
350
59
  3
B8
350
5A
  3
B9
350
5B
  3
C0
350
5C
  3
C1
350
5D
  3
C2
350
5E
  3
C3
350
5F
  3
C4
350
60
  3
C5
350
61
  3
C6
350
62
  3
C7
350
63
  3
C8
350
64
  3
C9
350
65
  3
D0
350
66
  3
D1
350
67
  3
D2
350
68
  0
LAYOUT
  5
1E
102
{ACAD_REACTORS
330
1A
102
}
330
1A
100
AcDbPlotSettings
  1

  2
none_device
  4

  6

 40
0.0
 41
0.0
 42
0.0
 43
0.0
 44
0.0
 45
0.0
 46
0.0
 47
0.0
 48
0.0
 49
0.0
140
0.0
141
0.0
142
1.0
143
1.0
 70
   688
 72
     1
 73
     0
 74
     5
  7

 75
    16
147
1.0
148
0.0
149
0.0
100
AcDbLayout
  1
Layout1
 70
     1
 71
     1
 10
0.0
 20
0.0
 11
420.0
 21
297.0
 12
0.0
 22
0.0
 32
0.0
 14
1.0000000000E+20
 24
1.0000000000E+20
 34
1.0000000000E+20
 15
-1.0000000000E+20
 25
-1.0000000000E+20
 35
-1.0000000000E+20
146
0.0
 13
0.0
 23
0.0
 33
0.0
 16
1.0
 26
0.0
 36
0.0
 17
0.0
 27
1.0
 37
0.0
 76
     0
330
1B
  0
LAYOUT
  5
26
102
{ACAD_REACTORS
330
1A
102
}
330
1A
100
AcDbPlotSettings
  1

  2
none_device
  4

  6

 40
0.0
 41
0.0
 42
0.0
 43
0.0
 44
0.0
 45
0.0
 46
0.0
 47
0.0
 48
0.0
 49
0.0
140
0.0
141
0.0
142
1.0
143
1.0
 70
   688
 72
     1
 73
     0
 74
     5
  7

 75
    16
147
1.0
148
0.0
149
0.0
100
AcDbLayout
  1
Layout2
 70
     1
 71
     2
 10
0.0
 20
0.0
 11
0.0
 21
0.0
 12
0.0
 22
0.0
 32
0.0
 14
0.0
 24
0.0
 34
0.0
 15
0.0
 25
0.0
 35
0.0
146
0.0
 13
0.0
 23
0.0
 33
0.0
 16
1.0
 26
0.0
 36
0.0
 17
0.0
 27
1.0
 37
0.0
 76
     0
330
23
  0
LAYOUT
  5
22
102
{ACAD_REACTORS
330
1A
102
}
330
1A
100
AcDbPlotSettings
  1

  2
none_device
  4
Letter_(8.50_x_11.00_Inches)
  6

 40
6.35
 41
6.35
 42
6.35000508
 43
6.35000508
 44
215.9
 45
279.4
 46
0.0
 47
0.0
 48
0.0
 49
0.0
140
0.0
141
0.0
142
1.0
143
1.0
 70
  1712
 72
     1
 73
     0
 74
     0
  7

 75
     0
147
1.0
148
0.0
149
0.0
100
AcDbLayout
  1
Model
 70
     1
 71
     0
 10
0.0
 20
0.0
 11
297.0
 21
210.0
 12
0.0
 22
0.0
 32
0.0
 14
0.0
 24
0.0
 34
0.0
 15
297.0
 25
210.0
 35
0.0
146
0.0
 13
0.0
 23
0.0
 33
0.0
 16
1.0
 26
0.0
 36
0.0
 17
0.0
 27
1.0
 37
0.0
 76
     0
330
1F
331
29
  0
MLINESTYLE
  5
18
102
{ACAD_REACTORS
330
17
102
}
330
17
100
AcDbMlineStyle
  2
Standard
 70
     0
  3

 62
   256
 51
90.0
 52
90.0
 71
     2
 49
0.5
 62
   256
  6
BYLAYER
 49
-0.5
 62
   256
  6
BYLAYER
  0
ACDBPLACEHOLDER
  5
F
102
{ACAD_REACTORS
330
E
102
}
330
E
  0
SCALE
  5
48
102
{ACAD_REACTORS
330
47
102
}
330
47
100
AcDbScale
 70
     0
300
1:1
140
1.0
141
1.0
290
     1
  0
SCALE
  5
49
102
{ACAD_REACTORS
330
47
102
}
330
47
100
AcDbScale
 70
     0
300
1:2
140
1.0
141
2.0
290
     0
  0
SCALE
  5
4A
102
{ACAD_REACTORS
330
47
102
}
330
47
100
AcDbScale
 70
     0
300
1:4
140
1.0
141
4.0
290
     0
  0
SCALE
  5
4B
102
{ACAD_REACTORS
330
47
102
}
330
47
100
AcDbScale
 70
     0
300
1:5
140
1.0
141
5.0
290
     0
  0
SCALE
  5
4C
102
{ACAD_REACTORS
330
47
102
}
330
47
100
AcDbScale
 70
     0
300
1:8
140
1.0
141
8.0
290
     0
  0
SCALE
  5
4D
102
{ACAD_REACTORS
330
47
102
}
330
47
100
AcDbScale
 70
     0
300
1:10
140
1.0
141
10.0
290
     0
  0
SCALE
  5
4E
102
{ACAD_REACTORS
330
47
102
}
330
47
100
AcDbScale
 70
     0
300
1:16
140
1.0
141
16.0
290
     0
  0
SCALE
  5
4F
102
{ACAD_REACTORS
330
47
102
}
330
47
100
AcDbScale
 70
     0
300
1:20
140
1.0
141
20.0
290
     0
  0
SCALE
  5
50
102
{ACAD_REACTORS
330
47
102
}
330
47
100
AcDbScale
 70
     0
300
1:30
140
1.0
141
30.0
290
     0
  0
SCALE
  5
51
102
{ACAD_REACTORS
330
47
102
}
330
47
100
AcDbScale
 70
     0
300
1:40
140
1.0
141
40.0
290
     0
  0
SCALE
  5
52
102
{ACAD_REACTORS
330
47
102
}
330
47
100
AcDbScale
 70
     0
300
1:50
140
1.0
141
50.0
290
     0
  0
SCALE
  5
53
102
{ACAD_REACTORS
330
47
102
}
330
47
100
AcDbScale
 70
     0
300
1:100
140
1.0
141
100.0
290
     0
  0
SCALE
  5
54
102
{ACAD_REACTORS
330
47
102
}
330
47
100
AcDbScale
 70
     0
300
2:1
140
2.0
141
1.0
290
     0
  0
SCALE
  5
55
102
{ACAD_REACTORS
330
47
102
}
330
47
100
AcDbScale
 70
     0
300
4:1
140
4.0
141
1.0
290
     0
  0
SCALE
  5
56
102
{ACAD_REACTORS
330
47
102
}
330
47
100
AcDbScale
 70
     0
300
8:1
140
8.0
141
1.0
290
     0
  0
SCALE
  5
57
102
{ACAD_REACTORS
330
47
102
}
330
47
100
AcDbScale
 70
     0
300
10:1
140
10.0
141
1.0
290
     0
  0
SCALE
  5
58
102
{ACAD_REACTORS
330
47
102
}
330
47
100
AcDbScale
 70
     0
300
100:1
140
100.0
141
1.0
290
     0
  0
SCALE
  5
59
102
{ACAD_REACTORS
330
47
102
}
330
47
100
AcDbScale
 70
     0
300
1/128" = 1'-0"
140
0.0078125
141
12.0
290
     0
  0
SCALE
  5
5A
102
{ACAD_REACTORS
330
47
102
}
330
47
100
AcDbScale
 70
     0
300
1/64" = 1'-0"
140
0.015625
141
12.0
290
     0
  0
SCALE
  5
5B
102
{ACAD_REACTORS
330
47
102
}
330
47
100
AcDbScale
 70
     0
300
1/32" = 1'-0"
140
0.03125
141
12.0
290
     0
  0
SCALE
  5
5C
102
{ACAD_REACTORS
330
47
102
}
330
47
100
AcDbScale
 70
     0
300
1/16" = 1'-0"
140
0.0625
141
12.0
290
     0
  0
SCALE
  5
5D
102
{ACAD_REACTORS
330
47
102
}
330
47
100
AcDbScale
 70
     0
300
3/32" = 1'-0"
140
0.09375
141
12.0
290
     0
  0
SCALE
  5
5E
102
{ACAD_REACTORS
330
47
102
}
330
47
100
AcDbScale
 70
     0
300
1/8" = 1'-0"
140
0.125
141
12.0
290
     0
  0
SCALE
  5
5F
102
{ACAD_REACTORS
330
47
102
}
330
47
100
AcDbScale
 70
     0
300
3/16" = 1'-0"
140
0.1875
141
12.0
290
     0
  0
SCALE
  5
60
102
{ACAD_REACTORS
330
47
102
}
330
47
100
AcDbScale
 70
     0
300
1/4" = 1'-0"
140
0.25
141
12.0
290
     0
  0
SCALE
  5
61
102
{ACAD_REACTORS
330
47
102
}
330
47
100
AcDbScale
 70
     0
300
3/8" = 1'-0"
140
0.375
141
12.0
290
     0
  0
SCALE
  5
62
102
{ACAD_REACTORS
330
47
102
}
330
47
100
AcDbScale
 70
     0
300
1/2" = 1'-0"
140
0.5
141
12.0
290
     0
  0
SCALE
  5
63
102
{ACAD_REACTORS
330
47
102
}
330
47
100
AcDbScale
 70
     0
300
3/4" = 1'-0"
140
0.75
141
12.0
290
     0
  0
SCALE
  5
64
102
{ACAD_REACTORS
330
47
102
}
330
47
100
AcDbScale
 70
     0
300
1" = 1'-0"
140
1.0
141
12.0
290
     0
  0
SCALE
  5
65
102
{ACAD_REACTORS
330
47
102
}
330
47
100
AcDbScale
 70
     0
300
1-1/2" = 1'-0"
140
1.5
141
12.0
290
     0
  0
SCALE
  5
66
102
{ACAD_REACTORS
330
47
102
}
330
47
100
AcDbScale
 70
     0
300
3" = 1'-0"
140
3.0
141
12.0
290
     0
  0
SCALE
  5
67
102
{ACAD_REACTORS
330
47
102
}
330
47
100
AcDbScale
 70
     0
300
6" = 1'-0"
140
6.0
141
12.0
290
     0
  0
SCALE
  5
68
102
{ACAD_REACTORS
330
47
102
}
330
47
100
AcDbScale
 70
     0
300
1'-0" = 1'-0"
140
12.0
141
12.0
290
     0
  0
ENDSEC
  0
EOF
