  0
SECTION
  2
HEADER
  9
$ACADVER
  1
AC1015
  9
$ACADMAINTVER
 70
     6
  9
$DWGCODEPAGE
  3
ANSI_1252
  9
$INSBASE
 10
0.0
 20
0.0
 30
0.0
  9
$EXTMIN
 10
0.0
 20
0.0
 30
0.0
  9
$EXTMAX
 10
297.0
 20
210.0
 30
0.0
  9
$LIMMIN
 10
0.0
 20
0.0
  9
$LIMMAX
 10
297.0
 20
210.0
  9
$ORTHOMODE
 70
     0
  9
$REGENMODE
 70
     1
  9
$FILLMODE
 70
     1
  9
$QTEXTMODE
 70
     0
  9
$MIRRTEXT
 70
     1
  9
$LTSCALE
 40
1.0
  9
$ATTMODE
 70
     1
  9
$TEXTSIZE
 40
2.0
  9
$TRACEWID
 40
1.0
  9
$TEXTSTYLE
  7
Standard
  9
$CLAYER
  8
0
  9
$CELTYPE
  6
ByLayer
  9
$CECOLOR
 62
   256
  9
$CELTSCALE
 40
1.0
  9
$DISPSILH
 70
     0
  9
$DIMSCALE
 40
1.0
  9
$DIMASZ
 40
3.0
  9
$DIMEXO
 40
0.0
  9
$DIMDLI
 40
3.75
  9
$DIMRND
 40
0.0
  9
$DIMDLE
 40
0.0
  9
$DIMEXE
 40
1.0
  9
$DIMTP
 40
0.0
  9
$DIMTM
 40
0.0
  9
$DIMTXT
 40
2.0
  9
$DIMCEN
 40
2.5
  9
$DIMTSZ
 40
0.0
  9
$DIMTOL
 70
     0
  9
$DIMLIM
 70
     0
  9
$DIMTIH
 70
     1
  9
$DIMTOH
 70
     1
  9
$DIMSE1
 70
     0
  9
$DIMSE2
 70
     0
  9
$DIMTAD
 70
     1
  9
$DIMZIN
 70
     0
  9
$DIMBLK
  1

  9
$DIMASO
 70
     1
  9
$DIMSHO
 70
     1
  9
$DIMPOST
  1

  9
$DIMAPOST
  1

  9
$DIMALT
 70
     0
  9
$DIMALTD
 70
     3
  9
$DIMALTF
 40
0.0393700787
  9
$DIMLFAC
 40
1.0
  9
$DIMTOFL
 70
     1
  9
$DIMTVP
 40
0.0
  9
$DIMTIX
 70
     0
  9
$DIMSOXD
 70
     0
  9
$DIMSAH
 70
     0
  9
$DIMBLK1
  1

  9
$DIMBLK2
  1

  9
$DIMSTYLE
  2
ISO-25
  9
$DIMCLRD
 70
     0
  9
$DIMCLRE
 70
     0
  9
$DIMCLRT
 70
     0
  9
$DIMTFAC
 40
1.0
  9
$DIMGAP
 40
1.524
  9
$DIMJUST
 70
     0
  9
$DIMSD1
 70
     0
  9
$DIMSD2
 70
     0
  9
$DIMTOLJ
 70
     0
  9
$DIMTZIN
 70
     0
  9
$DIMALTZ
 70
     0
  9
$DIMALTTZ
 70
     0
  9
$DIMUPT
 70
     0
  9
$DIMDEC
 70
     2
  9
$DIMTDEC
 70
     3
  9
$DIMALTU
 70
     2
  9
$DIMALTTD
 70
     3
  9
$DIMTXSTY
  7
Standard
  9
$DIMAUNIT
 70
     0
  9
$DIMADEC
 70
     2
  9
$DIMALTRND
 40
0.0
  9
$DIMAZIN
 70
     0
  9
$DIMDSEP
 70
    44
  9
$DIMATFIT
 70
     3
  9
$DIMFRAC
 70
     0
  9
$DIMLDRBLK
  1

  9
$DIMLUNIT
 70
     2
  9
$DIMLWD
 70
    -2
  9
$DIMLWE
 70
    -2
  9
$DIMTMOVE
 70
     0
  9
$LUNITS
 70
     2
  9
$LUPREC
 70
     2
  9
$SKETCHINC
 40
1.0
  9
$FILLETRAD
 40
10.0
  9
$AUNITS
 70
     0
  9
$AUPREC
 70
     2
  9
$MENU
  1
.
  9
$ELEVATION
 40
0.0
  9
$PELEVATION
 40
0.0
  9
$THICKNESS
 40
0.0
  9
$LIMCHECK
 70
     0
  9
$CHAMFERA
 40
10.0
  9
$CHAMFERB
 40
10.0
  9
$CHAMFERC
 40
20.0
  9
$CHAMFERD
 40
0.0
  9
$SKPOLY
 70
     0
  9
$TDCREATE
 40
2455630.460239954
  9
$TDUCREATE
 40
2455630.418573287
  9
$TDUPDATE
 40
2455630.460239965
  9
$TDUUPDATE
 40
2455630.418573298
  9
$TDINDWG
 40
0.0000000116
  9
$TDUSRTIMER
 40
0.0000000116
  9
$USRTIMER
 70
     1
  9
$ANGBASE
 50
0.0
  9
$ANGDIR
 70
     0
  9
$PDMODE
 70
     0
  9
$PDSIZE
 40
-1.0
  9
$PLINEWID
 40
0.0
  9
$SPLFRAME
 70
     0
  9
$SPLINETYPE
 70
     6
  9
$SPLINESEGS
 70
     8
  9
$HANDSEED
  5
194
  9
$SURFTAB1
 70
     6
  9
$SURFTAB2
 70
     6
  9
$SURFTYPE
 70
     6
  9
$SURFU
 70
     6
  9
$SURFV
 70
     6
  9
$UCSBASE
  2

  9
$UCSNAME
  2

  9
$UCSORG
 10
0.0
 20
0.0
 30
0.0
  9
$UCSXDIR
 10
1.0
 20
0.0
 30
0.0
  9
$UCSYDIR
 10
0.0
 20
1.0
 30
0.0
  9
$UCSORTHOREF
  2

  9
$UCSORTHOVIEW
 70
     0
  9
$UCSORGTOP
 10
0.0
 20
0.0
 30
0.0
  9
$UCSORGBOTTOM
 10
0.0
 20
0.0
 30
0.0
  9
$UCSORGLEFT
 10
0.0
 20
0.0
 30
0.0
  9
$UCSORGRIGHT
 10
0.0
 20
0.0
 30
0.0
  9
$UCSORGFRONT
 10
0.0
 20
0.0
 30
0.0
  9
$UCSORGBACK
 10
0.0
 20
0.0
 30
0.0
  9
$PUCSBASE
  2

  9
$PUCSNAME
  2

  9
$PUCSORG
 10
0.0
 20
0.0
 30
0.0
  9
$PUCSXDIR
 10
1.0
 20
0.0
 30
0.0
  9
$PUCSYDIR
 10
0.0
 20
1.0
 30
0.0
  9
$PUCSORTHOREF
  2

  9
$PUCSORTHOVIEW
 70
     0
  9
$PUCSORGTOP
 10
0.0
 20
0.0
 30
0.0
  9
$PUCSORGBOTTOM
 10
0.0
 20
0.0
 30
0.0
  9
$PUCSORGLEFT
 10
0.0
 20
0.0
 30
0.0
  9
$PUCSORGRIGHT
 10
0.0
 20
0.0
 30
0.0
  9
$PUCSORGFRONT
 10
0.0
 20
0.0
 30
0.0
  9
$PUCSORGBACK
 10
0.0
 20
0.0
 30
0.0
  9
$USERI1
 70
     0
  9
$USERI2
 70
     0
  9
$USERI3
 70
     0
  9
$USERI4
 70
     0
  9
$USERI5
 70
     0
  9
$USERR1
 40
0.0
  9
$USERR2
 40
0.0
  9
$USERR3
 40
0.0
  9
$USERR4
 40
0.0
  9
$USERR5
 40
0.0
  9
$WORLDVIEW
 70
     1
  9
$SHADEDGE
 70
     3
  9
$SHADEDIF
 70
    70
  9
$TILEMODE
 70
     1
  9
$MAXACTVP
 70
    64
  9
$PINSBASE
 10
0.0
 20
0.0
 30
0.0
  9
$PLIMCHECK
 70
     0
  9
$PEXTMIN
 10
1.0000000000E+20
 20
1.0000000000E+20
 30
1.0000000000E+20
  9
$PEXTMAX
 10
-1.0000000000E+20
 20
-1.0000000000E+20
 30
-1.0000000000E+20
  9
$PLIMMIN
 10
0.0
 20
0.0
  9
$PLIMMAX
 10
420.0
 20
297.0
  9
$UNITMODE
 70
     0
  9
$VISRETAIN
 70
     1
  9
$PLINEGEN
 70
     0
  9
$PSLTSCALE
 70
     1
  9
$TREEDEPTH
 70
  3020
  9
$CMLSTYLE
  2
Standard
  9
$CMLJUST
 70
     0
  9
$CMLSCALE
 40
20.0
  9
$PROXYGRAPHICS
 70
     1
  9
$MEASUREMENT
 70
     1
  9
$CELWEIGHT
370
    -1
  9
$ENDCAPS
280
     0
  9
$JOINSTYLE
280
     0
  9
$LWDISPLAY
290
     1
  9
$INSUNITS
 70
     4
  9
$HYPERLINKBASE
  1

  9
$STYLESHEET
  1

  9
$XEDIT
290
     1
  9
$CEPSNTYPE
380
     0
  9
$PSTYLEMODE
290
     1
  9
$FINGERPRINTGUID
  2
{EDD98076-B63A-4053-97DA-530FF449A109}
  9
$VERSIONGUID
  2
{FAEB1C32-E019-11D5-929B-00C0DF256EC4}
  9
$EXTNAMES
290
     1
  9
$PSVPSCALE
 40
0.0
  9
$OLESTARTUP
290
     0
  0
ENDSEC
  0
SECTION
  2
CLASSES
  0
CLASS
  1
ACDBDICTIONARYWDFLT
  2
AcDbDictionaryWithDefault
  3
ObjectDBX Classes
 90
        0
280
     0
281
     0
  0
CLASS
  1
VISUALSTYLE
  2
AcDbVisualStyle
  3
ObjectDBX Classes
 90
     4095
280
     0
281
     0
  0
CLASS
  1
DICTIONARYVAR
  2
AcDbDictionaryVar
  3
ObjectDBX Classes
 90
        0
280
     0
281
     0
  0
CLASS
  1
ACDBPLACEHOLDER
  2
AcDbPlaceHolder
  3
ObjectDBX Classes
 90
        0
280
     0
281
     0
  0
CLASS
  1
LAYOUT
  2
AcDbLayout
  3
ObjectDBX Classes
 90
        0
280
     0
281
     0
  0
ENDSEC
  0
SECTION
  2
TABLES
  0
TABLE
  2
VPORT
  5
8
330
0
100
AcDbSymbolTable
 70
     1
  0
VPORT
  5
29
330
8
100
AcDbSymbolTableRecord
100
AcDbViewportTableRecord
  2
*Active
 70
     0
 10
0.0
 20
0.0
 11
1.0
 21
1.0
 12
148.5
 22
105.0
 13
0.0
 23
0.0
 14
10.0
 24
10.0
 15
10.0
 25
10.0
 16
0.0
 26
0.0
 36
1.0
 17
0.0
 27
0.0
 37
0.0
 40
210.0
 41
1.4142857143
 42
50.0
 43
0.0
 44
0.0
 50
0.0
 51
0.0
 71
     0
 72
  2000
 73
     1
 74
     3
 75
     0
 76
     0
 77
     0
 78
     0
281
     0
 65
     1
110
0.0
120
0.0
130
0.0
111
1.0
121
0.0
131
0.0
112
0.0
122
1.0
132
0.0
 79
     0
146
0.0
  0
ENDTAB
  0
TABLE
  2
LTYPE
  5
5
330
0
100
AcDbSymbolTable
 70
     6
  0
LTYPE
  5
14
330
5
100
AcDbSymbolTableRecord
100
AcDbLinetypeTableRecord
  2
ByBlock
 70
     0
  3

 72
    65
 73
     0
 40
0.0
  0
LTYPE
  5
15
330
5
100
AcDbSymbolTableRecord
100
AcDbLinetypeTableRecord
  2
ByLayer
 70
     0
  3

 72
    65
 73
     0
 40
0.0
  0
LTYPE
  5
16
330
5
100
AcDbSymbolTableRecord
100
AcDbLinetypeTableRecord
  2
Continuous
 70
     0
  3
Solid line
 72
    65
 73
     0
 40
0.0
  0
LTYPE
  5
3B
330
5
100
AcDbSymbolTableRecord
100
AcDbLinetypeTableRecord
  2
HIDDEN
 70
     0
  3
Hidden __ __ __ __ __ __ __ __ __ __ __ __ __ __
 72
    65
 73
     2
 40
1.905
 49
1.27
 74
     0
 49
-0.635
 74
     0
  0
LTYPE
  5
3C
330
5
100
AcDbSymbolTableRecord
100
AcDbLinetypeTableRecord
  2
PHANTOM
 70
     0
  3
Phantom ______  __  __  ______  __  __  ______
 72
    65
 73
     6
 40
12.7
 49
6.35
 74
     0
 49
-1.27
 74
     0
 49
1.27
 74
     0
 49
-1.27
 74
     0
 49
1.27
 74
     0
 49
-1.27
 74
     0
  0
LTYPE
  5
3D
330
5
100
AcDbSymbolTableRecord
100
AcDbLinetypeTableRecord
  2
CENTER
 70
     0
  3
Center ____ _ ____ _ ____ _ ____ _ ____ _ ____
 72
    65
 73
     4
 40
10.16
 49
6.35
 74
     0
 49
-1.27
 74
     0
 49
1.27
 74
     0
 49
-1.27
 74
     0
  0
LTYPE
  5
3E
330
5
100
AcDbSymbolTableRecord
100
AcDbLinetypeTableRecord
  2
CENTERX2
 70
     0
  3
Center (2x) ________  __  ________  __  _____
 72
    65
 73
     4
 40
20.32
 49
12.7
 74
     0
 49
-2.54
 74
     0
 49
2.54
 74
     0
 49
-2.54
 74
     0
  0
LTYPE
  5
3F
330
5
100
AcDbSymbolTableRecord
100
AcDbLinetypeTableRecord
  2
DOT2
 70
     0
  3
Dot (.5x) ........................................
 72
    65
 73
     2
 40
0.635
 49
0.0
 74
     0
 49
-0.635
 74
     0
  0
ENDTAB
  0
TABLE
  2
LAYER
  5
2
330
0
100
AcDbSymbolTable
 70
     5
  0
LAYER
  5
10
330
2
100
AcDbSymbolTableRecord
100
AcDbLayerTableRecord
  2
0
 70
     0
 62
     7
  6
Continuous
370
    -3
390
F
  0
LAYER
  5
40
330
2
100
AcDbSymbolTableRecord
100
AcDbLayerTableRecord
  2
FORMAT
 70
     0
 62
     7
  6
Continuous
370
    -3
390
F
  0
LAYER
  5
41
330
2
100
AcDbSymbolTableRecord
100
AcDbLayerTableRecord
  2
VERMASSUNG
 70
     0
 62
     7
  6
Continuous
370
    -3
390
F
  0
LAYER
  5
42
330
2
100
AcDbSymbolTableRecord
100
AcDbLayerTableRecord
  2
KOPF_DÜNN
 70
     0
 62
     7
  6
Continuous
370
    -3
390
F
  0
LAYER
  5
43
330
2
100
AcDbSymbolTableRecord
100
AcDbLayerTableRecord
  2
KOPF_DICK
 70
     0
 62
     7
  6
Continuous
370
    15
390
F
  0
ENDTAB
  0
TABLE
  2
STYLE
  5
3
330
0
100
AcDbSymbolTable
 70
     3
  0
STYLE
  5
11
330
3
100
AcDbSymbolTableRecord
100
AcDbTextStyleTableRecord
  2
Standard
 70
     0
 40
0.0
 41
1.0
 50
0.0
 71
     0
 42
2.5
  3
txt
  4

  0
STYLE
  5
44
330
3
100
AcDbSymbolTableRecord
100
AcDbTextStyleTableRecord
  2
SLDTEXTSTYLE0
 70
     0
 40
0.0
 41
0.7
 50
0.0
 71
     0
 42
0.2
  3
TXT
  4

  0
STYLE
  5
48
330
3
100
AcDbSymbolTableRecord
100
AcDbTextStyleTableRecord
  2
SLDTEXTSTYLE1
 70
     0
 40
0.0
 41
0.6473684211
 50
0.0
 71
     0
 42
0.2
  3
TXT
  4

  0
ENDTAB
  0
TABLE
  2
VIEW
  5
6
330
0
100
AcDbSymbolTable
 70
     0
  0
ENDTAB
  0
TABLE
  2
UCS
  5
7
330
0
100
AcDbSymbolTable
 70
     0
  0
ENDTAB
  0
TABLE
  2
APPID
  5
9
330
0
100
AcDbSymbolTable
 70
     1
  0
APPID
  5
12
330
9
100
AcDbSymbolTableRecord
100
AcDbRegAppTableRecord
  2
ACAD
 70
     0
  0
ENDTAB
  0
TABLE
  2
DIMSTYLE
  5
A
330
0
100
AcDbSymbolTable
 70
     4
100
AcDbDimStyleTable
  0
DIMSTYLE
105
27
330
A
100
AcDbSymbolTableRecord
100
AcDbDimStyleTableRecord
  2
ISO-25
 70
     0
 41
2.5
 42
0.625
 43
3.75
 44
1.25
 73
     0
 74
     0
 77
     1
 78
     8
140
2.5
141
2.5
143
0.0393700787
147
0.625
171
     3
172
     1
271
     2
272
     2
274
     3
278
    44
283
     0
284
     8
340
11
  0
DIMSTYLE
105
13A
102
{ACAD_REACTORS
330
139
330
15D
330
167
330
172
330
17C
102
}
330
A
100
AcDbSymbolTableRecord
100
AcDbDimStyleTableRecord
  2
SLDDIMSTYLE0
 70
     0
 41
3.0
 44
0.0
 45
0.000000001
 73
     0
 74
     0
 77
     1
 78
    12
140
2.0
147
0.5
173
     1
271
     2
272
     3
284
    12
340
44
  0
DIMSTYLE
105
147
102
{ACAD_REACTORS
330
146
102
}
330
A
100
AcDbSymbolTableRecord
100
AcDbDimStyleTableRecord
  2
SLDDIMSTYLE1
 70
     0
 41
3.0
 44
0.0
 45
0.000000001
 73
     0
 74
     0
 77
     1
 78
    12
140
2.0
147
0.5
173
     1
271
     2
272
     3
284
    12
340
44
  0
DIMSTYLE
105
153
102
{ACAD_REACTORS
330
152
102
}
330
A
100
AcDbSymbolTableRecord
100
AcDbDimStyleTableRecord
  2
SLDDIMSTYLE2
 70
     0
 41
3.0
 44
0.0
 45
0.000000001
 73
     0
 74
     0
 77
     1
 78
    12
140
2.0
147
0.5
173
     1
271
     2
272
     2
284
    12
340
44
  0
ENDTAB
  0
TABLE
  2
BLOCK_RECORD
  5
1
330
0
100
AcDbSymbolTable
 70
     8
  0
BLOCK_RECORD
  5
1F
330
1
100
AcDbSymbolTableRecord
100
AcDbBlockTableRecord
  2
*Model_Space
340
22
  0
BLOCK_RECORD
  5
1B
330
1
100
AcDbSymbolTableRecord
100
AcDbBlockTableRecord
  2
*Paper_Space
340
1E
  0
BLOCK_RECORD
  5
23
330
1
100
AcDbSymbolTableRecord
100
AcDbBlockTableRecord
  2
*Paper_Space0
340
26
  0
BLOCK_RECORD
  5
13B
330
1
100
AcDbSymbolTableRecord
100
AcDbBlockTableRecord
  2
*D1
340
0
  0
BLOCK_RECORD
  5
148
330
1
100
AcDbSymbolTableRecord
100
AcDbBlockTableRecord
  2
*D2
340
0
  0
BLOCK_RECORD
  5
154
330
1
100
AcDbSymbolTableRecord
100
AcDbBlockTableRecord
  2
*D3
340
0
  0
BLOCK_RECORD
  5
15E
330
1
100
AcDbSymbolTableRecord
100
AcDbBlockTableRecord
  2
*D4
340
0
  0
BLOCK_RECORD
  5
168
330
1
100
AcDbSymbolTableRecord
100
AcDbBlockTableRecord
  2
*D5
340
0
  0
BLOCK_RECORD
  5
173
330
1
100
AcDbSymbolTableRecord
100
AcDbBlockTableRecord
  2
*D6
340
0
  0
BLOCK_RECORD
  5
17D
330
1
100
AcDbSymbolTableRecord
100
AcDbBlockTableRecord
  2
*D7
340
0
  0
ENDTAB
  0
ENDSEC
  0
SECTION
  2
BLOCKS
  0
BLOCK
  5
20
330
1F
100
AcDbEntity
  8
0
100
AcDbBlockBegin
  2
*Model_Space
 70
     0
 10
0.0
 20
0.0
 30
0.0
  3
*Model_Space
  1

  0
ENDBLK
  5
21
330
1F
100
AcDbEntity
  8
0
100
AcDbBlockEnd
  0
BLOCK
  5
1C
330
1B
100
AcDbEntity
 67
     1
  8
0
100
AcDbBlockBegin
  2
*Paper_Space
 70
     0
 10
0.0
 20
0.0
 30
0.0
  3
*Paper_Space
  1

  0
ENDBLK
  5
1D
330
1B
100
AcDbEntity
 67
     1
  8
0
100
AcDbBlockEnd
  0
BLOCK
  5
24
330
23
100
AcDbEntity
  8
0
100
AcDbBlockBegin
  2
*Paper_Space0
 70
     0
 10
0.0
 20
0.0
 30
0.0
  3
*Paper_Space0
  1

  0
ENDBLK
  5
25
330
23
100
AcDbEntity
  8
0
100
AcDbBlockEnd
  0
BLOCK
  5
13C
330
13B
100
AcDbEntity
  8
0
100
AcDbBlockBegin
  2
*D1
 70
     1
 10
0.0
 20
0.0
 30
0.0
  3
*D1
  1

  0
SOLID
  5
13E
330
13B
100
AcDbEntity
  8
VERMASSUNG
100
AcDbTrace
 10
96.5848790323
 20
142.4855080645
 30
0.0
 11
96.1348790323
 21
139.4855080645
 31
0.0
 12
97.0348790323
 22
139.4855080645
 32
0.0
 13
97.0348790323
 23
139.4855080645
 33
0.0
  0
SOLID
  5
13F
330
13B
100
AcDbEntity
  8
VERMASSUNG
100
AcDbTrace
 10
96.5848790323
 20
79.4855080645
 30
0.0
 11
97.0348790323
 21
82.4855080645
 31
0.0
 12
96.1348790323
 22
82.4855080645
 32
0.0
 13
96.1348790323
 23
82.4855080645
 33
0.0
  0
LINE
  5
140
330
13B
100
AcDbEntity
  8
VERMASSUNG
100
AcDbLine
 10
135.4499825663
 20
142.4855080645
 30
0.0
 11
95.5848790323
 21
142.4855080645
 31
0.0
  0
LINE
  5
141
330
13B
100
AcDbEntity
  8
VERMASSUNG
100
AcDbLine
 10
135.4499825663
 20
79.4855080645
 30
0.0
 11
95.5848790323
 21
79.4855080645
 31
0.0
  0
LINE
  5
142
330
13B
100
AcDbEntity
  8
VERMASSUNG
100
AcDbLine
 10
96.5848790323
 20
142.4855080645
 30
0.0
 11
96.5848790323
 21
79.4855080645
 31
0.0
  0
MTEXT
  5
143
330
13B
100
AcDbEntity
  8
VERMASSUNG
100
AcDbMText
 10
93.8067435432
 20
103.2813041129
 30
0.0
 40
2.0
 41
0.0
 71
     1
 72
     1
  1
HSK A 
  7
SLDTEXTSTYLE0
 11
-7.044195017643634E-15
 21
1.0
 31
0.0
 73
     1
 44
1.0
  0
MTEXT
  5
144
330
13B
100
AcDbEntity
  8
VERMASSUNG
100
AcDbMText
 10
94.0067435527
 20
112.2813046568
 30
0.0
 40
2.0
 41
0.0
 71
     1
 72
     1
  1
%%c
  7
SLDTEXTSTYLE0
 11
-7.044195017643634E-15
 21
1.0
 31
0.0
 73
     1
 44
1.0
  0
MTEXT
  5
145
330
13B
100
AcDbEntity
  8
VERMASSUNG
100
AcDbMText
 10
94.0067436691
 20
115.8899600806
 30
0.0
 40
2.0
 41
0.0
 71
     1
 72
     1
  1
63
  7
SLDTEXTSTYLE0
 11
-7.044195017643634E-15
 21
1.0
 31
0.0
 73
     1
 44
1.0
  0
ENDBLK
  5
13D
330
13B
100
AcDbEntity
  8
0
100
AcDbBlockEnd
  0
BLOCK
  5
149
330
148
100
AcDbEntity
  8
0
100
AcDbBlockBegin
  2
*D2
 70
     1
 10
0.0
 20
0.0
 30
0.0
  3
*D2
  1

  0
SOLID
  5
14B
330
148
100
AcDbEntity
  8
VERMASSUNG
100
AcDbTrace
 10
227.9895542736
 20
103.9855080645
 30
0.0
 11
228.4395542736
 21
106.9855080645
 31
0.0
 12
227.5395542736
 22
106.9855080645
 32
0.0
 13
227.5395542736
 23
106.9855080645
 33
0.0
  0
SOLID
  5
14C
330
148
100
AcDbEntity
  8
VERMASSUNG
100
AcDbTrace
 10
227.9895542736
 20
117.9855080645
 30
0.0
 11
227.5395542736
 21
114.9855080645
 31
0.0
 12
228.4395542736
 22
114.9855080645
 32
0.0
 13
228.4395542736
 23
114.9855080645
 33
0.0
  0
LINE
  5
14D
330
148
100
AcDbEntity
  8
VERMASSUNG
100
AcDbLine
 10
215.1499825663
 20
103.9855080645
 30
0.0
 11
228.9895542736
 21
103.9855080645
 31
0.0
  0
LINE
  5
14E
330
148
100
AcDbEntity
  8
VERMASSUNG
100
AcDbLine
 10
215.1499825663
 20
117.9855080645
 30
0.0
 11
228.9895542736
 21
117.9855080645
 31
0.0
  0
LINE
  5
14F
330
148
100
AcDbEntity
  8
VERMASSUNG
100
AcDbLine
 10
227.9895542736
 20
103.9855080645
 30
0.0
 11
227.9895542736
 21
117.9855080645
 31
0.0
  0
MTEXT
  5
150
330
148
100
AcDbEntity
  8
VERMASSUNG
100
AcDbMText
 10
225.4114187941
 20
107.8815945968
 30
0.0
 40
2.0
 41
0.0
 71
     1
 72
     1
  1
%%c
  7
SLDTEXTSTYLE0
 11
3.391901413832837E-15
 21
1.0
 31
0.0
 73
     1
 44
1.0
  0
MTEXT
  5
151
330
148
100
AcDbEntity
  8
VERMASSUNG
100
AcDbMText
 10
225.4114189105
 20
111.4900008871
 30
0.0
 40
2.0
 41
0.0
 71
     1
 72
     1
  1
14
  7
SLDTEXTSTYLE0
 11
3.391901413832837E-15
 21
1.0
 31
0.0
 73
     1
 44
1.0
  0
ENDBLK
  5
14A
330
148
100
AcDbEntity
  8
0
100
AcDbBlockEnd
  0
BLOCK
  5
155
330
154
100
AcDbEntity
  8
0
100
AcDbBlockBegin
  2
*D3
 70
     1
 10
0.0
 20
0.0
 30
0.0
  3
*D3
  1

  0
SOLID
  5
157
330
154
100
AcDbEntity
  8
VERMASSUNG
100
AcDbTrace
 10
178.6499825663
 20
146.4855080645
 30
0.0
 11
181.6499825663
 21
146.0355080645
 31
0.0
 12
181.6499825663
 22
146.9355080645
 32
0.0
 13
181.6499825663
 23
146.9355080645
 33
0.0
  0
SOLID
  5
158
330
154
100
AcDbEntity
  8
VERMASSUNG
100
AcDbTrace
 10
215.1499825663
 20
146.4855080645
 30
0.0
 11
212.1499825663
 21
146.9355080645
 31
0.0
 12
212.1499825663
 22
146.0355080645
 32
0.0
 13
212.1499825663
 23
146.0355080645
 33
0.0
  0
LINE
  5
159
330
154
100
AcDbEntity
  8
VERMASSUNG
100
AcDbLine
 10
178.6499825663
 20
110.9855080645
 30
0.0
 11
178.6499825663
 21
147.4855080645
 31
0.0
  0
LINE
  5
15A
330
154
100
AcDbEntity
  8
VERMASSUNG
100
AcDbLine
 10
215.1499825663
 20
110.9855080645
 30
0.0
 11
215.1499825663
 21
147.4855080645
 31
0.0
  0
LINE
  5
15B
330
154
100
AcDbEntity
  8
VERMASSUNG
100
AcDbLine
 10
178.6499825663
 20
146.4855080645
 30
0.0
 11
215.1499825663
 21
146.4855080645
 31
0.0
  0
MTEXT
  5
15C
330
154
100
AcDbEntity
  8
VERMASSUNG
100
AcDbMText
 10
194.5008932115
 20
149.0636434276
 30
0.0
 40
2.0
 41
0.0
 71
     1
 72
     1
  1
36.5
  7
SLDTEXTSTYLE0
 73
     1
 44
1.0
  0
ENDBLK
  5
156
330
154
100
AcDbEntity
  8
0
100
AcDbBlockEnd
  0
BLOCK
  5
15F
330
15E
100
AcDbEntity
  8
0
100
AcDbBlockBegin
  2
*D4
 70
     1
 10
0.0
 20
0.0
 30
0.0
  3
*D4
  1

  0
SOLID
  5
161
330
15E
100
AcDbEntity
  8
VERMASSUNG
100
AcDbTrace
 10
135.1499825663
 20
158.4855080645
 30
0.0
 11
138.1499825663
 21
158.0355080645
 31
0.0
 12
138.1499825663
 22
158.9355080645
 32
0.0
 13
138.1499825663
 23
158.9355080645
 33
0.0
  0
SOLID
  5
162
330
15E
100
AcDbEntity
  8
VERMASSUNG
100
AcDbTrace
 10
215.1499825663
 20
158.4855080645
 30
0.0
 11
212.1499825663
 21
158.9355080645
 31
0.0
 12
212.1499825663
 22
158.0355080645
 32
0.0
 13
212.1499825663
 23
158.0355080645
 33
0.0
  0
LINE
  5
163
330
15E
100
AcDbEntity
  8
VERMASSUNG
100
AcDbLine
 10
135.1499825663
 20
110.9855080645
 30
0.0
 11
135.1499825663
 21
159.4855080645
 31
0.0
  0
LINE
  5
164
330
15E
100
AcDbEntity
  8
VERMASSUNG
100
AcDbLine
 10
215.1499825663
 20
110.9855080645
 30
0.0
 11
215.1499825663
 21
159.4855080645
 31
0.0
  0
LINE
  5
165
330
15E
100
AcDbEntity
  8
VERMASSUNG
100
AcDbLine
 10
135.1499825663
 20
158.4855080645
 30
0.0
 11
215.1499825663
 21
158.4855080645
 31
0.0
  0
MTEXT
  5
166
330
15E
100
AcDbEntity
  8
VERMASSUNG
100
AcDbMText
 10
173.7501065986
 20
161.0636434276
 30
0.0
 40
2.0
 41
0.0
 71
     1
 72
     1
  1
80
  7
SLDTEXTSTYLE0
 73
     1
 44
1.0
  0
ENDBLK
  5
160
330
15E
100
AcDbEntity
  8
0
100
AcDbBlockEnd
  0
BLOCK
  5
169
330
168
100
AcDbEntity
  8
0
100
AcDbBlockBegin
  2
*D5
 70
     1
 10
0.0
 20
0.0
 30
0.0
  3
*D5
  1

  0
SOLID
  5
16B
330
168
100
AcDbEntity
  8
VERMASSUNG
100
AcDbTrace
 10
221.9895542736
 20
114.9855080645
 30
0.0
 11
221.5395542736
 21
111.9855080645
 31
0.0
 12
222.4395542736
 22
111.9855080645
 32
0.0
 13
222.4395542736
 23
111.9855080645
 33
0.0
  0
SOLID
  5
16C
330
168
100
AcDbEntity
  8
VERMASSUNG
100
AcDbTrace
 10
221.9895542736
 20
106.9855080645
 30
0.0
 11
222.4395542736
 21
109.9855080645
 31
0.0
 12
221.5395542736
 22
109.9855080645
 32
0.0
 13
221.5395542736
 23
109.9855080645
 33
0.0
  0
LINE
  5
16D
330
168
100
AcDbEntity
  8
VERMASSUNG
100
AcDbLine
 10
211.6499825663
 20
114.9855080645
 30
0.0
 11
222.9895542736
 21
114.9855080645
 31
0.0
  0
LINE
  5
16E
330
168
100
AcDbEntity
  8
VERMASSUNG
100
AcDbLine
 10
211.6499825663
 20
106.9855080645
 30
0.0
 11
222.9895542736
 21
106.9855080645
 31
0.0
  0
LINE
  5
16F
330
168
100
AcDbEntity
  8
VERMASSUNG
100
AcDbLine
 10
221.9895542736
 20
114.9855080645
 30
0.0
 11
221.9895542736
 21
106.9855080645
 31
0.0
  0
MTEXT
  5
170
330
168
100
AcDbEntity
  8
VERMASSUNG
100
AcDbMText
 10
219.4114187941
 20
108.4813669355
 30
0.0
 40
2.0
 41
0.0
 71
     1
 72
     1
  1
%%c
  7
SLDTEXTSTYLE0
 11
-7.044195017643634E-15
 21
1.0
 31
0.0
 73
     1
 44
1.0
  0
MTEXT
  5
171
330
168
100
AcDbEntity
  8
VERMASSUNG
100
AcDbMText
 10
219.4114189105
 20
112.0897732258
 30
0.0
 40
2.0
 41
0.0
 71
     1
 72
     1
  1
8
  7
SLDTEXTSTYLE0
 11
-7.044195017643634E-15
 21
1.0
 31
0.0
 73
     1
 44
1.0
  0
ENDBLK
  5
16A
330
168
100
AcDbEntity
  8
0
100
AcDbBlockEnd
  0
BLOCK
  5
174
330
173
100
AcDbEntity
  8
0
100
AcDbBlockBegin
  2
*D6
 70
     1
 10
0.0
 20
0.0
 30
0.0
  3
*D6
  1

  0
SOLID
  5
176
330
173
100
AcDbEntity
  8
VERMASSUNG
100
AcDbTrace
 10
161.0999825663
 20
152.4855080645
 30
0.0
 11
164.0999825663
 21
152.0355080645
 31
0.0
 12
164.0999825663
 22
152.9355080645
 32
0.0
 13
164.0999825663
 23
152.9355080645
 33
0.0
  0
SOLID
  5
177
330
173
100
AcDbEntity
  8
VERMASSUNG
100
AcDbTrace
 10
215.1499825663
 20
152.4855080645
 30
0.0
 11
212.1499825663
 21
152.9355080645
 31
0.0
 12
212.1499825663
 22
152.0355080645
 32
0.0
 13
212.1499825663
 23
152.0355080645
 33
0.0
  0
LINE
  5
178
330
173
100
AcDbEntity
  8
VERMASSUNG
100
AcDbLine
 10
161.0999825663
 20
140.8319483883
 30
0.0
 11
161.0999825663
 21
153.4855080645
 31
0.0
  0
LINE
  5
179
330
173
100
AcDbEntity
  8
VERMASSUNG
100
AcDbLine
 10
215.1499825663
 20
117.0611175729
 30
0.0
 11
215.1499825663
 21
153.4855080645
 31
0.0
  0
LINE
  5
17A
330
173
100
AcDbEntity
  8
VERMASSUNG
100
AcDbLine
 10
161.0999825663
 20
152.4855080645
 30
0.0
 11
215.1499825663
 21
152.4855080645
 31
0.0
  0
MTEXT
  5
17B
330
173
100
AcDbEntity
  8
VERMASSUNG
100
AcDbMText
 10
184.9257895825
 20
155.0636434276
 30
0.0
 40
2.0
 41
0.0
 71
     1
 72
     1
  1
54.05
  7
SLDTEXTSTYLE0
 73
     1
 44
1.0
  0
ENDBLK
  5
175
330
173
100
AcDbEntity
  8
0
100
AcDbBlockEnd
  0
BLOCK
  5
17E
330
17D
100
AcDbEntity
  8
0
100
AcDbBlockBegin
  2
*D7
 70
     1
 10
0.0
 20
0.0
 30
0.0
  3
*D7
  1

  0
SOLID
  5
180
330
17D
100
AcDbEntity
  8
VERMASSUNG
100
AcDbTrace
 10
103.2499825663
 20
164.4855080645
 30
0.0
 11
106.2499825663
 21
164.0355080645
 31
0.0
 12
106.2499825663
 22
164.9355080645
 32
0.0
 13
106.2499825663
 23
164.9355080645
 33
0.0
  0
SOLID
  5
181
330
17D
100
AcDbEntity
  8
VERMASSUNG
100
AcDbTrace
 10
215.1499825663
 20
164.4855080645
 30
0.0
 11
212.1499825663
 21
164.9355080645
 31
0.0
 12
212.1499825663
 22
164.0355080645
 32
0.0
 13
212.1499825663
 23
164.0355080645
 33
0.0
  0
LINE
  5
182
330
17D
100
AcDbEntity
  8
VERMASSUNG
100
AcDbLine
 10
103.2499825663
 20
130.676185811
 30
0.0
 11
103.2499825663
 21
165.4855080645
 31
0.0
  0
LINE
  5
183
330
17D
100
AcDbEntity
  8
VERMASSUNG
100
AcDbLine
 10
215.1499825663
 20
117.0611175729
 30
0.0
 11
215.1499825663
 21
165.4855080645
 31
0.0
  0
LINE
  5
184
330
17D
100
AcDbEntity
  8
VERMASSUNG
100
AcDbLine
 10
103.2499825663
 20
164.4855080645
 30
0.0
 11
215.1499825663
 21
164.4855080645
 31
0.0
  0
MTEXT
  5
185
330
17D
100
AcDbEntity
  8
VERMASSUNG
100
AcDbMText
 10
156.7007275663
 20
167.0636434276
 30
0.0
 40
2.0
 41
0.0
 71
     1
 72
     1
  1
111.9
  7
SLDTEXTSTYLE0
 73
     1
 44
1.0
  0
ENDBLK
  5
17F
330
17D
100
AcDbEntity
  8
0
100
AcDbBlockEnd
  0
ENDSEC
  0
SECTION
  2
ENTITIES
  0
MTEXT
  5
45
330
1F
100
AcDbEntity
  8
KOPF_DÜNN
100
AcDbMText
 10
13.8892156294
 20
23.8442973028
 30
0.0
 40
3.0
 41
0.0
 71
     1
 72
     1
  1
HA6.S08.K05.080
  7
SLDTEXTSTYLE0
 73
     1
 44
1.0
  0
MTEXT
  5
46
330
1F
100
AcDbEntity
  8
VERMASSUNG
100
AcDbMText
 10
13.9329988022
 20
28.8834360957
 30
0.0
 40
3.0
 41
0.0
 71
     1
 72
     1
  1
Schrumpffutter_Heat shrink chuck
  7
SLDTEXTSTYLE0
 73
     1
 44
1.0
  0
MTEXT
  5
47
330
1F
100
AcDbEntity
  8
VERMASSUNG
100
AcDbMText
 10
98.8601118557
 20
13.8365368179
 30
0.0
 40
2.0
 41
0.0
 71
     1
 72
     1
  1
Datum: 09.03.2011
  7
SLDTEXTSTYLE0
 73
     1
 44
1.0
  0
MTEXT
  5
49
330
1F
100
AcDbEntity
  8
VERMASSUNG
100
AcDbMText
 10
13.933048693
 20
18.0482802738
 30
0.0
 40
2.0
 41
0.0
 71
     1
 72
     1
  1
DIN 69 893 HSK A 63
  7
SLDTEXTSTYLE1
 73
     1
 44
1.0
  0
MTEXT
  5
4A
330
1F
100
AcDbEntity
  8
VERMASSUNG
100
AcDbMText
 10
13.9808475933
 20
13.9090973692
 30
0.0
 40
2.0
 41
0.0
 71
     1
 72
     1
  1
Gewicht: 741g
  7
SLDTEXTSTYLE0
 73
     1
 44
1.0
  0
ARC
  5
4B
330
1F
100
AcDbEntity
  8
0
  6
Continuous
 62
     7
370
    15
100
AcDbCircle
 10
135.4499825663
 20
79.7855080645
 30
0.0
 40
0.3000000000000114
100
AcDbArc
 50
180.0
 51
270.0
  0
ARC
  5
4C
330
1F
100
AcDbEntity
  8
0
  6
Continuous
 62
     7
370
    15
100
AcDbCircle
 10
135.4499825663
 20
142.1855080645
 30
0.0
 40
0.3000000000000114
100
AcDbArc
 50
90.0
 51
180.0
  0
LINE
  5
4D
330
1F
100
AcDbEntity
  8
0
  6
Continuous
 62
     7
370
    15
100
AcDbLine
 10
135.4499825663
 20
79.4855080645
 30
0.0
 11
140.0999825663
 21
79.4855080645
 31
0.0
  0
LINE
  5
4E
330
1F
100
AcDbEntity
  8
0
  6
Continuous
 62
     7
370
    15
100
AcDbLine
 10
140.1092906532
 20
142.4855080645
 30
0.0
 11
135.4499825663
 21
142.4855080645
 31
0.0
  0
ARC
  5
4F
330
1F
100
AcDbEntity
  8
0
  6
Continuous
 62
     7
370
    15
100
AcDbCircle
 10
134.6499758137
 20
86.4150704501
 30
0.0
 40
0.6000067526677242
100
AcDbArc
 50
33.5571153394
 51
90.0
  0
ARC
  5
50
330
1F
100
AcDbEntity
  8
0
  6
Continuous
 62
     7
370
    15
100
AcDbCircle
 10
134.6499758137
 20
135.5559456789
 30
0.0
 40
0.6000067526677242
100
AcDbArc
 50
270.0
 51
326.4428846606
  0
LINE
  5
51
330
1F
100
AcDbEntity
  8
0
  6
Continuous
 62
     7
370
    15
100
AcDbLine
 10
121.9184737675
 20
134.6432380846
 30
0.0
 11
109.3499825663
 21
134.0135541567
 31
0.0
  0
LINE
  5
52
330
1F
100
AcDbEntity
  8
0
  6
Continuous
 62
     7
370
    15
100
AcDbLine
 10
133.1499825663
 20
135.2059389262
 30
0.0
 11
130.332980909
 21
135.0648065787
 31
0.0
  0
LINE
  5
53
330
1F
100
AcDbEntity
  8
0
  6
Continuous
 62
     7
370
    15
100
AcDbLine
 10
130.333036999
 20
86.9062067402
 30
0.0
 11
133.1499825663
 21
86.7650772028
 31
0.0
  0
LINE
  5
54
330
1F
100
AcDbEntity
  8
0
  6
Continuous
 62
     7
370
    15
100
AcDbLine
 10
113.3499825663
 20
87.7570611707
 30
0.0
 11
121.9188762862
 21
87.3277578782
 31
0.0
  0
LINE
  5
55
330
1F
100
AcDbEntity
  8
0
  6
Continuous
 62
     7
370
    15
100
AcDbLine
 10
133.1499825663
 20
86.7650772028
 30
0.0
 11
134.0066953397
 21
86.9946326986
 31
0.0
  0
LINE
  5
56
330
1F
100
AcDbEntity
  8
0
  6
Continuous
 62
     7
370
    15
100
AcDbLine
 10
134.0066953397
 20
134.9763834305
 30
0.0
 11
133.1499825663
 21
135.2059389262
 31
0.0
  0
ARC
  5
57
330
1F
100
AcDbEntity
  8
0
  6
Continuous
 62
     7
370
    15
100
AcDbCircle
 10
134.1619867668
 20
86.4150772028
 30
0.0
 40
0.6000000000000145
100
AcDbArc
 50
90.0
 51
105.0
  0
ARC
  5
58
330
1F
100
AcDbEntity
  8
0
  6
Continuous
 62
     7
370
    15
100
AcDbCircle
 10
134.1619867668
 20
135.5559389262
 30
0.0
 40
0.6000000000000282
100
AcDbArc
 50
255.0
 51
270.0
  0
LINE
  5
59
330
1F
100
AcDbEntity
  8
0
  6
Continuous
 62
     7
370
    15
100
AcDbLine
 10
134.1619867668
 20
87.0150772028
 30
0.0
 11
134.6499758137
 21
87.0150772028
 31
0.0
  0
LINE
  5
5A
330
1F
100
AcDbEntity
  8
0
  6
Continuous
 62
     7
370
    15
100
AcDbLine
 10
134.6499758137
 20
134.9559389262
 30
0.0
 11
134.1619867668
 21
134.9559389262
 31
0.0
  0
ARC
  5
5B
330
1F
100
AcDbEntity
  8
0
  6
Continuous
 62
     7
370
    15
100
AcDbCircle
 10
171.0999825663
 20
90.4877758941
 30
0.0
 40
9.999999999999998
100
AcDbArc
 50
94.5
 51
180.0
  0
ARC
  5
5C
330
1F
100
AcDbEntity
  8
0
  6
Continuous
 62
     7
370
    15
100
AcDbCircle
 10
171.0999825663
 20
131.483240235
 30
0.0
 40
10.00000000000001
100
AcDbArc
 50
183.56882431
 51
265.5
  0
LINE
  5
5D
330
1F
100
AcDbEntity
  8
0
  6
Continuous
 62
     7
370
    15
100
AcDbLine
 10
104.5333192063
 20
90.1155080645
 30
0.0
 11
111.9499825663
 21
90.1155080645
 31
0.0
  0
LINE
  5
5E
330
1F
100
AcDbEntity
  8
0
  6
Continuous
 62
     7
370
    15
100
AcDbLine
 10
170.3153916091
 20
100.4569492314
 30
0.0
 11
214.2284416621
 21
103.9129812224
 31
0.0
  0
LINE
  5
5F
330
1F
100
AcDbEntity
  8
0
  6
Continuous
 62
     7
370
    15
100
AcDbLine
 10
214.2284416621
 20
118.0580349066
 30
0.0
 11
170.3153916091
 21
121.5140668976
 31
0.0
  0
ARC
  5
60
330
1F
100
AcDbEntity
  8
0
  6
Continuous
 62
     7
370
    15
100
AcDbCircle
 10
111.9499825663
 20
88.7155080645
 30
0.0
 40
1.399999999999997
100
AcDbArc
 50
42.2465410162
 51
90.0
  0
LINE
  5
61
330
1F
100
AcDbEntity
  8
0
  6
Continuous
 62
     7
370
    15
100
AcDbLine
 10
103.2611430014
 20
91.2543476294
 30
0.0
 11
104.3911460245
 21
90.1243446063
 31
0.0
  0
LINE
  5
62
330
1F
100
AcDbEntity
  8
0
  6
Continuous
 62
     7
370
    15
100
AcDbLine
 10
104.3911460245
 20
131.8466715227
 30
0.0
 11
103.2598833397
 21
130.7154088379
 31
0.0
  0
ARC
  5
63
330
1F
100
AcDbEntity
  8
0
  6
Continuous
 62
     7
370
    15
100
AcDbCircle
 10
107.9499825663
 20
133.2555080645
 30
0.0
 40
1.4
100
AcDbArc
 50
270.0
 51
302.5610026528
  0
LINE
  5
64
330
1F
100
AcDbEntity
  8
0
  6
Continuous
 62
     7
370
    15
100
AcDbLine
 10
107.9499825663
 20
131.8555080645
 30
0.0
 11
104.5476379704
 21
131.8555080645
 31
0.0
  0
ARC
  5
65
330
1F
100
AcDbEntity
  8
0
  6
Continuous
 62
     7
370
    15
100
AcDbCircle
 10
214.1499825663
 20
104.9098985562
 30
0.0
 40
1.000000000000009
100
AcDbArc
 50
274.5
 51
0.0
  0
ARC
  5
66
330
1F
100
AcDbEntity
  8
0
  6
Continuous
 62
     7
370
    15
100
AcDbCircle
 10
214.1499825663
 20
117.0611175729
 30
0.0
 40
1.000000000000009
100
AcDbArc
 50
0.0
 51
85.5
  0
LINE
  5
67
330
1F
100
AcDbEntity
  8
0
  6
Continuous
 62
     7
370
    15
100
AcDbLine
 10
135.1499825663
 20
79.7855080645
 30
0.0
 11
135.1499825663
 21
142.1855080585
 31
0.0
  0
LINE
  5
68
330
1F
100
AcDbEntity
  8
0
  6
Continuous
 62
     7
370
    15
100
AcDbLine
 10
161.0999825663
 20
81.4252306639
 30
0.0
 11
161.0999825663
 21
130.8355080645
 31
0.0
  0
SPLINE
  5
69
330
1F
100
AcDbEntity
  8
0
  6
Continuous
 62
     7
370
    15
100
AcDbSpline
210
0.0
220
0.0
230
1.0
 70
     8
 71
     3
 72
    10
 73
     6
 74
     0
 42
0.00000001
 43
0.00000001
 40
0.0
 40
0.0
 40
0.0
 40
0.0
 40
0.5
 40
0.5
 40
1.0
 40
1.0
 40
1.0
 40
1.0
 10
161.099982566332
 20
81.42523066392326
 30
0.0
 10
161.099982566332
 20
81.2653433957296
 30
0.0
 10
161.0386729150961
 20
81.104216140215
 30
0.0
 10
160.8195732775611
 20
80.87011714186016
 30
0.0
 10
160.6615250712476
 20
80.79859036826895
 30
0.0
 10
160.499982566332
 20
80.79859036826895
 30
0.0
  0
SPLINE
  5
6A
330
1F
100
AcDbEntity
  8
0
  6
Continuous
 62
     7
370
    15
100
AcDbSpline
210
0.0
220
0.0
230
1.0
 70
    24
 71
     3
 72
    12
 73
     8
 74
     0
 42
0.00000001
 43
0.00000001
 40
0.0
 40
0.0
 40
0.0
 40
0.0
 40
0.2500000000000033
 40
0.2500000000000033
 40
0.5000000000000067
 40
0.5000000000000067
 40
1.0
 40
1.0
 40
1.0
 40
1.0
 10
160.499982566332
 20
130.8355080645161
 30
0.0
 10
160.590221634019
 20
130.8355080645161
 30
0.0
 10
160.6811197481255
 20
130.8355080645161
 30
0.0
 10
160.835716784614
 20
130.8355080645161
 30
0.0
 10
160.9006952007221
 20
130.8355080645161
 30
0.0
 10
161.0525302286584
 20
130.8355080645161
 30
0.0
 10
161.099982566332
 20
130.8355080645161
 30
0.0
 10
161.099982566332
 20
130.8355080645161
 30
0.0
  0
LINE
  5
6B
330
1F
100
AcDbEntity
  8
0
  6
Continuous
 62
     7
370
    15
100
AcDbLine
 10
160.4999825663
 20
80.7985903683
 30
0.0
 11
156.5419153978
 21
80.7985903683
 31
0.0
  0
LINE
  5
6C
330
1F
100
AcDbEntity
  8
0
  6
Continuous
 62
     7
370
    15
100
AcDbLine
 10
156.5419153978
 20
80.7985903683
 30
0.0
 11
156.5419153978
 21
130.8355080645
 31
0.0
  0
LINE
  5
6D
330
1F
100
AcDbEntity
  8
0
  6
Continuous
 62
     7
370
    15
100
AcDbLine
 10
156.5419153978
 20
130.8355080645
 30
0.0
 11
160.4999825663
 21
130.8355080645
 31
0.0
  0
SPLINE
  5
6E
330
1F
100
AcDbEntity
  8
0
  6
Continuous
 62
     7
370
    15
100
AcDbSpline
210
0.0
220
0.0
230
1.0
 70
     8
 71
     3
 72
     8
 73
     4
 74
     0
 42
0.00000001
 43
0.00000001
 40
0.0
 40
0.0
 40
0.0
 40
0.0
 40
1.0
 40
1.0
 40
1.0
 40
1.0
 10
156.541915397821
 20
80.79859036826895
 30
0.0
 10
156.0464357371553
 20
81.69411645620231
 30
0.0
 10
155.5523216891131
 20
82.59040087125454
 30
0.0
 10
155.059982566332
 20
83.48767090546124
 30
0.0
  0
LINE
  5
6F
330
1F
100
AcDbEntity
  8
0
  6
Continuous
 62
     7
370
    15
100
AcDbLine
 10
155.0599825663
 20
83.4876709055
 30
0.0
 11
155.0599825663
 21
130.8355080645
 31
0.0
  0
SPLINE
  5
70
330
1F
100
AcDbEntity
  8
0
  6
Continuous
 62
     7
370
    15
100
AcDbSpline
210
0.0
220
0.0
230
1.0
 70
    24
 71
     3
 72
     8
 73
     4
 74
     0
 42
0.00000001
 43
0.00000001
 40
0.0
 40
0.0
 40
0.0
 40
0.0
 40
1.0
 40
1.0
 40
1.0
 40
1.0
 10
155.059982566332
 20
130.8355080645161
 30
0.0
 10
155.5399345606969
 20
130.8355080645161
 30
0.0
 10
156.0352352896705
 20
130.8355080645161
 30
0.0
 10
156.5419153978211
 20
130.8355080645161
 30
0.0
  0
LINE
  5
71
330
1F
100
AcDbEntity
  8
0
  6
Continuous
 62
     7
370
    15
100
AcDbLine
 10
151.2399825663
 20
83.4876709055
 30
0.0
 11
151.2399825663
 21
130.8355080645
 31
0.0
  0
SPLINE
  5
72
330
1F
100
AcDbEntity
  8
0
  6
Continuous
 62
     7
370
    15
100
AcDbSpline
210
0.0
220
0.0
230
1.0
 70
     8
 71
     3
 72
     8
 73
     4
 74
     0
 42
0.00000001
 43
0.00000001
 40
0.0
 40
0.0
 40
0.0
 40
0.0
 40
1.0
 40
1.0
 40
1.0
 40
1.0
 10
151.239982566332
 20
83.48767090546124
 30
0.0
 10
150.7476434435508
 20
82.59040087125454
 30
0.0
 10
150.2535293955087
 20
81.6941164562023
 30
0.0
 10
149.7580497348429
 20
80.79859036826895
 30
0.0
  0
LINE
  5
73
330
1F
100
AcDbEntity
  8
0
  6
Continuous
 62
     7
370
    15
100
AcDbLine
 10
149.7580497348
 20
80.7985903683
 30
0.0
 11
149.7580497348
 21
130.8355080645
 31
0.0
  0
SPLINE
  5
74
330
1F
100
AcDbEntity
  8
0
  6
Continuous
 62
     7
370
    15
100
AcDbSpline
210
0.0
220
0.0
230
1.0
 70
    24
 71
     3
 72
     8
 73
     4
 74
     0
 42
0.00000001
 43
0.00000001
 40
0.0
 40
0.0
 40
0.0
 40
0.0
 40
1.0
 40
1.0
 40
1.0
 40
1.0
 10
149.7580497348429
 20
130.8355080645161
 30
0.0
 10
150.2647298429935
 20
130.8355080645161
 30
0.0
 10
150.7600305719671
 20
130.8355080645161
 30
0.0
 10
151.239982566332
 20
130.8355080645161
 30
0.0
  0
LINE
  5
75
330
1F
100
AcDbEntity
  8
0
  6
Continuous
 62
     7
370
    15
100
AcDbLine
 10
140.0999825663
 20
130.8355080645
 30
0.0
 11
149.7580497348
 21
130.8355080645
 31
0.0
  0
LINE
  5
76
330
1F
100
AcDbEntity
  8
0
  6
Continuous
 62
     7
370
    15
100
AcDbLine
 10
149.7580497348
 20
80.7985903683
 30
0.0
 11
148.0999825663
 21
80.7985903683
 31
0.0
  0
SPLINE
  5
77
330
1F
100
AcDbEntity
  8
0
  6
Continuous
 62
     7
370
    15
100
AcDbSpline
210
0.0
220
0.0
230
1.0
 70
     8
 71
     3
 72
    28
 73
    24
 74
     0
 42
0.00000001
 43
0.00000001
 40
0.0
 40
0.0
 40
0.0
 40
0.0
 40
0.1250000000000001
 40
0.1250000000000001
 40
0.1875000000000001
 40
0.1875000000000001
 40
0.2500000000000001
 40
0.2500000000000001
 40
0.3749999999999999
 40
0.3749999999999999
 40
0.4375
 40
0.4375
 40
0.4999999999999999
 40
0.4999999999999999
 40
0.6249999999999999
 40
0.6249999999999999
 40
0.7499999999999997
 40
0.7499999999999997
 40
0.8124999999999998
 40
0.8124999999999998
 40
0.8749999999999998
 40
0.8749999999999998
 40
1.0
 40
1.0
 40
1.0
 40
1.0
 10
148.099982566332
 20
80.79859036826895
 30
0.0
 10
147.568274808839
 20
80.79859036826895
 30
0.0
 10
147.0460362435287
 20
80.78280565431874
 30
0.0
 10
146.2761657572537
 20
80.73781024024254
 30
0.0
 10
146.0218061850624
 20
80.71925524516679
 30
0.0
 10
145.5176846043639
 20
80.67540252272029
 30
0.0
 10
145.2679617869359
 20
80.6500579157681
 30
0.0
 10
144.5423718354895
 20
80.56665583801801
 30
0.0
 10
144.084011573908
 20
80.50079027886692
 30
0.0
 10
143.4335136305141
 20
80.39181993837512
 30
0.0
 10
143.2218315797217
 20
80.35358030260848
 30
0.0
 10
142.8177600905836
 20
80.27582156518912
 30
0.0
 10
142.6252535767628
 20
80.23632060301375
 30
0.0
 10
142.0754186057415
 20
80.11741286064776
 30
0.0
 10
141.7454898274327
 20
80.03759517922316
 30
0.0
 10
141.161018558864
 20
79.88425201742709
 30
0.0
 10
140.9147414208506
 20
79.81291826415784
 30
0.0
 10
140.6148986281525
 20
79.71897475708322
 30
0.0
 10
140.5264417710803
 20
79.68978096372328
 30
0.0
 10
140.3730804177752
 20
79.63631438945987
 30
0.0
 10
140.3079922035489
 20
79.6119550551847
 30
0.0
 10
140.1523981876082
 20
79.54836490973996
 30
0.0
 10
140.099982566332
 20
79.5182619746507
 30
0.0
 10
140.099982566332
 20
79.50138508165378
 30
0.0
  0
LINE
  5
78
330
1F
100
AcDbEntity
  8
0
  6
Continuous
 62
     7
370
    15
100
AcDbLine
 10
140.0999825663
 20
79.5013850817
 30
0.0
 11
140.0999825663
 21
79.4855080645
 31
0.0
  0
SPLINE
  5
79
330
1F
100
AcDbEntity
  8
0
  6
Continuous
 62
     7
370
    15
100
AcDbSpline
210
0.0
220
0.0
230
1.0
 70
     8
 71
     3
 72
    22
 73
    18
 74
     0
 42
0.00000001
 43
0.00000001
 40
0.0
 40
0.0
 40
0.0
 40
0.0
 40
0.0515773377536172
 40
0.1565264849943629
 40
0.2100197540385886
 40
0.2615951369298746
 40
0.3664424119934943
 40
0.4198226601719804
 40
0.4724528789006786
 40
0.5794488992297344
 40
0.6339397336480286
 40
0.6872670452602943
 40
0.7409741315029978
 40
0.7958968813361827
 40
0.8512481408256359
 40
0.9034470736265863
 40
1.0
 40
1.0
 40
1.0
 40
1.0
 10
148.099982566332
 20
141.4527035376803
 30
0.0
 10
147.8831723703295
 20
141.4541001587489
 30
0.0
 10
147.2251985514147
 20
141.4583386130051
 30
0.0
 10
146.3501035740838
 20
141.4978709373594
 30
0.0
 10
145.505278079227
 20
141.5608441842013
 30
0.0
 10
144.6855527956228
 20
141.6388582174564
 30
0.0
 10
143.9097628175943
 20
141.7357413453316
 30
0.0
 10
143.1922743562879
 20
141.8440007572476
 30
0.0
 10
142.5130096091158
 20
141.957719129552
 30
0.0
 10
141.9046946312069
 20
142.0742193144928
 30
0.0
 10
141.3846026904837
 20
142.1833195659098
 30
0.0
 10
141.0407125127676
 20
142.2593234636399
 30
0.0
 10
140.74575878504
 20
142.3273569195615
 30
0.0
 10
140.4999844976988
 20
142.3860699703201
 30
0.0
 10
140.3140821887255
 20
142.4316853502538
 30
0.0
 10
140.1424855830017
 20
142.4746448018143
 30
0.0
 10
140.1223563078255
 20
142.4798058236164
 30
0.0
 10
140.1092906531518
 20
142.4831557767587
 30
0.0
  0
LINE
  5
7A
330
1F
100
AcDbEntity
  8
0
  6
Continuous
 62
     7
370
    15
100
AcDbLine
 10
149.7580497348
 20
141.4527035377
 30
0.0
 11
148.0999825663
 21
141.4527035377
 31
0.0
  0
LINE
  5
7B
330
1F
100
AcDbEntity
  8
0
  6
Continuous
 62
     7
370
    15
100
AcDbLine
 10
149.7580497348
 20
135.4441977269
 30
0.0
 11
149.7580497348
 21
141.4527035377
 31
0.0
  0
LINE
  5
7C
330
1F
100
AcDbEntity
  8
0
  6
Continuous
 62
     7
370
    15
100
AcDbLine
 10
147.345602912
 20
135.4441977269
 30
0.0
 11
149.7580497348
 21
135.4441977269
 31
0.0
  0
SPLINE
  5
7D
330
1F
100
AcDbEntity
  8
0
  6
Continuous
 62
     7
370
    15
100
AcDbSpline
210
0.0
220
0.0
230
1.0
 70
     8
 71
     3
 72
    20
 73
    16
 74
     0
 42
0.00000001
 43
0.00000001
 40
0.0
 40
0.0
 40
0.0
 40
0.0
 40
0.2499999999999997
 40
0.2499999999999997
 40
0.3749999999999997
 40
0.3749999999999997
 40
0.4999999999999998
 40
0.4999999999999998
 40
0.6249999999999998
 40
0.6249999999999998
 40
0.7499999999999999
 40
0.7499999999999999
 40
0.8749999999999999
 40
0.8749999999999999
 40
1.0
 40
1.0
 40
1.0
 40
1.0
 10
140.099982566332
 20
130.8355080645161
 30
0.0
 10
140.34835630062
 20
131.4893704928135
 30
0.0
 10
140.6679263929653
 20
132.0931562748107
 30
0.0
 10
141.29023262617
 20
132.9199950109792
 30
0.0
 10
141.5216568866007
 20
133.1824236489322
 30
0.0
 10
142.0428712262504
 20
133.6790863030372
 30
0.0
 10
142.3294917088855
 20
133.9096731820587
 30
0.0
 10
142.9489764501931
 20
134.3262274066413
 30
0.0
 10
143.2832768296801
 20
134.5137252086088
 30
0.0
 10
144.0085373023049
 20
134.8451221862452
 30
0.0
 10
144.3904523596954
 20
134.9846261737405
 30
0.0
 10
145.1852405358671
 20
135.2100796812115
 30
0.0
 10
145.5993987300734
 20
135.2967057927551
 30
0.0
 10
146.4649450706548
 20
135.4146865816092
 30
0.0
 10
146.9028326856667
 20
135.4441977268835
 30
0.0
 10
147.3456029120213
 20
135.4441977268835
 30
0.0
  0
SPLINE
  5
7E
330
1F
100
AcDbEntity
  8
0
  6
Continuous
 62
     7
370
    15
100
AcDbSpline
210
0.0
220
0.0
230
1.0
 70
     8
 71
     3
 72
    70
 73
    66
 74
     0
 42
0.00000001
 43
0.00000001
 40
-0.0312499999999999
 40
-0.0312499999999999
 40
0.0
 40
0.0
 40
0.0312499999999999
 40
0.0312499999999999
 40
0.0624999999999998
 40
0.0624999999999998
 40
0.0937499999999997
 40
0.0937499999999997
 40
0.1249999999999996
 40
0.1249999999999996
 40
0.1562499999999994
 40
0.1562499999999994
 40
0.1874999999999993
 40
0.1874999999999993
 40
0.2187499999999992
 40
0.2187499999999992
 40
0.2499999999999991
 40
0.2499999999999991
 40
0.2812499999999992
 40
0.2812499999999992
 40
0.3124999999999993
 40
0.3124999999999993
 40
0.3437499999999994
 40
0.3437499999999994
 40
0.3749999999999996
 40
0.3749999999999996
 40
0.4062499999999997
 40
0.4062499999999997
 40
0.4374999999999998
 40
0.4374999999999998
 40
0.4687499999999999
 40
0.4687499999999999
 40
0.5
 40
0.5
 40
0.5312500000000001
 40
0.5312500000000001
 40
0.5625000000000002
 40
0.5625000000000002
 40
0.5937500000000003
 40
0.5937500000000003
 40
0.6250000000000004
 40
0.6250000000000004
 40
0.6562500000000006
 40
0.6562500000000006
 40
0.6875000000000007
 40
0.6875000000000007
 40
0.7187500000000008
 40
0.7187500000000008
 40
0.7500000000000009
 40
0.7500000000000009
 40
0.7812500000000008
 40
0.7812500000000008
 40
0.8125000000000007
 40
0.8125000000000007
 40
0.8437500000000006
 40
0.8437500000000006
 40
0.8750000000000004
 40
0.8750000000000004
 40
0.9062500000000003
 40
0.9062500000000003
 40
0.9375000000000002
 40
0.9375000000000002
 40
0.9687500000000001
 40
0.9687500000000001
 40
1.0
 40
1.0
 40
1.03125
 40
1.03125
 10
139.149982566332
 20
138.1330357917065
 30
0.0
 10
139.149982566332
 20
138.3975807757454
 30
0.0
 10
139.1759676417159
 20
138.5247328699003
 30
0.0
 10
139.2777325443
 20
138.7695418656381
 30
0.0
 10
139.354766930106
 20
138.8884038647112
 30
0.0
 10
139.5556332175431
 20
139.1101136910567
 30
0.0
 10
139.6785122661345
 20
139.2128290299821
 30
0.0
 10
139.9687769281982
 20
139.40352105056
 30
0.0
 10
140.1375505040501
 20
139.4917107478709
 30
0.0
 10
140.5061885253365
 20
139.647209863968
 30
0.0
 10
140.7073815732889
 20
139.715622521432
 30
0.0
 10
141.1445190985431
 20
139.8349531407772
 30
0.0
 10
141.3769337661665
 20
139.8847128329595
 30
0.0
 10
141.8581179882788
 20
139.9640868100322
 30
0.0
 10
142.1104529942368
 20
139.994282494272
 30
0.0
 10
142.6268978599246
 20
140.034530382115
 30
0.0
 10
142.8866031079769
 20
140.0444146668977
 30
0.0
 10
143.40891016513
 20
140.0445277696798
 30
0.0
 10
143.674216480444
 20
140.0344281639485
 30
0.0
 10
144.1874225705732
 20
139.9944579739722
 30
0.0
 10
144.436890008885
 20
139.9648008102009
 30
0.0
 10
144.9214926183768
 20
139.8850689832404
 30
0.0
 10
145.1553622771613
 20
139.8348899299273
 30
0.0
 10
145.5885045984165
 20
139.7168212553411
 30
0.0
 10
145.7906815141824
 20
139.6484680949404
 30
0.0
 10
146.163956306492
 20
139.4911075828361
 30
0.0
 10
146.3292786006419
 20
139.4045521657677
 30
0.0
 10
146.6189935879772
 20
139.2146647455239
 30
0.0
 10
146.7443968536078
 20
139.1100507250724
 30
0.0
 10
146.9452123016198
 20
138.888379588131
 30
0.0
 10
147.0209968587257
 20
138.7718133035862
 30
0.0
 10
147.123606577458
 20
138.5263634799141
 30
0.0
 10
147.1498841103162
 20
138.3966329244368
 30
0.0
 10
147.1500804571376
 20
138.1354871901335
 30
0.0
 10
147.1248472109199
 20
138.0028080281006
 30
0.0
 10
147.0224467250028
 20
137.7334507747855
 30
0.0
 10
146.9457584279436
 20
137.5990793364388
 30
0.0
 10
146.7465423176272
 20
137.3380472065348
 30
0.0
 10
146.6224356836227
 20
137.2093845692409
 30
0.0
 10
146.330559335621
 20
136.9640768479029
 30
0.0
 10
146.1652870314392
 20
136.8491202401734
 30
0.0
 10
145.7969039282556
 20
136.6357890604884
 30
0.0
 10
145.591394021628
 20
136.5366708729524
 30
0.0
 10
145.1572896776958
 20
136.3647486106813
 30
0.0
 10
144.9278043900685
 20
136.2910371218936
 30
0.0
 10
144.4435917127079
 20
136.169784650567
 30
0.0
 10
144.1895983869359
 20
136.122876319883
 30
0.0
 10
143.6782202508097
 20
136.0606670865081
 30
0.0
 10
143.4180902267426
 20
136.0446180948558
 30
0.0
 10
142.8890860128507
 20
136.0443268090617
 30
0.0
 10
142.6289982820636
 20
136.0600790497082
 30
0.0
 10
142.1172807593548
 20
136.1217489275058
 30
0.0
 10
141.8629696416216
 20
136.168430603346
 30
0.0
 10
141.378591795656
 20
136.2891368918033
 30
0.0
 10
141.1488270388933
 20
136.3626211062446
 30
0.0
 10
140.7138649820201
 20
136.5342735537685
 30
0.0
 10
140.5081887198903
 20
136.6331684340659
 30
0.0
 10
140.1393458747642
 20
136.8460775476847
 30
0.0
 10
139.97366215711
 20
136.9609184973688
 30
0.0
 10
139.6807607401098
 20
137.2062605035286
 30
0.0
 10
139.5565500081841
 20
137.3345725832101
 30
0.0
 10
139.3565414562624
 20
137.5954140111164
 30
0.0
 10
139.279403906676
 20
137.7296972831988
 30
0.0
 10
139.1759708764052
 20
137.9993898643393
 30
0.0
 10
139.149982566332
 20
138.1330357917065
 30
0.0
 10
139.149982566332
 20
138.3975807757454
 30
0.0
  0
SPLINE
  5
7F
330
1F
100
AcDbEntity
  8
0
  6
Continuous
 62
     7
370
    15
100
AcDbSpline
210
0.0
220
0.0
230
1.0
 70
     8
 71
     3
 72
    70
 73
    66
 74
     0
 42
0.00000001
 43
0.00000001
 40
-0.0312499999999999
 40
-0.0312499999999999
 40
0.0
 40
0.0
 40
0.03125
 40
0.03125
 40
0.0625
 40
0.0625
 40
0.0937499999999999
 40
0.0937499999999999
 40
0.1249999999999998
 40
0.1249999999999998
 40
0.1562499999999996
 40
0.1562499999999996
 40
0.1874999999999994
 40
0.1874999999999994
 40
0.2187499999999993
 40
0.2187499999999993
 40
0.2499999999999992
 40
0.2499999999999992
 40
0.2812499999999992
 40
0.2812499999999992
 40
0.3124999999999993
 40
0.3124999999999993
 40
0.3437499999999994
 40
0.3437499999999994
 40
0.3749999999999994
 40
0.3749999999999994
 40
0.4062499999999996
 40
0.4062499999999996
 40
0.4374999999999996
 40
0.4374999999999996
 40
0.4687499999999997
 40
0.4687499999999997
 40
0.4999999999999998
 40
0.4999999999999998
 40
0.5312499999999998
 40
0.5312499999999998
 40
0.5624999999999998
 40
0.5624999999999998
 40
0.5937499999999999
 40
0.5937499999999999
 40
0.6249999999999999
 40
0.6249999999999999
 40
0.6562499999999999
 40
0.6562499999999999
 40
0.6874999999999999
 40
0.6874999999999999
 40
0.7187499999999999
 40
0.7187499999999999
 40
0.7499999999999999
 40
0.7499999999999999
 40
0.78125
 40
0.78125
 40
0.8125
 40
0.8125
 40
0.84375
 40
0.84375
 40
0.875
 40
0.875
 40
0.90625
 40
0.90625
 40
0.9375000000000001
 40
0.9375000000000001
 40
0.9687500000000001
 40
0.9687500000000001
 40
1.0
 40
1.0
 40
1.03125
 40
1.03125
 10
139.149982566332
 20
125.0504974995918
 30
0.0
 10
139.149982566332
 20
125.5219201130317
 30
0.0
 10
139.1759676417159
 20
125.7521336729479
 30
0.0
 10
139.2777325443
 20
126.20219646101
 30
0.0
 10
139.354766930106
 20
126.4243574015011
 30
0.0
 10
139.5556332175431
 20
126.8451416189735
 30
0.0
 10
139.6785122661345
 20
127.0434089166178
 30
0.0
 10
139.9687769281982
 20
127.4166958050843
 30
0.0
 10
140.1375505040501
 20
127.5922068505994
 30
0.0
 10
140.5061885253365
 20
127.9055062009022
 30
0.0
 10
140.7073815732889
 20
128.0454384914449
 30
0.0
 10
141.1445190985431
 20
128.2918952504364
 30
0.0
 10
141.3769337661665
 20
128.3960255883864
 30
0.0
 10
141.8581179882788
 20
128.5631475670706
 30
0.0
 10
142.1104529942368
 20
128.6273593338306
 30
0.0
 10
142.6268978599246
 20
128.7131442803635
 30
0.0
 10
142.8866031079769
 20
128.7343455869593
 30
0.0
 10
143.40891016513
 20
128.7345876693646
 30
0.0
 10
143.674216480444
 20
128.7129266275173
 30
0.0
 10
144.1874225705732
 20
128.6277331377954
 30
0.0
 10
144.436890008885
 20
128.5646569220331
 30
0.0
 10
144.9214926183769
 20
128.3967695164887
 30
0.0
 10
145.1553622771613
 20
128.291773414541
 30
0.0
 10
145.5885045984165
 20
128.0479056372713
 30
0.0
 10
145.7906815141824
 20
127.9080473005816
 30
0.0
 10
146.163956306492
 20
127.5909856016382
 30
0.0
 10
146.3292786006419
 20
127.4187425389186
 30
0.0
 10
146.6189935879772
 20
127.0469745369066
 30
0.0
 10
146.7443968536078
 20
126.8450212414221
 30
0.0
 10
146.9452123016198
 20
126.4243122012859
 30
0.0
 10
147.0209968587257
 20
126.2064104549895
 30
0.0
 10
147.123606577458
 20
125.7550938997467
 30
0.0
 10
147.1498841103162
 20
125.520244648168
 30
0.0
 10
147.1500804571376
 20
125.0548523832199
 30
0.0
 10
147.1248472109199
 20
124.821940551427
 30
0.0
 10
147.0224467250028
 20
124.3558404811164
 30
0.0
 10
146.9457584279436
 20
124.1266878614406
 30
0.0
 10
146.7465423176272
 20
123.6870179493449
 30
0.0
 10
146.6224356836227
 20
123.4731305286808
 30
0.0
 10
146.3305593356211
 20
123.0696478065372
 30
0.0
 10
146.1652870314392
 20
122.8827748491595
 30
0.0
 10
145.7969039282556
 20
122.5388268257336
 30
0.0
 10
145.591394021628
 20
122.3805947141012
 30
0.0
 10
145.1572896776958
 20
122.1078053648844
 30
0.0
 10
144.9278043900684
 20
121.991766294965
 30
0.0
 10
144.4435917127079
 20
121.8015857393652
 30
0.0
 10
144.1895983869359
 20
121.7284372183123
 30
0.0
 10
143.6782202508097
 20
121.6315509302635
 30
0.0
 10
143.4180902267426
 20
121.6066427828512
 30
0.0
 10
142.8890860128507
 20
121.6061902028136
 30
0.0
 10
142.6289982820636
 20
121.6306372108533
 30
0.0
 10
142.1172807593548
 20
121.7266793411681
 30
0.0
 10
141.8629696416216
 20
121.7994700021592
 30
0.0
 10
141.378591795656
 20
121.9887780180434
 30
0.0
 10
141.1488270388933
 20
122.1044463258997
 30
0.0
 10
140.7138649820201
 20
122.3767746415675
 30
0.0
 10
140.5081887198903
 20
122.5346293355147
 30
0.0
 10
140.1393458747642
 20
122.8778422518076
 30
0.0
 10
139.97366215711
 20
123.0644913883866
 30
0.0
 10
139.6807607401098
 20
123.467954585798
 30
0.0
 10
139.5565500081841
 20
123.6812168451533
 30
0.0
 10
139.3565414562624
 20
124.120464168722
 30
0.0
 10
139.279403906676
 20
124.3494051717911
 30
0.0
 10
139.1759708764052
 20
124.815967483809
 30
0.0
 10
139.149982566332
 20
125.0504974995918
 30
0.0
 10
139.149982566332
 20
125.5219201130317
 30
0.0
  0
ARC
  5
80
330
1F
100
AcDbEntity
  8
0
  6
Continuous
 62
     7
370
    15
100
AcDbCircle
 10
143.3130118492
 20
123.0365664091
 30
0.0
 40
3.910308396343751
100
AcDbArc
 50
18.6034682283
 51
92.3894785612
  0
ARC
  5
81
330
1F
100
AcDbEntity
  8
0
  6
Continuous
 62
     7
370
    15
100
AcDbCircle
 10
143.032529735
 20
122.9669798307
 30
0.0
 40
3.978229184175092
100
AcDbArc
 50
88.3081594227
 51
160.0239935182
  0
SPLINE
  5
82
330
1F
100
AcDbEntity
  8
0
  6
Continuous
 62
     7
370
    15
100
AcDbSpline
210
0.0
220
0.0
230
1.0
 70
     8
 71
     3
 72
    10
 73
     6
 74
     0
 42
0.00000001
 43
0.00000001
 40
0.0
 40
0.0
 40
0.0
 40
0.0
 40
0.5
 40
0.5
 40
1.0
 40
1.0
 40
1.0
 40
1.0
 10
151.6342800980229
 20
137.3855080645161
 30
0.0
 10
151.5127398343544
 20
137.4602342317279
 30
0.0
 10
151.4114054740055
 20
137.5691792476447
 30
0.0
 10
151.2757665311171
 20
137.8196097284062
 30
0.0
 10
151.239982566332
 20
137.9620290905052
 30
0.0
 10
151.239982566332
 20
138.1051619155519
 30
0.0
  0
SPLINE
  5
83
330
1F
100
AcDbEntity
  8
0
  6
Continuous
 62
     7
370
    15
100
AcDbSpline
210
0.0
220
0.0
230
1.0
 70
    24
 71
     3
 72
    12
 73
     8
 74
     0
 42
0.00000001
 43
0.00000001
 40
0.0
 40
0.0
 40
0.0
 40
0.0
 40
0.2500000000000037
 40
0.2500000000000037
 40
0.5000000000000074
 40
0.5000000000000074
 40
1.0
 40
1.0
 40
1.0
 40
1.0
 10
152.039982566332
 20
137.3855080645161
 30
0.0
 10
151.9901058840145
 20
137.3855080645161
 30
0.0
 10
151.9421026906109
 20
137.3855080645161
 30
0.0
 10
151.859054587899
 20
137.3855080645161
 30
0.0
 10
151.8229250084311
 20
137.3855080645161
 30
0.0
 10
151.7270129774869
 20
137.3855080645161
 30
0.0
 10
151.6772543095181
 20
137.3855080645161
 30
0.0
 10
151.6342800980229
 20
137.3855080645161
 30
0.0
  0
SPLINE
  5
84
330
1F
100
AcDbEntity
  8
0
  6
Continuous
 62
     7
370
    15
100
AcDbSpline
210
0.0
220
0.0
230
1.0
 70
    24
 71
     3
 72
    14
 73
    10
 74
     0
 42
0.00000001
 43
0.00000001
 40
0.0
 40
0.0
 40
0.0
 40
0.0
 40
0.1249999999999991
 40
0.1249999999999991
 40
0.2499999999999982
 40
0.2499999999999982
 40
0.4999999999999998
 40
0.4999999999999998
 40
1.0
 40
1.0
 40
1.0
 40
1.0
 10
152.039982566332
 20
84.58550806451612
 30
0.0
 10
151.9715447184455
 20
84.58550806451612
 30
0.0
 10
151.9059946796805
 20
84.58550806451612
 30
0.0
 10
151.8015680402725
 20
84.58550806451612
 30
0.0
 10
151.7590234305111
 20
84.58550806451612
 30
0.0
 10
151.6464139699709
 20
84.5855080645161
 30
0.0
 10
151.5908749229514
 20
84.58550806451612
 30
0.0
 10
151.4482632274876
 20
84.5855080645161
 30
0.0
 10
151.3848578724918
 20
84.5855080645161
 30
0.0
 10
151.3376573686643
 20
84.58550806451612
 30
0.0
  0
SPLINE
  5
85
330
1F
100
AcDbEntity
  8
0
  6
Continuous
 62
     7
370
    15
100
AcDbSpline
210
0.0
220
0.0
230
1.0
 70
     8
 71
     3
 72
    10
 73
     6
 74
     0
 42
0.00000001
 43
0.00000001
 40
0.0
 40
0.0
 40
0.0
 40
0.0
 40
0.5
 40
0.5
 40
1.0
 40
1.0
 40
1.0
 40
1.0
 10
151.239982566332
 20
131.1213746959775
 30
0.0
 10
151.239982566332
 20
131.0736031879842
 30
0.0
 10
151.2421438099291
 20
131.0258934659225
 30
0.0
 10
151.2508151837893
 20
130.9305983483742
 30
0.0
 10
151.2573443667453
 20
130.8829057844076
 30
0.0
 10
151.2661301894921
 20
130.8355080645161
 30
0.0
  0
SPLINE
  5
86
330
1F
100
AcDbEntity
  8
0
  6
Continuous
 62
     7
370
    15
100
AcDbSpline
210
0.0
220
0.0
230
1.0
 70
    24
 71
     3
 72
    14
 73
    10
 74
     0
 42
0.00000001
 43
0.00000001
 40
0.0
 40
0.0
 40
0.0
 40
0.0
 40
0.5000000000000013
 40
0.5000000000000013
 40
0.750000000000002
 40
0.750000000000002
 40
0.875000000000001
 40
0.875000000000001
 40
1.0
 40
1.0
 40
1.0
 40
1.0
 10
154.9623077639997
 20
84.58550806451612
 30
0.0
 10
154.9155230589515
 20
84.5855080645161
 30
0.0
 10
154.8534718621719
 20
84.58550806451612
 30
0.0
 10
154.7100802236212
 20
84.58550806451612
 30
0.0
 10
154.6539365700701
 20
84.5855080645161
 30
0.0
 10
154.5409855479339
 20
84.5855080645161
 30
0.0
 10
154.4979847858958
 20
84.58550806451612
 30
0.0
 10
154.3939220755893
 20
84.5855080645161
 30
0.0
 10
154.3285898372324
 20
84.58550806451612
 30
0.0
 10
154.259982566332
 20
84.58550806451612
 30
0.0
  0
SPLINE
  5
87
330
1F
100
AcDbEntity
  8
0
  6
Continuous
 62
     7
370
    15
100
AcDbSpline
210
0.0
220
0.0
230
1.0
 70
    24
 71
     3
 72
    12
 73
     8
 74
     0
 42
0.00000001
 43
0.00000001
 40
0.0
 40
0.0
 40
0.0
 40
0.0
 40
0.5000000000000017
 40
0.5000000000000017
 40
0.7500000000000008
 40
0.7500000000000008
 40
1.0
 40
1.0
 40
1.0
 40
1.0
 10
154.665685034641
 20
137.3855080645161
 30
0.0
 10
154.6225994850301
 20
137.3855080645161
 30
0.0
 10
154.5734472832807
 20
137.3855080645161
 30
0.0
 10
154.4769746889928
 20
137.3855080645161
 30
0.0
 10
154.4408731038582
 20
137.3855080645161
 30
0.0
 10
154.357767345997
 20
137.3855080645161
 30
0.0
 10
154.3097707490307
 20
137.3855080645161
 30
0.0
 10
154.259982566332
 20
137.3855080645161
 30
0.0
  0
SPLINE
  5
88
330
1F
100
AcDbEntity
  8
0
  6
Continuous
 62
     7
370
    15
100
AcDbSpline
210
0.0
220
0.0
230
1.0
 70
     8
 71
     3
 72
    10
 73
     6
 74
     0
 42
0.00000001
 43
0.00000001
 40
0.0
 40
0.0
 40
0.0
 40
0.0
 40
0.5
 40
0.5
 40
1.0
 40
1.0
 40
1.0
 40
1.0
 10
155.059982566332
 20
138.1051619155519
 30
0.0
 10
155.059982566332
 20
137.9613918577339
 30
0.0
 10
155.0239335076131
 20
137.8189724952387
 30
0.0
 10
154.8884246468391
 20
137.5690782018815
 30
0.0
 10
154.7885486537429
 20
137.4610478656333
 30
0.0
 10
154.665685034641
 20
137.3855080645161
 30
0.0
  0
SPLINE
  5
89
330
1F
100
AcDbEntity
  8
0
  6
Continuous
 62
     7
370
    15
100
AcDbSpline
210
0.0
220
0.0
230
1.0
 70
     8
 71
     3
 72
    10
 73
     6
 74
     0
 42
0.00000001
 43
0.00000001
 40
0.0
 40
0.0
 40
0.0
 40
0.0
 40
0.5
 40
0.5
 40
1.0
 40
1.0
 40
1.0
 40
1.0
 10
155.0338349431719
 20
130.8355080645161
 30
0.0
 10
155.0425245860835
 20
130.8823869138342
 30
0.0
 10
155.049063650834
 20
130.9298093792355
 30
0.0
 10
155.057822285227
 20
131.0257461778222
 30
0.0
 10
155.059982566332
 20
131.0736614658328
 30
0.0
 10
155.059982566332
 20
131.1213746959773
 30
0.0
  0
LINE
  5
8A
330
1F
100
AcDbEntity
  8
0
  6
Continuous
 62
     7
370
    15
100
AcDbLine
 10
154.2599825663
 20
137.3855080645
 30
0.0
 11
152.0399825663
 21
137.3855080645
 31
0.0
  0
LINE
  5
8B
330
1F
100
AcDbEntity
  8
0
  6
Continuous
 62
     7
370
    15
100
AcDbLine
 10
154.2599825663
 20
84.5855080645
 30
0.0
 11
152.0399825663
 21
84.5855080645
 31
0.0
  0
LINE
  5
8C
330
1F
100
AcDbEntity
  8
0
  6
Continuous
 62
     7
370
    15
100
AcDbLine
 10
113.3499825663
 20
87.7570611707
 30
0.0
 11
113.3499825663
 21
89.0217705333
 31
0.0
  0
SPLINE
  5
8D
330
1F
100
AcDbEntity
  8
0
  6
Continuous
 62
     7
370
    15
100
AcDbSpline
210
0.0
220
0.0
230
1.0
 70
     8
 71
     3
 72
    14
 73
    10
 74
     0
 42
0.00000001
 43
0.00000001
 40
0.0
 40
0.0
 40
0.0
 40
0.0
 40
0.25
 40
0.25
 40
0.5
 40
0.5
 40
0.75
 40
0.75
 40
1.0
 40
1.0
 40
1.0
 40
1.0
 10
112.5716954484163
 20
90.15235674095617
 30
0.0
 10
112.6283221236183
 20
90.0446592871193
 30
0.0
 10
112.7228447839081
 20
89.94186970539998
 30
0.0
 10
112.9058897594703
 20
89.74351239317983
 30
0.0
 10
112.997516336425
 20
89.64745288450159
 30
0.0
 10
113.1563696541182
 20
89.45992384179235
 30
0.0
 10
113.2242602617399
 20
89.36851486900879
 30
0.0
 10
113.3211772874475
 20
89.19013864809864
 30
0.0
 10
113.3499825663326
 20
89.10291674185245
 30
0.0
 10
113.3499825663326
 20
89.02177053331819
 30
0.0
  0
SPLINE
  5
8E
330
1F
100
AcDbEntity
  8
0
  6
Continuous
 62
     7
370
    15
100
AcDbSpline
210
0.0
220
0.0
230
1.0
 70
     8
 71
     3
 72
    14
 73
    10
 74
     0
 42
0.00000001
 43
0.00000001
 40
0.0
 40
0.0
 40
0.0
 40
0.0
 40
0.1249999999999975
 40
0.1249999999999975
 40
0.249999999999995
 40
0.249999999999995
 40
0.4999999999999953
 40
0.4999999999999953
 40
1.0
 40
1.0
 40
1.0
 40
1.0
 10
111.949982566332
 20
90.59903860323548
 30
0.0
 10
111.9985269749891
 20
90.60478691651578
 30
0.0
 10
112.0514423297741
 20
90.60168602785953
 30
0.0
 10
112.1467376747571
 20
90.57949118369721
 30
0.0
 10
112.186988672042
 20
90.56225895660134
 30
0.0
 10
112.291258685555
 20
90.50593104014928
 30
0.0
 10
112.3415806607083
 20
90.46174469420349
 30
0.0
 10
112.4692636082337
 20
90.33073679535286
 30
0.0
 10
112.525349055296
 20
90.24050227512257
 30
0.0
 10
112.5716954484177
 20
90.15235674095669
 30
0.0
  0
SPLINE
  5
8F
330
1F
100
AcDbEntity
  8
0
  6
Continuous
 62
     7
370
    15
100
AcDbSpline
210
0.0
220
0.0
230
1.0
 70
     8
 71
     3
 72
     8
 73
     4
 74
     0
 42
0.00000001
 43
0.00000001
 40
0.0
 40
0.0
 40
0.0
 40
0.0
 40
1.0
 40
1.0
 40
1.0
 40
1.0
 10
109.6814574733858
 20
90.2891933166527
 30
0.0
 10
110.4160344998687
 20
90.40781832772166
 30
0.0
 10
111.1795095692644
 20
90.50780419985793
 30
0.0
 10
111.949982566332
 20
90.59903860323548
 30
0.0
  0
SPLINE
  5
90
330
1F
100
AcDbEntity
  8
0
  6
Continuous
 62
     7
370
    15
100
AcDbSpline
210
0.0
220
0.0
230
1.0
 70
     8
 71
     3
 72
    14
 73
    10
 74
     0
 42
0.00000001
 43
0.00000001
 40
0.0
 40
0.0
 40
0.0
 40
0.0
 40
0.500000000000001
 40
0.500000000000001
 40
0.7500000000000004
 40
0.7500000000000004
 40
0.8750000000000003
 40
0.8750000000000003
 40
1.0
 40
1.0
 40
1.0
 40
1.0
 10
104.399982566332
 20
90.11557029912105
 30
0.0
 10
105.2921286968856
 20
90.1148480729204
 30
0.0
 10
106.1821051326792
 20
90.11943427937786
 30
0.0
 10
107.5087002997548
 20
90.14715928376938
 30
0.0
 10
107.9495472282535
 20
90.15976582139356
 30
0.0
 10
108.6059874656759
 20
90.19078196940102
 30
0.0
 10
108.8240011222678
 20
90.20312514202779
 30
0.0
 10
109.2567099759506
 20
90.23614919719107
 30
0.0
 10
109.4719864411154
 20
90.2553663623295
 30
0.0
 10
109.6814574733858
 20
90.2891933166527
 30
0.0
  0
SPLINE
  5
91
330
1F
100
AcDbEntity
  8
0
  6
Continuous
 62
     7
370
    15
100
AcDbSpline
210
0.0
220
0.0
230
1.0
 70
     8
 71
     3
 72
     8
 73
     4
 74
     0
 42
0.00000001
 43
0.00000001
 40
0.0000005163856998
 40
0.0000005163856998
 40
0.0000005163856998
 40
0.0000005163856998
 40
0.000026289209185
 40
0.000026289209185
 40
0.000026289209185
 40
0.000026289209185
 10
104.3899376359244
 20
90.12555417221782
 30
0.0
 10
104.3932653741322
 20
90.1222199253487
 30
0.0
 10
104.3966138271078
 20
90.1188919680734
 30
0.0
 10
104.399982566332
 20
90.11557029912103
 30
0.0
  0
SPLINE
  5
92
330
1F
100
AcDbEntity
  8
0
  6
Continuous
 62
     7
370
    15
100
AcDbSpline
210
0.0
220
0.0
230
1.0
 70
     8
 71
     3
 72
     8
 73
     4
 74
     0
 42
0.00000001
 43
0.00000001
 40
0.0000005099763573
 40
0.0000005099763573
 40
0.0000005099763573
 40
0.0000005099763573
 40
0.0000262827998699
 40
0.0000262827998699
 40
0.0000262827998699
 40
0.0000262827998699
 10
104.399982566332
 20
131.8554458299112
 30
0.0
 10
104.3966138271042
 20
131.8521241609553
 30
0.0
 10
104.3932653741251
 20
131.8487962036764
 30
0.0
 10
104.3899376359137
 20
131.8454619568037
 30
0.0
  0
SPLINE
  5
93
330
1F
100
AcDbEntity
  8
0
  6
Continuous
 62
     7
370
    15
100
AcDbSpline
210
0.0
220
0.0
230
1.0
 70
     8
 71
     3
 72
    10
 73
     6
 74
     0
 42
0.00000001
 43
0.00000001
 40
0.0
 40
0.0
 40
0.0
 40
0.0
 40
0.5
 40
0.5
 40
1.0
 40
1.0
 40
1.0
 40
1.0
 10
107.949982566332
 20
131.8085954563439
 30
0.0
 10
107.3623970192414
 20
131.8296609765803
 30
0.0
 10
106.771650625781
 20
131.8404194624525
 30
0.0
 10
105.5876314604822
 20
131.8537842429882
 30
0.0
 10
104.9942174722767
 20
131.8559268856527
 30
0.0
 10
104.399982566332
 20
131.8554458299112
 30
0.0
  0
SPLINE
  5
94
330
1F
100
AcDbEntity
  8
0
  6
Continuous
 62
     7
370
    15
100
AcDbSpline
210
0.0
220
0.0
230
1.0
 70
     8
 71
     3
 72
    18
 73
    14
 74
     0
 42
0.00000001
 43
0.00000001
 40
0.0
 40
0.0
 40
0.0
 40
0.0
 40
0.2500000000000009
 40
0.2500000000000009
 40
0.500000000000001
 40
0.500000000000001
 40
0.7500000000000011
 40
0.7500000000000011
 40
0.875000000000001
 40
0.875000000000001
 40
0.9375000000000006
 40
0.9375000000000006
 40
1.0
 40
1.0
 40
1.0
 40
1.0
 10
109.349982566332
 20
132.8296157368791
 30
0.0
 10
109.349982566332
 20
132.7464088280219
 30
0.0
 10
109.3141334663937
 20
132.6576721727083
 30
0.0
 10
109.1892617303598
 20
132.4755469821481
 30
0.0
 10
109.0988613127119
 20
132.3804169335215
 30
0.0
 10
108.8766186579698
 20
132.1912354243971
 30
0.0
 10
108.746853871524
 20
132.0962902563024
 30
0.0
 10
108.5062164142125
 20
131.9580115487225
 30
0.0
 10
108.418449116075
 20
131.9123011154201
 30
0.0
 10
108.2639250288682
 20
131.8544778101987
 30
0.0
 10
108.2073141428135
 20
131.8367630461608
 30
0.0
 10
108.0832701119069
 20
131.8122237429279
 30
0.0
 10
108.0155554368886
 20
131.8062446043896
 30
0.0
 10
107.949982566332
 20
131.8085954563439
 30
0.0
  0
LINE
  5
95
330
1F
100
AcDbEntity
  8
0
  6
Continuous
 62
     7
370
    15
100
AcDbLine
 10
109.3499825663
 20
132.8296157369
 30
0.0
 11
109.3499825663
 21
134.0135541567
 31
0.0
  0
LINE
  5
96
330
1F
100
AcDbEntity
  8
0
  6
Continuous
 62
     7
370
    15
100
AcDbLine
 10
133.1499825663
 20
86.7650772028
 30
0.0
 11
133.1499825663
 21
135.2059389262
 31
0.0
  0
SPLINE
  5
97
330
1F
100
AcDbEntity
  8
0
  6
Continuous
 62
     7
370
    15
100
AcDbSpline
210
0.0
220
0.0
230
1.0
 70
     8
 71
     3
 72
    24
 73
    20
 74
     0
 42
0.00000001
 43
0.00000001
 40
0.0
 40
0.0
 40
0.0
 40
0.0
 40
0.0010489762969682
 40
0.0637843125639766
 40
0.1272220590447888
 40
0.1903788924487598
 40
0.252674865369363
 40
0.3146354154424954
 40
0.377089199714964
 40
0.4393540298504154
 40
0.5008133242537826
 40
0.562184510458698
 40
0.624843845111553
 40
0.6874304766616532
 40
0.7496743174679398
 40
0.8119848426977657
 40
0.8750960525413161
 40
0.9384412526965076
 40
0.9999999999999999
 40
0.9999999999999999
 40
0.9999999999999999
 40
0.9999999999999999
 10
121.9188883983077
 20
87.32799963593595
 30
0.0
 10
121.9184419382034
 20
87.32794135011707
 30
0.0
 10
121.8912943745097
 20
87.32439720817455
 30
0.0
 10
121.9869061521234
 20
87.3372309528573
 30
0.0
 10
122.2204664100178
 20
87.36647763805748
 30
0.0
 10
122.6160207173351
 20
87.41309196112032
 30
0.0
 10
123.1430610211726
 20
87.46327510277968
 30
0.0
 10
123.7865914331624
 20
87.50765156522928
 30
0.0
 10
124.5252652884014
 20
87.53459634616749
 30
0.0
 10
125.3227797938347
 20
87.53806819687428
 30
0.0
 10
126.1493586762775
 20
87.51044095284404
 30
0.0
 10
126.9748816938883
 20
87.45196206387071
 30
0.0
 10
127.7670082418895
 20
87.36651703451062
 30
0.0
 10
128.4995805158953
 20
87.2647827946743
 30
0.0
 10
129.1352207526234
 20
87.15693967270133
 30
0.0
 10
129.6571318596328
 20
87.05530951596224
 30
0.0
 10
130.0387606367484
 20
86.97282435928402
 30
0.0
 10
130.2895751069822
 20
86.9166751529344
 30
0.0
 10
130.3186966629665
 20
86.90982569432066
 30
0.0
 10
130.3330491837827
 20
86.90644994759249
 30
0.0
  0
SPLINE
  5
98
330
1F
100
AcDbEntity
  8
0
  6
Continuous
 62
     7
370
    15
100
AcDbSpline
210
0.0
220
0.0
230
1.0
 70
     8
 71
     3
 72
    24
 73
    20
 74
     0
 42
0.00000001
 43
0.00000001
 40
0.0
 40
0.0
 40
0.0
 40
0.0
 40
0.0614384276250176
 40
0.1250736755369651
 40
0.1884253490729237
 40
0.2508623904037427
 40
0.3129665632511172
 40
0.3753451453465143
 40
0.4377328972324873
 40
0.4990927322917189
 40
0.5605807588447405
 40
0.6229469893028771
 40
0.6854686282025979
 40
0.7475477813740068
 40
0.8098225060804932
 40
0.8730684085990272
 40
0.9364041844536292
 40
0.9991757196257863
 40
1.0
 40
1.0
 40
1.0
 40
1.0
 10
130.3329944129797
 20
135.0645370389735
 30
0.0
 10
130.3183936886763
 20
135.0611689821209
 30
0.0
 10
130.2886701699483
 20
135.0543124386471
 30
0.0
 10
130.0359323542997
 20
134.9979738181212
 30
0.0
 10
129.6529364378501
 20
134.9151167359912
 30
0.0
 10
129.1305808534129
 20
134.8132097060399
 30
0.0
 10
128.4957963754131
 20
134.7053705669961
 30
0.0
 10
127.7655727712404
 20
134.603903615021
 30
0.0
 10
126.9751041860063
 20
134.5188439013303
 30
0.0
 10
126.1506206711782
 20
134.4606396074439
 30
0.0
 10
125.3235842122947
 20
134.4330561686172
 30
0.0
 10
124.525259944643
 20
134.4365491461101
 30
0.0
 10
123.7854359803538
 20
134.4635050659632
 30
0.0
 10
123.1411817473787
 20
134.5078590079625
 30
0.0
 10
122.6137744921627
 20
134.5580644577203
 30
0.0
 10
122.2191098900125
 20
134.6046743129187
 30
0.0
 10
121.9865806108242
 20
134.633869905466
 30
0.0
 10
121.8912005782756
 20
134.6466479744073
 30
0.0
 10
121.9181342151766
 20
134.6430937158995
 30
0.0
 10
121.9184833084009
 20
134.6430476483162
 30
0.0
  0
SPLINE
  5
99
330
1F
100
AcDbEntity
  8
0
  6
Continuous
 62
     7
370
    15
100
AcDbSpline
210
0.0
220
0.0
230
1.0
 70
     8
 71
     3
 72
    10
 73
     6
 74
     0
 42
0.00000001
 43
0.00000001
 40
0.0
 40
0.0
 40
0.0
 40
0.0
 40
0.0840381716606348
 40
0.7011125076933074
 40
1.0
 40
1.0
 40
1.0
 40
1.0
 10
103.2635295288677
 20
91.25673415683278
 30
0.0
 10
103.2642040862026
 20
91.25452852999688
 30
0.0
 10
103.2698317738988
 20
91.23612745663466
 30
0.0
 10
103.2961532540256
 20
91.25036201935784
 30
0.0
 10
103.3085882708703
 20
91.29604779490883
 30
0.0
 10
103.3126459410554
 20
91.31095551973539
 30
0.0
  0
LINE
  5
9A
330
1F
100
AcDbEntity
  8
0
  6
Continuous
 62
     7
370
    15
100
AcDbLine
 10
103.2499825663
 20
91.294830318
 30
0.0
 11
103.2499825663
 21
130.676185811
 31
0.0
  0
SPLINE
  5
9B
330
1F
100
AcDbEntity
  8
0
  6
Continuous
 62
     7
370
    15
100
AcDbSpline
210
0.0
220
0.0
230
1.0
 70
     8
 71
     3
 72
    10
 73
     6
 74
     0
 42
0.00000001
 43
0.00000001
 40
0.0
 40
0.0
 40
0.0
 40
0.0
 40
0.3981552638809415
 40
0.8068145697130351
 40
1.0
 40
1.0
 40
1.0
 40
1.0
 10
103.3126459410554
 20
130.6600606092968
 30
0.0
 10
103.3069824363309
 20
130.6789023938477
 30
0.0
 10
103.2955060135836
 20
130.7170830426401
 30
0.0
 10
103.2719917856094
 20
130.7306663265077
 30
0.0
 10
103.2669758297916
 20
130.7149660323875
 30
0.0
 10
103.265365764064
 20
130.7099264135403
 30
0.0
  0
SPLINE
  5
9C
330
1F
100
AcDbEntity
  8
0
  6
Continuous
 62
     7
370
    15
100
AcDbSpline
210
0.0
220
0.0
230
1.0
 70
     8
 71
     3
 72
    26
 73
    22
 74
     0
 42
0.00000001
 43
0.00000001
 40
0.0
 40
0.0
 40
0.0
 40
0.0
 40
0.2500000000000165
 40
0.2500000000000165
 40
0.3750000000000256
 40
0.3750000000000256
 40
0.4375000000000291
 40
0.4375000000000291
 40
0.4687500000000291
 40
0.4687500000000291
 40
0.5000000000000292
 40
0.5000000000000292
 40
0.5312500000000293
 40
0.5312500000000293
 40
0.5625000000000293
 40
0.5625000000000293
 40
0.625000000000026
 40
0.625000000000026
 40
0.7500000000000173
 40
0.7500000000000173
 40
1.0
 40
1.0
 40
1.0
 40
1.0
 10
104.0741362124365
 20
131.3756273981139
 30
0.0
 10
104.035535689568
 20
131.2578527017585
 30
0.0
 10
103.9892386870138
 20
131.1334630155966
 30
0.0
 10
103.8952993385798
 20
130.9282436832431
 30
0.0
 10
103.8599878716664
 20
130.8566708167967
 30
0.0
 10
103.7938078959207
 20
130.7407175841962
 30
0.0
 10
103.7692695292525
 20
130.700133049386
 30
0.0
 10
103.7258967836987
 20
130.6359913675142
 30
0.0
 10
103.7103883822735
 20
130.6141249422292
 30
0.0
 10
103.6753457376865
 20
130.568530673886
 30
0.0
 10
103.6557954469667
 20
130.5448603829185
 30
0.0
 10
103.6138681665961
 20
130.5002438235786
 30
0.0
 10
103.5912160563645
 20
130.4793638110607
 30
0.0
 10
103.5502423422778
 20
130.4484903973099
 30
0.0
 10
103.5326430423824
 20
130.4386515274775
 30
0.0
 10
103.4880160565262
 20
130.4196619117813
 30
0.0
 10
103.4674568338729
 20
130.4193375871279
 30
0.0
 10
103.4163313943762
 20
130.4285610280041
 30
0.0
 10
103.3954199813877
 20
130.449807924221
 30
0.0
 10
103.3439700738268
 20
130.5237768030518
 30
0.0
 10
103.3263047745222
 20
130.5898948963666
 30
0.0
 10
103.3126459410554
 20
130.6600606092969
 30
0.0
  0
SPLINE
  5
9D
330
1F
100
AcDbEntity
  8
0
  6
Continuous
 62
     7
370
    15
100
AcDbSpline
210
0.0
220
0.0
230
1.0
 70
     8
 71
     3
 72
    10
 73
     6
 74
     0
 42
0.00000001
 43
0.00000001
 40
0.0
 40
0.0
 40
0.0
 40
0.0
 40
0.5
 40
0.5
 40
1.0
 40
1.0
 40
1.0
 40
1.0
 10
104.3899376359138
 20
131.8454619568037
 30
0.0
 10
104.3223783809955
 20
131.777770563994
 30
0.0
 10
104.258741725659
 20
131.7030633992403
 30
0.0
 10
104.1485209710872
 20
131.5440972668137
 30
0.0
 10
104.1017046778646
 20
131.4597420008057
 30
0.0
 10
104.0741362124365
 20
131.3756273981139
 30
0.0
  0
SPLINE
  5
9E
330
1F
100
AcDbEntity
  8
0
  6
Continuous
 62
     7
370
    15
100
AcDbSpline
210
0.0
220
0.0
230
1.0
 70
     8
 71
     3
 72
    10
 73
     6
 74
     0
 42
0.00000001
 43
0.00000001
 40
0.0
 40
0.0
 40
0.0
 40
0.0
 40
0.5
 40
0.5
 40
1.0
 40
1.0
 40
1.0
 40
1.0
 10
104.0741362124365
 20
90.59538873091815
 30
0.0
 10
104.1016136271905
 20
90.51155193445027
 30
0.0
 10
104.1483222574799
 20
90.42724144686112
 30
0.0
 10
104.2586007202259
 20
90.26812021637441
 30
0.0
 10
104.3224882588398
 20
90.19313547228477
 30
0.0
 10
104.3899376359244
 20
90.12555417221782
 30
0.0
  0
SPLINE
  5
9F
330
1F
100
AcDbEntity
  8
0
  6
Continuous
 62
     7
370
    15
100
AcDbSpline
210
0.0
220
0.0
230
1.0
 70
     8
 71
     3
 72
    24
 73
    20
 74
     0
 42
0.00000001
 43
0.00000001
 40
0.0
 40
0.0
 40
0.0
 40
0.0
 40
0.25
 40
0.25
 40
0.374999999999999
 40
0.374999999999999
 40
0.4374999999999993
 40
0.4374999999999993
 40
0.4687499999999994
 40
0.4687499999999994
 40
0.4999999999999995
 40
0.4999999999999995
 40
0.5624999999999971
 40
0.5624999999999971
 40
0.6249999999999947
 40
0.6249999999999947
 40
0.7499999999999947
 40
0.7499999999999947
 40
1.0
 40
1.0
 40
1.0
 40
1.0
 10
103.3126459410554
 20
91.31095551973536
 30
0.0
 10
103.3263990597256
 20
91.38160557772565
 30
0.0
 10
103.3441716271315
 20
91.44820369049059
 30
0.0
 10
103.3964227186868
 20
91.52230171072378
 30
0.0
 10
103.4174577942684
 20
91.54355951788534
 30
0.0
 10
103.4703582018968
 20
91.55170544403158
 30
0.0
 10
103.4914638747748
 20
91.55076564063582
 30
0.0
 10
103.5375160434527
 20
91.52974964905847
 30
0.0
 10
103.5558865154361
 20
91.51884084295085
 30
0.0
 10
103.5974381505018
 20
91.48620593200349
 30
0.0
 10
103.6200048232587
 20
91.4647139516321
 30
0.0
 10
103.6827858397187
 20
91.3962480080458
 30
0.0
 10
103.7159156006866
 20
91.3501735498407
 30
0.0
 10
103.7728332871717
 20
91.26516566150605
 30
0.0
 10
103.7970193126754
 20
91.22488536032466
 30
0.0
 10
103.8622272630552
 20
91.1099491338587
 30
0.0
 10
103.8969433232464
 20
91.03936614871171
 30
0.0
 10
103.9901585935773
 20
90.8351603896331
 30
0.0
 10
104.035831128938
 20
90.71226200730574
 30
0.0
 10
104.0741362124365
 20
90.59538873091816
 30
0.0
  0
LINE
  5
A0
330
1F
100
AcDbEntity
  8
0
  6
Continuous
 62
     7
370
    15
100
AcDbLine
 10
160.4999825663
 20
141.4527035377
 30
0.0
 11
156.5419153978
 21
141.4527035377
 31
0.0
  0
LINE
  5
A1
330
1F
100
AcDbEntity
  8
0
  6
Continuous
 62
     7
370
    15
100
AcDbLine
 10
156.5419153978
 20
135.4441977269
 30
0.0
 11
160.4999825663
 21
135.4441977269
 31
0.0
  0
LINE
  5
A2
330
1F
100
AcDbEntity
  8
0
  6
Continuous
 62
     7
370
    15
100
AcDbLine
 10
156.5419153978
 20
135.4441977269
 30
0.0
 11
156.5419153978
 21
141.4527035377
 31
0.0
  0
SPLINE
  5
A3
330
1F
100
AcDbEntity
  8
0
  6
Continuous
 62
     7
370
    15
100
AcDbSpline
210
0.0
220
0.0
230
1.0
 70
     8
 71
     3
 72
     8
 73
     4
 74
     0
 42
0.00000001
 43
0.00000001
 40
0.0
 40
0.0
 40
0.0
 40
0.0
 40
1.0
 40
1.0
 40
1.0
 40
1.0
 10
155.059982566332
 20
132.0356517320994
 30
0.0
 10
155.5392607169218
 20
133.176662961952
 30
0.0
 10
156.0348285560618
 20
134.3130473727199
 30
0.0
 10
156.541915397821
 20
135.4441977268835
 30
0.0
  0
SPLINE
  5
A4
330
1F
100
AcDbEntity
  8
0
  6
Continuous
 62
     7
370
    15
100
AcDbSpline
210
0.0
220
0.0
230
1.0
 70
     8
 71
     3
 72
    12
 73
     8
 74
     0
 42
0.00000001
 43
0.00000001
 40
0.0
 40
0.0
 40
0.0
 40
0.0
 40
0.250000000000002
 40
0.250000000000002
 40
0.500000000000004
 40
0.500000000000004
 40
1.0
 40
1.0
 40
1.0
 40
1.0
 10
160.499982566332
 20
135.4441977268836
 30
0.0
 10
160.5911822881576
 20
135.4441977268836
 30
0.0
 10
160.6817772972936
 20
135.4159780282957
 30
0.0
 10
160.8351900237403
 20
135.3215350210476
 30
0.0
 10
160.900398891064
 20
135.2552480443422
 30
0.0
 10
161.0531834204039
 20
135.029623221054
 30
0.0
 10
161.099982566332
 20
134.8471969580214
 30
0.0
 10
161.099982566332
 20
134.6664603257745
 30
0.0
  0
LINE
  5
A5
330
1F
100
AcDbEntity
  8
0
  6
Continuous
 62
     7
370
    15
100
AcDbLine
 10
155.0599825663
 20
131.121374696
 30
0.0
 11
155.0599825663
 21
132.0356517321
 31
0.0
  0
LINE
  5
A6
330
1F
100
AcDbEntity
  8
0
  6
Continuous
 62
     7
370
    15
100
AcDbLine
 10
161.0999825663
 20
134.6664603258
 30
0.0
 11
161.0999825663
 21
130.8355080645
 31
0.0
  0
SPLINE
  5
A7
330
1F
100
AcDbEntity
  8
0
  6
Continuous
 62
     7
370
    15
100
AcDbSpline
210
0.0
220
0.0
230
1.0
 70
     8
 71
     3
 72
     8
 73
     4
 74
     0
 42
0.00000001
 43
0.00000001
 40
0.0
 40
0.0
 40
0.0
 40
0.0
 40
1.0
 40
1.0
 40
1.0
 40
1.0
 10
151.239982566332
 20
138.7907422556877
 30
0.0
 10
150.7472724694862
 20
139.6787612538141
 30
0.0
 10
150.2531897642072
 20
140.5660238895001
 30
0.0
 10
149.7580497348429
 20
141.4527035376803
 30
0.0
  0
SPLINE
  5
A8
330
1F
100
AcDbEntity
  8
0
  6
Continuous
 62
     7
370
    15
100
AcDbSpline
210
0.0
220
0.0
230
1.0
 70
     8
 71
     3
 72
     8
 73
     4
 74
     0
 42
0.00000001
 43
0.00000001
 40
0.0
 40
0.0
 40
0.0
 40
0.0
 40
1.0
 40
1.0
 40
1.0
 40
1.0
 10
149.7580497348429
 20
135.4441977268835
 30
0.0
 10
150.2651365766022
 20
134.3130473727199
 30
0.0
 10
150.7607044157421
 20
133.176662961952
 30
0.0
 10
151.239982566332
 20
132.0356517320995
 30
0.0
  0
LINE
  5
A9
330
1F
100
AcDbEntity
  8
0
  6
Continuous
 62
     7
370
    15
100
AcDbLine
 10
151.2399825663
 20
132.0356517321
 30
0.0
 11
151.2399825663
 21
138.7907422557
 31
0.0
  0
LINE
  5
AA
330
1F
100
AcDbEntity
  8
0
  6
Continuous
 62
     7
370
    15
100
AcDbLine
 10
151.2399825663
 20
132.0356517321
 30
0.0
 11
151.2399825663
 21
131.121374696
 31
0.0
  0
SPLINE
  5
AB
330
1F
100
AcDbEntity
  8
0
  6
Continuous
 62
     7
370
    15
100
AcDbSpline
210
0.0
220
0.0
230
1.0
 70
     8
 71
     3
 72
     8
 73
     4
 74
     0
 42
0.00000001
 43
0.00000001
 40
0.0
 40
0.0
 40
0.0
 40
0.0
 40
1.0
 40
1.0
 40
1.0
 40
1.0
 10
156.541915397821
 20
141.4527035376803
 30
0.0
 10
156.0467753684567
 20
140.5660238895001
 30
0.0
 10
155.5526926631777
 20
139.6787612538141
 30
0.0
 10
155.059982566332
 20
138.7907422556877
 30
0.0
  0
LINE
  5
AC
330
1F
100
AcDbEntity
  8
0
  6
Continuous
 62
     7
370
    15
100
AcDbLine
 10
155.0599825663
 20
132.0356517321
 30
0.0
 11
155.0599825663
 21
138.7907422557
 31
0.0
  0
SPLINE
  5
AD
330
1F
100
AcDbEntity
  8
0
  6
Continuous
 62
     7
370
    15
100
AcDbSpline
210
0.0
220
0.0
230
1.0
 70
     8
 71
     3
 72
    10
 73
     6
 74
     0
 42
0.00000001
 43
0.00000001
 40
0.0
 40
0.0
 40
0.0
 40
0.0
 40
0.5
 40
0.5
 40
1.0
 40
1.0
 40
1.0
 40
1.0
 10
161.099982566332
 20
140.83194838828
 30
0.0
 10
161.099982566332
 20
140.9923536546308
 30
0.0
 10
161.0377447352251
 20
141.1514154676194
 30
0.0
 10
160.8186098114826
 20
141.3823279332497
 30
0.0
 10
160.6610211164907
 20
141.4527035376803
 30
0.0
 10
160.499982566332
 20
141.4527035376803
 30
0.0
  0
LINE
  5
AE
330
1F
100
AcDbEntity
  8
0
  6
Continuous
 62
     7
370
    15
100
AcDbLine
 10
161.0999825663
 20
134.6664603258
 30
0.0
 11
161.0999825663
 21
140.8319483883
 31
0.0
  0
ARC
  5
AF
330
1F
100
AcDbEntity
  8
0
  6
Continuous
 62
     7
370
    15
100
AcDbCircle
 10
143.2413757182
 20
130.075587762
 30
0.0
 40
6.856131885628139
100
AcDbArc
 50
70.448950334
 51
90.7637829985
  0
ARC
  5
B0
330
1F
100
AcDbEntity
  8
0
  6
Continuous
 62
     7
370
    15
100
AcDbCircle
 10
143.0577180432
 20
130.0843685861
 30
0.0
 40
6.847363528548787
100
AcDbArc
 50
89.2279469712
 51
109.685070272
  0
LINE
  5
B1
330
1F
100
AcDbEntity
  8
0
  6
Continuous
 62
     7
370
    15
100
AcDbLine
 10
215.1499825663
 20
104.9098985562
 30
0.0
 11
215.1499825663
 21
117.0611174084
 31
0.0
  0
LINE
  5
B2
330
1F
100
AcDbEntity
  8
0
  6
HIDDEN
 62
     7
370
     0
100
AcDbLine
 10
149.7580497348
 20
135.4441977269
 30
0.0
 11
149.7580497348
 21
130.8355080645
 31
0.0
  0
LWPOLYLINE
  5
B3
330
1F
100
AcDbEntity
  8
0
  6
HIDDEN
 62
     7
370
     0
100
AcDbPolyline
 90
       22
 70
   128
 43
0.0
 10
147.0190031166
 20
124.2840200077
 10
147.0372288396
 20
124.2196997061
 10
147.1454519231
 20
123.5490318971
 10
147.1092683339
 20
122.8722349098
 10
146.9299858412
 20
122.2137699507
 10
146.6140841815
 20
121.597435659
 10
146.1729808637
 20
121.0455079619
 10
145.6226185112
 20
120.5779349643
 10
144.9828886532
 20
120.2116159727
 10
144.2769127937
 20
119.9597907098
 10
143.5302067395
 20
119.8315607968
 10
142.7697583931
 20
119.8315607968
 10
142.023052339
 20
119.9597907098
 10
141.3170764794
 20
120.2116159727
 10
140.6773466214
 20
120.5779349643
 10
140.1269842689
 20
121.0455079619
 10
139.6858809512
 20
121.597435659
 10
139.3699792915
 20
122.2137699507
 10
139.1906967988
 20
122.8722349098
 10
139.1545132096
 20
123.5490318971
 10
139.262736293
 20
124.2196997061
 10
139.2936476673
 20
124.3260487493
  0
LINE
  5
B4
330
1F
100
AcDbEntity
  8
0
  6
HIDDEN
 62
     7
370
     0
100
AcDbLine
 10
123.1451327709
 20
87.4609084417
 30
0.0
 11
122.8962679522
 21
87.4376454752
 31
0.0
  0
LINE
  5
B5
330
1F
100
AcDbEntity
  8
0
  6
HIDDEN
 62
     7
370
     0
100
AcDbLine
 10
122.763707191
 20
134.5455943927
 30
0.0
 11
123.1450400506
 21
134.5100910945
 31
0.0
  0
SPLINE
  5
B6
330
1F
100
AcDbEntity
  8
0
  6
HIDDEN
 62
     7
370
     0
100
AcDbSpline
210
0.0
220
0.0
230
1.0
 70
     8
 71
     3
 72
    15
 73
    11
 74
     0
 42
0.00000001
 43
0.00000001
 40
0.0
 40
0.0
 40
0.0
 40
0.0
 40
0.1100634733676295
 40
0.2209010786530317
 40
0.3341664896445957
 40
0.4482663945095116
 40
0.5583528294791724
 40
0.7822323854283246
 40
0.8962861354518198
 40
1.0
 40
1.0
 40
1.0
 40
1.0
 10
128.9049845679336
 20
130.8230365403326
 30
0.0
 10
128.9725785541638
 20
130.8321047944091
 30
0.0
 10
129.10824194922
 20
130.8503050841665
 30
0.0
 10
129.2886873773589
 20
130.8710261397186
 30
0.0
 10
129.4508361382847
 20
130.8877658241866
 30
0.0
 10
129.5888873357397
 20
130.900347939348
 30
0.0
 10
129.7405278019656
 20
130.9127267230315
 30
0.0
 10
129.8419750132191
 20
130.9196841088347
 30
0.0
 10
129.8933947558128
 20
130.9229811351716
 30
0.0
 10
129.8973497156476
 20
130.9232264460782
 30
0.0
 10
129.8992333022838
 20
130.9233432776934
 30
0.0
  0
SPLINE
  5
B7
330
1F
100
AcDbEntity
  8
0
  6
HIDDEN
 62
     7
370
     0
100
AcDbSpline
210
0.0
220
0.0
230
1.0
 70
     8
 71
     3
 72
    17
 73
    13
 74
     0
 42
0.00000001
 43
0.00000001
 40
0.0
 40
0.0
 40
0.0
 40
0.0
 40
0.0069672873018476
 40
0.1183103086458422
 40
0.2320673587511869
 40
0.3466591332731054
 40
0.4573781158603664
 40
0.5688695574603297
 40
0.6828050943882709
 40
0.7975902571903241
 40
0.898497503450473
 40
1.0
 40
1.0
 40
1.0
 40
1.0
 10
129.8992285943039
 20
91.04767314875309
 30
0.0
 10
129.8994782322954
 20
91.0476573838348
 30
0.0
 10
129.9037172921398
 20
91.04738968246573
 30
0.0
 10
129.8877959565206
 20
91.04838664308431
 30
0.0
 10
129.8487823310663
 20
91.05090305339395
 30
0.0
 10
129.7803295953458
 20
91.05560070087998
 30
0.0
 10
129.6875777804473
 20
91.06255055776289
 30
0.0
 10
129.5702861676272
 20
91.07228004494162
 30
0.0
 10
129.4274495368122
 20
91.08552705115086
 30
0.0
 10
129.2659001433785
 20
91.10251413984705
 30
0.0
 10
129.0920968032482
 20
91.12280678025624
 30
0.0
 10
128.9674774739759
 20
91.13957221784958
 30
0.0
 10
128.9049845679336
 20
91.14797958869966
 30
0.0
  0
SPLINE
  5
B8
330
1F
100
AcDbEntity
  8
0
  6
HIDDEN
 62
     7
370
     0
100
AcDbSpline
210
0.0
220
0.0
230
1.0
 70
     8
 71
     3
 72
    22
 73
    18
 74
     0
 42
0.00000001
 43
0.00000001
 40
0.0
 40
0.0
 40
0.0
 40
0.0
 40
0.069470503305567
 40
0.1409377255045835
 40
0.210413548914841
 40
0.2819466223559928
 40
0.3506518733998513
 40
0.4213897814436845
 40
0.4894670043894698
 40
0.5594810940348494
 40
0.6282706827033766
 40
0.6989997382187428
 40
0.7687375408512302
 40
0.8405098102584779
 40
0.9099666189318144
 40
0.9814998892127903
 40
1.0
 40
1.0
 40
1.0
 40
1.0
 10
128.9049845679336
 20
91.14797958869966
 30
0.0
 10
128.7568107134742
 20
91.16770592850897
 30
0.0
 10
128.4562041965631
 20
91.20772558192975
 30
0.0
 10
127.9213093338823
 20
91.26309924545961
 30
0.0
 10
127.3356707812136
 20
91.30755563058742
 30
0.0
 10
126.7214381216402
 20
91.33524060603959
 30
0.0
 10
126.087521476272
 20
91.34349385950945
 30
0.0
 10
125.4653727757002
 20
91.33151380462897
 30
0.0
 10
124.8593753058395
 20
91.30076305086801
 30
0.0
 10
124.294886384713
 20
91.2552970801178
 30
0.0
 10
123.7755101471314
 20
91.19921592831821
 30
0.0
 10
123.3226446494499
 20
91.13922576599981
 30
0.0
 10
122.9439295057843
 20
91.0812458516409
 30
0.0
 10
122.6558443847091
 20
91.0323270434944
 30
0.0
 10
122.4733864881565
 20
90.99929168096864
 30
0.0
 10
122.3927285368225
 20
90.984151884713
 30
0.0
 10
122.4070184155213
 20
90.986823838086
 30
0.0
 10
122.4099547079934
 20
90.98737287259779
 30
0.0
  0
SPLINE
  5
B9
330
1F
100
AcDbEntity
  8
0
  6
HIDDEN
 62
     7
370
     0
100
AcDbSpline
210
0.0
220
0.0
230
1.0
 70
     8
 71
     3
 72
    30
 73
    26
 74
     0
 42
0.00000001
 43
0.00000001
 40
0.0
 40
0.0
 40
0.0
 40
0.0
 40
0.0156161600804337
 40
0.0849748372628082
 40
0.1203204532886746
 40
0.15431851909124
 40
0.2234436946574013
 40
0.2586467089786606
 40
0.2931107206687011
 40
0.3631864361325603
 40
0.3988795186727328
 40
0.4336750628309723
 40
0.4687145712104809
 40
0.5045294144990544
 40
0.5406151111978532
 40
0.5750767863722916
 40
0.6452033649630275
 40
0.6809575734718859
 40
0.7149323277721685
 40
0.784033058295527
 40
0.8192378401372485
 40
0.8533347063218409
 40
0.9226550151093995
 40
0.9579547149334489
 40
1.0
 40
1.0
 40
1.0
 40
1.0
 10
122.4030999475176
 20
130.984923796624
 30
0.0
 10
122.4025022084325
 20
130.9850360495057
 30
0.0
 10
122.3992496302558
 20
130.985646869983
 30
0.0
 10
122.4495705327042
 20
130.9761877355259
 30
0.0
 10
122.5498755617454
 20
130.9578828994297
 30
0.0
 10
122.6844925498151
 20
130.933899594056
 30
0.0
 10
122.8665511948452
 20
130.9028007999095
 30
0.0
 10
123.0934737685105
 20
130.8668816558672
 30
0.0
 10
123.3500601738878
 20
130.8285626347281
 30
0.0
 10
123.6480968323605
 20
130.7883174994198
 30
0.0
 10
123.9806460863603
 20
130.7496564760175
 30
0.0
 10
124.2458437917646
 20
130.7222538172863
 30
0.0
 10
124.5249016170235
 20
130.6972089806741
 30
0.0
 10
124.8193526329177
 20
130.6750412833785
 30
0.0
 10
125.1222175662339
 20
130.6568791961085
 30
0.0
 10
125.5326035531027
 20
130.6386210911141
 30
0.0
 10
125.9534443920575
 20
130.6297738571097
 30
0.0
 10
126.3733483092864
 20
130.6312392515509
 30
0.0
 10
126.7879628301401
 20
130.6392826447182
 30
0.0
 10
127.194183949616
 20
130.6567894303175
 30
0.0
 10
127.5837144493379
 20
130.6823547433453
 30
0.0
 10
127.9605351505763
 20
130.7125389790595
 30
0.0
 10
128.3136723102803
 20
130.748436553907
 30
0.0
 10
128.6554237981019
 20
130.7892548317656
 30
0.0
 10
128.8170975591114
 20
130.8111397453321
 30
0.0
 10
128.9049845679336
 20
130.8230365403326
 30
0.0
  0
LINE
  5
BA
330
1F
100
AcDbEntity
  8
0
  6
HIDDEN
 62
     7
370
     0
100
AcDbLine
 10
116.1539571625
 20
93.9855080645
 30
0.0
 11
116.1539571625
 21
127.9855080645
 31
0.0
  0
LWPOLYLINE
  5
BB
330
1F
100
AcDbEntity
  8
0
  6
HIDDEN
 62
     7
370
     0
100
AcDbPolyline
 90
       28
 70
   128
 43
0.0
 10
145.5357569828
 20
136.5364204519
 10
145.9102986123
 20
136.3785785554
 10
146.4082863745
 20
136.0912242983
 10
146.7885105478
 20
135.7619405052
 10
147.0372288396
 20
135.4026283502
 10
147.1454519231
 20
135.0262743108
 10
147.1092683339
 20
134.6464808026
 10
146.9299858412
 20
134.2769745525
 10
146.6140841815
 20
133.9311104792
 10
146.1729808637
 20
133.6213890113
 10
145.6226185112
 20
133.3590042897
 10
144.9828886532
 20
133.1534395818
 10
144.2769127937
 20
133.0121245319
 10
143.5302067395
 20
132.940166634
 10
142.7697583931
 20
132.940166634
 10
142.023052339
 20
133.0121245319
 10
141.3170764794
 20
133.1534395818
 10
140.6773466214
 20
133.3590042897
 10
140.1269842689
 20
133.6213890113
 10
139.6858809512
 20
133.9311104792
 10
139.3699792915
 20
134.2769745525
 10
139.1906967988
 20
134.6464808026
 10
139.1545132096
 20
135.0262743108
 10
139.262736293
 20
135.4026283502
 10
139.5114545849
 20
135.7619405052
 10
139.8916787581
 20
136.0912242983
 10
140.3896665204
 20
136.3785785554
 10
140.7511841504
 20
136.531560897
  0
SPLINE
  5
BC
330
1F
100
AcDbEntity
  8
0
  6
HIDDEN
 62
     7
370
     0
100
AcDbSpline
210
0.0
220
0.0
230
1.0
 70
     8
 71
     3
 72
    11
 73
     7
 74
     0
 42
0.00000001
 43
0.00000001
 40
0.0
 40
0.0
 40
0.0
 40
0.0
 40
0.0005779865010845
 40
0.0005779865010845
 40
0.0005779865010845
 40
0.0011559733324421
 40
0.0011559733324421
 40
0.0011559733324421
 40
0.0011559733324421
 10
103.249982566332
 20
112.9853486726699
 30
0.0
 10
103.416649821138
 20
112.9833650333289
 30
0.0
 10
103.5833162508156
 20
112.9813274263264
 30
0.0
 10
103.7499825892674
 20
112.97921596292
 30
0.0
 10
103.9166490180938
 20
112.9771044983686
 30
0.0
 10
104.0833153917315
 20
112.9749189352123
 30
0.0
 10
104.249982566332
 20
112.9726363578806
 30
0.0
  0
SPLINE
  5
BD
330
1F
100
AcDbEntity
  8
0
  6
HIDDEN
 62
     7
370
     0
100
AcDbSpline
210
0.0
220
0.0
230
1.0
 70
     8
 71
     3
 72
     8
 73
     4
 74
     0
 42
0.00000001
 43
0.00000001
 40
0.0
 40
0.0
 40
0.0
 40
0.0
 40
0.0011564765856722
 40
0.0011564765856722
 40
0.0011564765856722
 40
0.0011564765856722
 10
104.249982566332
 20
108.9888077622998
 30
0.0
 10
103.9166746357631
 20
108.9879326067166
 30
0.0
 10
103.5833394033709
 20
108.9868777554651
 30
0.0
 10
103.249982566332
 20
108.9857066684275
 30
0.0
  0
LINE
  5
BE
330
1F
100
AcDbEntity
  8
0
  6
HIDDEN
 62
     7
370
     0
100
AcDbLine
 10
142.8098085349
 20
93.9855080645
 30
0.0
 11
142.8098085349
 21
127.9855080645
 31
0.0
  0
LINE
  5
BF
330
1F
100
AcDbEntity
  8
0
  6
HIDDEN
 62
     7
370
     0
100
AcDbLine
 10
145.0999825663
 20
95.2605080645
 30
0.0
 11
145.0999825663
 21
126.7105080633
 31
0.0
  0
SPLINE
  5
C0
330
1F
100
AcDbEntity
  8
0
  6
HIDDEN
 62
     7
370
     0
100
AcDbSpline
210
0.0
220
0.0
230
1.0
 70
     8
 71
     3
 72
    16
 73
    12
 74
     0
 42
0.00000001
 43
0.00000001
 40
0.0
 40
0.0
 40
0.0
 40
0.0
 40
0.124999999999998
 40
0.124999999999998
 40
0.249999999999996
 40
0.249999999999996
 40
0.4999999999999973
 40
0.4999999999999973
 40
0.7499999999999987
 40
0.7499999999999987
 40
1.0
 40
1.0
 40
1.0
 40
1.0
 10
111.949982566332
 20
95.18401762848445
 30
0.0
 10
112.0451043209978
 20
95.18401762848445
 30
0.0
 10
112.1384343897259
 20
95.18020179509165
 30
0.0
 10
112.3216961504639
 20
95.16543124236185
 30
0.0
 10
112.4125738660209
 20
95.15427319438626
 30
0.0
 10
112.6693755635406
 20
95.11180192424453
 30
0.0
 10
112.8244429284126
 20
95.07075572704174
 30
0.0
 10
113.0781893899672
 20
94.97560961045986
 30
0.0
 10
113.1790598416351
 20
94.92084687637828
 30
0.0
 10
113.3143062563299
 20
94.80958575247439
 30
0.0
 10
113.349982566332
 20
94.75241601514571
 30
0.0
 10
113.349982566332
 20
94.69799444211199
 30
0.0
  0
SPLINE
  5
C1
330
1F
100
AcDbEntity
  8
0
  6
HIDDEN
 62
     7
370
     0
100
AcDbSpline
210
0.0
220
0.0
230
1.0
 70
     8
 71
     3
 72
     8
 73
     4
 74
     0
 42
0.00000001
 43
0.00000001
 40
0.0
 40
0.0
 40
0.0
 40
0.0
 40
1.0
 40
1.0
 40
1.0
 40
1.0
 10
104.5499825696472
 20
97.32882057456669
 30
0.0
 10
104.5499825696491
 20
96.44492343224977
 30
0.0
 10
104.5365019437393
 20
95.73034018718782
 30
0.0
 10
104.53515057555
 20
95.18401762848445
 30
0.0
  0
SPLINE
  5
C2
330
1F
100
AcDbEntity
  8
0
  6
HIDDEN
 62
     7
370
     0
100
AcDbSpline
210
0.0
220
0.0
230
1.0
 70
     8
 71
     3
 72
    10
 73
     6
 74
     0
 42
0.00000001
 43
0.00000001
 40
0.0
 40
0.0
 40
0.0
 40
0.0
 40
0.5
 40
0.5
 40
1.0
 40
1.0
 40
1.0
 40
1.0
 10
104.249982566332
 20
98.35373084026989
 30
0.0
 10
104.3413736820249
 20
98.17909205265248
 30
0.0
 10
104.4140255157579
 20
98.0054902253969
 30
0.0
 10
104.5215244087661
 20
97.66187680639018
 30
0.0
 10
104.5499825696416
 20
97.49355097985874
 30
0.0
 10
104.5499825696472
 20
97.32882057462616
 30
0.0
  0
LINE
  5
C3
330
1F
100
AcDbEntity
  8
0
  6
HIDDEN
 62
     7
370
     0
100
AcDbLine
 10
104.2499825663
 20
101.3846812721
 30
0.0
 11
104.2499825663
 21
98.3537308403
 31
0.0
  0
SPLINE
  5
C4
330
1F
100
AcDbEntity
  8
0
  6
HIDDEN
 62
     7
370
     0
100
AcDbSpline
210
0.0
220
0.0
230
1.0
 70
     8
 71
     3
 72
    10
 73
     6
 74
     0
 42
0.00000001
 43
0.00000001
 40
0.0
 40
0.0
 40
0.0
 40
0.0
 40
0.5
 40
0.5
 40
1.0
 40
1.0
 40
1.0
 40
1.0
 10
104.5499825695197
 20
102.7525216888733
 30
0.0
 10
104.5499825695197
 20
102.5105377212665
 30
0.0
 10
104.5218325404491
 20
102.2761952923015
 30
0.0
 10
104.4182426263067
 20
101.8208202700238
 30
0.0
 10
104.3416139167152
 20
101.5992157069164
 30
0.0
 10
104.249982566332
 20
101.3846812721185
 30
0.0
  0
LINE
  5
C5
330
1F
100
AcDbEntity
  8
0
  6
HIDDEN
 62
     7
370
     0
100
AcDbLine
 10
104.5499825695
 20
114.5901416861
 30
0.0
 11
104.5499825695
 21
102.7525216888
 31
0.0
  0
SPLINE
  5
C6
330
1F
100
AcDbEntity
  8
0
  6
HIDDEN
 62
     7
370
     0
100
AcDbSpline
210
0.0
220
0.0
230
1.0
 70
     8
 71
     3
 72
     8
 73
     4
 74
     0
 42
0.00000001
 43
0.00000001
 40
0.0
 40
0.0
 40
0.0
 40
0.0
 40
1.0
 40
1.0
 40
1.0
 40
1.0
 10
104.249982566332
 20
120.5924473855844
 30
0.0
 10
104.4310140328909
 20
120.1603398999218
 30
0.0
 10
104.5499825695254
 20
119.7061944938221
 30
0.0
 10
104.5499825695197
 20
119.218494440128
 30
0.0
  0
LINE
  5
C7
330
1F
100
AcDbEntity
  8
0
  6
HIDDEN
 62
     7
370
     0
100
AcDbLine
 10
104.2499825663
 20
123.6256503716
 30
0.0
 11
104.2499825663
 21
120.5924473856
 31
0.0
  0
SPLINE
  5
C8
330
1F
100
AcDbEntity
  8
0
  6
HIDDEN
 62
     7
370
     0
100
AcDbSpline
210
0.0
220
0.0
230
1.0
 70
     8
 71
     3
 72
    10
 73
     6
 74
     0
 42
0.00000001
 43
0.00000001
 40
0.0
 40
0.0
 40
0.0
 40
0.0
 40
0.5
 40
0.5
 40
1.0
 40
1.0
 40
1.0
 40
1.0
 10
104.5499825697252
 20
124.6421955544359
 30
0.0
 10
104.5499825697234
 20
124.4775592078299
 30
0.0
 10
104.5228238989679
 20
124.3104039839994
 30
0.0
 10
104.4170589036495
 20
123.9717809761978
 30
0.0
 10
104.3406441153523
 20
123.7995091989068
 30
0.0
 10
104.249982566332
 20
123.6256503715628
 30
0.0
  0
SPLINE
  5
C9
330
1F
100
AcDbEntity
  8
0
  6
HIDDEN
 62
     7
370
     0
100
AcDbSpline
210
0.0
220
0.0
230
1.0
 70
     8
 71
     3
 72
    18
 73
    14
 74
     0
 42
0.00000001
 43
0.00000001
 40
0.0
 40
0.0
 40
0.0
 40
0.0
 40
0.2500000000000033
 40
0.2500000000000033
 40
0.3750000000000029
 40
0.3750000000000029
 40
0.5000000000000026
 40
0.5000000000000026
 40
0.6250000000000022
 40
0.6250000000000022
 40
0.7500000000000018
 40
0.7500000000000018
 40
1.0
 40
1.0
 40
1.0
 40
1.0
 10
109.349982566332
 20
127.2730216869202
 30
0.0
 10
109.349982566332
 20
127.218547166368
 30
0.0
 10
109.3150718749398
 20
127.1621661070156
 30
0.0
 10
109.2130625736068
 20
127.0780892661621
 30
0.0
 10
109.1714262189286
 20
127.0507555621712
 30
0.0
 10
109.0730204234399
 20
126.9978016465722
 30
0.0
 10
109.0154772117356
 20
126.971914292855
 30
0.0
 10
108.8881790381627
 20
126.9241367480218
 30
0.0
 10
108.8185917334052
 20
126.9021888298439
 30
0.0
 10
108.6671574882502
 20
126.8627562649311
 30
0.0
 10
108.5844735851563
 20
126.8452000157053
 30
0.0
 10
108.3283621231183
 20
126.8027612502848
 30
0.0
 10
108.1404471192303
 20
126.7869985005478
 30
0.0
 10
107.949982566332
 20
126.7869985005478
 30
0.0
  0
LINE
  5
CA
330
1F
100
AcDbEntity
  8
0
  6
HIDDEN
 62
     7
370
     0
100
AcDbLine
 10
107.9499825663
 20
126.7869985005
 30
0.0
 11
104.5499825697
 21
126.7869985005
 31
0.0
  0
LINE
  5
CB
330
1F
100
AcDbEntity
  8
0
  6
HIDDEN
 62
     7
370
     0
100
AcDbLine
 10
104.4810135797
 20
95.1840176285
 30
0.0
 11
111.9499825663
 21
95.1840176285
 31
0.0
  0
SPLINE
  5
CC
330
1F
100
AcDbEntity
  8
0
  6
HIDDEN
 62
     7
370
     0
100
AcDbSpline
210
0.0
220
0.0
230
1.0
 70
     8
 71
     3
 72
    22
 73
    18
 74
     0
 42
0.00000001
 43
0.00000001
 40
0.0
 40
0.0
 40
0.0
 40
0.0
 40
0.1249999999999998
 40
0.1249999999999998
 40
0.2499999999999995
 40
0.2499999999999995
 40
0.4999999999999992
 40
0.4999999999999992
 40
0.5624999999999993
 40
0.5624999999999993
 40
0.6249999999999994
 40
0.6249999999999994
 40
0.7499999999999996
 40
0.7499999999999996
 40
0.8749999999999998
 40
0.8749999999999998
 40
1.0
 40
1.0
 40
1.0
 40
1.0
 10
104.4810135796899
 20
95.18401762848445
 30
0.0
 10
104.4679311869616
 20
95.43912333863213
 30
0.0
 10
104.4547116235217
 20
95.73228159773603
 30
0.0
 10
104.4322644457276
 20
96.39458206336084
 30
0.0
 10
104.4227859787031
 20
96.76485598397223
 30
0.0
 10
104.4035880177666
 20
97.987412787086
 30
0.0
 10
104.4047017907635
 20
98.92455171321787
 30
0.0
 10
104.4236125837165
 20
100.2444229427329
 30
0.0
 10
104.4282421115755
 20
100.5159248517092
 30
0.0
 10
104.4387233313215
 20
101.0743096865115
 30
0.0
 10
104.4445185926059
 20
101.3614325424511
 30
0.0
 10
104.4628278135109
 20
102.2340217968228
 30
0.0
 10
104.4768627477912
 20
102.8344774731786
 30
0.0
 10
104.506319919928
 20
104.0719519656747
 30
0.0
 10
104.5218756109096
 20
104.7089681223182
 30
0.0
 10
104.5456701609065
 20
106.0204567200027
 30
0.0
 10
104.5536892130519
 20
106.6965793316632
 30
0.0
 10
104.549982566332
 20
107.380874442948
 30
0.0
  0
LINE
  5
CD
330
1F
100
AcDbEntity
  8
0
  6
HIDDEN
 62
     7
370
     0
100
AcDbLine
 10
104.5499825697
 20
114.5901416861
 30
0.0
 11
104.5499825697
 21
126.7869985005
 31
0.0
  0
SPLINE
  5
CE
330
1F
100
AcDbEntity
  8
0
  6
HIDDEN
 62
     7
370
     0
100
AcDbSpline
210
0.0
220
0.0
230
1.0
 70
     8
 71
     3
 72
    10
 73
     6
 74
     0
 42
0.00000001
 43
0.00000001
 40
0.0
 40
0.0
 40
0.0
 40
0.0
 40
0.5
 40
0.5
 40
1.0
 40
1.0
 40
1.0
 40
1.0
 10
104.549982566332
 20
107.3808744429329
 30
0.0
 10
104.5499825663318
 20
107.6547895910073
 30
0.0
 10
104.5242233364641
 20
107.9257311697374
 30
0.0
 10
104.421017403731
 20
108.4614222513402
 30
0.0
 10
104.3436792398557
 20
108.7271690548623
 30
0.0
 10
104.249982566332
 20
108.9888077622998
 30
0.0
  0
SPLINE
  5
CF
330
1F
100
AcDbEntity
  8
0
  6
HIDDEN
 62
     7
370
     0
100
AcDbSpline
210
0.0
220
0.0
230
1.0
 70
     8
 71
     3
 72
    10
 73
     6
 74
     0
 42
0.00000001
 43
0.00000001
 40
0.0
 40
0.0
 40
0.0
 40
0.0
 40
0.5
 40
0.5
 40
1.0
 40
1.0
 40
1.0
 40
1.0
 10
104.249982566332
 20
112.9726363578806
 30
0.0
 10
104.343213147723
 20
113.2365301659508
 30
0.0
 10
104.4182427599597
 20
113.502710476589
 30
0.0
 10
104.5233098591379
 20
114.0410330515472
 30
0.0
 10
104.5499825697241
 20
114.3137811677928
 30
0.0
 10
104.5499825697253
 20
114.5901416860832
 30
0.0
  0
LINE
  5
D0
330
1F
100
AcDbEntity
  8
0
  6
HIDDEN
 62
     7
370
     0
100
AcDbLine
 10
104.2499825663
 20
108.9888077623
 30
0.0
 11
104.2499825663
 21
112.9726363579
 31
0.0
  0
LINE
  5
D1
330
1F
100
AcDbEntity
  8
0
  6
HIDDEN
 62
     7
370
     0
100
AcDbLine
 10
104.3999825663
 20
92.9955080645
 30
0.0
 11
104.3999825663
 21
90.1155702991
 31
0.0
  0
LINE
  5
D2
330
1F
100
AcDbEntity
  8
0
  6
HIDDEN
 62
     7
370
     0
100
AcDbLine
 10
113.3499825663
 20
92.9955080645
 30
0.0
 11
113.3499825663
 21
89.0217705333
 31
0.0
  0
LINE
  5
D3
330
1F
100
AcDbEntity
  8
0
  6
HIDDEN
 62
     7
370
     0
100
AcDbLine
 10
104.3999825663
 20
128.9755080645
 30
0.0
 11
104.3999825663
 21
131.8554458299
 31
0.0
  0
LINE
  5
D4
330
1F
100
AcDbEntity
  8
0
  6
HIDDEN
 62
     7
370
     0
100
AcDbLine
 10
109.3499825663
 20
128.9755080645
 30
0.0
 11
109.3499825663
 21
132.8296157369
 31
0.0
  0
LINE
  5
D5
330
1F
100
AcDbEntity
  8
0
  6
HIDDEN
 62
     7
370
     0
100
AcDbLine
 10
153.9499825663
 20
101.4855080645
 30
0.0
 11
153.9499825663
 21
120.4855080645
 31
0.0
  0
LINE
  5
D6
330
1F
100
AcDbEntity
  8
0
  6
HIDDEN
 62
     7
370
     0
100
AcDbLine
 10
156.9499825663
 20
101.4855080645
 30
0.0
 11
156.9499825663
 21
120.4855080645
 31
0.0
  0
LINE
  5
D7
330
1F
100
AcDbEntity
  8
0
  6
HIDDEN
 62
     7
370
     0
100
AcDbLine
 10
145.5999825663
 20
102.4855080645
 30
0.0
 11
145.5999825663
 21
119.4855080645
 31
0.0
  0
LINE
  5
D8
330
1F
100
AcDbEntity
  8
0
  6
HIDDEN
 62
     7
370
     0
100
AcDbLine
 10
161.0999825663
 20
84.5855080645
 30
0.0
 11
154.962307764
 21
84.5855080645
 31
0.0
  0
LINE
  5
D9
330
1F
100
AcDbEntity
  8
0
  6
HIDDEN
 62
     7
370
     0
100
AcDbLine
 10
140.0999825663
 20
79.5013850817
 30
0.0
 11
140.0999825663
 21
84.5855080645
 31
0.0
  0
LINE
  5
DA
330
1F
100
AcDbEntity
  8
0
  6
HIDDEN
 62
     7
370
     0
100
AcDbLine
 10
148.0999825663
 20
84.5855080645
 30
0.0
 11
140.0999825663
 21
84.5855080645
 31
0.0
  0
LINE
  5
DB
330
1F
100
AcDbEntity
  8
0
  6
HIDDEN
 62
     7
370
     0
100
AcDbLine
 10
151.3376573687
 20
84.5855080645
 30
0.0
 11
148.0999825663
 21
84.5855080645
 31
0.0
  0
LINE
  5
DC
330
1F
100
AcDbEntity
  8
0
  6
HIDDEN
 62
     7
370
     0
100
AcDbLine
 10
148.0999825663
 20
137.3855080645
 30
0.0
 11
140.0999825663
 21
137.3855080645
 31
0.0
  0
LINE
  5
DD
330
1F
100
AcDbEntity
  8
0
  6
HIDDEN
 62
     7
370
     0
100
AcDbLine
 10
151.634280098
 20
137.3855080645
 30
0.0
 11
148.0999825663
 21
137.3855080645
 31
0.0
  0
LINE
  5
DE
330
1F
100
AcDbEntity
  8
0
  6
HIDDEN
 62
     7
370
     0
100
AcDbLine
 10
161.0999825663
 20
137.3855080645
 30
0.0
 11
154.6656850346
 21
137.3855080645
 31
0.0
  0
SPLINE
  5
DF
330
1F
100
AcDbEntity
  8
0
  6
HIDDEN
 62
     7
370
     0
100
AcDbSpline
210
0.0
220
0.0
230
1.0
 70
     8
 71
     3
 72
    11
 73
     7
 74
     0
 42
0.00000001
 43
0.00000001
 40
0.0
 40
0.0
 40
0.0
 40
0.0
 40
0.0008203708524183
 40
0.0008203708524183
 40
0.0008203708524183
 40
0.0016409967870154
 40
0.0016409967870154
 40
0.0016409967870154
 40
0.0016409967870154
 10
104.399982566332
 20
95.13347531387338
 30
0.0
 10
104.2088242660333
 20
95.09229628525425
 30
0.0
 10
104.0173971959612
 20
95.05354231302424
 30
0.0
 10
103.8257515724405
 20
95.0171745537457
 30
0.0
 10
103.6340461673601
 20
94.98079544997967
 30
0.0
 10
103.4421072153011
 20
94.94680119921212
 30
0.0
 10
103.2499825682303
 20
94.9151530738209
 30
0.0
  0
ELLIPSE
  5
E0
330
1F
100
AcDbEntity
  8
0
  6
HIDDEN
 62
     7
370
     0
100
AcDbEllipse
 10
99.0075506977
 20
110.9855080645
 30
0.0
 11
20.19992453366628
 21
-1.421085471520200E-14
 31
0.0
210
0.0
220
0.0
230
1.0
 40
0.8164965809
 41
1.300566354718001
 42
1.359198697209605
  0
LINE
  5
E1
330
1F
100
AcDbEntity
  8
0
  6
HIDDEN
 62
     7
370
     0
100
AcDbLine
 10
113.3499825663
 20
92.9955080645
 30
0.0
 11
113.3499825663
 21
94.6979944421
 31
0.0
  0
LINE
  5
E2
330
1F
100
AcDbEntity
  8
0
  6
HIDDEN
 62
     7
370
     0
100
AcDbLine
 10
104.3999825663
 20
92.9955080645
 30
0.0
 11
104.3999825663
 21
95.1334753139
 31
0.0
  0
LINE
  5
E3
330
1F
100
AcDbEntity
  8
0
  6
HIDDEN
 62
     7
370
     0
100
AcDbLine
 10
104.4810135797
 20
95.1840176285
 30
0.0
 11
104.3999825663
 21
95.1334753139
 31
0.0
  0
LINE
  5
E4
330
1F
100
AcDbEntity
  8
0
  6
HIDDEN
 62
     7
370
     0
100
AcDbLine
 10
109.3499825663
 20
128.9755080645
 30
0.0
 11
109.3499825663
 21
127.2730216869
 31
0.0
  0
LINE
  5
E5
330
1F
100
AcDbEntity
  8
0
  6
HIDDEN
 62
     7
370
     0
100
AcDbLine
 10
104.3999825663
 20
128.9755080645
 30
0.0
 11
104.3999825663
 21
126.8801325156
 31
0.0
  0
SPLINE
  5
E6
330
1F
100
AcDbEntity
  8
0
  6
HIDDEN
 62
     7
370
     0
100
AcDbSpline
210
0.0
220
0.0
230
1.0
 70
     8
 71
     3
 72
     8
 73
     4
 74
     0
 42
0.00000001
 43
0.00000001
 40
0.0
 40
0.0
 40
0.0
 40
0.0
 40
1.0
 40
1.0
 40
1.0
 40
1.0
 10
104.399982566332
 20
126.8801325155748
 30
0.0
 10
104.4499880652757
 20
126.8490967413556
 30
0.0
 10
104.4999881359401
 20
126.8180520963281
 30
0.0
 10
104.5499825697253
 20
126.7869985005478
 30
0.0
  0
LINE
  5
E7
330
1F
100
AcDbEntity
  8
0
  6
HIDDEN
 62
     7
370
     0
100
AcDbLine
 10
211.6499825663
 20
106.9855080645
 30
0.0
 11
211.6499825663
 21
114.9855080645
 31
0.0
  0
SPLINE
  5
E8
330
1F
100
AcDbEntity
  8
0
  6
HIDDEN
 62
     7
370
     0
100
AcDbSpline
210
0.0
220
0.0
230
1.0
 70
     8
 71
     3
 72
    20
 73
    16
 74
     0
 42
0.00000001
 43
0.00000001
 40
0.0
 40
0.0
 40
0.0
 40
0.0
 40
0.1118532753367727
 40
0.1773727969001436
 40
0.2489947124776664
 40
0.3297435623025036
 40
0.3985163041505095
 40
0.4997965445410392
 40
0.6137622343533015
 40
0.6789284883141681
 40
0.7494553429231908
 40
0.8296017033995806
 40
0.8980457170458405
 40
0.9994566317807579
 40
1.0
 40
1.0
 40
1.0
 40
1.0
 10
129.8985978829598
 20
87.38557441477896
 30
0.0
 10
129.8553058083698
 20
87.39899282860763
 30
0.0
 10
129.7866548338631
 20
87.42027125414849
 30
0.0
 10
129.341637422045
 20
87.52354378152734
 30
0.0
 10
128.8150877200853
 20
87.63684520453306
 30
0.0
 10
128.1296601458713
 20
87.75977861109345
 30
0.0
 10
127.2363434031115
 20
87.88181292773714
 30
0.0
 10
126.1229838309753
 20
87.99954930096888
 30
0.0
 10
125.0122095747263
 20
88.01152473949594
 30
0.0
 10
124.1274618589527
 20
87.98446656538617
 30
0.0
 10
123.4602630918478
 20
87.93653408790928
 30
0.0
 10
122.9189994992166
 20
87.88024226513718
 30
0.0
 10
122.5313856724343
 20
87.83515293315644
 30
0.0
 10
122.3374778013547
 20
87.79628425958211
 30
0.0
 10
122.4006708651731
 20
87.80700656438465
 30
0.0
 10
122.4010076543845
 20
87.80706370920976
 30
0.0
  0
LINE
  5
E9
330
1F
100
AcDbEntity
  8
0
  6
HIDDEN
 62
     7
370
     0
100
AcDbLine
 10
123.3099944787
 20
87.917846208
 30
0.0
 11
123.4938397918
 21
87.9360355505
 31
0.0
  0
SPLINE
  5
EA
330
1F
100
AcDbEntity
  8
0
  6
HIDDEN
 62
     7
370
     0
100
AcDbSpline
210
0.0
220
0.0
230
1.0
 70
     8
 71
     3
 72
    27
 73
    23
 74
     0
 42
0.00000001
 43
0.00000001
 40
0.0
 40
0.0
 40
0.0
 40
0.0
 40
0.0008086698272164
 40
0.0456911818206492
 40
0.1022728481609739
 40
0.170550939236766
 40
0.2091426118792428
 40
0.2506698514601189
 40
0.3211156297110305
 40
0.3862093649620112
 40
0.4266885152941663
 40
0.4648197686822756
 40
0.5006240859091298
 40
0.5452158508125173
 40
0.6017101077175113
 40
0.670116083417031
 40
0.7088534140408783
 40
0.7505821601356528
 40
0.8222467465127807
 40
0.8877861721259266
 40
0.9472599280119505
 40
0.9999999999999999
 40
0.9999999999999999
 40
0.9999999999999999
 40
0.9999999999999999
 10
122.4006511034513
 20
134.1639221947265
 30
0.0
 10
122.4004287339905
 20
134.1639701300781
 30
0.0
 10
122.3878644919248
 20
134.1666785566705
 30
0.0
 10
122.4369411310138
 20
134.1548465262661
 30
0.0
 10
122.582045648767
 20
134.1314023180019
 30
0.0
 10
122.8550978059135
 20
134.0974981726532
 30
0.0
 10
123.1836242882924
 20
134.0639293748763
 30
0.0
 10
123.5763520525357
 20
134.0257460366399
 30
0.0
 10
124.1260800281834
 20
133.9867773639556
 30
0.0
 10
124.7521026732818
 20
133.9673162595947
 30
0.0
 10
125.2952941837244
 20
133.9651305817528
 30
0.0
 10
125.7403630805607
 20
133.9736454629333
 30
0.0
 10
126.2068108770192
 20
133.9934288598589
 30
0.0
 10
126.7440515261552
 20
134.0375912453736
 30
0.0
 10
127.3922649569438
 20
134.1100068653904
 30
0.0
 10
127.9778035869339
 20
134.1909089585579
 30
0.0
 10
128.4587732014054
 20
134.2690749470507
 30
0.0
 10
128.9041880984271
 20
134.3538470859949
 30
0.0
 10
129.3426878178436
 20
134.4476301289272
 30
0.0
 10
129.6817130747026
 20
134.5255338928391
 30
0.0
 10
129.8690540100782
 20
134.5757255301894
 30
0.0
 10
129.8895437922408
 20
134.5823919696094
 30
0.0
 10
129.8991739118682
 20
134.5855251707627
 30
0.0
  0
LINE
  5
EB
330
1F
100
AcDbEntity
  8
0
  6
HIDDEN
 62
     7
370
     0
100
AcDbLine
 10
178.6499825663
 20
107.0855080645
 30
0.0
 11
178.6499825663
 21
114.8855076704
 31
0.0
  0
LINE
  5
EC
330
1F
100
AcDbEntity
  8
0
  6
HIDDEN
 62
     7
370
     0
100
AcDbLine
 10
189.1499825663
 20
106.9855080645
 30
0.0
 11
189.1499825663
 21
114.9855080645
 31
0.0
  0
LINE
  5
ED
330
1F
100
AcDbEntity
  8
0
  6
HIDDEN
 62
     7
370
     0
100
AcDbLine
 10
161.2499825663
 20
106.7855080645
 30
0.0
 11
161.2499825663
 21
115.1855080645
 31
0.0
  0
LINE
  5
EE
330
1F
100
AcDbEntity
  8
0
  6
HIDDEN
 62
     7
370
     0
100
AcDbLine
 10
162.2714456187
 20
108.4855080645
 30
0.0
 11
162.2714456187
 21
113.4855080645
 31
0.0
  0
LINE
  5
EF
330
1F
100
AcDbEntity
  8
0
  6
HIDDEN
 62
     7
370
     0
100
AcDbLine
 10
178.1499825663
 20
108.4855080645
 30
0.0
 11
178.1499825663
 21
113.4855080645
 31
0.0
  0
SPLINE
  5
F0
330
1F
100
AcDbEntity
  8
0
  6
HIDDEN
 62
     7
370
     0
100
AcDbSpline
210
0.0
220
0.0
230
1.0
 70
     8
 71
     3
 72
     8
 73
     4
 74
     0
 42
0.00000001
 43
0.00000001
 40
0.0
 40
0.0
 40
0.0
 40
0.0
 40
0.000159097695343
 40
0.000159097695343
 40
0.000159097695343
 40
0.000159097695343
 10
104.53515057555
 20
95.18401762848445
 30
0.0
 10
104.4900991050457
 20
95.15603874416068
 30
0.0
 10
104.4450430666309
 20
95.12806721378561
 30
0.0
 10
104.399982566332
 20
95.10010287443309
 30
0.0
  0
SPLINE
  5
F1
330
1F
100
AcDbEntity
  8
0
  6
HIDDEN
 62
     7
370
     0
100
AcDbSpline
210
0.0
220
0.0
230
1.0
 70
     8
 71
     3
 72
    11
 73
     7
 74
     0
 42
0.00000001
 43
0.00000001
 40
0.0
 40
0.0
 40
0.0
 40
0.0
 40
0.0008212909311456
 40
0.0008212909311456
 40
0.0008212909311456
 40
0.001642825724306
 40
0.001642825724306
 40
0.001642825724306
 40
0.001642825724306
 10
104.399982566332
 20
95.10010287443309
 30
0.0
 10
104.2088375448498
 20
95.05681668558053
 30
0.0
 10
104.0174192091733
 20
95.01588017594325
 30
0.0
 10
103.8257731345122
 20
94.97727840455667
 30
0.0
 10
103.6340700529706
 20
94.93866515071959
 30
0.0
 10
103.4421249296851
 20
94.90238494143358
 30
0.0
 10
103.2499825663319
 20
94.86841803508206
 30
0.0
  0
LINE
  5
F2
330
1F
100
AcDbEntity
  8
0
  6
HIDDEN
 62
     7
370
     0
100
AcDbLine
 10
151.2399825663
 20
131.1712937549
 30
0.0
 11
151.2399825663
 21
130.8355080645
 31
0.0
  0
LINE
  5
F3
330
1F
100
AcDbEntity
  8
0
  6
HIDDEN
 62
     7
370
     0
100
AcDbLine
 10
155.0599825663
 20
131.1712937548
 30
0.0
 11
155.0599825663
 21
130.8355080645
 31
0.0
  0
LINE
  5
F4
330
1F
100
AcDbEntity
  8
0
  6
HIDDEN
 62
     7
370
     0
100
AcDbLine
 10
156.5419153978
 20
135.4441977269
 30
0.0
 11
156.5419153978
 21
130.8355080645
 31
0.0
  0
SPLINE
  5
F5
330
1F
100
AcDbEntity
  8
0
  6
HIDDEN
 62
     7
370
     0
100
AcDbSpline
210
0.0
220
0.0
230
1.0
 70
     8
 71
     3
 72
    11
 73
     7
 74
     0
 42
0.00000001
 43
0.00000001
 40
0.0
 40
0.0
 40
0.0
 40
0.0
 40
0.0005781862223978
 40
0.0005781862223978
 40
0.0005781862223978
 40
0.0011563724723928
 40
0.0011563724723928
 40
0.0011563724723928
 40
0.0011563724723928
 10
104.249982566332
 20
123.6256503715629
 30
0.0
 10
104.0833220120564
 20
123.6901798829764
 30
0.0
 10
103.9166587151499
 20
123.7546825868202
 30
0.0
 10
103.7499921313196
 20
123.8191690352539
 30
0.0
 10
103.5833255390606
 20
123.8836554869488
 30
0.0
 10
103.4166556734347
 20
123.9481254956769
 30
0.0
 10
103.2499825663319
 20
124.0125812624095
 30
0.0
  0
SPLINE
  5
F6
330
1F
100
AcDbEntity
  8
0
  6
HIDDEN
 62
     7
370
     0
100
AcDbSpline
210
0.0
220
0.0
230
1.0
 70
     8
 71
     3
 72
    11
 73
     7
 74
     0
 42
0.00000001
 43
0.00000001
 40
0.0
 40
0.0
 40
0.0
 40
0.0
 40
0.0005778746105108
 40
0.0005778746105108
 40
0.0005778746105108
 40
0.0011557494857226
 40
0.0011557494857226
 40
0.0011557494857226
 40
0.0011557494857226
 10
103.249982566332
 20
97.95828620902621
 30
0.0
 10
103.4166494427453
 20
98.02409833572008
 30
0.0
 10
103.5833161623068
 20
98.08995681585768
 30
0.0
 10
103.7499828103554
 20
98.15586438878832
 30
0.0
 10
103.9166495348741
 20
98.22177199195868
 30
0.0
 10
104.0833162292947
 20
98.28772910034719
 30
0.0
 10
104.249982566332
 20
98.35373084026989
 30
0.0
  0
SPLINE
  5
F7
330
1F
100
AcDbEntity
  8
0
  6
HIDDEN
 62
     7
370
     0
100
AcDbSpline
210
0.0
220
0.0
230
1.0
 70
     8
 71
     3
 72
    11
 73
     7
 74
     0
 42
0.00000001
 43
0.00000001
 40
0.0000000000000006
 40
0.0000000000000006
 40
0.0000000000000006
 40
0.0000000000000006
 40
0.0005780486062768
 40
0.0005780486062768
 40
0.0005780486062768
 40
0.0011560973514127
 40
0.0011560973514127
 40
0.0011560973514127
 40
0.0011560973514127
 10
103.249982566332
 20
120.9663225662079
 30
0.0
 10
103.4166524223769
 20
120.9039507046934
 30
0.0
 10
103.5833201264611
 20
120.8415968443957
 30
0.0
 10
103.7499864309148
 20
120.7792772842096
 30
0.0
 10
103.9166527716085
 20
120.7169577104727
 30
0.0
 10
104.0833177282373
 20
120.6546725061531
 30
0.0
 10
104.249982566332
 20
120.5924473855844
 30
0.0
  0
SPLINE
  5
F8
330
1F
100
AcDbEntity
  8
0
  6
HIDDEN
 62
     7
370
     0
100
AcDbSpline
210
0.0
220
0.0
230
1.0
 70
     8
 71
     3
 72
    11
 73
     7
 74
     0
 42
0.00000001
 43
0.00000001
 40
0.0
 40
0.0
 40
0.0
 40
0.0
 40
0.0005782401583533
 40
0.0005782401583533
 40
0.0005782401583533
 40
0.0011564805960993
 40
0.0011564805960993
 40
0.0011564805960993
 40
0.0011564805960993
 10
104.249982566332
 20
101.3846812721185
 30
0.0
 10
104.0833316159831
 20
101.3212558140577
 30
0.0
 10
103.9166720234004
 20
101.2579002904024
 30
0.0
 10
103.7500049709719
 20
101.1946027060524
 30
0.0
 10
103.583337834408
 20
101.1313050897492
 30
0.0
 10
103.416663226962
 20
101.0680652948085
 30
0.0
 10
103.2499825663319
 20
101.0048652881697
 30
0.0
  0
CIRCLE
  5
F9
330
1F
100
AcDbEntity
  8
0
  6
HIDDEN
 62
     7
370
     0
100
AcDbCircle
 10
142.1499825663
 20
110.9855080645
 30
0.0
 40
5.0
  0
LINE
  5
FA
330
1F
100
AcDbEntity
  8
0
  6
HIDDEN
 62
     7
370
     0
100
AcDbLine
 10
147.1499825663
 20
123.3794487074
 30
0.0
 11
147.1499825663
 21
125.2833410447
 31
0.0
  0
LINE
  5
FB
330
1F
100
AcDbEntity
  8
0
  6
HIDDEN
 62
     7
370
     0
100
AcDbLine
 10
139.1499825663
 20
125.2862088063
 30
0.0
 11
139.1499825663
 21
123.3794487074
 31
0.0
  0
LINE
  5
FC
330
1F
100
AcDbEntity
  8
0
  6
HIDDEN
 62
     7
370
     0
100
AcDbLine
 10
135.1499825663
 20
85.6615769185
 30
0.0
 11
135.2441433419
 21
86.3315656498
 31
0.0
  0
LINE
  5
FD
330
1F
100
AcDbEntity
  8
0
  6
HIDDEN
 62
     7
370
     0
100
AcDbLine
 10
135.2441433419
 20
135.6394504793
 30
0.0
 11
135.1499825663
 21
136.3094392105
 31
0.0
  0
ARC
  5
FE
330
1F
100
AcDbEntity
  8
0
  6
HIDDEN
 62
     7
370
     0
100
AcDbCircle
 10
134.6499758137
 20
86.4150704501
 30
0.0
 40
0.6000067526677343
100
AcDbArc
 50
352.0
 51
0.0
  0
ARC
  5
FF
330
1F
100
AcDbEntity
  8
0
  6
HIDDEN
 62
     7
370
     0
100
AcDbCircle
 10
134.6499758137
 20
86.4150704501
 30
0.0
 40
0.6000067526677124
100
AcDbArc
 50
0.0
 51
33.5571153394
  0
ARC
  5
100
330
1F
100
AcDbEntity
  8
0
  6
HIDDEN
 62
     7
370
     0
100
AcDbCircle
 10
134.6499758137
 20
135.5559456789
 30
0.0
 40
0.6000067526677323
100
AcDbArc
 50
348.75
 51
8.0
  0
LWPOLYLINE
  5
101
330
1F
100
AcDbEntity
  8
0
  6
HIDDEN
 62
     7
370
     0
100
AcDbPolyline
 90
        3
 70
   128
 43
0.0
 10
135.2384536048
 20
135.4388901683
 10
135.2043097718
 20
135.3263330354
 10
135.1499825663
 20
135.2242811639
  0
LINE
  5
102
330
1F
100
AcDbEntity
  8
0
  6
HIDDEN
 62
     7
370
     0
100
AcDbLine
 10
135.2499825663
 20
86.4150704501
 30
0.0
 11
135.2499825663
 21
135.5559456789
 31
0.0
  0
LINE
  5
103
330
1F
100
AcDbEntity
  8
0
  6
HIDDEN
 62
     7
370
     0
100
AcDbLine
 10
161.1193751047
 20
130.8607655798
 30
0.0
 11
161.0999825663
 21
131.483240235
 31
0.0
  0
ARC
  5
104
330
1F
100
AcDbEntity
  8
0
  6
HIDDEN
 62
     7
370
     0
100
AcDbCircle
 10
128.9049845679
 20
98.9855080645
 30
0.0
 40
8.000000000000002
100
AcDbArc
 50
277.1325488762
 51
321.3178125465
  0
ARC
  5
105
330
1F
100
AcDbEntity
  8
0
  6
HIDDEN
 62
     7
370
     0
100
AcDbCircle
 10
128.9049845679
 20
122.9855080645
 30
0.0
 40
7.999999999999996
100
AcDbArc
 50
38.6821874535
 51
82.8563149266
  0
ARC
  5
106
330
1F
100
AcDbEntity
  8
0
  6
HIDDEN
 62
     7
370
     0
100
AcDbCircle
 10
118.2324181316
 20
91.5855080645
 30
0.0
 40
0.5999999999999962
100
AcDbArc
 50
210.0
 51
270.0
  0
ARC
  5
107
330
1F
100
AcDbEntity
  8
0
  6
HIDDEN
 62
     7
370
     0
100
AcDbCircle
 10
118.2324181316
 20
130.3855080645
 30
0.0
 40
0.5999999999999943
100
AcDbArc
 50
90.0
 51
150.0
  0
LINE
  5
108
330
1F
100
AcDbEntity
  8
0
  6
HIDDEN
 62
     7
370
     0
100
AcDbLine
 10
118.2324181316
 20
90.9855080645
 30
0.0
 11
122.409954708
 21
90.9855080645
 31
0.0
  0
LINE
  5
109
330
1F
100
AcDbEntity
  8
0
  6
HIDDEN
 62
     7
370
     0
100
AcDbLine
 10
122.4030999475
 20
130.9855080645
 30
0.0
 11
118.2324181316
 21
130.9855080645
 31
0.0
  0
LINE
  5
10A
330
1F
100
AcDbEntity
  8
0
  6
HIDDEN
 62
     7
370
     0
100
AcDbLine
 10
117.7128028894
 20
130.6855080645
 30
0.0
 11
116.1539571625
 21
127.9855080645
 31
0.0
  0
LINE
  5
10B
330
1F
100
AcDbEntity
  8
0
  6
HIDDEN
 62
     7
370
     0
100
AcDbLine
 10
116.1539571625
 20
93.9855080645
 30
0.0
 11
117.7128028894
 21
91.2855080645
 31
0.0
  0
LINE
  5
10C
330
1F
100
AcDbEntity
  8
0
  6
HIDDEN
 62
     7
370
     0
100
AcDbLine
 10
147.1499825663
 20
134.9311104792
 30
0.0
 11
147.1499825663
 21
138.2640084178
 31
0.0
  0
LINE
  5
10D
330
1F
100
AcDbEntity
  8
0
  6
HIDDEN
 62
     7
370
     0
100
AcDbLine
 10
139.1499825663
 20
138.2653082837
 30
0.0
 11
139.1499825663
 21
134.9311104792
 31
0.0
  0
ARC
  5
10E
330
1F
100
AcDbEntity
  8
0
  6
HIDDEN
 62
     7
370
     0
100
AcDbCircle
 10
143.5999825663
 20
95.2605080645
 30
0.0
 40
1.500000000000004
100
AcDbArc
 50
238.2116693829
 51
0.0
  0
ARC
  5
10F
330
1F
100
AcDbEntity
  8
0
  6
HIDDEN
 62
     7
370
     0
100
AcDbCircle
 10
143.5999825663
 20
126.7105080645
 30
0.0
 40
1.500000000000004
100
AcDbArc
 50
0.0
 51
121.7883306171
  0
LINE
  5
110
330
1F
100
AcDbEntity
  8
0
  6
HIDDEN
 62
     7
370
     0
100
AcDbLine
 10
135.1499825663
 20
93.9855080645
 30
0.0
 11
142.8098085349
 21
93.9855080645
 31
0.0
  0
LINE
  5
111
330
1F
100
AcDbEntity
  8
0
  6
HIDDEN
 62
     7
370
     0
100
AcDbLine
 10
142.8098085349
 20
127.9855080645
 30
0.0
 11
135.1499825663
 21
127.9855080645
 31
0.0
  0
LINE
  5
112
330
1F
100
AcDbEntity
  8
0
  6
HIDDEN
 62
     7
370
     0
100
AcDbLine
 10
113.3499825663
 20
93.9855080645
 30
0.0
 11
116.1539571625
 21
93.9855080645
 31
0.0
  0
LINE
  5
113
330
1F
100
AcDbEntity
  8
0
  6
HIDDEN
 62
     7
370
     0
100
AcDbLine
 10
116.1539571625
 20
127.9855080645
 30
0.0
 11
109.3499825663
 21
127.9855080645
 31
0.0
  0
LINE
  5
114
330
1F
100
AcDbEntity
  8
0
  6
HIDDEN
 62
     7
370
     0
100
AcDbLine
 10
153.9499825663
 20
101.4855080645
 30
0.0
 11
156.9499825663
 21
101.4855080645
 31
0.0
  0
LINE
  5
115
330
1F
100
AcDbEntity
  8
0
  6
HIDDEN
 62
     7
370
     0
100
AcDbLine
 10
156.9499825663
 20
120.4855080645
 30
0.0
 11
153.9499825663
 21
120.4855080645
 31
0.0
  0
LINE
  5
116
330
1F
100
AcDbEntity
  8
0
  6
HIDDEN
 62
     7
370
     0
100
AcDbLine
 10
145.0999825663
 20
101.9855080645
 30
0.0
 11
145.5999825663
 21
102.4855080645
 31
0.0
  0
LINE
  5
117
330
1F
100
AcDbEntity
  8
0
  6
HIDDEN
 62
     7
370
     0
100
AcDbLine
 10
145.5999825663
 20
119.4855080645
 30
0.0
 11
145.0999825663
 21
119.9855080645
 31
0.0
  0
LINE
  5
118
330
1F
100
AcDbEntity
  8
0
  6
HIDDEN
 62
     7
370
     0
100
AcDbLine
 10
145.5999825663
 20
102.4855080645
 30
0.0
 11
153.9499825663
 21
102.4855080645
 31
0.0
  0
LINE
  5
119
330
1F
100
AcDbEntity
  8
0
  6
HIDDEN
 62
     7
370
     0
100
AcDbLine
 10
153.9499825663
 20
119.4855080645
 30
0.0
 11
145.5999825663
 21
119.4855080645
 31
0.0
  0
LINE
  5
11A
330
1F
100
AcDbEntity
  8
0
  6
HIDDEN
 62
     7
370
     0
100
AcDbLine
 10
140.0999825663
 20
142.4855080645
 30
0.0
 11
140.0999825663
 21
137.3855080645
 31
0.0
  0
ARC
  5
11B
330
1F
100
AcDbEntity
  8
0
  6
HIDDEN
 62
     7
370
     0
100
AcDbCircle
 10
214.6499825663
 20
105.9488138164
 30
0.0
 40
0.5000000000000056
100
AcDbArc
 50
0.0
 51
80.0
  0
ARC
  5
11C
330
1F
100
AcDbEntity
  8
0
  6
HIDDEN
 62
     7
370
     0
100
AcDbCircle
 10
214.6499825663
 20
116.0222023126
 30
0.0
 40
0.5000000000000056
100
AcDbArc
 50
280.0
 51
360.0
  0
LINE
  5
11D
330
1F
100
AcDbEntity
  8
0
  6
HIDDEN
 62
     7
370
     0
100
AcDbLine
 10
214.7368066552
 20
115.5297984361
 30
0.0
 11
211.6499825663
 21
114.9855080645
 31
0.0
  0
LINE
  5
11E
330
1F
100
AcDbEntity
  8
0
  6
HIDDEN
 62
     7
370
     0
100
AcDbLine
 10
211.6499825663
 20
106.9855080645
 30
0.0
 11
214.7368066552
 21
106.441217693
 31
0.0
  0
LINE
  5
11F
330
1F
100
AcDbEntity
  8
0
  6
HIDDEN
 62
     7
370
     0
100
AcDbLine
 10
130.3344203968
 20
86.906136731
 30
0.0
 11
129.8999882473
 21
87.3852027501
 31
0.0
  0
LINE
  5
120
330
1F
100
AcDbEntity
  8
0
  6
HIDDEN
 62
     7
370
     0
100
AcDbLine
 10
122.3999849222
 20
87.8068907092
 30
0.0
 11
121.9175511789
 21
87.3278247338
 31
0.0
  0
LINE
  5
121
330
1F
100
AcDbEntity
  8
0
  6
HIDDEN
 62
     7
370
     0
100
AcDbLine
 10
121.9174292507
 20
134.6431861048
 30
0.0
 11
122.3999800016
 21
134.1640658469
 31
0.0
  0
LINE
  5
122
330
1F
100
AcDbEntity
  8
0
  6
HIDDEN
 62
     7
370
     0
100
AcDbLine
 10
129.8999824483
 20
134.5857636246
 30
0.0
 11
130.3345248387
 21
135.0648838752
 31
0.0
  0
ARC
  5
123
330
1F
100
AcDbEntity
  8
0
  6
HIDDEN
 62
     7
370
     0
100
AcDbCircle
 10
179.0499825663
 20
107.0855080645
 30
0.0
 40
0.4000000000000057
100
AcDbArc
 50
180.0
 51
270.0
  0
ARC
  5
124
330
1F
100
AcDbEntity
  8
0
  6
HIDDEN
 62
     7
370
     0
100
AcDbCircle
 10
179.0499825663
 20
114.8855080645
 30
0.0
 40
0.4000000000000057
100
AcDbArc
 50
90.0
 51
180.0
  0
LINE
  5
125
330
1F
100
AcDbEntity
  8
0
  6
HIDDEN
 62
     7
370
     0
100
AcDbLine
 10
179.0499825663
 20
106.6855080645
 30
0.0
 11
188.2552085482
 21
106.6855080645
 31
0.0
  0
LINE
  5
126
330
1F
100
AcDbEntity
  8
0
  6
HIDDEN
 62
     7
370
     0
100
AcDbLine
 10
188.2552085482
 20
115.2855080645
 30
0.0
 11
179.0499825663
 21
115.2855080645
 31
0.0
  0
ARC
  5
127
330
1F
100
AcDbEntity
  8
0
  6
HIDDEN
 62
     7
370
     0
100
AcDbCircle
 10
188.2552085482
 20
107.0855080645
 30
0.0
 40
0.3999999999999941
100
AcDbArc
 50
270.0
 51
290.0
  0
ARC
  5
128
330
1F
100
AcDbEntity
  8
0
  6
HIDDEN
 62
     7
370
     0
100
AcDbCircle
 10
188.2552085482
 20
114.8855080645
 30
0.0
 40
0.4000000000000074
100
AcDbArc
 50
70.0
 51
90.0
  0
LINE
  5
129
330
1F
100
AcDbEntity
  8
0
  6
HIDDEN
 62
     7
370
     0
100
AcDbLine
 10
188.3920166055
 20
106.7096310162
 30
0.0
 11
189.1499825663
 21
106.9855080645
 31
0.0
  0
LINE
  5
12A
330
1F
100
AcDbEntity
  8
0
  6
HIDDEN
 62
     7
370
     0
100
AcDbLine
 10
189.1499825663
 20
114.9855080645
 30
0.0
 11
188.3920166055
 21
115.2613851128
 31
0.0
  0
LINE
  5
12B
330
1F
100
AcDbEntity
  8
0
  6
HIDDEN
 62
     7
370
     0
100
AcDbLine
 10
156.9499825663
 20
106.7855080645
 30
0.0
 11
161.2499825663
 21
106.7855080645
 31
0.0
  0
LINE
  5
12C
330
1F
100
AcDbEntity
  8
0
  6
HIDDEN
 62
     7
370
     0
100
AcDbLine
 10
161.2499825663
 20
115.1855080645
 30
0.0
 11
156.9499825663
 21
115.1855080645
 31
0.0
  0
LINE
  5
12D
330
1F
100
AcDbEntity
  8
0
  6
HIDDEN
 62
     7
370
     0
100
AcDbLine
 10
161.2499825663
 20
106.7855080645
 30
0.0
 11
162.2714456187
 21
108.4855080645
 31
0.0
  0
LINE
  5
12E
330
1F
100
AcDbEntity
  8
0
  6
HIDDEN
 62
     7
370
     0
100
AcDbLine
 10
162.2714456187
 20
113.4855080645
 30
0.0
 11
161.2499825663
 21
115.1855080645
 31
0.0
  0
LINE
  5
12F
330
1F
100
AcDbEntity
  8
0
  6
HIDDEN
 62
     7
370
     0
100
AcDbLine
 10
189.1499825663
 20
106.9855080645
 30
0.0
 11
211.6499825663
 21
106.9855080645
 31
0.0
  0
LINE
  5
130
330
1F
100
AcDbEntity
  8
0
  6
HIDDEN
 62
     7
370
     0
100
AcDbLine
 10
211.6499825663
 20
114.9855080645
 30
0.0
 11
189.1499825663
 21
114.9855080645
 31
0.0
  0
LINE
  5
131
330
1F
100
AcDbEntity
  8
0
  6
HIDDEN
 62
     7
370
     0
100
AcDbLine
 10
129.8999825663
 20
87.3856866518
 30
0.0
 11
129.8999825663
 21
91.0476718739
 31
0.0
  0
LINE
  5
132
330
1F
100
AcDbEntity
  8
0
  6
HIDDEN
 62
     7
370
     0
100
AcDbLine
 10
122.3999825663
 20
90.9873703101
 30
0.0
 11
122.3999825663
 21
87.807213947
 31
0.0
  0
LINE
  5
133
330
1F
100
AcDbEntity
  8
0
  6
HIDDEN
 62
     7
370
     0
100
AcDbLine
 10
129.8999825663
 20
130.9233442551
 30
0.0
 11
129.8999825663
 21
134.5854723185
 31
0.0
  0
LINE
  5
134
330
1F
100
AcDbEntity
  8
0
  6
HIDDEN
 62
     7
370
     0
100
AcDbLine
 10
122.3999825663
 20
134.1639220677
 30
0.0
 11
122.3999825663
 21
130.9849238033
 31
0.0
  0
LINE
  5
135
330
1F
100
AcDbEntity
  8
0
  6
HIDDEN
 62
     7
370
     0
100
AcDbLine
 10
178.6499825663
 20
113.9855080645
 30
0.0
 11
178.1499825663
 21
113.4855080645
 31
0.0
  0
LINE
  5
136
330
1F
100
AcDbEntity
  8
0
  6
HIDDEN
 62
     7
370
     0
100
AcDbLine
 10
178.1499825663
 20
108.4855080645
 30
0.0
 11
178.6499825663
 21
107.9855080645
 31
0.0
  0
LINE
  5
137
330
1F
100
AcDbEntity
  8
0
  6
HIDDEN
 62
     7
370
     0
100
AcDbLine
 10
162.2714456187
 20
108.4855080645
 30
0.0
 11
178.1499825663
 21
108.4855080645
 31
0.0
  0
LINE
  5
138
330
1F
100
AcDbEntity
  8
0
  6
HIDDEN
 62
     7
370
     0
100
AcDbLine
 10
178.1499825663
 20
113.4855080645
 30
0.0
 11
162.2714456187
 21
113.4855080645
 31
0.0
  0
DIMENSION
  5
139
330
1F
100
AcDbEntity
  8
VERMASSUNG
100
AcDbDimension
  2
*D1
 10
96.5848790323
 20
79.4855080645
 30
0.0
 11
96.5848790323
 21
110.9855080645
 31
0.0
 70
   160
  1
HSK A %%c<>
 71
     2
 42
-1.0
  3
SLDDIMSTYLE0
100
AcDbAlignedDimension
 13
135.4499825663
 23
142.4855080645
 33
0.0
 14
135.4499825663
 24
79.4855080645
 34
0.0
 50
90.0
100
AcDbRotatedDimension
  0
DIMENSION
  5
146
330
1F
100
AcDbEntity
  8
VERMASSUNG
100
AcDbDimension
  2
*D2
 10
227.9895542736
 20
117.9855080645
 30
0.0
 11
227.9895542736
 21
110.9855080645
 31
0.0
 70
   160
  1
%%c<>
 71
     2
 42
-1.0
  3
SLDDIMSTYLE1
100
AcDbAlignedDimension
 13
215.1499825663
 23
103.9855080645
 33
0.0
 14
215.1499825663
 24
117.9855080645
 34
0.0
 50
90.0
100
AcDbRotatedDimension
  0
DIMENSION
  5
152
330
1F
100
AcDbEntity
  8
VERMASSUNG
100
AcDbDimension
  2
*D3
 10
215.1499825663
 20
146.4855080645
 30
0.0
 11
196.8999825663
 21
146.4855080645
 31
0.0
 70
   160
 71
     2
 42
-1.0
  3
SLDDIMSTYLE2
100
AcDbAlignedDimension
 13
178.6499825663
 23
110.9855080645
 33
0.0
 14
215.1499825663
 24
110.9855080645
 34
0.0
100
AcDbRotatedDimension
  0
DIMENSION
  5
15D
330
1F
100
AcDbEntity
  8
VERMASSUNG
100
AcDbDimension
  2
*D4
 10
215.1499825663
 20
158.4855080645
 30
0.0
 11
175.1499825663
 21
158.4855080645
 31
0.0
 70
   160
 71
     2
 42
-1.0
  3
SLDDIMSTYLE0
100
AcDbAlignedDimension
 13
135.1499825663
 23
110.9855080645
 33
0.0
 14
215.1499825663
 24
110.9855080645
 34
0.0
100
AcDbRotatedDimension
  0
DIMENSION
  5
167
330
1F
100
AcDbEntity
  8
VERMASSUNG
100
AcDbDimension
  2
*D5
 10
221.9895542736
 20
106.9855080645
 30
0.0
 11
221.9895542736
 21
110.9855080645
 31
0.0
 70
   160
  1
%%c<>
 71
     2
 42
-1.0
  3
SLDDIMSTYLE0
100
AcDbAlignedDimension
 13
211.6499825663
 23
114.9855080645
 33
0.0
 14
211.6499825663
 24
106.9855080645
 34
0.0
 50
90.0
100
AcDbRotatedDimension
  0
DIMENSION
  5
172
330
1F
100
AcDbEntity
  8
VERMASSUNG
100
AcDbDimension
  2
*D6
 10
215.1499825663
 20
152.4855080645
 30
0.0
 11
188.1249825663
 21
152.4855080645
 31
0.0
 70
   160
 71
     2
 42
-1.0
  3
SLDDIMSTYLE0
100
AcDbAlignedDimension
 13
161.0999825663
 23
140.8319483883
 33
0.0
 14
215.1499825663
 24
117.0611175729
 34
0.0
100
AcDbRotatedDimension
  0
DIMENSION
  5
17C
330
1F
100
AcDbEntity
  8
VERMASSUNG
100
AcDbDimension
  2
*D7
 10
215.1499825663
 20
164.4855080645
 30
0.0
 11
159.1999825663
 21
164.4855080645
 31
0.0
 70
   160
 71
     2
 42
-1.0
  3
SLDDIMSTYLE0
100
AcDbAlignedDimension
 13
103.2499825663
 23
130.676185811
 33
0.0
 14
215.1499825663
 24
117.0611175729
 34
0.0
100
AcDbRotatedDimension
  0
LINE
  5
186
330
1F
100
AcDbEntity
  8
0
  6
HIDDEN
 62
     7
370
     0
100
AcDbLine
 10
153.9499825663
 20
119.9855080645
 30
0.0
 11
145.0999825663
 21
119.9855080645
 31
0.0
  0
LINE
  5
187
330
1F
100
AcDbEntity
  8
0
  6
HIDDEN
 62
     7
370
     0
100
AcDbLine
 10
145.0999825663
 20
101.9855080645
 30
0.0
 11
153.9499825663
 21
101.9855080645
 31
0.0
  0
LINE
  5
188
330
1F
100
AcDbEntity
  8
0
  6
HIDDEN
 62
     7
370
     0
100
AcDbLine
 10
161.9710153092
 20
107.9855080645
 30
0.0
 11
178.6499825663
 21
107.9855080645
 31
0.0
  0
LINE
  5
189
330
1F
100
AcDbEntity
  8
0
  6
HIDDEN
 62
     7
370
     0
100
AcDbLine
 10
178.6499825663
 20
113.9855080645
 30
0.0
 11
161.9710153092
 21
113.9855080645
 31
0.0
  0
LINE
  5
18A
330
1F
100
AcDbEntity
  8
0
  6
HIDDEN
 62
     7
370
     0
100
AcDbLine
 10
161.9710153092
 20
110.9855080645
 30
0.0
 11
161.9710153092
 21
111.6530708664
 31
0.0
  0
LINE
  5
18B
330
1F
100
AcDbEntity
  8
0
  6
HIDDEN
 62
     7
370
     0
100
AcDbLine
 10
161.9710153092
 20
111.6530708664
 30
0.0
 11
161.9710153092
 21
113.9855080645
 31
0.0
  0
LINE
  5
18C
330
1F
100
AcDbEntity
  8
0
  6
HIDDEN
 62
     7
370
     0
100
AcDbLine
 10
161.9710153092
 20
107.9855080645
 30
0.0
 11
161.9710153092
 21
110.9855080645
 31
0.0
  0
LINE
  5
18D
330
1F
100
AcDbEntity
  8
VERMASSUNG
  6
CENTERX2
370
     0
100
AcDbLine
 10
100.9823951613
 20
110.9855080645
 30
0.0
 11
216.2284416621
 21
110.9855080645
 31
0.0
  0
OLE2FRAME
  5
18E
330
1F
100
AcDbEntity
  8
0
100
AcDbOle2Frame
 70
     2
  3
Bitmap Image
 10
13.8511154363
 20
38.264191557
 30
0.0
 11
51.6290888628
 21
31.9806341108
 31
0.0
 71
     2
 72
     0
 73
     1
 90
    12928
310
80552BED0767C5B32B40DDAF6807D121434000000000000000006FFBDDFB85D0
310
4940DDAF6807D121434000000000000000006FFBDDFB85D04940416F4BD60AFB
310
3F4000000000000000002BED0767C5B32B40416F4BD60AFB3F40000000000000
310
0000000000000100000000010000010000000100000000000100000000320000
310
D0CF11E0A1B11AE1000000000000000000000000000000003E000300FEFF0900
310
0600000000000000000000000100000001000000000000000010000002000000
310
01000000FEFFFFFF0000000000000000FFFFFFFFFFFFFFFFFFFFFFFFFFFFFFFF
310
FFFFFFFFFFFFFFFFFFFFFFFFFFFFFFFFFFFFFFFFFFFFFFFFFFFFFFFFFFFFFFFF
310
FFFFFFFFFFFFFFFFFFFFFFFFFFFFFFFFFFFFFFFFFFFFFFFFFFFFFFFFFFFFFFFF
310
FFFFFFFFFFFFFFFFFFFFFFFFFFFFFFFFFFFFFFFFFFFFFFFFFFFFFFFFFFFFFFFF
310
FFFFFFFFFFFFFFFFFFFFFFFFFFFFFFFFFFFFFFFFFFFFFFFFFFFFFFFFFFFFFFFF
310
FFFFFFFFFFFFFFFFFFFFFFFFFFFFFFFFFFFFFFFFFFFFFFFFFFFFFFFFFFFFFFFF
310
FFFFFFFFFFFFFFFFFFFFFFFFFFFFFFFFFFFFFFFFFFFFFFFFFFFFFFFFFFFFFFFF
310
FFFFFFFFFFFFFFFFFFFFFFFFFFFFFFFFFFFFFFFFFFFFFFFFFFFFFFFFFFFFFFFF
310
FFFFFFFFFFFFFFFFFFFFFFFFFFFFFFFFFFFFFFFFFFFFFFFFFFFFFFFFFFFFFFFF
310
FFFFFFFFFFFFFFFFFFFFFFFFFFFFFFFFFFFFFFFFFFFFFFFFFFFFFFFFFFFFFFFF
310
FFFFFFFFFFFFFFFFFFFFFFFFFFFFFFFFFFFFFFFFFFFFFFFFFFFFFFFFFFFFFFFF
310
FFFFFFFFFFFFFFFFFFFFFFFFFFFFFFFFFFFFFFFFFFFFFFFFFFFFFFFFFFFFFFFF
310
FFFFFFFFFFFFFFFFFFFFFFFFFFFFFFFFFFFFFFFFFFFFFFFFFFFFFFFFFFFFFFFF
310
FFFFFFFFFFFFFFFFFFFFFFFFFFFFFFFFFFFFFFFFFFFFFFFFFFFFFFFFFFFFFFFF
310
FDFFFFFFFEFFFFFFFEFFFFFFFEFFFFFF05000000060000000700000008000000
310
090000000A0000000B0000000C0000000D0000000E0000000F00000010000000
310
11000000120000001300000014000000150000001600000017000000FEFFFFFF
310
FFFFFFFFFFFFFFFFFFFFFFFFFFFFFFFFFFFFFFFFFFFFFFFFFFFFFFFFFFFFFFFF
310
FFFFFFFFFFFFFFFFFFFFFFFFFFFFFFFFFFFFFFFFFFFFFFFFFFFFFFFFFFFFFFFF
310
FFFFFFFFFFFFFFFFFFFFFFFFFFFFFFFFFFFFFFFFFFFFFFFFFFFFFFFFFFFFFFFF
310
FFFFFFFFFFFFFFFFFFFFFFFFFFFFFFFFFFFFFFFFFFFFFFFFFFFFFFFFFFFFFFFF
310
FFFFFFFFFFFFFFFFFFFFFFFFFFFFFFFFFFFFFFFFFFFFFFFFFFFFFFFFFFFFFFFF
310
FFFFFFFFFFFFFFFFFFFFFFFFFFFFFFFFFFFFFFFFFFFFFFFFFFFFFFFFFFFFFFFF
310
FFFFFFFFFFFFFFFFFFFFFFFFFFFFFFFFFFFFFFFFFFFFFFFFFFFFFFFFFFFFFFFF
310
FFFFFFFFFFFFFFFFFFFFFFFFFFFFFFFFFFFFFFFFFFFFFFFFFFFFFFFFFFFFFFFF
310
FFFFFFFFFFFFFFFFFFFFFFFFFFFFFFFFFFFFFFFFFFFFFFFFFFFFFFFFFFFFFFFF
310
FFFFFFFFFFFFFFFFFFFFFFFFFFFFFFFFFFFFFFFFFFFFFFFFFFFFFFFFFFFFFFFF
310
FFFFFFFFFFFFFFFFFFFFFFFFFFFFFFFFFFFFFFFFFFFFFFFFFFFFFFFFFFFFFFFF
310
FFFFFFFFFFFFFFFFFFFFFFFFFFFFFFFFFFFFFFFFFFFFFFFFFFFFFFFFFFFFFFFF
310
FFFFFFFFFFFFFFFFFFFFFFFFFFFFFFFFFFFFFFFFFFFFFFFFFFFFFFFFFFFFFFFF
310
52006F006F007400200045006E00740072007900000000000000000000000000
310
0000000000000000000000000000000000000000000000000000000000000000
310
16000500FFFFFFFFFFFFFFFF020000000A00030000000000C000000000000046
310
000000000000000000000000A083CC2241DECB0103000000C000000000000000
310
01004F006C006500000000000000000000000000000000000000000000000000
310
0000000000000000000000000000000000000000000000000000000000000000
310
0A000200FFFFFFFFFFFFFFFFFFFFFFFF00000000000000000000000000000000
310
0000000000000000000000000000000000000000000000001400000000000000
310
010043006F006D0070004F0062006A0000000000000000000000000000000000
310
0000000000000000000000000000000000000000000000000000000000000000
310
120002010100000003000000FFFFFFFF00000000000000000000000000000000
310
0000000000000000000000000000000000000000010000004D00000000000000
310
01004F006C006500310030004E00610074006900760065000000000000000000
310
0000000000000000000000000000000000000000000000000000000000000000
310
1A000200FFFFFFFFFFFFFFFFFFFFFFFF00000000000000000000000000000000
310
0000000000000000000000000000000000000000040000002426000000000000
310
FEFFFFFF02000000FEFFFFFFFFFFFFFFFFFFFFFFFFFFFFFFFFFFFFFFFFFFFFFF
310
FFFFFFFFFFFFFFFFFFFFFFFFFFFFFFFFFFFFFFFFFFFFFFFFFFFFFFFFFFFFFFFF
310
FFFFFFFFFFFFFFFFFFFFFFFFFFFFFFFFFFFFFFFFFFFFFFFFFFFFFFFFFFFFFFFF
310
FFFFFFFFFFFFFFFFFFFFFFFFFFFFFFFFFFFFFFFFFFFFFFFFFFFFFFFFFFFFFFFF
310
FFFFFFFFFFFFFFFFFFFFFFFFFFFFFFFFFFFFFFFFFFFFFFFFFFFFFFFFFFFFFFFF
310
FFFFFFFFFFFFFFFFFFFFFFFFFFFFFFFFFFFFFFFFFFFFFFFFFFFFFFFFFFFFFFFF
310
FFFFFFFFFFFFFFFFFFFFFFFFFFFFFFFFFFFFFFFFFFFFFFFFFFFFFFFFFFFFFFFF
310
FFFFFFFFFFFFFFFFFFFFFFFFFFFFFFFFFFFFFFFFFFFFFFFFFFFFFFFFFFFFFFFF
310
FFFFFFFFFFFFFFFFFFFFFFFFFFFFFFFFFFFFFFFFFFFFFFFFFFFFFFFFFFFFFFFF
310
FFFFFFFFFFFFFFFFFFFFFFFFFFFFFFFFFFFFFFFFFFFFFFFFFFFFFFFFFFFFFFFF
310
FFFFFFFFFFFFFFFFFFFFFFFFFFFFFFFFFFFFFFFFFFFFFFFFFFFFFFFFFFFFFFFF
310
FFFFFFFFFFFFFFFFFFFFFFFFFFFFFFFFFFFFFFFFFFFFFFFFFFFFFFFFFFFFFFFF
310
FFFFFFFFFFFFFFFFFFFFFFFFFFFFFFFFFFFFFFFFFFFFFFFFFFFFFFFFFFFFFFFF
310
FFFFFFFFFFFFFFFFFFFFFFFFFFFFFFFFFFFFFFFFFFFFFFFFFFFFFFFFFFFFFFFF
310
FFFFFFFFFFFFFFFFFFFFFFFFFFFFFFFFFFFFFFFFFFFFFFFFFFFFFFFFFFFFFFFF
310
FFFFFFFFFFFFFFFFFFFFFFFFFFFFFFFFFFFFFFFFFFFFFFFFFFFFFFFFFFFFFFFF
310
0100000200000000000000000000000000000000000000002300820000000007
310
F804250000000000F80425000000000008136800000000005013640000000000
310
0100FEFF030A0000FFFFFFFF0A00030000000000C00000000000004607000000
310
5042727573680007000000504272757368000700000050427275736800F439B2
310
7100000000000000000000000000000000000000000000000000C70600000000
310
425D000000000000000000000000000000000000000000003800000041000000
310
0813680000000000DE126A000000000000000000000000000000000000000000
310
0000C70600000000435D00000000000000000000000000000000000000000000
310
38000000410000000813680000000000FA126000000000000000000000000000
310
00000000000000000000C706000000003D5D0000000000000000000000000000
310
0000000000000000380000004100000008136800000000002613690000000000
310
000000000000000000000000000000000000C706000000003E5D000000000000
310
0000000000000000000000000000000038000000410000000813680000000000
310
3213330000000000000000000000000000000000000000000000C70600000000
310
3F5D000000000000000000000000000000000000000000003800000041000000
310
0813680000000000021327000000000000000000000000000000000000000000
310
20260000424D0E260000000000003E00000028000000B40200006E0000000100
310
01000000000000000000130B0000130B00000200000002000000000000FFFFFF
310
FFFFFFFFFFFFFFFFFFFFFFFFFFFFFFFFFFFFFFFFFFFFFFFFFFFFFFFFFFFFFFFF
310
FFFFFFFFFFFFFFFFFFFFFFFFFFFFFFFFFFFFFFFFFFFFFFFFFFFFFFFFFFFFFFFF
310
FFFFFFFFFFFFFFFFFFFFFFFFFFFFFFFFFFFFFFFFFFFFFFFFF000FFFFFFFFFFFF
310
FFFFFFFFFFFFFFFFFFFFFFFFFFFFFFFFFFFFFFFFFFFFFFFFFFFFFFFFFFFFFFFF
310
FFFFFFFFFFFFFFFFFFFFFFFFFFFFFFFFFFFFFFFFFFFFFFFFFFFFFFFFFFFFFFFF
310
FFFFFFFFFFFFFFFFFFFFFFFFFFFFFFFFF000FFFFFFFFFFFFFFFFFFFFFFFFFFFF
310
FFFFFFFFFFFFFFFFFFFFFFFFFFFFFFFFFFFFFFFFFFFFFFFFFFFFFFFFFFFFFFFF
310
FFFFFFFFFFFFFFFFFFFFFFFFFFFFFFFFFFFFFFFFFFFFFFFFFFFFFFFFFFFFFFFF
310
FFFFFFFFFFFFFFFFF000FFFFFFFFFFFFFFFFFFFFFFFFFFFFFFFFFFFFFFFFFFFF
310
FFFFFFFFFFFFFFFFFFFFFFFFFFFFFFFFFFFFFFFFFFFFFFFFFFFFFFFFFFFFFFFF
310
FFFFFFFFFFFFFFFFFFFFFFFFFFFFFFFFFFFFFFFFFFFFFFFFFFFFFFFFFFFFFFFF
310
F000FFFFFFFFFFFFFFFFFFFFFFFFFFFFFFFFFFFFFFFFFFFFFFFFFFFFFFFFFFFF
310
FFFFFFFFFFFFFFFFFFFFFFFFFFFFFFFFFFFFFFFFFFFFFFFFFFFFFFFFFFFFFFFF
310
FFFFFFFFFFFFFFFFFFFFFFFFFFFFFFFFFFFFFFFFFFFFFFFFF000FFFFFFFFFFFF
310
FFFFFFFFFFFFFFFFFFFFFFFFFFFFFFFFFFFFFFFFFFFFFFFFFFFFFFFFFFFFFFFF
310
FFFFFFFFFFFFFFFFFFFFFFFFFFFFFFFFFFFFFFFFFFFFFFFFFFFFFFFFFFFFFFFF
310
FFFFFFFFFFFFFFFFFFFFFFFFFFFFFFFFF000FFFFFFFFFFFFFFFFFFFFFFFFFFFF
310
FFFFFFFFFFFFFFFFFFFFFFFFFFFFFFFFFFFFFFFFFFFFFFFFFFFFFFFFFFFFFFFF
310
FFFFFFFFFFFFFFFFFFFFFFFFFFFFFFFFFFFFFFFFFFFFFFFFFFFFFFFFFFFFFFFF
310
FFFFFFFFFFFFFFFFF000FFFFFFFFFFFFFFFFFFFFFFFFFFFFFFFFFFFFFFFFFFFF
310
FFFFFFFFFFFFFFFFFFFFFFFFFFFFFFFFFFFFFFFFFFFFFFFFFFFFFFFFFFFFFFFF
310
FFFFFFFFFFFFFFFFFFFFFFFFFFFFFFFFFFFFFFFFFFFFFFFFFFFFFFFFFFFFFFFF
310
F000FFFFFFFFFFFFFFFFFFFFFFFFFFFFFFFFFFFFFFFFFFFFFFFFFFFFFFFFFFFF
310
FFFFFFFFFFFFFFFFFFFFFFFFFFFFFFFFFFFFFFFFFFFFFFFFFFFFFFFFFFFFFFFF
310
FFFFFFFFFFFFFFFFFFFFFFFFFFFFFFFFFFFFFFFFFFFFFFFFF000FFFFFFFFFFFF
310
FFFFFFFFFFFFFFFFFFFFFFFFFFFFFFFFFFFFFFFFFFFFFFFFFFFFFFFFFFFFFFFF
310
FFFFFFFFFFFFFFFFFFFFFFFFFFFFFFFFFFFFFFFFFFFFFFFFFFFFFFFFFFFFFFFF
310
FFFFFFFFFFFFFFFFFFFFFFFFFFFFFFFFF000FFFFFFFFFFFFFFFFFFFFFFFFFFFF
310
FFFFFFFFFFFFFFFFFFFFFFFFFFFFFFFFFFFFFFFFFFFFFFFFFFFFFFFFFFFFFFFF
310
FFFFFFFFFFFFFFFFFFFFFFFFFFFFFFFFFFFFFFFFFFFFFFFFFFFFFFFFFFFFFFFF
310
FFFFFFFFFFFFFFFFF000FFFFFFFFFFFFFFFFFFFFFFFFFFFFFFFFFFFFFFFFFFFF
310
FFFFFFFFFFFFFFFFFFFFFFFFFFFFFFFFFFFFFFFFFFFFFFFFFFFFFFFFFFFFFFFF
310
FFFFFFFFFFFFFFFFFFFFFFFFFFFFFFFFFFFFFFFFFFFFFFFFFFFFFFFFFFFFFFFF
310
F000FFFFFFFFFFFFFFFFFFFFFFFFFFFFFFFFFFFFFFFFFFFFFFFFFFFFFFFFFFFF
310
FFFFFFFFFFFFFFFFFFFFFFFFFFFFFFFFFFFFFFFFFFFFFFFFFFFFFFFFFFFFFFFF
310
FFFFFFFFFFFFFFFFFFFFFFFFFFFFFFFFFFFFFFFFFFFFFFFFF000FFFFFFFFFFFF
310
FFFFFFFFFFFFFFFFFFFFFFFFFFFFFFFFFFFFFFFFFFFFFFFFFFFFFFFFFFFFFFFF
310
FFFFFFFFFFFFFFFFFFFFFFFFFFFFFFFFFFFFFFFFFFFFFFFFFFFFFFFFFFFFFFFF
310
FFFFFFFFFFFFFFFFFFFFFFFFFFFFFFFFF000FFFFFFFFFFFFFFFFFFFFFFFFFFFF
310
FFFFFFFFFFFFFFFFFFFFFFFFFFFFFFFFFFFFFFFFFFFFFFFFFFFFFFFFFFFFFFFF
310
FFFFFFFFFFFFFFFFFFFFFFFFFFFFFFFFFFFFFFFFFFFFFFFFFFFFFFFFFFFFFFFF
310
FFFFFFFFFFFFFFFFF000FFFFFFFFFFFFFFFFFFFFFFFFFFFFFFFFFFFFFFFFFFFF
310
FFFFFFFFFFFFFFFFFFFFFFFFFFFFFFFFFFFFFFFFFFFFFFFFFFFFFFFFFFFFFFFF
310
FFFFFFFFFFFFFFFFFFFFFFFFFFFFFFFFFFFFFFFFFFFFFFFFFFFFFFFFFFFFFFFF
310
F000FFFFFFFFFFFFFFFFFFFFFFFFFFFFFFFFFFFFFFFFFFFFFFFFFFFFFFFFFFFF
310
FFFFFFFFFFFFFFFFFFFFFFFFFFFFFFFFFFFFFFFFFFFFFFFFFFFFFFFFFFFFFFFF
310
FFFFFFFFFFFFFFFFFFFFFFFFFFFFFFFFFFFFFFFFFFFFFFFFF000FFFFFFFFFFFF
310
FFFFFFFFFFFFFFFFFFFFFFFFFFFFFFFFFFFFFFFFFFFFFFFFFFFFFFFFFFFFFFFF
310
FFFFFFFFFFFFFFFFFFFFFFFFFFFFFFFFFFFFFFFFFFFFFFFFFFFFFFFFFFFFFFFF
310
FFFFFFFFFFFFFFFFFFFFFFFFFFFFFFFFF000FFFFFFFFFFFFFFFFFFFFFFFFFFFF
310
FFFFFFFFFFFFFFFFFFFFFFFFFFFFFFFFFFFFFFFFFFFFFFFFFFFFFFFFFFFFFFFF
310
FFFFFFFFFFFFFFFFFFFFFFFFFFFFFFFFFFFFFFFFFFFFFFFFFFFFFFFFFFFFFFFF
310
FFFFFFFFFFFFFFFFF000FFFFF80003FFFFFFFFFFFFFFFFFFFFFFFFFFFFFFFFFF
310
FFFFF00007FFFFFFFFFF00007FFFFFF800000000000000007FFFFFFFFFFFFFFF
310
FFFFFFFC001FFFFFFFFFFFFFFC001FFFFFFFFFFFFFFFFFFFFFFFFFFE0007FFFF
310
F000FFFF8000007FFFFFFFF8000FFFFFC0007FFFFF80007FFFFF0000007FFFFF
310
FFF8000007FFFFF800000000000000007FFFFFF0001FFFFFFFFFFFC00001FFFF
310
FFFFFFFFC00001FFFFFFFF000000000003FFFFE000007FFFF000FFFE0000000F
310
FFFFFFF0000FFFFF80007FFFFF80007FFFFC0000001FFFFFFFC0000001FFFFF8
310
00000000000000007FFFFFF0001FFFFFFFFFFE0000003FFFFFFFFFFE0000003F
310
FFFFFF000000000003FFFF0000000FFFF000FFF800000003FFFFFFF00007FFFF
310
80007FFFFF80007FFFF000000007FFFFFF000000003FFFF80000000000000000
310
7FFFFFF0001FFFFFFFFFF80000000FFFFFFFFFF80000000FFFFFFF0000000000
310
03FFFC00000003FFF000FFE000000000FFFFFFF00007FFFF80003FFFFF80007F
310
FFC000000001FFFFFC000000001FFFF800000000000000007FFFFFF0001FFFFF
310
FFFFE000000003FFFFFFFFE000000003FFFFFF000000000003FFF000000000FF
310
F000FF80000000007FFFFFF00007FFFF80003FFFFF80007FFF8000000000FFFF
310
F80000000007FFF800000000000000007FFFFFF0001FFFFFFFFFC000000001FF
310
FFFFFFC000000001FFFFFF000000000003FFC0000000007FF000FF0000000000
310
3FFFFFE00007FFFF00003FFFFF80007FFE00000000003FFFF00000000003FFF8
310
00000000000000007FFFFFF0001FFFFFFFFF8000000000FFFFFFFF8000000000
310
FFFFFF000000000003FF80000000003FF000FE00000000001FFFFFE00003FFFF
310
00003FFFFF80007FFC00000000001FFFE00000000001FFF8000001FFFE000000
310
7FFFFFF0001FFFFFFFFE00000000003FFFFFFE00000000003FFFFF0000000000
310
03FF00000000001FF000FC00000000000FFFFFE00003FFFF00001FFFFF80007F
310
F800000000001FFFC00000000000FFF8000001FFFE0000007FFFFFF0001FFFFF
310
FFFC00000000001FFFFFFC00000000001FFFFF000000000003FE00000000000F
310
F000F8000000000007FFFFE00003FFFF00001FFFFF80007FF800000000000FFF
310
800000000000FFF8000001FFFE0000007FFFFFF0001FFFFFFFF800000000000F
310
FFFFF800000000000FFFFF000000000003FC000000000007F000F80000000000
310
03FFFFC00003FFFE00001FFFFF80007FF0000000000007FF0000000000007FF8
310
000001FFFE0000007FFFFFF0001FFFFFFFF0000000000007FFFFF00000000000
310
07FFFF000000000003F8000000000003F000F0000000000003FFFFC00001FFFE
310
00001FFFFF80007FE0000000000007FE0000000000003FF8000001FFFE000000
310
7FFFFFF0001FFFFFFFF0000000000007FFFFF0000000000007FFFF0000000000
310
03F800001F800003F000E00001FFF00001FFFFC00001FFFE00000FFFFF80007F
310
E00001FFE00003FE00001FFF00003FF8000001FFFE0000007FFFFFF0001FFFFF
310
FFE000003E000003FFFFE000003E000003FFFF000000000003F00001FFF80001
310
F000E00007FFFC0001FFFFC00001FFFE00000FFFFF80007FC0000FFFFC0003FC
310
0000FFFFC0001FF8000001FFFE0000007FFFFFF0001FFFFFFFC00003FFE00001
310
FFFFC00003FFE00001FFFF0001FFFFFFFFF00007FFFE0001F000E0000FFFFF00
310
00FFFF800001FFFC00000FFFFF80007FC0001FFFFE0001FC0001FFFFE0001FF8
310
000001FFFE0000007FFFFFF0001FFFFFFF80000FFFF80000FFFF80000FFFF800
310
00FFFF0003FFFFFFFFE0000FFFFF8000F000C0003FFFFF8000FFFF800000FFFC
310
000007FFFF80007F80003FFFFF0001FC0003FFFFF0001FF8000001FFFE000000
310
7FFFFFF0001FFFFFFF80003FFFFE0000FFFF80003FFFFE0000FFFF0003FFFFFF
310
FFE0003FFFFF8000F000C0003FFFFF8000FFFF800000FFFC000007FFFF80007F
310
80007FFFFF8001F80007FFFFF8000FF8000001FFFE0000007FFFFFF0001FFFFF
310
FF00007FFFFF00007FFF00007FFFFF00007FFF0003FFFFFFFFE0003FFFFFC000
310
F000C0007FFFFFC000FFFF000000FFFC000007FFFF80007F8000FFFFFF8000F8
310
000FFFFFF8000FF8000001FFFE0000007FFFFFF0001FFFFFFF0000FFFFFF8000
310
7FFF0000FFFFFF80007FFF0003FFFFFFFFC0007FFFFFC00070008000FFFFFFC0
310
00FFFF000000FFF8000007FFFF80007F8000FFFFFF8000F8000FFFFFF8000FF8
310
000001FFFE0000007FFFFFF0001FFFFFFE0001FFFFFFC0003FFE0001FFFFFFC0
310
003FFF0003FFFFFFFFC0007FFFFFE00070008000FFFFFFC0007FFF0000007FF8
310
000003FFFF80007F0001FFFFFF8000F8000FFFFFF8000FF8000001FFFE000000
310
7FFFFFF0001FFFFFFE0001FFFFFFC0003FFE0001FFFFFFC0003FFF0003FFFFFF
310
FFC000FFFFFFE00070008000FFFFFFC0007FFF0000007FF8000003FFFF80007F
310
0001FFFFFF8000F8001FFFFFF8000FF8000001FFFE0000007FFFFFF0001FFFFF
310
FE0003FFFFFFE0003FFE0003FFFFFFE0003FFF0003FFFFFFFFC000FFFFFFE000
310
70008000FFFFFFC0007FFE0000007FF8000003FFFF80007F0001FFFFFF8000F0
310
001FFFFFF8000FF8000001FFFE0000007FFFFFF0001FFFFFFC0003FFFFFFE000
310
1FFC0003FFFFFFE0001FFF0003FFFFFFFFC000FFFFFFC00070008000FFFFFF80
310
007FFE0000007FF0000003FFFF80007F0001FFFFFF0000F0001FFFFFF8000FF8
310
000001FFFE0000007FFFFFF0001FFFFFFC0007FFFFFFF0001FFC0007FFFFFFF0
310
001FFF0003FFFFFFFFC000FFFFFFC00070008001FFFFFF0000FFFE0000003FF0
310
000001FFFF80007F0001FFFFFF0000F8001FFFFFF0000FF8000001FFFE000000
310
7FFFFFF0001FFFFFFC0007FFFFFFF0001FFC0007FFFFFFF0001FFF0003FFFFFF
310
FFC001FFFFFF80007000FFFFFFFFFE0000FFFE0008003FF0008001FFFF80007F
310
FFFFFFFFFC0000FFFFFFFFFFE0000FF8000001FFFE0000007FFFFFF0001FFFFF
310
F8000FFFFFFFF8000FF8000FFFFFFFF8000FFF0003FFFFFFFFFFFFFFFFFF0000
310
7000FFFFFFFFFC0000FFFC0008003FF0008001FFFF80007FFFFFFFFFF80001FF
310
FFFFFFFF80000FF8000001FFFE0000007FFFFFF0001FFFFFF8000FFFFFFFF800
310
0FF8000FFFFFFFF8000FFF0003FFFFFFFFFFFFFFFFFE0000F000FFFFFFFFE000
310
00FFFC000C003FE000C001FFFF80007FFFFFFFFFC00001FFFFFFFFFE00001FF8
310
000001FFFE0000007FFFFFF0001FFFFFF8000FFFFFFFF8000FF8000FFFFFFFF8
310
000FFF0003FFFFFFFFFFFFFFFFF00000F000FFFFFFFE000001FFFC000C001FE0
310
00C000FFFF80007FFFFFFFFE000001FFFFFFFFE000001FF80FFFFFFFFFFFFFC0
310
7FFFFFF0001FFFFFF8000FFFFFFFF8000FF8000FFFFFFFF8000FFF0003FFFFFF
310
FFFFFFFFFF800000F000FFFFFFC0000001FFFC001C001FE001C000FFFF80007F
310
FFFFFF80000003FFFFFFF80000001FF80FFFFFFFFFFFFFC07FFFFFF0001FFFFF
310
F8001FFFFFFFFC000FF8001FFFFFFFFC000FFF0003FFFFFFFFFFFFFFF0000001
310
F000FFFFF800000001FFF8001C001FE001C000FFFF80007FFFFFF800000003FF
310
FFFF800000003FF80FFFFFFFFFFFFFC07FFFFFF0001FFFFFF8001FFFFFFFFC00
310
0FF8001FFFFFFFFC000FFF0003FFFFFFFFFFFFFE00000001F000FFFFC0000000
310
03FFF8001E001FC001E000FFFF80007FFFFF8000000007FFFFFC000000003FF8
310
0FFFFFFFFFFFFFC07FFFFFF0001FFFFFF8001FFFFFFFFC000FF8001FFFFFFFFC
310
000FFF0003FFFFFFFFFFFFE000000003F000FFFE0000000007FFF8001E000FC0
310
01E0007FFF80007FFFFE0000000007FFFFE0000000007FF80FFFFFFFFFFFFFC0
310
7FFFFFF0001FFFFFF0001FFFFFFFFC0007F0001FFFFFFFFC0007FF0003FFFFFF
310
FFFFFF0000000003F000FFF80000000007FFF8001E000FC003E0007FFF80007F
310
FFF0000000000FFFFF8000000000FFF80FFFFFFFFFFFFFC07FFFFFF0001FFFFF
310
F0001FFFFFFFFC0007F0001FFFFFFFFC0007FF0003FFFFFFFFFFFC0000000007
310
F000FFE0000000000FFFF0003E000FC003E0007FFF80007FFFC0000000001FFF
310
FE0000000001FFF80FFFFFFFFFFFFFC07FFFFFF0001FFFFFF0001FFFFFFFFC00
310
07F0001FFFFFFFFC0007FF0003FFFFFFFFFFF0000000000FF000FFC000000000
310
1FFFF0003F000F8003F0003FFF80007FFF80000000003FFFF80000000003FFF8
310
0FFFFFFFFFFFFFC07FFFFFF0001FFFFFF0001FFFFFFFFC0007F0001FFFFFFFFC
310
0007FF0003FFFFFFFFFFE0000000001FF000FF00000000007FFFF0003F000780
310
03F0003FFF80007FFF00000000007FFFF00000000007FFF80FFFFFFFFFFFFFC0
310
7FFFFFF0001FFFFFF0001FFFFFFFFC0007F0001FFFFFFFFC0007FF0003FFFFFF
310
FFFF80000000007FF000FE0000000000FFFFE0003F00078007F0003FFF80007F
310
FE0000000001FFFFE0000000001FFFF80FFFFFFFFFFFFFC07FFFFFF0001FFFFF
310
F0001FFFFFFFFC0007F0001FFFFFFFFC0007FF0003FFFFFFFFFF0000000000FF
310
F000FC0000000003FFFFE0007F00078007F0003FFF80007FFC0000000007FFFF
310
C0000000007FFFF80FFFFFFFFFFFFFC07FFFFFF0001FFFFFF8001FFFFFFFFC00
310
0FF8001FFFFFFFFC000FFF0003FFFFFFFFFE0000000003FFF000FC000000000F
310
FFFFE0007F80070007F8001FFF80007FF8000000001FFFFF8000000001FFFFF8
310
0FFFFFFFFFFFFFC07FFFFFF0001FFFFFF8001FFFFFFFFC000FF8001FFFFFFFFC
310
000FFF0003FFFFFFFFFC000000000FFFF000F8000000007FFFFFE0007F800700
310
07F8001FFF80007FF000000000FFFFFF800000000FFFFFF80FFFFFFFFFFFFFC0
310
7FFFFFF0001FFFFFF8000FFFFFFFF8000FF8000FFFFFFFF8000FFF0003FFFFFF
310
FFFC000000007FFFF000F800000007FFFFFFC0007F8003000FF8001FFF80007F
310
F000000007FFFFFF000000007FFFFFF80FFFFFFFFFFFFFC07FFFFFF0001FFFFF
310
F8000FFFFFFFF8000FF8000FFFFFFFF8000FFF0003FFFFFFFFF80000000FFFFF
310
F000F0000000FFFFFFFFC000FF8003000FF8001FFF80007FE0000000FFFFFFFF
310
0000000FFFFFFFF8000001FFFE0000007FFFFFF0001FFFFFF8000FFFFFFFF800
310
0FF8000FFFFFFFF8000FFF0003FFFFFFFFF8000000FFFFFFF000F000000FFFFF
310
FFFFC000FFC002000FF8000FFF80007FE000001FFFFFFFFE000001FFFFFFFFF8
310
000001FFFE0000007FFFFFF0001FFFFFF8000FFFFFFFF8000FF8000FFFFFFFF8
310
000FFF0003FFFFFFFFF000001FFFFFFFF000E00000FFFFFFFFFFC000FFC00200
310
0FFC000FFF80007FE00001FFFFFFFFFE00001FFFFFFFFFF8000001FFFE000000
310
7FFFFFF0001FFFFFFC000FFFFFFFF8001FFC000FFFFFFFF8001FFF0003FFFFFF
310
FFF00001FFFFFFFFF000E00007FFFFFFFFFF8000FFC000001FFC000FFF80007F
310
C0000FFFFFFFFFFE0000FFFFFFFFFFF8000001FFFE0000007FFFFFF0001FFFFF
310
FC0007FFFFFFF0001FFC0007FFFFFFF0001FFF0003FFFFFFFFF00007FFFFFFFF
310
F000E0001FFFFFFFFFFF8000FFC000001FFC000FFF80007FC0003FFFFFFFFFFE
310
0001FFFFFFFFFFF8000001FFFE0000007FFFFFF0001FFFFFFC0007FFFFFFF000
310
1FFC0007FFFFFFF0001FFF0003FFFFFFFFF0001FFFFFFFFFF000E0003FFFFF00
310
03FF8001FFE000001FFC0007FF80007FC0007FFFFF0007FC0003FFFFF0003FF8
310
000001FFFE0000007FFFFFF0001FFFFFFC0003FFFFFFE0001FFC0003FFFFFFE0
310
001FFF0003FFFFFFFFF0003FFFFFFFFFF000E0003FFFFF0001FF8001FFE00000
310
1FFE0007FF80007FC0007FFFFE0003FC0007FFFFE0003FF8000001FFFE000000
310
7FFFFFF0001FFFFFFE0003FFFFFFE0003FFE0003FFFFFFE0003FFF0003FFFFFF
310
FFF0003FFFFF8001F000E0003FFFFF0001FF0001FFE000001FFE0007FF80007F
310
C0007FFFFE0003FC0007FFFFE0003FF8000001FFFE0000007FFFFFF0001FFFFF
310
FE0001FFFFFFC0003FFE0001FFFFFFC0003FFF0003FFFFFFFFF0003FFFFF0001
310
F000E0003FFFFF0003FF0001FFE000003FFE0007FF80007FC0007FFFFE0003FC
310
0007FFFFE0003FF8000001FFFE0000007FFFFFF0001FFFFFFF0001FFFFFFC000
310
7FFF0001FFFFFFC0007FFF0003FFFFFFFFF0003FFFFF0001F000E0003FFFFE00
310
03FF0003FFF000003FFE0003FF80007FC0007FFFFC0003FE0007FFFFE0003FF8
310
000001FFFE0000007FFFFFF0001FFFFFFF0000FFFFFF80007FFF0000FFFFFF80
310
007FFF0003FFFFFFFFF0003FFFFF0001F000E0003FFFFE0003FF0003FFF00000
310
3FFF0003FF80007FC0007FFFFC0007FE0007FFFFC0003FF8000001FFFE000000
310
7FFFFFF0001FFFFFFF80007FFFFF0000FFFF80007FFFFF0000FFFF0003FFFFFF
310
FFF0003FFFFF0003F000E0003FFFFC0003FE0003FFF000003FFF0003FF80007F
310
E0003FFFF80007FE0003FFFFC0007FF8000001FFFE0000007FFFFFF0001FFFFF
310
FF80003FFFFE0000FFFF80003FFFFE0000FFFF0003FFFFFFFFF0001FFFFE0003
310
F000F0001FFFF80003FE0003FFF000007FFF0001FF80007FE0003FFFF00007FE
310
0001FFFF80007FF8000001FFFE0000007FFFFFF0001FFFFFFFC0000FFFF80001
310
FFFFC0000FFFF80001FFFF0003FFFFFFFFF0001FFFFC0003F000F0000FFFF000
310
07FE0007FFF800007FFF0001FF80007FE0001FFFE00007FF0000FFFE00007FF8
310
000001FFFE0000007FFFFFF0001FFFFFFFC00003FFE00001FFFFC00003FFE000
310
01FFFF0003FFFFFFFFF8000FFFF80003F000F00003FFC00007FC0007FFF80000
310
7FFF8001FF80007FF00007FF80000FFF00007FF80000FFF8000001FFFE000000
310
7F80000000000001FFE000003E000003FFFFE000003E000003FFFF0003FFFFFF
310
FFF80003FFE00007F000F800000000000FFC0007FFF800007FFF8001FF80007F
310
F000000000000FFF000000000000FFF8000001FFFE0000007F80000000000001
310
FFF0000000000007FFFFF0000000000007FFFF0003FFFFFFFFFC00007E000007
310
F000F800000000000FFC0007FFF80000FFFF8000FF80007FF800000000001FFF
310
800000000001FFF8000001FFFE0000007F80000000000001FFF800000000000F
310
FFFFF800000000000FFFFF0003FFFFFFFFFC00000000000FF000FC0000000000
310
1FFC0007FFFC0000FFFF8000FF80007FF800000000003FFFC00000000001FFF8
310
000001FFFE0000007F80000000000001FFF800000000000FFFFFF80000000000
310
0FFFFF0003FFFFFFFFFE00000000001FF000FE00000000003FF8000FFFFC0000
310
FFFF8000FF80007FFC00000000003FFFC00000000003FFF8000001FFFE000000
310
7F80000000000001FFFC00000000001FFFFFFC00000000001FFFFF0003FFFFFF
310
FFFF00000000001FF000FF00000000003FF8000FFFFC0000FFFFC000FF80007F
310
FE00000000007FFFE00000000007FFF8000001FFFE0000007F80000000000001
310
FFFE00000000003FFFFFFE00000000003FFFFF0003FFFFFFFFFF80000000003F
310
F000FF80000000007FF8000FFFFC0001FFFFC0007F80007FFF0000000000FFFF
310
F0000000000FFFF800000000000000007F80000000000001FFFF8000000000FF
310
FFFFFF8000000000FFFFFF0003FFFFFFFFFFC0000000007FF000FFC000000000
310
FFF8000FFFFE0001FFFFC0007F80007FFF8000000001FFFFF8000000001FFFF8
310
00000000000000007F80000000000001FFFFC000000001FFFFFFFFC000000001
310
FFFFFF0003FFFFFFFFFFE000000000FFF000FFE000000003FFF0001FFFFE0001
310
FFFFC0007F80007FFFC000000007FFFFFE000000003FFFF80000000000000000
310
7F80000000000001FFFFE000000003FFFFFFFFE000000003FFFFFF0003FFFFFF
310
FFFFF000000003FFF000FFF80000000FFFF0001FFFFE0001FFFFE0007F80007F
310
FFF00000000FFFFFFF00000000FFFFF800000000000000007F80000000000001
310
FFFFF80000000FFFFFFFFFF80000000FFFFFFF0003FFFFFFFFFFFC0000000FFF
310
F000FFFE0000003FFFF0001FFFFE0003FFFFE0003F80007FFFFC0000003FFFFF
310
FFC0000003FFFFF800000000000000007F80000000000001FFFFFE0000003FFF
310
FFFFFFFE0000003FFFFFFF0003FFFFFFFFFFFF0000003FFFF000FFFF800000FF
310
FFF0001FFFFF0003FFFFE0003F80007FFFFF000001FFFFFFFFF800001FFFFFF8
310
00000000000000007F80000000000001FFFFFFC00001FFFFFFFFFFFFC00001FF
310
FFFFFF0003FFFFFFFFFFFFC00000FFFFF000FFFFF8000FFFFFFFFFFFFFFFFFFF
310
FFFFFFFFFFFFFFFFFFFFF0001FFFFFFFFFFF0000FFFFFFF80000000000000000
310
7FFFFFFFFFFFFFFFFFFFFFFC001FFFFFFFFFFFFFFC001FFFFFFFFFFFFFFFFFFF
310
FFFFFFFC001FFFFFF000FFFFFFFFFFFFFFFFFFFFFFFFFFFFFFFFFFFFFFFFFFFF
310
FFFFFFFFFFFFFFFFFFFFFFFFFFFFFFFFFFFFFFFFFFFFFFFFFFFFFFFFFFFFFFFF
310
FFFFFFFFFFFFFFFFFFFFFFFFFFFFFFFFFFFFFFFFFFFFFFFFFFFFFFFFFFFFFFFF
310
F000FFFFFFFFFFFFFFFFFFFFFFFFFFFFFFFFFFFFFFFFFFFFFFFFFFFFFFFFFFFF
310
FFFFFFFFFFFFFFFFFFFFFFFFFFFFFFFFFFFFFFFFFFFFFFFFFFFFFFFFFFFFFFFF
310
FFFFFFFFFFFFFFFFFFFFFFFFFFFFFFFFFFFFFFFFFFFFFFFFF000FFFFFFFFFFFF
310
FFFFFFFFFFFFFFFFFFFFFFFFFFFFFFFFFFFFFFFFFFFFFFFFFFFFFFFFFFFFFFFF
310
FFFFFFFFFFFFFFFFFFFFFFFFFFFFFFFFFFFFFFFFFFFFFFFFFFFFFFFFFFFFFFFF
310
FFFFFFFFFFFFFFFFFFFFFFFFFFFFFFFFF000FFFFFFFFFFFFFFFFFFFFFFFFFFFF
310
FFFFFFFFFFFFFFFFFFFFFFFFFFFFFFFFFFFFFFFFFFFFFFFFFFFFFFFFFFFFFFFF
310
FFFFFFFFFFFFFFFFFFFFFFFFFFFFFFFFFFFFFFFFFFFFFFFFFFFFFFFFFFFFFFFF
310
FFFFFFFFFFFFFFFFF000FFFFFFFFFFFFFFFFFFFFFFFFFFFFFFFFFFFFFFFFFFFF
310
FFFFFFFFFFFFFFFFFFFFFFFFFFFFFFFFFFFFFFFFFFFFFFFFFFFFFFFFFFFFFFFF
310
FFFFFFFFFFFFFFFFFFFFFFFFFFFFFFFFFFFFFFFFFFFFFFFFFFFFFFFFFFFFFFFF
310
F000FFFFFFFFFFFFFFFFFFFFFFFFFFFFFFFFFFFFFFFFFFFFFFFFFFFFFFFFFFFF
310
FFFFFFFFFFFFFFFFFFFFFFFFFFFFFFFFFFFFFFFFFFFFFFFFFFFFFFFFFFFFFFFF
310
FFFFFFFFFFFFFFFFFFFFFFFFFFFFFFFFFFFFFFFFFFFFFFFFF000FFFFFFFFFFFF
310
FFFFFFFFFFFFFFFFFFFFFFFFFFFFFFFFFFFFFFFFFFFFFFFFFFFFFFFFFFFFFFFF
310
FFFFFFFFFFFFFFFFFFFFFFFFFFFFFFFFFFFFFFFFFFFFFFFFFFFFFFFFFFFFFFFF
310
FFFFFFFFFFFFFFFFFFFFFFFFFFFFFFFFF000FFFFFFFFFFFFFFFFFFFFFFFFFFFF
310
FFFFFFFFFFFFFFFFFFFFFFFFFFFFFFFFFFFFFFFFFFFFFFFFFFFFFFFFFFFFFFFF
310
FFFFFFFFFFFFFFFFFFFFFFFFFFFFFFFFFFFFFFFFFFFFFFFFFFFFFFFFFFFFFFFF
310
FFFFFFFFFFFFFFFFF000FFFFFFFFFFFFFFFFFFFFFFFFFFFFFFFFFFFFFFFFFFFF
310
FFFFFFFFFFFFFFFFFFFFFFFFFFFFFFFFFFFFFFFFFFFFFFFFFFFFFFFFFFFFFFFF
310
FFFFFFFFFFFFFFFFFFFFFFFFFFFFFFFFFFFFFFFFFFFFFFFFFFFFFFFFFFFFFFFF
310
F000FFFFFFFFFFFFFFFFFFFFFFFFFFFFFFFFFFFFFFFFFFFFFFFFFFFFFFFFFFFF
310
FFFFFFFFFFFFFFFFFFFFFFFFFFFFFFFFFFFFFFFFFFFFFFFFFFFFFFFFFFFFFFFF
310
FFFFFFFFFFFFFFFFFFFFFFFFFFFFFFFFFFFFFFFFFFFFFFFFF000FFFFFFFFFFFF
310
FFFFFFFFFFFFFFFFFFFFFFFFFFFFFFFFFFFFFFFFFFFFFFFFFFFFFFFFFFFFFFFF
310
FFFFFFFFFFFFFFFFFFFFFFFFFFFFFFFFFFFFFFFFFFFFFFFFFFFFFFFFFFFFFFFF
310
FFFFFFFFFFFFFFFFFFFFFFFFFFFFFFFFF000FFFFFFFFFFFFFFFFFFFFFFFFFFFF
310
FFFFFFFFFFFFFFFFFFFFFFFFFFFFFFFFFFFFFFFFFFFFFFFFFFFFFFFFFFFFFFFF
310
FFFFFFFFFFFFFFFFFFFFFFFFFFFFFFFFFFFFFFFFFFFFFFFFFFFFFFFFFFFFFFFF
310
FFFFFFFFFFFFFFFFF000FFFFFFFFFFFFFFFFFFFFFFFFFFFFFFFFFFFFFFFFFFFF
310
FFFFFFFFFFFFFFFFFFFFFFFFFFFFFFFFFFFFFFFFFFFFFFFFFFFFFFFFFFFFFFFF
310
FFFFFFFFFFFFFFFFFFFFFFFFFFFFFFFFFFFFFFFFFFFFFFFFFFFFFFFFFFFFFFFF
310
F000FFFFFFFFFFFFFFFFFFFFFFFFFFFFFFFFFFFFFFFFFFFFFFFFFFFFFFFFFFFF
310
FFFFFFFFFFFFFFFFFFFFFFFFFFFFFFFFFFFFFFFFFFFFFFFFFFFFFFFFFFFFFFFF
310
FFFFFFFFFFFFFFFFFFFFFFFFFFFFFFFFFFFFFFFFFFFFFFFFF000FFFFFFFFFFFF
310
FFFFFFFFFFFFFFFFFFFFFFFFFFFFFFFFFFFFFFFFFFFFFFFFFFFFFFFFFFFFFFFF
310
FFFFFFFFFFFFFFFFFFFFFFFFFFFFFFFFFFFFFFFFFFFFFFFFFFFFFFFFFFFFFFFF
310
FFFFFFFFFFFFFFFFFFFFFFFFFFFFFFFFF000FFFFFFFFFFFFFFFFFFFFFFFFFFFF
310
FFFFFFFFFFFFFFFFFFFFFFFFFFFFFFFFFFFFFFFFFFFFFFFFFFFFFFFFFFFFFFFF
310
FFFFFFFFFFFFFFFFFFFFFFFFFFFFFFFFFFFFFFFFFFFFFFFFFFFFFFFFFFFFFFFF
310
FFFFFFFFFFFFFFFFF000FFFFFFFFFFFFFFFFFFFFFFFFFFFFFFFFFFFFFFFFFFFF
310
FFFFFFFFFFFFFFFFFFFFFFFFFFFFFFFFFFFFFFFFFFFFFFFFFFFFFFFFFFFFFFFF
310
FFFFFFFFFFFFFFFFFFFFFFFFFFFFFFFFFFFFFFFFFFFFFFFFFFFFFFFFFFFFFFFF
310
F000FFFFFFFFFFFFFFFFFFFFFFFFFFFFFFFFFFFFFFFFFFFFFFFFFFFFFFFFFFFF
310
FFFFFFFFFFFFFFFFFFFFFFFFFFFFFFFFFFFFFFFFFFFFFFFFFFFFFFFFFFFFFFFF
310
FFFFFFFFFFFFFFFFFFFFFFFFFFFFFFFFFFFFFFFFFFFFFFFFF000FFFFFFFFFFFF
310
FFFFFFFFFFFFFFFFFFFFFFFFFFFFFFFFFFFFFFFFFFFFFFFFFFFFFFFFFFFFFFFF
310
FFFFFFFFFFFFFFFFFFFFFFFFFFFFFFFFFFFFFFFFFFFFFFFFFFFFFFFFFFFFFFFF
310
FFFFFFFFFFFFFFFFFFFFFFFFFFFFFFFFF000FFFFFFFFFFFFFFFFFFFFFFFFFFFF
310
FFFFFFFFFFFFFFFFFFFFFFFFFFFFFFFFFFFFFFFFFFFFFFFFFFFFFFFFFFFFFFFF
310
FFFFFFFFFFFFFFFFFFFFFFFFFFFFFFFFFFFFFFFFFFFFFFFFFFFFFFFFFFFFFFFF
310
FFFFFFFFFFFFFFFFF000FFFFFFFFFFFFFFFFFFFFFFFFFFFFFFFFFFFFFFFFFFFF
310
FFFFFFFFFFFFFFFFFFFFFFFFFFFFFFFFFFFFFFFFFFFFFFFFFFFFFFFFFFFFFFFF
310
FFFFFFFFFFFFFFFFFFFFFFFFFFFFFFFFFFFFFFFFFFFFFFFFFFFFFFFFFFFFFFFF
310
F000FFFFFFFFFFFFFFFFFFFFFFFFFFFFFFFFFFFFFFFFFFFFFFFFFFFFFFFFFFFF
310
FFFFFFFFFFFFFFFFFFFFFFFFFFFFFFFFFFFFFFFFFFFFFFFFFFFFFFFFFFFFFFFF
310
FFFFFFFFFFFFFFFFFFFFFFFFFFFFFFFFFFFFFFFFFFFFFFFFF000FFFFFFFFFFFF
310
FFFFFFFFFFFFFFFFFFFFFFFFFFFFFFFFFFFFFFFFFFFFFFFFFFFFFFFFFFFFFFFF
310
FFFFFFFFFFFFFFFFFFFFFFFFFFFFFFFFFFFFFFFFFFFFFFFFFFFFFFFFFFFFFFFF
310
FFFFFFFFFFFFFFFFFFFFFFFFFFFFFFFFF0000000000000000000000000000000
310
0000000000750067005C005A0065006900630068006E0075006E00670065006E
310
005C00570061006C0074006500720020004D0065006900650072005C00530063
310
006800720075006D00700066006600750074007400650072005C004B00610074
310
0061006C006F0067007A0065006900630068006E0075006E00670065006E005C
310
004800450034002D005300310030002E004B00300031002E003000360033002E
310
0053004C004400440052005700040000000040A24405000000C61157DA0ADFC5
310
010040C01DFFFEFF012A00030000000050724809000000FFFEFF012A00030000
310
000050724809000000FFFEFF535A003A005C005A0065006900630068006E0075
310
006E00670065006E002D005700650072006B007A006500750067005C005A0065
310
006900630068006E0075006E00670065006E005C00570061006C007400650072
310
0020004D0065006900650072005C00530063006800720075006D007000660066
310
00750074007400650072005C004B006100740061006C006F0067007A00650069
310
00630068006E0075006E00670065006E005C00040000000040A24405000000FF
310
FEFF012A00030000000050724809000000FFFEFF012A00030000000050724809
310
000000FFFEFF012A00040000000040A244050000001C0C0000D4981E00010000
  1
OLE
  0
ENDSEC
  0
SECTION
  2
OBJECTS
  0
DICTIONARY
  5
C
330
0
100
AcDbDictionary
281
     1
  3
ACAD_GROUP
350
D
  3
ACAD_LAYOUT
350
1A
  3
ACAD_MLEADERSTYLE
350
190
  3
ACAD_MLINESTYLE
350
17
  3
ACAD_PLOTSETTINGS
350
19
  3
ACAD_PLOTSTYLENAME
350
E
  3
ACAD_TABLESTYLE
350
18F
  3
ACAD_VISUALSTYLE
350
2A
  3
AcDbVariableDictionary
350
191
  0
DICTIONARY
  5
D
102
{ACAD_REACTORS
330
C
102
}
330
C
100
AcDbDictionary
281
     1
  0
DICTIONARY
  5
1A
102
{ACAD_REACTORS
330
C
102
}
330
C
100
AcDbDictionary
281
     1
  3
Layout1
350
1E
  3
Layout2
350
26
  3
Model
350
22
  0
DICTIONARY
  5
190
102
{ACAD_REACTORS
330
C
102
}
330
C
100
AcDbDictionary
281
     1
  0
DICTIONARY
  5
17
102
{ACAD_REACTORS
330
C
102
}
330
C
100
AcDbDictionary
281
     1
  3
Standard
350
18
  0
DICTIONARY
  5
19
102
{ACAD_REACTORS
330
C
102
}
330
C
100
AcDbDictionary
281
     1
  0
ACDBDICTIONARYWDFLT
  5
E
102
{ACAD_REACTORS
330
C
102
}
330
C
100
AcDbDictionary
281
     1
  3
Normal
350
F
100
AcDbDictionaryWithDefault
340
F
  0
DICTIONARY
  5
18F
102
{ACAD_REACTORS
330
C
102
}
330
C
100
AcDbDictionary
281
     1
  0
DICTIONARY
  5
2A
102
{ACAD_REACTORS
330
C
102
}
330
C
100
AcDbDictionary
281
     1
  3
2dWireframe
350
2F
  3
3D Hidden
350
31
  3
3dWireframe
350
30
  3
Basic
350
32
  3
Brighten
350
36
  3
ColorChange
350
3A
  3
Conceptual
350
34
  3
Dim
350
35
  3
Facepattern
350
39
  3
Flat
350
2B
  3
FlatWithEdges
350
2C
  3
Gouraud
350
2D
  3
GouraudWithEdges
350
2E
  3
Linepattern
350
38
  3
Realistic
350
33
  3
Thicken
350
37
  0
DICTIONARY
  5
191
102
{ACAD_REACTORS
330
C
102
}
330
C
100
AcDbDictionary
281
     1
  3
PSOLHEIGHT
350
193
  3
PSOLWIDTH
350
192
  0
LAYOUT
  5
1E
102
{ACAD_REACTORS
330
1A
102
}
330
1A
100
AcDbPlotSettings
  1

  2
none_device
  4

  6

 40
0.0
 41
0.0
 42
0.0
 43
0.0
 44
0.0
 45
0.0
 46
0.0
 47
0.0
 48
0.0
 49
0.0
140
0.0
141
0.0
142
1.0
143
1.0
 70
   688
 72
     0
 73
     0
 74
     5
  7

 75
    16
147
1.0
148
0.0
149
0.0
100
AcDbLayout
  1
Layout1
 70
     1
 71
     1
 10
0.0
 20
0.0
 11
420.0
 21
297.0
 12
0.0
 22
0.0
 32
0.0
 14
1.0000000000E+20
 24
1.0000000000E+20
 34
1.0000000000E+20
 15
-1.0000000000E+20
 25
-1.0000000000E+20
 35
-1.0000000000E+20
146
0.0
 13
0.0
 23
0.0
 33
0.0
 16
1.0
 26
0.0
 36
0.0
 17
0.0
 27
1.0
 37
0.0
 76
     0
330
1B
  0
LAYOUT
  5
26
102
{ACAD_REACTORS
330
1A
102
}
330
1A
100
AcDbPlotSettings
  1

  2
none_device
  4

  6

 40
0.0
 41
0.0
 42
0.0
 43
0.0
 44
0.0
 45
0.0
 46
0.0
 47
0.0
 48
0.0
 49
0.0
140
0.0
141
0.0
142
1.0
143
1.0
 70
   688
 72
     0
 73
     0
 74
     5
  7

 75
    16
147
1.0
148
0.0
149
0.0
100
AcDbLayout
  1
Layout2
 70
     1
 71
     2
 10
0.0
 20
0.0
 11
0.0
 21
0.0
 12
0.0
 22
0.0
 32
0.0
 14
0.0
 24
0.0
 34
0.0
 15
0.0
 25
0.0
 35
0.0
146
0.0
 13
0.0
 23
0.0
 33
0.0
 16
1.0
 26
0.0
 36
0.0
 17
0.0
 27
1.0
 37
0.0
 76
     0
330
23
  0
LAYOUT
  5
22
102
{ACAD_REACTORS
330
1A
102
}
330
1A
100
AcDbPlotSettings
  1

  2
none_device
  4

  6

 40
0.0
 41
0.0
 42
0.0
 43
0.0
 44
0.0
 45
0.0
 46
0.0
 47
0.0
 48
0.0
 49
0.0
140
0.0
141
0.0
142
1.0
143
1.0
 70
  1712
 72
     0
 73
     0
 74
     0
  7

 75
     0
147
1.0
148
0.0
149
0.0
100
AcDbLayout
  1
Model
 70
     1
 71
     0
 10
0.0
 20
0.0
 11
297.0
 21
210.0
 12
0.0
 22
0.0
 32
0.0
 14
0.0
 24
0.0
 34
0.0
 15
297.0
 25
210.0
 35
0.0
146
0.0
 13
0.0
 23
0.0
 33
0.0
 16
1.0
 26
0.0
 36
0.0
 17
0.0
 27
1.0
 37
0.0
 76
     0
330
1F
331
29
  0
MLINESTYLE
  5
18
102
{ACAD_REACTORS
330
17
102
}
330
17
100
AcDbMlineStyle
  2
Standard
 70
     0
  3

 62
   256
 51
90.0
 52
90.0
 71
     2
 49
0.5
 62
   256
  6
BYLAYER
 49
-0.5
 62
   256
  6
BYLAYER
  0
ACDBPLACEHOLDER
  5
F
102
{ACAD_REACTORS
330
E
102
}
330
E
  0
VISUALSTYLE
  5
2F
102
{ACAD_REACTORS
330
2A
102
}
330
2A
100
AcDbVisualStyle
  2
2dWireframe
 70
     4
 71
     0
 72
     2
 73
     0
 90
        0
 40
-0.6
 41
-30.0
 62
     5
 63
     7
 74
     1
 91
        4
 64
     7
 65
   257
 75
     1
175
     1
 42
1.0
 92
        0
 66
   257
 43
1.0
 76
     1
 77
     6
 78
     2
 67
     7
 79
     5
170
     0
171
     0
290
     0
174
     0
 93
        1
 44
0.0
173
     0
291
     0
 45
0.0
1001
ACAD
1000
AcDbSavedByObjectVersion
1070
     0
  0
VISUALSTYLE
  5
31
102
{ACAD_REACTORS
330
2A
102
}
330
2A
100
AcDbVisualStyle
  2
3D Hidden
 70
     6
 71
     1
 72
     2
 73
     2
 90
        0
 40
-0.6
 41
-30.0
 62
     5
 63
     7
 74
     2
 91
        2
 64
     7
 65
   257
 75
     2
175
     1
 42
40.0
 92
        0
 66
   257
 43
1.0
 76
     1
 77
     6
 78
     2
 67
     7
 79
     3
170
     0
171
     0
290
     0
174
     0
 93
        1
 44
0.0
173
     0
291
     0
 45
0.0
1001
ACAD
1000
AcDbSavedByObjectVersion
1070
     0
  0
VISUALSTYLE
  5
30
102
{ACAD_REACTORS
330
2A
102
}
330
2A
100
AcDbVisualStyle
  2
3dWireframe
 70
     5
 71
     0
 72
     2
 73
     0
 90
        0
 40
-0.6
 41
-30.0
 62
     5
 63
     7
 74
     1
 91
        4
 64
     7
 65
   257
 75
     1
175
     1
 42
1.0
 92
        0
 66
   257
 43
1.0
 76
     1
 77
     6
 78
     2
 67
     7
 79
     5
170
     0
171
     0
290
     0
174
     0
 93
        1
 44
0.0
173
     0
291
     0
 45
0.0
1001
ACAD
1000
AcDbSavedByObjectVersion
1070
     0
  0
VISUALSTYLE
  5
32
102
{ACAD_REACTORS
330
2A
102
}
330
2A
100
AcDbVisualStyle
  2
Basic
 70
     7
 71
     1
 72
     0
 73
     1
 90
        0
 40
-0.6
 41
-30.0
 62
     5
 63
     7
 74
     0
 91
        4
 64
     7
 65
   257
 75
     1
175
     1
 42
1.0
 92
        8
 66
     7
 43
1.0
 76
     1
 77
     6
 78
     2
 67
     7
 79
     5
170
     0
171
     0
290
     0
174
     0
 93
        1
 44
0.0
173
     0
291
     1
 45
0.0
1001
ACAD
1000
AcDbSavedByObjectVersion
1070
     0
  0
VISUALSTYLE
  5
36
102
{ACAD_REACTORS
330
2A
102
}
330
2A
100
AcDbVisualStyle
  2
Brighten
 70
    12
 71
     2
 72
     2
 73
     0
 90
        0
 40
-0.6
 41
-30.0
 62
     5
 63
     7
 74
     1
 91
        4
 64
     7
 65
   257
 75
     1
175
     1
 42
1.0
 92
        8
 66
     7
 43
1.0
 76
     1
 77
     6
 78
     2
 67
     7
 79
     5
170
     0
171
     0
290
     0
174
     0
 93
        1
 44
50.0
173
     0
291
     1
 45
0.0
1001
ACAD
1000
AcDbSavedByObjectVersion
1070
     0
  0
VISUALSTYLE
  5
3A
102
{ACAD_REACTORS
330
2A
102
}
330
2A
100
AcDbVisualStyle
  2
ColorChange
 70
    16
 71
     2
 72
     2
 73
     3
 90
        0
 40
-0.6
 41
-30.0
 62
     5
 63
     8
 74
     1
 91
        4
 64
     7
 65
   257
 75
     1
175
     1
 42
1.0
 92
        8
 66
     8
 43
1.0
 76
     1
 77
     6
 78
     2
 67
     7
 79
     5
170
     0
171
     0
290
     0
174
     0
 93
        1
 44
0.0
173
     0
291
     1
 45
0.0
1001
ACAD
1000
AcDbSavedByObjectVersion
1070
     0
  0
VISUALSTYLE
  5
34
102
{ACAD_REACTORS
330
2A
102
}
330
2A
100
AcDbVisualStyle
  2
Conceptual
 70
     9
 71
     3
 72
     2
 73
     0
 90
        0
 40
-0.6
 41
-30.0
 62
     5
 63
     7
 74
     2
 91
        2
 64
     7
 65
   257
 75
     1
175
     1
 42
40.0
 92
        8
 66
     7
 43
1.0
 76
     1
 77
     6
 78
     2
 67
     7
 79
     3
170
     0
171
     0
290
     0
174
     0
 93
        1
 44
0.0
173
     0
291
     0
 45
0.0
1001
ACAD
1000
AcDbSavedByObjectVersion
1070
     0
  0
VISUALSTYLE
  5
35
102
{ACAD_REACTORS
330
2A
102
}
330
2A
100
AcDbVisualStyle
  2
Dim
 70
    11
 71
     2
 72
     2
 73
     0
 90
        0
 40
-0.6
 41
-30.0
 62
     5
 63
     7
 74
     1
 91
        4
 64
     7
 65
   257
 75
     1
175
     1
 42
1.0
 92
        8
 66
     7
 43
1.0
 76
     1
 77
     6
 78
     2
 67
     7
 79
     5
170
     0
171
     0
290
     0
174
     0
 93
        1
 44
-50.0
173
     0
291
     1
 45
0.0
1001
ACAD
1000
AcDbSavedByObjectVersion
1070
     0
  0
VISUALSTYLE
  5
39
102
{ACAD_REACTORS
330
2A
102
}
330
2A
100
AcDbVisualStyle
  2
Facepattern
 70
    15
 71
     2
 72
     2
 73
     0
 90
        0
 40
-0.6
 41
-30.0
 62
     5
 63
     7
 74
     1
 91
        4
 64
     7
 65
   257
 75
     1
175
     1
 42
1.0
 92
        8
 66
     7
 43
1.0
 76
     1
 77
     6
 78
     2
 67
     7
 79
     5
170
     0
171
     0
290
     0
174
     0
 93
        1
 44
0.0
173
     0
291
     1
 45
0.0
1001
ACAD
1000
AcDbSavedByObjectVersion
1070
     0
  0
VISUALSTYLE
  5
2B
102
{ACAD_REACTORS
330
2A
102
}
330
2A
100
AcDbVisualStyle
  2
Flat
 70
     0
 71
     2
 72
     1
 73
     1
 90
        2
 40
-0.6
 41
30.0
 62
     5
 63
     7
 74
     0
 91
        4
 64
     7
 65
   257
 75
     1
175
     1
 42
1.0
 92
        8
 66
     7
 43
1.0
 76
     1
 77
     6
 78
     2
 67
     7
 79
     5
170
     0
171
     0
290
     0
174
     0
 93
       13
 44
0.0
173
     0
291
     1
 45
0.0
1001
ACAD
1000
AcDbSavedByObjectVersion
1070
     0
  0
VISUALSTYLE
  5
2C
102
{ACAD_REACTORS
330
2A
102
}
330
2A
100
AcDbVisualStyle
  2
FlatWithEdges
 70
     1
 71
     2
 72
     1
 73
     1
 90
        2
 40
-0.6
 41
30.0
 62
     5
 63
     7
 74
     1
 91
        4
 64
     7
 65
   257
 75
     1
175
     1
 42
1.0
 92
        0
 66
   257
 43
1.0
 76
     1
 77
     6
 78
     2
 67
     7
 79
     5
170
     0
171
     0
290
     0
174
     0
 93
       13
 44
0.0
173
     0
291
     1
 45
0.0
1001
ACAD
1000
AcDbSavedByObjectVersion
1070
     0
  0
VISUALSTYLE
  5
2D
102
{ACAD_REACTORS
330
2A
102
}
330
2A
100
AcDbVisualStyle
  2
Gouraud
 70
     2
 71
     2
 72
     2
 73
     1
 90
        2
 40
-0.6
 41
30.0
 62
     5
 63
     7
 74
     0
 91
        4
 64
     7
 65
   257
 75
     1
175
     1
 42
1.0
 92
        0
 66
     7
 43
1.0
 76
     1
 77
     6
 78
     2
 67
     7
 79
     5
170
     0
171
     0
290
     0
174
     0
 93
       13
 44
0.0
173
     0
291
     1
 45
0.0
1001
ACAD
1000
AcDbSavedByObjectVersion
1070
     0
  0
VISUALSTYLE
  5
2E
102
{ACAD_REACTORS
330
2A
102
}
330
2A
100
AcDbVisualStyle
  2
GouraudWithEdges
 70
     3
 71
     2
 72
     2
 73
     1
 90
        2
 40
-0.6
 41
30.0
 62
     5
 63
     7
 74
     1
 91
        4
 64
     7
 65
   257
 75
     1
175
     1
 42
1.0
 92
        0
 66
   257
 43
1.0
 76
     1
 77
     6
 78
     2
 67
     7
 79
     5
170
     0
171
     0
290
     0
174
     0
 93
       13
 44
0.0
173
     0
291
     1
 45
0.0
1001
ACAD
1000
AcDbSavedByObjectVersion
1070
     0
  0
VISUALSTYLE
  5
38
102
{ACAD_REACTORS
330
2A
102
}
330
2A
100
AcDbVisualStyle
  2
Linepattern
 70
    14
 71
     2
 72
     2
 73
     0
 90
        0
 40
-0.6
 41
-30.0
 62
     5
 63
     7
 74
     1
 91
        4
 64
     7
 65
   257
 75
     7
175
     7
 42
1.0
 92
        8
 66
     7
 43
1.0
 76
     1
 77
     6
 78
     2
 67
     7
 79
     5
170
     0
171
     0
290
     0
174
     0
 93
        1
 44
0.0
173
     0
291
     1
 45
0.0
1001
ACAD
1000
AcDbSavedByObjectVersion
1070
     0
  0
VISUALSTYLE
  5
33
102
{ACAD_REACTORS
330
2A
102
}
330
2A
100
AcDbVisualStyle
  2
Realistic
 70
     8
 71
     2
 72
     2
 73
     0
 90
        0
 40
-0.6
 41
-30.0
 62
     5
 63
     7
 74
     1
 91
        0
 64
     7
 65
   257
 75
     1
175
     1
 42
1.0
 92
        8
 66
     8
 43
1.0
 76
     1
 77
     6
 78
     2
 67
     7
 79
     5
170
     0
171
     0
290
     0
174
     0
 93
       13
 44
0.0
173
     0
291
     0
 45
0.0
1001
ACAD
1000
AcDbSavedByObjectVersion
1070
     0
  0
VISUALSTYLE
  5
37
102
{ACAD_REACTORS
330
2A
102
}
330
2A
100
AcDbVisualStyle
  2
Thicken
 70
    13
 71
     2
 72
     2
 73
     0
 90
        0
 40
-0.6
 41
-30.0
 62
     5
 63
     7
 74
     1
 91
        4
 64
     7
 65
   257
 75
     1
175
     1
 42
1.0
 92
       12
 66
     7
 43
1.0
 76
     1
 77
     6
 78
     2
 67
     7
 79
     5
170
     0
171
     0
290
     0
174
     0
 93
        1
 44
0.0
173
     0
291
     1
 45
0.0
1001
ACAD
1000
AcDbSavedByObjectVersion
1070
     0
  0
DICTIONARYVAR
  5
193
102
{ACAD_REACTORS
330
191
102
}
330
191
100
DictionaryVariables
280
     0
  1
80.000000
  0
DICTIONARYVAR
  5
192
102
{ACAD_REACTORS
330
191
102
}
330
191
100
DictionaryVariables
280
     0
  1
5.000000
  0
ENDSEC
  0
EOF
