  0
SECTION
  2
HEADER
  9
$ACADVER
  1
AC1015
  9
$ACADMAINTVER
 70
     6
  9
$DWGCODEPAGE
  3
ANSI_1252
  9
$INSBASE
 10
0.0
 20
0.0
 30
0.0
  9
$EXTMIN
 10
0.0
 20
0.0
 30
0.0
  9
$EXTMAX
 10
297.0
 20
210.0
 30
0.0
  9
$LIMMIN
 10
0.0
 20
0.0
  9
$LIMMAX
 10
297.0
 20
210.0
  9
$ORTHOMODE
 70
     0
  9
$REGENMODE
 70
     1
  9
$FILLMODE
 70
     1
  9
$QTEXTMODE
 70
     0
  9
$MIRRTEXT
 70
     1
  9
$LTSCALE
 40
1.0
  9
$ATTMODE
 70
     1
  9
$TEXTSIZE
 40
2.0
  9
$TRACEWID
 40
1.0
  9
$TEXTSTYLE
  7
Standard
  9
$CLAYER
  8
0
  9
$CELTYPE
  6
ByLayer
  9
$CECOLOR
 62
   256
  9
$CELTSCALE
 40
1.0
  9
$DISPSILH
 70
     0
  9
$DIMSCALE
 40
1.0
  9
$DIMASZ
 40
3.0
  9
$DIMEXO
 40
0.0
  9
$DIMDLI
 40
3.75
  9
$DIMRND
 40
0.0
  9
$DIMDLE
 40
0.0
  9
$DIMEXE
 40
1.0
  9
$DIMTP
 40
0.0
  9
$DIMTM
 40
0.0
  9
$DIMTXT
 40
2.0
  9
$DIMCEN
 40
2.5
  9
$DIMTSZ
 40
0.0
  9
$DIMTOL
 70
     0
  9
$DIMLIM
 70
     0
  9
$DIMTIH
 70
     1
  9
$DIMTOH
 70
     1
  9
$DIMSE1
 70
     0
  9
$DIMSE2
 70
     0
  9
$DIMTAD
 70
     1
  9
$DIMZIN
 70
     0
  9
$DIMBLK
  1

  9
$DIMASO
 70
     1
  9
$DIMSHO
 70
     1
  9
$DIMPOST
  1

  9
$DIMAPOST
  1

  9
$DIMALT
 70
     0
  9
$DIMALTD
 70
     3
  9
$DIMALTF
 40
0.0393700787
  9
$DIMLFAC
 40
1.0
  9
$DIMTOFL
 70
     1
  9
$DIMTVP
 40
0.0
  9
$DIMTIX
 70
     0
  9
$DIMSOXD
 70
     0
  9
$DIMSAH
 70
     0
  9
$DIMBLK1
  1

  9
$DIMBLK2
  1

  9
$DIMSTYLE
  2
ISO-25
  9
$DIMCLRD
 70
     0
  9
$DIMCLRE
 70
     0
  9
$DIMCLRT
 70
     0
  9
$DIMTFAC
 40
1.0
  9
$DIMGAP
 40
1.524
  9
$DIMJUST
 70
     0
  9
$DIMSD1
 70
     0
  9
$DIMSD2
 70
     0
  9
$DIMTOLJ
 70
     0
  9
$DIMTZIN
 70
     0
  9
$DIMALTZ
 70
     0
  9
$DIMALTTZ
 70
     0
  9
$DIMUPT
 70
     0
  9
$DIMDEC
 70
     2
  9
$DIMTDEC
 70
     3
  9
$DIMALTU
 70
     2
  9
$DIMALTTD
 70
     3
  9
$DIMTXSTY
  7
Standard
  9
$DIMAUNIT
 70
     0
  9
$DIMADEC
 70
     2
  9
$DIMALTRND
 40
0.0
  9
$DIMAZIN
 70
     0
  9
$DIMDSEP
 70
    44
  9
$DIMATFIT
 70
     3
  9
$DIMFRAC
 70
     0
  9
$DIMLDRBLK
  1

  9
$DIMLUNIT
 70
     2
  9
$DIMLWD
 70
    -2
  9
$DIMLWE
 70
    -2
  9
$DIMTMOVE
 70
     0
  9
$LUNITS
 70
     2
  9
$LUPREC
 70
     2
  9
$SKETCHINC
 40
1.0
  9
$FILLETRAD
 40
10.0
  9
$AUNITS
 70
     0
  9
$AUPREC
 70
     2
  9
$MENU
  1
.
  9
$ELEVATION
 40
0.0
  9
$PELEVATION
 40
0.0
  9
$THICKNESS
 40
0.0
  9
$LIMCHECK
 70
     0
  9
$CHAMFERA
 40
10.0
  9
$CHAMFERB
 40
10.0
  9
$CHAMFERC
 40
20.0
  9
$CHAMFERD
 40
0.0
  9
$SKPOLY
 70
     0
  9
$TDCREATE
 40
2455679.509531644
  9
$TDUCREATE
 40
2455679.42619831
  9
$TDUPDATE
 40
2455679.509531655
  9
$TDUUPDATE
 40
2455679.426198322
  9
$TDINDWG
 40
0.0000000116
  9
$TDUSRTIMER
 40
0.0000000116
  9
$USRTIMER
 70
     1
  9
$ANGBASE
 50
0.0
  9
$ANGDIR
 70
     0
  9
$PDMODE
 70
     0
  9
$PDSIZE
 40
-1.0
  9
$PLINEWID
 40
0.0
  9
$SPLFRAME
 70
     0
  9
$SPLINETYPE
 70
     6
  9
$SPLINESEGS
 70
     8
  9
$HANDSEED
  5
24D
  9
$SURFTAB1
 70
     6
  9
$SURFTAB2
 70
     6
  9
$SURFTYPE
 70
     6
  9
$SURFU
 70
     6
  9
$SURFV
 70
     6
  9
$UCSBASE
  2

  9
$UCSNAME
  2

  9
$UCSORG
 10
0.0
 20
0.0
 30
0.0
  9
$UCSXDIR
 10
1.0
 20
0.0
 30
0.0
  9
$UCSYDIR
 10
0.0
 20
1.0
 30
0.0
  9
$UCSORTHOREF
  2

  9
$UCSORTHOVIEW
 70
     0
  9
$UCSORGTOP
 10
0.0
 20
0.0
 30
0.0
  9
$UCSORGBOTTOM
 10
0.0
 20
0.0
 30
0.0
  9
$UCSORGLEFT
 10
0.0
 20
0.0
 30
0.0
  9
$UCSORGRIGHT
 10
0.0
 20
0.0
 30
0.0
  9
$UCSORGFRONT
 10
0.0
 20
0.0
 30
0.0
  9
$UCSORGBACK
 10
0.0
 20
0.0
 30
0.0
  9
$PUCSBASE
  2

  9
$PUCSNAME
  2

  9
$PUCSORG
 10
0.0
 20
0.0
 30
0.0
  9
$PUCSXDIR
 10
1.0
 20
0.0
 30
0.0
  9
$PUCSYDIR
 10
0.0
 20
1.0
 30
0.0
  9
$PUCSORTHOREF
  2

  9
$PUCSORTHOVIEW
 70
     0
  9
$PUCSORGTOP
 10
0.0
 20
0.0
 30
0.0
  9
$PUCSORGBOTTOM
 10
0.0
 20
0.0
 30
0.0
  9
$PUCSORGLEFT
 10
0.0
 20
0.0
 30
0.0
  9
$PUCSORGRIGHT
 10
0.0
 20
0.0
 30
0.0
  9
$PUCSORGFRONT
 10
0.0
 20
0.0
 30
0.0
  9
$PUCSORGBACK
 10
0.0
 20
0.0
 30
0.0
  9
$USERI1
 70
     0
  9
$USERI2
 70
     0
  9
$USERI3
 70
     0
  9
$USERI4
 70
     0
  9
$USERI5
 70
     0
  9
$USERR1
 40
0.0
  9
$USERR2
 40
0.0
  9
$USERR3
 40
0.0
  9
$USERR4
 40
0.0
  9
$USERR5
 40
0.0
  9
$WORLDVIEW
 70
     1
  9
$SHADEDGE
 70
     3
  9
$SHADEDIF
 70
    70
  9
$TILEMODE
 70
     1
  9
$MAXACTVP
 70
    64
  9
$PINSBASE
 10
0.0
 20
0.0
 30
0.0
  9
$PLIMCHECK
 70
     0
  9
$PEXTMIN
 10
1.0000000000E+20
 20
1.0000000000E+20
 30
1.0000000000E+20
  9
$PEXTMAX
 10
-1.0000000000E+20
 20
-1.0000000000E+20
 30
-1.0000000000E+20
  9
$PLIMMIN
 10
0.0
 20
0.0
  9
$PLIMMAX
 10
420.0
 20
297.0
  9
$UNITMODE
 70
     0
  9
$VISRETAIN
 70
     1
  9
$PLINEGEN
 70
     0
  9
$PSLTSCALE
 70
     1
  9
$TREEDEPTH
 70
  3020
  9
$CMLSTYLE
  2
Standard
  9
$CMLJUST
 70
     0
  9
$CMLSCALE
 40
20.0
  9
$PROXYGRAPHICS
 70
     1
  9
$MEASUREMENT
 70
     1
  9
$CELWEIGHT
370
    -1
  9
$ENDCAPS
280
     0
  9
$JOINSTYLE
280
     0
  9
$LWDISPLAY
290
     1
  9
$INSUNITS
 70
     4
  9
$HYPERLINKBASE
  1

  9
$STYLESHEET
  1

  9
$XEDIT
290
     1
  9
$CEPSNTYPE
380
     0
  9
$PSTYLEMODE
290
     1
  9
$FINGERPRINTGUID
  2
{C2227459-10E7-4161-A271-906601B95350}
  9
$VERSIONGUID
  2
{FAEB1C32-E019-11D5-929B-00C0DF256EC4}
  9
$EXTNAMES
290
     1
  9
$PSVPSCALE
 40
0.0
  9
$OLESTARTUP
290
     0
  0
ENDSEC
  0
SECTION
  2
CLASSES
  0
CLASS
  1
ACDBDICTIONARYWDFLT
  2
AcDbDictionaryWithDefault
  3
ObjectDBX Classes
 90
        0
280
     0
281
     0
  0
CLASS
  1
VISUALSTYLE
  2
AcDbVisualStyle
  3
ObjectDBX Classes
 90
     4095
280
     0
281
     0
  0
CLASS
  1
DICTIONARYVAR
  2
AcDbDictionaryVar
  3
ObjectDBX Classes
 90
        0
280
     0
281
     0
  0
CLASS
  1
ACDBPLACEHOLDER
  2
AcDbPlaceHolder
  3
ObjectDBX Classes
 90
        0
280
     0
281
     0
  0
CLASS
  1
LAYOUT
  2
AcDbLayout
  3
ObjectDBX Classes
 90
        0
280
     0
281
     0
  0
ENDSEC
  0
SECTION
  2
TABLES
  0
TABLE
  2
VPORT
  5
8
330
0
100
AcDbSymbolTable
 70
     1
  0
VPORT
  5
29
330
8
100
AcDbSymbolTableRecord
100
AcDbViewportTableRecord
  2
*Active
 70
     0
 10
0.0
 20
0.0
 11
1.0
 21
1.0
 12
148.5
 22
105.0
 13
0.0
 23
0.0
 14
10.0
 24
10.0
 15
10.0
 25
10.0
 16
0.0
 26
0.0
 36
1.0
 17
0.0
 27
0.0
 37
0.0
 40
210.0
 41
1.4142857143
 42
50.0
 43
0.0
 44
0.0
 50
0.0
 51
0.0
 71
     0
 72
  2000
 73
     1
 74
     3
 75
     0
 76
     0
 77
     0
 78
     0
281
     0
 65
     1
110
0.0
120
0.0
130
0.0
111
1.0
121
0.0
131
0.0
112
0.0
122
1.0
132
0.0
 79
     0
146
0.0
  0
ENDTAB
  0
TABLE
  2
LTYPE
  5
5
330
0
100
AcDbSymbolTable
 70
     6
  0
LTYPE
  5
14
330
5
100
AcDbSymbolTableRecord
100
AcDbLinetypeTableRecord
  2
ByBlock
 70
     0
  3

 72
    65
 73
     0
 40
0.0
  0
LTYPE
  5
15
330
5
100
AcDbSymbolTableRecord
100
AcDbLinetypeTableRecord
  2
ByLayer
 70
     0
  3

 72
    65
 73
     0
 40
0.0
  0
LTYPE
  5
16
330
5
100
AcDbSymbolTableRecord
100
AcDbLinetypeTableRecord
  2
Continuous
 70
     0
  3
Solid line
 72
    65
 73
     0
 40
0.0
  0
LTYPE
  5
3B
330
5
100
AcDbSymbolTableRecord
100
AcDbLinetypeTableRecord
  2
HIDDEN
 70
     0
  3
Hidden __ __ __ __ __ __ __ __ __ __ __ __ __ __
 72
    65
 73
     2
 40
1.905
 49
1.27
 74
     0
 49
-0.635
 74
     0
  0
LTYPE
  5
3C
330
5
100
AcDbSymbolTableRecord
100
AcDbLinetypeTableRecord
  2
PHANTOM
 70
     0
  3
Phantom ______  __  __  ______  __  __  ______
 72
    65
 73
     6
 40
12.7
 49
6.35
 74
     0
 49
-1.27
 74
     0
 49
1.27
 74
     0
 49
-1.27
 74
     0
 49
1.27
 74
     0
 49
-1.27
 74
     0
  0
LTYPE
  5
3D
330
5
100
AcDbSymbolTableRecord
100
AcDbLinetypeTableRecord
  2
CENTER
 70
     0
  3
Center ____ _ ____ _ ____ _ ____ _ ____ _ ____
 72
    65
 73
     4
 40
10.16
 49
6.35
 74
     0
 49
-1.27
 74
     0
 49
1.27
 74
     0
 49
-1.27
 74
     0
  0
LTYPE
  5
3E
330
5
100
AcDbSymbolTableRecord
100
AcDbLinetypeTableRecord
  2
CENTERX2
 70
     0
  3
Center (2x) ________  __  ________  __  _____
 72
    65
 73
     4
 40
20.32
 49
12.7
 74
     0
 49
-2.54
 74
     0
 49
2.54
 74
     0
 49
-2.54
 74
     0
  0
LTYPE
  5
3F
330
5
100
AcDbSymbolTableRecord
100
AcDbLinetypeTableRecord
  2
DOT2
 70
     0
  3
Dot (.5x) ........................................
 72
    65
 73
     2
 40
0.635
 49
0.0
 74
     0
 49
-0.635
 74
     0
  0
ENDTAB
  0
TABLE
  2
LAYER
  5
2
330
0
100
AcDbSymbolTable
 70
     5
  0
LAYER
  5
10
330
2
100
AcDbSymbolTableRecord
100
AcDbLayerTableRecord
  2
0
 70
     0
 62
     7
  6
Continuous
370
    -3
390
F
  0
LAYER
  5
40
330
2
100
AcDbSymbolTableRecord
100
AcDbLayerTableRecord
  2
FORMAT
 70
     0
 62
     7
  6
Continuous
370
    -3
390
F
  0
LAYER
  5
41
330
2
100
AcDbSymbolTableRecord
100
AcDbLayerTableRecord
  2
VERMASSUNG
 70
     0
 62
     7
  6
Continuous
370
    -3
390
F
  0
LAYER
  5
42
330
2
100
AcDbSymbolTableRecord
100
AcDbLayerTableRecord
  2
KOPF_DÜNN
 70
     0
 62
     7
  6
Continuous
370
    -3
390
F
  0
LAYER
  5
43
330
2
100
AcDbSymbolTableRecord
100
AcDbLayerTableRecord
  2
KOPF_DICK
 70
     0
 62
     7
  6
Continuous
370
    15
390
F
  0
ENDTAB
  0
TABLE
  2
STYLE
  5
3
330
0
100
AcDbSymbolTable
 70
     3
  0
STYLE
  5
11
330
3
100
AcDbSymbolTableRecord
100
AcDbTextStyleTableRecord
  2
Standard
 70
     0
 40
0.0
 41
1.0
 50
0.0
 71
     0
 42
2.5
  3
txt
  4

  0
STYLE
  5
44
330
3
100
AcDbSymbolTableRecord
100
AcDbTextStyleTableRecord
  2
SLDTEXTSTYLE0
 70
     0
 40
0.0
 41
0.7
 50
0.0
 71
     0
 42
0.2
  3
TXT
  4

  0
STYLE
  5
48
330
3
100
AcDbSymbolTableRecord
100
AcDbTextStyleTableRecord
  2
SLDTEXTSTYLE1
 70
     0
 40
0.0
 41
0.6473684211
 50
0.0
 71
     0
 42
0.2
  3
TXT
  4

  0
ENDTAB
  0
TABLE
  2
VIEW
  5
6
330
0
100
AcDbSymbolTable
 70
     0
  0
ENDTAB
  0
TABLE
  2
UCS
  5
7
330
0
100
AcDbSymbolTable
 70
     0
  0
ENDTAB
  0
TABLE
  2
APPID
  5
9
330
0
100
AcDbSymbolTable
 70
     1
  0
APPID
  5
12
330
9
100
AcDbSymbolTableRecord
100
AcDbRegAppTableRecord
  2
ACAD
 70
     0
  0
ENDTAB
  0
TABLE
  2
DIMSTYLE
  5
A
330
0
100
AcDbSymbolTable
 70
     5
100
AcDbDimStyleTable
  0
DIMSTYLE
105
27
330
A
100
AcDbSymbolTableRecord
100
AcDbDimStyleTableRecord
  2
ISO-25
 70
     0
 41
2.5
 42
0.625
 43
3.75
 44
1.25
 73
     0
 74
     0
 77
     1
 78
     8
140
2.5
141
2.5
143
0.0393700787
147
0.625
171
     3
172
     1
271
     2
272
     2
274
     3
278
    44
283
     0
284
     8
340
11
  0
DIMSTYLE
105
1ED
102
{ACAD_REACTORS
330
1EC
330
21D
330
227
330
231
330
23B
102
}
330
A
100
AcDbSymbolTableRecord
100
AcDbDimStyleTableRecord
  2
SLDDIMSTYLE0
 70
     0
 41
3.0
 44
0.0
 45
0.000000001
 73
     0
 74
     0
 77
     1
 78
    12
140
2.0
147
0.5
173
     1
271
     2
272
     3
284
    12
340
44
  0
DIMSTYLE
105
1FA
102
{ACAD_REACTORS
330
1F9
102
}
330
A
100
AcDbSymbolTableRecord
100
AcDbDimStyleTableRecord
  2
SLDDIMSTYLE1
 70
     0
 41
3.0
 44
0.0
 45
0.000000001
 73
     0
 74
     0
 77
     1
 78
    12
140
2.0
147
0.5
173
     1
271
     2
272
     2
284
    12
340
44
  0
DIMSTYLE
105
205
102
{ACAD_REACTORS
330
204
102
}
330
A
100
AcDbSymbolTableRecord
100
AcDbDimStyleTableRecord
  2
SLDDIMSTYLE2
 70
     0
 41
3.0
 44
0.0
 45
0.000000001
 73
     0
 74
     0
 77
     1
 78
    12
140
2.0
147
0.5
173
     1
271
     2
272
     2
284
    12
340
44
  0
DIMSTYLE
105
212
102
{ACAD_REACTORS
330
211
102
}
330
A
100
AcDbSymbolTableRecord
100
AcDbDimStyleTableRecord
  2
SLDDIMSTYLE3
 70
     0
 41
3.0
 44
0.0
 45
0.000000001
 73
     0
 74
     0
 77
     1
 78
    12
140
2.0
147
0.5
173
     1
271
     2
272
     3
284
    12
340
44
  0
ENDTAB
  0
TABLE
  2
BLOCK_RECORD
  5
1
330
0
100
AcDbSymbolTable
 70
     9
  0
BLOCK_RECORD
  5
1F
330
1
100
AcDbSymbolTableRecord
100
AcDbBlockTableRecord
  2
*Model_Space
340
22
  0
BLOCK_RECORD
  5
1B
330
1
100
AcDbSymbolTableRecord
100
AcDbBlockTableRecord
  2
*Paper_Space
340
1E
  0
BLOCK_RECORD
  5
23
330
1
100
AcDbSymbolTableRecord
100
AcDbBlockTableRecord
  2
*Paper_Space0
340
26
  0
BLOCK_RECORD
  5
1EE
330
1
100
AcDbSymbolTableRecord
100
AcDbBlockTableRecord
  2
*D1
340
0
  0
BLOCK_RECORD
  5
1FB
330
1
100
AcDbSymbolTableRecord
100
AcDbBlockTableRecord
  2
*D2
340
0
  0
BLOCK_RECORD
  5
206
330
1
100
AcDbSymbolTableRecord
100
AcDbBlockTableRecord
  2
*D3
340
0
  0
BLOCK_RECORD
  5
213
330
1
100
AcDbSymbolTableRecord
100
AcDbBlockTableRecord
  2
*D4
340
0
  0
BLOCK_RECORD
  5
21E
330
1
100
AcDbSymbolTableRecord
100
AcDbBlockTableRecord
  2
*D5
340
0
  0
BLOCK_RECORD
  5
228
330
1
100
AcDbSymbolTableRecord
100
AcDbBlockTableRecord
  2
*D6
340
0
  0
BLOCK_RECORD
  5
232
330
1
100
AcDbSymbolTableRecord
100
AcDbBlockTableRecord
  2
*D7
340
0
  0
BLOCK_RECORD
  5
23C
330
1
100
AcDbSymbolTableRecord
100
AcDbBlockTableRecord
  2
*D8
340
0
  0
ENDTAB
  0
ENDSEC
  0
SECTION
  2
BLOCKS
  0
BLOCK
  5
20
330
1F
100
AcDbEntity
  8
0
100
AcDbBlockBegin
  2
*Model_Space
 70
     0
 10
0.0
 20
0.0
 30
0.0
  3
*Model_Space
  1

  0
ENDBLK
  5
21
330
1F
100
AcDbEntity
  8
0
100
AcDbBlockEnd
  0
BLOCK
  5
1C
330
1B
100
AcDbEntity
 67
     1
  8
0
100
AcDbBlockBegin
  2
*Paper_Space
 70
     0
 10
0.0
 20
0.0
 30
0.0
  3
*Paper_Space
  1

  0
ENDBLK
  5
1D
330
1B
100
AcDbEntity
 67
     1
  8
0
100
AcDbBlockEnd
  0
BLOCK
  5
24
330
23
100
AcDbEntity
  8
0
100
AcDbBlockBegin
  2
*Paper_Space0
 70
     0
 10
0.0
 20
0.0
 30
0.0
  3
*Paper_Space0
  1

  0
ENDBLK
  5
25
330
23
100
AcDbEntity
  8
0
100
AcDbBlockEnd
  0
BLOCK
  5
1EF
330
1EE
100
AcDbEntity
  8
0
100
AcDbBlockBegin
  2
*D1
 70
     1
 10
0.0
 20
0.0
 30
0.0
  3
*D1
  1

  0
SOLID
  5
1F1
330
1EE
100
AcDbEntity
  8
VERMASSUNG
100
AcDbTrace
 10
60.7777898158
 20
139.4008667389
 30
0.0
 11
60.3277898158
 21
136.4008667389
 31
0.0
 12
61.2277898158
 22
136.4008667389
 32
0.0
 13
61.2277898158
 23
136.4008667389
 33
0.0
  0
SOLID
  5
1F2
330
1EE
100
AcDbEntity
  8
VERMASSUNG
100
AcDbTrace
 10
60.7777898158
 20
76.4008667389
 30
0.0
 11
61.2277898158
 21
79.4008667389
 31
0.0
 12
60.3277898158
 22
79.4008667389
 32
0.0
 13
60.3277898158
 23
79.4008667389
 33
0.0
  0
LINE
  5
1F3
330
1EE
100
AcDbEntity
  8
VERMASSUNG
100
AcDbLine
 10
98.8394297046
 20
139.4008667389
 30
0.0
 11
59.7777898158
 21
139.4008667389
 31
0.0
  0
LINE
  5
1F4
330
1EE
100
AcDbEntity
  8
VERMASSUNG
100
AcDbLine
 10
98.8394297046
 20
76.4008667389
 30
0.0
 11
59.7777898158
 21
76.4008667389
 31
0.0
  0
LINE
  5
1F5
330
1EE
100
AcDbEntity
  8
VERMASSUNG
100
AcDbLine
 10
60.7777898158
 20
139.4008667389
 30
0.0
 11
60.7777898158
 21
76.4008667389
 31
0.0
  0
MTEXT
  5
1F6
330
1EE
100
AcDbEntity
  8
VERMASSUNG
100
AcDbMText
 10
57.9996543268
 20
100.1973250271
 30
0.0
 40
2.0
 41
0.0
 71
     1
 72
     1
  1
HSK A 
  7
SLDTEXTSTYLE0
 11
-7.044195017643634E-15
 21
1.0
 31
0.0
 73
     1
 44
1.0
  0
MTEXT
  5
1F7
330
1EE
100
AcDbEntity
  8
VERMASSUNG
100
AcDbMText
 10
58.1996543363
 20
109.197325571
 30
0.0
 40
2.0
 41
0.0
 71
     1
 72
     1
  1
%%c
  7
SLDTEXTSTYLE0
 11
-7.044195017643634E-15
 21
1.0
 31
0.0
 73
     1
 44
1.0
  0
MTEXT
  5
1F8
330
1EE
100
AcDbEntity
  8
VERMASSUNG
100
AcDbMText
 10
58.1996544527
 20
112.805652221
 30
0.0
 40
2.0
 41
0.0
 71
     1
 72
     1
  1
63
  7
SLDTEXTSTYLE0
 11
-7.044195017643634E-15
 21
1.0
 31
0.0
 73
     1
 44
1.0
  0
ENDBLK
  5
1F0
330
1EE
100
AcDbEntity
  8
0
100
AcDbBlockEnd
  0
BLOCK
  5
1FC
330
1FB
100
AcDbEntity
  8
0
100
AcDbBlockBegin
  2
*D2
 70
     1
 10
0.0
 20
0.0
 30
0.0
  3
*D2
  1

  0
SOLID
  5
1FE
330
1FB
100
AcDbEntity
  8
VERMASSUNG
100
AcDbTrace
 10
182.0394297046
 20
144.3357529794
 30
0.0
 11
185.0394297046
 21
143.8857529794
 31
0.0
 12
185.0394297046
 22
144.7857529794
 32
0.0
 13
185.0394297046
 23
144.7857529794
 33
0.0
  0
SOLID
  5
1FF
330
1FB
100
AcDbEntity
  8
VERMASSUNG
100
AcDbTrace
 10
228.5394297046
 20
144.3357529794
 30
0.0
 11
225.5394297046
 21
144.7857529794
 31
0.0
 12
225.5394297046
 22
143.8857529794
 32
0.0
 13
225.5394297046
 23
143.8857529794
 33
0.0
  0
LINE
  5
200
330
1FB
100
AcDbEntity
  8
VERMASSUNG
100
AcDbLine
 10
182.0394297046
 20
113.8008667389
 30
0.0
 11
182.0394297046
 21
145.3357529794
 31
0.0
  0
LINE
  5
201
330
1FB
100
AcDbEntity
  8
VERMASSUNG
100
AcDbLine
 10
228.5394297046
 20
118.0520857556
 30
0.0
 11
228.5394297046
 21
145.3357529794
 31
0.0
  0
LINE
  5
202
330
1FB
100
AcDbEntity
  8
VERMASSUNG
100
AcDbLine
 10
182.0394297046
 20
144.3357529794
 30
0.0
 11
228.5394297046
 21
144.3357529794
 31
0.0
  0
MTEXT
  5
203
330
1FB
100
AcDbEntity
  8
VERMASSUNG
100
AcDbMText
 10
202.7900429223
 20
146.9138883425
 30
0.0
 40
2.0
 41
0.0
 71
     1
 72
     1
  1
46.5
  7
SLDTEXTSTYLE0
 73
     1
 44
1.0
  0
ENDBLK
  5
1FD
330
1FB
100
AcDbEntity
  8
0
100
AcDbBlockEnd
  0
BLOCK
  5
207
330
206
100
AcDbEntity
  8
0
100
AcDbBlockBegin
  2
*D3
 70
     1
 10
0.0
 20
0.0
 30
0.0
  3
*D3
  1

  0
SOLID
  5
209
330
206
100
AcDbEntity
  8
VERMASSUNG
100
AcDbTrace
 10
234.5977248104
 20
101.9008667389
 30
0.0
 11
235.0477248104
 21
104.9008667389
 31
0.0
 12
234.1477248104
 22
104.9008667389
 32
0.0
 13
234.1477248104
 23
104.9008667389
 33
0.0
  0
SOLID
  5
20A
330
206
100
AcDbEntity
  8
VERMASSUNG
100
AcDbTrace
 10
234.5977248104
 20
113.9008667389
 30
0.0
 11
234.1477248104
 21
110.9008667389
 31
0.0
 12
235.0477248104
 22
110.9008667389
 32
0.0
 13
235.0477248104
 23
110.9008667389
 33
0.0
  0
LINE
  5
20B
330
206
100
AcDbEntity
  8
VERMASSUNG
100
AcDbLine
 10
225.0394297046
 20
101.9008667389
 30
0.0
 11
235.5977248104
 21
101.9008667389
 31
0.0
  0
LINE
  5
20C
330
206
100
AcDbEntity
  8
VERMASSUNG
100
AcDbLine
 10
225.0394297046
 20
113.9008667389
 30
0.0
 11
235.5977248104
 21
113.9008667389
 31
0.0
  0
LINE
  5
20D
330
206
100
AcDbEntity
  8
VERMASSUNG
100
AcDbLine
 10
234.5977248104
 20
101.9008667389
 30
0.0
 11
234.5977248104
 21
113.9008667389
 31
0.0
  0
MTEXT
  5
20E
330
206
100
AcDbEntity
  8
VERMASSUNG
100
AcDbMText
 10
232.0195893309
 20
103.6969306609
 30
0.0
 40
2.0
 41
0.0
 71
     1
 72
     1
  1
%%c
  7
SLDTEXTSTYLE0
 11
6.123233995736766E-17
 21
1.0
 31
0.0
 73
     1
 44
1.0
  0
MTEXT
  5
20F
330
206
100
AcDbEntity
  8
VERMASSUNG
100
AcDbMText
 10
232.0195894473
 20
107.3056088841
 30
0.0
 40
2.0
 41
0.0
 71
     1
 72
     1
  1
12
  7
SLDTEXTSTYLE0
 11
6.123233995736766E-17
 21
1.0
 31
0.0
 73
     1
 44
1.0
  0
MTEXT
  5
210
330
206
100
AcDbEntity
  8
VERMASSUNG
100
AcDbMText
 10
232.0195894473
 20
109.7052058505
 30
0.0
 40
2.0
 41
0.0
 71
     1
 72
     1
  1
  
  7
SLDTEXTSTYLE0
 11
6.123233995736766E-17
 21
1.0
 31
0.0
 73
     1
 44
1.0
  0
ENDBLK
  5
208
330
206
100
AcDbEntity
  8
0
100
AcDbBlockEnd
  0
BLOCK
  5
214
330
213
100
AcDbEntity
  8
0
100
AcDbBlockBegin
  2
*D4
 70
     1
 10
0.0
 20
0.0
 30
0.0
  3
*D4
  1

  0
SOLID
  5
216
330
213
100
AcDbEntity
  8
VERMASSUNG
100
AcDbTrace
 10
240.5977248104
 20
95.9008667389
 30
0.0
 11
241.0477248104
 21
98.9008667389
 31
0.0
 12
240.1477248104
 22
98.9008667389
 32
0.0
 13
240.1477248104
 23
98.9008667389
 33
0.0
  0
SOLID
  5
217
330
213
100
AcDbEntity
  8
VERMASSUNG
100
AcDbTrace
 10
240.5977248104
 20
119.9008667389
 30
0.0
 11
240.1477248104
 21
116.9008667389
 31
0.0
 12
241.0477248104
 22
116.9008667389
 32
0.0
 13
241.0477248104
 23
116.9008667389
 33
0.0
  0
LINE
  5
218
330
213
100
AcDbEntity
  8
VERMASSUNG
100
AcDbLine
 10
228.5394297046
 20
95.9008667389
 30
0.0
 11
241.5977248104
 21
95.9008667389
 31
0.0
  0
LINE
  5
219
330
213
100
AcDbEntity
  8
VERMASSUNG
100
AcDbLine
 10
228.5394297046
 20
119.9008667389
 30
0.0
 11
241.5977248104
 21
119.9008667389
 31
0.0
  0
LINE
  5
21A
330
213
100
AcDbEntity
  8
VERMASSUNG
100
AcDbLine
 10
240.5977248104
 20
95.9008667389
 30
0.0
 11
240.5977248104
 21
119.9008667389
 31
0.0
  0
MTEXT
  5
21B
330
213
100
AcDbEntity
  8
VERMASSUNG
100
AcDbMText
 10
238.0195893309
 20
104.5973596966
 30
0.0
 40
2.0
 41
0.0
 71
     1
 72
     1
  1
%%c
  7
SLDTEXTSTYLE0
 11
6.123233995736766E-17
 21
1.0
 31
0.0
 73
     1
 44
1.0
  0
MTEXT
  5
21C
330
213
100
AcDbEntity
  8
VERMASSUNG
100
AcDbMText
 10
238.0195894473
 20
108.2060379198
 30
0.0
 40
2.0
 41
0.0
 71
     1
 72
     1
  1
24
  7
SLDTEXTSTYLE0
 11
6.123233995736766E-17
 21
1.0
 31
0.0
 73
     1
 44
1.0
  0
ENDBLK
  5
215
330
213
100
AcDbEntity
  8
0
100
AcDbBlockEnd
  0
BLOCK
  5
21F
330
21E
100
AcDbEntity
  8
0
100
AcDbBlockBegin
  2
*D5
 70
     1
 10
0.0
 20
0.0
 30
0.0
  3
*D5
  1

  0
SOLID
  5
221
330
21E
100
AcDbEntity
  8
VERMASSUNG
100
AcDbTrace
 10
98.5394297046
 20
156.3357529794
 30
0.0
 11
101.5394297046
 21
155.8857529794
 31
0.0
 12
101.5394297046
 22
156.7857529794
 32
0.0
 13
101.5394297046
 23
156.7857529794
 33
0.0
  0
SOLID
  5
222
330
21E
100
AcDbEntity
  8
VERMASSUNG
100
AcDbTrace
 10
228.5394297046
 20
156.3357529794
 30
0.0
 11
225.5394297046
 21
156.7857529794
 31
0.0
 12
225.5394297046
 22
155.8857529794
 32
0.0
 13
225.5394297046
 23
155.8857529794
 33
0.0
  0
LINE
  5
223
330
21E
100
AcDbEntity
  8
VERMASSUNG
100
AcDbLine
 10
98.5394297046
 20
139.1008667389
 30
0.0
 11
98.5394297046
 21
157.3357529794
 31
0.0
  0
LINE
  5
224
330
21E
100
AcDbEntity
  8
VERMASSUNG
100
AcDbLine
 10
228.5394297046
 20
118.0520857556
 30
0.0
 11
228.5394297046
 21
157.3357529794
 31
0.0
  0
LINE
  5
225
330
21E
100
AcDbEntity
  8
VERMASSUNG
100
AcDbLine
 10
98.5394297046
 20
156.3357529794
 30
0.0
 11
228.5394297046
 21
156.3357529794
 31
0.0
  0
MTEXT
  5
226
330
21E
100
AcDbEntity
  8
VERMASSUNG
100
AcDbMText
 10
161.6399421639
 20
158.9138883425
 30
0.0
 40
2.0
 41
0.0
 71
     1
 72
     1
  1
130
  7
SLDTEXTSTYLE0
 73
     1
 44
1.0
  0
ENDBLK
  5
220
330
21E
100
AcDbEntity
  8
0
100
AcDbBlockEnd
  0
BLOCK
  5
229
330
228
100
AcDbEntity
  8
0
100
AcDbBlockBegin
  2
*D6
 70
     1
 10
0.0
 20
0.0
 30
0.0
  3
*D6
  1

  0
SOLID
  5
22B
330
228
100
AcDbEntity
  8
VERMASSUNG
100
AcDbTrace
 10
124.4894297046
 20
150.3357529794
 30
0.0
 11
127.4894297046
 21
149.8857529794
 31
0.0
 12
127.4894297046
 22
150.7857529794
 32
0.0
 13
127.4894297046
 23
150.7857529794
 33
0.0
  0
SOLID
  5
22C
330
228
100
AcDbEntity
  8
VERMASSUNG
100
AcDbTrace
 10
228.5394297046
 20
150.3357529794
 30
0.0
 11
225.5394297046
 21
150.7857529794
 31
0.0
 12
225.5394297046
 22
149.8857529794
 32
0.0
 13
225.5394297046
 23
149.8857529794
 33
0.0
  0
LINE
  5
22D
330
228
100
AcDbEntity
  8
VERMASSUNG
100
AcDbLine
 10
124.4894297046
 20
137.7473070627
 30
0.0
 11
124.4894297046
 21
151.3357529794
 31
0.0
  0
LINE
  5
22E
330
228
100
AcDbEntity
  8
VERMASSUNG
100
AcDbLine
 10
228.5394297046
 20
118.0387973874
 30
0.0
 11
228.5394297046
 21
151.3357529794
 31
0.0
  0
LINE
  5
22F
330
228
100
AcDbEntity
  8
VERMASSUNG
100
AcDbLine
 10
124.4894297046
 20
150.3357529794
 30
0.0
 11
228.5394297046
 21
150.3357529794
 31
0.0
  0
MTEXT
  5
230
330
228
100
AcDbEntity
  8
VERMASSUNG
100
AcDbMText
 10
172.8152444391
 20
152.9138883425
 30
0.0
 40
2.0
 41
0.0
 71
     1
 72
     1
  1
104.05
  7
SLDTEXTSTYLE0
 73
     1
 44
1.0
  0
ENDBLK
  5
22A
330
228
100
AcDbEntity
  8
0
100
AcDbBlockEnd
  0
BLOCK
  5
233
330
232
100
AcDbEntity
  8
0
100
AcDbBlockBegin
  2
*D7
 70
     1
 10
0.0
 20
0.0
 30
0.0
  3
*D7
  1

  0
SOLID
  5
235
330
232
100
AcDbEntity
  8
VERMASSUNG
100
AcDbTrace
 10
66.6394297046
 20
162.3357529794
 30
0.0
 11
69.6394297046
 21
161.8857529794
 31
0.0
 12
69.6394297046
 22
162.7857529794
 32
0.0
 13
69.6394297046
 23
162.7857529794
 33
0.0
  0
SOLID
  5
236
330
232
100
AcDbEntity
  8
VERMASSUNG
100
AcDbTrace
 10
228.5394297046
 20
162.3357529794
 30
0.0
 11
225.5394297046
 21
162.7857529794
 31
0.0
 12
225.5394297046
 22
161.8857529794
 32
0.0
 13
225.5394297046
 23
161.8857529794
 33
0.0
  0
LINE
  5
237
330
232
100
AcDbEntity
  8
VERMASSUNG
100
AcDbLine
 10
66.6394297046
 20
127.5915444854
 30
0.0
 11
66.6394297046
 21
163.3357529794
 31
0.0
  0
LINE
  5
238
330
232
100
AcDbEntity
  8
VERMASSUNG
100
AcDbLine
 10
228.5394297046
 20
118.0387973874
 30
0.0
 11
228.5394297046
 21
163.3357529794
 31
0.0
  0
LINE
  5
239
330
232
100
AcDbEntity
  8
VERMASSUNG
100
AcDbLine
 10
66.6394297046
 20
162.3357529794
 30
0.0
 11
228.5394297046
 21
162.3357529794
 31
0.0
  0
MTEXT
  5
23A
330
232
100
AcDbEntity
  8
VERMASSUNG
100
AcDbMText
 10
144.8904632907
 20
164.9138883425
 30
0.0
 40
2.0
 41
0.0
 71
     1
 72
     1
  1
161.9
  7
SLDTEXTSTYLE0
 73
     1
 44
1.0
  0
ENDBLK
  5
234
330
232
100
AcDbEntity
  8
0
100
AcDbBlockEnd
  0
BLOCK
  5
23D
330
23C
100
AcDbEntity
  8
0
100
AcDbBlockBegin
  2
*D8
 70
     1
 10
0.0
 20
0.0
 30
0.0
  3
*D8
  1

  0
SOLID
  5
23F
330
23C
100
AcDbEntity
  8
VERMASSUNG
100
AcDbTrace
 10
246.5977248104
 20
123.9008667389
 30
0.0
 11
246.1477248104
 21
120.9008667389
 31
0.0
 12
247.0477248104
 22
120.9008667389
 32
0.0
 13
247.0477248104
 23
120.9008667389
 33
0.0
  0
SOLID
  5
240
330
23C
100
AcDbEntity
  8
VERMASSUNG
100
AcDbTrace
 10
246.5977248104
 20
91.9008667389
 30
0.0
 11
247.0477248104
 21
94.9008667389
 31
0.0
 12
246.1477248104
 22
94.9008667389
 32
0.0
 13
246.1477248104
 23
94.9008667389
 33
0.0
  0
LINE
  5
241
330
23C
100
AcDbEntity
  8
VERMASSUNG
100
AcDbLine
 10
177.7146107599
 20
123.9008667389
 30
0.0
 11
247.5977248104
 21
123.9008667389
 31
0.0
  0
LINE
  5
242
330
23C
100
AcDbEntity
  8
VERMASSUNG
100
AcDbLine
 10
177.7146107599
 20
91.9008667389
 30
0.0
 11
247.5977248104
 21
91.9008667389
 31
0.0
  0
LINE
  5
243
330
23C
100
AcDbEntity
  8
VERMASSUNG
100
AcDbLine
 10
246.5977248104
 20
123.9008667389
 30
0.0
 11
246.5977248104
 21
91.9008667389
 31
0.0
  0
MTEXT
  5
244
330
23C
100
AcDbEntity
  8
VERMASSUNG
100
AcDbMText
 10
244.0195893309
 20
104.6971495125
 30
0.0
 40
2.0
 41
0.0
 71
     1
 72
     1
  1
%%c
  7
SLDTEXTSTYLE0
 11
-7.044195017643634E-15
 21
1.0
 31
0.0
 73
     1
 44
1.0
  0
MTEXT
  5
245
330
23C
100
AcDbEntity
  8
VERMASSUNG
100
AcDbMText
 10
244.0195894473
 20
108.3058277356
 30
0.0
 40
2.0
 41
0.0
 71
     1
 72
     1
  1
32
  7
SLDTEXTSTYLE0
 11
-7.044195017643634E-15
 21
1.0
 31
0.0
 73
     1
 44
1.0
  0
ENDBLK
  5
23E
330
23C
100
AcDbEntity
  8
0
100
AcDbBlockEnd
  0
ENDSEC
  0
SECTION
  2
ENTITIES
  0
MTEXT
  5
45
330
1F
100
AcDbEntity
  8
KOPF_DÜNN
100
AcDbMText
 10
13.8892156294
 20
23.8442973028
 30
0.0
 40
3.0
 41
0.0
 71
     1
 72
     1
  1
HA6.S12.K21.130
  7
SLDTEXTSTYLE0
 73
     1
 44
1.0
  0
MTEXT
  5
46
330
1F
100
AcDbEntity
  8
VERMASSUNG
100
AcDbMText
 10
13.9329988022
 20
28.8834360957
 30
0.0
 40
3.0
 41
0.0
 71
     1
 72
     1
  1
Schrumpffutter_Heat shrink chuck
  7
SLDTEXTSTYLE0
 73
     1
 44
1.0
  0
MTEXT
  5
47
330
1F
100
AcDbEntity
  8
VERMASSUNG
100
AcDbMText
 10
98.8601118557
 20
13.8365368179
 30
0.0
 40
2.0
 41
0.0
 71
     1
 72
     1
  1
Datum: 27.04.2011
  7
SLDTEXTSTYLE0
 73
     1
 44
1.0
  0
MTEXT
  5
49
330
1F
100
AcDbEntity
  8
VERMASSUNG
100
AcDbMText
 10
13.933048693
 20
18.0482802738
 30
0.0
 40
2.0
 41
0.0
 71
     1
 72
     1
  1
DIN 69 893 HSK A 63
  7
SLDTEXTSTYLE1
 73
     1
 44
1.0
  0
MTEXT
  5
4A
330
1F
100
AcDbEntity
  8
VERMASSUNG
100
AcDbMText
 10
13.9808475933
 20
13.9090973692
 30
0.0
 40
2.0
 41
0.0
 71
     1
 72
     1
  1
Gewicht: 1176g
  7
SLDTEXTSTYLE0
 73
     1
 44
1.0
  0
LINE
  5
4B
330
1F
100
AcDbEntity
  8
0
  6
Continuous
 62
     7
370
    15
100
AcDbLine
 10
98.8394297046
 20
76.4008667389
 30
0.0
 11
103.4894297046
 21
76.4008667389
 31
0.0
  0
LINE
  5
4C
330
1F
100
AcDbEntity
  8
0
  6
Continuous
 62
     7
370
    15
100
AcDbLine
 10
103.4987377914
 20
139.4008667389
 30
0.0
 11
98.8394297046
 21
139.4008667389
 31
0.0
  0
ARC
  5
4D
330
1F
100
AcDbEntity
  8
0
  6
Continuous
 62
     7
370
    15
100
AcDbCircle
 10
98.8394297046
 20
76.7008667389
 30
0.0
 40
0.2999999999999972
100
AcDbArc
 50
180.0
 51
270.0
  0
ARC
  5
4E
330
1F
100
AcDbEntity
  8
0
  6
Continuous
 62
     7
370
    15
100
AcDbCircle
 10
98.8394297046
 20
139.1008667389
 30
0.0
 40
0.3000000000000114
100
AcDbArc
 50
90.0
 51
180.0
  0
ARC
  5
4F
330
1F
100
AcDbEntity
  8
0
  6
Continuous
 62
     7
370
    15
100
AcDbCircle
 10
98.0394229519
 20
83.3304291245
 30
0.0
 40
0.60000675266771
100
AcDbArc
 50
33.5571153394
 51
90.0
  0
ARC
  5
50
330
1F
100
AcDbEntity
  8
0
  6
Continuous
 62
     7
370
    15
100
AcDbCircle
 10
98.0394229519
 20
132.4713043533
 30
0.0
 40
0.6000067526677242
100
AcDbArc
 50
270.0
 51
326.4428846606
  0
LINE
  5
51
330
1F
100
AcDbEntity
  8
0
  6
Continuous
 62
     7
370
    15
100
AcDbLine
 10
85.3090075221
 20
131.5586511987
 30
0.0
 11
72.7394297046
 21
130.9289128311
 31
0.0
  0
LINE
  5
52
330
1F
100
AcDbEntity
  8
0
  6
Continuous
 62
     7
370
    15
100
AcDbLine
 10
96.5394297046
 20
132.1212976006
 30
0.0
 11
93.7208203471
 21
131.980084707
 31
0.0
  0
LINE
  5
53
330
1F
100
AcDbEntity
  8
0
  6
Continuous
 62
     7
370
    15
100
AcDbLine
 10
93.7210418222
 20
83.8216376749
 30
0.0
 11
96.5394297046
 21
83.6804358772
 31
0.0
  0
LINE
  5
54
330
1F
100
AcDbEntity
  8
0
  6
Continuous
 62
     7
370
    15
100
AcDbLine
 10
76.7394297046
 20
84.6724198451
 30
0.0
 11
85.3097064738
 21
84.2430472615
 31
0.0
  0
LINE
  5
55
330
1F
100
AcDbEntity
  8
0
  6
Continuous
 62
     7
370
    15
100
AcDbLine
 10
96.5394297046
 20
83.6804358772
 30
0.0
 11
97.3961424779
 21
83.9099913729
 31
0.0
  0
LINE
  5
56
330
1F
100
AcDbEntity
  8
0
  6
Continuous
 62
     7
370
    15
100
AcDbLine
 10
97.3961424779
 20
131.8917421048
 30
0.0
 11
96.5394297046
 21
132.1212976006
 31
0.0
  0
ARC
  5
57
330
1F
100
AcDbEntity
  8
0
  6
Continuous
 62
     7
370
    15
100
AcDbCircle
 10
97.551433905
 20
83.3304358772
 30
0.0
 40
0.6000000000000085
100
AcDbArc
 50
90.0
 51
105.0
  0
ARC
  5
58
330
1F
100
AcDbEntity
  8
0
  6
Continuous
 62
     7
370
    15
100
AcDbCircle
 10
97.551433905
 20
132.4712976006
 30
0.0
 40
0.5999999999999943
100
AcDbArc
 50
255.0
 51
270.0
  0
LINE
  5
59
330
1F
100
AcDbEntity
  8
0
  6
Continuous
 62
     7
370
    15
100
AcDbLine
 10
97.551433905
 20
83.9304358772
 30
0.0
 11
98.0394229519
 21
83.9304358772
 31
0.0
  0
LINE
  5
5A
330
1F
100
AcDbEntity
  8
0
  6
Continuous
 62
     7
370
    15
100
AcDbLine
 10
98.0394229519
 20
131.8712976006
 30
0.0
 11
97.551433905
 21
131.8712976006
 31
0.0
  0
ARC
  5
5B
330
1F
100
AcDbEntity
  8
0
  6
Continuous
 62
     7
370
    15
100
AcDbCircle
 10
127.4894297046
 20
85.8849079374
 30
0.0
 40
3.0
100
AcDbArc
 50
104.3250519401
 51
180.0
  0
ARC
  5
5C
330
1F
100
AcDbEntity
  8
0
  6
Continuous
 62
     7
370
    15
100
AcDbCircle
 10
127.4894297046
 20
129.9168255404
 30
0.0
 40
3.000000000000003
100
AcDbArc
 50
180.0
 51
255.6749480599
  0
ARC
  5
5D
330
1F
100
AcDbEntity
  8
0
  6
Continuous
 62
     7
370
    15
100
AcDbCircle
 10
151.4894297046
 20
-8.0991332611
 30
0.0
 40
100.0
100
AcDbArc
 50
90.0
 51
104.3250519401
  0
ARC
  5
5E
330
1F
100
AcDbEntity
  8
0
  6
Continuous
 62
     7
370
    15
100
AcDbCircle
 10
151.4894297046
 20
223.9008667389
 30
0.0
 40
100.0
100
AcDbArc
 50
255.6749480599
 51
270.0
  0
LINE
  5
5F
330
1F
100
AcDbEntity
  8
0
  6
Continuous
 62
     7
370
    15
100
AcDbLine
 10
177.7146107599
 20
91.9008667389
 30
0.0
 11
226.696347896
 21
95.7558130547
 31
0.0
  0
LINE
  5
60
330
1F
100
AcDbEntity
  8
0
  6
Continuous
 62
     7
370
    15
100
AcDbLine
 10
226.696347896
 20
120.045920423
 30
0.0
 11
177.7146107599
 21
123.9008667389
 31
0.0
  0
LINE
  5
61
330
1F
100
AcDbEntity
  8
0
  6
Continuous
 62
     7
370
    15
100
AcDbLine
 10
163.9877157328
 20
91.9008667389
 30
0.0
 11
177.7146107599
 21
91.9008667389
 31
0.0
  0
LINE
  5
62
330
1F
100
AcDbEntity
  8
0
  6
Continuous
 62
     7
370
    15
100
AcDbLine
 10
151.4894297046
 20
91.9008667389
 30
0.0
 11
156.9950985539
 21
91.9008667389
 31
0.0
  0
LINE
  5
63
330
1F
100
AcDbEntity
  8
0
  6
Continuous
 62
     7
370
    15
100
AcDbLine
 10
156.9903621007
 20
123.9008667389
 30
0.0
 11
151.4894297046
 21
123.9008667389
 31
0.0
  0
LINE
  5
64
330
1F
100
AcDbEntity
  8
0
  6
Continuous
 62
     7
370
    15
100
AcDbLine
 10
177.7146107599
 20
123.9008667389
 30
0.0
 11
163.979858742
 21
123.9008667389
 31
0.0
  0
ARC
  5
65
330
1F
100
AcDbEntity
  8
0
  6
Continuous
 62
     7
370
    15
100
AcDbCircle
 10
226.5394297046
 20
97.7496477222
 30
0.0
 40
2.000000000000012
100
AcDbArc
 50
274.5
 51
353.0847181901
  0
ARC
  5
66
330
1F
100
AcDbEntity
  8
0
  6
Continuous
 62
     7
370
    15
100
AcDbCircle
 10
226.5394297046
 20
118.0520857556
 30
0.0
 40
2.0
100
AcDbArc
 50
0.0
 51
85.5
  0
LINE
  5
67
330
1F
100
AcDbEntity
  8
0
  6
Continuous
 62
     7
370
    15
100
AcDbLine
 10
67.9285789637
 20
87.0308667389
 30
0.0
 11
75.3394297046
 21
87.0308667389
 31
0.0
  0
ARC
  5
68
330
1F
100
AcDbEntity
  8
0
  6
Continuous
 62
     7
370
    15
100
AcDbCircle
 10
75.3394297046
 20
85.6308667389
 30
0.0
 40
1.400000000000006
100
AcDbArc
 50
42.2210104152
 51
90.0
  0
LINE
  5
69
330
1F
100
AcDbEntity
  8
0
  6
Continuous
 62
     7
370
    15
100
AcDbLine
 10
66.6509859307
 20
88.1693105128
 30
0.0
 11
67.7805931627
 21
87.0397032807
 31
0.0
  0
LINE
  5
6A
330
1F
100
AcDbEntity
  8
0
  6
Continuous
 62
     7
370
    15
100
AcDbLine
 10
67.7805931627
 20
128.7620301971
 30
0.0
 11
66.6505973238
 21
127.6320343581
 31
0.0
  0
ARC
  5
6B
330
1F
100
AcDbEntity
  8
0
  6
Continuous
 62
     7
370
    15
100
AcDbCircle
 10
71.3394297046
 20
130.1708667389
 30
0.0
 40
1.400000000000007
100
AcDbArc
 50
270.0
 51
302.5610026528
  0
LINE
  5
6C
330
1F
100
AcDbEntity
  8
0
  6
Continuous
 62
     7
370
    15
100
AcDbLine
 10
71.3394297046
 20
128.7708667389
 30
0.0
 11
67.930318106
 21
128.7708667389
 31
0.0
  0
LINE
  5
6D
330
1F
100
AcDbEntity
  8
0
  6
Continuous
 62
     7
370
    15
100
AcDbLine
 10
228.5248802325
 20
97.5088444808
 30
0.0
 11
228.6167519117
 21
97.683463821
 31
0.0
  0
LINE
  5
6E
330
1F
100
AcDbEntity
  8
0
  6
Continuous
 62
     7
370
    15
100
AcDbLine
 10
228.5578621881
 20
118.1205834404
 30
0.0
 11
228.5364461634
 21
118.1612886078
 31
0.0
  0
LINE
  5
6F
330
1F
100
AcDbEntity
  8
0
  6
Continuous
 62
     7
370
    15
100
AcDbLine
 10
124.4894297046
 20
78.3405893383
 30
0.0
 11
124.4894297046
 21
127.7508667389
 31
0.0
  0
SPLINE
  5
70
330
1F
100
AcDbEntity
  8
0
  6
Continuous
 62
     7
370
    15
100
AcDbSpline
210
0.0
220
0.0
230
1.0
 70
     8
 71
     3
 72
    10
 73
     6
 74
     0
 42
0.00000001
 43
0.00000001
 40
0.0
 40
0.0
 40
0.0
 40
0.0
 40
0.5
 40
0.5
 40
1.0
 40
1.0
 40
1.0
 40
1.0
 10
124.4894297045588
 20
78.34058933830214
 30
0.0
 10
124.4894297045588
 20
78.18070207010848
 30
0.0
 10
124.4281200533229
 20
78.01957481459387
 30
0.0
 10
124.2090204157878
 20
77.78547581623904
 30
0.0
 10
124.0509722094744
 20
77.71394904264783
 30
0.0
 10
123.8894297045588
 20
77.71394904264783
 30
0.0
  0
SPLINE
  5
71
330
1F
100
AcDbEntity
  8
0
  6
Continuous
 62
     7
370
    15
100
AcDbSpline
210
0.0
220
0.0
230
1.0
 70
    24
 71
     3
 72
    12
 73
     8
 74
     0
 42
0.00000001
 43
0.00000001
 40
0.0
 40
0.0
 40
0.0
 40
0.0
 40
0.2500000000000033
 40
0.2500000000000033
 40
0.5000000000000067
 40
0.5000000000000067
 40
1.0
 40
1.0
 40
1.0
 40
1.0
 10
123.8894297045588
 20
127.750866738895
 30
0.0
 10
123.9796687722458
 20
127.750866738895
 30
0.0
 10
124.0705668863523
 20
127.750866738895
 30
0.0
 10
124.2251639228409
 20
127.750866738895
 30
0.0
 10
124.2901423389489
 20
127.750866738895
 30
0.0
 10
124.4419773668852
 20
127.750866738895
 30
0.0
 10
124.4894297045588
 20
127.750866738895
 30
0.0
 10
124.4894297045588
 20
127.750866738895
 30
0.0
  0
LINE
  5
72
330
1F
100
AcDbEntity
  8
0
  6
Continuous
 62
     7
370
    15
100
AcDbLine
 10
123.8894297046
 20
77.7139490426
 30
0.0
 11
119.931362536
 21
77.7139490426
 31
0.0
  0
LINE
  5
73
330
1F
100
AcDbEntity
  8
0
  6
Continuous
 62
     7
370
    15
100
AcDbLine
 10
119.931362536
 20
77.7139490426
 30
0.0
 11
119.931362536
 21
127.7508667389
 31
0.0
  0
LINE
  5
74
330
1F
100
AcDbEntity
  8
0
  6
Continuous
 62
     7
370
    15
100
AcDbLine
 10
119.931362536
 20
127.7508667389
 30
0.0
 11
123.8894297046
 21
127.7508667389
 31
0.0
  0
SPLINE
  5
75
330
1F
100
AcDbEntity
  8
0
  6
Continuous
 62
     7
370
    15
100
AcDbSpline
210
0.0
220
0.0
230
1.0
 70
     8
 71
     3
 72
    70
 73
    66
 74
     0
 42
0.00000001
 43
0.00000001
 40
-0.0312500000000002
 40
-0.0312500000000002
 40
0.0
 40
0.0
 40
0.0312499999999999
 40
0.0312499999999999
 40
0.0624999999999999
 40
0.0624999999999999
 40
0.0937499999999998
 40
0.0937499999999998
 40
0.1249999999999998
 40
0.1249999999999998
 40
0.1562499999999997
 40
0.1562499999999997
 40
0.1874999999999997
 40
0.1874999999999997
 40
0.2187499999999996
 40
0.2187499999999996
 40
0.2499999999999996
 40
0.2499999999999996
 40
0.2812499999999995
 40
0.2812499999999995
 40
0.3124999999999994
 40
0.3124999999999994
 40
0.3437499999999994
 40
0.3437499999999994
 40
0.3749999999999993
 40
0.3749999999999993
 40
0.4062499999999993
 40
0.4062499999999993
 40
0.4374999999999992
 40
0.4374999999999992
 40
0.4687499999999992
 40
0.4687499999999992
 40
0.4999999999999991
 40
0.4999999999999991
 40
0.5312499999999991
 40
0.5312499999999991
 40
0.562499999999999
 40
0.562499999999999
 40
0.5937499999999989
 40
0.5937499999999989
 40
0.6249999999999989
 40
0.6249999999999989
 40
0.6562499999999989
 40
0.6562499999999989
 40
0.6874999999999988
 40
0.6874999999999988
 40
0.7187499999999987
 40
0.7187499999999987
 40
0.7499999999999987
 40
0.7499999999999987
 40
0.7812499999999988
 40
0.7812499999999988
 40
0.812499999999999
 40
0.812499999999999
 40
0.8437499999999991
 40
0.8437499999999991
 40
0.8749999999999993
 40
0.8749999999999993
 40
0.9062499999999994
 40
0.9062499999999994
 40
0.9374999999999997
 40
0.9374999999999997
 40
0.9687499999999998
 40
0.9687499999999998
 40
1.0
 40
1.0
 40
1.03125
 40
1.03125
 10
106.2748843658986
 20
118.5217736248783
 30
0.0
 10
106.8039750432189
 20
118.5217736248783
 30
0.0
 10
107.064045710596
 20
118.5464509196635
 30
0.0
 10
107.5756203904315
 20
118.6429225927054
 30
0.0
 10
107.8297956741716
 20
118.7159035086855
 30
0.0
 10
108.3140663042334
 20
118.9056441116241
 30
0.0
 10
108.5437073961145
 20
119.0215047700179
 30
0.0
 10
108.978311744348
 20
119.2941226159756
 30
0.0
 10
109.1838775209946
 20
119.4521616980293
 30
0.0
 10
109.5524346615898
 20
119.795704549
 30
0.0
 10
109.7179156443253
 20
119.9824669931017
 30
0.0
 10
110.0103401537604
 20
120.3860101674985
 30
0.0
 10
110.1344411303869
 20
120.5995071639276
 30
0.0
 10
110.3340203271367
 20
121.0388904778501
 30
0.0
 10
110.4109539129949
 20
121.2680304649957
 30
0.0
 10
110.5138109715153
 20
121.7340045877558
 30
0.0
 10
110.5392838809744
 20
121.9668870334319
 30
0.0
 10
110.5395742915422
 20
122.4322845685117
 30
0.0
 10
110.5135496577664
 20
122.6671603259061
 30
0.0
 10
110.4114013732745
 20
123.1186534731523
 30
0.0
 10
110.3358249256913
 20
123.3366999485637
 30
0.0
 10
110.1353273945464
 20
123.7577944736015
 30
0.0
 10
110.010198553038
 20
123.9597158581198
 30
0.0
 10
109.7208397520164
 20
124.3317453406388
 30
0.0
 10
109.5554287649609
 20
124.5043736442191
 30
0.0
 10
109.1824382068131
 20
124.8216916487651
 30
0.0
 10
108.980705173724
 20
124.9614785822667
 30
0.0
 10
108.5478459228961
 20
125.2056548358185
 30
0.0
 10
108.3139273900068
 20
125.31088434686
 30
0.0
 10
107.8297436548641
 20
125.4790414932352
 30
0.0
 10
107.5804280289086
 20
125.542292383829
 30
0.0
 10
107.0673955044809
 20
125.6278715929316
 30
0.0
 10
106.8021016815763
 20
125.649743757854
 30
0.0
 10
106.2797670617065
 20
125.649907407498
 30
0.0
 10
106.0200133992248
 20
125.628905715402
 30
0.0
 10
105.5034015835795
 20
125.5435033603243
 30
0.0
 10
105.2510355430793
 20
125.4794971770374
 30
0.0
 10
104.7695104215464
 20
125.3126826569962
 30
0.0
 10
104.5366596894329
 20
125.208549493597
 30
0.0
 10
104.0995698409941
 20
124.9625628411021
 30
0.0
 10
103.8982488523369
 20
124.8228130101532
 30
0.0
 10
103.529162827037
 20
124.5096749404286
 30
0.0
 10
103.3601780759853
 20
124.3342187811585
 30
0.0
 10
103.0697220193261
 20
123.9613785170583
 30
0.0
 10
102.946650207964
 20
123.7632567069474
 30
0.0
 10
102.745313966542
 20
123.3425453642137
 30
0.0
 10
102.6681014205998
 20
123.1205553435462
 30
0.0
 10
102.5658978776997
 20
122.6706904038378
 30
0.0
 10
102.5396695262474
 20
122.440434990721
 30
0.0
 10
102.5391931269302
 20
121.969119048172
 30
0.0
 10
102.5649355394282
 20
121.7358816324578
 30
0.0
 10
102.6662463157921
 20
121.2742050929598
 30
0.0
 10
102.743078955183
 20
121.0433077058476
 30
0.0
 10
102.9434827943982
 20
120.601031692056
 30
0.0
 10
103.0661542926903
 20
120.3899692607701
 30
0.0
 10
103.3561015818545
 20
119.9884707500374
 30
0.0
 10
103.5246725612197
 20
119.7975642279615
 30
0.0
 10
103.8929421553329
 20
119.4538388959644
 30
0.0
 10
104.0940040126032
 20
119.2987017097503
 30
0.0
 10
104.5310349311881
 20
119.0236243496706
 30
0.0
 10
104.7631831443177
 20
118.9065081202486
 30
0.0
 10
105.2441934258166
 20
118.717581635184
 30
0.0
 10
105.496293508647
 20
118.6445066647898
 30
0.0
 10
106.013362994906
 20
118.5464546056552
 30
0.0
 10
106.2748843658986
 20
118.5217736248783
 30
0.0
 10
106.8039750432189
 20
118.5217736248783
 30
0.0
  0
LINE
  5
76
330
1F
100
AcDbEntity
  8
0
  6
Continuous
 62
     7
370
    15
100
AcDbLine
 10
103.4894297046
 20
127.7508667389
 30
0.0
 11
113.1474968731
 21
127.7508667389
 31
0.0
  0
LINE
  5
77
330
1F
100
AcDbEntity
  8
0
  6
Continuous
 62
     7
370
    15
100
AcDbLine
 10
113.1474968731
 20
77.7139490426
 30
0.0
 11
113.1474968731
 21
127.7508667389
 31
0.0
  0
LINE
  5
78
330
1F
100
AcDbEntity
  8
0
  6
Continuous
 62
     7
370
    15
100
AcDbLine
 10
113.1474968731
 20
77.7139490426
 30
0.0
 11
111.4894297046
 21
77.7139490426
 31
0.0
  0
SPLINE
  5
79
330
1F
100
AcDbEntity
  8
0
  6
Continuous
 62
     7
370
    15
100
AcDbSpline
210
0.0
220
0.0
230
1.0
 70
     8
 71
     3
 72
    28
 73
    24
 74
     0
 42
0.00000001
 43
0.00000001
 40
0.0
 40
0.0
 40
0.0
 40
0.0
 40
0.1250000000000001
 40
0.1250000000000001
 40
0.1875000000000001
 40
0.1875000000000001
 40
0.2500000000000001
 40
0.2500000000000001
 40
0.3749999999999999
 40
0.3749999999999999
 40
0.4375
 40
0.4375
 40
0.4999999999999999
 40
0.4999999999999999
 40
0.6249999999999999
 40
0.6249999999999999
 40
0.7499999999999997
 40
0.7499999999999997
 40
0.8124999999999998
 40
0.8124999999999998
 40
0.8749999999999998
 40
0.8749999999999998
 40
1.0
 40
1.0
 40
1.0
 40
1.0
 10
111.4894297045588
 20
77.71394904264783
 30
0.0
 10
110.9577219470658
 20
77.71394904264784
 30
0.0
 10
110.4354833817555
 20
77.69816432869762
 30
0.0
 10
109.6656128954805
 20
77.6531689146214
 30
0.0
 10
109.4112533232892
 20
77.63461391954569
 30
0.0
 10
108.9071317425907
 20
77.59076119709917
 30
0.0
 10
108.6574089251627
 20
77.56541659014697
 30
0.0
 10
107.9318189737163
 20
77.48201451239686
 30
0.0
 10
107.4734587121348
 20
77.41614895324578
 30
0.0
 10
106.8229607687409
 20
77.30717861275399
 30
0.0
 10
106.6112787179485
 20
77.26893897698733
 30
0.0
 10
106.2072072288105
 20
77.19118023956797
 30
0.0
 10
106.0147007149896
 20
77.15167927739263
 30
0.0
 10
105.4648657439683
 20
77.03277153502664
 30
0.0
 10
105.1349369656595
 20
76.95295385360203
 30
0.0
 10
104.5504656970908
 20
76.79961069180597
 30
0.0
 10
104.3041885590774
 20
76.72827693853671
 30
0.0
 10
104.0043457663793
 20
76.63433343146208
 30
0.0
 10
103.9158889093071
 20
76.60513963810216
 30
0.0
 10
103.762527556002
 20
76.55167306383875
 30
0.0
 10
103.6974393417758
 20
76.52731372956356
 30
0.0
 10
103.541845325835
 20
76.46372358411882
 30
0.0
 10
103.4894297045588
 20
76.43362064902958
 30
0.0
 10
103.4894297045588
 20
76.41674375603266
 30
0.0
  0
LINE
  5
7A
330
1F
100
AcDbEntity
  8
0
  6
Continuous
 62
     7
370
    15
100
AcDbLine
 10
103.4894297046
 20
76.416743756
 30
0.0
 11
103.4894297046
 21
76.4008667389
 31
0.0
  0
SPLINE
  5
7B
330
1F
100
AcDbEntity
  8
0
  6
Continuous
 62
     7
370
    15
100
AcDbSpline
210
0.0
220
0.0
230
1.0
 70
     8
 71
     3
 72
    22
 73
    18
 74
     0
 42
0.00000001
 43
0.00000001
 40
0.0
 40
0.0
 40
0.0
 40
0.0
 40
0.0515773377536172
 40
0.1565264849943629
 40
0.2100197540385886
 40
0.2615951369298746
 40
0.3664424119934943
 40
0.4198226601719804
 40
0.4724528789006786
 40
0.5794488992297344
 40
0.6339397336480286
 40
0.6872670452602943
 40
0.7409741315029978
 40
0.7958968813361827
 40
0.8512481408256359
 40
0.9034470736265863
 40
1.0
 40
1.0
 40
1.0
 40
1.0
 10
111.4894297045588
 20
138.3680622120592
 30
0.0
 10
111.2726195085563
 20
138.3694588331278
 30
0.0
 10
110.6146456896415
 20
138.373697287384
 30
0.0
 10
109.7395507123106
 20
138.4132296117383
 30
0.0
 10
108.8947252174538
 20
138.4762028585802
 30
0.0
 10
108.0749999338495
 20
138.5542168918353
 30
0.0
 10
107.2992099558211
 20
138.6511000197104
 30
0.0
 10
106.5817214945147
 20
138.7593594316264
 30
0.0
 10
105.9024567473426
 20
138.8730778039309
 30
0.0
 10
105.2941417694337
 20
138.9895779888717
 30
0.0
 10
104.7740498287105
 20
139.0986782402887
 30
0.0
 10
104.4301596509944
 20
139.1746821380188
 30
0.0
 10
104.1352059232668
 20
139.2427155939404
 30
0.0
 10
103.8894316359256
 20
139.3014286446989
 30
0.0
 10
103.7035293269523
 20
139.3470440246327
 30
0.0
 10
103.5319327212285
 20
139.3900034761932
 30
0.0
 10
103.5118034460523
 20
139.3951644979953
 30
0.0
 10
103.4987377913786
 20
139.3985144511375
 30
0.0
  0
LINE
  5
7C
330
1F
100
AcDbEntity
  8
0
  6
Continuous
 62
     7
370
    15
100
AcDbLine
 10
113.1474968731
 20
138.3680622121
 30
0.0
 11
111.4894297046
 21
138.3680622121
 31
0.0
  0
LINE
  5
7D
330
1F
100
AcDbEntity
  8
0
  6
Continuous
 62
     7
370
    15
100
AcDbLine
 10
113.1474968731
 20
132.3595564013
 30
0.0
 11
113.1474968731
 21
138.3680622121
 31
0.0
  0
LINE
  5
7E
330
1F
100
AcDbEntity
  8
0
  6
Continuous
 62
     7
370
    15
100
AcDbLine
 10
110.7350500502
 20
132.3595564013
 30
0.0
 11
113.1474968731
 21
132.3595564013
 31
0.0
  0
SPLINE
  5
7F
330
1F
100
AcDbEntity
  8
0
  6
Continuous
 62
     7
370
    15
100
AcDbSpline
210
0.0
220
0.0
230
1.0
 70
     8
 71
     3
 72
    20
 73
    16
 74
     0
 42
0.00000001
 43
0.00000001
 40
0.0
 40
0.0
 40
0.0
 40
0.0
 40
0.2499999999999997
 40
0.2499999999999997
 40
0.3749999999999997
 40
0.3749999999999997
 40
0.4999999999999998
 40
0.4999999999999998
 40
0.6249999999999998
 40
0.6249999999999998
 40
0.7499999999999999
 40
0.7499999999999999
 40
0.8749999999999999
 40
0.8749999999999999
 40
1.0
 40
1.0
 40
1.0
 40
1.0
 10
103.4894297045588
 20
127.750866738895
 30
0.0
 10
103.7378034388468
 20
128.4047291671924
 30
0.0
 10
104.0573735311921
 20
129.0085149491896
 30
0.0
 10
104.6796797643968
 20
129.8353536853581
 30
0.0
 10
104.9111040248275
 20
130.0977823233111
 30
0.0
 10
105.4323183644773
 20
130.594444977416
 30
0.0
 10
105.7189388471123
 20
130.8250318564376
 30
0.0
 10
106.3384235884199
 20
131.2415860810202
 30
0.0
 10
106.6727239679069
 20
131.4290838829877
 30
0.0
 10
107.3979844405317
 20
131.7604808606241
 30
0.0
 10
107.7798994979222
 20
131.8999848481194
 30
0.0
 10
108.5746876740939
 20
132.1254383555903
 30
0.0
 10
108.9888458683002
 20
132.212064467134
 30
0.0
 10
109.8543922088816
 20
132.3300452559881
 30
0.0
 10
110.2922798238934
 20
132.3595564012624
 30
0.0
 10
110.7350500502481
 20
132.3595564012624
 30
0.0
  0
SPLINE
  5
80
330
1F
100
AcDbEntity
  8
0
  6
Continuous
 62
     7
370
    15
100
AcDbSpline
210
0.0
220
0.0
230
1.0
 70
     8
 71
     3
 72
    70
 73
    66
 74
     0
 42
0.00000001
 43
0.00000001
 40
-0.0312499999999998
 40
-0.0312499999999998
 40
0.0
 40
0.0
 40
0.0312500000000003
 40
0.0312500000000003
 40
0.0625000000000006
 40
0.0625000000000006
 40
0.0937500000000009
 40
0.0937500000000009
 40
0.1250000000000012
 40
0.1250000000000012
 40
0.1562500000000014
 40
0.1562500000000014
 40
0.1875000000000017
 40
0.1875000000000017
 40
0.2187500000000021
 40
0.2187500000000021
 40
0.2500000000000023
 40
0.2500000000000023
 40
0.2812500000000024
 40
0.2812500000000024
 40
0.3125000000000026
 40
0.3125000000000026
 40
0.3437500000000027
 40
0.3437500000000027
 40
0.3750000000000028
 40
0.3750000000000028
 40
0.4062500000000029
 40
0.4062500000000029
 40
0.4375000000000031
 40
0.4375000000000031
 40
0.4687500000000032
 40
0.4687500000000032
 40
0.5000000000000033
 40
0.5000000000000033
 40
0.5312500000000032
 40
0.5312500000000032
 40
0.562500000000003
 40
0.562500000000003
 40
0.5937500000000029
 40
0.5937500000000029
 40
0.6250000000000027
 40
0.6250000000000027
 40
0.6562500000000026
 40
0.6562500000000026
 40
0.6875000000000024
 40
0.6875000000000024
 40
0.7187500000000022
 40
0.7187500000000022
 40
0.7500000000000021
 40
0.7500000000000021
 40
0.7812500000000019
 40
0.7812500000000019
 40
0.8125000000000016
 40
0.8125000000000016
 40
0.8437500000000013
 40
0.8437500000000013
 40
0.875000000000001
 40
0.875000000000001
 40
0.9062500000000008
 40
0.9062500000000008
 40
0.9375000000000006
 40
0.9375000000000006
 40
0.9687500000000002
 40
0.9687500000000002
 40
1.0
 40
1.0
 40
1.03125
 40
1.03125
 10
106.2748843658986
 20
132.9598301336742
 30
0.0
 10
106.8039750432189
 20
132.9598301336742
 30
0.0
 10
107.064045710596
 20
132.9757305740889
 30
0.0
 10
107.5756203904315
 20
133.0376749242632
 30
0.0
 10
107.8297956741716
 20
133.0844771583545
 30
0.0
 10
108.3140663042334
 20
133.2054541418096
 30
0.0
 10
108.5437073961145
 20
133.2790564696164
 30
0.0
 10
108.978311744348
 20
133.4508807405946
 30
0.0
 10
109.1838775209946
 20
133.549884163522
 30
0.0
 10
109.5524346615898
 20
133.7629805774348
 30
0.0
 10
109.7179156443253
 20
133.8778802935645
 30
0.0
 10
110.0103401537604
 20
134.1232471922548
 30
0.0
 10
110.1344411303869
 20
134.251687092725
 30
0.0
 10
110.3340203271367
 20
134.512579240811
 30
0.0
 10
110.4109539129949
 20
134.6469604121505
 30
0.0
 10
110.5138109715153
 20
134.9162803632568
 30
0.0
 10
110.5392838809744
 20
135.0489616274749
 30
0.0
 10
110.5395742915422
 20
135.3101481016059
 30
0.0
 10
110.5135496577665
 20
135.4399131397707
 30
0.0
 10
110.4114013732745
 20
135.6854957740433
 30
0.0
 10
110.3358249256913
 20
135.8021573113522
 30
0.0
 10
110.1353273945464
 20
136.0240625015067
 30
0.0
 10
110.010198553038
 20
136.1286737554297
 30
0.0
 10
109.7208397520164
 20
136.3187201670378
 30
0.0
 10
109.5554287649609
 20
136.4054798384875
 30
0.0
 10
109.1824382068131
 20
136.562984214239
 30
0.0
 10
108.980705173724
 20
136.6313094790262
 30
0.0
 10
108.5478459228961
 20
136.7495392026454
 30
0.0
 10
108.3139273900068
 20
136.7998341187493
 30
0.0
 10
107.8297436548641
 20
136.8796996556389
 30
0.0
 10
107.5804280289086
 20
136.9094407834385
 30
0.0
 10
107.0673955044809
 20
136.9495935249467
 30
0.0
 10
106.8021016815763
 20
136.9597917943566
 30
0.0
 10
106.2797670617065
 20
136.9598682527413
 30
0.0
 10
106.0200133992248
 20
136.9500772411323
 30
0.0
 10
105.5034015835795
 20
136.9100104023935
 30
0.0
 10
105.2510355430793
 20
136.8799132355367
 30
0.0
 10
104.7695104215464
 20
136.8006910257065
 30
0.0
 10
104.5366596894329
 20
136.7509335462431
 30
0.0
 10
104.0995698409941
 20
136.6318416037927
 30
0.0
 10
103.8982488523369
 20
136.5635263422454
 30
0.0
 10
103.529162827037
 20
136.4081253753119
 30
0.0
 10
103.3601780759853
 20
136.319973033245
 30
0.0
 10
103.0697220193261
 20
136.1295336441287
 30
0.0
 10
102.946650207964
 20
136.0269090664296
 30
0.0
 10
102.745313966542
 20
135.8052687198215
 30
0.0
 10
102.6681014205998
 20
135.686514644274
 30
0.0
 10
102.5658978776997
 20
135.4418487053563
 30
0.0
 10
102.5396695262474
 20
135.3146919799078
 30
0.0
 10
102.5391931269302
 20
135.0502438340522
 30
0.0
 10
102.5649355394282
 20
134.9173431537951
 30
0.0
 10
102.6662463157921
 20
134.650550880313
 30
0.0
 10
102.743078955183
 20
134.5151869788444
 30
0.0
 10
102.9434827943982
 20
134.2526071835419
 30
0.0
 10
103.0661542926903
 20
134.1256320237881
 30
0.0
 10
103.3561015818545
 20
133.8815526377057
 30
0.0
 10
103.5246725612197
 20
133.7641275129518
 30
0.0
 10
103.8929421553329
 20
133.5509310520034
 30
0.0
 10
104.0940040126032
 20
133.4537569335785
 30
0.0
 10
104.5310349311881
 20
133.2804020463643
 30
0.0
 10
104.7631831443177
 20
133.2060024947076
 30
0.0
 10
105.2441934258166
 20
133.085549615203
 30
0.0
 10
105.496293508647
 20
133.038691239937
 30
0.0
 10
106.013362994906
 20
132.9757337429533
 30
0.0
 10
106.2748843658986
 20
132.9598301336742
 30
0.0
 10
106.8039750432189
 20
132.9598301336742
 30
0.0
  0
LINE
  5
81
330
1F
100
AcDbEntity
  8
0
  6
Continuous
 62
     7
370
    15
100
AcDbLine
 10
114.6294297046
 20
80.4030295798
 30
0.0
 11
114.6294297046
 21
127.7508667389
 31
0.0
  0
SPLINE
  5
82
330
1F
100
AcDbEntity
  8
0
  6
Continuous
 62
     7
370
    15
100
AcDbSpline
210
0.0
220
0.0
230
1.0
 70
     8
 71
     3
 72
     8
 73
     4
 74
     0
 42
0.00000001
 43
0.00000001
 40
0.0
 40
0.0
 40
0.0
 40
0.0
 40
1.0
 40
1.0
 40
1.0
 40
1.0
 10
114.6294297045588
 20
80.40302957984012
 30
0.0
 10
114.1370905817776
 20
79.50575954563342
 30
0.0
 10
113.6429765337355
 20
78.60947513058117
 30
0.0
 10
113.1474968730697
 20
77.71394904264783
 30
0.0
  0
SPLINE
  5
83
330
1F
100
AcDbEntity
  8
0
  6
Continuous
 62
     7
370
    15
100
AcDbSpline
210
0.0
220
0.0
230
1.0
 70
    24
 71
     3
 72
     8
 73
     4
 74
     0
 42
0.00000001
 43
0.00000001
 40
0.0
 40
0.0
 40
0.0
 40
0.0
 40
1.0
 40
1.0
 40
1.0
 40
1.0
 10
113.1474968730697
 20
127.750866738895
 30
0.0
 10
113.6541769812202
 20
127.750866738895
 30
0.0
 10
114.1494777101939
 20
127.750866738895
 30
0.0
 10
114.6294297045588
 20
127.750866738895
 30
0.0
  0
LINE
  5
84
330
1F
100
AcDbEntity
  8
0
  6
Continuous
 62
     7
370
    15
100
AcDbLine
 10
98.5394297046
 20
76.7008667389
 30
0.0
 11
98.5394297046
 21
139.1008667351
 31
0.0
  0
SPLINE
  5
85
330
1F
100
AcDbEntity
  8
0
  6
Continuous
 62
     7
370
    15
100
AcDbSpline
210
0.0
220
0.0
230
1.0
 70
     8
 71
     3
 72
     8
 73
     4
 74
     0
 42
0.00000001
 43
0.00000001
 40
0.0
 40
0.0
 40
0.0
 40
0.0
 40
1.0
 40
1.0
 40
1.0
 40
1.0
 10
119.9313625360478
 20
77.71394904264783
 30
0.0
 10
119.4358828753821
 20
78.60947513058119
 30
0.0
 10
118.94176882734
 20
79.50575954563344
 30
0.0
 10
118.4494297045588
 20
80.40302957984014
 30
0.0
  0
LINE
  5
86
330
1F
100
AcDbEntity
  8
0
  6
Continuous
 62
     7
370
    15
100
AcDbLine
 10
118.4494297046
 20
80.4030295798
 30
0.0
 11
118.4494297046
 21
127.7508667389
 31
0.0
  0
SPLINE
  5
87
330
1F
100
AcDbEntity
  8
0
  6
Continuous
 62
     7
370
    15
100
AcDbSpline
210
0.0
220
0.0
230
1.0
 70
    24
 71
     3
 72
     8
 73
     4
 74
     0
 42
0.00000001
 43
0.00000001
 40
0.0
 40
0.0
 40
0.0
 40
0.0
 40
1.0
 40
1.0
 40
1.0
 40
1.0
 10
118.4494297045588
 20
127.750866738895
 30
0.0
 10
118.9293816989237
 20
127.750866738895
 30
0.0
 10
119.4246824278973
 20
127.750866738895
 30
0.0
 10
119.9313625360478
 20
127.750866738895
 30
0.0
  0
ARC
  5
88
330
1F
100
AcDbEntity
  8
0
  6
Continuous
 62
     7
370
    15
100
AcDbCircle
 10
106.5371737643
 20
119.8019281913
 30
0.0
 40
4.112708064274968
100
AcDbArc
 50
19.1552479729
 51
159.8574241332
  0
SPLINE
  5
89
330
1F
100
AcDbEntity
  8
0
  6
Continuous
 62
     7
370
    15
100
AcDbSpline
210
0.0
220
0.0
230
1.0
 70
    24
 71
     3
 72
    14
 73
    10
 74
     0
 42
0.00000001
 43
0.00000001
 40
0.0
 40
0.0
 40
0.0
 40
0.0
 40
0.4999999999999984
 40
0.4999999999999984
 40
0.7499999999999992
 40
0.7499999999999992
 40
0.8749999999999996
 40
0.8749999999999996
 40
1.0
 40
1.0
 40
1.0
 40
1.0
 10
118.3517549022265
 20
81.50086673889498
 30
0.0
 10
118.3049701971783
 20
81.500866738895
 30
0.0
 10
118.2429190003987
 20
81.500866738895
 30
0.0
 10
118.0995273618481
 20
81.50086673889498
 30
0.0
 10
118.0433837082969
 20
81.50086673889498
 30
0.0
 10
117.9304326861607
 20
81.500866738895
 30
0.0
 10
117.8874319241226
 20
81.500866738895
 30
0.0
 10
117.7833692138161
 20
81.50086673889498
 30
0.0
 10
117.7180369754592
 20
81.50086673889501
 30
0.0
 10
117.6494297045588
 20
81.50086673889498
 30
0.0
  0
SPLINE
  5
8A
330
1F
100
AcDbEntity
  8
0
  6
Continuous
 62
     7
370
    15
100
AcDbSpline
210
0.0
220
0.0
230
1.0
 70
    24
 71
     3
 72
    12
 73
     8
 74
     0
 42
0.00000001
 43
0.00000001
 40
0.0
 40
0.0
 40
0.0
 40
0.0
 40
0.5000000000000017
 40
0.5000000000000017
 40
0.7500000000000008
 40
0.7500000000000008
 40
1.0
 40
1.0
 40
1.0
 40
1.0
 10
118.0551321728678
 20
134.300866738895
 30
0.0
 10
118.0120466232569
 20
134.300866738895
 30
0.0
 10
117.9628944215075
 20
134.300866738895
 30
0.0
 10
117.8664218272196
 20
134.300866738895
 30
0.0
 10
117.8303202420851
 20
134.300866738895
 30
0.0
 10
117.7472144842238
 20
134.300866738895
 30
0.0
 10
117.6992178872575
 20
134.300866738895
 30
0.0
 10
117.6494297045588
 20
134.300866738895
 30
0.0
  0
SPLINE
  5
8B
330
1F
100
AcDbEntity
  8
0
  6
Continuous
 62
     7
370
    15
100
AcDbSpline
210
0.0
220
0.0
230
1.0
 70
     8
 71
     3
 72
    10
 73
     6
 74
     0
 42
0.00000001
 43
0.00000001
 40
0.0
 40
0.0
 40
0.0
 40
0.0
 40
0.5
 40
0.5
 40
1.0
 40
1.0
 40
1.0
 40
1.0
 10
118.4494297045588
 20
135.0205205899308
 30
0.0
 10
118.4494297045588
 20
134.8767505321128
 30
0.0
 10
118.4133806458399
 20
134.7343311696176
 30
0.0
 10
118.2778717850659
 20
134.4844368762604
 30
0.0
 10
118.1779957919697
 20
134.3764065400122
 30
0.0
 10
118.0551321728678
 20
134.300866738895
 30
0.0
  0
SPLINE
  5
8C
330
1F
100
AcDbEntity
  8
0
  6
Continuous
 62
     7
370
    15
100
AcDbSpline
210
0.0
220
0.0
230
1.0
 70
     8
 71
     3
 72
    10
 73
     6
 74
     0
 42
0.00000001
 43
0.00000001
 40
0.0
 40
0.0
 40
0.0
 40
0.0
 40
0.5
 40
0.5
 40
1.0
 40
1.0
 40
1.0
 40
1.0
 10
118.4232820813986
 20
127.750866738895
 30
0.0
 10
118.4319717243103
 20
127.7977455882132
 30
0.0
 10
118.4385107890608
 20
127.8451680536145
 30
0.0
 10
118.4472694234538
 20
127.9411048522013
 30
0.0
 10
118.4494297045588
 20
127.9890201402118
 30
0.0
 10
118.4494297045588
 20
128.0367333703564
 30
0.0
  0
SPLINE
  5
8D
330
1F
100
AcDbEntity
  8
0
  6
Continuous
 62
     7
370
    15
100
AcDbSpline
210
0.0
220
0.0
230
1.0
 70
     8
 71
     3
 72
    10
 73
     6
 74
     0
 42
0.00000001
 43
0.00000001
 40
0.0
 40
0.0
 40
0.0
 40
0.0
 40
0.5
 40
0.5
 40
1.0
 40
1.0
 40
1.0
 40
1.0
 10
115.0237272362497
 20
134.300866738895
 30
0.0
 10
114.9021869725812
 20
134.3755929061067
 30
0.0
 10
114.8008526122323
 20
134.4845379220235
 30
0.0
 10
114.6652136693439
 20
134.7349684027851
 30
0.0
 10
114.6294297045588
 20
134.877387764884
 30
0.0
 10
114.6294297045588
 20
135.0205205899308
 30
0.0
  0
SPLINE
  5
8E
330
1F
100
AcDbEntity
  8
0
  6
Continuous
 62
     7
370
    15
100
AcDbSpline
210
0.0
220
0.0
230
1.0
 70
    24
 71
     3
 72
    12
 73
     8
 74
     0
 42
0.00000001
 43
0.00000001
 40
0.0
 40
0.0
 40
0.0
 40
0.0
 40
0.2500000000000037
 40
0.2500000000000037
 40
0.5000000000000074
 40
0.5000000000000074
 40
1.0
 40
1.0
 40
1.0
 40
1.0
 10
115.4294297045588
 20
134.300866738895
 30
0.0
 10
115.3795530222413
 20
134.300866738895
 30
0.0
 10
115.3315498288377
 20
134.300866738895
 30
0.0
 10
115.2485017261258
 20
134.300866738895
 30
0.0
 10
115.2123721466579
 20
134.300866738895
 30
0.0
 10
115.1164601157137
 20
134.300866738895
 30
0.0
 10
115.0667014477449
 20
134.300866738895
 30
0.0
 10
115.0237272362497
 20
134.300866738895
 30
0.0
  0
SPLINE
  5
8F
330
1F
100
AcDbEntity
  8
0
  6
Continuous
 62
     7
370
    15
100
AcDbSpline
210
0.0
220
0.0
230
1.0
 70
    24
 71
     3
 72
    14
 73
    10
 74
     0
 42
0.00000001
 43
0.00000001
 40
0.0
 40
0.0
 40
0.0
 40
0.0
 40
0.1249999999999991
 40
0.1249999999999991
 40
0.2499999999999982
 40
0.2499999999999982
 40
0.4999999999999998
 40
0.4999999999999998
 40
1.0
 40
1.0
 40
1.0
 40
1.0
 10
115.4294297045588
 20
81.50086673889498
 30
0.0
 10
115.3609918566723
 20
81.50086673889498
 30
0.0
 10
115.2954418179073
 20
81.500866738895
 30
0.0
 10
115.1910151784993
 20
81.500866738895
 30
0.0
 10
115.1484705687379
 20
81.500866738895
 30
0.0
 10
115.0358611081977
 20
81.50086673889498
 30
0.0
 10
114.9803220611782
 20
81.50086673889498
 30
0.0
 10
114.8377103657144
 20
81.50086673889498
 30
0.0
 10
114.7743050107186
 20
81.50086673889498
 30
0.0
 10
114.7271045068911
 20
81.50086673889498
 30
0.0
  0
SPLINE
  5
90
330
1F
100
AcDbEntity
  8
0
  6
Continuous
 62
     7
370
    15
100
AcDbSpline
210
0.0
220
0.0
230
1.0
 70
     8
 71
     3
 72
    10
 73
     6
 74
     0
 42
0.00000001
 43
0.00000001
 40
0.0
 40
0.0
 40
0.0
 40
0.0
 40
0.5
 40
0.5
 40
1.0
 40
1.0
 40
1.0
 40
1.0
 10
114.6294297045588
 20
128.0367333703564
 30
0.0
 10
114.6294297045588
 20
127.9889618623631
 30
0.0
 10
114.6315909481559
 20
127.9412521403014
 30
0.0
 10
114.6402623220161
 20
127.8459570227531
 30
0.0
 10
114.6467915049721
 20
127.7982644587865
 30
0.0
 10
114.6555773277189
 20
127.750866738895
 30
0.0
  0
LINE
  5
91
330
1F
100
AcDbEntity
  8
0
  6
Continuous
 62
     7
370
    15
100
AcDbLine
 10
117.6494297046
 20
134.3008667389
 30
0.0
 11
115.4294297046
 21
134.3008667389
 31
0.0
  0
LINE
  5
92
330
1F
100
AcDbEntity
  8
0
  6
Continuous
 62
     7
370
    15
100
AcDbLine
 10
117.6494297046
 20
81.5008667389
 30
0.0
 11
115.4294297046
 21
81.5008667389
 31
0.0
  0
LINE
  5
93
330
1F
100
AcDbEntity
  8
0
  6
Continuous
 62
     7
370
    15
100
AcDbLine
 10
76.7394297046
 20
84.6724198451
 30
0.0
 11
76.7394297046
 21
85.9371292077
 31
0.0
  0
SPLINE
  5
94
330
1F
100
AcDbEntity
  8
0
  6
Continuous
 62
     7
370
    15
100
AcDbSpline
210
0.0
220
0.0
230
1.0
 70
     8
 71
     3
 72
    14
 73
    10
 74
     0
 42
0.00000001
 43
0.00000001
 40
0.0
 40
0.0
 40
0.0
 40
0.0
 40
0.25
 40
0.25
 40
0.5
 40
0.5
 40
0.75
 40
0.75
 40
1.0
 40
1.0
 40
1.0
 40
1.0
 10
75.96114258664308
 20
87.06771541533503
 30
0.0
 10
76.01776926184515
 20
86.96001796149817
 30
0.0
 10
76.11229192213487
 20
86.85722837977886
 30
0.0
 10
76.29533689769711
 20
86.6588710675587
 30
0.0
 10
76.38696347465182
 20
86.56281155888045
 30
0.0
 10
76.54581679234502
 20
86.37528251617121
 30
0.0
 10
76.61370739996673
 20
86.28387354338766
 30
0.0
 10
76.71062442567431
 20
86.1054973224775
 30
0.0
 10
76.73942970455936
 20
86.01827541623133
 30
0.0
 10
76.73942970455936
 20
85.93712920769708
 30
0.0
  0
SPLINE
  5
95
330
1F
100
AcDbEntity
  8
0
  6
Continuous
 62
     7
370
    15
100
AcDbSpline
210
0.0
220
0.0
230
1.0
 70
     8
 71
     3
 72
    14
 73
    10
 74
     0
 42
0.00000001
 43
0.00000001
 40
0.0
 40
0.0
 40
0.0
 40
0.0
 40
0.1250000000000022
 40
0.1250000000000022
 40
0.2500000000000044
 40
0.2500000000000044
 40
0.5000000000000029
 40
0.5000000000000029
 40
1.0
 40
1.0
 40
1.0
 40
1.0
 10
75.33942970455878
 20
87.51439727761435
 30
0.0
 10
75.38797411321595
 20
87.52014559089464
 30
0.0
 10
75.44088946800086
 20
87.51704470223841
 30
0.0
 10
75.53618481298389
 20
87.49484985807608
 30
0.0
 10
75.57643581026885
 20
87.47761763098022
 30
0.0
 10
75.68070582378182
 20
87.42128971452816
 30
0.0
 10
75.73102779893514
 20
87.37710336858235
 30
0.0
 10
75.85871074646053
 20
87.24609546973174
 30
0.0
 10
75.91479619352279
 20
87.15586094950143
 30
0.0
 10
75.96114258664451
 20
87.06771541533556
 30
0.0
  0
SPLINE
  5
96
330
1F
100
AcDbEntity
  8
0
  6
Continuous
 62
     7
370
    15
100
AcDbSpline
210
0.0
220
0.0
230
1.0
 70
     8
 71
     3
 72
     8
 73
     4
 74
     0
 42
0.00000001
 43
0.00000001
 40
0.0
 40
0.0
 40
0.0
 40
0.0
 40
1.0
 40
1.0
 40
1.0
 40
1.0
 10
73.07090461161256
 20
87.20455199103155
 30
0.0
 10
73.80548163809553
 20
87.32317700210052
 30
0.0
 10
74.56895670749117
 20
87.42316287423681
 30
0.0
 10
75.33942970455878
 20
87.51439727761435
 30
0.0
  0
SPLINE
  5
97
330
1F
100
AcDbEntity
  8
0
  6
Continuous
 62
     7
370
    15
100
AcDbSpline
210
0.0
220
0.0
230
1.0
 70
     8
 71
     3
 72
    14
 73
    10
 74
     0
 42
0.00000001
 43
0.00000001
 40
0.0
 40
0.0
 40
0.0
 40
0.0
 40
0.5000000000000001
 40
0.5000000000000001
 40
0.7499999999999991
 40
0.7499999999999991
 40
0.8749999999999997
 40
0.8749999999999997
 40
1.0
 40
1.0
 40
1.0
 40
1.0
 10
67.78942970455878
 20
87.03092897349991
 30
0.0
 10
68.68157583511237
 20
87.03020674729926
 30
0.0
 10
69.57155227090595
 20
87.03479295375672
 30
0.0
 10
70.89814743798156
 20
87.06251795814828
 30
0.0
 10
71.3389943664803
 20
87.07512449577244
 30
0.0
 10
71.99543460390272
 20
87.1061406437799
 30
0.0
 10
72.21344826049462
 20
87.11848381640667
 30
0.0
 10
72.64615711417738
 20
87.15150787156995
 30
0.0
 10
72.86143357934216
 20
87.17072503670838
 30
0.0
 10
73.07090461161256
 20
87.20455199103156
 30
0.0
  0
SPLINE
  5
98
330
1F
100
AcDbEntity
  8
0
  6
Continuous
 62
     7
370
    15
100
AcDbSpline
210
0.0
220
0.0
230
1.0
 70
     8
 71
     3
 72
     8
 73
     4
 74
     0
 42
0.00000001
 43
0.00000001
 40
0.0000005163856712
 40
0.0000005163856712
 40
0.0000005163856712
 40
0.0000005163856712
 40
0.000026289209185
 40
0.000026289209185
 40
0.000026289209185
 40
0.000026289209185
 10
67.7793847741401
 20
87.04091284660778
 30
0.0
 10
67.78271251235157
 20
87.03757859973496
 30
0.0
 10
67.78606096533086
 20
87.03425064245594
 30
0.0
 10
67.78942970455876
 20
87.0309289734999
 30
0.0
  0
SPLINE
  5
99
330
1F
100
AcDbEntity
  8
0
  6
Continuous
 62
     7
370
    15
100
AcDbSpline
210
0.0
220
0.0
230
1.0
 70
     8
 71
     3
 72
     8
 73
     4
 74
     0
 42
0.00000001
 43
0.00000001
 40
0.0000005099763573
 40
0.0000005099763573
 40
0.0000005099763573
 40
0.0000005099763573
 40
0.0000262827998699
 40
0.0000262827998699
 40
0.0000262827998699
 40
0.0000262827998699
 10
67.78942970455876
 20
128.7708045042901
 30
0.0
 10
67.78606096533103
 20
128.7674828353342
 30
0.0
 10
67.78271251235189
 20
128.7641548780553
 30
0.0
 10
67.77938477414057
 20
128.7608206311827
 30
0.0
  0
SPLINE
  5
9A
330
1F
100
AcDbEntity
  8
0
  6
Continuous
 62
     7
370
    15
100
AcDbSpline
210
0.0
220
0.0
230
1.0
 70
     8
 71
     3
 72
    10
 73
     6
 74
     0
 42
0.00000001
 43
0.00000001
 40
0.0
 40
0.0
 40
0.0
 40
0.0
 40
0.5
 40
0.5
 40
1.0
 40
1.0
 40
1.0
 40
1.0
 10
71.33942970455878
 20
128.7239541307227
 30
0.0
 10
70.7518441574682
 20
128.7450196509591
 30
0.0
 10
70.1610977640078
 20
128.7557781368314
 30
0.0
 10
68.97707859870896
 20
128.769142917367
 30
0.0
 10
68.38366461050349
 20
128.7712855600316
 30
0.0
 10
67.78942970455878
 20
128.7708045042901
 30
0.0
  0
SPLINE
  5
9B
330
1F
100
AcDbEntity
  8
0
  6
Continuous
 62
     7
370
    15
100
AcDbSpline
210
0.0
220
0.0
230
1.0
 70
     8
 71
     3
 72
    18
 73
    14
 74
     0
 42
0.00000001
 43
0.00000001
 40
0.0
 40
0.0
 40
0.0
 40
0.0
 40
0.249999999999999
 40
0.249999999999999
 40
0.499999999999998
 40
0.499999999999998
 40
0.749999999999997
 40
0.749999999999997
 40
0.874999999999998
 40
0.874999999999998
 40
0.937499999999999
 40
0.937499999999999
 40
1.0
 40
1.0
 40
1.0
 40
1.0
 10
72.73942970455879
 20
129.744974411258
 30
0.0
 10
72.7394297045588
 20
129.6617675024008
 30
0.0
 10
72.70358060462054
 20
129.5730308470872
 30
0.0
 10
72.57870886858662
 20
129.390905656527
 30
0.0
 10
72.48830845093873
 20
129.2957756079003
 30
0.0
 10
72.26606579619656
 20
129.106594098776
 30
0.0
 10
72.1363010097508
 20
129.0116489306813
 30
0.0
 10
71.89566355243927
 20
128.8733702231014
 30
0.0
 10
71.80789625430184
 20
128.827659789799
 30
0.0
 10
71.65337216709501
 20
128.7698364845776
 30
0.0
 10
71.59676128104026
 20
128.7521217205397
 30
0.0
 10
71.47271725013368
 20
128.7275824173068
 30
0.0
 10
71.40500257511539
 20
128.7216032787685
 30
0.0
 10
71.33942970455878
 20
128.7239541307227
 30
0.0
  0
LINE
  5
9C
330
1F
100
AcDbEntity
  8
0
  6
Continuous
 62
     7
370
    15
100
AcDbLine
 10
72.7394297046
 20
129.7449744113
 30
0.0
 11
72.7394297046
 21
130.9289128311
 31
0.0
  0
LINE
  5
9D
330
1F
100
AcDbEntity
  8
0
  6
Continuous
 62
     7
370
    15
100
AcDbLine
 10
96.5394297046
 20
83.6804358772
 30
0.0
 11
96.5394297046
 21
132.1212976006
 31
0.0
  0
SPLINE
  5
9E
330
1F
100
AcDbEntity
  8
0
  6
Continuous
 62
     7
370
    15
100
AcDbSpline
210
0.0
220
0.0
230
1.0
 70
     8
 71
     3
 72
    18
 73
    14
 74
     0
 42
0.00000001
 43
0.00000001
 40
0.0
 40
0.0
 40
0.0
 40
0.0
 40
0.0010671296451825
 40
0.1270947795731591
 40
0.2524053457512679
 40
0.3766468878986963
 40
0.4391415999051271
 40
0.5008278021400229
 40
0.5624255708816985
 40
0.6253162439161283
 40
0.7499985144706796
 40
0.8752758950341297
 40
1.0
 40
1.0
 40
1.0
 40
1.0
 10
85.30973054463145
 20
84.24352771597863
 30
0.0
 10
85.30881871199296
 20
84.243412937442
 30
0.0
 10
85.20021975335615
 20
84.22974285257621
 30
0.0
 10
85.5878608210058
 20
84.28066235319164
 30
0.0
 10
86.453825502841
 20
84.38024552623818
 30
0.0
 10
87.6542294276108
 20
84.44936940938183
 30
0.0
 10
88.71180534209961
 20
84.4533216385207
 30
0.0
 10
89.53893942900939
 20
84.42583270006534
 30
0.0
 10
90.36421129664465
 20
84.36729252365814
 30
0.0
 10
91.41857651664236
 20
84.25377136392144
 30
0.0
 10
92.58041279811547
 20
84.07062053967377
 30
0.0
 10
93.53264757949879
 20
83.8660173300387
 30
0.0
 10
93.65835264030669
 20
83.83673197926265
 30
0.0
 10
93.72106607245189
 20
83.82212170942196
 30
0.0
  0
SPLINE
  5
9F
330
1F
100
AcDbEntity
  8
0
  6
Continuous
 62
     7
370
    15
100
AcDbSpline
210
0.0
220
0.0
230
1.0
 70
     8
 71
     3
 72
    18
 73
    14
 74
     0
 42
0.00000001
 43
0.00000001
 40
0.0
 40
0.0
 40
0.0
 40
0.0
 40
0.1248907792210118
 40
0.2505384020341681
 40
0.3748721840485256
 40
0.4374907653350248
 40
0.499077626589441
 40
0.5607931536355697
 40
0.6233901338664959
 40
0.7478191038417357
 40
0.8731940995934964
 40
0.9991614644710061
 40
1.0
 40
1.0
 40
1.0
 40
1.0
 10
93.72084730692798
 20
131.9795465878136
 30
0.0
 10
93.65710655421633
 20
131.9648852952155
 30
0.0
 10
93.52923877703984
 20
131.9354738619441
 30
0.0
 10
92.57723955597956
 20
131.7305207578816
 30
0.0
 10
91.4166958507757
 20
131.5472569820708
 30
0.0
 10
90.36443139868824
 20
131.4342293898215
 30
0.0
 10
89.54020428361927
 20
131.3759657422804
 30
0.0
 10
88.71260051409932
 20
131.3485193542764
 30
0.0
 10
87.65378332161403
 20
131.3525041602054
 30
0.0
 10
86.45156462358005
 20
131.4215936365867
 30
0.0
 10
85.58638068389271
 20
131.5212198531438
 30
0.0
 10
85.20024026236241
 20
131.5720359267432
 30
0.0
 10
85.30831180314284
 20
131.5583637466809
 30
0.0
 10
85.30902645306313
 20
131.5582733359925
 30
0.0
  0
SPLINE
  5
A0
330
1F
100
AcDbEntity
  8
0
  6
Continuous
 62
     7
370
    15
100
AcDbSpline
210
0.0
220
0.0
230
1.0
 70
     8
 71
     3
 72
     8
 73
     4
 74
     0
 42
0.00000001
 43
0.00000001
 40
0.0
 40
0.0
 40
0.0
 40
0.0
 40
1.0
 40
1.0
 40
1.0
 40
1.0
 10
66.63942970455813
 20
88.21018899241747
 30
0.0
 10
66.63942970455811
 20
88.19879216400317
 30
0.0
 10
66.64099872086774
 20
88.18920675238526
 30
0.0
 10
66.64373618233618
 20
88.18172967362553
 30
0.0
  0
SPLINE
  5
A1
330
1F
100
AcDbEntity
  8
0
  6
Continuous
 62
     7
370
    15
100
AcDbSpline
210
0.0
220
0.0
230
1.0
 70
     8
 71
     3
 72
    12
 73
     8
 74
     0
 42
0.00000001
 43
0.00000001
 40
0.0
 40
0.0
 40
0.0
 40
0.0
 40
0.0839988866763017
 40
0.3910885625176083
 40
0.7012505400503528
 40
0.8502953555951587
 40
1.0
 40
1.0
 40
1.0
 40
1.0
 10
66.65198616560622
 20
88.17031074770149
 30
0.0
 10
66.65300713694359
 20
88.16870439453348
 30
0.0
 10
66.65776065485906
 20
88.16122541027272
 30
0.0
 10
66.67155252112269
 20
88.16305257887716
 30
0.0
 10
66.68604425438923
 20
88.17792365977876
 30
0.0
 10
66.69635567315902
 20
88.20141596256427
 30
0.0
 10
66.70017779668106
 20
88.21800257233556
 30
0.0
 10
66.70209307928218
 20
88.22631419411425
 30
0.0
  0
LINE
  5
A2
330
1F
100
AcDbEntity
  8
0
  6
Continuous
 62
     7
370
    15
100
AcDbLine
 10
66.6394297046
 20
88.2101889924
 30
0.0
 11
66.6394297046
 21
127.5915444854
 31
0.0
  0
SPLINE
  5
A3
330
1F
100
AcDbEntity
  8
0
  6
Continuous
 62
     7
370
    15
100
AcDbSpline
210
0.0
220
0.0
230
1.0
 70
     8
 71
     3
 72
    10
 73
     6
 74
     0
 42
0.00000001
 43
0.00000001
 40
0.0
 40
0.0
 40
0.0
 40
0.0
 40
0.5
 40
0.5
 40
1.0
 40
1.0
 40
1.0
 40
1.0
 10
66.70209307928218
 20
127.5754192836757
 30
0.0
 10
66.69318879017344
 20
127.6211608028889
 30
0.0
 10
66.67667340998045
 20
127.6383516423579
 30
0.0
 10
66.64956546391885
 20
127.6380283654222
 30
0.0
 10
66.6394297045588
 20
127.6201508231257
 30
0.0
 10
66.6394297045588
 20
127.5915444853731
 30
0.0
  0
SPLINE
  5
A4
330
1F
100
AcDbEntity
  8
0
  6
Continuous
 62
     7
370
    15
100
AcDbSpline
210
0.0
220
0.0
230
1.0
 70
     8
 71
     3
 72
    26
 73
    22
 74
     0
 42
0.00000001
 43
0.00000001
 40
0.0
 40
0.0
 40
0.0
 40
0.0
 40
0.2499999999999842
 40
0.2499999999999842
 40
0.3749999999999759
 40
0.3749999999999759
 40
0.4374999999999711
 40
0.4374999999999711
 40
0.4687499999999716
 40
0.4687499999999716
 40
0.4999999999999721
 40
0.4999999999999721
 40
0.5312499999999726
 40
0.5312499999999726
 40
0.562499999999973
 40
0.562499999999973
 40
0.624999999999976
 40
0.624999999999976
 40
0.749999999999984
 40
0.749999999999984
 40
1.0
 40
1.0
 40
1.0
 40
1.0
 10
67.4635833506633
 20
128.2909860724928
 30
0.0
 10
67.42498282779482
 20
128.1732113761374
 30
0.0
 10
67.37868582524057
 20
128.0488216899755
 30
0.0
 10
67.28474647680663
 20
127.843602357622
 30
0.0
 10
67.24943500989319
 20
127.7720294911755
 30
0.0
 10
67.18325503414752
 20
127.6560762585751
 30
0.0
 10
67.15871666747928
 20
127.6154917237648
 30
0.0
 10
67.11534392192546
 20
127.5513500418931
 30
0.0
 10
67.09983552050028
 20
127.529483616608
 30
0.0
 10
67.06479287591324
 20
127.4838893482648
 30
0.0
 10
67.04524258519346
 20
127.4602190572974
 30
0.0
 10
67.00331530482289
 20
127.4156024979575
 30
0.0
 10
66.98066319459124
 20
127.3947224854396
 30
0.0
 10
66.93968948050463
 20
127.3638490716888
 30
0.0
 10
66.92209018060922
 20
127.3540102018564
 30
0.0
 10
66.87746319475306
 20
127.3350205861602
 30
0.0
 10
66.8569039720997
 20
127.3346962615068
 30
0.0
 10
66.80577853260306
 20
127.343919702383
 30
0.0
 10
66.78486711961452
 20
127.3651665985999
 30
0.0
 10
66.73341721205358
 20
127.4391354774307
 30
0.0
 10
66.715751912749
 20
127.5052535707454
 30
0.0
 10
66.70209307928218
 20
127.5754192836757
 30
0.0
  0
SPLINE
  5
A5
330
1F
100
AcDbEntity
  8
0
  6
Continuous
 62
     7
370
    15
100
AcDbSpline
210
0.0
220
0.0
230
1.0
 70
     8
 71
     3
 72
    10
 73
     6
 74
     0
 42
0.00000001
 43
0.00000001
 40
0.0
 40
0.0
 40
0.0
 40
0.0
 40
0.5
 40
0.5
 40
1.0
 40
1.0
 40
1.0
 40
1.0
 10
67.77938477414058
 20
128.7608206311826
 30
0.0
 10
67.71182551922233
 20
128.6931292383729
 30
0.0
 10
67.64818886388585
 20
128.6184220736192
 30
0.0
 10
67.53796810931398
 20
128.4594559411926
 30
0.0
 10
67.49115181609136
 20
128.3751006751846
 30
0.0
 10
67.4635833506633
 20
128.2909860724928
 30
0.0
  0
SPLINE
  5
A6
330
1F
100
AcDbEntity
  8
0
  6
Continuous
 62
     7
370
    15
100
AcDbSpline
210
0.0
220
0.0
230
1.0
 70
     8
 71
     3
 72
    10
 73
     6
 74
     0
 42
0.00000001
 43
0.00000001
 40
0.0
 40
0.0
 40
0.0
 40
0.0
 40
0.5
 40
0.5
 40
1.0
 40
1.0
 40
1.0
 40
1.0
 10
67.46358335066333
 20
87.51074740529702
 30
0.0
 10
67.49106076541653
 20
87.42691060883142
 30
0.0
 10
67.53776939570419
 20
87.34260012124459
 30
0.0
 10
67.64804785844615
 20
87.18347889076173
 30
0.0
 10
67.71193539705779
 20
87.10849414667365
 30
0.0
 10
67.77938477414013
 20
87.04091284660778
 30
0.0
  0
SPLINE
  5
A7
330
1F
100
AcDbEntity
  8
0
  6
Continuous
 62
     7
370
    15
100
AcDbSpline
210
0.0
220
0.0
230
1.0
 70
     8
 71
     3
 72
    24
 73
    20
 74
     0
 42
0.00000001
 43
0.00000001
 40
0.0
 40
0.0
 40
0.0
 40
0.0
 40
0.2499999999999937
 40
0.2499999999999937
 40
0.3749999999999912
 40
0.3749999999999912
 40
0.4374999999999901
 40
0.4374999999999901
 40
0.4687499999999891
 40
0.4687499999999891
 40
0.4999999999999881
 40
0.4999999999999881
 40
0.5624999999999888
 40
0.5624999999999888
 40
0.6249999999999893
 40
0.6249999999999893
 40
0.749999999999992
 40
0.749999999999992
 40
1.0
 40
1.0
 40
1.0
 40
1.0
 10
66.70209307928219
 20
88.22631419411424
 30
0.0
 10
66.71584619795243
 20
88.29696425210452
 30
0.0
 10
66.73361876535827
 20
88.36356236486945
 30
0.0
 10
66.78586985691365
 20
88.43766038510265
 30
0.0
 10
66.80690493249519
 20
88.4589181922642
 30
0.0
 10
66.85980534012363
 20
88.46706411841043
 30
0.0
 10
66.88091101300157
 20
88.46612431501467
 30
0.0
 10
66.92696318167951
 20
88.44510832343732
 30
0.0
 10
66.94533365366289
 20
88.43419951732973
 30
0.0
 10
66.98688528872859
 20
88.40156460638235
 30
0.0
 10
67.00945196148551
 20
88.38007262601099
 30
0.0
 10
67.07223297794555
 20
88.31160668242468
 30
0.0
 10
67.1053627389134
 20
88.2655322242196
 30
0.0
 10
67.16228042539844
 20
88.18052433588491
 30
0.0
 10
67.18646645090222
 20
88.14024403470354
 30
0.0
 10
67.25167440128196
 20
88.02530780823759
 30
0.0
 10
67.28639046147322
 20
87.95472482309059
 30
0.0
 10
67.3796057318041
 20
87.75051906401197
 30
0.0
 10
67.42527826716479
 20
87.6276206816846
 30
0.0
 10
67.46358335066333
 20
87.51074740529704
 30
0.0
  0
SPLINE
  5
A8
330
1F
100
AcDbEntity
  8
0
  6
Continuous
 62
     7
370
    15
100
AcDbSpline
210
0.0
220
0.0
230
1.0
 70
     8
 71
     3
 72
     8
 73
     4
 74
     0
 42
0.00000001
 43
0.00000001
 40
0.0
 40
0.0
 40
0.0
 40
0.0
 40
1.0
 40
1.0
 40
1.0
 40
1.0
 10
114.6294297045588
 20
135.7061009300666
 30
0.0
 10
114.136719607713
 20
136.594119928193
 30
0.0
 10
113.642636902434
 20
137.481382563879
 30
0.0
 10
113.1474968730697
 20
138.3680622120592
 30
0.0
  0
LINE
  5
A9
330
1F
100
AcDbEntity
  8
0
  6
Continuous
 62
     7
370
    15
100
AcDbLine
 10
114.6294297046
 20
128.9510104065
 30
0.0
 11
114.6294297046
 21
135.7061009301
 31
0.0
  0
SPLINE
  5
AA
330
1F
100
AcDbEntity
  8
0
  6
Continuous
 62
     7
370
    15
100
AcDbSpline
210
0.0
220
0.0
230
1.0
 70
     8
 71
     3
 72
     8
 73
     4
 74
     0
 42
0.00000001
 43
0.00000001
 40
0.0
 40
0.0
 40
0.0
 40
0.0
 40
1.0
 40
1.0
 40
1.0
 40
1.0
 10
113.1474968730697
 20
132.3595564012624
 30
0.0
 10
113.654583714829
 20
131.2284060470988
 30
0.0
 10
114.1501515539689
 20
130.0920216363309
 30
0.0
 10
114.6294297045588
 20
128.9510104064783
 30
0.0
  0
LINE
  5
AB
330
1F
100
AcDbEntity
  8
0
  6
Continuous
 62
     7
370
    15
100
AcDbLine
 10
123.8894297046
 20
138.3680622121
 30
0.0
 11
119.931362536
 21
138.3680622121
 31
0.0
  0
LINE
  5
AC
330
1F
100
AcDbEntity
  8
0
  6
Continuous
 62
     7
370
    15
100
AcDbLine
 10
119.931362536
 20
132.3595564013
 30
0.0
 11
123.8894297046
 21
132.3595564013
 31
0.0
  0
LINE
  5
AD
330
1F
100
AcDbEntity
  8
0
  6
Continuous
 62
     7
370
    15
100
AcDbLine
 10
119.931362536
 20
132.3595564013
 30
0.0
 11
119.931362536
 21
138.3680622121
 31
0.0
  0
SPLINE
  5
AE
330
1F
100
AcDbEntity
  8
0
  6
Continuous
 62
     7
370
    15
100
AcDbSpline
210
0.0
220
0.0
230
1.0
 70
     8
 71
     3
 72
    10
 73
     6
 74
     0
 42
0.00000001
 43
0.00000001
 40
0.0
 40
0.0
 40
0.0
 40
0.0
 40
0.5
 40
0.5
 40
1.0
 40
1.0
 40
1.0
 40
1.0
 10
124.4894297045588
 20
137.7473070626589
 30
0.0
 10
124.4894297045588
 20
137.9077123290097
 30
0.0
 10
124.4271918734519
 20
138.0667741419983
 30
0.0
 10
124.2080569497093
 20
138.2976866076286
 30
0.0
 10
124.0504682547175
 20
138.3680622120592
 30
0.0
 10
123.8894297045588
 20
138.3680622120592
 30
0.0
  0
SPLINE
  5
AF
330
1F
100
AcDbEntity
  8
0
  6
Continuous
 62
     7
370
    15
100
AcDbSpline
210
0.0
220
0.0
230
1.0
 70
     8
 71
     3
 72
    12
 73
     8
 74
     0
 42
0.00000001
 43
0.00000001
 40
0.0
 40
0.0
 40
0.0
 40
0.0
 40
0.25
 40
0.25
 40
0.5
 40
0.5
 40
1.0
 40
1.0
 40
1.0
 40
1.0
 10
123.8894297045588
 20
132.3595564012624
 30
0.0
 10
123.9806294263844
 20
132.3595564012624
 30
0.0
 10
124.0712244355205
 20
132.3313367026745
 30
0.0
 10
124.2246371619671
 20
132.2368936954264
 30
0.0
 10
124.2898460292908
 20
132.1706067187211
 30
0.0
 10
124.4426305586307
 20
131.9449818954328
 30
0.0
 10
124.4894297045588
 20
131.7625556324003
 30
0.0
 10
124.4894297045588
 20
131.5818190001534
 30
0.0
  0
LINE
  5
B0
330
1F
100
AcDbEntity
  8
0
  6
Continuous
 62
     7
370
    15
100
AcDbLine
 10
124.4894297046
 20
131.5818190002
 30
0.0
 11
124.4894297046
 21
137.7473070627
 31
0.0
  0
SPLINE
  5
B1
330
1F
100
AcDbEntity
  8
0
  6
Continuous
 62
     7
370
    15
100
AcDbSpline
210
0.0
220
0.0
230
1.0
 70
     8
 71
     3
 72
     8
 73
     4
 74
     0
 42
0.00000001
 43
0.00000001
 40
0.0
 40
0.0
 40
0.0
 40
0.0
 40
1.0
 40
1.0
 40
1.0
 40
1.0
 10
118.4494297045588
 20
128.9510104064783
 30
0.0
 10
118.9287078551486
 20
130.0920216363309
 30
0.0
 10
119.4242756942886
 20
131.2284060470988
 30
0.0
 10
119.9313625360478
 20
132.3595564012624
 30
0.0
  0
LINE
  5
B2
330
1F
100
AcDbEntity
  8
0
  6
Continuous
 62
     7
370
    15
100
AcDbLine
 10
118.4494297046
 20
128.0367333704
 30
0.0
 11
118.4494297046
 21
128.9510104065
 31
0.0
  0
LINE
  5
B3
330
1F
100
AcDbEntity
  8
0
  6
Continuous
 62
     7
370
    15
100
AcDbLine
 10
124.4894297046
 20
131.5818190002
 30
0.0
 11
124.4894297046
 21
127.7508667389
 31
0.0
  0
LINE
  5
B4
330
1F
100
AcDbEntity
  8
0
  6
Continuous
 62
     7
370
    15
100
AcDbLine
 10
114.6294297046
 20
128.9510104065
 30
0.0
 11
114.6294297046
 21
128.0367333704
 31
0.0
  0
SPLINE
  5
B5
330
1F
100
AcDbEntity
  8
0
  6
Continuous
 62
     7
370
    15
100
AcDbSpline
210
0.0
220
0.0
230
1.0
 70
     8
 71
     3
 72
     8
 73
     4
 74
     0
 42
0.00000001
 43
0.00000001
 40
0.0
 40
0.0
 40
0.0
 40
0.0
 40
1.0
 40
1.0
 40
1.0
 40
1.0
 10
119.9313625360478
 20
138.3680622120592
 30
0.0
 10
119.4362225066835
 20
137.481382563879
 30
0.0
 10
118.9421398014045
 20
136.594119928193
 30
0.0
 10
118.4494297045588
 20
135.7061009300666
 30
0.0
  0
LINE
  5
B6
330
1F
100
AcDbEntity
  8
0
  6
Continuous
 62
     7
370
    15
100
AcDbLine
 10
118.4494297046
 20
128.9510104065
 30
0.0
 11
118.4494297046
 21
135.7061009301
 31
0.0
  0
ARC
  5
B7
330
1F
100
AcDbEntity
  8
0
  6
Continuous
 62
     7
370
    15
100
AcDbCircle
 10
106.5393790103
 20
126.6394640648
 30
0.0
 40
7.218013502891548
100
AcDbArc
 50
70.6963021116
 51
109.2888198142
  0
LINE
  5
B8
330
1F
100
AcDbEntity
  8
0
  6
Continuous
 62
     7
370
    15
100
AcDbLine
 10
177.7146107599
 20
91.9008667389
 30
0.0
 11
177.7146107599
 21
123.9008667389
 31
0.0
  0
SPLINE
  5
B9
330
1F
100
AcDbEntity
  8
0
  6
Continuous
 62
     7
370
    15
100
AcDbSpline
210
0.0
220
0.0
230
1.0
 70
     8
 71
     3
 72
    58
 73
    54
 74
     0
 42
0.00000001
 43
0.00000001
 40
-0.0312500000000012
 40
-0.0312500000000012
 40
0.0
 40
0.0
 40
0.062499999999998
 40
0.062499999999998
 40
0.093749999999997
 40
0.093749999999997
 40
0.124999999999996
 40
0.124999999999996
 40
0.187499999999993
 40
0.187499999999993
 40
0.24999999999999
 40
0.24999999999999
 40
0.2812499999999893
 40
0.2812499999999893
 40
0.3124999999999886
 40
0.3124999999999886
 40
0.343749999999988
 40
0.343749999999988
 40
0.3749999999999873
 40
0.3749999999999873
 40
0.4062499999999866
 40
0.4062499999999866
 40
0.4374999999999859
 40
0.4374999999999859
 40
0.4687499999999852
 40
0.4687499999999852
 40
0.4999999999999846
 40
0.4999999999999846
 40
0.5624999999999848
 40
0.5624999999999848
 40
0.5937499999999849
 40
0.5937499999999849
 40
0.624999999999986
 40
0.624999999999986
 40
0.6562499999999871
 40
0.6562499999999871
 40
0.6874999999999882
 40
0.6874999999999882
 40
0.7499999999999905
 40
0.7499999999999905
 40
0.8124999999999928
 40
0.8124999999999928
 40
0.8437499999999939
 40
0.8437499999999939
 40
0.8749999999999951
 40
0.8749999999999951
 40
0.9062499999999963
 40
0.9062499999999963
 40
0.9374999999999976
 40
0.9374999999999976
 40
0.9687499999999988
 40
0.9687499999999988
 40
1.0
 40
1.0
 40
1.062499999999998
 40
1.062499999999998
 10
157.9883191192459
 20
110.0034774620201
 30
0.0
 10
158.4972315598186
 20
110.3961234338972
 30
0.0
 10
158.8752819205484
 20
110.5895247302936
 30
0.0
 10
159.4868227051979
 20
110.7852358359359
 30
0.0
 10
159.6937231906938
 20
110.8329582171568
 30
0.0
 10
160.1133394887043
 20
110.8952117733113
 30
0.0
 10
160.3274662709694
 20
110.9096937048953
 30
0.0
 10
160.9691773723947
 20
110.9013655152284
 30
0.0
 10
161.388685853888
 20
110.8287623574017
 30
0.0
 10
162.1962641493808
 20
110.546588933792
 30
0.0
 10
162.5671562295647
 20
110.3440150885153
 30
0.0
 10
163.063973582986
 20
109.9371662228961
 30
0.0
 10
163.2139238179043
 20
109.7884291231756
 30
0.0
 10
163.4813323903741
 20
109.4634960532294
 30
0.0
 10
163.599491548278
 20
109.286108416577
 30
0.0
 10
163.7946157615601
 20
108.9039766632679
 30
0.0
 10
163.8689905489221
 20
108.7048561630292
 30
0.0
 10
163.9684611241248
 20
108.2894240559417
 30
0.0
 10
163.9924558844236
 20
108.0734633451479
 30
0.0
 10
163.9857765929485
 20
107.6484888770914
 30
0.0
 10
163.9550365112172
 20
107.4334791470102
 30
0.0
 10
163.8428878547089
 20
107.0210930126057
 30
0.0
 10
163.7625380428049
 20
106.8239586864696
 30
0.0
 10
163.5560867132845
 20
106.4466844060846
 30
0.0
 10
163.4333042712126
 20
106.2726476111323
 30
0.0
 10
163.1540533562265
 20
105.9513247370915
 30
0.0
 10
162.9964338477571
 20
105.8035832325398
 30
0.0
 10
162.492970684275
 20
105.4128537577912
 30
0.0
 10
162.1064445023007
 20
105.2138878762145
 30
0.0
 10
161.4999625244458
 20
105.018662083016
 30
0.0
 10
161.2908943514175
 20
104.9698297199108
 30
0.0
 10
160.8669606459305
 20
104.906538626121
 30
0.0
 10
160.6548074711302
 20
104.8922630774745
 30
0.0
 10
160.2301408615842
 20
104.8972454198785
 30
0.0
 10
160.0163667460109
 20
104.9167334558455
 30
0.0
 10
159.5941096865401
 20
104.9902538949333
 30
0.0
 10
159.3886397403375
 20
105.0435360778585
 30
0.0
 10
158.7890010630876
 20
105.2526136229926
 30
0.0
 10
158.4067425472382
 20
105.4617721889794
 30
0.0
 10
157.7541588016854
 20
105.996196790859
 30
0.0
 10
157.4727983885697
 20
106.3311720795517
 30
0.0
 10
157.183275402079
 20
106.9004038899955
 30
0.0
 10
157.1074123358306
 20
107.104694576943
 30
0.0
 10
157.0095716636435
 20
107.518286852419
 30
0.0
 10
156.9859688396511
 20
107.7305115557151
 30
0.0
 10
156.9937057846698
 20
108.1621973575821
 30
0.0
 10
157.024714235264
 20
108.3730612046465
 30
0.0
 10
157.1377061082853
 20
108.7854532691957
 30
0.0
 10
157.2203605415198
 20
108.9862864846869
 30
0.0
 10
157.4258221071381
 20
109.3594514501881
 30
0.0
 10
157.55082990273
 20
109.5361154515625
 30
0.0
 10
157.8319425730115
 20
109.8576168914533
 30
0.0
 10
157.9883191192459
 20
110.0034774620201
 30
0.0
 10
158.4972315598186
 20
110.3961234338972
 30
0.0
  0
CIRCLE
  5
BA
330
1F
100
AcDbEntity
  8
0
  6
Continuous
 62
     7
370
    15
100
AcDbCircle
 10
160.4894297046
 20
107.9008667389
 30
0.0
 40
2.5
  0
LINE
  5
BB
330
1F
100
AcDbEntity
  8
0
  6
Continuous
 62
     7
370
    15
100
AcDbLine
 10
158.1579565981
 20
123.7442095142
 30
0.0
 11
158.3489350191
 21
123.7244775545
 31
0.0
  0
SPLINE
  5
BC
330
1F
100
AcDbEntity
  8
0
  6
Continuous
 62
     7
370
    15
100
AcDbSpline
210
0.0
220
0.0
230
1.0
 70
     8
 71
     3
 72
    37
 73
    33
 74
     0
 42
0.00000001
 43
0.00000001
 40
0.0
 40
0.0
 40
0.0
 40
0.0
 40
0.0251317373170024
 40
0.047372880727535
 40
0.0677699174412434
 40
0.1091979698190492
 40
0.1302579031238009
 40
0.151929648584486
 40
0.1958620350880859
 40
0.2181430073780065
 40
0.2428499203121998
 40
0.2929229362111074
 40
0.3183150073273743
 40
0.3466093306246793
 40
0.4040139222779774
 40
0.433168948319739
 40
0.4640584902499745
 40
0.5268292558838278
 40
0.5587794483355758
 40
0.5905243101487504
 40
0.6224940480519967
 40
0.6551907413969575
 40
0.6881481156267656
 40
0.7190467111909211
 40
0.7820971640480413
 40
0.8143938879246975
 40
0.8374106400369622
 40
0.8841630796393294
 40
0.9079764644651079
 40
0.9309989822618228
 40
0.9779924738159277
 40
0.9999999999999999
 40
0.9999999999999999
 40
0.9999999999999999
 40
0.9999999999999999
 10
163.9798587420005
 20
123.8993504263505
 30
0.0
 10
163.9814496841019
 20
123.899601264784
 30
0.0
 10
163.9844485818487
 20
123.9000740907987
 30
0.0
 10
163.9467599030175
 20
123.8941218045259
 30
0.0
 10
163.8823731172134
 20
123.8840737382572
 30
0.0
 10
163.7842589365746
 20
123.8690491714374
 30
0.0
 10
163.6552392839645
 20
123.8500702509785
 30
0.0
 10
163.5025586961696
 20
123.8282861504975
 30
0.0
 10
163.3191175832472
 20
123.8034702941966
 30
0.0
 10
163.1049616723924
 20
123.7766739361404
 30
0.0
 10
162.8594458781374
 20
123.747787678646
 30
0.0
 10
162.5809925989087
 20
123.7185428514138
 30
0.0
 10
162.2731375775168
 20
123.690918021457
 30
0.0
 10
161.9304481309519
 20
123.663973059237
 30
0.0
 10
161.5575983410138
 20
123.6415591399224
 30
0.0
 10
161.1655710599912
 20
123.6260697145923
 30
0.0
 10
160.7499069213708
 20
123.6156094908204
 30
0.0
 10
160.3190532517791
 20
123.6146357074292
 30
0.0
 10
159.8898410284581
 20
123.6236408071437
 30
0.0
 10
159.5692070237451
 20
123.6352832897654
 30
0.0
 10
159.2525809714383
 20
123.6515402216615
 30
0.0
 10
158.9410537808796
 20
123.6721283199009
 30
0.0
 10
158.6446019771855
 20
123.6959654079926
 30
0.0
 10
158.2736003103605
 20
123.7306518401084
 30
0.0
 10
157.9357089086848
 20
123.7685783539277
 30
0.0
 10
157.6614838912186
 20
123.8033961727308
 30
0.0
 10
157.4492071869838
 20
123.8319674309862
 30
0.0
 10
157.2851150369331
 20
123.8555855435184
 30
0.0
 10
157.1581855753496
 20
123.8746285823908
 30
0.0
 10
157.0579640385888
 20
123.8900179479951
 30
0.0
 10
156.9971881124411
 20
123.8996362217029
 30
0.0
 10
156.9920127548733
 20
123.9004571607517
 30
0.0
 10
156.9903621007102
 20
123.900718995116
 30
0.0
  0
SPLINE
  5
BD
330
1F
100
AcDbEntity
  8
0
  6
Continuous
 62
     7
370
    15
100
AcDbSpline
210
0.0
220
0.0
230
1.0
 70
     8
 71
     3
 72
     9
 73
     5
 74
     0
 42
0.00000001
 43
0.00000001
 40
0.0
 40
0.0
 40
0.0
 40
0.0
 40
0.3464450194768087
 40
0.9999999999999999
 40
0.9999999999999999
 40
0.9999999999999999
 40
0.9999999999999999
 10
157.9073546965469
 20
123.773252853764
 30
0.0
 10
157.9341697568304
 20
123.7699038695634
 30
0.0
 10
158.0115703796592
 20
123.7602371576399
 30
0.0
 10
158.100098562993
 20
123.7505443178905
 30
0.0
 10
158.1579565981275
 20
123.7442095141969
 30
0.0
  0
SPLINE
  5
BE
330
1F
100
AcDbEntity
  8
0
  6
Continuous
 62
     7
370
    15
100
AcDbSpline
210
0.0
220
0.0
230
1.0
 70
     8
 71
     3
 72
     9
 73
     5
 74
     0
 42
0.00000001
 43
0.00000001
 40
0.0
 40
0.0
 40
0.0
 40
0.0
 40
0.891117364599109
 40
1.0
 40
1.0
 40
1.0
 40
1.0
 10
158.1579565984316
 20
92.05752396362614
 30
0.0
 10
158.0860073347851
 20
92.04971291579696
 30
0.0
 10
158.0052668324622
 20
92.0409474622894
 30
0.0
 10
157.9374156294749
 20
92.03235059756598
 30
0.0
 10
157.9300278116785
 20
92.0314145482787
 30
0.0
  0
SPLINE
  5
BF
330
1F
100
AcDbEntity
  8
0
  6
Continuous
 62
     7
370
    15
100
AcDbSpline
210
0.0
220
0.0
230
1.0
 70
     8
 71
     3
 72
    39
 73
    35
 74
     0
 42
0.00000001
 43
0.00000001
 40
0.0
 40
0.0
 40
0.0
 40
0.0
 40
0.007354874802269
 40
0.0302069816342671
 40
0.0506451808966309
 40
0.0921837666616769
 40
0.1133172922718236
 40
0.1345512863631244
 40
0.1776065331299072
 40
0.1994485873239964
 40
0.2234438886943236
 40
0.2720714035444562
 40
0.2967273404786671
 40
0.3243192663365315
 40
0.3802821684946779
 40
0.4086932008979551
 40
0.4391904142527936
 40
0.5011443059730825
 40
0.532665151239298
 40
0.5643637983364904
 40
0.5962835925282715
 40
0.6289127703121061
 40
0.6617936472317483
 40
0.6930298603733756
 40
0.7245065330845777
 40
0.7567931442254768
 40
0.7893859654179771
 40
0.8132580700255928
 40
0.8617439508450453
 40
0.8864391636806186
 40
0.9103177071104818
 40
0.959088039213079
 40
0.9840843179895391
 40
1.0
 40
1.0
 40
1.0
 40
1.0
 10
156.9950985538906
 20
91.90176325389018
 30
0.0
 10
156.9931818914017
 20
91.90146023542177
 30
0.0
 10
156.9853100254411
 20
91.90021571752634
 30
0.0
 10
157.005884433298
 20
91.90347680415171
 30
0.0
 10
157.0498426814638
 20
91.91039846731483
 30
0.0
 10
157.1312025884721
 20
91.92304463987922
 30
0.0
 10
157.2435062239608
 20
91.9399083666239
 30
0.0
 10
157.3785042981476
 20
91.95965749145064
 30
0.0
 10
157.5439010709039
 20
91.98278529735025
 30
0.0
 10
157.7399414573433
 20
92.00838765475122
 30
0.0
 10
157.9657297844092
 20
92.03634077322495
 30
0.0
 10
158.2241473493875
 20
92.06536695645917
 30
0.0
 10
158.5127105897004
 20
92.09368864948684
 30
0.0
 10
158.8363307929466
 20
92.1221033183208
 30
0.0
 10
159.1914973141444
 20
92.14713007176636
 30
0.0
 10
159.5689069180304
 20
92.16631732551976
 30
0.0
 10
159.973584894025
 20
92.18130239573772
 30
0.0
 10
160.3975642838255
 20
92.18755319334385
 30
0.0
 10
160.8246701005542
 20
92.18399623716519
 30
0.0
 10
161.1471339665323
 20
92.17634576880691
 30
0.0
 10
161.4687454958572
 20
92.16379172930402
 30
0.0
 10
161.7872507882958
 20
92.14653663909577
 30
0.0
 10
162.0939038455264
 20
92.1253776345503
 30
0.0
 10
162.3850535020885
 20
92.10126744865288
 30
0.0
 10
162.6604349949289
 20
92.07494573931022
 30
0.0
 10
162.9225978518375
 20
92.04671193982337
 30
0.0
 10
163.1451895255584
 20
92.02022625307093
 30
0.0
 10
163.3855248683166
 20
91.98954443044767
 30
0.0
 10
163.5782675476975
 20
91.96286015056279
 30
0.0
 10
163.7337572977318
 20
91.94016453709678
 30
0.0
 10
163.8633009422444
 20
91.92067537419591
 30
0.0
 10
163.9489535319105
 20
91.90727542329843
 30
0.0
 10
163.9864461540584
 20
91.90134058179733
 30
0.0
 10
163.9873601627199
 20
91.90119510067802
 30
0.0
 10
163.9877157328497
 20
91.9011385052182
 30
0.0
  0
LINE
  5
C0
330
1F
100
AcDbEntity
  8
0
  6
Continuous
 62
     7
370
    15
100
AcDbLine
 10
158.2761893378
 20
92.0699236427
 30
0.0
 11
158.1579565984
 21
92.0575239636
 31
0.0
  0
SPLINE
  5
C1
330
1F
100
AcDbEntity
  8
0
  6
Continuous
 62
     7
370
    15
100
AcDbSpline
210
0.0
220
0.0
230
1.0
 70
     8
 71
     3
 72
    10
 73
     6
 74
     0
 42
0.00000001
 43
0.00000001
 40
0.0
 40
0.0
 40
0.0
 40
0.0
 40
0.0650913207390226
 40
0.4645438964964112
 40
1.0
 40
1.0
 40
1.0
 40
1.0
 10
228.5370372755414
 20
118.1495152428109
 30
0.0
 10
228.5370046719948
 20
118.150273456166
 30
0.0
 10
228.536771986924
 20
118.1556846750865
 30
0.0
 10
228.538195920624
 20
118.1299328161044
 30
0.0
 10
228.5389804030344
 20
118.0719857649718
 30
0.0
 10
228.5394297045588
 20
118.0387973874358
 30
0.0
  0
LINE
  5
C2
330
1F
100
AcDbEntity
  8
0
  6
Continuous
 62
     7
370
    15
100
AcDbLine
 10
228.5394297046
 20
97.7629360904
 30
0.0
 11
228.5394297046
 21
118.0387973874
 31
0.0
  0
SPLINE
  5
C3
330
1F
100
AcDbEntity
  8
0
  6
Continuous
 62
     7
370
    15
100
AcDbSpline
210
0.0
220
0.0
230
1.0
 70
    11
 71
     3
 72
    62
 73
    58
 74
     0
 42
0.00000001
 43
0.00000001
 40
0.0
 40
0.0
 40
0.0
 40
0.0
 40
0.0000237178593561
 40
0.0000237178593561
 40
0.0000237178593561
 40
0.0000474232871383
 40
0.0000474232871383
 40
0.0000474232871383
 40
0.0000709243823255
 40
0.0000709243823255
 40
0.0000709243823255
 40
0.0000943587447705
 40
0.0000943587447705
 40
0.0000943587447705
 40
0.0001178935326696
 40
0.0001178935326696
 40
0.0001178935326696
 40
0.0001416481657011
 40
0.0001416481657011
 40
0.0001416481657011
 40
0.0001656448728193
 40
0.0001656448728193
 40
0.0001656448728193
 40
0.0001898029846451
 40
0.0001898029846451
 40
0.0001898029846451
 40
0.0002139736518127
 40
0.0002139736518127
 40
0.0002139736518127
 40
0.0002380003041918
 40
0.0002380003041918
 40
0.0002380003041918
 40
0.0002617857170676
 40
0.0002617857170676
 40
0.0002617857170676
 40
0.00028533926979
 40
0.00028533926979
 40
0.00028533926979
 40
0.0003087760246744
 40
0.0003087760246744
 40
0.0003087760246744
 40
0.0003322628526933
 40
0.0003322628526933
 40
0.0003322628526933
 40
0.0003559411777914
 40
0.0003559411777914
 40
0.0003559411777914
 40
0.0003798663146616
 40
0.0003798663146616
 40
0.0003798663146616
 40
0.0004039876399854
 40
0.0004039876399854
 40
0.0004039876399854
 40
0.0004281719553029
 40
0.0004281719553029
 40
0.0004281719553029
 40
0.0004433715596312
 40
0.0004433715596312
 40
0.0004433715596312
 40
0.0004433715596312
 10
160.4392278074855
 20
107.9509478477594
 30
0.0
 10
160.4335856343371
 20
107.945410025882
 30
0.0
 10
160.4288171119056
 20
107.9388245382243
 30
0.0
 10
160.4253283112143
 20
107.9317301176901
 30
0.0
 10
160.4218418476441
 20
107.9246404496541
 30
0.0
 10
160.419537789894
 20
107.9168450348131
 30
0.0
 10
160.4186174362336
 20
107.9089981757437
 30
0.0
 10
160.4177048339358
 20
107.9012174041498
 30
0.0
 10
160.4181272466902
 20
107.8931708252971
 30
0.0
 10
160.4198480833972
 20
107.8855280736128
 30
0.0
 10
160.4215643188755
 20
107.8779057573641
 30
0.0
 10
160.4246181374835
 20
107.8704760441458
 30
0.0
 10
160.4287501936031
 20
107.863845074116
 30
0.0
 10
160.4329001906934
 20
107.8571853130835
 30
0.0
 10
160.4382497815168
 20
107.851149313394
 30
0.0
 10
160.444354375132
 20
107.8462189538753
 30
0.0
 10
160.4505155538253
 20
107.8412428935621
 30
0.0
 10
160.4576128443927
 20
107.8372570014603
 30
0.0
 10
160.4650646728189
 20
107.8345750373674
 30
0.0
 10
160.4725912236799
 20
107.8318661801583
 30
0.0
 10
160.4806851642659
 20
107.8304132190365
 30
0.0
 10
160.4886839808761
 20
107.8303304087722
 30
0.0
 10
160.4967351188841
 20
107.8302470568341
 30
0.0
 10
160.5049119670727
 20
107.831549999992
 30
0.0
 10
160.5125370479746
 20
107.8341355257246
 30
0.0
 10
160.5201650802776
 20
107.8367220522234
 30
0.0
 10
160.5274528857358
 20
107.8406651188644
 30
0.0
 10
160.5337840166542
 20
107.8456443040399
 30
0.0
 10
160.5400772783987
 20
107.8505937066011
 30
0.0
 10
160.5456005952096
 20
107.8567062977383
 30
0.0
 10
160.5498769765993
 20
107.8634749488801
 30
0.0
 10
160.5541108652029
 20
107.870176342493
 30
0.0
 10
160.5572400851051
 20
107.8777085536025
 30
0.0
 10
160.5589913458914
 20
107.8854396050668
 30
0.0
 10
160.5607258672095
 20
107.8930967590901
 30
0.0
 10
160.5611567386808
 20
107.9011614483665
 30
0.0
 10
160.5602464779046
 20
107.9089596739382
 30
0.0
 10
160.5593405614284
 20
107.9167206817884
 30
0.0
 10
160.5570821589012
 20
107.9244311168877
 30
0.0
 10
160.5536643858713
 20
107.9314575938502
 30
0.0
 10
160.5502389837623
 20
107.9384997551627
 30
0.0
 10
160.5455566950535
 20
107.9450474148275
 30
0.0
 10
160.5400091241561
 20
107.9505745230665
 30
0.0
 10
160.5344165083382
 20
107.9561465100743
 30
0.0
 10
160.5277931554907
 20
107.9608335502158
 30
0.0
 10
160.5206835227558
 20
107.9642655277796
 30
0.0
 10
160.5135007870766
 20
107.9677327937576
 30
0.0
 10
160.5056259498944
 20
107.9700140903651
 30
0.0
 10
160.4977028358402
 20
107.9709302393031
 30
0.0
 10
160.4897162282667
 20
107.9718537299907
 30
0.0
 10
160.4814608882457
 20
107.9714152655235
 30
0.0
 10
160.4736173737841
 20
107.9696495723662
 30
0.0
 10
160.4657546029074
 20
107.9678795443
 30
0.0
 10
160.4580876058909
 20
107.9647257639598
 30
0.0
 10
160.45126043188
 20
107.9604427484309
 30
0.0
 10
160.4469323849794
 20
107.9577275558702
 30
0.0
 10
160.4428741290367
 20
107.9545267310597
 30
0.0
 10
160.4392278074855
 20
107.9509478477594
 30
0.0
  0
LINE
  5
C4
330
1F
100
AcDbEntity
  8
0
  6
Continuous
 62
     7
370
    15
100
AcDbLine
 10
228.6103375637
 20
97.8467198794
 30
0.0
 11
228.6167519117
 21
97.683463821
 31
0.0
  0
LINE
  5
C5
330
1F
100
AcDbEntity
  8
0
  6
Continuous
 62
     7
370
    15
100
AcDbLine
 10
228.5394297046
 20
99.6514454078
 30
0.0
 11
228.6103375637
 21
97.8467198794
 31
0.0
  0
LINE
  5
C6
330
1F
100
AcDbEntity
  8
0
  6
Continuous
 62
     7
370
    15
100
AcDbLine
 10
228.5578621881
 20
118.1205834404
 30
0.0
 11
228.5394297046
 21
117.6514454078
 31
0.0
  0
LINE
  5
C7
330
1F
100
AcDbEntity
  8
0
  6
HIDDEN
 62
     7
370
     0
100
AcDbLine
 10
181.5394297046
 20
103.4008667389
 30
0.0
 11
181.5394297046
 21
112.4008667389
 31
0.0
  0
LINE
  5
C8
330
1F
100
AcDbEntity
  8
0
  6
HIDDEN
 62
     7
370
     0
100
AcDbLine
 10
181.0394297046
 20
102.9008667389
 30
0.0
 11
181.0394297046
 21
112.9008667389
 31
0.0
  0
LINE
  5
C9
330
1F
100
AcDbEntity
  8
0
  6
HIDDEN
 62
     7
370
     0
100
AcDbLine
 10
165.5394297046
 20
102.9008667389
 30
0.0
 11
165.5394297046
 21
112.9008667389
 31
0.0
  0
LINE
  5
CA
330
1F
100
AcDbEntity
  8
0
  6
HIDDEN
 62
     7
370
     0
100
AcDbLine
 10
165.0394297046
 20
103.4008667389
 30
0.0
 11
165.0394297046
 21
112.4008667389
 31
0.0
  0
LINE
  5
CB
330
1F
100
AcDbEntity
  8
0
  6
HIDDEN
 62
     7
370
     0
100
AcDbLine
 10
185.0394297046
 20
105.7041924614
 30
0.0
 11
183.0394297046
 21
105.7041924614
 31
0.0
  0
LINE
  5
CC
330
1F
100
AcDbEntity
  8
0
  6
HIDDEN
 62
     7
370
     0
100
AcDbLine
 10
185.0394297046
 20
103.4008667389
 30
0.0
 11
185.0394297046
 21
105.7041924614
 31
0.0
  0
LINE
  5
CD
330
1F
100
AcDbEntity
  8
0
  6
HIDDEN
 62
     7
370
     0
100
AcDbLine
 10
183.0394297046
 20
108.1787107557
 30
0.0
 11
185.0394297046
 21
108.1787107557
 31
0.0
  0
LINE
  5
CE
330
1F
100
AcDbEntity
  8
0
  6
HIDDEN
 62
     7
370
     0
100
AcDbLine
 10
185.0394297046
 20
110.0975410164
 30
0.0
 11
183.0394297046
 21
110.0975410164
 31
0.0
  0
LINE
  5
CF
330
1F
100
AcDbEntity
  8
0
  6
HIDDEN
 62
     7
370
     0
100
AcDbLine
 10
185.0394297046
 20
107.6230227221
 30
0.0
 11
185.0394297046
 21
112.4008667389
 31
0.0
  0
LINE
  5
D0
330
1F
100
AcDbEntity
  8
0
  6
HIDDEN
 62
     7
370
     0
100
AcDbLine
 10
183.0394297046
 20
107.6230227221
 30
0.0
 11
185.0394297046
 21
107.6230227221
 31
0.0
  0
LINE
  5
D1
330
1F
100
AcDbEntity
  8
0
  6
HIDDEN
 62
     7
370
     0
100
AcDbLine
 10
183.0394297046
 20
105.7041924614
 30
0.0
 11
183.0394297046
 21
107.6230227221
 31
0.0
  0
LINE
  5
D2
330
1F
100
AcDbEntity
  8
0
  6
HIDDEN
 62
     7
370
     0
100
AcDbLine
 10
183.0394297046
 20
108.2090364668
 30
0.0
 11
183.0394297046
 21
107.6230227221
 31
0.0
  0
LINE
  5
D3
330
1F
100
AcDbEntity
  8
0
  6
HIDDEN
 62
     7
370
     0
100
AcDbLine
 10
183.0394297046
 20
106.2902062061
 30
0.0
 11
185.0394297046
 21
106.2902062061
 31
0.0
  0
LINE
  5
D4
330
1F
100
AcDbEntity
  8
0
  6
HIDDEN
 62
     7
370
     0
100
AcDbLine
 10
185.0394297046
 20
106.2902062061
 30
0.0
 11
185.0394297046
 21
105.7041924614
 31
0.0
  0
LINE
  5
D5
330
1F
100
AcDbEntity
  8
0
  6
HIDDEN
 62
     7
370
     0
100
AcDbLine
 10
185.0394297046
 20
108.2090364668
 30
0.0
 11
183.0394297046
 21
108.2090364668
 31
0.0
  0
LINE
  5
D6
330
1F
100
AcDbEntity
  8
0
  6
HIDDEN
 62
     7
370
     0
100
AcDbLine
 10
179.0394297046
 20
108.4895930871
 30
0.0
 11
179.0394297046
 21
107.0868099859
 31
0.0
  0
LINE
  5
D7
330
1F
100
AcDbEntity
  8
0
  6
HIDDEN
 62
     7
370
     0
100
AcDbLine
 10
171.0394297045
 20
107.0868099859
 30
0.0
 11
171.0394297045
 21
108.4895930871
 31
0.0
  0
LINE
  5
D8
330
1F
100
AcDbEntity
  8
0
  6
HIDDEN
 62
     7
370
     0
100
AcDbLine
 10
179.0394297046
 20
109.8923761883
 30
0.0
 11
179.0394297046
 21
108.4895930871
 31
0.0
  0
LINE
  5
D9
330
1F
100
AcDbEntity
  8
0
  6
HIDDEN
 62
     7
370
     0
100
AcDbLine
 10
171.0394297045
 20
108.4895930871
 30
0.0
 11
171.0394297045
 21
109.8923761883
 31
0.0
  0
LINE
  5
DA
330
1F
100
AcDbEntity
  8
0
  6
HIDDEN
 62
     7
370
     0
100
AcDbLine
 10
179.0394297046
 20
107.0868099859
 30
0.0
 11
179.0394297046
 21
106.0910552612
 31
0.0
  0
LINE
  5
DB
330
1F
100
AcDbEntity
  8
0
  6
HIDDEN
 62
     7
370
     0
100
AcDbLine
 10
179.0394297046
 20
107.0868099859
 30
0.0
 11
183.0394297046
 21
107.0868099859
 31
0.0
  0
LINE
  5
DC
330
1F
100
AcDbEntity
  8
0
  6
HIDDEN
 62
     7
370
     0
100
AcDbLine
 10
171.0394297045
 20
106.0910552612
 30
0.0
 11
171.0394297045
 21
107.0868099859
 31
0.0
  0
LINE
  5
DD
330
1F
100
AcDbEntity
  8
0
  6
HIDDEN
 62
     7
370
     0
100
AcDbLine
 10
171.0394297045
 20
107.0868099859
 30
0.0
 11
165.0394297046
 21
107.0868099859
 31
0.0
  0
LINE
  5
DE
330
1F
100
AcDbEntity
  8
0
  6
HIDDEN
 62
     7
370
     0
100
AcDbLine
 10
179.0394297046
 20
110.2994045648
 30
0.0
 11
179.0394297046
 21
109.8923761883
 31
0.0
  0
LINE
  5
DF
330
1F
100
AcDbEntity
  8
0
  6
HIDDEN
 62
     7
370
     0
100
AcDbLine
 10
179.0394297046
 20
109.8923761883
 30
0.0
 11
185.0394297046
 21
109.8923761883
 31
0.0
  0
LINE
  5
E0
330
1F
100
AcDbEntity
  8
0
  6
HIDDEN
 62
     7
370
     0
100
AcDbLine
 10
171.0394297045
 20
109.8923761883
 30
0.0
 11
171.0394297045
 21
110.2994045648
 31
0.0
  0
LINE
  5
E1
330
1F
100
AcDbEntity
  8
0
  6
HIDDEN
 62
     7
370
     0
100
AcDbLine
 10
171.0394297045
 20
109.8923761883
 30
0.0
 11
165.0394297045
 21
109.8923761883
 31
0.0
  0
LINE
  5
E2
330
1F
100
AcDbEntity
  8
0
  6
HIDDEN
 62
     7
370
     0
100
AcDbLine
 10
171.0394297045
 20
105.0953005365
 30
0.0
 11
171.0394297045
 21
106.0910552612
 31
0.0
  0
LINE
  5
E3
330
1F
100
AcDbEntity
  8
0
  6
HIDDEN
 62
     7
370
     0
100
AcDbLine
 10
179.0394297046
 20
106.0910552612
 30
0.0
 11
179.0394297046
 21
105.0953005365
 31
0.0
  0
LINE
  5
E4
330
1F
100
AcDbEntity
  8
0
  6
HIDDEN
 62
     7
370
     0
100
AcDbLine
 10
171.0394297045
 20
110.2994045648
 30
0.0
 11
171.0394297045
 21
110.7064329413
 31
0.0
  0
LINE
  5
E5
330
1F
100
AcDbEntity
  8
0
  6
HIDDEN
 62
     7
370
     0
100
AcDbLine
 10
179.0394297046
 20
110.7064329413
 30
0.0
 11
179.0394297046
 21
110.2994045648
 31
0.0
  0
LINE
  5
E6
330
1F
100
AcDbEntity
  8
0
  6
HIDDEN
 62
     7
370
     0
100
AcDbLine
 10
171.0394297045
 20
105.9093572895
 30
0.0
 11
165.0394297045
 21
105.9093572895
 31
0.0
  0
LINE
  5
E7
330
1F
100
AcDbEntity
  8
0
  6
HIDDEN
 62
     7
370
     0
100
AcDbLine
 10
171.0394297045
 20
105.0953005365
 30
0.0
 11
165.0394297045
 21
105.0953005365
 31
0.0
  0
LINE
  5
E8
330
1F
100
AcDbEntity
  8
0
  6
HIDDEN
 62
     7
370
     0
100
AcDbLine
 10
179.0394297046
 20
105.9093572895
 30
0.0
 11
185.0394297046
 21
105.9093572895
 31
0.0
  0
LINE
  5
E9
330
1F
100
AcDbEntity
  8
0
  6
HIDDEN
 62
     7
370
     0
100
AcDbLine
 10
179.0394297046
 20
105.0953005365
 30
0.0
 11
185.0394297046
 21
105.0953005365
 31
0.0
  0
LINE
  5
EA
330
1F
100
AcDbEntity
  8
0
  6
HIDDEN
 62
     7
370
     0
100
AcDbLine
 10
183.0394297046
 20
109.5115272716
 30
0.0
 11
185.0394297046
 21
109.5115272716
 31
0.0
  0
LINE
  5
EB
330
1F
100
AcDbEntity
  8
0
  6
HIDDEN
 62
     7
370
     0
100
AcDbLine
 10
183.0394297046
 20
108.7149234919
 30
0.0
 11
183.0394297046
 21
109.5115272716
 31
0.0
  0
LINE
  5
EC
330
1F
100
AcDbEntity
  8
0
  6
HIDDEN
 62
     7
370
     0
100
AcDbLine
 10
179.0394297046
 20
108.7149234919
 30
0.0
 11
183.0394297046
 21
108.7149234919
 31
0.0
  0
LINE
  5
ED
330
1F
100
AcDbEntity
  8
0
  6
HIDDEN
 62
     7
370
     0
100
AcDbLine
 10
179.0394297046
 20
110.7064329413
 30
0.0
 11
185.0394297046
 21
110.7064329413
 31
0.0
  0
LINE
  5
EE
330
1F
100
AcDbEntity
  8
0
  6
HIDDEN
 62
     7
370
     0
100
AcDbLine
 10
171.0394297045
 20
108.7149234919
 30
0.0
 11
165.0394297045
 21
108.7149234919
 31
0.0
  0
LINE
  5
EF
330
1F
100
AcDbEntity
  8
0
  6
HIDDEN
 62
     7
370
     0
100
AcDbLine
 10
171.0394297045
 20
110.7064329413
 30
0.0
 11
165.0394297045
 21
110.7064329413
 31
0.0
  0
LINE
  5
F0
330
1F
100
AcDbEntity
  8
0
  6
HIDDEN
 62
     7
370
     0
100
AcDbLine
 10
183.0394297046
 20
108.2090364668
 30
0.0
 11
183.0394297046
 21
108.7149234919
 31
0.0
  0
LINE
  5
F1
330
1F
100
AcDbEntity
  8
0
  6
HIDDEN
 62
     7
370
     0
100
AcDbLine
 10
185.0394297046
 20
107.5926970109
 30
0.0
 11
183.0394297046
 21
107.5926970109
 31
0.0
  0
LINE
  5
F2
330
1F
100
AcDbEntity
  8
0
  6
HIDDEN
 62
     7
370
     0
100
AcDbLine
 10
185.0394297046
 20
107.5926970109
 30
0.0
 11
185.0394297046
 21
106.2902062061
 31
0.0
  0
LINE
  5
F3
330
1F
100
AcDbEntity
  8
0
  6
HIDDEN
 62
     7
370
     0
100
AcDbLine
 10
183.0394297046
 20
110.0975410164
 30
0.0
 11
183.0394297046
 21
109.5115272716
 31
0.0
  0
LINE
  5
F4
330
1F
100
AcDbEntity
  8
0
  6
HIDDEN
 62
     7
370
     0
100
AcDbLine
 10
185.0394297046
 20
107.6230227221
 30
0.0
 11
185.0394297046
 21
107.5926970109
 31
0.0
  0
LINE
  5
F5
330
1F
100
AcDbEntity
  8
0
  6
HIDDEN
 62
     7
370
     0
100
AcDbLine
 10
113.1474968731
 20
132.3595564013
 30
0.0
 11
113.1474968731
 21
127.7508667389
 31
0.0
  0
ARC
  5
F6
330
1F
100
AcDbEntity
  8
0
  6
HIDDEN
 62
     7
370
     0
100
AcDbCircle
 10
106.8402822918
 20
120.3820056896
 30
0.0
 40
3.663598221972746
100
AcDbArc
 50
265.2895990822
 51
12.123397413
  0
ARC
  5
F7
330
1F
100
AcDbEntity
  8
0
  6
HIDDEN
 62
     7
370
     0
100
AcDbCircle
 10
106.2585097532
 20
120.3957283658
 30
0.0
 40
3.675697637757513
100
AcDbArc
 50
167.0705505165
 51
274.3831782294
  0
LINE
  5
F8
330
1F
100
AcDbEntity
  8
0
  6
HIDDEN
 62
     7
370
     0
100
AcDbLine
 10
86.5345799091
 20
84.3762671161
 30
0.0
 11
86.00043448
 21
84.3216525166
 31
0.0
  0
LINE
  5
F9
330
1F
100
AcDbEntity
  8
0
  6
HIDDEN
 62
     7
370
     0
100
AcDbLine
 10
85.762780808
 20
131.5041999194
 30
0.0
 11
86.5344871888
 21
131.4254497689
 31
0.0
  0
SPLINE
  5
FA
330
1F
100
AcDbEntity
  8
0
  6
HIDDEN
 62
     7
370
     0
100
AcDbSpline
210
0.0
220
0.0
230
1.0
 70
     8
 71
     3
 72
    16
 73
    12
 74
     0
 42
0.00000001
 43
0.00000001
 40
0.0
 40
0.0
 40
0.0
 40
0.0
 40
0.110051811134064
 40
0.2208776721595303
 40
0.3341310816428967
 40
0.4482188965773423
 40
0.5582936668804456
 40
0.669925385236397
 40
0.7823465199576425
 40
0.8963881849411958
 40
0.9999999999999999
 40
0.9999999999999999
 40
0.9999999999999999
 40
0.9999999999999999
 10
92.2944317061604
 20
127.7383952147114
 30
0.0
 10
92.36202553214261
 20
127.7474634660457
 30
0.0
 10
92.49768860557558
 20
127.7656637502994
 30
0.0
 10
92.67813647664624
 20
127.7863848476561
 30
0.0
 10
92.84027572072628
 20
127.8031243692671
 30
0.0
 10
92.9783624698049
 20
127.8157070928054
 30
0.0
 10
93.09188955563192
 20
127.8249829085367
 30
0.0
 10
93.18061869934526
 20
127.8315391239457
 30
0.0
 10
93.24425555507301
 20
127.8358703511293
 30
0.0
 10
93.28286560378021
 20
127.8383402757415
 30
0.0
 10
93.28679883856081
 20
127.8385849124553
 30
0.0
 10
93.28867121659304
 20
127.8387013693755
 30
0.0
  0
SPLINE
  5
FB
330
1F
100
AcDbEntity
  8
0
  6
HIDDEN
 62
     7
370
     0
100
AcDbSpline
210
0.0
220
0.0
230
1.0
 70
     8
 71
     3
 72
    16
 73
    12
 74
     0
 42
0.00000001
 43
0.00000001
 40
0.0
 40
0.0
 40
0.0
 40
0.0
 40
0.0069739087151107
 40
0.1183328732444319
 40
0.2321062121994069
 40
0.3467143950949805
 40
0.4574492315115813
 40
0.5689566375491385
 40
0.682908488884203
 40
0.797710087751141
 40
1.0
 40
1.0
 40
1.0
 40
1.0
 10
93.28867516270083
 20
87.96303185912947
 30
0.0
 10
93.28892501260977
 20
87.96301608091159
 30
0.0
 10
93.29316445118197
 20
87.96274835703758
 30
0.0
 10
93.27724377271292
 20
87.96374514416374
 30
0.0
 10
93.23822755912688
 20
87.96626232137596
 30
0.0
 10
93.16978363075712
 20
87.97095719402418
 30
0.0
 10
93.07700012443826
 20
87.97791708304379
 30
0.0
 10
92.95982751624595
 20
87.98760888559454
 30
0.0
 10
92.8165354068356
 20
88.00100012955775
 30
0.0
 10
92.60747062657309
 20
88.02252711438025
 30
0.0
 10
92.416354849523
 20
88.04744303980414
 30
0.0
 10
92.2944317061604
 20
88.06333826307852
 30
0.0
  0
SPLINE
  5
FC
330
1F
100
AcDbEntity
  8
0
  6
HIDDEN
 62
     7
370
     0
100
AcDbSpline
210
0.0
220
0.0
230
1.0
 70
     8
 71
     3
 72
    32
 73
    28
 74
     0
 42
0.00000001
 43
0.00000001
 40
0.0
 40
0.0
 40
0.0
 40
0.0
 40
0.0346246159901393
 40
0.0694870388940023
 40
0.105100760954932
 40
0.1409753874086758
 40
0.1756005721189328
 40
0.210469240812561
 40
0.2461122854708169
 40
0.2820258067991321
 40
0.3162663828049037
 40
0.3859338563640312
 40
0.4214461814158482
 40
0.4553763558770598
 40
0.5243713305904967
 40
0.5595124638219118
 40
0.593798734303577
 40
0.6635059787021123
 40
0.6990055363805018
 40
0.7337623601246063
 40
0.7687606633024604
 40
0.8045245907686109
 40
0.8405553812432468
 40
0.875170121130555
 40
0.9456085132854553
 40
0.9815233266320907
 40
1.0
 40
1.0
 40
1.0
 40
1.0
 10
92.2944317061604
 20
88.06333826307852
 30
0.0
 10
92.22243340431396
 20
88.07312620598684
 30
0.0
 10
92.0779423057808
 20
88.09276931682328
 30
0.0
 10
91.83662237152234
 20
88.122218535445
 30
0.0
 10
91.57732412053669
 20
88.15076891753542
 30
0.0
 10
91.30333670140406
 20
88.17720013649024
 30
0.0
 10
91.01870892038254
 20
88.20065261384156
 30
0.0
 10
90.72412396141438
 20
88.22065007030017
 30
0.0
 10
90.41719305244608
 20
88.2368057488039
 30
0.0
 10
90.10546158669361
 20
88.2482477364994
 30
0.0
 10
89.6881960380082
 20
88.25693886419725
 30
0.0
 10
89.26755304465063
 20
88.25565080773706
 30
0.0
 10
88.85414949148516
 20
88.24442299636958
 30
0.0
 10
88.44930552841787
 20
88.2271247242887
 30
0.0
 10
88.05866744385571
 20
88.20140908052049
 30
0.0
 10
87.68988636581443
 20
88.16931576962357
 30
0.0
 10
87.33646858356603
 20
88.13375756112113
 30
0.0
 10
87.01102749324511
 20
88.09450910478553
 30
0.0
 10
86.72165028752777
 20
88.05487758741319
 30
0.0
 10
86.52373641055247
 20
88.02574184427095
 30
0.0
 10
86.34640944651497
 20
87.9980076119582
 30
0.0
 10
86.18980011800245
 20
87.97222706770381
 30
0.0
 10
86.05815259829974
 20
87.94962043096963
 30
0.0
 10
85.91629140272802
 20
87.92443438566296
 30
0.0
 10
85.8274728149124
 20
87.90798883653936
 30
0.0
 10
85.79064987636201
 20
87.90109600572319
 30
0.0
 10
85.79206602353518
 20
87.90136099163239
 30
0.0
 10
85.79254708574436
 20
87.90145100678708
 30
0.0
  0
SPLINE
  5
FD
330
1F
100
AcDbEntity
  8
0
  6
HIDDEN
 62
     7
370
     0
100
AcDbSpline
210
0.0
220
0.0
230
1.0
 70
     8
 71
     3
 72
    30
 73
    26
 74
     0
 42
0.00000001
 43
0.00000001
 40
0.0
 40
0.0
 40
0.0
 40
0.0
 40
0.0501295436075413
 40
0.0849645869476773
 40
0.120310272050844
 40
0.1887226296272166
 40
0.2234350577734725
 40
0.2586381408933402
 40
0.327989180089662
 40
0.3631798593913006
 40
0.3988730116878407
 40
0.4336686238483539
 40
0.4687082007069248
 40
0.5045231139898276
 40
0.5406088812122951
 40
0.6099754147819895
 40
0.6451997353264738
 40
0.6809540137111606
 40
0.7493278060998901
 40
0.7840312587819452
 40
0.8192361094257294
 40
0.8878451716853011
 40
0.922654863951113
 40
0.957954632762727
 40
1.0
 40
1.0
 40
1.0
 40
1.0
 10
85.79945216372003
 20
127.898992574984
 30
0.0
 10
85.80019613503565
 20
127.8988472323093
 30
0.0
 10
85.80145709236706
 20
127.8986008909419
 30
0.0
 10
85.86400596815282
 20
127.8869823448483
 30
0.0
 10
85.96421701918777
 20
127.8687035398452
 30
0.0
 10
86.1158106221869
 20
127.8418876251219
 30
0.0
 10
86.31224872503965
 20
127.8092541711191
 30
0.0
 10
86.53988309259178
 20
127.7732234113731
 30
0.0
 10
86.81121310393623
 20
127.7337300210571
 30
0.0
 10
87.12001736000045
 20
127.6940899050039
 30
0.0
 10
87.3701080239718
 20
127.6650128880917
 30
0.0
 10
87.63528870977048
 20
127.6376131475411
 30
0.0
 10
87.91434278581431
 20
127.6125672767462
 30
0.0
 10
88.20882667729218
 20
127.5904008205208
 30
0.0
 10
88.61091335463323
 20
127.5662733417858
 30
0.0
 10
89.02716115640952
 20
127.550896334556
 30
0.0
 10
89.44760787725713
 20
127.5455095971865
 30
0.0
 10
89.86600907391926
 20
127.5469399840597
 30
0.0
 10
90.28031711036157
 20
127.558333301327
 30
0.0
 10
90.68036614772072
 20
127.578506515414
 30
0.0
 10
91.07025041689529
 20
127.6040724594875
 30
0.0
 10
91.44107317610519
 20
127.6366438938676
 30
0.0
 10
91.78337874091955
 20
127.6733930889909
 30
0.0
 10
92.04491889781288
 20
127.7046155940667
 30
0.0
 10
92.20656158777896
 20
127.7264991550077
 30
0.0
 10
92.2944317061604
 20
127.7383952147114
 30
0.0
  0
LINE
  5
FE
330
1F
100
AcDbEntity
  8
0
  6
HIDDEN
 62
     7
370
     0
100
AcDbLine
 10
79.5434043008
 20
90.9008667389
 30
0.0
 11
79.5434043008
 21
124.9008667389
 31
0.0
  0
LWPOLYLINE
  5
FF
330
1F
100
AcDbEntity
  8
0
  6
HIDDEN
 62
     7
370
     0
100
AcDbPolyline
 90
       13
 70
   128
 43
0.0
 10
106.5394297046
 20
129.8464691535
 10
107.3993114654
 20
129.8932280421
 10
108.2189861108
 20
130.0313183142
 10
108.9601265653
 20
130.2542830221
 10
109.5880779251
 20
130.551696584
 10
110.0734778823
 20
130.9096522721
 10
110.3936296746
 20
131.3114124765
 10
110.53356336
 20
131.7381913364
 10
110.4867357947
 20
132.1700331466
 10
110.2553365838
 20
132.5867454642
 10
109.8501856972
 20
132.9688432843
 10
109.29022754
 20
133.2984601374
 10
108.9254760273
 20
133.4516780921
  0
LWPOLYLINE
  5
100
330
1F
100
AcDbEntity
  8
0
  6
HIDDEN
 62
     7
370
     0
100
AcDbPolyline
 90
       13
 70
   128
 43
0.0
 10
104.1550510108
 20
133.4522974635
 10
103.7886318691
 20
133.2984601374
 10
103.2286737119
 20
132.9688432843
 10
102.8235228253
 20
132.5867454642
 10
102.5921236144
 20
132.1700331466
 10
102.5452960492
 20
131.7381913364
 10
102.6852297345
 20
131.3114124765
 10
103.0053815268
 20
130.9096522721
 10
103.490781484
 20
130.551696584
 10
104.1187328438
 20
130.2542830221
 10
104.8598732983
 20
130.0313183142
 10
105.6795479437
 20
129.8932280421
 10
106.5394297046
 20
129.8464691535
  0
SPLINE
  5
101
330
1F
100
AcDbEntity
  8
0
  6
HIDDEN
 62
     7
370
     0
100
AcDbSpline
210
0.0
220
0.0
230
1.0
 70
     8
 71
     3
 72
    11
 73
     7
 74
     0
 42
0.00000001
 43
0.00000001
 40
0.0
 40
0.0
 40
0.0
 40
0.0
 40
0.0005779865010845
 40
0.0005779865010845
 40
0.0005779865010845
 40
0.0011559733324421
 40
0.0011559733324421
 40
0.0011559733324421
 40
0.0011559733324421
 10
66.6394297045588
 20
109.9007073470549
 30
0.0
 10
66.80609695936475
 20
109.8987237077138
 30
0.0
 10
66.97276338904241
 20
109.8966861007053
 30
0.0
 10
67.13942972749423
 20
109.8945746372988
 30
0.0
 10
67.30609615632065
 20
109.8924631727475
 30
0.0
 10
67.47276252995835
 20
109.8902776095912
 30
0.0
 10
67.6394297045588
 20
109.8879950322595
 30
0.0
  0
SPLINE
  5
102
330
1F
100
AcDbEntity
  8
0
  6
HIDDEN
 62
     7
370
     0
100
AcDbSpline
210
0.0
220
0.0
230
1.0
 70
     8
 71
     3
 72
     8
 73
     4
 74
     0
 42
0.00000001
 43
0.00000001
 40
0.0
 40
0.0
 40
0.0
 40
0.0
 40
0.0011564765856722
 40
0.0011564765856722
 40
0.0011564765856722
 40
0.0011564765856722
 10
67.6394297045588
 20
105.9041664366787
 30
0.0
 10
67.30612177398993
 20
105.9032912810954
 30
0.0
 10
66.97278654159774
 20
105.9022364298439
 30
0.0
 10
66.63942970455878
 20
105.9010653428063
 30
0.0
  0
LINE
  5
103
330
1F
100
AcDbEntity
  8
0
  6
HIDDEN
 62
     7
370
     0
100
AcDbLine
 10
106.1992556731
 20
90.9008667389
 30
0.0
 11
106.1992556731
 21
124.9008667389
 31
0.0
  0
LINE
  5
104
330
1F
100
AcDbEntity
  8
0
  6
HIDDEN
 62
     7
370
     0
100
AcDbLine
 10
108.4894297046
 20
92.1758667389
 30
0.0
 11
108.4894297046
 21
123.6258667379
 31
0.0
  0
SPLINE
  5
105
330
1F
100
AcDbEntity
  8
0
  6
HIDDEN
 62
     7
370
     0
100
AcDbSpline
210
0.0
220
0.0
230
1.0
 70
     8
 71
     3
 72
    16
 73
    12
 74
     0
 42
0.00000001
 43
0.00000001
 40
0.0
 40
0.0
 40
0.0
 40
0.0
 40
0.124999999999998
 40
0.124999999999998
 40
0.249999999999996
 40
0.249999999999996
 40
0.4999999999999973
 40
0.4999999999999973
 40
0.7499999999999987
 40
0.7499999999999987
 40
1.0
 40
1.0
 40
1.0
 40
1.0
 10
75.33942970455878
 20
92.09937630286333
 30
0.0
 10
75.43455145922462
 20
92.09937630286333
 30
0.0
 10
75.52788152795269
 20
92.09556046947053
 30
0.0
 10
75.71114328869069
 20
92.08078991674071
 30
0.0
 10
75.80202100424769
 20
92.06963186876513
 30
0.0
 10
76.05882270176744
 20
92.02716059862341
 30
0.0
 10
76.21389006663942
 20
91.98611440142061
 30
0.0
 10
76.46763652819405
 20
91.89096828483872
 30
0.0
 10
76.56850697986191
 20
91.83620555075714
 30
0.0
 10
76.70375339455674
 20
91.72494442685328
 30
0.0
 10
76.73942970455879
 20
91.66777468952458
 30
0.0
 10
76.73942970455879
 20
91.61335311649086
 30
0.0
  0
SPLINE
  5
106
330
1F
100
AcDbEntity
  8
0
  6
HIDDEN
 62
     7
370
     0
100
AcDbSpline
210
0.0
220
0.0
230
1.0
 70
     8
 71
     3
 72
     8
 73
     4
 74
     0
 42
0.00000001
 43
0.00000001
 40
0.0
 40
0.0
 40
0.0
 40
0.0
 40
1.0
 40
1.0
 40
1.0
 40
1.0
 10
67.93942970787398
 20
94.24417924894557
 30
0.0
 10
67.9394297078759
 20
93.36028210662865
 30
0.0
 10
67.92594908196611
 20
92.64569886156669
 30
0.0
 10
67.9245977137768
 20
92.09937630286333
 30
0.0
  0
LINE
  5
107
330
1F
100
AcDbEntity
  8
0
  6
HIDDEN
 62
     7
370
     0
100
AcDbLine
 10
67.6394297046
 20
98.3000399465
 30
0.0
 11
67.6394297046
 21
95.2690895146
 31
0.0
  0
SPLINE
  5
108
330
1F
100
AcDbEntity
  8
0
  6
HIDDEN
 62
     7
370
     0
100
AcDbSpline
210
0.0
220
0.0
230
1.0
 70
     8
 71
     3
 72
    10
 73
     6
 74
     0
 42
0.00000001
 43
0.00000001
 40
0.0
 40
0.0
 40
0.0
 40
0.0
 40
0.5
 40
0.5
 40
1.0
 40
1.0
 40
1.0
 40
1.0
 10
67.9394297077465
 20
99.66788036325215
 30
0.0
 10
67.93942970774647
 20
99.42589639564534
 30
0.0
 10
67.9112796786759
 20
99.19155396668033
 30
0.0
 10
67.80768976453348
 20
98.73617894440264
 30
0.0
 10
67.73106105494199
 20
98.51457438129528
 30
0.0
 10
67.6394297045588
 20
98.30003994649735
 30
0.0
  0
LINE
  5
109
330
1F
100
AcDbEntity
  8
0
  6
HIDDEN
 62
     7
370
     0
100
AcDbLine
 10
67.9394297077
 20
111.5055003605
 30
0.0
 11
67.9394297077
 21
99.6678803632
 31
0.0
  0
SPLINE
  5
10A
330
1F
100
AcDbEntity
  8
0
  6
HIDDEN
 62
     7
370
     0
100
AcDbSpline
210
0.0
220
0.0
230
1.0
 70
     8
 71
     3
 72
     8
 73
     4
 74
     0
 42
0.00000001
 43
0.00000001
 40
0.0
 40
0.0
 40
0.0
 40
0.0
 40
1.0
 40
1.0
 40
1.0
 40
1.0
 10
67.63942970455878
 20
117.5078060599633
 30
0.0
 10
67.82046117111769
 20
117.0756985743006
 30
0.0
 10
67.93942970775221
 20
116.621553168201
 30
0.0
 10
67.93942970774651
 20
116.1338531145069
 30
0.0
  0
LINE
  5
10B
330
1F
100
AcDbEntity
  8
0
  6
HIDDEN
 62
     7
370
     0
100
AcDbLine
 10
67.6394297046
 20
120.5410090459
 30
0.0
 11
67.6394297046
 21
117.50780606
 31
0.0
  0
SPLINE
  5
10C
330
1F
100
AcDbEntity
  8
0
  6
HIDDEN
 62
     7
370
     0
100
AcDbSpline
210
0.0
220
0.0
230
1.0
 70
     8
 71
     3
 72
    10
 73
     6
 74
     0
 42
0.00000001
 43
0.00000001
 40
0.0
 40
0.0
 40
0.0
 40
0.0
 40
0.5
 40
0.5
 40
1.0
 40
1.0
 40
1.0
 40
1.0
 10
67.939429707952
 20
121.5575542288148
 30
0.0
 10
67.9394297079502
 20
121.3929178822088
 30
0.0
 10
67.91227103719471
 20
121.2257626583783
 30
0.0
 10
67.8065060418763
 20
120.8871396505767
 30
0.0
 10
67.73009125357915
 20
120.7148678732857
 30
0.0
 10
67.63942970455881
 20
120.5410090459417
 30
0.0
  0
SPLINE
  5
10D
330
1F
100
AcDbEntity
  8
0
  6
HIDDEN
 62
     7
370
     0
100
AcDbSpline
210
0.0
220
0.0
230
1.0
 70
     8
 71
     3
 72
    18
 73
    14
 74
     0
 42
0.00000001
 43
0.00000001
 40
0.0
 40
0.0
 40
0.0
 40
0.0
 40
0.2500000000000033
 40
0.2500000000000033
 40
0.3750000000000029
 40
0.3750000000000029
 40
0.5000000000000026
 40
0.5000000000000026
 40
0.6250000000000022
 40
0.6250000000000022
 40
0.7500000000000018
 40
0.7500000000000018
 40
1.0
 40
1.0
 40
1.0
 40
1.0
 10
72.73942970455879
 20
124.1883803612991
 30
0.0
 10
72.73942970455879
 20
124.1339058407469
 30
0.0
 10
72.7045190131666
 20
124.0775247813944
 30
0.0
 10
72.60250971183356
 20
123.9934479405409
 30
0.0
 10
72.56087335715544
 20
123.96611423655
 30
0.0
 10
72.4624675616667
 20
123.9131603209511
 30
0.0
 10
72.40492434996243
 20
123.8872729672339
 30
0.0
 10
72.27762617638948
 20
123.8394954224006
 30
0.0
 10
72.208038871632
 20
123.8175475042227
 30
0.0
 10
72.05660462647705
 20
123.77811493931
 30
0.0
 10
71.9739207233831
 20
123.7605586900842
 30
0.0
 10
71.71780926134505
 20
123.7181199246636
 30
0.0
 10
71.52989425745707
 20
123.7023571749266
 30
0.0
 10
71.33942970455878
 20
123.7023571749266
 30
0.0
  0
LINE
  5
10E
330
1F
100
AcDbEntity
  8
0
  6
HIDDEN
 62
     7
370
     0
100
AcDbLine
 10
71.3394297046
 20
123.7023571749
 30
0.0
 11
67.939429708
 21
123.7023571749
 31
0.0
  0
LINE
  5
10F
330
1F
100
AcDbEntity
  8
0
  6
HIDDEN
 62
     7
370
     0
100
AcDbLine
 10
67.8704607179
 20
92.0993763029
 30
0.0
 11
75.3394297046
 21
92.0993763029
 31
0.0
  0
SPLINE
  5
110
330
1F
100
AcDbEntity
  8
0
  6
HIDDEN
 62
     7
370
     0
100
AcDbSpline
210
0.0
220
0.0
230
1.0
 70
     8
 71
     3
 72
    22
 73
    18
 74
     0
 42
0.00000001
 43
0.00000001
 40
0.0
 40
0.0
 40
0.0
 40
0.0
 40
0.1249999999999998
 40
0.1249999999999998
 40
0.2499999999999995
 40
0.2499999999999995
 40
0.4999999999999992
 40
0.4999999999999992
 40
0.5624999999999993
 40
0.5624999999999993
 40
0.6249999999999994
 40
0.6249999999999994
 40
0.7499999999999996
 40
0.7499999999999996
 40
0.8749999999999998
 40
0.8749999999999998
 40
1.0
 40
1.0
 40
1.0
 40
1.0
 10
67.8704607179167
 20
92.09937630286333
 30
0.0
 10
67.85737832518835
 20
92.354482013011
 30
0.0
 10
67.84415876174852
 20
92.6476402721149
 30
0.0
 10
67.8217115839544
 20
93.30994073773971
 30
0.0
 10
67.81223311692992
 20
93.68021465835109
 30
0.0
 10
67.79303515599337
 20
94.9027714614649
 30
0.0
 10
67.79414892899025
 20
95.83991038759675
 30
0.0
 10
67.81305972194333
 20
97.15978161711173
 30
0.0
 10
67.81768924980233
 20
97.43128352608805
 30
0.0
 10
67.8281704695483
 20
97.98966836089036
 30
0.0
 10
67.83396573083272
 20
98.27679121682996
 30
0.0
 10
67.85227495173766
 20
99.14938047120164
 30
0.0
 10
67.86630988601802
 20
99.7498361475575
 30
0.0
 10
67.89576705815482
 20
100.9873106400536
 30
0.0
 10
67.9113227491364
 20
101.624326796697
 30
0.0
 10
67.9351172991333
 20
102.9358153943816
 30
0.0
 10
67.94313635127865
 20
103.6119380060421
 30
0.0
 10
67.93942970455878
 20
104.2962331173269
 30
0.0
  0
LINE
  5
111
330
1F
100
AcDbEntity
  8
0
  6
HIDDEN
 62
     7
370
     0
100
AcDbLine
 10
67.939429708
 20
111.5055003605
 30
0.0
 11
67.939429708
 21
123.7023571749
 31
0.0
  0
SPLINE
  5
112
330
1F
100
AcDbEntity
  8
0
  6
HIDDEN
 62
     7
370
     0
100
AcDbSpline
210
0.0
220
0.0
230
1.0
 70
     8
 71
     3
 72
    10
 73
     6
 74
     0
 42
0.00000001
 43
0.00000001
 40
0.0
 40
0.0
 40
0.0
 40
0.0
 40
0.5
 40
0.5
 40
1.0
 40
1.0
 40
1.0
 40
1.0
 10
67.93942970455878
 20
104.2962331173118
 30
0.0
 10
67.9394297045586
 20
104.5701482653862
 30
0.0
 10
67.9136704746909
 20
104.8410898441163
 30
0.0
 10
67.81046454195776
 20
105.3767809257191
 30
0.0
 10
67.73312637808255
 20
105.6425277292411
 30
0.0
 10
67.63942970455878
 20
105.9041664366787
 30
0.0
  0
SPLINE
  5
113
330
1F
100
AcDbEntity
  8
0
  6
HIDDEN
 62
     7
370
     0
100
AcDbSpline
210
0.0
220
0.0
230
1.0
 70
     8
 71
     3
 72
    10
 73
     6
 74
     0
 42
0.00000001
 43
0.00000001
 40
0.0
 40
0.0
 40
0.0
 40
0.0
 40
0.5
 40
0.5
 40
1.0
 40
1.0
 40
1.0
 40
1.0
 10
67.63942970455878
 20
109.8879950322595
 30
0.0
 10
67.73266028594979
 20
110.1518888403296
 30
0.0
 10
67.80768989818652
 20
110.4180691509679
 30
0.0
 10
67.91275699736468
 20
110.9563917259261
 30
0.0
 10
67.93942970795088
 20
111.2291398421716
 30
0.0
 10
67.93942970795206
 20
111.5055003604621
 30
0.0
  0
LINE
  5
114
330
1F
100
AcDbEntity
  8
0
  6
HIDDEN
 62
     7
370
     0
100
AcDbLine
 10
67.6394297046
 20
105.9041664367
 30
0.0
 11
67.6394297046
 21
109.8879950323
 31
0.0
  0
SPLINE
  5
115
330
1F
100
AcDbEntity
  8
0
  6
HIDDEN
 62
     7
370
     0
100
AcDbSpline
210
0.0
220
0.0
230
1.0
 70
     8
 71
     3
 72
     9
 73
     5
 74
     0
 42
0.00000001
 43
0.00000001
 40
0.0
 40
0.0
 40
0.0
 40
0.0
 40
0.67628530397621
 40
1.0
 40
1.0
 40
1.0
 40
1.0
 10
228.5394297045588
 20
97.76293609035417
 30
0.0
 10
228.5386340399181
 20
97.72009104490176
 30
0.0
 10
228.5374575177669
 20
97.65673753832617
 30
0.0
 10
228.5371399559156
 20
97.65332126450434
 30
0.0
 10
228.5370371564775
 20
97.65221536646257
 30
0.0
  0
LINE
  5
116
330
1F
100
AcDbEntity
  8
0
  6
HIDDEN
 62
     7
370
     0
100
AcDbLine
 10
67.7894297046
 20
89.9108667389
 30
0.0
 11
67.7894297046
 21
87.0309289735
 31
0.0
  0
LINE
  5
117
330
1F
100
AcDbEntity
  8
0
  6
HIDDEN
 62
     7
370
     0
100
AcDbLine
 10
76.7394297046
 20
89.9108667389
 30
0.0
 11
76.7394297046
 21
85.9371292077
 31
0.0
  0
LINE
  5
118
330
1F
100
AcDbEntity
  8
0
  6
HIDDEN
 62
     7
370
     0
100
AcDbLine
 10
67.7894297046
 20
125.8908667389
 30
0.0
 11
67.7894297046
 21
128.7708045043
 31
0.0
  0
LINE
  5
119
330
1F
100
AcDbEntity
  8
0
  6
HIDDEN
 62
     7
370
     0
100
AcDbLine
 10
72.7394297046
 20
125.8908667389
 30
0.0
 11
72.7394297046
 21
129.7449744113
 31
0.0
  0
LINE
  5
11A
330
1F
100
AcDbEntity
  8
0
  6
HIDDEN
 62
     7
370
     0
100
AcDbLine
 10
120.3394297046
 20
98.4008667389
 30
0.0
 11
120.3394297046
 21
117.4008667389
 31
0.0
  0
LINE
  5
11B
330
1F
100
AcDbEntity
  8
0
  6
HIDDEN
 62
     7
370
     0
100
AcDbLine
 10
117.3394297046
 20
98.4008667389
 30
0.0
 11
117.3394297046
 21
117.4008667389
 31
0.0
  0
LINE
  5
11C
330
1F
100
AcDbEntity
  8
0
  6
HIDDEN
 62
     7
370
     0
100
AcDbLine
 10
108.9894297046
 20
99.4008667389
 30
0.0
 11
108.9894297046
 21
116.4008667389
 31
0.0
  0
LINE
  5
11D
330
1F
100
AcDbEntity
  8
0
  6
HIDDEN
 62
     7
370
     0
100
AcDbLine
 10
103.4894297046
 20
76.416743756
 30
0.0
 11
103.4894297046
 21
81.5008667389
 31
0.0
  0
LINE
  5
11E
330
1F
100
AcDbEntity
  8
0
  6
HIDDEN
 62
     7
370
     0
100
AcDbLine
 10
111.4894297046
 20
81.5008667389
 30
0.0
 11
103.4894297046
 21
81.5008667389
 31
0.0
  0
LINE
  5
11F
330
1F
100
AcDbEntity
  8
0
  6
HIDDEN
 62
     7
370
     0
100
AcDbLine
 10
124.4894297046
 20
81.5008667389
 30
0.0
 11
118.3517549022
 21
81.5008667389
 31
0.0
  0
LINE
  5
120
330
1F
100
AcDbEntity
  8
0
  6
HIDDEN
 62
     7
370
     0
100
AcDbLine
 10
114.7271045069
 20
81.5008667389
 30
0.0
 11
111.4894297046
 21
81.5008667389
 31
0.0
  0
LINE
  5
121
330
1F
100
AcDbEntity
  8
0
  6
HIDDEN
 62
     7
370
     0
100
AcDbLine
 10
115.0237272362
 20
134.3008667389
 30
0.0
 11
111.4894297046
 21
134.3008667389
 31
0.0
  0
LINE
  5
122
330
1F
100
AcDbEntity
  8
0
  6
HIDDEN
 62
     7
370
     0
100
AcDbLine
 10
111.4894297046
 20
134.3008667389
 30
0.0
 11
103.4894297046
 21
134.3008667389
 31
0.0
  0
LINE
  5
123
330
1F
100
AcDbEntity
  8
0
  6
HIDDEN
 62
     7
370
     0
100
AcDbLine
 10
124.4894297046
 20
134.3008667389
 30
0.0
 11
118.0551321729
 21
134.3008667389
 31
0.0
  0
SPLINE
  5
124
330
1F
100
AcDbEntity
  8
0
  6
HIDDEN
 62
     7
370
     0
100
AcDbSpline
210
0.0
220
0.0
230
1.0
 70
     8
 71
     3
 72
    11
 73
     7
 74
     0
 42
0.00000001
 43
0.00000001
 40
0.0
 40
0.0
 40
0.0
 40
0.0
 40
0.0008203708524183
 40
0.0008203708524183
 40
0.0008203708524183
 40
0.0016409967870154
 40
0.0016409967870154
 40
0.0016409967870154
 40
0.0016409967870154
 10
67.78942970455878
 20
92.04883398825226
 30
0.0
 10
67.59827140426013
 20
92.00765495963311
 30
0.0
 10
67.40684433418792
 20
91.96890098740312
 30
0.0
 10
67.21519871066731
 20
91.93253322812457
 30
0.0
 10
67.02349330558685
 20
91.89615412435855
 30
0.0
 10
66.8315543535279
 20
91.862159873591
 30
0.0
 10
66.6394297064571
 20
91.83051174819978
 30
0.0
  0
ELLIPSE
  5
125
330
1F
100
AcDbEntity
  8
0
  6
HIDDEN
 62
     7
370
     0
100
AcDbEllipse
 10
62.396997836
 20
107.9008667389
 30
0.0
 11
20.19992453366649
 21
-1.421085471520200E-14
 31
0.0
210
0.0
220
0.0
230
1.0
 40
0.8164965809
 41
1.300566354717996
 42
1.3591986972096
  0
LINE
  5
126
330
1F
100
AcDbEntity
  8
0
  6
HIDDEN
 62
     7
370
     0
100
AcDbLine
 10
225.0394297046
 20
101.9008667389
 30
0.0
 11
225.0394297046
 21
113.9008667389
 31
0.0
  0
SPLINE
  5
127
330
1F
100
AcDbEntity
  8
0
  6
HIDDEN
 62
     7
370
     0
100
AcDbSpline
210
0.0
220
0.0
230
1.0
 70
     8
 71
     3
 72
    22
 73
    18
 74
     0
 42
0.00000001
 43
0.00000001
 40
0.0
 40
0.0
 40
0.0
 40
0.0
 40
0.051722200651587
 40
0.1569606720658433
 40
0.2105992409795498
 40
0.2623197259632333
 40
0.367468638293406
 40
0.4210077664150268
 40
0.4736565056021788
 40
0.5806967258199355
 40
0.6352137093767855
 40
0.6884700412458059
 40
0.7421045313305767
 40
0.7969473674336784
 40
0.852215121877875
 40
0.9044757023389398
 40
1.0
 40
1.0
 40
1.0
 40
1.0
 10
184.0394297045588
 20
114.0196901552063
 30
0.0
 10
184.0801746966665
 20
114.019935755062
 30
0.0
 10
184.203822980459
 20
114.0206810736662
 30
0.0
 10
184.3682774280266
 20
114.0276328834022
 30
0.0
 10
184.5270562516617
 20
114.0387114074562
 30
0.0
 10
184.6811294199419
 20
114.0524402346833
 30
0.0
 10
184.8269487485945
 20
114.0694973442379
 30
0.0
 10
184.9616801256785
 20
114.0885481873854
 30
0.0
 10
185.0890392474683
 20
114.1085323155392
 30
0.0
 10
185.2029653780274
 20
114.1289853489204
 30
0.0
 10
185.300238189064
 20
114.1481166708248
 30
0.0
 10
185.3644638989609
 20
114.1614260319872
 30
0.0
 10
185.4194725664378
 20
114.1733231358538
 30
0.0
 10
185.465265662793
 20
114.1835807649545
 30
0.0
 10
185.499875744487
 20
114.1915437183506
 30
0.0
 10
185.5316444916805
 20
114.1990013760505
 30
0.0
 10
185.5352017525808
 20
114.1998568166698
 30
0.0
 10
185.537501073414
 20
114.2004097512148
 30
0.0
  0
LINE
  5
128
330
1F
100
AcDbEntity
  8
0
  6
HIDDEN
 62
     7
370
     0
100
AcDbLine
 10
184.0997152546
 20
114.0202916763
 30
0.0
 11
183.9174181842
 21
114.0217314072
 31
0.0
  0
SPLINE
  5
129
330
1F
100
AcDbEntity
  8
0
  6
HIDDEN
 62
     7
370
     0
100
AcDbSpline
210
0.0
220
0.0
230
1.0
 70
     8
 71
     3
 72
    22
 73
    18
 74
     0
 42
0.00000001
 43
0.00000001
 40
0.0
 40
0.0
 40
0.0
 40
0.0
 40
0.0303055240875814
 40
0.1351289769913076
 40
0.1885491599216229
 40
0.2398906872763517
 40
0.3442551149494942
 40
0.3973867919096706
 40
0.4498627965670371
 40
0.5565420910733001
 40
0.610867211797349
 40
0.6641421035336348
 40
0.717792897989716
 40
0.7726442282426929
 40
0.8279179107124516
 40
0.9131253009000119
 40
1.0
 40
1.0
 40
1.0
 40
1.0
 10
182.5406273429877
 20
114.2005817080707
 30
0.0
 10
182.5405311089772
 20
114.2006047461455
 30
0.0
 10
182.5401020121778
 20
114.2007074703711
 30
0.0
 10
182.5617420801343
 20
114.1955481470874
 30
0.0
 10
182.6029778101526
 20
114.1860066794757
 30
0.0
 10
182.65750190964
 20
114.1736904520262
 30
0.0
 10
182.7305293976997
 20
114.1578712107329
 30
0.0
 10
182.8211767937492
 20
114.1396528532096
 30
0.0
 10
182.9238650176954
 20
114.1201665160006
 30
0.0
 10
183.0431549963951
 20
114.0996832544219
 30
0.0
 10
183.1763079077518
 20
114.0799831870036
 30
0.0
 10
183.2827264261284
 20
114.0659876390456
 30
0.0
 10
183.3949536910779
 20
114.0531828865187
 30
0.0
 10
183.513421811458
 20
114.041848521233
 30
0.0
 10
183.6595286092933
 20
114.0308225509761
 30
0.0
 10
183.8352779526857
 20
114.0216751730685
 30
0.0
 10
183.9709409728088
 20
114.0203560880462
 30
0.0
 10
184.0394297045588
 20
114.0196901552063
 30
0.0
  0
SPLINE
  5
12A
330
1F
100
AcDbEntity
  8
0
  6
HIDDEN
 62
     7
370
     0
100
AcDbSpline
210
0.0
220
0.0
230
1.0
 70
     8
 71
     3
 72
    37
 73
    33
 74
     0
 42
0.00000001
 43
0.00000001
 40
0.0
 40
0.0
 40
0.0
 40
0.0
 40
0.0258726174970038
 40
0.0785137288972275
 40
0.1053435955856964
 40
0.1312154308056902
 40
0.1838151307221327
 40
0.2105986763190699
 40
0.2369075943912531
 40
0.2903953947059649
 40
0.3176365942040549
 40
0.3442686306079611
 40
0.3710895822602826
 40
0.3985144467093018
 40
0.4261518880411821
 40
0.4522884866391434
 40
0.5054875234297471
 40
0.5326191704565661
 40
0.5582096115435502
 40
0.6102495608034978
 40
0.6367555094007274
 40
0.6626001508920868
 40
0.7151283931356863
 40
0.7418673223178377
 40
0.7683629898642986
 40
0.822245951258077
 40
0.849699968002937
 40
0.8762464121852104
 40
0.9302783630245351
 40
0.9578377981132825
 40
0.9837686886094361
 40
1.0
 40
1.0
 40
1.0
 40
1.0
 10
185.5394297045588
 20
101.600866738895
 30
0.0
 10
185.5384266464397
 20
101.60110549793
 30
0.0
 10
185.5353827397597
 20
101.6018300424082
 30
0.0
 10
185.5068986553556
 20
101.608591107901
 30
0.0
 10
185.4597159804683
 20
101.6194102903545
 30
0.0
 10
185.3994410312494
 20
101.6328585676161
 30
0.0
 10
185.320537333942
 20
101.6496525542164
 30
0.0
 10
185.2242748043823
 20
101.6685340484159
 30
0.0
 10
185.1163567159575
 20
101.6884194164943
 30
0.0
 10
184.9923519392197
 20
101.7089112128577
 30
0.0
 10
184.8550843778814
 20
101.7282185571627
 30
0.0
 10
184.7459970127195
 20
101.7417124320735
 30
0.0
 10
184.6315360448771
 20
101.7538320696928
 30
0.0
 10
184.5111786917259
 20
101.764296211925
 30
0.0
 10
184.3881864372295
 20
101.7725258948778
 30
0.0
 10
184.2227740966585
 20
101.7802693601157
 30
0.0
 10
184.0544425237892
 20
101.7830486670103
 30
0.0
 10
183.8877118462173
 20
101.7805798138264
 30
0.0
 10
183.7242961071218
 20
101.774860311504
 30
0.0
 10
183.5654186840623
 20
101.7645541971935
 30
0.0
 10
183.4136580577222
 20
101.7504632841561
 30
0.0
 10
183.2669977862058
 20
101.7342085785531
 30
0.0
 10
183.1299188170251
 20
101.7153824413048
 30
0.0
 10
183.0052287142097
 20
101.6954725149668
 30
0.0
 10
182.888550050833
 20
101.6751867246549
 30
0.0
 10
182.7867261121218
 20
101.6553886350921
 30
0.0
 10
182.7031961989065
 20
101.6379234678979
 30
0.0
 10
182.6323203816653
 20
101.6224789007407
 30
0.0
 10
182.5804867232708
 20
101.6105517616457
 30
0.0
 10
182.5519944099255
 20
101.6038542853276
 30
0.0
 10
182.538845156913
 20
101.6007287436515
 30
0.0
 10
182.5424600845542
 20
101.6015867922702
 30
0.0
 10
182.5438517342682
 20
101.6019171178626
 30
0.0
  0
LINE
  5
12B
330
1F
100
AcDbEntity
  8
0
  6
HIDDEN
 62
     7
370
     0
100
AcDbLine
 10
182.0394297046
 20
102.0008667389
 30
0.0
 11
182.0394297046
 21
113.8008664283
 31
0.0
  0
LINE
  5
12C
330
1F
100
AcDbEntity
  8
0
  6
HIDDEN
 62
     7
370
     0
100
AcDbLine
 10
192.5394297046
 20
101.9008667389
 30
0.0
 11
192.5394297046
 21
113.9008667389
 31
0.0
  0
LINE
  5
12D
330
1F
100
AcDbEntity
  8
0
  6
HIDDEN
 62
     7
370
     0
100
AcDbLine
 10
76.7394297046
 20
89.9108667389
 30
0.0
 11
76.7394297046
 21
91.6133531165
 31
0.0
  0
LINE
  5
12E
330
1F
100
AcDbEntity
  8
0
  6
HIDDEN
 62
     7
370
     0
100
AcDbLine
 10
67.7894297046
 20
89.9108667389
 30
0.0
 11
67.7894297046
 21
92.0488339883
 31
0.0
  0
LINE
  5
12F
330
1F
100
AcDbEntity
  8
0
  6
HIDDEN
 62
     7
370
     0
100
AcDbLine
 10
67.8704607179
 20
92.0993763029
 30
0.0
 11
67.7894297046
 21
92.0488339883
 31
0.0
  0
LINE
  5
130
330
1F
100
AcDbEntity
  8
0
  6
HIDDEN
 62
     7
370
     0
100
AcDbLine
 10
67.7894297046
 20
125.8908667389
 30
0.0
 11
67.7894297046
 21
123.79549119
 31
0.0
  0
SPLINE
  5
131
330
1F
100
AcDbEntity
  8
0
  6
HIDDEN
 62
     7
370
     0
100
AcDbSpline
210
0.0
220
0.0
230
1.0
 70
     8
 71
     3
 72
     8
 73
     4
 74
     0
 42
0.00000001
 43
0.00000001
 40
0.0
 40
0.0
 40
0.0
 40
0.0
 40
1.0
 40
1.0
 40
1.0
 40
1.0
 10
67.78942970455878
 20
123.7954911899536
 30
0.0
 10
67.83943520350252
 20
123.7644554157345
 30
0.0
 10
67.88943527416694
 20
123.733410770707
 30
0.0
 10
67.93942970795206
 20
123.7023571749266
 30
0.0
  0
LINE
  5
132
330
1F
100
AcDbEntity
  8
0
  6
HIDDEN
 62
     7
370
     0
100
AcDbLine
 10
72.7394297046
 20
125.8908667389
 30
0.0
 11
72.7394297046
 21
124.1883803613
 31
0.0
  0
LINE
  5
133
330
1F
100
AcDbEntity
  8
0
  6
HIDDEN
 62
     7
370
     0
100
AcDbLine
 10
181.5394297046
 20
103.4008667389
 30
0.0
 11
181.5394297046
 21
112.4008667389
 31
0.0
  0
LINE
  5
134
330
1F
100
AcDbEntity
  8
0
  6
HIDDEN
 62
     7
370
     0
100
AcDbLine
 10
151.5394297046
 20
103.4008667389
 30
0.0
 11
151.5394297046
 21
112.4008667389
 31
0.0
  0
LINE
  5
135
330
1F
100
AcDbEntity
  8
0
  6
HIDDEN
 62
     7
370
     0
100
AcDbLine
 10
151.3591715189
 20
103.7008667389
 30
0.0
 11
151.3591715189
 21
112.1008667389
 31
0.0
  0
SPLINE
  5
136
330
1F
100
AcDbEntity
  8
0
  6
HIDDEN
 62
     7
370
     0
100
AcDbSpline
210
0.0
220
0.0
230
1.0
 70
     8
 71
     3
 72
    20
 73
    16
 74
     0
 42
0.00000001
 43
0.00000001
 40
0.0
 40
0.0
 40
0.0
 40
0.0
 40
0.1119595197684167
 40
0.177476763464755
 40
0.2490961890179855
 40
0.3298422315094334
 40
0.3986125823882006
 40
0.4998893016461228
 40
0.6138510293005642
 40
0.6790150176761717
 40
0.7495394203320147
 40
0.8296829944178317
 40
0.8981246285223357
 40
0.9995320175861916
 40
1.0
 40
1.0
 40
1.0
 40
1.0
 10
93.28827015442165
 20
84.30087297712718
 30
0.0
 10
93.2449464161231
 20
84.31430229516423
 30
0.0
 10
93.17627019394631
 20
84.3355902741202
 30
0.0
 10
92.73109106789603
 20
84.43890108576869
 30
0.0
 10
92.20453278422617
 20
84.5522043158306
 30
0.0
 10
91.51910776309683
 20
84.6751371836232
 30
0.0
 10
90.62579036579794
 20
84.79717164280768
 30
0.0
 10
89.51243097866028
 20
84.91490795059224
 30
0.0
 10
88.40165689802471
 20
84.92688345296784
 30
0.0
 10
87.51690859611938
 20
84.8998251628365
 30
0.0
 10
86.84971200149633
 20
84.85189309842949
 30
0.0
 10
86.30843949927795
 20
84.79559958606625
 30
0.0
 10
85.92085954019277
 20
84.75051667542816
 30
0.0
 10
85.7269230201172
 20
84.711643500726
 30
0.0
 10
85.79002548034713
 20
84.72234955796617
 30
0.0
 10
85.79031535258245
 20
84.72239873812067
 30
0.0
  0
LINE
  5
137
330
1F
100
AcDbEntity
  8
0
  6
HIDDEN
 62
     7
370
     0
100
AcDbLine
 10
86.6994416174
 20
84.8332048824
 30
0.0
 11
86.8832869301
 21
84.8513942249
 31
0.0
  0
LINE
  5
138
330
1F
100
AcDbEntity
  8
0
  6
HIDDEN
 62
     7
370
     0
100
AcDbLine
 10
86.8832842316
 20
130.9502698217
 30
0.0
 11
86.7092109511
 21
130.9674793476
 31
0.0
  0
SPLINE
  5
139
330
1F
100
AcDbEntity
  8
0
  6
HIDDEN
 62
     7
370
     0
100
AcDbSpline
210
0.0
220
0.0
230
1.0
 70
     8
 71
     3
 72
    20
 73
    16
 74
     0
 42
0.00000001
 43
0.00000001
 40
0.0
 40
0.0
 40
0.0
 40
0.0
 40
0.0004889684280515
 40
0.1018319933920969
 40
0.1702475582146014
 40
0.2503692056770022
 40
0.3209568221778694
 40
0.3861816196697952
 40
0.5002554836816518
 40
0.6012243489253606
 40
0.6697680558604869
 40
0.7502401907580438
 40
0.8220490693851532
 40
0.8877204546109767
 40
1.0
 40
1.0
 40
1.0
 40
1.0
 10
85.79034873734386
 20
131.0792681930875
 30
0.0
 10
85.79004509634699
 20
131.0793197802377
 30
0.0
 10
85.72680917718466
 20
131.0900632598503
 30
0.0
 10
85.92001321097396
 20
131.0512072691876
 30
0.0
 10
86.30696026588132
 20
131.0061837787851
 30
0.0
 10
86.84796718920434
 20
130.9499208166953
 30
0.0
 10
87.51546745066217
 20
130.9019896241045
 30
0.0
 10
88.4012953020124
 20
130.8749161683777
 30
0.0
 10
89.51210187408873
 20
130.8867421719488
 30
0.0
 10
90.62417224010643
 20
131.0041912471001
 30
0.0
 10
91.51527254631006
 20
131.125895635341
 30
0.0
 10
92.20075699714789
 20
131.24871668092
 30
0.0
 10
92.72874489670075
 20
131.3621549326067
 30
0.0
 10
93.17612884818466
 20
131.4658954882474
 30
0.0
 10
93.24493931453567
 20
131.487318281521
 30
0.0
 10
93.28835582184588
 20
131.5008351621656
 30
0.0
  0
LINE
  5
13A
330
1F
100
AcDbEntity
  8
0
  6
HIDDEN
 62
     7
370
     0
100
AcDbLine
 10
162.9894297046
 20
92.4782170081
 30
0.0
 11
157.9894297046
 21
92.4782170081
 31
0.0
  0
LINE
  5
13B
330
1F
100
AcDbEntity
  8
0
  6
HIDDEN
 62
     7
370
     0
100
AcDbLine
 10
160.4894297046
 20
123.3235164697
 30
0.0
 11
162.9894297046
 21
123.3235164697
 31
0.0
  0
LINE
  5
13C
330
1F
100
AcDbEntity
  8
0
  6
HIDDEN
 62
     7
370
     0
100
AcDbLine
 10
157.9894297046
 20
123.3235164697
 30
0.0
 11
160.4894297046
 21
123.3235164697
 31
0.0
  0
LINE
  5
13D
330
1F
100
AcDbEntity
  8
0
  6
HIDDEN
 62
     7
370
     0
100
AcDbLine
 10
160.4894297046
 20
114.9008667389
 30
0.0
 11
162.9894297046
 21
114.9008667389
 31
0.0
  0
LINE
  5
13E
330
1F
100
AcDbEntity
  8
0
  6
HIDDEN
 62
     7
370
     0
100
AcDbLine
 10
157.9894297046
 20
114.9008667389
 30
0.0
 11
160.4894297046
 21
114.9008667389
 31
0.0
  0
LINE
  5
13F
330
1F
100
AcDbEntity
  8
0
  6
HIDDEN
 62
     7
370
     0
100
AcDbLine
 10
160.4392278075
 20
113.4413227255
 30
0.0
 11
160.4329439963
 21
113.4413861903
 31
0.0
  0
SPLINE
  5
140
330
1F
100
AcDbEntity
  8
0
  6
HIDDEN
 62
     7
370
     0
100
AcDbSpline
210
0.0
220
0.0
230
1.0
 70
     8
 71
     3
 72
    17
 73
    13
 74
     0
 42
0.00000001
 43
0.00000001
 40
0.0
 40
0.0
 40
0.0
 40
0.0
 40
0.0693389679463186
 40
0.1750698466443279
 40
0.2812597981484518
 40
0.388434052143022
 40
0.4966829848269128
 40
0.605639989185971
 40
0.7146391669755301
 40
0.8229863745441424
 40
0.9302569768493784
 40
0.9999999999999999
 40
0.9999999999999999
 40
0.9999999999999999
 40
0.9999999999999999
 10
160.4190431752913
 20
113.4415378190542
 30
0.0
 10
160.4190193933768
 20
113.4415380422085
 30
0.0
 10
160.4189593478316
 20
113.4415386056377
 30
0.0
 10
160.427837049389
 20
113.4414304033772
 30
0.0
 10
160.4435203307163
 20
113.441276189473
 30
0.0
 10
160.4646972563609
 20
113.441138401517
 30
0.0
 10
160.4887221231281
 20
113.4410822619305
 30
0.0
 10
160.5129686199291
 20
113.4411327013369
 30
0.0
 10
160.5346557652729
 20
113.4412700607382
 30
0.0
 10
160.5507966151381
 20
113.4414276811682
 30
0.0
 10
160.5598848101914
 20
113.4415384109197
 30
0.0
 10
160.5598349158164
 20
113.4415379784264
 30
0.0
 10
160.55981525753
 20
113.4415378080249
 30
0.0
  0
LINE
  5
141
330
1F
100
AcDbEntity
  8
0
  6
HIDDEN
 62
     7
370
     0
100
AcDbLine
 10
160.4392278075
 20
102.3604107523
 30
0.0
 11
160.4475716473
 21
102.3604703003
 31
0.0
  0
SPLINE
  5
142
330
1F
100
AcDbEntity
  8
0
  6
HIDDEN
 62
     7
370
     0
100
AcDbSpline
210
0.0
220
0.0
230
1.0
 70
     8
 71
     3
 72
    18
 73
    14
 74
     0
 42
0.00000001
 43
0.00000001
 40
0.0
 40
0.0
 40
0.0
 40
0.0
 40
0.0068104431977525
 40
0.1125810039551112
 40
0.218376756285731
 40
0.3248882008922697
 40
0.4324787997260768
 40
0.5410438632917786
 40
0.650067634087311
 40
0.7588365147497037
 40
0.8667326609848475
 40
0.973510719239354
 40
1.0
 40
1.0
 40
1.0
 40
1.0
 10
160.5604778373551
 20
102.360187357365
 30
0.0
 10
160.5605569202601
 20
102.3601863845509
 30
0.0
 10
160.5618642115164
 20
102.3601703033083
 30
0.0
 10
160.5569663672734
 20
102.3602324087936
 30
0.0
 10
160.5456119861033
 20
102.3603609937262
 30
0.0
 10
160.5271425540886
 20
102.3605206452004
 30
0.0
 10
160.5045893249435
 20
102.3606300311599
 30
0.0
 10
160.480092027326
 20
102.3606433990711
 30
0.0
 10
160.4566104617768
 20
102.3605527870556
 30
0.0
 10
160.4367013884793
 20
102.3603958271053
 30
0.0
 10
160.423537989142
 20
102.3602527828356
 30
0.0
 10
160.4175331152188
 20
102.3601768458617
 30
0.0
 10
160.4186627366508
 20
102.3601908905301
 30
0.0
 10
160.4188872692294
 20
102.3601936821606
 30
0.0
  0
LINE
  5
143
330
1F
100
AcDbEntity
  8
0
  6
HIDDEN
 62
     7
370
     0
100
AcDbLine
 10
162.9894297046
 20
100.9008667389
 30
0.0
 11
157.9894297046
 21
100.9008667389
 31
0.0
  0
SPLINE
  5
144
330
1F
100
AcDbEntity
  8
0
  6
HIDDEN
 62
     7
370
     0
100
AcDbSpline
210
0.0
220
0.0
230
1.0
 70
     8
 71
     3
 72
    36
 73
    32
 74
     0
 42
0.00000001
 43
0.00000001
 40
0.0
 40
0.0
 40
0.0
 40
0.0
 40
0.0412142186759404
 40
0.0838358591896779
 40
0.1250115790082914
 40
0.1671937345915883
 40
0.1957202523930277
 40
0.2244664419833775
 40
0.2538260104882964
 40
0.2833688191076283
 40
0.3125743130236926
 40
0.3419428125961493
 40
0.3718585396618572
 40
0.4020029235047922
 40
0.434704872303756
 40
0.4680519420768831
 40
0.500834733291965
 40
0.5349286611035294
 40
0.5631358069580673
 40
0.591944100406345
 40
0.6414631340811978
 40
0.6923057327450133
 40
0.7449861070698274
 40
0.7987947992598663
 40
0.8463872362165474
 40
0.8952224028960409
 40
0.9189772193187667
 40
0.9429425359063573
 40
0.9676281180500858
 40
0.9925852656495838
 40
1.0
 40
1.0
 40
1.0
 40
1.0
 10
185.5394297045588
 20
117.339376891971
 30
0.0
 10
185.5374881716178
 20
117.3417814728842
 30
0.0
 10
185.533538804446
 20
117.3466727485972
 30
0.0
 10
185.5024441660378
 20
117.3853962465649
 30
0.0
 10
185.4554333420729
 20
117.4446891804684
 30
0.0
 10
185.4011068007187
 20
117.5145223675588
 30
0.0
 10
185.3460973393768
 20
117.586996487328
 30
0.0
 10
185.294403736666
 20
117.6568022795203
 30
0.0
 10
185.2393322604881
 20
117.7335749757913
 30
0.0
 10
185.1822488223739
 20
117.8165262024486
 30
0.0
 10
185.1246049569372
 20
117.9049441218204
 30
0.0
 10
185.0674465003528
 20
117.9991046595185
 30
0.0
 10
185.0120162741064
 20
118.0998525918938
 30
0.0
 10
184.9591715571929
 20
118.2104970862983
 30
0.0
 10
184.9126235904514
 20
118.3322547765292
 30
0.0
 10
184.878768441518
 20
118.4648257766105
 30
0.0
 10
184.8646348017574
 20
118.6047986549174
 30
0.0
 10
184.8741705542153
 20
118.7382431760604
 30
0.0
 10
184.9019928554759
 20
118.861583786071
 30
0.0
 10
184.9500057614562
 20
118.9986931271564
 30
0.0
 10
185.0260526930266
 20
119.1520603038162
 30
0.0
 10
185.1274735089698
 20
119.3150465126398
 30
0.0
 10
185.2336060504925
 20
119.464368984277
 30
0.0
 10
185.3318299568673
 20
119.5915628504543
 30
0.0
 10
185.4159030888513
 20
119.6952203742104
 30
0.0
 10
185.4700902613586
 20
119.7599646342226
 30
0.0
 10
185.5028845036915
 20
119.7986405774898
 30
0.0
 10
185.5219570411033
 20
119.8209685647428
 30
0.0
 10
185.5339227902729
 20
119.8349086784819
 30
0.0
 10
185.5405370799432
 20
119.8425934782195
 30
0.0
 10
185.5384625876396
 20
119.8401814875452
 30
0.0
 10
185.5379874280746
 20
119.8396290244498
 30
0.0
  0
SPLINE
  5
145
330
1F
100
AcDbEntity
  8
0
  6
HIDDEN
 62
     7
370
     0
100
AcDbSpline
210
0.0
220
0.0
230
1.0
 70
     8
 71
     3
 72
    10
 73
     6
 74
     0
 42
0.00000001
 43
0.00000001
 40
0.0
 40
0.0
 40
0.0
 40
0.0
 40
0.3026314160083468
 40
0.7588357203606912
 40
1.0
 40
1.0
 40
1.0
 40
1.0
 10
182.5429585555679
 20
119.8278753927472
 30
0.0
 10
182.5430450448539
 20
119.827904867481
 30
0.0
 10
182.5432619131503
 20
119.8279787741531
 30
0.0
 10
182.5742393326156
 20
119.8364943538111
 30
0.0
 10
182.6083295318982
 20
119.8523704317286
 30
0.0
 10
182.6201186181025
 20
119.8578607032756
 30
0.0
  0
SPLINE
  5
146
330
1F
100
AcDbEntity
  8
0
  6
HIDDEN
 62
     7
370
     0
100
AcDbSpline
210
0.0
220
0.0
230
1.0
 70
     8
 71
     3
 72
    28
 73
    24
 74
     0
 42
0.00000001
 43
0.00000001
 40
0.0
 40
0.0
 40
0.0
 40
0.0
 40
0.0009226336077019
 40
0.0497723604003177
 40
0.0941872649950247
 40
0.1397247581106335
 40
0.1876965976085828
 40
0.2366559380810997
 40
0.2940345438251672
 40
0.3525705444224947
 40
0.4083427951639268
 40
0.4653815754032469
 40
0.5004134615345721
 40
0.5362690999383132
 40
0.5713704329916385
 40
0.6077333217656635
 40
0.6500257938007683
 40
0.6934941368970376
 40
0.7617653176676669
 40
0.8319032389477303
 40
0.9025101008985469
 40
0.9755069217528602
 40
1.0
 40
1.0
 40
1.0
 40
1.0
 10
182.5396225950127
 20
117.457471607282
 30
0.0
 10
182.5395584536167
 20
117.4573969893972
 30
0.0
 10
182.5360982841094
 20
117.4533716555888
 30
0.0
 10
182.5481920350668
 20
117.4674145763174
 30
0.0
 10
182.5759346056566
 20
117.4998159599005
 30
0.0
 10
182.6216892381549
 20
117.5538876948657
 30
0.0
 10
182.6824657875044
 20
117.6271686991115
 30
0.0
 10
182.7605392574748
 20
117.7242194750201
 30
0.0
 10
182.8535765752169
 20
117.8455622635965
 30
0.0
 10
182.95542632187
 20
117.9897146936831
 30
0.0
 10
183.0549666220142
 20
118.150512390764
 30
0.0
 10
183.1312965180692
 20
118.3050074367642
 30
0.0
 10
183.1811123081779
 20
118.4502600256314
 30
0.0
 10
183.2070832945894
 20
118.577354944884
 30
0.0
 10
183.2133358825505
 20
118.7097941835813
 30
0.0
 10
183.1975159073818
 20
118.8490873194368
 30
0.0
 10
183.1583176995562
 20
118.9922260812323
 30
0.0
 10
183.0886538857462
 20
119.1607613830875
 30
0.0
 10
182.9887160084644
 20
119.3420676187116
 30
0.0
 10
182.8673005667283
 20
119.5272842954871
 30
0.0
 10
182.7486693816778
 20
119.6914426857231
 30
0.0
 10
182.6668758356758
 20
119.7981979273693
 30
0.0
 10
182.6295070443693
 20
119.8458809576547
 30
0.0
 10
182.6201186181025
 20
119.8578607032756
 30
0.0
  0
LINE
  5
147
330
1F
100
AcDbEntity
  8
0
  6
HIDDEN
 62
     7
370
     0
100
AcDbLine
 10
185.5394297046
 20
120.4008667389
 30
0.0
 11
182.5394297046
 21
120.4008667389
 31
0.0
  0
LWPOLYLINE
  5
148
330
1F
100
AcDbEntity
  8
0
  6
HIDDEN
 62
     7
370
     0
100
AcDbPolyline
 90
       25
 70
   128
 43
0.0
 10
185.5379874281
 20
95.9621044533
 10
185.5329713832
 20
95.9679372989
 10
185.5070126401
 20
95.9982755662
 10
185.4660597765
 20
96.0466772787
 10
185.4103081799
 20
96.1137771308
 10
185.3179213624
 20
96.2287779268
 10
185.209870721
 20
96.3717118192
 10
185.098356261
 20
96.534899851
 10
184.9901175935
 20
96.7243621022
 10
184.9353867028
 20
96.8479286854
 10
184.8930942359
 20
96.9827568049
 10
184.8730169174
 20
97.099307515
 10
184.8693923527
 20
97.2216731673
 10
184.882759393
 20
97.3396744456
 10
184.9113653168
 20
97.4566858828
 10
184.9779321428
 20
97.6293140265
 10
185.0620797867
 20
97.7916915325
 10
185.1874129611
 20
97.9921295847
 10
185.3132118242
 20
98.1702148641
 10
185.3952227271
 20
98.2792489502
 10
185.4648294757
 20
98.3687798641
 10
185.5063821659
 20
98.4211718163
 10
185.532340033
 20
98.4535549479
 10
185.5394297046
 20
98.4623565858
 10
185.5394297046
 20
98.4623565858
  0
LINE
  5
149
330
1F
100
AcDbEntity
  8
0
  6
HIDDEN
 62
     7
370
     0
100
AcDbLine
 10
184.0394297046
 20
95.9008667389
 30
0.0
 11
185.5394297046
 21
95.9008667389
 31
0.0
  0
LINE
  5
14A
330
1F
100
AcDbEntity
  8
0
  6
HIDDEN
 62
     7
370
     0
100
AcDbLine
 10
182.5394297046
 20
95.9008667389
 30
0.0
 11
184.0394297046
 21
95.9008667389
 31
0.0
  0
SPLINE
  5
14B
330
1F
100
AcDbEntity
  8
0
  6
HIDDEN
 62
     7
370
     0
100
AcDbSpline
210
0.0
220
0.0
230
1.0
 70
     8
 71
     3
 72
    10
 73
     6
 74
     0
 42
0.00000001
 43
0.00000001
 40
0.0
 40
0.0
 40
0.0
 40
0.0
 40
0.4231540259894942
 40
0.8575207044506926
 40
1.0
 40
1.0
 40
1.0
 40
1.0
 10
182.6201186181025
 20
95.94387277451433
 30
0.0
 10
182.6006954812194
 20
95.95247492342621
 30
0.0
 10
182.5613345369778
 20
95.9699071593064
 30
0.0
 10
182.5380333813928
 20
95.9751497488733
 30
0.0
 10
182.5419830089319
 20
95.97411392945757
 30
0.0
 10
182.542958555568
 20
95.97385808504275
 30
0.0
  0
SPLINE
  5
14C
330
1F
100
AcDbEntity
  8
0
  6
HIDDEN
 62
     7
370
     0
100
AcDbSpline
210
0.0
220
0.0
230
1.0
 70
     8
 71
     3
 72
    26
 73
    22
 74
     0
 42
0.00000001
 43
0.00000001
 40
0.0
 40
0.0
 40
0.0
 40
0.0
 40
0.0621414425335504
 40
0.1263791547706045
 40
0.1883973073355939
 40
0.2516910112799853
 40
0.3019186141872274
 40
0.3531168608029077
 40
0.3877513465274088
 40
0.423240951643971
 40
0.4579380902054321
 40
0.4938371704945192
 40
0.5373939267941708
 40
0.5821512230818755
 40
0.6494245966400307
 40
0.7185832660867119
 40
0.7869932854978743
 40
0.8578672733761081
 40
0.905108266148652
 40
0.9536395479215954
 40
1.0
 40
1.0
 40
1.0
 40
1.0
 10
182.6201186181025
 20
95.94387277451438
 30
0.0
 10
182.645311484032
 20
95.97612453428901
 30
0.0
 10
182.6965470680901
 20
96.04171602965837
 30
0.0
 10
182.7961385930826
 20
96.1749310125294
 30
0.0
 10
182.9035724915324
 20
96.32816370379646
 30
0.0
 10
183.0050477156013
 20
96.4884427099232
 30
0.0
 10
183.0938567446596
 20
96.65371859922922
 30
0.0
 10
183.1560412891838
 20
96.80254290916717
 30
0.0
 10
183.1949923488775
 20
96.94435822709305
 30
0.0
 10
183.2122767622097
 20
97.07215784284865
 30
0.0
 10
183.2094927256407
 20
97.20321479107332
 30
0.0
 10
183.1847865516378
 20
97.34103844971177
 30
0.0
 10
183.1366863216166
 20
97.4826542432478
 30
0.0
 10
183.0581396855432
 20
97.64611549990242
 30
0.0
 10
182.9526505573333
 20
97.81748363237091
 30
0.0
 10
182.8310508688899
 20
97.98697114370184
 30
0.0
 10
182.7164299906628
 20
98.13336012388014
 30
0.0
 10
182.6311074993058
 20
98.23669184247098
 30
0.0
 10
182.5761440048833
 20
98.30169341139954
 30
0.0
 10
182.5451541436213
 20
98.33784608819582
 30
0.0
 10
182.5414381074063
 20
98.34215614331889
 30
0.0
 10
182.5396225950127
 20
98.34426187050795
 30
0.0
  0
SPLINE
  5
14D
330
1F
100
AcDbEntity
  8
0
  6
HIDDEN
 62
     7
370
     0
100
AcDbSpline
210
0.0
220
0.0
230
1.0
 70
    27
 71
     3
 72
     8
 73
     4
 74
     0
 42
0.00000001
 43
0.00000001
 40
0.0
 40
0.0
 40
0.0
 40
0.0
 40
1.0
 40
1.0
 40
1.0
 40
1.0
 10
182.6236020237475
 20
95.8552141805234
 30
0.0
 10
182.618069771841
 20
95.8519736869785
 30
0.0
 10
182.618069771841
 20
95.8519736869785
 30
0.0
 10
182.6236020237475
 20
95.8552141805234
 30
0.0
  0
SPLINE
  5
14E
330
1F
100
AcDbEntity
  8
0
  6
HIDDEN
 62
     7
370
     0
100
AcDbSpline
210
0.0
220
0.0
230
1.0
 70
    27
 71
     3
 72
     8
 73
     4
 74
     0
 42
0.00000001
 43
0.00000001
 40
0.0
 40
0.0
 40
0.0
 40
0.0
 40
1.0
 40
1.0
 40
1.0
 40
1.0
 10
182.6236020237475
 20
95.85521418052336
 30
0.0
 10
182.6328719748356
 20
95.84320272170271
 30
0.0
 10
182.6328617688212
 20
95.84321594605741
 30
0.0
 10
182.6236020237475
 20
95.85521418052339
 30
0.0
  0
LINE
  5
14F
330
1F
100
AcDbEntity
  8
0
  6
HIDDEN
 62
     7
370
     0
100
AcDbLine
 10
182.5258192678
 20
117.4577819685
 30
0.0
 11
182.6201186181
 21
119.8578607033
 31
0.0
  0
LINE
  5
150
330
1F
100
AcDbEntity
  8
0
  6
HIDDEN
 62
     7
370
     0
100
AcDbLine
 10
182.5258192678
 20
98.3439515093
 30
0.0
 11
182.6201186181
 21
95.9438727745
 31
0.0
  0
LINE
  5
151
330
1F
100
AcDbEntity
  8
0
  6
HIDDEN
 62
     7
370
     0
100
AcDbLine
 10
182.6236020237
 20
95.8552141805
 30
0.0
 11
182.6239688072
 21
95.8458789187
 31
0.0
  0
SPLINE
  5
152
330
1F
100
AcDbEntity
  8
0
  6
HIDDEN
 62
     7
370
     0
100
AcDbSpline
210
0.0
220
0.0
230
1.0
 70
     8
 71
     3
 72
     8
 73
     4
 74
     0
 42
0.00000001
 43
0.00000001
 40
0.0
 40
0.0
 40
0.0
 40
0.0
 40
0.000159097695343
 40
0.000159097695343
 40
0.000159097695343
 40
0.000159097695343
 10
67.9245977137768
 20
92.09937630286333
 30
0.0
 10
67.87954624327246
 20
92.07139741853955
 30
0.0
 10
67.83449020485766
 20
92.04342588816446
 30
0.0
 10
67.78942970455878
 20
92.01546154881196
 30
0.0
  0
SPLINE
  5
153
330
1F
100
AcDbEntity
  8
0
  6
HIDDEN
 62
     7
370
     0
100
AcDbSpline
210
0.0
220
0.0
230
1.0
 70
     8
 71
     3
 72
    11
 73
     7
 74
     0
 42
0.00000001
 43
0.00000001
 40
0.0
 40
0.0
 40
0.0
 40
0.0
 40
0.0008212909311457
 40
0.0008212909311457
 40
0.0008212909311457
 40
0.001642825724306
 40
0.001642825724306
 40
0.001642825724306
 40
0.001642825724306
 10
67.78942970455878
 20
92.01546154881196
 30
0.0
 10
67.5982846830766
 20
91.97217535995941
 30
0.0
 10
67.40686634740013
 20
91.93123885032213
 30
0.0
 10
67.21522027273896
 20
91.89263707893554
 30
0.0
 10
67.02351719119737
 20
91.85402382509844
 30
0.0
 10
66.83157206791185
 20
91.81774361581243
 30
0.0
 10
66.6394297045587
 20
91.78377670946094
 30
0.0
  0
LINE
  5
154
330
1F
100
AcDbEntity
  8
0
  6
HIDDEN
 62
     7
370
     0
100
AcDbLine
 10
114.6294297046
 20
128.0367333704
 30
0.0
 11
114.6294297046
 21
127.7508667389
 31
0.0
  0
LINE
  5
155
330
1F
100
AcDbEntity
  8
0
  6
HIDDEN
 62
     7
370
     0
100
AcDbLine
 10
118.4494297046
 20
128.0449414069
 30
0.0
 11
118.4494297046
 21
127.7508667389
 31
0.0
  0
LINE
  5
156
330
1F
100
AcDbEntity
  8
0
  6
HIDDEN
 62
     7
370
     0
100
AcDbLine
 10
119.931362536
 20
132.3595564013
 30
0.0
 11
119.931362536
 21
127.7508667389
 31
0.0
  0
SPLINE
  5
157
330
1F
100
AcDbEntity
  8
0
  6
HIDDEN
 62
     7
370
     0
100
AcDbSpline
210
0.0
220
0.0
230
1.0
 70
     8
 71
     3
 72
    24
 73
    20
 74
     0
 42
0.00000001
 43
0.00000001
 40
0.0
 40
0.0
 40
0.0
 40
0.0
 40
0.2499999999999937
 40
0.2499999999999937
 40
0.3749999999999912
 40
0.3749999999999912
 40
0.4374999999999901
 40
0.4374999999999901
 40
0.4687499999999891
 40
0.4687499999999891
 40
0.4999999999999881
 40
0.4999999999999881
 40
0.5624999999999888
 40
0.5624999999999888
 40
0.6249999999999893
 40
0.6249999999999893
 40
0.749999999999992
 40
0.749999999999992
 40
1.0
 40
1.0
 40
1.0
 40
1.0
 10
66.70209307928219
 20
88.22631419411424
 30
0.0
 10
66.71584619795243
 20
88.29696425210452
 30
0.0
 10
66.73361876535827
 20
88.36356236486945
 30
0.0
 10
66.78586985691365
 20
88.43766038510265
 30
0.0
 10
66.80690493249519
 20
88.4589181922642
 30
0.0
 10
66.85980534012363
 20
88.46706411841043
 30
0.0
 10
66.88091101300157
 20
88.46612431501467
 30
0.0
 10
66.92696318167951
 20
88.44510832343732
 30
0.0
 10
66.94533365366289
 20
88.43419951732973
 30
0.0
 10
66.98688528872859
 20
88.40156460638235
 30
0.0
 10
67.00945196148551
 20
88.38007262601099
 30
0.0
 10
67.07223297794555
 20
88.31160668242468
 30
0.0
 10
67.1053627389134
 20
88.2655322242196
 30
0.0
 10
67.16228042539844
 20
88.18052433588491
 30
0.0
 10
67.18646645090222
 20
88.14024403470354
 30
0.0
 10
67.25167440128196
 20
88.02530780823759
 30
0.0
 10
67.28639046147322
 20
87.95472482309059
 30
0.0
 10
67.3796057318041
 20
87.75051906401197
 30
0.0
 10
67.42527826716479
 20
87.6276206816846
 30
0.0
 10
67.46358335066333
 20
87.51074740529704
 30
0.0
  0
SPLINE
  5
158
330
1F
100
AcDbEntity
  8
0
  6
HIDDEN
 62
     7
370
     0
100
AcDbSpline
210
0.0
220
0.0
230
1.0
 70
     8
 71
     3
 72
    11
 73
     7
 74
     0
 42
0.00000001
 43
0.00000001
 40
0.0
 40
0.0
 40
0.0
 40
0.0
 40
0.0005781862223978
 40
0.0005781862223978
 40
0.0005781862223978
 40
0.0011563724723928
 40
0.0011563724723928
 40
0.0011563724723928
 40
0.0011563724723928
 10
67.63942970455878
 20
120.5410090459417
 30
0.0
 10
67.47276915028316
 20
120.6055385573553
 30
0.0
 10
67.30610585337669
 20
120.6700412611991
 30
0.0
 10
67.13943926954646
 20
120.7345277096328
 30
0.0
 10
66.97277267728738
 20
120.7990141613277
 30
0.0
 10
66.80610281166148
 20
120.8634841700558
 30
0.0
 10
66.63942970455875
 20
120.9279399367884
 30
0.0
  0
SPLINE
  5
159
330
1F
100
AcDbEntity
  8
0
  6
HIDDEN
 62
     7
370
     0
100
AcDbSpline
210
0.0
220
0.0
230
1.0
 70
     8
 71
     3
 72
    11
 73
     7
 74
     0
 42
0.00000001
 43
0.00000001
 40
0.0
 40
0.0
 40
0.0
 40
0.0
 40
0.0005778746105108
 40
0.0005778746105108
 40
0.0005778746105108
 40
0.0011557494857226
 40
0.0011557494857226
 40
0.0011557494857226
 40
0.0011557494857226
 10
66.63942970455876
 20
94.87364488340508
 30
0.0
 10
66.80609658097208
 20
94.93945701009895
 30
0.0
 10
66.97276330053356
 20
95.00531549023657
 30
0.0
 10
67.1394299485822
 20
95.07122306316721
 30
0.0
 10
67.30609667310087
 20
95.13713066633755
 30
0.0
 10
67.47276336752145
 20
95.20308777472603
 30
0.0
 10
67.6394297045588
 20
95.26908951464875
 30
0.0
  0
SPLINE
  5
15A
330
1F
100
AcDbEntity
  8
0
  6
HIDDEN
 62
     7
370
     0
100
AcDbSpline
210
0.0
220
0.0
230
1.0
 70
     8
 71
     3
 72
    11
 73
     7
 74
     0
 42
0.00000001
 43
0.00000001
 40
0.0000000000000006
 40
0.0000000000000006
 40
0.0000000000000006
 40
0.0000000000000006
 40
0.0005780486062768
 40
0.0005780486062768
 40
0.0005780486062768
 40
0.0011560973514127
 40
0.0011560973514127
 40
0.0011560973514127
 40
0.0011560973514127
 10
66.63942970455876
 20
117.8816812405867
 30
0.0
 10
66.80609956060368
 20
117.8193093790722
 30
0.0
 10
66.97276726468795
 20
117.7569555187745
 30
0.0
 10
67.13943356914159
 20
117.6946359585884
 30
0.0
 10
67.30609990983532
 20
117.6323163848515
 30
0.0
 10
67.4727648664641
 20
117.570031180532
 30
0.0
 10
67.63942970455878
 20
117.5078060599633
 30
0.0
  0
SPLINE
  5
15B
330
1F
100
AcDbEntity
  8
0
  6
HIDDEN
 62
     7
370
     0
100
AcDbSpline
210
0.0
220
0.0
230
1.0
 70
     8
 71
     3
 72
    11
 73
     7
 74
     0
 42
0.00000001
 43
0.00000001
 40
0.0
 40
0.0
 40
0.0
 40
0.0
 40
0.0005782401583533
 40
0.0005782401583533
 40
0.0005782401583533
 40
0.0011564805960992
 40
0.0011564805960992
 40
0.0011564805960992
 40
0.0011564805960992
 10
67.63942970455878
 20
98.30003994649734
 30
0.0
 10
67.47277875420987
 20
98.23661448843654
 30
0.0
 10
67.30611916162722
 20
98.17325896478127
 30
0.0
 10
67.13945210919867
 20
98.10996138043129
 30
0.0
 10
66.97278497263486
 20
98.04666376412803
 30
0.0
 10
66.80611036518879
 20
97.98342396918731
 30
0.0
 10
66.63942970455872
 20
97.92022396254849
 30
0.0
  0
CIRCLE
  5
15C
330
1F
100
AcDbEntity
  8
0
  6
HIDDEN
 62
     7
370
     0
100
AcDbCircle
 10
105.5394297046
 20
107.9008667389
 30
0.0
 40
5.000000000000014
  0
LINE
  5
15D
330
1F
100
AcDbEntity
  8
0
  6
HIDDEN
 62
     7
370
     0
100
AcDbLine
 10
228.4580526676
 20
97.5976290367
 30
0.0
 11
228.4659423946
 21
97.3968220767
 31
0.0
  0
LINE
  5
15E
330
1F
100
AcDbEntity
  8
0
  6
HIDDEN
 62
     7
370
     0
100
AcDbLine
 10
228.3481629473
 20
100.3945091854
 30
0.0
 11
228.4580526676
 21
97.5976290367
 31
0.0
  0
LINE
  5
15F
330
1F
100
AcDbEntity
  8
0
  6
HIDDEN
 62
     7
370
     0
100
AcDbLine
 10
223.1241148637
 20
97.3880580496
 30
0.0
 11
223.1320045907
 21
97.1872510896
 31
0.0
  0
LINE
  5
160
330
1F
100
AcDbEntity
  8
0
  6
HIDDEN
 62
     7
370
     0
100
AcDbLine
 10
223.0142251434
 20
100.1849381984
 30
0.0
 11
223.1241148637
 21
97.3880580496
 31
0.0
  0
LINE
  5
161
330
1F
100
AcDbEntity
  8
0
  6
HIDDEN
 62
     7
370
     0
100
AcDbLine
 10
222.6075003467
 20
97.8011070065
 30
0.0
 11
222.6127601647
 21
97.6672356999
 31
0.0
  0
LINE
  5
162
330
1F
100
AcDbEntity
  8
0
  6
HIDDEN
 62
     7
370
     0
100
AcDbLine
 10
222.5342405332
 20
99.6656937724
 30
0.0
 11
222.6075003467
 21
97.8011070065
 31
0.0
  0
LINE
  5
163
330
1F
100
AcDbEntity
  8
0
  6
HIDDEN
 62
     7
370
     0
100
AcDbLine
 10
228.5209972211
 20
100.1205834404
 30
0.0
 11
228.5394297046
 21
99.6514454078
 31
0.0
  0
LINE
  5
164
330
1F
100
AcDbEntity
  8
0
  6
HIDDEN
 62
     7
370
     0
100
AcDbLine
 10
226.5704164939
 20
98.8235039991
 30
0.0
 11
226.5998613557
 21
98.074082222
 31
0.0
  0
LINE
  5
165
330
1F
100
AcDbEntity
  8
0
  6
HIDDEN
 62
     7
370
     0
100
AcDbLine
 10
226.5704164939
 20
98.8235039991
 30
0.0
 11
226.5409716321
 21
99.5729257763
 31
0.0
  0
LINE
  5
166
330
1F
100
AcDbEntity
  8
0
  6
HIDDEN
 62
     7
370
     0
100
AcDbLine
 10
226.5704164939
 20
98.8235039991
 30
0.0
 11
228.5688745664
 21
98.9020236307
 31
0.0
  0
LINE
  5
167
330
1F
100
AcDbEntity
  8
0
  6
HIDDEN
 62
     7
370
     0
100
AcDbLine
 10
226.5409716321
 20
99.5729257763
 30
0.0
 11
228.5394297046
 21
99.6514454078
 31
0.0
  0
LINE
  5
168
330
1F
100
AcDbEntity
  8
0
  6
HIDDEN
 62
     7
370
     0
100
AcDbLine
 10
226.5998613557
 20
98.074082222
 30
0.0
 11
228.5983194282
 21
98.1526018535
 31
0.0
  0
LINE
  5
169
330
1F
100
AcDbEntity
  8
0
  6
HIDDEN
 62
     7
370
     0
100
AcDbLine
 10
228.4070526709
 20
118.4072251846
 30
0.0
 11
228.2892732237
 21
115.4095380759
 31
0.0
  0
LINE
  5
16A
330
1F
100
AcDbEntity
  8
0
  6
HIDDEN
 62
     7
370
     0
100
AcDbLine
 10
223.0731148671
 20
118.6167961717
 30
0.0
 11
222.9553354198
 21
115.619109063
 31
0.0
  0
LINE
  5
16B
330
1F
100
AcDbEntity
  8
0
  6
HIDDEN
 62
     7
370
     0
100
AcDbLine
 10
228.5394297046
 20
117.6514454078
 30
0.0
 11
228.4621074974
 21
115.683463821
 31
0.0
  0
LINE
  5
16C
330
1F
100
AcDbEntity
  8
0
  6
HIDDEN
 62
     7
370
     0
100
AcDbLine
 10
222.5538704411
 20
118.1368115615
 30
0.0
 11
222.4753508095
 21
116.138353489
 31
0.0
  0
LINE
  5
16D
330
1F
100
AcDbEntity
  8
0
  6
HIDDEN
 62
     7
370
     0
100
AcDbLine
 10
226.5115267703
 20
116.9805432622
 30
0.0
 11
226.4820819084
 21
116.231121485
 31
0.0
  0
LINE
  5
16E
330
1F
100
AcDbEntity
  8
0
  6
HIDDEN
 62
     7
370
     0
100
AcDbLine
 10
226.5115267703
 20
116.9805432622
 30
0.0
 11
228.5099848427
 21
116.9020236307
 31
0.0
  0
LINE
  5
16F
330
1F
100
AcDbEntity
  8
0
  6
HIDDEN
 62
     7
370
     0
100
AcDbLine
 10
226.5409716321
 20
117.7299650394
 30
0.0
 11
226.5115267703
 21
116.9805432622
 31
0.0
  0
LINE
  5
170
330
1F
100
AcDbEntity
  8
0
  6
HIDDEN
 62
     7
370
     0
100
AcDbLine
 10
226.5409716321
 20
117.7299650394
 30
0.0
 11
228.5394297046
 21
117.6514454078
 31
0.0
  0
LINE
  5
171
330
1F
100
AcDbEntity
  8
0
  6
HIDDEN
 62
     7
370
     0
100
AcDbLine
 10
226.4820819084
 20
116.231121485
 30
0.0
 11
228.4805399809
 21
116.1526018535
 31
0.0
  0
LINE
  5
172
330
1F
100
AcDbEntity
  8
0
  6
HIDDEN
 62
     7
370
     0
100
AcDbLine
 10
181.0394297046
 20
102.9008667389
 30
0.0
 11
181.5394297046
 21
103.4008667389
 31
0.0
  0
LINE
  5
173
330
1F
100
AcDbEntity
  8
0
  6
HIDDEN
 62
     7
370
     0
100
AcDbLine
 10
181.5394297046
 20
112.4008667389
 30
0.0
 11
181.0394297046
 21
112.9008667389
 31
0.0
  0
LINE
  5
174
330
1F
100
AcDbEntity
  8
0
  6
HIDDEN
 62
     7
370
     0
100
AcDbLine
 10
165.5394297046
 20
102.9008667389
 30
0.0
 11
181.0394297046
 21
102.9008667389
 31
0.0
  0
LINE
  5
175
330
1F
100
AcDbEntity
  8
0
  6
HIDDEN
 62
     7
370
     0
100
AcDbLine
 10
181.0394297046
 20
112.9008667389
 30
0.0
 11
165.5394297046
 21
112.9008667389
 31
0.0
  0
LINE
  5
176
330
1F
100
AcDbEntity
  8
0
  6
HIDDEN
 62
     7
370
     0
100
AcDbLine
 10
165.5394297046
 20
112.9008667389
 30
0.0
 11
165.0394297046
 21
112.4008667389
 31
0.0
  0
LINE
  5
177
330
1F
100
AcDbEntity
  8
0
  6
HIDDEN
 62
     7
370
     0
100
AcDbLine
 10
165.0394297046
 20
103.4008667389
 30
0.0
 11
165.5394297046
 21
102.9008667389
 31
0.0
  0
LINE
  5
178
330
1F
100
AcDbEntity
  8
0
  6
HIDDEN
 62
     7
370
     0
100
AcDbLine
 10
181.5394297046
 20
103.4008667389
 30
0.0
 11
185.0394297046
 21
103.4008667389
 31
0.0
  0
LINE
  5
179
330
1F
100
AcDbEntity
  8
0
  6
HIDDEN
 62
     7
370
     0
100
AcDbLine
 10
185.0394297046
 20
112.4008667389
 30
0.0
 11
181.5394297046
 21
112.4008667389
 31
0.0
  0
LINE
  5
17A
330
1F
100
AcDbEntity
  8
0
  6
HIDDEN
 62
     7
370
     0
100
AcDbLine
 10
171.0394297045
 20
105.4008667389
 30
0.0
 11
179.0394297046
 21
105.4008667389
 31
0.0
  0
LINE
  5
17B
330
1F
100
AcDbEntity
  8
0
  6
HIDDEN
 62
     7
370
     0
100
AcDbLine
 10
179.0394297046
 20
110.4008667389
 30
0.0
 11
171.0394297045
 21
110.4008667389
 31
0.0
  0
LINE
  5
17C
330
1F
100
AcDbEntity
  8
0
  6
HIDDEN
 62
     7
370
     0
100
AcDbLine
 10
102.5394297046
 20
122.2015318429
 30
0.0
 11
102.5394297046
 21
120.2948073818
 31
0.0
  0
LINE
  5
17D
330
1F
100
AcDbEntity
  8
0
  6
HIDDEN
 62
     7
370
     0
100
AcDbLine
 10
110.5394297046
 20
120.2948073818
 30
0.0
 11
110.5394297046
 21
122.2008111991
 31
0.0
  0
LINE
  5
17E
330
1F
100
AcDbEntity
  8
0
  6
HIDDEN
 62
     7
370
     0
100
AcDbLine
 10
98.5394297046
 20
82.5769355929
 30
0.0
 11
98.6335904801
 21
83.2469243241
 31
0.0
  0
LINE
  5
17F
330
1F
100
AcDbEntity
  8
0
  6
HIDDEN
 62
     7
370
     0
100
AcDbLine
 10
98.6335904801
 20
132.5548091537
 30
0.0
 11
98.5394297046
 21
133.2247978849
 31
0.0
  0
ARC
  5
180
330
1F
100
AcDbEntity
  8
0
  6
HIDDEN
 62
     7
370
     0
100
AcDbCircle
 10
98.0394229519
 20
83.3304291245
 30
0.0
 40
0.60000675266771
100
AcDbArc
 50
352.0
 51
0.0
  0
ARC
  5
181
330
1F
100
AcDbEntity
  8
0
  6
HIDDEN
 62
     7
370
     0
100
AcDbCircle
 10
98.0394229519
 20
83.3304291245
 30
0.0
 40
0.60000675266771
100
AcDbArc
 50
0.0
 51
33.5571153394
  0
ARC
  5
182
330
1F
100
AcDbEntity
  8
0
  6
HIDDEN
 62
     7
370
     0
100
AcDbCircle
 10
98.0394229519
 20
132.4713043533
 30
0.0
 40
0.6000067526677042
100
AcDbArc
 50
348.75
 51
8.0
  0
LWPOLYLINE
  5
183
330
1F
100
AcDbEntity
  8
0
  6
HIDDEN
 62
     7
370
     0
100
AcDbPolyline
 90
        3
 70
   128
 43
0.0
 10
98.6279007431
 20
132.3542488427
 10
98.59375691
 20
132.2416917097
 10
98.5394297046
 20
132.1396398383
  0
LINE
  5
184
330
1F
100
AcDbEntity
  8
0
  6
HIDDEN
 62
     7
370
     0
100
AcDbLine
 10
98.6394297046
 20
83.3304291245
 30
0.0
 11
98.6394297046
 21
132.4713043533
 31
0.0
  0
ARC
  5
185
330
1F
100
AcDbEntity
  8
0
  6
HIDDEN
 62
     7
370
     0
100
AcDbCircle
 10
92.2944317062
 20
95.9008667389
 30
0.0
 40
7.999999999999988
100
AcDbArc
 50
277.1438661295
 51
321.3178125465
  0
ARC
  5
186
330
1F
100
AcDbEntity
  8
0
  6
HIDDEN
 62
     7
370
     0
100
AcDbCircle
 10
92.2944317062
 20
119.9008667389
 30
0.0
 40
8.000000000000004
100
AcDbArc
 50
38.6821874535
 51
82.8732855887
  0
ARC
  5
187
330
1F
100
AcDbEntity
  8
0
  6
HIDDEN
 62
     7
370
     0
100
AcDbCircle
 10
81.6218652699
 20
88.5008667389
 30
0.0
 40
0.6000000000000085
100
AcDbArc
 50
210.0
 51
270.0
  0
ARC
  5
188
330
1F
100
AcDbEntity
  8
0
  6
HIDDEN
 62
     7
370
     0
100
AcDbCircle
 10
81.6218652699
 20
127.3008667389
 30
0.0
 40
0.6000000000000227
100
AcDbArc
 50
90.0
 51
150.0
  0
LINE
  5
189
330
1F
100
AcDbEntity
  8
0
  6
HIDDEN
 62
     7
370
     0
100
AcDbLine
 10
81.6218652699
 20
87.9008667389
 30
0.0
 11
85.7925470857
 21
87.9008667389
 31
0.0
  0
LINE
  5
18A
330
1F
100
AcDbEntity
  8
0
  6
HIDDEN
 62
     7
370
     0
100
AcDbLine
 10
85.7994521637
 20
127.9008667389
 30
0.0
 11
81.6218652699
 21
127.9008667389
 31
0.0
  0
LINE
  5
18B
330
1F
100
AcDbEntity
  8
0
  6
HIDDEN
 62
     7
370
     0
100
AcDbLine
 10
81.1022500276
 20
127.6008667389
 30
0.0
 11
79.5434043008
 21
124.9008667389
 31
0.0
  0
LINE
  5
18C
330
1F
100
AcDbEntity
  8
0
  6
HIDDEN
 62
     7
370
     0
100
AcDbLine
 10
79.5434043008
 20
90.9008667389
 30
0.0
 11
81.1022500276
 21
88.2008667389
 31
0.0
  0
LINE
  5
18D
330
1F
100
AcDbEntity
  8
0
  6
HIDDEN
 62
     7
370
     0
100
AcDbLine
 10
102.5394297046
 20
135.180598976
 30
0.0
 11
102.5394297046
 21
131.8464691535
 31
0.0
  0
LINE
  5
18E
330
1F
100
AcDbEntity
  8
0
  6
HIDDEN
 62
     7
370
     0
100
AcDbLine
 10
110.5394297046
 20
131.8464691535
 30
0.0
 11
110.5394297046
 21
135.1792242867
 31
0.0
  0
ARC
  5
18F
330
1F
100
AcDbEntity
  8
0
  6
HIDDEN
 62
     7
370
     0
100
AcDbCircle
 10
106.9894297046
 20
92.1758667389
 30
0.0
 40
1.5
100
AcDbArc
 50
238.2116693829
 51
0.0
  0
ARC
  5
190
330
1F
100
AcDbEntity
  8
0
  6
HIDDEN
 62
     7
370
     0
100
AcDbCircle
 10
106.9894297046
 20
123.6258667389
 30
0.0
 40
1.500000000000009
100
AcDbArc
 50
0.0
 51
121.7883306171
  0
LINE
  5
191
330
1F
100
AcDbEntity
  8
0
  6
HIDDEN
 62
     7
370
     0
100
AcDbLine
 10
98.5394297046
 20
90.9008667389
 30
0.0
 11
106.1992556731
 21
90.9008667389
 31
0.0
  0
LINE
  5
192
330
1F
100
AcDbEntity
  8
0
  6
HIDDEN
 62
     7
370
     0
100
AcDbLine
 10
106.1992556731
 20
124.9008667389
 30
0.0
 11
98.5394297046
 21
124.9008667389
 31
0.0
  0
LINE
  5
193
330
1F
100
AcDbEntity
  8
0
  6
HIDDEN
 62
     7
370
     0
100
AcDbLine
 10
76.7394297046
 20
90.9008667389
 30
0.0
 11
79.5434043008
 21
90.9008667389
 31
0.0
  0
LINE
  5
194
330
1F
100
AcDbEntity
  8
0
  6
HIDDEN
 62
     7
370
     0
100
AcDbLine
 10
79.5434043008
 20
124.9008667389
 30
0.0
 11
72.7394297046
 21
124.9008667389
 31
0.0
  0
LINE
  5
195
330
1F
100
AcDbEntity
  8
0
  6
HIDDEN
 62
     7
370
     0
100
AcDbLine
 10
228.5248802325
 20
97.5088444808
 30
0.0
 11
228.5394297046
 21
97.7496477222
 31
0.0
  0
LINE
  5
196
330
1F
100
AcDbEntity
  8
0
  6
HIDDEN
 62
     7
370
     0
100
AcDbLine
 10
117.3394297046
 20
98.4008667389
 30
0.0
 11
120.3394297046
 21
98.4008667389
 31
0.0
  0
LINE
  5
197
330
1F
100
AcDbEntity
  8
0
  6
HIDDEN
 62
     7
370
     0
100
AcDbLine
 10
120.3394297046
 20
117.4008667389
 30
0.0
 11
117.3394297046
 21
117.4008667389
 31
0.0
  0
LINE
  5
198
330
1F
100
AcDbEntity
  8
0
  6
HIDDEN
 62
     7
370
     0
100
AcDbLine
 10
108.4894297046
 20
98.9008667389
 30
0.0
 11
108.9894297046
 21
99.4008667389
 31
0.0
  0
LINE
  5
199
330
1F
100
AcDbEntity
  8
0
  6
HIDDEN
 62
     7
370
     0
100
AcDbLine
 10
108.9894297046
 20
116.4008667389
 30
0.0
 11
108.4894297046
 21
116.9008667389
 31
0.0
  0
LINE
  5
19A
330
1F
100
AcDbEntity
  8
0
  6
HIDDEN
 62
     7
370
     0
100
AcDbLine
 10
108.9894297046
 20
99.4008667389
 30
0.0
 11
117.3394297046
 21
99.4008667389
 31
0.0
  0
LINE
  5
19B
330
1F
100
AcDbEntity
  8
0
  6
HIDDEN
 62
     7
370
     0
100
AcDbLine
 10
117.3394297046
 20
116.4008667389
 30
0.0
 11
108.9894297046
 21
116.4008667389
 31
0.0
  0
LINE
  5
19C
330
1F
100
AcDbEntity
  8
0
  6
HIDDEN
 62
     7
370
     0
100
AcDbLine
 10
103.4894297046
 20
139.4008667389
 30
0.0
 11
103.4894297046
 21
134.3008667389
 31
0.0
  0
ARC
  5
19D
330
1F
100
AcDbEntity
  8
0
  6
HIDDEN
 62
     7
370
     0
100
AcDbCircle
 10
228.0394297046
 20
100.8641724908
 30
0.0
 40
0.5
100
AcDbArc
 50
0.0
 51
80.0
  0
ARC
  5
19E
330
1F
100
AcDbEntity
  8
0
  6
HIDDEN
 62
     7
370
     0
100
AcDbCircle
 10
228.0394297046
 20
114.937560987
 30
0.0
 40
0.5000000000000056
100
AcDbArc
 50
280.0
 51
0.0
  0
LINE
  5
19F
330
1F
100
AcDbEntity
  8
0
  6
HIDDEN
 62
     7
370
     0
100
AcDbLine
 10
228.1262537934
 20
114.4451571105
 30
0.0
 11
225.0394297046
 21
113.9008667389
 31
0.0
  0
LINE
  5
1A0
330
1F
100
AcDbEntity
  8
0
  6
HIDDEN
 62
     7
370
     0
100
AcDbLine
 10
225.0394297046
 20
101.9008667389
 30
0.0
 11
228.1262537934
 21
101.3565763673
 31
0.0
  0
LINE
  5
1A1
330
1F
100
AcDbEntity
  8
0
  6
HIDDEN
 62
     7
370
     0
100
AcDbLine
 10
185.5394297046
 20
101.6008667389
 30
0.0
 11
191.6446556864
 21
101.6008667389
 31
0.0
  0
LINE
  5
1A2
330
1F
100
AcDbEntity
  8
0
  6
HIDDEN
 62
     7
370
     0
100
AcDbLine
 10
182.4394297046
 20
101.6008667389
 30
0.0
 11
182.5438517343
 21
101.6008667389
 31
0.0
  0
LINE
  5
1A3
330
1F
100
AcDbEntity
  8
0
  6
HIDDEN
 62
     7
370
     0
100
AcDbLine
 10
182.540627343
 20
114.2008667389
 30
0.0
 11
182.4394297046
 21
114.2008667389
 31
0.0
  0
LINE
  5
1A4
330
1F
100
AcDbEntity
  8
0
  6
HIDDEN
 62
     7
370
     0
100
AcDbLine
 10
191.6446556864
 20
114.2008667389
 30
0.0
 11
185.5375010734
 21
114.2008667389
 31
0.0
  0
ARC
  5
1A5
330
1F
100
AcDbEntity
  8
0
  6
HIDDEN
 62
     7
370
     0
100
AcDbCircle
 10
182.4394297046
 20
102.0008667389
 30
0.0
 40
0.4000000000000057
100
AcDbArc
 50
180.0
 51
270.0
  0
ARC
  5
1A6
330
1F
100
AcDbEntity
  8
0
  6
HIDDEN
 62
     7
370
     0
100
AcDbCircle
 10
182.4394297046
 20
113.8008667389
 30
0.0
 40
0.4000000000000057
100
AcDbArc
 50
90.0
 51
180.0
  0
ARC
  5
1A7
330
1F
100
AcDbEntity
  8
0
  6
HIDDEN
 62
     7
370
     0
100
AcDbCircle
 10
191.6446556864
 20
102.0008667389
 30
0.0
 40
0.4000000000000057
100
AcDbArc
 50
270.0
 51
290.0
  0
ARC
  5
1A8
330
1F
100
AcDbEntity
  8
0
  6
HIDDEN
 62
     7
370
     0
100
AcDbCircle
 10
191.6446556864
 20
113.8008667389
 30
0.0
 40
0.4000000000000057
100
AcDbArc
 50
70.0
 51
90.0
  0
LINE
  5
1A9
330
1F
100
AcDbEntity
  8
0
  6
HIDDEN
 62
     7
370
     0
100
AcDbLine
 10
191.7814637438
 20
101.6249896906
 30
0.0
 11
192.5394297046
 21
101.9008667389
 31
0.0
  0
LINE
  5
1AA
330
1F
100
AcDbEntity
  8
0
  6
HIDDEN
 62
     7
370
     0
100
AcDbLine
 10
192.5394297046
 20
113.9008667389
 30
0.0
 11
191.7814637438
 21
114.1767437872
 31
0.0
  0
LINE
  5
1AB
330
1F
100
AcDbEntity
  8
0
  6
HIDDEN
 62
     7
370
     0
100
AcDbLine
 10
192.5394297046
 20
101.9008667389
 30
0.0
 11
225.0394297046
 21
101.9008667389
 31
0.0
  0
LINE
  5
1AC
330
1F
100
AcDbEntity
  8
0
  6
HIDDEN
 62
     7
370
     0
100
AcDbLine
 10
225.0394297046
 20
113.9008667389
 30
0.0
 11
192.5394297046
 21
113.9008667389
 31
0.0
  0
LINE
  5
1AD
330
1F
100
AcDbEntity
  8
0
  6
HIDDEN
 62
     7
370
     0
100
AcDbLine
 10
182.0394297046
 20
112.9008667389
 30
0.0
 11
181.5394297046
 21
112.4008667389
 31
0.0
  0
LINE
  5
1AE
330
1F
100
AcDbEntity
  8
0
  6
HIDDEN
 62
     7
370
     0
100
AcDbLine
 10
181.5394297046
 20
103.4008667389
 30
0.0
 11
182.0394297046
 21
102.9008667389
 31
0.0
  0
LINE
  5
1AF
330
1F
100
AcDbEntity
  8
0
  6
HIDDEN
 62
     7
370
     0
100
AcDbLine
 10
151.5394297046
 20
103.4008667389
 30
0.0
 11
181.5394297046
 21
103.4008667389
 31
0.0
  0
LINE
  5
1B0
330
1F
100
AcDbEntity
  8
0
  6
HIDDEN
 62
     7
370
     0
100
AcDbLine
 10
181.5394297046
 20
112.4008667389
 30
0.0
 11
151.5394297046
 21
112.4008667389
 31
0.0
  0
LINE
  5
1B1
330
1F
100
AcDbEntity
  8
0
  6
HIDDEN
 62
     7
370
     0
100
AcDbLine
 10
151.5394297046
 20
112.4008667389
 30
0.0
 11
151.3591715189
 21
112.1008667389
 31
0.0
  0
LINE
  5
1B2
330
1F
100
AcDbEntity
  8
0
  6
HIDDEN
 62
     7
370
     0
100
AcDbLine
 10
151.3591715189
 20
103.7008667389
 30
0.0
 11
151.5394297046
 21
103.4008667389
 31
0.0
  0
LINE
  5
1B3
330
1F
100
AcDbEntity
  8
0
  6
HIDDEN
 62
     7
370
     0
100
AcDbLine
 10
93.723867535
 20
83.8214954053
 30
0.0
 11
93.2894353855
 21
84.3005614245
 31
0.0
  0
LINE
  5
1B4
330
1F
100
AcDbEntity
  8
0
  6
HIDDEN
 62
     7
370
     0
100
AcDbLine
 10
85.7894320605
 20
84.7222493836
 30
0.0
 11
85.3069983171
 21
84.2431834081
 31
0.0
  0
LINE
  5
1B5
330
1F
100
AcDbEntity
  8
0
  6
HIDDEN
 62
     7
370
     0
100
AcDbLine
 10
85.3068763889
 20
131.5585447792
 30
0.0
 11
85.7894271399
 21
131.0794245213
 31
0.0
  0
LINE
  5
1B6
330
1F
100
AcDbEntity
  8
0
  6
HIDDEN
 62
     7
370
     0
100
AcDbLine
 10
93.2894295866
 20
131.501122299
 30
0.0
 11
93.7239719769
 21
131.9802425496
 31
0.0
  0
LINE
  5
1B7
330
1F
100
AcDbEntity
  8
0
  6
HIDDEN
 62
     7
370
     0
100
AcDbLine
 10
120.3394297046
 20
103.7008667389
 30
0.0
 11
151.3591715189
 21
103.7008667389
 31
0.0
  0
LINE
  5
1B8
330
1F
100
AcDbEntity
  8
0
  6
HIDDEN
 62
     7
370
     0
100
AcDbLine
 10
151.3591715189
 20
112.1008667389
 30
0.0
 11
120.3394297046
 21
112.1008667389
 31
0.0
  0
LINE
  5
1B9
330
1F
100
AcDbEntity
  8
0
  6
HIDDEN
 62
     7
370
     0
100
AcDbLine
 10
93.2894297046
 20
127.8387029295
 30
0.0
 11
93.2894297046
 21
131.5005688774
 31
0.0
  0
LINE
  5
1BA
330
1F
100
AcDbEntity
  8
0
  6
HIDDEN
 62
     7
370
     0
100
AcDbLine
 10
85.7894297046
 20
131.0791693301
 30
0.0
 11
85.7894297046
 21
127.8989951917
 31
0.0
  0
LINE
  5
1BB
330
1F
100
AcDbEntity
  8
0
  6
HIDDEN
 62
     7
370
     0
100
AcDbLine
 10
93.2894297046
 20
84.3010453262
 30
0.0
 11
93.2894297046
 21
87.9630305483
 31
0.0
  0
LINE
  5
1BC
330
1F
100
AcDbEntity
  8
0
  6
HIDDEN
 62
     7
370
     0
100
AcDbLine
 10
85.7894297046
 20
87.9014510001
 30
0.0
 11
85.7894297046
 21
84.7225726214
 31
0.0
  0
LINE
  5
1BD
330
1F
100
AcDbEntity
  8
0
  6
HIDDEN
 62
     7
370
     0
100
AcDbLine
 10
163.9894297046
 20
91.9008667389
 30
0.0
 11
162.9894297046
 21
92.4782170081
 31
0.0
  0
LINE
  5
1BE
330
1F
100
AcDbEntity
  8
0
  6
HIDDEN
 62
     7
370
     0
100
AcDbLine
 10
157.9894297046
 20
92.4782170081
 30
0.0
 11
156.9894297046
 21
91.9008667389
 31
0.0
  0
LINE
  5
1BF
330
1F
100
AcDbEntity
  8
0
  6
HIDDEN
 62
     7
370
     0
100
AcDbLine
 10
156.9894297046
 20
123.9008667389
 30
0.0
 11
157.9894297046
 21
123.3235164697
 31
0.0
  0
LINE
  5
1C0
330
1F
100
AcDbEntity
  8
0
  6
HIDDEN
 62
     7
370
     0
100
AcDbLine
 10
162.9894297046
 20
123.3235164697
 30
0.0
 11
163.9894297046
 21
123.9008667389
 31
0.0
  0
LINE
  5
1C1
330
1F
100
AcDbEntity
  8
0
  6
HIDDEN
 62
     7
370
     0
100
AcDbLine
 10
157.9894297046
 20
123.3235164697
 30
0.0
 11
157.9894297046
 21
114.9008667389
 31
0.0
  0
LINE
  5
1C2
330
1F
100
AcDbEntity
  8
0
  6
HIDDEN
 62
     7
370
     0
100
AcDbLine
 10
162.9894297046
 20
114.9008667389
 30
0.0
 11
162.9894297046
 21
123.3235164697
 31
0.0
  0
LINE
  5
1C3
330
1F
100
AcDbEntity
  8
0
  6
HIDDEN
 62
     7
370
     0
100
AcDbLine
 10
157.9894297046
 20
114.9008667389
 30
0.0
 11
160.4188091349
 21
113.4411483105
 31
0.0
  0
LINE
  5
1C4
330
1F
100
AcDbEntity
  8
0
  6
HIDDEN
 62
     7
370
     0
100
AcDbLine
 10
160.560049552
 20
113.4411478766
 30
0.0
 11
162.9894297046
 21
114.9008667389
 31
0.0
  0
LINE
  5
1C5
330
1F
100
AcDbEntity
  8
0
  6
HIDDEN
 62
     7
370
     0
100
AcDbLine
 10
162.9894297046
 20
100.9008667389
 30
0.0
 11
160.5605400428
 21
102.3602908846
 31
0.0
  0
LINE
  5
1C6
330
1F
100
AcDbEntity
  8
0
  6
HIDDEN
 62
     7
370
     0
100
AcDbLine
 10
160.4186937126
 20
102.3605158145
 30
0.0
 11
157.9894297046
 21
100.9008667389
 31
0.0
  0
LINE
  5
1C7
330
1F
100
AcDbEntity
  8
0
  6
HIDDEN
 62
     7
370
     0
100
AcDbLine
 10
162.9894297046
 20
92.4782170081
 30
0.0
 11
162.9894297046
 21
100.9008667389
 31
0.0
  0
LINE
  5
1C8
330
1F
100
AcDbEntity
  8
0
  6
HIDDEN
 62
     7
370
     0
100
AcDbLine
 10
157.9894297046
 20
100.9008667389
 30
0.0
 11
157.9894297046
 21
92.4782170081
 31
0.0
  0
LINE
  5
1C9
330
1F
100
AcDbEntity
  8
0
  6
HIDDEN
 62
     7
370
     0
100
AcDbLine
 10
182.5394297046
 20
117.4574716073
 30
0.0
 11
182.5394297046
 21
114.2005817219
 31
0.0
  0
LINE
  5
1CA
330
1F
100
AcDbEntity
  8
0
  6
HIDDEN
 62
     7
370
     0
100
AcDbLine
 10
182.5394297046
 20
120.4008667389
 30
0.0
 11
182.5394297046
 21
119.8278753927
 31
0.0
  0
LINE
  5
1CB
330
1F
100
AcDbEntity
  8
0
  6
HIDDEN
 62
     7
370
     0
100
AcDbLine
 10
185.5394297046
 20
119.8396290244
 30
0.0
 11
185.5394297046
 21
120.4008667389
 31
0.0
  0
LINE
  5
1CC
330
1F
100
AcDbEntity
  8
0
  6
HIDDEN
 62
     7
370
     0
100
AcDbLine
 10
185.5394297046
 20
114.2004116735
 30
0.0
 11
185.5394297046
 21
117.339376892
 31
0.0
  0
LINE
  5
1CD
330
1F
100
AcDbEntity
  8
0
  6
HIDDEN
 62
     7
370
     0
100
AcDbLine
 10
182.5394297046
 20
95.973858085
 30
0.0
 11
182.5394297046
 21
95.9008667389
 31
0.0
  0
LINE
  5
1CE
330
1F
100
AcDbEntity
  8
0
  6
HIDDEN
 62
     7
370
     0
100
AcDbLine
 10
182.5394297046
 20
101.6019160994
 30
0.0
 11
182.5394297046
 21
98.3442618705
 31
0.0
  0
LINE
  5
1CF
330
1F
100
AcDbEntity
  8
0
  6
HIDDEN
 62
     7
370
     0
100
AcDbLine
 10
185.5394297046
 20
98.4623565858
 30
0.0
 11
185.5394297046
 21
101.6008667389
 31
0.0
  0
LINE
  5
1D0
330
1F
100
AcDbEntity
  8
0
  6
HIDDEN
 62
     7
370
     0
100
AcDbLine
 10
185.5394297046
 20
95.9008667389
 30
0.0
 11
185.5394297046
 21
95.9621044533
 31
0.0
  0
LINE
  5
1D1
330
1F
100
AcDbEntity
  8
0
  6
HIDDEN
 62
     7
370
     0
100
AcDbLine
 10
182.6279979506
 20
95.8476495677
 30
0.0
 11
184.0394297046
 21
94.9995758104
 31
0.0
  0
LINE
  5
1D2
330
1F
100
AcDbEntity
  8
0
  6
HIDDEN
 62
     7
370
     0
100
AcDbLine
 10
182.5394297046
 20
95.9008667389
 30
0.0
 11
182.6214285275
 21
95.8515968754
 31
0.0
  0
LINE
  5
1D3
330
1F
100
AcDbEntity
  8
0
  6
HIDDEN
 62
     7
370
     0
100
AcDbLine
 10
184.0394297046
 20
94.9995758104
 30
0.0
 11
185.5394297046
 21
95.9008667389
 31
0.0
  0
LINE
  5
1D4
330
1F
100
AcDbEntity
  8
0
  6
HIDDEN
 62
     7
370
     0
100
AcDbLine
 10
185.5380562193
 20
95.9603737249
 30
0.0
 11
228.610104146
 21
97.652679097
 31
0.0
  0
LINE
  5
1D5
330
1F
100
AcDbEntity
  8
0
  6
HIDDEN
 62
     7
370
     0
100
AcDbLine
 10
228.5394297046
 20
100.1518311871
 30
0.0
 11
185.5394297046
 21
98.4623565858
 31
0.0
  0
LINE
  5
1D6
330
1F
100
AcDbEntity
  8
0
  6
HIDDEN
 62
     7
370
     0
100
AcDbLine
 10
185.5394297046
 20
117.339376892
 30
0.0
 11
228.5394297046
 21
115.6499022906
 31
0.0
  0
LINE
  5
1D7
330
1F
100
AcDbEntity
  8
0
  6
HIDDEN
 62
     7
370
     0
100
AcDbLine
 10
228.610104146
 20
118.1490543808
 30
0.0
 11
185.5380562193
 21
119.8413597529
 31
0.0
  0
LINE
  5
1D8
330
1F
100
AcDbEntity
  8
0
  6
HIDDEN
 62
     7
370
     0
100
AcDbLine
 10
182.5409333321
 20
119.8292044118
 30
0.0
 11
181.8243973159
 21
118.7363053603
 31
0.0
  0
LINE
  5
1D9
330
1F
100
AcDbEntity
  8
0
  6
HIDDEN
 62
     7
370
     0
100
AcDbLine
 10
181.8243973159
 20
118.7363053603
 30
0.0
 11
182.5258192678
 21
117.4577819685
 31
0.0
  0
LINE
  5
1DA
330
1F
100
AcDbEntity
  8
0
  6
HIDDEN
 62
     7
370
     0
100
AcDbLine
 10
182.5258192678
 20
98.3439515093
 30
0.0
 11
181.8243973159
 21
97.0654281175
 31
0.0
  0
LINE
  5
1DB
330
1F
100
AcDbEntity
  8
0
  6
HIDDEN
 62
     7
370
     0
100
AcDbLine
 10
181.8243973159
 20
97.0654281175
 30
0.0
 11
182.5409333321
 21
95.972529066
 31
0.0
  0
LINE
  5
1DC
330
1F
100
AcDbEntity
  8
0
  6
HIDDEN
 62
     7
370
     0
100
AcDbLine
 10
182.6195780448
 20
95.8525759443
 30
0.0
 11
182.6239688072
 21
95.8458789187
 31
0.0
  0
LINE
  5
1DD
330
1F
100
AcDbEntity
  8
0
  6
HIDDEN
 62
     7
370
     0
100
AcDbLine
 10
182.6049444582
 20
95.84513145
 30
0.0
 11
182.6486485619
 21
95.8468485889
 31
0.0
  0
LINE
  5
1DE
330
1F
100
AcDbEntity
  8
0
  6
HIDDEN
 62
     7
370
     0
100
AcDbLine
 10
160.5598146045
 20
113.4415490667
 30
0.0
 11
160.4190438051
 21
113.4415490667
 31
0.0
  0
LINE
  5
1DF
330
1F
100
AcDbEntity
  8
0
  6
HIDDEN
 62
     7
370
     0
100
AcDbLine
 10
160.4188886398
 20
102.3601844111
 30
0.0
 11
160.5604764774
 21
102.3601844111
 31
0.0
  0
LINE
  5
1E0
330
1F
100
AcDbEntity
  8
0
  6
HIDDEN
 62
     7
370
     0
100
AcDbLine
 10
228.3481629473
 20
100.3945091854
 30
0.0
 11
223.0142251434
 21
100.1849381984
 31
0.0
  0
LINE
  5
1E1
330
1F
100
AcDbEntity
  8
0
  6
HIDDEN
 62
     7
370
     0
100
AcDbLine
 10
223.1320045907
 20
97.1872510896
 30
0.0
 11
228.4659423946
 21
97.3968220767
 31
0.0
  0
LINE
  5
1E2
330
1F
100
AcDbEntity
  8
0
  6
HIDDEN
 62
     7
370
     0
100
AcDbLine
 10
223.0142251434
 20
100.1849381984
 30
0.0
 11
222.5342405332
 21
99.6656937724
 31
0.0
  0
LINE
  5
1E3
330
1F
100
AcDbEntity
  8
0
  6
HIDDEN
 62
     7
370
     0
100
AcDbLine
 10
222.6127601647
 20
97.6672356999
 30
0.0
 11
223.1320045907
 21
97.1872510896
 31
0.0
  0
LINE
  5
1E4
330
1F
100
AcDbEntity
  8
0
  6
HIDDEN
 62
     7
370
     0
100
AcDbLine
 10
228.4659423946
 20
97.3968220767
 30
0.0
 11
228.5248802325
 21
97.5088444808
 31
0.0
  0
LINE
  5
1E5
330
1F
100
AcDbEntity
  8
0
  6
HIDDEN
 62
     7
370
     0
100
AcDbLine
 10
228.5209972211
 20
100.1205834404
 30
0.0
 11
228.3481629473
 21
100.3945091854
 31
0.0
  0
LINE
  5
1E6
330
1F
100
AcDbEntity
  8
0
  6
HIDDEN
 62
     7
370
     0
100
AcDbLine
 10
228.4070526709
 20
118.4072251846
 30
0.0
 11
223.0731148671
 21
118.6167961717
 31
0.0
  0
LINE
  5
1E7
330
1F
100
AcDbEntity
  8
0
  6
HIDDEN
 62
     7
370
     0
100
AcDbLine
 10
222.9553354198
 20
115.619109063
 30
0.0
 11
228.2892732237
 21
115.4095380759
 31
0.0
  0
LINE
  5
1E8
330
1F
100
AcDbEntity
  8
0
  6
HIDDEN
 62
     7
370
     0
100
AcDbLine
 10
228.2892732237
 20
115.4095380759
 30
0.0
 11
228.4621074974
 21
115.683463821
 31
0.0
  0
LINE
  5
1E9
330
1F
100
AcDbEntity
  8
0
  6
HIDDEN
 62
     7
370
     0
100
AcDbLine
 10
228.5364461634
 20
118.1612886078
 30
0.0
 11
228.4070526709
 21
118.4072251846
 31
0.0
  0
LINE
  5
1EA
330
1F
100
AcDbEntity
  8
0
  6
HIDDEN
 62
     7
370
     0
100
AcDbLine
 10
223.0731148671
 20
118.6167961717
 30
0.0
 11
222.5538704411
 21
118.1368115615
 31
0.0
  0
LINE
  5
1EB
330
1F
100
AcDbEntity
  8
0
  6
HIDDEN
 62
     7
370
     0
100
AcDbLine
 10
222.4753508095
 20
116.138353489
 30
0.0
 11
222.9553354198
 21
115.619109063
 31
0.0
  0
DIMENSION
  5
1EC
330
1F
100
AcDbEntity
  8
VERMASSUNG
100
AcDbDimension
  2
*D1
 10
60.7777898158
 20
76.4008667389
 30
0.0
 11
60.7777898158
 21
107.9008667389
 31
0.0
 70
   160
  1
HSK A %%c<>
 71
     2
 42
-1.0
  3
SLDDIMSTYLE0
100
AcDbAlignedDimension
 13
98.8394297046
 23
139.4008667389
 33
0.0
 14
98.8394297046
 24
76.4008667389
 34
0.0
 50
90.0
100
AcDbRotatedDimension
  0
DIMENSION
  5
1F9
330
1F
100
AcDbEntity
  8
VERMASSUNG
100
AcDbDimension
  2
*D2
 10
228.5394297046
 20
144.3357529794
 30
0.0
 11
205.2894297046
 21
144.3357529794
 31
0.0
 70
   160
 71
     2
 42
-1.0
  3
SLDDIMSTYLE1
100
AcDbAlignedDimension
 13
182.0394297046
 23
113.8008667389
 33
0.0
 14
228.5394297046
 24
118.0520857556
 34
0.0
100
AcDbRotatedDimension
  0
DIMENSION
  5
204
330
1F
100
AcDbEntity
  8
VERMASSUNG
100
AcDbDimension
  2
*D3
 10
234.5977248104
 20
113.9008667389
 30
0.0
 11
234.5977248104
 21
107.9008667389
 31
0.0
 70
   160
  1
%%c<>  
 71
     2
 42
-1.0
  3
SLDDIMSTYLE2
100
AcDbAlignedDimension
 13
225.0394297046
 23
101.9008667389
 33
0.0
 14
225.0394297046
 24
113.9008667389
 34
0.0
 50
90.0
100
AcDbRotatedDimension
  0
DIMENSION
  5
211
330
1F
100
AcDbEntity
  8
VERMASSUNG
100
AcDbDimension
  2
*D4
 10
240.5977248104
 20
119.9008667389
 30
0.0
 11
240.5977248104
 21
107.9008667389
 31
0.0
 70
   160
  1
%%c<>
 71
     2
 42
-1.0
  3
SLDDIMSTYLE3
100
AcDbAlignedDimension
 13
228.5394297046
 23
95.9008667389
 33
0.0
 14
228.5394297046
 24
119.9008667389
 34
0.0
 50
90.0
100
AcDbRotatedDimension
  0
DIMENSION
  5
21D
330
1F
100
AcDbEntity
  8
VERMASSUNG
100
AcDbDimension
  2
*D5
 10
228.5394297046
 20
156.3357529794
 30
0.0
 11
163.5394297046
 21
156.3357529794
 31
0.0
 70
   160
 71
     2
 42
-1.0
  3
SLDDIMSTYLE0
100
AcDbAlignedDimension
 13
98.5394297046
 23
139.1008667389
 33
0.0
 14
228.5394297046
 24
118.0520857556
 34
0.0
100
AcDbRotatedDimension
  0
DIMENSION
  5
227
330
1F
100
AcDbEntity
  8
VERMASSUNG
100
AcDbDimension
  2
*D6
 10
228.5394297046
 20
150.3357529794
 30
0.0
 11
176.5144297046
 21
150.3357529794
 31
0.0
 70
   160
 71
     2
 42
-1.0
  3
SLDDIMSTYLE0
100
AcDbAlignedDimension
 13
124.4894297046
 23
137.7473070627
 33
0.0
 14
228.5394297046
 24
118.0387973874
 34
0.0
100
AcDbRotatedDimension
  0
DIMENSION
  5
231
330
1F
100
AcDbEntity
  8
VERMASSUNG
100
AcDbDimension
  2
*D7
 10
228.5394297046
 20
162.3357529794
 30
0.0
 11
147.5894297046
 21
162.3357529794
 31
0.0
 70
   160
 71
     2
 42
-1.0
  3
SLDDIMSTYLE0
100
AcDbAlignedDimension
 13
66.6394297046
 23
127.5915444854
 33
0.0
 14
228.5394297046
 24
118.0387973874
 34
0.0
100
AcDbRotatedDimension
  0
DIMENSION
  5
23B
330
1F
100
AcDbEntity
  8
VERMASSUNG
100
AcDbDimension
  2
*D8
 10
246.5977248104
 20
91.9008667389
 30
0.0
 11
246.5977248104
 21
107.9008667389
 31
0.0
 70
   160
  1
%%c<>
 71
     2
 42
-1.0
  3
SLDDIMSTYLE0
100
AcDbAlignedDimension
 13
177.7146107599
 23
123.9008667389
 33
0.0
 14
177.7146107599
 24
91.9008667389
 34
0.0
 50
90.0
100
AcDbRotatedDimension
  0
LINE
  5
246
330
1F
100
AcDbEntity
  8
VERMASSUNG
  6
CENTERX2
370
     0
100
AcDbLine
 10
62.8664138678
 20
107.9008667389
 30
0.0
 11
230.610104146
 21
107.9008667389
 31
0.0
  0
OLE2FRAME
  5
247
330
1F
100
AcDbEntity
  8
0
100
AcDbOle2Frame
 70
     2
  3
Bitmap Image
 10
13.8511154363
 20
38.264191557
 30
0.0
 11
51.6290888628
 21
31.9806341108
 31
0.0
 71
     2
 72
     0
 73
     1
 90
    12928
310
80552BED0767C5B32B40DDAF6807D121434000000000000000006FFBDDFB85D0
310
4940DDAF6807D121434000000000000000006FFBDDFB85D04940416F4BD60AFB
310
3F4000000000000000002BED0767C5B32B40416F4BD60AFB3F40000000000000
310
0000000000000100000000010000010000000100000000000100000000320000
310
D0CF11E0A1B11AE1000000000000000000000000000000003E000300FEFF0900
310
0600000000000000000000000100000001000000000000000010000002000000
310
01000000FEFFFFFF0000000000000000FFFFFFFFFFFFFFFFFFFFFFFFFFFFFFFF
310
FFFFFFFFFFFFFFFFFFFFFFFFFFFFFFFFFFFFFFFFFFFFFFFFFFFFFFFFFFFFFFFF
310
FFFFFFFFFFFFFFFFFFFFFFFFFFFFFFFFFFFFFFFFFFFFFFFFFFFFFFFFFFFFFFFF
310
FFFFFFFFFFFFFFFFFFFFFFFFFFFFFFFFFFFFFFFFFFFFFFFFFFFFFFFFFFFFFFFF
310
FFFFFFFFFFFFFFFFFFFFFFFFFFFFFFFFFFFFFFFFFFFFFFFFFFFFFFFFFFFFFFFF
310
FFFFFFFFFFFFFFFFFFFFFFFFFFFFFFFFFFFFFFFFFFFFFFFFFFFFFFFFFFFFFFFF
310
FFFFFFFFFFFFFFFFFFFFFFFFFFFFFFFFFFFFFFFFFFFFFFFFFFFFFFFFFFFFFFFF
310
FFFFFFFFFFFFFFFFFFFFFFFFFFFFFFFFFFFFFFFFFFFFFFFFFFFFFFFFFFFFFFFF
310
FFFFFFFFFFFFFFFFFFFFFFFFFFFFFFFFFFFFFFFFFFFFFFFFFFFFFFFFFFFFFFFF
310
FFFFFFFFFFFFFFFFFFFFFFFFFFFFFFFFFFFFFFFFFFFFFFFFFFFFFFFFFFFFFFFF
310
FFFFFFFFFFFFFFFFFFFFFFFFFFFFFFFFFFFFFFFFFFFFFFFFFFFFFFFFFFFFFFFF
310
FFFFFFFFFFFFFFFFFFFFFFFFFFFFFFFFFFFFFFFFFFFFFFFFFFFFFFFFFFFFFFFF
310
FFFFFFFFFFFFFFFFFFFFFFFFFFFFFFFFFFFFFFFFFFFFFFFFFFFFFFFFFFFFFFFF
310
FFFFFFFFFFFFFFFFFFFFFFFFFFFFFFFFFFFFFFFFFFFFFFFFFFFFFFFFFFFFFFFF
310
FDFFFFFFFEFFFFFFFEFFFFFFFEFFFFFF05000000060000000700000008000000
310
090000000A0000000B0000000C0000000D0000000E0000000F00000010000000
310
11000000120000001300000014000000150000001600000017000000FEFFFFFF
310
FFFFFFFFFFFFFFFFFFFFFFFFFFFFFFFFFFFFFFFFFFFFFFFFFFFFFFFFFFFFFFFF
310
FFFFFFFFFFFFFFFFFFFFFFFFFFFFFFFFFFFFFFFFFFFFFFFFFFFFFFFFFFFFFFFF
310
FFFFFFFFFFFFFFFFFFFFFFFFFFFFFFFFFFFFFFFFFFFFFFFFFFFFFFFFFFFFFFFF
310
FFFFFFFFFFFFFFFFFFFFFFFFFFFFFFFFFFFFFFFFFFFFFFFFFFFFFFFFFFFFFFFF
310
FFFFFFFFFFFFFFFFFFFFFFFFFFFFFFFFFFFFFFFFFFFFFFFFFFFFFFFFFFFFFFFF
310
FFFFFFFFFFFFFFFFFFFFFFFFFFFFFFFFFFFFFFFFFFFFFFFFFFFFFFFFFFFFFFFF
310
FFFFFFFFFFFFFFFFFFFFFFFFFFFFFFFFFFFFFFFFFFFFFFFFFFFFFFFFFFFFFFFF
310
FFFFFFFFFFFFFFFFFFFFFFFFFFFFFFFFFFFFFFFFFFFFFFFFFFFFFFFFFFFFFFFF
310
FFFFFFFFFFFFFFFFFFFFFFFFFFFFFFFFFFFFFFFFFFFFFFFFFFFFFFFFFFFFFFFF
310
FFFFFFFFFFFFFFFFFFFFFFFFFFFFFFFFFFFFFFFFFFFFFFFFFFFFFFFFFFFFFFFF
310
FFFFFFFFFFFFFFFFFFFFFFFFFFFFFFFFFFFFFFFFFFFFFFFFFFFFFFFFFFFFFFFF
310
FFFFFFFFFFFFFFFFFFFFFFFFFFFFFFFFFFFFFFFFFFFFFFFFFFFFFFFFFFFFFFFF
310
FFFFFFFFFFFFFFFFFFFFFFFFFFFFFFFFFFFFFFFFFFFFFFFFFFFFFFFFFFFFFFFF
310
52006F006F007400200045006E00740072007900000000000000000000000000
310
0000000000000000000000000000000000000000000000000000000000000000
310
16000500FFFFFFFFFFFFFFFF020000000A00030000000000C000000000000046
310
000000000000000000000000A0D0C5C9C304CC0103000000C000000000000000
310
01004F006C006500000000000000000000000000000000000000000000000000
310
0000000000000000000000000000000000000000000000000000000000000000
310
0A000200FFFFFFFFFFFFFFFFFFFFFFFF00000000000000000000000000000000
310
0000000000000000000000000000000000000000000000001400000000000000
310
010043006F006D0070004F0062006A0000000000000000000000000000000000
310
0000000000000000000000000000000000000000000000000000000000000000
310
120002010100000003000000FFFFFFFF00000000000000000000000000000000
310
0000000000000000000000000000000000000000010000004D00000000000000
310
01004F006C006500310030004E00610074006900760065000000000000000000
310
0000000000000000000000000000000000000000000000000000000000000000
310
1A000200FFFFFFFFFFFFFFFFFFFFFFFF00000000000000000000000000000000
310
0000000000000000000000000000000000000000040000002426000000000000
310
FEFFFFFF02000000FEFFFFFFFFFFFFFFFFFFFFFFFFFFFFFFFFFFFFFFFFFFFFFF
310
FFFFFFFFFFFFFFFFFFFFFFFFFFFFFFFFFFFFFFFFFFFFFFFFFFFFFFFFFFFFFFFF
310
FFFFFFFFFFFFFFFFFFFFFFFFFFFFFFFFFFFFFFFFFFFFFFFFFFFFFFFFFFFFFFFF
310
FFFFFFFFFFFFFFFFFFFFFFFFFFFFFFFFFFFFFFFFFFFFFFFFFFFFFFFFFFFFFFFF
310
FFFFFFFFFFFFFFFFFFFFFFFFFFFFFFFFFFFFFFFFFFFFFFFFFFFFFFFFFFFFFFFF
310
FFFFFFFFFFFFFFFFFFFFFFFFFFFFFFFFFFFFFFFFFFFFFFFFFFFFFFFFFFFFFFFF
310
FFFFFFFFFFFFFFFFFFFFFFFFFFFFFFFFFFFFFFFFFFFFFFFFFFFFFFFFFFFFFFFF
310
FFFFFFFFFFFFFFFFFFFFFFFFFFFFFFFFFFFFFFFFFFFFFFFFFFFFFFFFFFFFFFFF
310
FFFFFFFFFFFFFFFFFFFFFFFFFFFFFFFFFFFFFFFFFFFFFFFFFFFFFFFFFFFFFFFF
310
FFFFFFFFFFFFFFFFFFFFFFFFFFFFFFFFFFFFFFFFFFFFFFFFFFFFFFFFFFFFFFFF
310
FFFFFFFFFFFFFFFFFFFFFFFFFFFFFFFFFFFFFFFFFFFFFFFFFFFFFFFFFFFFFFFF
310
FFFFFFFFFFFFFFFFFFFFFFFFFFFFFFFFFFFFFFFFFFFFFFFFFFFFFFFFFFFFFFFF
310
FFFFFFFFFFFFFFFFFFFFFFFFFFFFFFFFFFFFFFFFFFFFFFFFFFFFFFFFFFFFFFFF
310
FFFFFFFFFFFFFFFFFFFFFFFFFFFFFFFFFFFFFFFFFFFFFFFFFFFFFFFFFFFFFFFF
310
FFFFFFFFFFFFFFFFFFFFFFFFFFFFFFFFFFFFFFFFFFFFFFFFFFFFFFFFFFFFFFFF
310
FFFFFFFFFFFFFFFFFFFFFFFFFFFFFFFFFFFFFFFFFFFFFFFFFFFFFFFFFFFFFFFF
310
0100000200000000000000000000000000000000000000000000000000000000
310
000000000000000038000000410000006A0D9F0200000000460E7F0200000000
310
0100FEFF030A0000FFFFFFFF0A00030000000000C00000000000004607000000
310
5042727573680007000000504272757368000700000050427275736800F439B2
310
7100000000000000000000000000000000000000000000000000C70600000000
310
425D000000000000000000000000000000000000000000003800000041000000
310
6A0D9F0200000000880ED0020000000000000000000000000000000000000000
310
0000C70600000000435D00000000000000000000000000000000000000000000
310
38000000410000006A0D9F0200000000480E7F04000000000000000000000000
310
00000000000000000000C706000000003D5D0000000000000000000000000000
310
000000000000000038000000410000006A0D9F02000000007A0EFA0200000000
310
000000000000000000000000000000000000C706000000003E5D000000000000
310
0000000000000000000000000000000038000000410000006A0D9F0200000000
310
8E0EC90300000000000000000000000000000000000000000000C70600000000
310
3F5D000000000000000000000000000000000000000000003800000041000000
310
6A0D9F02000000006C0E99020000000000000000000000000000000000000000
310
20260000424D0E260000000000003E00000028000000B40200006E0000000100
310
01000000000000000000130B0000130B00000200000002000000000000FFFFFF
310
FFFFFFFFFFFFFFFFFFFFFFFFFFFFFFFFFFFFFFFFFFFFFFFFFFFFFFFFFFFFFFFF
310
FFFFFFFFFFFFFFFFFFFFFFFFFFFFFFFFFFFFFFFFFFFFFFFFFFFFFFFFFFFFFFFF
310
FFFFFFFFFFFFFFFFFFFFFFFFFFFFFFFFFFFFFFFFFFFFFFFFF000FFFFFFFFFFFF
310
FFFFFFFFFFFFFFFFFFFFFFFFFFFFFFFFFFFFFFFFFFFFFFFFFFFFFFFFFFFFFFFF
310
FFFFFFFFFFFFFFFFFFFFFFFFFFFFFFFFFFFFFFFFFFFFFFFFFFFFFFFFFFFFFFFF
310
FFFFFFFFFFFFFFFFFFFFFFFFFFFFFFFFF000FFFFFFFFFFFFFFFFFFFFFFFFFFFF
310
FFFFFFFFFFFFFFFFFFFFFFFFFFFFFFFFFFFFFFFFFFFFFFFFFFFFFFFFFFFFFFFF
310
FFFFFFFFFFFFFFFFFFFFFFFFFFFFFFFFFFFFFFFFFFFFFFFFFFFFFFFFFFFFFFFF
310
FFFFFFFFFFFFFFFFF000FFFFFFFFFFFFFFFFFFFFFFFFFFFFFFFFFFFFFFFFFFFF
310
FFFFFFFFFFFFFFFFFFFFFFFFFFFFFFFFFFFFFFFFFFFFFFFFFFFFFFFFFFFFFFFF
310
FFFFFFFFFFFFFFFFFFFFFFFFFFFFFFFFFFFFFFFFFFFFFFFFFFFFFFFFFFFFFFFF
310
F000FFFFFFFFFFFFFFFFFFFFFFFFFFFFFFFFFFFFFFFFFFFFFFFFFFFFFFFFFFFF
310
FFFFFFFFFFFFFFFFFFFFFFFFFFFFFFFFFFFFFFFFFFFFFFFFFFFFFFFFFFFFFFFF
310
FFFFFFFFFFFFFFFFFFFFFFFFFFFFFFFFFFFFFFFFFFFFFFFFF000FFFFFFFFFFFF
310
FFFFFFFFFFFFFFFFFFFFFFFFFFFFFFFFFFFFFFFFFFFFFFFFFFFFFFFFFFFFFFFF
310
FFFFFFFFFFFFFFFFFFFFFFFFFFFFFFFFFFFFFFFFFFFFFFFFFFFFFFFFFFFFFFFF
310
FFFFFFFFFFFFFFFFFFFFFFFFFFFFFFFFF000FFFFFFFFFFFFFFFFFFFFFFFFFFFF
310
FFFFFFFFFFFFFFFFFFFFFFFFFFFFFFFFFFFFFFFFFFFFFFFFFFFFFFFFFFFFFFFF
310
FFFFFFFFFFFFFFFFFFFFFFFFFFFFFFFFFFFFFFFFFFFFFFFFFFFFFFFFFFFFFFFF
310
FFFFFFFFFFFFFFFFF000FFFFFFFFFFFFFFFFFFFFFFFFFFFFFFFFFFFFFFFFFFFF
310
FFFFFFFFFFFFFFFFFFFFFFFFFFFFFFFFFFFFFFFFFFFFFFFFFFFFFFFFFFFFFFFF
310
FFFFFFFFFFFFFFFFFFFFFFFFFFFFFFFFFFFFFFFFFFFFFFFFFFFFFFFFFFFFFFFF
310
F000FFFFFFFFFFFFFFFFFFFFFFFFFFFFFFFFFFFFFFFFFFFFFFFFFFFFFFFFFFFF
310
FFFFFFFFFFFFFFFFFFFFFFFFFFFFFFFFFFFFFFFFFFFFFFFFFFFFFFFFFFFFFFFF
310
FFFFFFFFFFFFFFFFFFFFFFFFFFFFFFFFFFFFFFFFFFFFFFFFF000FFFFFFFFFFFF
310
FFFFFFFFFFFFFFFFFFFFFFFFFFFFFFFFFFFFFFFFFFFFFFFFFFFFFFFFFFFFFFFF
310
FFFFFFFFFFFFFFFFFFFFFFFFFFFFFFFFFFFFFFFFFFFFFFFFFFFFFFFFFFFFFFFF
310
FFFFFFFFFFFFFFFFFFFFFFFFFFFFFFFFF000FFFFFFFFFFFFFFFFFFFFFFFFFFFF
310
FFFFFFFFFFFFFFFFFFFFFFFFFFFFFFFFFFFFFFFFFFFFFFFFFFFFFFFFFFFFFFFF
310
FFFFFFFFFFFFFFFFFFFFFFFFFFFFFFFFFFFFFFFFFFFFFFFFFFFFFFFFFFFFFFFF
310
FFFFFFFFFFFFFFFFF000FFFFFFFFFFFFFFFFFFFFFFFFFFFFFFFFFFFFFFFFFFFF
310
FFFFFFFFFFFFFFFFFFFFFFFFFFFFFFFFFFFFFFFFFFFFFFFFFFFFFFFFFFFFFFFF
310
FFFFFFFFFFFFFFFFFFFFFFFFFFFFFFFFFFFFFFFFFFFFFFFFFFFFFFFFFFFFFFFF
310
F000FFFFFFFFFFFFFFFFFFFFFFFFFFFFFFFFFFFFFFFFFFFFFFFFFFFFFFFFFFFF
310
FFFFFFFFFFFFFFFFFFFFFFFFFFFFFFFFFFFFFFFFFFFFFFFFFFFFFFFFFFFFFFFF
310
FFFFFFFFFFFFFFFFFFFFFFFFFFFFFFFFFFFFFFFFFFFFFFFFF000FFFFFFFFFFFF
310
FFFFFFFFFFFFFFFFFFFFFFFFFFFFFFFFFFFFFFFFFFFFFFFFFFFFFFFFFFFFFFFF
310
FFFFFFFFFFFFFFFFFFFFFFFFFFFFFFFFFFFFFFFFFFFFFFFFFFFFFFFFFFFFFFFF
310
FFFFFFFFFFFFFFFFFFFFFFFFFFFFFFFFF000FFFFFFFFFFFFFFFFFFFFFFFFFFFF
310
FFFFFFFFFFFFFFFFFFFFFFFFFFFFFFFFFFFFFFFFFFFFFFFFFFFFFFFFFFFFFFFF
310
FFFFFFFFFFFFFFFFFFFFFFFFFFFFFFFFFFFFFFFFFFFFFFFFFFFFFFFFFFFFFFFF
310
FFFFFFFFFFFFFFFFF000FFFFFFFFFFFFFFFFFFFFFFFFFFFFFFFFFFFFFFFFFFFF
310
FFFFFFFFFFFFFFFFFFFFFFFFFFFFFFFFFFFFFFFFFFFFFFFFFFFFFFFFFFFFFFFF
310
FFFFFFFFFFFFFFFFFFFFFFFFFFFFFFFFFFFFFFFFFFFFFFFFFFFFFFFFFFFFFFFF
310
F000FFFFFFFFFFFFFFFFFFFFFFFFFFFFFFFFFFFFFFFFFFFFFFFFFFFFFFFFFFFF
310
FFFFFFFFFFFFFFFFFFFFFFFFFFFFFFFFFFFFFFFFFFFFFFFFFFFFFFFFFFFFFFFF
310
FFFFFFFFFFFFFFFFFFFFFFFFFFFFFFFFFFFFFFFFFFFFFFFFF000FFFFFFFFFFFF
310
FFFFFFFFFFFFFFFFFFFFFFFFFFFFFFFFFFFFFFFFFFFFFFFFFFFFFFFFFFFFFFFF
310
FFFFFFFFFFFFFFFFFFFFFFFFFFFFFFFFFFFFFFFFFFFFFFFFFFFFFFFFFFFFFFFF
310
FFFFFFFFFFFFFFFFFFFFFFFFFFFFFFFFF000FFFFFFFFFFFFFFFFFFFFFFFFFFFF
310
FFFFFFFFFFFFFFFFFFFFFFFFFFFFFFFFFFFFFFFFFFFFFFFFFFFFFFFFFFFFFFFF
310
FFFFFFFFFFFFFFFFFFFFFFFFFFFFFFFFFFFFFFFFFFFFFFFFFFFFFFFFFFFFFFFF
310
FFFFFFFFFFFFFFFFF000FFFFF80003FFFFFFFFFFFFFFFFFFFFFFFFFFFFFFFFFF
310
FFFFF00007FFFFFFFFFF00007FFFFFF800000000000000007FFFFFFFFFFFFFFF
310
FFFFFFFC001FFFFFFFFFFFFFFC001FFFFFFFFFFFFFFFFFFFFFFFFFFE0007FFFF
310
F000FFFF8000007FFFFFFFF8000FFFFFC0007FFFFF80007FFFFF0000007FFFFF
310
FFF8000007FFFFF800000000000000007FFFFFF0001FFFFFFFFFFFC00001FFFF
310
FFFFFFFFC00001FFFFFFFF000000000003FFFFE000007FFFF000FFFE0000000F
310
FFFFFFF0000FFFFF80007FFFFF80007FFFFC0000001FFFFFFFC0000001FFFFF8
310
00000000000000007FFFFFF0001FFFFFFFFFFE0000003FFFFFFFFFFE0000003F
310
FFFFFF000000000003FFFF0000000FFFF000FFF800000003FFFFFFF00007FFFF
310
80007FFFFF80007FFFF000000007FFFFFF000000003FFFF80000000000000000
310
7FFFFFF0001FFFFFFFFFF80000000FFFFFFFFFF80000000FFFFFFF0000000000
310
03FFFC00000003FFF000FFE000000000FFFFFFF00007FFFF80003FFFFF80007F
310
FFC000000001FFFFFC000000001FFFF800000000000000007FFFFFF0001FFFFF
310
FFFFE000000003FFFFFFFFE000000003FFFFFF000000000003FFF000000000FF
310
F000FF80000000007FFFFFF00007FFFF80003FFFFF80007FFF8000000000FFFF
310
F80000000007FFF800000000000000007FFFFFF0001FFFFFFFFFC000000001FF
310
FFFFFFC000000001FFFFFF000000000003FFC0000000007FF000FF0000000000
310
3FFFFFE00007FFFF00003FFFFF80007FFE00000000003FFFF00000000003FFF8
310
00000000000000007FFFFFF0001FFFFFFFFF8000000000FFFFFFFF8000000000
310
FFFFFF000000000003FF80000000003FF000FE00000000001FFFFFE00003FFFF
310
00003FFFFF80007FFC00000000001FFFE00000000001FFF8000001FFFE000000
310
7FFFFFF0001FFFFFFFFE00000000003FFFFFFE00000000003FFFFF0000000000
310
03FF00000000001FF000FC00000000000FFFFFE00003FFFF00001FFFFF80007F
310
F800000000001FFFC00000000000FFF8000001FFFE0000007FFFFFF0001FFFFF
310
FFFC00000000001FFFFFFC00000000001FFFFF000000000003FE00000000000F
310
F000F8000000000007FFFFE00003FFFF00001FFFFF80007FF800000000000FFF
310
800000000000FFF8000001FFFE0000007FFFFFF0001FFFFFFFF800000000000F
310
FFFFF800000000000FFFFF000000000003FC000000000007F000F80000000000
310
03FFFFC00003FFFE00001FFFFF80007FF0000000000007FF0000000000007FF8
310
000001FFFE0000007FFFFFF0001FFFFFFFF0000000000007FFFFF00000000000
310
07FFFF000000000003F8000000000003F000F0000000000003FFFFC00001FFFE
310
00001FFFFF80007FE0000000000007FE0000000000003FF8000001FFFE000000
310
7FFFFFF0001FFFFFFFF0000000000007FFFFF0000000000007FFFF0000000000
310
03F800001F800003F000E00001FFF00001FFFFC00001FFFE00000FFFFF80007F
310
E00001FFE00003FE00001FFF00003FF8000001FFFE0000007FFFFFF0001FFFFF
310
FFE000003E000003FFFFE000003E000003FFFF000000000003F00001FFF80001
310
F000E00007FFFC0001FFFFC00001FFFE00000FFFFF80007FC0000FFFFC0003FC
310
0000FFFFC0001FF8000001FFFE0000007FFFFFF0001FFFFFFFC00003FFE00001
310
FFFFC00003FFE00001FFFF0001FFFFFFFFF00007FFFE0001F000E0000FFFFF00
310
00FFFF800001FFFC00000FFFFF80007FC0001FFFFE0001FC0001FFFFE0001FF8
310
000001FFFE0000007FFFFFF0001FFFFFFF80000FFFF80000FFFF80000FFFF800
310
00FFFF0003FFFFFFFFE0000FFFFF8000F000C0003FFFFF8000FFFF800000FFFC
310
000007FFFF80007F80003FFFFF0001FC0003FFFFF0001FF8000001FFFE000000
310
7FFFFFF0001FFFFFFF80003FFFFE0000FFFF80003FFFFE0000FFFF0003FFFFFF
310
FFE0003FFFFF8000F000C0003FFFFF8000FFFF800000FFFC000007FFFF80007F
310
80007FFFFF8001F80007FFFFF8000FF8000001FFFE0000007FFFFFF0001FFFFF
310
FF00007FFFFF00007FFF00007FFFFF00007FFF0003FFFFFFFFE0003FFFFFC000
310
F000C0007FFFFFC000FFFF000000FFFC000007FFFF80007F8000FFFFFF8000F8
310
000FFFFFF8000FF8000001FFFE0000007FFFFFF0001FFFFFFF0000FFFFFF8000
310
7FFF0000FFFFFF80007FFF0003FFFFFFFFC0007FFFFFC00070008000FFFFFFC0
310
00FFFF000000FFF8000007FFFF80007F8000FFFFFF8000F8000FFFFFF8000FF8
310
000001FFFE0000007FFFFFF0001FFFFFFE0001FFFFFFC0003FFE0001FFFFFFC0
310
003FFF0003FFFFFFFFC0007FFFFFE00070008000FFFFFFC0007FFF0000007FF8
310
000003FFFF80007F0001FFFFFF8000F8000FFFFFF8000FF8000001FFFE000000
310
7FFFFFF0001FFFFFFE0001FFFFFFC0003FFE0001FFFFFFC0003FFF0003FFFFFF
310
FFC000FFFFFFE00070008000FFFFFFC0007FFF0000007FF8000003FFFF80007F
310
0001FFFFFF8000F8001FFFFFF8000FF8000001FFFE0000007FFFFFF0001FFFFF
310
FE0003FFFFFFE0003FFE0003FFFFFFE0003FFF0003FFFFFFFFC000FFFFFFE000
310
70008000FFFFFFC0007FFE0000007FF8000003FFFF80007F0001FFFFFF8000F0
310
001FFFFFF8000FF8000001FFFE0000007FFFFFF0001FFFFFFC0003FFFFFFE000
310
1FFC0003FFFFFFE0001FFF0003FFFFFFFFC000FFFFFFC00070008000FFFFFF80
310
007FFE0000007FF0000003FFFF80007F0001FFFFFF0000F0001FFFFFF8000FF8
310
000001FFFE0000007FFFFFF0001FFFFFFC0007FFFFFFF0001FFC0007FFFFFFF0
310
001FFF0003FFFFFFFFC000FFFFFFC00070008001FFFFFF0000FFFE0000003FF0
310
000001FFFF80007F0001FFFFFF0000F8001FFFFFF0000FF8000001FFFE000000
310
7FFFFFF0001FFFFFFC0007FFFFFFF0001FFC0007FFFFFFF0001FFF0003FFFFFF
310
FFC001FFFFFF80007000FFFFFFFFFE0000FFFE0008003FF0008001FFFF80007F
310
FFFFFFFFFC0000FFFFFFFFFFE0000FF8000001FFFE0000007FFFFFF0001FFFFF
310
F8000FFFFFFFF8000FF8000FFFFFFFF8000FFF0003FFFFFFFFFFFFFFFFFF0000
310
7000FFFFFFFFFC0000FFFC0008003FF0008001FFFF80007FFFFFFFFFF80001FF
310
FFFFFFFF80000FF8000001FFFE0000007FFFFFF0001FFFFFF8000FFFFFFFF800
310
0FF8000FFFFFFFF8000FFF0003FFFFFFFFFFFFFFFFFE0000F000FFFFFFFFE000
310
00FFFC000C003FE000C001FFFF80007FFFFFFFFFC00001FFFFFFFFFE00001FF8
310
000001FFFE0000007FFFFFF0001FFFFFF8000FFFFFFFF8000FF8000FFFFFFFF8
310
000FFF0003FFFFFFFFFFFFFFFFF00000F000FFFFFFFE000001FFFC000C001FE0
310
00C000FFFF80007FFFFFFFFE000001FFFFFFFFE000001FF80FFFFFFFFFFFFFC0
310
7FFFFFF0001FFFFFF8000FFFFFFFF8000FF8000FFFFFFFF8000FFF0003FFFFFF
310
FFFFFFFFFF800000F000FFFFFFC0000001FFFC001C001FE001C000FFFF80007F
310
FFFFFF80000003FFFFFFF80000001FF80FFFFFFFFFFFFFC07FFFFFF0001FFFFF
310
F8001FFFFFFFFC000FF8001FFFFFFFFC000FFF0003FFFFFFFFFFFFFFF0000001
310
F000FFFFF800000001FFF8001C001FE001C000FFFF80007FFFFFF800000003FF
310
FFFF800000003FF80FFFFFFFFFFFFFC07FFFFFF0001FFFFFF8001FFFFFFFFC00
310
0FF8001FFFFFFFFC000FFF0003FFFFFFFFFFFFFE00000001F000FFFFC0000000
310
03FFF8001E001FC001E000FFFF80007FFFFF8000000007FFFFFC000000003FF8
310
0FFFFFFFFFFFFFC07FFFFFF0001FFFFFF8001FFFFFFFFC000FF8001FFFFFFFFC
310
000FFF0003FFFFFFFFFFFFE000000003F000FFFE0000000007FFF8001E000FC0
310
01E0007FFF80007FFFFE0000000007FFFFE0000000007FF80FFFFFFFFFFFFFC0
310
7FFFFFF0001FFFFFF0001FFFFFFFFC0007F0001FFFFFFFFC0007FF0003FFFFFF
310
FFFFFF0000000003F000FFF80000000007FFF8001E000FC003E0007FFF80007F
310
FFF0000000000FFFFF8000000000FFF80FFFFFFFFFFFFFC07FFFFFF0001FFFFF
310
F0001FFFFFFFFC0007F0001FFFFFFFFC0007FF0003FFFFFFFFFFFC0000000007
310
F000FFE0000000000FFFF0003E000FC003E0007FFF80007FFFC0000000001FFF
310
FE0000000001FFF80FFFFFFFFFFFFFC07FFFFFF0001FFFFFF0001FFFFFFFFC00
310
07F0001FFFFFFFFC0007FF0003FFFFFFFFFFF0000000000FF000FFC000000000
310
1FFFF0003F000F8003F0003FFF80007FFF80000000003FFFF80000000003FFF8
310
0FFFFFFFFFFFFFC07FFFFFF0001FFFFFF0001FFFFFFFFC0007F0001FFFFFFFFC
310
0007FF0003FFFFFFFFFFE0000000001FF000FF00000000007FFFF0003F000780
310
03F0003FFF80007FFF00000000007FFFF00000000007FFF80FFFFFFFFFFFFFC0
310
7FFFFFF0001FFFFFF0001FFFFFFFFC0007F0001FFFFFFFFC0007FF0003FFFFFF
310
FFFF80000000007FF000FE0000000000FFFFE0003F00078007F0003FFF80007F
310
FE0000000001FFFFE0000000001FFFF80FFFFFFFFFFFFFC07FFFFFF0001FFFFF
310
F0001FFFFFFFFC0007F0001FFFFFFFFC0007FF0003FFFFFFFFFF0000000000FF
310
F000FC0000000003FFFFE0007F00078007F0003FFF80007FFC0000000007FFFF
310
C0000000007FFFF80FFFFFFFFFFFFFC07FFFFFF0001FFFFFF8001FFFFFFFFC00
310
0FF8001FFFFFFFFC000FFF0003FFFFFFFFFE0000000003FFF000FC000000000F
310
FFFFE0007F80070007F8001FFF80007FF8000000001FFFFF8000000001FFFFF8
310
0FFFFFFFFFFFFFC07FFFFFF0001FFFFFF8001FFFFFFFFC000FF8001FFFFFFFFC
310
000FFF0003FFFFFFFFFC000000000FFFF000F8000000007FFFFFE0007F800700
310
07F8001FFF80007FF000000000FFFFFF800000000FFFFFF80FFFFFFFFFFFFFC0
310
7FFFFFF0001FFFFFF8000FFFFFFFF8000FF8000FFFFFFFF8000FFF0003FFFFFF
310
FFFC000000007FFFF000F800000007FFFFFFC0007F8003000FF8001FFF80007F
310
F000000007FFFFFF000000007FFFFFF80FFFFFFFFFFFFFC07FFFFFF0001FFFFF
310
F8000FFFFFFFF8000FF8000FFFFFFFF8000FFF0003FFFFFFFFF80000000FFFFF
310
F000F0000000FFFFFFFFC000FF8003000FF8001FFF80007FE0000000FFFFFFFF
310
0000000FFFFFFFF8000001FFFE0000007FFFFFF0001FFFFFF8000FFFFFFFF800
310
0FF8000FFFFFFFF8000FFF0003FFFFFFFFF8000000FFFFFFF000F000000FFFFF
310
FFFFC000FFC002000FF8000FFF80007FE000001FFFFFFFFE000001FFFFFFFFF8
310
000001FFFE0000007FFFFFF0001FFFFFF8000FFFFFFFF8000FF8000FFFFFFFF8
310
000FFF0003FFFFFFFFF000001FFFFFFFF000E00000FFFFFFFFFFC000FFC00200
310
0FFC000FFF80007FE00001FFFFFFFFFE00001FFFFFFFFFF8000001FFFE000000
310
7FFFFFF0001FFFFFFC000FFFFFFFF8001FFC000FFFFFFFF8001FFF0003FFFFFF
310
FFF00001FFFFFFFFF000E00007FFFFFFFFFF8000FFC000001FFC000FFF80007F
310
C0000FFFFFFFFFFE0000FFFFFFFFFFF8000001FFFE0000007FFFFFF0001FFFFF
310
FC0007FFFFFFF0001FFC0007FFFFFFF0001FFF0003FFFFFFFFF00007FFFFFFFF
310
F000E0001FFFFFFFFFFF8000FFC000001FFC000FFF80007FC0003FFFFFFFFFFE
310
0001FFFFFFFFFFF8000001FFFE0000007FFFFFF0001FFFFFFC0007FFFFFFF000
310
1FFC0007FFFFFFF0001FFF0003FFFFFFFFF0001FFFFFFFFFF000E0003FFFFF00
310
03FF8001FFE000001FFC0007FF80007FC0007FFFFF0007FC0003FFFFF0003FF8
310
000001FFFE0000007FFFFFF0001FFFFFFC0003FFFFFFE0001FFC0003FFFFFFE0
310
001FFF0003FFFFFFFFF0003FFFFFFFFFF000E0003FFFFF0001FF8001FFE00000
310
1FFE0007FF80007FC0007FFFFE0003FC0007FFFFE0003FF8000001FFFE000000
310
7FFFFFF0001FFFFFFE0003FFFFFFE0003FFE0003FFFFFFE0003FFF0003FFFFFF
310
FFF0003FFFFF8001F000E0003FFFFF0001FF0001FFE000001FFE0007FF80007F
310
C0007FFFFE0003FC0007FFFFE0003FF8000001FFFE0000007FFFFFF0001FFFFF
310
FE0001FFFFFFC0003FFE0001FFFFFFC0003FFF0003FFFFFFFFF0003FFFFF0001
310
F000E0003FFFFF0003FF0001FFE000003FFE0007FF80007FC0007FFFFE0003FC
310
0007FFFFE0003FF8000001FFFE0000007FFFFFF0001FFFFFFF0001FFFFFFC000
310
7FFF0001FFFFFFC0007FFF0003FFFFFFFFF0003FFFFF0001F000E0003FFFFE00
310
03FF0003FFF000003FFE0003FF80007FC0007FFFFC0003FE0007FFFFE0003FF8
310
000001FFFE0000007FFFFFF0001FFFFFFF0000FFFFFF80007FFF0000FFFFFF80
310
007FFF0003FFFFFFFFF0003FFFFF0001F000E0003FFFFE0003FF0003FFF00000
310
3FFF0003FF80007FC0007FFFFC0007FE0007FFFFC0003FF8000001FFFE000000
310
7FFFFFF0001FFFFFFF80007FFFFF0000FFFF80007FFFFF0000FFFF0003FFFFFF
310
FFF0003FFFFF0003F000E0003FFFFC0003FE0003FFF000003FFF0003FF80007F
310
E0003FFFF80007FE0003FFFFC0007FF8000001FFFE0000007FFFFFF0001FFFFF
310
FF80003FFFFE0000FFFF80003FFFFE0000FFFF0003FFFFFFFFF0001FFFFE0003
310
F000F0001FFFF80003FE0003FFF000007FFF0001FF80007FE0003FFFF00007FE
310
0001FFFF80007FF8000001FFFE0000007FFFFFF0001FFFFFFFC0000FFFF80001
310
FFFFC0000FFFF80001FFFF0003FFFFFFFFF0001FFFFC0003F000F0000FFFF000
310
07FE0007FFF800007FFF0001FF80007FE0001FFFE00007FF0000FFFE00007FF8
310
000001FFFE0000007FFFFFF0001FFFFFFFC00003FFE00001FFFFC00003FFE000
310
01FFFF0003FFFFFFFFF8000FFFF80003F000F00003FFC00007FC0007FFF80000
310
7FFF8001FF80007FF00007FF80000FFF00007FF80000FFF8000001FFFE000000
310
7F80000000000001FFE000003E000003FFFFE000003E000003FFFF0003FFFFFF
310
FFF80003FFE00007F000F800000000000FFC0007FFF800007FFF8001FF80007F
310
F000000000000FFF000000000000FFF8000001FFFE0000007F80000000000001
310
FFF0000000000007FFFFF0000000000007FFFF0003FFFFFFFFFC00007E000007
310
F000F800000000000FFC0007FFF80000FFFF8000FF80007FF800000000001FFF
310
800000000001FFF8000001FFFE0000007F80000000000001FFF800000000000F
310
FFFFF800000000000FFFFF0003FFFFFFFFFC00000000000FF000FC0000000000
310
1FFC0007FFFC0000FFFF8000FF80007FF800000000003FFFC00000000001FFF8
310
000001FFFE0000007F80000000000001FFF800000000000FFFFFF80000000000
310
0FFFFF0003FFFFFFFFFE00000000001FF000FE00000000003FF8000FFFFC0000
310
FFFF8000FF80007FFC00000000003FFFC00000000003FFF8000001FFFE000000
310
7F80000000000001FFFC00000000001FFFFFFC00000000001FFFFF0003FFFFFF
310
FFFF00000000001FF000FF00000000003FF8000FFFFC0000FFFFC000FF80007F
310
FE00000000007FFFE00000000007FFF8000001FFFE0000007F80000000000001
310
FFFE00000000003FFFFFFE00000000003FFFFF0003FFFFFFFFFF80000000003F
310
F000FF80000000007FF8000FFFFC0001FFFFC0007F80007FFF0000000000FFFF
310
F0000000000FFFF800000000000000007F80000000000001FFFF8000000000FF
310
FFFFFF8000000000FFFFFF0003FFFFFFFFFFC0000000007FF000FFC000000000
310
FFF8000FFFFE0001FFFFC0007F80007FFF8000000001FFFFF8000000001FFFF8
310
00000000000000007F80000000000001FFFFC000000001FFFFFFFFC000000001
310
FFFFFF0003FFFFFFFFFFE000000000FFF000FFE000000003FFF0001FFFFE0001
310
FFFFC0007F80007FFFC000000007FFFFFE000000003FFFF80000000000000000
310
7F80000000000001FFFFE000000003FFFFFFFFE000000003FFFFFF0003FFFFFF
310
FFFFF000000003FFF000FFF80000000FFFF0001FFFFE0001FFFFE0007F80007F
310
FFF00000000FFFFFFF00000000FFFFF800000000000000007F80000000000001
310
FFFFF80000000FFFFFFFFFF80000000FFFFFFF0003FFFFFFFFFFFC0000000FFF
310
F000FFFE0000003FFFF0001FFFFE0003FFFFE0003F80007FFFFC0000003FFFFF
310
FFC0000003FFFFF800000000000000007F80000000000001FFFFFE0000003FFF
310
FFFFFFFE0000003FFFFFFF0003FFFFFFFFFFFF0000003FFFF000FFFF800000FF
310
FFF0001FFFFF0003FFFFE0003F80007FFFFF000001FFFFFFFFF800001FFFFFF8
310
00000000000000007F80000000000001FFFFFFC00001FFFFFFFFFFFFC00001FF
310
FFFFFF0003FFFFFFFFFFFFC00000FFFFF000FFFFF8000FFFFFFFFFFFFFFFFFFF
310
FFFFFFFFFFFFFFFFFFFFF0001FFFFFFFFFFF0000FFFFFFF80000000000000000
310
7FFFFFFFFFFFFFFFFFFFFFFC001FFFFFFFFFFFFFFC001FFFFFFFFFFFFFFFFFFF
310
FFFFFFFC001FFFFFF000FFFFFFFFFFFFFFFFFFFFFFFFFFFFFFFFFFFFFFFFFFFF
310
FFFFFFFFFFFFFFFFFFFFFFFFFFFFFFFFFFFFFFFFFFFFFFFFFFFFFFFFFFFFFFFF
310
FFFFFFFFFFFFFFFFFFFFFFFFFFFFFFFFFFFFFFFFFFFFFFFFFFFFFFFFFFFFFFFF
310
F000FFFFFFFFFFFFFFFFFFFFFFFFFFFFFFFFFFFFFFFFFFFFFFFFFFFFFFFFFFFF
310
FFFFFFFFFFFFFFFFFFFFFFFFFFFFFFFFFFFFFFFFFFFFFFFFFFFFFFFFFFFFFFFF
310
FFFFFFFFFFFFFFFFFFFFFFFFFFFFFFFFFFFFFFFFFFFFFFFFF000FFFFFFFFFFFF
310
FFFFFFFFFFFFFFFFFFFFFFFFFFFFFFFFFFFFFFFFFFFFFFFFFFFFFFFFFFFFFFFF
310
FFFFFFFFFFFFFFFFFFFFFFFFFFFFFFFFFFFFFFFFFFFFFFFFFFFFFFFFFFFFFFFF
310
FFFFFFFFFFFFFFFFFFFFFFFFFFFFFFFFF000FFFFFFFFFFFFFFFFFFFFFFFFFFFF
310
FFFFFFFFFFFFFFFFFFFFFFFFFFFFFFFFFFFFFFFFFFFFFFFFFFFFFFFFFFFFFFFF
310
FFFFFFFFFFFFFFFFFFFFFFFFFFFFFFFFFFFFFFFFFFFFFFFFFFFFFFFFFFFFFFFF
310
FFFFFFFFFFFFFFFFF000FFFFFFFFFFFFFFFFFFFFFFFFFFFFFFFFFFFFFFFFFFFF
310
FFFFFFFFFFFFFFFFFFFFFFFFFFFFFFFFFFFFFFFFFFFFFFFFFFFFFFFFFFFFFFFF
310
FFFFFFFFFFFFFFFFFFFFFFFFFFFFFFFFFFFFFFFFFFFFFFFFFFFFFFFFFFFFFFFF
310
F000FFFFFFFFFFFFFFFFFFFFFFFFFFFFFFFFFFFFFFFFFFFFFFFFFFFFFFFFFFFF
310
FFFFFFFFFFFFFFFFFFFFFFFFFFFFFFFFFFFFFFFFFFFFFFFFFFFFFFFFFFFFFFFF
310
FFFFFFFFFFFFFFFFFFFFFFFFFFFFFFFFFFFFFFFFFFFFFFFFF000FFFFFFFFFFFF
310
FFFFFFFFFFFFFFFFFFFFFFFFFFFFFFFFFFFFFFFFFFFFFFFFFFFFFFFFFFFFFFFF
310
FFFFFFFFFFFFFFFFFFFFFFFFFFFFFFFFFFFFFFFFFFFFFFFFFFFFFFFFFFFFFFFF
310
FFFFFFFFFFFFFFFFFFFFFFFFFFFFFFFFF000FFFFFFFFFFFFFFFFFFFFFFFFFFFF
310
FFFFFFFFFFFFFFFFFFFFFFFFFFFFFFFFFFFFFFFFFFFFFFFFFFFFFFFFFFFFFFFF
310
FFFFFFFFFFFFFFFFFFFFFFFFFFFFFFFFFFFFFFFFFFFFFFFFFFFFFFFFFFFFFFFF
310
FFFFFFFFFFFFFFFFF000FFFFFFFFFFFFFFFFFFFFFFFFFFFFFFFFFFFFFFFFFFFF
310
FFFFFFFFFFFFFFFFFFFFFFFFFFFFFFFFFFFFFFFFFFFFFFFFFFFFFFFFFFFFFFFF
310
FFFFFFFFFFFFFFFFFFFFFFFFFFFFFFFFFFFFFFFFFFFFFFFFFFFFFFFFFFFFFFFF
310
F000FFFFFFFFFFFFFFFFFFFFFFFFFFFFFFFFFFFFFFFFFFFFFFFFFFFFFFFFFFFF
310
FFFFFFFFFFFFFFFFFFFFFFFFFFFFFFFFFFFFFFFFFFFFFFFFFFFFFFFFFFFFFFFF
310
FFFFFFFFFFFFFFFFFFFFFFFFFFFFFFFFFFFFFFFFFFFFFFFFF000FFFFFFFFFFFF
310
FFFFFFFFFFFFFFFFFFFFFFFFFFFFFFFFFFFFFFFFFFFFFFFFFFFFFFFFFFFFFFFF
310
FFFFFFFFFFFFFFFFFFFFFFFFFFFFFFFFFFFFFFFFFFFFFFFFFFFFFFFFFFFFFFFF
310
FFFFFFFFFFFFFFFFFFFFFFFFFFFFFFFFF000FFFFFFFFFFFFFFFFFFFFFFFFFFFF
310
FFFFFFFFFFFFFFFFFFFFFFFFFFFFFFFFFFFFFFFFFFFFFFFFFFFFFFFFFFFFFFFF
310
FFFFFFFFFFFFFFFFFFFFFFFFFFFFFFFFFFFFFFFFFFFFFFFFFFFFFFFFFFFFFFFF
310
FFFFFFFFFFFFFFFFF000FFFFFFFFFFFFFFFFFFFFFFFFFFFFFFFFFFFFFFFFFFFF
310
FFFFFFFFFFFFFFFFFFFFFFFFFFFFFFFFFFFFFFFFFFFFFFFFFFFFFFFFFFFFFFFF
310
FFFFFFFFFFFFFFFFFFFFFFFFFFFFFFFFFFFFFFFFFFFFFFFFFFFFFFFFFFFFFFFF
310
F000FFFFFFFFFFFFFFFFFFFFFFFFFFFFFFFFFFFFFFFFFFFFFFFFFFFFFFFFFFFF
310
FFFFFFFFFFFFFFFFFFFFFFFFFFFFFFFFFFFFFFFFFFFFFFFFFFFFFFFFFFFFFFFF
310
FFFFFFFFFFFFFFFFFFFFFFFFFFFFFFFFFFFFFFFFFFFFFFFFF000FFFFFFFFFFFF
310
FFFFFFFFFFFFFFFFFFFFFFFFFFFFFFFFFFFFFFFFFFFFFFFFFFFFFFFFFFFFFFFF
310
FFFFFFFFFFFFFFFFFFFFFFFFFFFFFFFFFFFFFFFFFFFFFFFFFFFFFFFFFFFFFFFF
310
FFFFFFFFFFFFFFFFFFFFFFFFFFFFFFFFF000FFFFFFFFFFFFFFFFFFFFFFFFFFFF
310
FFFFFFFFFFFFFFFFFFFFFFFFFFFFFFFFFFFFFFFFFFFFFFFFFFFFFFFFFFFFFFFF
310
FFFFFFFFFFFFFFFFFFFFFFFFFFFFFFFFFFFFFFFFFFFFFFFFFFFFFFFFFFFFFFFF
310
FFFFFFFFFFFFFFFFF000FFFFFFFFFFFFFFFFFFFFFFFFFFFFFFFFFFFFFFFFFFFF
310
FFFFFFFFFFFFFFFFFFFFFFFFFFFFFFFFFFFFFFFFFFFFFFFFFFFFFFFFFFFFFFFF
310
FFFFFFFFFFFFFFFFFFFFFFFFFFFFFFFFFFFFFFFFFFFFFFFFFFFFFFFFFFFFFFFF
310
F000FFFFFFFFFFFFFFFFFFFFFFFFFFFFFFFFFFFFFFFFFFFFFFFFFFFFFFFFFFFF
310
FFFFFFFFFFFFFFFFFFFFFFFFFFFFFFFFFFFFFFFFFFFFFFFFFFFFFFFFFFFFFFFF
310
FFFFFFFFFFFFFFFFFFFFFFFFFFFFFFFFFFFFFFFFFFFFFFFFF000FFFFFFFFFFFF
310
FFFFFFFFFFFFFFFFFFFFFFFFFFFFFFFFFFFFFFFFFFFFFFFFFFFFFFFFFFFFFFFF
310
FFFFFFFFFFFFFFFFFFFFFFFFFFFFFFFFFFFFFFFFFFFFFFFFFFFFFFFFFFFFFFFF
310
FFFFFFFFFFFFFFFFFFFFFFFFFFFFFFFFF000FFFFFFFFFFFFFFFFFFFFFFFFFFFF
310
FFFFFFFFFFFFFFFFFFFFFFFFFFFFFFFFFFFFFFFFFFFFFFFFFFFFFFFFFFFFFFFF
310
FFFFFFFFFFFFFFFFFFFFFFFFFFFFFFFFFFFFFFFFFFFFFFFFFFFFFFFFFFFFFFFF
310
FFFFFFFFFFFFFFFFF000FFFFFFFFFFFFFFFFFFFFFFFFFFFFFFFFFFFFFFFFFFFF
310
FFFFFFFFFFFFFFFFFFFFFFFFFFFFFFFFFFFFFFFFFFFFFFFFFFFFFFFFFFFFFFFF
310
FFFFFFFFFFFFFFFFFFFFFFFFFFFFFFFFFFFFFFFFFFFFFFFFFFFFFFFFFFFFFFFF
310
F000FFFFFFFFFFFFFFFFFFFFFFFFFFFFFFFFFFFFFFFFFFFFFFFFFFFFFFFFFFFF
310
FFFFFFFFFFFFFFFFFFFFFFFFFFFFFFFFFFFFFFFFFFFFFFFFFFFFFFFFFFFFFFFF
310
FFFFFFFFFFFFFFFFFFFFFFFFFFFFFFFFFFFFFFFFFFFFFFFFF000FFFFFFFFFFFF
310
FFFFFFFFFFFFFFFFFFFFFFFFFFFFFFFFFFFFFFFFFFFFFFFFFFFFFFFFFFFFFFFF
310
FFFFFFFFFFFFFFFFFFFFFFFFFFFFFFFFFFFFFFFFFFFFFFFFFFFFFFFFFFFFFFFF
310
FFFFFFFFFFFFFFFFFFFFFFFFFFFFFFFFF0000000000000000000000000000000
310
000000006D32E63D272D1B3E6D32E63DE6FD1A3E2495E53DE6FD1A3E1F61D43D
310
272D1B3ED5C3D33D4DF2BF3D9BAAAB3D880EBF3DC6A5AC3D5FB2AF3DDC82AD3D
310
6FB5AE3DB187AC3D5FB5AE3D48B7063E5EB2AF3DAF39063E870EBF3D3BA8063E
310
5BF2BF3DD425073E8574F63D1F61D43DE6FD1A3E1F61D43DE6FD1A3E2495E53D
310
8574F63D2495E53D870EBF3D26E8023E870EBF3D16A8063E5EB2AF3D9E39063E
310
5EB2AF3DF4F7023E870EBF3D07A6AC3D870EBF3DF625B43D5EB2AF3DAD05B43D
310
5EB2AF3D0783AD3DD8EC273E8636BC3DB3E6263E3865BD3DFBC7213E3865BD3D
310
D6C1203E8636BC3DD6C1203EBDBFFD3DFBC7213E0A91FC3DB3E6263E0A91FC3D
310
D8EC273EBDBFFD3DFBC7213E0A91FC3DFBC7213E2551EB3DB3E6263E2551EB3D
310
B3E6263E0A91FC3DFBC7213E2551EB3DD444243ED553E83DDB69243ED553E83D
310
B3E6263E2551EB3DB3E6263E1DA5CE3DFB69243E46A2D13DCC44243E64A2D13D
310
FBC7213E1DA5CE3DB3E6263E3865BD3DB3E6263E1DA5CE3DFBC7213E1DA5CE3D
310
FBC7213E3865BD3D9EEB3A3E8B8DF03D9EEB3A3EFFE1E93D9EEB3A3EBB94F63D
310
9EEB3A3E5168F53D0CFE3D3E7B6EF53D0CFE3D3EBB94F63D0CFE3D3EE8E1E93D
310
0CFE3D3EA14FF03D9EEB3A3EF18DC43D9EEB3A3EAC67C43D9EEB3A3EAA14D03D
  1
OLE
  0
ENDSEC
  0
SECTION
  2
OBJECTS
  0
DICTIONARY
  5
C
330
0
100
AcDbDictionary
281
     1
  3
ACAD_GROUP
350
D
  3
ACAD_LAYOUT
350
1A
  3
ACAD_MLEADERSTYLE
350
249
  3
ACAD_MLINESTYLE
350
17
  3
ACAD_PLOTSETTINGS
350
19
  3
ACAD_PLOTSTYLENAME
350
E
  3
ACAD_TABLESTYLE
350
248
  3
ACAD_VISUALSTYLE
350
2A
  3
AcDbVariableDictionary
350
24A
  0
DICTIONARY
  5
D
102
{ACAD_REACTORS
330
C
102
}
330
C
100
AcDbDictionary
281
     1
  0
DICTIONARY
  5
1A
102
{ACAD_REACTORS
330
C
102
}
330
C
100
AcDbDictionary
281
     1
  3
Layout1
350
1E
  3
Layout2
350
26
  3
Model
350
22
  0
DICTIONARY
  5
249
102
{ACAD_REACTORS
330
C
102
}
330
C
100
AcDbDictionary
281
     1
  0
DICTIONARY
  5
17
102
{ACAD_REACTORS
330
C
102
}
330
C
100
AcDbDictionary
281
     1
  3
Standard
350
18
  0
DICTIONARY
  5
19
102
{ACAD_REACTORS
330
C
102
}
330
C
100
AcDbDictionary
281
     1
  0
ACDBDICTIONARYWDFLT
  5
E
102
{ACAD_REACTORS
330
C
102
}
330
C
100
AcDbDictionary
281
     1
  3
Normal
350
F
100
AcDbDictionaryWithDefault
340
F
  0
DICTIONARY
  5
248
102
{ACAD_REACTORS
330
C
102
}
330
C
100
AcDbDictionary
281
     1
  0
DICTIONARY
  5
2A
102
{ACAD_REACTORS
330
C
102
}
330
C
100
AcDbDictionary
281
     1
  3
2dWireframe
350
2F
  3
3D Hidden
350
31
  3
3dWireframe
350
30
  3
Basic
350
32
  3
Brighten
350
36
  3
ColorChange
350
3A
  3
Conceptual
350
34
  3
Dim
350
35
  3
Facepattern
350
39
  3
Flat
350
2B
  3
FlatWithEdges
350
2C
  3
Gouraud
350
2D
  3
GouraudWithEdges
350
2E
  3
Linepattern
350
38
  3
Realistic
350
33
  3
Thicken
350
37
  0
DICTIONARY
  5
24A
102
{ACAD_REACTORS
330
C
102
}
330
C
100
AcDbDictionary
281
     1
  3
PSOLHEIGHT
350
24C
  3
PSOLWIDTH
350
24B
  0
LAYOUT
  5
1E
102
{ACAD_REACTORS
330
1A
102
}
330
1A
100
AcDbPlotSettings
  1

  2
none_device
  4

  6

 40
0.0
 41
0.0
 42
0.0
 43
0.0
 44
0.0
 45
0.0
 46
0.0
 47
0.0
 48
0.0
 49
0.0
140
0.0
141
0.0
142
1.0
143
1.0
 70
   688
 72
     0
 73
     0
 74
     5
  7

 75
    16
147
1.0
148
0.0
149
0.0
100
AcDbLayout
  1
Layout1
 70
     1
 71
     1
 10
0.0
 20
0.0
 11
420.0
 21
297.0
 12
0.0
 22
0.0
 32
0.0
 14
1.0000000000E+20
 24
1.0000000000E+20
 34
1.0000000000E+20
 15
-1.0000000000E+20
 25
-1.0000000000E+20
 35
-1.0000000000E+20
146
0.0
 13
0.0
 23
0.0
 33
0.0
 16
1.0
 26
0.0
 36
0.0
 17
0.0
 27
1.0
 37
0.0
 76
     0
330
1B
  0
LAYOUT
  5
26
102
{ACAD_REACTORS
330
1A
102
}
330
1A
100
AcDbPlotSettings
  1

  2
none_device
  4

  6

 40
0.0
 41
0.0
 42
0.0
 43
0.0
 44
0.0
 45
0.0
 46
0.0
 47
0.0
 48
0.0
 49
0.0
140
0.0
141
0.0
142
1.0
143
1.0
 70
   688
 72
     0
 73
     0
 74
     5
  7

 75
    16
147
1.0
148
0.0
149
0.0
100
AcDbLayout
  1
Layout2
 70
     1
 71
     2
 10
0.0
 20
0.0
 11
0.0
 21
0.0
 12
0.0
 22
0.0
 32
0.0
 14
0.0
 24
0.0
 34
0.0
 15
0.0
 25
0.0
 35
0.0
146
0.0
 13
0.0
 23
0.0
 33
0.0
 16
1.0
 26
0.0
 36
0.0
 17
0.0
 27
1.0
 37
0.0
 76
     0
330
23
  0
LAYOUT
  5
22
102
{ACAD_REACTORS
330
1A
102
}
330
1A
100
AcDbPlotSettings
  1

  2
none_device
  4

  6

 40
0.0
 41
0.0
 42
0.0
 43
0.0
 44
0.0
 45
0.0
 46
0.0
 47
0.0
 48
0.0
 49
0.0
140
0.0
141
0.0
142
1.0
143
1.0
 70
  1712
 72
     0
 73
     0
 74
     0
  7

 75
     0
147
1.0
148
0.0
149
0.0
100
AcDbLayout
  1
Model
 70
     1
 71
     0
 10
0.0
 20
0.0
 11
297.0
 21
210.0
 12
0.0
 22
0.0
 32
0.0
 14
0.0
 24
0.0
 34
0.0
 15
297.0
 25
210.0
 35
0.0
146
0.0
 13
0.0
 23
0.0
 33
0.0
 16
1.0
 26
0.0
 36
0.0
 17
0.0
 27
1.0
 37
0.0
 76
     0
330
1F
331
29
  0
MLINESTYLE
  5
18
102
{ACAD_REACTORS
330
17
102
}
330
17
100
AcDbMlineStyle
  2
Standard
 70
     0
  3

 62
   256
 51
90.0
 52
90.0
 71
     2
 49
0.5
 62
   256
  6
BYLAYER
 49
-0.5
 62
   256
  6
BYLAYER
  0
ACDBPLACEHOLDER
  5
F
102
{ACAD_REACTORS
330
E
102
}
330
E
  0
VISUALSTYLE
  5
2F
102
{ACAD_REACTORS
330
2A
102
}
330
2A
100
AcDbVisualStyle
  2
2dWireframe
 70
     4
 71
     0
 72
     2
 73
     0
 90
        0
 40
-0.6
 41
-30.0
 62
     5
 63
     7
 74
     1
 91
        4
 64
     7
 65
   257
 75
     1
175
     1
 42
1.0
 92
        0
 66
   257
 43
1.0
 76
     1
 77
     6
 78
     2
 67
     7
 79
     5
170
     0
171
     0
290
     0
174
     0
 93
        1
 44
0.0
173
     0
291
     0
 45
0.0
1001
ACAD
1000
AcDbSavedByObjectVersion
1070
     0
  0
VISUALSTYLE
  5
31
102
{ACAD_REACTORS
330
2A
102
}
330
2A
100
AcDbVisualStyle
  2
3D Hidden
 70
     6
 71
     1
 72
     2
 73
     2
 90
        0
 40
-0.6
 41
-30.0
 62
     5
 63
     7
 74
     2
 91
        2
 64
     7
 65
   257
 75
     2
175
     1
 42
40.0
 92
        0
 66
   257
 43
1.0
 76
     1
 77
     6
 78
     2
 67
     7
 79
     3
170
     0
171
     0
290
     0
174
     0
 93
        1
 44
0.0
173
     0
291
     0
 45
0.0
1001
ACAD
1000
AcDbSavedByObjectVersion
1070
     0
  0
VISUALSTYLE
  5
30
102
{ACAD_REACTORS
330
2A
102
}
330
2A
100
AcDbVisualStyle
  2
3dWireframe
 70
     5
 71
     0
 72
     2
 73
     0
 90
        0
 40
-0.6
 41
-30.0
 62
     5
 63
     7
 74
     1
 91
        4
 64
     7
 65
   257
 75
     1
175
     1
 42
1.0
 92
        0
 66
   257
 43
1.0
 76
     1
 77
     6
 78
     2
 67
     7
 79
     5
170
     0
171
     0
290
     0
174
     0
 93
        1
 44
0.0
173
     0
291
     0
 45
0.0
1001
ACAD
1000
AcDbSavedByObjectVersion
1070
     0
  0
VISUALSTYLE
  5
32
102
{ACAD_REACTORS
330
2A
102
}
330
2A
100
AcDbVisualStyle
  2
Basic
 70
     7
 71
     1
 72
     0
 73
     1
 90
        0
 40
-0.6
 41
-30.0
 62
     5
 63
     7
 74
     0
 91
        4
 64
     7
 65
   257
 75
     1
175
     1
 42
1.0
 92
        8
 66
     7
 43
1.0
 76
     1
 77
     6
 78
     2
 67
     7
 79
     5
170
     0
171
     0
290
     0
174
     0
 93
        1
 44
0.0
173
     0
291
     1
 45
0.0
1001
ACAD
1000
AcDbSavedByObjectVersion
1070
     0
  0
VISUALSTYLE
  5
36
102
{ACAD_REACTORS
330
2A
102
}
330
2A
100
AcDbVisualStyle
  2
Brighten
 70
    12
 71
     2
 72
     2
 73
     0
 90
        0
 40
-0.6
 41
-30.0
 62
     5
 63
     7
 74
     1
 91
        4
 64
     7
 65
   257
 75
     1
175
     1
 42
1.0
 92
        8
 66
     7
 43
1.0
 76
     1
 77
     6
 78
     2
 67
     7
 79
     5
170
     0
171
     0
290
     0
174
     0
 93
        1
 44
50.0
173
     0
291
     1
 45
0.0
1001
ACAD
1000
AcDbSavedByObjectVersion
1070
     0
  0
VISUALSTYLE
  5
3A
102
{ACAD_REACTORS
330
2A
102
}
330
2A
100
AcDbVisualStyle
  2
ColorChange
 70
    16
 71
     2
 72
     2
 73
     3
 90
        0
 40
-0.6
 41
-30.0
 62
     5
 63
     8
 74
     1
 91
        4
 64
     7
 65
   257
 75
     1
175
     1
 42
1.0
 92
        8
 66
     8
 43
1.0
 76
     1
 77
     6
 78
     2
 67
     7
 79
     5
170
     0
171
     0
290
     0
174
     0
 93
        1
 44
0.0
173
     0
291
     1
 45
0.0
1001
ACAD
1000
AcDbSavedByObjectVersion
1070
     0
  0
VISUALSTYLE
  5
34
102
{ACAD_REACTORS
330
2A
102
}
330
2A
100
AcDbVisualStyle
  2
Conceptual
 70
     9
 71
     3
 72
     2
 73
     0
 90
        0
 40
-0.6
 41
-30.0
 62
     5
 63
     7
 74
     2
 91
        2
 64
     7
 65
   257
 75
     1
175
     1
 42
40.0
 92
        8
 66
     7
 43
1.0
 76
     1
 77
     6
 78
     2
 67
     7
 79
     3
170
     0
171
     0
290
     0
174
     0
 93
        1
 44
0.0
173
     0
291
     0
 45
0.0
1001
ACAD
1000
AcDbSavedByObjectVersion
1070
     0
  0
VISUALSTYLE
  5
35
102
{ACAD_REACTORS
330
2A
102
}
330
2A
100
AcDbVisualStyle
  2
Dim
 70
    11
 71
     2
 72
     2
 73
     0
 90
        0
 40
-0.6
 41
-30.0
 62
     5
 63
     7
 74
     1
 91
        4
 64
     7
 65
   257
 75
     1
175
     1
 42
1.0
 92
        8
 66
     7
 43
1.0
 76
     1
 77
     6
 78
     2
 67
     7
 79
     5
170
     0
171
     0
290
     0
174
     0
 93
        1
 44
-50.0
173
     0
291
     1
 45
0.0
1001
ACAD
1000
AcDbSavedByObjectVersion
1070
     0
  0
VISUALSTYLE
  5
39
102
{ACAD_REACTORS
330
2A
102
}
330
2A
100
AcDbVisualStyle
  2
Facepattern
 70
    15
 71
     2
 72
     2
 73
     0
 90
        0
 40
-0.6
 41
-30.0
 62
     5
 63
     7
 74
     1
 91
        4
 64
     7
 65
   257
 75
     1
175
     1
 42
1.0
 92
        8
 66
     7
 43
1.0
 76
     1
 77
     6
 78
     2
 67
     7
 79
     5
170
     0
171
     0
290
     0
174
     0
 93
        1
 44
0.0
173
     0
291
     1
 45
0.0
1001
ACAD
1000
AcDbSavedByObjectVersion
1070
     0
  0
VISUALSTYLE
  5
2B
102
{ACAD_REACTORS
330
2A
102
}
330
2A
100
AcDbVisualStyle
  2
Flat
 70
     0
 71
     2
 72
     1
 73
     1
 90
        2
 40
-0.6
 41
30.0
 62
     5
 63
     7
 74
     0
 91
        4
 64
     7
 65
   257
 75
     1
175
     1
 42
1.0
 92
        8
 66
     7
 43
1.0
 76
     1
 77
     6
 78
     2
 67
     7
 79
     5
170
     0
171
     0
290
     0
174
     0
 93
       13
 44
0.0
173
     0
291
     1
 45
0.0
1001
ACAD
1000
AcDbSavedByObjectVersion
1070
     0
  0
VISUALSTYLE
  5
2C
102
{ACAD_REACTORS
330
2A
102
}
330
2A
100
AcDbVisualStyle
  2
FlatWithEdges
 70
     1
 71
     2
 72
     1
 73
     1
 90
        2
 40
-0.6
 41
30.0
 62
     5
 63
     7
 74
     1
 91
        4
 64
     7
 65
   257
 75
     1
175
     1
 42
1.0
 92
        0
 66
   257
 43
1.0
 76
     1
 77
     6
 78
     2
 67
     7
 79
     5
170
     0
171
     0
290
     0
174
     0
 93
       13
 44
0.0
173
     0
291
     1
 45
0.0
1001
ACAD
1000
AcDbSavedByObjectVersion
1070
     0
  0
VISUALSTYLE
  5
2D
102
{ACAD_REACTORS
330
2A
102
}
330
2A
100
AcDbVisualStyle
  2
Gouraud
 70
     2
 71
     2
 72
     2
 73
     1
 90
        2
 40
-0.6
 41
30.0
 62
     5
 63
     7
 74
     0
 91
        4
 64
     7
 65
   257
 75
     1
175
     1
 42
1.0
 92
        0
 66
     7
 43
1.0
 76
     1
 77
     6
 78
     2
 67
     7
 79
     5
170
     0
171
     0
290
     0
174
     0
 93
       13
 44
0.0
173
     0
291
     1
 45
0.0
1001
ACAD
1000
AcDbSavedByObjectVersion
1070
     0
  0
VISUALSTYLE
  5
2E
102
{ACAD_REACTORS
330
2A
102
}
330
2A
100
AcDbVisualStyle
  2
GouraudWithEdges
 70
     3
 71
     2
 72
     2
 73
     1
 90
        2
 40
-0.6
 41
30.0
 62
     5
 63
     7
 74
     1
 91
        4
 64
     7
 65
   257
 75
     1
175
     1
 42
1.0
 92
        0
 66
   257
 43
1.0
 76
     1
 77
     6
 78
     2
 67
     7
 79
     5
170
     0
171
     0
290
     0
174
     0
 93
       13
 44
0.0
173
     0
291
     1
 45
0.0
1001
ACAD
1000
AcDbSavedByObjectVersion
1070
     0
  0
VISUALSTYLE
  5
38
102
{ACAD_REACTORS
330
2A
102
}
330
2A
100
AcDbVisualStyle
  2
Linepattern
 70
    14
 71
     2
 72
     2
 73
     0
 90
        0
 40
-0.6
 41
-30.0
 62
     5
 63
     7
 74
     1
 91
        4
 64
     7
 65
   257
 75
     7
175
     7
 42
1.0
 92
        8
 66
     7
 43
1.0
 76
     1
 77
     6
 78
     2
 67
     7
 79
     5
170
     0
171
     0
290
     0
174
     0
 93
        1
 44
0.0
173
     0
291
     1
 45
0.0
1001
ACAD
1000
AcDbSavedByObjectVersion
1070
     0
  0
VISUALSTYLE
  5
33
102
{ACAD_REACTORS
330
2A
102
}
330
2A
100
AcDbVisualStyle
  2
Realistic
 70
     8
 71
     2
 72
     2
 73
     0
 90
        0
 40
-0.6
 41
-30.0
 62
     5
 63
     7
 74
     1
 91
        0
 64
     7
 65
   257
 75
     1
175
     1
 42
1.0
 92
        8
 66
     8
 43
1.0
 76
     1
 77
     6
 78
     2
 67
     7
 79
     5
170
     0
171
     0
290
     0
174
     0
 93
       13
 44
0.0
173
     0
291
     0
 45
0.0
1001
ACAD
1000
AcDbSavedByObjectVersion
1070
     0
  0
VISUALSTYLE
  5
37
102
{ACAD_REACTORS
330
2A
102
}
330
2A
100
AcDbVisualStyle
  2
Thicken
 70
    13
 71
     2
 72
     2
 73
     0
 90
        0
 40
-0.6
 41
-30.0
 62
     5
 63
     7
 74
     1
 91
        4
 64
     7
 65
   257
 75
     1
175
     1
 42
1.0
 92
       12
 66
     7
 43
1.0
 76
     1
 77
     6
 78
     2
 67
     7
 79
     5
170
     0
171
     0
290
     0
174
     0
 93
        1
 44
0.0
173
     0
291
     1
 45
0.0
1001
ACAD
1000
AcDbSavedByObjectVersion
1070
     0
  0
DICTIONARYVAR
  5
24C
102
{ACAD_REACTORS
330
24A
102
}
330
24A
100
DictionaryVariables
280
     0
  1
80.000000
  0
DICTIONARYVAR
  5
24B
102
{ACAD_REACTORS
330
24A
102
}
330
24A
100
DictionaryVariables
280
     0
  1
5.000000
  0
ENDSEC
  0
EOF
