  0
SECTION
  2
HEADER
  9
$ACADVER
  1
AC1015
  9
$ACADMAINTVER
 70
     6
  9
$DWGCODEPAGE
  3
ANSI_1252
  9
$INSBASE
 10
0.0
 20
0.0
 30
0.0
  9
$EXTMIN
 10
0.0
 20
0.0
 30
0.0
  9
$EXTMAX
 10
297.0
 20
210.0
 30
0.0
  9
$LIMMIN
 10
0.0
 20
0.0
  9
$LIMMAX
 10
297.0
 20
210.0
  9
$ORTHOMODE
 70
     0
  9
$REGENMODE
 70
     1
  9
$FILLMODE
 70
     1
  9
$QTEXTMODE
 70
     0
  9
$MIRRTEXT
 70
     1
  9
$LTSCALE
 40
1.0
  9
$ATTMODE
 70
     1
  9
$TEXTSIZE
 40
2.0
  9
$TRACEWID
 40
1.0
  9
$TEXTSTYLE
  7
Standard
  9
$CLAYER
  8
0
  9
$CELTYPE
  6
ByLayer
  9
$CECOLOR
 62
   256
  9
$CELTSCALE
 40
1.0
  9
$DISPSILH
 70
     0
  9
$DIMSCALE
 40
1.0
  9
$DIMASZ
 40
3.0
  9
$DIMEXO
 40
0.0
  9
$DIMDLI
 40
3.75
  9
$DIMRND
 40
0.0
  9
$DIMDLE
 40
0.0
  9
$DIMEXE
 40
1.0
  9
$DIMTP
 40
0.0
  9
$DIMTM
 40
0.0
  9
$DIMTXT
 40
2.0
  9
$DIMCEN
 40
2.5
  9
$DIMTSZ
 40
0.0
  9
$DIMTOL
 70
     0
  9
$DIMLIM
 70
     0
  9
$DIMTIH
 70
     1
  9
$DIMTOH
 70
     1
  9
$DIMSE1
 70
     0
  9
$DIMSE2
 70
     0
  9
$DIMTAD
 70
     1
  9
$DIMZIN
 70
     0
  9
$DIMBLK
  1

  9
$DIMASO
 70
     1
  9
$DIMSHO
 70
     1
  9
$DIMPOST
  1

  9
$DIMAPOST
  1

  9
$DIMALT
 70
     0
  9
$DIMALTD
 70
     3
  9
$DIMALTF
 40
0.0393700787
  9
$DIMLFAC
 40
1.0
  9
$DIMTOFL
 70
     1
  9
$DIMTVP
 40
0.0
  9
$DIMTIX
 70
     0
  9
$DIMSOXD
 70
     0
  9
$DIMSAH
 70
     0
  9
$DIMBLK1
  1

  9
$DIMBLK2
  1

  9
$DIMSTYLE
  2
ISO-25
  9
$DIMCLRD
 70
     0
  9
$DIMCLRE
 70
     0
  9
$DIMCLRT
 70
     0
  9
$DIMTFAC
 40
1.0
  9
$DIMGAP
 40
1.524
  9
$DIMJUST
 70
     0
  9
$DIMSD1
 70
     0
  9
$DIMSD2
 70
     0
  9
$DIMTOLJ
 70
     0
  9
$DIMTZIN
 70
     0
  9
$DIMALTZ
 70
     0
  9
$DIMALTTZ
 70
     0
  9
$DIMUPT
 70
     0
  9
$DIMDEC
 70
     2
  9
$DIMTDEC
 70
     3
  9
$DIMALTU
 70
     2
  9
$DIMALTTD
 70
     3
  9
$DIMTXSTY
  7
Standard
  9
$DIMAUNIT
 70
     0
  9
$DIMADEC
 70
     2
  9
$DIMALTRND
 40
0.0
  9
$DIMAZIN
 70
     0
  9
$DIMDSEP
 70
    44
  9
$DIMATFIT
 70
     3
  9
$DIMFRAC
 70
     0
  9
$DIMLDRBLK
  1

  9
$DIMLUNIT
 70
     2
  9
$DIMLWD
 70
    -2
  9
$DIMLWE
 70
    -2
  9
$DIMTMOVE
 70
     0
  9
$LUNITS
 70
     2
  9
$LUPREC
 70
     2
  9
$SKETCHINC
 40
1.0
  9
$FILLETRAD
 40
10.0
  9
$AUNITS
 70
     0
  9
$AUPREC
 70
     2
  9
$MENU
  1
.
  9
$ELEVATION
 40
0.0
  9
$PELEVATION
 40
0.0
  9
$THICKNESS
 40
0.0
  9
$LIMCHECK
 70
     0
  9
$CHAMFERA
 40
10.0
  9
$CHAMFERB
 40
10.0
  9
$CHAMFERC
 40
20.0
  9
$CHAMFERD
 40
0.0
  9
$SKPOLY
 70
     0
  9
$TDCREATE
 40
2455679.511978507
  9
$TDUCREATE
 40
2455679.428645174
  9
$TDUPDATE
 40
2455679.511978519
  9
$TDUUPDATE
 40
2455679.428645185
  9
$TDINDWG
 40
0.0000000116
  9
$TDUSRTIMER
 40
0.0000000116
  9
$USRTIMER
 70
     1
  9
$ANGBASE
 50
0.0
  9
$ANGDIR
 70
     0
  9
$PDMODE
 70
     0
  9
$PDSIZE
 40
-1.0
  9
$PLINEWID
 40
0.0
  9
$SPLFRAME
 70
     0
  9
$SPLINETYPE
 70
     6
  9
$SPLINESEGS
 70
     8
  9
$HANDSEED
  5
241
  9
$SURFTAB1
 70
     6
  9
$SURFTAB2
 70
     6
  9
$SURFTYPE
 70
     6
  9
$SURFU
 70
     6
  9
$SURFV
 70
     6
  9
$UCSBASE
  2

  9
$UCSNAME
  2

  9
$UCSORG
 10
0.0
 20
0.0
 30
0.0
  9
$UCSXDIR
 10
1.0
 20
0.0
 30
0.0
  9
$UCSYDIR
 10
0.0
 20
1.0
 30
0.0
  9
$UCSORTHOREF
  2

  9
$UCSORTHOVIEW
 70
     0
  9
$UCSORGTOP
 10
0.0
 20
0.0
 30
0.0
  9
$UCSORGBOTTOM
 10
0.0
 20
0.0
 30
0.0
  9
$UCSORGLEFT
 10
0.0
 20
0.0
 30
0.0
  9
$UCSORGRIGHT
 10
0.0
 20
0.0
 30
0.0
  9
$UCSORGFRONT
 10
0.0
 20
0.0
 30
0.0
  9
$UCSORGBACK
 10
0.0
 20
0.0
 30
0.0
  9
$PUCSBASE
  2

  9
$PUCSNAME
  2

  9
$PUCSORG
 10
0.0
 20
0.0
 30
0.0
  9
$PUCSXDIR
 10
1.0
 20
0.0
 30
0.0
  9
$PUCSYDIR
 10
0.0
 20
1.0
 30
0.0
  9
$PUCSORTHOREF
  2

  9
$PUCSORTHOVIEW
 70
     0
  9
$PUCSORGTOP
 10
0.0
 20
0.0
 30
0.0
  9
$PUCSORGBOTTOM
 10
0.0
 20
0.0
 30
0.0
  9
$PUCSORGLEFT
 10
0.0
 20
0.0
 30
0.0
  9
$PUCSORGRIGHT
 10
0.0
 20
0.0
 30
0.0
  9
$PUCSORGFRONT
 10
0.0
 20
0.0
 30
0.0
  9
$PUCSORGBACK
 10
0.0
 20
0.0
 30
0.0
  9
$USERI1
 70
     0
  9
$USERI2
 70
     0
  9
$USERI3
 70
     0
  9
$USERI4
 70
     0
  9
$USERI5
 70
     0
  9
$USERR1
 40
0.0
  9
$USERR2
 40
0.0
  9
$USERR3
 40
0.0
  9
$USERR4
 40
0.0
  9
$USERR5
 40
0.0
  9
$WORLDVIEW
 70
     1
  9
$SHADEDGE
 70
     3
  9
$SHADEDIF
 70
    70
  9
$TILEMODE
 70
     1
  9
$MAXACTVP
 70
    64
  9
$PINSBASE
 10
0.0
 20
0.0
 30
0.0
  9
$PLIMCHECK
 70
     0
  9
$PEXTMIN
 10
1.0000000000E+20
 20
1.0000000000E+20
 30
1.0000000000E+20
  9
$PEXTMAX
 10
-1.0000000000E+20
 20
-1.0000000000E+20
 30
-1.0000000000E+20
  9
$PLIMMIN
 10
0.0
 20
0.0
  9
$PLIMMAX
 10
420.0
 20
297.0
  9
$UNITMODE
 70
     0
  9
$VISRETAIN
 70
     1
  9
$PLINEGEN
 70
     0
  9
$PSLTSCALE
 70
     1
  9
$TREEDEPTH
 70
  3020
  9
$CMLSTYLE
  2
Standard
  9
$CMLJUST
 70
     0
  9
$CMLSCALE
 40
20.0
  9
$PROXYGRAPHICS
 70
     1
  9
$MEASUREMENT
 70
     1
  9
$CELWEIGHT
370
    -1
  9
$ENDCAPS
280
     0
  9
$JOINSTYLE
280
     0
  9
$LWDISPLAY
290
     1
  9
$INSUNITS
 70
     4
  9
$HYPERLINKBASE
  1

  9
$STYLESHEET
  1

  9
$XEDIT
290
     1
  9
$CEPSNTYPE
380
     0
  9
$PSTYLEMODE
290
     1
  9
$FINGERPRINTGUID
  2
{77DD0106-EE9C-482B-AD08-95C3D6F42707}
  9
$VERSIONGUID
  2
{FAEB1C32-E019-11D5-929B-00C0DF256EC4}
  9
$EXTNAMES
290
     1
  9
$PSVPSCALE
 40
0.0
  9
$OLESTARTUP
290
     0
  0
ENDSEC
  0
SECTION
  2
CLASSES
  0
CLASS
  1
ACDBDICTIONARYWDFLT
  2
AcDbDictionaryWithDefault
  3
ObjectDBX Classes
 90
        0
280
     0
281
     0
  0
CLASS
  1
VISUALSTYLE
  2
AcDbVisualStyle
  3
ObjectDBX Classes
 90
     4095
280
     0
281
     0
  0
CLASS
  1
DICTIONARYVAR
  2
AcDbDictionaryVar
  3
ObjectDBX Classes
 90
        0
280
     0
281
     0
  0
CLASS
  1
ACDBPLACEHOLDER
  2
AcDbPlaceHolder
  3
ObjectDBX Classes
 90
        0
280
     0
281
     0
  0
CLASS
  1
LAYOUT
  2
AcDbLayout
  3
ObjectDBX Classes
 90
        0
280
     0
281
     0
  0
ENDSEC
  0
SECTION
  2
TABLES
  0
TABLE
  2
VPORT
  5
8
330
0
100
AcDbSymbolTable
 70
     1
  0
VPORT
  5
29
330
8
100
AcDbSymbolTableRecord
100
AcDbViewportTableRecord
  2
*Active
 70
     0
 10
0.0
 20
0.0
 11
1.0
 21
1.0
 12
148.5
 22
105.0
 13
0.0
 23
0.0
 14
10.0
 24
10.0
 15
10.0
 25
10.0
 16
0.0
 26
0.0
 36
1.0
 17
0.0
 27
0.0
 37
0.0
 40
210.0
 41
1.4142857143
 42
50.0
 43
0.0
 44
0.0
 50
0.0
 51
0.0
 71
     0
 72
  2000
 73
     1
 74
     3
 75
     0
 76
     0
 77
     0
 78
     0
281
     0
 65
     1
110
0.0
120
0.0
130
0.0
111
1.0
121
0.0
131
0.0
112
0.0
122
1.0
132
0.0
 79
     0
146
0.0
  0
ENDTAB
  0
TABLE
  2
LTYPE
  5
5
330
0
100
AcDbSymbolTable
 70
     6
  0
LTYPE
  5
14
330
5
100
AcDbSymbolTableRecord
100
AcDbLinetypeTableRecord
  2
ByBlock
 70
     0
  3

 72
    65
 73
     0
 40
0.0
  0
LTYPE
  5
15
330
5
100
AcDbSymbolTableRecord
100
AcDbLinetypeTableRecord
  2
ByLayer
 70
     0
  3

 72
    65
 73
     0
 40
0.0
  0
LTYPE
  5
16
330
5
100
AcDbSymbolTableRecord
100
AcDbLinetypeTableRecord
  2
Continuous
 70
     0
  3
Solid line
 72
    65
 73
     0
 40
0.0
  0
LTYPE
  5
3B
330
5
100
AcDbSymbolTableRecord
100
AcDbLinetypeTableRecord
  2
HIDDEN
 70
     0
  3
Hidden __ __ __ __ __ __ __ __ __ __ __ __ __ __
 72
    65
 73
     2
 40
1.905
 49
1.27
 74
     0
 49
-0.635
 74
     0
  0
LTYPE
  5
3C
330
5
100
AcDbSymbolTableRecord
100
AcDbLinetypeTableRecord
  2
PHANTOM
 70
     0
  3
Phantom ______  __  __  ______  __  __  ______
 72
    65
 73
     6
 40
12.7
 49
6.35
 74
     0
 49
-1.27
 74
     0
 49
1.27
 74
     0
 49
-1.27
 74
     0
 49
1.27
 74
     0
 49
-1.27
 74
     0
  0
LTYPE
  5
3D
330
5
100
AcDbSymbolTableRecord
100
AcDbLinetypeTableRecord
  2
CENTER
 70
     0
  3
Center ____ _ ____ _ ____ _ ____ _ ____ _ ____
 72
    65
 73
     4
 40
10.16
 49
6.35
 74
     0
 49
-1.27
 74
     0
 49
1.27
 74
     0
 49
-1.27
 74
     0
  0
LTYPE
  5
3E
330
5
100
AcDbSymbolTableRecord
100
AcDbLinetypeTableRecord
  2
CENTERX2
 70
     0
  3
Center (2x) ________  __  ________  __  _____
 72
    65
 73
     4
 40
20.32
 49
12.7
 74
     0
 49
-2.54
 74
     0
 49
2.54
 74
     0
 49
-2.54
 74
     0
  0
LTYPE
  5
3F
330
5
100
AcDbSymbolTableRecord
100
AcDbLinetypeTableRecord
  2
DOT2
 70
     0
  3
Dot (.5x) ........................................
 72
    65
 73
     2
 40
0.635
 49
0.0
 74
     0
 49
-0.635
 74
     0
  0
ENDTAB
  0
TABLE
  2
LAYER
  5
2
330
0
100
AcDbSymbolTable
 70
     5
  0
LAYER
  5
10
330
2
100
AcDbSymbolTableRecord
100
AcDbLayerTableRecord
  2
0
 70
     0
 62
     7
  6
Continuous
370
    -3
390
F
  0
LAYER
  5
40
330
2
100
AcDbSymbolTableRecord
100
AcDbLayerTableRecord
  2
FORMAT
 70
     0
 62
     7
  6
Continuous
370
    -3
390
F
  0
LAYER
  5
41
330
2
100
AcDbSymbolTableRecord
100
AcDbLayerTableRecord
  2
VERMASSUNG
 70
     0
 62
     7
  6
Continuous
370
    -3
390
F
  0
LAYER
  5
42
330
2
100
AcDbSymbolTableRecord
100
AcDbLayerTableRecord
  2
KOPF_DÜNN
 70
     0
 62
     7
  6
Continuous
370
    -3
390
F
  0
LAYER
  5
43
330
2
100
AcDbSymbolTableRecord
100
AcDbLayerTableRecord
  2
KOPF_DICK
 70
     0
 62
     7
  6
Continuous
370
    15
390
F
  0
ENDTAB
  0
TABLE
  2
STYLE
  5
3
330
0
100
AcDbSymbolTable
 70
     3
  0
STYLE
  5
11
330
3
100
AcDbSymbolTableRecord
100
AcDbTextStyleTableRecord
  2
Standard
 70
     0
 40
0.0
 41
1.0
 50
0.0
 71
     0
 42
2.5
  3
txt
  4

  0
STYLE
  5
44
330
3
100
AcDbSymbolTableRecord
100
AcDbTextStyleTableRecord
  2
SLDTEXTSTYLE0
 70
     0
 40
0.0
 41
0.7
 50
0.0
 71
     0
 42
0.2
  3
TXT
  4

  0
STYLE
  5
48
330
3
100
AcDbSymbolTableRecord
100
AcDbTextStyleTableRecord
  2
SLDTEXTSTYLE1
 70
     0
 40
0.0
 41
0.6473684211
 50
0.0
 71
     0
 42
0.2
  3
TXT
  4

  0
ENDTAB
  0
TABLE
  2
VIEW
  5
6
330
0
100
AcDbSymbolTable
 70
     0
  0
ENDTAB
  0
TABLE
  2
UCS
  5
7
330
0
100
AcDbSymbolTable
 70
     0
  0
ENDTAB
  0
TABLE
  2
APPID
  5
9
330
0
100
AcDbSymbolTable
 70
     1
  0
APPID
  5
12
330
9
100
AcDbSymbolTableRecord
100
AcDbRegAppTableRecord
  2
ACAD
 70
     0
  0
ENDTAB
  0
TABLE
  2
DIMSTYLE
  5
A
330
0
100
AcDbSymbolTable
 70
     5
100
AcDbDimStyleTable
  0
DIMSTYLE
105
27
330
A
100
AcDbSymbolTableRecord
100
AcDbDimStyleTableRecord
  2
ISO-25
 70
     0
 41
2.5
 42
0.625
 43
3.75
 44
1.25
 73
     0
 74
     0
 77
     1
 78
     8
140
2.5
141
2.5
143
0.0393700787
147
0.625
171
     3
172
     1
271
     2
272
     2
274
     3
278
    44
283
     0
284
     8
340
11
  0
DIMSTYLE
105
1E1
102
{ACAD_REACTORS
330
1E0
330
21C
330
226
330
230
102
}
330
A
100
AcDbSymbolTableRecord
100
AcDbDimStyleTableRecord
  2
SLDDIMSTYLE0
 70
     0
 41
3.0
 44
0.0
 45
0.000000001
 73
     0
 74
     0
 77
     1
 78
    12
140
2.0
147
0.5
173
     1
271
     2
272
     3
284
    12
340
44
  0
DIMSTYLE
105
1EE
102
{ACAD_REACTORS
330
1ED
102
}
330
A
100
AcDbSymbolTableRecord
100
AcDbDimStyleTableRecord
  2
SLDDIMSTYLE1
 70
     0
 41
3.0
 44
0.0
 45
0.000000001
 73
     0
 74
     0
 77
     1
 78
    12
140
2.0
147
0.5
173
     1
271
     2
272
     2
284
    12
340
44
  0
DIMSTYLE
105
1F9
102
{ACAD_REACTORS
330
1F8
102
}
330
A
100
AcDbSymbolTableRecord
100
AcDbDimStyleTableRecord
  2
SLDDIMSTYLE2
 70
     0
 41
3.0
 44
0.0
 45
0.000000001
 73
     0
 74
     0
 77
     1
 78
    12
140
2.0
147
0.5
173
     1
271
     2
272
     2
284
    12
340
44
  0
DIMSTYLE
105
206
102
{ACAD_REACTORS
330
205
330
211
102
}
330
A
100
AcDbSymbolTableRecord
100
AcDbDimStyleTableRecord
  2
SLDDIMSTYLE3
 70
     0
 41
3.0
 44
0.0
 45
0.000000001
 73
     0
 74
     0
 77
     1
 78
    12
140
2.0
147
0.5
173
     1
271
     2
272
     3
284
    12
340
44
  0
ENDTAB
  0
TABLE
  2
BLOCK_RECORD
  5
1
330
0
100
AcDbSymbolTable
 70
     9
  0
BLOCK_RECORD
  5
1F
330
1
100
AcDbSymbolTableRecord
100
AcDbBlockTableRecord
  2
*Model_Space
340
22
  0
BLOCK_RECORD
  5
1B
330
1
100
AcDbSymbolTableRecord
100
AcDbBlockTableRecord
  2
*Paper_Space
340
1E
  0
BLOCK_RECORD
  5
23
330
1
100
AcDbSymbolTableRecord
100
AcDbBlockTableRecord
  2
*Paper_Space0
340
26
  0
BLOCK_RECORD
  5
1E2
330
1
100
AcDbSymbolTableRecord
100
AcDbBlockTableRecord
  2
*D1
340
0
  0
BLOCK_RECORD
  5
1EF
330
1
100
AcDbSymbolTableRecord
100
AcDbBlockTableRecord
  2
*D2
340
0
  0
BLOCK_RECORD
  5
1FA
330
1
100
AcDbSymbolTableRecord
100
AcDbBlockTableRecord
  2
*D3
340
0
  0
BLOCK_RECORD
  5
207
330
1
100
AcDbSymbolTableRecord
100
AcDbBlockTableRecord
  2
*D4
340
0
  0
BLOCK_RECORD
  5
212
330
1
100
AcDbSymbolTableRecord
100
AcDbBlockTableRecord
  2
*D5
340
0
  0
BLOCK_RECORD
  5
21D
330
1
100
AcDbSymbolTableRecord
100
AcDbBlockTableRecord
  2
*D6
340
0
  0
BLOCK_RECORD
  5
227
330
1
100
AcDbSymbolTableRecord
100
AcDbBlockTableRecord
  2
*D7
340
0
  0
BLOCK_RECORD
  5
231
330
1
100
AcDbSymbolTableRecord
100
AcDbBlockTableRecord
  2
*D8
340
0
  0
ENDTAB
  0
ENDSEC
  0
SECTION
  2
BLOCKS
  0
BLOCK
  5
20
330
1F
100
AcDbEntity
  8
0
100
AcDbBlockBegin
  2
*Model_Space
 70
     0
 10
0.0
 20
0.0
 30
0.0
  3
*Model_Space
  1

  0
ENDBLK
  5
21
330
1F
100
AcDbEntity
  8
0
100
AcDbBlockEnd
  0
BLOCK
  5
1C
330
1B
100
AcDbEntity
 67
     1
  8
0
100
AcDbBlockBegin
  2
*Paper_Space
 70
     0
 10
0.0
 20
0.0
 30
0.0
  3
*Paper_Space
  1

  0
ENDBLK
  5
1D
330
1B
100
AcDbEntity
 67
     1
  8
0
100
AcDbBlockEnd
  0
BLOCK
  5
24
330
23
100
AcDbEntity
  8
0
100
AcDbBlockBegin
  2
*Paper_Space0
 70
     0
 10
0.0
 20
0.0
 30
0.0
  3
*Paper_Space0
  1

  0
ENDBLK
  5
25
330
23
100
AcDbEntity
  8
0
100
AcDbBlockEnd
  0
BLOCK
  5
1E3
330
1E2
100
AcDbEntity
  8
0
100
AcDbBlockBegin
  2
*D1
 70
     1
 10
0.0
 20
0.0
 30
0.0
  3
*D1
  1

  0
SOLID
  5
1E5
330
1E2
100
AcDbEntity
  8
VERMASSUNG
100
AcDbTrace
 10
46.8536294691
 20
137.3122426869
 30
0.0
 11
46.4036294691
 21
134.3122426869
 31
0.0
 12
47.3036294691
 22
134.3122426869
 32
0.0
 13
47.3036294691
 23
134.3122426869
 33
0.0
  0
SOLID
  5
1E6
330
1E2
100
AcDbEntity
  8
VERMASSUNG
100
AcDbTrace
 10
46.8536294691
 20
74.3122426869
 30
0.0
 11
47.3036294691
 21
77.3122426869
 31
0.0
 12
46.4036294691
 22
77.3122426869
 32
0.0
 13
46.4036294691
 23
77.3122426869
 33
0.0
  0
LINE
  5
1E7
330
1E2
100
AcDbEntity
  8
VERMASSUNG
100
AcDbLine
 10
82.4470136699
 20
137.3122426869
 30
0.0
 11
45.8536294691
 21
137.3122426869
 31
0.0
  0
LINE
  5
1E8
330
1E2
100
AcDbEntity
  8
VERMASSUNG
100
AcDbLine
 10
82.4470136699
 20
74.3122426869
 30
0.0
 11
45.8536294691
 21
74.3122426869
 31
0.0
  0
LINE
  5
1E9
330
1E2
100
AcDbEntity
  8
VERMASSUNG
100
AcDbLine
 10
46.8536294691
 20
137.3122426869
 30
0.0
 11
46.8536294691
 21
74.3122426869
 31
0.0
  0
MTEXT
  5
1EA
330
1E2
100
AcDbEntity
  8
VERMASSUNG
100
AcDbMText
 10
44.0754939801
 20
98.1087009751
 30
0.0
 40
2.0
 41
0.0
 71
     1
 72
     1
  1
HSK A 
  7
SLDTEXTSTYLE0
 11
-7.044195017643634E-15
 21
1.0
 31
0.0
 73
     1
 44
1.0
  0
MTEXT
  5
1EB
330
1E2
100
AcDbEntity
  8
VERMASSUNG
100
AcDbMText
 10
44.2754939896
 20
107.108701519
 30
0.0
 40
2.0
 41
0.0
 71
     1
 72
     1
  1
%%c
  7
SLDTEXTSTYLE0
 11
-7.044195017643634E-15
 21
1.0
 31
0.0
 73
     1
 44
1.0
  0
MTEXT
  5
1EC
330
1E2
100
AcDbEntity
  8
VERMASSUNG
100
AcDbMText
 10
44.275494106
 20
110.717028169
 30
0.0
 40
2.0
 41
0.0
 71
     1
 72
     1
  1
63
  7
SLDTEXTSTYLE0
 11
-7.044195017643634E-15
 21
1.0
 31
0.0
 73
     1
 44
1.0
  0
ENDBLK
  5
1E4
330
1E2
100
AcDbEntity
  8
0
100
AcDbBlockEnd
  0
BLOCK
  5
1F0
330
1EF
100
AcDbEntity
  8
0
100
AcDbBlockBegin
  2
*D2
 70
     1
 10
0.0
 20
0.0
 30
0.0
  3
*D2
  1

  0
SOLID
  5
1F2
330
1EF
100
AcDbEntity
  8
VERMASSUNG
100
AcDbTrace
 10
195.6470136699
 20
137.7071505959
 30
0.0
 11
198.6470136699
 21
137.2571505959
 31
0.0
 12
198.6470136699
 22
138.1571505959
 32
0.0
 13
198.6470136699
 23
138.1571505959
 33
0.0
  0
SOLID
  5
1F3
330
1EF
100
AcDbEntity
  8
VERMASSUNG
100
AcDbTrace
 10
242.1470136699
 20
137.7071505959
 30
0.0
 11
239.1470136699
 21
138.1571505959
 31
0.0
 12
239.1470136699
 22
137.2571505959
 32
0.0
 13
239.1470136699
 23
137.2571505959
 33
0.0
  0
LINE
  5
1F4
330
1EF
100
AcDbEntity
  8
VERMASSUNG
100
AcDbLine
 10
195.6470136699
 20
111.7122426869
 30
0.0
 11
195.6470136699
 21
138.7071505959
 31
0.0
  0
LINE
  5
1F5
330
1EF
100
AcDbEntity
  8
VERMASSUNG
100
AcDbLine
 10
242.1470136699
 20
115.9634617036
 30
0.0
 11
242.1470136699
 21
138.7071505959
 31
0.0
  0
LINE
  5
1F6
330
1EF
100
AcDbEntity
  8
VERMASSUNG
100
AcDbLine
 10
195.6470136699
 20
137.7071505959
 30
0.0
 11
242.1470136699
 21
137.7071505959
 31
0.0
  0
MTEXT
  5
1F7
330
1EF
100
AcDbEntity
  8
VERMASSUNG
100
AcDbMText
 10
216.3976268877
 20
140.285285959
 30
0.0
 40
2.0
 41
0.0
 71
     1
 72
     1
  1
46.5
  7
SLDTEXTSTYLE0
 73
     1
 44
1.0
  0
ENDBLK
  5
1F1
330
1EF
100
AcDbEntity
  8
0
100
AcDbBlockEnd
  0
BLOCK
  5
1FB
330
1FA
100
AcDbEntity
  8
0
100
AcDbBlockBegin
  2
*D3
 70
     1
 10
0.0
 20
0.0
 30
0.0
  3
*D3
  1

  0
SOLID
  5
1FD
330
1FA
100
AcDbEntity
  8
VERMASSUNG
100
AcDbTrace
 10
249.9819068256
 20
99.8122426869
 30
0.0
 11
250.4319068256
 21
102.8122426869
 31
0.0
 12
249.5319068256
 22
102.8122426869
 32
0.0
 13
249.5319068256
 23
102.8122426869
 33
0.0
  0
SOLID
  5
1FE
330
1FA
100
AcDbEntity
  8
VERMASSUNG
100
AcDbTrace
 10
249.9819068256
 20
111.8122426869
 30
0.0
 11
249.5319068256
 21
108.8122426869
 31
0.0
 12
250.4319068256
 22
108.8122426869
 32
0.0
 13
250.4319068256
 23
108.8122426869
 33
0.0
  0
LINE
  5
1FF
330
1FA
100
AcDbEntity
  8
VERMASSUNG
100
AcDbLine
 10
238.6470136699
 20
99.8122426869
 30
0.0
 11
250.9819068256
 21
99.8122426869
 31
0.0
  0
LINE
  5
200
330
1FA
100
AcDbEntity
  8
VERMASSUNG
100
AcDbLine
 10
238.6470136699
 20
111.8122426869
 30
0.0
 11
250.9819068256
 21
111.8122426869
 31
0.0
  0
LINE
  5
201
330
1FA
100
AcDbEntity
  8
VERMASSUNG
100
AcDbLine
 10
249.9819068256
 20
99.8122426869
 30
0.0
 11
249.9819068256
 21
111.8122426869
 31
0.0
  0
MTEXT
  5
202
330
1FA
100
AcDbEntity
  8
VERMASSUNG
100
AcDbMText
 10
247.403771346
 20
102.2082058505
 30
0.0
 40
2.0
 41
0.0
 71
     1
 72
     1
  1
%%c
  7
SLDTEXTSTYLE0
 11
6.123233995736766E-17
 21
1.0
 31
0.0
 73
     1
 44
1.0
  0
MTEXT
  5
203
330
1FA
100
AcDbEntity
  8
VERMASSUNG
100
AcDbMText
 10
247.4037714624
 20
105.8168840737
 30
0.0
 40
2.0
 41
0.0
 71
     1
 72
     1
  1
12
  7
SLDTEXTSTYLE0
 11
6.123233995736766E-17
 21
1.0
 31
0.0
 73
     1
 44
1.0
  0
MTEXT
  5
204
330
1FA
100
AcDbEntity
  8
VERMASSUNG
100
AcDbMText
 10
247.4037714624
 20
108.2164810401
 30
0.0
 40
2.0
 41
0.0
 71
     1
 72
     1
  1
 
  7
SLDTEXTSTYLE0
 11
6.123233995736766E-17
 21
1.0
 31
0.0
 73
     1
 44
1.0
  0
ENDBLK
  5
1FC
330
1FA
100
AcDbEntity
  8
0
100
AcDbBlockEnd
  0
BLOCK
  5
208
330
207
100
AcDbEntity
  8
0
100
AcDbBlockBegin
  2
*D4
 70
     1
 10
0.0
 20
0.0
 30
0.0
  3
*D4
  1

  0
SOLID
  5
20A
330
207
100
AcDbEntity
  8
VERMASSUNG
100
AcDbTrace
 10
255.9819068256
 20
93.8122426869
 30
0.0
 11
256.4319068256
 21
96.8122426869
 31
0.0
 12
255.5319068256
 22
96.8122426869
 32
0.0
 13
255.5319068256
 23
96.8122426869
 33
0.0
  0
SOLID
  5
20B
330
207
100
AcDbEntity
  8
VERMASSUNG
100
AcDbTrace
 10
255.9819068256
 20
117.8122426869
 30
0.0
 11
255.5319068256
 21
114.8122426869
 31
0.0
 12
256.4319068256
 22
114.8122426869
 32
0.0
 13
256.4319068256
 23
114.8122426869
 33
0.0
  0
LINE
  5
20C
330
207
100
AcDbEntity
  8
VERMASSUNG
100
AcDbLine
 10
242.1470136699
 20
93.8122426869
 30
0.0
 11
256.9819068256
 21
93.8122426869
 31
0.0
  0
LINE
  5
20D
330
207
100
AcDbEntity
  8
VERMASSUNG
100
AcDbLine
 10
242.1470136699
 20
117.8122426869
 30
0.0
 11
256.9819068256
 21
117.8122426869
 31
0.0
  0
LINE
  5
20E
330
207
100
AcDbEntity
  8
VERMASSUNG
100
AcDbLine
 10
255.9819068256
 20
93.8122426869
 30
0.0
 11
255.9819068256
 21
117.8122426869
 31
0.0
  0
MTEXT
  5
20F
330
207
100
AcDbEntity
  8
VERMASSUNG
100
AcDbMText
 10
253.403771346
 20
102.5087356446
 30
0.0
 40
2.0
 41
0.0
 71
     1
 72
     1
  1
%%c
  7
SLDTEXTSTYLE0
 11
6.123233995736766E-17
 21
1.0
 31
0.0
 73
     1
 44
1.0
  0
MTEXT
  5
210
330
207
100
AcDbEntity
  8
VERMASSUNG
100
AcDbMText
 10
253.4037714624
 20
106.1174138678
 30
0.0
 40
2.0
 41
0.0
 71
     1
 72
     1
  1
24
  7
SLDTEXTSTYLE0
 11
6.123233995736766E-17
 21
1.0
 31
0.0
 73
     1
 44
1.0
  0
ENDBLK
  5
209
330
207
100
AcDbEntity
  8
0
100
AcDbBlockEnd
  0
BLOCK
  5
213
330
212
100
AcDbEntity
  8
0
100
AcDbBlockBegin
  2
*D5
 70
     1
 10
0.0
 20
0.0
 30
0.0
  3
*D5
  1

  0
SOLID
  5
215
330
212
100
AcDbEntity
  8
VERMASSUNG
100
AcDbTrace
 10
261.9819068256
 20
89.8122426869
 30
0.0
 11
262.4319068256
 21
92.8122426869
 31
0.0
 12
261.5319068256
 22
92.8122426869
 32
0.0
 13
261.5319068256
 23
92.8122426869
 33
0.0
  0
SOLID
  5
216
330
212
100
AcDbEntity
  8
VERMASSUNG
100
AcDbTrace
 10
261.9819068256
 20
121.8122426869
 30
0.0
 11
261.5319068256
 21
118.8122426869
 31
0.0
 12
262.4319068256
 22
118.8122426869
 32
0.0
 13
262.4319068256
 23
118.8122426869
 33
0.0
  0
LINE
  5
217
330
212
100
AcDbEntity
  8
VERMASSUNG
100
AcDbLine
 10
182.1470136699
 20
89.8122426869
 30
0.0
 11
262.9819068256
 21
89.8122426869
 31
0.0
  0
LINE
  5
218
330
212
100
AcDbEntity
  8
VERMASSUNG
100
AcDbLine
 10
182.1470136699
 20
121.8122426869
 30
0.0
 11
262.9819068256
 21
121.8122426869
 31
0.0
  0
LINE
  5
219
330
212
100
AcDbEntity
  8
VERMASSUNG
100
AcDbLine
 10
261.9819068256
 20
89.8122426869
 30
0.0
 11
261.9819068256
 21
121.8122426869
 31
0.0
  0
MTEXT
  5
21A
330
212
100
AcDbEntity
  8
VERMASSUNG
100
AcDbMText
 10
259.403771346
 20
102.6085254605
 30
0.0
 40
2.0
 41
0.0
 71
     1
 72
     1
  1
%%c
  7
SLDTEXTSTYLE0
 11
6.123233995736766E-17
 21
1.0
 31
0.0
 73
     1
 44
1.0
  0
MTEXT
  5
21B
330
212
100
AcDbEntity
  8
VERMASSUNG
100
AcDbMText
 10
259.4037714624
 20
106.2172036836
 30
0.0
 40
2.0
 41
0.0
 71
     1
 72
     1
  1
32
  7
SLDTEXTSTYLE0
 11
6.123233995736766E-17
 21
1.0
 31
0.0
 73
     1
 44
1.0
  0
ENDBLK
  5
214
330
212
100
AcDbEntity
  8
0
100
AcDbBlockEnd
  0
BLOCK
  5
21E
330
21D
100
AcDbEntity
  8
0
100
AcDbBlockBegin
  2
*D6
 70
     1
 10
0.0
 20
0.0
 30
0.0
  3
*D6
  1

  0
SOLID
  5
220
330
21D
100
AcDbEntity
  8
VERMASSUNG
100
AcDbTrace
 10
82.1470136699
 20
149.7071505959
 30
0.0
 11
85.1470136699
 21
149.2571505959
 31
0.0
 12
85.1470136699
 22
150.1571505959
 32
0.0
 13
85.1470136699
 23
150.1571505959
 33
0.0
  0
SOLID
  5
221
330
21D
100
AcDbEntity
  8
VERMASSUNG
100
AcDbTrace
 10
242.1470136699
 20
149.7071505959
 30
0.0
 11
239.1470136699
 21
150.1571505959
 31
0.0
 12
239.1470136699
 22
149.2571505959
 32
0.0
 13
239.1470136699
 23
149.2571505959
 33
0.0
  0
LINE
  5
222
330
21D
100
AcDbEntity
  8
VERMASSUNG
100
AcDbLine
 10
82.1470136699
 20
137.0122426869
 30
0.0
 11
82.1470136699
 21
150.7071505959
 31
0.0
  0
LINE
  5
223
330
21D
100
AcDbEntity
  8
VERMASSUNG
100
AcDbLine
 10
242.1470136699
 20
115.9634617036
 30
0.0
 11
242.1470136699
 21
150.7071505959
 31
0.0
  0
LINE
  5
224
330
21D
100
AcDbEntity
  8
VERMASSUNG
100
AcDbLine
 10
82.1470136699
 20
149.7071505959
 30
0.0
 11
242.1470136699
 21
149.7071505959
 31
0.0
  0
MTEXT
  5
225
330
21D
100
AcDbEntity
  8
VERMASSUNG
100
AcDbMText
 10
160.2475261293
 20
152.285285959
 30
0.0
 40
2.0
 41
0.0
 71
     1
 72
     1
  1
160
  7
SLDTEXTSTYLE0
 73
     1
 44
1.0
  0
ENDBLK
  5
21F
330
21D
100
AcDbEntity
  8
0
100
AcDbBlockEnd
  0
BLOCK
  5
228
330
227
100
AcDbEntity
  8
0
100
AcDbBlockBegin
  2
*D7
 70
     1
 10
0.0
 20
0.0
 30
0.0
  3
*D7
  1

  0
SOLID
  5
22A
330
227
100
AcDbEntity
  8
VERMASSUNG
100
AcDbTrace
 10
108.0970136699
 20
143.7071505959
 30
0.0
 11
111.0970136699
 21
143.2571505959
 31
0.0
 12
111.0970136699
 22
144.1571505959
 32
0.0
 13
111.0970136699
 23
144.1571505959
 33
0.0
  0
SOLID
  5
22B
330
227
100
AcDbEntity
  8
VERMASSUNG
100
AcDbTrace
 10
242.1470136699
 20
143.7071505959
 30
0.0
 11
239.1470136699
 21
144.1571505959
 31
0.0
 12
239.1470136699
 22
143.2571505959
 32
0.0
 13
239.1470136699
 23
143.2571505959
 33
0.0
  0
LINE
  5
22C
330
227
100
AcDbEntity
  8
VERMASSUNG
100
AcDbLine
 10
108.0970136699
 20
135.6586830107
 30
0.0
 11
108.0970136699
 21
144.7071505959
 31
0.0
  0
LINE
  5
22D
330
227
100
AcDbEntity
  8
VERMASSUNG
100
AcDbLine
 10
242.1470136699
 20
115.9501733354
 30
0.0
 11
242.1470136699
 21
144.7071505959
 31
0.0
  0
LINE
  5
22E
330
227
100
AcDbEntity
  8
VERMASSUNG
100
AcDbLine
 10
108.0970136699
 20
143.7071505959
 30
0.0
 11
242.1470136699
 21
143.7071505959
 31
0.0
  0
MTEXT
  5
22F
330
227
100
AcDbEntity
  8
VERMASSUNG
100
AcDbMText
 10
171.4228284045
 20
146.285285959
 30
0.0
 40
2.0
 41
0.0
 71
     1
 72
     1
  1
134.05
  7
SLDTEXTSTYLE0
 73
     1
 44
1.0
  0
ENDBLK
  5
229
330
227
100
AcDbEntity
  8
0
100
AcDbBlockEnd
  0
BLOCK
  5
232
330
231
100
AcDbEntity
  8
0
100
AcDbBlockBegin
  2
*D8
 70
     1
 10
0.0
 20
0.0
 30
0.0
  3
*D8
  1

  0
SOLID
  5
234
330
231
100
AcDbEntity
  8
VERMASSUNG
100
AcDbTrace
 10
50.2470136699
 20
155.7071505959
 30
0.0
 11
53.2470136699
 21
155.2571505959
 31
0.0
 12
53.2470136699
 22
156.1571505959
 32
0.0
 13
53.2470136699
 23
156.1571505959
 33
0.0
  0
SOLID
  5
235
330
231
100
AcDbEntity
  8
VERMASSUNG
100
AcDbTrace
 10
242.1470136699
 20
155.7071505959
 30
0.0
 11
239.1470136699
 21
156.1571505959
 31
0.0
 12
239.1470136699
 22
155.2571505959
 32
0.0
 13
239.1470136699
 23
155.2571505959
 33
0.0
  0
LINE
  5
236
330
231
100
AcDbEntity
  8
VERMASSUNG
100
AcDbLine
 10
50.2470136699
 20
125.5029204334
 30
0.0
 11
50.2470136699
 21
156.7071505959
 31
0.0
  0
LINE
  5
237
330
231
100
AcDbEntity
  8
VERMASSUNG
100
AcDbLine
 10
242.1470136699
 20
115.9501733354
 30
0.0
 11
242.1470136699
 21
156.7071505959
 31
0.0
  0
LINE
  5
238
330
231
100
AcDbEntity
  8
VERMASSUNG
100
AcDbLine
 10
50.2470136699
 20
155.7071505959
 30
0.0
 11
242.1470136699
 21
155.7071505959
 31
0.0
  0
MTEXT
  5
239
330
231
100
AcDbEntity
  8
VERMASSUNG
100
AcDbMText
 10
143.498047256
 20
158.285285959
 30
0.0
 40
2.0
 41
0.0
 71
     1
 72
     1
  1
191.9
  7
SLDTEXTSTYLE0
 73
     1
 44
1.0
  0
ENDBLK
  5
233
330
231
100
AcDbEntity
  8
0
100
AcDbBlockEnd
  0
ENDSEC
  0
SECTION
  2
ENTITIES
  0
MTEXT
  5
45
330
1F
100
AcDbEntity
  8
KOPF_DÜNN
100
AcDbMText
 10
13.8892156294
 20
23.8442973028
 30
0.0
 40
3.0
 41
0.0
 71
     1
 72
     1
  1
HA6.S12.K21.160
  7
SLDTEXTSTYLE0
 73
     1
 44
1.0
  0
MTEXT
  5
46
330
1F
100
AcDbEntity
  8
VERMASSUNG
100
AcDbMText
 10
13.9329988022
 20
28.8834360957
 30
0.0
 40
3.0
 41
0.0
 71
     1
 72
     1
  1
Schrumpffutter_Heat shrink chuck
  7
SLDTEXTSTYLE0
 73
     1
 44
1.0
  0
MTEXT
  5
47
330
1F
100
AcDbEntity
  8
VERMASSUNG
100
AcDbMText
 10
98.8601118557
 20
13.8365368179
 30
0.0
 40
2.0
 41
0.0
 71
     1
 72
     1
  1
Datum: 27.04.2011
  7
SLDTEXTSTYLE0
 73
     1
 44
1.0
  0
MTEXT
  5
49
330
1F
100
AcDbEntity
  8
VERMASSUNG
100
AcDbMText
 10
13.933048693
 20
18.0482802738
 30
0.0
 40
2.0
 41
0.0
 71
     1
 72
     1
  1
DIN 69 893 HSK A 63
  7
SLDTEXTSTYLE1
 73
     1
 44
1.0
  0
MTEXT
  5
4A
330
1F
100
AcDbEntity
  8
VERMASSUNG
100
AcDbMText
 10
13.9808475933
 20
13.9090973692
 30
0.0
 40
2.0
 41
0.0
 71
     1
 72
     1
  1
Gewicht: 1352g
  7
SLDTEXTSTYLE0
 73
     1
 44
1.0
  0
LINE
  5
4B
330
1F
100
AcDbEntity
  8
0
  6
Continuous
 62
     7
370
    15
100
AcDbLine
 10
82.4470136699
 20
74.3122426869
 30
0.0
 11
87.0970136699
 21
74.3122426869
 31
0.0
  0
LINE
  5
4C
330
1F
100
AcDbEntity
  8
0
  6
Continuous
 62
     7
370
    15
100
AcDbLine
 10
87.1063217567
 20
137.3122426869
 30
0.0
 11
82.4470136699
 21
137.3122426869
 31
0.0
  0
ARC
  5
4D
330
1F
100
AcDbEntity
  8
0
  6
Continuous
 62
     7
370
    15
100
AcDbCircle
 10
82.4470136699
 20
74.6122426869
 30
0.0
 40
0.3000000000000114
100
AcDbArc
 50
180.0
 51
270.0
  0
ARC
  5
4E
330
1F
100
AcDbEntity
  8
0
  6
Continuous
 62
     7
370
    15
100
AcDbCircle
 10
82.4470136699
 20
137.0122426869
 30
0.0
 40
0.3000000000000398
100
AcDbArc
 50
90.0
 51
180.0
  0
ARC
  5
4F
330
1F
100
AcDbEntity
  8
0
  6
Continuous
 62
     7
370
    15
100
AcDbCircle
 10
81.6470069172
 20
81.2418050725
 30
0.0
 40
0.6000067526677242
100
AcDbArc
 50
33.5571153394
 51
90.0
  0
ARC
  5
50
330
1F
100
AcDbEntity
  8
0
  6
Continuous
 62
     7
370
    15
100
AcDbCircle
 10
81.6470069172
 20
130.3826803013
 30
0.0
 40
0.6000067526677164
100
AcDbArc
 50
270.0
 51
326.4428846606
  0
LINE
  5
51
330
1F
100
AcDbEntity
  8
0
  6
Continuous
 62
     7
370
    15
100
AcDbLine
 10
80.1470136699
 20
81.5918118252
 30
0.0
 11
81.0037264433
 21
81.8213673209
 31
0.0
  0
LINE
  5
52
330
1F
100
AcDbEntity
  8
0
  6
Continuous
 62
     7
370
    15
100
AcDbLine
 10
81.0037264433
 20
129.8031180528
 30
0.0
 11
80.1470136699
 21
130.0326735486
 31
0.0
  0
LINE
  5
53
330
1F
100
AcDbEntity
  8
0
  6
Continuous
 62
     7
370
    15
100
AcDbLine
 10
68.9165916674
 20
129.4700271557
 30
0.0
 11
56.3470136699
 21
128.8402887791
 31
0.0
  0
LINE
  5
54
330
1F
100
AcDbEntity
  8
0
  6
Continuous
 62
     7
370
    15
100
AcDbLine
 10
80.1470136699
 20
130.0326735486
 30
0.0
 11
77.3284038773
 21
129.8914606332
 31
0.0
  0
LINE
  5
55
330
1F
100
AcDbEntity
  8
0
  6
Continuous
 62
     7
370
    15
100
AcDbLine
 10
77.3286257876
 20
81.7330136229
 30
0.0
 11
80.1470136699
 21
81.5918118252
 31
0.0
  0
LINE
  5
56
330
1F
100
AcDbEntity
  8
0
  6
Continuous
 62
     7
370
    15
100
AcDbLine
 10
60.3470136699
 20
82.5837957931
 30
0.0
 11
68.9172904391
 21
82.1544232095
 31
0.0
  0
ARC
  5
57
330
1F
100
AcDbEntity
  8
0
  6
Continuous
 62
     7
370
    15
100
AcDbCircle
 10
81.1590178703
 20
81.2418118252
 30
0.0
 40
0.5999999999999943
100
AcDbArc
 50
90.0
 51
105.0
  0
ARC
  5
58
330
1F
100
AcDbEntity
  8
0
  6
Continuous
 62
     7
370
    15
100
AcDbCircle
 10
81.1590178703
 20
130.3826735486
 30
0.0
 40
0.5999999999999943
100
AcDbArc
 50
255.0
 51
270.0
  0
LINE
  5
59
330
1F
100
AcDbEntity
  8
0
  6
Continuous
 62
     7
370
    15
100
AcDbLine
 10
81.1590178703
 20
81.8418118252
 30
0.0
 11
81.6470069172
 21
81.8418118252
 31
0.0
  0
LINE
  5
5A
330
1F
100
AcDbEntity
  8
0
  6
Continuous
 62
     7
370
    15
100
AcDbLine
 10
81.6470069172
 20
129.7826735486
 30
0.0
 11
81.1590178703
 21
129.7826735486
 31
0.0
  0
ARC
  5
5B
330
1F
100
AcDbEntity
  8
0
  6
Continuous
 62
     7
370
    15
100
AcDbCircle
 10
111.0970136699
 20
83.7962838854
 30
0.0
 40
3.0
100
AcDbArc
 50
104.3250519401
 51
180.0
  0
ARC
  5
5C
330
1F
100
AcDbEntity
  8
0
  6
Continuous
 62
     7
370
    15
100
AcDbCircle
 10
111.0970136699
 20
127.8282014884
 30
0.0
 40
3.0
100
AcDbArc
 50
180.0
 51
255.6749480599
  0
ARC
  5
5D
330
1F
100
AcDbEntity
  8
0
  6
Continuous
 62
     7
370
    15
100
AcDbCircle
 10
135.0970136699
 20
-10.1877573131
 30
0.0
 40
100.0
100
AcDbArc
 50
90.0
 51
104.3250519401
  0
ARC
  5
5E
330
1F
100
AcDbEntity
  8
0
  6
Continuous
 62
     7
370
    15
100
AcDbCircle
 10
135.0970136699
 20
221.8122426869
 30
0.0
 40
100.0
100
AcDbArc
 50
255.6749480599
 51
270.0
  0
LINE
  5
5F
330
1F
100
AcDbEntity
  8
0
  6
Continuous
 62
     7
370
    15
100
AcDbLine
 10
191.3221947252
 20
89.8122426869
 30
0.0
 11
240.3039318613
 21
93.6671890027
 31
0.0
  0
LINE
  5
60
330
1F
100
AcDbEntity
  8
0
  6
Continuous
 62
     7
370
    15
100
AcDbLine
 10
240.3039318613
 20
117.957296371
 30
0.0
 11
191.3221947252
 21
121.8122426869
 31
0.0
  0
LINE
  5
61
330
1F
100
AcDbEntity
  8
0
  6
Continuous
 62
     7
370
    15
100
AcDbLine
 10
157.5952996982
 20
89.8122426869
 30
0.0
 11
191.3221947252
 21
89.8122426869
 31
0.0
  0
LINE
  5
62
330
1F
100
AcDbEntity
  8
0
  6
Continuous
 62
     7
370
    15
100
AcDbLine
 10
135.0970136699
 20
89.8122426869
 30
0.0
 11
150.6026825192
 21
89.8122426869
 31
0.0
  0
LINE
  5
63
330
1F
100
AcDbEntity
  8
0
  6
Continuous
 62
     7
370
    15
100
AcDbLine
 10
150.597946066
 20
121.8122426869
 30
0.0
 11
135.0970136699
 21
121.8122426869
 31
0.0
  0
LINE
  5
64
330
1F
100
AcDbEntity
  8
0
  6
Continuous
 62
     7
370
    15
100
AcDbLine
 10
191.3221947252
 20
121.8122426869
 30
0.0
 11
157.5874427073
 21
121.8122426869
 31
0.0
  0
ARC
  5
65
330
1F
100
AcDbEntity
  8
0
  6
Continuous
 62
     7
370
    15
100
AcDbCircle
 10
240.1470136699
 20
95.6610236702
 30
0.0
 40
2.000000000000012
100
AcDbArc
 50
274.5
 51
353.0847181901
  0
ARC
  5
66
330
1F
100
AcDbEntity
  8
0
  6
Continuous
 62
     7
370
    15
100
AcDbCircle
 10
240.1470136699
 20
115.9634617036
 30
0.0
 40
2.000000000000019
100
AcDbArc
 50
0.0
 51
85.5
  0
LINE
  5
67
330
1F
100
AcDbEntity
  8
0
  6
Continuous
 62
     7
370
    15
100
AcDbLine
 10
51.5303503099
 20
84.9422426869
 30
0.0
 11
58.9470136699
 21
84.9422426869
 31
0.0
  0
ARC
  5
68
330
1F
100
AcDbEntity
  8
0
  6
Continuous
 62
     7
370
    15
100
AcDbCircle
 10
58.9470136699
 20
83.5422426869
 30
0.0
 40
1.40000000000002
100
AcDbArc
 50
42.2465410162
 51
90.0
  0
LINE
  5
69
330
1F
100
AcDbEntity
  8
0
  6
Continuous
 62
     7
370
    15
100
AcDbLine
 10
50.258174105
 20
86.0810822518
 30
0.0
 11
51.3881771281
 21
84.9510792287
 31
0.0
  0
LINE
  5
6A
330
1F
100
AcDbEntity
  8
0
  6
Continuous
 62
     7
370
    15
100
AcDbLine
 10
51.3881771281
 20
126.6734061451
 30
0.0
 11
50.2581812891
 21
125.5434103061
 31
0.0
  0
ARC
  5
6B
330
1F
100
AcDbEntity
  8
0
  6
Continuous
 62
     7
370
    15
100
AcDbCircle
 10
54.9470136699
 20
128.0822426869
 30
0.0
 40
1.40000000000002
100
AcDbArc
 50
270.0
 51
302.5610026528
  0
LINE
  5
6C
330
1F
100
AcDbEntity
  8
0
  6
Continuous
 62
     7
370
    15
100
AcDbLine
 10
54.9470136699
 20
126.6822426869
 30
0.0
 11
51.5379020713
 21
126.6822426869
 31
0.0
  0
LINE
  5
6D
330
1F
100
AcDbEntity
  8
0
  6
Continuous
 62
     7
370
    15
100
AcDbLine
 10
242.1324641978
 20
95.4202204288
 30
0.0
 11
242.224335877
 21
95.594839769
 31
0.0
  0
LINE
  5
6E
330
1F
100
AcDbEntity
  8
0
  6
Continuous
 62
     7
370
    15
100
AcDbLine
 10
242.1654461534
 20
116.0319593884
 30
0.0
 11
242.1440301288
 21
116.0726645558
 31
0.0
  0
LINE
  5
6F
330
1F
100
AcDbEntity
  8
0
  6
Continuous
 62
     7
370
    15
100
AcDbLine
 10
108.0970136699
 20
76.2519652863
 30
0.0
 11
108.0970136699
 21
125.6622426869
 31
0.0
  0
SPLINE
  5
70
330
1F
100
AcDbEntity
  8
0
  6
Continuous
 62
     7
370
    15
100
AcDbSpline
210
0.0
220
0.0
230
1.0
 70
     8
 71
     3
 72
    10
 73
     6
 74
     0
 42
0.00000001
 43
0.00000001
 40
0.0
 40
0.0
 40
0.0
 40
0.0
 40
0.5
 40
0.5
 40
1.0
 40
1.0
 40
1.0
 40
1.0
 10
108.097013669889
 20
76.25196528629775
 30
0.0
 10
108.097013669889
 20
76.09207801810408
 30
0.0
 10
108.0357040186532
 20
75.93095076258948
 30
0.0
 10
107.8166043811181
 20
75.69685176423464
 30
0.0
 10
107.6585561748046
 20
75.62532499064342
 30
0.0
 10
107.497013669889
 20
75.62532499064342
 30
0.0
  0
SPLINE
  5
71
330
1F
100
AcDbEntity
  8
0
  6
Continuous
 62
     7
370
    15
100
AcDbSpline
210
0.0
220
0.0
230
1.0
 70
    24
 71
     3
 72
    12
 73
     8
 74
     0
 42
0.00000001
 43
0.00000001
 40
0.0
 40
0.0
 40
0.0
 40
0.0
 40
0.2500000000000013
 40
0.2500000000000013
 40
0.5000000000000027
 40
0.5000000000000027
 40
1.0
 40
1.0
 40
1.0
 40
1.0
 10
107.497013669889
 20
125.6622426868906
 30
0.0
 10
107.5872527375761
 20
125.6622426868906
 30
0.0
 10
107.6781508516826
 20
125.6622426868906
 30
0.0
 10
107.8327478881711
 20
125.6622426868906
 30
0.0
 10
107.8977263042792
 20
125.6622426868906
 30
0.0
 10
108.0495613322154
 20
125.6622426868906
 30
0.0
 10
108.097013669889
 20
125.6622426868906
 30
0.0
 10
108.097013669889
 20
125.6622426868906
 30
0.0
  0
LINE
  5
72
330
1F
100
AcDbEntity
  8
0
  6
Continuous
 62
     7
370
    15
100
AcDbLine
 10
107.4970136699
 20
75.6253249906
 30
0.0
 11
103.5389465014
 21
75.6253249906
 31
0.0
  0
LINE
  5
73
330
1F
100
AcDbEntity
  8
0
  6
Continuous
 62
     7
370
    15
100
AcDbLine
 10
103.5389465014
 20
75.6253249906
 30
0.0
 11
103.5389465014
 21
125.6622426869
 31
0.0
  0
LINE
  5
74
330
1F
100
AcDbEntity
  8
0
  6
Continuous
 62
     7
370
    15
100
AcDbLine
 10
103.5389465014
 20
125.6622426869
 30
0.0
 11
107.4970136699
 21
125.6622426869
 31
0.0
  0
SPLINE
  5
75
330
1F
100
AcDbEntity
  8
0
  6
Continuous
 62
     7
370
    15
100
AcDbSpline
210
0.0
220
0.0
230
1.0
 70
     8
 71
     3
 72
    70
 73
    66
 74
     0
 42
0.00000001
 43
0.00000001
 40
-0.0312499999999998
 40
-0.0312499999999998
 40
0.0
 40
0.0
 40
0.03125
 40
0.03125
 40
0.0625000000000001
 40
0.0625000000000001
 40
0.0937500000000001
 40
0.0937500000000001
 40
0.1250000000000002
 40
0.1250000000000002
 40
0.1562500000000002
 40
0.1562500000000002
 40
0.1875000000000003
 40
0.1875000000000003
 40
0.2187500000000003
 40
0.2187500000000003
 40
0.2500000000000004
 40
0.2500000000000004
 40
0.2812500000000004
 40
0.2812500000000004
 40
0.3125000000000005
 40
0.3125000000000005
 40
0.3437500000000006
 40
0.3437500000000006
 40
0.3750000000000006
 40
0.3750000000000006
 40
0.4062500000000006
 40
0.4062500000000006
 40
0.4375000000000007
 40
0.4375000000000007
 40
0.4687500000000007
 40
0.4687500000000007
 40
0.5000000000000008
 40
0.5000000000000008
 40
0.5312500000000009
 40
0.5312500000000009
 40
0.5625000000000011
 40
0.5625000000000011
 40
0.5937500000000012
 40
0.5937500000000012
 40
0.6250000000000014
 40
0.6250000000000014
 40
0.6562500000000016
 40
0.6562500000000016
 40
0.6875000000000018
 40
0.6875000000000018
 40
0.7187500000000016
 40
0.7187500000000016
 40
0.7500000000000014
 40
0.7500000000000014
 40
0.7812500000000012
 40
0.7812500000000012
 40
0.812500000000001
 40
0.812500000000001
 40
0.8437500000000009
 40
0.8437500000000009
 40
0.8750000000000007
 40
0.8750000000000007
 40
0.9062500000000006
 40
0.9062500000000006
 40
0.9375000000000003
 40
0.9375000000000003
 40
0.9687500000000002
 40
0.9687500000000002
 40
1.0
 40
1.0
 40
1.03125
 40
1.03125
 10
89.88246833122888
 20
116.4331495728739
 30
0.0
 10
90.41155900854916
 20
116.4331495728739
 30
0.0
 10
90.67162967592627
 20
116.4578268676591
 30
0.0
 10
91.18320435576169
 20
116.554298540701
 30
0.0
 10
91.43737963950188
 20
116.6272794566811
 30
0.0
 10
91.92165026956359
 20
116.8170200596197
 30
0.0
 10
92.15129136144476
 20
116.9328807180135
 30
0.0
 10
92.58589570967824
 20
117.2054985639711
 30
0.0
 10
92.79146148632485
 20
117.3635376460249
 30
0.0
 10
93.16001862692008
 20
117.7070804969956
 30
0.0
 10
93.32549960965558
 20
117.8938429410972
 30
0.0
 10
93.61792411909067
 20
118.297386115494
 30
0.0
 10
93.74202509571718
 20
118.5108831119232
 30
0.0
 10
93.94160429246689
 20
118.9502664258457
 30
0.0
 10
94.01853787832516
 20
119.1794064129913
 30
0.0
 10
94.12139493684555
 20
119.6453805357513
 30
0.0
 10
94.14686784630466
 20
119.8782629814275
 30
0.0
 10
94.14715825687242
 20
120.3436605165073
 30
0.0
 10
94.1211336230967
 20
120.5785362739017
 30
0.0
 10
94.0189853386047
 20
121.0300294211479
 30
0.0
 10
93.94340889102152
 20
121.2480758965593
 30
0.0
 10
93.74291135987662
 20
121.6691704215971
 30
0.0
 10
93.61778251836822
 20
121.8710918061154
 30
0.0
 10
93.32842371734664
 20
122.2431212886343
 30
0.0
 10
93.16301273029117
 20
122.4157495922147
 30
0.0
 10
92.79002217214334
 20
122.7330675967607
 30
0.0
 10
92.58828913905424
 20
122.8728545302623
 30
0.0
 10
92.15542988822637
 20
123.1170307838141
 30
0.0
 10
91.92151135533699
 20
123.2222602948556
 30
0.0
 10
91.43732762019438
 20
123.3904174412308
 30
0.0
 10
91.18801199423888
 20
123.4536683318246
 30
0.0
 10
90.67497946981115
 20
123.5392475409272
 30
0.0
 10
90.40968564690651
 20
123.5611197058496
 30
0.0
 10
89.88735102703677
 20
123.5612833554936
 30
0.0
 10
89.62759736455503
 20
123.5402816633976
 30
0.0
 10
89.11098554890978
 20
123.4548793083199
 30
0.0
 10
88.8586195084095
 20
123.390873125033
 30
0.0
 10
88.37709438687669
 20
123.2240586049918
 30
0.0
 10
88.14424365476312
 20
123.1199254415926
 30
0.0
 10
87.70715380632436
 20
122.8739387890977
 30
0.0
 10
87.50583281766716
 20
122.7341889581488
 30
0.0
 10
87.13674679236728
 20
122.4210508884242
 30
0.0
 10
86.96776204131557
 20
122.2455947291541
 30
0.0
 10
86.67730598465637
 20
121.8727544650539
 30
0.0
 10
86.55423417329423
 20
121.674632654943
 30
0.0
 10
86.35289793187222
 20
121.2539213122093
 30
0.0
 10
86.27568538592999
 20
121.0319312915418
 30
0.0
 10
86.17348184302992
 20
120.5820663518334
 30
0.0
 10
86.14725349157759
 20
120.3518109387166
 30
0.0
 10
86.14677709226048
 20
119.8804949961676
 30
0.0
 10
86.17251950475845
 20
119.6472575804534
 30
0.0
 10
86.27383028112232
 20
119.1855810409554
 30
0.0
 10
86.35066292051326
 20
118.9546836538432
 30
0.0
 10
86.55106675972844
 20
118.5124076400515
 30
0.0
 10
86.67373825802049
 20
118.3013452087656
 30
0.0
 10
86.96368554718472
 20
117.899846698033
 30
0.0
 10
87.13225652654997
 20
117.7089401759571
 30
0.0
 10
87.50052612066311
 20
117.36521484396
 30
0.0
 10
87.70158797793343
 20
117.2100776577459
 30
0.0
 10
88.13861889651837
 20
116.9350002976662
 30
0.0
 10
88.37076710964797
 20
116.8178840682442
 30
0.0
 10
88.85177739114683
 20
116.6289575831796
 30
0.0
 10
89.10387747397726
 20
116.5558826127853
 30
0.0
 10
89.62094696023625
 20
116.4578305536508
 30
0.0
 10
89.88246833122888
 20
116.4331495728739
 30
0.0
 10
90.41155900854916
 20
116.4331495728739
 30
0.0
  0
LINE
  5
76
330
1F
100
AcDbEntity
  8
0
  6
Continuous
 62
     7
370
    15
100
AcDbLine
 10
87.0970136699
 20
125.6622426869
 30
0.0
 11
96.7550808384
 21
125.6622426869
 31
0.0
  0
LINE
  5
77
330
1F
100
AcDbEntity
  8
0
  6
Continuous
 62
     7
370
    15
100
AcDbLine
 10
96.7550808384
 20
75.6253249906
 30
0.0
 11
96.7550808384
 21
125.6622426869
 31
0.0
  0
LINE
  5
78
330
1F
100
AcDbEntity
  8
0
  6
Continuous
 62
     7
370
    15
100
AcDbLine
 10
96.7550808384
 20
75.6253249906
 30
0.0
 11
95.0970136699
 21
75.6253249906
 31
0.0
  0
SPLINE
  5
79
330
1F
100
AcDbEntity
  8
0
  6
Continuous
 62
     7
370
    15
100
AcDbSpline
210
0.0
220
0.0
230
1.0
 70
     8
 71
     3
 72
    28
 73
    24
 74
     0
 42
0.00000001
 43
0.00000001
 40
0.0
 40
0.0
 40
0.0
 40
0.0
 40
0.1250000000000001
 40
0.1250000000000001
 40
0.1875000000000001
 40
0.1875000000000001
 40
0.2500000000000001
 40
0.2500000000000001
 40
0.3750000000000001
 40
0.3750000000000001
 40
0.4375000000000003
 40
0.4375000000000003
 40
0.5000000000000003
 40
0.5000000000000003
 40
0.6250000000000002
 40
0.6250000000000002
 40
0.75
 40
0.75
 40
0.8125000000000001
 40
0.8125000000000001
 40
0.8750000000000001
 40
0.8750000000000001
 40
1.0
 40
1.0
 40
1.0
 40
1.0
 10
95.09701366988901
 20
75.62532499064342
 30
0.0
 10
94.5653059123961
 20
75.6253249906434
 30
0.0
 10
94.04306734708575
 20
75.6095402766932
 30
0.0
 10
93.27319686081076
 20
75.56454486261698
 30
0.0
 10
93.01883728861941
 20
75.54598986754128
 30
0.0
 10
92.51471570792091
 20
75.50213714509478
 30
0.0
 10
92.26499289049298
 20
75.47679253814258
 30
0.0
 10
91.53940293904657
 20
75.39339046039247
 30
0.0
 10
91.08104267746504
 20
75.32752490124138
 30
0.0
 10
90.43054473407115
 20
75.2185545607496
 30
0.0
 10
90.2188626832787
 20
75.18031492498295
 30
0.0
 10
89.81479119414068
 20
75.1025561875636
 30
0.0
 10
89.62228468031982
 20
75.06305522538824
 30
0.0
 10
89.07244970929855
 20
74.94414748302223
 30
0.0
 10
88.74252093098976
 20
74.86432980159763
 30
0.0
 10
88.15804966242105
 20
74.71098663980156
 30
0.0
 10
87.91177252440762
 20
74.6396528865323
 30
0.0
 10
87.61192973170955
 20
74.54570937945769
 30
0.0
 10
87.52347287463736
 20
74.51651558609775
 30
0.0
 10
87.37011152133223
 20
74.46304901183434
 30
0.0
 10
87.305023307106
 20
74.43868967755918
 30
0.0
 10
87.1494292911652
 20
74.37509953211443
 30
0.0
 10
87.09701366988902
 20
74.34499659702517
 30
0.0
 10
87.09701366988902
 20
74.32811970402825
 30
0.0
  0
LINE
  5
7A
330
1F
100
AcDbEntity
  8
0
  6
Continuous
 62
     7
370
    15
100
AcDbLine
 10
87.0970136699
 20
74.328119704
 30
0.0
 11
87.0970136699
 21
74.3122426869
 31
0.0
  0
SPLINE
  5
7B
330
1F
100
AcDbEntity
  8
0
  6
Continuous
 62
     7
370
    15
100
AcDbSpline
210
0.0
220
0.0
230
1.0
 70
     8
 71
     3
 72
    22
 73
    18
 74
     0
 42
0.00000001
 43
0.00000001
 40
0.0
 40
0.0
 40
0.0
 40
0.0
 40
0.0515773377536172
 40
0.156526484994363
 40
0.2100197540385887
 40
0.2615951369298747
 40
0.3664424119934945
 40
0.4198226601719806
 40
0.4724528789006789
 40
0.5794488992297347
 40
0.633939733648029
 40
0.6872670452602948
 40
0.7409741315029985
 40
0.7958968813361833
 40
0.8512481408256366
 40
0.9034470736265868
 40
1.0
 40
1.0
 40
1.0
 40
1.0
 10
95.09701366988901
 20
136.2794381600548
 30
0.0
 10
94.88020347388655
 20
136.2808347811234
 30
0.0
 10
94.22222965497178
 20
136.2850732353795
 30
0.0
 10
93.34713467764087
 20
136.3246055597339
 30
0.0
 10
92.50230918278402
 20
136.3875788065757
 30
0.0
 10
91.68258389917979
 20
136.4655928398309
 30
0.0
 10
90.90679392115136
 20
136.562475967706
 30
0.0
 10
90.1893054598449
 20
136.670735379622
 30
0.0
 10
89.51004071267283
 20
136.7844537519265
 30
0.0
 10
88.90172573476391
 20
136.9009539368673
 30
0.0
 10
88.38163379404074
 20
137.0100541882843
 30
0.0
 10
88.03774361632462
 20
137.0860580860143
 30
0.0
 10
87.74278988859706
 20
137.154091541936
 30
0.0
 10
87.4970156012559
 20
137.2128045926945
 30
0.0
 10
87.3111132922825
 20
137.2584199726282
 30
0.0
 10
87.13951668655875
 20
137.3013794241888
 30
0.0
 10
87.1193874113825
 20
137.3065404459908
 30
0.0
 10
87.1063217567088
 20
137.3098903991331
 30
0.0
  0
LINE
  5
7C
330
1F
100
AcDbEntity
  8
0
  6
Continuous
 62
     7
370
    15
100
AcDbLine
 10
96.7550808384
 20
136.2794381601
 30
0.0
 11
95.0970136699
 21
136.2794381601
 31
0.0
  0
LINE
  5
7D
330
1F
100
AcDbEntity
  8
0
  6
Continuous
 62
     7
370
    15
100
AcDbLine
 10
96.7550808384
 20
130.2709323493
 30
0.0
 11
96.7550808384
 21
136.2794381601
 31
0.0
  0
LINE
  5
7E
330
1F
100
AcDbEntity
  8
0
  6
Continuous
 62
     7
370
    15
100
AcDbLine
 10
94.3426340156
 20
130.2709323493
 30
0.0
 11
96.7550808384
 21
130.2709323493
 31
0.0
  0
SPLINE
  5
7F
330
1F
100
AcDbEntity
  8
0
  6
Continuous
 62
     7
370
    15
100
AcDbSpline
210
0.0
220
0.0
230
1.0
 70
     8
 71
     3
 72
    20
 73
    16
 74
     0
 42
0.00000001
 43
0.00000001
 40
0.0
 40
0.0
 40
0.0
 40
0.0
 40
0.25
 40
0.25
 40
0.375
 40
0.375
 40
0.5
 40
0.5
 40
0.625
 40
0.625
 40
0.75
 40
0.75
 40
0.875
 40
0.875
 40
1.0
 40
1.0
 40
1.0
 40
1.0
 10
87.09701366988902
 20
125.6622426868906
 30
0.0
 10
87.34538740417707
 20
126.316105115188
 30
0.0
 10
87.66495749652233
 20
126.9198908971851
 30
0.0
 10
88.28726372972703
 20
127.7467296333537
 30
0.0
 10
88.51868799015779
 20
128.0091582713067
 30
0.0
 10
89.03990232980749
 20
128.5058209254116
 30
0.0
 10
89.32652281244258
 20
128.7364078044331
 30
0.0
 10
89.94600755375018
 20
129.1529620290158
 30
0.0
 10
90.28030793323715
 20
129.3404598309833
 30
0.0
 10
91.00556840586194
 20
129.6718568086197
 30
0.0
 10
91.3874834632524
 20
129.811360796115
 30
0.0
 10
92.18227163942409
 20
130.0368143035859
 30
0.0
 10
92.59642983363048
 20
130.1234404151296
 30
0.0
 10
93.46197617421187
 20
130.2414212039837
 30
0.0
 10
93.89986378922369
 20
130.270932349258
 30
0.0
 10
94.3426340155783
 20
130.270932349258
 30
0.0
  0
SPLINE
  5
80
330
1F
100
AcDbEntity
  8
0
  6
Continuous
 62
     7
370
    15
100
AcDbSpline
210
0.0
220
0.0
230
1.0
 70
     8
 71
     3
 72
    70
 73
    66
 74
     0
 42
0.00000001
 43
0.00000001
 40
-0.03125
 40
-0.03125
 40
0.0
 40
0.0
 40
0.0312499999999998
 40
0.0312499999999998
 40
0.0624999999999997
 40
0.0624999999999997
 40
0.0937499999999995
 40
0.0937499999999995
 40
0.1249999999999994
 40
0.1249999999999994
 40
0.1562499999999992
 40
0.1562499999999992
 40
0.1874999999999991
 40
0.1874999999999991
 40
0.2187499999999989
 40
0.2187499999999989
 40
0.2499999999999988
 40
0.2499999999999988
 40
0.2812499999999988
 40
0.2812499999999988
 40
0.3124999999999988
 40
0.3124999999999988
 40
0.3437499999999988
 40
0.3437499999999988
 40
0.3749999999999988
 40
0.3749999999999988
 40
0.4062499999999988
 40
0.4062499999999988
 40
0.4374999999999988
 40
0.4374999999999988
 40
0.4687499999999989
 40
0.4687499999999989
 40
0.4999999999999989
 40
0.4999999999999989
 40
0.5312499999999991
 40
0.5312499999999991
 40
0.5624999999999992
 40
0.5624999999999992
 40
0.5937499999999994
 40
0.5937499999999994
 40
0.6249999999999996
 40
0.6249999999999996
 40
0.6562499999999998
 40
0.6562499999999998
 40
0.6875
 40
0.6875
 40
0.7187500000000001
 40
0.7187500000000001
 40
0.7500000000000003
 40
0.7500000000000003
 40
0.7812500000000003
 40
0.7812500000000003
 40
0.8125000000000002
 40
0.8125000000000002
 40
0.8437500000000002
 40
0.8437500000000002
 40
0.8750000000000001
 40
0.8750000000000001
 40
0.9062500000000001
 40
0.9062500000000001
 40
0.9375000000000001
 40
0.9375000000000001
 40
0.96875
 40
0.96875
 40
1.0
 40
1.0
 40
1.03125
 40
1.03125
 10
89.88246833122888
 20
130.8712060816697
 30
0.0
 10
90.41155900854918
 20
130.8712060816697
 30
0.0
 10
90.67162967592628
 20
130.8871065220845
 30
0.0
 10
91.18320435576169
 20
130.9490508722588
 30
0.0
 10
91.43737963950188
 20
130.9958531063501
 30
0.0
 10
91.92165026956359
 20
131.1168300898051
 30
0.0
 10
92.15129136144476
 20
131.190432417612
 30
0.0
 10
92.58589570967824
 20
131.3622566885901
 30
0.0
 10
92.79146148632486
 20
131.4612601115175
 30
0.0
 10
93.16001862692008
 20
131.6743565254304
 30
0.0
 10
93.32549960965558
 20
131.7892562415601
 30
0.0
 10
93.61792411909067
 20
132.0346231402503
 30
0.0
 10
93.74202509571718
 20
132.1630630407206
 30
0.0
 10
93.94160429246689
 20
132.4239551888066
 30
0.0
 10
94.01853787832516
 20
132.5583363601461
 30
0.0
 10
94.12139493684555
 20
132.8276563112523
 30
0.0
 10
94.14686784630466
 20
132.9603375754704
 30
0.0
 10
94.14715825687242
 20
133.2215240496015
 30
0.0
 10
94.1211336230967
 20
133.3512890877662
 30
0.0
 10
94.0189853386047
 20
133.5968717220389
 30
0.0
 10
93.94340889102153
 20
133.7135332593478
 30
0.0
 10
93.74291135987662
 20
133.9354384495023
 30
0.0
 10
93.61778251836822
 20
134.0400497034253
 30
0.0
 10
93.32842371734665
 20
134.2300961150334
 30
0.0
 10
93.16301273029117
 20
134.316855786483
 30
0.0
 10
92.79002217214335
 20
134.4743601622346
 30
0.0
 10
92.58828913905424
 20
134.5426854270218
 30
0.0
 10
92.15542988822637
 20
134.660915150641
 30
0.0
 10
91.92151135533699
 20
134.7112100667449
 30
0.0
 10
91.43732762019438
 20
134.7910756036345
 30
0.0
 10
91.18801199423888
 20
134.8208167314341
 30
0.0
 10
90.67497946981115
 20
134.8609694729423
 30
0.0
 10
90.40968564690652
 20
134.8711677423522
 30
0.0
 10
89.88735102703677
 20
134.8712442007369
 30
0.0
 10
89.62759736455503
 20
134.8614531891279
 30
0.0
 10
89.11098554890978
 20
134.8213863503891
 30
0.0
 10
88.8586195084095
 20
134.7912891835323
 30
0.0
 10
88.37709438687669
 20
134.7120669737021
 30
0.0
 10
88.14424365476312
 20
134.6623094942387
 30
0.0
 10
87.70715380632436
 20
134.5432175517883
 30
0.0
 10
87.50583281766716
 20
134.4749022902411
 30
0.0
 10
87.13674679236728
 20
134.3195013233075
 30
0.0
 10
86.96776204131558
 20
134.2313489812406
 30
0.0
 10
86.67730598465637
 20
134.0409095921243
 30
0.0
 10
86.55423417329423
 20
133.9382850144252
 30
0.0
 10
86.35289793187222
 20
133.7166446678171
 30
0.0
 10
86.27568538592999
 20
133.5978905922696
 30
0.0
 10
86.17348184302992
 20
133.3532246533519
 30
0.0
 10
86.14725349157759
 20
133.2260679279033
 30
0.0
 10
86.14677709226049
 20
132.9616197820478
 30
0.0
 10
86.17251950475845
 20
132.8287191017906
 30
0.0
 10
86.27383028112233
 20
132.5619268283085
 30
0.0
 10
86.35066292051327
 20
132.42656292684
 30
0.0
 10
86.55106675972846
 20
132.1639831315374
 30
0.0
 10
86.67373825802049
 20
132.0370079717837
 30
0.0
 10
86.96368554718472
 20
131.7929285857012
 30
0.0
 10
87.13225652654997
 20
131.6755034609474
 30
0.0
 10
87.50052612066311
 20
131.462306999999
 30
0.0
 10
87.70158797793343
 20
131.3651328815741
 30
0.0
 10
88.13861889651837
 20
131.1917779943599
 30
0.0
 10
88.37076710964797
 20
131.1173784427032
 30
0.0
 10
88.85177739114683
 20
130.9969255631985
 30
0.0
 10
89.10387747397726
 20
130.9500671879326
 30
0.0
 10
89.62094696023625
 20
130.8871096909488
 30
0.0
 10
89.88246833122888
 20
130.8712060816697
 30
0.0
 10
90.41155900854918
 20
130.8712060816697
 30
0.0
  0
LINE
  5
81
330
1F
100
AcDbEntity
  8
0
  6
Continuous
 62
     7
370
    15
100
AcDbLine
 10
98.2370136699
 20
78.3144055278
 30
0.0
 11
98.2370136699
 21
125.6622426869
 31
0.0
  0
SPLINE
  5
82
330
1F
100
AcDbEntity
  8
0
  6
Continuous
 62
     7
370
    15
100
AcDbSpline
210
0.0
220
0.0
230
1.0
 70
     8
 71
     3
 72
     8
 73
     4
 74
     0
 42
0.00000001
 43
0.00000001
 40
0.0
 40
0.0
 40
0.0
 40
0.0
 40
1.0
 40
1.0
 40
1.0
 40
1.0
 10
98.23701366988904
 20
78.3144055278357
 30
0.0
 10
97.74467454710785
 20
77.417135493629
 30
0.0
 10
97.2505604990657
 20
76.52085107857677
 30
0.0
 10
96.75508083839996
 20
75.62532499064342
 30
0.0
  0
SPLINE
  5
83
330
1F
100
AcDbEntity
  8
0
  6
Continuous
 62
     7
370
    15
100
AcDbSpline
210
0.0
220
0.0
230
1.0
 70
    24
 71
     3
 72
     8
 73
     4
 74
     0
 42
0.00000001
 43
0.00000001
 40
0.0
 40
0.0
 40
0.0
 40
0.0
 40
1.0
 40
1.0
 40
1.0
 40
1.0
 10
96.75508083839993
 20
125.6622426868906
 30
0.0
 10
97.26176094655048
 20
125.6622426868906
 30
0.0
 10
97.75706167552411
 20
125.6622426868906
 30
0.0
 10
98.23701366988904
 20
125.6622426868906
 30
0.0
  0
SPLINE
  5
84
330
1F
100
AcDbEntity
  8
0
  6
Continuous
 62
     7
370
    15
100
AcDbSpline
210
0.0
220
0.0
230
1.0
 70
     8
 71
     3
 72
     8
 73
     4
 74
     0
 42
0.00000001
 43
0.00000001
 40
0.0
 40
0.0
 40
0.0
 40
0.0
 40
1.0
 40
1.0
 40
1.0
 40
1.0
 10
103.5389465013781
 20
75.62532499064342
 30
0.0
 10
103.0434668407123
 20
76.52085107857678
 30
0.0
 10
102.5493527926702
 20
77.41713549362903
 30
0.0
 10
102.057013669889
 20
78.31440552783573
 30
0.0
  0
LINE
  5
85
330
1F
100
AcDbEntity
  8
0
  6
Continuous
 62
     7
370
    15
100
AcDbLine
 10
102.0570136699
 20
78.3144055278
 30
0.0
 11
102.0570136699
 21
125.6622426869
 31
0.0
  0
SPLINE
  5
86
330
1F
100
AcDbEntity
  8
0
  6
Continuous
 62
     7
370
    15
100
AcDbSpline
210
0.0
220
0.0
230
1.0
 70
    24
 71
     3
 72
     8
 73
     4
 74
     0
 42
0.00000001
 43
0.00000001
 40
0.0
 40
0.0
 40
0.0
 40
0.0
 40
1.0
 40
1.0
 40
1.0
 40
1.0
 10
102.057013669889
 20
125.6622426868906
 30
0.0
 10
102.5369656642539
 20
125.6622426868906
 30
0.0
 10
103.0322663932275
 20
125.6622426868906
 30
0.0
 10
103.5389465013781
 20
125.6622426868906
 30
0.0
  0
LINE
  5
87
330
1F
100
AcDbEntity
  8
0
  6
Continuous
 62
     7
370
    15
100
AcDbLine
 10
82.1470136699
 20
74.6122426869
 30
0.0
 11
82.1470136699
 21
137.0122426869
 31
0.0
  0
ARC
  5
88
330
1F
100
AcDbEntity
  8
0
  6
Continuous
 62
     7
370
    15
100
AcDbCircle
 10
90.1448644578
 20
117.7256909532
 30
0.0
 40
4.108559335819272
100
AcDbArc
 50
18.9925603252
 51
160.0201117809
  0
SPLINE
  5
89
330
1F
100
AcDbEntity
  8
0
  6
Continuous
 62
     7
370
    15
100
AcDbSpline
210
0.0
220
0.0
230
1.0
 70
     8
 71
     3
 72
    10
 73
     6
 74
     0
 42
0.00000001
 43
0.00000001
 40
0.0
 40
0.0
 40
0.0
 40
0.0
 40
0.5
 40
0.5
 40
1.0
 40
1.0
 40
1.0
 40
1.0
 10
98.63131120157996
 20
132.2122426868906
 30
0.0
 10
98.50977093791144
 20
132.2869688541024
 30
0.0
 10
98.40843657756253
 20
132.3959138700191
 30
0.0
 10
98.2727976346741
 20
132.6463443507807
 30
0.0
 10
98.23701366988904
 20
132.7887637128796
 30
0.0
 10
98.23701366988904
 20
132.9318965379264
 30
0.0
  0
SPLINE
  5
8A
330
1F
100
AcDbEntity
  8
0
  6
Continuous
 62
     7
370
    15
100
AcDbSpline
210
0.0
220
0.0
230
1.0
 70
    24
 71
     3
 72
    12
 73
     8
 74
     0
 42
0.00000001
 43
0.00000001
 40
0.0
 40
0.0
 40
0.0
 40
0.0
 40
0.2500000000000021
 40
0.2500000000000021
 40
0.5000000000000041
 40
0.5000000000000041
 40
1.0
 40
1.0
 40
1.0
 40
1.0
 10
99.037013669889
 20
132.2122426868906
 30
0.0
 10
98.98713698757128
 20
132.2122426868906
 30
0.0
 10
98.93913379416804
 20
132.2122426868906
 30
0.0
 10
98.85608569145597
 20
132.2122426868906
 30
0.0
 10
98.81995611198816
 20
132.2122426868906
 30
0.0
 10
98.72404408104384
 20
132.2122426868906
 30
0.0
 10
98.67428541307515
 20
132.2122426868906
 30
0.0
 10
98.63131120157998
 20
132.2122426868906
 30
0.0
  0
SPLINE
  5
8B
330
1F
100
AcDbEntity
  8
0
  6
Continuous
 62
     7
370
    15
100
AcDbSpline
210
0.0
220
0.0
230
1.0
 70
    24
 71
     3
 72
    14
 73
    10
 74
     0
 42
0.00000001
 43
0.00000001
 40
0.0
 40
0.0
 40
0.0
 40
0.0
 40
0.1249999999999991
 40
0.1249999999999991
 40
0.2499999999999982
 40
0.2499999999999982
 40
0.4999999999999998
 40
0.4999999999999998
 40
1.0
 40
1.0
 40
1.0
 40
1.0
 10
99.037013669889
 20
79.41224268689056
 30
0.0
 10
98.96857582200258
 20
79.41224268689056
 30
0.0
 10
98.90302578323745
 20
79.41224268689058
 30
0.0
 10
98.79859914382963
 20
79.41224268689058
 30
0.0
 10
98.7560545340681
 20
79.41224268689058
 30
0.0
 10
98.64344507352793
 20
79.41224268689056
 30
0.0
 10
98.58790602650832
 20
79.41224268689056
 30
0.0
 10
98.44529433104454
 20
79.41224268689056
 30
0.0
 10
98.38188897604886
 20
79.41224268689056
 30
0.0
 10
98.3346884722213
 20
79.41224268689056
 30
0.0
  0
SPLINE
  5
8C
330
1F
100
AcDbEntity
  8
0
  6
Continuous
 62
     7
370
    15
100
AcDbSpline
210
0.0
220
0.0
230
1.0
 70
     8
 71
     3
 72
    10
 73
     6
 74
     0
 42
0.00000001
 43
0.00000001
 40
0.0
 40
0.0
 40
0.0
 40
0.0
 40
0.5
 40
0.5
 40
1.0
 40
1.0
 40
1.0
 40
1.0
 10
98.23701366988902
 20
125.948109318352
 30
0.0
 10
98.23701366988902
 20
125.9003378103586
 30
0.0
 10
98.23917491348618
 20
125.852628088297
 30
0.0
 10
98.24784628734635
 20
125.7573329707487
 30
0.0
 10
98.25437547030234
 20
125.7096404067821
 30
0.0
 10
98.26316129304915
 20
125.6622426868906
 30
0.0
  0
SPLINE
  5
8D
330
1F
100
AcDbEntity
  8
0
  6
Continuous
 62
     7
370
    15
100
AcDbSpline
210
0.0
220
0.0
230
1.0
 70
    24
 71
     3
 72
    14
 73
    10
 74
     0
 42
0.00000001
 43
0.00000001
 40
0.0
 40
0.0
 40
0.0
 40
0.0
 40
0.4999999999999989
 40
0.4999999999999989
 40
0.7499999999999994
 40
0.7499999999999994
 40
0.8749999999999997
 40
0.8749999999999997
 40
1.0
 40
1.0
 40
1.0
 40
1.0
 10
101.9593388675567
 20
79.41224268689056
 30
0.0
 10
101.9125541625085
 20
79.41224268689058
 30
0.0
 10
101.8505029657289
 20
79.41224268689058
 30
0.0
 10
101.7071113271782
 20
79.41224268689058
 30
0.0
 10
101.6509676736271
 20
79.41224268689058
 30
0.0
 10
101.538016651491
 20
79.41224268689056
 30
0.0
 10
101.4950158894528
 20
79.41224268689056
 30
0.0
 10
101.3909531791464
 20
79.41224268689056
 30
0.0
 10
101.3256209407894
 20
79.41224268689056
 30
0.0
 10
101.257013669889
 20
79.41224268689056
 30
0.0
  0
SPLINE
  5
8E
330
1F
100
AcDbEntity
  8
0
  6
Continuous
 62
     7
370
    15
100
AcDbSpline
210
0.0
220
0.0
230
1.0
 70
    24
 71
     3
 72
    12
 73
     8
 74
     0
 42
0.00000001
 43
0.00000001
 40
0.0
 40
0.0
 40
0.0
 40
0.0
 40
0.4999999999999983
 40
0.4999999999999983
 40
0.7499999999999991
 40
0.7499999999999991
 40
1.0
 40
1.0
 40
1.0
 40
1.0
 10
101.6627161381981
 20
132.2122426868906
 30
0.0
 10
101.6196305885871
 20
132.2122426868906
 30
0.0
 10
101.5704783868367
 20
132.2122426868906
 30
0.0
 10
101.4740057925495
 20
132.2122426868906
 30
0.0
 10
101.4379042074148
 20
132.2122426868906
 30
0.0
 10
101.3547984495541
 20
132.2122426868906
 30
0.0
 10
101.3068018525868
 20
132.2122426868906
 30
0.0
 10
101.257013669889
 20
132.2122426868906
 30
0.0
  0
SPLINE
  5
8F
330
1F
100
AcDbEntity
  8
0
  6
Continuous
 62
     7
370
    15
100
AcDbSpline
210
0.0
220
0.0
230
1.0
 70
     8
 71
     3
 72
    10
 73
     6
 74
     0
 42
0.00000001
 43
0.00000001
 40
0.0
 40
0.0
 40
0.0
 40
0.0
 40
0.5
 40
0.5
 40
1.0
 40
1.0
 40
1.0
 40
1.0
 10
102.057013669889
 20
132.9318965379263
 30
0.0
 10
102.057013669889
 20
132.7881264801084
 30
0.0
 10
102.0209646111701
 20
132.6457071176132
 30
0.0
 10
101.8854557503961
 20
132.395812824256
 30
0.0
 10
101.7855797573
 20
132.2877824880078
 30
0.0
 10
101.662716138198
 20
132.2122426868906
 30
0.0
  0
SPLINE
  5
90
330
1F
100
AcDbEntity
  8
0
  6
Continuous
 62
     7
370
    15
100
AcDbSpline
210
0.0
220
0.0
230
1.0
 70
     8
 71
     3
 72
    10
 73
     6
 74
     0
 42
0.00000001
 43
0.00000001
 40
0.0
 40
0.0
 40
0.0
 40
0.0
 40
0.5
 40
0.5
 40
1.0
 40
1.0
 40
1.0
 40
1.0
 10
102.0308660467289
 20
125.6622426868906
 30
0.0
 10
102.0395556896406
 20
125.7091215362088
 30
0.0
 10
102.046094754391
 20
125.75654400161
 30
0.0
 10
102.0548533887841
 20
125.8524808001969
 30
0.0
 10
102.057013669889
 20
125.9003960882074
 30
0.0
 10
102.057013669889
 20
125.948109318352
 30
0.0
  0
LINE
  5
91
330
1F
100
AcDbEntity
  8
0
  6
Continuous
 62
     7
370
    15
100
AcDbLine
 10
101.2570136699
 20
132.2122426869
 30
0.0
 11
99.0370136699
 21
132.2122426869
 31
0.0
  0
LINE
  5
92
330
1F
100
AcDbEntity
  8
0
  6
Continuous
 62
     7
370
    15
100
AcDbLine
 10
101.2570136699
 20
79.4122426869
 30
0.0
 11
99.0370136699
 21
79.4122426869
 31
0.0
  0
LINE
  5
93
330
1F
100
AcDbEntity
  8
0
  6
Continuous
 62
     7
370
    15
100
AcDbLine
 10
80.1470136699
 20
81.5918118252
 30
0.0
 11
80.1470136699
 21
130.0326735486
 31
0.0
  0
LINE
  5
94
330
1F
100
AcDbEntity
  8
0
  6
Continuous
 62
     7
370
    15
100
AcDbLine
 10
60.3470136699
 20
82.5837957931
 30
0.0
 11
60.3470136699
 21
83.8485051557
 31
0.0
  0
SPLINE
  5
95
330
1F
100
AcDbEntity
  8
0
  6
Continuous
 62
     7
370
    15
100
AcDbSpline
210
0.0
220
0.0
230
1.0
 70
     8
 71
     3
 72
    14
 73
    10
 74
     0
 42
0.00000001
 43
0.00000001
 40
0.0
 40
0.0
 40
0.0
 40
0.0
 40
0.25
 40
0.25
 40
0.5
 40
0.5
 40
0.75
 40
0.75
 40
1.0
 40
1.0
 40
1.0
 40
1.0
 10
59.56872655197331
 20
84.97909136333062
 30
0.0
 10
59.62535322717538
 20
84.87139390949376
 30
0.0
 10
59.71987588746512
 20
84.76860432777444
 30
0.0
 10
59.90292086302735
 20
84.5702470155543
 30
0.0
 10
59.99454743998207
 20
84.47418750687605
 30
0.0
 10
60.15340075767526
 20
84.2866584641668
 30
0.0
 10
60.22129136529697
 20
84.19524949138324
 30
0.0
 10
60.31820839100456
 20
84.0168732704731
 30
0.0
 10
60.34701366988961
 20
83.92965136422691
 30
0.0
 10
60.34701366988961
 20
83.84850515569268
 30
0.0
  0
SPLINE
  5
96
330
1F
100
AcDbEntity
  8
0
  6
Continuous
 62
     7
370
    15
100
AcDbSpline
210
0.0
220
0.0
230
1.0
 70
     8
 71
     3
 72
    14
 73
    10
 74
     0
 42
0.00000001
 43
0.00000001
 40
0.0
 40
0.0
 40
0.0
 40
0.0
 40
0.1250000000000004
 40
0.1250000000000004
 40
0.2500000000000009
 40
0.2500000000000009
 40
0.5000000000000018
 40
0.5000000000000018
 40
1.0
 40
1.0
 40
1.0
 40
1.0
 10
58.94701366988904
 20
85.42577322560993
 30
0.0
 10
58.9955580785462
 20
85.43152153889022
 30
0.0
 10
59.0484734333311
 20
85.42842065023399
 30
0.0
 10
59.14376877831413
 20
85.40622580607166
 30
0.0
 10
59.18401977559909
 20
85.38899357897581
 30
0.0
 10
59.28828978911206
 20
85.33266566252375
 30
0.0
 10
59.33861176426539
 20
85.28847931657795
 30
0.0
 10
59.46629471179075
 20
85.15747141772731
 30
0.0
 10
59.52238015885303
 20
85.06723689749703
 30
0.0
 10
59.56872655197476
 20
84.97909136333115
 30
0.0
  0
SPLINE
  5
97
330
1F
100
AcDbEntity
  8
0
  6
Continuous
 62
     7
370
    15
100
AcDbSpline
210
0.0
220
0.0
230
1.0
 70
     8
 71
     3
 72
     8
 73
     4
 74
     0
 42
0.00000001
 43
0.00000001
 40
0.0
 40
0.0
 40
0.0
 40
0.0
 40
1.0
 40
1.0
 40
1.0
 40
1.0
 10
56.67848857694275
 20
85.11592793902715
 30
0.0
 10
57.41306560342573
 20
85.23455295009609
 30
0.0
 10
58.1765406728214
 20
85.33453882223237
 30
0.0
 10
58.94701366988902
 20
85.42577322560993
 30
0.0
  0
SPLINE
  5
98
330
1F
100
AcDbEntity
  8
0
  6
Continuous
 62
     7
370
    15
100
AcDbSpline
210
0.0
220
0.0
230
1.0
 70
     8
 71
     3
 72
    14
 73
    10
 74
     0
 42
0.00000001
 43
0.00000001
 40
0.0
 40
0.0
 40
0.0
 40
0.0
 40
0.5000000000000001
 40
0.5000000000000001
 40
0.7500000000000002
 40
0.7500000000000002
 40
0.8750000000000001
 40
0.8750000000000001
 40
1.0
 40
1.0
 40
1.0
 40
1.0
 10
51.39701366988904
 20
84.9423049214955
 30
0.0
 10
52.28915980044262
 20
84.94158269529485
 30
0.0
 10
53.17913623623618
 20
84.94616890175232
 30
0.0
 10
54.50573140331178
 20
84.97389390614386
 30
0.0
 10
54.94657833181051
 20
84.98650044376802
 30
0.0
 10
55.60301856923292
 20
85.01751659177548
 30
0.0
 10
55.82103222582479
 20
85.02985976440225
 30
0.0
 10
56.25374107950756
 20
85.0628838195655
 30
0.0
 10
56.46901754467235
 20
85.08210098470397
 30
0.0
 10
56.67848857694274
 20
85.11592793902715
 30
0.0
  0
SPLINE
  5
99
330
1F
100
AcDbEntity
  8
0
  6
Continuous
 62
     7
370
    15
100
AcDbSpline
210
0.0
220
0.0
230
1.0
 70
     8
 71
     3
 72
     8
 73
     4
 74
     0
 42
0.00000001
 43
0.00000001
 40
0.0000005163856712
 40
0.0000005163856712
 40
0.0000005163856712
 40
0.0000005163856712
 40
0.000026289209185
 40
0.000026289209185
 40
0.000026289209185
 40
0.000026289209185
 10
51.38696873947035
 20
84.95228879460338
 30
0.0
 10
51.39029647768183
 20
84.94895454773055
 30
0.0
 10
51.39364493066112
 20
84.94562659045152
 30
0.0
 10
51.39701366988901
 20
84.94230492149549
 30
0.0
  0
SPLINE
  5
9A
330
1F
100
AcDbEntity
  8
0
  6
Continuous
 62
     7
370
    15
100
AcDbSpline
210
0.0
220
0.0
230
1.0
 70
     8
 71
     3
 72
     8
 73
     4
 74
     0
 42
0.00000001
 43
0.00000001
 40
0.0000005099763573
 40
0.0000005099763573
 40
0.0000005099763573
 40
0.0000005099763573
 40
0.0000262827998699
 40
0.0000262827998699
 40
0.0000262827998699
 40
0.0000262827998699
 10
51.39701366988901
 20
126.6821804522857
 30
0.0
 10
51.39364493066127
 20
126.6788587833298
 30
0.0
 10
51.39029647768215
 20
126.6755308260509
 30
0.0
 10
51.38696873947081
 20
126.6721965791782
 30
0.0
  0
SPLINE
  5
9B
330
1F
100
AcDbEntity
  8
0
  6
Continuous
 62
     7
370
    15
100
AcDbSpline
210
0.0
220
0.0
230
1.0
 70
     8
 71
     3
 72
    10
 73
     6
 74
     0
 42
0.00000001
 43
0.00000001
 40
0.0
 40
0.0
 40
0.0
 40
0.0
 40
0.5
 40
0.5
 40
1.0
 40
1.0
 40
1.0
 40
1.0
 10
54.94701366988904
 20
126.6353300787183
 30
0.0
 10
54.35942812279844
 20
126.6563955989547
 30
0.0
 10
53.76868172933806
 20
126.667154084827
 30
0.0
 10
52.58466256403919
 20
126.6805188653626
 30
0.0
 10
51.99124857583373
 20
126.6826615080272
 30
0.0
 10
51.39701366988903
 20
126.6821804522857
 30
0.0
  0
SPLINE
  5
9C
330
1F
100
AcDbEntity
  8
0
  6
Continuous
 62
     7
370
    15
100
AcDbSpline
210
0.0
220
0.0
230
1.0
 70
     8
 71
     3
 72
    18
 73
    14
 74
     0
 42
0.00000001
 43
0.00000001
 40
0.0
 40
0.0
 40
0.0
 40
0.0
 40
0.2499999999999984
 40
0.2499999999999984
 40
0.4999999999999976
 40
0.4999999999999976
 40
0.7499999999999967
 40
0.7499999999999967
 40
0.8749999999999979
 40
0.8749999999999979
 40
0.937499999999999
 40
0.937499999999999
 40
1.0
 40
1.0
 40
1.0
 40
1.0
 10
56.34701366988905
 20
127.6563503592536
 30
0.0
 10
56.34701366988904
 20
127.5731434503964
 30
0.0
 10
56.31116456995078
 20
127.4844067950828
 30
0.0
 10
56.18629283391685
 20
127.3022816045226
 30
0.0
 10
56.09589241626899
 20
127.2071515558959
 30
0.0
 10
55.87364976152681
 20
127.0179700467716
 30
0.0
 10
55.74388497508104
 20
126.9230248786769
 30
0.0
 10
55.50324751776952
 20
126.784746171097
 30
0.0
 10
55.41548021963208
 20
126.7390357377946
 30
0.0
 10
55.26095613242526
 20
126.6812124325731
 30
0.0
 10
55.20434524637051
 20
126.6634976685353
 30
0.0
 10
55.08030121546392
 20
126.6389583653023
 30
0.0
 10
55.01258654044562
 20
126.6329792267641
 30
0.0
 10
54.94701366988904
 20
126.6353300787183
 30
0.0
  0
LINE
  5
9D
330
1F
100
AcDbEntity
  8
0
  6
Continuous
 62
     7
370
    15
100
AcDbLine
 10
56.3470136699
 20
127.6563503593
 30
0.0
 11
56.3470136699
 21
128.8402887791
 31
0.0
  0
SPLINE
  5
9E
330
1F
100
AcDbEntity
  8
0
  6
Continuous
 62
     7
370
    15
100
AcDbSpline
210
0.0
220
0.0
230
1.0
 70
     8
 71
     3
 72
    18
 73
    14
 74
     0
 42
0.00000001
 43
0.00000001
 40
0.0
 40
0.0
 40
0.0
 40
0.0
 40
0.0010671296451831
 40
0.1270947795731633
 40
0.2524053457512758
 40
0.3766468878987075
 40
0.4391415999050405
 40
0.5008278021400039
 40
0.5624255708808992
 40
0.6253162439161173
 40
0.7499985144706733
 40
0.8752758950341271
 40
0.9999999999999999
 40
0.9999999999999999
 40
0.9999999999999999
 40
0.9999999999999999
 10
68.91731450996168
 20
82.15490366397422
 30
0.0
 10
68.9164026773232
 20
82.1547888854376
 30
0.0
 10
68.80780371868636
 20
82.1411188005716
 30
0.0
 10
69.19544478633601
 20
82.19203830118735
 30
0.0
 10
70.06140946817143
 20
82.29162147423364
 30
0.0
 10
71.26181339294013
 20
82.36074535737778
 30
0.0
 10
72.31938930743017
 20
82.36469758651565
 30
0.0
 10
73.14652339433573
 20
82.33720864806122
 30
0.0
 10
73.9717952619715
 20
82.27866847165409
 30
0.0
 10
75.02616048196963
 20
82.16514731191747
 30
0.0
 10
76.18799676344574
 20
81.98199648766938
 30
0.0
 10
77.140231544829
 20
81.7773932780343
 30
0.0
 10
77.26593660563692
 20
81.74810792725823
 30
0.0
 10
77.32865003778214
 20
81.73349765741757
 30
0.0
  0
SPLINE
  5
9F
330
1F
100
AcDbEntity
  8
0
  6
Continuous
 62
     7
370
    15
100
AcDbSpline
210
0.0
220
0.0
230
1.0
 70
     8
 71
     3
 72
    18
 73
    14
 74
     0
 42
0.00000001
 43
0.00000001
 40
0.0
 40
0.0
 40
0.0
 40
0.0
 40
0.1249080880615186
 40
0.2505384005827851
 40
0.3748721824256792
 40
0.4374907636253189
 40
0.4990776247952343
 40
0.5607931517551704
 40
0.6233901319009026
 40
0.747819101704548
 40
0.8731940972834111
 40
0.9991614619872062
 40
1.0
 40
1.0
 40
1.0
 40
1.0
 10
77.32843084078777
 20
129.8909224422083
 30
0.0
 10
77.26467326318732
 20
129.8762570313671
 30
0.0
 10
77.13678945866394
 20
129.8468414135874
 30
0.0
 10
76.18475911127777
 20
129.641886360618
 30
0.0
 10
75.02427983520454
 20
129.4586329545078
 30
0.0
 10
73.9720153588769
 20
129.3456053334733
 30
0.0
 10
73.14778825655854
 20
129.2873416906909
 30
0.0
 10
72.32018445389082
 20
129.2598953049591
 30
0.0
 10
71.2613674231495
 20
129.2638800921964
 30
0.0
 10
70.05914749687484
 20
129.3329697144629
 30
0.0
 10
69.1939686781486
 20
129.4325953217239
 30
0.0
 10
68.80781547609676
 20
129.4834129162125
 30
0.0
 10
68.91589588927606
 20
129.4697396802693
 30
0.0
 10
68.91661059997128
 20
129.4696492623325
 30
0.0
  0
SPLINE
  5
A0
330
1F
100
AcDbEntity
  8
0
  6
Continuous
 62
     7
370
    15
100
AcDbSpline
210
0.0
220
0.0
230
1.0
 70
     8
 71
     3
 72
    10
 73
     6
 74
     0
 42
0.00000001
 43
0.00000001
 40
0.0
 40
0.0
 40
0.0
 40
0.0
 40
0.5
 40
0.5
 40
1.0
 40
1.0
 40
1.0
 40
1.0
 10
50.24701366988837
 20
86.12156494041308
 30
0.0
 10
50.24701366988833
 20
86.09269067555368
 30
0.0
 10
50.25720757964944
 20
86.07518711917515
 30
0.0
 10
50.28395818445757
 20
86.07465555634742
 30
0.0
 10
50.3008456363889
 20
86.09232301352696
 30
0.0
 10
50.30967704461242
 20
86.13769014210985
 30
0.0
  0
LINE
  5
A1
330
1F
100
AcDbEntity
  8
0
  6
Continuous
 62
     7
370
    15
100
AcDbLine
 10
50.2470136699
 20
86.1215649404
 30
0.0
 11
50.2470136699
 21
125.5029204334
 31
0.0
  0
SPLINE
  5
A2
330
1F
100
AcDbEntity
  8
0
  6
Continuous
 62
     7
370
    15
100
AcDbSpline
210
0.0
220
0.0
230
1.0
 70
     8
 71
     3
 72
    10
 73
     6
 74
     0
 42
0.00000001
 43
0.00000001
 40
0.0
 40
0.0
 40
0.0
 40
0.0
 40
0.5
 40
0.5
 40
1.0
 40
1.0
 40
1.0
 40
1.0
 10
50.30967704461242
 20
125.4867952316713
 30
0.0
 10
50.30077275550368
 20
125.5325367508845
 30
0.0
 10
50.28425737531069
 20
125.5497275903535
 30
0.0
 10
50.25714942924908
 20
125.5494043134178
 30
0.0
 10
50.24701366988903
 20
125.5315267711213
 30
0.0
 10
50.24701366988903
 20
125.5029204333687
 30
0.0
  0
SPLINE
  5
A3
330
1F
100
AcDbEntity
  8
0
  6
Continuous
 62
     7
370
    15
100
AcDbSpline
210
0.0
220
0.0
230
1.0
 70
     8
 71
     3
 72
    26
 73
    22
 74
     0
 42
0.00000001
 43
0.00000001
 40
0.0
 40
0.0
 40
0.0
 40
0.0
 40
0.2499999999999942
 40
0.2499999999999942
 40
0.3749999999999899
 40
0.3749999999999899
 40
0.4374999999999888
 40
0.4374999999999888
 40
0.4687499999999888
 40
0.4687499999999888
 40
0.4999999999999888
 40
0.4999999999999888
 40
0.5312499999999887
 40
0.5312499999999887
 40
0.5624999999999887
 40
0.5624999999999887
 40
0.6249999999999912
 40
0.6249999999999912
 40
0.7499999999999942
 40
0.7499999999999942
 40
1.0
 40
1.0
 40
1.0
 40
1.0
 10
51.07116731599355
 20
126.2023620204884
 30
0.0
 10
51.03256679312507
 20
126.084587324133
 30
0.0
 10
50.9862697905708
 20
125.960197637971
 30
0.0
 10
50.89233044213688
 20
125.7549783056176
 30
0.0
 10
50.8570189752234
 20
125.6834054391711
 30
0.0
 10
50.79083899947774
 20
125.5674522065706
 30
0.0
 10
50.76630063280951
 20
125.5268676717604
 30
0.0
 10
50.7229278872557
 20
125.4627259898886
 30
0.0
 10
50.70741948583052
 20
125.4408595646036
 30
0.0
 10
50.67237684124348
 20
125.3952652962604
 30
0.0
 10
50.65282655052369
 20
125.371595005293
 30
0.0
 10
50.61089927015308
 20
125.3269784459531
 30
0.0
 10
50.58824715992145
 20
125.3060984334352
 30
0.0
 10
50.54727344583485
 20
125.2752250196843
 30
0.0
 10
50.52967414593942
 20
125.2653861498519
 30
0.0
 10
50.48504716008328
 20
125.2463965341558
 30
0.0
 10
50.46448793742996
 20
125.2460722095023
 30
0.0
 10
50.41336249793329
 20
125.2552956503785
 30
0.0
 10
50.39245108494475
 20
125.2765425465955
 30
0.0
 10
50.34100117738381
 20
125.3505114254263
 30
0.0
 10
50.32333587807925
 20
125.416629518741
 30
0.0
 10
50.30967704461242
 20
125.4867952316713
 30
0.0
  0
SPLINE
  5
A4
330
1F
100
AcDbEntity
  8
0
  6
Continuous
 62
     7
370
    15
100
AcDbSpline
210
0.0
220
0.0
230
1.0
 70
     8
 71
     3
 72
    10
 73
     6
 74
     0
 42
0.00000001
 43
0.00000001
 40
0.0
 40
0.0
 40
0.0
 40
0.0
 40
0.5
 40
0.5
 40
1.0
 40
1.0
 40
1.0
 40
1.0
 10
51.38696873947082
 20
126.6721965791782
 30
0.0
 10
51.31940948455259
 20
126.6045051863685
 30
0.0
 10
51.25577282921609
 20
126.5297980216148
 30
0.0
 10
51.14555207464423
 20
126.3708318891882
 30
0.0
 10
51.09873578142162
 20
126.2864766231802
 30
0.0
 10
51.07116731599355
 20
126.2023620204884
 30
0.0
  0
SPLINE
  5
A5
330
1F
100
AcDbEntity
  8
0
  6
Continuous
 62
     7
370
    15
100
AcDbSpline
210
0.0
220
0.0
230
1.0
 70
     8
 71
     3
 72
    10
 73
     6
 74
     0
 42
0.00000001
 43
0.00000001
 40
0.0
 40
0.0
 40
0.0
 40
0.0
 40
0.5
 40
0.5
 40
1.0
 40
1.0
 40
1.0
 40
1.0
 10
51.07116731599358
 20
85.4221233532926
 30
0.0
 10
51.0986447307468
 20
85.33828655682701
 30
0.0
 10
51.14535336103445
 20
85.25397606924018
 30
0.0
 10
51.2556318237764
 20
85.09485483875731
 30
0.0
 10
51.31951936238803
 20
85.01987009466924
 30
0.0
 10
51.38696873947036
 20
84.95228879460338
 30
0.0
  0
SPLINE
  5
A6
330
1F
100
AcDbEntity
  8
0
  6
Continuous
 62
     7
370
    15
100
AcDbSpline
210
0.0
220
0.0
230
1.0
 70
     8
 71
     3
 72
    24
 73
    20
 74
     0
 42
0.00000001
 43
0.00000001
 40
0.0
 40
0.0
 40
0.0
 40
0.0
 40
0.2499999999999893
 40
0.2499999999999893
 40
0.3749999999999847
 40
0.3749999999999847
 40
0.4374999999999823
 40
0.4374999999999823
 40
0.4687499999999816
 40
0.4687499999999816
 40
0.4999999999999808
 40
0.4999999999999808
 40
0.5624999999999839
 40
0.5624999999999839
 40
0.624999999999987
 40
0.624999999999987
 40
0.7499999999999907
 40
0.7499999999999907
 40
1.0
 40
1.0
 40
1.0
 40
1.0
 10
50.30967704461244
 20
86.13769014210985
 30
0.0
 10
50.32343016328267
 20
86.20834020010012
 30
0.0
 10
50.34120273068851
 20
86.27493831286503
 30
0.0
 10
50.39345382224389
 20
86.34903633309824
 30
0.0
 10
50.41448889782544
 20
86.3702941402598
 30
0.0
 10
50.46738930545387
 20
86.37844006640604
 30
0.0
 10
50.48849497833179
 20
86.37750026301028
 30
0.0
 10
50.53454714700975
 20
86.35648427143293
 30
0.0
 10
50.55291761899312
 20
86.34557546532533
 30
0.0
 10
50.59446925405883
 20
86.31294055437795
 30
0.0
 10
50.61703592681574
 20
86.29144857400658
 30
0.0
 10
50.67981694327578
 20
86.22298263042028
 30
0.0
 10
50.71294670424366
 20
86.17690817221518
 30
0.0
 10
50.7698643907287
 20
86.09190028388052
 30
0.0
 10
50.79405041623244
 20
86.05161998269912
 30
0.0
 10
50.85925836661222
 20
85.9366837562332
 30
0.0
 10
50.89397442680349
 20
85.86610077108617
 30
0.0
 10
50.98718969713435
 20
85.66189501200756
 30
0.0
 10
51.03286223249503
 20
85.5389966296802
 30
0.0
 10
51.07116731599356
 20
85.42212335329262
 30
0.0
  0
LINE
  5
A7
330
1F
100
AcDbEntity
  8
0
  6
Continuous
 62
     7
370
    15
100
AcDbLine
 10
102.0570136699
 20
125.9481093184
 30
0.0
 11
102.0570136699
 21
126.8623863545
 31
0.0
  0
SPLINE
  5
A8
330
1F
100
AcDbEntity
  8
0
  6
Continuous
 62
     7
370
    15
100
AcDbSpline
210
0.0
220
0.0
230
1.0
 70
     8
 71
     3
 72
     8
 73
     4
 74
     0
 42
0.00000001
 43
0.00000001
 40
0.0
 40
0.0
 40
0.0
 40
0.0
 40
1.0
 40
1.0
 40
1.0
 40
1.0
 10
102.057013669889
 20
126.8623863544739
 30
0.0
 10
102.5362918204789
 20
128.0033975843265
 30
0.0
 10
103.0318596596188
 20
129.1397819950943
 30
0.0
 10
103.5389465013781
 20
130.270932349258
 30
0.0
  0
LINE
  5
A9
330
1F
100
AcDbEntity
  8
0
  6
Continuous
 62
     7
370
    15
100
AcDbLine
 10
103.5389465014
 20
130.2709323493
 30
0.0
 11
107.4970136699
 21
130.2709323493
 31
0.0
  0
SPLINE
  5
AA
330
1F
100
AcDbEntity
  8
0
  6
Continuous
 62
     7
370
    15
100
AcDbSpline
210
0.0
220
0.0
230
1.0
 70
     8
 71
     3
 72
    12
 73
     8
 74
     0
 42
0.00000001
 43
0.00000001
 40
0.0
 40
0.0
 40
0.0
 40
0.0
 40
0.25
 40
0.25
 40
0.5
 40
0.5
 40
1.0
 40
1.0
 40
1.0
 40
1.0
 10
107.497013669889
 20
130.270932349258
 30
0.0
 10
107.5882133917147
 20
130.270932349258
 30
0.0
 10
107.6788084008507
 20
130.2427126506701
 30
0.0
 10
107.8322211272973
 20
130.148269643422
 30
0.0
 10
107.897429994621
 20
130.0819826667167
 30
0.0
 10
108.050214523961
 20
129.8563578434284
 30
0.0
 10
108.097013669889
 20
129.6739315803959
 30
0.0
 10
108.097013669889
 20
129.493194948149
 30
0.0
  0
LINE
  5
AB
330
1F
100
AcDbEntity
  8
0
  6
Continuous
 62
     7
370
    15
100
AcDbLine
 10
108.0970136699
 20
129.4931949481
 30
0.0
 11
108.0970136699
 21
125.6622426869
 31
0.0
  0
SPLINE
  5
AC
330
1F
100
AcDbEntity
  8
0
  6
Continuous
 62
     7
370
    15
100
AcDbSpline
210
0.0
220
0.0
230
1.0
 70
     8
 71
     3
 72
     8
 73
     4
 74
     0
 42
0.00000001
 43
0.00000001
 40
0.0
 40
0.0
 40
0.0
 40
0.0
 40
1.0
 40
1.0
 40
1.0
 40
1.0
 10
103.5389465013781
 20
136.2794381600548
 30
0.0
 10
103.0438064720138
 20
135.3927585118745
 30
0.0
 10
102.5497237667348
 20
134.5054958761885
 30
0.0
 10
102.057013669889
 20
133.6174768780622
 30
0.0
  0
LINE
  5
AD
330
1F
100
AcDbEntity
  8
0
  6
Continuous
 62
     7
370
    15
100
AcDbLine
 10
103.5389465014
 20
130.2709323493
 30
0.0
 11
103.5389465014
 21
136.2794381601
 31
0.0
  0
LINE
  5
AE
330
1F
100
AcDbEntity
  8
0
  6
Continuous
 62
     7
370
    15
100
AcDbLine
 10
102.0570136699
 20
126.8623863545
 30
0.0
 11
102.0570136699
 21
133.6174768781
 31
0.0
  0
LINE
  5
AF
330
1F
100
AcDbEntity
  8
0
  6
Continuous
 62
     7
370
    15
100
AcDbLine
 10
107.4970136699
 20
136.2794381601
 30
0.0
 11
103.5389465014
 21
136.2794381601
 31
0.0
  0
SPLINE
  5
B0
330
1F
100
AcDbEntity
  8
0
  6
Continuous
 62
     7
370
    15
100
AcDbSpline
210
0.0
220
0.0
230
1.0
 70
     8
 71
     3
 72
    10
 73
     6
 74
     0
 42
0.00000001
 43
0.00000001
 40
0.0
 40
0.0
 40
0.0
 40
0.0
 40
0.5
 40
0.5
 40
1.0
 40
1.0
 40
1.0
 40
1.0
 10
108.097013669889
 20
135.6586830106545
 30
0.0
 10
108.097013669889
 20
135.8190882770052
 30
0.0
 10
108.0347758387822
 20
135.9781500899939
 30
0.0
 10
107.8156409150396
 20
136.2090625556242
 30
0.0
 10
107.6580522200477
 20
136.2794381600548
 30
0.0
 10
107.497013669889
 20
136.2794381600548
 30
0.0
  0
LINE
  5
B1
330
1F
100
AcDbEntity
  8
0
  6
Continuous
 62
     7
370
    15
100
AcDbLine
 10
108.0970136699
 20
129.4931949481
 30
0.0
 11
108.0970136699
 21
135.6586830107
 31
0.0
  0
SPLINE
  5
B2
330
1F
100
AcDbEntity
  8
0
  6
Continuous
 62
     7
370
    15
100
AcDbSpline
210
0.0
220
0.0
230
1.0
 70
     8
 71
     3
 72
     8
 73
     4
 74
     0
 42
0.00000001
 43
0.00000001
 40
0.0
 40
0.0
 40
0.0
 40
0.0
 40
1.0
 40
1.0
 40
1.0
 40
1.0
 10
96.75508083839996
 20
130.270932349258
 30
0.0
 10
97.26216768015925
 20
129.1397819950943
 30
0.0
 10
97.75773551929919
 20
128.0033975843265
 30
0.0
 10
98.23701366988904
 20
126.8623863544739
 30
0.0
  0
LINE
  5
B3
330
1F
100
AcDbEntity
  8
0
  6
Continuous
 62
     7
370
    15
100
AcDbLine
 10
98.2370136699
 20
126.8623863545
 30
0.0
 11
98.2370136699
 21
125.9481093184
 31
0.0
  0
SPLINE
  5
B4
330
1F
100
AcDbEntity
  8
0
  6
Continuous
 62
     7
370
    15
100
AcDbSpline
210
0.0
220
0.0
230
1.0
 70
     8
 71
     3
 72
     8
 73
     4
 74
     0
 42
0.00000001
 43
0.00000001
 40
0.0
 40
0.0
 40
0.0
 40
0.0
 40
1.0
 40
1.0
 40
1.0
 40
1.0
 10
98.23701366988904
 20
133.6174768780622
 30
0.0
 10
97.74430357304327
 20
134.5054958761886
 30
0.0
 10
97.25022086776428
 20
135.3927585118745
 30
0.0
 10
96.75508083839998
 20
136.2794381600548
 30
0.0
  0
LINE
  5
B5
330
1F
100
AcDbEntity
  8
0
  6
Continuous
 62
     7
370
    15
100
AcDbLine
 10
98.2370136699
 20
126.8623863545
 30
0.0
 11
98.2370136699
 21
133.6174768781
 31
0.0
  0
ARC
  5
B6
330
1F
100
AcDbEntity
  8
0
  6
Continuous
 62
     7
370
    15
100
AcDbCircle
 10
90.146875448
 20
124.5727421821
 30
0.0
 40
7.197617454955437
100
AcDbArc
 50
70.7484472317
 51
109.2065859885
  0
LINE
  5
B7
330
1F
100
AcDbEntity
  8
0
  6
Continuous
 62
     7
370
    15
100
AcDbLine
 10
191.3221947252
 20
89.8122426869
 30
0.0
 11
191.3221947252
 21
121.8122426869
 31
0.0
  0
LINE
  5
B8
330
1F
100
AcDbEntity
  8
0
  6
Continuous
 62
     7
370
    15
100
AcDbLine
 10
151.7655405635
 20
121.6555854622
 30
0.0
 11
151.889543756
 21
121.6427734074
 31
0.0
  0
SPLINE
  5
B9
330
1F
100
AcDbEntity
  8
0
  6
Continuous
 62
     7
370
    15
100
AcDbSpline
210
0.0
220
0.0
230
1.0
 70
     8
 71
     3
 72
    37
 73
    33
 74
     0
 42
0.00000001
 43
0.00000001
 40
0.0
 40
0.0
 40
0.0
 40
0.0
 40
0.0251302166236492
 40
0.0473700142474381
 40
0.0882617970212024
 40
0.1302176618106951
 40
0.1736530388852174
 40
0.2180676314290907
 40
0.2427730493755816
 40
0.2928430354122307
 40
0.3182335700826384
 40
0.3465261813220466
 40
0.4039272994876255
 40
0.4330805613913289
 40
0.463968234229887
 40
0.4950591884081375
 40
0.526787778040997
 40
0.558736037222288
 40
0.590478978189336
 40
0.6224467816394517
 40
0.655141496544021
 40
0.6880968765599301
 40
0.7189936024845826
 40
0.7501350588704339
 40
0.782110349105235
 40
0.8144051187432068
 40
0.8374204781375122
 40
0.8841700888019839
 40
0.9079820327064477
 40
0.9310031574363281
 40
0.9779938054667527
 40
1.0
 40
1.0
 40
1.0
 40
1.0
 10
157.5874427073308
 20
121.810726374346
 30
0.0
 10
157.5890054488035
 20
121.8109726380916
 30
0.0
 10
157.5919511888637
 20
121.8114368409003
 30
0.0
 10
157.5433245050524
 20
121.8037590588752
 30
0.0
 10
157.4489972141612
 20
121.7890712784223
 30
0.0
 10
157.2685247791242
 20
121.7620383766254
 30
0.0
 10
157.0247601348935
 20
121.7277074257485
 30
0.0
 10
156.768495780337
 20
121.6946313229597
 30
0.0
 10
156.4670495260326
 20
121.659166575514
 30
0.0
 10
156.1885735145178
 20
121.6299183130026
 30
0.0
 10
155.8807219622913
 20
121.6022940870507
 30
0.0
 10
155.5380332477095
 20
121.5753488399961
 30
0.0
 10
155.1651724161997
 20
121.5529357646814
 30
0.0
 10
154.7731727349364
 20
121.5374444740834
 30
0.0
 10
154.4646314547704
 20
121.5296882971184
 30
0.0
 10
154.1449809305488
 20
121.5264848060447
 30
0.0
 10
153.8213620711125
 20
121.5282272374262
 30
0.0
 10
153.4974057982821
 20
121.5350153171756
 30
0.0
 10
153.1767957760195
 20
121.5466596794641
 30
0.0
 10
152.8601650574124
 20
121.5629158401608
 30
0.0
 10
152.5486321793622
 20
121.583505156784
 30
0.0
 10
152.252207669164
 20
121.6073381985217
 30
0.0
 10
151.9743863787924
 20
121.6333178208856
 30
0.0
 10
151.7152282844297
 20
121.660644846117
 30
0.0
 10
151.4713773762621
 20
121.6890890965459
 30
0.0
 10
151.2690544165523
 20
121.7147731403591
 30
0.0
 10
151.0567980438912
 20
121.7433428561484
 30
0.0
 10
150.8926978724022
 20
121.7669615772315
 30
0.0
 10
150.7657697433817
 20
121.7860045150083
 30
0.0
 10
150.6655478845049
 20
121.8013939050501
 30
0.0
 10
150.6047720936938
 20
121.8110121684905
 30
0.0
 10
150.5995967240538
 20
121.8118331084552
 30
0.0
 10
150.5979460660404
 20
121.8120949431115
 30
0.0
  0
SPLINE
  5
BA
330
1F
100
AcDbEntity
  8
0
  6
Continuous
 62
     7
370
    15
100
AcDbSpline
210
0.0
220
0.0
230
1.0
 70
     8
 71
     3
 72
    58
 73
    54
 74
     0
 42
0.00000001
 43
0.00000001
 40
-0.031249999999999
 40
-0.031249999999999
 40
0.0
 40
0.0
 40
0.0625000000000011
 40
0.0625000000000011
 40
0.0937500000000016
 40
0.0937500000000016
 40
0.1250000000000021
 40
0.1250000000000021
 40
0.1875000000000052
 40
0.1875000000000052
 40
0.2500000000000083
 40
0.2500000000000083
 40
0.2812500000000091
 40
0.2812500000000091
 40
0.3125000000000098
 40
0.3125000000000098
 40
0.3437500000000106
 40
0.3437500000000106
 40
0.3750000000000113
 40
0.3750000000000113
 40
0.4062500000000121
 40
0.4062500000000121
 40
0.4375000000000128
 40
0.4375000000000128
 40
0.4687500000000136
 40
0.4687500000000136
 40
0.5000000000000143
 40
0.5000000000000143
 40
0.5625000000000143
 40
0.5625000000000143
 40
0.5937500000000132
 40
0.5937500000000132
 40
0.6250000000000122
 40
0.6250000000000122
 40
0.6562500000000112
 40
0.6562500000000112
 40
0.6875000000000101
 40
0.6875000000000101
 40
0.7500000000000081
 40
0.7500000000000081
 40
0.8125000000000061
 40
0.8125000000000061
 40
0.8437500000000051
 40
0.8437500000000051
 40
0.8750000000000041
 40
0.8750000000000041
 40
0.9062500000000031
 40
0.9062500000000031
 40
0.937500000000002
 40
0.937500000000002
 40
0.968750000000001
 40
0.968750000000001
 40
1.0
 40
1.0
 40
1.062500000000001
 40
1.062500000000001
 10
151.5959030845761
 20
107.9148534100157
 30
0.0
 10
152.1048155251488
 20
108.3074993818927
 30
0.0
 10
152.4828658858787
 20
108.5009006782892
 30
0.0
 10
153.0944066705281
 20
108.6966117839315
 30
0.0
 10
153.3013071560241
 20
108.7443341651524
 30
0.0
 10
153.7209234540345
 20
108.8065877213069
 30
0.0
 10
153.9350502362996
 20
108.8210696528909
 30
0.0
 10
154.576761337725
 20
108.8127414632239
 30
0.0
 10
154.9962698192182
 20
108.7401383053973
 30
0.0
 10
155.8038481147111
 20
108.4579648817875
 30
0.0
 10
156.1747401948949
 20
108.2553910365109
 30
0.0
 10
156.6715575483162
 20
107.8485421708917
 30
0.0
 10
156.8215077832345
 20
107.6998050711711
 30
0.0
 10
157.0889163557044
 20
107.374872001225
 30
0.0
 10
157.2070755136082
 20
107.1974843645726
 30
0.0
 10
157.4021997268904
 20
106.8153526112635
 30
0.0
 10
157.4765745142523
 20
106.6162321110247
 30
0.0
 10
157.576045089455
 20
106.2008000039373
 30
0.0
 10
157.6000398497538
 20
105.9848392931435
 30
0.0
 10
157.5933605582787
 20
105.559864825087
 30
0.0
 10
157.5626204765474
 20
105.3448550950058
 30
0.0
 10
157.4504718200392
 20
104.9324689606012
 30
0.0
 10
157.3701220081351
 20
104.7353346344652
 30
0.0
 10
157.1636706786147
 20
104.3580603540802
 30
0.0
 10
157.0408882365428
 20
104.1840235591279
 30
0.0
 10
156.7616373215566
 20
103.8627006850871
 30
0.0
 10
156.6040178130874
 20
103.7149591805354
 30
0.0
 10
156.1005546496053
 20
103.3242297057868
 30
0.0
 10
155.714028467631
 20
103.12526382421
 30
0.0
 10
155.1075464897761
 20
102.9300380310115
 30
0.0
 10
154.8984783167477
 20
102.8812056679063
 30
0.0
 10
154.4745446112608
 20
102.8179145741166
 30
0.0
 10
154.2623914364605
 20
102.8036390254701
 30
0.0
 10
153.8377248269145
 20
102.8086213678741
 30
0.0
 10
153.6239507113411
 20
102.828109403841
 30
0.0
 10
153.2016936518703
 20
102.9016298429289
 30
0.0
 10
152.9962237056678
 20
102.9549120258541
 30
0.0
 10
152.3965850284178
 20
103.1639895709882
 30
0.0
 10
152.0143265125683
 20
103.3731481369749
 30
0.0
 10
151.3617427670157
 20
103.9075727388546
 30
0.0
 10
151.0803823538999
 20
104.2425480275473
 30
0.0
 10
150.7908593674092
 20
104.8117798379911
 30
0.0
 10
150.7149963011609
 20
105.0160705249386
 30
0.0
 10
150.6171556289737
 20
105.4296628004146
 30
0.0
 10
150.5935528049813
 20
105.6418875037107
 30
0.0
 10
150.60128975
 20
106.0735733055777
 30
0.0
 10
150.6322982005942
 20
106.2844371526421
 30
0.0
 10
150.7452900736156
 20
106.6968292171913
 30
0.0
 10
150.82794450685
 20
106.8976624326825
 30
0.0
 10
151.0334060724683
 20
107.2708273981837
 30
0.0
 10
151.1584138680602
 20
107.447491399558
 30
0.0
 10
151.4395265383417
 20
107.7689928394489
 30
0.0
 10
151.5959030845761
 20
107.9148534100157
 30
0.0
 10
152.1048155251488
 20
108.3074993818927
 30
0.0
  0
SPLINE
  5
BB
330
1F
100
AcDbEntity
  8
0
  6
Continuous
 62
     7
370
    15
100
AcDbSpline
210
0.0
220
0.0
230
1.0
 70
     8
 71
     3
 72
     9
 73
     5
 74
     0
 42
0.00000001
 43
0.00000001
 40
0.0
 40
0.0
 40
0.0
 40
0.0
 40
0.8911173645968758
 40
0.9999999999999999
 40
0.9999999999999999
 40
0.9999999999999999
 40
0.9999999999999999
 10
151.7655405637618
 20
89.96889991162175
 30
0.0
 10
151.6935913001153
 20
89.96108886379257
 30
0.0
 10
151.6128507977921
 20
89.952323410285
 30
0.0
 10
151.5449995948048
 20
89.94372654556155
 30
0.0
 10
151.5376117770083
 20
89.94279049627426
 30
0.0
  0
SPLINE
  5
BC
330
1F
100
AcDbEntity
  8
0
  6
Continuous
 62
     7
370
    15
100
AcDbSpline
210
0.0
220
0.0
230
1.0
 70
     8
 71
     3
 72
    39
 73
    35
 74
     0
 42
0.00000001
 43
0.00000001
 40
0.0
 40
0.0
 40
0.0
 40
0.0
 40
0.0073547206358401
 40
0.0302063484620349
 40
0.0506441193168067
 40
0.0921818343864808
 40
0.1133149170142147
 40
0.1558761277433882
 40
0.199414675929337
 40
0.2234094743312195
 40
0.2720359698940721
 40
0.2966913900121753
 40
0.3242827375123103
 40
0.3802444666252293
 40
0.4086549035013847
 40
0.4391514776004075
 40
0.4698453318575599
 40
0.5011547625482439
 40
0.5326749471021711
 40
0.5643729297601492
 40
0.5962920548772227
 40
0.6289205487168765
 40
0.6618007364164401
 40
0.6930362948119871
 40
0.724512307736805
 40
0.7567982421141035
 40
0.7893903801244968
 40
0.8132619843460108
 40
0.8617468488469918
 40
0.8864415440431899
 40
0.9103195869519868
 40
0.9590888967736928
 40
0.9840846516000986
 40
1.0
 40
1.0
 40
1.0
 40
1.0
 10
150.6026825192208
 20
89.81313920188578
 30
0.0
 10
150.6007658540621
 20
89.8128361829528
 30
0.0
 10
150.5928939771367
 20
89.81159166314931
 30
0.0
 10
150.6134685931214
 20
89.81485278599183
 30
0.0
 10
150.6574257524506
 20
89.82177425968216
 30
0.0
 10
150.7387922811367
 20
89.83442158451116
 30
0.0
 10
150.8796226774372
 20
89.85556847332471
 30
0.0
 10
151.062283323634
 20
89.88201430060433
 30
0.0
 10
151.2956930195206
 20
89.9133472864643
 30
0.0
 10
151.5733010434788
 20
89.94771485127158
 30
0.0
 10
151.8317332429435
 20
89.97674321378358
 30
0.0
 10
152.1202943565232
 20
90.00506452074147
 30
0.0
 10
152.4439135488844
 20
90.03347938464049
 30
0.0
 10
152.7990906286837
 20
90.05850551437202
 30
0.0
 10
153.1764740914908
 20
90.07769416723238
 30
0.0
 10
153.4765737686264
 20
90.08879896046099
 30
0.0
 10
153.7903510394533
 20
90.09578149715347
 30
0.0
 10
154.1096388724985
 20
90.09805248000436
 30
0.0
 10
154.4322728590537
 20
90.09537377458592
 30
0.0
 10
154.7547128488308
 20
90.08772128690704
 30
0.0
 10
155.076330860823
 20
90.07516779567327
 30
0.0
 10
155.3948343712261
 20
90.05791255475005
 30
0.0
 10
155.7014879079148
 20
90.03675359075459
 30
0.0
 10
155.9926374417806
 20
90.01264339448014
 30
0.0
 10
156.2680189673509
 20
89.98632168790563
 30
0.0
 10
156.5301818152099
 20
89.95808788765336
 30
0.0
 10
156.7527734912513
 20
89.93160220109722
 30
0.0
 10
156.9931088334585
 20
89.90092037842734
 30
0.0
 10
157.1858515130587
 20
89.87423609856101
 30
0.0
 10
157.3413412630564
 20
89.8515404850919
 30
0.0
 10
157.4708849075779
 20
89.83205132219179
 30
0.0
 10
157.5565374972402
 20
89.81865137129398
 30
0.0
 10
157.5940301193887
 20
89.81271652979295
 30
0.0
 10
157.5949441280501
 20
89.81257104867363
 30
0.0
 10
157.59529969818
 20
89.8125144532138
 30
0.0
  0
LINE
  5
BD
330
1F
100
AcDbEntity
  8
0
  6
Continuous
 62
     7
370
    15
100
AcDbLine
 10
151.8837733031
 20
89.9812995907
 30
0.0
 11
151.7655405638
 21
89.9688999116
 31
0.0
  0
CIRCLE
  5
BE
330
1F
100
AcDbEntity
  8
0
  6
Continuous
 62
     7
370
    15
100
AcDbCircle
 10
154.0970136699
 20
105.8122426869
 30
0.0
 40
2.5
  0
SPLINE
  5
BF
330
1F
100
AcDbEntity
  8
0
  6
Continuous
 62
     7
370
    15
100
AcDbSpline
210
0.0
220
0.0
230
1.0
 70
     8
 71
     3
 72
    10
 73
     6
 74
     0
 42
0.00000001
 43
0.00000001
 40
0.0
 40
0.0
 40
0.0
 40
0.0
 40
0.0650913207388956
 40
0.4645438964962719
 40
1.0
 40
1.0
 40
1.0
 40
1.0
 10
242.1446212408717
 20
116.0608911908065
 30
0.0
 10
242.1445886373251
 20
116.0616494041616
 30
0.0
 10
242.1443559522543
 20
116.0670606230822
 30
0.0
 10
242.1457798859542
 20
116.0413087641
 30
0.0
 10
242.1465643683647
 20
115.9833617129674
 30
0.0
 10
242.147013669889
 20
115.9501733354314
 30
0.0
  0
LINE
  5
C0
330
1F
100
AcDbEntity
  8
0
  6
Continuous
 62
     7
370
    15
100
AcDbLine
 10
242.1470136699
 20
95.6743120383
 30
0.0
 11
242.1470136699
 21
115.9501733354
 31
0.0
  0
LINE
  5
C1
330
1F
100
AcDbEntity
  8
0
  6
Continuous
 62
     7
370
    15
100
AcDbLine
 10
242.217921529
 20
95.7580958274
 30
0.0
 11
242.224335877
 21
95.594839769
 31
0.0
  0
LINE
  5
C2
330
1F
100
AcDbEntity
  8
0
  6
Continuous
 62
     7
370
    15
100
AcDbLine
 10
242.1470136699
 20
97.5628213558
 30
0.0
 11
242.217921529
 21
95.7580958274
 31
0.0
  0
LINE
  5
C3
330
1F
100
AcDbEntity
  8
0
  6
Continuous
 62
     7
370
    15
100
AcDbLine
 10
242.1654461534
 20
116.0319593884
 30
0.0
 11
242.1470136699
 21
115.5628213558
 31
0.0
  0
LINE
  5
C4
330
1F
100
AcDbEntity
  8
0
  6
HIDDEN
 62
     7
370
     0
100
AcDbLine
 10
196.1470136699
 20
101.3122426869
 30
0.0
 11
196.1470136699
 21
110.3122426869
 31
0.0
  0
LINE
  5
C5
330
1F
100
AcDbEntity
  8
0
  6
HIDDEN
 62
     7
370
     0
100
AcDbLine
 10
180.1470136699
 20
100.8122426869
 30
0.0
 11
180.1470136699
 21
110.8122426869
 31
0.0
  0
LINE
  5
C6
330
1F
100
AcDbEntity
  8
0
  6
HIDDEN
 62
     7
370
     0
100
AcDbLine
 10
179.6470136699
 20
101.3122426869
 30
0.0
 11
179.6470136699
 21
110.3122426869
 31
0.0
  0
LINE
  5
C7
330
1F
100
AcDbEntity
  8
0
  6
HIDDEN
 62
     7
370
     0
100
AcDbLine
 10
199.6470136699
 20
104.2535174883
 30
0.0
 11
197.6470136699
 21
104.2535174883
 31
0.0
  0
LINE
  5
C8
330
1F
100
AcDbEntity
  8
0
  6
HIDDEN
 62
     7
370
     0
100
AcDbLine
 10
199.6470136699
 20
101.3122426869
 30
0.0
 11
199.6470136699
 21
104.2535174883
 31
0.0
  0
LINE
  5
C9
330
1F
100
AcDbEntity
  8
0
  6
HIDDEN
 62
     7
370
     0
100
AcDbLine
 10
197.6470136699
 20
105.3877457094
 30
0.0
 11
199.6470136699
 21
105.3877457094
 31
0.0
  0
LINE
  5
CA
330
1F
100
AcDbEntity
  8
0
  6
HIDDEN
 62
     7
370
     0
100
AcDbLine
 10
199.6470136699
 20
107.3709678855
 30
0.0
 11
197.6470136699
 21
107.3709678855
 31
0.0
  0
LINE
  5
CB
330
1F
100
AcDbEntity
  8
0
  6
HIDDEN
 62
     7
370
     0
100
AcDbLine
 10
199.6470136699
 20
106.2367396643
 30
0.0
 11
199.6470136699
 21
110.3122426869
 31
0.0
  0
LINE
  5
CC
330
1F
100
AcDbEntity
  8
0
  6
HIDDEN
 62
     7
370
     0
100
AcDbLine
 10
197.6470136699
 20
106.2367396643
 30
0.0
 11
199.6470136699
 21
106.2367396643
 31
0.0
  0
LINE
  5
CD
330
1F
100
AcDbEntity
  8
0
  6
HIDDEN
 62
     7
370
     0
100
AcDbLine
 10
197.6470136699
 20
104.2535174883
 30
0.0
 11
197.6470136699
 21
106.2367396643
 31
0.0
  0
LINE
  5
CE
330
1F
100
AcDbEntity
  8
0
  6
HIDDEN
 62
     7
370
     0
100
AcDbLine
 10
197.6470136699
 20
106.5053468227
 30
0.0
 11
197.6470136699
 21
106.2367396643
 31
0.0
  0
LINE
  5
CF
330
1F
100
AcDbEntity
  8
0
  6
HIDDEN
 62
     7
370
     0
100
AcDbLine
 10
197.6470136699
 20
104.5221246466
 30
0.0
 11
199.6470136699
 21
104.5221246466
 31
0.0
  0
LINE
  5
D0
330
1F
100
AcDbEntity
  8
0
  6
HIDDEN
 62
     7
370
     0
100
AcDbLine
 10
199.6470136699
 20
104.5221246466
 30
0.0
 11
199.6470136699
 21
104.2535174883
 31
0.0
  0
LINE
  5
D1
330
1F
100
AcDbEntity
  8
0
  6
HIDDEN
 62
     7
370
     0
100
AcDbLine
 10
199.6470136699
 20
106.5053468227
 30
0.0
 11
197.6470136699
 21
106.5053468227
 31
0.0
  0
LINE
  5
D2
330
1F
100
AcDbEntity
  8
0
  6
HIDDEN
 62
     7
370
     0
100
AcDbLine
 10
193.6470136699
 20
106.7719062792
 30
0.0
 11
193.6470136699
 21
105.4391089966
 31
0.0
  0
LINE
  5
D3
330
1F
100
AcDbEntity
  8
0
  6
HIDDEN
 62
     7
370
     0
100
AcDbLine
 10
185.6470136698
 20
105.4391089966
 30
0.0
 11
185.6470136698
 21
106.7719062792
 31
0.0
  0
LINE
  5
D4
330
1F
100
AcDbEntity
  8
0
  6
HIDDEN
 62
     7
370
     0
100
AcDbLine
 10
193.6470136699
 20
105.4391089966
 30
0.0
 11
193.6470136699
 21
104.2928785591
 31
0.0
  0
LINE
  5
D5
330
1F
100
AcDbEntity
  8
0
  6
HIDDEN
 62
     7
370
     0
100
AcDbLine
 10
193.6470136699
 20
105.4391089966
 30
0.0
 11
197.6470136699
 21
105.4391089966
 31
0.0
  0
LINE
  5
D6
330
1F
100
AcDbEntity
  8
0
  6
HIDDEN
 62
     7
370
     0
100
AcDbLine
 10
185.6470136698
 20
104.2928785591
 30
0.0
 11
185.6470136698
 21
105.4391089966
 31
0.0
  0
LINE
  5
D7
330
1F
100
AcDbEntity
  8
0
  6
HIDDEN
 62
     7
370
     0
100
AcDbLine
 10
185.6470136698
 20
105.4391089966
 30
0.0
 11
179.6470136699
 21
105.4391089966
 31
0.0
  0
LINE
  5
D8
330
1F
100
AcDbEntity
  8
0
  6
HIDDEN
 62
     7
370
     0
100
AcDbLine
 10
193.6470136699
 20
108.1047035618
 30
0.0
 11
193.6470136699
 21
106.7719062792
 31
0.0
  0
LINE
  5
D9
330
1F
100
AcDbEntity
  8
0
  6
HIDDEN
 62
     7
370
     0
100
AcDbLine
 10
185.6470136698
 20
106.7719062792
 30
0.0
 11
185.6470136698
 21
108.1047035618
 31
0.0
  0
LINE
  5
DA
330
1F
100
AcDbEntity
  8
0
  6
HIDDEN
 62
     7
370
     0
100
AcDbLine
 10
185.6470136698
 20
103.1466481217
 30
0.0
 11
185.6470136698
 21
104.2928785591
 31
0.0
  0
LINE
  5
DB
330
1F
100
AcDbEntity
  8
0
  6
HIDDEN
 62
     7
370
     0
100
AcDbLine
 10
193.6470136699
 20
104.2928785591
 30
0.0
 11
193.6470136699
 21
103.1466481217
 31
0.0
  0
LINE
  5
DC
330
1F
100
AcDbEntity
  8
0
  6
HIDDEN
 62
     7
370
     0
100
AcDbLine
 10
185.6470136698
 20
108.1047035618
 30
0.0
 11
185.6470136698
 21
108.291270407
 31
0.0
  0
LINE
  5
DD
330
1F
100
AcDbEntity
  8
0
  6
HIDDEN
 62
     7
370
     0
100
AcDbLine
 10
185.6470136698
 20
108.1047035618
 30
0.0
 11
179.6470136698
 21
108.1047035618
 31
0.0
  0
LINE
  5
DE
330
1F
100
AcDbEntity
  8
0
  6
HIDDEN
 62
     7
370
     0
100
AcDbLine
 10
193.6470136699
 20
108.291270407
 30
0.0
 11
193.6470136699
 21
108.1047035618
 31
0.0
  0
LINE
  5
DF
330
1F
100
AcDbEntity
  8
0
  6
HIDDEN
 62
     7
370
     0
100
AcDbLine
 10
193.6470136699
 20
108.1047035618
 30
0.0
 11
199.6470136699
 21
108.1047035618
 31
0.0
  0
LINE
  5
E0
330
1F
100
AcDbEntity
  8
0
  6
HIDDEN
 62
     7
370
     0
100
AcDbLine
 10
185.6470136698
 20
103.519781812
 30
0.0
 11
179.6470136698
 21
103.519781812
 31
0.0
  0
LINE
  5
E1
330
1F
100
AcDbEntity
  8
0
  6
HIDDEN
 62
     7
370
     0
100
AcDbLine
 10
185.6470136698
 20
103.1466481217
 30
0.0
 11
179.6470136698
 21
103.1466481217
 31
0.0
  0
LINE
  5
E2
330
1F
100
AcDbEntity
  8
0
  6
HIDDEN
 62
     7
370
     0
100
AcDbLine
 10
193.6470136699
 20
103.519781812
 30
0.0
 11
199.6470136699
 21
103.519781812
 31
0.0
  0
LINE
  5
E3
330
1F
100
AcDbEntity
  8
0
  6
HIDDEN
 62
     7
370
     0
100
AcDbLine
 10
193.6470136699
 20
103.1466481217
 30
0.0
 11
199.6470136699
 21
103.1466481217
 31
0.0
  0
LINE
  5
E4
330
1F
100
AcDbEntity
  8
0
  6
HIDDEN
 62
     7
370
     0
100
AcDbLine
 10
185.6470136698
 20
108.291270407
 30
0.0
 11
185.6470136698
 21
108.4778372521
 31
0.0
  0
LINE
  5
E5
330
1F
100
AcDbEntity
  8
0
  6
HIDDEN
 62
     7
370
     0
100
AcDbLine
 10
193.6470136699
 20
108.4778372521
 30
0.0
 11
193.6470136699
 21
108.291270407
 31
0.0
  0
LINE
  5
E6
330
1F
100
AcDbEntity
  8
0
  6
HIDDEN
 62
     7
370
     0
100
AcDbLine
 10
197.6470136699
 20
107.1023607271
 30
0.0
 11
199.6470136699
 21
107.1023607271
 31
0.0
  0
LINE
  5
E7
330
1F
100
AcDbEntity
  8
0
  6
HIDDEN
 62
     7
370
     0
100
AcDbLine
 10
197.6470136699
 20
106.5053468227
 30
0.0
 11
197.6470136699
 21
107.1023607271
 31
0.0
  0
LINE
  5
E8
330
1F
100
AcDbEntity
  8
0
  6
HIDDEN
 62
     7
370
     0
100
AcDbLine
 10
193.6470136699
 20
106.1853763772
 30
0.0
 11
197.6470136699
 21
106.1853763772
 31
0.0
  0
LINE
  5
E9
330
1F
100
AcDbEntity
  8
0
  6
HIDDEN
 62
     7
370
     0
100
AcDbLine
 10
193.6470136699
 20
108.4778372521
 30
0.0
 11
199.6470136699
 21
108.4778372521
 31
0.0
  0
LINE
  5
EA
330
1F
100
AcDbEntity
  8
0
  6
HIDDEN
 62
     7
370
     0
100
AcDbLine
 10
185.6470136698
 20
106.1853763772
 30
0.0
 11
179.6470136698
 21
106.1853763772
 31
0.0
  0
LINE
  5
EB
330
1F
100
AcDbEntity
  8
0
  6
HIDDEN
 62
     7
370
     0
100
AcDbLine
 10
185.6470136698
 20
108.4778372521
 30
0.0
 11
179.6470136698
 21
108.4778372521
 31
0.0
  0
LINE
  5
EC
330
1F
100
AcDbEntity
  8
0
  6
HIDDEN
 62
     7
370
     0
100
AcDbLine
 10
199.6470136699
 20
105.1191385511
 30
0.0
 11
197.6470136699
 21
105.1191385511
 31
0.0
  0
LINE
  5
ED
330
1F
100
AcDbEntity
  8
0
  6
HIDDEN
 62
     7
370
     0
100
AcDbLine
 10
199.6470136699
 20
105.1191385511
 30
0.0
 11
199.6470136699
 21
104.5221246466
 31
0.0
  0
LINE
  5
EE
330
1F
100
AcDbEntity
  8
0
  6
HIDDEN
 62
     7
370
     0
100
AcDbLine
 10
197.6470136699
 20
107.3709678855
 30
0.0
 11
197.6470136699
 21
107.1023607271
 31
0.0
  0
LINE
  5
EF
330
1F
100
AcDbEntity
  8
0
  6
HIDDEN
 62
     7
370
     0
100
AcDbLine
 10
199.6470136699
 20
105.3877457094
 30
0.0
 11
199.6470136699
 21
105.1191385511
 31
0.0
  0
LINE
  5
F0
330
1F
100
AcDbEntity
  8
0
  6
HIDDEN
 62
     7
370
     0
100
AcDbLine
 10
96.7550808384
 20
130.2709323493
 30
0.0
 11
96.7550808384
 21
125.6622426869
 31
0.0
  0
ARC
  5
F1
330
1F
100
AcDbEntity
  8
0
  6
HIDDEN
 62
     7
370
     0
100
AcDbCircle
 10
90.4265984059
 20
118.3120616281
 30
0.0
 40
3.680538804811087
100
AcDbArc
 50
265.6434445208
 51
11.7695519744
  0
ARC
  5
F2
330
1F
100
AcDbEntity
  8
0
  6
HIDDEN
 62
     7
370
     0
100
AcDbCircle
 10
89.8649956295
 20
118.3061589121
 30
0.0
 40
3.674839109350262
100
AcDbArc
 50
167.0523533452
 51
274.4013754008
  0
LINE
  5
F3
330
1F
100
AcDbEntity
  8
0
  6
HIDDEN
 62
     7
370
     0
100
AcDbLine
 10
70.1421638745
 20
82.2876430641
 30
0.0
 11
69.6080184453
 21
82.2330284646
 31
0.0
  0
LINE
  5
F4
330
1F
100
AcDbEntity
  8
0
  6
HIDDEN
 62
     7
370
     0
100
AcDbLine
 10
69.3682272483
 20
129.4157930548
 30
0.0
 11
70.1420711542
 21
129.3368257169
 31
0.0
  0
SPLINE
  5
F5
330
1F
100
AcDbEntity
  8
0
  6
HIDDEN
 62
     7
370
     0
100
AcDbSpline
210
0.0
220
0.0
230
1.0
 70
     8
 71
     3
 72
    30
 73
    26
 74
     0
 42
0.00000001
 43
0.00000001
 40
0.0
 40
0.0
 40
0.0
 40
0.0
 40
0.0156161600804325
 40
0.084974837262807
 40
0.1203204532886733
 40
0.1543185190912387
 40
0.2234436946573999
 40
0.2586467089786593
 40
0.2931107206686998
 40
0.3631864361325589
 40
0.3988795186727315
 40
0.433675062830971
 40
0.4687145712104798
 40
0.5045294144990534
 40
0.540615111197852
 40
0.5750767863722904
 40
0.6452033649630262
 40
0.6809575734718846
 40
0.7149323277721671
 40
0.7840330582955255
 40
0.8192378401372472
 40
0.8533347063218395
 40
0.9226550151093982
 40
0.9579547149334476
 40
1.0
 40
1.0
 40
1.0
 40
1.0
 10
69.40013105107461
 20
125.8116584189984
 30
0.0
 10
69.39953331198953
 20
125.8117706718802
 30
0.0
 10
69.39628073381286
 20
125.8123814923575
 30
0.0
 10
69.44660163626119
 20
125.8029223579003
 30
0.0
 10
69.54690666530249
 20
125.7846175218041
 30
0.0
 10
69.68152365337217
 20
125.7606342164304
 30
0.0
 10
69.86358229840222
 20
125.7295354222839
 30
0.0
 10
70.09050487206751
 20
125.6936162782416
 30
0.0
 10
70.34709127744487
 20
125.6552972571025
 30
0.0
 10
70.64512793591757
 20
125.6150521217943
 30
0.0
 10
70.97767718991732
 20
125.5763910983919
 30
0.0
 10
71.24287489532158
 20
125.5489884396607
 30
0.0
 10
71.52193272058054
 20
125.5239436030486
 30
0.0
 10
71.8163837364747
 20
125.501775905753
 30
0.0
 10
72.11924866979095
 20
125.483613818483
 30
0.0
 10
72.5296346566597
 20
125.4653557134886
 30
0.0
 10
72.9504754956145
 20
125.4565084794842
 30
0.0
 10
73.37037941284345
 20
125.4579738739254
 30
0.0
 10
73.78499393369717
 20
125.4660172670927
 30
0.0
 10
74.19121505317301
 20
125.4835240526919
 30
0.0
 10
74.58074555289497
 20
125.5090893657198
 30
0.0
 10
74.95756625413334
 20
125.539273601434
 30
0.0
 10
75.31070341383729
 20
125.5751711762814
 30
0.0
 10
75.65245490165891
 20
125.61598945414
 30
0.0
 10
75.81412866266848
 20
125.6378743677065
 30
0.0
 10
75.90201567149063
 20
125.649771162707
 30
0.0
  0
SPLINE
  5
F6
330
1F
100
AcDbEntity
  8
0
  6
HIDDEN
 62
     7
370
     0
100
AcDbSpline
210
0.0
220
0.0
230
1.0
 70
     8
 71
     3
 72
    32
 73
    28
 74
     0
 42
0.00000001
 43
0.00000001
 40
0.0
 40
0.0
 40
0.0
 40
0.0
 40
0.0346246159901392
 40
0.0694870388940024
 40
0.105100760954932
 40
0.1409753874086759
 40
0.175600572118933
 40
0.2104692408125611
 40
0.2461122854708172
 40
0.2820258067991324
 40
0.3162663828049039
 40
0.3859338563640315
 40
0.4214461814158483
 40
0.4553763558770598
 40
0.5243713305904965
 40
0.5595124638219118
 40
0.593798734303577
 40
0.6635059787021127
 40
0.699005536380502
 40
0.7337623601246065
 40
0.7687606633024605
 40
0.8045245907686109
 40
0.8405553812432469
 40
0.8751701211305551
 40
0.9456085132854551
 40
0.9815233266320906
 40
1.0
 40
1.0
 40
1.0
 40
1.0
 10
75.90201567149063
 20
85.97471421107412
 30
0.0
 10
75.83001736964421
 20
85.98450215398245
 30
0.0
 10
75.68552627111104
 20
86.00414526481886
 30
0.0
 10
75.44420633685257
 20
86.03359448344058
 30
0.0
 10
75.18490808586694
 20
86.06214486553101
 30
0.0
 10
74.91092066673431
 20
86.08857608448582
 30
0.0
 10
74.62629288571277
 20
86.11202856183715
 30
0.0
 10
74.33170792674464
 20
86.13202601829576
 30
0.0
 10
74.02477701777632
 20
86.1481816967995
 30
0.0
 10
73.71304555202384
 20
86.15962368449499
 30
0.0
 10
73.29578000333844
 20
86.16831481219283
 30
0.0
 10
72.87513700998088
 20
86.16702675573264
 30
0.0
 10
72.46173345681541
 20
86.15579894436517
 30
0.0
 10
72.05688949374812
 20
86.1385006722843
 30
0.0
 10
71.66625140918595
 20
86.11278502851607
 30
0.0
 10
71.29747033114467
 20
86.08069171761916
 30
0.0
 10
70.94405254889625
 20
86.04513350911672
 30
0.0
 10
70.61861145857536
 20
86.00588505278112
 30
0.0
 10
70.329234252858
 20
85.96625353540878
 30
0.0
 10
70.13132037588271
 20
85.93711779226653
 30
0.0
 10
69.9539934118452
 20
85.90938355995378
 30
0.0
 10
69.79738408333269
 20
85.8836030156994
 30
0.0
 10
69.66573656362999
 20
85.86099637896523
 30
0.0
 10
69.52387536805827
 20
85.83581033365856
 30
0.0
 10
69.43505678024266
 20
85.81936478453497
 30
0.0
 10
69.39823384169225
 20
85.81247195371877
 30
0.0
 10
69.39964998886543
 20
85.81273693962797
 30
0.0
 10
69.40013105107461
 20
85.8128269547827
 30
0.0
  0
SPLINE
  5
F7
330
1F
100
AcDbEntity
  8
0
  6
HIDDEN
 62
     7
370
     0
100
AcDbSpline
210
0.0
220
0.0
230
1.0
 70
     8
 71
     3
 72
    15
 73
    11
 74
     0
 42
0.00000001
 43
0.00000001
 40
0.0
 40
0.0
 40
0.0
 40
0.0
 40
0.110072588692132
 40
0.2209193734147121
 40
0.3341941649114025
 40
0.448303519393223
 40
0.5583990715890395
 40
0.7822971689737802
 40
0.8963603647916926
 40
1.0
 40
1.0
 40
1.0
 40
1.0
 10
75.90201567149063
 20
125.649771162707
 30
0.0
 10
75.96960965795478
 20
125.6588394167986
 30
0.0
 10
76.10527305348035
 20
125.6770397065864
 30
0.0
 10
76.28571847805377
 20
125.6977607619084
 30
0.0
 10
76.44786725286959
 20
125.7145004472724
 30
0.0
 10
76.58591839843619
 20
125.7270825590867
 30
0.0
 10
76.73755911579825
 20
125.7394613589702
 30
0.0
 10
76.83900476950252
 20
125.7464186443008
 30
0.0
 10
76.89041848311871
 20
125.7497152854585
 30
0.0
 10
76.89437329167842
 20
125.7499605903377
 30
0.0
 10
76.89625601830404
 20
125.7500773702072
 30
0.0
  0
SPLINE
  5
F8
330
1F
100
AcDbEntity
  8
0
  6
HIDDEN
 62
     7
370
     0
100
AcDbSpline
210
0.0
220
0.0
230
1.0
 70
     8
 71
     3
 72
    17
 73
    13
 74
     0
 42
0.00000001
 43
0.00000001
 40
0.0
 40
0.0
 40
0.0
 40
0.0
 40
0.007026850021131
 40
0.1183631929415051
 40
0.232113419828284
 40
0.3466983210643473
 40
0.4574106626582206
 40
0.5688954169322242
 40
0.6828241199358491
 40
0.7976023978524979
 40
0.8985035916333008
 40
1.0
 40
1.0
 40
1.0
 40
1.0
 10
76.89625361907359
 20
85.87440815513901
 30
0.0
 10
76.89650552191922
 20
85.87439224723315
 30
0.0
 10
76.90074867853
 20
85.87412428783088
 30
0.0
 10
76.88482879855138
 20
85.87512115628117
 30
0.0
 10
76.84581296021543
 20
85.87763770556164
 30
0.0
 10
76.77736082158984
 20
85.8823353155496
 30
0.0
 10
76.68460885138063
 20
85.88928518218616
 30
0.0
 10
76.56731728016588
 20
85.89901466675204
 30
0.0
 10
76.42448063791079
 20
85.91226167367972
 30
0.0
 10
76.26293124750488
 20
85.92924876218576
 30
0.0
 10
76.0891279066697
 20
85.94954140263921
 30
0.0
 10
75.9645085774877
 20
85.96630684022688
 30
0.0
 10
75.90201567149063
 20
85.97471421107412
 30
0.0
  0
LINE
  5
F9
330
1F
100
AcDbEntity
  8
0
  6
HIDDEN
 62
     7
370
     0
100
AcDbLine
 10
63.1509882661
 20
88.8122426869
 30
0.0
 11
63.1509882661
 21
122.8122426869
 31
0.0
  0
LWPOLYLINE
  5
FA
330
1F
100
AcDbEntity
  8
0
  6
HIDDEN
 62
     7
370
     0
100
AcDbPolyline
 90
       12
 70
   128
 43
0.0
 10
90.1470136699
 20
127.7578451015
 10
91.0694771529
 20
127.8117553604
 10
91.9422103907
 20
127.9705798209
 10
92.7181641086
 20
128.2257562153
 10
93.3555064409
 20
128.5635279181
 10
93.8198780974
 20
128.9656855695
 10
94.0862446819
 20
129.4105487462
 10
94.140246303
 20
129.8741347594
 10
93.9789717192
 20
130.331451567
 10
93.611115285
 20
130.7578451015
 10
93.0565082362
 20
131.1303283773
 10
92.5200467462
 20
131.3678694817
  0
LWPOLYLINE
  5
FB
330
1F
100
AcDbEntity
  8
0
  6
HIDDEN
 62
     7
370
     0
100
AcDbPolyline
 90
       12
 70
   128
 43
0.0
 10
87.7790378208
 20
131.3697298972
 10
87.2375191036
 20
131.1303283773
 10
86.6829120548
 20
130.7578451015
 10
86.3150556206
 20
130.331451567
 10
86.1537810368
 20
129.8741347594
 10
86.2077826578
 20
129.4105487462
 10
86.4741492424
 20
128.9656855695
 10
86.9385208989
 20
128.5635279181
 10
87.5758632311
 20
128.2257562153
 10
88.3518169491
 20
127.9705798209
 10
89.2245501869
 20
127.8117553604
 10
90.1470136699
 20
127.7578451015
  0
SPLINE
  5
FC
330
1F
100
AcDbEntity
  8
0
  6
HIDDEN
 62
     7
370
     0
100
AcDbSpline
210
0.0
220
0.0
230
1.0
 70
     8
 71
     3
 72
    11
 73
     7
 74
     0
 42
0.00000001
 43
0.00000001
 40
0.0
 40
0.0
 40
0.0
 40
0.0
 40
0.000577986501074
 40
0.000577986501074
 40
0.000577986501074
 40
0.0011559733324211
 40
0.0011559733324211
 40
0.0011559733324211
 40
0.0011559733324211
 10
50.24701366988904
 20
107.8120833055172
 30
0.0
 10
50.41368092469506
 20
107.8100996660426
 30
0.0
 10
50.58034735437274
 20
107.8080620589085
 30
0.0
 10
50.74701369282455
 20
107.8059505953719
 30
0.0
 10
50.91368012165094
 20
107.8038391306903
 30
0.0
 10
51.08034649528862
 20
107.8016535674052
 30
0.0
 10
51.24701366988903
 20
107.7993709899446
 30
0.0
  0
SPLINE
  5
FD
330
1F
100
AcDbEntity
  8
0
  6
HIDDEN
 62
     7
370
     0
100
AcDbSpline
210
0.0
220
0.0
230
1.0
 70
     8
 71
     3
 72
    11
 73
     7
 74
     0
 42
0.00000001
 43
0.00000001
 40
0.0
 40
0.0
 40
0.0
 40
0.0
 40
0.0005782382535738
 40
0.0005782382535738
 40
0.0005782382535738
 40
0.0011564766069466
 40
0.0011564766069466
 40
0.0011564766069466
 40
0.0011564766069466
 10
51.24701366988901
 20
103.8155423846735
 30
0.0
 10
51.08035971592037
 20
103.8151048069116
 30
0.0
 10
50.91369904371838
 20
103.8146247422391
 30
0.0
 10
50.74703215505297
 20
103.8141052028696
 30
0.0
 10
50.58036523665693
 20
103.8135856634074
 30
0.0
 10
50.41369210682375
 20
103.8130268343852
 30
0.0
 10
50.24701366988907
 20
103.8124412908019
 30
0.0
  0
LINE
  5
FE
330
1F
100
AcDbEntity
  8
0
  6
HIDDEN
 62
     7
370
     0
100
AcDbLine
 10
89.8068396384
 20
88.8122426869
 30
0.0
 11
89.8068396384
 21
122.8122426869
 31
0.0
  0
LINE
  5
FF
330
1F
100
AcDbEntity
  8
0
  6
HIDDEN
 62
     7
370
     0
100
AcDbLine
 10
92.0970136699
 20
90.0872426869
 30
0.0
 11
92.0970136699
 21
121.5372426869
 31
0.0
  0
SPLINE
  5
100
330
1F
100
AcDbEntity
  8
0
  6
HIDDEN
 62
     7
370
     0
100
AcDbSpline
210
0.0
220
0.0
230
1.0
 70
     8
 71
     3
 72
    16
 73
    12
 74
     0
 42
0.00000001
 43
0.00000001
 40
0.0
 40
0.0
 40
0.0
 40
0.0
 40
0.1249999999999985
 40
0.1249999999999985
 40
0.249999999999997
 40
0.249999999999997
 40
0.499999999999998
 40
0.499999999999998
 40
0.749999999999999
 40
0.749999999999999
 40
1.0
 40
1.0
 40
1.0
 40
1.0
 10
58.94701366988902
 20
90.0107522508589
 30
0.0
 10
59.04213542455486
 20
90.0107522508589
 30
0.0
 10
59.13546549328294
 20
90.00693641746611
 30
0.0
 10
59.31872725402093
 20
89.9921658647363
 30
0.0
 10
59.40960496957793
 20
89.98100781676072
 30
0.0
 10
59.66640666709769
 20
89.938536546619
 30
0.0
 10
59.82147403196968
 20
89.8974903494162
 30
0.0
 10
60.07522049352431
 20
89.8023442328343
 30
0.0
 10
60.17609094519216
 20
89.74758149875274
 30
0.0
 10
60.31133735988701
 20
89.63632037484885
 30
0.0
 10
60.34701366988904
 20
89.57915063752017
 30
0.0
 10
60.34701366988904
 20
89.52472906448644
 30
0.0
  0
SPLINE
  5
101
330
1F
100
AcDbEntity
  8
0
  6
HIDDEN
 62
     7
370
     0
100
AcDbSpline
210
0.0
220
0.0
230
1.0
 70
     8
 71
     3
 72
     8
 73
     4
 74
     0
 42
0.00000001
 43
0.00000001
 40
0.0
 40
0.0
 40
0.0
 40
0.0
 40
1.0
 40
1.0
 40
1.0
 40
1.0
 10
51.54701367011963
 20
92.15555519694115
 30
0.0
 10
51.54701367012154
 20
91.27165805462423
 30
0.0
 10
51.53353304420936
 20
90.55707480956228
 30
0.0
 10
51.53218167601825
 20
90.01075225085891
 30
0.0
  0
LINE
  5
102
330
1F
100
AcDbEntity
  8
0
  6
HIDDEN
 62
     7
370
     0
100
AcDbLine
 10
51.2470136699
 20
96.2114159021
 30
0.0
 11
51.2470136699
 21
93.1804654566
 31
0.0
  0
LINE
  5
103
330
1F
100
AcDbEntity
  8
0
  6
HIDDEN
 62
     7
370
     0
100
AcDbLine
 10
51.5470136699
 20
109.4168763085
 30
0.0
 11
51.5470136699
 21
97.5792563112
 31
0.0
  0
SPLINE
  5
104
330
1F
100
AcDbEntity
  8
0
  6
HIDDEN
 62
     7
370
     0
100
AcDbSpline
210
0.0
220
0.0
230
1.0
 70
     8
 71
     3
 72
     8
 73
     4
 74
     0
 42
0.00000001
 43
0.00000001
 40
0.0
 40
0.0
 40
0.0
 40
0.0
 40
1.0
 40
1.0
 40
1.0
 40
1.0
 10
51.24701366988901
 20
115.4191820002223
 30
0.0
 10
51.42804513457278
 20
114.9870745167963
 30
0.0
 10
51.54701366988667
 20
114.532929113203
 30
0.0
 10
51.54701366988096
 20
114.0452290625025
 30
0.0
  0
LINE
  5
105
330
1F
100
AcDbEntity
  8
0
  6
HIDDEN
 62
     7
370
     0
100
AcDbLine
 10
51.2470136699
 20
118.4523850005
 30
0.0
 11
51.2470136699
 21
115.4191820002
 31
0.0
  0
SPLINE
  5
106
330
1F
100
AcDbEntity
  8
0
  6
HIDDEN
 62
     7
370
     0
100
AcDbSpline
210
0.0
220
0.0
230
1.0
 70
     8
 71
     3
 72
    10
 73
     6
 74
     0
 42
0.00000001
 43
0.00000001
 40
0.0
 40
0.0
 40
0.0
 40
0.0
 40
0.5
 40
0.5
 40
1.0
 40
1.0
 40
1.0
 40
1.0
 10
51.54701366990103
 20
119.4689301768104
 30
0.0
 10
51.54701366989924
 20
119.3042938312399
 30
0.0
 10
51.51985499948397
 20
119.1371386084767
 30
0.0
 10
51.41409000546047
 20
118.7985156028615
 30
0.0
 10
51.33767521796076
 20
118.6262438267259
 30
0.0
 10
51.24701366988904
 20
118.4523850004985
 30
0.0
  0
SPLINE
  5
107
330
1F
100
AcDbEntity
  8
0
  6
HIDDEN
 62
     7
370
     0
100
AcDbSpline
210
0.0
220
0.0
230
1.0
 70
     8
 71
     3
 72
    18
 73
    14
 74
     0
 42
0.00000001
 43
0.00000001
 40
0.0
 40
0.0
 40
0.0
 40
0.0
 40
0.2499999999999999
 40
0.2499999999999999
 40
0.3749999999999992
 40
0.3749999999999992
 40
0.4999999999999984
 40
0.4999999999999984
 40
0.6249999999999978
 40
0.6249999999999978
 40
0.749999999999997
 40
0.749999999999997
 40
1.0
 40
1.0
 40
1.0
 40
1.0
 10
56.34701366988904
 20
122.0997563092947
 30
0.0
 10
56.34701366988904
 20
122.0452817887425
 30
0.0
 10
56.31210297849685
 20
121.98890072939
 30
0.0
 10
56.21009367716381
 20
121.9048238885365
 30
0.0
 10
56.16845732248569
 20
121.8774901845456
 30
0.0
 10
56.07005152699694
 20
121.8245362689467
 30
0.0
 10
56.01250831529267
 20
121.7986489152295
 30
0.0
 10
55.88521014171971
 20
121.7508713703962
 30
0.0
 10
55.81562283696225
 20
121.7289234522183
 30
0.0
 10
55.6641885918073
 20
121.6894908873056
 30
0.0
 10
55.58150468871334
 20
121.6719346380797
 30
0.0
 10
55.32539322667529
 20
121.6294958726592
 30
0.0
 10
55.13747822278731
 20
121.6137331229222
 30
0.0
 10
54.94701366988904
 20
121.6137331229222
 30
0.0
  0
LINE
  5
108
330
1F
100
AcDbEntity
  8
0
  6
HIDDEN
 62
     7
370
     0
100
AcDbLine
 10
54.9470136699
 20
121.6137331229
 30
0.0
 11
51.5470136699
 21
121.6137331229
 31
0.0
  0
LINE
  5
109
330
1F
100
AcDbEntity
  8
0
  6
HIDDEN
 62
     7
370
     0
100
AcDbLine
 10
51.4780446832
 20
90.0107522509
 30
0.0
 11
58.9470136699
 21
90.0107522509
 31
0.0
  0
SPLINE
  5
10A
330
1F
100
AcDbEntity
  8
0
  6
HIDDEN
 62
     7
370
     0
100
AcDbSpline
210
0.0
220
0.0
230
1.0
 70
     8
 71
     3
 72
    22
 73
    18
 74
     0
 42
0.00000001
 43
0.00000001
 40
0.0
 40
0.0
 40
0.0
 40
0.0
 40
0.1250000000000001
 40
0.1250000000000001
 40
0.2500000000000001
 40
0.2500000000000001
 40
0.5
 40
0.5
 40
0.5625
 40
0.5625
 40
0.6249999999999999
 40
0.6249999999999999
 40
0.75
 40
0.75
 40
0.875
 40
0.875
 40
1.0
 40
1.0
 40
1.0
 40
1.0
 10
51.47804468324691
 20
90.01075225085891
 30
0.0
 10
51.46496229051854
 20
90.26585796100659
 30
0.0
 10
51.45174272707874
 20
90.5590162201105
 30
0.0
 10
51.42929554928462
 20
91.2213166857353
 30
0.0
 10
51.41981708226015
 20
91.59159060634668
 30
0.0
 10
51.40061912132361
 20
92.81414740946046
 30
0.0
 10
51.4017328943205
 20
93.75128633559234
 30
0.0
 10
51.42064368727359
 20
95.07115756510733
 30
0.0
 10
51.42527321513257
 20
95.34265947408363
 30
0.0
 10
51.43575443487853
 20
95.90104430888591
 30
0.0
 10
51.44154969616297
 20
96.18816716482554
 30
0.0
 10
51.45985891706789
 20
97.06075641919723
 30
0.0
 10
51.47389385134827
 20
97.6612120955531
 30
0.0
 10
51.50335102348508
 20
98.89868658804915
 30
0.0
 10
51.51890671446665
 20
99.5357027446926
 30
0.0
 10
51.54270126446353
 20
100.8471913423772
 30
0.0
 10
51.5507203166089
 20
101.5233139540377
 30
0.0
 10
51.54701366988902
 20
102.2076090653225
 30
0.0
  0
LINE
  5
10B
330
1F
100
AcDbEntity
  8
0
  6
HIDDEN
 62
     7
370
     0
100
AcDbLine
 10
51.5470136699
 20
109.4168763085
 30
0.0
 11
51.5470136699
 21
121.6137331229
 31
0.0
  0
SPLINE
  5
10C
330
1F
100
AcDbEntity
  8
0
  6
HIDDEN
 62
     7
370
     0
100
AcDbSpline
210
0.0
220
0.0
230
1.0
 70
     8
 71
     3
 72
    10
 73
     6
 74
     0
 42
0.00000001
 43
0.00000001
 40
0.0
 40
0.0
 40
0.0
 40
0.0
 40
0.5
 40
0.5
 40
1.0
 40
1.0
 40
1.0
 40
1.0
 10
51.54701366988898
 20
102.2076090653074
 30
0.0
 10
51.54701366988881
 20
102.4815242133817
 30
0.0
 10
51.52125444002014
 20
102.7524657921115
 30
0.0
 10
51.41804850728679
 20
103.288156873714
 30
0.0
 10
51.34071034341233
 20
103.553903677236
 30
0.0
 10
51.24701366988901
 20
103.8155423846735
 30
0.0
  0
SPLINE
  5
10D
330
1F
100
AcDbEntity
  8
0
  6
HIDDEN
 62
     7
370
     0
100
AcDbSpline
210
0.0
220
0.0
230
1.0
 70
     8
 71
     3
 72
    10
 73
     6
 74
     0
 42
0.00000001
 43
0.00000001
 40
0.0
 40
0.0
 40
0.0
 40
0.0
 40
0.5
 40
0.5
 40
1.0
 40
1.0
 40
1.0
 40
1.0
 10
51.24701366988901
 20
107.7993709899446
 30
0.0
 10
51.34024425021111
 20
108.0632647965121
 30
0.0
 10
51.41527386172034
 20
108.3294451055777
 30
0.0
 10
51.52034095966669
 20
108.8677676773285
 30
0.0
 10
51.54701366989979
 20
109.1405157919087
 30
0.0
 10
51.547013669901
 20
109.4168763084577
 30
0.0
  0
LINE
  5
10E
330
1F
100
AcDbEntity
  8
0
  6
HIDDEN
 62
     7
370
     0
100
AcDbLine
 10
51.2470136699
 20
103.8155423847
 30
0.0
 11
51.2470136699
 21
107.7993709899
 31
0.0
  0
SPLINE
  5
10F
330
1F
100
AcDbEntity
  8
0
  6
HIDDEN
 62
     7
370
     0
100
AcDbSpline
210
0.0
220
0.0
230
1.0
 70
     8
 71
     3
 72
     9
 73
     5
 74
     0
 42
0.00000001
 43
0.00000001
 40
0.0
 40
0.0
 40
0.0
 40
0.0
 40
0.6762853039760053
 40
1.0
 40
1.0
 40
1.0
 40
1.0
 10
242.147013669889
 20
95.67431203834977
 30
0.0
 10
242.1462180052484
 20
95.63146699289734
 30
0.0
 10
242.1450414830971
 20
95.56811348632176
 30
0.0
 10
242.144723921246
 20
95.56469721249991
 30
0.0
 10
242.1446211218079
 20
95.56359131445814
 30
0.0
  0
LINE
  5
110
330
1F
100
AcDbEntity
  8
0
  6
HIDDEN
 62
     7
370
     0
100
AcDbLine
 10
51.3970136699
 20
87.8222426869
 30
0.0
 11
51.3970136699
 21
84.9423049215
 31
0.0
  0
LINE
  5
111
330
1F
100
AcDbEntity
  8
0
  6
HIDDEN
 62
     7
370
     0
100
AcDbLine
 10
60.3470136699
 20
87.8222426869
 30
0.0
 11
60.3470136699
 21
83.8485051557
 31
0.0
  0
LINE
  5
112
330
1F
100
AcDbEntity
  8
0
  6
HIDDEN
 62
     7
370
     0
100
AcDbLine
 10
51.3970136699
 20
123.8022426869
 30
0.0
 11
51.3970136699
 21
126.6821804523
 31
0.0
  0
LINE
  5
113
330
1F
100
AcDbEntity
  8
0
  6
HIDDEN
 62
     7
370
     0
100
AcDbLine
 10
56.3470136699
 20
123.8022426869
 30
0.0
 11
56.3470136699
 21
127.6563503593
 31
0.0
  0
LINE
  5
114
330
1F
100
AcDbEntity
  8
0
  6
HIDDEN
 62
     7
370
     0
100
AcDbLine
 10
103.9470136699
 20
96.3122426869
 30
0.0
 11
103.9470136699
 21
115.3122426869
 31
0.0
  0
LINE
  5
115
330
1F
100
AcDbEntity
  8
0
  6
HIDDEN
 62
     7
370
     0
100
AcDbLine
 10
100.9470136699
 20
96.3122426869
 30
0.0
 11
100.9470136699
 21
115.3122426869
 31
0.0
  0
LINE
  5
116
330
1F
100
AcDbEntity
  8
0
  6
HIDDEN
 62
     7
370
     0
100
AcDbLine
 10
108.0970136699
 20
79.4122426869
 30
0.0
 11
101.9593388676
 21
79.4122426869
 31
0.0
  0
LINE
  5
117
330
1F
100
AcDbEntity
  8
0
  6
HIDDEN
 62
     7
370
     0
100
AcDbLine
 10
92.5970136699
 20
97.3122426869
 30
0.0
 11
92.5970136699
 21
114.3122426869
 31
0.0
  0
LINE
  5
118
330
1F
100
AcDbEntity
  8
0
  6
HIDDEN
 62
     7
370
     0
100
AcDbLine
 10
98.3346884722
 20
79.4122426869
 30
0.0
 11
95.0970136699
 21
79.4122426869
 31
0.0
  0
LINE
  5
119
330
1F
100
AcDbEntity
  8
0
  6
HIDDEN
 62
     7
370
     0
100
AcDbLine
 10
87.0970136699
 20
74.328119704
 30
0.0
 11
87.0970136699
 21
79.4122426869
 31
0.0
  0
LINE
  5
11A
330
1F
100
AcDbEntity
  8
0
  6
HIDDEN
 62
     7
370
     0
100
AcDbLine
 10
95.0970136699
 20
79.4122426869
 30
0.0
 11
87.0970136699
 21
79.4122426869
 31
0.0
  0
LINE
  5
11B
330
1F
100
AcDbEntity
  8
0
  6
HIDDEN
 62
     7
370
     0
100
AcDbLine
 10
108.0970136699
 20
132.2122426869
 30
0.0
 11
101.6627161382
 21
132.2122426869
 31
0.0
  0
LINE
  5
11C
330
1F
100
AcDbEntity
  8
0
  6
HIDDEN
 62
     7
370
     0
100
AcDbLine
 10
98.6313112016
 20
132.2122426869
 30
0.0
 11
95.0970136699
 21
132.2122426869
 31
0.0
  0
LINE
  5
11D
330
1F
100
AcDbEntity
  8
0
  6
HIDDEN
 62
     7
370
     0
100
AcDbLine
 10
95.0970136699
 20
132.2122426869
 30
0.0
 11
87.0970136699
 21
132.2122426869
 31
0.0
  0
SPLINE
  5
11E
330
1F
100
AcDbEntity
  8
0
  6
HIDDEN
 62
     7
370
     0
100
AcDbSpline
210
0.0
220
0.0
230
1.0
 70
     8
 71
     3
 72
    11
 73
     7
 74
     0
 42
0.00000001
 43
0.00000001
 40
0.0
 40
0.0
 40
0.0
 40
0.0
 40
0.0008203708524183
 40
0.0008203708524183
 40
0.0008203708524183
 40
0.0016409967870155
 40
0.0016409967870155
 40
0.0016409967870155
 40
0.0016409967870155
 10
51.39701366988904
 20
89.96020993624786
 30
0.0
 10
51.20585536959038
 20
89.91903090762872
 30
0.0
 10
51.01442829951819
 20
89.88027693539871
 30
0.0
 10
50.82278267599756
 20
89.84390917612018
 30
0.0
 10
50.6310772709171
 20
89.80753007235413
 30
0.0
 10
50.43913831885816
 20
89.77353582158659
 30
0.0
 10
50.24701367178736
 20
89.74188769619538
 30
0.0
  0
ELLIPSE
  5
11F
330
1F
100
AcDbEntity
  8
0
  6
HIDDEN
 62
     7
370
     0
100
AcDbEllipse
 10
46.0045818057
 20
105.8122426869
 30
0.0
 11
20.19992452871122
 21
-1.421085471520200E-14
 31
0.0
210
0.0
220
0.0
230
1.0
 40
0.8164965809
 41
1.300566354878502
 42
1.359198697382093
  0
LINE
  5
120
330
1F
100
AcDbEntity
  8
0
  6
HIDDEN
 62
     7
370
     0
100
AcDbLine
 10
238.6470136699
 20
99.8122426869
 30
0.0
 11
238.6470136699
 21
111.8122426869
 31
0.0
  0
SPLINE
  5
121
330
1F
100
AcDbEntity
  8
0
  6
HIDDEN
 62
     7
370
     0
100
AcDbSpline
210
0.0
220
0.0
230
1.0
 70
     8
 71
     3
 72
    17
 73
    13
 74
     0
 42
0.00000001
 43
0.00000001
 40
0.0
 40
0.0
 40
0.0
 40
0.0
 40
0.103768782044503
 40
0.2106024128740466
 40
0.3143559180242043
 40
0.4210186355764942
 40
0.526632802986939
 40
0.6352309610530421
 40
0.7420769577904192
 40
0.8521325120066433
 40
0.9569843285680504
 40
1.0
 40
1.0
 40
1.0
 40
1.0
 10
197.6470136698891
 20
111.9310661032019
 30
0.0
 10
197.7288086307459
 20
111.9320240712094
 30
0.0
 10
197.8948143964297
 20
111.9339683011586
 30
0.0
 10
198.1355364120373
 20
111.9491578780602
 30
0.0
 10
198.3643652824203
 20
111.971663484763
 30
0.0
 10
198.572380938615
 20
111.999628089079
 30
0.0
 10
198.7576894398061
 20
112.0302970281271
 30
0.0
 10
198.9119651054035
 20
112.0599655911779
 30
0.0
 10
199.0331231057652
 20
112.0858543804504
 30
0.0
 10
199.1107901945763
 20
112.103630175905
 30
0.0
 10
199.1476223561331
 20
112.1123864933743
 30
0.0
 10
199.1431157047238
 20
112.111316194824
 30
0.0
 10
199.1418046887669
 20
112.1110048375987
 30
0.0
  0
LINE
  5
122
330
1F
100
AcDbEntity
  8
0
  6
HIDDEN
 62
     7
370
     0
100
AcDbLine
 10
197.7473967065
 20
111.9330687222
 30
0.0
 11
197.6207594639
 21
111.9315053359
 31
0.0
  0
SPLINE
  5
123
330
1F
100
AcDbEntity
  8
0
  6
HIDDEN
 62
     7
370
     0
100
AcDbSpline
210
0.0
220
0.0
230
1.0
 70
     8
 71
     3
 72
    17
 73
    13
 74
     0
 42
0.00000001
 43
0.00000001
 40
0.0
 40
0.0
 40
0.0
 40
0.0
 40
0.0821226100939167
 40
0.1885270672755736
 40
0.2915213507943836
 40
0.3973795741053694
 40
0.502649442825761
 40
0.6108736476405005
 40
0.7177583927959013
 40
0.8278323811871168
 40
0.91308212178818
 40
1.0
 40
1.0
 40
1.0
 40
1.0
 10
196.1502625881603
 20
112.1114716071756
 30
0.0
 10
196.1513957568414
 20
112.1111989028494
 30
0.0
 10
196.1539971472251
 20
112.110572861534
 30
0.0
 10
196.2062206907053
 20
112.0982755291527
 30
0.0
 10
196.2969912539402
 20
112.077934458198
 30
0.0
 10
196.4247069518615
 20
112.051414761994
 30
0.0
 10
196.5875691867347
 20
112.0212793602568
 30
0.0
 10
196.7806166752316
 20
111.9909699304286
 30
0.0
 10
197.0015124644376
 20
111.9635529898655
 30
0.0
 10
197.2248521873344
 20
111.9443619746128
 30
0.0
 10
197.4428485102451
 20
111.9330600501905
 30
0.0
 10
197.5785204401065
 20
111.9317350315808
 30
0.0
 10
197.6470136698891
 20
111.9310661032019
 30
0.0
  0
SPLINE
  5
124
330
1F
100
AcDbEntity
  8
0
  6
HIDDEN
 62
     7
370
     0
100
AcDbSpline
210
0.0
220
0.0
230
1.0
 70
     8
 71
     3
 72
    26
 73
    22
 74
     0
 42
0.00000001
 43
0.00000001
 40
0.0
 40
0.0
 40
0.0
 40
0.0
 40
0.0519111261485144
 40
0.1053531762961732
 40
0.1572573064982279
 40
0.2106199625145072
 40
0.2633999566746173
 40
0.3176692172864064
 40
0.3711038661191901
 40
0.4261427701719325
 40
0.4785856815712706
 40
0.5326182109984948
 40
0.5839595099027736
 40
0.6367655693078397
 40
0.688612576238243
 40
0.7418897763437542
 40
0.7950462581831046
 40
0.8497328180665489
 40
0.9029973160868415
 40
0.9578785649269971
 40
1.0
 40
1.0
 40
1.0
 40
1.0
 10
199.1470136698891
 20
99.51224268689057
 30
0.0
 10
199.1431296761682
 20
99.51317320827759
 30
0.0
 10
199.1352471448967
 20
99.51506169329046
 30
0.0
 10
199.0719327672107
 20
99.52986281699374
 30
0.0
 10
198.9720707177219
 20
99.5519345004718
 30
0.0
 10
198.8359972745189
 20
99.57957814484897
 30
0.0
 10
198.6653349231665
 20
99.61015802707152
 30
0.0
 10
198.4659084268083
 20
99.64007315893036
 30
0.0
 10
198.2399195544941
 20
99.66625270288147
 30
0.0
 10
197.9987560199665
 20
99.6849881352013
 30
0.0
 10
197.7462828730375
 20
99.6943498069179
 30
0.0
 10
197.496522136383
 20
99.6932565912936
 30
0.0
 10
197.2507850733337
 20
99.6821415528597
 30
0.0
 10
197.0194702122244
 20
99.6626776268897
 30
0.0
 10
196.8029241999958
 20
99.63659185938873
 30
0.0
 10
196.6090580242232
 20
99.60686649620752
 30
0.0
 10
196.4408368030537
 20
99.57626768002756
 30
0.0
 10
196.3061779689793
 20
99.54856245489768
 30
0.0
 10
196.2096808097136
 20
99.52701878664999
 30
0.0
 10
196.1544884829529
 20
99.51403016371832
 30
0.0
 10
196.1514428921114
 20
99.51329785297682
 30
0.0
 10
196.1501204064675
 20
99.51297986198824
 30
0.0
  0
LINE
  5
125
330
1F
100
AcDbEntity
  8
0
  6
HIDDEN
 62
     7
370
     0
100
AcDbLine
 10
195.6470136699
 20
99.9122426869
 30
0.0
 11
195.6470136699
 21
111.712242197
 31
0.0
  0
LINE
  5
126
330
1F
100
AcDbEntity
  8
0
  6
HIDDEN
 62
     7
370
     0
100
AcDbLine
 10
206.1470136699
 20
99.8122426869
 30
0.0
 11
206.1470136699
 21
111.8122426869
 31
0.0
  0
LINE
  5
127
330
1F
100
AcDbEntity
  8
0
  6
HIDDEN
 62
     7
370
     0
100
AcDbLine
 10
60.3470136699
 20
87.8222426869
 30
0.0
 11
60.3470136699
 21
89.5247290645
 31
0.0
  0
LINE
  5
128
330
1F
100
AcDbEntity
  8
0
  6
HIDDEN
 62
     7
370
     0
100
AcDbLine
 10
51.3970136699
 20
87.8222426869
 30
0.0
 11
51.3970136699
 21
89.9602099362
 31
0.0
  0
LINE
  5
129
330
1F
100
AcDbEntity
  8
0
  6
HIDDEN
 62
     7
370
     0
100
AcDbLine
 10
51.4780446832
 20
90.0107522509
 30
0.0
 11
51.3970136699
 21
89.9602099362
 31
0.0
  0
LINE
  5
12A
330
1F
100
AcDbEntity
  8
0
  6
HIDDEN
 62
     7
370
     0
100
AcDbLine
 10
56.3470136699
 20
123.8022426869
 30
0.0
 11
56.3470136699
 21
122.0997563093
 31
0.0
  0
LINE
  5
12B
330
1F
100
AcDbEntity
  8
0
  6
HIDDEN
 62
     7
370
     0
100
AcDbLine
 10
51.3970136699
 20
123.8022426869
 30
0.0
 11
51.3970136699
 21
121.7068671358
 31
0.0
  0
SPLINE
  5
12C
330
1F
100
AcDbEntity
  8
0
  6
HIDDEN
 62
     7
370
     0
100
AcDbSpline
210
0.0
220
0.0
230
1.0
 70
     8
 71
     3
 72
     8
 73
     4
 74
     0
 42
0.00000001
 43
0.00000001
 40
0.0
 40
0.0
 40
0.0
 40
0.0
 40
1.0
 40
1.0
 40
1.0
 40
1.0
 10
51.39701366988903
 20
121.706867135838
 30
0.0
 10
51.44701916770541
 20
121.6758313623222
 30
0.0
 10
51.49701923724273
 20
121.6447867179984
 30
0.0
 10
51.547013669901
 20
121.6137331229222
 30
0.0
  0
LINE
  5
12D
330
1F
100
AcDbEntity
  8
0
  6
HIDDEN
 62
     7
370
     0
100
AcDbLine
 10
195.1470136699
 20
101.3122426869
 30
0.0
 11
195.1470136699
 21
110.3122426869
 31
0.0
  0
LINE
  5
12E
330
1F
100
AcDbEntity
  8
0
  6
HIDDEN
 62
     7
370
     0
100
AcDbLine
 10
164.9667554842
 20
101.6122426869
 30
0.0
 11
164.9667554842
 21
110.0122426869
 31
0.0
  0
LINE
  5
12F
330
1F
100
AcDbEntity
  8
0
  6
HIDDEN
 62
     7
370
     0
100
AcDbLine
 10
165.1470136699
 20
101.3122426869
 30
0.0
 11
165.1470136699
 21
110.3122426869
 31
0.0
  0
SPLINE
  5
130
330
1F
100
AcDbEntity
  8
0
  6
HIDDEN
 62
     7
370
     0
100
AcDbSpline
210
0.0
220
0.0
230
1.0
 70
     8
 71
     3
 72
    20
 73
    16
 74
     0
 42
0.00000001
 43
0.00000001
 40
0.0
 40
0.0
 40
0.0
 40
0.0
 40
0.1119595197697403
 40
0.1774767634657198
 40
0.2490961890178592
 40
0.329842231515121
 40
0.3986125823958296
 40
0.4998893016460016
 40
0.6138510292917251
 40
0.6790150176695212
 40
0.7495394203319203
 40
0.8296829944361284
 40
0.898124628546775
 40
0.9995320175861881
 40
0.9999999999999999
 40
0.9999999999999999
 40
0.9999999999999999
 40
0.9999999999999999
 10
76.89585411975197
 20
82.21224892512267
 30
0.0
 10
76.85253038145234
 20
82.22567824316371
 30
0.0
 10
76.7838541592743
 20
82.24696622212589
 30
0.0
 10
76.33867503322088
 20
82.35027703377096
 30
0.0
 10
75.81211674953911
 20
82.46358026382953
 30
0.0
 10
75.12669172838221
 20
82.58651313162063
 30
0.0
 10
74.23337433107373
 20
82.70854759080287
 30
0.0
 10
73.12001494399425
 20
82.82628389858932
 30
0.0
 10
72.0092408634163
 20
82.83825940095502
 30
0.0
 10
71.12449256149968
 20
82.81120111082588
 30
0.0
 10
70.45729596678596
 20
82.76326904642289
 30
0.0
 10
69.91602346450591
 20
82.70697553406205
 30
0.0
 10
69.52844350548413
 20
82.66189262342833
 30
0.0
 10
69.33450698546581
 20
82.62301944872274
 30
0.0
 10
69.39760944567735
 20
82.63372550596178
 30
0.0
 10
69.39789931791266
 20
82.6337746861163
 30
0.0
  0
LINE
  5
131
330
1F
100
AcDbEntity
  8
0
  6
HIDDEN
 62
     7
370
     0
100
AcDbLine
 10
70.3070255843
 20
82.7445808305
 30
0.0
 11
70.4908708954
 21
82.7627701729
 31
0.0
  0
LINE
  5
132
330
1F
100
AcDbEntity
  8
0
  6
HIDDEN
 62
     7
370
     0
100
AcDbLine
 10
70.4908681969
 20
128.8616457697
 30
0.0
 11
70.3167949166
 21
128.8788552956
 31
0.0
  0
SPLINE
  5
133
330
1F
100
AcDbEntity
  8
0
  6
HIDDEN
 62
     7
370
     0
100
AcDbSpline
210
0.0
220
0.0
230
1.0
 70
     8
 71
     3
 72
    20
 73
    16
 74
     0
 42
0.00000001
 43
0.00000001
 40
0.0
 40
0.0
 40
0.0
 40
0.0
 40
0.0004889684280482
 40
0.1018319933902445
 40
0.1702475582132129
 40
0.2503692056770098
 40
0.3209568221784361
 40
0.3861816196705448
 40
0.5002554836816774
 40
0.6012243489286591
 40
0.6697680558629565
 40
0.750240190758037
 40
0.8220490693851168
 40
0.8877204546109287
 40
1.0
 40
1.0
 40
1.0
 40
1.0
 10
69.39793270267427
 20
128.9906441410831
 30
0.0
 10
69.39762906167732
 20
128.9906957282333
 30
0.0
 10
69.33439314250535
 20
129.0014392078463
 30
0.0
 10
69.52759717630467
 20
128.9625832171895
 30
0.0
 10
69.91454423120305
 20
128.9175597267844
 30
0.0
 10
70.45555115453189
 20
128.8612967646912
 30
0.0
 10
71.12305141599647
 20
128.8133655720971
 30
0.0
 10
72.00887926734785
 20
128.7862921163684
 30
0.0
 10
73.11968583943464
 20
128.7981181199457
 30
0.0
 10
74.23175620545939
 20
128.9155671950996
 30
0.0
 10
75.1228565116591
 20
129.0372715833398
 30
0.0
 10
75.808340962484
 20
129.1600926289169
 30
0.0
 10
76.33632886203084
 20
129.2735308806022
 30
0.0
 10
76.78371281351488
 20
129.377271436243
 30
0.0
 10
76.85252327986588
 20
129.3986942295165
 30
0.0
 10
76.89593978717609
 20
129.4122111101611
 30
0.0
  0
LINE
  5
134
330
1F
100
AcDbEntity
  8
0
  6
HIDDEN
 62
     7
370
     0
100
AcDbLine
 10
156.5970136699
 20
90.3895929561
 30
0.0
 11
151.5970136699
 21
90.3895929561
 31
0.0
  0
LINE
  5
135
330
1F
100
AcDbEntity
  8
0
  6
HIDDEN
 62
     7
370
     0
100
AcDbLine
 10
154.0970136699
 20
121.2348924177
 30
0.0
 11
156.5970136699
 21
121.2348924177
 31
0.0
  0
LINE
  5
136
330
1F
100
AcDbEntity
  8
0
  6
HIDDEN
 62
     7
370
     0
100
AcDbLine
 10
151.5970136699
 20
121.2348924177
 30
0.0
 11
154.0970136699
 21
121.2348924177
 31
0.0
  0
LINE
  5
137
330
1F
100
AcDbEntity
  8
0
  6
HIDDEN
 62
     7
370
     0
100
AcDbLine
 10
154.0970136699
 20
112.8122426869
 30
0.0
 11
156.5970136699
 21
112.8122426869
 31
0.0
  0
LINE
  5
138
330
1F
100
AcDbEntity
  8
0
  6
HIDDEN
 62
     7
370
     0
100
AcDbLine
 10
151.5970136699
 20
112.8122426869
 30
0.0
 11
154.0970136699
 21
112.8122426869
 31
0.0
  0
LINE
  5
139
330
1F
100
AcDbEntity
  8
0
  6
HIDDEN
 62
     7
370
     0
100
AcDbLine
 10
156.5970136699
 20
98.8122426869
 30
0.0
 11
151.5970136699
 21
98.8122426869
 31
0.0
  0
SPLINE
  5
13A
330
1F
100
AcDbEntity
  8
0
  6
HIDDEN
 62
     7
370
     0
100
AcDbSpline
210
0.0
220
0.0
230
1.0
 70
    27
 71
     3
 72
     8
 73
     4
 74
     0
 42
0.00000001
 43
0.00000001
 40
0.0
 40
0.0
 40
0.0
 40
0.0
 40
1.0
 40
1.0
 40
1.0
 40
1.0
 10
196.2311859890777
 20
93.76659012851907
 30
0.0
 10
196.2256537371712
 20
93.76334963497412
 30
0.0
 10
196.2256537371712
 20
93.76334963497412
 30
0.0
 10
196.2311859890777
 20
93.76659012851907
 30
0.0
  0
SPLINE
  5
13B
330
1F
100
AcDbEntity
  8
0
  6
HIDDEN
 62
     7
370
     0
100
AcDbSpline
210
0.0
220
0.0
230
1.0
 70
    27
 71
     3
 72
     8
 73
     4
 74
     0
 42
0.00000001
 43
0.00000001
 40
0.0
 40
0.0
 40
0.0
 40
0.0
 40
1.0
 40
1.0
 40
1.0
 40
1.0
 10
196.2311859890777
 20
93.76659012851903
 30
0.0
 10
196.2404559401659
 20
93.75457866969828
 30
0.0
 10
196.2404457341516
 20
93.75459189405296
 30
0.0
 10
196.2311859890777
 20
93.76659012851907
 30
0.0
  0
LINE
  5
13C
330
1F
100
AcDbEntity
  8
0
  6
HIDDEN
 62
     7
370
     0
100
AcDbLine
 10
197.6470136699
 20
93.8122426869
 30
0.0
 11
199.1470136699
 21
93.8122426869
 31
0.0
  0
LINE
  5
13D
330
1F
100
AcDbEntity
  8
0
  6
HIDDEN
 62
     7
370
     0
100
AcDbLine
 10
196.1470136699
 20
93.8122426869
 30
0.0
 11
197.6470136699
 21
93.8122426869
 31
0.0
  0
LWPOLYLINE
  5
13E
330
1F
100
AcDbEntity
  8
0
  6
HIDDEN
 62
     7
370
     0
100
AcDbPolyline
 90
       15
 70
   128
 43
0.0
 10
199.1437944873
 20
93.8755604151
 10
199.1145966054
 20
93.9096515142
 10
199.0178921452
 20
94.0251530788
 10
198.8174546864
 20
94.2830877672
 10
198.5977015588
 20
94.6357380502
 10
198.5006782012
 20
94.8941327529
 10
198.4769763181
 20
95.1330491153
 10
198.5189492821
 20
95.3680618308
 10
198.6696637521
 20
95.7030674805
 10
198.7949969264
 20
95.9035055327
 10
198.9207957895
 20
96.0815908121
 10
199.072413441
 20
96.2801558121
 10
199.1399239983
 20
96.3649308959
 10
199.1470136699
 20
96.3737325338
 10
199.1470136699
 20
96.3737325338
  0
SPLINE
  5
13F
330
1F
100
AcDbEntity
  8
0
  6
HIDDEN
 62
     7
370
     0
100
AcDbSpline
210
0.0
220
0.0
230
1.0
 70
     8
 71
     3
 72
     9
 73
     5
 74
     0
 42
0.00000001
 43
0.00000001
 40
0.0
 40
0.0
 40
0.0
 40
0.0
 40
0.8578782661611604
 40
1.0
 40
1.0
 40
1.0
 40
1.0
 10
196.2277025834327
 20
93.85524872250986
 30
0.0
 10
196.1839207997262
 20
93.87184907264398
 30
0.0
 10
196.1328858389008
 20
93.89119954553615
 30
0.0
 10
196.1529416527793
 20
93.88433116888547
 30
0.0
 10
196.1557920198213
 20
93.88335502328721
 30
0.0
  0
SPLINE
  5
140
330
1F
100
AcDbEntity
  8
0
  6
HIDDEN
 62
     7
370
     0
100
AcDbSpline
210
0.0
220
0.0
230
1.0
 70
     8
 71
     3
 72
    17
 73
    13
 74
     0
 42
0.00000001
 43
0.00000001
 40
0.0
 40
0.0
 40
0.0
 40
0.0
 40
0.1263225957885357
 40
0.2517573186472423
 40
0.3532748327458182
 40
0.4234157276009014
 40
0.4939618323526473
 40
0.5823085844742518
 40
0.718759672898892
 40
0.8578865023617115
 40
0.9536613334113923
 40
0.9999999999999999
 40
0.9999999999999999
 40
0.9999999999999999
 40
0.9999999999999999
 10
196.2277025834327
 20
93.85524872250983
 30
0.0
 10
196.2837147881825
 20
93.92726273132605
 30
0.0
 10
196.3953455094426
 20
94.07078459019414
 30
0.0
 10
196.6099764005067
 20
94.38307539065927
 30
0.0
 10
196.7660650061813
 20
94.69163314035387
 30
0.0
 10
196.8307558778381
 20
94.98396859065532
 30
0.0
 10
196.7996705400421
 20
95.26899143765182
 30
0.0
 10
196.6574728630597
 20
95.59163789438826
 30
0.0
 10
196.4306231367286
 20
95.91452571567179
 30
0.0
 10
196.2399259633565
 20
96.14762581617859
 30
0.0
 10
196.1488973214668
 20
96.25368465430304
 30
0.0
 10
196.1553193159878
 20
96.24620208924362
 30
0.0
 10
196.1574133230166
 20
96.2437622640808
 30
0.0
  0
SPLINE
  5
141
330
1F
100
AcDbEntity
  8
0
  6
HIDDEN
 62
     7
370
     0
100
AcDbSpline
210
0.0
220
0.0
230
1.0
 70
     8
 71
     3
 72
    22
 73
    18
 74
     0
 42
0.00000001
 43
0.00000001
 40
0.0
 40
0.0
 40
0.0
 40
0.0
 40
0.0836965930242281
 40
0.1670177960041928
 40
0.2243782043929424
 40
0.283380834661931
 40
0.342058377304076
 40
0.4022069630162757
 40
0.4682450800091867
 40
0.5349527300534715
 40
0.5919667990292407
 40
0.6922718949562267
 40
0.7987371056483205
 40
0.8950805466715749
 40
0.9428649521337029
 40
0.9925617047372649
 40
1.0
 40
1.0
 40
1.0
 40
1.0
 10
199.1470136698891
 20
115.2507528399666
 30
0.0
 10
199.1388118493601
 20
115.2608690637152
 30
0.0
 10
199.1224449945277
 20
115.2810561386407
 30
0.0
 10
199.0178732921865
 20
115.4130650864211
 30
0.0
 10
198.9029031671349
 20
115.5658063598503
 30
0.0
 10
198.7900833096482
 20
115.7252725282553
 30
0.0
 10
198.6733441598886
 20
115.9087465517878
 30
0.0
 10
198.5612623357366
 20
116.1223111542461
 30
0.0
 10
198.47539290386
 20
116.3745562906982
 30
0.0
 10
198.4709589232642
 20
116.6469997487517
 30
0.0
 10
198.5618878279483
 20
116.9439567002879
 30
0.0
 10
198.7379162475679
 20
117.2398142136096
 30
0.0
 10
198.9422501226259
 20
117.5091823240401
 30
0.0
 10
199.0756663951808
 20
117.6692079852717
 30
0.0
 10
199.1301288364072
 20
117.7330769293327
 30
0.0
 10
199.1532011226473
 20
117.7599049370956
 30
0.0
 10
199.1448780510427
 20
117.7501897579766
 30
0.0
 10
199.1437944873388
 20
117.7489249586369
 30
0.0
  0
SPLINE
  5
142
330
1F
100
AcDbEntity
  8
0
  6
HIDDEN
 62
     7
370
     0
100
AcDbSpline
210
0.0
220
0.0
230
1.0
 70
     8
 71
     3
 72
     9
 73
     5
 74
     0
 42
0.00000001
 43
0.00000001
 40
0.0
 40
0.0
 40
0.0
 40
0.0
 40
0.7583660542393884
 40
1.0
 40
1.0
 40
1.0
 40
1.0
 10
196.1557920198213
 20
117.7411303504939
 30
0.0
 10
196.1598412114271
 20
117.7409635472093
 30
0.0
 10
196.1651805743682
 20
117.7407435963245
 30
0.0
 10
196.2155351972247
 20
117.7636916278632
 30
0.0
 10
196.2277025834327
 20
117.7692366512714
 30
0.0
  0
SPLINE
  5
143
330
1F
100
AcDbEntity
  8
0
  6
HIDDEN
 62
     7
370
     0
100
AcDbSpline
210
0.0
220
0.0
230
1.0
 70
     8
 71
     3
 72
    18
 73
    14
 74
     0
 42
0.00000001
 43
0.00000001
 40
0.0
 40
0.0
 40
0.0
 40
0.0
 40
0.0497226809531394
 40
0.1396899074691977
 40
0.236694092865627
 40
0.3526984891168893
 40
0.4655348618063525
 40
0.5364304697075245
 40
0.6078112688816868
 40
0.6935784526813623
 40
0.8319885370686939
 40
0.9754282258213403
 40
1.0
 40
1.0
 40
1.0
 40
1.0
 10
196.1574133230166
 20
115.3807231097003
 30
0.0
 10
196.155545575397
 20
115.378543995157
 30
0.0
 10
196.1502983625124
 20
115.3724220342514
 30
0.0
 10
196.2265161686511
 20
115.4613322344274
 30
0.0
 10
196.3683019770387
 20
115.6334603614442
 30
0.0
 10
196.563337268453
 20
115.892690196308
 30
0.0
 10
196.7378906136087
 20
116.1880452936871
 30
0.0
 10
196.8255066571722
 20
116.4880368533478
 30
0.0
 10
196.8142791822759
 20
116.7742842318836
 30
0.0
 10
196.6892373333343
 20
117.109687203502
 30
0.0
 10
196.4698799029829
 20
117.4529939486816
 30
0.0
 10
196.3013740744799
 20
117.6752234404473
 30
0.0
 10
196.2371023591795
 20
117.7572414671585
 30
0.0
 10
196.2277025834327
 20
117.7692366512713
 30
0.0
  0
LINE
  5
144
330
1F
100
AcDbEntity
  8
0
  6
HIDDEN
 62
     7
370
     0
100
AcDbLine
 10
199.1470136699
 20
118.3122426869
 30
0.0
 11
196.1470136699
 21
118.3122426869
 31
0.0
  0
LINE
  5
145
330
1F
100
AcDbEntity
  8
0
  6
HIDDEN
 62
     7
370
     0
100
AcDbLine
 10
196.1334032331
 20
115.3691579165
 30
0.0
 11
196.2277025834
 21
117.7692366513
 31
0.0
  0
LINE
  5
146
330
1F
100
AcDbEntity
  8
0
  6
HIDDEN
 62
     7
370
     0
100
AcDbLine
 10
196.1334032331
 20
96.2553274573
 30
0.0
 11
196.2277025834
 21
93.8552487225
 31
0.0
  0
LINE
  5
147
330
1F
100
AcDbEntity
  8
0
  6
HIDDEN
 62
     7
370
     0
100
AcDbLine
 10
196.2311859891
 20
93.7665901285
 30
0.0
 11
196.2315527725
 21
93.7572548667
 31
0.0
  0
SPLINE
  5
148
330
1F
100
AcDbEntity
  8
0
  6
HIDDEN
 62
     7
370
     0
100
AcDbSpline
210
0.0
220
0.0
230
1.0
 70
     8
 71
     3
 72
     8
 73
     4
 74
     0
 42
0.00000001
 43
0.00000001
 40
0.0
 40
0.0
 40
0.0
 40
0.0
 40
0.0001590976916942
 40
0.0001590976916942
 40
0.0001590976916942
 40
0.0001590976916942
 10
51.53218167601825
 20
90.01075225085891
 30
0.0
 10
51.48713020654331
 20
89.982773367183
 30
0.0
 10
51.44207416915811
 20
89.95480183745545
 30
0.0
 10
51.39701366988906
 20
89.92683749875013
 30
0.0
  0
SPLINE
  5
149
330
1F
100
AcDbEntity
  8
0
  6
HIDDEN
 62
     7
370
     0
100
AcDbSpline
210
0.0
220
0.0
230
1.0
 70
     8
 71
     3
 72
    11
 73
     7
 74
     0
 42
0.00000001
 43
0.00000001
 40
0.0
 40
0.0
 40
0.0
 40
0.0
 40
0.0008212909311266
 40
0.0008212909311266
 40
0.0008212909311266
 40
0.0016428257242681
 40
0.0016428257242681
 40
0.0016428257242681
 40
0.0016428257242681
 10
51.39701366988904
 20
89.92683749875013
 30
0.0
 10
51.20586864840649
 20
89.8835513099408
 30
0.0
 10
51.01445031272983
 20
89.84261480034748
 30
0.0
 10
50.82280423806872
 20
89.80401302900562
 30
0.0
 10
50.63110115652711
 20
89.76539977521327
 30
0.0
 10
50.43915603324184
 20
89.72911956597282
 30
0.0
 10
50.24701366988907
 20
89.69515265966766
 30
0.0
  0
LINE
  5
14A
330
1F
100
AcDbEntity
  8
0
  6
HIDDEN
 62
     7
370
     0
100
AcDbLine
 10
98.2370136699
 20
125.9481093184
 30
0.0
 11
98.2370136699
 21
125.6622426869
 31
0.0
  0
LINE
  5
14B
330
1F
100
AcDbEntity
  8
0
  6
HIDDEN
 62
     7
370
     0
100
AcDbLine
 10
102.0570136699
 20
125.9933886995
 30
0.0
 11
102.0570136699
 21
125.6622426869
 31
0.0
  0
LINE
  5
14C
330
1F
100
AcDbEntity
  8
0
  6
HIDDEN
 62
     7
370
     0
100
AcDbLine
 10
103.5389465014
 20
130.2709323493
 30
0.0
 11
103.5389465014
 21
125.6622426869
 31
0.0
  0
SPLINE
  5
14D
330
1F
100
AcDbEntity
  8
0
  6
HIDDEN
 62
     7
370
     0
100
AcDbSpline
210
0.0
220
0.0
230
1.0
 70
     8
 71
     3
 72
    24
 73
    20
 74
     0
 42
0.00000001
 43
0.00000001
 40
0.0
 40
0.0
 40
0.0
 40
0.0
 40
0.2500000000000047
 40
0.2500000000000047
 40
0.3750000000000068
 40
0.3750000000000068
 40
0.437500000000008
 40
0.437500000000008
 40
0.4687500000000068
 40
0.4687500000000068
 40
0.5000000000000056
 40
0.5000000000000056
 40
0.5625000000000058
 40
0.5625000000000058
 40
0.625000000000006
 40
0.625000000000006
 40
0.7500000000000029
 40
0.7500000000000029
 40
1.0
 40
1.0
 40
1.0
 40
1.0
 10
50.30967704461245
 20
86.13769014210983
 30
0.0
 10
50.32343016328267
 20
86.2083402001001
 30
0.0
 10
50.34120273068851
 20
86.27493831286502
 30
0.0
 10
50.39345382224389
 20
86.34903633309824
 30
0.0
 10
50.41448889782544
 20
86.37029414025977
 30
0.0
 10
50.46738930545387
 20
86.37844006640601
 30
0.0
 10
50.48849497833177
 20
86.37750026301026
 30
0.0
 10
50.53454714700973
 20
86.35648427143295
 30
0.0
 10
50.55291761899309
 20
86.34557546532534
 30
0.0
 10
50.59446925405881
 20
86.31294055437797
 30
0.0
 10
50.61703592681571
 20
86.29144857400661
 30
0.0
 10
50.67981694327577
 20
86.2229826304203
 30
0.0
 10
50.71294670424364
 20
86.17690817221522
 30
0.0
 10
50.76986439072867
 20
86.09190028388053
 30
0.0
 10
50.79405041623244
 20
86.05161998269915
 30
0.0
 10
50.8592583666122
 20
85.93668375623321
 30
0.0
 10
50.89397442680346
 20
85.86610077108618
 30
0.0
 10
50.98718969713434
 20
85.66189501200756
 30
0.0
 10
51.03286223249503
 20
85.53899662968018
 30
0.0
 10
51.07116731599356
 20
85.42212335329262
 30
0.0
  0
SPLINE
  5
14E
330
1F
100
AcDbEntity
  8
0
  6
HIDDEN
 62
     7
370
     0
100
AcDbSpline
210
0.0
220
0.0
230
1.0
 70
     8
 71
     3
 72
    11
 73
     7
 74
     0
 42
0.00000001
 43
0.00000001
 40
0.0
 40
0.0
 40
0.0
 40
0.0
 40
0.0005781862223847
 40
0.0005781862223847
 40
0.0005781862223847
 40
0.0011563724723663
 40
0.0011563724723663
 40
0.0011563724723663
 40
0.0011563724723663
 10
51.24701366988932
 20
118.4523850005033
 30
0.0
 10
51.080353115614
 20
118.5169145120081
 30
0.0
 10
50.91368981870762
 20
118.5814172159423
 30
0.0
 10
50.74702323487731
 20
118.6459036644744
 30
0.0
 10
50.58035664261817
 20
118.7103901162678
 30
0.0
 10
50.41368677699209
 20
118.7748601250977
 30
0.0
 10
50.24701366988904
 20
118.8393158919346
 30
0.0
  0
SPLINE
  5
14F
330
1F
100
AcDbEntity
  8
0
  6
HIDDEN
 62
     7
370
     0
100
AcDbSpline
210
0.0
220
0.0
230
1.0
 70
     8
 71
     3
 72
     8
 73
     4
 74
     0
 42
0.00000001
 43
0.00000001
 40
0.0
 40
0.0
 40
0.0
 40
0.0
 40
0.0011557494192644
 40
0.0011557494192644
 40
0.0011557494192644
 40
0.0011557494192644
 10
50.24701366988903
 20
92.78502082443978
 30
0.0
 10
50.58034747990327
 20
92.91664510070544
 30
0.0
 10
50.91368109156594
 20
93.04846201434694
 30
0.0
 10
51.24701366988903
 20
93.18046545657381
 30
0.0
  0
SPLINE
  5
150
330
1F
100
AcDbEntity
  8
0
  6
HIDDEN
 62
     7
370
     0
100
AcDbSpline
210
0.0
220
0.0
230
1.0
 70
     8
 71
     3
 72
    11
 73
     7
 74
     0
 42
0.00000001
 43
0.00000001
 40
0.0000000000000006
 40
0.0000000000000006
 40
0.0000000000000006
 40
0.0000000000000006
 40
0.0005780486062644
 40
0.0005780486062644
 40
0.0005780486062644
 40
0.0011560973513878
 40
0.0011560973513878
 40
0.0011560973513878
 40
0.0011560973513878
 10
50.24701366988904
 20
115.7930571801779
 30
0.0
 10
50.41368352593424
 20
115.7306853187818
 30
0.0
 10
50.58035123001866
 20
115.6683314585992
 30
0.0
 10
50.74701753447232
 20
115.6060118985244
 30
0.0
 10
50.91368387516606
 20
115.5436923248988
 30
0.0
 10
51.08034883179467
 20
115.4814071206868
 30
0.0
 10
51.24701366988903
 20
115.4191820002223
 30
0.0
  0
SPLINE
  5
151
330
1F
100
AcDbEntity
  8
0
  6
HIDDEN
 62
     7
370
     0
100
AcDbSpline
210
0.0
220
0.0
230
1.0
 70
     8
 71
     3
 72
    11
 73
     7
 74
     0
 42
0.00000001
 43
0.00000001
 40
0.0
 40
0.0
 40
0.0
 40
0.0
 40
0.000578240158334
 40
0.000578240158334
 40
0.000578240158334
 40
0.0011564805960605
 40
0.0011564805960605
 40
0.0011564805960605
 40
0.0011564805960605
 10
51.24701366988903
 20
96.21141590207951
 30
0.0
 10
51.0803627195403
 20
96.14799044414842
 30
0.0
 10
50.91370312695774
 20
96.0846349206268
 30
0.0
 10
50.74703607452918
 20
96.02133733641391
 30
0.0
 10
50.58036893796539
 20
95.95803972024771
 30
0.0
 10
50.41369433051925
 20
95.89479992544754
 30
0.0
 10
50.24701366988904
 20
95.83159991895224
 30
0.0
  0
CIRCLE
  5
152
330
1F
100
AcDbEntity
  8
0
  6
HIDDEN
 62
     7
370
     0
100
AcDbCircle
 10
89.1470136699
 20
105.8122426869
 30
0.0
 40
5.0
  0
LINE
  5
153
330
1F
100
AcDbEntity
  8
0
  6
HIDDEN
 62
     7
370
     0
100
AcDbLine
 10
242.065636633
 20
95.5090049847
 30
0.0
 11
242.0735263599
 21
95.3081980247
 31
0.0
  0
LINE
  5
154
330
1F
100
AcDbEntity
  8
0
  6
HIDDEN
 62
     7
370
     0
100
AcDbLine
 10
241.9557469126
 20
98.3058851334
 30
0.0
 11
242.065636633
 21
95.5090049847
 31
0.0
  0
LINE
  5
155
330
1F
100
AcDbEntity
  8
0
  6
HIDDEN
 62
     7
370
     0
100
AcDbLine
 10
236.7316988291
 20
95.2994339976
 30
0.0
 11
236.739588556
 21
95.0986270376
 31
0.0
  0
LINE
  5
156
330
1F
100
AcDbEntity
  8
0
  6
HIDDEN
 62
     7
370
     0
100
AcDbLine
 10
236.6218091087
 20
98.0963141463
 30
0.0
 11
236.7316988291
 21
95.2994339976
 31
0.0
  0
LINE
  5
157
330
1F
100
AcDbEntity
  8
0
  6
HIDDEN
 62
     7
370
     0
100
AcDbLine
 10
236.2150843121
 20
95.7124829545
 30
0.0
 11
236.22034413
 21
95.5786116479
 31
0.0
  0
LINE
  5
158
330
1F
100
AcDbEntity
  8
0
  6
HIDDEN
 62
     7
370
     0
100
AcDbLine
 10
236.1418244985
 20
97.5770697203
 30
0.0
 11
236.2150843121
 21
95.7124829545
 31
0.0
  0
LINE
  5
159
330
1F
100
AcDbEntity
  8
0
  6
HIDDEN
 62
     7
370
     0
100
AcDbLine
 10
242.1285811864
 20
98.0319593884
 30
0.0
 11
242.1470136699
 21
97.5628213558
 31
0.0
  0
LINE
  5
15A
330
1F
100
AcDbEntity
  8
0
  6
HIDDEN
 62
     7
370
     0
100
AcDbLine
 10
240.1780004592
 20
96.7348799471
 30
0.0
 11
240.207445321
 21
95.98545817
 31
0.0
  0
LINE
  5
15B
330
1F
100
AcDbEntity
  8
0
  6
HIDDEN
 62
     7
370
     0
100
AcDbLine
 10
240.1780004592
 20
96.7348799471
 30
0.0
 11
240.1485555974
 21
97.4843017243
 31
0.0
  0
LINE
  5
15C
330
1F
100
AcDbEntity
  8
0
  6
HIDDEN
 62
     7
370
     0
100
AcDbLine
 10
240.1780004592
 20
96.7348799471
 30
0.0
 11
242.1764585317
 21
96.8133995787
 31
0.0
  0
LINE
  5
15D
330
1F
100
AcDbEntity
  8
0
  6
HIDDEN
 62
     7
370
     0
100
AcDbLine
 10
240.207445321
 20
95.98545817
 30
0.0
 11
242.2059033935
 21
96.0639778015
 31
0.0
  0
LINE
  5
15E
330
1F
100
AcDbEntity
  8
0
  6
HIDDEN
 62
     7
370
     0
100
AcDbLine
 10
240.1485555974
 20
97.4843017243
 30
0.0
 11
242.1470136699
 21
97.5628213558
 31
0.0
  0
LINE
  5
15F
330
1F
100
AcDbEntity
  8
0
  6
HIDDEN
 62
     7
370
     0
100
AcDbLine
 10
242.0146366363
 20
116.3186011326
 30
0.0
 11
241.896857189
 21
113.3209140239
 31
0.0
  0
LINE
  5
160
330
1F
100
AcDbEntity
  8
0
  6
HIDDEN
 62
     7
370
     0
100
AcDbLine
 10
236.6806988324
 20
116.5281721197
 30
0.0
 11
236.5629193851
 21
113.530485011
 31
0.0
  0
LINE
  5
161
330
1F
100
AcDbEntity
  8
0
  6
HIDDEN
 62
     7
370
     0
100
AcDbLine
 10
242.1470136699
 20
115.5628213558
 30
0.0
 11
242.0696914628
 21
113.594839769
 31
0.0
  0
LINE
  5
162
330
1F
100
AcDbEntity
  8
0
  6
HIDDEN
 62
     7
370
     0
100
AcDbLine
 10
236.1614544064
 20
116.0481875095
 30
0.0
 11
236.0829347749
 21
114.049729437
 31
0.0
  0
LINE
  5
163
330
1F
100
AcDbEntity
  8
0
  6
HIDDEN
 62
     7
370
     0
100
AcDbLine
 10
240.1191107356
 20
114.8919192102
 30
0.0
 11
240.0896658738
 21
114.142497433
 31
0.0
  0
LINE
  5
164
330
1F
100
AcDbEntity
  8
0
  6
HIDDEN
 62
     7
370
     0
100
AcDbLine
 10
240.1191107356
 20
114.8919192102
 30
0.0
 11
242.1175688081
 21
114.8133995787
 31
0.0
  0
LINE
  5
165
330
1F
100
AcDbEntity
  8
0
  6
HIDDEN
 62
     7
370
     0
100
AcDbLine
 10
240.1485555974
 20
115.6413409874
 30
0.0
 11
240.1191107356
 21
114.8919192102
 31
0.0
  0
LINE
  5
166
330
1F
100
AcDbEntity
  8
0
  6
HIDDEN
 62
     7
370
     0
100
AcDbLine
 10
240.1485555974
 20
115.6413409874
 30
0.0
 11
242.1470136699
 21
115.5628213558
 31
0.0
  0
LINE
  5
167
330
1F
100
AcDbEntity
  8
0
  6
HIDDEN
 62
     7
370
     0
100
AcDbLine
 10
240.0896658738
 20
114.142497433
 30
0.0
 11
242.0881239463
 21
114.0639778015
 31
0.0
  0
LINE
  5
168
330
1F
100
AcDbEntity
  8
0
  6
HIDDEN
 62
     7
370
     0
100
AcDbLine
 10
195.6470136699
 20
100.8122426869
 30
0.0
 11
196.1470136699
 21
101.3122426869
 31
0.0
  0
LINE
  5
169
330
1F
100
AcDbEntity
  8
0
  6
HIDDEN
 62
     7
370
     0
100
AcDbLine
 10
196.1470136699
 20
110.3122426869
 30
0.0
 11
195.6470136699
 21
110.8122426869
 31
0.0
  0
LINE
  5
16A
330
1F
100
AcDbEntity
  8
0
  6
HIDDEN
 62
     7
370
     0
100
AcDbLine
 10
180.1470136699
 20
100.8122426869
 30
0.0
 11
195.6470136699
 21
100.8122426869
 31
0.0
  0
LINE
  5
16B
330
1F
100
AcDbEntity
  8
0
  6
HIDDEN
 62
     7
370
     0
100
AcDbLine
 10
195.6470136699
 20
110.8122426869
 30
0.0
 11
180.1470136699
 21
110.8122426869
 31
0.0
  0
LINE
  5
16C
330
1F
100
AcDbEntity
  8
0
  6
HIDDEN
 62
     7
370
     0
100
AcDbLine
 10
180.1470136699
 20
110.8122426869
 30
0.0
 11
179.6470136699
 21
110.3122426869
 31
0.0
  0
LINE
  5
16D
330
1F
100
AcDbEntity
  8
0
  6
HIDDEN
 62
     7
370
     0
100
AcDbLine
 10
179.6470136699
 20
101.3122426869
 30
0.0
 11
180.1470136699
 21
100.8122426869
 31
0.0
  0
LINE
  5
16E
330
1F
100
AcDbEntity
  8
0
  6
HIDDEN
 62
     7
370
     0
100
AcDbLine
 10
196.1470136699
 20
101.3122426869
 30
0.0
 11
199.6470136699
 21
101.3122426869
 31
0.0
  0
LINE
  5
16F
330
1F
100
AcDbEntity
  8
0
  6
HIDDEN
 62
     7
370
     0
100
AcDbLine
 10
199.6470136699
 20
110.3122426869
 30
0.0
 11
196.1470136699
 21
110.3122426869
 31
0.0
  0
LINE
  5
170
330
1F
100
AcDbEntity
  8
0
  6
HIDDEN
 62
     7
370
     0
100
AcDbLine
 10
185.6470136698
 20
103.3122426869
 30
0.0
 11
193.6470136699
 21
103.3122426869
 31
0.0
  0
LINE
  5
171
330
1F
100
AcDbEntity
  8
0
  6
HIDDEN
 62
     7
370
     0
100
AcDbLine
 10
193.6470136699
 20
108.3122426869
 30
0.0
 11
185.6470136698
 21
108.3122426869
 31
0.0
  0
LINE
  5
172
330
1F
100
AcDbEntity
  8
0
  6
HIDDEN
 62
     7
370
     0
100
AcDbLine
 10
86.1470136699
 20
120.1129077909
 30
0.0
 11
86.1470136699
 21
118.2061833298
 31
0.0
  0
LINE
  5
173
330
1F
100
AcDbEntity
  8
0
  6
HIDDEN
 62
     7
370
     0
100
AcDbLine
 10
94.1470136699
 20
118.2061833298
 30
0.0
 11
94.1470136699
 21
120.112187147
 31
0.0
  0
LINE
  5
174
330
1F
100
AcDbEntity
  8
0
  6
HIDDEN
 62
     7
370
     0
100
AcDbLine
 10
82.1470136699
 20
80.4883115409
 30
0.0
 11
82.2411744454
 21
81.1583002721
 31
0.0
  0
LINE
  5
175
330
1F
100
AcDbEntity
  8
0
  6
HIDDEN
 62
     7
370
     0
100
AcDbLine
 10
82.2411744454
 20
130.4661851016
 30
0.0
 11
82.1470136699
 21
131.1361738329
 31
0.0
  0
ARC
  5
176
330
1F
100
AcDbEntity
  8
0
  6
HIDDEN
 62
     7
370
     0
100
AcDbCircle
 10
81.6470069172
 20
81.2418050725
 30
0.0
 40
0.6000067526677242
100
AcDbArc
 50
352.0
 51
0.0
  0
ARC
  5
177
330
1F
100
AcDbEntity
  8
0
  6
HIDDEN
 62
     7
370
     0
100
AcDbCircle
 10
81.6470069172
 20
81.2418050725
 30
0.0
 40
0.6000067526677242
100
AcDbArc
 50
0.0
 51
33.5571153394
  0
ARC
  5
178
330
1F
100
AcDbEntity
  8
0
  6
HIDDEN
 62
     7
370
     0
100
AcDbCircle
 10
81.6470069172
 20
130.3826803013
 30
0.0
 40
0.6000067526677222
100
AcDbArc
 50
348.75
 51
8.0
  0
LWPOLYLINE
  5
179
330
1F
100
AcDbEntity
  8
0
  6
HIDDEN
 62
     7
370
     0
100
AcDbPolyline
 90
        3
 70
   128
 43
0.0
 10
82.2354847084
 20
130.2656247907
 10
82.2013408754
 20
130.1530676577
 10
82.1470136699
 20
130.0510157862
  0
LINE
  5
17A
330
1F
100
AcDbEntity
  8
0
  6
HIDDEN
 62
     7
370
     0
100
AcDbLine
 10
82.2470136699
 20
81.2418050725
 30
0.0
 11
82.2470136699
 21
130.3826803013
 31
0.0
  0
LINE
  5
17B
330
1F
100
AcDbEntity
  8
0
  6
HIDDEN
 62
     7
370
     0
100
AcDbLine
 10
65.2294492352
 20
85.8122426869
 30
0.0
 11
69.4001310511
 21
85.8122426869
 31
0.0
  0
LINE
  5
17C
330
1F
100
AcDbEntity
  8
0
  6
HIDDEN
 62
     7
370
     0
100
AcDbLine
 10
69.4001310511
 20
125.8122426869
 30
0.0
 11
65.2294492352
 21
125.8122426869
 31
0.0
  0
ARC
  5
17D
330
1F
100
AcDbEntity
  8
0
  6
HIDDEN
 62
     7
370
     0
100
AcDbCircle
 10
65.2294492352
 20
86.4122426869
 30
0.0
 40
0.6000000000000085
100
AcDbArc
 50
210.0
 51
270.0
  0
ARC
  5
17E
330
1F
100
AcDbEntity
  8
0
  6
HIDDEN
 62
     7
370
     0
100
AcDbCircle
 10
65.2294492352
 20
125.2122426869
 30
0.0
 40
0.6000000000000084
100
AcDbArc
 50
90.0
 51
150.0
  0
ARC
  5
17F
330
1F
100
AcDbEntity
  8
0
  6
HIDDEN
 62
     7
370
     0
100
AcDbCircle
 10
75.9020156715
 20
93.8122426869
 30
0.0
 40
7.999999999999989
100
AcDbArc
 50
277.1234766433
 51
321.3178125465
  0
ARC
  5
180
330
1F
100
AcDbEntity
  8
0
  6
HIDDEN
 62
     7
370
     0
100
AcDbCircle
 10
75.9020156715
 20
117.8122426869
 30
0.0
 40
8.000000000000004
100
AcDbArc
 50
38.6821874535
 51
82.8557416614
  0
LINE
  5
181
330
1F
100
AcDbEntity
  8
0
  6
HIDDEN
 62
     7
370
     0
100
AcDbLine
 10
64.7098339929
 20
125.5122426869
 30
0.0
 11
63.1509882661
 21
122.8122426869
 31
0.0
  0
LINE
  5
182
330
1F
100
AcDbEntity
  8
0
  6
HIDDEN
 62
     7
370
     0
100
AcDbLine
 10
63.1509882661
 20
88.8122426869
 30
0.0
 11
64.7098339929
 21
86.1122426869
 31
0.0
  0
LINE
  5
183
330
1F
100
AcDbEntity
  8
0
  6
HIDDEN
 62
     7
370
     0
100
AcDbLine
 10
86.1470136699
 20
133.0919089248
 30
0.0
 11
86.1470136699
 21
129.7578451015
 31
0.0
  0
LINE
  5
184
330
1F
100
AcDbEntity
  8
0
  6
HIDDEN
 62
     7
370
     0
100
AcDbLine
 10
94.1470136699
 20
129.7578451015
 30
0.0
 11
94.1470136699
 21
133.0865765461
 31
0.0
  0
ARC
  5
185
330
1F
100
AcDbEntity
  8
0
  6
HIDDEN
 62
     7
370
     0
100
AcDbCircle
 10
90.5970136699
 20
90.0872426869
 30
0.0
 40
1.500000000000009
100
AcDbArc
 50
238.2116693829
 51
0.0
  0
ARC
  5
186
330
1F
100
AcDbEntity
  8
0
  6
HIDDEN
 62
     7
370
     0
100
AcDbCircle
 10
90.5970136699
 20
121.5372426869
 30
0.0
 40
1.5
100
AcDbArc
 50
0.0
 51
121.7883306171
  0
LINE
  5
187
330
1F
100
AcDbEntity
  8
0
  6
HIDDEN
 62
     7
370
     0
100
AcDbLine
 10
60.3470136699
 20
88.8122426869
 30
0.0
 11
63.1509882661
 21
88.8122426869
 31
0.0
  0
LINE
  5
188
330
1F
100
AcDbEntity
  8
0
  6
HIDDEN
 62
     7
370
     0
100
AcDbLine
 10
63.1509882661
 20
122.8122426869
 30
0.0
 11
56.3470136699
 21
122.8122426869
 31
0.0
  0
LINE
  5
189
330
1F
100
AcDbEntity
  8
0
  6
HIDDEN
 62
     7
370
     0
100
AcDbLine
 10
82.1470136699
 20
88.8122426869
 30
0.0
 11
89.8068396384
 21
88.8122426869
 31
0.0
  0
LINE
  5
18A
330
1F
100
AcDbEntity
  8
0
  6
HIDDEN
 62
     7
370
     0
100
AcDbLine
 10
89.8068396384
 20
122.8122426869
 30
0.0
 11
82.1470136699
 21
122.8122426869
 31
0.0
  0
LINE
  5
18B
330
1F
100
AcDbEntity
  8
0
  6
HIDDEN
 62
     7
370
     0
100
AcDbLine
 10
242.1324641978
 20
95.4202204288
 30
0.0
 11
242.1470136699
 21
95.6610236702
 31
0.0
  0
LINE
  5
18C
330
1F
100
AcDbEntity
  8
0
  6
HIDDEN
 62
     7
370
     0
100
AcDbLine
 10
100.9470136699
 20
96.3122426869
 30
0.0
 11
103.9470136699
 21
96.3122426869
 31
0.0
  0
LINE
  5
18D
330
1F
100
AcDbEntity
  8
0
  6
HIDDEN
 62
     7
370
     0
100
AcDbLine
 10
103.9470136699
 20
115.3122426869
 30
0.0
 11
100.9470136699
 21
115.3122426869
 31
0.0
  0
LINE
  5
18E
330
1F
100
AcDbEntity
  8
0
  6
HIDDEN
 62
     7
370
     0
100
AcDbLine
 10
92.0970136699
 20
96.8122426869
 30
0.0
 11
92.5970136699
 21
97.3122426869
 31
0.0
  0
LINE
  5
18F
330
1F
100
AcDbEntity
  8
0
  6
HIDDEN
 62
     7
370
     0
100
AcDbLine
 10
92.5970136699
 20
114.3122426869
 30
0.0
 11
92.0970136699
 21
114.8122426869
 31
0.0
  0
LINE
  5
190
330
1F
100
AcDbEntity
  8
0
  6
HIDDEN
 62
     7
370
     0
100
AcDbLine
 10
92.5970136699
 20
97.3122426869
 30
0.0
 11
100.9470136699
 21
97.3122426869
 31
0.0
  0
LINE
  5
191
330
1F
100
AcDbEntity
  8
0
  6
HIDDEN
 62
     7
370
     0
100
AcDbLine
 10
100.9470136699
 20
114.3122426869
 30
0.0
 11
92.5970136699
 21
114.3122426869
 31
0.0
  0
LINE
  5
192
330
1F
100
AcDbEntity
  8
0
  6
HIDDEN
 62
     7
370
     0
100
AcDbLine
 10
87.0970136699
 20
137.3122426869
 30
0.0
 11
87.0970136699
 21
132.2122426869
 31
0.0
  0
ARC
  5
193
330
1F
100
AcDbEntity
  8
0
  6
HIDDEN
 62
     7
370
     0
100
AcDbCircle
 10
241.6470136699
 20
98.7755484388
 30
0.0
 40
0.5000000000000056
100
AcDbArc
 50
0.0
 51
80.0
  0
ARC
  5
194
330
1F
100
AcDbEntity
  8
0
  6
HIDDEN
 62
     7
370
     0
100
AcDbCircle
 10
241.6470136699
 20
112.848936935
 30
0.0
 40
0.5
100
AcDbArc
 50
280.0
 51
0.0
  0
LINE
  5
195
330
1F
100
AcDbEntity
  8
0
  6
HIDDEN
 62
     7
370
     0
100
AcDbLine
 10
241.7338377587
 20
112.3565330585
 30
0.0
 11
238.6470136699
 21
111.8122426869
 31
0.0
  0
LINE
  5
196
330
1F
100
AcDbEntity
  8
0
  6
HIDDEN
 62
     7
370
     0
100
AcDbLine
 10
238.6470136699
 20
99.8122426869
 30
0.0
 11
241.7338377587
 21
99.2679523153
 31
0.0
  0
LINE
  5
197
330
1F
100
AcDbEntity
  8
0
  6
HIDDEN
 62
     7
370
     0
100
AcDbLine
 10
199.1470136699
 20
99.5122426869
 30
0.0
 11
205.2522396518
 21
99.5122426869
 31
0.0
  0
LINE
  5
198
330
1F
100
AcDbEntity
  8
0
  6
HIDDEN
 62
     7
370
     0
100
AcDbLine
 10
196.0470136699
 20
99.5122426869
 30
0.0
 11
196.1501204065
 21
99.5122426869
 31
0.0
  0
LINE
  5
199
330
1F
100
AcDbEntity
  8
0
  6
HIDDEN
 62
     7
370
     0
100
AcDbLine
 10
196.1502625882
 20
112.1122426869
 30
0.0
 11
196.0470136699
 21
112.1122426869
 31
0.0
  0
LINE
  5
19A
330
1F
100
AcDbEntity
  8
0
  6
HIDDEN
 62
     7
370
     0
100
AcDbLine
 10
205.2522396518
 20
112.1122426869
 30
0.0
 11
199.1418046888
 21
112.1122426869
 31
0.0
  0
ARC
  5
19B
330
1F
100
AcDbEntity
  8
0
  6
HIDDEN
 62
     7
370
     0
100
AcDbCircle
 10
196.0470136699
 20
99.9122426869
 30
0.0
 40
0.3999999999999915
100
AcDbArc
 50
180.0
 51
270.0
  0
ARC
  5
19C
330
1F
100
AcDbEntity
  8
0
  6
HIDDEN
 62
     7
370
     0
100
AcDbCircle
 10
196.0470136699
 20
111.7122426869
 30
0.0
 40
0.3999999999999915
100
AcDbArc
 50
90.0
 51
180.0
  0
ARC
  5
19D
330
1F
100
AcDbEntity
  8
0
  6
HIDDEN
 62
     7
370
     0
100
AcDbCircle
 10
205.2522396518
 20
99.9122426869
 30
0.0
 40
0.3999999999999915
100
AcDbArc
 50
270.0
 51
290.0
  0
ARC
  5
19E
330
1F
100
AcDbEntity
  8
0
  6
HIDDEN
 62
     7
370
     0
100
AcDbCircle
 10
205.2522396518
 20
111.7122426869
 30
0.0
 40
0.3999999999999915
100
AcDbArc
 50
70.0
 51
90.0
  0
LINE
  5
19F
330
1F
100
AcDbEntity
  8
0
  6
HIDDEN
 62
     7
370
     0
100
AcDbLine
 10
205.3890477091
 20
99.5363656386
 30
0.0
 11
206.1470136699
 21
99.8122426869
 31
0.0
  0
LINE
  5
1A0
330
1F
100
AcDbEntity
  8
0
  6
HIDDEN
 62
     7
370
     0
100
AcDbLine
 10
206.1470136699
 20
111.8122426869
 30
0.0
 11
205.3890477091
 21
112.0881197352
 31
0.0
  0
LINE
  5
1A1
330
1F
100
AcDbEntity
  8
0
  6
HIDDEN
 62
     7
370
     0
100
AcDbLine
 10
206.1470136699
 20
99.8122426869
 30
0.0
 11
238.6470136699
 21
99.8122426869
 31
0.0
  0
LINE
  5
1A2
330
1F
100
AcDbEntity
  8
0
  6
HIDDEN
 62
     7
370
     0
100
AcDbLine
 10
238.6470136699
 20
111.8122426869
 30
0.0
 11
206.1470136699
 21
111.8122426869
 31
0.0
  0
LINE
  5
1A3
330
1F
100
AcDbEntity
  8
0
  6
HIDDEN
 62
     7
370
     0
100
AcDbLine
 10
195.6470136699
 20
110.8122426869
 30
0.0
 11
195.1470136699
 21
110.3122426869
 31
0.0
  0
LINE
  5
1A4
330
1F
100
AcDbEntity
  8
0
  6
HIDDEN
 62
     7
370
     0
100
AcDbLine
 10
195.1470136699
 20
101.3122426869
 30
0.0
 11
195.6470136699
 21
100.8122426869
 31
0.0
  0
LINE
  5
1A5
330
1F
100
AcDbEntity
  8
0
  6
HIDDEN
 62
     7
370
     0
100
AcDbLine
 10
165.1470136699
 20
110.3122426869
 30
0.0
 11
164.9667554842
 21
110.0122426869
 31
0.0
  0
LINE
  5
1A6
330
1F
100
AcDbEntity
  8
0
  6
HIDDEN
 62
     7
370
     0
100
AcDbLine
 10
164.9667554842
 20
101.6122426869
 30
0.0
 11
165.1470136699
 21
101.3122426869
 31
0.0
  0
LINE
  5
1A7
330
1F
100
AcDbEntity
  8
0
  6
HIDDEN
 62
     7
370
     0
100
AcDbLine
 10
165.1470136699
 20
101.3122426869
 30
0.0
 11
195.1470136699
 21
101.3122426869
 31
0.0
  0
LINE
  5
1A8
330
1F
100
AcDbEntity
  8
0
  6
HIDDEN
 62
     7
370
     0
100
AcDbLine
 10
195.1470136699
 20
110.3122426869
 30
0.0
 11
165.1470136699
 21
110.3122426869
 31
0.0
  0
LINE
  5
1A9
330
1F
100
AcDbEntity
  8
0
  6
HIDDEN
 62
     7
370
     0
100
AcDbLine
 10
77.3314515004
 20
81.7328713533
 30
0.0
 11
76.8970193509
 21
82.2119373724
 31
0.0
  0
LINE
  5
1AA
330
1F
100
AcDbEntity
  8
0
  6
HIDDEN
 62
     7
370
     0
100
AcDbLine
 10
69.3970160258
 20
82.6336253316
 30
0.0
 11
68.9145822825
 21
82.1545593561
 31
0.0
  0
LINE
  5
1AB
330
1F
100
AcDbEntity
  8
0
  6
HIDDEN
 62
     7
370
     0
100
AcDbLine
 10
68.9144603542
 20
129.4699207272
 30
0.0
 11
69.3970111052
 21
128.9908004693
 31
0.0
  0
LINE
  5
1AC
330
1F
100
AcDbEntity
  8
0
  6
HIDDEN
 62
     7
370
     0
100
AcDbLine
 10
76.8970135519
 20
129.412498247
 30
0.0
 11
77.3315559422
 21
129.8916184975
 31
0.0
  0
LINE
  5
1AD
330
1F
100
AcDbEntity
  8
0
  6
HIDDEN
 62
     7
370
     0
100
AcDbLine
 10
103.9470136699
 20
101.6122426869
 30
0.0
 11
164.9667554842
 21
101.6122426869
 31
0.0
  0
LINE
  5
1AE
330
1F
100
AcDbEntity
  8
0
  6
HIDDEN
 62
     7
370
     0
100
AcDbLine
 10
164.9667554842
 20
110.0122426869
 30
0.0
 11
103.9470136699
 21
110.0122426869
 31
0.0
  0
LINE
  5
1AF
330
1F
100
AcDbEntity
  8
0
  6
HIDDEN
 62
     7
370
     0
100
AcDbLine
 10
76.8970136699
 20
82.111877827
 30
0.0
 11
76.8970136699
 21
85.8744064963
 31
0.0
  0
LINE
  5
1B0
330
1F
100
AcDbEntity
  8
0
  6
HIDDEN
 62
     7
370
     0
100
AcDbLine
 10
69.3970136699
 20
85.8128269481
 30
0.0
 11
69.3970136699
 21
82.6339485694
 31
0.0
  0
LINE
  5
1B1
330
1F
100
AcDbEntity
  8
0
  6
HIDDEN
 62
     7
370
     0
100
AcDbLine
 10
76.8970136699
 20
125.7500788775
 30
0.0
 11
76.8970136699
 21
129.5125287477
 31
0.0
  0
LINE
  5
1B2
330
1F
100
AcDbEntity
  8
0
  6
HIDDEN
 62
     7
370
     0
100
AcDbLine
 10
69.3970136699
 20
128.990545278
 30
0.0
 11
69.3970136699
 21
125.8116584257
 31
0.0
  0
LINE
  5
1B3
330
1F
100
AcDbEntity
  8
0
  6
HIDDEN
 62
     7
370
     0
100
AcDbLine
 10
157.5970136699
 20
89.8122426869
 30
0.0
 11
156.5970136699
 21
90.3895929561
 31
0.0
  0
LINE
  5
1B4
330
1F
100
AcDbEntity
  8
0
  6
HIDDEN
 62
     7
370
     0
100
AcDbLine
 10
151.5970136699
 20
90.3895929561
 30
0.0
 11
150.5970136699
 21
89.8122426869
 31
0.0
  0
LINE
  5
1B5
330
1F
100
AcDbEntity
  8
0
  6
HIDDEN
 62
     7
370
     0
100
AcDbLine
 10
150.5970136699
 20
121.8122426869
 30
0.0
 11
151.5970136699
 21
121.2348924177
 31
0.0
  0
LINE
  5
1B6
330
1F
100
AcDbEntity
  8
0
  6
HIDDEN
 62
     7
370
     0
100
AcDbLine
 10
156.5970136699
 20
121.2348924177
 30
0.0
 11
157.5970136699
 21
121.8122426869
 31
0.0
  0
LINE
  5
1B7
330
1F
100
AcDbEntity
  8
0
  6
HIDDEN
 62
     7
370
     0
100
AcDbLine
 10
151.5970136699
 20
121.2348924177
 30
0.0
 11
151.5970136699
 21
112.8122426869
 31
0.0
  0
LINE
  5
1B8
330
1F
100
AcDbEntity
  8
0
  6
HIDDEN
 62
     7
370
     0
100
AcDbLine
 10
156.5970136699
 20
112.8122426869
 30
0.0
 11
156.5970136699
 21
121.2348924177
 31
0.0
  0
LINE
  5
1B9
330
1F
100
AcDbEntity
  8
0
  6
HIDDEN
 62
     7
370
     0
100
AcDbLine
 10
151.5970136699
 20
112.8122426869
 30
0.0
 11
154.0970136699
 21
111.3100911393
 31
0.0
  0
LINE
  5
1BA
330
1F
100
AcDbEntity
  8
0
  6
HIDDEN
 62
     7
370
     0
100
AcDbLine
 10
154.0970136699
 20
111.3100911393
 30
0.0
 11
156.5970136699
 21
112.8122426869
 31
0.0
  0
LINE
  5
1BB
330
1F
100
AcDbEntity
  8
0
  6
HIDDEN
 62
     7
370
     0
100
AcDbLine
 10
156.5970136699
 20
98.8122426869
 30
0.0
 11
154.0970136699
 21
100.3143942345
 31
0.0
  0
LINE
  5
1BC
330
1F
100
AcDbEntity
  8
0
  6
HIDDEN
 62
     7
370
     0
100
AcDbLine
 10
154.0970136699
 20
100.3143942345
 30
0.0
 11
151.5970136699
 21
98.8122426869
 31
0.0
  0
LINE
  5
1BD
330
1F
100
AcDbEntity
  8
0
  6
HIDDEN
 62
     7
370
     0
100
AcDbLine
 10
156.5970136699
 20
90.3895929561
 30
0.0
 11
156.5970136699
 21
98.8122426869
 31
0.0
  0
LINE
  5
1BE
330
1F
100
AcDbEntity
  8
0
  6
HIDDEN
 62
     7
370
     0
100
AcDbLine
 10
151.5970136699
 20
98.8122426869
 30
0.0
 11
151.5970136699
 21
90.3895929561
 31
0.0
  0
LINE
  5
1BF
330
1F
100
AcDbEntity
  8
0
  6
HIDDEN
 62
     7
370
     0
100
AcDbLine
 10
196.235581916
 20
93.7590255157
 30
0.0
 11
197.6470136699
 21
92.9109517583
 31
0.0
  0
LINE
  5
1C0
330
1F
100
AcDbEntity
  8
0
  6
HIDDEN
 62
     7
370
     0
100
AcDbLine
 10
196.1470136699
 20
93.8122426869
 30
0.0
 11
196.2290124929
 21
93.7629728234
 31
0.0
  0
LINE
  5
1C1
330
1F
100
AcDbEntity
  8
0
  6
HIDDEN
 62
     7
370
     0
100
AcDbLine
 10
197.6470136699
 20
92.9109517583
 30
0.0
 11
199.1470136699
 21
93.8122426869
 31
0.0
  0
LINE
  5
1C2
330
1F
100
AcDbEntity
  8
0
  6
HIDDEN
 62
     7
370
     0
100
AcDbLine
 10
196.1470136699
 20
93.8833550233
 30
0.0
 11
196.1470136699
 21
93.8122426869
 31
0.0
  0
LINE
  5
1C3
330
1F
100
AcDbEntity
  8
0
  6
HIDDEN
 62
     7
370
     0
100
AcDbLine
 10
196.1470136699
 20
99.5129780669
 30
0.0
 11
196.1470136699
 21
96.2437622641
 31
0.0
  0
LINE
  5
1C4
330
1F
100
AcDbEntity
  8
0
  6
HIDDEN
 62
     7
370
     0
100
AcDbLine
 10
199.1470136699
 20
96.3737325338
 30
0.0
 11
199.1470136699
 21
99.5122426869
 31
0.0
  0
LINE
  5
1C5
330
1F
100
AcDbEntity
  8
0
  6
HIDDEN
 62
     7
370
     0
100
AcDbLine
 10
199.1470136699
 20
93.8122426869
 30
0.0
 11
199.1470136699
 21
93.8755604151
 31
0.0
  0
LINE
  5
1C6
330
1F
100
AcDbEntity
  8
0
  6
HIDDEN
 62
     7
370
     0
100
AcDbLine
 10
196.1470136699
 20
115.3807231097
 30
0.0
 11
196.1470136699
 21
112.1114732835
 31
0.0
  0
LINE
  5
1C7
330
1F
100
AcDbEntity
  8
0
  6
HIDDEN
 62
     7
370
     0
100
AcDbLine
 10
196.1470136699
 20
118.3122426869
 30
0.0
 11
196.1470136699
 21
117.7411303505
 31
0.0
  0
LINE
  5
1C8
330
1F
100
AcDbEntity
  8
0
  6
HIDDEN
 62
     7
370
     0
100
AcDbLine
 10
199.1470136699
 20
117.7489249586
 30
0.0
 11
199.1470136699
 21
118.3122426869
 31
0.0
  0
LINE
  5
1C9
330
1F
100
AcDbEntity
  8
0
  6
HIDDEN
 62
     7
370
     0
100
AcDbLine
 10
199.1470136699
 20
112.1110051894
 30
0.0
 11
199.1470136699
 21
115.25075284
 31
0.0
  0
LINE
  5
1CA
330
1F
100
AcDbEntity
  8
0
  6
HIDDEN
 62
     7
370
     0
100
AcDbLine
 10
199.1439589732
 20
93.8716836179
 30
0.0
 11
242.2176881113
 21
95.564055045
 31
0.0
  0
LINE
  5
1CB
330
1F
100
AcDbEntity
  8
0
  6
HIDDEN
 62
     7
370
     0
100
AcDbLine
 10
242.1470136699
 20
98.0632071351
 30
0.0
 11
199.1470136699
 21
96.3737325338
 31
0.0
  0
LINE
  5
1CC
330
1F
100
AcDbEntity
  8
0
  6
HIDDEN
 62
     7
370
     0
100
AcDbLine
 10
199.1470136699
 20
115.25075284
 30
0.0
 11
242.1470136699
 21
113.5612782386
 31
0.0
  0
LINE
  5
1CD
330
1F
100
AcDbEntity
  8
0
  6
HIDDEN
 62
     7
370
     0
100
AcDbLine
 10
242.2176881113
 20
116.0604303288
 30
0.0
 11
199.1439589732
 21
117.7528017558
 31
0.0
  0
LINE
  5
1CE
330
1F
100
AcDbEntity
  8
0
  6
HIDDEN
 62
     7
370
     0
100
AcDbLine
 10
196.1509801065
 20
117.744336768
 30
0.0
 11
195.4319812812
 21
116.6476813083
 31
0.0
  0
LINE
  5
1CF
330
1F
100
AcDbEntity
  8
0
  6
HIDDEN
 62
     7
370
     0
100
AcDbLine
 10
195.4319812812
 20
116.6476813083
 30
0.0
 11
196.1334032331
 21
115.3691579165
 31
0.0
  0
LINE
  5
1D0
330
1F
100
AcDbEntity
  8
0
  6
HIDDEN
 62
     7
370
     0
100
AcDbLine
 10
196.1334032331
 20
96.2553274573
 30
0.0
 11
195.4319812812
 21
94.9768040655
 31
0.0
  0
LINE
  5
1D1
330
1F
100
AcDbEntity
  8
0
  6
HIDDEN
 62
     7
370
     0
100
AcDbLine
 10
195.4319812812
 20
94.9768040655
 30
0.0
 11
196.1509801065
 21
93.8801486058
 31
0.0
  0
LINE
  5
1D2
330
1F
100
AcDbEntity
  8
0
  6
HIDDEN
 62
     7
370
     0
100
AcDbLine
 10
196.2125284235
 20
93.756507398
 30
0.0
 11
196.2562325272
 21
93.7582245369
 31
0.0
  0
LINE
  5
1D3
330
1F
100
AcDbEntity
  8
0
  6
HIDDEN
 62
     7
370
     0
100
AcDbLine
 10
196.2271620101
 20
93.7639518923
 30
0.0
 11
196.2315527725
 21
93.7572548667
 31
0.0
  0
LINE
  5
1D4
330
1F
100
AcDbEntity
  8
0
  6
HIDDEN
 62
     7
370
     0
100
AcDbLine
 10
241.9557469126
 20
98.3058851334
 30
0.0
 11
236.6218091087
 21
98.0963141463
 31
0.0
  0
LINE
  5
1D5
330
1F
100
AcDbEntity
  8
0
  6
HIDDEN
 62
     7
370
     0
100
AcDbLine
 10
236.739588556
 20
95.0986270376
 30
0.0
 11
242.0735263599
 21
95.3081980247
 31
0.0
  0
LINE
  5
1D6
330
1F
100
AcDbEntity
  8
0
  6
HIDDEN
 62
     7
370
     0
100
AcDbLine
 10
236.6218091087
 20
98.0963141463
 30
0.0
 11
236.1418244985
 21
97.5770697203
 31
0.0
  0
LINE
  5
1D7
330
1F
100
AcDbEntity
  8
0
  6
HIDDEN
 62
     7
370
     0
100
AcDbLine
 10
236.22034413
 20
95.5786116479
 30
0.0
 11
236.739588556
 21
95.0986270376
 31
0.0
  0
LINE
  5
1D8
330
1F
100
AcDbEntity
  8
0
  6
HIDDEN
 62
     7
370
     0
100
AcDbLine
 10
242.0735263599
 20
95.3081980247
 30
0.0
 11
242.1324641978
 21
95.4202204288
 31
0.0
  0
LINE
  5
1D9
330
1F
100
AcDbEntity
  8
0
  6
HIDDEN
 62
     7
370
     0
100
AcDbLine
 10
242.1285811864
 20
98.0319593884
 30
0.0
 11
241.9557469126
 21
98.3058851334
 31
0.0
  0
LINE
  5
1DA
330
1F
100
AcDbEntity
  8
0
  6
HIDDEN
 62
     7
370
     0
100
AcDbLine
 10
242.0146366363
 20
116.3186011326
 30
0.0
 11
236.6806988324
 21
116.5281721197
 31
0.0
  0
LINE
  5
1DB
330
1F
100
AcDbEntity
  8
0
  6
HIDDEN
 62
     7
370
     0
100
AcDbLine
 10
236.5629193851
 20
113.530485011
 30
0.0
 11
241.896857189
 21
113.3209140239
 31
0.0
  0
LINE
  5
1DC
330
1F
100
AcDbEntity
  8
0
  6
HIDDEN
 62
     7
370
     0
100
AcDbLine
 10
241.896857189
 20
113.3209140239
 30
0.0
 11
242.0696914628
 21
113.594839769
 31
0.0
  0
LINE
  5
1DD
330
1F
100
AcDbEntity
  8
0
  6
HIDDEN
 62
     7
370
     0
100
AcDbLine
 10
242.1440301288
 20
116.0726645558
 30
0.0
 11
242.0146366363
 21
116.3186011326
 31
0.0
  0
LINE
  5
1DE
330
1F
100
AcDbEntity
  8
0
  6
HIDDEN
 62
     7
370
     0
100
AcDbLine
 10
236.6806988324
 20
116.5281721197
 30
0.0
 11
236.1614544064
 21
116.0481875095
 31
0.0
  0
LINE
  5
1DF
330
1F
100
AcDbEntity
  8
0
  6
HIDDEN
 62
     7
370
     0
100
AcDbLine
 10
236.0829347749
 20
114.049729437
 30
0.0
 11
236.5629193851
 21
113.530485011
 31
0.0
  0
DIMENSION
  5
1E0
330
1F
100
AcDbEntity
  8
VERMASSUNG
100
AcDbDimension
  2
*D1
 10
46.8536294691
 20
74.3122426869
 30
0.0
 11
46.8536294691
 21
105.8122426869
 31
0.0
 70
   160
  1
HSK A %%c<>
 71
     2
 42
-1.0
  3
SLDDIMSTYLE0
100
AcDbAlignedDimension
 13
82.4470136699
 23
137.3122426869
 33
0.0
 14
82.4470136699
 24
74.3122426869
 34
0.0
 50
90.0
100
AcDbRotatedDimension
  0
DIMENSION
  5
1ED
330
1F
100
AcDbEntity
  8
VERMASSUNG
100
AcDbDimension
  2
*D2
 10
242.1470136699
 20
137.7071505959
 30
0.0
 11
218.8970136699
 21
137.7071505959
 31
0.0
 70
   160
 71
     2
 42
-1.0
  3
SLDDIMSTYLE1
100
AcDbAlignedDimension
 13
195.6470136699
 23
111.7122426869
 33
0.0
 14
242.1470136699
 24
115.9634617036
 34
0.0
 50
0.0
100
AcDbRotatedDimension
  0
DIMENSION
  5
1F8
330
1F
100
AcDbEntity
  8
VERMASSUNG
100
AcDbDimension
  2
*D3
 10
249.9819068256
 20
111.8122426869
 30
0.0
 11
249.9819068256
 21
105.8122426869
 31
0.0
 70
   160
  1
%%c<> 
 71
     2
 42
-1.0
  3
SLDDIMSTYLE2
100
AcDbAlignedDimension
 13
238.6470136699
 23
99.8122426869
 33
0.0
 14
238.6470136699
 24
111.8122426869
 34
0.0
 50
90.0
100
AcDbRotatedDimension
  0
DIMENSION
  5
205
330
1F
100
AcDbEntity
  8
VERMASSUNG
100
AcDbDimension
  2
*D4
 10
255.9819068256
 20
117.8122426869
 30
0.0
 11
255.9819068256
 21
105.8122426869
 31
0.0
 70
   160
  1
%%c<>
 71
     2
 42
-1.0
  3
SLDDIMSTYLE3
100
AcDbAlignedDimension
 13
242.1470136699
 23
93.8122426869
 33
0.0
 14
242.1470136699
 24
117.8122426869
 34
0.0
 50
90.0
100
AcDbRotatedDimension
  0
DIMENSION
  5
211
330
1F
100
AcDbEntity
  8
VERMASSUNG
100
AcDbDimension
  2
*D5
 10
261.9819068256
 20
121.8122426869
 30
0.0
 11
261.9819068256
 21
105.8122426869
 31
0.0
 70
   160
  1
%%c<>
 71
     2
 42
-1.0
  3
SLDDIMSTYLE3
100
AcDbAlignedDimension
 13
182.1470136699
 23
89.8122426869
 33
0.0
 14
182.1470136699
 24
121.8122426869
 34
0.0
 50
90.0
100
AcDbRotatedDimension
  0
DIMENSION
  5
21C
330
1F
100
AcDbEntity
  8
VERMASSUNG
100
AcDbDimension
  2
*D6
 10
242.1470136699
 20
149.7071505959
 30
0.0
 11
162.1470136699
 21
149.7071505959
 31
0.0
 70
   160
 71
     2
 42
-1.0
  3
SLDDIMSTYLE0
100
AcDbAlignedDimension
 13
82.1470136699
 23
137.0122426869
 33
0.0
 14
242.1470136699
 24
115.9634617036
 34
0.0
100
AcDbRotatedDimension
  0
DIMENSION
  5
226
330
1F
100
AcDbEntity
  8
VERMASSUNG
100
AcDbDimension
  2
*D7
 10
242.1470136699
 20
143.7071505959
 30
0.0
 11
175.1220136699
 21
143.7071505959
 31
0.0
 70
   160
 71
     2
 42
-1.0
  3
SLDDIMSTYLE0
100
AcDbAlignedDimension
 13
108.0970136699
 23
135.6586830107
 33
0.0
 14
242.1470136699
 24
115.9501733354
 34
0.0
100
AcDbRotatedDimension
  0
DIMENSION
  5
230
330
1F
100
AcDbEntity
  8
VERMASSUNG
100
AcDbDimension
  2
*D8
 10
242.1470136699
 20
155.7071505959
 30
0.0
 11
146.1970136699
 21
155.7071505959
 31
0.0
 70
   160
 71
     2
 42
-1.0
  3
SLDDIMSTYLE0
100
AcDbAlignedDimension
 13
50.2470136699
 23
125.5029204334
 33
0.0
 14
242.1470136699
 24
115.9501733354
 34
0.0
100
AcDbRotatedDimension
  0
LINE
  5
23A
330
1F
100
AcDbEntity
  8
VERMASSUNG
  6
CENTERX2
370
     0
100
AcDbLine
 10
48.1017098275
 20
105.8122426869
 30
0.0
 11
244.112567714
 21
105.8122426869
 31
0.0
  0
OLE2FRAME
  5
23B
330
1F
100
AcDbEntity
  8
0
100
AcDbOle2Frame
 70
     2
  3
Bitmap Image
 10
13.8511154363
 20
38.264191557
 30
0.0
 11
51.6290888628
 21
31.9806341108
 31
0.0
 71
     2
 72
     0
 73
     1
 90
    12928
310
80552BED0767C5B32B40DDAF6807D121434000000000000000006FFBDDFB85D0
310
4940DDAF6807D121434000000000000000006FFBDDFB85D04940416F4BD60AFB
310
3F4000000000000000002BED0767C5B32B40416F4BD60AFB3F40000000000000
310
0000000000000100000000010000010000000100000000000100000000320000
310
D0CF11E0A1B11AE1000000000000000000000000000000003E000300FEFF0900
310
0600000000000000000000000100000001000000000000000010000002000000
310
01000000FEFFFFFF0000000000000000FFFFFFFFFFFFFFFFFFFFFFFFFFFFFFFF
310
FFFFFFFFFFFFFFFFFFFFFFFFFFFFFFFFFFFFFFFFFFFFFFFFFFFFFFFFFFFFFFFF
310
FFFFFFFFFFFFFFFFFFFFFFFFFFFFFFFFFFFFFFFFFFFFFFFFFFFFFFFFFFFFFFFF
310
FFFFFFFFFFFFFFFFFFFFFFFFFFFFFFFFFFFFFFFFFFFFFFFFFFFFFFFFFFFFFFFF
310
FFFFFFFFFFFFFFFFFFFFFFFFFFFFFFFFFFFFFFFFFFFFFFFFFFFFFFFFFFFFFFFF
310
FFFFFFFFFFFFFFFFFFFFFFFFFFFFFFFFFFFFFFFFFFFFFFFFFFFFFFFFFFFFFFFF
310
FFFFFFFFFFFFFFFFFFFFFFFFFFFFFFFFFFFFFFFFFFFFFFFFFFFFFFFFFFFFFFFF
310
FFFFFFFFFFFFFFFFFFFFFFFFFFFFFFFFFFFFFFFFFFFFFFFFFFFFFFFFFFFFFFFF
310
FFFFFFFFFFFFFFFFFFFFFFFFFFFFFFFFFFFFFFFFFFFFFFFFFFFFFFFFFFFFFFFF
310
FFFFFFFFFFFFFFFFFFFFFFFFFFFFFFFFFFFFFFFFFFFFFFFFFFFFFFFFFFFFFFFF
310
FFFFFFFFFFFFFFFFFFFFFFFFFFFFFFFFFFFFFFFFFFFFFFFFFFFFFFFFFFFFFFFF
310
FFFFFFFFFFFFFFFFFFFFFFFFFFFFFFFFFFFFFFFFFFFFFFFFFFFFFFFFFFFFFFFF
310
FFFFFFFFFFFFFFFFFFFFFFFFFFFFFFFFFFFFFFFFFFFFFFFFFFFFFFFFFFFFFFFF
310
FFFFFFFFFFFFFFFFFFFFFFFFFFFFFFFFFFFFFFFFFFFFFFFFFFFFFFFFFFFFFFFF
310
FDFFFFFFFEFFFFFFFEFFFFFFFEFFFFFF05000000060000000700000008000000
310
090000000A0000000B0000000C0000000D0000000E0000000F00000010000000
310
11000000120000001300000014000000150000001600000017000000FEFFFFFF
310
FFFFFFFFFFFFFFFFFFFFFFFFFFFFFFFFFFFFFFFFFFFFFFFFFFFFFFFFFFFFFFFF
310
FFFFFFFFFFFFFFFFFFFFFFFFFFFFFFFFFFFFFFFFFFFFFFFFFFFFFFFFFFFFFFFF
310
FFFFFFFFFFFFFFFFFFFFFFFFFFFFFFFFFFFFFFFFFFFFFFFFFFFFFFFFFFFFFFFF
310
FFFFFFFFFFFFFFFFFFFFFFFFFFFFFFFFFFFFFFFFFFFFFFFFFFFFFFFFFFFFFFFF
310
FFFFFFFFFFFFFFFFFFFFFFFFFFFFFFFFFFFFFFFFFFFFFFFFFFFFFFFFFFFFFFFF
310
FFFFFFFFFFFFFFFFFFFFFFFFFFFFFFFFFFFFFFFFFFFFFFFFFFFFFFFFFFFFFFFF
310
FFFFFFFFFFFFFFFFFFFFFFFFFFFFFFFFFFFFFFFFFFFFFFFFFFFFFFFFFFFFFFFF
310
FFFFFFFFFFFFFFFFFFFFFFFFFFFFFFFFFFFFFFFFFFFFFFFFFFFFFFFFFFFFFFFF
310
FFFFFFFFFFFFFFFFFFFFFFFFFFFFFFFFFFFFFFFFFFFFFFFFFFFFFFFFFFFFFFFF
310
FFFFFFFFFFFFFFFFFFFFFFFFFFFFFFFFFFFFFFFFFFFFFFFFFFFFFFFFFFFFFFFF
310
FFFFFFFFFFFFFFFFFFFFFFFFFFFFFFFFFFFFFFFFFFFFFFFFFFFFFFFFFFFFFFFF
310
FFFFFFFFFFFFFFFFFFFFFFFFFFFFFFFFFFFFFFFFFFFFFFFFFFFFFFFFFFFFFFFF
310
FFFFFFFFFFFFFFFFFFFFFFFFFFFFFFFFFFFFFFFFFFFFFFFFFFFFFFFFFFFFFFFF
310
52006F006F007400200045006E00740072007900000000000000000000000000
310
0000000000000000000000000000000000000000000000000000000000000000
310
16000500FFFFFFFFFFFFFFFF020000000A00030000000000C000000000000046
310
000000000000000000000000C018C147C404CC0103000000C000000000000000
310
01004F006C006500000000000000000000000000000000000000000000000000
310
0000000000000000000000000000000000000000000000000000000000000000
310
0A000200FFFFFFFFFFFFFFFFFFFFFFFF00000000000000000000000000000000
310
0000000000000000000000000000000000000000000000001400000000000000
310
010043006F006D0070004F0062006A0000000000000000000000000000000000
310
0000000000000000000000000000000000000000000000000000000000000000
310
120002010100000003000000FFFFFFFF00000000000000000000000000000000
310
0000000000000000000000000000000000000000010000004D00000000000000
310
01004F006C006500310030004E00610074006900760065000000000000000000
310
0000000000000000000000000000000000000000000000000000000000000000
310
1A000200FFFFFFFFFFFFFFFFFFFFFFFF00000000000000000000000000000000
310
0000000000000000000000000000000000000000040000002426000000000000
310
FEFFFFFF02000000FEFFFFFFFFFFFFFFFFFFFFFFFFFFFFFFFFFFFFFFFFFFFFFF
310
FFFFFFFFFFFFFFFFFFFFFFFFFFFFFFFFFFFFFFFFFFFFFFFFFFFFFFFFFFFFFFFF
310
FFFFFFFFFFFFFFFFFFFFFFFFFFFFFFFFFFFFFFFFFFFFFFFFFFFFFFFFFFFFFFFF
310
FFFFFFFFFFFFFFFFFFFFFFFFFFFFFFFFFFFFFFFFFFFFFFFFFFFFFFFFFFFFFFFF
310
FFFFFFFFFFFFFFFFFFFFFFFFFFFFFFFFFFFFFFFFFFFFFFFFFFFFFFFFFFFFFFFF
310
FFFFFFFFFFFFFFFFFFFFFFFFFFFFFFFFFFFFFFFFFFFFFFFFFFFFFFFFFFFFFFFF
310
FFFFFFFFFFFFFFFFFFFFFFFFFFFFFFFFFFFFFFFFFFFFFFFFFFFFFFFFFFFFFFFF
310
FFFFFFFFFFFFFFFFFFFFFFFFFFFFFFFFFFFFFFFFFFFFFFFFFFFFFFFFFFFFFFFF
310
FFFFFFFFFFFFFFFFFFFFFFFFFFFFFFFFFFFFFFFFFFFFFFFFFFFFFFFFFFFFFFFF
310
FFFFFFFFFFFFFFFFFFFFFFFFFFFFFFFFFFFFFFFFFFFFFFFFFFFFFFFFFFFFFFFF
310
FFFFFFFFFFFFFFFFFFFFFFFFFFFFFFFFFFFFFFFFFFFFFFFFFFFFFFFFFFFFFFFF
310
FFFFFFFFFFFFFFFFFFFFFFFFFFFFFFFFFFFFFFFFFFFFFFFFFFFFFFFFFFFFFFFF
310
FFFFFFFFFFFFFFFFFFFFFFFFFFFFFFFFFFFFFFFFFFFFFFFFFFFFFFFFFFFFFFFF
310
FFFFFFFFFFFFFFFFFFFFFFFFFFFFFFFFFFFFFFFFFFFFFFFFFFFFFFFFFFFFFFFF
310
FFFFFFFFFFFFFFFFFFFFFFFFFFFFFFFFFFFFFFFFFFFFFFFFFFFFFFFFFFFFFFFF
310
FFFFFFFFFFFFFFFFFFFFFFFFFFFFFFFFFFFFFFFFFFFFFFFFFFFFFFFFFFFFFFFF
310
0100000200000000000000000000000000000000000000000000000000000000
310
00000000000000003800000041000000980D2A0200000000460EA20200000000
310
0100FEFF030A0000FFFFFFFF0A00030000000000C00000000000004607000000
310
5042727573680007000000504272757368000700000050427275736800F439B2
310
7100000000000000000000000000000000000000000000000000C70600000000
310
425D000000000000000000000000000000000000000000003800000041000000
310
980D2A0200000000040E32040000000000000000000000000000000000000000
310
0000C70600000000435D00000000000000000000000000000000000000000000
310
3800000041000000980D2A0200000000120EFB02000000000000000000000000
310
00000000000000000000C706000000003D5D0000000000000000000000000000
310
00000000000000003800000041000000980D2A0200000000880EEF0200000000
310
000000000000000000000000000000000000C706000000003E5D000000000000
310
000000000000000000000000000000003800000041000000980D2A0200000000
310
7C0E1F0400000000000000000000000000000000000000000000C70600000000
310
3F5D000000000000000000000000000000000000000000003800000041000000
310
980D2A02000000007E0EF4030000000000000000000000000000000000000000
310
20260000424D0E260000000000003E00000028000000B40200006E0000000100
310
01000000000000000000130B0000130B00000200000002000000000000FFFFFF
310
FFFFFFFFFFFFFFFFFFFFFFFFFFFFFFFFFFFFFFFFFFFFFFFFFFFFFFFFFFFFFFFF
310
FFFFFFFFFFFFFFFFFFFFFFFFFFFFFFFFFFFFFFFFFFFFFFFFFFFFFFFFFFFFFFFF
310
FFFFFFFFFFFFFFFFFFFFFFFFFFFFFFFFFFFFFFFFFFFFFFFFF000FFFFFFFFFFFF
310
FFFFFFFFFFFFFFFFFFFFFFFFFFFFFFFFFFFFFFFFFFFFFFFFFFFFFFFFFFFFFFFF
310
FFFFFFFFFFFFFFFFFFFFFFFFFFFFFFFFFFFFFFFFFFFFFFFFFFFFFFFFFFFFFFFF
310
FFFFFFFFFFFFFFFFFFFFFFFFFFFFFFFFF000FFFFFFFFFFFFFFFFFFFFFFFFFFFF
310
FFFFFFFFFFFFFFFFFFFFFFFFFFFFFFFFFFFFFFFFFFFFFFFFFFFFFFFFFFFFFFFF
310
FFFFFFFFFFFFFFFFFFFFFFFFFFFFFFFFFFFFFFFFFFFFFFFFFFFFFFFFFFFFFFFF
310
FFFFFFFFFFFFFFFFF000FFFFFFFFFFFFFFFFFFFFFFFFFFFFFFFFFFFFFFFFFFFF
310
FFFFFFFFFFFFFFFFFFFFFFFFFFFFFFFFFFFFFFFFFFFFFFFFFFFFFFFFFFFFFFFF
310
FFFFFFFFFFFFFFFFFFFFFFFFFFFFFFFFFFFFFFFFFFFFFFFFFFFFFFFFFFFFFFFF
310
F000FFFFFFFFFFFFFFFFFFFFFFFFFFFFFFFFFFFFFFFFFFFFFFFFFFFFFFFFFFFF
310
FFFFFFFFFFFFFFFFFFFFFFFFFFFFFFFFFFFFFFFFFFFFFFFFFFFFFFFFFFFFFFFF
310
FFFFFFFFFFFFFFFFFFFFFFFFFFFFFFFFFFFFFFFFFFFFFFFFF000FFFFFFFFFFFF
310
FFFFFFFFFFFFFFFFFFFFFFFFFFFFFFFFFFFFFFFFFFFFFFFFFFFFFFFFFFFFFFFF
310
FFFFFFFFFFFFFFFFFFFFFFFFFFFFFFFFFFFFFFFFFFFFFFFFFFFFFFFFFFFFFFFF
310
FFFFFFFFFFFFFFFFFFFFFFFFFFFFFFFFF000FFFFFFFFFFFFFFFFFFFFFFFFFFFF
310
FFFFFFFFFFFFFFFFFFFFFFFFFFFFFFFFFFFFFFFFFFFFFFFFFFFFFFFFFFFFFFFF
310
FFFFFFFFFFFFFFFFFFFFFFFFFFFFFFFFFFFFFFFFFFFFFFFFFFFFFFFFFFFFFFFF
310
FFFFFFFFFFFFFFFFF000FFFFFFFFFFFFFFFFFFFFFFFFFFFFFFFFFFFFFFFFFFFF
310
FFFFFFFFFFFFFFFFFFFFFFFFFFFFFFFFFFFFFFFFFFFFFFFFFFFFFFFFFFFFFFFF
310
FFFFFFFFFFFFFFFFFFFFFFFFFFFFFFFFFFFFFFFFFFFFFFFFFFFFFFFFFFFFFFFF
310
F000FFFFFFFFFFFFFFFFFFFFFFFFFFFFFFFFFFFFFFFFFFFFFFFFFFFFFFFFFFFF
310
FFFFFFFFFFFFFFFFFFFFFFFFFFFFFFFFFFFFFFFFFFFFFFFFFFFFFFFFFFFFFFFF
310
FFFFFFFFFFFFFFFFFFFFFFFFFFFFFFFFFFFFFFFFFFFFFFFFF000FFFFFFFFFFFF
310
FFFFFFFFFFFFFFFFFFFFFFFFFFFFFFFFFFFFFFFFFFFFFFFFFFFFFFFFFFFFFFFF
310
FFFFFFFFFFFFFFFFFFFFFFFFFFFFFFFFFFFFFFFFFFFFFFFFFFFFFFFFFFFFFFFF
310
FFFFFFFFFFFFFFFFFFFFFFFFFFFFFFFFF000FFFFFFFFFFFFFFFFFFFFFFFFFFFF
310
FFFFFFFFFFFFFFFFFFFFFFFFFFFFFFFFFFFFFFFFFFFFFFFFFFFFFFFFFFFFFFFF
310
FFFFFFFFFFFFFFFFFFFFFFFFFFFFFFFFFFFFFFFFFFFFFFFFFFFFFFFFFFFFFFFF
310
FFFFFFFFFFFFFFFFF000FFFFFFFFFFFFFFFFFFFFFFFFFFFFFFFFFFFFFFFFFFFF
310
FFFFFFFFFFFFFFFFFFFFFFFFFFFFFFFFFFFFFFFFFFFFFFFFFFFFFFFFFFFFFFFF
310
FFFFFFFFFFFFFFFFFFFFFFFFFFFFFFFFFFFFFFFFFFFFFFFFFFFFFFFFFFFFFFFF
310
F000FFFFFFFFFFFFFFFFFFFFFFFFFFFFFFFFFFFFFFFFFFFFFFFFFFFFFFFFFFFF
310
FFFFFFFFFFFFFFFFFFFFFFFFFFFFFFFFFFFFFFFFFFFFFFFFFFFFFFFFFFFFFFFF
310
FFFFFFFFFFFFFFFFFFFFFFFFFFFFFFFFFFFFFFFFFFFFFFFFF000FFFFFFFFFFFF
310
FFFFFFFFFFFFFFFFFFFFFFFFFFFFFFFFFFFFFFFFFFFFFFFFFFFFFFFFFFFFFFFF
310
FFFFFFFFFFFFFFFFFFFFFFFFFFFFFFFFFFFFFFFFFFFFFFFFFFFFFFFFFFFFFFFF
310
FFFFFFFFFFFFFFFFFFFFFFFFFFFFFFFFF000FFFFFFFFFFFFFFFFFFFFFFFFFFFF
310
FFFFFFFFFFFFFFFFFFFFFFFFFFFFFFFFFFFFFFFFFFFFFFFFFFFFFFFFFFFFFFFF
310
FFFFFFFFFFFFFFFFFFFFFFFFFFFFFFFFFFFFFFFFFFFFFFFFFFFFFFFFFFFFFFFF
310
FFFFFFFFFFFFFFFFF000FFFFFFFFFFFFFFFFFFFFFFFFFFFFFFFFFFFFFFFFFFFF
310
FFFFFFFFFFFFFFFFFFFFFFFFFFFFFFFFFFFFFFFFFFFFFFFFFFFFFFFFFFFFFFFF
310
FFFFFFFFFFFFFFFFFFFFFFFFFFFFFFFFFFFFFFFFFFFFFFFFFFFFFFFFFFFFFFFF
310
F000FFFFFFFFFFFFFFFFFFFFFFFFFFFFFFFFFFFFFFFFFFFFFFFFFFFFFFFFFFFF
310
FFFFFFFFFFFFFFFFFFFFFFFFFFFFFFFFFFFFFFFFFFFFFFFFFFFFFFFFFFFFFFFF
310
FFFFFFFFFFFFFFFFFFFFFFFFFFFFFFFFFFFFFFFFFFFFFFFFF000FFFFFFFFFFFF
310
FFFFFFFFFFFFFFFFFFFFFFFFFFFFFFFFFFFFFFFFFFFFFFFFFFFFFFFFFFFFFFFF
310
FFFFFFFFFFFFFFFFFFFFFFFFFFFFFFFFFFFFFFFFFFFFFFFFFFFFFFFFFFFFFFFF
310
FFFFFFFFFFFFFFFFFFFFFFFFFFFFFFFFF000FFFFFFFFFFFFFFFFFFFFFFFFFFFF
310
FFFFFFFFFFFFFFFFFFFFFFFFFFFFFFFFFFFFFFFFFFFFFFFFFFFFFFFFFFFFFFFF
310
FFFFFFFFFFFFFFFFFFFFFFFFFFFFFFFFFFFFFFFFFFFFFFFFFFFFFFFFFFFFFFFF
310
FFFFFFFFFFFFFFFFF000FFFFF80003FFFFFFFFFFFFFFFFFFFFFFFFFFFFFFFFFF
310
FFFFF00007FFFFFFFFFF00007FFFFFF800000000000000007FFFFFFFFFFFFFFF
310
FFFFFFFC001FFFFFFFFFFFFFFC001FFFFFFFFFFFFFFFFFFFFFFFFFFE0007FFFF
310
F000FFFF8000007FFFFFFFF8000FFFFFC0007FFFFF80007FFFFF0000007FFFFF
310
FFF8000007FFFFF800000000000000007FFFFFF0001FFFFFFFFFFFC00001FFFF
310
FFFFFFFFC00001FFFFFFFF000000000003FFFFE000007FFFF000FFFE0000000F
310
FFFFFFF0000FFFFF80007FFFFF80007FFFFC0000001FFFFFFFC0000001FFFFF8
310
00000000000000007FFFFFF0001FFFFFFFFFFE0000003FFFFFFFFFFE0000003F
310
FFFFFF000000000003FFFF0000000FFFF000FFF800000003FFFFFFF00007FFFF
310
80007FFFFF80007FFFF000000007FFFFFF000000003FFFF80000000000000000
310
7FFFFFF0001FFFFFFFFFF80000000FFFFFFFFFF80000000FFFFFFF0000000000
310
03FFFC00000003FFF000FFE000000000FFFFFFF00007FFFF80003FFFFF80007F
310
FFC000000001FFFFFC000000001FFFF800000000000000007FFFFFF0001FFFFF
310
FFFFE000000003FFFFFFFFE000000003FFFFFF000000000003FFF000000000FF
310
F000FF80000000007FFFFFF00007FFFF80003FFFFF80007FFF8000000000FFFF
310
F80000000007FFF800000000000000007FFFFFF0001FFFFFFFFFC000000001FF
310
FFFFFFC000000001FFFFFF000000000003FFC0000000007FF000FF0000000000
310
3FFFFFE00007FFFF00003FFFFF80007FFE00000000003FFFF00000000003FFF8
310
00000000000000007FFFFFF0001FFFFFFFFF8000000000FFFFFFFF8000000000
310
FFFFFF000000000003FF80000000003FF000FE00000000001FFFFFE00003FFFF
310
00003FFFFF80007FFC00000000001FFFE00000000001FFF8000001FFFE000000
310
7FFFFFF0001FFFFFFFFE00000000003FFFFFFE00000000003FFFFF0000000000
310
03FF00000000001FF000FC00000000000FFFFFE00003FFFF00001FFFFF80007F
310
F800000000001FFFC00000000000FFF8000001FFFE0000007FFFFFF0001FFFFF
310
FFFC00000000001FFFFFFC00000000001FFFFF000000000003FE00000000000F
310
F000F8000000000007FFFFE00003FFFF00001FFFFF80007FF800000000000FFF
310
800000000000FFF8000001FFFE0000007FFFFFF0001FFFFFFFF800000000000F
310
FFFFF800000000000FFFFF000000000003FC000000000007F000F80000000000
310
03FFFFC00003FFFE00001FFFFF80007FF0000000000007FF0000000000007FF8
310
000001FFFE0000007FFFFFF0001FFFFFFFF0000000000007FFFFF00000000000
310
07FFFF000000000003F8000000000003F000F0000000000003FFFFC00001FFFE
310
00001FFFFF80007FE0000000000007FE0000000000003FF8000001FFFE000000
310
7FFFFFF0001FFFFFFFF0000000000007FFFFF0000000000007FFFF0000000000
310
03F800001F800003F000E00001FFF00001FFFFC00001FFFE00000FFFFF80007F
310
E00001FFE00003FE00001FFF00003FF8000001FFFE0000007FFFFFF0001FFFFF
310
FFE000003E000003FFFFE000003E000003FFFF000000000003F00001FFF80001
310
F000E00007FFFC0001FFFFC00001FFFE00000FFFFF80007FC0000FFFFC0003FC
310
0000FFFFC0001FF8000001FFFE0000007FFFFFF0001FFFFFFFC00003FFE00001
310
FFFFC00003FFE00001FFFF0001FFFFFFFFF00007FFFE0001F000E0000FFFFF00
310
00FFFF800001FFFC00000FFFFF80007FC0001FFFFE0001FC0001FFFFE0001FF8
310
000001FFFE0000007FFFFFF0001FFFFFFF80000FFFF80000FFFF80000FFFF800
310
00FFFF0003FFFFFFFFE0000FFFFF8000F000C0003FFFFF8000FFFF800000FFFC
310
000007FFFF80007F80003FFFFF0001FC0003FFFFF0001FF8000001FFFE000000
310
7FFFFFF0001FFFFFFF80003FFFFE0000FFFF80003FFFFE0000FFFF0003FFFFFF
310
FFE0003FFFFF8000F000C0003FFFFF8000FFFF800000FFFC000007FFFF80007F
310
80007FFFFF8001F80007FFFFF8000FF8000001FFFE0000007FFFFFF0001FFFFF
310
FF00007FFFFF00007FFF00007FFFFF00007FFF0003FFFFFFFFE0003FFFFFC000
310
F000C0007FFFFFC000FFFF000000FFFC000007FFFF80007F8000FFFFFF8000F8
310
000FFFFFF8000FF8000001FFFE0000007FFFFFF0001FFFFFFF0000FFFFFF8000
310
7FFF0000FFFFFF80007FFF0003FFFFFFFFC0007FFFFFC00070008000FFFFFFC0
310
00FFFF000000FFF8000007FFFF80007F8000FFFFFF8000F8000FFFFFF8000FF8
310
000001FFFE0000007FFFFFF0001FFFFFFE0001FFFFFFC0003FFE0001FFFFFFC0
310
003FFF0003FFFFFFFFC0007FFFFFE00070008000FFFFFFC0007FFF0000007FF8
310
000003FFFF80007F0001FFFFFF8000F8000FFFFFF8000FF8000001FFFE000000
310
7FFFFFF0001FFFFFFE0001FFFFFFC0003FFE0001FFFFFFC0003FFF0003FFFFFF
310
FFC000FFFFFFE00070008000FFFFFFC0007FFF0000007FF8000003FFFF80007F
310
0001FFFFFF8000F8001FFFFFF8000FF8000001FFFE0000007FFFFFF0001FFFFF
310
FE0003FFFFFFE0003FFE0003FFFFFFE0003FFF0003FFFFFFFFC000FFFFFFE000
310
70008000FFFFFFC0007FFE0000007FF8000003FFFF80007F0001FFFFFF8000F0
310
001FFFFFF8000FF8000001FFFE0000007FFFFFF0001FFFFFFC0003FFFFFFE000
310
1FFC0003FFFFFFE0001FFF0003FFFFFFFFC000FFFFFFC00070008000FFFFFF80
310
007FFE0000007FF0000003FFFF80007F0001FFFFFF0000F0001FFFFFF8000FF8
310
000001FFFE0000007FFFFFF0001FFFFFFC0007FFFFFFF0001FFC0007FFFFFFF0
310
001FFF0003FFFFFFFFC000FFFFFFC00070008001FFFFFF0000FFFE0000003FF0
310
000001FFFF80007F0001FFFFFF0000F8001FFFFFF0000FF8000001FFFE000000
310
7FFFFFF0001FFFFFFC0007FFFFFFF0001FFC0007FFFFFFF0001FFF0003FFFFFF
310
FFC001FFFFFF80007000FFFFFFFFFE0000FFFE0008003FF0008001FFFF80007F
310
FFFFFFFFFC0000FFFFFFFFFFE0000FF8000001FFFE0000007FFFFFF0001FFFFF
310
F8000FFFFFFFF8000FF8000FFFFFFFF8000FFF0003FFFFFFFFFFFFFFFFFF0000
310
7000FFFFFFFFFC0000FFFC0008003FF0008001FFFF80007FFFFFFFFFF80001FF
310
FFFFFFFF80000FF8000001FFFE0000007FFFFFF0001FFFFFF8000FFFFFFFF800
310
0FF8000FFFFFFFF8000FFF0003FFFFFFFFFFFFFFFFFE0000F000FFFFFFFFE000
310
00FFFC000C003FE000C001FFFF80007FFFFFFFFFC00001FFFFFFFFFE00001FF8
310
000001FFFE0000007FFFFFF0001FFFFFF8000FFFFFFFF8000FF8000FFFFFFFF8
310
000FFF0003FFFFFFFFFFFFFFFFF00000F000FFFFFFFE000001FFFC000C001FE0
310
00C000FFFF80007FFFFFFFFE000001FFFFFFFFE000001FF80FFFFFFFFFFFFFC0
310
7FFFFFF0001FFFFFF8000FFFFFFFF8000FF8000FFFFFFFF8000FFF0003FFFFFF
310
FFFFFFFFFF800000F000FFFFFFC0000001FFFC001C001FE001C000FFFF80007F
310
FFFFFF80000003FFFFFFF80000001FF80FFFFFFFFFFFFFC07FFFFFF0001FFFFF
310
F8001FFFFFFFFC000FF8001FFFFFFFFC000FFF0003FFFFFFFFFFFFFFF0000001
310
F000FFFFF800000001FFF8001C001FE001C000FFFF80007FFFFFF800000003FF
310
FFFF800000003FF80FFFFFFFFFFFFFC07FFFFFF0001FFFFFF8001FFFFFFFFC00
310
0FF8001FFFFFFFFC000FFF0003FFFFFFFFFFFFFE00000001F000FFFFC0000000
310
03FFF8001E001FC001E000FFFF80007FFFFF8000000007FFFFFC000000003FF8
310
0FFFFFFFFFFFFFC07FFFFFF0001FFFFFF8001FFFFFFFFC000FF8001FFFFFFFFC
310
000FFF0003FFFFFFFFFFFFE000000003F000FFFE0000000007FFF8001E000FC0
310
01E0007FFF80007FFFFE0000000007FFFFE0000000007FF80FFFFFFFFFFFFFC0
310
7FFFFFF0001FFFFFF0001FFFFFFFFC0007F0001FFFFFFFFC0007FF0003FFFFFF
310
FFFFFF0000000003F000FFF80000000007FFF8001E000FC003E0007FFF80007F
310
FFF0000000000FFFFF8000000000FFF80FFFFFFFFFFFFFC07FFFFFF0001FFFFF
310
F0001FFFFFFFFC0007F0001FFFFFFFFC0007FF0003FFFFFFFFFFFC0000000007
310
F000FFE0000000000FFFF0003E000FC003E0007FFF80007FFFC0000000001FFF
310
FE0000000001FFF80FFFFFFFFFFFFFC07FFFFFF0001FFFFFF0001FFFFFFFFC00
310
07F0001FFFFFFFFC0007FF0003FFFFFFFFFFF0000000000FF000FFC000000000
310
1FFFF0003F000F8003F0003FFF80007FFF80000000003FFFF80000000003FFF8
310
0FFFFFFFFFFFFFC07FFFFFF0001FFFFFF0001FFFFFFFFC0007F0001FFFFFFFFC
310
0007FF0003FFFFFFFFFFE0000000001FF000FF00000000007FFFF0003F000780
310
03F0003FFF80007FFF00000000007FFFF00000000007FFF80FFFFFFFFFFFFFC0
310
7FFFFFF0001FFFFFF0001FFFFFFFFC0007F0001FFFFFFFFC0007FF0003FFFFFF
310
FFFF80000000007FF000FE0000000000FFFFE0003F00078007F0003FFF80007F
310
FE0000000001FFFFE0000000001FFFF80FFFFFFFFFFFFFC07FFFFFF0001FFFFF
310
F0001FFFFFFFFC0007F0001FFFFFFFFC0007FF0003FFFFFFFFFF0000000000FF
310
F000FC0000000003FFFFE0007F00078007F0003FFF80007FFC0000000007FFFF
310
C0000000007FFFF80FFFFFFFFFFFFFC07FFFFFF0001FFFFFF8001FFFFFFFFC00
310
0FF8001FFFFFFFFC000FFF0003FFFFFFFFFE0000000003FFF000FC000000000F
310
FFFFE0007F80070007F8001FFF80007FF8000000001FFFFF8000000001FFFFF8
310
0FFFFFFFFFFFFFC07FFFFFF0001FFFFFF8001FFFFFFFFC000FF8001FFFFFFFFC
310
000FFF0003FFFFFFFFFC000000000FFFF000F8000000007FFFFFE0007F800700
310
07F8001FFF80007FF000000000FFFFFF800000000FFFFFF80FFFFFFFFFFFFFC0
310
7FFFFFF0001FFFFFF8000FFFFFFFF8000FF8000FFFFFFFF8000FFF0003FFFFFF
310
FFFC000000007FFFF000F800000007FFFFFFC0007F8003000FF8001FFF80007F
310
F000000007FFFFFF000000007FFFFFF80FFFFFFFFFFFFFC07FFFFFF0001FFFFF
310
F8000FFFFFFFF8000FF8000FFFFFFFF8000FFF0003FFFFFFFFF80000000FFFFF
310
F000F0000000FFFFFFFFC000FF8003000FF8001FFF80007FE0000000FFFFFFFF
310
0000000FFFFFFFF8000001FFFE0000007FFFFFF0001FFFFFF8000FFFFFFFF800
310
0FF8000FFFFFFFF8000FFF0003FFFFFFFFF8000000FFFFFFF000F000000FFFFF
310
FFFFC000FFC002000FF8000FFF80007FE000001FFFFFFFFE000001FFFFFFFFF8
310
000001FFFE0000007FFFFFF0001FFFFFF8000FFFFFFFF8000FF8000FFFFFFFF8
310
000FFF0003FFFFFFFFF000001FFFFFFFF000E00000FFFFFFFFFFC000FFC00200
310
0FFC000FFF80007FE00001FFFFFFFFFE00001FFFFFFFFFF8000001FFFE000000
310
7FFFFFF0001FFFFFFC000FFFFFFFF8001FFC000FFFFFFFF8001FFF0003FFFFFF
310
FFF00001FFFFFFFFF000E00007FFFFFFFFFF8000FFC000001FFC000FFF80007F
310
C0000FFFFFFFFFFE0000FFFFFFFFFFF8000001FFFE0000007FFFFFF0001FFFFF
310
FC0007FFFFFFF0001FFC0007FFFFFFF0001FFF0003FFFFFFFFF00007FFFFFFFF
310
F000E0001FFFFFFFFFFF8000FFC000001FFC000FFF80007FC0003FFFFFFFFFFE
310
0001FFFFFFFFFFF8000001FFFE0000007FFFFFF0001FFFFFFC0007FFFFFFF000
310
1FFC0007FFFFFFF0001FFF0003FFFFFFFFF0001FFFFFFFFFF000E0003FFFFF00
310
03FF8001FFE000001FFC0007FF80007FC0007FFFFF0007FC0003FFFFF0003FF8
310
000001FFFE0000007FFFFFF0001FFFFFFC0003FFFFFFE0001FFC0003FFFFFFE0
310
001FFF0003FFFFFFFFF0003FFFFFFFFFF000E0003FFFFF0001FF8001FFE00000
310
1FFE0007FF80007FC0007FFFFE0003FC0007FFFFE0003FF8000001FFFE000000
310
7FFFFFF0001FFFFFFE0003FFFFFFE0003FFE0003FFFFFFE0003FFF0003FFFFFF
310
FFF0003FFFFF8001F000E0003FFFFF0001FF0001FFE000001FFE0007FF80007F
310
C0007FFFFE0003FC0007FFFFE0003FF8000001FFFE0000007FFFFFF0001FFFFF
310
FE0001FFFFFFC0003FFE0001FFFFFFC0003FFF0003FFFFFFFFF0003FFFFF0001
310
F000E0003FFFFF0003FF0001FFE000003FFE0007FF80007FC0007FFFFE0003FC
310
0007FFFFE0003FF8000001FFFE0000007FFFFFF0001FFFFFFF0001FFFFFFC000
310
7FFF0001FFFFFFC0007FFF0003FFFFFFFFF0003FFFFF0001F000E0003FFFFE00
310
03FF0003FFF000003FFE0003FF80007FC0007FFFFC0003FE0007FFFFE0003FF8
310
000001FFFE0000007FFFFFF0001FFFFFFF0000FFFFFF80007FFF0000FFFFFF80
310
007FFF0003FFFFFFFFF0003FFFFF0001F000E0003FFFFE0003FF0003FFF00000
310
3FFF0003FF80007FC0007FFFFC0007FE0007FFFFC0003FF8000001FFFE000000
310
7FFFFFF0001FFFFFFF80007FFFFF0000FFFF80007FFFFF0000FFFF0003FFFFFF
310
FFF0003FFFFF0003F000E0003FFFFC0003FE0003FFF000003FFF0003FF80007F
310
E0003FFFF80007FE0003FFFFC0007FF8000001FFFE0000007FFFFFF0001FFFFF
310
FF80003FFFFE0000FFFF80003FFFFE0000FFFF0003FFFFFFFFF0001FFFFE0003
310
F000F0001FFFF80003FE0003FFF000007FFF0001FF80007FE0003FFFF00007FE
310
0001FFFF80007FF8000001FFFE0000007FFFFFF0001FFFFFFFC0000FFFF80001
310
FFFFC0000FFFF80001FFFF0003FFFFFFFFF0001FFFFC0003F000F0000FFFF000
310
07FE0007FFF800007FFF0001FF80007FE0001FFFE00007FF0000FFFE00007FF8
310
000001FFFE0000007FFFFFF0001FFFFFFFC00003FFE00001FFFFC00003FFE000
310
01FFFF0003FFFFFFFFF8000FFFF80003F000F00003FFC00007FC0007FFF80000
310
7FFF8001FF80007FF00007FF80000FFF00007FF80000FFF8000001FFFE000000
310
7F80000000000001FFE000003E000003FFFFE000003E000003FFFF0003FFFFFF
310
FFF80003FFE00007F000F800000000000FFC0007FFF800007FFF8001FF80007F
310
F000000000000FFF000000000000FFF8000001FFFE0000007F80000000000001
310
FFF0000000000007FFFFF0000000000007FFFF0003FFFFFFFFFC00007E000007
310
F000F800000000000FFC0007FFF80000FFFF8000FF80007FF800000000001FFF
310
800000000001FFF8000001FFFE0000007F80000000000001FFF800000000000F
310
FFFFF800000000000FFFFF0003FFFFFFFFFC00000000000FF000FC0000000000
310
1FFC0007FFFC0000FFFF8000FF80007FF800000000003FFFC00000000001FFF8
310
000001FFFE0000007F80000000000001FFF800000000000FFFFFF80000000000
310
0FFFFF0003FFFFFFFFFE00000000001FF000FE00000000003FF8000FFFFC0000
310
FFFF8000FF80007FFC00000000003FFFC00000000003FFF8000001FFFE000000
310
7F80000000000001FFFC00000000001FFFFFFC00000000001FFFFF0003FFFFFF
310
FFFF00000000001FF000FF00000000003FF8000FFFFC0000FFFFC000FF80007F
310
FE00000000007FFFE00000000007FFF8000001FFFE0000007F80000000000001
310
FFFE00000000003FFFFFFE00000000003FFFFF0003FFFFFFFFFF80000000003F
310
F000FF80000000007FF8000FFFFC0001FFFFC0007F80007FFF0000000000FFFF
310
F0000000000FFFF800000000000000007F80000000000001FFFF8000000000FF
310
FFFFFF8000000000FFFFFF0003FFFFFFFFFFC0000000007FF000FFC000000000
310
FFF8000FFFFE0001FFFFC0007F80007FFF8000000001FFFFF8000000001FFFF8
310
00000000000000007F80000000000001FFFFC000000001FFFFFFFFC000000001
310
FFFFFF0003FFFFFFFFFFE000000000FFF000FFE000000003FFF0001FFFFE0001
310
FFFFC0007F80007FFFC000000007FFFFFE000000003FFFF80000000000000000
310
7F80000000000001FFFFE000000003FFFFFFFFE000000003FFFFFF0003FFFFFF
310
FFFFF000000003FFF000FFF80000000FFFF0001FFFFE0001FFFFE0007F80007F
310
FFF00000000FFFFFFF00000000FFFFF800000000000000007F80000000000001
310
FFFFF80000000FFFFFFFFFF80000000FFFFFFF0003FFFFFFFFFFFC0000000FFF
310
F000FFFE0000003FFFF0001FFFFE0003FFFFE0003F80007FFFFC0000003FFFFF
310
FFC0000003FFFFF800000000000000007F80000000000001FFFFFE0000003FFF
310
FFFFFFFE0000003FFFFFFF0003FFFFFFFFFFFF0000003FFFF000FFFF800000FF
310
FFF0001FFFFF0003FFFFE0003F80007FFFFF000001FFFFFFFFF800001FFFFFF8
310
00000000000000007F80000000000001FFFFFFC00001FFFFFFFFFFFFC00001FF
310
FFFFFF0003FFFFFFFFFFFFC00000FFFFF000FFFFF8000FFFFFFFFFFFFFFFFFFF
310
FFFFFFFFFFFFFFFFFFFFF0001FFFFFFFFFFF0000FFFFFFF80000000000000000
310
7FFFFFFFFFFFFFFFFFFFFFFC001FFFFFFFFFFFFFFC001FFFFFFFFFFFFFFFFFFF
310
FFFFFFFC001FFFFFF000FFFFFFFFFFFFFFFFFFFFFFFFFFFFFFFFFFFFFFFFFFFF
310
FFFFFFFFFFFFFFFFFFFFFFFFFFFFFFFFFFFFFFFFFFFFFFFFFFFFFFFFFFFFFFFF
310
FFFFFFFFFFFFFFFFFFFFFFFFFFFFFFFFFFFFFFFFFFFFFFFFFFFFFFFFFFFFFFFF
310
F000FFFFFFFFFFFFFFFFFFFFFFFFFFFFFFFFFFFFFFFFFFFFFFFFFFFFFFFFFFFF
310
FFFFFFFFFFFFFFFFFFFFFFFFFFFFFFFFFFFFFFFFFFFFFFFFFFFFFFFFFFFFFFFF
310
FFFFFFFFFFFFFFFFFFFFFFFFFFFFFFFFFFFFFFFFFFFFFFFFF000FFFFFFFFFFFF
310
FFFFFFFFFFFFFFFFFFFFFFFFFFFFFFFFFFFFFFFFFFFFFFFFFFFFFFFFFFFFFFFF
310
FFFFFFFFFFFFFFFFFFFFFFFFFFFFFFFFFFFFFFFFFFFFFFFFFFFFFFFFFFFFFFFF
310
FFFFFFFFFFFFFFFFFFFFFFFFFFFFFFFFF000FFFFFFFFFFFFFFFFFFFFFFFFFFFF
310
FFFFFFFFFFFFFFFFFFFFFFFFFFFFFFFFFFFFFFFFFFFFFFFFFFFFFFFFFFFFFFFF
310
FFFFFFFFFFFFFFFFFFFFFFFFFFFFFFFFFFFFFFFFFFFFFFFFFFFFFFFFFFFFFFFF
310
FFFFFFFFFFFFFFFFF000FFFFFFFFFFFFFFFFFFFFFFFFFFFFFFFFFFFFFFFFFFFF
310
FFFFFFFFFFFFFFFFFFFFFFFFFFFFFFFFFFFFFFFFFFFFFFFFFFFFFFFFFFFFFFFF
310
FFFFFFFFFFFFFFFFFFFFFFFFFFFFFFFFFFFFFFFFFFFFFFFFFFFFFFFFFFFFFFFF
310
F000FFFFFFFFFFFFFFFFFFFFFFFFFFFFFFFFFFFFFFFFFFFFFFFFFFFFFFFFFFFF
310
FFFFFFFFFFFFFFFFFFFFFFFFFFFFFFFFFFFFFFFFFFFFFFFFFFFFFFFFFFFFFFFF
310
FFFFFFFFFFFFFFFFFFFFFFFFFFFFFFFFFFFFFFFFFFFFFFFFF000FFFFFFFFFFFF
310
FFFFFFFFFFFFFFFFFFFFFFFFFFFFFFFFFFFFFFFFFFFFFFFFFFFFFFFFFFFFFFFF
310
FFFFFFFFFFFFFFFFFFFFFFFFFFFFFFFFFFFFFFFFFFFFFFFFFFFFFFFFFFFFFFFF
310
FFFFFFFFFFFFFFFFFFFFFFFFFFFFFFFFF000FFFFFFFFFFFFFFFFFFFFFFFFFFFF
310
FFFFFFFFFFFFFFFFFFFFFFFFFFFFFFFFFFFFFFFFFFFFFFFFFFFFFFFFFFFFFFFF
310
FFFFFFFFFFFFFFFFFFFFFFFFFFFFFFFFFFFFFFFFFFFFFFFFFFFFFFFFFFFFFFFF
310
FFFFFFFFFFFFFFFFF000FFFFFFFFFFFFFFFFFFFFFFFFFFFFFFFFFFFFFFFFFFFF
310
FFFFFFFFFFFFFFFFFFFFFFFFFFFFFFFFFFFFFFFFFFFFFFFFFFFFFFFFFFFFFFFF
310
FFFFFFFFFFFFFFFFFFFFFFFFFFFFFFFFFFFFFFFFFFFFFFFFFFFFFFFFFFFFFFFF
310
F000FFFFFFFFFFFFFFFFFFFFFFFFFFFFFFFFFFFFFFFFFFFFFFFFFFFFFFFFFFFF
310
FFFFFFFFFFFFFFFFFFFFFFFFFFFFFFFFFFFFFFFFFFFFFFFFFFFFFFFFFFFFFFFF
310
FFFFFFFFFFFFFFFFFFFFFFFFFFFFFFFFFFFFFFFFFFFFFFFFF000FFFFFFFFFFFF
310
FFFFFFFFFFFFFFFFFFFFFFFFFFFFFFFFFFFFFFFFFFFFFFFFFFFFFFFFFFFFFFFF
310
FFFFFFFFFFFFFFFFFFFFFFFFFFFFFFFFFFFFFFFFFFFFFFFFFFFFFFFFFFFFFFFF
310
FFFFFFFFFFFFFFFFFFFFFFFFFFFFFFFFF000FFFFFFFFFFFFFFFFFFFFFFFFFFFF
310
FFFFFFFFFFFFFFFFFFFFFFFFFFFFFFFFFFFFFFFFFFFFFFFFFFFFFFFFFFFFFFFF
310
FFFFFFFFFFFFFFFFFFFFFFFFFFFFFFFFFFFFFFFFFFFFFFFFFFFFFFFFFFFFFFFF
310
FFFFFFFFFFFFFFFFF000FFFFFFFFFFFFFFFFFFFFFFFFFFFFFFFFFFFFFFFFFFFF
310
FFFFFFFFFFFFFFFFFFFFFFFFFFFFFFFFFFFFFFFFFFFFFFFFFFFFFFFFFFFFFFFF
310
FFFFFFFFFFFFFFFFFFFFFFFFFFFFFFFFFFFFFFFFFFFFFFFFFFFFFFFFFFFFFFFF
310
F000FFFFFFFFFFFFFFFFFFFFFFFFFFFFFFFFFFFFFFFFFFFFFFFFFFFFFFFFFFFF
310
FFFFFFFFFFFFFFFFFFFFFFFFFFFFFFFFFFFFFFFFFFFFFFFFFFFFFFFFFFFFFFFF
310
FFFFFFFFFFFFFFFFFFFFFFFFFFFFFFFFFFFFFFFFFFFFFFFFF000FFFFFFFFFFFF
310
FFFFFFFFFFFFFFFFFFFFFFFFFFFFFFFFFFFFFFFFFFFFFFFFFFFFFFFFFFFFFFFF
310
FFFFFFFFFFFFFFFFFFFFFFFFFFFFFFFFFFFFFFFFFFFFFFFFFFFFFFFFFFFFFFFF
310
FFFFFFFFFFFFFFFFFFFFFFFFFFFFFFFFF000FFFFFFFFFFFFFFFFFFFFFFFFFFFF
310
FFFFFFFFFFFFFFFFFFFFFFFFFFFFFFFFFFFFFFFFFFFFFFFFFFFFFFFFFFFFFFFF
310
FFFFFFFFFFFFFFFFFFFFFFFFFFFFFFFFFFFFFFFFFFFFFFFFFFFFFFFFFFFFFFFF
310
FFFFFFFFFFFFFFFFF000FFFFFFFFFFFFFFFFFFFFFFFFFFFFFFFFFFFFFFFFFFFF
310
FFFFFFFFFFFFFFFFFFFFFFFFFFFFFFFFFFFFFFFFFFFFFFFFFFFFFFFFFFFFFFFF
310
FFFFFFFFFFFFFFFFFFFFFFFFFFFFFFFFFFFFFFFFFFFFFFFFFFFFFFFFFFFFFFFF
310
F000FFFFFFFFFFFFFFFFFFFFFFFFFFFFFFFFFFFFFFFFFFFFFFFFFFFFFFFFFFFF
310
FFFFFFFFFFFFFFFFFFFFFFFFFFFFFFFFFFFFFFFFFFFFFFFFFFFFFFFFFFFFFFFF
310
FFFFFFFFFFFFFFFFFFFFFFFFFFFFFFFFFFFFFFFFFFFFFFFFF000FFFFFFFFFFFF
310
FFFFFFFFFFFFFFFFFFFFFFFFFFFFFFFFFFFFFFFFFFFFFFFFFFFFFFFFFFFFFFFF
310
FFFFFFFFFFFFFFFFFFFFFFFFFFFFFFFFFFFFFFFFFFFFFFFFFFFFFFFFFFFFFFFF
310
FFFFFFFFFFFFFFFFFFFFFFFFFFFFFFFFF000FFFFFFFFFFFFFFFFFFFFFFFFFFFF
310
FFFFFFFFFFFFFFFFFFFFFFFFFFFFFFFFFFFFFFFFFFFFFFFFFFFFFFFFFFFFFFFF
310
FFFFFFFFFFFFFFFFFFFFFFFFFFFFFFFFFFFFFFFFFFFFFFFFFFFFFFFFFFFFFFFF
310
FFFFFFFFFFFFFFFFF000FFFFFFFFFFFFFFFFFFFFFFFFFFFFFFFFFFFFFFFFFFFF
310
FFFFFFFFFFFFFFFFFFFFFFFFFFFFFFFFFFFFFFFFFFFFFFFFFFFFFFFFFFFFFFFF
310
FFFFFFFFFFFFFFFFFFFFFFFFFFFFFFFFFFFFFFFFFFFFFFFFFFFFFFFFFFFFFFFF
310
F000FFFFFFFFFFFFFFFFFFFFFFFFFFFFFFFFFFFFFFFFFFFFFFFFFFFFFFFFFFFF
310
FFFFFFFFFFFFFFFFFFFFFFFFFFFFFFFFFFFFFFFFFFFFFFFFFFFFFFFFFFFFFFFF
310
FFFFFFFFFFFFFFFFFFFFFFFFFFFFFFFFFFFFFFFFFFFFFFFFF000FFFFFFFFFFFF
310
FFFFFFFFFFFFFFFFFFFFFFFFFFFFFFFFFFFFFFFFFFFFFFFFFFFFFFFFFFFFFFFF
310
FFFFFFFFFFFFFFFFFFFFFFFFFFFFFFFFFFFFFFFFFFFFFFFFFFFFFFFFFFFFFFFF
310
FFFFFFFFFFFFFFFFFFFFFFFFFFFFFFFFF0000000000000000000000000000000
310
0000000000750067005C005A0065006900630068006E0075006E00670065006E
310
005C00570061006C0074006500720020004D0065006900650072005C00530063
310
006800720075006D00700066006600750074007400650072005C004B00610074
310
0061006C006F0067007A0065006900630068006E0075006E00670065006E005C
310
004800450034002D005300310030002E004B00300031002E003000360033002E
310
0053004C004400440052005700040000000040A24405000000C61157DA0ADFC5
310
010040C01DFFFEFF012A00030000000050724809000000FFFEFF012A00030000
310
000050724809000000FFFEFF535A003A005C005A0065006900630068006E0075
310
006E00670065006E002D005700650072006B007A006500750067005C005A0065
310
006900630068006E0075006E00670065006E005C00570061006C007400650072
310
0020004D0065006900650072005C00530063006800720075006D007000660066
310
00750074007400650072005C004B006100740061006C006F0067007A00650069
310
00630068006E0075006E00670065006E005C00040000000040A24405000000FF
310
FEFF012A00030000000050724809000000FFFEFF012A00030000000050724809
310
000000FFFEFF012A00040000000040A244050000001C0C0000D4981E00010000
  1
OLE
  0
ENDSEC
  0
SECTION
  2
OBJECTS
  0
DICTIONARY
  5
C
330
0
100
AcDbDictionary
281
     1
  3
ACAD_GROUP
350
D
  3
ACAD_LAYOUT
350
1A
  3
ACAD_MLEADERSTYLE
350
23D
  3
ACAD_MLINESTYLE
350
17
  3
ACAD_PLOTSETTINGS
350
19
  3
ACAD_PLOTSTYLENAME
350
E
  3
ACAD_TABLESTYLE
350
23C
  3
ACAD_VISUALSTYLE
350
2A
  3
AcDbVariableDictionary
350
23E
  0
DICTIONARY
  5
D
102
{ACAD_REACTORS
330
C
102
}
330
C
100
AcDbDictionary
281
     1
  0
DICTIONARY
  5
1A
102
{ACAD_REACTORS
330
C
102
}
330
C
100
AcDbDictionary
281
     1
  3
Layout1
350
1E
  3
Layout2
350
26
  3
Model
350
22
  0
DICTIONARY
  5
23D
102
{ACAD_REACTORS
330
C
102
}
330
C
100
AcDbDictionary
281
     1
  0
DICTIONARY
  5
17
102
{ACAD_REACTORS
330
C
102
}
330
C
100
AcDbDictionary
281
     1
  3
Standard
350
18
  0
DICTIONARY
  5
19
102
{ACAD_REACTORS
330
C
102
}
330
C
100
AcDbDictionary
281
     1
  0
ACDBDICTIONARYWDFLT
  5
E
102
{ACAD_REACTORS
330
C
102
}
330
C
100
AcDbDictionary
281
     1
  3
Normal
350
F
100
AcDbDictionaryWithDefault
340
F
  0
DICTIONARY
  5
23C
102
{ACAD_REACTORS
330
C
102
}
330
C
100
AcDbDictionary
281
     1
  0
DICTIONARY
  5
2A
102
{ACAD_REACTORS
330
C
102
}
330
C
100
AcDbDictionary
281
     1
  3
2dWireframe
350
2F
  3
3D Hidden
350
31
  3
3dWireframe
350
30
  3
Basic
350
32
  3
Brighten
350
36
  3
ColorChange
350
3A
  3
Conceptual
350
34
  3
Dim
350
35
  3
Facepattern
350
39
  3
Flat
350
2B
  3
FlatWithEdges
350
2C
  3
Gouraud
350
2D
  3
GouraudWithEdges
350
2E
  3
Linepattern
350
38
  3
Realistic
350
33
  3
Thicken
350
37
  0
DICTIONARY
  5
23E
102
{ACAD_REACTORS
330
C
102
}
330
C
100
AcDbDictionary
281
     1
  3
PSOLHEIGHT
350
240
  3
PSOLWIDTH
350
23F
  0
LAYOUT
  5
1E
102
{ACAD_REACTORS
330
1A
102
}
330
1A
100
AcDbPlotSettings
  1

  2
none_device
  4

  6

 40
0.0
 41
0.0
 42
0.0
 43
0.0
 44
0.0
 45
0.0
 46
0.0
 47
0.0
 48
0.0
 49
0.0
140
0.0
141
0.0
142
1.0
143
1.0
 70
   688
 72
     0
 73
     0
 74
     5
  7

 75
    16
147
1.0
148
0.0
149
0.0
100
AcDbLayout
  1
Layout1
 70
     1
 71
     1
 10
0.0
 20
0.0
 11
420.0
 21
297.0
 12
0.0
 22
0.0
 32
0.0
 14
1.0000000000E+20
 24
1.0000000000E+20
 34
1.0000000000E+20
 15
-1.0000000000E+20
 25
-1.0000000000E+20
 35
-1.0000000000E+20
146
0.0
 13
0.0
 23
0.0
 33
0.0
 16
1.0
 26
0.0
 36
0.0
 17
0.0
 27
1.0
 37
0.0
 76
     0
330
1B
  0
LAYOUT
  5
26
102
{ACAD_REACTORS
330
1A
102
}
330
1A
100
AcDbPlotSettings
  1

  2
none_device
  4

  6

 40
0.0
 41
0.0
 42
0.0
 43
0.0
 44
0.0
 45
0.0
 46
0.0
 47
0.0
 48
0.0
 49
0.0
140
0.0
141
0.0
142
1.0
143
1.0
 70
   688
 72
     0
 73
     0
 74
     5
  7

 75
    16
147
1.0
148
0.0
149
0.0
100
AcDbLayout
  1
Layout2
 70
     1
 71
     2
 10
0.0
 20
0.0
 11
0.0
 21
0.0
 12
0.0
 22
0.0
 32
0.0
 14
0.0
 24
0.0
 34
0.0
 15
0.0
 25
0.0
 35
0.0
146
0.0
 13
0.0
 23
0.0
 33
0.0
 16
1.0
 26
0.0
 36
0.0
 17
0.0
 27
1.0
 37
0.0
 76
     0
330
23
  0
LAYOUT
  5
22
102
{ACAD_REACTORS
330
1A
102
}
330
1A
100
AcDbPlotSettings
  1

  2
none_device
  4

  6

 40
0.0
 41
0.0
 42
0.0
 43
0.0
 44
0.0
 45
0.0
 46
0.0
 47
0.0
 48
0.0
 49
0.0
140
0.0
141
0.0
142
1.0
143
1.0
 70
  1712
 72
     0
 73
     0
 74
     0
  7

 75
     0
147
1.0
148
0.0
149
0.0
100
AcDbLayout
  1
Model
 70
     1
 71
     0
 10
0.0
 20
0.0
 11
297.0
 21
210.0
 12
0.0
 22
0.0
 32
0.0
 14
0.0
 24
0.0
 34
0.0
 15
297.0
 25
210.0
 35
0.0
146
0.0
 13
0.0
 23
0.0
 33
0.0
 16
1.0
 26
0.0
 36
0.0
 17
0.0
 27
1.0
 37
0.0
 76
     0
330
1F
331
29
  0
MLINESTYLE
  5
18
102
{ACAD_REACTORS
330
17
102
}
330
17
100
AcDbMlineStyle
  2
Standard
 70
     0
  3

 62
   256
 51
90.0
 52
90.0
 71
     2
 49
0.5
 62
   256
  6
BYLAYER
 49
-0.5
 62
   256
  6
BYLAYER
  0
ACDBPLACEHOLDER
  5
F
102
{ACAD_REACTORS
330
E
102
}
330
E
  0
VISUALSTYLE
  5
2F
102
{ACAD_REACTORS
330
2A
102
}
330
2A
100
AcDbVisualStyle
  2
2dWireframe
 70
     4
 71
     0
 72
     2
 73
     0
 90
        0
 40
-0.6
 41
-30.0
 62
     5
 63
     7
 74
     1
 91
        4
 64
     7
 65
   257
 75
     1
175
     1
 42
1.0
 92
        0
 66
   257
 43
1.0
 76
     1
 77
     6
 78
     2
 67
     7
 79
     5
170
     0
171
     0
290
     0
174
     0
 93
        1
 44
0.0
173
     0
291
     0
 45
0.0
1001
ACAD
1000
AcDbSavedByObjectVersion
1070
     0
  0
VISUALSTYLE
  5
31
102
{ACAD_REACTORS
330
2A
102
}
330
2A
100
AcDbVisualStyle
  2
3D Hidden
 70
     6
 71
     1
 72
     2
 73
     2
 90
        0
 40
-0.6
 41
-30.0
 62
     5
 63
     7
 74
     2
 91
        2
 64
     7
 65
   257
 75
     2
175
     1
 42
40.0
 92
        0
 66
   257
 43
1.0
 76
     1
 77
     6
 78
     2
 67
     7
 79
     3
170
     0
171
     0
290
     0
174
     0
 93
        1
 44
0.0
173
     0
291
     0
 45
0.0
1001
ACAD
1000
AcDbSavedByObjectVersion
1070
     0
  0
VISUALSTYLE
  5
30
102
{ACAD_REACTORS
330
2A
102
}
330
2A
100
AcDbVisualStyle
  2
3dWireframe
 70
     5
 71
     0
 72
     2
 73
     0
 90
        0
 40
-0.6
 41
-30.0
 62
     5
 63
     7
 74
     1
 91
        4
 64
     7
 65
   257
 75
     1
175
     1
 42
1.0
 92
        0
 66
   257
 43
1.0
 76
     1
 77
     6
 78
     2
 67
     7
 79
     5
170
     0
171
     0
290
     0
174
     0
 93
        1
 44
0.0
173
     0
291
     0
 45
0.0
1001
ACAD
1000
AcDbSavedByObjectVersion
1070
     0
  0
VISUALSTYLE
  5
32
102
{ACAD_REACTORS
330
2A
102
}
330
2A
100
AcDbVisualStyle
  2
Basic
 70
     7
 71
     1
 72
     0
 73
     1
 90
        0
 40
-0.6
 41
-30.0
 62
     5
 63
     7
 74
     0
 91
        4
 64
     7
 65
   257
 75
     1
175
     1
 42
1.0
 92
        8
 66
     7
 43
1.0
 76
     1
 77
     6
 78
     2
 67
     7
 79
     5
170
     0
171
     0
290
     0
174
     0
 93
        1
 44
0.0
173
     0
291
     1
 45
0.0
1001
ACAD
1000
AcDbSavedByObjectVersion
1070
     0
  0
VISUALSTYLE
  5
36
102
{ACAD_REACTORS
330
2A
102
}
330
2A
100
AcDbVisualStyle
  2
Brighten
 70
    12
 71
     2
 72
     2
 73
     0
 90
        0
 40
-0.6
 41
-30.0
 62
     5
 63
     7
 74
     1
 91
        4
 64
     7
 65
   257
 75
     1
175
     1
 42
1.0
 92
        8
 66
     7
 43
1.0
 76
     1
 77
     6
 78
     2
 67
     7
 79
     5
170
     0
171
     0
290
     0
174
     0
 93
        1
 44
50.0
173
     0
291
     1
 45
0.0
1001
ACAD
1000
AcDbSavedByObjectVersion
1070
     0
  0
VISUALSTYLE
  5
3A
102
{ACAD_REACTORS
330
2A
102
}
330
2A
100
AcDbVisualStyle
  2
ColorChange
 70
    16
 71
     2
 72
     2
 73
     3
 90
        0
 40
-0.6
 41
-30.0
 62
     5
 63
     8
 74
     1
 91
        4
 64
     7
 65
   257
 75
     1
175
     1
 42
1.0
 92
        8
 66
     8
 43
1.0
 76
     1
 77
     6
 78
     2
 67
     7
 79
     5
170
     0
171
     0
290
     0
174
     0
 93
        1
 44
0.0
173
     0
291
     1
 45
0.0
1001
ACAD
1000
AcDbSavedByObjectVersion
1070
     0
  0
VISUALSTYLE
  5
34
102
{ACAD_REACTORS
330
2A
102
}
330
2A
100
AcDbVisualStyle
  2
Conceptual
 70
     9
 71
     3
 72
     2
 73
     0
 90
        0
 40
-0.6
 41
-30.0
 62
     5
 63
     7
 74
     2
 91
        2
 64
     7
 65
   257
 75
     1
175
     1
 42
40.0
 92
        8
 66
     7
 43
1.0
 76
     1
 77
     6
 78
     2
 67
     7
 79
     3
170
     0
171
     0
290
     0
174
     0
 93
        1
 44
0.0
173
     0
291
     0
 45
0.0
1001
ACAD
1000
AcDbSavedByObjectVersion
1070
     0
  0
VISUALSTYLE
  5
35
102
{ACAD_REACTORS
330
2A
102
}
330
2A
100
AcDbVisualStyle
  2
Dim
 70
    11
 71
     2
 72
     2
 73
     0
 90
        0
 40
-0.6
 41
-30.0
 62
     5
 63
     7
 74
     1
 91
        4
 64
     7
 65
   257
 75
     1
175
     1
 42
1.0
 92
        8
 66
     7
 43
1.0
 76
     1
 77
     6
 78
     2
 67
     7
 79
     5
170
     0
171
     0
290
     0
174
     0
 93
        1
 44
-50.0
173
     0
291
     1
 45
0.0
1001
ACAD
1000
AcDbSavedByObjectVersion
1070
     0
  0
VISUALSTYLE
  5
39
102
{ACAD_REACTORS
330
2A
102
}
330
2A
100
AcDbVisualStyle
  2
Facepattern
 70
    15
 71
     2
 72
     2
 73
     0
 90
        0
 40
-0.6
 41
-30.0
 62
     5
 63
     7
 74
     1
 91
        4
 64
     7
 65
   257
 75
     1
175
     1
 42
1.0
 92
        8
 66
     7
 43
1.0
 76
     1
 77
     6
 78
     2
 67
     7
 79
     5
170
     0
171
     0
290
     0
174
     0
 93
        1
 44
0.0
173
     0
291
     1
 45
0.0
1001
ACAD
1000
AcDbSavedByObjectVersion
1070
     0
  0
VISUALSTYLE
  5
2B
102
{ACAD_REACTORS
330
2A
102
}
330
2A
100
AcDbVisualStyle
  2
Flat
 70
     0
 71
     2
 72
     1
 73
     1
 90
        2
 40
-0.6
 41
30.0
 62
     5
 63
     7
 74
     0
 91
        4
 64
     7
 65
   257
 75
     1
175
     1
 42
1.0
 92
        8
 66
     7
 43
1.0
 76
     1
 77
     6
 78
     2
 67
     7
 79
     5
170
     0
171
     0
290
     0
174
     0
 93
       13
 44
0.0
173
     0
291
     1
 45
0.0
1001
ACAD
1000
AcDbSavedByObjectVersion
1070
     0
  0
VISUALSTYLE
  5
2C
102
{ACAD_REACTORS
330
2A
102
}
330
2A
100
AcDbVisualStyle
  2
FlatWithEdges
 70
     1
 71
     2
 72
     1
 73
     1
 90
        2
 40
-0.6
 41
30.0
 62
     5
 63
     7
 74
     1
 91
        4
 64
     7
 65
   257
 75
     1
175
     1
 42
1.0
 92
        0
 66
   257
 43
1.0
 76
     1
 77
     6
 78
     2
 67
     7
 79
     5
170
     0
171
     0
290
     0
174
     0
 93
       13
 44
0.0
173
     0
291
     1
 45
0.0
1001
ACAD
1000
AcDbSavedByObjectVersion
1070
     0
  0
VISUALSTYLE
  5
2D
102
{ACAD_REACTORS
330
2A
102
}
330
2A
100
AcDbVisualStyle
  2
Gouraud
 70
     2
 71
     2
 72
     2
 73
     1
 90
        2
 40
-0.6
 41
30.0
 62
     5
 63
     7
 74
     0
 91
        4
 64
     7
 65
   257
 75
     1
175
     1
 42
1.0
 92
        0
 66
     7
 43
1.0
 76
     1
 77
     6
 78
     2
 67
     7
 79
     5
170
     0
171
     0
290
     0
174
     0
 93
       13
 44
0.0
173
     0
291
     1
 45
0.0
1001
ACAD
1000
AcDbSavedByObjectVersion
1070
     0
  0
VISUALSTYLE
  5
2E
102
{ACAD_REACTORS
330
2A
102
}
330
2A
100
AcDbVisualStyle
  2
GouraudWithEdges
 70
     3
 71
     2
 72
     2
 73
     1
 90
        2
 40
-0.6
 41
30.0
 62
     5
 63
     7
 74
     1
 91
        4
 64
     7
 65
   257
 75
     1
175
     1
 42
1.0
 92
        0
 66
   257
 43
1.0
 76
     1
 77
     6
 78
     2
 67
     7
 79
     5
170
     0
171
     0
290
     0
174
     0
 93
       13
 44
0.0
173
     0
291
     1
 45
0.0
1001
ACAD
1000
AcDbSavedByObjectVersion
1070
     0
  0
VISUALSTYLE
  5
38
102
{ACAD_REACTORS
330
2A
102
}
330
2A
100
AcDbVisualStyle
  2
Linepattern
 70
    14
 71
     2
 72
     2
 73
     0
 90
        0
 40
-0.6
 41
-30.0
 62
     5
 63
     7
 74
     1
 91
        4
 64
     7
 65
   257
 75
     7
175
     7
 42
1.0
 92
        8
 66
     7
 43
1.0
 76
     1
 77
     6
 78
     2
 67
     7
 79
     5
170
     0
171
     0
290
     0
174
     0
 93
        1
 44
0.0
173
     0
291
     1
 45
0.0
1001
ACAD
1000
AcDbSavedByObjectVersion
1070
     0
  0
VISUALSTYLE
  5
33
102
{ACAD_REACTORS
330
2A
102
}
330
2A
100
AcDbVisualStyle
  2
Realistic
 70
     8
 71
     2
 72
     2
 73
     0
 90
        0
 40
-0.6
 41
-30.0
 62
     5
 63
     7
 74
     1
 91
        0
 64
     7
 65
   257
 75
     1
175
     1
 42
1.0
 92
        8
 66
     8
 43
1.0
 76
     1
 77
     6
 78
     2
 67
     7
 79
     5
170
     0
171
     0
290
     0
174
     0
 93
       13
 44
0.0
173
     0
291
     0
 45
0.0
1001
ACAD
1000
AcDbSavedByObjectVersion
1070
     0
  0
VISUALSTYLE
  5
37
102
{ACAD_REACTORS
330
2A
102
}
330
2A
100
AcDbVisualStyle
  2
Thicken
 70
    13
 71
     2
 72
     2
 73
     0
 90
        0
 40
-0.6
 41
-30.0
 62
     5
 63
     7
 74
     1
 91
        4
 64
     7
 65
   257
 75
     1
175
     1
 42
1.0
 92
       12
 66
     7
 43
1.0
 76
     1
 77
     6
 78
     2
 67
     7
 79
     5
170
     0
171
     0
290
     0
174
     0
 93
        1
 44
0.0
173
     0
291
     1
 45
0.0
1001
ACAD
1000
AcDbSavedByObjectVersion
1070
     0
  0
DICTIONARYVAR
  5
240
102
{ACAD_REACTORS
330
23E
102
}
330
23E
100
DictionaryVariables
280
     0
  1
80.000000
  0
DICTIONARYVAR
  5
23F
102
{ACAD_REACTORS
330
23E
102
}
330
23E
100
DictionaryVariables
280
     0
  1
5.000000
  0
ENDSEC
  0
EOF
