  0
SECTION
  2
HEADER
  9
$ACADVER
  1
AC1015
  9
$ACADMAINTVER
 70
     6
  9
$DWGCODEPAGE
  3
ANSI_1252
  9
$INSBASE
 10
0.0
 20
0.0
 30
0.0
  9
$EXTMIN
 10
0.0
 20
0.0
 30
0.0
  9
$EXTMAX
 10
297.0
 20
210.0
 30
0.0
  9
$LIMMIN
 10
0.0
 20
0.0
  9
$LIMMAX
 10
297.0
 20
210.0
  9
$ORTHOMODE
 70
     0
  9
$REGENMODE
 70
     1
  9
$FILLMODE
 70
     1
  9
$QTEXTMODE
 70
     0
  9
$MIRRTEXT
 70
     1
  9
$LTSCALE
 40
1.0
  9
$ATTMODE
 70
     1
  9
$TEXTSIZE
 40
2.0
  9
$TRACEWID
 40
1.0
  9
$TEXTSTYLE
  7
Standard
  9
$CLAYER
  8
0
  9
$CELTYPE
  6
ByLayer
  9
$CECOLOR
 62
   256
  9
$CELTSCALE
 40
1.0
  9
$DISPSILH
 70
     0
  9
$DIMSCALE
 40
1.0
  9
$DIMASZ
 40
3.0
  9
$DIMEXO
 40
0.0
  9
$DIMDLI
 40
3.75
  9
$DIMRND
 40
0.0
  9
$DIMDLE
 40
0.0
  9
$DIMEXE
 40
1.0
  9
$DIMTP
 40
0.0
  9
$DIMTM
 40
0.0
  9
$DIMTXT
 40
2.0
  9
$DIMCEN
 40
2.5
  9
$DIMTSZ
 40
0.0
  9
$DIMTOL
 70
     0
  9
$DIMLIM
 70
     0
  9
$DIMTIH
 70
     1
  9
$DIMTOH
 70
     1
  9
$DIMSE1
 70
     0
  9
$DIMSE2
 70
     0
  9
$DIMTAD
 70
     1
  9
$DIMZIN
 70
     0
  9
$DIMBLK
  1

  9
$DIMASO
 70
     1
  9
$DIMSHO
 70
     1
  9
$DIMPOST
  1

  9
$DIMAPOST
  1

  9
$DIMALT
 70
     0
  9
$DIMALTD
 70
     3
  9
$DIMALTF
 40
0.0393700787
  9
$DIMLFAC
 40
1.0
  9
$DIMTOFL
 70
     1
  9
$DIMTVP
 40
0.0
  9
$DIMTIX
 70
     0
  9
$DIMSOXD
 70
     0
  9
$DIMSAH
 70
     0
  9
$DIMBLK1
  1

  9
$DIMBLK2
  1

  9
$DIMSTYLE
  2
ISO-25
  9
$DIMCLRD
 70
     0
  9
$DIMCLRE
 70
     0
  9
$DIMCLRT
 70
     0
  9
$DIMTFAC
 40
1.0
  9
$DIMGAP
 40
1.524
  9
$DIMJUST
 70
     0
  9
$DIMSD1
 70
     0
  9
$DIMSD2
 70
     0
  9
$DIMTOLJ
 70
     0
  9
$DIMTZIN
 70
     0
  9
$DIMALTZ
 70
     0
  9
$DIMALTTZ
 70
     0
  9
$DIMUPT
 70
     0
  9
$DIMDEC
 70
     2
  9
$DIMTDEC
 70
     3
  9
$DIMALTU
 70
     2
  9
$DIMALTTD
 70
     3
  9
$DIMTXSTY
  7
Standard
  9
$DIMAUNIT
 70
     0
  9
$DIMADEC
 70
     2
  9
$DIMALTRND
 40
0.0
  9
$DIMAZIN
 70
     0
  9
$DIMDSEP
 70
    44
  9
$DIMATFIT
 70
     3
  9
$DIMFRAC
 70
     0
  9
$DIMLDRBLK
  1

  9
$DIMLUNIT
 70
     2
  9
$DIMLWD
 70
    -2
  9
$DIMLWE
 70
    -2
  9
$DIMTMOVE
 70
     0
  9
$LUNITS
 70
     2
  9
$LUPREC
 70
     2
  9
$SKETCHINC
 40
1.0
  9
$FILLETRAD
 40
10.0
  9
$AUNITS
 70
     0
  9
$AUPREC
 70
     2
  9
$MENU
  1
.
  9
$ELEVATION
 40
0.0
  9
$PELEVATION
 40
0.0
  9
$THICKNESS
 40
0.0
  9
$LIMCHECK
 70
     0
  9
$CHAMFERA
 40
10.0
  9
$CHAMFERB
 40
10.0
  9
$CHAMFERC
 40
20.0
  9
$CHAMFERD
 40
0.0
  9
$SKPOLY
 70
     0
  9
$TDCREATE
 40
2455679.525657789
  9
$TDUCREATE
 40
2455679.442324456
  9
$TDUPDATE
 40
2455679.525657801
  9
$TDUUPDATE
 40
2455679.442324467
  9
$TDINDWG
 40
0.0000000116
  9
$TDUSRTIMER
 40
0.0000000116
  9
$USRTIMER
 70
     1
  9
$ANGBASE
 50
0.0
  9
$ANGDIR
 70
     0
  9
$PDMODE
 70
     0
  9
$PDSIZE
 40
-1.0
  9
$PLINEWID
 40
0.0
  9
$SPLFRAME
 70
     0
  9
$SPLINETYPE
 70
     6
  9
$SPLINESEGS
 70
     8
  9
$HANDSEED
  5
240
  9
$SURFTAB1
 70
     6
  9
$SURFTAB2
 70
     6
  9
$SURFTYPE
 70
     6
  9
$SURFU
 70
     6
  9
$SURFV
 70
     6
  9
$UCSBASE
  2

  9
$UCSNAME
  2

  9
$UCSORG
 10
0.0
 20
0.0
 30
0.0
  9
$UCSXDIR
 10
1.0
 20
0.0
 30
0.0
  9
$UCSYDIR
 10
0.0
 20
1.0
 30
0.0
  9
$UCSORTHOREF
  2

  9
$UCSORTHOVIEW
 70
     0
  9
$UCSORGTOP
 10
0.0
 20
0.0
 30
0.0
  9
$UCSORGBOTTOM
 10
0.0
 20
0.0
 30
0.0
  9
$UCSORGLEFT
 10
0.0
 20
0.0
 30
0.0
  9
$UCSORGRIGHT
 10
0.0
 20
0.0
 30
0.0
  9
$UCSORGFRONT
 10
0.0
 20
0.0
 30
0.0
  9
$UCSORGBACK
 10
0.0
 20
0.0
 30
0.0
  9
$PUCSBASE
  2

  9
$PUCSNAME
  2

  9
$PUCSORG
 10
0.0
 20
0.0
 30
0.0
  9
$PUCSXDIR
 10
1.0
 20
0.0
 30
0.0
  9
$PUCSYDIR
 10
0.0
 20
1.0
 30
0.0
  9
$PUCSORTHOREF
  2

  9
$PUCSORTHOVIEW
 70
     0
  9
$PUCSORGTOP
 10
0.0
 20
0.0
 30
0.0
  9
$PUCSORGBOTTOM
 10
0.0
 20
0.0
 30
0.0
  9
$PUCSORGLEFT
 10
0.0
 20
0.0
 30
0.0
  9
$PUCSORGRIGHT
 10
0.0
 20
0.0
 30
0.0
  9
$PUCSORGFRONT
 10
0.0
 20
0.0
 30
0.0
  9
$PUCSORGBACK
 10
0.0
 20
0.0
 30
0.0
  9
$USERI1
 70
     0
  9
$USERI2
 70
     0
  9
$USERI3
 70
     0
  9
$USERI4
 70
     0
  9
$USERI5
 70
     0
  9
$USERR1
 40
0.0
  9
$USERR2
 40
0.0
  9
$USERR3
 40
0.0
  9
$USERR4
 40
0.0
  9
$USERR5
 40
0.0
  9
$WORLDVIEW
 70
     1
  9
$SHADEDGE
 70
     3
  9
$SHADEDIF
 70
    70
  9
$TILEMODE
 70
     1
  9
$MAXACTVP
 70
    64
  9
$PINSBASE
 10
0.0
 20
0.0
 30
0.0
  9
$PLIMCHECK
 70
     0
  9
$PEXTMIN
 10
1.0000000000E+20
 20
1.0000000000E+20
 30
1.0000000000E+20
  9
$PEXTMAX
 10
-1.0000000000E+20
 20
-1.0000000000E+20
 30
-1.0000000000E+20
  9
$PLIMMIN
 10
0.0
 20
0.0
  9
$PLIMMAX
 10
420.0
 20
297.0
  9
$UNITMODE
 70
     0
  9
$VISRETAIN
 70
     1
  9
$PLINEGEN
 70
     0
  9
$PSLTSCALE
 70
     1
  9
$TREEDEPTH
 70
  3020
  9
$CMLSTYLE
  2
Standard
  9
$CMLJUST
 70
     0
  9
$CMLSCALE
 40
20.0
  9
$PROXYGRAPHICS
 70
     1
  9
$MEASUREMENT
 70
     1
  9
$CELWEIGHT
370
    -1
  9
$ENDCAPS
280
     0
  9
$JOINSTYLE
280
     0
  9
$LWDISPLAY
290
     1
  9
$INSUNITS
 70
     4
  9
$HYPERLINKBASE
  1

  9
$STYLESHEET
  1

  9
$XEDIT
290
     1
  9
$CEPSNTYPE
380
     0
  9
$PSTYLEMODE
290
     1
  9
$FINGERPRINTGUID
  2
{188DED47-9D79-4E96-AC95-FFAC19CA1FBB}
  9
$VERSIONGUID
  2
{FAEB1C32-E019-11D5-929B-00C0DF256EC4}
  9
$EXTNAMES
290
     1
  9
$PSVPSCALE
 40
0.0
  9
$OLESTARTUP
290
     0
  0
ENDSEC
  0
SECTION
  2
CLASSES
  0
CLASS
  1
ACDBDICTIONARYWDFLT
  2
AcDbDictionaryWithDefault
  3
ObjectDBX Classes
 90
        0
280
     0
281
     0
  0
CLASS
  1
VISUALSTYLE
  2
AcDbVisualStyle
  3
ObjectDBX Classes
 90
     4095
280
     0
281
     0
  0
CLASS
  1
DICTIONARYVAR
  2
AcDbDictionaryVar
  3
ObjectDBX Classes
 90
        0
280
     0
281
     0
  0
CLASS
  1
ACDBPLACEHOLDER
  2
AcDbPlaceHolder
  3
ObjectDBX Classes
 90
        0
280
     0
281
     0
  0
CLASS
  1
LAYOUT
  2
AcDbLayout
  3
ObjectDBX Classes
 90
        0
280
     0
281
     0
  0
ENDSEC
  0
SECTION
  2
TABLES
  0
TABLE
  2
VPORT
  5
8
330
0
100
AcDbSymbolTable
 70
     1
  0
VPORT
  5
29
330
8
100
AcDbSymbolTableRecord
100
AcDbViewportTableRecord
  2
*Active
 70
     0
 10
0.0
 20
0.0
 11
1.0
 21
1.0
 12
148.5
 22
105.0
 13
0.0
 23
0.0
 14
10.0
 24
10.0
 15
10.0
 25
10.0
 16
0.0
 26
0.0
 36
1.0
 17
0.0
 27
0.0
 37
0.0
 40
210.0
 41
1.4142857143
 42
50.0
 43
0.0
 44
0.0
 50
0.0
 51
0.0
 71
     0
 72
  2000
 73
     1
 74
     3
 75
     0
 76
     0
 77
     0
 78
     0
281
     0
 65
     1
110
0.0
120
0.0
130
0.0
111
1.0
121
0.0
131
0.0
112
0.0
122
1.0
132
0.0
 79
     0
146
0.0
  0
ENDTAB
  0
TABLE
  2
LTYPE
  5
5
330
0
100
AcDbSymbolTable
 70
     6
  0
LTYPE
  5
14
330
5
100
AcDbSymbolTableRecord
100
AcDbLinetypeTableRecord
  2
ByBlock
 70
     0
  3

 72
    65
 73
     0
 40
0.0
  0
LTYPE
  5
15
330
5
100
AcDbSymbolTableRecord
100
AcDbLinetypeTableRecord
  2
ByLayer
 70
     0
  3

 72
    65
 73
     0
 40
0.0
  0
LTYPE
  5
16
330
5
100
AcDbSymbolTableRecord
100
AcDbLinetypeTableRecord
  2
Continuous
 70
     0
  3
Solid line
 72
    65
 73
     0
 40
0.0
  0
LTYPE
  5
3B
330
5
100
AcDbSymbolTableRecord
100
AcDbLinetypeTableRecord
  2
HIDDEN
 70
     0
  3
Hidden __ __ __ __ __ __ __ __ __ __ __ __ __ __
 72
    65
 73
     2
 40
1.905
 49
1.27
 74
     0
 49
-0.635
 74
     0
  0
LTYPE
  5
3C
330
5
100
AcDbSymbolTableRecord
100
AcDbLinetypeTableRecord
  2
PHANTOM
 70
     0
  3
Phantom ______  __  __  ______  __  __  ______
 72
    65
 73
     6
 40
12.7
 49
6.35
 74
     0
 49
-1.27
 74
     0
 49
1.27
 74
     0
 49
-1.27
 74
     0
 49
1.27
 74
     0
 49
-1.27
 74
     0
  0
LTYPE
  5
3D
330
5
100
AcDbSymbolTableRecord
100
AcDbLinetypeTableRecord
  2
CENTER
 70
     0
  3
Center ____ _ ____ _ ____ _ ____ _ ____ _ ____
 72
    65
 73
     4
 40
10.16
 49
6.35
 74
     0
 49
-1.27
 74
     0
 49
1.27
 74
     0
 49
-1.27
 74
     0
  0
LTYPE
  5
3E
330
5
100
AcDbSymbolTableRecord
100
AcDbLinetypeTableRecord
  2
CENTERX2
 70
     0
  3
Center (2x) ________  __  ________  __  _____
 72
    65
 73
     4
 40
20.32
 49
12.7
 74
     0
 49
-2.54
 74
     0
 49
2.54
 74
     0
 49
-2.54
 74
     0
  0
LTYPE
  5
3F
330
5
100
AcDbSymbolTableRecord
100
AcDbLinetypeTableRecord
  2
DOT2
 70
     0
  3
Dot (.5x) ........................................
 72
    65
 73
     2
 40
0.635
 49
0.0
 74
     0
 49
-0.635
 74
     0
  0
ENDTAB
  0
TABLE
  2
LAYER
  5
2
330
0
100
AcDbSymbolTable
 70
     5
  0
LAYER
  5
10
330
2
100
AcDbSymbolTableRecord
100
AcDbLayerTableRecord
  2
0
 70
     0
 62
     7
  6
Continuous
370
    -3
390
F
  0
LAYER
  5
40
330
2
100
AcDbSymbolTableRecord
100
AcDbLayerTableRecord
  2
FORMAT
 70
     0
 62
     7
  6
Continuous
370
    -3
390
F
  0
LAYER
  5
41
330
2
100
AcDbSymbolTableRecord
100
AcDbLayerTableRecord
  2
VERMASSUNG
 70
     0
 62
     7
  6
Continuous
370
    -3
390
F
  0
LAYER
  5
42
330
2
100
AcDbSymbolTableRecord
100
AcDbLayerTableRecord
  2
KOPF_DÜNN
 70
     0
 62
     7
  6
Continuous
370
    -3
390
F
  0
LAYER
  5
43
330
2
100
AcDbSymbolTableRecord
100
AcDbLayerTableRecord
  2
KOPF_DICK
 70
     0
 62
     7
  6
Continuous
370
    15
390
F
  0
ENDTAB
  0
TABLE
  2
STYLE
  5
3
330
0
100
AcDbSymbolTable
 70
     3
  0
STYLE
  5
11
330
3
100
AcDbSymbolTableRecord
100
AcDbTextStyleTableRecord
  2
Standard
 70
     0
 40
0.0
 41
1.0
 50
0.0
 71
     0
 42
2.5
  3
txt
  4

  0
STYLE
  5
44
330
3
100
AcDbSymbolTableRecord
100
AcDbTextStyleTableRecord
  2
SLDTEXTSTYLE0
 70
     0
 40
0.0
 41
0.7
 50
0.0
 71
     0
 42
0.2
  3
TXT
  4

  0
STYLE
  5
48
330
3
100
AcDbSymbolTableRecord
100
AcDbTextStyleTableRecord
  2
SLDTEXTSTYLE1
 70
     0
 40
0.0
 41
0.6473684211
 50
0.0
 71
     0
 42
0.2
  3
TXT
  4

  0
ENDTAB
  0
TABLE
  2
VIEW
  5
6
330
0
100
AcDbSymbolTable
 70
     0
  0
ENDTAB
  0
TABLE
  2
UCS
  5
7
330
0
100
AcDbSymbolTable
 70
     0
  0
ENDTAB
  0
TABLE
  2
APPID
  5
9
330
0
100
AcDbSymbolTable
 70
     1
  0
APPID
  5
12
330
9
100
AcDbSymbolTableRecord
100
AcDbRegAppTableRecord
  2
ACAD
 70
     0
  0
ENDTAB
  0
TABLE
  2
DIMSTYLE
  5
A
330
0
100
AcDbSymbolTable
 70
     5
100
AcDbDimStyleTable
  0
DIMSTYLE
105
27
330
A
100
AcDbSymbolTableRecord
100
AcDbDimStyleTableRecord
  2
ISO-25
 70
     0
 41
2.5
 42
0.625
 43
3.75
 44
1.25
 73
     0
 74
     0
 77
     1
 78
     8
140
2.5
141
2.5
143
0.0393700787
147
0.625
171
     3
172
     1
271
     2
272
     2
274
     3
278
    44
283
     0
284
     8
340
11
  0
DIMSTYLE
105
1E0
102
{ACAD_REACTORS
330
1DF
330
210
330
21A
330
224
330
22E
102
}
330
A
100
AcDbSymbolTableRecord
100
AcDbDimStyleTableRecord
  2
SLDDIMSTYLE0
 70
     0
 41
3.0
 44
0.0
 45
0.000000001
 73
     0
 74
     0
 77
     1
 78
    12
140
2.0
147
0.5
173
     1
271
     2
272
     3
284
    12
340
44
  0
DIMSTYLE
105
1ED
102
{ACAD_REACTORS
330
1EC
102
}
330
A
100
AcDbSymbolTableRecord
100
AcDbDimStyleTableRecord
  2
SLDDIMSTYLE1
 70
     0
 41
3.0
 44
0.0
 45
0.000000001
 73
     0
 74
     0
 77
     1
 78
    12
140
2.0
147
0.5
173
     1
271
     2
272
     2
284
    12
340
44
  0
DIMSTYLE
105
1F8
102
{ACAD_REACTORS
330
1F7
102
}
330
A
100
AcDbSymbolTableRecord
100
AcDbDimStyleTableRecord
  2
SLDDIMSTYLE2
 70
     0
 41
3.0
 44
0.0
 45
0.000000001
 73
     0
 74
     0
 77
     1
 78
    12
140
2.0
147
0.5
173
     1
271
     2
272
     2
284
    12
340
44
  0
DIMSTYLE
105
205
102
{ACAD_REACTORS
330
204
102
}
330
A
100
AcDbSymbolTableRecord
100
AcDbDimStyleTableRecord
  2
SLDDIMSTYLE3
 70
     0
 41
3.0
 44
0.0
 45
0.000000001
 73
     0
 74
     0
 77
     1
 78
    12
140
2.0
147
0.5
173
     1
271
     2
272
     3
284
    12
340
44
  0
ENDTAB
  0
TABLE
  2
BLOCK_RECORD
  5
1
330
0
100
AcDbSymbolTable
 70
     9
  0
BLOCK_RECORD
  5
1F
330
1
100
AcDbSymbolTableRecord
100
AcDbBlockTableRecord
  2
*Model_Space
340
22
  0
BLOCK_RECORD
  5
1B
330
1
100
AcDbSymbolTableRecord
100
AcDbBlockTableRecord
  2
*Paper_Space
340
1E
  0
BLOCK_RECORD
  5
23
330
1
100
AcDbSymbolTableRecord
100
AcDbBlockTableRecord
  2
*Paper_Space0
340
26
  0
BLOCK_RECORD
  5
1E1
330
1
100
AcDbSymbolTableRecord
100
AcDbBlockTableRecord
  2
*D1
340
0
  0
BLOCK_RECORD
  5
1EE
330
1
100
AcDbSymbolTableRecord
100
AcDbBlockTableRecord
  2
*D2
340
0
  0
BLOCK_RECORD
  5
1F9
330
1
100
AcDbSymbolTableRecord
100
AcDbBlockTableRecord
  2
*D3
340
0
  0
BLOCK_RECORD
  5
206
330
1
100
AcDbSymbolTableRecord
100
AcDbBlockTableRecord
  2
*D4
340
0
  0
BLOCK_RECORD
  5
211
330
1
100
AcDbSymbolTableRecord
100
AcDbBlockTableRecord
  2
*D5
340
0
  0
BLOCK_RECORD
  5
21B
330
1
100
AcDbSymbolTableRecord
100
AcDbBlockTableRecord
  2
*D6
340
0
  0
BLOCK_RECORD
  5
225
330
1
100
AcDbSymbolTableRecord
100
AcDbBlockTableRecord
  2
*D7
340
0
  0
BLOCK_RECORD
  5
22F
330
1
100
AcDbSymbolTableRecord
100
AcDbBlockTableRecord
  2
*D8
340
0
  0
ENDTAB
  0
ENDSEC
  0
SECTION
  2
BLOCKS
  0
BLOCK
  5
20
330
1F
100
AcDbEntity
  8
0
100
AcDbBlockBegin
  2
*Model_Space
 70
     0
 10
0.0
 20
0.0
 30
0.0
  3
*Model_Space
  1

  0
ENDBLK
  5
21
330
1F
100
AcDbEntity
  8
0
100
AcDbBlockEnd
  0
BLOCK
  5
1C
330
1B
100
AcDbEntity
 67
     1
  8
0
100
AcDbBlockBegin
  2
*Paper_Space
 70
     0
 10
0.0
 20
0.0
 30
0.0
  3
*Paper_Space
  1

  0
ENDBLK
  5
1D
330
1B
100
AcDbEntity
 67
     1
  8
0
100
AcDbBlockEnd
  0
BLOCK
  5
24
330
23
100
AcDbEntity
  8
0
100
AcDbBlockBegin
  2
*Paper_Space0
 70
     0
 10
0.0
 20
0.0
 30
0.0
  3
*Paper_Space0
  1

  0
ENDBLK
  5
25
330
23
100
AcDbEntity
  8
0
100
AcDbBlockEnd
  0
BLOCK
  5
1E2
330
1E1
100
AcDbEntity
  8
0
100
AcDbBlockBegin
  2
*D1
 70
     1
 10
0.0
 20
0.0
 30
0.0
  3
*D1
  1

  0
SOLID
  5
1E4
330
1E1
100
AcDbEntity
  8
VERMASSUNG
100
AcDbTrace
 10
44.7650054171
 20
136.3839653304
 30
0.0
 11
44.3150054171
 21
133.3839653304
 31
0.0
 12
45.2150054171
 22
133.3839653304
 32
0.0
 13
45.2150054171
 23
133.3839653304
 33
0.0
  0
SOLID
  5
1E5
330
1E1
100
AcDbEntity
  8
VERMASSUNG
100
AcDbTrace
 10
44.7650054171
 20
73.3839653304
 30
0.0
 11
45.2150054171
 21
76.3839653304
 31
0.0
 12
44.3150054171
 22
76.3839653304
 32
0.0
 13
44.3150054171
 23
76.3839653304
 33
0.0
  0
LINE
  5
1E6
330
1E1
100
AcDbEntity
  8
VERMASSUNG
100
AcDbLine
 10
81.5187363134
 20
136.3839653304
 30
0.0
 11
43.7650054171
 21
136.3839653304
 31
0.0
  0
LINE
  5
1E7
330
1E1
100
AcDbEntity
  8
VERMASSUNG
100
AcDbLine
 10
81.5187363134
 20
73.3839653304
 30
0.0
 11
43.7650054171
 21
73.3839653304
 31
0.0
  0
LINE
  5
1E8
330
1E1
100
AcDbEntity
  8
VERMASSUNG
100
AcDbLine
 10
44.7650054171
 20
136.3839653304
 30
0.0
 11
44.7650054171
 21
73.3839653304
 31
0.0
  0
MTEXT
  5
1E9
330
1E1
100
AcDbEntity
  8
VERMASSUNG
100
AcDbMText
 10
41.9868699281
 20
97.1804236186
 30
0.0
 40
2.0
 41
0.0
 71
     1
 72
     1
  1
HSK A 
  7
SLDTEXTSTYLE0
 11
-7.044195017643634E-15
 21
1.0
 31
0.0
 73
     1
 44
1.0
  0
MTEXT
  5
1EA
330
1E1
100
AcDbEntity
  8
VERMASSUNG
100
AcDbMText
 10
42.1868699376
 20
106.1804241625
 30
0.0
 40
2.0
 41
0.0
 71
     1
 72
     1
  1
%%c
  7
SLDTEXTSTYLE0
 11
-7.044195017643634E-15
 21
1.0
 31
0.0
 73
     1
 44
1.0
  0
MTEXT
  5
1EB
330
1E1
100
AcDbEntity
  8
VERMASSUNG
100
AcDbMText
 10
42.186870054
 20
109.7887508126
 30
0.0
 40
2.0
 41
0.0
 71
     1
 72
     1
  1
63
  7
SLDTEXTSTYLE0
 11
-7.044195017643634E-15
 21
1.0
 31
0.0
 73
     1
 44
1.0
  0
ENDBLK
  5
1E3
330
1E1
100
AcDbEntity
  8
0
100
AcDbBlockEnd
  0
BLOCK
  5
1EF
330
1EE
100
AcDbEntity
  8
0
100
AcDbBlockBegin
  2
*D2
 70
     1
 10
0.0
 20
0.0
 30
0.0
  3
*D2
  1

  0
SOLID
  5
1F1
330
1EE
100
AcDbEntity
  8
VERMASSUNG
100
AcDbTrace
 10
191.7187363134
 20
136.7788732394
 30
0.0
 11
194.7187363134
 21
136.3288732394
 31
0.0
 12
194.7187363134
 22
137.2288732394
 32
0.0
 13
194.7187363134
 23
137.2288732394
 33
0.0
  0
SOLID
  5
1F2
330
1EE
100
AcDbEntity
  8
VERMASSUNG
100
AcDbTrace
 10
241.2187363134
 20
136.7788732394
 30
0.0
 11
238.2187363134
 21
137.2288732394
 31
0.0
 12
238.2187363134
 22
136.3288732394
 32
0.0
 13
238.2187363134
 23
136.3288732394
 33
0.0
  0
LINE
  5
1F3
330
1EE
100
AcDbEntity
  8
VERMASSUNG
100
AcDbLine
 10
191.7187363134
 20
112.7839653304
 30
0.0
 11
191.7187363134
 21
137.7788732394
 31
0.0
  0
LINE
  5
1F4
330
1EE
100
AcDbEntity
  8
VERMASSUNG
100
AcDbLine
 10
241.2187363134
 20
116.5351843471
 30
0.0
 11
241.2187363134
 21
137.7788732394
 31
0.0
  0
LINE
  5
1F5
330
1EE
100
AcDbEntity
  8
VERMASSUNG
100
AcDbLine
 10
191.7187363134
 20
136.7788732394
 30
0.0
 11
241.2187363134
 21
136.7788732394
 31
0.0
  0
MTEXT
  5
1F6
330
1EE
100
AcDbEntity
  8
VERMASSUNG
100
AcDbMText
 10
213.9693495312
 20
139.3570086026
 30
0.0
 40
2.0
 41
0.0
 71
     1
 72
     1
  1
49.5
  7
SLDTEXTSTYLE0
 73
     1
 44
1.0
  0
ENDBLK
  5
1F0
330
1EE
100
AcDbEntity
  8
0
100
AcDbBlockEnd
  0
BLOCK
  5
1FA
330
1F9
100
AcDbEntity
  8
0
100
AcDbBlockBegin
  2
*D3
 70
     1
 10
0.0
 20
0.0
 30
0.0
  3
*D3
  1

  0
SOLID
  5
1FC
330
1F9
100
AcDbEntity
  8
VERMASSUNG
100
AcDbTrace
 10
251.3286260338
 20
96.8839653304
 30
0.0
 11
251.7786260338
 21
99.8839653304
 31
0.0
 12
250.8786260338
 22
99.8839653304
 32
0.0
 13
250.8786260338
 23
99.8839653304
 33
0.0
  0
SOLID
  5
1FD
330
1F9
100
AcDbEntity
  8
VERMASSUNG
100
AcDbTrace
 10
251.3286260338
 20
112.8839653304
 30
0.0
 11
250.8786260338
 21
109.8839653304
 31
0.0
 12
251.7786260338
 22
109.8839653304
 32
0.0
 13
251.7786260338
 23
109.8839653304
 33
0.0
  0
LINE
  5
1FE
330
1F9
100
AcDbEntity
  8
VERMASSUNG
100
AcDbLine
 10
237.7187363134
 20
96.8839653304
 30
0.0
 11
252.3286260338
 21
96.8839653304
 31
0.0
  0
LINE
  5
1FF
330
1F9
100
AcDbEntity
  8
VERMASSUNG
100
AcDbLine
 10
237.7187363134
 20
112.8839653304
 30
0.0
 11
252.3286260338
 21
112.8839653304
 31
0.0
  0
LINE
  5
200
330
1F9
100
AcDbEntity
  8
VERMASSUNG
100
AcDbLine
 10
251.3286260338
 20
96.8839653304
 30
0.0
 11
251.3286260338
 21
112.8839653304
 31
0.0
  0
MTEXT
  5
201
330
1F9
100
AcDbEntity
  8
VERMASSUNG
100
AcDbMText
 10
248.7504905542
 20
101.279928494
 30
0.0
 40
2.0
 41
0.0
 71
     1
 72
     1
  1
%%c
  7
SLDTEXTSTYLE0
 11
6.123233995736766E-17
 21
1.0
 31
0.0
 73
     1
 44
1.0
  0
MTEXT
  5
202
330
1F9
100
AcDbEntity
  8
VERMASSUNG
100
AcDbMText
 10
248.7504906706
 20
104.8886067172
 30
0.0
 40
2.0
 41
0.0
 71
     1
 72
     1
  1
16
  7
SLDTEXTSTYLE0
 11
6.123233995736766E-17
 21
1.0
 31
0.0
 73
     1
 44
1.0
  0
MTEXT
  5
203
330
1F9
100
AcDbEntity
  8
VERMASSUNG
100
AcDbMText
 10
248.7504906706
 20
107.2882036836
 30
0.0
 40
2.0
 41
0.0
 71
     1
 72
     1
  1
 
  7
SLDTEXTSTYLE0
 11
6.123233995736766E-17
 21
1.0
 31
0.0
 73
     1
 44
1.0
  0
ENDBLK
  5
1FB
330
1F9
100
AcDbEntity
  8
0
100
AcDbBlockEnd
  0
BLOCK
  5
207
330
206
100
AcDbEntity
  8
0
100
AcDbBlockBegin
  2
*D4
 70
     1
 10
0.0
 20
0.0
 30
0.0
  3
*D4
  1

  0
SOLID
  5
209
330
206
100
AcDbEntity
  8
VERMASSUNG
100
AcDbTrace
 10
257.3286260338
 20
91.3839653304
 30
0.0
 11
257.7786260338
 21
94.3839653304
 31
0.0
 12
256.8786260338
 22
94.3839653304
 32
0.0
 13
256.8786260338
 23
94.3839653304
 33
0.0
  0
SOLID
  5
20A
330
206
100
AcDbEntity
  8
VERMASSUNG
100
AcDbTrace
 10
257.3286260338
 20
118.3839653304
 30
0.0
 11
256.8786260338
 21
115.3839653304
 31
0.0
 12
257.7786260338
 22
115.3839653304
 32
0.0
 13
257.7786260338
 23
115.3839653304
 33
0.0
  0
LINE
  5
20B
330
206
100
AcDbEntity
  8
VERMASSUNG
100
AcDbLine
 10
241.2187363134
 20
91.3839653304
 30
0.0
 11
258.3286260338
 21
91.3839653304
 31
0.0
  0
LINE
  5
20C
330
206
100
AcDbEntity
  8
VERMASSUNG
100
AcDbLine
 10
241.2187363134
 20
118.3839653304
 30
0.0
 11
258.3286260338
 21
118.3839653304
 31
0.0
  0
LINE
  5
20D
330
206
100
AcDbEntity
  8
VERMASSUNG
100
AcDbLine
 10
257.3286260338
 20
91.3839653304
 30
0.0
 11
257.3286260338
 21
118.3839653304
 31
0.0
  0
MTEXT
  5
20E
330
206
100
AcDbEntity
  8
VERMASSUNG
100
AcDbMText
 10
254.7504905542
 20
101.680248104
 30
0.0
 40
2.0
 41
0.0
 71
     1
 72
     1
  1
%%c
  7
SLDTEXTSTYLE0
 11
6.123233995736766E-17
 21
1.0
 31
0.0
 73
     1
 44
1.0
  0
MTEXT
  5
20F
330
206
100
AcDbEntity
  8
VERMASSUNG
100
AcDbMText
 10
254.7504906706
 20
105.2889263272
 30
0.0
 40
2.0
 41
0.0
 71
     1
 72
     1
  1
27
  7
SLDTEXTSTYLE0
 11
6.123233995736766E-17
 21
1.0
 31
0.0
 73
     1
 44
1.0
  0
ENDBLK
  5
208
330
206
100
AcDbEntity
  8
0
100
AcDbBlockEnd
  0
BLOCK
  5
212
330
211
100
AcDbEntity
  8
0
100
AcDbBlockBegin
  2
*D5
 70
     1
 10
0.0
 20
0.0
 30
0.0
  3
*D5
  1

  0
SOLID
  5
214
330
211
100
AcDbEntity
  8
VERMASSUNG
100
AcDbTrace
 10
81.2187363134
 20
148.7788732394
 30
0.0
 11
84.2187363134
 21
148.3288732394
 31
0.0
 12
84.2187363134
 22
149.2288732394
 32
0.0
 13
84.2187363134
 23
149.2288732394
 33
0.0
  0
SOLID
  5
215
330
211
100
AcDbEntity
  8
VERMASSUNG
100
AcDbTrace
 10
241.2187363134
 20
148.7788732394
 30
0.0
 11
238.2187363134
 21
149.2288732394
 31
0.0
 12
238.2187363134
 22
148.3288732394
 32
0.0
 13
238.2187363134
 23
148.3288732394
 33
0.0
  0
LINE
  5
216
330
211
100
AcDbEntity
  8
VERMASSUNG
100
AcDbLine
 10
81.2187363134
 20
136.0839653304
 30
0.0
 11
81.2187363134
 21
149.7788732394
 31
0.0
  0
LINE
  5
217
330
211
100
AcDbEntity
  8
VERMASSUNG
100
AcDbLine
 10
241.2187363134
 20
116.5351843471
 30
0.0
 11
241.2187363134
 21
149.7788732394
 31
0.0
  0
LINE
  5
218
330
211
100
AcDbEntity
  8
VERMASSUNG
100
AcDbLine
 10
81.2187363134
 20
148.7788732394
 30
0.0
 11
241.2187363134
 21
148.7788732394
 31
0.0
  0
MTEXT
  5
219
330
211
100
AcDbEntity
  8
VERMASSUNG
100
AcDbMText
 10
159.3192487728
 20
151.3570086026
 30
0.0
 40
2.0
 41
0.0
 71
     1
 72
     1
  1
160
  7
SLDTEXTSTYLE0
 73
     1
 44
1.0
  0
ENDBLK
  5
213
330
211
100
AcDbEntity
  8
0
100
AcDbBlockEnd
  0
BLOCK
  5
21C
330
21B
100
AcDbEntity
  8
0
100
AcDbBlockBegin
  2
*D6
 70
     1
 10
0.0
 20
0.0
 30
0.0
  3
*D6
  1

  0
SOLID
  5
21E
330
21B
100
AcDbEntity
  8
VERMASSUNG
100
AcDbTrace
 10
107.1687363134
 20
142.7788732394
 30
0.0
 11
110.1687363134
 21
142.3288732394
 31
0.0
 12
110.1687363134
 22
143.2288732394
 32
0.0
 13
110.1687363134
 23
143.2288732394
 33
0.0
  0
SOLID
  5
21F
330
21B
100
AcDbEntity
  8
VERMASSUNG
100
AcDbTrace
 10
241.2187363134
 20
142.7788732394
 30
0.0
 11
238.2187363134
 21
143.2288732394
 31
0.0
 12
238.2187363134
 22
142.3288732394
 32
0.0
 13
238.2187363134
 23
142.3288732394
 33
0.0
  0
LINE
  5
220
330
21B
100
AcDbEntity
  8
VERMASSUNG
100
AcDbLine
 10
107.1687363134
 20
134.7304056542
 30
0.0
 11
107.1687363134
 21
143.7788732394
 31
0.0
  0
LINE
  5
221
330
21B
100
AcDbEntity
  8
VERMASSUNG
100
AcDbLine
 10
241.2187363134
 20
116.4834130903
 30
0.0
 11
241.2187363134
 21
143.7788732394
 31
0.0
  0
LINE
  5
222
330
21B
100
AcDbEntity
  8
VERMASSUNG
100
AcDbLine
 10
107.1687363134
 20
142.7788732394
 30
0.0
 11
241.2187363134
 21
142.7788732394
 31
0.0
  0
MTEXT
  5
223
330
21B
100
AcDbEntity
  8
VERMASSUNG
100
AcDbMText
 10
170.494551048
 20
145.3570086026
 30
0.0
 40
2.0
 41
0.0
 71
     1
 72
     1
  1
134.05
  7
SLDTEXTSTYLE0
 73
     1
 44
1.0
  0
ENDBLK
  5
21D
330
21B
100
AcDbEntity
  8
0
100
AcDbBlockEnd
  0
BLOCK
  5
226
330
225
100
AcDbEntity
  8
0
100
AcDbBlockBegin
  2
*D7
 70
     1
 10
0.0
 20
0.0
 30
0.0
  3
*D7
  1

  0
SOLID
  5
228
330
225
100
AcDbEntity
  8
VERMASSUNG
100
AcDbTrace
 10
49.3187363134
 20
154.7788732394
 30
0.0
 11
52.3187363134
 21
154.3288732394
 31
0.0
 12
52.3187363134
 22
155.2288732394
 32
0.0
 13
52.3187363134
 23
155.2288732394
 33
0.0
  0
SOLID
  5
229
330
225
100
AcDbEntity
  8
VERMASSUNG
100
AcDbTrace
 10
241.2187363134
 20
154.7788732394
 30
0.0
 11
238.2187363134
 21
155.2288732394
 31
0.0
 12
238.2187363134
 22
154.3288732394
 32
0.0
 13
238.2187363134
 23
154.3288732394
 33
0.0
  0
LINE
  5
22A
330
225
100
AcDbEntity
  8
VERMASSUNG
100
AcDbLine
 10
49.3187363134
 20
124.5746430769
 30
0.0
 11
49.3187363134
 21
155.7788732394
 31
0.0
  0
LINE
  5
22B
330
225
100
AcDbEntity
  8
VERMASSUNG
100
AcDbLine
 10
241.2187363134
 20
116.4834130903
 30
0.0
 11
241.2187363134
 21
155.7788732394
 31
0.0
  0
LINE
  5
22C
330
225
100
AcDbEntity
  8
VERMASSUNG
100
AcDbLine
 10
49.3187363134
 20
154.7788732394
 30
0.0
 11
241.2187363134
 21
154.7788732394
 31
0.0
  0
MTEXT
  5
22D
330
225
100
AcDbEntity
  8
VERMASSUNG
100
AcDbMText
 10
142.5697698996
 20
157.3570086026
 30
0.0
 40
2.0
 41
0.0
 71
     1
 72
     1
  1
191.9
  7
SLDTEXTSTYLE0
 73
     1
 44
1.0
  0
ENDBLK
  5
227
330
225
100
AcDbEntity
  8
0
100
AcDbBlockEnd
  0
BLOCK
  5
230
330
22F
100
AcDbEntity
  8
0
100
AcDbBlockBegin
  2
*D8
 70
     1
 10
0.0
 20
0.0
 30
0.0
  3
*D8
  1

  0
SOLID
  5
232
330
22F
100
AcDbEntity
  8
VERMASSUNG
100
AcDbTrace
 10
263.3286260338
 20
121.8839653304
 30
0.0
 11
262.8786260338
 21
118.8839653304
 31
0.0
 12
263.7786260338
 22
118.8839653304
 32
0.0
 13
263.7786260338
 23
118.8839653304
 33
0.0
  0
SOLID
  5
233
330
22F
100
AcDbEntity
  8
VERMASSUNG
100
AcDbTrace
 10
263.3286260338
 20
87.8839653304
 30
0.0
 11
263.7786260338
 21
90.8839653304
 31
0.0
 12
262.8786260338
 22
90.8839653304
 32
0.0
 13
262.8786260338
 23
90.8839653304
 33
0.0
  0
LINE
  5
234
330
22F
100
AcDbEntity
  8
VERMASSUNG
100
AcDbLine
 10
196.7470197368
 20
121.8839653304
 30
0.0
 11
264.3286260338
 21
121.8839653304
 31
0.0
  0
LINE
  5
235
330
22F
100
AcDbEntity
  8
VERMASSUNG
100
AcDbLine
 10
196.7470197368
 20
87.8839653304
 30
0.0
 11
264.3286260338
 21
87.8839653304
 31
0.0
  0
LINE
  5
236
330
22F
100
AcDbEntity
  8
VERMASSUNG
100
AcDbLine
 10
263.3286260338
 20
121.8839653304
 30
0.0
 11
263.3286260338
 21
87.8839653304
 31
0.0
  0
MTEXT
  5
237
330
22F
100
AcDbEntity
  8
VERMASSUNG
100
AcDbMText
 10
260.7504905542
 20
101.5804582882
 30
0.0
 40
2.0
 41
0.0
 71
     1
 72
     1
  1
%%c
  7
SLDTEXTSTYLE0
 11
-7.044195017643634E-15
 21
1.0
 31
0.0
 73
     1
 44
1.0
  0
MTEXT
  5
238
330
22F
100
AcDbEntity
  8
VERMASSUNG
100
AcDbMText
 10
260.7504906706
 20
105.1891365114
 30
0.0
 40
2.0
 41
0.0
 71
     1
 72
     1
  1
34
  7
SLDTEXTSTYLE0
 11
-7.044195017643634E-15
 21
1.0
 31
0.0
 73
     1
 44
1.0
  0
ENDBLK
  5
231
330
22F
100
AcDbEntity
  8
0
100
AcDbBlockEnd
  0
ENDSEC
  0
SECTION
  2
ENTITIES
  0
MTEXT
  5
45
330
1F
100
AcDbEntity
  8
KOPF_DÜNN
100
AcDbMText
 10
13.8892156294
 20
23.8442973028
 30
0.0
 40
3.0
 41
0.0
 71
     1
 72
     1
  1
HA6.S16.K21.160
  7
SLDTEXTSTYLE0
 73
     1
 44
1.0
  0
MTEXT
  5
46
330
1F
100
AcDbEntity
  8
VERMASSUNG
100
AcDbMText
 10
13.9329988022
 20
28.8834360957
 30
0.0
 40
3.0
 41
0.0
 71
     1
 72
     1
  1
Schrumpffutter_Heat shrink chuck
  7
SLDTEXTSTYLE0
 73
     1
 44
1.0
  0
MTEXT
  5
47
330
1F
100
AcDbEntity
  8
VERMASSUNG
100
AcDbMText
 10
98.8601118557
 20
13.8365368179
 30
0.0
 40
2.0
 41
0.0
 71
     1
 72
     1
  1
Datum: 27.04.2011
  7
SLDTEXTSTYLE0
 73
     1
 44
1.0
  0
MTEXT
  5
49
330
1F
100
AcDbEntity
  8
VERMASSUNG
100
AcDbMText
 10
13.933048693
 20
18.0482802738
 30
0.0
 40
2.0
 41
0.0
 71
     1
 72
     1
  1
DIN 69 893 HSK A 63
  7
SLDTEXTSTYLE1
 73
     1
 44
1.0
  0
MTEXT
  5
4A
330
1F
100
AcDbEntity
  8
VERMASSUNG
100
AcDbMText
 10
13.9808475933
 20
13.9090973692
 30
0.0
 40
2.0
 41
0.0
 71
     1
 72
     1
  1
Gewicht: 1435g
  7
SLDTEXTSTYLE0
 73
     1
 44
1.0
  0
ARC
  5
4B
330
1F
100
AcDbEntity
  8
0
  6
Continuous
 62
     7
370
    15
100
AcDbCircle
 10
81.5187363134
 20
73.6839653304
 30
0.0
 40
0.3000000000000114
100
AcDbArc
 50
180.0
 51
270.0
  0
ARC
  5
4C
330
1F
100
AcDbEntity
  8
0
  6
Continuous
 62
     7
370
    15
100
AcDbCircle
 10
81.5187363134
 20
136.0839653304
 30
0.0
 40
0.3000000000000114
100
AcDbArc
 50
90.0
 51
180.0
  0
LINE
  5
4D
330
1F
100
AcDbEntity
  8
0
  6
Continuous
 62
     7
370
    15
100
AcDbLine
 10
81.5187363134
 20
73.3839653304
 30
0.0
 11
86.1687363134
 21
73.3839653304
 31
0.0
  0
LINE
  5
4E
330
1F
100
AcDbEntity
  8
0
  6
Continuous
 62
     7
370
    15
100
AcDbLine
 10
86.1967246725
 20
136.3839653304
 30
0.0
 11
81.5187363134
 21
136.3839653304
 31
0.0
  0
ARC
  5
4F
330
1F
100
AcDbEntity
  8
0
  6
Continuous
 62
     7
370
    15
100
AcDbCircle
 10
80.7187295608
 20
80.3135277161
 30
0.0
 40
0.6000067526677242
100
AcDbArc
 50
33.5571153394
 51
90.0
  0
ARC
  5
50
330
1F
100
AcDbEntity
  8
0
  6
Continuous
 62
     7
370
    15
100
AcDbCircle
 10
80.7187295608
 20
129.4544029448
 30
0.0
 40
0.6000067526677242
100
AcDbArc
 50
270.0
 51
326.4428846606
  0
LINE
  5
51
330
1F
100
AcDbEntity
  8
0
  6
Continuous
 62
     7
370
    15
100
AcDbLine
 10
67.988314311
 20
128.5417497993
 30
0.0
 11
55.4187363134
 21
127.9120114226
 31
0.0
  0
LINE
  5
52
330
1F
100
AcDbEntity
  8
0
  6
Continuous
 62
     7
370
    15
100
AcDbLine
 10
79.2187363134
 20
129.1043961922
 30
0.0
 11
76.4001265209
 21
128.9631832767
 31
0.0
  0
LINE
  5
53
330
1F
100
AcDbEntity
  8
0
  6
Continuous
 62
     7
370
    15
100
AcDbLine
 10
76.4003484311
 20
80.8047362664
 30
0.0
 11
79.2187363134
 21
80.6635344687
 31
0.0
  0
LINE
  5
54
330
1F
100
AcDbEntity
  8
0
  6
Continuous
 62
     7
370
    15
100
AcDbLine
 10
59.4187363134
 20
81.6555184367
 30
0.0
 11
67.9890130826
 21
81.226145853
 31
0.0
  0
LINE
  5
55
330
1F
100
AcDbEntity
  8
0
  6
Continuous
 62
     7
370
    15
100
AcDbLine
 10
79.2187363134
 20
80.6635344687
 30
0.0
 11
80.0754490868
 21
80.8930899645
 31
0.0
  0
LINE
  5
56
330
1F
100
AcDbEntity
  8
0
  6
Continuous
 62
     7
370
    15
100
AcDbLine
 10
80.0754490868
 20
128.8748406964
 30
0.0
 11
79.2187363134
 21
129.1043961922
 31
0.0
  0
ARC
  5
57
330
1F
100
AcDbEntity
  8
0
  6
Continuous
 62
     7
370
    15
100
AcDbCircle
 10
80.2307405139
 20
80.3135344687
 30
0.0
 40
0.6000000000000085
100
AcDbArc
 50
90.0
 51
105.0
  0
ARC
  5
58
330
1F
100
AcDbEntity
  8
0
  6
Continuous
 62
     7
370
    15
100
AcDbCircle
 10
80.2307405139
 20
129.4543961922
 30
0.0
 40
0.6000000000000227
100
AcDbArc
 50
255.0
 51
270.0
  0
LINE
  5
59
330
1F
100
AcDbEntity
  8
0
  6
Continuous
 62
     7
370
    15
100
AcDbLine
 10
80.2307405139
 20
80.9135344687
 30
0.0
 11
80.7187295608
 21
80.9135344687
 31
0.0
  0
LINE
  5
5A
330
1F
100
AcDbEntity
  8
0
  6
Continuous
 62
     7
370
    15
100
AcDbLine
 10
80.7187295608
 20
128.8543961922
 30
0.0
 11
80.2307405139
 21
128.8543961922
 31
0.0
  0
ARC
  5
5B
330
1F
100
AcDbEntity
  8
0
  6
Continuous
 62
     7
370
    15
100
AcDbCircle
 10
110.1687363134
 20
81.8680065289
 30
0.0
 40
3.0
100
AcDbArc
 50
104.3250519401
 51
180.0
  0
ARC
  5
5C
330
1F
100
AcDbEntity
  8
0
  6
Continuous
 62
     7
370
    15
100
AcDbCircle
 10
110.1687363134
 20
127.899924132
 30
0.0
 40
3.0
100
AcDbArc
 50
180.0
 51
255.6749480599
  0
ARC
  5
5D
330
1F
100
AcDbEntity
  8
0
  6
Continuous
 62
     7
370
    15
100
AcDbCircle
 10
134.1687363134
 20
-12.1160346696
 30
0.0
 40
100.0
100
AcDbArc
 50
90.0
 51
104.3250519401
  0
ARC
  5
5E
330
1F
100
AcDbEntity
  8
0
  6
Continuous
 62
     7
370
    15
100
AcDbCircle
 10
134.1687363134
 20
221.8839653304
 30
0.0
 40
100.0
100
AcDbArc
 50
255.6749480599
 51
270.0
  0
LINE
  5
5F
330
1F
100
AcDbEntity
  8
0
  6
Continuous
 62
     7
370
    15
100
AcDbLine
 10
196.7470197368
 20
87.8839653304
 30
0.0
 11
239.3756545049
 21
91.2389116463
 31
0.0
  0
LINE
  5
60
330
1F
100
AcDbEntity
  8
0
  6
Continuous
 62
     7
370
    15
100
AcDbLine
 10
239.3756545049
 20
118.5290190146
 30
0.0
 11
196.7470197368
 21
121.8839653304
 31
0.0
  0
LINE
  5
61
330
1F
100
AcDbEntity
  8
0
  6
Continuous
 62
     7
370
    15
100
AcDbLine
 10
156.6675142436
 20
87.8839653304
 30
0.0
 11
196.7470197368
 21
87.8839653304
 31
0.0
  0
LINE
  5
62
330
1F
100
AcDbEntity
  8
0
  6
Continuous
 62
     7
370
    15
100
AcDbLine
 10
134.1687363134
 20
87.8839653304
 30
0.0
 11
149.6790912175
 21
87.8839653304
 31
0.0
  0
LINE
  5
63
330
1F
100
AcDbEntity
  8
0
  6
Continuous
 62
     7
370
    15
100
AcDbLine
 10
149.6707339155
 20
121.8839653304
 30
0.0
 11
134.1687363134
 21
121.8839653304
 31
0.0
  0
LINE
  5
64
330
1F
100
AcDbEntity
  8
0
  6
Continuous
 62
     7
370
    15
100
AcDbLine
 10
196.7470197368
 20
121.8839653304
 30
0.0
 11
156.6647429433
 21
121.8839653304
 31
0.0
  0
ARC
  5
65
330
1F
100
AcDbEntity
  8
0
  6
Continuous
 62
     7
370
    15
100
AcDbCircle
 10
239.2187363134
 20
93.2327463138
 30
0.0
 40
1.999999999999997
100
AcDbArc
 50
274.5
 51
334.6108581548
  0
ARC
  5
66
330
1F
100
AcDbEntity
  8
0
  6
Continuous
 62
     7
370
    15
100
AcDbCircle
 10
239.2187363134
 20
116.5351843471
 30
0.0
 40
1.999999999999997
100
AcDbArc
 50
25.3891418452
 51
85.5
  0
LINE
  5
67
330
1F
100
AcDbEntity
  8
0
  6
Continuous
 62
     7
370
    15
100
AcDbLine
 10
50.6020729534
 20
84.0139653304
 30
0.0
 11
58.0187363134
 21
84.0139653304
 31
0.0
  0
ARC
  5
68
330
1F
100
AcDbEntity
  8
0
  6
Continuous
 62
     7
370
    15
100
AcDbCircle
 10
58.0187363134
 20
82.6139653304
 30
0.0
 40
1.400000000000007
100
AcDbArc
 50
42.2465410162
 51
90.0
  0
LINE
  5
69
330
1F
100
AcDbEntity
  8
0
  6
Continuous
 62
     7
370
    15
100
AcDbLine
 10
49.3298967486
 20
85.1528048953
 30
0.0
 11
50.4598997716
 21
84.0228018723
 31
0.0
  0
LINE
  5
6A
330
1F
100
AcDbEntity
  8
0
  6
Continuous
 62
     7
370
    15
100
AcDbLine
 10
50.4598997716
 20
125.7451287886
 30
0.0
 11
49.3299039326
 21
124.6151329496
 31
0.0
  0
ARC
  5
6B
330
1F
100
AcDbEntity
  8
0
  6
Continuous
 62
     7
370
    15
100
AcDbCircle
 10
54.0187363134
 20
127.1539653304
 30
0.0
 40
1.400000000000024
100
AcDbArc
 50
270.0
 51
301.7485287426
  0
LINE
  5
6C
330
1F
100
AcDbEntity
  8
0
  6
Continuous
 62
     7
370
    15
100
AcDbLine
 10
54.0187363134
 20
125.7539653304
 30
0.0
 11
50.6163917175
 21
125.7539653304
 31
0.0
  0
LINE
  5
6D
330
1F
100
AcDbEntity
  8
0
  6
Continuous
 62
     7
370
    15
100
AcDbLine
 10
241.0863592798
 20
117.3903237762
 30
0.0
 11
241.0255694422
 21
117.3927122154
 31
0.0
  0
LINE
  5
6E
330
1F
100
AcDbEntity
  8
0
  6
Continuous
 62
     7
370
    15
100
AcDbLine
 10
241.2371687969
 20
117.1036820319
 30
0.0
 11
241.0863592798
 21
117.3903237762
 31
0.0
  0
LINE
  5
6F
330
1F
100
AcDbEntity
  8
0
  6
Continuous
 62
     7
370
    15
100
AcDbLine
 10
241.0255694422
 20
92.3752184455
 30
0.0
 11
241.1452490035
 21
92.3799206683
 31
0.0
  0
LINE
  5
70
330
1F
100
AcDbEntity
  8
0
  6
Continuous
 62
     7
370
    15
100
AcDbLine
 10
241.1452490035
 20
92.3799206683
 30
0.0
 11
241.2960585206
 21
92.6665624125
 31
0.0
  0
LINE
  5
71
330
1F
100
AcDbEntity
  8
0
  6
Continuous
 62
     7
370
    15
100
AcDbLine
 10
107.1687363134
 20
75.3236879299
 30
0.0
 11
107.1687363134
 21
124.7339653304
 31
0.0
  0
SPLINE
  5
72
330
1F
100
AcDbEntity
  8
0
  6
Continuous
 62
     7
370
    15
100
AcDbSpline
210
0.0
220
0.0
230
1.0
 70
     8
 71
     3
 72
    10
 73
     6
 74
     0
 42
0.00000001
 43
0.00000001
 40
0.0
 40
0.0
 40
0.0
 40
0.0
 40
0.5
 40
0.5
 40
1.0
 40
1.0
 40
1.0
 40
1.0
 10
107.1687363134426
 20
75.32368792985142
 30
0.0
 10
107.1687363134426
 20
75.16380066165776
 30
0.0
 10
107.1074266622067
 20
75.00267340614316
 30
0.0
 10
106.8883270246717
 20
74.76857440778832
 30
0.0
 10
106.7302788183582
 20
74.6970476341971
 30
0.0
 10
106.5687363134426
 20
74.6970476341971
 30
0.0
  0
SPLINE
  5
73
330
1F
100
AcDbEntity
  8
0
  6
Continuous
 62
     7
370
    15
100
AcDbSpline
210
0.0
220
0.0
230
1.0
 70
    24
 71
     3
 72
    12
 73
     8
 74
     0
 42
0.00000001
 43
0.00000001
 40
0.0
 40
0.0
 40
0.0
 40
0.0
 40
0.2500000000000013
 40
0.2500000000000013
 40
0.5000000000000027
 40
0.5000000000000027
 40
1.0
 40
1.0
 40
1.0
 40
1.0
 10
106.5687363134426
 20
124.7339653304443
 30
0.0
 10
106.6589753811296
 20
124.7339653304443
 30
0.0
 10
106.7498734952361
 20
124.7339653304443
 30
0.0
 10
106.9044705317247
 20
124.7339653304443
 30
0.0
 10
106.9694489478328
 20
124.7339653304443
 30
0.0
 10
107.121283975769
 20
124.7339653304443
 30
0.0
 10
107.1687363134426
 20
124.7339653304443
 30
0.0
 10
107.1687363134426
 20
124.7339653304443
 30
0.0
  0
LINE
  5
74
330
1F
100
AcDbEntity
  8
0
  6
Continuous
 62
     7
370
    15
100
AcDbLine
 10
81.2187363134
 20
73.6839653304
 30
0.0
 11
81.2187363134
 21
136.0839653304
 31
0.0
  0
LINE
  5
75
330
1F
100
AcDbEntity
  8
0
  6
Continuous
 62
     7
370
    15
100
AcDbLine
 10
106.5687363134
 20
74.6970476342
 30
0.0
 11
102.6106691449
 21
74.6970476342
 31
0.0
  0
LINE
  5
76
330
1F
100
AcDbEntity
  8
0
  6
Continuous
 62
     7
370
    15
100
AcDbLine
 10
102.6106691449
 20
74.6970476342
 30
0.0
 11
102.6106691449
 21
124.7339653304
 31
0.0
  0
LINE
  5
77
330
1F
100
AcDbEntity
  8
0
  6
Continuous
 62
     7
370
    15
100
AcDbLine
 10
102.6106691449
 20
124.7339653304
 30
0.0
 11
106.5687363134
 21
124.7339653304
 31
0.0
  0
SPLINE
  5
78
330
1F
100
AcDbEntity
  8
0
  6
Continuous
 62
     7
370
    15
100
AcDbSpline
210
0.0
220
0.0
230
1.0
 70
     8
 71
     3
 72
    70
 73
    66
 74
     0
 42
0.00000001
 43
0.00000001
 40
-0.0312499999999998
 40
-0.0312499999999998
 40
0.0
 40
0.0
 40
0.03125
 40
0.03125
 40
0.0625000000000001
 40
0.0625000000000001
 40
0.0937500000000001
 40
0.0937500000000001
 40
0.1250000000000002
 40
0.1250000000000002
 40
0.1562500000000002
 40
0.1562500000000002
 40
0.1875000000000003
 40
0.1875000000000003
 40
0.2187500000000003
 40
0.2187500000000003
 40
0.2500000000000004
 40
0.2500000000000004
 40
0.2812500000000004
 40
0.2812500000000004
 40
0.3125000000000005
 40
0.3125000000000005
 40
0.3437500000000006
 40
0.3437500000000006
 40
0.3750000000000006
 40
0.3750000000000006
 40
0.4062500000000006
 40
0.4062500000000006
 40
0.4375000000000007
 40
0.4375000000000007
 40
0.4687500000000007
 40
0.4687500000000007
 40
0.5000000000000008
 40
0.5000000000000008
 40
0.5312500000000009
 40
0.5312500000000009
 40
0.5625000000000011
 40
0.5625000000000011
 40
0.5937500000000012
 40
0.5937500000000012
 40
0.6250000000000014
 40
0.6250000000000014
 40
0.6562500000000016
 40
0.6562500000000016
 40
0.6875000000000018
 40
0.6875000000000018
 40
0.7187500000000016
 40
0.7187500000000016
 40
0.7500000000000014
 40
0.7500000000000014
 40
0.7812500000000012
 40
0.7812500000000012
 40
0.812500000000001
 40
0.812500000000001
 40
0.8437500000000009
 40
0.8437500000000009
 40
0.8750000000000007
 40
0.8750000000000007
 40
0.9062500000000006
 40
0.9062500000000006
 40
0.9375000000000003
 40
0.9375000000000003
 40
0.9687500000000002
 40
0.9687500000000002
 40
1.0
 40
1.0
 40
1.03125
 40
1.03125
 10
88.95419097478245
 20
115.5048722164276
 30
0.0
 10
89.48328165210273
 20
115.5048722164276
 30
0.0
 10
89.74335231947983
 20
115.5295495112128
 30
0.0
 10
90.25492699931526
 20
115.6260211842547
 30
0.0
 10
90.50910228305546
 20
115.6990021002348
 30
0.0
 10
90.99337291311716
 20
115.8887427031734
 30
0.0
 10
91.22301400499833
 20
116.0046033615671
 30
0.0
 10
91.6576183532318
 20
116.2772212075248
 30
0.0
 10
91.86318412987842
 20
116.4352602895786
 30
0.0
 10
92.23174127047365
 20
116.7788031405493
 30
0.0
 10
92.39722225320915
 20
116.9655655846509
 30
0.0
 10
92.68964676264424
 20
117.3691087590477
 30
0.0
 10
92.81374773927074
 20
117.5826057554769
 30
0.0
 10
93.01332693602046
 20
118.0219890693994
 30
0.0
 10
93.09026052187873
 20
118.251129056545
 30
0.0
 10
93.1931175803991
 20
118.717103179305
 30
0.0
 10
93.21859048985823
 20
118.9499856249812
 30
0.0
 10
93.21888090042599
 20
119.415383160061
 30
0.0
 10
93.19285626665027
 20
119.6502589174553
 30
0.0
 10
93.09070798215826
 20
120.1017520647016
 30
0.0
 10
93.01513153457509
 20
120.319798540113
 30
0.0
 10
92.81463400343019
 20
120.7408930651508
 30
0.0
 10
92.68950516192179
 20
120.9428144496691
 30
0.0
 10
92.4001463609002
 20
121.314843932188
 30
0.0
 10
92.23473537384474
 20
121.4874722357684
 30
0.0
 10
91.86174481569691
 20
121.8047902403144
 30
0.0
 10
91.66001178260781
 20
121.944577173816
 30
0.0
 10
91.22715253177994
 20
122.1887534273678
 30
0.0
 10
90.99323399889056
 20
122.2939829384093
 30
0.0
 10
90.50905026374795
 20
122.4621400847844
 30
0.0
 10
90.25973463779243
 20
122.5253909753783
 30
0.0
 10
89.74670211336472
 20
122.6109701844809
 30
0.0
 10
89.48140829046007
 20
122.6328423494033
 30
0.0
 10
88.95907367059033
 20
122.6330059990472
 30
0.0
 10
88.6993200081086
 20
122.6120043069512
 30
0.0
 10
88.18270819246335
 20
122.5266019518736
 30
0.0
 10
87.93034215196307
 20
122.4625957685867
 30
0.0
 10
87.44881703043025
 20
122.2957812485455
 30
0.0
 10
87.21596629831669
 20
122.1916480851463
 30
0.0
 10
86.77887644987791
 20
121.9456614326513
 30
0.0
 10
86.57755546122073
 20
121.8059116017025
 30
0.0
 10
86.20846943592083
 20
121.4927735319779
 30
0.0
 10
86.03948468486914
 20
121.3173173727078
 30
0.0
 10
85.74902862820993
 20
120.9444771086076
 30
0.0
 10
85.6259568168478
 20
120.7463552984966
 30
0.0
 10
85.42462057542578
 20
120.325643955763
 30
0.0
 10
85.34740802948356
 20
120.1036539350954
 30
0.0
 10
85.24520448658349
 20
119.6537889953871
 30
0.0
 10
85.21897613513116
 20
119.4235335822703
 30
0.0
 10
85.21849973581405
 20
118.9522176397212
 30
0.0
 10
85.24424214831203
 20
118.7189802240071
 30
0.0
 10
85.34555292467589
 20
118.257303684509
 30
0.0
 10
85.42238556406683
 20
118.0264062973969
 30
0.0
 10
85.62278940328201
 20
117.5841302836052
 30
0.0
 10
85.74546090157406
 20
117.3730678523193
 30
0.0
 10
86.0354081907383
 20
116.9715693415866
 30
0.0
 10
86.20397917010352
 20
116.7806628195107
 30
0.0
 10
86.57224876421668
 20
116.4369374875137
 30
0.0
 10
86.773310621487
 20
116.2818003012996
 30
0.0
 10
87.21034154007192
 20
116.0067229412198
 30
0.0
 10
87.44248975320154
 20
115.8896067117978
 30
0.0
 10
87.9235000347004
 20
115.7006802267333
 30
0.0
 10
88.17560011753082
 20
115.627605256339
 30
0.0
 10
88.69266960378982
 20
115.5295531972045
 30
0.0
 10
88.95419097478245
 20
115.5048722164276
 30
0.0
 10
89.48328165210273
 20
115.5048722164276
 30
0.0
  0
LINE
  5
79
330
1F
100
AcDbEntity
  8
0
  6
Continuous
 62
     7
370
    15
100
AcDbLine
 10
86.1687363134
 20
124.7339653304
 30
0.0
 11
95.826803482
 21
124.7339653304
 31
0.0
  0
LINE
  5
7A
330
1F
100
AcDbEntity
  8
0
  6
Continuous
 62
     7
370
    15
100
AcDbLine
 10
95.826803482
 20
74.6970476342
 30
0.0
 11
95.826803482
 21
124.7339653304
 31
0.0
  0
LINE
  5
7B
330
1F
100
AcDbEntity
  8
0
  6
Continuous
 62
     7
370
    15
100
AcDbLine
 10
95.826803482
 20
74.6970476342
 30
0.0
 11
94.1687363134
 21
74.6970476342
 31
0.0
  0
SPLINE
  5
7C
330
1F
100
AcDbEntity
  8
0
  6
Continuous
 62
     7
370
    15
100
AcDbSpline
210
0.0
220
0.0
230
1.0
 70
     8
 71
     3
 72
    28
 73
    24
 74
     0
 42
0.00000001
 43
0.00000001
 40
0.0
 40
0.0
 40
0.0
 40
0.0
 40
0.1250000000000001
 40
0.1250000000000001
 40
0.1875000000000001
 40
0.1875000000000001
 40
0.2500000000000001
 40
0.2500000000000001
 40
0.3750000000000001
 40
0.3750000000000001
 40
0.4375000000000003
 40
0.4375000000000003
 40
0.5000000000000003
 40
0.5000000000000003
 40
0.6250000000000002
 40
0.6250000000000002
 40
0.75
 40
0.75
 40
0.8125000000000001
 40
0.8125000000000001
 40
0.8750000000000001
 40
0.8750000000000001
 40
1.0
 40
1.0
 40
1.0
 40
1.0
 10
94.16873631344258
 20
74.6970476341971
 30
0.0
 10
93.63702855594966
 20
74.69704763419709
 30
0.0
 10
93.11478999063932
 20
74.68126292024688
 30
0.0
 10
92.34491950436433
 20
74.63626750617067
 30
0.0
 10
92.09055993217298
 20
74.61771251109496
 30
0.0
 10
91.58643835147448
 20
74.57385978864846
 30
0.0
 10
91.33671553404655
 20
74.54851518169625
 30
0.0
 10
90.61112558260014
 20
74.46511310394614
 30
0.0
 10
90.15276532101859
 20
74.39924754479506
 30
0.0
 10
89.50226737762472
 20
74.29027720430327
 30
0.0
 10
89.29058532683226
 20
74.25203756853662
 30
0.0
 10
88.88651383769425
 20
74.17427883111726
 30
0.0
 10
88.6940073238734
 20
74.13477786894192
 30
0.0
 10
88.14417235285211
 20
74.01587012657592
 30
0.0
 10
87.81424357454331
 20
73.9360524451513
 30
0.0
 10
87.22977230597462
 20
73.78270928335525
 30
0.0
 10
86.9834951679612
 20
73.71137553008599
 30
0.0
 10
86.68365237526311
 20
73.61743202301136
 30
0.0
 10
86.59519551819093
 20
73.58823822965144
 30
0.0
 10
86.44183416488579
 20
73.53477165538803
 30
0.0
 10
86.37674595065957
 20
73.51041232111285
 30
0.0
 10
86.22115193471878
 20
73.44682217566812
 30
0.0
 10
86.1687363134426
 20
73.41671924057886
 30
0.0
 10
86.1687363134426
 20
73.39984234758192
 30
0.0
  0
LINE
  5
7D
330
1F
100
AcDbEntity
  8
0
  6
Continuous
 62
     7
370
    15
100
AcDbLine
 10
86.1687363134
 20
73.3998423476
 30
0.0
 11
86.1687363134
 21
73.3839653304
 31
0.0
  0
SPLINE
  5
7E
330
1F
100
AcDbEntity
  8
0
  6
Continuous
 62
     7
370
    15
100
AcDbSpline
210
0.0
220
0.0
230
1.0
 70
     8
 71
     3
 72
    17
 73
    13
 74
     0
 42
0.00000001
 43
0.00000001
 40
0.0
 40
0.0
 40
0.0
 40
0.0
 40
0.1034796923964057
 40
0.2100239188807852
 40
0.3134862136955586
 40
0.4198361274354886
 40
0.5254127712915686
 40
0.6339610695419797
 40
0.7409508756305039
 40
0.8511696089308182
 40
0.9558996534551946
 40
1.0
 40
1.0
 40
1.0
 40
1.0
 10
94.16873631344258
 20
135.3511608036085
 30
0.0
 10
93.73348796433257
 20
135.3566090001418
 30
0.0
 10
92.85010145776758
 20
135.3676667406536
 30
0.0
 10
91.56927387253891
 20
135.4540251335552
 30
0.0
 10
90.35185733666486
 20
135.581895310093
 30
0.0
 10
89.24405148441832
 20
135.7408406086861
 30
0.0
 10
88.2558126804701
 20
135.9153342964017
 30
0.0
 10
87.43108912293856
 20
136.0845001470416
 30
0.0
 10
86.78213562227927
 20
136.2323839295699
 30
0.0
 10
86.36510080681754
 20
136.3341745138007
 30
0.0
 10
86.16650409385302
 20
136.3845260364039
 30
0.0
 10
86.1898168152863
 20
136.3786203521815
 30
0.0
 10
86.19672467252383
 20
136.3768704224869
 30
0.0
  0
LINE
  5
7F
330
1F
100
AcDbEntity
  8
0
  6
Continuous
 62
     7
370
    15
100
AcDbLine
 10
95.826803482
 20
135.3511608036
 30
0.0
 11
94.1687363134
 21
135.3511608036
 31
0.0
  0
LINE
  5
80
330
1F
100
AcDbEntity
  8
0
  6
Continuous
 62
     7
370
    15
100
AcDbLine
 10
95.826803482
 20
129.3426549928
 30
0.0
 11
95.826803482
 21
135.3511608036
 31
0.0
  0
LINE
  5
81
330
1F
100
AcDbEntity
  8
0
  6
Continuous
 62
     7
370
    15
100
AcDbLine
 10
93.4143566591
 20
129.3426549928
 30
0.0
 11
95.826803482
 21
129.3426549928
 31
0.0
  0
SPLINE
  5
82
330
1F
100
AcDbEntity
  8
0
  6
Continuous
 62
     7
370
    15
100
AcDbSpline
210
0.0
220
0.0
230
1.0
 70
     8
 71
     3
 72
    20
 73
    16
 74
     0
 42
0.00000001
 43
0.00000001
 40
0.0
 40
0.0
 40
0.0
 40
0.0
 40
0.25
 40
0.25
 40
0.375
 40
0.375
 40
0.5
 40
0.5
 40
0.625
 40
0.625
 40
0.75
 40
0.75
 40
0.875
 40
0.875
 40
1.0
 40
1.0
 40
1.0
 40
1.0
 10
86.1687363134426
 20
124.7339653304443
 30
0.0
 10
86.41711004773065
 20
125.3878277587417
 30
0.0
 10
86.7366801400759
 20
125.9916135407388
 30
0.0
 10
87.3589863732806
 20
126.8184522769074
 30
0.0
 10
87.59041063371136
 20
127.0808809148603
 30
0.0
 10
88.11162497336106
 20
127.5775435689653
 30
0.0
 10
88.39824545599615
 20
127.8081304479868
 30
0.0
 10
89.01773019730375
 20
128.2246846725695
 30
0.0
 10
89.35203057679072
 20
128.412182474537
 30
0.0
 10
90.0772910494155
 20
128.7435794521733
 30
0.0
 10
90.45920610680596
 20
128.8830834396686
 30
0.0
 10
91.25399428297766
 20
129.1085369471396
 30
0.0
 10
91.66815247718405
 20
129.1951630586832
 30
0.0
 10
92.53369881776544
 20
129.3131438475374
 30
0.0
 10
92.97158643277726
 20
129.3426549928117
 30
0.0
 10
93.41435665913187
 20
129.3426549928117
 30
0.0
  0
SPLINE
  5
83
330
1F
100
AcDbEntity
  8
0
  6
Continuous
 62
     7
370
    15
100
AcDbSpline
210
0.0
220
0.0
230
1.0
 70
     8
 71
     3
 72
    70
 73
    66
 74
     0
 42
0.00000001
 43
0.00000001
 40
-0.03125
 40
-0.03125
 40
0.0
 40
0.0
 40
0.0312499999999998
 40
0.0312499999999998
 40
0.0624999999999997
 40
0.0624999999999997
 40
0.0937499999999995
 40
0.0937499999999995
 40
0.1249999999999994
 40
0.1249999999999994
 40
0.1562499999999992
 40
0.1562499999999992
 40
0.1874999999999991
 40
0.1874999999999991
 40
0.2187499999999989
 40
0.2187499999999989
 40
0.2499999999999988
 40
0.2499999999999988
 40
0.2812499999999988
 40
0.2812499999999988
 40
0.3124999999999988
 40
0.3124999999999988
 40
0.3437499999999988
 40
0.3437499999999988
 40
0.3749999999999988
 40
0.3749999999999988
 40
0.4062499999999988
 40
0.4062499999999988
 40
0.4374999999999988
 40
0.4374999999999988
 40
0.4687499999999989
 40
0.4687499999999989
 40
0.4999999999999989
 40
0.4999999999999989
 40
0.5312499999999991
 40
0.5312499999999991
 40
0.5624999999999992
 40
0.5624999999999992
 40
0.5937499999999994
 40
0.5937499999999994
 40
0.6249999999999996
 40
0.6249999999999996
 40
0.6562499999999998
 40
0.6562499999999998
 40
0.6875
 40
0.6875
 40
0.7187500000000001
 40
0.7187500000000001
 40
0.7500000000000003
 40
0.7500000000000003
 40
0.7812500000000003
 40
0.7812500000000003
 40
0.8125000000000002
 40
0.8125000000000002
 40
0.8437500000000002
 40
0.8437500000000002
 40
0.8750000000000001
 40
0.8750000000000001
 40
0.9062500000000001
 40
0.9062500000000001
 40
0.9375000000000001
 40
0.9375000000000001
 40
0.96875
 40
0.96875
 40
1.0
 40
1.0
 40
1.03125
 40
1.03125
 10
88.95419097478245
 20
129.9429287252234
 30
0.0
 10
89.48328165210275
 20
129.9429287252234
 30
0.0
 10
89.74335231947984
 20
129.9588291656382
 30
0.0
 10
90.25492699931526
 20
130.0207735158125
 30
0.0
 10
90.50910228305546
 20
130.0675757499038
 30
0.0
 10
90.99337291311716
 20
130.1885527333588
 30
0.0
 10
91.22301400499833
 20
130.2621550611657
 30
0.0
 10
91.6576183532318
 20
130.4339793321438
 30
0.0
 10
91.86318412987843
 20
130.5329827550712
 30
0.0
 10
92.23174127047365
 20
130.7460791689841
 30
0.0
 10
92.39722225320915
 20
130.8609788851137
 30
0.0
 10
92.68964676264424
 20
131.106345783804
 30
0.0
 10
92.81374773927074
 20
131.2347856842743
 30
0.0
 10
93.01332693602046
 20
131.4956778323602
 30
0.0
 10
93.09026052187873
 20
131.6300590036997
 30
0.0
 10
93.1931175803991
 20
131.899378954806
 30
0.0
 10
93.21859048985823
 20
132.0320602190241
 30
0.0
 10
93.21888090042599
 20
132.2932466931552
 30
0.0
 10
93.19285626665027
 20
132.4230117313199
 30
0.0
 10
93.09070798215826
 20
132.6685943655926
 30
0.0
 10
93.0151315345751
 20
132.7852559029015
 30
0.0
 10
92.81463400343019
 20
133.007161093056
 30
0.0
 10
92.68950516192179
 20
133.111772346979
 30
0.0
 10
92.40014636090021
 20
133.3018187585871
 30
0.0
 10
92.23473537384474
 20
133.3885784300367
 30
0.0
 10
91.86174481569692
 20
133.5460828057883
 30
0.0
 10
91.66001178260781
 20
133.6144080705755
 30
0.0
 10
91.22715253177994
 20
133.7326377941947
 30
0.0
 10
90.99323399889056
 20
133.7829327102986
 30
0.0
 10
90.50905026374795
 20
133.8627982471882
 30
0.0
 10
90.25973463779243
 20
133.8925393749878
 30
0.0
 10
89.74670211336472
 20
133.932692116496
 30
0.0
 10
89.48140829046008
 20
133.9428903859059
 30
0.0
 10
88.95907367059033
 20
133.9429668442906
 30
0.0
 10
88.6993200081086
 20
133.9331758326815
 30
0.0
 10
88.18270819246335
 20
133.8931089939428
 30
0.0
 10
87.93034215196307
 20
133.863011827086
 30
0.0
 10
87.44881703043025
 20
133.7837896172557
 30
0.0
 10
87.21596629831669
 20
133.7340321377924
 30
0.0
 10
86.77887644987791
 20
133.614940195342
 30
0.0
 10
86.57755546122073
 20
133.5466249337947
 30
0.0
 10
86.20846943592083
 20
133.3912239668612
 30
0.0
 10
86.03948468486915
 20
133.3030716247943
 30
0.0
 10
85.74902862820993
 20
133.1126322356779
 30
0.0
 10
85.6259568168478
 20
133.0100076579789
 30
0.0
 10
85.42462057542578
 20
132.7883673113707
 30
0.0
 10
85.34740802948356
 20
132.6696132358232
 30
0.0
 10
85.24520448658349
 20
132.4249472969056
 30
0.0
 10
85.21897613513116
 20
132.297790571457
 30
0.0
 10
85.21849973581406
 20
132.0333424256014
 30
0.0
 10
85.24424214831203
 20
131.9004417453443
 30
0.0
 10
85.3455529246759
 20
131.6336494718622
 30
0.0
 10
85.42238556406684
 20
131.4982855703937
 30
0.0
 10
85.62278940328203
 20
131.2357057750911
 30
0.0
 10
85.74546090157406
 20
131.1087306153374
 30
0.0
 10
86.0354081907383
 20
130.8646512292549
 30
0.0
 10
86.20397917010352
 20
130.7472261045011
 30
0.0
 10
86.57224876421668
 20
130.5340296435527
 30
0.0
 10
86.773310621487
 20
130.4368555251277
 30
0.0
 10
87.21034154007192
 20
130.2635006379136
 30
0.0
 10
87.44248975320154
 20
130.1891010862569
 30
0.0
 10
87.9235000347004
 20
130.0686482067522
 30
0.0
 10
88.17560011753082
 20
130.0217898314862
 30
0.0
 10
88.69266960378982
 20
129.9588323345025
 30
0.0
 10
88.95419097478245
 20
129.9429287252234
 30
0.0
 10
89.48328165210275
 20
129.9429287252234
 30
0.0
  0
LINE
  5
84
330
1F
100
AcDbEntity
  8
0
  6
Continuous
 62
     7
370
    15
100
AcDbLine
 10
97.3087363134
 20
77.3861281714
 30
0.0
 11
97.3087363134
 21
124.7339653304
 31
0.0
  0
SPLINE
  5
85
330
1F
100
AcDbEntity
  8
0
  6
Continuous
 62
     7
370
    15
100
AcDbSpline
210
0.0
220
0.0
230
1.0
 70
     8
 71
     3
 72
     8
 73
     4
 74
     0
 42
0.00000001
 43
0.00000001
 40
0.0
 40
0.0
 40
0.0
 40
0.0
 40
1.0
 40
1.0
 40
1.0
 40
1.0
 10
97.3087363134426
 20
77.38612817138939
 30
0.0
 10
96.81639719066142
 20
76.48885813718269
 30
0.0
 10
96.32228314261927
 20
75.59257372213045
 30
0.0
 10
95.82680348195353
 20
74.6970476341971
 30
0.0
  0
SPLINE
  5
86
330
1F
100
AcDbEntity
  8
0
  6
Continuous
 62
     7
370
    15
100
AcDbSpline
210
0.0
220
0.0
230
1.0
 70
    24
 71
     3
 72
     8
 73
     4
 74
     0
 42
0.00000001
 43
0.00000001
 40
0.0
 40
0.0
 40
0.0
 40
0.0
 40
1.0
 40
1.0
 40
1.0
 40
1.0
 10
95.8268034819535
 20
124.7339653304443
 30
0.0
 10
96.33348359010405
 20
124.7339653304443
 30
0.0
 10
96.82878431907768
 20
124.7339653304443
 30
0.0
 10
97.3087363134426
 20
124.7339653304443
 30
0.0
  0
SPLINE
  5
87
330
1F
100
AcDbEntity
  8
0
  6
Continuous
 62
     7
370
    15
100
AcDbSpline
210
0.0
220
0.0
230
1.0
 70
     8
 71
     3
 72
     8
 73
     4
 74
     0
 42
0.00000001
 43
0.00000001
 40
0.0
 40
0.0
 40
0.0
 40
0.0
 40
1.0
 40
1.0
 40
1.0
 40
1.0
 10
102.6106691449316
 20
74.6970476341971
 30
0.0
 10
102.1151894842659
 20
75.59257372213047
 30
0.0
 10
101.6210754362238
 20
76.48885813718272
 30
0.0
 10
101.1287363134426
 20
77.38612817138942
 30
0.0
  0
LINE
  5
88
330
1F
100
AcDbEntity
  8
0
  6
Continuous
 62
     7
370
    15
100
AcDbLine
 10
101.1287363134
 20
77.3861281714
 30
0.0
 11
101.1287363134
 21
124.7339653304
 31
0.0
  0
SPLINE
  5
89
330
1F
100
AcDbEntity
  8
0
  6
Continuous
 62
     7
370
    15
100
AcDbSpline
210
0.0
220
0.0
230
1.0
 70
    24
 71
     3
 72
     8
 73
     4
 74
     0
 42
0.00000001
 43
0.00000001
 40
0.0
 40
0.0
 40
0.0
 40
0.0
 40
1.0
 40
1.0
 40
1.0
 40
1.0
 10
101.1287363134426
 20
124.7339653304443
 30
0.0
 10
101.6086883078075
 20
124.7339653304443
 30
0.0
 10
102.1039890367811
 20
124.7339653304443
 30
0.0
 10
102.6106691449316
 20
124.7339653304443
 30
0.0
  0
ARC
  5
8A
330
1F
100
AcDbEntity
  8
0
  6
Continuous
 62
     7
370
    15
100
AcDbCircle
 10
89.2160127292
 20
116.7911835707
 30
0.0
 40
4.113520338565323
100
AcDbArc
 50
19.6206971925
 51
159.0963838037
  0
SPLINE
  5
8B
330
1F
100
AcDbEntity
  8
0
  6
Continuous
 62
     7
370
    15
100
AcDbSpline
210
0.0
220
0.0
230
1.0
 70
    24
 71
     3
 72
    14
 73
    10
 74
     0
 42
0.00000001
 43
0.00000001
 40
0.0
 40
0.0
 40
0.0
 40
0.0
 40
0.4999999999999989
 40
0.4999999999999989
 40
0.7499999999999994
 40
0.7499999999999994
 40
0.8749999999999997
 40
0.8749999999999997
 40
1.0
 40
1.0
 40
1.0
 40
1.0
 10
101.0310615111103
 20
78.48396533044425
 30
0.0
 10
100.9842768060621
 20
78.48396533044426
 30
0.0
 10
100.9222256092825
 20
78.48396533044426
 30
0.0
 10
100.7788339707318
 20
78.48396533044426
 30
0.0
 10
100.7226903171807
 20
78.48396533044426
 30
0.0
 10
100.6097392950445
 20
78.48396533044425
 30
0.0
 10
100.5667385330064
 20
78.48396533044425
 30
0.0
 10
100.4626758226999
 20
78.48396533044425
 30
0.0
 10
100.397343584343
 20
78.48396533044425
 30
0.0
 10
100.3287363134426
 20
78.48396533044425
 30
0.0
  0
SPLINE
  5
8C
330
1F
100
AcDbEntity
  8
0
  6
Continuous
 62
     7
370
    15
100
AcDbSpline
210
0.0
220
0.0
230
1.0
 70
    24
 71
     3
 72
    12
 73
     8
 74
     0
 42
0.00000001
 43
0.00000001
 40
0.0
 40
0.0
 40
0.0
 40
0.0
 40
0.4999999999999983
 40
0.4999999999999983
 40
0.7499999999999991
 40
0.7499999999999991
 40
1.0
 40
1.0
 40
1.0
 40
1.0
 10
100.7344387817516
 20
131.2839653304443
 30
0.0
 10
100.6913532321406
 20
131.2839653304443
 30
0.0
 10
100.6422010303902
 20
131.2839653304443
 30
0.0
 10
100.5457284361031
 20
131.2839653304443
 30
0.0
 10
100.5096268509683
 20
131.2839653304443
 30
0.0
 10
100.4265210931077
 20
131.2839653304443
 30
0.0
 10
100.3785244961403
 20
131.2839653304443
 30
0.0
 10
100.3287363134426
 20
131.2839653304443
 30
0.0
  0
SPLINE
  5
8D
330
1F
100
AcDbEntity
  8
0
  6
Continuous
 62
     7
370
    15
100
AcDbSpline
210
0.0
220
0.0
230
1.0
 70
     8
 71
     3
 72
    10
 73
     6
 74
     0
 42
0.00000001
 43
0.00000001
 40
0.0
 40
0.0
 40
0.0
 40
0.0
 40
0.5
 40
0.5
 40
1.0
 40
1.0
 40
1.0
 40
1.0
 10
101.1287363134426
 20
132.00361918148
 30
0.0
 10
101.1287363134426
 20
131.859849123662
 30
0.0
 10
101.0926872547237
 20
131.7174297611668
 30
0.0
 10
100.9571783939497
 20
131.4675354678097
 30
0.0
 10
100.8573024008535
 20
131.3595051315614
 30
0.0
 10
100.7344387817516
 20
131.2839653304442
 30
0.0
  0
SPLINE
  5
8E
330
1F
100
AcDbEntity
  8
0
  6
Continuous
 62
     7
370
    15
100
AcDbSpline
210
0.0
220
0.0
230
1.0
 70
     8
 71
     3
 72
    10
 73
     6
 74
     0
 42
0.00000001
 43
0.00000001
 40
0.0
 40
0.0
 40
0.0
 40
0.0
 40
0.5
 40
0.5
 40
1.0
 40
1.0
 40
1.0
 40
1.0
 10
101.1025886902825
 20
124.7339653304443
 30
0.0
 10
101.1112783331941
 20
124.7808441797624
 30
0.0
 10
101.1178173979446
 20
124.8282666451637
 30
0.0
 10
101.1265760323377
 20
124.9242034437505
 30
0.0
 10
101.1287363134426
 20
124.9721187317611
 30
0.0
 10
101.1287363134426
 20
125.0198319619056
 30
0.0
  0
SPLINE
  5
8F
330
1F
100
AcDbEntity
  8
0
  6
Continuous
 62
     7
370
    15
100
AcDbSpline
210
0.0
220
0.0
230
1.0
 70
     8
 71
     3
 72
    10
 73
     6
 74
     0
 42
0.00000001
 43
0.00000001
 40
0.0
 40
0.0
 40
0.0
 40
0.0
 40
0.5
 40
0.5
 40
1.0
 40
1.0
 40
1.0
 40
1.0
 10
97.70303384513353
 20
131.2839653304443
 30
0.0
 10
97.58149358146501
 20
131.358691497656
 30
0.0
 10
97.4801592211161
 20
131.4676365135728
 30
0.0
 10
97.34452027822766
 20
131.7180669943344
 30
0.0
 10
97.3087363134426
 20
131.8604863564333
 30
0.0
 10
97.3087363134426
 20
132.00361918148
 30
0.0
  0
SPLINE
  5
90
330
1F
100
AcDbEntity
  8
0
  6
Continuous
 62
     7
370
    15
100
AcDbSpline
210
0.0
220
0.0
230
1.0
 70
    24
 71
     3
 72
    12
 73
     8
 74
     0
 42
0.00000001
 43
0.00000001
 40
0.0
 40
0.0
 40
0.0
 40
0.0
 40
0.2500000000000021
 40
0.2500000000000021
 40
0.5000000000000041
 40
0.5000000000000041
 40
1.0
 40
1.0
 40
1.0
 40
1.0
 10
98.10873631344258
 20
131.2839653304443
 30
0.0
 10
98.05885963112485
 20
131.2839653304443
 30
0.0
 10
98.01085643772161
 20
131.2839653304443
 30
0.0
 10
97.92780833500954
 20
131.2839653304443
 30
0.0
 10
97.89167875554173
 20
131.2839653304443
 30
0.0
 10
97.79576672459741
 20
131.2839653304443
 30
0.0
 10
97.74600805662872
 20
131.2839653304443
 30
0.0
 10
97.70303384513355
 20
131.2839653304443
 30
0.0
  0
SPLINE
  5
91
330
1F
100
AcDbEntity
  8
0
  6
Continuous
 62
     7
370
    15
100
AcDbSpline
210
0.0
220
0.0
230
1.0
 70
    24
 71
     3
 72
    14
 73
    10
 74
     0
 42
0.00000001
 43
0.00000001
 40
0.0
 40
0.0
 40
0.0
 40
0.0
 40
0.1249999999999991
 40
0.1249999999999991
 40
0.2499999999999982
 40
0.2499999999999982
 40
0.4999999999999998
 40
0.4999999999999998
 40
1.0
 40
1.0
 40
1.0
 40
1.0
 10
98.10873631344258
 20
78.48396533044425
 30
0.0
 10
98.04029846555615
 20
78.48396533044425
 30
0.0
 10
97.97474842679102
 20
78.48396533044426
 30
0.0
 10
97.87032178738319
 20
78.48396533044426
 30
0.0
 10
97.82777717762167
 20
78.48396533044426
 30
0.0
 10
97.7151677170815
 20
78.48396533044425
 30
0.0
 10
97.65962867006189
 20
78.48396533044425
 30
0.0
 10
97.5170169745981
 20
78.48396533044425
 30
0.0
 10
97.45361161960243
 20
78.48396533044425
 30
0.0
 10
97.40641111577487
 20
78.48396533044425
 30
0.0
  0
SPLINE
  5
92
330
1F
100
AcDbEntity
  8
0
  6
Continuous
 62
     7
370
    15
100
AcDbSpline
210
0.0
220
0.0
230
1.0
 70
     8
 71
     3
 72
    10
 73
     6
 74
     0
 42
0.00000001
 43
0.00000001
 40
0.0
 40
0.0
 40
0.0
 40
0.0
 40
0.5
 40
0.5
 40
1.0
 40
1.0
 40
1.0
 40
1.0
 10
97.30873631344258
 20
125.0198319619056
 30
0.0
 10
97.30873631344258
 20
124.9720604539123
 30
0.0
 10
97.31089755703974
 20
124.9243507318507
 30
0.0
 10
97.31956893089992
 20
124.8290556143024
 30
0.0
 10
97.32609811385589
 20
124.7813630503357
 30
0.0
 10
97.33488393660272
 20
124.7339653304443
 30
0.0
  0
LINE
  5
93
330
1F
100
AcDbEntity
  8
0
  6
Continuous
 62
     7
370
    15
100
AcDbLine
 10
100.3287363134
 20
131.2839653304
 30
0.0
 11
98.1087363134
 21
131.2839653304
 31
0.0
  0
LINE
  5
94
330
1F
100
AcDbEntity
  8
0
  6
Continuous
 62
     7
370
    15
100
AcDbLine
 10
100.3287363134
 20
78.4839653304
 30
0.0
 11
98.1087363134
 21
78.4839653304
 31
0.0
  0
LINE
  5
95
330
1F
100
AcDbEntity
  8
0
  6
Continuous
 62
     7
370
    15
100
AcDbLine
 10
59.4187363134
 20
81.6555184367
 30
0.0
 11
59.4187363134
 21
82.9202277992
 31
0.0
  0
SPLINE
  5
96
330
1F
100
AcDbEntity
  8
0
  6
Continuous
 62
     7
370
    15
100
AcDbSpline
210
0.0
220
0.0
230
1.0
 70
     8
 71
     3
 72
    14
 73
    10
 74
     0
 42
0.00000001
 43
0.00000001
 40
0.0
 40
0.0
 40
0.0
 40
0.0
 40
0.25
 40
0.25
 40
0.5
 40
0.5
 40
0.75
 40
0.75
 40
1.0
 40
1.0
 40
1.0
 40
1.0
 10
58.64044919552688
 20
84.0508140068843
 30
0.0
 10
58.69707587072895
 20
83.94311655304745
 30
0.0
 10
58.79159853101869
 20
83.84032697132812
 30
0.0
 10
58.97464350658093
 20
83.64196965910797
 30
0.0
 10
59.06627008353564
 20
83.54591015042972
 30
0.0
 10
59.22512340122884
 20
83.35838110772048
 30
0.0
 10
59.29301400885053
 20
83.26697213493692
 30
0.0
 10
59.38993103455812
 20
83.08859591402677
 30
0.0
 10
59.41873631344318
 20
83.0013740077806
 30
0.0
 10
59.41873631344318
 20
82.92022779924635
 30
0.0
  0
SPLINE
  5
97
330
1F
100
AcDbEntity
  8
0
  6
Continuous
 62
     7
370
    15
100
AcDbSpline
210
0.0
220
0.0
230
1.0
 70
     8
 71
     3
 72
    14
 73
    10
 74
     0
 42
0.00000001
 43
0.00000001
 40
0.0
 40
0.0
 40
0.0
 40
0.0
 40
0.1250000000000004
 40
0.1250000000000004
 40
0.2500000000000009
 40
0.2500000000000009
 40
0.5000000000000018
 40
0.5000000000000018
 40
1.0
 40
1.0
 40
1.0
 40
1.0
 10
58.01873631344261
 20
84.49749586916361
 30
0.0
 10
58.06728072209977
 20
84.5032441824439
 30
0.0
 10
58.12019607688467
 20
84.50014329378766
 30
0.0
 10
58.2154914218677
 20
84.47794844962533
 30
0.0
 10
58.25574241915265
 20
84.46071622252948
 30
0.0
 10
58.36001243266563
 20
84.40438830607742
 30
0.0
 10
58.41033440781895
 20
84.36020196013162
 30
0.0
 10
58.53801735534432
 20
84.22919406128099
 30
0.0
 10
58.5941028024066
 20
84.13895954105071
 30
0.0
 10
58.64044919552833
 20
84.05081400688482
 30
0.0
  0
SPLINE
  5
98
330
1F
100
AcDbEntity
  8
0
  6
Continuous
 62
     7
370
    15
100
AcDbSpline
210
0.0
220
0.0
230
1.0
 70
     8
 71
     3
 72
     8
 73
     4
 74
     0
 42
0.00000001
 43
0.00000001
 40
0.0
 40
0.0
 40
0.0
 40
0.0
 40
1.0
 40
1.0
 40
1.0
 40
1.0
 10
55.75021122049633
 20
84.18765058258082
 30
0.0
 10
56.48478824697929
 20
84.30627559364977
 30
0.0
 10
57.24826331637496
 20
84.40626146578606
 30
0.0
 10
58.0187363134426
 20
84.49749586916361
 30
0.0
  0
SPLINE
  5
99
330
1F
100
AcDbEntity
  8
0
  6
Continuous
 62
     7
370
    15
100
AcDbSpline
210
0.0
220
0.0
230
1.0
 70
     8
 71
     3
 72
    14
 73
    10
 74
     0
 42
0.00000001
 43
0.00000001
 40
0.0
 40
0.0
 40
0.0
 40
0.0
 40
0.5000000000000001
 40
0.5000000000000001
 40
0.7500000000000002
 40
0.7500000000000002
 40
0.8750000000000001
 40
0.8750000000000001
 40
1.0
 40
1.0
 40
1.0
 40
1.0
 10
50.46873631344261
 20
84.01402756504918
 30
0.0
 10
51.36088244399618
 20
84.01330533884853
 30
0.0
 10
52.25085887978975
 20
84.01789154530599
 30
0.0
 10
53.57745404686534
 20
84.04561654969754
 30
0.0
 10
54.01830097536407
 20
84.05822308732171
 30
0.0
 10
54.67474121278648
 20
84.08923923532916
 30
0.0
 10
54.89275486937836
 20
84.10158240795593
 30
0.0
 10
55.32546372306113
 20
84.13460646311918
 30
0.0
 10
55.54074018822591
 20
84.15382362825764
 30
0.0
 10
55.75021122049631
 20
84.18765058258082
 30
0.0
  0
SPLINE
  5
9A
330
1F
100
AcDbEntity
  8
0
  6
Continuous
 62
     7
370
    15
100
AcDbSpline
210
0.0
220
0.0
230
1.0
 70
     8
 71
     3
 72
     8
 73
     4
 74
     0
 42
0.00000001
 43
0.00000001
 40
0.0000005163856712
 40
0.0000005163856712
 40
0.0000005163856712
 40
0.0000005163856712
 40
0.000026289209185
 40
0.000026289209185
 40
0.000026289209185
 40
0.000026289209185
 10
50.45869138302392
 20
84.02401143815705
 30
0.0
 10
50.46201912123539
 20
84.02067719128422
 30
0.0
 10
50.46536757421469
 20
84.01734923400521
 30
0.0
 10
50.46873631344258
 20
84.01402756504916
 30
0.0
  0
SPLINE
  5
9B
330
1F
100
AcDbEntity
  8
0
  6
Continuous
 62
     7
370
    15
100
AcDbSpline
210
0.0
220
0.0
230
1.0
 70
     8
 71
     3
 72
     8
 73
     4
 74
     0
 42
0.00000001
 43
0.00000001
 40
0.0000005099763573
 40
0.0000005099763573
 40
0.0000005099763573
 40
0.0000005099763573
 40
0.0000262827998699
 40
0.0000262827998699
 40
0.0000262827998699
 40
0.0000262827998699
 10
50.46873631344258
 20
125.7539030958393
 30
0.0
 10
50.46536757421484
 20
125.7505814268834
 30
0.0
 10
50.46201912123571
 20
125.7472534696046
 30
0.0
 10
50.45869138302437
 20
125.7439192227319
 30
0.0
  0
SPLINE
  5
9C
330
1F
100
AcDbEntity
  8
0
  6
Continuous
 62
     7
370
    15
100
AcDbSpline
210
0.0
220
0.0
230
1.0
 70
     8
 71
     3
 72
    10
 73
     6
 74
     0
 42
0.00000001
 43
0.00000001
 40
0.0
 40
0.0
 40
0.0
 40
0.0
 40
0.5
 40
0.5
 40
1.0
 40
1.0
 40
1.0
 40
1.0
 10
54.0187363134426
 20
125.707052722272
 30
0.0
 10
53.431150766352
 20
125.7281182425084
 30
0.0
 10
52.84040437289163
 20
125.7388767283806
 30
0.0
 10
51.65638520759276
 20
125.7522415089163
 30
0.0
 10
51.0629712193873
 20
125.7543841515809
 30
0.0
 10
50.46873631344259
 20
125.7539030958393
 30
0.0
  0
SPLINE
  5
9D
330
1F
100
AcDbEntity
  8
0
  6
Continuous
 62
     7
370
    15
100
AcDbSpline
210
0.0
220
0.0
230
1.0
 70
     8
 71
     3
 72
    18
 73
    14
 74
     0
 42
0.00000001
 43
0.00000001
 40
0.0
 40
0.0
 40
0.0
 40
0.0
 40
0.2499999999999984
 40
0.2499999999999984
 40
0.4999999999999976
 40
0.4999999999999976
 40
0.7499999999999967
 40
0.7499999999999967
 40
0.8749999999999979
 40
0.8749999999999979
 40
0.937499999999999
 40
0.937499999999999
 40
1.0
 40
1.0
 40
1.0
 40
1.0
 10
55.41873631344261
 20
126.7280730028072
 30
0.0
 10
55.4187363134426
 20
126.64486609395
 30
0.0
 10
55.38288721350435
 20
126.5561294386365
 30
0.0
 10
55.25801547747042
 20
126.3740042480762
 30
0.0
 10
55.16761505982255
 20
126.2788741994496
 30
0.0
 10
54.94537240508038
 20
126.0896926903253
 30
0.0
 10
54.8156076186346
 20
125.9947475222306
 30
0.0
 10
54.57497016132308
 20
125.8564688146507
 30
0.0
 10
54.48720286318564
 20
125.8107583813483
 30
0.0
 10
54.33267877597883
 20
125.7529350761268
 30
0.0
 10
54.27606788992408
 20
125.7352203120889
 30
0.0
 10
54.15202385901749
 20
125.710681008856
 30
0.0
 10
54.08430918399919
 20
125.7047018703177
 30
0.0
 10
54.0187363134426
 20
125.707052722272
 30
0.0
  0
LINE
  5
9E
330
1F
100
AcDbEntity
  8
0
  6
Continuous
 62
     7
370
    15
100
AcDbLine
 10
55.4187363134
 20
126.7280730028
 30
0.0
 11
55.4187363134
 21
127.9120114226
 31
0.0
  0
LINE
  5
9F
330
1F
100
AcDbEntity
  8
0
  6
Continuous
 62
     7
370
    15
100
AcDbLine
 10
79.2187363134
 20
80.6635344687
 30
0.0
 11
79.2187363134
 21
129.1043961922
 31
0.0
  0
SPLINE
  5
A0
330
1F
100
AcDbEntity
  8
0
  6
Continuous
 62
     7
370
    15
100
AcDbSpline
210
0.0
220
0.0
230
1.0
 70
     8
 71
     3
 72
    18
 73
    14
 74
     0
 42
0.00000001
 43
0.00000001
 40
0.0
 40
0.0
 40
0.0
 40
0.0
 40
0.0010671296451831
 40
0.1270947795731633
 40
0.2524053457512758
 40
0.3766468878987075
 40
0.4391415999050405
 40
0.5008278021400039
 40
0.5624255708808992
 40
0.6253162439161173
 40
0.7499985144706733
 40
0.8752758950341271
 40
0.9999999999999999
 40
0.9999999999999999
 40
0.9999999999999999
 40
0.9999999999999999
 10
67.98903715351526
 20
81.22662630752791
 30
0.0
 10
67.98812532087676
 20
81.22651152899127
 30
0.0
 10
67.87952636223993
 20
81.21284144412529
 30
0.0
 10
68.26716742988957
 20
81.26376094474102
 30
0.0
 10
69.133132111725
 20
81.3633441177873
 30
0.0
 10
70.3335360364937
 20
81.43246800093145
 30
0.0
 10
71.39111195098374
 20
81.43642023006932
 30
0.0
 10
72.2182460378893
 20
81.4089312916149
 30
0.0
 10
73.04351790552506
 20
81.35039111520777
 30
0.0
 10
74.0978831255232
 20
81.23686995547115
 30
0.0
 10
75.25971940699931
 20
81.05371913122306
 30
0.0
 10
76.21195418838258
 20
80.84911592158797
 30
0.0
 10
76.3376592491905
 20
80.8198305708119
 30
0.0
 10
76.40037268133571
 20
80.80522030097124
 30
0.0
  0
SPLINE
  5
A1
330
1F
100
AcDbEntity
  8
0
  6
Continuous
 62
     7
370
    15
100
AcDbSpline
210
0.0
220
0.0
230
1.0
 70
     8
 71
     3
 72
    18
 73
    14
 74
     0
 42
0.00000001
 43
0.00000001
 40
0.0
 40
0.0
 40
0.0
 40
0.0
 40
0.1249080880615186
 40
0.2505384005827851
 40
0.3748721824256792
 40
0.4374907636253189
 40
0.4990776247952343
 40
0.5607931517551704
 40
0.6233901319009026
 40
0.747819101704548
 40
0.8731940972834111
 40
0.9991614619872062
 40
1.0
 40
1.0
 40
1.0
 40
1.0
 10
76.40015348434135
 20
128.9626450857619
 30
0.0
 10
76.33639590674089
 20
128.9479796749208
 30
0.0
 10
76.2085121022175
 20
128.9185640571411
 30
0.0
 10
75.25648175483134
 20
128.7136090041716
 30
0.0
 10
74.09600247875811
 20
128.5303555980615
 30
0.0
 10
73.04373800243047
 20
128.4173279770269
 30
0.0
 10
72.21951090011211
 20
128.3590643342446
 30
0.0
 10
71.39190709744439
 20
128.3316179485128
 30
0.0
 10
70.33309006670306
 20
128.33560273575
 30
0.0
 10
69.13087014042841
 20
128.4046923580165
 30
0.0
 10
68.26569132170215
 20
128.5043179652775
 30
0.0
 10
67.87953811965033
 20
128.5551355597662
 30
0.0
 10
67.98761853282963
 20
128.5414623238229
 30
0.0
 10
67.98833324352485
 20
128.5413719058862
 30
0.0
  0
SPLINE
  5
A2
330
1F
100
AcDbEntity
  8
0
  6
Continuous
 62
     7
370
    15
100
AcDbSpline
210
0.0
220
0.0
230
1.0
 70
     8
 71
     3
 72
    10
 73
     6
 74
     0
 42
0.00000001
 43
0.00000001
 40
0.0
 40
0.0
 40
0.0
 40
0.0
 40
0.5
 40
0.5
 40
1.0
 40
1.0
 40
1.0
 40
1.0
 10
49.31873631344194
 20
85.19328758396675
 30
0.0
 10
49.3187363134419
 20
85.16441331910735
 30
0.0
 10
49.328930223203
 20
85.14690976272882
 30
0.0
 10
49.35568082801115
 20
85.14637819990111
 30
0.0
 10
49.37256827994246
 20
85.16404565708065
 30
0.0
 10
49.38139968816599
 20
85.20941278566352
 30
0.0
  0
LINE
  5
A3
330
1F
100
AcDbEntity
  8
0
  6
Continuous
 62
     7
370
    15
100
AcDbLine
 10
49.3187363134
 20
85.193287584
 30
0.0
 11
49.3187363134
 21
124.5746430769
 31
0.0
  0
SPLINE
  5
A4
330
1F
100
AcDbEntity
  8
0
  6
Continuous
 62
     7
370
    15
100
AcDbSpline
210
0.0
220
0.0
230
1.0
 70
     8
 71
     3
 72
    10
 73
     6
 74
     0
 42
0.00000001
 43
0.00000001
 40
0.0
 40
0.0
 40
0.0
 40
0.0
 40
0.5
 40
0.5
 40
1.0
 40
1.0
 40
1.0
 40
1.0
 10
49.38139968816599
 20
124.558517875225
 30
0.0
 10
49.37249539905725
 20
124.6042593944382
 30
0.0
 10
49.35598001886427
 20
124.6214502339072
 30
0.0
 10
49.32887207280265
 20
124.6211269569715
 30
0.0
 10
49.31873631344259
 20
124.603249414675
 30
0.0
 10
49.31873631344259
 20
124.5746430769224
 30
0.0
  0
SPLINE
  5
A5
330
1F
100
AcDbEntity
  8
0
  6
Continuous
 62
     7
370
    15
100
AcDbSpline
210
0.0
220
0.0
230
1.0
 70
     8
 71
     3
 72
    26
 73
    22
 74
     0
 42
0.00000001
 43
0.00000001
 40
0.0
 40
0.0
 40
0.0
 40
0.0
 40
0.2499999999999942
 40
0.2499999999999942
 40
0.3749999999999899
 40
0.3749999999999899
 40
0.4374999999999888
 40
0.4374999999999888
 40
0.4687499999999888
 40
0.4687499999999888
 40
0.4999999999999888
 40
0.4999999999999888
 40
0.5312499999999887
 40
0.5312499999999887
 40
0.5624999999999887
 40
0.5624999999999887
 40
0.6249999999999912
 40
0.6249999999999912
 40
0.7499999999999942
 40
0.7499999999999942
 40
1.0
 40
1.0
 40
1.0
 40
1.0
 10
50.14288995954712
 20
125.2740846640421
 30
0.0
 10
50.10428943667863
 20
125.1563099676867
 30
0.0
 10
50.05799243412437
 20
125.0319202815247
 30
0.0
 10
49.96405308569045
 20
124.8267009491712
 30
0.0
 10
49.92874161877698
 20
124.7551280827248
 30
0.0
 10
49.86256164303131
 20
124.6391748501243
 30
0.0
 10
49.83802327636308
 20
124.5985903153141
 30
0.0
 10
49.79465053080926
 20
124.5344486334423
 30
0.0
 10
49.77914212938408
 20
124.5125822081573
 30
0.0
 10
49.74409948479705
 20
124.4669879398141
 30
0.0
 10
49.72454919407726
 20
124.4433176488467
 30
0.0
 10
49.68262191370665
 20
124.3987010895067
 30
0.0
 10
49.65996980347502
 20
124.3778210769888
 30
0.0
 10
49.61899608938841
 20
124.346947663238
 30
0.0
 10
49.60139678949299
 20
124.3371087934056
 30
0.0
 10
49.55676980363685
 20
124.3181191777094
 30
0.0
 10
49.53621058098352
 20
124.317794853056
 30
0.0
 10
49.48508514148686
 20
124.3270182939322
 30
0.0
 10
49.46417372849832
 20
124.3482651901492
 30
0.0
 10
49.41272382093738
 20
124.4222340689799
 30
0.0
 10
49.39505852163281
 20
124.4883521622947
 30
0.0
 10
49.38139968816599
 20
124.558517875225
 30
0.0
  0
SPLINE
  5
A6
330
1F
100
AcDbEntity
  8
0
  6
Continuous
 62
     7
370
    15
100
AcDbSpline
210
0.0
220
0.0
230
1.0
 70
     8
 71
     3
 72
    10
 73
     6
 74
     0
 42
0.00000001
 43
0.00000001
 40
0.0
 40
0.0
 40
0.0
 40
0.0
 40
0.5
 40
0.5
 40
1.0
 40
1.0
 40
1.0
 40
1.0
 10
50.45869138302439
 20
125.7439192227319
 30
0.0
 10
50.39113212810616
 20
125.6762278299222
 30
0.0
 10
50.32749547276966
 20
125.6015206651685
 30
0.0
 10
50.2172747181978
 20
125.4425545327419
 30
0.0
 10
50.17045842497518
 20
125.3581992667339
 30
0.0
 10
50.14288995954712
 20
125.2740846640421
 30
0.0
  0
SPLINE
  5
A7
330
1F
100
AcDbEntity
  8
0
  6
Continuous
 62
     7
370
    15
100
AcDbSpline
210
0.0
220
0.0
230
1.0
 70
     8
 71
     3
 72
    10
 73
     6
 74
     0
 42
0.00000001
 43
0.00000001
 40
0.0
 40
0.0
 40
0.0
 40
0.0
 40
0.5
 40
0.5
 40
1.0
 40
1.0
 40
1.0
 40
1.0
 10
50.14288995954715
 20
84.49384599684629
 30
0.0
 10
50.17036737430036
 20
84.4100092003807
 30
0.0
 10
50.21707600458801
 20
84.32569871279385
 30
0.0
 10
50.32735446732997
 20
84.16657748231098
 30
0.0
 10
50.3912420059416
 20
84.09159273822291
 30
0.0
 10
50.45869138302393
 20
84.02401143815705
 30
0.0
  0
SPLINE
  5
A8
330
1F
100
AcDbEntity
  8
0
  6
Continuous
 62
     7
370
    15
100
AcDbSpline
210
0.0
220
0.0
230
1.0
 70
     8
 71
     3
 72
    24
 73
    20
 74
     0
 42
0.00000001
 43
0.00000001
 40
0.0
 40
0.0
 40
0.0
 40
0.0
 40
0.2499999999999893
 40
0.2499999999999893
 40
0.3749999999999847
 40
0.3749999999999847
 40
0.4374999999999823
 40
0.4374999999999823
 40
0.4687499999999816
 40
0.4687499999999816
 40
0.4999999999999808
 40
0.4999999999999808
 40
0.5624999999999839
 40
0.5624999999999839
 40
0.624999999999987
 40
0.624999999999987
 40
0.7499999999999907
 40
0.7499999999999907
 40
1.0
 40
1.0
 40
1.0
 40
1.0
 10
49.38139968816601
 20
85.20941278566352
 30
0.0
 10
49.39515280683624
 20
85.28006284365381
 30
0.0
 10
49.41292537424208
 20
85.34666095641872
 30
0.0
 10
49.46517646579746
 20
85.42075897665192
 30
0.0
 10
49.486211541379
 20
85.44201678381349
 30
0.0
 10
49.53911194900744
 20
85.45016270995973
 30
0.0
 10
49.56021762188535
 20
85.44922290656396
 30
0.0
 10
49.60626979056332
 20
85.4282069149866
 30
0.0
 10
49.62464026254669
 20
85.41729810887901
 30
0.0
 10
49.6661918976124
 20
85.38466319793163
 30
0.0
 10
49.68875857036931
 20
85.36317121756026
 30
0.0
 10
49.75153958682935
 20
85.29470527397395
 30
0.0
 10
49.78466934779723
 20
85.24863081576886
 30
0.0
 10
49.84158703428226
 20
85.16362292743419
 30
0.0
 10
49.86577305978601
 20
85.1233426262528
 30
0.0
 10
49.93098101016579
 20
85.00840639978686
 30
0.0
 10
49.96569707035706
 20
84.93782341463985
 30
0.0
 10
50.05891234068792
 20
84.73361765556125
 30
0.0
 10
50.10458487604861
 20
84.61071927323388
 30
0.0
 10
50.14288995954713
 20
84.4938459968463
 30
0.0
  0
SPLINE
  5
A9
330
1F
100
AcDbEntity
  8
0
  6
Continuous
 62
     7
370
    15
100
AcDbSpline
210
0.0
220
0.0
230
1.0
 70
     8
 71
     3
 72
     8
 73
     4
 74
     0
 42
0.00000001
 43
0.00000001
 40
0.0
 40
0.0
 40
0.0
 40
0.0
 40
1.0
 40
1.0
 40
1.0
 40
1.0
 10
102.6106691449316
 20
135.3511608036085
 30
0.0
 10
102.1155291155673
 20
134.4644811554282
 30
0.0
 10
101.6214464102883
 20
133.5772185197422
 30
0.0
 10
101.1287363134426
 20
132.6891995216158
 30
0.0
  0
LINE
  5
AA
330
1F
100
AcDbEntity
  8
0
  6
Continuous
 62
     7
370
    15
100
AcDbLine
 10
102.6106691449
 20
129.3426549928
 30
0.0
 11
102.6106691449
 21
135.3511608036
 31
0.0
  0
SPLINE
  5
AB
330
1F
100
AcDbEntity
  8
0
  6
Continuous
 62
     7
370
    15
100
AcDbSpline
210
0.0
220
0.0
230
1.0
 70
     8
 71
     3
 72
     8
 73
     4
 74
     0
 42
0.00000001
 43
0.00000001
 40
0.0
 40
0.0
 40
0.0
 40
0.0
 40
1.0
 40
1.0
 40
1.0
 40
1.0
 10
101.1287363134426
 20
125.9341089980276
 30
0.0
 10
101.6080144640324
 20
127.0751202278802
 30
0.0
 10
102.1035823031724
 20
128.211504638648
 30
0.0
 10
102.6106691449316
 20
129.3426549928117
 30
0.0
  0
LINE
  5
AC
330
1F
100
AcDbEntity
  8
0
  6
Continuous
 62
     7
370
    15
100
AcDbLine
 10
101.1287363134
 20
125.934108998
 30
0.0
 11
101.1287363134
 21
132.6891995216
 31
0.0
  0
LINE
  5
AD
330
1F
100
AcDbEntity
  8
0
  6
Continuous
 62
     7
370
    15
100
AcDbLine
 10
106.5687363134
 20
135.3511608036
 30
0.0
 11
102.6106691449
 21
135.3511608036
 31
0.0
  0
LINE
  5
AE
330
1F
100
AcDbEntity
  8
0
  6
Continuous
 62
     7
370
    15
100
AcDbLine
 10
102.6106691449
 20
129.3426549928
 30
0.0
 11
106.5687363134
 21
129.3426549928
 31
0.0
  0
LINE
  5
AF
330
1F
100
AcDbEntity
  8
0
  6
Continuous
 62
     7
370
    15
100
AcDbLine
 10
101.1287363134
 20
125.0198319619
 30
0.0
 11
101.1287363134
 21
125.934108998
 31
0.0
  0
SPLINE
  5
B0
330
1F
100
AcDbEntity
  8
0
  6
Continuous
 62
     7
370
    15
100
AcDbSpline
210
0.0
220
0.0
230
1.0
 70
     8
 71
     3
 72
    12
 73
     8
 74
     0
 42
0.00000001
 43
0.00000001
 40
0.0
 40
0.0
 40
0.0
 40
0.0
 40
0.25
 40
0.25
 40
0.5
 40
0.5
 40
1.0
 40
1.0
 40
1.0
 40
1.0
 10
106.5687363134426
 20
129.3426549928117
 30
0.0
 10
106.6599360352683
 20
129.3426549928117
 30
0.0
 10
106.7505310444043
 20
129.3144352942238
 30
0.0
 10
106.9039437708509
 20
129.2199922869757
 30
0.0
 10
106.9691526381746
 20
129.1537053102704
 30
0.0
 10
107.1219371675145
 20
128.9280804869821
 30
0.0
 10
107.1687363134426
 20
128.7456542239495
 30
0.0
 10
107.1687363134426
 20
128.5649175917027
 30
0.0
  0
LINE
  5
B1
330
1F
100
AcDbEntity
  8
0
  6
Continuous
 62
     7
370
    15
100
AcDbLine
 10
107.1687363134
 20
128.5649175917
 30
0.0
 11
107.1687363134
 21
124.7339653304
 31
0.0
  0
SPLINE
  5
B2
330
1F
100
AcDbEntity
  8
0
  6
Continuous
 62
     7
370
    15
100
AcDbSpline
210
0.0
220
0.0
230
1.0
 70
     8
 71
     3
 72
     8
 73
     4
 74
     0
 42
0.00000001
 43
0.00000001
 40
0.0
 40
0.0
 40
0.0
 40
0.0
 40
1.0
 40
1.0
 40
1.0
 40
1.0
 10
95.82680348195353
 20
129.3426549928117
 30
0.0
 10
96.33389032371281
 20
128.211504638648
 30
0.0
 10
96.82945816285275
 20
127.0751202278802
 30
0.0
 10
97.3087363134426
 20
125.9341089980276
 30
0.0
  0
LINE
  5
B3
330
1F
100
AcDbEntity
  8
0
  6
Continuous
 62
     7
370
    15
100
AcDbLine
 10
97.3087363134
 20
125.934108998
 30
0.0
 11
97.3087363134
 21
125.0198319619
 31
0.0
  0
SPLINE
  5
B4
330
1F
100
AcDbEntity
  8
0
  6
Continuous
 62
     7
370
    15
100
AcDbSpline
210
0.0
220
0.0
230
1.0
 70
     8
 71
     3
 72
     8
 73
     4
 74
     0
 42
0.00000001
 43
0.00000001
 40
0.0
 40
0.0
 40
0.0
 40
0.0
 40
1.0
 40
1.0
 40
1.0
 40
1.0
 10
97.3087363134426
 20
132.6891995216158
 30
0.0
 10
96.81602621659684
 20
133.5772185197422
 30
0.0
 10
96.32194351131785
 20
134.4644811554282
 30
0.0
 10
95.82680348195355
 20
135.3511608036085
 30
0.0
  0
LINE
  5
B5
330
1F
100
AcDbEntity
  8
0
  6
Continuous
 62
     7
370
    15
100
AcDbLine
 10
97.3087363134
 20
125.934108998
 30
0.0
 11
97.3087363134
 21
132.6891995216
 31
0.0
  0
SPLINE
  5
B6
330
1F
100
AcDbEntity
  8
0
  6
Continuous
 62
     7
370
    15
100
AcDbSpline
210
0.0
220
0.0
230
1.0
 70
     8
 71
     3
 72
    10
 73
     6
 74
     0
 42
0.00000001
 43
0.00000001
 40
0.0
 40
0.0
 40
0.0
 40
0.0
 40
0.5
 40
0.5
 40
1.0
 40
1.0
 40
1.0
 40
1.0
 10
107.1687363134426
 20
134.7304056542081
 30
0.0
 10
107.1687363134426
 20
134.8908109205589
 30
0.0
 10
107.1064984823357
 20
135.0498727335475
 30
0.0
 10
106.8873635585932
 20
135.2807851991778
 30
0.0
 10
106.7297748636013
 20
135.3511608036085
 30
0.0
 10
106.5687363134426
 20
135.3511608036085
 30
0.0
  0
LINE
  5
B7
330
1F
100
AcDbEntity
  8
0
  6
Continuous
 62
     7
370
    15
100
AcDbLine
 10
107.1687363134
 20
128.5649175917
 30
0.0
 11
107.1687363134
 21
134.7304056542
 31
0.0
  0
ARC
  5
B8
330
1F
100
AcDbEntity
  8
0
  6
Continuous
 62
     7
370
    15
100
AcDbCircle
 10
89.2185980916
 20
123.6444648257
 30
0.0
 40
7.197617454956134
100
AcDbArc
 50
70.7484472317
 51
109.2065859885
  0
LINE
  5
B9
330
1F
100
AcDbEntity
  8
0
  6
Continuous
 62
     7
370
    15
100
AcDbLine
 10
196.7470197368
 20
87.8839653304
 30
0.0
 11
196.7470197368
 21
121.8839653304
 31
0.0
  0
SPLINE
  5
BA
330
1F
100
AcDbEntity
  8
0
  6
Continuous
 62
     7
370
    15
100
AcDbSpline
210
0.0
220
0.0
230
1.0
 70
     8
 71
     3
 72
    37
 73
    33
 74
     0
 42
0.00000001
 43
0.00000001
 40
0.0
 40
0.0
 40
0.0
 40
0.0
 40
0.0392058559256645
 40
0.0617684858998894
 40
0.1033196420333152
 40
0.1459245603787732
 40
0.190616465018286
 40
0.2363173866122234
 40
0.2617032916316646
 40
0.3131651543937189
 40
0.339270703890888
 40
0.36801460365693
 40
0.4263520034369532
 40
0.4559948816373634
 40
0.4869441974064596
 40
0.5181002245742914
 40
0.5499076812319709
 40
0.5819408635235281
 40
0.6134346431867623
 40
0.645154934631599
 40
0.6776128471923769
 40
0.710337780726562
 40
0.7406318727841441
 40
0.7711708857670372
 40
0.80254814141648
 40
0.8342477007652906
 40
0.8568131322000917
 40
0.9026586442509201
 40
0.926012839163056
 40
0.9485831324200877
 40
0.9946198415690862
 40
0.9999999999999999
 40
0.9999999999999999
 40
0.9999999999999999
 40
0.9999999999999999
 10
156.6647429433475
 20
121.8833614789045
 30
0.0
 10
156.6606150602015
 20
121.8827298906266
 30
0.0
 10
156.6541116161144
 20
121.8817348287737
 30
0.0
 10
156.5808556945441
 20
121.8707391053905
 30
0.0
 10
156.4650894146257
 20
121.8536950181163
 30
0.0
 10
156.2603910068513
 20
121.824933329955
 30
0.0
 10
155.9908965405108
 20
121.7896694493067
 30
0.0
 10
155.711798707974
 20
121.7566465074589
 30
0.0
 10
155.3868333687778
 20
121.7220707605128
 30
0.0
 10
155.0892464058632
 20
121.6943207001637
 30
0.0
 10
154.7635196961197
 20
121.6690503932581
 30
0.0
 10
154.4046068753442
 20
121.6452489977133
 30
0.0
 10
154.0177207789245
 20
121.6267905589557
 30
0.0
 10
153.6151273860567
 20
121.6157716526399
 30
0.0
 10
153.3015536202011
 20
121.6115911101447
 30
0.0
 10
152.9797200762629
 20
121.6119826711617
 30
0.0
 10
152.6554391862469
 20
121.6171534997061
 30
0.0
 10
152.333596080603
 20
121.6270442353019
 30
0.0
 10
152.0179341910093
 20
121.6412948961704
 30
0.0
 10
151.7090533381746
 20
121.6595406765653
 30
0.0
 10
151.407081903639
 20
121.6814806295126
 30
0.0
 10
151.1230794924916
 20
121.705832532628
 30
0.0
 10
150.8603063700534
 20
121.7314683850551
 30
0.0
 10
150.6185797754052
 20
121.7576146370095
 30
0.0
 10
150.3938472391628
 20
121.784140206955
 30
0.0
 10
150.2104139560313
 20
121.8074350317994
 30
0.0
 10
150.0215228835307
 20
121.8326569827798
 30
0.0
 10
149.8803150745766
 20
121.8526293592804
 30
0.0
 10
149.7765004648096
 20
121.8678104966197
 30
0.0
 10
149.7006846024142
 20
121.8790988501783
 30
0.0
 10
149.6646056081576
 20
121.8845921861344
 30
0.0
 10
149.6701534051114
 20
121.883750454228
 30
0.0
 10
149.6707339155151
 20
121.8836623770808
 30
0.0
  0
LINE
  5
BB
330
1F
100
AcDbEntity
  8
0
  6
Continuous
 62
     7
370
    15
100
AcDbLine
 10
150.7521739299
 20
121.7435746392
 30
0.0
 11
150.8324571379
 21
121.7347856214
 31
0.0
  0
SPLINE
  5
BC
330
1F
100
AcDbEntity
  8
0
  6
Continuous
 62
     7
370
    15
100
AcDbSpline
210
0.0
220
0.0
230
1.0
 70
     8
 71
     3
 72
    66
 73
    62
 74
     0
 42
0.00000001
 43
0.00000001
 40
-0.0625000000000008
 40
-0.0625000000000008
 40
0.0
 40
0.0
 40
0.0625
 40
0.0625
 40
0.0937499999999999
 40
0.0937499999999999
 40
0.1249999999999999
 40
0.1249999999999999
 40
0.1562499999999999
 40
0.1562499999999999
 40
0.1874999999999999
 40
0.1874999999999999
 40
0.2187499999999998
 40
0.2187499999999998
 40
0.2499999999999998
 40
0.2499999999999998
 40
0.2812499999999998
 40
0.2812499999999998
 40
0.3124999999999997
 40
0.3124999999999997
 40
0.3437499999999997
 40
0.3437499999999997
 40
0.3749999999999997
 40
0.3749999999999997
 40
0.4062499999999997
 40
0.4062499999999997
 40
0.4374999999999997
 40
0.4374999999999997
 40
0.4687499999999996
 40
0.4687499999999996
 40
0.4999999999999996
 40
0.4999999999999996
 40
0.5312499999999996
 40
0.5312499999999996
 40
0.5624999999999996
 40
0.5624999999999996
 40
0.5937499999999994
 40
0.5937499999999994
 40
0.6249999999999994
 40
0.6249999999999994
 40
0.6562499999999994
 40
0.6562499999999994
 40
0.6874999999999994
 40
0.6874999999999994
 40
0.7187499999999994
 40
0.7187499999999994
 40
0.7499999999999994
 40
0.7499999999999994
 40
0.7812499999999993
 40
0.7812499999999993
 40
0.8124999999999993
 40
0.8124999999999993
 40
0.8437499999999993
 40
0.8437499999999993
 40
0.8749999999999993
 40
0.8749999999999993
 40
0.9062499999999993
 40
0.9062499999999993
 40
0.9374999999999992
 40
0.9374999999999992
 40
1.0
 40
1.0
 40
1.0625
 40
1.0625
 10
150.4933341330497
 20
106.8667008307748
 30
0.0
 10
151.1715801453381
 20
107.395606547684
 30
0.0
 10
151.5503745380436
 20
107.5913799109025
 30
0.0
 10
152.1632544736666
 20
107.7893632943151
 30
0.0
 10
152.3707084369208
 20
107.8376604384146
 30
0.0
 10
152.7916411333586
 20
107.9006701845613
 30
0.0
 10
153.0066883517879
 20
107.9153236038265
 30
0.0
 10
153.4356212730908
 20
107.9096720232345
 30
0.0
 10
153.6474417686113
 20
107.8896739434512
 30
0.0
 10
154.0658967066734
 20
107.8159569503772
 30
0.0
 10
154.2738775329912
 20
107.761762860899
 30
0.0
 10
154.6781387669855
 20
107.6190861565656
 30
0.0
 10
154.871595407469
 20
107.5318716668184
 30
0.0
 10
155.2410495674549
 20
107.3252637285209
 30
0.0
 10
155.4179894927845
 20
107.2051466485591
 30
0.0
 10
155.748217378337
 20
106.9316451989214
 30
0.0
 10
155.8977406105188
 20
106.7816486735545
 30
0.0
 10
156.1643344320801
 20
106.4538746658534
 30
0.0
 10
156.282487621373
 20
106.2740573613903
 30
0.0
 10
156.4756093693998
 20
105.8908757911109
 30
0.0
 10
156.5489569249194
 20
105.6918003020746
 30
0.0
 10
156.6472106650153
 20
105.277970173633
 30
0.0
 10
156.6715521645182
 20
105.0602447158453
 30
0.0
 10
156.6653820687693
 20
104.6331474841166
 30
0.0
 10
156.6357897254702
 20
104.420386261221
 30
0.0
 10
156.524461196268
 20
104.0032450603623
 30
0.0
 10
156.4447182924714
 20
103.8051223072182
 30
0.0
 10
156.2414391772892
 20
103.4277986983857
 30
0.0
 10
156.1178477485512
 20
103.2497904689171
 30
0.0
 10
155.8402362611502
 20
102.9260401194979
 30
0.0
 10
155.6834901252438
 20
102.7770127303674
 30
0.0
 10
155.3469701482126
 20
102.5125345364483
 30
0.0
 10
155.1679223170891
 20
102.3970738301201
 30
0.0
 10
154.7896030189778
 20
102.1973529100209
 30
0.0
 10
154.5898831564282
 20
102.1133782687169
 30
0.0
 10
154.1842582740984
 20
101.981297427517
 30
0.0
 10
153.9766939984421
 20
101.9322150002572
 30
0.0
 10
153.552078788573
 20
101.8677543955887
 30
0.0
 10
153.3363775188664
 20
101.8529111204633
 30
0.0
 10
152.9101331467137
 20
101.8577838580341
 30
0.0
 10
152.697875755758
 20
101.8771994624285
 30
0.0
 10
152.275140249167
 20
101.951029711495
 30
0.0
 10
152.06594751695
 20
102.0055847425027
 30
0.0
 10
151.6648149908353
 20
102.1466676320063
 30
0.0
 10
151.470976421801
 20
102.2334511786441
 30
0.0
 10
151.0975936294469
 20
102.4417725962639
 30
0.0
 10
150.9186890868976
 20
102.5635471647959
 30
0.0
 10
150.5920426924519
 20
102.8338719798446
 30
0.0
 10
150.4421559963742
 20
102.9834408995928
 30
0.0
 10
150.1723183952175
 20
103.3149255867075
 30
0.0
 10
150.053367040438
 20
103.4967463047674
 30
0.0
 10
149.8616585808833
 20
103.8778014695036
 30
0.0
 10
149.7864608669839
 20
104.0819656292375
 30
0.0
 10
149.6885643848955
 20
104.5000392488722
 30
0.0
 10
149.6655087839079
 20
104.7120090127193
 30
0.0
 10
149.6726817125711
 20
105.1419914182139
 30
0.0
 10
149.7036724032072
 20
105.3574587928169
 30
0.0
 10
149.8151951407599
 20
105.7703136248575
 30
0.0
 10
149.8971827699218
 20
105.9726491705125
 30
0.0
 10
150.2038782774827
 20
106.536947388362
 30
0.0
 10
150.4933341330497
 20
106.8667008307748
 30
0.0
 10
151.1715801453381
 20
107.395606547684
 30
0.0
  0
SPLINE
  5
BD
330
1F
100
AcDbEntity
  8
0
  6
Continuous
 62
     7
370
    15
100
AcDbSpline
210
0.0
220
0.0
230
1.0
 70
     8
 71
     3
 72
    38
 73
    34
 74
     0
 42
0.00000001
 43
0.00000001
 40
0.0
 40
0.0
 40
0.0
 40
0.0
 40
0.0243208979560748
 40
0.0473799132081339
 40
0.0888475391294998
 40
0.1314017766657836
 40
0.1752837264461916
 40
0.220167217776422
 40
0.2449667220494264
 40
0.2952350516663546
 40
0.3207312097038194
 40
0.3489491284028428
 40
0.3773377769464651
 40
0.4062470988988762
 40
0.4353299804538565
 40
0.4660218609004293
 40
0.4969160715291905
 40
0.5284451678034537
 40
0.5601930863509463
 40
0.591702691055836
 40
0.6234357585490382
 40
0.6558913381467176
 40
0.6886059836357521
 40
0.7192590636760021
 40
0.7501542143202139
 40
0.781871326090893
 40
0.8139017885740917
 40
0.8370711838718148
 40
0.8841384907673573
 40
0.90811366732972
 40
0.9312885507753393
 40
0.9785837128808641
 40
1.0
 40
1.0
 40
1.0
 40
1.0
 10
149.6790912174883
 20
87.88553466533307
 30
0.0
 10
149.6770511509272
 20
87.88522661764145
 30
0.0
 10
149.673076866064
 20
87.88462650522294
 30
0.0
 10
149.7216760482
 20
87.89196932391377
 30
0.0
 10
149.8171311456532
 20
87.90618735330324
 30
0.0
 10
150.0000323288027
 20
87.9323742423578
 30
0.0
 10
150.2472423031866
 20
87.96560372051559
 30
0.0
 10
150.5068474950237
 20
87.9975197100333
 30
0.0
 10
150.8116205925294
 20
88.0315999775184
 30
0.0
 10
151.0925752414059
 20
88.05958407602898
 30
0.0
 10
151.4026367422395
 20
88.08588573432702
 30
0.0
 10
151.6572349708583
 20
88.10475649155488
 30
0.0
 10
151.9312264093402
 20
88.12181171038404
 30
0.0
 10
152.2152640141039
 20
88.1359477453918
 30
0.0
 10
152.512596281218
 20
88.1468728738765
 30
0.0
 10
152.8207413403456
 20
88.15396672105518
 30
0.0
 10
153.139492151228
 20
88.15673007754624
 30
0.0
 10
153.4620757664324
 20
88.1548083096709
 30
0.0
 10
153.7847549629795
 20
88.14811913540017
 30
0.0
 10
154.1038487499813
 20
88.13685521577926
 30
0.0
 10
154.4187282882537
 20
88.12125718238732
 30
0.0
 10
154.7283862167083
 20
88.10158769429579
 30
0.0
 10
155.0228076680799
 20
88.07888907446738
 30
0.0
 10
155.2985334779407
 20
88.05420158614736
 30
0.0
 10
155.5555204877082
 20
88.02828039093467
 30
0.0
 10
155.7971758031688
 20
88.001333910529
 30
0.0
 10
155.9983790553111
 20
87.9769274747864
 30
0.0
 10
156.2106557072288
 20
87.94961978611913
 30
0.0
 10
156.3751387147594
 20
87.92697693701578
 30
0.0
 10
156.5019693777784
 20
87.90877220881555
 30
0.0
 10
156.6017588609412
 20
87.89411056763511
 30
0.0
 10
156.6615517013904
 20
87.88505526747589
 30
0.0
 10
156.6660974154476
 20
87.88436556553654
 30
0.0
 10
156.6675142436256
 20
87.88415059619845
 30
0.0
  0
SPLINE
  5
BE
330
1F
100
AcDbEntity
  8
0
  6
Continuous
 62
     7
370
    15
100
AcDbSpline
210
0.0
220
0.0
230
1.0
 70
     8
 71
     3
 72
     9
 73
     5
 74
     0
 42
0.00000001
 43
0.00000001
 40
0.0
 40
0.0
 40
0.0
 40
0.0
 40
0.150252256243044
 40
1.0
 40
1.0
 40
1.0
 40
1.0
 10
151.1400357015549
 20
88.06287016241474
 30
0.0
 10
151.1237910211988
 20
88.0614703430911
 30
0.0
 10
151.015674971814
 20
88.05215388183696
 30
0.0
 10
150.9166247992267
 20
88.04187743071435
 30
0.0
 10
150.8324571385518
 20
88.03314503955906
 30
0.0
  0
CIRCLE
  5
BF
330
1F
100
AcDbEntity
  8
0
  6
Continuous
 62
     7
370
    15
100
AcDbCircle
 10
153.1687363134
 20
104.8839653304
 30
0.0
 40
2.5
  0
SPLINE
  5
C0
330
1F
100
AcDbEntity
  8
0
  6
Continuous
 62
     7
370
    15
100
AcDbSpline
210
0.0
220
0.0
230
1.0
 70
     8
 71
     3
 72
    10
 73
     6
 74
     0
 42
0.00000001
 43
0.00000001
 40
0.0
 40
0.0
 40
0.0
 40
0.0
 40
0.1528193873571508
 40
0.8538662091845789
 40
1.0
 40
1.0
 40
1.0
 40
1.0
 10
241.2044327686453
 20
116.7314471598523
 30
0.0
 10
241.205862968064
 20
116.7205671442078
 30
0.0
 10
241.2138540939094
 20
116.6597759195155
 30
0.0
 10
241.21817809212
 20
116.5723175122999
 30
0.0
 10
241.2186541893964
 20
116.4964924739479
 30
0.0
 10
241.2187363134426
 20
116.4834130902513
 30
0.0
  0
LINE
  5
C1
330
1F
100
AcDbEntity
  8
0
  6
Continuous
 62
     7
370
    15
100
AcDbLine
 10
241.2187363134
 20
93.2845175706
 30
0.0
 11
241.2187363134
 21
116.4834130903
 31
0.0
  0
SPLINE
  5
C2
330
1F
100
AcDbEntity
  8
0
  6
Continuous
 62
     7
370
    15
100
AcDbSpline
210
0.0
220
0.0
230
1.0
 70
     8
 71
     3
 72
    10
 73
     6
 74
     0
 42
0.00000001
 43
0.00000001
 40
0.0
 40
0.0
 40
0.0
 40
0.0
 40
0.2461884088885881
 40
0.9038140762616759
 40
1.0
 40
1.0
 40
1.0
 40
1.0
 10
241.2187363134426
 20
93.28451757063725
 30
0.0
 10
241.2180292297311
 20
93.24362907698702
 30
0.0
 10
241.2154333633602
 20
93.09351804501343
 30
0.0
 10
241.1949968525127
 20
92.93428754821355
 30
0.0
 10
241.1803744521473
 20
92.86828639735228
 30
0.0
 10
241.1785086423044
 20
92.85986468861466
 30
0.0
  0
LINE
  5
C3
330
1F
100
AcDbEntity
  8
0
  6
Continuous
 62
     7
370
    15
100
AcDbLine
 10
241.0863592798
 20
117.3903237762
 30
0.0
 11
241.0807949648
 21
117.2487025012
 31
0.0
  0
LINE
  5
C4
330
1F
100
AcDbEntity
  8
0
  6
Continuous
 62
     7
370
    15
100
AcDbLine
 10
241.2371687969
 20
117.1036820319
 30
0.0
 11
241.2164898564
 21
116.5773678504
 31
0.0
  0
LINE
  5
C5
330
1F
100
AcDbEntity
  8
0
  6
Continuous
 62
     7
370
    15
100
AcDbLine
 10
241.1331485483
 20
92.6878978185
 30
0.0
 11
241.1452490035
 21
92.3799206683
 31
0.0
  0
LINE
  5
C6
330
1F
100
AcDbEntity
  8
0
  6
Continuous
 62
     7
370
    15
100
AcDbLine
 10
241.2896441726
 20
92.829818471
 30
0.0
 11
241.2960585206
 21
92.6665624125
 31
0.0
  0
LINE
  5
C7
330
1F
100
AcDbEntity
  8
0
  6
Continuous
 62
     7
370
    15
100
AcDbLine
 10
241.2187363134
 20
94.6345439994
 30
0.0
 11
241.2896441726
 21
92.829818471
 31
0.0
  0
LINE
  5
C8
330
1F
100
AcDbEntity
  8
0
  6
HIDDEN
 62
     7
370
     0
100
AcDbLine
 10
176.7187363134
 20
98.8839653304
 30
0.0
 11
176.7187363134
 21
110.8839653304
 31
0.0
  0
LINE
  5
C9
330
1F
100
AcDbEntity
  8
0
  6
HIDDEN
 62
     7
370
     0
100
AcDbLine
 10
192.2187363134
 20
99.3839653304
 30
0.0
 11
192.2187363134
 21
110.3839653304
 31
0.0
  0
LINE
  5
CA
330
1F
100
AcDbEntity
  8
0
  6
HIDDEN
 62
     7
370
     0
100
AcDbLine
 10
176.2187363134
 20
99.3839653304
 30
0.0
 11
176.2187363134
 21
110.3839653304
 31
0.0
  0
LINE
  5
CB
330
1F
100
AcDbEntity
  8
0
  6
HIDDEN
 62
     7
370
     0
100
AcDbLine
 10
196.2187363134
 20
102.7125833464
 30
0.0
 11
194.2187363134
 21
102.7125833464
 31
0.0
  0
LINE
  5
CC
330
1F
100
AcDbEntity
  8
0
  6
HIDDEN
 62
     7
370
     0
100
AcDbLine
 10
196.2187363134
 20
99.3839653304
 30
0.0
 11
196.2187363134
 21
102.7125833464
 31
0.0
  0
LINE
  5
CD
330
1F
100
AcDbEntity
  8
0
  6
HIDDEN
 62
     7
370
     0
100
AcDbLine
 10
194.2187363134
 20
104.0805140504
 30
0.0
 11
196.2187363134
 21
104.0805140504
 31
0.0
  0
LINE
  5
CE
330
1F
100
AcDbEntity
  8
0
  6
HIDDEN
 62
     7
370
     0
100
AcDbLine
 10
196.2187363134
 20
107.0553473145
 30
0.0
 11
194.2187363134
 21
107.0553473145
 31
0.0
  0
LINE
  5
CF
330
1F
100
AcDbEntity
  8
0
  6
HIDDEN
 62
     7
370
     0
100
AcDbLine
 10
196.2187363134
 20
105.6874166105
 30
0.0
 11
196.2187363134
 21
110.3839653304
 31
0.0
  0
LINE
  5
D0
330
1F
100
AcDbEntity
  8
0
  6
HIDDEN
 62
     7
370
     0
100
AcDbLine
 10
194.2187363134
 20
105.6874166105
 30
0.0
 11
196.2187363134
 21
105.6874166105
 31
0.0
  0
LINE
  5
D1
330
1F
100
AcDbEntity
  8
0
  6
HIDDEN
 62
     7
370
     0
100
AcDbLine
 10
194.2187363134
 20
102.7125833464
 30
0.0
 11
194.2187363134
 21
105.6874166105
 31
0.0
  0
LINE
  5
D2
330
1F
100
AcDbEntity
  8
0
  6
HIDDEN
 62
     7
370
     0
100
AcDbLine
 10
194.2187363134
 20
106.0355616412
 30
0.0
 11
194.2187363134
 21
105.6874166105
 31
0.0
  0
LINE
  5
D3
330
1F
100
AcDbEntity
  8
0
  6
HIDDEN
 62
     7
370
     0
100
AcDbLine
 10
194.2187363134
 20
103.0607283771
 30
0.0
 11
196.2187363134
 21
103.0607283771
 31
0.0
  0
LINE
  5
D4
330
1F
100
AcDbEntity
  8
0
  6
HIDDEN
 62
     7
370
     0
100
AcDbLine
 10
196.2187363134
 20
103.0607283771
 30
0.0
 11
196.2187363134
 21
102.7125833464
 31
0.0
  0
LINE
  5
D5
330
1F
100
AcDbEntity
  8
0
  6
HIDDEN
 62
     7
370
     0
100
AcDbLine
 10
196.2187363134
 20
106.0355616412
 30
0.0
 11
194.2187363134
 21
106.0355616412
 31
0.0
  0
LINE
  5
D6
330
1F
100
AcDbEntity
  8
0
  6
HIDDEN
 62
     7
370
     0
100
AcDbLine
 10
189.2187363134
 20
106.0355616412
 30
0.0
 11
189.2187363134
 21
104.4362049021
 31
0.0
  0
LINE
  5
D7
330
1F
100
AcDbEntity
  8
0
  6
HIDDEN
 62
     7
370
     0
100
AcDbLine
 10
183.2187363134
 20
104.4362049021
 30
0.0
 11
183.2187363134
 21
106.0355616412
 31
0.0
  0
LINE
  5
D8
330
1F
100
AcDbEntity
  8
0
  6
HIDDEN
 62
     7
370
     0
100
AcDbLine
 10
189.2187363134
 20
104.4362049021
 30
0.0
 11
189.2187363134
 21
103.0607283771
 31
0.0
  0
LINE
  5
D9
330
1F
100
AcDbEntity
  8
0
  6
HIDDEN
 62
     7
370
     0
100
AcDbLine
 10
189.2187363134
 20
104.4362049021
 30
0.0
 11
194.2187363134
 21
104.4362049021
 31
0.0
  0
LINE
  5
DA
330
1F
100
AcDbEntity
  8
0
  6
HIDDEN
 62
     7
370
     0
100
AcDbLine
 10
183.2187363134
 20
103.0607283771
 30
0.0
 11
183.2187363134
 21
104.4362049021
 31
0.0
  0
LINE
  5
DB
330
1F
100
AcDbEntity
  8
0
  6
HIDDEN
 62
     7
370
     0
100
AcDbLine
 10
183.2187363134
 20
104.4362049021
 30
0.0
 11
176.2187363134
 21
104.4362049021
 31
0.0
  0
LINE
  5
DC
330
1F
100
AcDbEntity
  8
0
  6
HIDDEN
 62
     7
370
     0
100
AcDbLine
 10
183.2187363134
 20
106.0355616412
 30
0.0
 11
183.2187363134
 21
107.6349183804
 31
0.0
  0
LINE
  5
DD
330
1F
100
AcDbEntity
  8
0
  6
HIDDEN
 62
     7
370
     0
100
AcDbLine
 10
189.2187363134
 20
107.6349183804
 30
0.0
 11
189.2187363134
 21
106.0355616412
 31
0.0
  0
LINE
  5
DE
330
1F
100
AcDbEntity
  8
0
  6
HIDDEN
 62
     7
370
     0
100
AcDbLine
 10
183.2187363134
 20
101.6852518522
 30
0.0
 11
183.2187363134
 21
103.0607283771
 31
0.0
  0
LINE
  5
DF
330
1F
100
AcDbEntity
  8
0
  6
HIDDEN
 62
     7
370
     0
100
AcDbLine
 10
189.2187363134
 20
103.0607283771
 30
0.0
 11
189.2187363134
 21
101.6852518522
 31
0.0
  0
LINE
  5
E0
330
1F
100
AcDbEntity
  8
0
  6
HIDDEN
 62
     7
370
     0
100
AcDbLine
 10
189.2187363134
 20
107.8587985945
 30
0.0
 11
189.2187363134
 21
107.6349183804
 31
0.0
  0
LINE
  5
E1
330
1F
100
AcDbEntity
  8
0
  6
HIDDEN
 62
     7
370
     0
100
AcDbLine
 10
189.2187363134
 20
107.6349183804
 30
0.0
 11
196.2187363134
 21
107.6349183804
 31
0.0
  0
LINE
  5
E2
330
1F
100
AcDbEntity
  8
0
  6
HIDDEN
 62
     7
370
     0
100
AcDbLine
 10
183.2187363134
 20
107.6349183804
 30
0.0
 11
183.2187363134
 21
107.8587985945
 31
0.0
  0
LINE
  5
E3
330
1F
100
AcDbEntity
  8
0
  6
HIDDEN
 62
     7
370
     0
100
AcDbLine
 10
183.2187363134
 20
107.6349183804
 30
0.0
 11
176.2187363134
 21
107.6349183804
 31
0.0
  0
LINE
  5
E4
330
1F
100
AcDbEntity
  8
0
  6
HIDDEN
 62
     7
370
     0
100
AcDbLine
 10
183.2187363134
 20
102.1330122805
 30
0.0
 11
176.2187363134
 21
102.1330122805
 31
0.0
  0
LINE
  5
E5
330
1F
100
AcDbEntity
  8
0
  6
HIDDEN
 62
     7
370
     0
100
AcDbLine
 10
183.2187363134
 20
101.6852518522
 30
0.0
 11
176.2187363134
 21
101.6852518522
 31
0.0
  0
LINE
  5
E6
330
1F
100
AcDbEntity
  8
0
  6
HIDDEN
 62
     7
370
     0
100
AcDbLine
 10
189.2187363134
 20
102.1330122805
 30
0.0
 11
196.2187363134
 21
102.1330122805
 31
0.0
  0
LINE
  5
E7
330
1F
100
AcDbEntity
  8
0
  6
HIDDEN
 62
     7
370
     0
100
AcDbLine
 10
189.2187363134
 20
101.6852518522
 30
0.0
 11
196.2187363134
 21
101.6852518522
 31
0.0
  0
LINE
  5
E8
330
1F
100
AcDbEntity
  8
0
  6
HIDDEN
 62
     7
370
     0
100
AcDbLine
 10
189.2187363134
 20
108.0826788087
 30
0.0
 11
189.2187363134
 21
107.8587985945
 31
0.0
  0
LINE
  5
E9
330
1F
100
AcDbEntity
  8
0
  6
HIDDEN
 62
     7
370
     0
100
AcDbLine
 10
183.2187363134
 20
107.8587985945
 30
0.0
 11
183.2187363134
 21
108.0826788087
 31
0.0
  0
LINE
  5
EA
330
1F
100
AcDbEntity
  8
0
  6
HIDDEN
 62
     7
370
     0
100
AcDbLine
 10
194.2187363134
 20
106.7072022837
 30
0.0
 11
196.2187363134
 21
106.7072022837
 31
0.0
  0
LINE
  5
EB
330
1F
100
AcDbEntity
  8
0
  6
HIDDEN
 62
     7
370
     0
100
AcDbLine
 10
194.2187363134
 20
106.0355616412
 30
0.0
 11
194.2187363134
 21
106.7072022837
 31
0.0
  0
LINE
  5
EC
330
1F
100
AcDbEntity
  8
0
  6
HIDDEN
 62
     7
370
     0
100
AcDbLine
 10
189.2187363134
 20
105.3317257588
 30
0.0
 11
194.2187363134
 21
105.3317257588
 31
0.0
  0
LINE
  5
ED
330
1F
100
AcDbEntity
  8
0
  6
HIDDEN
 62
     7
370
     0
100
AcDbLine
 10
189.2187363134
 20
108.0826788087
 30
0.0
 11
196.2187363134
 21
108.0826788087
 31
0.0
  0
LINE
  5
EE
330
1F
100
AcDbEntity
  8
0
  6
HIDDEN
 62
     7
370
     0
100
AcDbLine
 10
183.2187363134
 20
105.3317257588
 30
0.0
 11
176.2187363134
 21
105.3317257588
 31
0.0
  0
LINE
  5
EF
330
1F
100
AcDbEntity
  8
0
  6
HIDDEN
 62
     7
370
     0
100
AcDbLine
 10
183.2187363134
 20
108.0826788087
 30
0.0
 11
176.2187363134
 21
108.0826788087
 31
0.0
  0
LINE
  5
F0
330
1F
100
AcDbEntity
  8
0
  6
HIDDEN
 62
     7
370
     0
100
AcDbLine
 10
196.2187363134
 20
103.7323690197
 30
0.0
 11
194.2187363134
 21
103.7323690197
 31
0.0
  0
LINE
  5
F1
330
1F
100
AcDbEntity
  8
0
  6
HIDDEN
 62
     7
370
     0
100
AcDbLine
 10
196.2187363134
 20
103.7323690197
 30
0.0
 11
196.2187363134
 21
103.0607283771
 31
0.0
  0
LINE
  5
F2
330
1F
100
AcDbEntity
  8
0
  6
HIDDEN
 62
     7
370
     0
100
AcDbLine
 10
194.2187363134
 20
107.0553473145
 30
0.0
 11
194.2187363134
 21
106.7072022837
 31
0.0
  0
LINE
  5
F3
330
1F
100
AcDbEntity
  8
0
  6
HIDDEN
 62
     7
370
     0
100
AcDbLine
 10
196.2187363134
 20
104.0805140504
 30
0.0
 11
196.2187363134
 21
103.7323690197
 31
0.0
  0
LINE
  5
F4
330
1F
100
AcDbEntity
  8
0
  6
HIDDEN
 62
     7
370
     0
100
AcDbLine
 10
95.826803482
 20
129.3426549928
 30
0.0
 11
95.826803482
 21
124.7339653304
 31
0.0
  0
ARC
  5
F5
330
1F
100
AcDbEntity
  8
0
  6
HIDDEN
 62
     7
370
     0
100
AcDbCircle
 10
89.4997087852
 20
117.3804202775
 30
0.0
 40
3.677290312353017
100
AcDbArc
 50
265.6179031648
 51
12.4383822962
  0
ARC
  5
F6
330
1F
100
AcDbEntity
  8
0
  6
HIDDEN
 62
     7
370
     0
100
AcDbCircle
 10
88.9346467571
 20
117.372840769
 30
0.0
 40
3.669972981963912
100
AcDbArc
 50
166.0291606888
 51
274.4396600647
  0
LINE
  5
F7
330
1F
100
AcDbEntity
  8
0
  6
HIDDEN
 62
     7
370
     0
100
AcDbLine
 10
52.2500171225
 20
125.7455407945
 30
0.0
 11
50.6096247149
 21
125.753241689
 31
0.0
  0
LINE
  5
F8
330
1F
100
AcDbEntity
  8
0
  6
HIDDEN
 62
     7
370
     0
100
AcDbLine
 10
69.213886518
 20
81.3593657076
 30
0.0
 11
68.6797410889
 21
81.3047511081
 31
0.0
  0
LINE
  5
F9
330
1F
100
AcDbEntity
  8
0
  6
HIDDEN
 62
     7
370
     0
100
AcDbLine
 10
68.4399498919
 20
128.4875156984
 30
0.0
 11
69.2137937977
 21
128.4085483604
 31
0.0
  0
SPLINE
  5
FA
330
1F
100
AcDbEntity
  8
0
  6
HIDDEN
 62
     7
370
     0
100
AcDbSpline
210
0.0
220
0.0
230
1.0
 70
     8
 71
     3
 72
    15
 73
    11
 74
     0
 42
0.00000001
 43
0.00000001
 40
0.0
 40
0.0
 40
0.0
 40
0.0
 40
0.110072588692132
 40
0.2209193734147121
 40
0.3341941649114025
 40
0.448303519393223
 40
0.5583990715890395
 40
0.7822971689737802
 40
0.8963603647916926
 40
1.0
 40
1.0
 40
1.0
 40
1.0
 10
74.9737383150442
 20
124.7214938062607
 30
0.0
 10
75.04133230150835
 20
124.7305620603523
 30
0.0
 10
75.17699569703392
 20
124.74876235014
 30
0.0
 10
75.35744112160734
 20
124.7694834054621
 30
0.0
 10
75.51958989642316
 20
124.7862230908261
 30
0.0
 10
75.65764104198976
 20
124.7988052026404
 30
0.0
 10
75.8092817593518
 20
124.8111840025238
 30
0.0
 10
75.91072741305608
 20
124.8181412878545
 30
0.0
 10
75.96214112667228
 20
124.8214379290121
 30
0.0
 10
75.96609593523199
 20
124.8216832338914
 30
0.0
 10
75.96797866185761
 20
124.8218000137609
 30
0.0
  0
SPLINE
  5
FB
330
1F
100
AcDbEntity
  8
0
  6
HIDDEN
 62
     7
370
     0
100
AcDbSpline
210
0.0
220
0.0
230
1.0
 70
     8
 71
     3
 72
    17
 73
    13
 74
     0
 42
0.00000001
 43
0.00000001
 40
0.0
 40
0.0
 40
0.0
 40
0.0
 40
0.007026850021131
 40
0.1183631929415051
 40
0.232113419828284
 40
0.3466983210643472
 40
0.4574106626582204
 40
0.5688954169322241
 40
0.682824119935849
 40
0.7976023978524978
 40
0.8985035916333007
 40
1.0
 40
1.0
 40
1.0
 40
1.0
 10
75.96797626262716
 20
84.94613079869269
 30
0.0
 10
75.9682281654728
 20
84.94611489078682
 30
0.0
 10
75.97247132208355
 20
84.94584693138457
 30
0.0
 10
75.95655144210495
 20
84.94684379983485
 30
0.0
 10
75.91753560376898
 20
84.94936034911532
 30
0.0
 10
75.84908346514341
 20
84.95405795910327
 30
0.0
 10
75.7563314949342
 20
84.96100782573984
 30
0.0
 10
75.63903992371945
 20
84.97073731030572
 30
0.0
 10
75.49620328146436
 20
84.9839843172334
 30
0.0
 10
75.33465389105845
 20
85.00097140573943
 30
0.0
 10
75.16085055022327
 20
85.0212640461929
 30
0.0
 10
75.03623122104128
 20
85.03802948378056
 30
0.0
 10
74.9737383150442
 20
85.04643685462779
 30
0.0
  0
SPLINE
  5
FC
330
1F
100
AcDbEntity
  8
0
  6
HIDDEN
 62
     7
370
     0
100
AcDbSpline
210
0.0
220
0.0
230
1.0
 70
     8
 71
     3
 72
    30
 73
    26
 74
     0
 42
0.00000001
 43
0.00000001
 40
0.0
 40
0.0
 40
0.0
 40
0.0
 40
0.0156161600804321
 40
0.0849748372628066
 40
0.1203204532886729
 40
0.1543185190912384
 40
0.2234436946573996
 40
0.2586467089786589
 40
0.2931107206686994
 40
0.3631864361325587
 40
0.3988795186727313
 40
0.433675062830971
 40
0.4687145712104796
 40
0.5045294144990531
 40
0.5406151111978519
 40
0.5750767863722904
 40
0.645203364963026
 40
0.6809575734718843
 40
0.7149323277721671
 40
0.7840330582955255
 40
0.8192378401372471
 40
0.8533347063218395
 40
0.9226550151093981
 40
0.9579547149334475
 40
1.0
 40
1.0
 40
1.0
 40
1.0
 10
68.47185369462818
 20
124.8833810625521
 30
0.0
 10
68.4712559555431
 20
124.8834933154338
 30
0.0
 10
68.46800337736643
 20
124.8841041359111
 30
0.0
 10
68.51832427981478
 20
124.874645001454
 30
0.0
 10
68.61862930885606
 20
124.8563401653578
 30
0.0
 10
68.75324629692574
 20
124.8323568599841
 30
0.0
 10
68.9353049419558
 20
124.8012580658376
 30
0.0
 10
69.16222751562108
 20
124.7653389217953
 30
0.0
 10
69.41881392099845
 20
124.7270199006562
 30
0.0
 10
69.71685057947113
 20
124.686774765348
 30
0.0
 10
70.04939983347087
 20
124.6481137419456
 30
0.0
 10
70.31459753887515
 20
124.6207110832144
 30
0.0
 10
70.59365536413411
 20
124.5956662466022
 30
0.0
 10
70.88810638002826
 20
124.5734985493067
 30
0.0
 10
71.1909713133445
 20
124.5553364620367
 30
0.0
 10
71.60135730021327
 20
124.5370783570423
 30
0.0
 10
72.02219813916807
 20
124.5282311230379
 30
0.0
 10
72.44210205639702
 20
124.529696517479
 30
0.0
 10
72.85671657725074
 20
124.5377399106464
 30
0.0
 10
73.26293769672658
 20
124.5552466962456
 30
0.0
 10
73.65246819644854
 20
124.5808120092735
 30
0.0
 10
74.0292888976869
 20
124.6109962449876
 30
0.0
 10
74.38242605739086
 20
124.6468938198351
 30
0.0
 10
74.72417754521247
 20
124.6877120976937
 30
0.0
 10
74.88585130622204
 20
124.7095970112602
 30
0.0
 10
74.9737383150442
 20
124.7214938062607
 30
0.0
  0
SPLINE
  5
FD
330
1F
100
AcDbEntity
  8
0
  6
HIDDEN
 62
     7
370
     0
100
AcDbSpline
210
0.0
220
0.0
230
1.0
 70
     8
 71
     3
 72
    32
 73
    28
 74
     0
 42
0.00000001
 43
0.00000001
 40
0.0
 40
0.0
 40
0.0
 40
0.0
 40
0.0346246159901392
 40
0.0694870388940023
 40
0.1051007609549318
 40
0.1409753874086758
 40
0.1756005721189327
 40
0.2104692408125609
 40
0.246112285470817
 40
0.2820258067991321
 40
0.3162663828049037
 40
0.3859338563640311
 40
0.4214461814158481
 40
0.4553763558770598
 40
0.5243713305904967
 40
0.5595124638219118
 40
0.593798734303577
 40
0.6635059787021124
 40
0.6990055363805017
 40
0.7337623601246063
 40
0.7687606633024604
 40
0.8045245907686108
 40
0.8405553812432468
 40
0.875170121130555
 40
0.9456085132854553
 40
0.9815233266320907
 40
1.0
 40
1.0
 40
1.0
 40
1.0
 10
74.9737383150442
 20
85.04643685462779
 30
0.0
 10
74.90174001319777
 20
85.0562247975361
 30
0.0
 10
74.7572489146646
 20
85.07586790837254
 30
0.0
 10
74.51592898040614
 20
85.10531712699427
 30
0.0
 10
74.25663072942051
 20
85.1338675090847
 30
0.0
 10
73.98264331028787
 20
85.1602987280395
 30
0.0
 10
73.69801552926634
 20
85.18375120539083
 30
0.0
 10
73.4034305702982
 20
85.20374866184943
 30
0.0
 10
73.09649966132989
 20
85.21990434035317
 30
0.0
 10
72.78476819557741
 20
85.23134632804867
 30
0.0
 10
72.367502646892
 20
85.24003745574652
 30
0.0
 10
71.94685965353445
 20
85.23874939928633
 30
0.0
 10
71.53345610036897
 20
85.22752158791884
 30
0.0
 10
71.12861213730167
 20
85.21022331583798
 30
0.0
 10
70.73797405273952
 20
85.18450767206976
 30
0.0
 10
70.36919297469824
 20
85.15241436117284
 30
0.0
 10
70.01577519244984
 20
85.1168561526704
 30
0.0
 10
69.69033410212893
 20
85.07760769633481
 30
0.0
 10
69.40095689641157
 20
85.03797617896245
 30
0.0
 10
69.20304301943628
 20
85.00884043582022
 30
0.0
 10
69.02571605539877
 20
84.98110620350747
 30
0.0
 10
68.86910672688626
 20
84.95532565925308
 30
0.0
 10
68.73745920718356
 20
84.93271902251891
 30
0.0
 10
68.59559801161183
 20
84.90753297721226
 30
0.0
 10
68.5067794237962
 20
84.89108742808864
 30
0.0
 10
68.46995648524582
 20
84.88419459727245
 30
0.0
 10
68.47137263241899
 20
84.88445958318167
 30
0.0
 10
68.47185369462818
 20
84.88454959833636
 30
0.0
  0
LINE
  5
FE
330
1F
100
AcDbEntity
  8
0
  6
HIDDEN
 62
     7
370
     0
100
AcDbLine
 10
62.2227109097
 20
87.8839653304
 30
0.0
 11
62.2227109097
 21
121.8839653304
 31
0.0
  0
LWPOLYLINE
  5
FF
330
1F
100
AcDbEntity
  8
0
  6
HIDDEN
 62
     7
370
     0
100
AcDbPolyline
 90
       12
 70
   128
 43
0.0
 10
89.2187363134
 20
126.8295677451
 10
90.1411997964
 20
126.8834780039
 10
91.0139330342
 20
127.0423024644
 10
91.7898867522
 20
127.2974788588
 10
92.4272290845
 20
127.6352505617
 10
92.891600741
 20
128.037408213
 10
93.1579673255
 20
128.4822713898
 10
93.2119689465
 20
128.9458574029
 10
93.0506943627
 20
129.4031742105
 10
92.6828379286
 20
129.8295677451
 10
92.1282308797
 20
130.2020510208
 10
91.5917693897
 20
130.4395921253
  0
LWPOLYLINE
  5
100
330
1F
100
AcDbEntity
  8
0
  6
HIDDEN
 62
     7
370
     0
100
AcDbPolyline
 90
       12
 70
   128
 43
0.0
 10
86.8507604644
 20
130.4414525408
 10
86.3092417472
 20
130.2020510208
 10
85.7546346983
 20
129.8295677451
 10
85.3867782642
 20
129.4031742105
 10
85.2255036804
 20
128.9458574029
 10
85.2795053014
 20
128.4822713898
 10
85.5458718859
 20
128.037408213
 10
86.0102435424
 20
127.6352505617
 10
86.6475858747
 20
127.2974788588
 10
87.4235395926
 20
127.0423024644
 10
88.2962728305
 20
126.8834780039
 10
89.2187363134
 20
126.8295677451
  0
SPLINE
  5
101
330
1F
100
AcDbEntity
  8
0
  6
HIDDEN
 62
     7
370
     0
100
AcDbSpline
210
0.0
220
0.0
230
1.0
 70
     8
 71
     3
 72
    11
 73
     7
 74
     0
 42
0.00000001
 43
0.00000001
 40
0.0
 40
0.0
 40
0.0
 40
0.0
 40
0.000577986501074
 40
0.000577986501074
 40
0.000577986501074
 40
0.0011559733324211
 40
0.0011559733324211
 40
0.0011559733324211
 40
0.0011559733324211
 10
49.31873631344261
 20
106.8838059490709
 30
0.0
 10
49.48540356824863
 20
106.8818223095963
 30
0.0
 10
49.6520699979263
 20
106.8797847024621
 30
0.0
 10
49.81873633637812
 20
106.8776732389256
 30
0.0
 10
49.98540276520451
 20
106.875561774244
 30
0.0
 10
50.15206913884218
 20
106.8733762109589
 30
0.0
 10
50.31873631344259
 20
106.8710936334982
 30
0.0
  0
SPLINE
  5
102
330
1F
100
AcDbEntity
  8
0
  6
HIDDEN
 62
     7
370
     0
100
AcDbSpline
210
0.0
220
0.0
230
1.0
 70
     8
 71
     3
 72
    11
 73
     7
 74
     0
 42
0.00000001
 43
0.00000001
 40
0.0
 40
0.0
 40
0.0
 40
0.0
 40
0.0005782382535738
 40
0.0005782382535738
 40
0.0005782382535738
 40
0.0011564766069466
 40
0.0011564766069466
 40
0.0011564766069466
 40
0.0011564766069466
 10
50.31873631344258
 20
102.8872650282272
 30
0.0
 10
50.15208235947394
 20
102.8868274504653
 30
0.0
 10
49.98542168727195
 20
102.8863473857928
 30
0.0
 10
49.81875479860653
 20
102.8858278464233
 30
0.0
 10
49.6520878802105
 20
102.885308306961
 30
0.0
 10
49.48541475037732
 20
102.8847494779388
 30
0.0
 10
49.31873631344263
 20
102.8841639343555
 30
0.0
  0
LINE
  5
103
330
1F
100
AcDbEntity
  8
0
  6
HIDDEN
 62
     7
370
     0
100
AcDbLine
 10
88.878562282
 20
87.8839653304
 30
0.0
 11
88.878562282
 21
121.8839653304
 31
0.0
  0
LINE
  5
104
330
1F
100
AcDbEntity
  8
0
  6
HIDDEN
 62
     7
370
     0
100
AcDbLine
 10
91.1687363134
 20
89.1589653304
 30
0.0
 11
91.1687363134
 21
120.6089653304
 31
0.0
  0
SPLINE
  5
105
330
1F
100
AcDbEntity
  8
0
  6
HIDDEN
 62
     7
370
     0
100
AcDbSpline
210
0.0
220
0.0
230
1.0
 70
     8
 71
     3
 72
    16
 73
    12
 74
     0
 42
0.00000001
 43
0.00000001
 40
0.0
 40
0.0
 40
0.0
 40
0.0
 40
0.1249999999999985
 40
0.1249999999999985
 40
0.249999999999997
 40
0.249999999999997
 40
0.499999999999998
 40
0.499999999999998
 40
0.749999999999999
 40
0.749999999999999
 40
1.0
 40
1.0
 40
1.0
 40
1.0
 10
58.0187363134426
 20
89.08247489441258
 30
0.0
 10
58.11385806810843
 20
89.08247489441258
 30
0.0
 10
58.20718813683651
 20
89.07865906101979
 30
0.0
 10
58.3904498975745
 20
89.06388850828998
 30
0.0
 10
58.4813276131315
 20
89.0527304603144
 30
0.0
 10
58.73812931065125
 20
89.01025919017268
 30
0.0
 10
58.89319667552324
 20
88.96921299296987
 30
0.0
 10
59.14694313707787
 20
88.87406687638797
 30
0.0
 10
59.24781358874573
 20
88.81930414230642
 30
0.0
 10
59.38306000344058
 20
88.70804301840253
 30
0.0
 10
59.41873631344261
 20
88.65087328107386
 30
0.0
 10
59.41873631344261
 20
88.59645170804012
 30
0.0
  0
SPLINE
  5
106
330
1F
100
AcDbEntity
  8
0
  6
HIDDEN
 62
     7
370
     0
100
AcDbSpline
210
0.0
220
0.0
230
1.0
 70
     8
 71
     3
 72
     8
 73
     4
 74
     0
 42
0.00000001
 43
0.00000001
 40
0.0
 40
0.0
 40
0.0
 40
0.0
 40
1.0
 40
1.0
 40
1.0
 40
1.0
 10
50.6187363136732
 20
91.22727784049484
 30
0.0
 10
50.61873631367511
 20
90.34338069817791
 30
0.0
 10
50.60525568776293
 20
89.62879745311595
 30
0.0
 10
50.60390431957182
 20
89.0824748944126
 30
0.0
  0
LINE
  5
107
330
1F
100
AcDbEntity
  8
0
  6
HIDDEN
 62
     7
370
     0
100
AcDbLine
 10
50.3187363134
 20
95.2831385456
 30
0.0
 11
50.3187363134
 21
92.2521881001
 31
0.0
  0
LINE
  5
108
330
1F
100
AcDbEntity
  8
0
  6
HIDDEN
 62
     7
370
     0
100
AcDbLine
 10
50.6187363134
 20
108.488598952
 30
0.0
 11
50.6187363134
 21
96.6509789548
 31
0.0
  0
SPLINE
  5
109
330
1F
100
AcDbEntity
  8
0
  6
HIDDEN
 62
     7
370
     0
100
AcDbSpline
210
0.0
220
0.0
230
1.0
 70
     8
 71
     3
 72
     8
 73
     4
 74
     0
 42
0.00000001
 43
0.00000001
 40
0.0
 40
0.0
 40
0.0
 40
0.0
 40
1.0
 40
1.0
 40
1.0
 40
1.0
 10
50.31873631344258
 20
114.490904643776
 30
0.0
 10
50.49976777812634
 20
114.05879716035
 30
0.0
 10
50.61873631344024
 20
113.6046517567567
 30
0.0
 10
50.61873631343452
 20
113.1169517060562
 30
0.0
  0
LINE
  5
10A
330
1F
100
AcDbEntity
  8
0
  6
HIDDEN
 62
     7
370
     0
100
AcDbLine
 10
50.3187363134
 20
117.5241076441
 30
0.0
 11
50.3187363134
 21
114.4909046438
 31
0.0
  0
SPLINE
  5
10B
330
1F
100
AcDbEntity
  8
0
  6
HIDDEN
 62
     7
370
     0
100
AcDbSpline
210
0.0
220
0.0
230
1.0
 70
     8
 71
     3
 72
    10
 73
     6
 74
     0
 42
0.00000001
 43
0.00000001
 40
0.0
 40
0.0
 40
0.0
 40
0.0
 40
0.5
 40
0.5
 40
1.0
 40
1.0
 40
1.0
 40
1.0
 10
50.61873631345459
 20
118.5406528203641
 30
0.0
 10
50.6187363134528
 20
118.3760164747936
 30
0.0
 10
50.59157764303754
 20
118.2088612520304
 30
0.0
 10
50.48581264901404
 20
117.8702382464152
 30
0.0
 10
50.40939786151433
 20
117.6979664702795
 30
0.0
 10
50.31873631344261
 20
117.5241076440522
 30
0.0
  0
SPLINE
  5
10C
330
1F
100
AcDbEntity
  8
0
  6
HIDDEN
 62
     7
370
     0
100
AcDbSpline
210
0.0
220
0.0
230
1.0
 70
     8
 71
     3
 72
    18
 73
    14
 74
     0
 42
0.00000001
 43
0.00000001
 40
0.0
 40
0.0
 40
0.0
 40
0.0
 40
0.2499999999999999
 40
0.2499999999999999
 40
0.3749999999999992
 40
0.3749999999999992
 40
0.4999999999999984
 40
0.4999999999999984
 40
0.6249999999999978
 40
0.6249999999999978
 40
0.749999999999997
 40
0.749999999999997
 40
1.0
 40
1.0
 40
1.0
 40
1.0
 10
55.4187363134426
 20
121.1714789528484
 30
0.0
 10
55.4187363134426
 20
121.1170044322962
 30
0.0
 10
55.38382562205042
 20
121.0606233729437
 30
0.0
 10
55.28181632071738
 20
120.9765465320902
 30
0.0
 10
55.24017996603926
 20
120.9492128280993
 30
0.0
 10
55.14177417055051
 20
120.8962589125003
 30
0.0
 10
55.08423095884623
 20
120.8703715587831
 30
0.0
 10
54.95693278527327
 20
120.8225940139499
 30
0.0
 10
54.88734548051581
 20
120.800646095772
 30
0.0
 10
54.73591123536087
 20
120.7612135308593
 30
0.0
 10
54.65322733226691
 20
120.7436572816334
 30
0.0
 10
54.39711587022886
 20
120.7012185162129
 30
0.0
 10
54.20920086634087
 20
120.6854557664759
 30
0.0
 10
54.0187363134426
 20
120.6854557664759
 30
0.0
  0
LINE
  5
10D
330
1F
100
AcDbEntity
  8
0
  6
HIDDEN
 62
     7
370
     0
100
AcDbLine
 10
54.0187363134
 20
120.6854557665
 30
0.0
 11
50.6187363135
 21
120.6854557665
 31
0.0
  0
LINE
  5
10E
330
1F
100
AcDbEntity
  8
0
  6
HIDDEN
 62
     7
370
     0
100
AcDbLine
 10
50.5497673268
 20
89.0824748944
 30
0.0
 11
58.0187363134
 21
89.0824748944
 31
0.0
  0
SPLINE
  5
10F
330
1F
100
AcDbEntity
  8
0
  6
HIDDEN
 62
     7
370
     0
100
AcDbSpline
210
0.0
220
0.0
230
1.0
 70
     8
 71
     3
 72
    22
 73
    18
 74
     0
 42
0.00000001
 43
0.00000001
 40
0.0
 40
0.0
 40
0.0
 40
0.0
 40
0.1250000000000001
 40
0.1250000000000001
 40
0.2500000000000001
 40
0.2500000000000001
 40
0.5
 40
0.5
 40
0.5625
 40
0.5625
 40
0.6249999999999999
 40
0.6249999999999999
 40
0.75
 40
0.75
 40
0.875
 40
0.875
 40
1.0
 40
1.0
 40
1.0
 40
1.0
 10
50.54976732680047
 20
89.0824748944126
 30
0.0
 10
50.53668493407211
 20
89.33758060456026
 30
0.0
 10
50.52346537063231
 20
89.63073886366416
 30
0.0
 10
50.50101819283818
 20
90.29303932928897
 30
0.0
 10
50.49153972581372
 20
90.66331324990036
 30
0.0
 10
50.47234176487718
 20
91.88587005301414
 30
0.0
 10
50.47345553787407
 20
92.82300897914601
 30
0.0
 10
50.49236633082715
 20
94.142880208661
 30
0.0
 10
50.49699585868614
 20
94.4143821176373
 30
0.0
 10
50.50747707843209
 20
94.9727669524396
 30
0.0
 10
50.51327233971653
 20
95.25988980837923
 30
0.0
 10
50.53158156062146
 20
96.1324790627509
 30
0.0
 10
50.54561649490183
 20
96.73293473910677
 30
0.0
 10
50.57507366703864
 20
97.97040923160283
 30
0.0
 10
50.59062935802021
 20
98.60742538824628
 30
0.0
 10
50.61442390801709
 20
99.91891398593084
 30
0.0
 10
50.62244296016247
 20
100.5950365975914
 30
0.0
 10
50.61873631344259
 20
101.2793317088762
 30
0.0
  0
LINE
  5
110
330
1F
100
AcDbEntity
  8
0
  6
HIDDEN
 62
     7
370
     0
100
AcDbLine
 10
50.6187363135
 20
108.488598952
 30
0.0
 11
50.6187363135
 21
120.6854557665
 31
0.0
  0
SPLINE
  5
111
330
1F
100
AcDbEntity
  8
0
  6
HIDDEN
 62
     7
370
     0
100
AcDbSpline
210
0.0
220
0.0
230
1.0
 70
     8
 71
     3
 72
    10
 73
     6
 74
     0
 42
0.00000001
 43
0.00000001
 40
0.0
 40
0.0
 40
0.0
 40
0.0
 40
0.5
 40
0.5
 40
1.0
 40
1.0
 40
1.0
 40
1.0
 10
50.61873631344255
 20
101.2793317088611
 30
0.0
 10
50.61873631344238
 20
101.5532468569353
 30
0.0
 10
50.5929770835737
 20
101.8241884356651
 30
0.0
 10
50.48977115084035
 20
102.3598795172677
 30
0.0
 10
50.41243298696589
 20
102.6256263207896
 30
0.0
 10
50.31873631344258
 20
102.8872650282272
 30
0.0
  0
SPLINE
  5
112
330
1F
100
AcDbEntity
  8
0
  6
HIDDEN
 62
     7
370
     0
100
AcDbSpline
210
0.0
220
0.0
230
1.0
 70
     8
 71
     3
 72
    10
 73
     6
 74
     0
 42
0.00000001
 43
0.00000001
 40
0.0
 40
0.0
 40
0.0
 40
0.0
 40
0.5
 40
0.5
 40
1.0
 40
1.0
 40
1.0
 40
1.0
 10
50.31873631344258
 20
106.8710936334982
 30
0.0
 10
50.41196689376468
 20
107.1349874400658
 30
0.0
 10
50.48699650527391
 20
107.4011677491313
 30
0.0
 10
50.59206360322026
 20
107.9394903208822
 30
0.0
 10
50.61873631345336
 20
108.2122384354624
 30
0.0
 10
50.61873631345456
 20
108.4885989520114
 30
0.0
  0
LINE
  5
113
330
1F
100
AcDbEntity
  8
0
  6
HIDDEN
 62
     7
370
     0
100
AcDbLine
 10
50.3187363134
 20
102.8872650282
 30
0.0
 11
50.3187363134
 21
106.8710936335
 31
0.0
  0
SPLINE
  5
114
330
1F
100
AcDbEntity
  8
0
  6
HIDDEN
 62
     7
370
     0
100
AcDbSpline
210
0.0
220
0.0
230
1.0
 70
     8
 71
     3
 72
    11
 73
     7
 74
     0
 42
0.00000001
 43
0.00000001
 40
0.0
 40
0.0
 40
0.0
 40
0.0
 40
0.0593037185345643
 40
0.4491306992699834
 40
0.8423299489305157
 40
1.0
 40
1.0
 40
1.0
 40
1.0
 10
241.1279628782131
 20
117.129773324656
 30
0.0
 10
241.1271846013054
 20
117.1326187251742
 30
0.0
 10
241.121290400057
 20
117.1541680774916
 30
0.0
 10
241.1468335222527
 20
117.0627780838534
 30
0.0
 10
241.183611062659
 20
116.9083339492792
 30
0.0
 10
241.1997993499963
 20
116.7708094748057
 30
0.0
 10
241.2044327686453
 20
116.7314471598523
 30
0.0
  0
SPLINE
  5
115
330
1F
100
AcDbEntity
  8
0
  6
HIDDEN
 62
     7
370
     0
100
AcDbSpline
210
0.0
220
0.0
230
1.0
 70
     8
 71
     3
 72
    10
 73
     6
 74
     0
 42
0.00000001
 43
0.00000001
 40
0.0
 40
0.0
 40
0.0
 40
0.0
 40
0.478242076204239
 40
0.7547792049552547
 40
1.0
 40
1.0
 40
1.0
 40
1.0
 10
241.1785086423044
 20
92.85986468861466
 30
0.0
 10
241.1654456924901
 20
92.79628638289651
 30
0.0
 10
241.1448292654423
 20
92.6959447663177
 30
0.0
 10
241.127807514288
 20
92.63771783726877
 30
0.0
 10
241.1267016737936
 20
92.63356758625052
 30
0.0
 10
241.1261819402681
 20
92.6316170114573
 30
0.0
  0
LINE
  5
116
330
1F
100
AcDbEntity
  8
0
  6
HIDDEN
 62
     7
370
     0
100
AcDbLine
 10
50.4687363134
 20
86.8939653304
 30
0.0
 11
50.4687363134
 21
84.014027565
 31
0.0
  0
LINE
  5
117
330
1F
100
AcDbEntity
  8
0
  6
HIDDEN
 62
     7
370
     0
100
AcDbLine
 10
59.4187363134
 20
86.8939653304
 30
0.0
 11
59.4187363134
 21
82.9202277992
 31
0.0
  0
LINE
  5
118
330
1F
100
AcDbEntity
  8
0
  6
HIDDEN
 62
     7
370
     0
100
AcDbLine
 10
50.4687363134
 20
122.8739653304
 30
0.0
 11
50.4687363134
 21
125.7539030958
 31
0.0
  0
LINE
  5
119
330
1F
100
AcDbEntity
  8
0
  6
HIDDEN
 62
     7
370
     0
100
AcDbLine
 10
55.4187363134
 20
122.8739653304
 30
0.0
 11
55.4187363134
 21
126.7280730028
 31
0.0
  0
LINE
  5
11A
330
1F
100
AcDbEntity
  8
0
  6
HIDDEN
 62
     7
370
     0
100
AcDbLine
 10
103.0187363134
 20
95.3839653304
 30
0.0
 11
103.0187363134
 21
114.3839653304
 31
0.0
  0
LINE
  5
11B
330
1F
100
AcDbEntity
  8
0
  6
HIDDEN
 62
     7
370
     0
100
AcDbLine
 10
100.0187363134
 20
95.3839653304
 30
0.0
 11
100.0187363134
 21
114.3839653304
 31
0.0
  0
LINE
  5
11C
330
1F
100
AcDbEntity
  8
0
  6
HIDDEN
 62
     7
370
     0
100
AcDbLine
 10
107.1687363134
 20
78.4839653304
 30
0.0
 11
101.0310615111
 21
78.4839653304
 31
0.0
  0
LINE
  5
11D
330
1F
100
AcDbEntity
  8
0
  6
HIDDEN
 62
     7
370
     0
100
AcDbLine
 10
91.6687363134
 20
96.3839653304
 30
0.0
 11
91.6687363134
 21
113.3839653304
 31
0.0
  0
LINE
  5
11E
330
1F
100
AcDbEntity
  8
0
  6
HIDDEN
 62
     7
370
     0
100
AcDbLine
 10
97.4064111158
 20
78.4839653304
 30
0.0
 11
94.1687363134
 21
78.4839653304
 31
0.0
  0
LINE
  5
11F
330
1F
100
AcDbEntity
  8
0
  6
HIDDEN
 62
     7
370
     0
100
AcDbLine
 10
86.1687363134
 20
73.3998423476
 30
0.0
 11
86.1687363134
 21
78.4839653304
 31
0.0
  0
LINE
  5
120
330
1F
100
AcDbEntity
  8
0
  6
HIDDEN
 62
     7
370
     0
100
AcDbLine
 10
94.1687363134
 20
78.4839653304
 30
0.0
 11
86.1687363134
 21
78.4839653304
 31
0.0
  0
LINE
  5
121
330
1F
100
AcDbEntity
  8
0
  6
HIDDEN
 62
     7
370
     0
100
AcDbLine
 10
237.7187363134
 20
96.8839653304
 30
0.0
 11
237.7187363134
 21
112.8839653304
 31
0.0
  0
SPLINE
  5
122
330
1F
100
AcDbEntity
  8
0
  6
HIDDEN
 62
     7
370
     0
100
AcDbSpline
210
0.0
220
0.0
230
1.0
 70
     8
 71
     3
 72
    17
 73
    13
 74
     0
 42
0.00000001
 43
0.00000001
 40
0.0
 40
0.0
 40
0.0
 40
0.0
 40
0.1046541973392137
 40
0.2123747458021374
 40
0.3170201632567936
 40
0.4246419815463941
 40
0.5303635483484253
 40
0.6391062491879504
 40
0.7455195256377016
 40
0.8550829026357615
 40
0.9603326369105957
 40
1.0
 40
1.0
 40
1.0
 40
1.0
 10
193.7187363134427
 20
113.0472979832277
 30
0.0
 10
193.8011005361825
 20
113.048025829759
 30
0.0
 10
193.9682422401207
 20
113.0495028486079
 30
0.0
 10
194.2106990726139
 20
113.0610550642511
 30
0.0
 10
194.4412506093566
 20
113.0782048079482
 30
0.0
 10
194.6501806712991
 20
113.0994898049881
 30
0.0
 10
194.8355120623011
 20
113.1227592997132
 30
0.0
 10
194.9886745036767
 20
113.1451212749065
 30
0.0
 10
195.1082417549901
 20
113.1645257359093
 30
0.0
 10
195.1843038931138
 20
113.1777476649021
 30
0.0
 10
195.2199263229029
 20
113.18417941728
 30
0.0
 10
195.2150184750059
 20
113.1832947583644
 30
0.0
 10
195.2136750766902
 20
113.1830526055264
 30
0.0
  0
LINE
  5
123
330
1F
100
AcDbEntity
  8
0
  6
HIDDEN
 62
     7
370
     0
100
AcDbLine
 10
193.8099497939
 20
113.0486717236
 30
0.0
 11
193.6939411464
 21
113.0478512251
 31
0.0
  0
SPLINE
  5
124
330
1F
100
AcDbEntity
  8
0
  6
HIDDEN
 62
     7
370
     0
100
AcDbSpline
210
0.0
220
0.0
230
1.0
 70
     8
 71
     3
 72
    16
 73
    12
 74
     0
 42
0.00000001
 43
0.00000001
 40
0.0
 40
0.0
 40
0.0
 40
0.0
 40
0.0949220059651365
 40
0.2023359984188393
 40
0.3065979822133512
 40
0.4138066660735907
 40
0.5194636518291723
 40
0.6281339182912664
 40
0.7345954131155256
 40
0.844203237157659
 40
1.0
 40
1.0
 40
1.0
 40
1.0
 10
192.220399603708
 20
113.1836662113999
 30
0.0
 10
192.2229631509562
 20
113.1831993685288
 30
0.0
 10
192.2284276150358
 20
113.182204245033
 30
0.0
 10
192.2873530577095
 20
113.1717188560549
 30
0.0
 10
192.3844613547823
 20
113.1553664071197
 30
0.0
 10
192.5185375233488
 20
113.134596546266
 30
0.0
 10
192.6876113686207
 20
113.111497671028
 30
0.0
 10
192.8854036178587
 20
113.0887885273186
 30
0.0
 10
193.1095931824212
 20
113.0690061962141
 30
0.0
 10
193.3867512207282
 20
113.0516181586599
 30
0.0
 10
193.5959394544336
 20
113.0488959585136
 30
0.0
 10
193.7187363134427
 20
113.0472979832277
 30
0.0
  0
SPLINE
  5
125
330
1F
100
AcDbEntity
  8
0
  6
HIDDEN
 62
     7
370
     0
100
AcDbSpline
210
0.0
220
0.0
230
1.0
 70
     8
 71
     3
 72
    38
 73
    34
 74
     0
 42
0.00000001
 43
0.00000001
 40
0.0
 40
0.0
 40
0.0
 40
0.0
 40
0.0260846842642825
 40
0.0523528118399896
 40
0.0791978112896097
 40
0.1062411333090336
 40
0.1323253507907418
 40
0.18536615838048
 40
0.2123818799842163
 40
0.2387254603690909
 40
0.2922942340381124
 40
0.3195826940015762
 40
0.3461034267219835
 40
0.3728106816256384
 40
0.4001107671821745
 40
0.427617861170934
 40
0.4538485545196419
 40
0.5072221216573236
 40
0.534431848903138
 40
0.5603565896038935
 40
0.6130803564955296
 40
0.6399389707507886
 40
0.6660185957121008
 40
0.7190411070475116
 40
0.7460430716371326
 40
0.7724947906406975
 40
0.8262928625727205
 40
0.8537050699251655
 40
0.88017148889161
 40
0.9340251451737082
 40
0.9614820674997049
 40
0.987587491505055
 40
0.9999999999999999
 40
0.9999999999999999
 40
0.9999999999999999
 40
0.9999999999999999
 10
195.2187363134427
 20
96.58396533044424
 30
0.0
 10
195.2177624504625
 20
96.58414161604293
 30
0.0
 10
195.2158078757072
 20
96.58449542698746
 30
0.0
 10
195.199875448533
 20
96.58736135688146
 30
0.0
 10
195.1741104983029
 20
96.59193266505669
 30
0.0
 10
195.1378846747644
 20
96.59822844850699
 30
0.0
 10
195.0767769038653
 20
96.608551002632
 30
0.0
 10
194.9965927718108
 20
96.62144918549338
 30
0.0
 10
194.8989108914078
 20
96.6358841464179
 30
0.0
 10
194.7897902635152
 20
96.65100052762682
 30
0.0
 10
194.6647251663577
 20
96.66648700102905
 30
0.0
 10
194.5266508504971
 20
96.68098056508263
 30
0.0
 10
194.4173040886558
 20
96.69104649305497
 30
0.0
 10
194.3029613321035
 20
96.70003225848797
 30
0.0
 10
194.1829024882575
 20
96.70775471398424
 30
0.0
 10
194.0600526178377
 20
96.71381088125572
 30
0.0
 10
193.8944388388151
 20
96.7194757817638
 30
0.0
 10
193.7257652089599
 20
96.72139909539408
 30
0.0
 10
193.5584183343792
 20
96.71937502027505
 30
0.0
 10
193.3936474594237
 20
96.71487277029584
 30
0.0
 10
193.233113821492
 20
96.70684852525565
 30
0.0
 10
193.080072191082
 20
96.69594429580273
 30
0.0
 10
192.9325790665426
 20
96.68342062816735
 30
0.0
 10
192.7950761150715
 20
96.66897477556024
 30
0.0
 10
192.6707377683733
 20
96.65379810206399
 30
0.0
 10
192.5553091958785
 20
96.6384688061619
 30
0.0
 10
192.45528267551
 20
96.62363058687333
 30
0.0
 10
192.3737591193608
 20
96.61063835168488
 30
0.0
 10
192.3050540255648
 20
96.5992337990785
 30
0.0
 10
192.2553628303253
 20
96.59053046500891
 30
0.0
 10
192.2291307138013
 20
96.58584247556425
 30
0.0
 10
192.2173976004112
 20
96.5837246531474
 30
0.0
 10
192.2212497033073
 20
96.58441825619663
 30
0.0
 10
192.222491053941
 20
96.58464177166545
 30
0.0
  0
LINE
  5
126
330
1F
100
AcDbEntity
  8
0
  6
HIDDEN
 62
     7
370
     0
100
AcDbLine
 10
191.7187363134
 20
96.9839653304
 30
0.0
 11
191.7187363134
 21
112.7839653304
 31
0.0
  0
LINE
  5
127
330
1F
100
AcDbEntity
  8
0
  6
HIDDEN
 62
     7
370
     0
100
AcDbLine
 10
202.2187363134
 20
96.8839653304
 30
0.0
 11
202.2187363134
 21
112.8839653304
 31
0.0
  0
LINE
  5
128
330
1F
100
AcDbEntity
  8
0
  6
HIDDEN
 62
     7
370
     0
100
AcDbLine
 10
107.1687363134
 20
131.2839653304
 30
0.0
 11
100.7344387818
 21
131.2839653304
 31
0.0
  0
LINE
  5
129
330
1F
100
AcDbEntity
  8
0
  6
HIDDEN
 62
     7
370
     0
100
AcDbLine
 10
97.7030338451
 20
131.2839653304
 30
0.0
 11
94.1687363134
 21
131.2839653304
 31
0.0
  0
LINE
  5
12A
330
1F
100
AcDbEntity
  8
0
  6
HIDDEN
 62
     7
370
     0
100
AcDbLine
 10
94.1687363134
 20
131.2839653304
 30
0.0
 11
86.1687363134
 21
131.2839653304
 31
0.0
  0
SPLINE
  5
12B
330
1F
100
AcDbEntity
  8
0
  6
HIDDEN
 62
     7
370
     0
100
AcDbSpline
210
0.0
220
0.0
230
1.0
 70
     8
 71
     3
 72
    11
 73
     7
 74
     0
 42
0.00000001
 43
0.00000001
 40
0.0
 40
0.0
 40
0.0
 40
0.0
 40
0.0008203708524183
 40
0.0008203708524183
 40
0.0008203708524183
 40
0.0016409967870155
 40
0.0016409967870155
 40
0.0016409967870155
 40
0.0016409967870155
 10
50.46873631344261
 20
89.03193257980155
 30
0.0
 10
50.27757801314394
 20
88.9907535511824
 30
0.0
 10
50.08615094307176
 20
88.9519995789524
 30
0.0
 10
49.89450531955113
 20
88.91563181967385
 30
0.0
 10
49.70279991447067
 20
88.87925271590781
 30
0.0
 10
49.51086096241173
 20
88.84525846514028
 30
0.0
 10
49.31873631534092
 20
88.81361033974905
 30
0.0
  0
ELLIPSE
  5
12C
330
1F
100
AcDbEntity
  8
0
  6
HIDDEN
 62
     7
370
     0
100
AcDbEllipse
 10
45.0763044493
 20
104.8839653304
 30
0.0
 11
20.19992452871123
 21
-1.421085471520200E-14
 31
0.0
210
0.0
220
0.0
230
1.0
 40
0.8164965809
 41
1.300566354878502
 42
1.359198697382093
  0
LINE
  5
12D
330
1F
100
AcDbEntity
  8
0
  6
HIDDEN
 62
     7
370
     0
100
AcDbLine
 10
50.4687363134
 20
86.8939653304
 30
0.0
 11
50.4687363134
 21
89.0319325798
 31
0.0
  0
LINE
  5
12E
330
1F
100
AcDbEntity
  8
0
  6
HIDDEN
 62
     7
370
     0
100
AcDbLine
 10
50.5497673268
 20
89.0824748944
 30
0.0
 11
50.4687363134
 21
89.0319325798
 31
0.0
  0
LINE
  5
12F
330
1F
100
AcDbEntity
  8
0
  6
HIDDEN
 62
     7
370
     0
100
AcDbLine
 10
59.4187363134
 20
86.8939653304
 30
0.0
 11
59.4187363134
 21
88.596451708
 31
0.0
  0
LINE
  5
130
330
1F
100
AcDbEntity
  8
0
  6
HIDDEN
 62
     7
370
     0
100
AcDbLine
 10
55.4187363134
 20
122.8739653304
 30
0.0
 11
55.4187363134
 21
121.1714789528
 31
0.0
  0
LINE
  5
131
330
1F
100
AcDbEntity
  8
0
  6
HIDDEN
 62
     7
370
     0
100
AcDbLine
 10
50.4687363134
 20
122.8739653304
 30
0.0
 11
50.4687363134
 21
120.7785897794
 31
0.0
  0
SPLINE
  5
132
330
1F
100
AcDbEntity
  8
0
  6
HIDDEN
 62
     7
370
     0
100
AcDbSpline
210
0.0
220
0.0
230
1.0
 70
     8
 71
     3
 72
     8
 73
     4
 74
     0
 42
0.00000001
 43
0.00000001
 40
0.0
 40
0.0
 40
0.0
 40
0.0
 40
1.0
 40
1.0
 40
1.0
 40
1.0
 10
50.46873631344259
 20
120.7785897793916
 30
0.0
 10
50.51874181125898
 20
120.7475540058759
 30
0.0
 10
50.5687418807963
 20
120.7165093615521
 30
0.0
 10
50.61873631345456
 20
120.6854557664759
 30
0.0
  0
LINE
  5
133
330
1F
100
AcDbEntity
  8
0
  6
HIDDEN
 62
     7
370
     0
100
AcDbLine
 10
191.2187363134
 20
99.3839653304
 30
0.0
 11
191.2187363134
 21
110.3839653304
 31
0.0
  0
LINE
  5
134
330
1F
100
AcDbEntity
  8
0
  6
HIDDEN
 62
     7
370
     0
100
AcDbLine
 10
161.2187363134
 20
99.3839653304
 30
0.0
 11
161.2187363134
 21
110.3839653304
 31
0.0
  0
LINE
  5
135
330
1F
100
AcDbEntity
  8
0
  6
HIDDEN
 62
     7
370
     0
100
AcDbLine
 10
160.4376175087
 20
100.6839653304
 30
0.0
 11
160.4376175087
 21
109.0839653304
 31
0.0
  0
SPLINE
  5
136
330
1F
100
AcDbEntity
  8
0
  6
HIDDEN
 62
     7
370
     0
100
AcDbSpline
210
0.0
220
0.0
230
1.0
 70
     8
 71
     3
 72
    20
 73
    16
 74
     0
 42
0.00000001
 43
0.00000001
 40
0.0
 40
0.0
 40
0.0
 40
0.0
 40
0.1119595197697403
 40
0.1774767634657198
 40
0.2490961890178592
 40
0.329842231515121
 40
0.3986125823958296
 40
0.4998893016460016
 40
0.6138510292917251
 40
0.6790150176695212
 40
0.7495394203319203
 40
0.8296829944361284
 40
0.898124628546775
 40
0.9995320175861881
 40
0.9999999999999999
 40
0.9999999999999999
 40
0.9999999999999999
 40
0.9999999999999999
 10
75.96757676330554
 20
81.28397156867634
 30
0.0
 10
75.92425302500591
 20
81.29740088671738
 30
0.0
 10
75.85557680282787
 20
81.31868886567958
 30
0.0
 10
75.41039767677445
 20
81.42199967732465
 30
0.0
 10
74.88383939309267
 20
81.5353029073832
 30
0.0
 10
74.19841437193578
 20
81.6582357751743
 30
0.0
 10
73.30509697462729
 20
81.78027023435655
 30
0.0
 10
72.19173758754782
 20
81.89800654214301
 30
0.0
 10
71.08096350696987
 20
81.90998204450871
 30
0.0
 10
70.19621520505325
 20
81.88292375437956
 30
0.0
 10
69.52901861033952
 20
81.83499168997658
 30
0.0
 10
68.98774610805948
 20
81.77869817761572
 30
0.0
 10
68.6001661490377
 20
81.733615266982
 30
0.0
 10
68.40622962901938
 20
81.69474209227643
 30
0.0
 10
68.4693320892309
 20
81.70544814951546
 30
0.0
 10
68.46962196146623
 20
81.70549732966997
 30
0.0
  0
LINE
  5
137
330
1F
100
AcDbEntity
  8
0
  6
HIDDEN
 62
     7
370
     0
100
AcDbLine
 10
69.3787482279
 20
81.8163034741
 30
0.0
 11
69.5625935389
 21
81.8344928164
 31
0.0
  0
LINE
  5
138
330
1F
100
AcDbEntity
  8
0
  6
HIDDEN
 62
     7
370
     0
100
AcDbLine
 10
69.5625908405
 20
127.9333684132
 30
0.0
 11
69.3885175602
 21
127.9505779392
 31
0.0
  0
SPLINE
  5
139
330
1F
100
AcDbEntity
  8
0
  6
HIDDEN
 62
     7
370
     0
100
AcDbSpline
210
0.0
220
0.0
230
1.0
 70
     8
 71
     3
 72
    20
 73
    16
 74
     0
 42
0.00000001
 43
0.00000001
 40
0.0
 40
0.0
 40
0.0
 40
0.0
 40
0.0004889684280482
 40
0.1018319933902445
 40
0.1702475582132129
 40
0.2503692056770098
 40
0.3209568221784361
 40
0.3861816196705448
 40
0.5002554836816774
 40
0.6012243489286591
 40
0.6697680558629565
 40
0.750240190758037
 40
0.8220490693851168
 40
0.8877204546109287
 40
1.0
 40
1.0
 40
1.0
 40
1.0
 10
68.46965534622782
 20
128.0623667846368
 30
0.0
 10
68.46935170523089
 20
128.0624183717869
 30
0.0
 10
68.40611578605892
 20
128.0731618514
 30
0.0
 10
68.59931981985822
 20
128.0343058607432
 30
0.0
 10
68.98626687475662
 20
127.989282370338
 30
0.0
 10
69.52727379808546
 20
127.9330194082449
 30
0.0
 10
70.19477405955003
 20
127.8850882156508
 30
0.0
 10
71.08060191090142
 20
127.8580147599221
 30
0.0
 10
72.19140848298821
 20
127.8698407634994
 30
0.0
 10
73.30347884901296
 20
127.9872898386533
 30
0.0
 10
74.19457915521267
 20
128.1089942268934
 30
0.0
 10
74.88006360603757
 20
128.2318152724706
 30
0.0
 10
75.40805150558441
 20
128.3452535241559
 30
0.0
 10
75.85543545706845
 20
128.4489940797967
 30
0.0
 10
75.92424592341943
 20
128.4704168730702
 30
0.0
 10
75.96766243072965
 20
128.4839337537148
 30
0.0
  0
LINE
  5
13A
330
1F
100
AcDbEntity
  8
0
  6
HIDDEN
 62
     7
370
     0
100
AcDbLine
 10
153.1687363134
 20
121.3066150613
 30
0.0
 11
155.6687363134
 21
121.3066150613
 31
0.0
  0
LINE
  5
13B
330
1F
100
AcDbEntity
  8
0
  6
HIDDEN
 62
     7
370
     0
100
AcDbLine
 10
150.6687363134
 20
121.3066150613
 30
0.0
 11
153.1687363134
 21
121.3066150613
 31
0.0
  0
LINE
  5
13C
330
1F
100
AcDbEntity
  8
0
  6
HIDDEN
 62
     7
370
     0
100
AcDbLine
 10
155.6687363134
 20
88.4613155996
 30
0.0
 11
150.6687363134
 21
88.4613155996
 31
0.0
  0
LINE
  5
13D
330
1F
100
AcDbEntity
  8
0
  6
HIDDEN
 62
     7
370
     0
100
AcDbLine
 10
153.1687363134
 20
111.8839653304
 30
0.0
 11
155.6687363134
 21
111.8839653304
 31
0.0
  0
LINE
  5
13E
330
1F
100
AcDbEntity
  8
0
  6
HIDDEN
 62
     7
370
     0
100
AcDbLine
 10
150.6687363134
 20
111.8839653304
 30
0.0
 11
153.1687363134
 21
111.8839653304
 31
0.0
  0
LINE
  5
13F
330
1F
100
AcDbEntity
  8
0
  6
HIDDEN
 62
     7
370
     0
100
AcDbLine
 10
155.6687363134
 20
97.8839653304
 30
0.0
 11
150.6687363134
 21
97.8839653304
 31
0.0
  0
LINE
  5
140
330
1F
100
AcDbEntity
  8
0
  6
HIDDEN
 62
     7
370
     0
100
AcDbLine
 10
193.7187363134
 20
90.3839653304
 30
0.0
 11
195.2187363134
 21
90.3839653304
 31
0.0
  0
LINE
  5
141
330
1F
100
AcDbEntity
  8
0
  6
HIDDEN
 62
     7
370
     0
100
AcDbLine
 10
192.2187363134
 20
90.3839653304
 30
0.0
 11
193.7187363134
 21
90.3839653304
 31
0.0
  0
LWPOLYLINE
  5
142
330
1F
100
AcDbEntity
  8
0
  6
HIDDEN
 62
     7
370
     0
100
AcDbPolyline
 90
       27
 70
   128
 43
0.0
 10
195.217294037
 20
90.8273327239
 10
195.2122779921
 20
90.8331655694
 10
195.1863192489
 20
90.8635038367
 10
195.1453663854
 20
90.9119055492
 10
195.0896147888
 20
90.9790054014
 10
194.9972279713
 20
91.0940061973
 10
194.8891773299
 20
91.2369400897
 10
194.7776628699
 20
91.4001281215
 10
194.6694242024
 20
91.5895903728
 10
194.6146933117
 20
91.7131569559
 10
194.5724008448
 20
91.8479850754
 10
194.5523235263
 20
91.9645357855
 10
194.5486989616
 20
92.0869014378
 10
194.5620660018
 20
92.2049027161
 10
194.5906719257
 20
92.3219141533
 10
194.6572387517
 20
92.4945422971
 10
194.7413863956
 20
92.6569198031
 10
194.8033583518
 20
92.7600570462
 10
194.86671957
 20
92.8573578552
 10
194.9306246694
 20
92.949822542
 10
194.9925184331
 20
93.0354431346
 10
195.074529336
 20
93.1444772207
 10
195.1441360846
 20
93.2340081347
 10
195.1856887748
 20
93.2864000868
 10
195.2116466418
 20
93.3187832185
 10
195.2187363134
 20
93.3275848563
 10
195.2187363134
 20
93.3275848563
  0
SPLINE
  5
143
330
1F
100
AcDbEntity
  8
0
  6
HIDDEN
 62
     7
370
     0
100
AcDbSpline
210
0.0
220
0.0
230
1.0
 70
     8
 71
     3
 72
    12
 73
     8
 74
     0
 42
0.00000001
 43
0.00000001
 40
0.0
 40
0.0
 40
0.0
 40
0.0
 40
0.2070750367619392
 40
0.4156474522918979
 40
0.6283144292774351
 40
0.8422313292459626
 40
1.0
 40
1.0
 40
1.0
 40
1.0
 10
192.3016313588264
 20
90.81190912792081
 30
0.0
 10
192.2910217430211
 20
90.81692923251339
 30
0.0
 10
192.2697257922962
 20
90.82700574253974
 30
0.0
 10
192.2460462562348
 20
90.83557457488153
 30
0.0
 10
192.2292034136992
 20
90.84087895474025
 30
0.0
 10
192.2198215210598
 20
90.84338780527831
 30
0.0
 10
192.2196227580459
 20
90.84343731692918
 30
0.0
 10
192.2195383894856
 20
90.84345833304592
 30
0.0
  0
SPLINE
  5
144
330
1F
100
AcDbEntity
  8
0
  6
HIDDEN
 62
     7
370
     0
100
AcDbSpline
210
0.0
220
0.0
230
1.0
 70
     8
 71
     3
 72
    38
 73
    34
 74
     0
 42
0.00000001
 43
0.00000001
 40
0.0
 40
0.0
 40
0.0
 40
0.0
 40
0.031138907454433
 40
0.0947086600438825
 40
0.1271498358044695
 40
0.1582724283702609
 40
0.2212868637408974
 40
0.2532167212131084
 40
0.2779180640513839
 40
0.3278321303057927
 40
0.3531423951799332
 40
0.370404141950479
 40
0.4054002079134573
 40
0.4232104812887534
 40
0.4404803767680516
 40
0.4757258673694828
 40
0.4937349067819515
 40
0.5156087072478418
 40
0.5601287286297939
 40
0.5827459263652509
 40
0.6164475107722768
 40
0.6503982452169798
 40
0.6850558553031963
 40
0.719946932792064
 40
0.754159372048434
 40
0.7886348478188787
 40
0.824052361329628
 40
0.8598568725636998
 40
0.8833925598964588
 40
0.931198108161788
 40
0.9555475994926398
 40
0.9790886675670248
 40
1.0
 40
1.0
 40
1.0
 40
1.0
 10
192.3016313588264
 20
90.81190912792079
 30
0.0
 10
192.3137884189545
 20
90.82744445181335
 30
0.0
 10
192.3507639896771
 20
90.87469497630157
 30
0.0
 10
192.4130982104943
 20
90.95636408211702
 30
0.0
 10
192.4808863058489
 20
91.04882285495907
 30
0.0
 10
192.551455683671
 20
91.14835487047304
 30
0.0
 10
192.6243514808862
 20
91.25752021226694
 30
0.0
 10
192.6919223924422
 20
91.37001904342033
 30
0.0
 10
192.7498431314339
 20
91.47509644372526
 30
0.0
 10
192.7999550669323
 20
91.58007808620273
 30
0.0
 10
192.838032752073
 20
91.68336424281402
 30
0.0
 10
192.8646385396394
 20
91.77280674185315
 30
0.0
 10
192.8816396244831
 20
91.85674173349072
 30
0.0
 10
192.8893063264207
 20
91.94232842917019
 30
0.0
 10
192.8904084385961
 20
92.02869525113636
 30
0.0
 10
192.8812682527587
 20
92.11510318535115
 30
0.0
 10
192.8617823729227
 20
92.20427809126768
 30
0.0
 10
192.8327896192614
 20
92.30171318626702
 30
0.0
 10
192.7920996486721
 20
92.39894914528851
 30
0.0
 10
192.7395472436029
 20
92.50225970181496
 30
0.0
 10
192.6889778127928
 20
92.59003130164561
 30
0.0
 10
192.6292772681833
 20
92.68329884346738
 30
0.0
 10
192.568258696396
 20
92.77149247640136
 30
0.0
 10
192.5080302122705
 20
92.85359224240537
 30
0.0
 10
192.4502269343644
 20
92.92899544250035
 30
0.0
 10
192.3957244493863
 20
92.99773781938057
 30
0.0
 10
192.3454302472188
 20
93.05951594226977
 30
0.0
 10
192.3061801308609
 20
93.10674923670327
 30
0.0
 10
192.26857953039
 20
93.15144597519162
 30
0.0
 10
192.2427599578663
 20
93.1817288406758
 30
0.0
 10
192.2271723188258
 20
93.1999084083146
 30
0.0
 10
192.2191599287765
 20
93.2092231752228
 30
0.0
 10
192.2206119804206
 20
93.2075350867592
 30
0.0
 10
192.2212950556716
 20
93.20674097488592
 30
0.0
  0
SPLINE
  5
145
330
1F
100
AcDbEntity
  8
0
  6
HIDDEN
 62
     7
370
     0
100
AcDbSpline
210
0.0
220
0.0
230
1.0
 70
     8
 71
     3
 72
    20
 73
    16
 74
     0
 42
0.00000001
 43
0.00000001
 40
0.0
 40
0.0
 40
0.0
 40
0.0
 40
0.083770007490013
 40
0.1671642956623879
 40
0.2832392399699898
 40
0.3419682516181125
 40
0.4021695966617057
 40
0.4682656389883195
 40
0.5350318016472162
 40
0.5920958805130473
 40
0.692488959053974
 40
0.7990475557046219
 40
0.8954755043762683
 40
0.9925551802366324
 40
1.0
 40
1.0
 40
1.0
 40
1.0
 10
195.2187363134427
 20
116.4403458045433
 30
0.0
 10
195.2104905355059
 20
116.4505057768634
 30
0.0
 10
195.1940359630128
 20
116.4707801527136
 30
0.0
 10
195.0628888316713
 20
116.6365352977174
 30
0.0
 10
194.8993630247775
 20
116.8560299323173
 30
0.0
 10
194.7450364571101
 20
117.0983508655821
 30
0.0
 10
194.6329927380354
 20
117.3118991187645
 30
0.0
 10
194.547119033619
 20
117.5641573315084
 30
0.0
 10
194.5426606275387
 20
117.8365672662988
 30
0.0
 10
194.6336988913593
 20
118.1336538083004
 30
0.0
 10
194.80899706542
 20
118.4286540753101
 30
0.0
 10
195.0163837891474
 20
118.7016038154423
 30
0.0
 10
195.1655390527832
 20
118.880782585226
 30
0.0
 10
195.2312830474259
 20
118.9569175237865
 30
0.0
 10
195.2165654038642
 20
118.9397413093664
 30
0.0
 10
195.2155171308924
 20
118.9385179232136
 30
0.0
  0
SPLINE
  5
146
330
1F
100
AcDbEntity
  8
0
  6
HIDDEN
 62
     7
370
     0
100
AcDbSpline
210
0.0
220
0.0
230
1.0
 70
     8
 71
     3
 72
     9
 73
     5
 74
     0
 42
0.00000001
 43
0.00000001
 40
0.0
 40
0.0
 40
0.0
 40
0.0
 40
0.7277434543789341
 40
1.0
 40
1.0
 40
1.0
 40
1.0
 10
192.2283289038341
 20
118.9272910222079
 30
0.0
 10
192.2316217664814
 20
118.9269152499059
 30
0.0
 10
192.2361465239731
 20
118.9263988971997
 30
0.0
 10
192.2876179312759
 20
118.9496824368835
 30
0.0
 10
192.3016313588264
 20
118.9560215329677
 30
0.0
  0
SPLINE
  5
147
330
1F
100
AcDbEntity
  8
0
  6
HIDDEN
 62
     7
370
     0
100
AcDbSpline
210
0.0
220
0.0
230
1.0
 70
     8
 71
     3
 72
    18
 73
    14
 74
     0
 42
0.00000001
 43
0.00000001
 40
0.0
 40
0.0
 40
0.0
 40
0.0
 40
0.0515453819247675
 40
0.1416915078118029
 40
0.2391516983525578
 40
0.3558391244879207
 40
0.4675642173198097
 40
0.5384545751043274
 40
0.6098185345908502
 40
0.6961678669737275
 40
0.8353916622310015
 40
0.9794688505619046
 40
1.0
 40
1.0
 40
1.0
 40
1.0
 10
192.2290328883534
 20
116.5701962787384
 30
0.0
 10
192.2273495551376
 20
116.5682308337071
 30
0.0
 10
192.2227222924691
 20
116.5628280825857
 30
0.0
 10
192.300293455167
 20
116.6533526722202
 30
0.0
 10
192.4434314093651
 20
116.8273190919807
 30
0.0
 10
192.6384943797438
 20
117.087243424438
 30
0.0
 10
192.811702991377
 20
117.3825589743926
 30
0.0
 10
192.897642000564
 20
117.6811531431201
 30
0.0
 10
192.8852287025439
 20
117.9674083328633
 30
0.0
 10
192.758954547001
 20
118.303101652325
 30
0.0
 10
192.538534985406
 20
118.6469061023247
 30
0.0
 10
192.3725571445885
 20
118.8654781543957
 30
0.0
 10
192.309496714448
 20
118.9459806731591
 30
0.0
 10
192.3016313588264
 20
118.9560215329677
 30
0.0
  0
LINE
  5
148
330
1F
100
AcDbEntity
  8
0
  6
HIDDEN
 62
     7
370
     0
100
AcDbLine
 10
195.2187363134
 20
119.8839653304
 30
0.0
 11
192.2187363134
 21
119.8839653304
 31
0.0
  0
LINE
  5
149
330
1F
100
AcDbEntity
  8
0
  6
HIDDEN
 62
     7
370
     0
100
AcDbLine
 10
192.2074387679
 20
116.5586600073
 30
0.0
 11
192.3016313588
 21
118.956021533
 31
0.0
  0
LINE
  5
14A
330
1F
100
AcDbEntity
  8
0
  6
HIDDEN
 62
     7
370
     0
100
AcDbLine
 10
192.2074387679
 20
93.2092706536
 30
0.0
 11
192.3016313588
 21
90.8119091279
 31
0.0
  0
SPLINE
  5
14B
330
1F
100
AcDbEntity
  8
0
  6
HIDDEN
 62
     7
370
     0
100
AcDbSpline
210
0.0
220
0.0
230
1.0
 70
     8
 71
     3
 72
     8
 73
     4
 74
     0
 42
0.00000001
 43
0.00000001
 40
0.0
 40
0.0
 40
0.0
 40
0.0
 40
0.0001590976916942
 40
0.0001590976916942
 40
0.0001590976916942
 40
0.0001590976916942
 10
50.60390431957182
 20
89.0824748944126
 30
0.0
 10
50.55885285009687
 20
89.05449601073667
 30
0.0
 10
50.51379681271167
 20
89.02652448100913
 30
0.0
 10
50.46873631344262
 20
88.99856014230382
 30
0.0
  0
SPLINE
  5
14C
330
1F
100
AcDbEntity
  8
0
  6
HIDDEN
 62
     7
370
     0
100
AcDbSpline
210
0.0
220
0.0
230
1.0
 70
     8
 71
     3
 72
    11
 73
     7
 74
     0
 42
0.00000001
 43
0.00000001
 40
0.0
 40
0.0
 40
0.0
 40
0.0
 40
0.0008212909311266
 40
0.0008212909311266
 40
0.0008212909311266
 40
0.0016428257242681
 40
0.0016428257242681
 40
0.0016428257242681
 40
0.0016428257242681
 10
50.46873631344261
 20
88.99856014230382
 30
0.0
 10
50.27759129196006
 20
88.95527395349448
 30
0.0
 10
50.0861729562834
 20
88.91433744390115
 30
0.0
 10
49.89452688162228
 20
88.8757356725593
 30
0.0
 10
49.70282380008067
 20
88.83712241876694
 30
0.0
 10
49.51087867679541
 20
88.8008422095265
 30
0.0
 10
49.31873631344263
 20
88.76687530322133
 30
0.0
  0
LINE
  5
14D
330
1F
100
AcDbEntity
  8
0
  6
HIDDEN
 62
     7
370
     0
100
AcDbLine
 10
97.3087363134
 20
125.0198319619
 30
0.0
 11
97.3087363134
 21
124.7339653304
 31
0.0
  0
LINE
  5
14E
330
1F
100
AcDbEntity
  8
0
  6
HIDDEN
 62
     7
370
     0
100
AcDbLine
 10
101.1287363134
 20
125.065111343
 30
0.0
 11
101.1287363134
 21
124.7339653304
 31
0.0
  0
LINE
  5
14F
330
1F
100
AcDbEntity
  8
0
  6
HIDDEN
 62
     7
370
     0
100
AcDbLine
 10
102.6106691449
 20
129.3426549928
 30
0.0
 11
102.6106691449
 21
124.7339653304
 31
0.0
  0
SPLINE
  5
150
330
1F
100
AcDbEntity
  8
0
  6
HIDDEN
 62
     7
370
     0
100
AcDbSpline
210
0.0
220
0.0
230
1.0
 70
     8
 71
     3
 72
    24
 73
    20
 74
     0
 42
0.00000001
 43
0.00000001
 40
0.0
 40
0.0
 40
0.0
 40
0.0
 40
0.2500000000000047
 40
0.2500000000000047
 40
0.3750000000000068
 40
0.3750000000000068
 40
0.437500000000008
 40
0.437500000000008
 40
0.4687500000000068
 40
0.4687500000000068
 40
0.5000000000000056
 40
0.5000000000000056
 40
0.5625000000000058
 40
0.5625000000000058
 40
0.625000000000006
 40
0.625000000000006
 40
0.7500000000000029
 40
0.7500000000000029
 40
1.0
 40
1.0
 40
1.0
 40
1.0
 10
49.38139968816601
 20
85.2094127856635
 30
0.0
 10
49.39515280683624
 20
85.28006284365378
 30
0.0
 10
49.41292537424208
 20
85.3466609564187
 30
0.0
 10
49.46517646579746
 20
85.42075897665191
 30
0.0
 10
49.486211541379
 20
85.44201678381346
 30
0.0
 10
49.53911194900744
 20
85.4501627099597
 30
0.0
 10
49.56021762188534
 20
85.44922290656395
 30
0.0
 10
49.60626979056329
 20
85.42820691498662
 30
0.0
 10
49.62464026254666
 20
85.41729810887902
 30
0.0
 10
49.66619189761237
 20
85.38466319793166
 30
0.0
 10
49.68875857036928
 20
85.36317121756029
 30
0.0
 10
49.75153958682933
 20
85.29470527397397
 30
0.0
 10
49.78466934779721
 20
85.2486308157689
 30
0.0
 10
49.84158703428223
 20
85.1636229274342
 30
0.0
 10
49.86577305978601
 20
85.12334262625284
 30
0.0
 10
49.93098101016577
 20
85.00840639978688
 30
0.0
 10
49.96569707035703
 20
84.93782341463987
 30
0.0
 10
50.0589123406879
 20
84.73361765556125
 30
0.0
 10
50.10458487604861
 20
84.61071927323387
 30
0.0
 10
50.14288995954713
 20
84.4938459968463
 30
0.0
  0
SPLINE
  5
151
330
1F
100
AcDbEntity
  8
0
  6
HIDDEN
 62
     7
370
     0
100
AcDbSpline
210
0.0
220
0.0
230
1.0
 70
     8
 71
     3
 72
    11
 73
     7
 74
     0
 42
0.00000001
 43
0.00000001
 40
0.0
 40
0.0
 40
0.0
 40
0.0
 40
0.0005781862223847
 40
0.0005781862223847
 40
0.0005781862223847
 40
0.0011563724723663
 40
0.0011563724723663
 40
0.0011563724723663
 40
0.0011563724723663
 10
50.31873631344288
 20
117.524107644057
 30
0.0
 10
50.15207575916757
 20
117.5886371555618
 30
0.0
 10
49.98541246226119
 20
117.653139859496
 30
0.0
 10
49.81874587843088
 20
117.7176263080281
 30
0.0
 10
49.65207928617174
 20
117.7821127598215
 30
0.0
 10
49.48540942054566
 20
117.8465827686513
 30
0.0
 10
49.31873631344261
 20
117.9110385354883
 30
0.0
  0
SPLINE
  5
152
330
1F
100
AcDbEntity
  8
0
  6
HIDDEN
 62
     7
370
     0
100
AcDbSpline
210
0.0
220
0.0
230
1.0
 70
     8
 71
     3
 72
     8
 73
     4
 74
     0
 42
0.00000001
 43
0.00000001
 40
0.0
 40
0.0
 40
0.0
 40
0.0
 40
0.0011557494192644
 40
0.0011557494192644
 40
0.0011557494192644
 40
0.0011557494192644
 10
49.31873631344259
 20
91.85674346799347
 30
0.0
 10
49.65207012345684
 20
91.98836774425911
 30
0.0
 10
49.9854037351195
 20
92.12018465790062
 30
0.0
 10
50.31873631344259
 20
92.25218810012748
 30
0.0
  0
SPLINE
  5
153
330
1F
100
AcDbEntity
  8
0
  6
HIDDEN
 62
     7
370
     0
100
AcDbSpline
210
0.0
220
0.0
230
1.0
 70
     8
 71
     3
 72
    11
 73
     7
 74
     0
 42
0.00000001
 43
0.00000001
 40
0.0000000000000006
 40
0.0000000000000006
 40
0.0000000000000006
 40
0.0000000000000006
 40
0.0005780486062644
 40
0.0005780486062644
 40
0.0005780486062644
 40
0.0011560973513878
 40
0.0011560973513878
 40
0.0011560973513878
 40
0.0011560973513878
 10
49.31873631344261
 20
114.8647798237315
 30
0.0
 10
49.48540616948781
 20
114.8024079623355
 30
0.0
 10
49.65207387357223
 20
114.7400541021529
 30
0.0
 10
49.81874017802588
 20
114.6777345420781
 30
0.0
 10
49.98540651871964
 20
114.6154149684525
 30
0.0
 10
50.15207147534824
 20
114.5531297642405
 30
0.0
 10
50.31873631344259
 20
114.490904643776
 30
0.0
  0
SPLINE
  5
154
330
1F
100
AcDbEntity
  8
0
  6
HIDDEN
 62
     7
370
     0
100
AcDbSpline
210
0.0
220
0.0
230
1.0
 70
     8
 71
     3
 72
    11
 73
     7
 74
     0
 42
0.00000001
 43
0.00000001
 40
0.0
 40
0.0
 40
0.0
 40
0.0
 40
0.000578240158334
 40
0.000578240158334
 40
0.000578240158334
 40
0.0011564805960605
 40
0.0011564805960605
 40
0.0011564805960605
 40
0.0011564805960605
 10
50.31873631344259
 20
95.28313854563318
 30
0.0
 10
50.15208536309387
 20
95.21971308770209
 30
0.0
 10
49.98542577051131
 20
95.15635756418048
 30
0.0
 10
49.81875871808275
 20
95.09305997996759
 30
0.0
 10
49.65209158151895
 20
95.0297623638014
 30
0.0
 10
49.48541697407281
 20
94.96652256900121
 30
0.0
 10
49.31873631344261
 20
94.90332256250592
 30
0.0
  0
CIRCLE
  5
155
330
1F
100
AcDbEntity
  8
0
  6
HIDDEN
 62
     7
370
     0
100
AcDbCircle
 10
88.2187363134
 20
104.8839653304
 30
0.0
 40
5.000000000000014
  0
LINE
  5
156
330
1F
100
AcDbEntity
  8
0
  6
HIDDEN
 62
     7
370
     0
100
AcDbLine
 10
241.0807949648
 20
117.2487025012
 30
0.0
 11
240.9685798326
 21
114.3926366674
 31
0.0
  0
LINE
  5
157
330
1F
100
AcDbEntity
  8
0
  6
HIDDEN
 62
     7
370
     0
100
AcDbLine
 10
235.7524214759
 20
117.5998947633
 30
0.0
 11
235.6346420287
 21
114.6022076545
 31
0.0
  0
LINE
  5
158
330
1F
100
AcDbEntity
  8
0
  6
HIDDEN
 62
     7
370
     0
100
AcDbLine
 10
241.2164898564
 20
116.5773678504
 30
0.0
 11
241.1414141063
 21
114.6665624125
 31
0.0
  0
LINE
  5
159
330
1F
100
AcDbEntity
  8
0
  6
HIDDEN
 62
     7
370
     0
100
AcDbLine
 10
235.2331770499
 20
117.119910153
 30
0.0
 11
235.1546574184
 21
115.1214520805
 31
0.0
  0
LINE
  5
15A
330
1F
100
AcDbEntity
  8
0
  6
HIDDEN
 62
     7
370
     0
100
AcDbLine
 10
239.1908333791
 20
115.9636418537
 30
0.0
 11
239.1613885173
 21
115.2142200766
 31
0.0
  0
LINE
  5
15B
330
1F
100
AcDbEntity
  8
0
  6
HIDDEN
 62
     7
370
     0
100
AcDbLine
 10
239.1908333791
 20
115.9636418537
 30
0.0
 11
241.1892914516
 21
115.8851222222
 31
0.0
  0
LINE
  5
15C
330
1F
100
AcDbEntity
  8
0
  6
HIDDEN
 62
     7
370
     0
100
AcDbLine
 10
239.220278241
 20
116.7130636309
 30
0.0
 11
239.1908333791
 21
115.9636418537
 31
0.0
  0
LINE
  5
15D
330
1F
100
AcDbEntity
  8
0
  6
HIDDEN
 62
     7
370
     0
100
AcDbLine
 10
239.220278241
 20
116.7130636309
 30
0.0
 11
241.2187363134
 21
116.6345439994
 31
0.0
  0
LINE
  5
15E
330
1F
100
AcDbEntity
  8
0
  6
HIDDEN
 62
     7
370
     0
100
AcDbLine
 10
239.1613885173
 20
115.2142200766
 30
0.0
 11
241.1598465898
 21
115.135700445
 31
0.0
  0
LINE
  5
15F
330
1F
100
AcDbEntity
  8
0
  6
HIDDEN
 62
     7
370
     0
100
AcDbLine
 10
241.0274695562
 20
95.377607777
 30
0.0
 11
241.1331485483
 21
92.6878978185
 31
0.0
  0
LINE
  5
160
330
1F
100
AcDbEntity
  8
0
  6
HIDDEN
 62
     7
370
     0
100
AcDbLine
 10
235.8034214726
 20
92.3711566412
 30
0.0
 11
235.8113111996
 21
92.1703496812
 31
0.0
  0
LINE
  5
161
330
1F
100
AcDbEntity
  8
0
  6
HIDDEN
 62
     7
370
     0
100
AcDbLine
 10
235.6935317523
 20
95.1680367899
 30
0.0
 11
235.8034214726
 21
92.3711566412
 31
0.0
  0
LINE
  5
162
330
1F
100
AcDbEntity
  8
0
  6
HIDDEN
 62
     7
370
     0
100
AcDbLine
 10
235.2868069556
 20
92.7842055981
 30
0.0
 11
235.2920667736
 21
92.6503342914
 31
0.0
  0
LINE
  5
163
330
1F
100
AcDbEntity
  8
0
  6
HIDDEN
 62
     7
370
     0
100
AcDbLine
 10
235.2135471421
 20
94.6487923639
 30
0.0
 11
235.2868069556
 21
92.7842055981
 31
0.0
  0
LINE
  5
164
330
1F
100
AcDbEntity
  8
0
  6
HIDDEN
 62
     7
370
     0
100
AcDbLine
 10
241.2003038299
 20
95.1036820319
 30
0.0
 11
241.2187363134
 21
94.6345439994
 31
0.0
  0
LINE
  5
165
330
1F
100
AcDbEntity
  8
0
  6
HIDDEN
 62
     7
370
     0
100
AcDbLine
 10
239.2497231028
 20
93.8066025907
 30
0.0
 11
239.2791679646
 21
93.0571808135
 31
0.0
  0
LINE
  5
166
330
1F
100
AcDbEntity
  8
0
  6
HIDDEN
 62
     7
370
     0
100
AcDbLine
 10
239.2497231028
 20
93.8066025907
 30
0.0
 11
239.220278241
 21
94.5560243679
 31
0.0
  0
LINE
  5
167
330
1F
100
AcDbEntity
  8
0
  6
HIDDEN
 62
     7
370
     0
100
AcDbLine
 10
239.2497231028
 20
93.8066025907
 30
0.0
 11
241.2481811753
 21
93.8851222222
 31
0.0
  0
LINE
  5
168
330
1F
100
AcDbEntity
  8
0
  6
HIDDEN
 62
     7
370
     0
100
AcDbLine
 10
239.2791679646
 20
93.0571808135
 30
0.0
 11
241.2776260371
 21
93.135700445
 31
0.0
  0
LINE
  5
169
330
1F
100
AcDbEntity
  8
0
  6
HIDDEN
 62
     7
370
     0
100
AcDbLine
 10
239.220278241
 20
94.5560243679
 30
0.0
 11
241.2187363134
 21
94.6345439994
 31
0.0
  0
LINE
  5
16A
330
1F
100
AcDbEntity
  8
0
  6
HIDDEN
 62
     7
370
     0
100
AcDbLine
 10
176.7187363134
 20
98.8839653304
 30
0.0
 11
191.7187363134
 21
98.8839653304
 31
0.0
  0
LINE
  5
16B
330
1F
100
AcDbEntity
  8
0
  6
HIDDEN
 62
     7
370
     0
100
AcDbLine
 10
191.7187363134
 20
110.8839653304
 30
0.0
 11
176.7187363134
 21
110.8839653304
 31
0.0
  0
LINE
  5
16C
330
1F
100
AcDbEntity
  8
0
  6
HIDDEN
 62
     7
370
     0
100
AcDbLine
 10
191.7187363134
 20
98.8839653304
 30
0.0
 11
192.2187363134
 21
99.3839653304
 31
0.0
  0
LINE
  5
16D
330
1F
100
AcDbEntity
  8
0
  6
HIDDEN
 62
     7
370
     0
100
AcDbLine
 10
192.2187363134
 20
110.3839653304
 30
0.0
 11
191.7187363134
 21
110.8839653304
 31
0.0
  0
LINE
  5
16E
330
1F
100
AcDbEntity
  8
0
  6
HIDDEN
 62
     7
370
     0
100
AcDbLine
 10
176.7187363134
 20
110.8839653304
 30
0.0
 11
176.2187363134
 21
110.3839653304
 31
0.0
  0
LINE
  5
16F
330
1F
100
AcDbEntity
  8
0
  6
HIDDEN
 62
     7
370
     0
100
AcDbLine
 10
176.2187363134
 20
99.3839653304
 30
0.0
 11
176.7187363134
 21
98.8839653304
 31
0.0
  0
LINE
  5
170
330
1F
100
AcDbEntity
  8
0
  6
HIDDEN
 62
     7
370
     0
100
AcDbLine
 10
192.2187363134
 20
99.3839653304
 30
0.0
 11
196.2187363134
 21
99.3839653304
 31
0.0
  0
LINE
  5
171
330
1F
100
AcDbEntity
  8
0
  6
HIDDEN
 62
     7
370
     0
100
AcDbLine
 10
196.2187363134
 20
110.3839653304
 30
0.0
 11
192.2187363134
 21
110.3839653304
 31
0.0
  0
LINE
  5
172
330
1F
100
AcDbEntity
  8
0
  6
HIDDEN
 62
     7
370
     0
100
AcDbLine
 10
183.2187363134
 20
101.8839653304
 30
0.0
 11
189.2187363134
 21
101.8839653304
 31
0.0
  0
LINE
  5
173
330
1F
100
AcDbEntity
  8
0
  6
HIDDEN
 62
     7
370
     0
100
AcDbLine
 10
189.2187363134
 20
107.8839653304
 30
0.0
 11
183.2187363134
 21
107.8839653304
 31
0.0
  0
LINE
  5
174
330
1F
100
AcDbEntity
  8
0
  6
HIDDEN
 62
     7
370
     0
100
AcDbLine
 10
85.2187363134
 20
119.1845958362
 30
0.0
 11
85.2187363134
 21
117.2779059733
 31
0.0
  0
LINE
  5
175
330
1F
100
AcDbEntity
  8
0
  6
HIDDEN
 62
     7
370
     0
100
AcDbLine
 10
93.2187363134
 20
117.2779059733
 30
0.0
 11
93.2187363134
 21
119.1818004802
 31
0.0
  0
LINE
  5
176
330
1F
100
AcDbEntity
  8
0
  6
HIDDEN
 62
     7
370
     0
100
AcDbLine
 10
81.2187363134
 20
79.5600341845
 30
0.0
 11
81.312897089
 21
80.2300229157
 31
0.0
  0
LINE
  5
177
330
1F
100
AcDbEntity
  8
0
  6
HIDDEN
 62
     7
370
     0
100
AcDbLine
 10
81.312897089
 20
129.5379077452
 30
0.0
 11
81.2187363134
 21
130.2078964764
 31
0.0
  0
ARC
  5
178
330
1F
100
AcDbEntity
  8
0
  6
HIDDEN
 62
     7
370
     0
100
AcDbCircle
 10
80.7187295608
 20
80.3135277161
 30
0.0
 40
0.6000067526677242
100
AcDbArc
 50
352.0
 51
0.0
  0
ARC
  5
179
330
1F
100
AcDbEntity
  8
0
  6
HIDDEN
 62
     7
370
     0
100
AcDbCircle
 10
80.7187295608
 20
80.3135277161
 30
0.0
 40
0.6000067526677242
100
AcDbArc
 50
0.0
 51
33.5571153394
  0
ARC
  5
17A
330
1F
100
AcDbEntity
  8
0
  6
HIDDEN
 62
     7
370
     0
100
AcDbCircle
 10
80.7187295608
 20
129.4544029448
 30
0.0
 40
0.6000067526677169
100
AcDbArc
 50
348.75
 51
8.0
  0
LWPOLYLINE
  5
17B
330
1F
100
AcDbEntity
  8
0
  6
HIDDEN
 62
     7
370
     0
100
AcDbPolyline
 90
        3
 70
   128
 43
0.0
 10
81.3072073519
 20
129.3373474342
 10
81.2730635189
 20
129.2247903013
 10
81.2187363134
 20
129.1227384298
  0
LINE
  5
17C
330
1F
100
AcDbEntity
  8
0
  6
HIDDEN
 62
     7
370
     0
100
AcDbLine
 10
81.3187363134
 20
80.3135277161
 30
0.0
 11
81.3187363134
 21
129.4544029448
 31
0.0
  0
ARC
  5
17D
330
1F
100
AcDbEntity
  8
0
  6
HIDDEN
 62
     7
370
     0
100
AcDbCircle
 10
74.973738315
 20
92.8839653304
 30
0.0
 40
8.000000000000004
100
AcDbArc
 50
277.1234766433
 51
321.3178125465
  0
ARC
  5
17E
330
1F
100
AcDbEntity
  8
0
  6
HIDDEN
 62
     7
370
     0
100
AcDbCircle
 10
74.973738315
 20
116.8839653304
 30
0.0
 40
8.000000000000004
100
AcDbArc
 50
38.6821874535
 51
82.8557416614
  0
LINE
  5
17F
330
1F
100
AcDbEntity
  8
0
  6
HIDDEN
 62
     7
370
     0
100
AcDbLine
 10
64.3011718787
 20
84.8839653304
 30
0.0
 11
68.4718536946
 21
84.8839653304
 31
0.0
  0
LINE
  5
180
330
1F
100
AcDbEntity
  8
0
  6
HIDDEN
 62
     7
370
     0
100
AcDbLine
 10
68.4718536946
 20
124.8839653304
 30
0.0
 11
64.3011718787
 21
124.8839653304
 31
0.0
  0
ARC
  5
181
330
1F
100
AcDbEntity
  8
0
  6
HIDDEN
 62
     7
370
     0
100
AcDbCircle
 10
64.3011718787
 20
85.4839653304
 30
0.0
 40
0.5999999999999962
100
AcDbArc
 50
210.0
 51
270.0
  0
ARC
  5
182
330
1F
100
AcDbEntity
  8
0
  6
HIDDEN
 62
     7
370
     0
100
AcDbCircle
 10
64.3011718787
 20
124.2839653304
 30
0.0
 40
0.5999999999999962
100
AcDbArc
 50
90.0
 51
150.0
  0
LINE
  5
183
330
1F
100
AcDbEntity
  8
0
  6
HIDDEN
 62
     7
370
     0
100
AcDbLine
 10
63.7815566365
 20
124.5839653304
 30
0.0
 11
62.2227109097
 21
121.8839653304
 31
0.0
  0
LINE
  5
184
330
1F
100
AcDbEntity
  8
0
  6
HIDDEN
 62
     7
370
     0
100
AcDbLine
 10
62.2227109097
 20
87.8839653304
 30
0.0
 11
63.7815566365
 21
85.1839653304
 31
0.0
  0
LINE
  5
185
330
1F
100
AcDbEntity
  8
0
  6
HIDDEN
 62
     7
370
     0
100
AcDbLine
 10
85.2187363134
 20
132.1636315684
 30
0.0
 11
85.2187363134
 21
128.8295677451
 31
0.0
  0
LINE
  5
186
330
1F
100
AcDbEntity
  8
0
  6
HIDDEN
 62
     7
370
     0
100
AcDbLine
 10
93.2187363134
 20
128.8295677451
 30
0.0
 11
93.2187363134
 21
132.1582991896
 31
0.0
  0
ARC
  5
187
330
1F
100
AcDbEntity
  8
0
  6
HIDDEN
 62
     7
370
     0
100
AcDbCircle
 10
89.6687363134
 20
89.1589653304
 30
0.0
 40
1.5
100
AcDbArc
 50
238.2116693829
 51
0.0
  0
ARC
  5
188
330
1F
100
AcDbEntity
  8
0
  6
HIDDEN
 62
     7
370
     0
100
AcDbCircle
 10
89.6687363134
 20
120.6089653304
 30
0.0
 40
1.500000000000009
100
AcDbArc
 50
0.0
 51
121.7883306171
  0
LINE
  5
189
330
1F
100
AcDbEntity
  8
0
  6
HIDDEN
 62
     7
370
     0
100
AcDbLine
 10
59.4187363134
 20
87.8839653304
 30
0.0
 11
62.2227109097
 21
87.8839653304
 31
0.0
  0
LINE
  5
18A
330
1F
100
AcDbEntity
  8
0
  6
HIDDEN
 62
     7
370
     0
100
AcDbLine
 10
62.2227109097
 20
121.8839653304
 30
0.0
 11
55.4187363134
 21
121.8839653304
 31
0.0
  0
LINE
  5
18B
330
1F
100
AcDbEntity
  8
0
  6
HIDDEN
 62
     7
370
     0
100
AcDbLine
 10
81.2187363134
 20
87.8839653304
 30
0.0
 11
88.878562282
 21
87.8839653304
 31
0.0
  0
LINE
  5
18C
330
1F
100
AcDbEntity
  8
0
  6
HIDDEN
 62
     7
370
     0
100
AcDbLine
 10
88.878562282
 20
121.8839653304
 30
0.0
 11
81.2187363134
 21
121.8839653304
 31
0.0
  0
LINE
  5
18D
330
1F
100
AcDbEntity
  8
0
  6
HIDDEN
 62
     7
370
     0
100
AcDbLine
 10
241.0255694422
 20
92.3752184455
 30
0.0
 11
241.1261225887
 21
92.6311836844
 31
0.0
  0
LINE
  5
18E
330
1F
100
AcDbEntity
  8
0
  6
HIDDEN
 62
     7
370
     0
100
AcDbLine
 10
241.1279858074
 20
117.1308070211
 30
0.0
 11
241.0255694422
 21
117.3927122154
 31
0.0
  0
LINE
  5
18F
330
1F
100
AcDbEntity
  8
0
  6
HIDDEN
 62
     7
370
     0
100
AcDbLine
 10
100.0187363134
 20
95.3839653304
 30
0.0
 11
103.0187363134
 21
95.3839653304
 31
0.0
  0
LINE
  5
190
330
1F
100
AcDbEntity
  8
0
  6
HIDDEN
 62
     7
370
     0
100
AcDbLine
 10
103.0187363134
 20
114.3839653304
 30
0.0
 11
100.0187363134
 21
114.3839653304
 31
0.0
  0
ARC
  5
191
330
1F
100
AcDbEntity
  8
0
  6
HIDDEN
 62
     7
370
     0
100
AcDbCircle
 10
240.7187363134
 20
95.8472710824
 30
0.0
 40
0.5
100
AcDbArc
 50
0.0
 51
80.0
  0
ARC
  5
192
330
1F
100
AcDbEntity
  8
0
  6
HIDDEN
 62
     7
370
     0
100
AcDbCircle
 10
240.7187363134
 20
113.9206595785
 30
0.0
 40
0.5000000000000105
100
AcDbArc
 50
280.0
 51
0.0
  0
LINE
  5
193
330
1F
100
AcDbEntity
  8
0
  6
HIDDEN
 62
     7
370
     0
100
AcDbLine
 10
91.1687363134
 20
95.8839653304
 30
0.0
 11
91.6687363134
 21
96.3839653304
 31
0.0
  0
LINE
  5
194
330
1F
100
AcDbEntity
  8
0
  6
HIDDEN
 62
     7
370
     0
100
AcDbLine
 10
91.6687363134
 20
113.3839653304
 30
0.0
 11
91.1687363134
 21
113.8839653304
 31
0.0
  0
LINE
  5
195
330
1F
100
AcDbEntity
  8
0
  6
HIDDEN
 62
     7
370
     0
100
AcDbLine
 10
240.8055604023
 20
113.428255702
 30
0.0
 11
237.7187363134
 21
112.8839653304
 31
0.0
  0
LINE
  5
196
330
1F
100
AcDbEntity
  8
0
  6
HIDDEN
 62
     7
370
     0
100
AcDbLine
 10
237.7187363134
 20
96.8839653304
 30
0.0
 11
240.8055604023
 21
96.3396749589
 31
0.0
  0
LINE
  5
197
330
1F
100
AcDbEntity
  8
0
  6
HIDDEN
 62
     7
370
     0
100
AcDbLine
 10
91.6687363134
 20
96.3839653304
 30
0.0
 11
100.0187363134
 21
96.3839653304
 31
0.0
  0
LINE
  5
198
330
1F
100
AcDbEntity
  8
0
  6
HIDDEN
 62
     7
370
     0
100
AcDbLine
 10
100.0187363134
 20
113.3839653304
 30
0.0
 11
91.6687363134
 21
113.3839653304
 31
0.0
  0
LINE
  5
199
330
1F
100
AcDbEntity
  8
0
  6
HIDDEN
 62
     7
370
     0
100
AcDbLine
 10
195.2187363134
 20
96.5839653304
 30
0.0
 11
201.3239622953
 21
96.5839653304
 31
0.0
  0
LINE
  5
19A
330
1F
100
AcDbEntity
  8
0
  6
HIDDEN
 62
     7
370
     0
100
AcDbLine
 10
192.1187363134
 20
96.5839653304
 30
0.0
 11
192.2224910539
 21
96.5839653304
 31
0.0
  0
LINE
  5
19B
330
1F
100
AcDbEntity
  8
0
  6
HIDDEN
 62
     7
370
     0
100
AcDbLine
 10
192.2203996037
 20
113.1839653304
 30
0.0
 11
192.1187363134
 21
113.1839653304
 31
0.0
  0
LINE
  5
19C
330
1F
100
AcDbEntity
  8
0
  6
HIDDEN
 62
     7
370
     0
100
AcDbLine
 10
201.3239622953
 20
113.1839653304
 30
0.0
 11
195.2136750767
 21
113.1839653304
 31
0.0
  0
ARC
  5
19D
330
1F
100
AcDbEntity
  8
0
  6
HIDDEN
 62
     7
370
     0
100
AcDbCircle
 10
192.1187363134
 20
96.9839653304
 30
0.0
 40
0.4000000000000057
100
AcDbArc
 50
180.0
 51
270.0
  0
ARC
  5
19E
330
1F
100
AcDbEntity
  8
0
  6
HIDDEN
 62
     7
370
     0
100
AcDbCircle
 10
192.1187363134
 20
112.7839653304
 30
0.0
 40
0.4000000000000057
100
AcDbArc
 50
90.0
 51
180.0
  0
ARC
  5
19F
330
1F
100
AcDbEntity
  8
0
  6
HIDDEN
 62
     7
370
     0
100
AcDbCircle
 10
201.3239622953
 20
96.9839653304
 30
0.0
 40
0.4000000000000057
100
AcDbArc
 50
270.0
 51
290.0
  0
ARC
  5
1A0
330
1F
100
AcDbEntity
  8
0
  6
HIDDEN
 62
     7
370
     0
100
AcDbCircle
 10
201.3239622953
 20
112.7839653304
 30
0.0
 40
0.3999999999999915
100
AcDbArc
 50
70.0
 51
90.0
  0
LINE
  5
1A1
330
1F
100
AcDbEntity
  8
0
  6
HIDDEN
 62
     7
370
     0
100
AcDbLine
 10
201.4607703527
 20
96.6080882821
 30
0.0
 11
202.2187363134
 21
96.8839653304
 31
0.0
  0
LINE
  5
1A2
330
1F
100
AcDbEntity
  8
0
  6
HIDDEN
 62
     7
370
     0
100
AcDbLine
 10
202.2187363134
 20
112.8839653304
 30
0.0
 11
201.4607703527
 21
113.1598423788
 31
0.0
  0
LINE
  5
1A3
330
1F
100
AcDbEntity
  8
0
  6
HIDDEN
 62
     7
370
     0
100
AcDbLine
 10
202.2187363134
 20
96.8839653304
 30
0.0
 11
237.7187363134
 21
96.8839653304
 31
0.0
  0
LINE
  5
1A4
330
1F
100
AcDbEntity
  8
0
  6
HIDDEN
 62
     7
370
     0
100
AcDbLine
 10
237.7187363134
 20
112.8839653304
 30
0.0
 11
202.2187363134
 21
112.8839653304
 31
0.0
  0
LINE
  5
1A5
330
1F
100
AcDbEntity
  8
0
  6
HIDDEN
 62
     7
370
     0
100
AcDbLine
 10
86.1687363134
 20
136.3839653304
 30
0.0
 11
86.1687363134
 21
131.2839653304
 31
0.0
  0
LINE
  5
1A6
330
1F
100
AcDbEntity
  8
0
  6
HIDDEN
 62
     7
370
     0
100
AcDbLine
 10
191.7187363134
 20
110.8839653304
 30
0.0
 11
191.2187363134
 21
110.3839653304
 31
0.0
  0
LINE
  5
1A7
330
1F
100
AcDbEntity
  8
0
  6
HIDDEN
 62
     7
370
     0
100
AcDbLine
 10
191.2187363134
 20
99.3839653304
 30
0.0
 11
191.7187363134
 21
98.8839653304
 31
0.0
  0
LINE
  5
1A8
330
1F
100
AcDbEntity
  8
0
  6
HIDDEN
 62
     7
370
     0
100
AcDbLine
 10
161.2187363134
 20
99.3839653304
 30
0.0
 11
191.2187363134
 21
99.3839653304
 31
0.0
  0
LINE
  5
1A9
330
1F
100
AcDbEntity
  8
0
  6
HIDDEN
 62
     7
370
     0
100
AcDbLine
 10
191.2187363134
 20
110.3839653304
 30
0.0
 11
161.2187363134
 21
110.3839653304
 31
0.0
  0
LINE
  5
1AA
330
1F
100
AcDbEntity
  8
0
  6
HIDDEN
 62
     7
370
     0
100
AcDbLine
 10
161.2187363134
 20
110.3839653304
 30
0.0
 11
160.4376175087
 21
109.0839653304
 31
0.0
  0
LINE
  5
1AB
330
1F
100
AcDbEntity
  8
0
  6
HIDDEN
 62
     7
370
     0
100
AcDbLine
 10
160.4376175087
 20
100.6839653304
 30
0.0
 11
161.2187363134
 21
99.3839653304
 31
0.0
  0
LINE
  5
1AC
330
1F
100
AcDbEntity
  8
0
  6
HIDDEN
 62
     7
370
     0
100
AcDbLine
 10
76.4031741439
 20
80.8045939969
 30
0.0
 11
75.9687419944
 21
81.283660016
 31
0.0
  0
LINE
  5
1AD
330
1F
100
AcDbEntity
  8
0
  6
HIDDEN
 62
     7
370
     0
100
AcDbLine
 10
68.4687386693
 20
81.7053479751
 30
0.0
 11
67.986304926
 21
81.2262819997
 31
0.0
  0
LINE
  5
1AE
330
1F
100
AcDbEntity
  8
0
  6
HIDDEN
 62
     7
370
     0
100
AcDbLine
 10
67.9861829978
 20
128.5416433708
 30
0.0
 11
68.4687337487
 21
128.0625231129
 31
0.0
  0
LINE
  5
1AF
330
1F
100
AcDbEntity
  8
0
  6
HIDDEN
 62
     7
370
     0
100
AcDbLine
 10
75.9687361954
 20
128.4842208905
 30
0.0
 11
76.4032785858
 21
128.9633411411
 31
0.0
  0
LINE
  5
1B0
330
1F
100
AcDbEntity
  8
0
  6
HIDDEN
 62
     7
370
     0
100
AcDbLine
 10
103.0187363134
 20
100.6839653304
 30
0.0
 11
160.4376175087
 21
100.6839653304
 31
0.0
  0
LINE
  5
1B1
330
1F
100
AcDbEntity
  8
0
  6
HIDDEN
 62
     7
370
     0
100
AcDbLine
 10
160.4376175087
 20
109.0839653304
 30
0.0
 11
103.0187363134
 21
109.0839653304
 31
0.0
  0
LINE
  5
1B2
330
1F
100
AcDbEntity
  8
0
  6
HIDDEN
 62
     7
370
     0
100
AcDbLine
 10
75.9687363134
 20
81.1836004706
 30
0.0
 11
75.9687363134
 21
84.9461291398
 31
0.0
  0
LINE
  5
1B3
330
1F
100
AcDbEntity
  8
0
  6
HIDDEN
 62
     7
370
     0
100
AcDbLine
 10
68.4687363134
 20
84.8845495917
 30
0.0
 11
68.4687363134
 21
81.7056712129
 31
0.0
  0
LINE
  5
1B4
330
1F
100
AcDbEntity
  8
0
  6
HIDDEN
 62
     7
370
     0
100
AcDbLine
 10
75.9687363134
 20
124.8218015211
 30
0.0
 11
75.9687363134
 21
128.5842513912
 31
0.0
  0
LINE
  5
1B5
330
1F
100
AcDbEntity
  8
0
  6
HIDDEN
 62
     7
370
     0
100
AcDbLine
 10
68.4687363134
 20
128.0622679216
 30
0.0
 11
68.4687363134
 21
124.8833810692
 31
0.0
  0
LINE
  5
1B6
330
1F
100
AcDbEntity
  8
0
  6
HIDDEN
 62
     7
370
     0
100
AcDbLine
 10
149.6687363134
 20
121.8839653304
 30
0.0
 11
150.6687363134
 21
121.3066150613
 31
0.0
  0
LINE
  5
1B7
330
1F
100
AcDbEntity
  8
0
  6
HIDDEN
 62
     7
370
     0
100
AcDbLine
 10
155.6687363134
 20
121.3066150613
 30
0.0
 11
156.6687363134
 21
121.8839653304
 31
0.0
  0
LINE
  5
1B8
330
1F
100
AcDbEntity
  8
0
  6
HIDDEN
 62
     7
370
     0
100
AcDbLine
 10
156.6687363134
 20
87.8839653304
 30
0.0
 11
155.6687363134
 21
88.4613155996
 31
0.0
  0
LINE
  5
1B9
330
1F
100
AcDbEntity
  8
0
  6
HIDDEN
 62
     7
370
     0
100
AcDbLine
 10
150.6687363134
 20
88.4613155996
 30
0.0
 11
149.6687363134
 21
87.8839653304
 31
0.0
  0
LINE
  5
1BA
330
1F
100
AcDbEntity
  8
0
  6
HIDDEN
 62
     7
370
     0
100
AcDbLine
 10
150.6687363134
 20
121.3066150613
 30
0.0
 11
150.6687363134
 21
111.8839653304
 31
0.0
  0
LINE
  5
1BB
330
1F
100
AcDbEntity
  8
0
  6
HIDDEN
 62
     7
370
     0
100
AcDbLine
 10
155.6687363134
 20
111.8839653304
 30
0.0
 11
155.6687363134
 21
121.3066150613
 31
0.0
  0
LINE
  5
1BC
330
1F
100
AcDbEntity
  8
0
  6
HIDDEN
 62
     7
370
     0
100
AcDbLine
 10
150.6687363134
 20
111.8839653304
 30
0.0
 11
153.1687363134
 21
110.3818137829
 31
0.0
  0
LINE
  5
1BD
330
1F
100
AcDbEntity
  8
0
  6
HIDDEN
 62
     7
370
     0
100
AcDbLine
 10
153.1687363134
 20
110.3818137829
 30
0.0
 11
155.6687363134
 21
111.8839653304
 31
0.0
  0
LINE
  5
1BE
330
1F
100
AcDbEntity
  8
0
  6
HIDDEN
 62
     7
370
     0
100
AcDbLine
 10
155.6687363134
 20
88.4613155996
 30
0.0
 11
155.6687363134
 21
97.8839653304
 31
0.0
  0
LINE
  5
1BF
330
1F
100
AcDbEntity
  8
0
  6
HIDDEN
 62
     7
370
     0
100
AcDbLine
 10
150.6687363134
 20
97.8839653304
 30
0.0
 11
150.6687363134
 21
88.4613155996
 31
0.0
  0
LINE
  5
1C0
330
1F
100
AcDbEntity
  8
0
  6
HIDDEN
 62
     7
370
     0
100
AcDbLine
 10
155.6687363134
 20
97.8839653304
 30
0.0
 11
153.1687363134
 21
99.386116878
 31
0.0
  0
LINE
  5
1C1
330
1F
100
AcDbEntity
  8
0
  6
HIDDEN
 62
     7
370
     0
100
AcDbLine
 10
153.1687363134
 20
99.386116878
 30
0.0
 11
150.6687363134
 21
97.8839653304
 31
0.0
  0
LINE
  5
1C2
330
1F
100
AcDbEntity
  8
0
  6
HIDDEN
 62
     7
370
     0
100
AcDbLine
 10
192.2187363134
 20
90.3839653304
 30
0.0
 11
193.7187363134
 21
89.4826744019
 31
0.0
  0
LINE
  5
1C3
330
1F
100
AcDbEntity
  8
0
  6
HIDDEN
 62
     7
370
     0
100
AcDbLine
 10
193.7187363134
 20
89.4826744019
 30
0.0
 11
195.2187363134
 21
90.3839653304
 31
0.0
  0
LINE
  5
1C4
330
1F
100
AcDbEntity
  8
0
  6
HIDDEN
 62
     7
370
     0
100
AcDbLine
 10
192.2187363134
 20
90.843458333
 30
0.0
 11
192.2187363134
 21
90.3839653304
 31
0.0
  0
LINE
  5
1C5
330
1F
100
AcDbEntity
  8
0
  6
HIDDEN
 62
     7
370
     0
100
AcDbLine
 10
192.2187363134
 20
96.5846404711
 30
0.0
 11
192.2187363134
 21
93.2067409749
 31
0.0
  0
LINE
  5
1C6
330
1F
100
AcDbEntity
  8
0
  6
HIDDEN
 62
     7
370
     0
100
AcDbLine
 10
195.2187363134
 20
93.3275848563
 30
0.0
 11
195.2187363134
 21
96.5839653304
 31
0.0
  0
LINE
  5
1C7
330
1F
100
AcDbEntity
  8
0
  6
HIDDEN
 62
     7
370
     0
100
AcDbLine
 10
195.2187363134
 20
90.3839653304
 30
0.0
 11
195.2187363134
 21
90.8273327239
 31
0.0
  0
LINE
  5
1C8
330
1F
100
AcDbEntity
  8
0
  6
HIDDEN
 62
     7
370
     0
100
AcDbLine
 10
192.2187363134
 20
116.5701962787
 30
0.0
 11
192.2187363134
 21
113.1836675193
 31
0.0
  0
LINE
  5
1C9
330
1F
100
AcDbEntity
  8
0
  6
HIDDEN
 62
     7
370
     0
100
AcDbLine
 10
192.2187363134
 20
119.8839653304
 30
0.0
 11
192.2187363134
 21
118.9272910222
 31
0.0
  0
LINE
  5
1CA
330
1F
100
AcDbEntity
  8
0
  6
HIDDEN
 62
     7
370
     0
100
AcDbLine
 10
195.2187363134
 20
118.9385179232
 30
0.0
 11
195.2187363134
 21
119.8839653304
 31
0.0
  0
LINE
  5
1CB
330
1F
100
AcDbEntity
  8
0
  6
HIDDEN
 62
     7
370
     0
100
AcDbLine
 10
195.2187363134
 20
113.183053068
 30
0.0
 11
195.2187363134
 21
116.4403458045
 31
0.0
  0
LINE
  5
1CC
330
1F
100
AcDbEntity
  8
0
  6
HIDDEN
 62
     7
370
     0
100
AcDbLine
 10
195.2173628282
 20
90.8256019955
 30
0.0
 11
241.1262688209
 21
92.6293678245
 31
0.0
  0
LINE
  5
1CD
330
1F
100
AcDbEntity
  8
0
  6
HIDDEN
 62
     7
370
     0
100
AcDbLine
 10
241.2187363134
 20
95.1349297787
 30
0.0
 11
195.2187363134
 21
93.3275848563
 31
0.0
  0
LINE
  5
1CE
330
1F
100
AcDbEntity
  8
0
  6
HIDDEN
 62
     7
370
     0
100
AcDbLine
 10
195.2187363134
 20
116.4403458045
 30
0.0
 11
241.2187363134
 21
114.6330008822
 31
0.0
  0
LINE
  5
1CF
330
1F
100
AcDbEntity
  8
0
  6
HIDDEN
 62
     7
370
     0
100
AcDbLine
 10
241.1282756733
 20
117.1384839869
 30
0.0
 11
195.2156816167
 21
118.9423947204
 31
0.0
  0
LINE
  5
1D0
330
1F
100
AcDbEntity
  8
0
  6
HIDDEN
 62
     7
370
     0
100
AcDbLine
 10
192.223031703
 20
118.9308128499
 30
0.0
 11
191.5060168161
 21
117.8371833991
 31
0.0
  0
LINE
  5
1D1
330
1F
100
AcDbEntity
  8
0
  6
HIDDEN
 62
     7
370
     0
100
AcDbLine
 10
191.5060168161
 20
117.8371833991
 30
0.0
 11
192.2074387679
 21
116.5586600073
 31
0.0
  0
LINE
  5
1D2
330
1F
100
AcDbEntity
  8
0
  6
HIDDEN
 62
     7
370
     0
100
AcDbLine
 10
192.2074387679
 20
93.2092706536
 30
0.0
 11
191.5060168161
 21
91.9307472617
 31
0.0
  0
LINE
  5
1D3
330
1F
100
AcDbEntity
  8
0
  6
HIDDEN
 62
     7
370
     0
100
AcDbLine
 10
191.5060168161
 20
91.9307472617
 30
0.0
 11
192.2190742511
 21
90.8431539282
 31
0.0
  0
LINE
  5
1D4
330
1F
100
AcDbEntity
  8
0
  6
HIDDEN
 62
     7
370
     0
100
AcDbLine
 10
50.6163917175
 20
125.7539653304
 30
0.0
 11
50.6096247149
 21
125.7539653304
 31
0.0
  0
LINE
  5
1D5
330
1F
100
AcDbEntity
  8
0
  6
HIDDEN
 62
     7
370
     0
100
AcDbLine
 10
241.0255694422
 20
117.3927122154
 30
0.0
 11
235.7524214759
 21
117.5998947633
 31
0.0
  0
LINE
  5
1D6
330
1F
100
AcDbEntity
  8
0
  6
HIDDEN
 62
     7
370
     0
100
AcDbLine
 10
235.6346420287
 20
114.6022076545
 30
0.0
 11
240.9685798326
 21
114.3926366674
 31
0.0
  0
LINE
  5
1D7
330
1F
100
AcDbEntity
  8
0
  6
HIDDEN
 62
     7
370
     0
100
AcDbLine
 10
240.9685798326
 20
114.3926366674
 30
0.0
 11
241.1414141063
 21
114.6665624125
 31
0.0
  0
LINE
  5
1D8
330
1F
100
AcDbEntity
  8
0
  6
HIDDEN
 62
     7
370
     0
100
AcDbLine
 10
235.7524214759
 20
117.5998947633
 30
0.0
 11
235.2331770499
 21
117.119910153
 31
0.0
  0
LINE
  5
1D9
330
1F
100
AcDbEntity
  8
0
  6
HIDDEN
 62
     7
370
     0
100
AcDbLine
 10
235.1546574184
 20
115.1214520805
 30
0.0
 11
235.6346420287
 21
114.6022076545
 31
0.0
  0
LINE
  5
1DA
330
1F
100
AcDbEntity
  8
0
  6
HIDDEN
 62
     7
370
     0
100
AcDbLine
 10
241.0274695562
 20
95.377607777
 30
0.0
 11
235.6935317523
 21
95.1680367899
 31
0.0
  0
LINE
  5
1DB
330
1F
100
AcDbEntity
  8
0
  6
HIDDEN
 62
     7
370
     0
100
AcDbLine
 10
235.8113111996
 20
92.1703496812
 30
0.0
 11
241.0255694422
 21
92.3752184455
 31
0.0
  0
LINE
  5
1DC
330
1F
100
AcDbEntity
  8
0
  6
HIDDEN
 62
     7
370
     0
100
AcDbLine
 10
235.6935317523
 20
95.1680367899
 30
0.0
 11
235.2135471421
 21
94.6487923639
 31
0.0
  0
LINE
  5
1DD
330
1F
100
AcDbEntity
  8
0
  6
HIDDEN
 62
     7
370
     0
100
AcDbLine
 10
235.2920667736
 20
92.6503342914
 30
0.0
 11
235.8113111996
 21
92.1703496812
 31
0.0
  0
LINE
  5
1DE
330
1F
100
AcDbEntity
  8
0
  6
HIDDEN
 62
     7
370
     0
100
AcDbLine
 10
241.2003038299
 20
95.1036820319
 30
0.0
 11
241.0274695562
 21
95.377607777
 31
0.0
  0
DIMENSION
  5
1DF
330
1F
100
AcDbEntity
  8
VERMASSUNG
100
AcDbDimension
  2
*D1
 10
44.7650054171
 20
73.3839653304
 30
0.0
 11
44.7650054171
 21
104.8839653304
 31
0.0
 70
   160
  1
HSK A %%c<>
 71
     2
 42
-1.0
  3
SLDDIMSTYLE0
100
AcDbAlignedDimension
 13
81.5187363134
 23
136.3839653304
 33
0.0
 14
81.5187363134
 24
73.3839653304
 34
0.0
 50
90.0
100
AcDbRotatedDimension
  0
DIMENSION
  5
1EC
330
1F
100
AcDbEntity
  8
VERMASSUNG
100
AcDbDimension
  2
*D2
 10
241.2187363134
 20
136.7788732394
 30
0.0
 11
216.4687363134
 21
136.7788732394
 31
0.0
 70
   160
 71
     2
 42
-1.0
  3
SLDDIMSTYLE1
100
AcDbAlignedDimension
 13
191.7187363134
 23
112.7839653304
 33
0.0
 14
241.2187363134
 24
116.5351843471
 34
0.0
 50
0.0
100
AcDbRotatedDimension
  0
DIMENSION
  5
1F7
330
1F
100
AcDbEntity
  8
VERMASSUNG
100
AcDbDimension
  2
*D3
 10
251.3286260338
 20
112.8839653304
 30
0.0
 11
251.3286260338
 21
104.8839653304
 31
0.0
 70
   160
  1
%%c<> 
 71
     2
 42
-1.0
  3
SLDDIMSTYLE2
100
AcDbAlignedDimension
 13
237.7187363134
 23
96.8839653304
 33
0.0
 14
237.7187363134
 24
112.8839653304
 34
0.0
 50
90.0
100
AcDbRotatedDimension
  0
DIMENSION
  5
204
330
1F
100
AcDbEntity
  8
VERMASSUNG
100
AcDbDimension
  2
*D4
 10
257.3286260338
 20
118.3839653304
 30
0.0
 11
257.3286260338
 21
104.8839653304
 31
0.0
 70
   160
  1
%%c<>
 71
     2
 42
-1.0
  3
SLDDIMSTYLE3
100
AcDbAlignedDimension
 13
241.2187363134
 23
91.3839653304
 33
0.0
 14
241.2187363134
 24
118.3839653304
 34
0.0
 50
90.0
100
AcDbRotatedDimension
  0
DIMENSION
  5
210
330
1F
100
AcDbEntity
  8
VERMASSUNG
100
AcDbDimension
  2
*D5
 10
241.2187363134
 20
148.7788732394
 30
0.0
 11
161.2187363134
 21
148.7788732394
 31
0.0
 70
   160
 71
     2
 42
-1.0
  3
SLDDIMSTYLE0
100
AcDbAlignedDimension
 13
81.2187363134
 23
136.0839653304
 33
0.0
 14
241.2187363134
 24
116.5351843471
 34
0.0
100
AcDbRotatedDimension
  0
DIMENSION
  5
21A
330
1F
100
AcDbEntity
  8
VERMASSUNG
100
AcDbDimension
  2
*D6
 10
241.2187363134
 20
142.7788732394
 30
0.0
 11
174.1937363134
 21
142.7788732394
 31
0.0
 70
   160
 71
     2
 42
-1.0
  3
SLDDIMSTYLE0
100
AcDbAlignedDimension
 13
107.1687363134
 23
134.7304056542
 33
0.0
 14
241.2187363134
 24
116.4834130903
 34
0.0
100
AcDbRotatedDimension
  0
DIMENSION
  5
224
330
1F
100
AcDbEntity
  8
VERMASSUNG
100
AcDbDimension
  2
*D7
 10
241.2187363134
 20
154.7788732394
 30
0.0
 11
145.2687363134
 21
154.7788732394
 31
0.0
 70
   160
 71
     2
 42
-1.0
  3
SLDDIMSTYLE0
100
AcDbAlignedDimension
 13
49.3187363134
 23
124.5746430769
 33
0.0
 14
241.2187363134
 24
116.4834130903
 34
0.0
100
AcDbRotatedDimension
  0
DIMENSION
  5
22E
330
1F
100
AcDbEntity
  8
VERMASSUNG
100
AcDbDimension
  2
*D8
 10
263.3286260338
 20
87.8839653304
 30
0.0
 11
263.3286260338
 21
104.8839653304
 31
0.0
 70
   160
  1
%%c<>
 71
     2
 42
-1.0
  3
SLDDIMSTYLE0
100
AcDbAlignedDimension
 13
196.7470197368
 23
121.8839653304
 33
0.0
 14
196.7470197368
 24
87.8839653304
 34
0.0
 50
90.0
100
AcDbRotatedDimension
  0
LINE
  5
239
330
1F
100
AcDbEntity
  8
VERMASSUNG
  6
CENTERX2
370
     0
100
AcDbLine
 10
47.1734324711
 20
104.8839653304
 30
0.0
 11
245.0408450704
 21
104.8839653304
 31
0.0
  0
OLE2FRAME
  5
23A
330
1F
100
AcDbEntity
  8
0
100
AcDbOle2Frame
 70
     2
  3
Bitmap Image
 10
13.8511154363
 20
38.264191557
 30
0.0
 11
51.6290888628
 21
31.9806341108
 31
0.0
 71
     2
 72
     0
 73
     1
 90
    12928
310
80552BED0767C5B32B40DDAF6807D121434000000000000000006FFBDDFB85D0
310
4940DDAF6807D121434000000000000000006FFBDDFB85D04940416F4BD60AFB
310
3F4000000000000000002BED0767C5B32B40416F4BD60AFB3F40000000000000
310
0000000000000100000000010000010000000100000000000100000000320000
310
D0CF11E0A1B11AE1000000000000000000000000000000003E000300FEFF0900
310
0600000000000000000000000100000001000000000000000010000002000000
310
01000000FEFFFFFF0000000000000000FFFFFFFFFFFFFFFFFFFFFFFFFFFFFFFF
310
FFFFFFFFFFFFFFFFFFFFFFFFFFFFFFFFFFFFFFFFFFFFFFFFFFFFFFFFFFFFFFFF
310
FFFFFFFFFFFFFFFFFFFFFFFFFFFFFFFFFFFFFFFFFFFFFFFFFFFFFFFFFFFFFFFF
310
FFFFFFFFFFFFFFFFFFFFFFFFFFFFFFFFFFFFFFFFFFFFFFFFFFFFFFFFFFFFFFFF
310
FFFFFFFFFFFFFFFFFFFFFFFFFFFFFFFFFFFFFFFFFFFFFFFFFFFFFFFFFFFFFFFF
310
FFFFFFFFFFFFFFFFFFFFFFFFFFFFFFFFFFFFFFFFFFFFFFFFFFFFFFFFFFFFFFFF
310
FFFFFFFFFFFFFFFFFFFFFFFFFFFFFFFFFFFFFFFFFFFFFFFFFFFFFFFFFFFFFFFF
310
FFFFFFFFFFFFFFFFFFFFFFFFFFFFFFFFFFFFFFFFFFFFFFFFFFFFFFFFFFFFFFFF
310
FFFFFFFFFFFFFFFFFFFFFFFFFFFFFFFFFFFFFFFFFFFFFFFFFFFFFFFFFFFFFFFF
310
FFFFFFFFFFFFFFFFFFFFFFFFFFFFFFFFFFFFFFFFFFFFFFFFFFFFFFFFFFFFFFFF
310
FFFFFFFFFFFFFFFFFFFFFFFFFFFFFFFFFFFFFFFFFFFFFFFFFFFFFFFFFFFFFFFF
310
FFFFFFFFFFFFFFFFFFFFFFFFFFFFFFFFFFFFFFFFFFFFFFFFFFFFFFFFFFFFFFFF
310
FFFFFFFFFFFFFFFFFFFFFFFFFFFFFFFFFFFFFFFFFFFFFFFFFFFFFFFFFFFFFFFF
310
FFFFFFFFFFFFFFFFFFFFFFFFFFFFFFFFFFFFFFFFFFFFFFFFFFFFFFFFFFFFFFFF
310
FDFFFFFFFEFFFFFFFEFFFFFFFEFFFFFF05000000060000000700000008000000
310
090000000A0000000B0000000C0000000D0000000E0000000F00000010000000
310
11000000120000001300000014000000150000001600000017000000FEFFFFFF
310
FFFFFFFFFFFFFFFFFFFFFFFFFFFFFFFFFFFFFFFFFFFFFFFFFFFFFFFFFFFFFFFF
310
FFFFFFFFFFFFFFFFFFFFFFFFFFFFFFFFFFFFFFFFFFFFFFFFFFFFFFFFFFFFFFFF
310
FFFFFFFFFFFFFFFFFFFFFFFFFFFFFFFFFFFFFFFFFFFFFFFFFFFFFFFFFFFFFFFF
310
FFFFFFFFFFFFFFFFFFFFFFFFFFFFFFFFFFFFFFFFFFFFFFFFFFFFFFFFFFFFFFFF
310
FFFFFFFFFFFFFFFFFFFFFFFFFFFFFFFFFFFFFFFFFFFFFFFFFFFFFFFFFFFFFFFF
310
FFFFFFFFFFFFFFFFFFFFFFFFFFFFFFFFFFFFFFFFFFFFFFFFFFFFFFFFFFFFFFFF
310
FFFFFFFFFFFFFFFFFFFFFFFFFFFFFFFFFFFFFFFFFFFFFFFFFFFFFFFFFFFFFFFF
310
FFFFFFFFFFFFFFFFFFFFFFFFFFFFFFFFFFFFFFFFFFFFFFFFFFFFFFFFFFFFFFFF
310
FFFFFFFFFFFFFFFFFFFFFFFFFFFFFFFFFFFFFFFFFFFFFFFFFFFFFFFFFFFFFFFF
310
FFFFFFFFFFFFFFFFFFFFFFFFFFFFFFFFFFFFFFFFFFFFFFFFFFFFFFFFFFFFFFFF
310
FFFFFFFFFFFFFFFFFFFFFFFFFFFFFFFFFFFFFFFFFFFFFFFFFFFFFFFFFFFFFFFF
310
FFFFFFFFFFFFFFFFFFFFFFFFFFFFFFFFFFFFFFFFFFFFFFFFFFFFFFFFFFFFFFFF
310
FFFFFFFFFFFFFFFFFFFFFFFFFFFFFFFFFFFFFFFFFFFFFFFFFFFFFFFFFFFFFFFF
310
52006F006F007400200045006E00740072007900000000000000000000000000
310
0000000000000000000000000000000000000000000000000000000000000000
310
16000500FFFFFFFFFFFFFFFF020000000A00030000000000C000000000000046
310
000000000000000000000000E0C13408C704CC0103000000C000000000000000
310
01004F006C006500000000000000000000000000000000000000000000000000
310
0000000000000000000000000000000000000000000000000000000000000000
310
0A000200FFFFFFFFFFFFFFFFFFFFFFFF00000000000000000000000000000000
310
0000000000000000000000000000000000000000000000001400000000000000
310
010043006F006D0070004F0062006A0000000000000000000000000000000000
310
0000000000000000000000000000000000000000000000000000000000000000
310
120002010100000003000000FFFFFFFF00000000000000000000000000000000
310
0000000000000000000000000000000000000000010000004D00000000000000
310
01004F006C006500310030004E00610074006900760065000000000000000000
310
0000000000000000000000000000000000000000000000000000000000000000
310
1A000200FFFFFFFFFFFFFFFFFFFFFFFF00000000000000000000000000000000
310
0000000000000000000000000000000000000000040000002426000000000000
310
FEFFFFFF02000000FEFFFFFFFFFFFFFFFFFFFFFFFFFFFFFFFFFFFFFFFFFFFFFF
310
FFFFFFFFFFFFFFFFFFFFFFFFFFFFFFFFFFFFFFFFFFFFFFFFFFFFFFFFFFFFFFFF
310
FFFFFFFFFFFFFFFFFFFFFFFFFFFFFFFFFFFFFFFFFFFFFFFFFFFFFFFFFFFFFFFF
310
FFFFFFFFFFFFFFFFFFFFFFFFFFFFFFFFFFFFFFFFFFFFFFFFFFFFFFFFFFFFFFFF
310
FFFFFFFFFFFFFFFFFFFFFFFFFFFFFFFFFFFFFFFFFFFFFFFFFFFFFFFFFFFFFFFF
310
FFFFFFFFFFFFFFFFFFFFFFFFFFFFFFFFFFFFFFFFFFFFFFFFFFFFFFFFFFFFFFFF
310
FFFFFFFFFFFFFFFFFFFFFFFFFFFFFFFFFFFFFFFFFFFFFFFFFFFFFFFFFFFFFFFF
310
FFFFFFFFFFFFFFFFFFFFFFFFFFFFFFFFFFFFFFFFFFFFFFFFFFFFFFFFFFFFFFFF
310
FFFFFFFFFFFFFFFFFFFFFFFFFFFFFFFFFFFFFFFFFFFFFFFFFFFFFFFFFFFFFFFF
310
FFFFFFFFFFFFFFFFFFFFFFFFFFFFFFFFFFFFFFFFFFFFFFFFFFFFFFFFFFFFFFFF
310
FFFFFFFFFFFFFFFFFFFFFFFFFFFFFFFFFFFFFFFFFFFFFFFFFFFFFFFFFFFFFFFF
310
FFFFFFFFFFFFFFFFFFFFFFFFFFFFFFFFFFFFFFFFFFFFFFFFFFFFFFFFFFFFFFFF
310
FFFFFFFFFFFFFFFFFFFFFFFFFFFFFFFFFFFFFFFFFFFFFFFFFFFFFFFFFFFFFFFF
310
FFFFFFFFFFFFFFFFFFFFFFFFFFFFFFFFFFFFFFFFFFFFFFFFFFFFFFFFFFFFFFFF
310
FFFFFFFFFFFFFFFFFFFFFFFFFFFFFFFFFFFFFFFFFFFFFFFFFFFFFFFFFFFFFFFF
310
FFFFFFFFFFFFFFFFFFFFFFFFFFFFFFFFFFFFFFFFFFFFFFFFFFFFFFFFFFFFFFFF
310
010000020000000000000000000000000000000000000000CC08020000000000
310
52090200000000003E09020000000000120902000000000058071F0000000000
310
0100FEFF030A0000FFFFFFFF0A00030000000000C00000000000004607000000
310
5042727573680007000000504272757368000700000050427275736800F439B2
310
71000000000000000000000000000000B81E050000000000AE1E050000000000
310
AA1E050000000000161E040000000000201E040000000000241E040000000000
310
621D0400000000006C1D040000000000701D040000000000CE1C030000000000
310
B01C040000000000B41C040000000000161C030000000000021C040000000000
310
061C040000000000E81B020000000000F21B020000000000F61B020000000000
310
EE1A290000000000681A4100000000007A1A4300000000007C197A0000000000
310
701981000000000074197B00000000002619BF0000000000C618700000000000
310
06196E0000000000420715020000000014076E02000000000807A60000000000
310
FE0A0400000000003609020000000000780B0D0000000000AE0B020000000000
310
DC0B020000000000EA0B02000000000070070200000000008007020000000000
310
C207020000000000D407020000000000FE07020000000000CC06080000000000
310
C60B020000000000960C0A00000000002E09030000000000DC06030000000000
310
20260000424D0E260000000000003E00000028000000B40200006E0000000100
310
01000000000000000000130B0000130B00000200000002000000000000FFFFFF
310
FFFFFFFFFFFFFFFFFFFFFFFFFFFFFFFFFFFFFFFFFFFFFFFFFFFFFFFFFFFFFFFF
310
FFFFFFFFFFFFFFFFFFFFFFFFFFFFFFFFFFFFFFFFFFFFFFFFFFFFFFFFFFFFFFFF
310
FFFFFFFFFFFFFFFFFFFFFFFFFFFFFFFFFFFFFFFFFFFFFFFFF000FFFFFFFFFFFF
310
FFFFFFFFFFFFFFFFFFFFFFFFFFFFFFFFFFFFFFFFFFFFFFFFFFFFFFFFFFFFFFFF
310
FFFFFFFFFFFFFFFFFFFFFFFFFFFFFFFFFFFFFFFFFFFFFFFFFFFFFFFFFFFFFFFF
310
FFFFFFFFFFFFFFFFFFFFFFFFFFFFFFFFF000FFFFFFFFFFFFFFFFFFFFFFFFFFFF
310
FFFFFFFFFFFFFFFFFFFFFFFFFFFFFFFFFFFFFFFFFFFFFFFFFFFFFFFFFFFFFFFF
310
FFFFFFFFFFFFFFFFFFFFFFFFFFFFFFFFFFFFFFFFFFFFFFFFFFFFFFFFFFFFFFFF
310
FFFFFFFFFFFFFFFFF000FFFFFFFFFFFFFFFFFFFFFFFFFFFFFFFFFFFFFFFFFFFF
310
FFFFFFFFFFFFFFFFFFFFFFFFFFFFFFFFFFFFFFFFFFFFFFFFFFFFFFFFFFFFFFFF
310
FFFFFFFFFFFFFFFFFFFFFFFFFFFFFFFFFFFFFFFFFFFFFFFFFFFFFFFFFFFFFFFF
310
F000FFFFFFFFFFFFFFFFFFFFFFFFFFFFFFFFFFFFFFFFFFFFFFFFFFFFFFFFFFFF
310
FFFFFFFFFFFFFFFFFFFFFFFFFFFFFFFFFFFFFFFFFFFFFFFFFFFFFFFFFFFFFFFF
310
FFFFFFFFFFFFFFFFFFFFFFFFFFFFFFFFFFFFFFFFFFFFFFFFF000FFFFFFFFFFFF
310
FFFFFFFFFFFFFFFFFFFFFFFFFFFFFFFFFFFFFFFFFFFFFFFFFFFFFFFFFFFFFFFF
310
FFFFFFFFFFFFFFFFFFFFFFFFFFFFFFFFFFFFFFFFFFFFFFFFFFFFFFFFFFFFFFFF
310
FFFFFFFFFFFFFFFFFFFFFFFFFFFFFFFFF000FFFFFFFFFFFFFFFFFFFFFFFFFFFF
310
FFFFFFFFFFFFFFFFFFFFFFFFFFFFFFFFFFFFFFFFFFFFFFFFFFFFFFFFFFFFFFFF
310
FFFFFFFFFFFFFFFFFFFFFFFFFFFFFFFFFFFFFFFFFFFFFFFFFFFFFFFFFFFFFFFF
310
FFFFFFFFFFFFFFFFF000FFFFFFFFFFFFFFFFFFFFFFFFFFFFFFFFFFFFFFFFFFFF
310
FFFFFFFFFFFFFFFFFFFFFFFFFFFFFFFFFFFFFFFFFFFFFFFFFFFFFFFFFFFFFFFF
310
FFFFFFFFFFFFFFFFFFFFFFFFFFFFFFFFFFFFFFFFFFFFFFFFFFFFFFFFFFFFFFFF
310
F000FFFFFFFFFFFFFFFFFFFFFFFFFFFFFFFFFFFFFFFFFFFFFFFFFFFFFFFFFFFF
310
FFFFFFFFFFFFFFFFFFFFFFFFFFFFFFFFFFFFFFFFFFFFFFFFFFFFFFFFFFFFFFFF
310
FFFFFFFFFFFFFFFFFFFFFFFFFFFFFFFFFFFFFFFFFFFFFFFFF000FFFFFFFFFFFF
310
FFFFFFFFFFFFFFFFFFFFFFFFFFFFFFFFFFFFFFFFFFFFFFFFFFFFFFFFFFFFFFFF
310
FFFFFFFFFFFFFFFFFFFFFFFFFFFFFFFFFFFFFFFFFFFFFFFFFFFFFFFFFFFFFFFF
310
FFFFFFFFFFFFFFFFFFFFFFFFFFFFFFFFF000FFFFFFFFFFFFFFFFFFFFFFFFFFFF
310
FFFFFFFFFFFFFFFFFFFFFFFFFFFFFFFFFFFFFFFFFFFFFFFFFFFFFFFFFFFFFFFF
310
FFFFFFFFFFFFFFFFFFFFFFFFFFFFFFFFFFFFFFFFFFFFFFFFFFFFFFFFFFFFFFFF
310
FFFFFFFFFFFFFFFFF000FFFFFFFFFFFFFFFFFFFFFFFFFFFFFFFFFFFFFFFFFFFF
310
FFFFFFFFFFFFFFFFFFFFFFFFFFFFFFFFFFFFFFFFFFFFFFFFFFFFFFFFFFFFFFFF
310
FFFFFFFFFFFFFFFFFFFFFFFFFFFFFFFFFFFFFFFFFFFFFFFFFFFFFFFFFFFFFFFF
310
F000FFFFFFFFFFFFFFFFFFFFFFFFFFFFFFFFFFFFFFFFFFFFFFFFFFFFFFFFFFFF
310
FFFFFFFFFFFFFFFFFFFFFFFFFFFFFFFFFFFFFFFFFFFFFFFFFFFFFFFFFFFFFFFF
310
FFFFFFFFFFFFFFFFFFFFFFFFFFFFFFFFFFFFFFFFFFFFFFFFF000FFFFFFFFFFFF
310
FFFFFFFFFFFFFFFFFFFFFFFFFFFFFFFFFFFFFFFFFFFFFFFFFFFFFFFFFFFFFFFF
310
FFFFFFFFFFFFFFFFFFFFFFFFFFFFFFFFFFFFFFFFFFFFFFFFFFFFFFFFFFFFFFFF
310
FFFFFFFFFFFFFFFFFFFFFFFFFFFFFFFFF000FFFFFFFFFFFFFFFFFFFFFFFFFFFF
310
FFFFFFFFFFFFFFFFFFFFFFFFFFFFFFFFFFFFFFFFFFFFFFFFFFFFFFFFFFFFFFFF
310
FFFFFFFFFFFFFFFFFFFFFFFFFFFFFFFFFFFFFFFFFFFFFFFFFFFFFFFFFFFFFFFF
310
FFFFFFFFFFFFFFFFF000FFFFFFFFFFFFFFFFFFFFFFFFFFFFFFFFFFFFFFFFFFFF
310
FFFFFFFFFFFFFFFFFFFFFFFFFFFFFFFFFFFFFFFFFFFFFFFFFFFFFFFFFFFFFFFF
310
FFFFFFFFFFFFFFFFFFFFFFFFFFFFFFFFFFFFFFFFFFFFFFFFFFFFFFFFFFFFFFFF
310
F000FFFFFFFFFFFFFFFFFFFFFFFFFFFFFFFFFFFFFFFFFFFFFFFFFFFFFFFFFFFF
310
FFFFFFFFFFFFFFFFFFFFFFFFFFFFFFFFFFFFFFFFFFFFFFFFFFFFFFFFFFFFFFFF
310
FFFFFFFFFFFFFFFFFFFFFFFFFFFFFFFFFFFFFFFFFFFFFFFFF000FFFFFFFFFFFF
310
FFFFFFFFFFFFFFFFFFFFFFFFFFFFFFFFFFFFFFFFFFFFFFFFFFFFFFFFFFFFFFFF
310
FFFFFFFFFFFFFFFFFFFFFFFFFFFFFFFFFFFFFFFFFFFFFFFFFFFFFFFFFFFFFFFF
310
FFFFFFFFFFFFFFFFFFFFFFFFFFFFFFFFF000FFFFFFFFFFFFFFFFFFFFFFFFFFFF
310
FFFFFFFFFFFFFFFFFFFFFFFFFFFFFFFFFFFFFFFFFFFFFFFFFFFFFFFFFFFFFFFF
310
FFFFFFFFFFFFFFFFFFFFFFFFFFFFFFFFFFFFFFFFFFFFFFFFFFFFFFFFFFFFFFFF
310
FFFFFFFFFFFFFFFFF000FFFFF80003FFFFFFFFFFFFFFFFFFFFFFFFFFFFFFFFFF
310
FFFFF00007FFFFFFFFFF00007FFFFFF800000000000000007FFFFFFFFFFFFFFF
310
FFFFFFFC001FFFFFFFFFFFFFFC001FFFFFFFFFFFFFFFFFFFFFFFFFFE0007FFFF
310
F000FFFF8000007FFFFFFFF8000FFFFFC0007FFFFF80007FFFFF0000007FFFFF
310
FFF8000007FFFFF800000000000000007FFFFFF0001FFFFFFFFFFFC00001FFFF
310
FFFFFFFFC00001FFFFFFFF000000000003FFFFE000007FFFF000FFFE0000000F
310
FFFFFFF0000FFFFF80007FFFFF80007FFFFC0000001FFFFFFFC0000001FFFFF8
310
00000000000000007FFFFFF0001FFFFFFFFFFE0000003FFFFFFFFFFE0000003F
310
FFFFFF000000000003FFFF0000000FFFF000FFF800000003FFFFFFF00007FFFF
310
80007FFFFF80007FFFF000000007FFFFFF000000003FFFF80000000000000000
310
7FFFFFF0001FFFFFFFFFF80000000FFFFFFFFFF80000000FFFFFFF0000000000
310
03FFFC00000003FFF000FFE000000000FFFFFFF00007FFFF80003FFFFF80007F
310
FFC000000001FFFFFC000000001FFFF800000000000000007FFFFFF0001FFFFF
310
FFFFE000000003FFFFFFFFE000000003FFFFFF000000000003FFF000000000FF
310
F000FF80000000007FFFFFF00007FFFF80003FFFFF80007FFF8000000000FFFF
310
F80000000007FFF800000000000000007FFFFFF0001FFFFFFFFFC000000001FF
310
FFFFFFC000000001FFFFFF000000000003FFC0000000007FF000FF0000000000
310
3FFFFFE00007FFFF00003FFFFF80007FFE00000000003FFFF00000000003FFF8
310
00000000000000007FFFFFF0001FFFFFFFFF8000000000FFFFFFFF8000000000
310
FFFFFF000000000003FF80000000003FF000FE00000000001FFFFFE00003FFFF
310
00003FFFFF80007FFC00000000001FFFE00000000001FFF8000001FFFE000000
310
7FFFFFF0001FFFFFFFFE00000000003FFFFFFE00000000003FFFFF0000000000
310
03FF00000000001FF000FC00000000000FFFFFE00003FFFF00001FFFFF80007F
310
F800000000001FFFC00000000000FFF8000001FFFE0000007FFFFFF0001FFFFF
310
FFFC00000000001FFFFFFC00000000001FFFFF000000000003FE00000000000F
310
F000F8000000000007FFFFE00003FFFF00001FFFFF80007FF800000000000FFF
310
800000000000FFF8000001FFFE0000007FFFFFF0001FFFFFFFF800000000000F
310
FFFFF800000000000FFFFF000000000003FC000000000007F000F80000000000
310
03FFFFC00003FFFE00001FFFFF80007FF0000000000007FF0000000000007FF8
310
000001FFFE0000007FFFFFF0001FFFFFFFF0000000000007FFFFF00000000000
310
07FFFF000000000003F8000000000003F000F0000000000003FFFFC00001FFFE
310
00001FFFFF80007FE0000000000007FE0000000000003FF8000001FFFE000000
310
7FFFFFF0001FFFFFFFF0000000000007FFFFF0000000000007FFFF0000000000
310
03F800001F800003F000E00001FFF00001FFFFC00001FFFE00000FFFFF80007F
310
E00001FFE00003FE00001FFF00003FF8000001FFFE0000007FFFFFF0001FFFFF
310
FFE000003E000003FFFFE000003E000003FFFF000000000003F00001FFF80001
310
F000E00007FFFC0001FFFFC00001FFFE00000FFFFF80007FC0000FFFFC0003FC
310
0000FFFFC0001FF8000001FFFE0000007FFFFFF0001FFFFFFFC00003FFE00001
310
FFFFC00003FFE00001FFFF0001FFFFFFFFF00007FFFE0001F000E0000FFFFF00
310
00FFFF800001FFFC00000FFFFF80007FC0001FFFFE0001FC0001FFFFE0001FF8
310
000001FFFE0000007FFFFFF0001FFFFFFF80000FFFF80000FFFF80000FFFF800
310
00FFFF0003FFFFFFFFE0000FFFFF8000F000C0003FFFFF8000FFFF800000FFFC
310
000007FFFF80007F80003FFFFF0001FC0003FFFFF0001FF8000001FFFE000000
310
7FFFFFF0001FFFFFFF80003FFFFE0000FFFF80003FFFFE0000FFFF0003FFFFFF
310
FFE0003FFFFF8000F000C0003FFFFF8000FFFF800000FFFC000007FFFF80007F
310
80007FFFFF8001F80007FFFFF8000FF8000001FFFE0000007FFFFFF0001FFFFF
310
FF00007FFFFF00007FFF00007FFFFF00007FFF0003FFFFFFFFE0003FFFFFC000
310
F000C0007FFFFFC000FFFF000000FFFC000007FFFF80007F8000FFFFFF8000F8
310
000FFFFFF8000FF8000001FFFE0000007FFFFFF0001FFFFFFF0000FFFFFF8000
310
7FFF0000FFFFFF80007FFF0003FFFFFFFFC0007FFFFFC00070008000FFFFFFC0
310
00FFFF000000FFF8000007FFFF80007F8000FFFFFF8000F8000FFFFFF8000FF8
310
000001FFFE0000007FFFFFF0001FFFFFFE0001FFFFFFC0003FFE0001FFFFFFC0
310
003FFF0003FFFFFFFFC0007FFFFFE00070008000FFFFFFC0007FFF0000007FF8
310
000003FFFF80007F0001FFFFFF8000F8000FFFFFF8000FF8000001FFFE000000
310
7FFFFFF0001FFFFFFE0001FFFFFFC0003FFE0001FFFFFFC0003FFF0003FFFFFF
310
FFC000FFFFFFE00070008000FFFFFFC0007FFF0000007FF8000003FFFF80007F
310
0001FFFFFF8000F8001FFFFFF8000FF8000001FFFE0000007FFFFFF0001FFFFF
310
FE0003FFFFFFE0003FFE0003FFFFFFE0003FFF0003FFFFFFFFC000FFFFFFE000
310
70008000FFFFFFC0007FFE0000007FF8000003FFFF80007F0001FFFFFF8000F0
310
001FFFFFF8000FF8000001FFFE0000007FFFFFF0001FFFFFFC0003FFFFFFE000
310
1FFC0003FFFFFFE0001FFF0003FFFFFFFFC000FFFFFFC00070008000FFFFFF80
310
007FFE0000007FF0000003FFFF80007F0001FFFFFF0000F0001FFFFFF8000FF8
310
000001FFFE0000007FFFFFF0001FFFFFFC0007FFFFFFF0001FFC0007FFFFFFF0
310
001FFF0003FFFFFFFFC000FFFFFFC00070008001FFFFFF0000FFFE0000003FF0
310
000001FFFF80007F0001FFFFFF0000F8001FFFFFF0000FF8000001FFFE000000
310
7FFFFFF0001FFFFFFC0007FFFFFFF0001FFC0007FFFFFFF0001FFF0003FFFFFF
310
FFC001FFFFFF80007000FFFFFFFFFE0000FFFE0008003FF0008001FFFF80007F
310
FFFFFFFFFC0000FFFFFFFFFFE0000FF8000001FFFE0000007FFFFFF0001FFFFF
310
F8000FFFFFFFF8000FF8000FFFFFFFF8000FFF0003FFFFFFFFFFFFFFFFFF0000
310
7000FFFFFFFFFC0000FFFC0008003FF0008001FFFF80007FFFFFFFFFF80001FF
310
FFFFFFFF80000FF8000001FFFE0000007FFFFFF0001FFFFFF8000FFFFFFFF800
310
0FF8000FFFFFFFF8000FFF0003FFFFFFFFFFFFFFFFFE0000F000FFFFFFFFE000
310
00FFFC000C003FE000C001FFFF80007FFFFFFFFFC00001FFFFFFFFFE00001FF8
310
000001FFFE0000007FFFFFF0001FFFFFF8000FFFFFFFF8000FF8000FFFFFFFF8
310
000FFF0003FFFFFFFFFFFFFFFFF00000F000FFFFFFFE000001FFFC000C001FE0
310
00C000FFFF80007FFFFFFFFE000001FFFFFFFFE000001FF80FFFFFFFFFFFFFC0
310
7FFFFFF0001FFFFFF8000FFFFFFFF8000FF8000FFFFFFFF8000FFF0003FFFFFF
310
FFFFFFFFFF800000F000FFFFFFC0000001FFFC001C001FE001C000FFFF80007F
310
FFFFFF80000003FFFFFFF80000001FF80FFFFFFFFFFFFFC07FFFFFF0001FFFFF
310
F8001FFFFFFFFC000FF8001FFFFFFFFC000FFF0003FFFFFFFFFFFFFFF0000001
310
F000FFFFF800000001FFF8001C001FE001C000FFFF80007FFFFFF800000003FF
310
FFFF800000003FF80FFFFFFFFFFFFFC07FFFFFF0001FFFFFF8001FFFFFFFFC00
310
0FF8001FFFFFFFFC000FFF0003FFFFFFFFFFFFFE00000001F000FFFFC0000000
310
03FFF8001E001FC001E000FFFF80007FFFFF8000000007FFFFFC000000003FF8
310
0FFFFFFFFFFFFFC07FFFFFF0001FFFFFF8001FFFFFFFFC000FF8001FFFFFFFFC
310
000FFF0003FFFFFFFFFFFFE000000003F000FFFE0000000007FFF8001E000FC0
310
01E0007FFF80007FFFFE0000000007FFFFE0000000007FF80FFFFFFFFFFFFFC0
310
7FFFFFF0001FFFFFF0001FFFFFFFFC0007F0001FFFFFFFFC0007FF0003FFFFFF
310
FFFFFF0000000003F000FFF80000000007FFF8001E000FC003E0007FFF80007F
310
FFF0000000000FFFFF8000000000FFF80FFFFFFFFFFFFFC07FFFFFF0001FFFFF
310
F0001FFFFFFFFC0007F0001FFFFFFFFC0007FF0003FFFFFFFFFFFC0000000007
310
F000FFE0000000000FFFF0003E000FC003E0007FFF80007FFFC0000000001FFF
310
FE0000000001FFF80FFFFFFFFFFFFFC07FFFFFF0001FFFFFF0001FFFFFFFFC00
310
07F0001FFFFFFFFC0007FF0003FFFFFFFFFFF0000000000FF000FFC000000000
310
1FFFF0003F000F8003F0003FFF80007FFF80000000003FFFF80000000003FFF8
310
0FFFFFFFFFFFFFC07FFFFFF0001FFFFFF0001FFFFFFFFC0007F0001FFFFFFFFC
310
0007FF0003FFFFFFFFFFE0000000001FF000FF00000000007FFFF0003F000780
310
03F0003FFF80007FFF00000000007FFFF00000000007FFF80FFFFFFFFFFFFFC0
310
7FFFFFF0001FFFFFF0001FFFFFFFFC0007F0001FFFFFFFFC0007FF0003FFFFFF
310
FFFF80000000007FF000FE0000000000FFFFE0003F00078007F0003FFF80007F
310
FE0000000001FFFFE0000000001FFFF80FFFFFFFFFFFFFC07FFFFFF0001FFFFF
310
F0001FFFFFFFFC0007F0001FFFFFFFFC0007FF0003FFFFFFFFFF0000000000FF
310
F000FC0000000003FFFFE0007F00078007F0003FFF80007FFC0000000007FFFF
310
C0000000007FFFF80FFFFFFFFFFFFFC07FFFFFF0001FFFFFF8001FFFFFFFFC00
310
0FF8001FFFFFFFFC000FFF0003FFFFFFFFFE0000000003FFF000FC000000000F
310
FFFFE0007F80070007F8001FFF80007FF8000000001FFFFF8000000001FFFFF8
310
0FFFFFFFFFFFFFC07FFFFFF0001FFFFFF8001FFFFFFFFC000FF8001FFFFFFFFC
310
000FFF0003FFFFFFFFFC000000000FFFF000F8000000007FFFFFE0007F800700
310
07F8001FFF80007FF000000000FFFFFF800000000FFFFFF80FFFFFFFFFFFFFC0
310
7FFFFFF0001FFFFFF8000FFFFFFFF8000FF8000FFFFFFFF8000FFF0003FFFFFF
310
FFFC000000007FFFF000F800000007FFFFFFC0007F8003000FF8001FFF80007F
310
F000000007FFFFFF000000007FFFFFF80FFFFFFFFFFFFFC07FFFFFF0001FFFFF
310
F8000FFFFFFFF8000FF8000FFFFFFFF8000FFF0003FFFFFFFFF80000000FFFFF
310
F000F0000000FFFFFFFFC000FF8003000FF8001FFF80007FE0000000FFFFFFFF
310
0000000FFFFFFFF8000001FFFE0000007FFFFFF0001FFFFFF8000FFFFFFFF800
310
0FF8000FFFFFFFF8000FFF0003FFFFFFFFF8000000FFFFFFF000F000000FFFFF
310
FFFFC000FFC002000FF8000FFF80007FE000001FFFFFFFFE000001FFFFFFFFF8
310
000001FFFE0000007FFFFFF0001FFFFFF8000FFFFFFFF8000FF8000FFFFFFFF8
310
000FFF0003FFFFFFFFF000001FFFFFFFF000E00000FFFFFFFFFFC000FFC00200
310
0FFC000FFF80007FE00001FFFFFFFFFE00001FFFFFFFFFF8000001FFFE000000
310
7FFFFFF0001FFFFFFC000FFFFFFFF8001FFC000FFFFFFFF8001FFF0003FFFFFF
310
FFF00001FFFFFFFFF000E00007FFFFFFFFFF8000FFC000001FFC000FFF80007F
310
C0000FFFFFFFFFFE0000FFFFFFFFFFF8000001FFFE0000007FFFFFF0001FFFFF
310
FC0007FFFFFFF0001FFC0007FFFFFFF0001FFF0003FFFFFFFFF00007FFFFFFFF
310
F000E0001FFFFFFFFFFF8000FFC000001FFC000FFF80007FC0003FFFFFFFFFFE
310
0001FFFFFFFFFFF8000001FFFE0000007FFFFFF0001FFFFFFC0007FFFFFFF000
310
1FFC0007FFFFFFF0001FFF0003FFFFFFFFF0001FFFFFFFFFF000E0003FFFFF00
310
03FF8001FFE000001FFC0007FF80007FC0007FFFFF0007FC0003FFFFF0003FF8
310
000001FFFE0000007FFFFFF0001FFFFFFC0003FFFFFFE0001FFC0003FFFFFFE0
310
001FFF0003FFFFFFFFF0003FFFFFFFFFF000E0003FFFFF0001FF8001FFE00000
310
1FFE0007FF80007FC0007FFFFE0003FC0007FFFFE0003FF8000001FFFE000000
310
7FFFFFF0001FFFFFFE0003FFFFFFE0003FFE0003FFFFFFE0003FFF0003FFFFFF
310
FFF0003FFFFF8001F000E0003FFFFF0001FF0001FFE000001FFE0007FF80007F
310
C0007FFFFE0003FC0007FFFFE0003FF8000001FFFE0000007FFFFFF0001FFFFF
310
FE0001FFFFFFC0003FFE0001FFFFFFC0003FFF0003FFFFFFFFF0003FFFFF0001
310
F000E0003FFFFF0003FF0001FFE000003FFE0007FF80007FC0007FFFFE0003FC
310
0007FFFFE0003FF8000001FFFE0000007FFFFFF0001FFFFFFF0001FFFFFFC000
310
7FFF0001FFFFFFC0007FFF0003FFFFFFFFF0003FFFFF0001F000E0003FFFFE00
310
03FF0003FFF000003FFE0003FF80007FC0007FFFFC0003FE0007FFFFE0003FF8
310
000001FFFE0000007FFFFFF0001FFFFFFF0000FFFFFF80007FFF0000FFFFFF80
310
007FFF0003FFFFFFFFF0003FFFFF0001F000E0003FFFFE0003FF0003FFF00000
310
3FFF0003FF80007FC0007FFFFC0007FE0007FFFFC0003FF8000001FFFE000000
310
7FFFFFF0001FFFFFFF80007FFFFF0000FFFF80007FFFFF0000FFFF0003FFFFFF
310
FFF0003FFFFF0003F000E0003FFFFC0003FE0003FFF000003FFF0003FF80007F
310
E0003FFFF80007FE0003FFFFC0007FF8000001FFFE0000007FFFFFF0001FFFFF
310
FF80003FFFFE0000FFFF80003FFFFE0000FFFF0003FFFFFFFFF0001FFFFE0003
310
F000F0001FFFF80003FE0003FFF000007FFF0001FF80007FE0003FFFF00007FE
310
0001FFFF80007FF8000001FFFE0000007FFFFFF0001FFFFFFFC0000FFFF80001
310
FFFFC0000FFFF80001FFFF0003FFFFFFFFF0001FFFFC0003F000F0000FFFF000
310
07FE0007FFF800007FFF0001FF80007FE0001FFFE00007FF0000FFFE00007FF8
310
000001FFFE0000007FFFFFF0001FFFFFFFC00003FFE00001FFFFC00003FFE000
310
01FFFF0003FFFFFFFFF8000FFFF80003F000F00003FFC00007FC0007FFF80000
310
7FFF8001FF80007FF00007FF80000FFF00007FF80000FFF8000001FFFE000000
310
7F80000000000001FFE000003E000003FFFFE000003E000003FFFF0003FFFFFF
310
FFF80003FFE00007F000F800000000000FFC0007FFF800007FFF8001FF80007F
310
F000000000000FFF000000000000FFF8000001FFFE0000007F80000000000001
310
FFF0000000000007FFFFF0000000000007FFFF0003FFFFFFFFFC00007E000007
310
F000F800000000000FFC0007FFF80000FFFF8000FF80007FF800000000001FFF
310
800000000001FFF8000001FFFE0000007F80000000000001FFF800000000000F
310
FFFFF800000000000FFFFF0003FFFFFFFFFC00000000000FF000FC0000000000
310
1FFC0007FFFC0000FFFF8000FF80007FF800000000003FFFC00000000001FFF8
310
000001FFFE0000007F80000000000001FFF800000000000FFFFFF80000000000
310
0FFFFF0003FFFFFFFFFE00000000001FF000FE00000000003FF8000FFFFC0000
310
FFFF8000FF80007FFC00000000003FFFC00000000003FFF8000001FFFE000000
310
7F80000000000001FFFC00000000001FFFFFFC00000000001FFFFF0003FFFFFF
310
FFFF00000000001FF000FF00000000003FF8000FFFFC0000FFFFC000FF80007F
310
FE00000000007FFFE00000000007FFF8000001FFFE0000007F80000000000001
310
FFFE00000000003FFFFFFE00000000003FFFFF0003FFFFFFFFFF80000000003F
310
F000FF80000000007FF8000FFFFC0001FFFFC0007F80007FFF0000000000FFFF
310
F0000000000FFFF800000000000000007F80000000000001FFFF8000000000FF
310
FFFFFF8000000000FFFFFF0003FFFFFFFFFFC0000000007FF000FFC000000000
310
FFF8000FFFFE0001FFFFC0007F80007FFF8000000001FFFFF8000000001FFFF8
310
00000000000000007F80000000000001FFFFC000000001FFFFFFFFC000000001
310
FFFFFF0003FFFFFFFFFFE000000000FFF000FFE000000003FFF0001FFFFE0001
310
FFFFC0007F80007FFFC000000007FFFFFE000000003FFFF80000000000000000
310
7F80000000000001FFFFE000000003FFFFFFFFE000000003FFFFFF0003FFFFFF
310
FFFFF000000003FFF000FFF80000000FFFF0001FFFFE0001FFFFE0007F80007F
310
FFF00000000FFFFFFF00000000FFFFF800000000000000007F80000000000001
310
FFFFF80000000FFFFFFFFFF80000000FFFFFFF0003FFFFFFFFFFFC0000000FFF
310
F000FFFE0000003FFFF0001FFFFE0003FFFFE0003F80007FFFFC0000003FFFFF
310
FFC0000003FFFFF800000000000000007F80000000000001FFFFFE0000003FFF
310
FFFFFFFE0000003FFFFFFF0003FFFFFFFFFFFF0000003FFFF000FFFF800000FF
310
FFF0001FFFFF0003FFFFE0003F80007FFFFF000001FFFFFFFFF800001FFFFFF8
310
00000000000000007F80000000000001FFFFFFC00001FFFFFFFFFFFFC00001FF
310
FFFFFF0003FFFFFFFFFFFFC00000FFFFF000FFFFF8000FFFFFFFFFFFFFFFFFFF
310
FFFFFFFFFFFFFFFFFFFFF0001FFFFFFFFFFF0000FFFFFFF80000000000000000
310
7FFFFFFFFFFFFFFFFFFFFFFC001FFFFFFFFFFFFFFC001FFFFFFFFFFFFFFFFFFF
310
FFFFFFFC001FFFFFF000FFFFFFFFFFFFFFFFFFFFFFFFFFFFFFFFFFFFFFFFFFFF
310
FFFFFFFFFFFFFFFFFFFFFFFFFFFFFFFFFFFFFFFFFFFFFFFFFFFFFFFFFFFFFFFF
310
FFFFFFFFFFFFFFFFFFFFFFFFFFFFFFFFFFFFFFFFFFFFFFFFFFFFFFFFFFFFFFFF
310
F000FFFFFFFFFFFFFFFFFFFFFFFFFFFFFFFFFFFFFFFFFFFFFFFFFFFFFFFFFFFF
310
FFFFFFFFFFFFFFFFFFFFFFFFFFFFFFFFFFFFFFFFFFFFFFFFFFFFFFFFFFFFFFFF
310
FFFFFFFFFFFFFFFFFFFFFFFFFFFFFFFFFFFFFFFFFFFFFFFFF000FFFFFFFFFFFF
310
FFFFFFFFFFFFFFFFFFFFFFFFFFFFFFFFFFFFFFFFFFFFFFFFFFFFFFFFFFFFFFFF
310
FFFFFFFFFFFFFFFFFFFFFFFFFFFFFFFFFFFFFFFFFFFFFFFFFFFFFFFFFFFFFFFF
310
FFFFFFFFFFFFFFFFFFFFFFFFFFFFFFFFF000FFFFFFFFFFFFFFFFFFFFFFFFFFFF
310
FFFFFFFFFFFFFFFFFFFFFFFFFFFFFFFFFFFFFFFFFFFFFFFFFFFFFFFFFFFFFFFF
310
FFFFFFFFFFFFFFFFFFFFFFFFFFFFFFFFFFFFFFFFFFFFFFFFFFFFFFFFFFFFFFFF
310
FFFFFFFFFFFFFFFFF000FFFFFFFFFFFFFFFFFFFFFFFFFFFFFFFFFFFFFFFFFFFF
310
FFFFFFFFFFFFFFFFFFFFFFFFFFFFFFFFFFFFFFFFFFFFFFFFFFFFFFFFFFFFFFFF
310
FFFFFFFFFFFFFFFFFFFFFFFFFFFFFFFFFFFFFFFFFFFFFFFFFFFFFFFFFFFFFFFF
310
F000FFFFFFFFFFFFFFFFFFFFFFFFFFFFFFFFFFFFFFFFFFFFFFFFFFFFFFFFFFFF
310
FFFFFFFFFFFFFFFFFFFFFFFFFFFFFFFFFFFFFFFFFFFFFFFFFFFFFFFFFFFFFFFF
310
FFFFFFFFFFFFFFFFFFFFFFFFFFFFFFFFFFFFFFFFFFFFFFFFF000FFFFFFFFFFFF
310
FFFFFFFFFFFFFFFFFFFFFFFFFFFFFFFFFFFFFFFFFFFFFFFFFFFFFFFFFFFFFFFF
310
FFFFFFFFFFFFFFFFFFFFFFFFFFFFFFFFFFFFFFFFFFFFFFFFFFFFFFFFFFFFFFFF
310
FFFFFFFFFFFFFFFFFFFFFFFFFFFFFFFFF000FFFFFFFFFFFFFFFFFFFFFFFFFFFF
310
FFFFFFFFFFFFFFFFFFFFFFFFFFFFFFFFFFFFFFFFFFFFFFFFFFFFFFFFFFFFFFFF
310
FFFFFFFFFFFFFFFFFFFFFFFFFFFFFFFFFFFFFFFFFFFFFFFFFFFFFFFFFFFFFFFF
310
FFFFFFFFFFFFFFFFF000FFFFFFFFFFFFFFFFFFFFFFFFFFFFFFFFFFFFFFFFFFFF
310
FFFFFFFFFFFFFFFFFFFFFFFFFFFFFFFFFFFFFFFFFFFFFFFFFFFFFFFFFFFFFFFF
310
FFFFFFFFFFFFFFFFFFFFFFFFFFFFFFFFFFFFFFFFFFFFFFFFFFFFFFFFFFFFFFFF
310
F000FFFFFFFFFFFFFFFFFFFFFFFFFFFFFFFFFFFFFFFFFFFFFFFFFFFFFFFFFFFF
310
FFFFFFFFFFFFFFFFFFFFFFFFFFFFFFFFFFFFFFFFFFFFFFFFFFFFFFFFFFFFFFFF
310
FFFFFFFFFFFFFFFFFFFFFFFFFFFFFFFFFFFFFFFFFFFFFFFFF000FFFFFFFFFFFF
310
FFFFFFFFFFFFFFFFFFFFFFFFFFFFFFFFFFFFFFFFFFFFFFFFFFFFFFFFFFFFFFFF
310
FFFFFFFFFFFFFFFFFFFFFFFFFFFFFFFFFFFFFFFFFFFFFFFFFFFFFFFFFFFFFFFF
310
FFFFFFFFFFFFFFFFFFFFFFFFFFFFFFFFF000FFFFFFFFFFFFFFFFFFFFFFFFFFFF
310
FFFFFFFFFFFFFFFFFFFFFFFFFFFFFFFFFFFFFFFFFFFFFFFFFFFFFFFFFFFFFFFF
310
FFFFFFFFFFFFFFFFFFFFFFFFFFFFFFFFFFFFFFFFFFFFFFFFFFFFFFFFFFFFFFFF
310
FFFFFFFFFFFFFFFFF000FFFFFFFFFFFFFFFFFFFFFFFFFFFFFFFFFFFFFFFFFFFF
310
FFFFFFFFFFFFFFFFFFFFFFFFFFFFFFFFFFFFFFFFFFFFFFFFFFFFFFFFFFFFFFFF
310
FFFFFFFFFFFFFFFFFFFFFFFFFFFFFFFFFFFFFFFFFFFFFFFFFFFFFFFFFFFFFFFF
310
F000FFFFFFFFFFFFFFFFFFFFFFFFFFFFFFFFFFFFFFFFFFFFFFFFFFFFFFFFFFFF
310
FFFFFFFFFFFFFFFFFFFFFFFFFFFFFFFFFFFFFFFFFFFFFFFFFFFFFFFFFFFFFFFF
310
FFFFFFFFFFFFFFFFFFFFFFFFFFFFFFFFFFFFFFFFFFFFFFFFF000FFFFFFFFFFFF
310
FFFFFFFFFFFFFFFFFFFFFFFFFFFFFFFFFFFFFFFFFFFFFFFFFFFFFFFFFFFFFFFF
310
FFFFFFFFFFFFFFFFFFFFFFFFFFFFFFFFFFFFFFFFFFFFFFFFFFFFFFFFFFFFFFFF
310
FFFFFFFFFFFFFFFFFFFFFFFFFFFFFFFFF000FFFFFFFFFFFFFFFFFFFFFFFFFFFF
310
FFFFFFFFFFFFFFFFFFFFFFFFFFFFFFFFFFFFFFFFFFFFFFFFFFFFFFFFFFFFFFFF
310
FFFFFFFFFFFFFFFFFFFFFFFFFFFFFFFFFFFFFFFFFFFFFFFFFFFFFFFFFFFFFFFF
310
FFFFFFFFFFFFFFFFF000FFFFFFFFFFFFFFFFFFFFFFFFFFFFFFFFFFFFFFFFFFFF
310
FFFFFFFFFFFFFFFFFFFFFFFFFFFFFFFFFFFFFFFFFFFFFFFFFFFFFFFFFFFFFFFF
310
FFFFFFFFFFFFFFFFFFFFFFFFFFFFFFFFFFFFFFFFFFFFFFFFFFFFFFFFFFFFFFFF
310
F000FFFFFFFFFFFFFFFFFFFFFFFFFFFFFFFFFFFFFFFFFFFFFFFFFFFFFFFFFFFF
310
FFFFFFFFFFFFFFFFFFFFFFFFFFFFFFFFFFFFFFFFFFFFFFFFFFFFFFFFFFFFFFFF
310
FFFFFFFFFFFFFFFFFFFFFFFFFFFFFFFFFFFFFFFFFFFFFFFFF000FFFFFFFFFFFF
310
FFFFFFFFFFFFFFFFFFFFFFFFFFFFFFFFFFFFFFFFFFFFFFFFFFFFFFFFFFFFFFFF
310
FFFFFFFFFFFFFFFFFFFFFFFFFFFFFFFFFFFFFFFFFFFFFFFFFFFFFFFFFFFFFFFF
310
FFFFFFFFFFFFFFFFFFFFFFFFFFFFFFFFF000FFFFFFFFFFFFFFFFFFFFFFFFFFFF
310
FFFFFFFFFFFFFFFFFFFFFFFFFFFFFFFFFFFFFFFFFFFFFFFFFFFFFFFFFFFFFFFF
310
FFFFFFFFFFFFFFFFFFFFFFFFFFFFFFFFFFFFFFFFFFFFFFFFFFFFFFFFFFFFFFFF
310
FFFFFFFFFFFFFFFFF000FFFFFFFFFFFFFFFFFFFFFFFFFFFFFFFFFFFFFFFFFFFF
310
FFFFFFFFFFFFFFFFFFFFFFFFFFFFFFFFFFFFFFFFFFFFFFFFFFFFFFFFFFFFFFFF
310
FFFFFFFFFFFFFFFFFFFFFFFFFFFFFFFFFFFFFFFFFFFFFFFFFFFFFFFFFFFFFFFF
310
F000FFFFFFFFFFFFFFFFFFFFFFFFFFFFFFFFFFFFFFFFFFFFFFFFFFFFFFFFFFFF
310
FFFFFFFFFFFFFFFFFFFFFFFFFFFFFFFFFFFFFFFFFFFFFFFFFFFFFFFFFFFFFFFF
310
FFFFFFFFFFFFFFFFFFFFFFFFFFFFFFFFFFFFFFFFFFFFFFFFF000FFFFFFFFFFFF
310
FFFFFFFFFFFFFFFFFFFFFFFFFFFFFFFFFFFFFFFFFFFFFFFFFFFFFFFFFFFFFFFF
310
FFFFFFFFFFFFFFFFFFFFFFFFFFFFFFFFFFFFFFFFFFFFFFFFFFFFFFFFFFFFFFFF
310
FFFFFFFFFFFFFFFFFFFFFFFFFFFFFFFFF0000000000000000000000000000000
310
000000001C7B04BFAEE25ABF0000000000000000000000000000000000007F43
310
050000000000000028000000000000000000000000000000407B8A6400000000
310
0900000000000000000000000000000070BD2600000000000000000000000000
310
0000000000000000000000000000000000000000000000000000000000000000
310
4000000000000000C8738A64000000000000000000000000BC46183F945DD1BE
310
664A853D0000803FCA3F2047152D2047A654884E0000803F903E8B6400000000
310
70738A64000000003263E33CFF0A35BF2EDB34BF000000000000000000000000
310
0000000000007F43050000000000000028000000000000000000000000000000
310
787A8A64000000000700000000000000000000000000000070BD260000000000
310
0000000000000000000000000000000000000000000000000000000000000000
310
0000000000000000400000000000000090748A64000000000000000000000000
310
5F9FB73EBCB080BE2BABD03D0000803F583620470B282047B30A8D4E0000803F
310
C83D8B640000000038748A6400000000D7B35D3F000000000000003F00000000
310
00000000000000000000000000007F430500000000000000C004000000000000
310
000000000000000020788A640000000003000000000000000000000000000000
  1
OLE
  0
ENDSEC
  0
SECTION
  2
OBJECTS
  0
DICTIONARY
  5
C
330
0
100
AcDbDictionary
281
     1
  3
ACAD_GROUP
350
D
  3
ACAD_LAYOUT
350
1A
  3
ACAD_MLEADERSTYLE
350
23C
  3
ACAD_MLINESTYLE
350
17
  3
ACAD_PLOTSETTINGS
350
19
  3
ACAD_PLOTSTYLENAME
350
E
  3
ACAD_TABLESTYLE
350
23B
  3
ACAD_VISUALSTYLE
350
2A
  3
AcDbVariableDictionary
350
23D
  0
DICTIONARY
  5
D
102
{ACAD_REACTORS
330
C
102
}
330
C
100
AcDbDictionary
281
     1
  0
DICTIONARY
  5
1A
102
{ACAD_REACTORS
330
C
102
}
330
C
100
AcDbDictionary
281
     1
  3
Layout1
350
1E
  3
Layout2
350
26
  3
Model
350
22
  0
DICTIONARY
  5
23C
102
{ACAD_REACTORS
330
C
102
}
330
C
100
AcDbDictionary
281
     1
  0
DICTIONARY
  5
17
102
{ACAD_REACTORS
330
C
102
}
330
C
100
AcDbDictionary
281
     1
  3
Standard
350
18
  0
DICTIONARY
  5
19
102
{ACAD_REACTORS
330
C
102
}
330
C
100
AcDbDictionary
281
     1
  0
ACDBDICTIONARYWDFLT
  5
E
102
{ACAD_REACTORS
330
C
102
}
330
C
100
AcDbDictionary
281
     1
  3
Normal
350
F
100
AcDbDictionaryWithDefault
340
F
  0
DICTIONARY
  5
23B
102
{ACAD_REACTORS
330
C
102
}
330
C
100
AcDbDictionary
281
     1
  0
DICTIONARY
  5
2A
102
{ACAD_REACTORS
330
C
102
}
330
C
100
AcDbDictionary
281
     1
  3
2dWireframe
350
2F
  3
3D Hidden
350
31
  3
3dWireframe
350
30
  3
Basic
350
32
  3
Brighten
350
36
  3
ColorChange
350
3A
  3
Conceptual
350
34
  3
Dim
350
35
  3
Facepattern
350
39
  3
Flat
350
2B
  3
FlatWithEdges
350
2C
  3
Gouraud
350
2D
  3
GouraudWithEdges
350
2E
  3
Linepattern
350
38
  3
Realistic
350
33
  3
Thicken
350
37
  0
DICTIONARY
  5
23D
102
{ACAD_REACTORS
330
C
102
}
330
C
100
AcDbDictionary
281
     1
  3
PSOLHEIGHT
350
23F
  3
PSOLWIDTH
350
23E
  0
LAYOUT
  5
1E
102
{ACAD_REACTORS
330
1A
102
}
330
1A
100
AcDbPlotSettings
  1

  2
none_device
  4

  6

 40
0.0
 41
0.0
 42
0.0
 43
0.0
 44
0.0
 45
0.0
 46
0.0
 47
0.0
 48
0.0
 49
0.0
140
0.0
141
0.0
142
1.0
143
1.0
 70
   688
 72
     0
 73
     0
 74
     5
  7

 75
    16
147
1.0
148
0.0
149
0.0
100
AcDbLayout
  1
Layout1
 70
     1
 71
     1
 10
0.0
 20
0.0
 11
420.0
 21
297.0
 12
0.0
 22
0.0
 32
0.0
 14
1.0000000000E+20
 24
1.0000000000E+20
 34
1.0000000000E+20
 15
-1.0000000000E+20
 25
-1.0000000000E+20
 35
-1.0000000000E+20
146
0.0
 13
0.0
 23
0.0
 33
0.0
 16
1.0
 26
0.0
 36
0.0
 17
0.0
 27
1.0
 37
0.0
 76
     0
330
1B
  0
LAYOUT
  5
26
102
{ACAD_REACTORS
330
1A
102
}
330
1A
100
AcDbPlotSettings
  1

  2
none_device
  4

  6

 40
0.0
 41
0.0
 42
0.0
 43
0.0
 44
0.0
 45
0.0
 46
0.0
 47
0.0
 48
0.0
 49
0.0
140
0.0
141
0.0
142
1.0
143
1.0
 70
   688
 72
     0
 73
     0
 74
     5
  7

 75
    16
147
1.0
148
0.0
149
0.0
100
AcDbLayout
  1
Layout2
 70
     1
 71
     2
 10
0.0
 20
0.0
 11
0.0
 21
0.0
 12
0.0
 22
0.0
 32
0.0
 14
0.0
 24
0.0
 34
0.0
 15
0.0
 25
0.0
 35
0.0
146
0.0
 13
0.0
 23
0.0
 33
0.0
 16
1.0
 26
0.0
 36
0.0
 17
0.0
 27
1.0
 37
0.0
 76
     0
330
23
  0
LAYOUT
  5
22
102
{ACAD_REACTORS
330
1A
102
}
330
1A
100
AcDbPlotSettings
  1

  2
none_device
  4

  6

 40
0.0
 41
0.0
 42
0.0
 43
0.0
 44
0.0
 45
0.0
 46
0.0
 47
0.0
 48
0.0
 49
0.0
140
0.0
141
0.0
142
1.0
143
1.0
 70
  1712
 72
     0
 73
     0
 74
     0
  7

 75
     0
147
1.0
148
0.0
149
0.0
100
AcDbLayout
  1
Model
 70
     1
 71
     0
 10
0.0
 20
0.0
 11
297.0
 21
210.0
 12
0.0
 22
0.0
 32
0.0
 14
0.0
 24
0.0
 34
0.0
 15
297.0
 25
210.0
 35
0.0
146
0.0
 13
0.0
 23
0.0
 33
0.0
 16
1.0
 26
0.0
 36
0.0
 17
0.0
 27
1.0
 37
0.0
 76
     0
330
1F
331
29
  0
MLINESTYLE
  5
18
102
{ACAD_REACTORS
330
17
102
}
330
17
100
AcDbMlineStyle
  2
Standard
 70
     0
  3

 62
   256
 51
90.0
 52
90.0
 71
     2
 49
0.5
 62
   256
  6
BYLAYER
 49
-0.5
 62
   256
  6
BYLAYER
  0
ACDBPLACEHOLDER
  5
F
102
{ACAD_REACTORS
330
E
102
}
330
E
  0
VISUALSTYLE
  5
2F
102
{ACAD_REACTORS
330
2A
102
}
330
2A
100
AcDbVisualStyle
  2
2dWireframe
 70
     4
 71
     0
 72
     2
 73
     0
 90
        0
 40
-0.6
 41
-30.0
 62
     5
 63
     7
 74
     1
 91
        4
 64
     7
 65
   257
 75
     1
175
     1
 42
1.0
 92
        0
 66
   257
 43
1.0
 76
     1
 77
     6
 78
     2
 67
     7
 79
     5
170
     0
171
     0
290
     0
174
     0
 93
        1
 44
0.0
173
     0
291
     0
 45
0.0
1001
ACAD
1000
AcDbSavedByObjectVersion
1070
     0
  0
VISUALSTYLE
  5
31
102
{ACAD_REACTORS
330
2A
102
}
330
2A
100
AcDbVisualStyle
  2
3D Hidden
 70
     6
 71
     1
 72
     2
 73
     2
 90
        0
 40
-0.6
 41
-30.0
 62
     5
 63
     7
 74
     2
 91
        2
 64
     7
 65
   257
 75
     2
175
     1
 42
40.0
 92
        0
 66
   257
 43
1.0
 76
     1
 77
     6
 78
     2
 67
     7
 79
     3
170
     0
171
     0
290
     0
174
     0
 93
        1
 44
0.0
173
     0
291
     0
 45
0.0
1001
ACAD
1000
AcDbSavedByObjectVersion
1070
     0
  0
VISUALSTYLE
  5
30
102
{ACAD_REACTORS
330
2A
102
}
330
2A
100
AcDbVisualStyle
  2
3dWireframe
 70
     5
 71
     0
 72
     2
 73
     0
 90
        0
 40
-0.6
 41
-30.0
 62
     5
 63
     7
 74
     1
 91
        4
 64
     7
 65
   257
 75
     1
175
     1
 42
1.0
 92
        0
 66
   257
 43
1.0
 76
     1
 77
     6
 78
     2
 67
     7
 79
     5
170
     0
171
     0
290
     0
174
     0
 93
        1
 44
0.0
173
     0
291
     0
 45
0.0
1001
ACAD
1000
AcDbSavedByObjectVersion
1070
     0
  0
VISUALSTYLE
  5
32
102
{ACAD_REACTORS
330
2A
102
}
330
2A
100
AcDbVisualStyle
  2
Basic
 70
     7
 71
     1
 72
     0
 73
     1
 90
        0
 40
-0.6
 41
-30.0
 62
     5
 63
     7
 74
     0
 91
        4
 64
     7
 65
   257
 75
     1
175
     1
 42
1.0
 92
        8
 66
     7
 43
1.0
 76
     1
 77
     6
 78
     2
 67
     7
 79
     5
170
     0
171
     0
290
     0
174
     0
 93
        1
 44
0.0
173
     0
291
     1
 45
0.0
1001
ACAD
1000
AcDbSavedByObjectVersion
1070
     0
  0
VISUALSTYLE
  5
36
102
{ACAD_REACTORS
330
2A
102
}
330
2A
100
AcDbVisualStyle
  2
Brighten
 70
    12
 71
     2
 72
     2
 73
     0
 90
        0
 40
-0.6
 41
-30.0
 62
     5
 63
     7
 74
     1
 91
        4
 64
     7
 65
   257
 75
     1
175
     1
 42
1.0
 92
        8
 66
     7
 43
1.0
 76
     1
 77
     6
 78
     2
 67
     7
 79
     5
170
     0
171
     0
290
     0
174
     0
 93
        1
 44
50.0
173
     0
291
     1
 45
0.0
1001
ACAD
1000
AcDbSavedByObjectVersion
1070
     0
  0
VISUALSTYLE
  5
3A
102
{ACAD_REACTORS
330
2A
102
}
330
2A
100
AcDbVisualStyle
  2
ColorChange
 70
    16
 71
     2
 72
     2
 73
     3
 90
        0
 40
-0.6
 41
-30.0
 62
     5
 63
     8
 74
     1
 91
        4
 64
     7
 65
   257
 75
     1
175
     1
 42
1.0
 92
        8
 66
     8
 43
1.0
 76
     1
 77
     6
 78
     2
 67
     7
 79
     5
170
     0
171
     0
290
     0
174
     0
 93
        1
 44
0.0
173
     0
291
     1
 45
0.0
1001
ACAD
1000
AcDbSavedByObjectVersion
1070
     0
  0
VISUALSTYLE
  5
34
102
{ACAD_REACTORS
330
2A
102
}
330
2A
100
AcDbVisualStyle
  2
Conceptual
 70
     9
 71
     3
 72
     2
 73
     0
 90
        0
 40
-0.6
 41
-30.0
 62
     5
 63
     7
 74
     2
 91
        2
 64
     7
 65
   257
 75
     1
175
     1
 42
40.0
 92
        8
 66
     7
 43
1.0
 76
     1
 77
     6
 78
     2
 67
     7
 79
     3
170
     0
171
     0
290
     0
174
     0
 93
        1
 44
0.0
173
     0
291
     0
 45
0.0
1001
ACAD
1000
AcDbSavedByObjectVersion
1070
     0
  0
VISUALSTYLE
  5
35
102
{ACAD_REACTORS
330
2A
102
}
330
2A
100
AcDbVisualStyle
  2
Dim
 70
    11
 71
     2
 72
     2
 73
     0
 90
        0
 40
-0.6
 41
-30.0
 62
     5
 63
     7
 74
     1
 91
        4
 64
     7
 65
   257
 75
     1
175
     1
 42
1.0
 92
        8
 66
     7
 43
1.0
 76
     1
 77
     6
 78
     2
 67
     7
 79
     5
170
     0
171
     0
290
     0
174
     0
 93
        1
 44
-50.0
173
     0
291
     1
 45
0.0
1001
ACAD
1000
AcDbSavedByObjectVersion
1070
     0
  0
VISUALSTYLE
  5
39
102
{ACAD_REACTORS
330
2A
102
}
330
2A
100
AcDbVisualStyle
  2
Facepattern
 70
    15
 71
     2
 72
     2
 73
     0
 90
        0
 40
-0.6
 41
-30.0
 62
     5
 63
     7
 74
     1
 91
        4
 64
     7
 65
   257
 75
     1
175
     1
 42
1.0
 92
        8
 66
     7
 43
1.0
 76
     1
 77
     6
 78
     2
 67
     7
 79
     5
170
     0
171
     0
290
     0
174
     0
 93
        1
 44
0.0
173
     0
291
     1
 45
0.0
1001
ACAD
1000
AcDbSavedByObjectVersion
1070
     0
  0
VISUALSTYLE
  5
2B
102
{ACAD_REACTORS
330
2A
102
}
330
2A
100
AcDbVisualStyle
  2
Flat
 70
     0
 71
     2
 72
     1
 73
     1
 90
        2
 40
-0.6
 41
30.0
 62
     5
 63
     7
 74
     0
 91
        4
 64
     7
 65
   257
 75
     1
175
     1
 42
1.0
 92
        8
 66
     7
 43
1.0
 76
     1
 77
     6
 78
     2
 67
     7
 79
     5
170
     0
171
     0
290
     0
174
     0
 93
       13
 44
0.0
173
     0
291
     1
 45
0.0
1001
ACAD
1000
AcDbSavedByObjectVersion
1070
     0
  0
VISUALSTYLE
  5
2C
102
{ACAD_REACTORS
330
2A
102
}
330
2A
100
AcDbVisualStyle
  2
FlatWithEdges
 70
     1
 71
     2
 72
     1
 73
     1
 90
        2
 40
-0.6
 41
30.0
 62
     5
 63
     7
 74
     1
 91
        4
 64
     7
 65
   257
 75
     1
175
     1
 42
1.0
 92
        0
 66
   257
 43
1.0
 76
     1
 77
     6
 78
     2
 67
     7
 79
     5
170
     0
171
     0
290
     0
174
     0
 93
       13
 44
0.0
173
     0
291
     1
 45
0.0
1001
ACAD
1000
AcDbSavedByObjectVersion
1070
     0
  0
VISUALSTYLE
  5
2D
102
{ACAD_REACTORS
330
2A
102
}
330
2A
100
AcDbVisualStyle
  2
Gouraud
 70
     2
 71
     2
 72
     2
 73
     1
 90
        2
 40
-0.6
 41
30.0
 62
     5
 63
     7
 74
     0
 91
        4
 64
     7
 65
   257
 75
     1
175
     1
 42
1.0
 92
        0
 66
     7
 43
1.0
 76
     1
 77
     6
 78
     2
 67
     7
 79
     5
170
     0
171
     0
290
     0
174
     0
 93
       13
 44
0.0
173
     0
291
     1
 45
0.0
1001
ACAD
1000
AcDbSavedByObjectVersion
1070
     0
  0
VISUALSTYLE
  5
2E
102
{ACAD_REACTORS
330
2A
102
}
330
2A
100
AcDbVisualStyle
  2
GouraudWithEdges
 70
     3
 71
     2
 72
     2
 73
     1
 90
        2
 40
-0.6
 41
30.0
 62
     5
 63
     7
 74
     1
 91
        4
 64
     7
 65
   257
 75
     1
175
     1
 42
1.0
 92
        0
 66
   257
 43
1.0
 76
     1
 77
     6
 78
     2
 67
     7
 79
     5
170
     0
171
     0
290
     0
174
     0
 93
       13
 44
0.0
173
     0
291
     1
 45
0.0
1001
ACAD
1000
AcDbSavedByObjectVersion
1070
     0
  0
VISUALSTYLE
  5
38
102
{ACAD_REACTORS
330
2A
102
}
330
2A
100
AcDbVisualStyle
  2
Linepattern
 70
    14
 71
     2
 72
     2
 73
     0
 90
        0
 40
-0.6
 41
-30.0
 62
     5
 63
     7
 74
     1
 91
        4
 64
     7
 65
   257
 75
     7
175
     7
 42
1.0
 92
        8
 66
     7
 43
1.0
 76
     1
 77
     6
 78
     2
 67
     7
 79
     5
170
     0
171
     0
290
     0
174
     0
 93
        1
 44
0.0
173
     0
291
     1
 45
0.0
1001
ACAD
1000
AcDbSavedByObjectVersion
1070
     0
  0
VISUALSTYLE
  5
33
102
{ACAD_REACTORS
330
2A
102
}
330
2A
100
AcDbVisualStyle
  2
Realistic
 70
     8
 71
     2
 72
     2
 73
     0
 90
        0
 40
-0.6
 41
-30.0
 62
     5
 63
     7
 74
     1
 91
        0
 64
     7
 65
   257
 75
     1
175
     1
 42
1.0
 92
        8
 66
     8
 43
1.0
 76
     1
 77
     6
 78
     2
 67
     7
 79
     5
170
     0
171
     0
290
     0
174
     0
 93
       13
 44
0.0
173
     0
291
     0
 45
0.0
1001
ACAD
1000
AcDbSavedByObjectVersion
1070
     0
  0
VISUALSTYLE
  5
37
102
{ACAD_REACTORS
330
2A
102
}
330
2A
100
AcDbVisualStyle
  2
Thicken
 70
    13
 71
     2
 72
     2
 73
     0
 90
        0
 40
-0.6
 41
-30.0
 62
     5
 63
     7
 74
     1
 91
        4
 64
     7
 65
   257
 75
     1
175
     1
 42
1.0
 92
       12
 66
     7
 43
1.0
 76
     1
 77
     6
 78
     2
 67
     7
 79
     5
170
     0
171
     0
290
     0
174
     0
 93
        1
 44
0.0
173
     0
291
     1
 45
0.0
1001
ACAD
1000
AcDbSavedByObjectVersion
1070
     0
  0
DICTIONARYVAR
  5
23F
102
{ACAD_REACTORS
330
23D
102
}
330
23D
100
DictionaryVariables
280
     0
  1
80.000000
  0
DICTIONARYVAR
  5
23E
102
{ACAD_REACTORS
330
23D
102
}
330
23D
100
DictionaryVariables
280
     0
  1
5.000000
  0
ENDSEC
  0
EOF
