  0
SECTION
  2
HEADER
  9
$ACADVER
  1
AC1015
  9
$ACADMAINTVER
 70
     6
  9
$DWGCODEPAGE
  3
ANSI_1252
  9
$INSBASE
 10
0.0
 20
0.0
 30
0.0
  9
$EXTMIN
 10
0.0
 20
0.0
 30
0.0
  9
$EXTMAX
 10
297.0
 20
210.0
 30
0.0
  9
$LIMMIN
 10
0.0
 20
0.0
  9
$LIMMAX
 10
297.0
 20
210.0
  9
$ORTHOMODE
 70
     0
  9
$REGENMODE
 70
     1
  9
$FILLMODE
 70
     1
  9
$QTEXTMODE
 70
     0
  9
$MIRRTEXT
 70
     1
  9
$LTSCALE
 40
1.0
  9
$ATTMODE
 70
     1
  9
$TEXTSIZE
 40
2.0
  9
$TRACEWID
 40
1.0
  9
$TEXTSTYLE
  7
Standard
  9
$CLAYER
  8
0
  9
$CELTYPE
  6
ByLayer
  9
$CECOLOR
 62
   256
  9
$CELTSCALE
 40
1.0
  9
$DISPSILH
 70
     0
  9
$DIMSCALE
 40
1.0
  9
$DIMASZ
 40
3.0
  9
$DIMEXO
 40
0.0
  9
$DIMDLI
 40
3.75
  9
$DIMRND
 40
0.0
  9
$DIMDLE
 40
0.0
  9
$DIMEXE
 40
1.0
  9
$DIMTP
 40
0.0
  9
$DIMTM
 40
0.0
  9
$DIMTXT
 40
2.0
  9
$DIMCEN
 40
2.5
  9
$DIMTSZ
 40
0.0
  9
$DIMTOL
 70
     0
  9
$DIMLIM
 70
     0
  9
$DIMTIH
 70
     1
  9
$DIMTOH
 70
     1
  9
$DIMSE1
 70
     0
  9
$DIMSE2
 70
     0
  9
$DIMTAD
 70
     1
  9
$DIMZIN
 70
     0
  9
$DIMBLK
  1

  9
$DIMASO
 70
     1
  9
$DIMSHO
 70
     1
  9
$DIMPOST
  1

  9
$DIMAPOST
  1

  9
$DIMALT
 70
     0
  9
$DIMALTD
 70
     3
  9
$DIMALTF
 40
0.0393700787
  9
$DIMLFAC
 40
1.0
  9
$DIMTOFL
 70
     1
  9
$DIMTVP
 40
0.0
  9
$DIMTIX
 70
     0
  9
$DIMSOXD
 70
     0
  9
$DIMSAH
 70
     0
  9
$DIMBLK1
  1

  9
$DIMBLK2
  1

  9
$DIMSTYLE
  2
ISO-25
  9
$DIMCLRD
 70
     0
  9
$DIMCLRE
 70
     0
  9
$DIMCLRT
 70
     0
  9
$DIMTFAC
 40
1.0
  9
$DIMGAP
 40
1.524
  9
$DIMJUST
 70
     0
  9
$DIMSD1
 70
     0
  9
$DIMSD2
 70
     0
  9
$DIMTOLJ
 70
     0
  9
$DIMTZIN
 70
     0
  9
$DIMALTZ
 70
     0
  9
$DIMALTTZ
 70
     0
  9
$DIMUPT
 70
     0
  9
$DIMDEC
 70
     2
  9
$DIMTDEC
 70
     3
  9
$DIMALTU
 70
     2
  9
$DIMALTTD
 70
     3
  9
$DIMTXSTY
  7
Standard
  9
$DIMAUNIT
 70
     0
  9
$DIMADEC
 70
     2
  9
$DIMALTRND
 40
0.0
  9
$DIMAZIN
 70
     0
  9
$DIMDSEP
 70
    44
  9
$DIMATFIT
 70
     3
  9
$DIMFRAC
 70
     0
  9
$DIMLDRBLK
  1

  9
$DIMLUNIT
 70
     2
  9
$DIMLWD
 70
    -2
  9
$DIMLWE
 70
    -2
  9
$DIMTMOVE
 70
     0
  9
$LUNITS
 70
     2
  9
$LUPREC
 70
     2
  9
$SKETCHINC
 40
1.0
  9
$FILLETRAD
 40
10.0
  9
$AUNITS
 70
     0
  9
$AUPREC
 70
     2
  9
$MENU
  1
.
  9
$ELEVATION
 40
0.0
  9
$PELEVATION
 40
0.0
  9
$THICKNESS
 40
0.0
  9
$LIMCHECK
 70
     0
  9
$CHAMFERA
 40
10.0
  9
$CHAMFERB
 40
10.0
  9
$CHAMFERC
 40
20.0
  9
$CHAMFERD
 40
0.0
  9
$SKPOLY
 70
     0
  9
$TDCREATE
 40
2455680.379588009
  9
$TDUCREATE
 40
2455680.296254676
  9
$TDUPDATE
 40
2455680.379588021
  9
$TDUUPDATE
 40
2455680.296254687
  9
$TDINDWG
 40
0.0000000116
  9
$TDUSRTIMER
 40
0.0000000116
  9
$USRTIMER
 70
     1
  9
$ANGBASE
 50
0.0
  9
$ANGDIR
 70
     0
  9
$PDMODE
 70
     0
  9
$PDSIZE
 40
-1.0
  9
$PLINEWID
 40
0.0
  9
$SPLFRAME
 70
     0
  9
$SPLINETYPE
 70
     6
  9
$SPLINESEGS
 70
     8
  9
$HANDSEED
  5
23E
  9
$SURFTAB1
 70
     6
  9
$SURFTAB2
 70
     6
  9
$SURFTYPE
 70
     6
  9
$SURFU
 70
     6
  9
$SURFV
 70
     6
  9
$UCSBASE
  2

  9
$UCSNAME
  2

  9
$UCSORG
 10
0.0
 20
0.0
 30
0.0
  9
$UCSXDIR
 10
1.0
 20
0.0
 30
0.0
  9
$UCSYDIR
 10
0.0
 20
1.0
 30
0.0
  9
$UCSORTHOREF
  2

  9
$UCSORTHOVIEW
 70
     0
  9
$UCSORGTOP
 10
0.0
 20
0.0
 30
0.0
  9
$UCSORGBOTTOM
 10
0.0
 20
0.0
 30
0.0
  9
$UCSORGLEFT
 10
0.0
 20
0.0
 30
0.0
  9
$UCSORGRIGHT
 10
0.0
 20
0.0
 30
0.0
  9
$UCSORGFRONT
 10
0.0
 20
0.0
 30
0.0
  9
$UCSORGBACK
 10
0.0
 20
0.0
 30
0.0
  9
$PUCSBASE
  2

  9
$PUCSNAME
  2

  9
$PUCSORG
 10
0.0
 20
0.0
 30
0.0
  9
$PUCSXDIR
 10
1.0
 20
0.0
 30
0.0
  9
$PUCSYDIR
 10
0.0
 20
1.0
 30
0.0
  9
$PUCSORTHOREF
  2

  9
$PUCSORTHOVIEW
 70
     0
  9
$PUCSORGTOP
 10
0.0
 20
0.0
 30
0.0
  9
$PUCSORGBOTTOM
 10
0.0
 20
0.0
 30
0.0
  9
$PUCSORGLEFT
 10
0.0
 20
0.0
 30
0.0
  9
$PUCSORGRIGHT
 10
0.0
 20
0.0
 30
0.0
  9
$PUCSORGFRONT
 10
0.0
 20
0.0
 30
0.0
  9
$PUCSORGBACK
 10
0.0
 20
0.0
 30
0.0
  9
$USERI1
 70
     0
  9
$USERI2
 70
     0
  9
$USERI3
 70
     0
  9
$USERI4
 70
     0
  9
$USERI5
 70
     0
  9
$USERR1
 40
0.0
  9
$USERR2
 40
0.0
  9
$USERR3
 40
0.0
  9
$USERR4
 40
0.0
  9
$USERR5
 40
0.0
  9
$WORLDVIEW
 70
     1
  9
$SHADEDGE
 70
     3
  9
$SHADEDIF
 70
    70
  9
$TILEMODE
 70
     1
  9
$MAXACTVP
 70
    64
  9
$PINSBASE
 10
0.0
 20
0.0
 30
0.0
  9
$PLIMCHECK
 70
     0
  9
$PEXTMIN
 10
1.0000000000E+20
 20
1.0000000000E+20
 30
1.0000000000E+20
  9
$PEXTMAX
 10
-1.0000000000E+20
 20
-1.0000000000E+20
 30
-1.0000000000E+20
  9
$PLIMMIN
 10
0.0
 20
0.0
  9
$PLIMMAX
 10
420.0
 20
297.0
  9
$UNITMODE
 70
     0
  9
$VISRETAIN
 70
     1
  9
$PLINEGEN
 70
     0
  9
$PSLTSCALE
 70
     1
  9
$TREEDEPTH
 70
  3020
  9
$CMLSTYLE
  2
Standard
  9
$CMLJUST
 70
     0
  9
$CMLSCALE
 40
20.0
  9
$PROXYGRAPHICS
 70
     1
  9
$MEASUREMENT
 70
     1
  9
$CELWEIGHT
370
    -1
  9
$ENDCAPS
280
     0
  9
$JOINSTYLE
280
     0
  9
$LWDISPLAY
290
     1
  9
$INSUNITS
 70
     4
  9
$HYPERLINKBASE
  1

  9
$STYLESHEET
  1

  9
$XEDIT
290
     1
  9
$CEPSNTYPE
380
     0
  9
$PSTYLEMODE
290
     1
  9
$FINGERPRINTGUID
  2
{ED4D9923-5880-40AB-BE5E-0785FFE0ADE0}
  9
$VERSIONGUID
  2
{FAEB1C32-E019-11D5-929B-00C0DF256EC4}
  9
$EXTNAMES
290
     1
  9
$PSVPSCALE
 40
0.0
  9
$OLESTARTUP
290
     0
  0
ENDSEC
  0
SECTION
  2
CLASSES
  0
CLASS
  1
ACDBDICTIONARYWDFLT
  2
AcDbDictionaryWithDefault
  3
ObjectDBX Classes
 90
        0
280
     0
281
     0
  0
CLASS
  1
VISUALSTYLE
  2
AcDbVisualStyle
  3
ObjectDBX Classes
 90
     4095
280
     0
281
     0
  0
CLASS
  1
DICTIONARYVAR
  2
AcDbDictionaryVar
  3
ObjectDBX Classes
 90
        0
280
     0
281
     0
  0
CLASS
  1
ACDBPLACEHOLDER
  2
AcDbPlaceHolder
  3
ObjectDBX Classes
 90
        0
280
     0
281
     0
  0
CLASS
  1
LAYOUT
  2
AcDbLayout
  3
ObjectDBX Classes
 90
        0
280
     0
281
     0
  0
ENDSEC
  0
SECTION
  2
TABLES
  0
TABLE
  2
VPORT
  5
8
330
0
100
AcDbSymbolTable
 70
     1
  0
VPORT
  5
29
330
8
100
AcDbSymbolTableRecord
100
AcDbViewportTableRecord
  2
*Active
 70
     0
 10
0.0
 20
0.0
 11
1.0
 21
1.0
 12
148.5
 22
105.0
 13
0.0
 23
0.0
 14
10.0
 24
10.0
 15
10.0
 25
10.0
 16
0.0
 26
0.0
 36
1.0
 17
0.0
 27
0.0
 37
0.0
 40
210.0
 41
1.4142857143
 42
50.0
 43
0.0
 44
0.0
 50
0.0
 51
0.0
 71
     0
 72
  2000
 73
     1
 74
     3
 75
     0
 76
     0
 77
     0
 78
     0
281
     0
 65
     1
110
0.0
120
0.0
130
0.0
111
1.0
121
0.0
131
0.0
112
0.0
122
1.0
132
0.0
 79
     0
146
0.0
  0
ENDTAB
  0
TABLE
  2
LTYPE
  5
5
330
0
100
AcDbSymbolTable
 70
     6
  0
LTYPE
  5
14
330
5
100
AcDbSymbolTableRecord
100
AcDbLinetypeTableRecord
  2
ByBlock
 70
     0
  3

 72
    65
 73
     0
 40
0.0
  0
LTYPE
  5
15
330
5
100
AcDbSymbolTableRecord
100
AcDbLinetypeTableRecord
  2
ByLayer
 70
     0
  3

 72
    65
 73
     0
 40
0.0
  0
LTYPE
  5
16
330
5
100
AcDbSymbolTableRecord
100
AcDbLinetypeTableRecord
  2
Continuous
 70
     0
  3
Solid line
 72
    65
 73
     0
 40
0.0
  0
LTYPE
  5
3B
330
5
100
AcDbSymbolTableRecord
100
AcDbLinetypeTableRecord
  2
HIDDEN
 70
     0
  3
Hidden __ __ __ __ __ __ __ __ __ __ __ __ __ __
 72
    65
 73
     2
 40
1.905
 49
1.27
 74
     0
 49
-0.635
 74
     0
  0
LTYPE
  5
3C
330
5
100
AcDbSymbolTableRecord
100
AcDbLinetypeTableRecord
  2
PHANTOM
 70
     0
  3
Phantom ______  __  __  ______  __  __  ______
 72
    65
 73
     6
 40
12.7
 49
6.35
 74
     0
 49
-1.27
 74
     0
 49
1.27
 74
     0
 49
-1.27
 74
     0
 49
1.27
 74
     0
 49
-1.27
 74
     0
  0
LTYPE
  5
3D
330
5
100
AcDbSymbolTableRecord
100
AcDbLinetypeTableRecord
  2
CENTER
 70
     0
  3
Center ____ _ ____ _ ____ _ ____ _ ____ _ ____
 72
    65
 73
     4
 40
10.16
 49
6.35
 74
     0
 49
-1.27
 74
     0
 49
1.27
 74
     0
 49
-1.27
 74
     0
  0
LTYPE
  5
3E
330
5
100
AcDbSymbolTableRecord
100
AcDbLinetypeTableRecord
  2
CENTERX2
 70
     0
  3
Center (2x) ________  __  ________  __  _____
 72
    65
 73
     4
 40
20.32
 49
12.7
 74
     0
 49
-2.54
 74
     0
 49
2.54
 74
     0
 49
-2.54
 74
     0
  0
LTYPE
  5
3F
330
5
100
AcDbSymbolTableRecord
100
AcDbLinetypeTableRecord
  2
DOT2
 70
     0
  3
Dot (.5x) ........................................
 72
    65
 73
     2
 40
0.635
 49
0.0
 74
     0
 49
-0.635
 74
     0
  0
ENDTAB
  0
TABLE
  2
LAYER
  5
2
330
0
100
AcDbSymbolTable
 70
     5
  0
LAYER
  5
10
330
2
100
AcDbSymbolTableRecord
100
AcDbLayerTableRecord
  2
0
 70
     0
 62
     7
  6
Continuous
370
    -3
390
F
  0
LAYER
  5
40
330
2
100
AcDbSymbolTableRecord
100
AcDbLayerTableRecord
  2
FORMAT
 70
     0
 62
     7
  6
Continuous
370
    -3
390
F
  0
LAYER
  5
41
330
2
100
AcDbSymbolTableRecord
100
AcDbLayerTableRecord
  2
VERMASSUNG
 70
     0
 62
     7
  6
Continuous
370
    -3
390
F
  0
LAYER
  5
42
330
2
100
AcDbSymbolTableRecord
100
AcDbLayerTableRecord
  2
KOPF_DÜNN
 70
     0
 62
     7
  6
Continuous
370
    -3
390
F
  0
LAYER
  5
43
330
2
100
AcDbSymbolTableRecord
100
AcDbLayerTableRecord
  2
KOPF_DICK
 70
     0
 62
     7
  6
Continuous
370
    15
390
F
  0
ENDTAB
  0
TABLE
  2
STYLE
  5
3
330
0
100
AcDbSymbolTable
 70
     3
  0
STYLE
  5
11
330
3
100
AcDbSymbolTableRecord
100
AcDbTextStyleTableRecord
  2
Standard
 70
     0
 40
0.0
 41
1.0
 50
0.0
 71
     0
 42
2.5
  3
txt
  4

  0
STYLE
  5
44
330
3
100
AcDbSymbolTableRecord
100
AcDbTextStyleTableRecord
  2
SLDTEXTSTYLE0
 70
     0
 40
0.0
 41
0.7
 50
0.0
 71
     0
 42
0.2
  3
TXT
  4

  0
STYLE
  5
48
330
3
100
AcDbSymbolTableRecord
100
AcDbTextStyleTableRecord
  2
SLDTEXTSTYLE1
 70
     0
 40
0.0
 41
0.6473684211
 50
0.0
 71
     0
 42
0.2
  3
TXT
  4

  0
ENDTAB
  0
TABLE
  2
VIEW
  5
6
330
0
100
AcDbSymbolTable
 70
     0
  0
ENDTAB
  0
TABLE
  2
UCS
  5
7
330
0
100
AcDbSymbolTable
 70
     0
  0
ENDTAB
  0
TABLE
  2
APPID
  5
9
330
0
100
AcDbSymbolTable
 70
     1
  0
APPID
  5
12
330
9
100
AcDbSymbolTableRecord
100
AcDbRegAppTableRecord
  2
ACAD
 70
     0
  0
ENDTAB
  0
TABLE
  2
DIMSTYLE
  5
A
330
0
100
AcDbSymbolTable
 70
     5
100
AcDbDimStyleTable
  0
DIMSTYLE
105
27
330
A
100
AcDbSymbolTableRecord
100
AcDbDimStyleTableRecord
  2
ISO-25
 70
     0
 41
2.5
 42
0.625
 43
3.75
 44
1.25
 73
     0
 74
     0
 77
     1
 78
     8
140
2.5
141
2.5
143
0.0393700787
147
0.625
171
     3
172
     1
271
     2
272
     2
274
     3
278
    44
283
     0
284
     8
340
11
  0
DIMSTYLE
105
1DF
102
{ACAD_REACTORS
330
1DE
330
219
330
223
330
22D
102
}
330
A
100
AcDbSymbolTableRecord
100
AcDbDimStyleTableRecord
  2
SLDDIMSTYLE0
 70
     0
 41
3.0
 44
0.0
 45
0.000000001
 73
     0
 74
     0
 77
     1
 78
    12
140
2.0
147
0.5
173
     1
271
     2
272
     3
284
    12
340
44
  0
DIMSTYLE
105
1EC
102
{ACAD_REACTORS
330
1EB
102
}
330
A
100
AcDbSymbolTableRecord
100
AcDbDimStyleTableRecord
  2
SLDDIMSTYLE1
 70
     0
 41
3.0
 44
0.0
 45
0.000000001
 73
     0
 74
     0
 77
     1
 78
    12
140
2.0
147
0.5
173
     1
271
     2
272
     2
284
    12
340
44
  0
DIMSTYLE
105
1F7
102
{ACAD_REACTORS
330
1F6
102
}
330
A
100
AcDbSymbolTableRecord
100
AcDbDimStyleTableRecord
  2
SLDDIMSTYLE2
 70
     0
 41
3.0
 44
0.0
 45
0.000000001
 73
     0
 74
     0
 77
     1
 78
    12
140
2.0
147
0.5
173
     1
271
     2
272
     2
284
    12
340
44
  0
DIMSTYLE
105
203
102
{ACAD_REACTORS
330
202
330
20E
102
}
330
A
100
AcDbSymbolTableRecord
100
AcDbDimStyleTableRecord
  2
SLDDIMSTYLE3
 70
     0
 41
3.0
 44
0.0
 45
0.000000001
 73
     0
 74
     0
 77
     1
 78
    12
140
2.0
147
0.5
173
     1
271
     2
272
     3
284
    12
340
44
  0
ENDTAB
  0
TABLE
  2
BLOCK_RECORD
  5
1
330
0
100
AcDbSymbolTable
 70
     9
  0
BLOCK_RECORD
  5
1F
330
1
100
AcDbSymbolTableRecord
100
AcDbBlockTableRecord
  2
*Model_Space
340
22
  0
BLOCK_RECORD
  5
1B
330
1
100
AcDbSymbolTableRecord
100
AcDbBlockTableRecord
  2
*Paper_Space
340
1E
  0
BLOCK_RECORD
  5
23
330
1
100
AcDbSymbolTableRecord
100
AcDbBlockTableRecord
  2
*Paper_Space0
340
26
  0
BLOCK_RECORD
  5
1E0
330
1
100
AcDbSymbolTableRecord
100
AcDbBlockTableRecord
  2
*D1
340
0
  0
BLOCK_RECORD
  5
1ED
330
1
100
AcDbSymbolTableRecord
100
AcDbBlockTableRecord
  2
*D2
340
0
  0
BLOCK_RECORD
  5
1F8
330
1
100
AcDbSymbolTableRecord
100
AcDbBlockTableRecord
  2
*D3
340
0
  0
BLOCK_RECORD
  5
204
330
1
100
AcDbSymbolTableRecord
100
AcDbBlockTableRecord
  2
*D4
340
0
  0
BLOCK_RECORD
  5
20F
330
1
100
AcDbSymbolTableRecord
100
AcDbBlockTableRecord
  2
*D5
340
0
  0
BLOCK_RECORD
  5
21A
330
1
100
AcDbSymbolTableRecord
100
AcDbBlockTableRecord
  2
*D6
340
0
  0
BLOCK_RECORD
  5
224
330
1
100
AcDbSymbolTableRecord
100
AcDbBlockTableRecord
  2
*D7
340
0
  0
BLOCK_RECORD
  5
22E
330
1
100
AcDbSymbolTableRecord
100
AcDbBlockTableRecord
  2
*D8
340
0
  0
ENDTAB
  0
ENDSEC
  0
SECTION
  2
BLOCKS
  0
BLOCK
  5
20
330
1F
100
AcDbEntity
  8
0
100
AcDbBlockBegin
  2
*Model_Space
 70
     0
 10
0.0
 20
0.0
 30
0.0
  3
*Model_Space
  1

  0
ENDBLK
  5
21
330
1F
100
AcDbEntity
  8
0
100
AcDbBlockEnd
  0
BLOCK
  5
1C
330
1B
100
AcDbEntity
 67
     1
  8
0
100
AcDbBlockBegin
  2
*Paper_Space
 70
     0
 10
0.0
 20
0.0
 30
0.0
  3
*Paper_Space
  1

  0
ENDBLK
  5
1D
330
1B
100
AcDbEntity
 67
     1
  8
0
100
AcDbBlockEnd
  0
BLOCK
  5
24
330
23
100
AcDbEntity
  8
0
100
AcDbBlockBegin
  2
*Paper_Space0
 70
     0
 10
0.0
 20
0.0
 30
0.0
  3
*Paper_Space0
  1

  0
ENDBLK
  5
25
330
23
100
AcDbEntity
  8
0
100
AcDbBlockEnd
  0
BLOCK
  5
1E1
330
1E0
100
AcDbEntity
  8
0
100
AcDbBlockBegin
  2
*D1
 70
     1
 10
0.0
 20
0.0
 30
0.0
  3
*D1
  1

  0
SOLID
  5
1E3
330
1E0
100
AcDbEntity
  8
VERMASSUNG
100
AcDbTrace
 10
74.7019501625
 20
138.9367280607
 30
0.0
 11
74.2519501625
 21
135.9367280607
 31
0.0
 12
75.1519501625
 22
135.9367280607
 32
0.0
 13
75.1519501625
 23
135.9367280607
 33
0.0
  0
SOLID
  5
1E4
330
1E0
100
AcDbEntity
  8
VERMASSUNG
100
AcDbTrace
 10
74.7019501625
 20
75.9367280607
 30
0.0
 11
75.1519501625
 21
78.9367280607
 31
0.0
 12
74.2519501625
 22
78.9367280607
 32
0.0
 13
74.2519501625
 23
78.9367280607
 33
0.0
  0
LINE
  5
1E5
330
1E0
100
AcDbEntity
  8
VERMASSUNG
100
AcDbLine
 10
113.3752910263
 20
138.9367280607
 30
0.0
 11
73.7019501625
 21
138.9367280607
 31
0.0
  0
LINE
  5
1E6
330
1E0
100
AcDbEntity
  8
VERMASSUNG
100
AcDbLine
 10
113.3752910263
 20
75.9367280607
 30
0.0
 11
73.7019501625
 21
75.9367280607
 31
0.0
  0
LINE
  5
1E7
330
1E0
100
AcDbEntity
  8
VERMASSUNG
100
AcDbLine
 10
74.7019501625
 20
138.9367280607
 30
0.0
 11
74.7019501625
 21
75.9367280607
 31
0.0
  0
MTEXT
  5
1E8
330
1E0
100
AcDbEntity
  8
VERMASSUNG
100
AcDbMText
 10
71.9238146735
 20
99.7331863489
 30
0.0
 40
2.0
 41
0.0
 71
     1
 72
     1
  1
HSK A 
  7
SLDTEXTSTYLE0
 11
-7.044195017643634E-15
 21
1.0
 31
0.0
 73
     1
 44
1.0
  0
MTEXT
  5
1E9
330
1E0
100
AcDbEntity
  8
VERMASSUNG
100
AcDbMText
 10
72.123814683
 20
108.7331868928
 30
0.0
 40
2.0
 41
0.0
 71
     1
 72
     1
  1
%%c
  7
SLDTEXTSTYLE0
 11
-7.044195017643634E-15
 21
1.0
 31
0.0
 73
     1
 44
1.0
  0
MTEXT
  5
1EA
330
1E0
100
AcDbEntity
  8
VERMASSUNG
100
AcDbMText
 10
72.1238147994
 20
112.3415135428
 30
0.0
 40
2.0
 41
0.0
 71
     1
 72
     1
  1
63
  7
SLDTEXTSTYLE0
 11
-7.044195017643634E-15
 21
1.0
 31
0.0
 73
     1
 44
1.0
  0
ENDBLK
  5
1E2
330
1E0
100
AcDbEntity
  8
0
100
AcDbBlockEnd
  0
BLOCK
  5
1EE
330
1ED
100
AcDbEntity
  8
0
100
AcDbBlockBegin
  2
*D2
 70
     1
 10
0.0
 20
0.0
 30
0.0
  3
*D2
  1

  0
SOLID
  5
1F0
330
1ED
100
AcDbEntity
  8
VERMASSUNG
100
AcDbTrace
 10
161.5752910263
 20
142.9367280607
 30
0.0
 11
164.5752910263
 21
142.4867280607
 31
0.0
 12
164.5752910263
 22
143.3867280607
 32
0.0
 13
164.5752910263
 23
143.3867280607
 33
0.0
  0
SOLID
  5
1F1
330
1ED
100
AcDbEntity
  8
VERMASSUNG
100
AcDbTrace
 10
213.0752910263
 20
142.9367280607
 30
0.0
 11
210.0752910263
 21
143.3867280607
 31
0.0
 12
210.0752910263
 22
142.4867280607
 32
0.0
 13
210.0752910263
 23
142.4867280607
 33
0.0
  0
LINE
  5
1F2
330
1ED
100
AcDbEntity
  8
VERMASSUNG
100
AcDbLine
 10
161.5752910263
 20
117.3367280607
 30
0.0
 11
161.5752910263
 21
143.9367280607
 31
0.0
  0
LINE
  5
1F3
330
1ED
100
AcDbEntity
  8
VERMASSUNG
100
AcDbLine
 10
213.0752910263
 20
122.0879470774
 30
0.0
 11
213.0752910263
 21
143.9367280607
 31
0.0
  0
LINE
  5
1F4
330
1ED
100
AcDbEntity
  8
VERMASSUNG
100
AcDbLine
 10
161.5752910263
 20
142.9367280607
 30
0.0
 11
213.0752910263
 21
142.9367280607
 31
0.0
  0
MTEXT
  5
1F5
330
1ED
100
AcDbEntity
  8
VERMASSUNG
100
AcDbMText
 10
185.1264340383
 20
145.5148634238
 30
0.0
 40
2.0
 41
0.0
 71
     1
 72
     1
  1
51.5
  7
SLDTEXTSTYLE0
 73
     1
 44
1.0
  0
ENDBLK
  5
1EF
330
1ED
100
AcDbEntity
  8
0
100
AcDbBlockEnd
  0
BLOCK
  5
1F9
330
1F8
100
AcDbEntity
  8
0
100
AcDbBlockBegin
  2
*D3
 70
     1
 10
0.0
 20
0.0
 30
0.0
  3
*D3
  1

  0
SOLID
  5
1FB
330
1F8
100
AcDbEntity
  8
VERMASSUNG
100
AcDbTrace
 10
219.9773564464
 20
97.4367280607
 30
0.0
 11
220.4273564464
 21
100.4367280607
 31
0.0
 12
219.5273564464
 22
100.4367280607
 32
0.0
 13
219.5273564464
 23
100.4367280607
 33
0.0
  0
SOLID
  5
1FC
330
1F8
100
AcDbEntity
  8
VERMASSUNG
100
AcDbTrace
 10
219.9773564464
 20
117.4367280607
 30
0.0
 11
219.5273564464
 21
114.4367280607
 31
0.0
 12
220.4273564464
 22
114.4367280607
 32
0.0
 13
220.4273564464
 23
114.4367280607
 33
0.0
  0
LINE
  5
1FD
330
1F8
100
AcDbEntity
  8
VERMASSUNG
100
AcDbLine
 10
209.5752910263
 20
97.4367280607
 30
0.0
 11
220.9773564464
 21
97.4367280607
 31
0.0
  0
LINE
  5
1FE
330
1F8
100
AcDbEntity
  8
VERMASSUNG
100
AcDbLine
 10
209.5752910263
 20
117.4367280607
 30
0.0
 11
220.9773564464
 21
117.4367280607
 31
0.0
  0
LINE
  5
1FF
330
1F8
100
AcDbEntity
  8
VERMASSUNG
100
AcDbLine
 10
219.9773564464
 20
97.4367280607
 30
0.0
 11
219.9773564464
 21
117.4367280607
 31
0.0
  0
MTEXT
  5
200
330
1F8
100
AcDbEntity
  8
VERMASSUNG
100
AcDbMText
 10
217.3992209668
 20
104.2330108342
 30
0.0
 40
2.0
 41
0.0
 71
     1
 72
     1
  1
%%c
  7
SLDTEXTSTYLE0
 11
6.123233995736766E-17
 21
1.0
 31
0.0
 73
     1
 44
1.0
  0
MTEXT
  5
201
330
1F8
100
AcDbEntity
  8
VERMASSUNG
100
AcDbMText
 10
217.3992210832
 20
107.8416890574
 30
0.0
 40
2.0
 41
0.0
 71
     1
 72
     1
  1
20
  7
SLDTEXTSTYLE0
 11
6.123233995736766E-17
 21
1.0
 31
0.0
 73
     1
 44
1.0
  0
ENDBLK
  5
1FA
330
1F8
100
AcDbEntity
  8
0
100
AcDbBlockEnd
  0
BLOCK
  5
205
330
204
100
AcDbEntity
  8
0
100
AcDbBlockBegin
  2
*D4
 70
     1
 10
0.0
 20
0.0
 30
0.0
  3
*D4
  1

  0
SOLID
  5
207
330
204
100
AcDbEntity
  8
VERMASSUNG
100
AcDbTrace
 10
225.9773564464
 20
90.9367280607
 30
0.0
 11
226.4273564464
 21
93.9367280607
 31
0.0
 12
225.5273564464
 22
93.9367280607
 32
0.0
 13
225.5273564464
 23
93.9367280607
 33
0.0
  0
SOLID
  5
208
330
204
100
AcDbEntity
  8
VERMASSUNG
100
AcDbTrace
 10
225.9773564464
 20
123.9367280607
 30
0.0
 11
225.5273564464
 21
120.9367280607
 31
0.0
 12
226.4273564464
 22
120.9367280607
 32
0.0
 13
226.4273564464
 23
120.9367280607
 33
0.0
  0
LINE
  5
209
330
204
100
AcDbEntity
  8
VERMASSUNG
100
AcDbLine
 10
213.0752910263
 20
90.9367280607
 30
0.0
 11
226.9773564464
 21
90.9367280607
 31
0.0
  0
LINE
  5
20A
330
204
100
AcDbEntity
  8
VERMASSUNG
100
AcDbLine
 10
213.0752910263
 20
123.9367280607
 30
0.0
 11
226.9773564464
 21
123.9367280607
 31
0.0
  0
LINE
  5
20B
330
204
100
AcDbEntity
  8
VERMASSUNG
100
AcDbLine
 10
225.9773564464
 20
90.9367280607
 30
0.0
 11
225.9773564464
 21
123.9367280607
 31
0.0
  0
MTEXT
  5
20C
330
204
100
AcDbEntity
  8
VERMASSUNG
100
AcDbMText
 10
223.3992209668
 20
104.2330108342
 30
0.0
 40
2.0
 41
0.0
 71
     1
 72
     1
  1
%%c
  7
SLDTEXTSTYLE0
 11
6.123233995736766E-17
 21
1.0
 31
0.0
 73
     1
 44
1.0
  0
MTEXT
  5
20D
330
204
100
AcDbEntity
  8
VERMASSUNG
100
AcDbMText
 10
223.3992210832
 20
107.8416890574
 30
0.0
 40
2.0
 41
0.0
 71
     1
 72
     1
  1
33
  7
SLDTEXTSTYLE0
 11
6.123233995736766E-17
 21
1.0
 31
0.0
 73
     1
 44
1.0
  0
ENDBLK
  5
206
330
204
100
AcDbEntity
  8
0
100
AcDbBlockEnd
  0
BLOCK
  5
210
330
20F
100
AcDbEntity
  8
0
100
AcDbBlockBegin
  2
*D5
 70
     1
 10
0.0
 20
0.0
 30
0.0
  3
*D5
  1

  0
SOLID
  5
212
330
20F
100
AcDbEntity
  8
VERMASSUNG
100
AcDbTrace
 10
231.9773564464
 20
86.9367280607
 30
0.0
 11
232.4273564464
 21
89.9367280607
 31
0.0
 12
231.5273564464
 22
89.9367280607
 32
0.0
 13
231.5273564464
 23
89.9367280607
 33
0.0
  0
SOLID
  5
213
330
20F
100
AcDbEntity
  8
VERMASSUNG
100
AcDbTrace
 10
231.9773564464
 20
127.9367280607
 30
0.0
 11
231.5273564464
 21
124.9367280607
 31
0.0
 12
232.4273564464
 22
124.9367280607
 32
0.0
 13
232.4273564464
 23
124.9367280607
 33
0.0
  0
LINE
  5
214
330
20F
100
AcDbEntity
  8
VERMASSUNG
100
AcDbLine
 10
157.0752910263
 20
86.9367280607
 30
0.0
 11
232.9773564464
 21
86.9367280607
 31
0.0
  0
LINE
  5
215
330
20F
100
AcDbEntity
  8
VERMASSUNG
100
AcDbLine
 10
157.0752910263
 20
127.9367280607
 30
0.0
 11
232.9773564464
 21
127.9367280607
 31
0.0
  0
LINE
  5
216
330
20F
100
AcDbEntity
  8
VERMASSUNG
100
AcDbLine
 10
231.9773564464
 20
86.9367280607
 30
0.0
 11
231.9773564464
 21
127.9367280607
 31
0.0
  0
MTEXT
  5
217
330
20F
100
AcDbEntity
  8
VERMASSUNG
100
AcDbMText
 10
229.3992209668
 20
104.3328006501
 30
0.0
 40
2.0
 41
0.0
 71
     1
 72
     1
  1
%%c
  7
SLDTEXTSTYLE0
 11
6.123233995736766E-17
 21
1.0
 31
0.0
 73
     1
 44
1.0
  0
MTEXT
  5
218
330
20F
100
AcDbEntity
  8
VERMASSUNG
100
AcDbMText
 10
229.3992210832
 20
107.9414788732
 30
0.0
 40
2.0
 41
0.0
 71
     1
 72
     1
  1
41
  7
SLDTEXTSTYLE0
 11
6.123233995736766E-17
 21
1.0
 31
0.0
 73
     1
 44
1.0
  0
ENDBLK
  5
211
330
20F
100
AcDbEntity
  8
0
100
AcDbBlockEnd
  0
BLOCK
  5
21B
330
21A
100
AcDbEntity
  8
0
100
AcDbBlockBegin
  2
*D6
 70
     1
 10
0.0
 20
0.0
 30
0.0
  3
*D6
  1

  0
SOLID
  5
21D
330
21A
100
AcDbEntity
  8
VERMASSUNG
100
AcDbTrace
 10
113.0752910263
 20
154.9367280607
 30
0.0
 11
116.0752910263
 21
154.4867280607
 31
0.0
 12
116.0752910263
 22
155.3867280607
 32
0.0
 13
116.0752910263
 23
155.3867280607
 33
0.0
  0
SOLID
  5
21E
330
21A
100
AcDbEntity
  8
VERMASSUNG
100
AcDbTrace
 10
213.0752910263
 20
154.9367280607
 30
0.0
 11
210.0752910263
 21
155.3867280607
 31
0.0
 12
210.0752910263
 22
154.4867280607
 32
0.0
 13
210.0752910263
 23
154.4867280607
 33
0.0
  0
LINE
  5
21F
330
21A
100
AcDbEntity
  8
VERMASSUNG
100
AcDbLine
 10
113.0752910263
 20
138.6367280607
 30
0.0
 11
113.0752910263
 21
155.9367280607
 31
0.0
  0
LINE
  5
220
330
21A
100
AcDbEntity
  8
VERMASSUNG
100
AcDbLine
 10
213.0752910263
 20
122.0879470774
 30
0.0
 11
213.0752910263
 21
155.9367280607
 31
0.0
  0
LINE
  5
221
330
21A
100
AcDbEntity
  8
VERMASSUNG
100
AcDbLine
 10
113.0752910263
 20
154.9367280607
 30
0.0
 11
213.0752910263
 21
154.9367280607
 31
0.0
  0
MTEXT
  5
222
330
21A
100
AcDbEntity
  8
VERMASSUNG
100
AcDbMText
 10
161.1758034857
 20
157.5148634238
 30
0.0
 40
2.0
 41
0.0
 71
     1
 72
     1
  1
100
  7
SLDTEXTSTYLE0
 73
     1
 44
1.0
  0
ENDBLK
  5
21C
330
21A
100
AcDbEntity
  8
0
100
AcDbBlockEnd
  0
BLOCK
  5
225
330
224
100
AcDbEntity
  8
0
100
AcDbBlockBegin
  2
*D7
 70
     1
 10
0.0
 20
0.0
 30
0.0
  3
*D7
  1

  0
SOLID
  5
227
330
224
100
AcDbEntity
  8
VERMASSUNG
100
AcDbTrace
 10
139.0252910263
 20
148.9367280607
 30
0.0
 11
142.0252910263
 21
148.4867280607
 31
0.0
 12
142.0252910263
 22
149.3867280607
 32
0.0
 13
142.0252910263
 23
149.3867280607
 33
0.0
  0
SOLID
  5
228
330
224
100
AcDbEntity
  8
VERMASSUNG
100
AcDbTrace
 10
213.0752910263
 20
148.9367280607
 30
0.0
 11
210.0752910263
 21
149.3867280607
 31
0.0
 12
210.0752910263
 22
148.4867280607
 32
0.0
 13
210.0752910263
 23
148.4867280607
 33
0.0
  0
LINE
  5
229
330
224
100
AcDbEntity
  8
VERMASSUNG
100
AcDbLine
 10
139.0252910263
 20
137.2831683844
 30
0.0
 11
139.0252910263
 21
149.9367280607
 31
0.0
  0
LINE
  5
22A
330
224
100
AcDbEntity
  8
VERMASSUNG
100
AcDbLine
 10
213.0752910263
 20
122.0879470774
 30
0.0
 11
213.0752910263
 21
149.9367280607
 31
0.0
  0
LINE
  5
22B
330
224
100
AcDbEntity
  8
VERMASSUNG
100
AcDbLine
 10
139.0252910263
 20
148.9367280607
 30
0.0
 11
213.0752910263
 21
148.9367280607
 31
0.0
  0
MTEXT
  5
22C
330
224
100
AcDbEntity
  8
VERMASSUNG
100
AcDbMText
 10
172.8512151867
 20
151.5148634238
 30
0.0
 40
2.0
 41
0.0
 71
     1
 72
     1
  1
74.05
  7
SLDTEXTSTYLE0
 73
     1
 44
1.0
  0
ENDBLK
  5
226
330
224
100
AcDbEntity
  8
0
100
AcDbBlockEnd
  0
BLOCK
  5
22F
330
22E
100
AcDbEntity
  8
0
100
AcDbBlockBegin
  2
*D8
 70
     1
 10
0.0
 20
0.0
 30
0.0
  3
*D8
  1

  0
SOLID
  5
231
330
22E
100
AcDbEntity
  8
VERMASSUNG
100
AcDbTrace
 10
81.1752910263
 20
160.9367280607
 30
0.0
 11
84.1752910263
 21
160.4867280607
 31
0.0
 12
84.1752910263
 22
161.3867280607
 32
0.0
 13
84.1752910263
 23
161.3867280607
 33
0.0
  0
SOLID
  5
232
330
22E
100
AcDbEntity
  8
VERMASSUNG
100
AcDbTrace
 10
213.0752910263
 20
160.9367280607
 30
0.0
 11
210.0752910263
 21
161.3867280607
 31
0.0
 12
210.0752910263
 22
160.4867280607
 32
0.0
 13
210.0752910263
 23
160.4867280607
 33
0.0
  0
LINE
  5
233
330
22E
100
AcDbEntity
  8
VERMASSUNG
100
AcDbLine
 10
81.1752910263
 20
127.1274058071
 30
0.0
 11
81.1752910263
 21
161.9367280607
 31
0.0
  0
LINE
  5
234
330
22E
100
AcDbEntity
  8
VERMASSUNG
100
AcDbLine
 10
213.0752910263
 20
122.0879470774
 30
0.0
 11
213.0752910263
 21
161.9367280607
 31
0.0
  0
LINE
  5
235
330
22E
100
AcDbEntity
  8
VERMASSUNG
100
AcDbLine
 10
81.1752910263
 20
160.9367280607
 30
0.0
 11
213.0752910263
 21
160.9367280607
 31
0.0
  0
MTEXT
  5
236
330
22E
100
AcDbEntity
  8
VERMASSUNG
100
AcDbMText
 10
144.4263246125
 20
163.5148634238
 30
0.0
 40
2.0
 41
0.0
 71
     1
 72
     1
  1
131.9
  7
SLDTEXTSTYLE0
 73
     1
 44
1.0
  0
ENDBLK
  5
230
330
22E
100
AcDbEntity
  8
0
100
AcDbBlockEnd
  0
ENDSEC
  0
SECTION
  2
ENTITIES
  0
MTEXT
  5
45
330
1F
100
AcDbEntity
  8
KOPF_DÜNN
100
AcDbMText
 10
13.8892156294
 20
23.8442973028
 30
0.0
 40
3.0
 41
0.0
 71
     1
 72
     1
  1
HA6.S20.K21.100
  7
SLDTEXTSTYLE0
 73
     1
 44
1.0
  0
MTEXT
  5
46
330
1F
100
AcDbEntity
  8
VERMASSUNG
100
AcDbMText
 10
13.9329988022
 20
28.8834360957
 30
0.0
 40
3.0
 41
0.0
 71
     1
 72
     1
  1
Schrumpffutter_Heat shrink chuck
  7
SLDTEXTSTYLE0
 73
     1
 44
1.0
  0
MTEXT
  5
47
330
1F
100
AcDbEntity
  8
VERMASSUNG
100
AcDbMText
 10
98.8601118557
 20
13.8365368179
 30
0.0
 40
2.0
 41
0.0
 71
     1
 72
     1
  1
Datum: 28.04.2011
  7
SLDTEXTSTYLE0
 73
     1
 44
1.0
  0
MTEXT
  5
49
330
1F
100
AcDbEntity
  8
VERMASSUNG
100
AcDbMText
 10
13.933048693
 20
18.0482802738
 30
0.0
 40
2.0
 41
0.0
 71
     1
 72
     1
  1
DIN 69 893 HSK A 63
  7
SLDTEXTSTYLE1
 73
     1
 44
1.0
  0
MTEXT
  5
4A
330
1F
100
AcDbEntity
  8
VERMASSUNG
100
AcDbMText
 10
13.9808475933
 20
13.9090973692
 30
0.0
 40
2.0
 41
0.0
 71
     1
 72
     1
  1
Gewicht: 1162g
  7
SLDTEXTSTYLE0
 73
     1
 44
1.0
  0
LINE
  5
4B
330
1F
100
AcDbEntity
  8
0
  6
Continuous
 62
     7
370
    15
100
AcDbLine
 10
113.3752910263
 20
75.9367280607
 30
0.0
 11
118.0252910263
 21
75.9367280607
 31
0.0
  0
LINE
  5
4C
330
1F
100
AcDbEntity
  8
0
  6
Continuous
 62
     7
370
    15
100
AcDbLine
 10
118.0345991132
 20
138.9367280607
 30
0.0
 11
113.3752910263
 21
138.9367280607
 31
0.0
  0
ARC
  5
4D
330
1F
100
AcDbEntity
  8
0
  6
Continuous
 62
     7
370
    15
100
AcDbCircle
 10
113.3752910263
 20
76.2367280607
 30
0.0
 40
0.2999999999999972
100
AcDbArc
 50
180.0
 51
270.0
  0
ARC
  5
4E
330
1F
100
AcDbEntity
  8
0
  6
Continuous
 62
     7
370
    15
100
AcDbCircle
 10
113.3752910263
 20
138.6367280607
 30
0.0
 40
0.2999999999999972
100
AcDbArc
 50
90.0
 51
180.0
  0
ARC
  5
4F
330
1F
100
AcDbEntity
  8
0
  6
Continuous
 62
     7
370
    15
100
AcDbCircle
 10
112.5752842737
 20
82.8662904463
 30
0.0
 40
0.60000675266771
100
AcDbArc
 50
33.5571153394
 51
90.0
  0
ARC
  5
50
330
1F
100
AcDbEntity
  8
0
  6
Continuous
 62
     7
370
    15
100
AcDbCircle
 10
112.5752842737
 20
132.0071656751
 30
0.0
 40
0.6000067526677242
100
AcDbArc
 50
270.0
 51
326.4428846606
  0
LINE
  5
51
330
1F
100
AcDbEntity
  8
0
  6
Continuous
 62
     7
370
    15
100
AcDbLine
 10
111.0752910263
 20
83.2162971989
 30
0.0
 11
111.9320037997
 21
83.4458526947
 31
0.0
  0
LINE
  5
52
330
1F
100
AcDbEntity
  8
0
  6
Continuous
 62
     7
370
    15
100
AcDbLine
 10
111.9320037997
 20
131.4276034266
 30
0.0
 11
111.0752910263
 21
131.6571589224
 31
0.0
  0
LINE
  5
53
330
1F
100
AcDbEntity
  8
0
  6
Continuous
 62
     7
370
    15
100
AcDbLine
 10
99.8437822275
 20
131.0944580808
 30
0.0
 11
87.2752910263
 21
130.4647741529
 31
0.0
  0
LINE
  5
54
330
1F
100
AcDbEntity
  8
0
  6
Continuous
 62
     7
370
    15
100
AcDbLine
 10
111.0752910263
 20
131.6571589224
 30
0.0
 11
108.258289369
 21
131.5160265748
 31
0.0
  0
LINE
  5
55
330
1F
100
AcDbEntity
  8
0
  6
Continuous
 62
     7
370
    15
100
AcDbLine
 10
108.258345459
 20
83.3574267364
 30
0.0
 11
111.0752910263
 21
83.2162971989
 31
0.0
  0
LINE
  5
56
330
1F
100
AcDbEntity
  8
0
  6
Continuous
 62
     7
370
    15
100
AcDbLine
 10
91.2752910263
 20
84.2082811669
 30
0.0
 11
99.8441847462
 21
83.7789778743
 31
0.0
  0
ARC
  5
57
330
1F
100
AcDbEntity
  8
0
  6
Continuous
 62
     7
370
    15
100
AcDbCircle
 10
112.0872952268
 20
82.8662971989
 30
0.0
 40
0.6000000000000085
100
AcDbArc
 50
90.0
 51
105.0
  0
ARC
  5
58
330
1F
100
AcDbEntity
  8
0
  6
Continuous
 62
     7
370
    15
100
AcDbCircle
 10
112.0872952268
 20
132.0071589224
 30
0.0
 40
0.5999999999999943
100
AcDbArc
 50
255.0
 51
270.0
  0
LINE
  5
59
330
1F
100
AcDbEntity
  8
0
  6
Continuous
 62
     7
370
    15
100
AcDbLine
 10
112.0872952268
 20
83.4662971989
 30
0.0
 11
112.5752842737
 21
83.4662971989
 31
0.0
  0
LINE
  5
5A
330
1F
100
AcDbEntity
  8
0
  6
Continuous
 62
     7
370
    15
100
AcDbLine
 10
112.5752842737
 20
131.4071589224
 30
0.0
 11
112.0872952268
 21
131.4071589224
 31
0.0
  0
ARC
  5
5B
330
1F
100
AcDbEntity
  8
0
  6
Continuous
 62
     7
370
    15
100
AcDbCircle
 10
142.0252910263
 20
83.9367280607
 30
0.0
 40
3.000000000000014
100
AcDbArc
 50
90.0
 51
180.0
  0
ARC
  5
5C
330
1F
100
AcDbEntity
  8
0
  6
Continuous
 62
     7
370
    15
100
AcDbCircle
 10
142.0252910263
 20
130.9367280607
 30
0.0
 40
3.000000000000014
100
AcDbArc
 50
180.0
 51
270.0
  0
LINE
  5
5D
330
1F
100
AcDbEntity
  8
0
  6
Continuous
 62
     7
370
    15
100
AcDbLine
 10
162.2504720816
 20
86.9367280607
 30
0.0
 11
211.2322092178
 21
90.7916743765
 31
0.0
  0
LINE
  5
5E
330
1F
100
AcDbEntity
  8
0
  6
Continuous
 62
     7
370
    15
100
AcDbLine
 10
211.2322092178
 20
124.0817817448
 30
0.0
 11
162.0752910263
 21
127.9505151087
 31
0.0
  0
LINE
  5
5F
330
1F
100
AcDbEntity
  8
0
  6
Continuous
 62
     7
370
    15
100
AcDbLine
 10
153.5240480411
 20
86.9367280607
 30
0.0
 11
162.2504720816
 21
86.9367280607
 31
0.0
  0
LINE
  5
60
330
1F
100
AcDbEntity
  8
0
  6
Continuous
 62
     7
370
    15
100
AcDbLine
 10
142.0252910263
 20
86.9367280607
 30
0.0
 11
146.5358516078
 21
86.9367280607
 31
0.0
  0
LINE
  5
61
330
1F
100
AcDbEntity
  8
0
  6
Continuous
 62
     7
370
    15
100
AcDbLine
 10
146.5285191872
 20
127.9367280607
 30
0.0
 11
142.0252910263
 21
127.9367280607
 31
0.0
  0
LINE
  5
62
330
1F
100
AcDbEntity
  8
0
  6
Continuous
 62
     7
370
    15
100
AcDbLine
 10
162.0769499842
 20
127.9367280607
 30
0.0
 11
153.516289849
 21
127.9367280607
 31
0.0
  0
ARC
  5
63
330
1F
100
AcDbEntity
  8
0
  6
Continuous
 62
     7
370
    15
100
AcDbCircle
 10
211.0752910263
 20
92.785509044
 30
0.0
 40
2.0
100
AcDbArc
 50
274.5
 51
0.0
  0
ARC
  5
64
330
1F
100
AcDbEntity
  8
0
  6
Continuous
 62
     7
370
    15
100
AcDbCircle
 10
211.0752910263
 20
122.0879470774
 30
0.0
 40
2.0
100
AcDbArc
 50
0.0
 51
85.5
  0
LINE
  5
65
330
1F
100
AcDbEntity
  8
0
  6
Continuous
 62
     7
370
    15
100
AcDbLine
 10
82.472979577
 20
86.5667280607
 30
0.0
 11
89.8752910263
 21
86.5667280607
 31
0.0
  0
ARC
  5
66
330
1F
100
AcDbEntity
  8
0
  6
Continuous
 62
     7
370
    15
100
AcDbCircle
 10
89.8752910263
 20
85.1667280607
 30
0.0
 40
1.399999999999997
100
AcDbArc
 50
42.2465410162
 51
90.0
  0
LINE
  5
67
330
1F
100
AcDbEntity
  8
0
  6
Continuous
 62
     7
370
    15
100
AcDbLine
 10
81.1868472525
 20
87.7051718346
 30
0.0
 11
82.3164544845
 21
86.5755646025
 31
0.0
  0
LINE
  5
68
330
1F
100
AcDbEntity
  8
0
  6
Continuous
 62
     7
370
    15
100
AcDbLine
 10
82.3164544845
 20
128.2978915189
 30
0.0
 11
81.1851917997
 21
127.166628834
 31
0.0
  0
ARC
  5
69
330
1F
100
AcDbEntity
  8
0
  6
Continuous
 62
     7
370
    15
100
AcDbCircle
 10
85.8752910263
 20
129.7067280607
 30
0.0
 40
1.400000000000006
100
AcDbArc
 50
270.0
 51
301.7485287426
  0
LINE
  5
6A
330
1F
100
AcDbEntity
  8
0
  6
Continuous
 62
     7
370
    15
100
AcDbLine
 10
85.8752910263
 20
128.3067280607
 30
0.0
 11
82.4495567602
 21
128.3067280607
 31
0.0
  0
LINE
  5
6B
330
1F
100
AcDbEntity
  8
0
  6
Continuous
 62
     7
370
    15
100
AcDbLine
 10
162.0752910263
 20
127.9500539093
 30
0.0
 11
162.0752910263
 21
127.936607865
 31
0.0
  0
LINE
  5
6C
330
1F
100
AcDbEntity
  8
0
  6
Continuous
 62
     7
370
    15
100
AcDbLine
 10
213.0752910263
 20
93.0723598003
 30
0.0
 11
213.1526132335
 21
93.2193251427
 31
0.0
  0
LINE
  5
6D
330
1F
100
AcDbEntity
  8
0
  6
Continuous
 62
     7
370
    15
100
AcDbLine
 10
213.0937235098
 20
121.6564447621
 30
0.0
 11
213.0752910263
 21
121.6914791507
 31
0.0
  0
SPLINE
  5
6E
330
1F
100
AcDbEntity
  8
0
  6
Continuous
 62
     7
370
    15
100
AcDbSpline
210
0.0
220
0.0
230
1.0
 70
     8
 71
     3
 72
    70
 73
    66
 74
     0
 42
0.00000001
 43
0.00000001
 40
-0.03125
 40
-0.03125
 40
0.0
 40
0.0
 40
0.0312499999999999
 40
0.0312499999999999
 40
0.0624999999999999
 40
0.0624999999999999
 40
0.0937499999999998
 40
0.0937499999999998
 40
0.1249999999999997
 40
0.1249999999999997
 40
0.1562499999999997
 40
0.1562499999999997
 40
0.1874999999999996
 40
0.1874999999999996
 40
0.2187499999999995
 40
0.2187499999999995
 40
0.2499999999999994
 40
0.2499999999999994
 40
0.2812499999999996
 40
0.2812499999999996
 40
0.3124999999999996
 40
0.3124999999999996
 40
0.3437499999999997
 40
0.3437499999999997
 40
0.3749999999999998
 40
0.3749999999999998
 40
0.4062499999999999
 40
0.4062499999999999
 40
0.4375
 40
0.4375
 40
0.4687500000000001
 40
0.4687500000000001
 40
0.5000000000000002
 40
0.5000000000000002
 40
0.5312500000000001
 40
0.5312500000000001
 40
0.5625000000000001
 40
0.5625000000000001
 40
0.59375
 40
0.59375
 40
0.6249999999999999
 40
0.6249999999999999
 40
0.6562499999999999
 40
0.6562499999999999
 40
0.6874999999999998
 40
0.6874999999999998
 40
0.7187499999999998
 40
0.7187499999999998
 40
0.7499999999999997
 40
0.7499999999999997
 40
0.7812499999999997
 40
0.7812499999999997
 40
0.8124999999999998
 40
0.8124999999999998
 40
0.8437499999999998
 40
0.8437499999999998
 40
0.8749999999999998
 40
0.8749999999999998
 40
0.9062499999999999
 40
0.9062499999999999
 40
0.9374999999999999
 40
0.9374999999999999
 40
0.96875
 40
0.96875
 40
1.0
 40
1.0
 40
1.03125
 40
1.03125
 10
120.8107456876751
 20
132.495691455451
 30
0.0
 10
121.3398363649953
 20
132.495691455451
 30
0.0
 10
121.5999070323724
 20
132.5115918958658
 30
0.0
 10
122.1114817122079
 20
132.57353624604
 30
0.0
 10
122.3656569959481
 20
132.6203384801313
 30
0.0
 10
122.8499276260098
 20
132.7413154635864
 30
0.0
 10
123.0795687178909
 20
132.8149177913932
 30
0.0
 10
123.5141730661244
 20
132.9867420623713
 30
0.0
 10
123.719738842771
 20
133.0857454852988
 30
0.0
 10
124.0882959833663
 20
133.2988418992116
 30
0.0
 10
124.2537769661018
 20
133.4137416153413
 30
0.0
 10
124.5462014755369
 20
133.6591085140315
 30
0.0
 10
124.6703024521633
 20
133.7875484145018
 30
0.0
 10
124.8698816489131
 20
134.0484405625878
 30
0.0
 10
124.9468152347713
 20
134.1828217339273
 30
0.0
 10
125.0496722932917
 20
134.4521416850336
 30
0.0
 10
125.0751452027508
 20
134.5848229492517
 30
0.0
 10
125.0754356133186
 20
134.8460094233827
 30
0.0
 10
125.0494109795429
 20
134.9757744615475
 30
0.0
 10
124.9472626950509
 20
135.2213570958201
 30
0.0
 10
124.8716862474677
 20
135.338018633129
 30
0.0
 10
124.6711887163228
 20
135.5599238232836
 30
0.0
 10
124.5460598748144
 20
135.6645350772065
 30
0.0
 10
124.2567010737928
 20
135.8545814888146
 30
0.0
 10
124.0912900867373
 20
135.9413411602643
 30
0.0
 10
123.7182995285895
 20
136.0988455360158
 30
0.0
 10
123.5165664955004
 20
136.1671708008031
 30
0.0
 10
123.0837072446726
 20
136.2854005244222
 30
0.0
 10
122.8497887117832
 20
136.3356954405261
 30
0.0
 10
122.3656049766406
 20
136.4155609774157
 30
0.0
 10
122.1162893506851
 20
136.4453021052153
 30
0.0
 10
121.6032568262573
 20
136.4854548467235
 30
0.0
 10
121.3379630033527
 20
136.4956531161334
 30
0.0
 10
120.8156283834829
 20
136.4957295745181
 30
0.0
 10
120.5558747210012
 20
136.4859385629091
 30
0.0
 10
120.039262905356
 20
136.4458717241703
 30
0.0
 10
119.7868968648557
 20
136.4157745573135
 30
0.0
 10
119.3053717433229
 20
136.3365523474833
 30
0.0
 10
119.0725210112093
 20
136.2867948680199
 30
0.0
 10
118.6354311627705
 20
136.1677029255696
 30
0.0
 10
118.4341101741134
 20
136.0993876640223
 30
0.0
 10
118.0650241488134
 20
135.9439866970887
 30
0.0
 10
117.8960393977618
 20
135.8558343550218
 30
0.0
 10
117.6055833411025
 20
135.6653949659055
 30
0.0
 10
117.4825115297404
 20
135.5627703882064
 30
0.0
 10
117.2811752883184
 20
135.3411300415983
 30
0.0
 10
117.2039627423762
 20
135.2223759660508
 30
0.0
 10
117.1017591994761
 20
134.9777100271331
 30
0.0
 10
117.0755308480238
 20
134.8505533016846
 30
0.0
 10
117.0750544487067
 20
134.586105155829
 30
0.0
 10
117.1007968612046
 20
134.4532044755719
 30
0.0
 10
117.2021076375685
 20
134.1864122020898
 30
0.0
 10
117.2789402769595
 20
134.0510483006212
 30
0.0
 10
117.4793441161746
 20
133.7884685053187
 30
0.0
 10
117.6020156144667
 20
133.6614933455649
 30
0.0
 10
117.8919629036309
 20
133.4174139594825
 30
0.0
 10
118.0605338829961
 20
133.2999888347286
 30
0.0
 10
118.4288034771093
 20
133.0867923737802
 30
0.0
 10
118.6298653343796
 20
132.9896182553553
 30
0.0
 10
119.0668962529645
 20
132.8162633681411
 30
0.0
 10
119.2990444660942
 20
132.7418638164845
 30
0.0
 10
119.780054747593
 20
132.6214109369798
 30
0.0
 10
120.0321548304234
 20
132.5745525617138
 30
0.0
 10
120.5492243166824
 20
132.5115950647301
 30
0.0
 10
120.8107456876751
 20
132.495691455451
 30
0.0
 10
121.3398363649953
 20
132.495691455451
 30
0.0
  0
LINE
  5
6F
330
1F
100
AcDbEntity
  8
0
  6
Continuous
 62
     7
370
    15
100
AcDbLine
 10
118.0252910263
 20
127.2867280607
 30
0.0
 11
127.6833581948
 21
127.2867280607
 31
0.0
  0
LINE
  5
70
330
1F
100
AcDbEntity
  8
0
  6
Continuous
 62
     7
370
    15
100
AcDbLine
 10
127.6833581948
 20
77.2498103644
 30
0.0
 11
127.6833581948
 21
127.2867280607
 31
0.0
  0
LINE
  5
71
330
1F
100
AcDbEntity
  8
0
  6
Continuous
 62
     7
370
    15
100
AcDbLine
 10
127.6833581948
 20
77.2498103644
 30
0.0
 11
126.0252910263
 21
77.2498103644
 31
0.0
  0
SPLINE
  5
72
330
1F
100
AcDbEntity
  8
0
  6
Continuous
 62
     7
370
    15
100
AcDbSpline
210
0.0
220
0.0
230
1.0
 70
     8
 71
     3
 72
    28
 73
    24
 74
     0
 42
0.00000001
 43
0.00000001
 40
0.0
 40
0.0
 40
0.0
 40
0.0
 40
0.1249999999999999
 40
0.1249999999999999
 40
0.1874999999999998
 40
0.1874999999999998
 40
0.2499999999999997
 40
0.2499999999999997
 40
0.3749999999999997
 40
0.3749999999999997
 40
0.4374999999999999
 40
0.4374999999999999
 40
0.5
 40
0.5
 40
0.6249999999999999
 40
0.6249999999999999
 40
0.7499999999999998
 40
0.7499999999999998
 40
0.8124999999999998
 40
0.8124999999999998
 40
0.8749999999999999
 40
0.8749999999999999
 40
1.0
 40
1.0
 40
1.0
 40
1.0
 10
126.0252910263352
 20
77.24981036442462
 30
0.0
 10
125.4935832688423
 20
77.2498103644246
 30
0.0
 10
124.9713447035319
 20
77.2340256504744
 30
0.0
 10
124.2014742172569
 20
77.18903023639818
 30
0.0
 10
123.9471146450656
 20
77.17047524132246
 30
0.0
 10
123.4429930643671
 20
77.12662251887598
 30
0.0
 10
123.1932702469392
 20
77.10127791192377
 30
0.0
 10
122.4676802954928
 20
77.01787583417367
 30
0.0
 10
122.0093200339112
 20
76.95201027502256
 30
0.0
 10
121.3588220905173
 20
76.8430399345308
 30
0.0
 10
121.1471400397249
 20
76.80480029876414
 30
0.0
 10
120.7430685505869
 20
76.72704156134478
 30
0.0
 10
120.550562036766
 20
76.68754059916944
 30
0.0
 10
120.0007270657447
 20
76.56863285680343
 30
0.0
 10
119.6707982874359
 20
76.4888151753788
 30
0.0
 10
119.0863270188672
 20
76.33547201358274
 30
0.0
 10
118.8400498808538
 20
76.26413826031349
 30
0.0
 10
118.5402070881557
 20
76.17019475323889
 30
0.0
 10
118.4517502310836
 20
76.14100095987895
 30
0.0
 10
118.2983888777784
 20
76.08753438561553
 30
0.0
 10
118.2333006635522
 20
76.06317505134037
 30
0.0
 10
118.0777066476114
 20
75.99958490589563
 30
0.0
 10
118.0252910263352
 20
75.96948197080638
 30
0.0
 10
118.0252910263352
 20
75.95260507780945
 30
0.0
  0
LINE
  5
73
330
1F
100
AcDbEntity
  8
0
  6
Continuous
 62
     7
370
    15
100
AcDbLine
 10
118.0252910263
 20
75.9526050778
 30
0.0
 11
118.0252910263
 21
75.9367280607
 31
0.0
  0
SPLINE
  5
74
330
1F
100
AcDbEntity
  8
0
  6
Continuous
 62
     7
370
    15
100
AcDbSpline
210
0.0
220
0.0
230
1.0
 70
     8
 71
     3
 72
    22
 73
    18
 74
     0
 42
0.00000001
 43
0.00000001
 40
0.0
 40
0.0
 40
0.0
 40
0.0
 40
0.0515773377536172
 40
0.1565264849943629
 40
0.2100197540385886
 40
0.2615951369298746
 40
0.3664424119934943
 40
0.4198226601719804
 40
0.4724528789006786
 40
0.5794488992297344
 40
0.6339397336480286
 40
0.6872670452602943
 40
0.7409741315029978
 40
0.7958968813361827
 40
0.8512481408256359
 40
0.9034470736265863
 40
1.0
 40
1.0
 40
1.0
 40
1.0
 10
126.0252910263352
 20
137.903923533836
 30
0.0
 10
125.8084808303327
 20
137.9053201549046
 30
0.0
 10
125.150507011418
 20
137.9095586091608
 30
0.0
 10
124.2754120340871
 20
137.9490909335151
 30
0.0
 10
123.4305865392302
 20
138.012064180357
 30
0.0
 10
122.610861255626
 20
138.0900782136121
 30
0.0
 10
121.8350712775975
 20
138.1869613414873
 30
0.0
 10
121.1175828162911
 20
138.2952207534032
 30
0.0
 10
120.438318069119
 20
138.4089391257077
 30
0.0
 10
119.8300030912101
 20
138.5254393106485
 30
0.0
 10
119.3099111504869
 20
138.6345395620655
 30
0.0
 10
118.9660209727708
 20
138.7105434597956
 30
0.0
 10
118.6710672450432
 20
138.7785769157172
 30
0.0
 10
118.4252929577021
 20
138.8372899664758
 30
0.0
 10
118.2393906487287
 20
138.8829053464095
 30
0.0
 10
118.0677940430049
 20
138.92586479797
 30
0.0
 10
118.0476647678287
 20
138.9310258197721
 30
0.0
 10
118.034599113155
 20
138.9343757729144
 30
0.0
  0
LINE
  5
75
330
1F
100
AcDbEntity
  8
0
  6
Continuous
 62
     7
370
    15
100
AcDbLine
 10
127.6833581948
 20
137.9039235338
 30
0.0
 11
126.0252910263
 21
137.9039235338
 31
0.0
  0
LINE
  5
76
330
1F
100
AcDbEntity
  8
0
  6
Continuous
 62
     7
370
    15
100
AcDbLine
 10
127.6833581948
 20
131.895417723
 30
0.0
 11
127.6833581948
 21
137.9039235338
 31
0.0
  0
LINE
  5
77
330
1F
100
AcDbEntity
  8
0
  6
Continuous
 62
     7
370
    15
100
AcDbLine
 10
125.270911372
 20
131.895417723
 30
0.0
 11
127.6833581948
 21
131.895417723
 31
0.0
  0
SPLINE
  5
78
330
1F
100
AcDbEntity
  8
0
  6
Continuous
 62
     7
370
    15
100
AcDbSpline
210
0.0
220
0.0
230
1.0
 70
     8
 71
     3
 72
    20
 73
    16
 74
     0
 42
0.00000001
 43
0.00000001
 40
0.0
 40
0.0
 40
0.0
 40
0.0
 40
0.2500000000000005
 40
0.2500000000000005
 40
0.3750000000000004
 40
0.3750000000000004
 40
0.5000000000000003
 40
0.5000000000000003
 40
0.6250000000000002
 40
0.6250000000000002
 40
0.7500000000000001
 40
0.7500000000000001
 40
0.8750000000000001
 40
0.8750000000000001
 40
1.0
 40
1.0
 40
1.0
 40
1.0
 10
118.0252910263352
 20
127.2867280606718
 30
0.0
 10
118.2736647606233
 20
127.9405904889692
 30
0.0
 10
118.5932348529685
 20
128.5443762709664
 30
0.0
 10
119.2155410861732
 20
129.3712150071349
 30
0.0
 10
119.446965346604
 20
129.6336436450879
 30
0.0
 10
119.9681796862537
 20
130.1303062991928
 30
0.0
 10
120.2548001688887
 20
130.3608931782144
 30
0.0
 10
120.8742849101964
 20
130.777447402797
 30
0.0
 10
121.2085852896833
 20
130.9649452047645
 30
0.0
 10
121.9338457623081
 20
131.2963421824009
 30
0.0
 10
122.3157608196986
 20
131.4358461698962
 30
0.0
 10
123.1105489958703
 20
131.6612996773671
 30
0.0
 10
123.5247071900766
 20
131.7479257889107
 30
0.0
 10
124.3902535306581
 20
131.8659065777649
 30
0.0
 10
124.8281411456699
 20
131.8954177230392
 30
0.0
 10
125.2709113720245
 20
131.8954177230392
 30
0.0
  0
SPLINE
  5
79
330
1F
100
AcDbEntity
  8
0
  6
Continuous
 62
     7
370
    15
100
AcDbSpline
210
0.0
220
0.0
230
1.0
 70
     8
 71
     3
 72
    70
 73
    66
 74
     0
 42
0.00000001
 43
0.00000001
 40
-0.0312499999999998
 40
-0.0312499999999998
 40
0.0
 40
0.0
 40
0.0312500000000001
 40
0.0312500000000001
 40
0.0625000000000002
 40
0.0625000000000002
 40
0.0937500000000003
 40
0.0937500000000003
 40
0.1250000000000004
 40
0.1250000000000004
 40
0.1562500000000005
 40
0.1562500000000005
 40
0.1875000000000006
 40
0.1875000000000006
 40
0.2187500000000007
 40
0.2187500000000007
 40
0.2500000000000008
 40
0.2500000000000008
 40
0.2812500000000009
 40
0.2812500000000009
 40
0.3125000000000011
 40
0.3125000000000011
 40
0.3437500000000012
 40
0.3437500000000012
 40
0.3750000000000012
 40
0.3750000000000012
 40
0.4062500000000013
 40
0.4062500000000013
 40
0.4375000000000014
 40
0.4375000000000014
 40
0.4687500000000016
 40
0.4687500000000016
 40
0.5000000000000017
 40
0.5000000000000017
 40
0.5312500000000018
 40
0.5312500000000018
 40
0.5625000000000019
 40
0.5625000000000019
 40
0.593750000000002
 40
0.593750000000002
 40
0.6250000000000021
 40
0.6250000000000021
 40
0.6562500000000022
 40
0.6562500000000022
 40
0.6875000000000023
 40
0.6875000000000023
 40
0.7187500000000021
 40
0.7187500000000021
 40
0.7500000000000018
 40
0.7500000000000018
 40
0.7812500000000016
 40
0.7812500000000016
 40
0.8125000000000013
 40
0.8125000000000013
 40
0.8437500000000011
 40
0.8437500000000011
 40
0.8750000000000009
 40
0.8750000000000009
 40
0.9062500000000007
 40
0.9062500000000007
 40
0.9375000000000004
 40
0.9375000000000004
 40
0.9687500000000002
 40
0.9687500000000002
 40
1.0
 40
1.0
 40
1.03125
 40
1.03125
 10
120.8107456876751
 20
118.0576349466551
 30
0.0
 10
121.3398363649953
 20
118.0576349466551
 30
0.0
 10
121.5999070323724
 20
118.0823122414403
 30
0.0
 10
122.1114817122079
 20
118.1787839144822
 30
0.0
 10
122.3656569959481
 20
118.2517648304623
 30
0.0
 10
122.8499276260098
 20
118.4415054334009
 30
0.0
 10
123.0795687178909
 20
118.5573660917947
 30
0.0
 10
123.5141730661244
 20
118.8299839377524
 30
0.0
 10
123.719738842771
 20
118.9880230198061
 30
0.0
 10
124.0882959833663
 20
119.3315658707768
 30
0.0
 10
124.2537769661018
 20
119.5183283148785
 30
0.0
 10
124.5462014755369
 20
119.9218714892753
 30
0.0
 10
124.6703024521633
 20
120.1353684857044
 30
0.0
 10
124.8698816489131
 20
120.5747517996269
 30
0.0
 10
124.9468152347713
 20
120.8038917867726
 30
0.0
 10
125.0496722932917
 20
121.2698659095326
 30
0.0
 10
125.0751452027508
 20
121.5027483552087
 30
0.0
 10
125.0754356133186
 20
121.9681458902885
 30
0.0
 10
125.0494109795429
 20
122.2030216476829
 30
0.0
 10
124.9472626950509
 20
122.6545147949291
 30
0.0
 10
124.8716862474677
 20
122.8725612703405
 30
0.0
 10
124.6711887163228
 20
123.2936557953783
 30
0.0
 10
124.5460598748144
 20
123.4955771798966
 30
0.0
 10
124.2567010737928
 20
123.8676066624156
 30
0.0
 10
124.0912900867373
 20
124.0402349659959
 30
0.0
 10
123.7182995285895
 20
124.3575529705419
 30
0.0
 10
123.5165664955004
 20
124.4973399040435
 30
0.0
 10
123.0837072446726
 20
124.7415161575954
 30
0.0
 10
122.8497887117832
 20
124.8467456686368
 30
0.0
 10
122.3656049766406
 20
125.014902815012
 30
0.0
 10
122.1162893506851
 20
125.0781537056058
 30
0.0
 10
121.6032568262573
 20
125.1637329147084
 30
0.0
 10
121.3379630033527
 20
125.1856050796308
 30
0.0
 10
120.8156283834829
 20
125.1857687292748
 30
0.0
 10
120.5558747210012
 20
125.1647670371788
 30
0.0
 10
120.039262905356
 20
125.0793646821011
 30
0.0
 10
119.7868968648557
 20
125.0153584988142
 30
0.0
 10
119.3053717433229
 20
124.848543978773
 30
0.0
 10
119.0725210112093
 20
124.7444108153739
 30
0.0
 10
118.6354311627705
 20
124.4984241628789
 30
0.0
 10
118.4341101741133
 20
124.35867433193
 30
0.0
 10
118.0650241488134
 20
124.0455362622054
 30
0.0
 10
117.8960393977618
 20
123.8700801029353
 30
0.0
 10
117.6055833411025
 20
123.4972398388351
 30
0.0
 10
117.4825115297404
 20
123.2991180287242
 30
0.0
 10
117.2811752883184
 20
122.8784066859905
 30
0.0
 10
117.2039627423762
 20
122.656416665323
 30
0.0
 10
117.1017591994761
 20
122.2065517256146
 30
0.0
 10
117.0755308480238
 20
121.9762963124979
 30
0.0
 10
117.0750544487067
 20
121.5049803699488
 30
0.0
 10
117.1007968612046
 20
121.2717429542347
 30
0.0
 10
117.2021076375685
 20
120.8100664147366
 30
0.0
 10
117.2789402769595
 20
120.5791690276244
 30
0.0
 10
117.4793441161746
 20
120.1368930138328
 30
0.0
 10
117.6020156144667
 20
119.9258305825469
 30
0.0
 10
117.8919629036309
 20
119.5243320718142
 30
0.0
 10
118.0605338829961
 20
119.3334255497383
 30
0.0
 10
118.4288034771093
 20
118.9897002177412
 30
0.0
 10
118.6298653343796
 20
118.8345630315271
 30
0.0
 10
119.0668962529645
 20
118.5594856714474
 30
0.0
 10
119.2990444660941
 20
118.4423694420254
 30
0.0
 10
119.780054747593
 20
118.2534429569608
 30
0.0
 10
120.0321548304234
 20
118.1803679865666
 30
0.0
 10
120.5492243166824
 20
118.082315927432
 30
0.0
 10
120.8107456876751
 20
118.0576349466551
 30
0.0
 10
121.3398363649953
 20
118.0576349466551
 30
0.0
  0
LINE
  5
7A
330
1F
100
AcDbEntity
  8
0
  6
Continuous
 62
     7
370
    15
100
AcDbLine
 10
129.1652910263
 20
79.9388909016
 30
0.0
 11
129.1652910263
 21
127.2867280607
 31
0.0
  0
SPLINE
  5
7B
330
1F
100
AcDbEntity
  8
0
  6
Continuous
 62
     7
370
    15
100
AcDbSpline
210
0.0
220
0.0
230
1.0
 70
     8
 71
     3
 72
     8
 73
     4
 74
     0
 42
0.00000001
 43
0.00000001
 40
0.0
 40
0.0
 40
0.0
 40
0.0
 40
1.0
 40
1.0
 40
1.0
 40
1.0
 10
129.1652910263352
 20
79.9388909016169
 30
0.0
 10
128.672951903554
 20
79.0416208674102
 30
0.0
 10
128.1788378555119
 20
78.14533645235797
 30
0.0
 10
127.6833581948462
 20
77.2498103644246
 30
0.0
  0
SPLINE
  5
7C
330
1F
100
AcDbEntity
  8
0
  6
Continuous
 62
     7
370
    15
100
AcDbSpline
210
0.0
220
0.0
230
1.0
 70
    24
 71
     3
 72
     8
 73
     4
 74
     0
 42
0.00000001
 43
0.00000001
 40
0.0
 40
0.0
 40
0.0
 40
0.0
 40
1.0
 40
1.0
 40
1.0
 40
1.0
 10
127.6833581948462
 20
127.2867280606718
 30
0.0
 10
128.1900383029967
 20
127.2867280606718
 30
0.0
 10
128.6853390319703
 20
127.2867280606718
 30
0.0
 10
129.1652910263352
 20
127.2867280606718
 30
0.0
  0
LINE
  5
7D
330
1F
100
AcDbEntity
  8
0
  6
Continuous
 62
     7
370
    15
100
AcDbLine
 10
113.0752910263
 20
76.2367280607
 30
0.0
 11
113.0752910263
 21
138.6367280601
 31
0.0
  0
LINE
  5
7E
330
1F
100
AcDbEntity
  8
0
  6
Continuous
 62
     7
370
    15
100
AcDbLine
 10
139.0252910263
 20
77.8764506601
 30
0.0
 11
139.0252910263
 21
127.2867280607
 31
0.0
  0
SPLINE
  5
7F
330
1F
100
AcDbEntity
  8
0
  6
Continuous
 62
     7
370
    15
100
AcDbSpline
210
0.0
220
0.0
230
1.0
 70
     8
 71
     3
 72
    10
 73
     6
 74
     0
 42
0.00000001
 43
0.00000001
 40
0.0
 40
0.0
 40
0.0
 40
0.0
 40
0.5
 40
0.5
 40
1.0
 40
1.0
 40
1.0
 40
1.0
 10
139.0252910263352
 20
77.87645066007893
 30
0.0
 10
139.0252910263352
 20
77.71656339188527
 30
0.0
 10
138.9639813750994
 20
77.55543613637067
 30
0.0
 10
138.7448817375643
 20
77.32133713801583
 30
0.0
 10
138.5868335312508
 20
77.24981036442462
 30
0.0
 10
138.4252910263352
 20
77.24981036442462
 30
0.0
  0
SPLINE
  5
80
330
1F
100
AcDbEntity
  8
0
  6
Continuous
 62
     7
370
    15
100
AcDbSpline
210
0.0
220
0.0
230
1.0
 70
    24
 71
     3
 72
    12
 73
     8
 74
     0
 42
0.00000001
 43
0.00000001
 40
0.0
 40
0.0
 40
0.0
 40
0.0
 40
0.2500000000000033
 40
0.2500000000000033
 40
0.5000000000000067
 40
0.5000000000000067
 40
1.0
 40
1.0
 40
1.0
 40
1.0
 10
138.4252910263352
 20
127.2867280606718
 30
0.0
 10
138.5155300940222
 20
127.2867280606718
 30
0.0
 10
138.6064282081287
 20
127.2867280606718
 30
0.0
 10
138.7610252446173
 20
127.2867280606718
 30
0.0
 10
138.8260036607254
 20
127.2867280606718
 30
0.0
 10
138.9778386886616
 20
127.2867280606718
 30
0.0
 10
139.0252910263352
 20
127.2867280606718
 30
0.0
 10
139.0252910263352
 20
127.2867280606718
 30
0.0
  0
LINE
  5
81
330
1F
100
AcDbEntity
  8
0
  6
Continuous
 62
     7
370
    15
100
AcDbLine
 10
134.4672238578
 20
77.2498103644
 30
0.0
 11
134.4672238578
 21
127.2867280607
 31
0.0
  0
SPLINE
  5
82
330
1F
100
AcDbEntity
  8
0
  6
Continuous
 62
     7
370
    15
100
AcDbSpline
210
0.0
220
0.0
230
1.0
 70
     8
 71
     3
 72
     8
 73
     4
 74
     0
 42
0.00000001
 43
0.00000001
 40
0.0
 40
0.0
 40
0.0
 40
0.0
 40
1.0
 40
1.0
 40
1.0
 40
1.0
 10
134.4672238578243
 20
77.24981036442462
 30
0.0
 10
133.9717441971585
 20
78.14533645235798
 30
0.0
 10
133.4776301491164
 20
79.04162086741023
 30
0.0
 10
132.9852910263352
 20
79.93889090161693
 30
0.0
  0
LINE
  5
83
330
1F
100
AcDbEntity
  8
0
  6
Continuous
 62
     7
370
    15
100
AcDbLine
 10
132.9852910263
 20
79.9388909016
 30
0.0
 11
132.9852910263
 21
127.2867280607
 31
0.0
  0
SPLINE
  5
84
330
1F
100
AcDbEntity
  8
0
  6
Continuous
 62
     7
370
    15
100
AcDbSpline
210
0.0
220
0.0
230
1.0
 70
    24
 71
     3
 72
     8
 73
     4
 74
     0
 42
0.00000001
 43
0.00000001
 40
0.0
 40
0.0
 40
0.0
 40
0.0
 40
1.0
 40
1.0
 40
1.0
 40
1.0
 10
132.9852910263352
 20
127.2867280606718
 30
0.0
 10
133.4652430207001
 20
127.2867280606718
 30
0.0
 10
133.9605437496737
 20
127.2867280606718
 30
0.0
 10
134.4672238578243
 20
127.2867280606718
 30
0.0
  0
LINE
  5
85
330
1F
100
AcDbEntity
  8
0
  6
Continuous
 62
     7
370
    15
100
AcDbLine
 10
138.4252910263
 20
77.2498103644
 30
0.0
 11
134.4672238578
 21
77.2498103644
 31
0.0
  0
LINE
  5
86
330
1F
100
AcDbEntity
  8
0
  6
Continuous
 62
     7
370
    15
100
AcDbLine
 10
134.4672238578
 20
127.2867280607
 30
0.0
 11
138.4252910263
 21
127.2867280607
 31
0.0
  0
ARC
  5
87
330
1F
100
AcDbEntity
  8
0
  6
Continuous
 62
     7
370
    15
100
AcDbCircle
 10
121.0735251454
 20
119.3513353955
 30
0.0
 40
4.107853551862758
100
AcDbArc
 50
18.9868345146
 51
160.2027414479
  0
SPLINE
  5
88
330
1F
100
AcDbEntity
  8
0
  6
Continuous
 62
     7
370
    15
100
AcDbSpline
210
0.0
220
0.0
230
1.0
 70
    24
 71
     3
 72
    14
 73
    10
 74
     0
 42
0.00000001
 43
0.00000001
 40
0.0
 40
0.0
 40
0.0
 40
0.0
 40
0.5000000000000013
 40
0.5000000000000013
 40
0.750000000000002
 40
0.750000000000002
 40
0.875000000000001
 40
0.875000000000001
 40
1.0
 40
1.0
 40
1.0
 40
1.0
 10
132.8876162240029
 20
81.03672806067178
 30
0.0
 10
132.8408315189547
 20
81.03672806067178
 30
0.0
 10
132.7787803221751
 20
81.03672806067179
 30
0.0
 10
132.6353886836245
 20
81.03672806067178
 30
0.0
 10
132.5792450300733
 20
81.03672806067178
 30
0.0
 10
132.4662940079371
 20
81.03672806067178
 30
0.0
 10
132.423293245899
 20
81.03672806067178
 30
0.0
 10
132.3192305355925
 20
81.03672806067178
 30
0.0
 10
132.2538982972356
 20
81.03672806067179
 30
0.0
 10
132.1852910263352
 20
81.03672806067178
 30
0.0
  0
SPLINE
  5
89
330
1F
100
AcDbEntity
  8
0
  6
Continuous
 62
     7
370
    15
100
AcDbSpline
210
0.0
220
0.0
230
1.0
 70
    24
 71
     3
 72
    12
 73
     8
 74
     0
 42
0.00000001
 43
0.00000001
 40
0.0
 40
0.0
 40
0.0
 40
0.0
 40
0.5000000000000017
 40
0.5000000000000017
 40
0.7500000000000008
 40
0.7500000000000008
 40
1.0
 40
1.0
 40
1.0
 40
1.0
 10
132.5909934946442
 20
133.8367280606718
 30
0.0
 10
132.5479079450333
 20
133.8367280606718
 30
0.0
 10
132.498755743284
 20
133.8367280606718
 30
0.0
 10
132.402283148996
 20
133.8367280606718
 30
0.0
 10
132.3661815638615
 20
133.8367280606718
 30
0.0
 10
132.2830758060002
 20
133.8367280606718
 30
0.0
 10
132.2350792090339
 20
133.8367280606718
 30
0.0
 10
132.1852910263352
 20
133.8367280606718
 30
0.0
  0
SPLINE
  5
8A
330
1F
100
AcDbEntity
  8
0
  6
Continuous
 62
     7
370
    15
100
AcDbSpline
210
0.0
220
0.0
230
1.0
 70
     8
 71
     3
 72
    10
 73
     6
 74
     0
 42
0.00000001
 43
0.00000001
 40
0.0
 40
0.0
 40
0.0
 40
0.0
 40
0.5
 40
0.5
 40
1.0
 40
1.0
 40
1.0
 40
1.0
 10
132.9852910263352
 20
134.5563819117076
 30
0.0
 10
132.9852910263352
 20
134.4126118538896
 30
0.0
 10
132.9492419676163
 20
134.2701924913944
 30
0.0
 10
132.8137331068423
 20
134.0202981980372
 30
0.0
 10
132.7138571137461
 20
133.912267861789
 30
0.0
 10
132.5909934946442
 20
133.8367280606718
 30
0.0
  0
SPLINE
  5
8B
330
1F
100
AcDbEntity
  8
0
  6
Continuous
 62
     7
370
    15
100
AcDbSpline
210
0.0
220
0.0
230
1.0
 70
     8
 71
     3
 72
    10
 73
     6
 74
     0
 42
0.00000001
 43
0.00000001
 40
0.0
 40
0.0
 40
0.0
 40
0.0
 40
0.5
 40
0.5
 40
1.0
 40
1.0
 40
1.0
 40
1.0
 10
132.9591434031751
 20
127.2867280606718
 30
0.0
 10
132.9678330460867
 20
127.3336069099899
 30
0.0
 10
132.9743721108372
 20
127.3810293753912
 30
0.0
 10
132.9831307452303
 20
127.4769661739779
 30
0.0
 10
132.9852910263352
 20
127.5248814619884
 30
0.0
 10
132.9852910263352
 20
127.572594692133
 30
0.0
  0
SPLINE
  5
8C
330
1F
100
AcDbEntity
  8
0
  6
Continuous
 62
     7
370
    15
100
AcDbSpline
210
0.0
220
0.0
230
1.0
 70
     8
 71
     3
 72
    10
 73
     6
 74
     0
 42
0.00000001
 43
0.00000001
 40
0.0
 40
0.0
 40
0.0
 40
0.0
 40
0.5
 40
0.5
 40
1.0
 40
1.0
 40
1.0
 40
1.0
 10
129.5595885580261
 20
133.8367280606718
 30
0.0
 10
129.4380482943577
 20
133.9114542278835
 30
0.0
 10
129.3367139340087
 20
134.0203992438003
 30
0.0
 10
129.2010749911203
 20
134.2708297245619
 30
0.0
 10
129.1652910263352
 20
134.4132490866609
 30
0.0
 10
129.1652910263352
 20
134.5563819117076
 30
0.0
  0
SPLINE
  5
8D
330
1F
100
AcDbEntity
  8
0
  6
Continuous
 62
     7
370
    15
100
AcDbSpline
210
0.0
220
0.0
230
1.0
 70
    24
 71
     3
 72
    12
 73
     8
 74
     0
 42
0.00000001
 43
0.00000001
 40
0.0
 40
0.0
 40
0.0
 40
0.0
 40
0.2500000000000037
 40
0.2500000000000037
 40
0.5000000000000074
 40
0.5000000000000074
 40
1.0
 40
1.0
 40
1.0
 40
1.0
 10
129.9652910263352
 20
133.8367280606718
 30
0.0
 10
129.9154143440178
 20
133.8367280606718
 30
0.0
 10
129.8674111506141
 20
133.8367280606718
 30
0.0
 10
129.7843630479022
 20
133.8367280606718
 30
0.0
 10
129.7482334684343
 20
133.8367280606718
 30
0.0
 10
129.6523214374901
 20
133.8367280606718
 30
0.0
 10
129.6025627695213
 20
133.8367280606718
 30
0.0
 10
129.5595885580261
 20
133.8367280606718
 30
0.0
  0
SPLINE
  5
8E
330
1F
100
AcDbEntity
  8
0
  6
Continuous
 62
     7
370
    15
100
AcDbSpline
210
0.0
220
0.0
230
1.0
 70
    24
 71
     3
 72
    14
 73
    10
 74
     0
 42
0.00000001
 43
0.00000001
 40
0.0
 40
0.0
 40
0.0
 40
0.0
 40
0.1249999999999991
 40
0.1249999999999991
 40
0.2499999999999982
 40
0.2499999999999982
 40
0.4999999999999998
 40
0.4999999999999998
 40
1.0
 40
1.0
 40
1.0
 40
1.0
 10
129.9652910263352
 20
81.03672806067178
 30
0.0
 10
129.8968531784487
 20
81.03672806067178
 30
0.0
 10
129.8313031396837
 20
81.03672806067179
 30
0.0
 10
129.7268765002758
 20
81.03672806067179
 30
0.0
 10
129.6843318905143
 20
81.03672806067179
 30
0.0
 10
129.5717224299741
 20
81.03672806067178
 30
0.0
 10
129.5161833829546
 20
81.03672806067178
 30
0.0
 10
129.3735716874908
 20
81.03672806067178
 30
0.0
 10
129.310166332495
 20
81.03672806067178
 30
0.0
 10
129.2629658286675
 20
81.03672806067178
 30
0.0
  0
SPLINE
  5
8F
330
1F
100
AcDbEntity
  8
0
  6
Continuous
 62
     7
370
    15
100
AcDbSpline
210
0.0
220
0.0
230
1.0
 70
     8
 71
     3
 72
    10
 73
     6
 74
     0
 42
0.00000001
 43
0.00000001
 40
0.0
 40
0.0
 40
0.0
 40
0.0
 40
0.5
 40
0.5
 40
1.0
 40
1.0
 40
1.0
 40
1.0
 10
129.1652910263352
 20
127.5725946921332
 30
0.0
 10
129.1652910263352
 20
127.5248231841398
 30
0.0
 10
129.1674522699324
 20
127.4771134620782
 30
0.0
 10
129.1761236437925
 20
127.3818183445299
 30
0.0
 10
129.1826528267485
 20
127.3341257805633
 30
0.0
 10
129.1914386494953
 20
127.2867280606718
 30
0.0
  0
LINE
  5
90
330
1F
100
AcDbEntity
  8
0
  6
Continuous
 62
     7
370
    15
100
AcDbLine
 10
132.1852910263
 20
133.8367280607
 30
0.0
 11
129.9652910263
 21
133.8367280607
 31
0.0
  0
LINE
  5
91
330
1F
100
AcDbEntity
  8
0
  6
Continuous
 62
     7
370
    15
100
AcDbLine
 10
132.1852910263
 20
81.0367280607
 30
0.0
 11
129.9652910263
 21
81.0367280607
 31
0.0
  0
LINE
  5
92
330
1F
100
AcDbEntity
  8
0
  6
Continuous
 62
     7
370
    15
100
AcDbLine
 10
111.0752910263
 20
83.2162971989
 30
0.0
 11
111.0752910263
 21
131.6571589224
 31
0.0
  0
LINE
  5
93
330
1F
100
AcDbEntity
  8
0
  6
Continuous
 62
     7
370
    15
100
AcDbLine
 10
91.2752910263
 20
84.2082811669
 30
0.0
 11
91.2752910263
 21
85.4729905295
 31
0.0
  0
SPLINE
  5
94
330
1F
100
AcDbEntity
  8
0
  6
Continuous
 62
     7
370
    15
100
AcDbSpline
210
0.0
220
0.0
230
1.0
 70
     8
 71
     3
 72
    14
 73
    10
 74
     0
 42
0.00000001
 43
0.00000001
 40
0.0
 40
0.0
 40
0.0
 40
0.0
 40
0.25
 40
0.25
 40
0.5
 40
0.5
 40
0.75
 40
0.75
 40
1.0
 40
1.0
 40
1.0
 40
1.0
 10
90.49700390841949
 20
86.60357673711184
 30
0.0
 10
90.55363058362157
 20
86.49587928327497
 30
0.0
 10
90.64815324391131
 20
86.39308970155565
 30
0.0
 10
90.83119821947354
 20
86.1947323893355
 30
0.0
 10
90.92282479642824
 20
86.09867288065726
 30
0.0
 10
91.08167811412144
 20
85.91114383794802
 30
0.0
 10
91.14956872174315
 20
85.81973486516445
 30
0.0
 10
91.24648574745073
 20
85.6413586442543
 30
0.0
 10
91.27529102633578
 20
85.55413673800813
 30
0.0
 10
91.27529102633578
 20
85.47299052947388
 30
0.0
  0
SPLINE
  5
95
330
1F
100
AcDbEntity
  8
0
  6
Continuous
 62
     7
370
    15
100
AcDbSpline
210
0.0
220
0.0
230
1.0
 70
     8
 71
     3
 72
    14
 73
    10
 74
     0
 42
0.00000001
 43
0.00000001
 40
0.0
 40
0.0
 40
0.0
 40
0.0
 40
0.1250000000000025
 40
0.1250000000000025
 40
0.250000000000005
 40
0.250000000000005
 40
0.5000000000000046
 40
0.5000000000000046
 40
1.0
 40
1.0
 40
1.0
 40
1.0
 10
89.8752910263352
 20
87.05025859939116
 30
0.0
 10
89.92383543499237
 20
87.05600691267145
 30
0.0
 10
89.97675078977727
 20
87.0529060240152
 30
0.0
 10
90.0720461347603
 20
87.03071117985287
 30
0.0
 10
90.11229713204526
 20
87.01347895275701
 30
0.0
 10
90.21656714555823
 20
86.95715103630496
 30
0.0
 10
90.26688912071157
 20
86.91296469035917
 30
0.0
 10
90.39457206823695
 20
86.78195679150853
 30
0.0
 10
90.45065751529921
 20
86.69172227127825
 30
0.0
 10
90.49700390842094
 20
86.60357673711236
 30
0.0
  0
SPLINE
  5
96
330
1F
100
AcDbEntity
  8
0
  6
Continuous
 62
     7
370
    15
100
AcDbSpline
210
0.0
220
0.0
230
1.0
 70
     8
 71
     3
 72
     8
 73
     4
 74
     0
 42
0.00000001
 43
0.00000001
 40
0.0
 40
0.0
 40
0.0
 40
0.0
 40
1.0
 40
1.0
 40
1.0
 40
1.0
 10
87.60676593338897
 20
86.74041331280836
 30
0.0
 10
88.34134295987194
 20
86.85903832387731
 30
0.0
 10
89.10481802926758
 20
86.9590241960136
 30
0.0
 10
89.8752910263352
 20
87.05025859939116
 30
0.0
  0
SPLINE
  5
97
330
1F
100
AcDbEntity
  8
0
  6
Continuous
 62
     7
370
    15
100
AcDbSpline
210
0.0
220
0.0
230
1.0
 70
     8
 71
     3
 72
    14
 73
    10
 74
     0
 42
0.00000001
 43
0.00000001
 40
0.0
 40
0.0
 40
0.0
 40
0.0
 40
0.4999999999999989
 40
0.4999999999999989
 40
0.7499999999999983
 40
0.7499999999999983
 40
0.8749999999999991
 40
0.8749999999999991
 40
1.0
 40
1.0
 40
1.0
 40
1.0
 10
82.32529102633521
 20
86.5667902952767
 30
0.0
 10
83.21743715688879
 20
86.56606806907607
 30
0.0
 10
84.10741359268235
 20
86.57065427553353
 30
0.0
 10
85.43400875975797
 20
86.59837927992506
 30
0.0
 10
85.8748556882567
 20
86.61098581754922
 30
0.0
 10
86.53129592567913
 20
86.64200196555669
 30
0.0
 10
86.74930958227101
 20
86.65434513818346
 30
0.0
 10
87.18201843595376
 20
86.68736919334671
 30
0.0
 10
87.39729490111856
 20
86.70658635848515
 30
0.0
 10
87.60676593338896
 20
86.74041331280836
 30
0.0
  0
SPLINE
  5
98
330
1F
100
AcDbEntity
  8
0
  6
Continuous
 62
     7
370
    15
100
AcDbSpline
210
0.0
220
0.0
230
1.0
 70
     8
 71
     3
 72
     8
 73
     4
 74
     0
 42
0.00000001
 43
0.00000001
 40
0.0000005163856998
 40
0.0000005163856998
 40
0.0000005163856998
 40
0.0000005163856998
 40
0.000026289209185
 40
0.000026289209185
 40
0.000026289209185
 40
0.000026289209185
 10
82.31524609592759
 20
86.57677416837349
 30
0.0
 10
82.31857383413544
 20
86.57343992150437
 30
0.0
 10
82.32192228711102
 20
86.57011196422906
 30
0.0
 10
82.32529102633518
 20
86.56679029527669
 30
0.0
  0
SPLINE
  5
99
330
1F
100
AcDbEntity
  8
0
  6
Continuous
 62
     7
370
    15
100
AcDbSpline
210
0.0
220
0.0
230
1.0
 70
     8
 71
     3
 72
     8
 73
     4
 74
     0
 42
0.00000001
 43
0.00000001
 40
0.0000005099763573
 40
0.0000005099763573
 40
0.0000005099763573
 40
0.0000005099763573
 40
0.0000262827998699
 40
0.0000262827998699
 40
0.0000262827998699
 40
0.0000262827998699
 10
82.32529102633518
 20
128.3066658260669
 30
0.0
 10
82.32192228710744
 20
128.303344157111
 30
0.0
 10
82.3185738341283
 20
128.3000161998321
 30
0.0
 10
82.31524609591696
 20
128.2966819529594
 30
0.0
  0
SPLINE
  5
9A
330
1F
100
AcDbEntity
  8
0
  6
Continuous
 62
     7
370
    15
100
AcDbSpline
210
0.0
220
0.0
230
1.0
 70
     8
 71
     3
 72
    10
 73
     6
 74
     0
 42
0.00000001
 43
0.00000001
 40
0.0
 40
0.0
 40
0.0
 40
0.0
 40
0.5
 40
0.5
 40
1.0
 40
1.0
 40
1.0
 40
1.0
 10
85.8752910263352
 20
128.2598154524995
 30
0.0
 10
85.28770547924461
 20
128.2808809727359
 30
0.0
 10
84.69695908578423
 20
128.2916394586082
 30
0.0
 10
83.51293992048537
 20
128.3050042391438
 30
0.0
 10
82.91952593227991
 20
128.3071468818084
 30
0.0
 10
82.32529102633521
 20
128.3066658260669
 30
0.0
  0
SPLINE
  5
9B
330
1F
100
AcDbEntity
  8
0
  6
Continuous
 62
     7
370
    15
100
AcDbSpline
210
0.0
220
0.0
230
1.0
 70
     8
 71
     3
 72
    18
 73
    14
 74
     0
 42
0.00000001
 43
0.00000001
 40
0.0
 40
0.0
 40
0.0
 40
0.0
 40
0.2499999999999991
 40
0.2499999999999991
 40
0.499999999999999
 40
0.499999999999999
 40
0.7499999999999989
 40
0.7499999999999989
 40
0.8749999999999999
 40
0.8749999999999999
 40
0.9374999999999999
 40
0.9374999999999999
 40
1.0
 40
1.0
 40
1.0
 40
1.0
 10
87.27529102633521
 20
129.2808357330348
 30
0.0
 10
87.27529102633521
 20
129.1976288241776
 30
0.0
 10
87.23944192639695
 20
129.108892168864
 30
0.0
 10
87.11457019036304
 20
128.9267669783038
 30
0.0
 10
87.02416977271517
 20
128.8316369296771
 30
0.0
 10
86.801927117973
 20
128.6424554205528
 30
0.0
 10
86.67216233152722
 20
128.5475102524581
 30
0.0
 10
86.4315248742157
 20
128.4092315448782
 30
0.0
 10
86.34375757607826
 20
128.3635211115758
 30
0.0
 10
86.18923348887144
 20
128.3056978063543
 30
0.0
 10
86.13262260281668
 20
128.2879830423165
 30
0.0
 10
86.00857857191009
 20
128.2634437390836
 30
0.0
 10
85.94086389689178
 20
128.2574646005453
 30
0.0
 10
85.8752910263352
 20
128.2598154524995
 30
0.0
  0
LINE
  5
9C
330
1F
100
AcDbEntity
  8
0
  6
Continuous
 62
     7
370
    15
100
AcDbLine
 10
87.2752910263
 20
129.280835733
 30
0.0
 11
87.2752910263
 21
130.4647741529
 31
0.0
  0
SPLINE
  5
9D
330
1F
100
AcDbEntity
  8
0
  6
Continuous
 62
     7
370
    15
100
AcDbSpline
210
0.0
220
0.0
230
1.0
 70
     8
 71
     3
 72
    24
 73
    20
 74
     0
 42
0.00000001
 43
0.00000001
 40
0.0
 40
0.0
 40
0.0
 40
0.0
 40
0.0010489762969683
 40
0.0637843125636769
 40
0.1272220590447979
 40
0.190378892448547
 40
0.2526748653693617
 40
0.3146354154430339
 40
0.3770891997149997
 40
0.4393540298511558
 40
0.5008133242537859
 40
0.56218451045969
 40
0.6248438451115955
 40
0.6874304766618995
 40
0.749674317467912
 40
0.8119848426969831
 40
0.8750960525413152
 40
0.9384412526965837
 40
1.0
 40
1.0
 40
1.0
 40
1.0
 10
99.84419685831091
 20
83.77921963209164
 30
0.0
 10
99.84375039820668
 20
83.77916134627276
 30
0.0
 10
99.81660283451271
 20
83.77561720433005
 30
0.0
 10
99.91221461212515
 20
83.78845094901311
 30
0.0
 10
100.1457748700202
 20
83.81769763421302
 30
0.0
 10
100.5413291773383
 20
83.86431195727589
 30
0.0
 10
101.0683694811771
 20
83.91449509893529
 30
0.0
 10
101.7118998931653
 20
83.9588715613857
 30
0.0
 10
102.4505737484099
 20
83.98581634232325
 30
0.0
 10
103.2480882538418
 20
83.9892881930294
 30
0.0
 10
104.0746671362882
 20
83.9616609489993
 30
0.0
 10
104.9001901538966
 20
83.90318206002662
 30
0.0
 10
105.692316701898
 20
83.81773703066571
 30
0.0
 10
106.4248889758952
 20
83.71600279082915
 30
0.0
 10
107.0605292126253
 20
83.60815966885745
 30
0.0
 10
107.5824403196367
 20
83.50652951211832
 30
0.0
 10
107.96406909675
 20
83.42404435543988
 30
0.0
 10
108.2148835669859
 20
83.36789514909006
 30
0.0
 10
108.2440051229699
 20
83.36104569047632
 30
0.0
 10
108.2583576437859
 20
83.35766994374816
 30
0.0
  0
SPLINE
  5
9E
330
1F
100
AcDbEntity
  8
0
  6
Continuous
 62
     7
370
    15
100
AcDbSpline
210
0.0
220
0.0
230
1.0
 70
     8
 71
     3
 72
    24
 73
    20
 74
     0
 42
0.00000001
 43
0.00000001
 40
0.0
 40
0.0
 40
0.0
 40
0.0
 40
0.0614384276252095
 40
0.1250736755369691
 40
0.1884253490731512
 40
0.2508623904037511
 40
0.3129665632512957
 40
0.3753451453465188
 40
0.4377328972324856
 40
0.4990927322917281
 40
0.5605807588449117
 40
0.622946989302896
 40
0.6854686282028133
 40
0.7475477813740252
 40
0.8098225060806654
 40
0.8730684085990508
 40
0.9364041844531371
 40
0.9991757196257861
 40
1.0
 40
1.0
 40
1.0
 40
1.0
 10
108.2583028729829
 20
131.5157570351292
 30
0.0
 10
108.2437021486793
 20
131.5123889782766
 30
0.0
 10
108.2139786299509
 20
131.5055324348027
 30
0.0
 10
107.9612408143022
 20
131.4491938142767
 30
0.0
 10
107.5782448978532
 20
131.3663367321467
 30
0.0
 10
107.055889313415
 20
131.2644297021954
 30
0.0
 10
106.4211048354152
 20
131.1565905631517
 30
0.0
 10
105.690881231243
 20
131.0551236111766
 30
0.0
 10
104.9004126460096
 20
130.970063897486
 30
0.0
 10
104.0759291311808
 20
130.9118596035996
 30
0.0
 10
103.2488926722971
 20
130.8842761647728
 30
0.0
 10
102.4505684046448
 20
130.8877691422658
 30
0.0
 10
101.7107444403565
 20
130.914725062119
 30
0.0
 10
101.0664902073808
 20
130.9590790041182
 30
0.0
 10
100.5390829521656
 20
131.009284453876
 30
0.0
 10
100.1444183500158
 20
131.0558943090742
 30
0.0
 10
99.91188907083145
 20
131.0850899016218
 30
0.0
 10
99.81650903827807
 20
131.097867970563
 30
0.0
 10
99.8434426751798
 20
131.0943137120552
 30
0.0
 10
99.84379176840416
 20
131.0942676444718
 30
0.0
  0
SPLINE
  5
9F
330
1F
100
AcDbEntity
  8
0
  6
Continuous
 62
     7
370
    15
100
AcDbSpline
210
0.0
220
0.0
230
1.0
 70
     8
 71
     3
 72
     8
 73
     4
 74
     0
 42
0.00000001
 43
0.00000001
 40
0.0
 40
0.0
 40
0.0
 40
0.0
 40
1.0
 40
1.0
 40
1.0
 40
1.0
 10
81.17529102633455
 20
87.74605031419428
 30
0.0
 10
81.17529102633453
 20
87.73465348577997
 30
0.0
 10
81.17686004264418
 20
87.72506807416205
 30
0.0
 10
81.1795975041126
 20
87.71759099540233
 30
0.0
  0
SPLINE
  5
A0
330
1F
100
AcDbEntity
  8
0
  6
Continuous
 62
     7
370
    15
100
AcDbSpline
210
0.0
220
0.0
230
1.0
 70
     8
 71
     3
 72
    12
 73
     8
 74
     0
 42
0.00000001
 43
0.00000001
 40
0.0
 40
0.0
 40
0.0
 40
0.0
 40
0.0839988866763638
 40
0.3910885625176665
 40
0.701250540050408
 40
0.8502953555951863
 40
1.0
 40
1.0
 40
1.0
 40
1.0
 10
81.18784748738264
 20
87.70617206947828
 30
0.0
 10
81.18886845872
 20
87.70456571631027
 30
0.0
 10
81.1936219766355
 20
87.69708673204953
 30
0.0
 10
81.20741384289911
 20
87.69891390065398
 30
0.0
 10
81.22190557616565
 20
87.71378498155555
 30
0.0
 10
81.23221699493543
 20
87.73727728434108
 30
0.0
 10
81.23603911845747
 20
87.75386389411236
 30
0.0
 10
81.2379544010586
 20
87.76217551589104
 30
0.0
  0
LINE
  5
A1
330
1F
100
AcDbEntity
  8
0
  6
Continuous
 62
     7
370
    15
100
AcDbLine
 10
81.1752910263
 20
87.7460503142
 30
0.0
 11
81.1752910263
 21
127.1274058071
 31
0.0
  0
SPLINE
  5
A2
330
1F
100
AcDbEntity
  8
0
  6
Continuous
 62
     7
370
    15
100
AcDbSpline
210
0.0
220
0.0
230
1.0
 70
     8
 71
     3
 72
    10
 73
     6
 74
     0
 42
0.00000001
 43
0.00000001
 40
0.0
 40
0.0
 40
0.0
 40
0.0
 40
0.5
 40
0.5
 40
1.0
 40
1.0
 40
1.0
 40
1.0
 10
81.2379544010586
 20
127.1112806054525
 30
0.0
 10
81.22905011194986
 20
127.1570221246657
 30
0.0
 10
81.21253473175688
 20
127.1742129641347
 30
0.0
 10
81.18542678569527
 20
127.173889687199
 30
0.0
 10
81.1752910263352
 20
127.1560121449025
 30
0.0
 10
81.1752910263352
 20
127.1274058071499
 30
0.0
  0
SPLINE
  5
A3
330
1F
100
AcDbEntity
  8
0
  6
Continuous
 62
     7
370
    15
100
AcDbSpline
210
0.0
220
0.0
230
1.0
 70
     8
 71
     3
 72
    26
 73
    22
 74
     0
 42
0.00000001
 43
0.00000001
 40
0.0
 40
0.0
 40
0.0
 40
0.0
 40
0.2500000000000165
 40
0.2500000000000165
 40
0.3750000000000256
 40
0.3750000000000256
 40
0.4375000000000291
 40
0.4375000000000291
 40
0.4687500000000291
 40
0.4687500000000291
 40
0.5000000000000292
 40
0.5000000000000292
 40
0.5312500000000293
 40
0.5312500000000293
 40
0.5625000000000293
 40
0.5625000000000293
 40
0.625000000000026
 40
0.625000000000026
 40
0.7500000000000173
 40
0.7500000000000173
 40
1.0
 40
1.0
 40
1.0
 40
1.0
 10
81.99944467243972
 20
127.8268473942696
 30
0.0
 10
81.96084414957124
 20
127.7090726979142
 30
0.0
 10
81.91454714701699
 20
127.5846830117522
 30
0.0
 10
81.82060779858305
 20
127.3794636793988
 30
0.0
 10
81.7852963316696
 20
127.3078908129523
 30
0.0
 10
81.71911635592394
 20
127.1919375803519
 30
0.0
 10
81.69457798925569
 20
127.1513530455416
 30
0.0
 10
81.65120524370191
 20
127.0872113636699
 30
0.0
 10
81.6356968422767
 20
127.0653449383848
 30
0.0
 10
81.60065419768969
 20
127.0197506700416
 30
0.0
 10
81.58110390696991
 20
126.9960803790742
 30
0.0
 10
81.53917662659931
 20
126.9514638197343
 30
0.0
 10
81.51652451636768
 20
126.9305838072164
 30
0.0
 10
81.47555080228102
 20
126.8997103934655
 30
0.0
 10
81.45795150238561
 20
126.8898715236331
 30
0.0
 10
81.41332451652947
 20
126.870881907937
 30
0.0
 10
81.39276529387612
 20
126.8705575832835
 30
0.0
 10
81.34163985437947
 20
126.8797810241598
 30
0.0
 10
81.32072844139093
 20
126.9010279203767
 30
0.0
 10
81.26927853382999
 20
126.9749967992075
 30
0.0
 10
81.25161323452544
 20
127.0411148925222
 30
0.0
 10
81.2379544010586
 20
127.1112806054525
 30
0.0
  0
SPLINE
  5
A4
330
1F
100
AcDbEntity
  8
0
  6
Continuous
 62
     7
370
    15
100
AcDbSpline
210
0.0
220
0.0
230
1.0
 70
     8
 71
     3
 72
    10
 73
     6
 74
     0
 42
0.00000001
 43
0.00000001
 40
0.0
 40
0.0
 40
0.0
 40
0.0
 40
0.5
 40
0.5
 40
1.0
 40
1.0
 40
1.0
 40
1.0
 10
82.31524609591699
 20
128.2966819529594
 30
0.0
 10
82.24768684099874
 20
128.2289905601497
 30
0.0
 10
82.18405018566226
 20
128.154283395396
 30
0.0
 10
82.07382943109042
 20
127.9953172629694
 30
0.0
 10
82.02701313786778
 20
127.9109619969614
 30
0.0
 10
81.99944467243972
 20
127.8268473942696
 30
0.0
  0
SPLINE
  5
A5
330
1F
100
AcDbEntity
  8
0
  6
Continuous
 62
     7
370
    15
100
AcDbSpline
210
0.0
220
0.0
230
1.0
 70
     8
 71
     3
 72
    10
 73
     6
 74
     0
 42
0.00000001
 43
0.00000001
 40
0.0
 40
0.0
 40
0.0
 40
0.0
 40
0.5
 40
0.5
 40
1.0
 40
1.0
 40
1.0
 40
1.0
 10
81.99944467243975
 20
87.04660872707382
 30
0.0
 10
82.02692208719373
 20
86.96277193060592
 30
0.0
 10
82.07363071748314
 20
86.87846144301677
 30
0.0
 10
82.1839091802291
 20
86.71934021253008
 30
0.0
 10
82.24779671884299
 20
86.64435546844044
 30
0.0
 10
82.3152460959276
 20
86.57677416837349
 30
0.0
  0
SPLINE
  5
A6
330
1F
100
AcDbEntity
  8
0
  6
Continuous
 62
     7
370
    15
100
AcDbSpline
210
0.0
220
0.0
230
1.0
 70
     8
 71
     3
 72
    24
 73
    20
 74
     0
 42
0.00000001
 43
0.00000001
 40
0.0
 40
0.0
 40
0.0
 40
0.0
 40
0.25
 40
0.25
 40
0.374999999999999
 40
0.374999999999999
 40
0.4374999999999993
 40
0.4374999999999993
 40
0.4687499999999994
 40
0.4687499999999994
 40
0.4999999999999995
 40
0.4999999999999995
 40
0.5624999999999971
 40
0.5624999999999971
 40
0.6249999999999947
 40
0.6249999999999947
 40
0.7499999999999947
 40
0.7499999999999947
 40
1.0
 40
1.0
 40
1.0
 40
1.0
 10
81.2379544010586
 20
87.76217551589104
 30
0.0
 10
81.25170751972885
 20
87.83282557388134
 30
0.0
 10
81.26948008713471
 20
87.89942368664624
 30
0.0
 10
81.32173117869007
 20
87.97352170687945
 30
0.0
 10
81.34276625427161
 20
87.99477951404101
 30
0.0
 10
81.39566666190007
 20
88.00292544018725
 30
0.0
 10
81.41677233477799
 20
88.00198563679149
 30
0.0
 10
81.46282450345593
 20
87.98096964521415
 30
0.0
 10
81.48119497543934
 20
87.97006083910652
 30
0.0
 10
81.52274661050504
 20
87.93742592815914
 30
0.0
 10
81.54531328326195
 20
87.91593394778779
 30
0.0
 10
81.60809429972196
 20
87.84746800420147
 30
0.0
 10
81.64122406068985
 20
87.80139354599638
 30
0.0
 10
81.69814174717487
 20
87.7163856576617
 30
0.0
 10
81.72232777267865
 20
87.67610535648032
 30
0.0
 10
81.78753572305841
 20
87.56116913001438
 30
0.0
 10
81.82225178324964
 20
87.49058614486738
 30
0.0
 10
81.91546705358051
 20
87.28638038578877
 30
0.0
 10
81.96113958894121
 20
87.16348200346141
 30
0.0
 10
81.99944467243975
 20
87.04660872707385
 30
0.0
  0
SPLINE
  5
A7
330
1F
100
AcDbEntity
  8
0
  6
Continuous
 62
     7
370
    15
100
AcDbSpline
210
0.0
220
0.0
230
1.0
 70
     8
 71
     3
 72
    11
 73
     7
 74
     0
 42
0.00000001
 43
0.00000001
 40
0.0
 40
0.0
 40
0.0
 40
0.0
 40
0.0617739273503643
 40
0.4096329471688762
 40
0.7016962382451393
 40
1.0
 40
1.0
 40
1.0
 40
1.0
 10
162.0783425305319
 20
127.9500526451241
 30
0.0
 10
162.0773800626274
 20
127.9501984507157
 30
0.0
 10
162.0709977816034
 20
127.9511653112795
 30
0.0
 10
162.0989333029673
 20
127.9469312406371
 30
0.0
 10
162.1564373920113
 20
127.9382863739361
 30
0.0
 10
162.2189070733226
 20
127.9292306173302
 30
0.0
 10
162.2504720816363
 20
127.9246548771223
 30
0.0
  0
LINE
  5
A8
330
1F
100
AcDbEntity
  8
0
  6
Continuous
 62
     7
370
    15
100
AcDbLine
 10
162.2504720816
 20
86.9367280607
 30
0.0
 11
162.2504720816
 21
127.9246548771
 31
0.0
  0
SPLINE
  5
A9
330
1F
100
AcDbEntity
  8
0
  6
Continuous
 62
     7
370
    15
100
AcDbSpline
210
0.0
220
0.0
230
1.0
 70
     8
 71
     3
 72
    10
 73
     6
 74
     0
 42
0.00000001
 43
0.00000001
 40
0.0
 40
0.0
 40
0.0
 40
0.0
 40
0.3400460882385074
 40
0.6899397732013842
 40
0.9999999999999999
 40
0.9999999999999999
 40
0.9999999999999999
 40
0.9999999999999999
 10
162.2504720816363
 20
127.9246548771223
 30
0.0
 10
162.2152789425233
 20
127.9269917002738
 30
0.0
 10
162.1438734852698
 20
127.9317330200269
 30
0.0
 10
162.0856240365565
 20
127.935977484107
 30
0.0
 10
162.0797226022104
 20
127.9364059852594
 30
0.0
 10
162.0769499842454
 20
127.9366073041123
 30
0.0
  0
LINE
  5
AA
330
1F
100
AcDbEntity
  8
0
  6
Continuous
 62
     7
370
    15
100
AcDbLine
 10
147.6740614913
 20
127.8089710842
 30
0.0
 11
147.7593547983
 21
127.8016509142
 31
0.0
  0
SPLINE
  5
AB
330
1F
100
AcDbEntity
  8
0
  6
Continuous
 62
     7
370
    15
100
AcDbSpline
210
0.0
220
0.0
230
1.0
 70
     8
 71
     3
 72
    36
 73
    32
 74
     0
 42
0.00000001
 43
0.00000001
 40
0.0
 40
0.0
 40
0.0
 40
0.0
 40
0.0316636627240474
 40
0.0551239763724233
 40
0.0766306792665817
 40
0.1203174111506412
 40
0.1425306175384989
 40
0.1652407202479298
 40
0.2113014363857095
 40
0.2346782741540887
 40
0.2599993935861575
 40
0.3113496050206839
 40
0.3374111038804609
 40
0.3656478992863451
 40
0.4229645179695717
 40
0.452093584416756
 40
0.4823496268686076
 40
0.5438481947528157
 40
0.5751612163398158
 40
0.6059897222026036
 40
0.6370388948046286
 40
0.668803593392613
 40
0.7008255880925739
 40
0.7306398602360482
 40
0.7914651542174632
 40
0.8226064832595602
 40
0.8495084254323605
 40
0.9044878985738432
 40
0.932695432764565
 40
0.9560527454254204
 40
0.9999999999999999
 40
0.9999999999999999
 40
0.9999999999999999
 40
0.9999999999999999
 10
153.5162898490421
 20
127.9355443788723
 30
0.0
 10
153.5164185258413
 20
127.9355588892589
 30
0.0
 10
153.5166425421499
 20
127.9355841507143
 30
0.0
 10
153.4691310400958
 20
127.9293681669631
 30
0.0
 10
153.3940123479869
 20
127.9196824352406
 30
0.0
 10
153.2833251214858
 20
127.9057343468675
 30
0.0
 10
153.1395461790846
 20
127.8884442412947
 30
0.0
 10
152.9708103155231
 20
127.8688608986325
 30
0.0
 10
152.7694187124315
 20
127.8468889056959
 30
0.0
 10
152.536441479798
 20
127.8236668556714
 30
0.0
 10
152.2729359080734
 20
127.7992016632088
 30
0.0
 10
151.9767091688063
 20
127.7750627522873
 30
0.0
 10
151.6526199662013
 20
127.7530473316584
 30
0.0
 10
151.2976306616445
 20
127.7323623365321
 30
0.0
 10
150.9155537372093
 20
127.7161339109305
 30
0.0
 10
150.5177149716486
 20
127.7061144093331
 30
0.0
 10
150.1013432992722
 20
127.700567644851
 30
0.0
 10
149.6741324730869
 20
127.7028537629098
 30
0.0
 10
149.2520502258072
 20
127.7130004884088
 30
0.0
 10
148.9392364056557
 20
127.7243519555064
 30
0.0
 10
148.6326407483591
 20
127.7391331102146
 30
0.0
 10
148.3324643719921
 20
127.7571070285734
 30
0.0
 10
148.0490665155824
 20
127.7772815628115
 30
0.0
 10
147.6976691310797
 20
127.8059087765107
 30
0.0
 10
147.381656345203
 20
127.8362978982006
 30
0.0
 10
147.1179505855058
 20
127.8646623340633
 30
0.0
 10
146.8971457997283
 20
127.8898453691722
 30
0.0
 10
146.7265139618272
 20
127.9107993727727
 30
0.0
 10
146.6153162536525
 20
127.924979732504
 30
0.0
 10
146.5429811592346
 20
127.9343834087369
 30
0.0
 10
146.5342320281615
 20
127.9355457433652
 30
0.0
 10
146.5285191871706
 20
127.9363047024955
 30
0.0
  0
SPLINE
  5
AC
330
1F
100
AcDbEntity
  8
0
  6
Continuous
 62
     7
370
    15
100
AcDbSpline
210
0.0
220
0.0
230
1.0
 70
     8
 71
     3
 72
     9
 73
     5
 74
     0
 42
0.00000001
 43
0.00000001
 40
0.0
 40
0.0
 40
0.0
 40
0.0
 40
0.4519147939470706
 40
1.0
 40
1.0
 40
1.0
 40
1.0
 10
147.3297114592852
 20
127.8423251060949
 30
0.0
 10
147.3786700361352
 20
127.8373079174787
 30
0.0
 10
147.4870058939246
 20
127.826205849825
 30
0.0
 10
147.6078361922953
 20
127.8150728931076
 30
0.0
 10
147.6740614912753
 20
127.8089710842312
 30
0.0
  0
SPLINE
  5
AD
330
1F
100
AcDbEntity
  8
0
  6
Continuous
 62
     7
370
    15
100
AcDbSpline
210
0.0
220
0.0
230
1.0
 70
     8
 71
     3
 72
    68
 73
    64
 74
     0
 42
0.00000001
 43
0.00000001
 40
-0.0312500000000002
 40
-0.0312500000000002
 40
0.0
 40
0.0
 40
0.0312499999999998
 40
0.0312499999999998
 40
0.0624999999999996
 40
0.0624999999999996
 40
0.0937499999999993
 40
0.0937499999999993
 40
0.1249999999999991
 40
0.1249999999999991
 40
0.1562499999999989
 40
0.1562499999999989
 40
0.1874999999999987
 40
0.1874999999999987
 40
0.2187499999999984
 40
0.2187499999999984
 40
0.2499999999999982
 40
0.2499999999999982
 40
0.281249999999998
 40
0.281249999999998
 40
0.3124999999999978
 40
0.3124999999999978
 40
0.3437499999999976
 40
0.3437499999999976
 40
0.3749999999999973
 40
0.3749999999999973
 40
0.4062499999999971
 40
0.4062499999999971
 40
0.4374999999999969
 40
0.4374999999999969
 40
0.4999999999999964
 40
0.4999999999999964
 40
0.5312499999999967
 40
0.5312499999999967
 40
0.5624999999999969
 40
0.5624999999999969
 40
0.5937499999999971
 40
0.5937499999999971
 40
0.6249999999999973
 40
0.6249999999999973
 40
0.6562499999999976
 40
0.6562499999999976
 40
0.6874999999999978
 40
0.6874999999999978
 40
0.718749999999998
 40
0.718749999999998
 40
0.7499999999999982
 40
0.7499999999999982
 40
0.7812499999999984
 40
0.7812499999999984
 40
0.8124999999999987
 40
0.8124999999999987
 40
0.8437499999999989
 40
0.8437499999999989
 40
0.8749999999999991
 40
0.8749999999999991
 40
0.9062499999999993
 40
0.9062499999999993
 40
0.9374999999999996
 40
0.9374999999999996
 40
0.9687499999999998
 40
0.9687499999999998
 40
1.0
 40
1.0
 40
1.03125
 40
1.03125
 10
147.5047331401305
 20
109.5855871085608
 30
0.0
 10
147.843389844695
 20
109.8580830937803
 30
0.0
 10
148.0228590889344
 20
109.9762074335808
 30
0.0
 10
148.4001994019995
 20
110.1797611435217
 30
0.0
 10
148.5993651230646
 20
110.2655615255421
 30
0.0
 10
149.0106913694062
 20
110.4021611814833
 30
0.0
 10
149.2198449306091
 20
110.452217282499
 30
0.0
 10
149.6448268226344
 20
110.5175537520628
 30
0.0
 10
149.8625681733045
 20
110.5327393647984
 30
0.0
 10
150.2950475510728
 20
110.5268212348495
 30
0.0
 10
150.5087928201516
 20
110.5061051520827
 30
0.0
 10
150.931359820488
 20
110.4295760479568
 30
0.0
 10
151.142122275375
 20
110.3730041598938
 30
0.0
 10
151.5480113799025
 20
110.225532653806
 30
0.0
 10
151.7423086433468
 20
110.1353841346424
 30
0.0
 10
152.1133353929921
 20
109.9215739272807
 30
0.0
 10
152.2918796696216
 20
109.7963165432391
 30
0.0
 10
152.6195665411394
 20
109.5159070191662
 30
0.0
 10
152.7679740967741
 20
109.3620683740023
 30
0.0
 10
153.0323776264242
 20
109.0256028944771
 30
0.0
 10
153.1496405659475
 20
108.8400421487155
 30
0.0
 10
153.3377414069508
 20
108.4523244277088
 30
0.0
 10
153.4093729509242
 20
108.2505114571588
 30
0.0
 10
153.5051074249739
 20
107.8299738573302
 30
0.0
 10
153.5282589051685
 20
107.6106910362208
 30
0.0
 10
153.5216947000355
 20
107.1803637386787
 30
0.0
 10
153.4923296027564
 20
106.9638309595055
 30
0.0
 10
153.3834369954365
 20
106.5434814989055
 30
0.0
 10
153.3053348333154
 20
106.3426629279867
 30
0.0
 10
153.0045718193104
 20
105.7664085175657
 30
0.0
 10
152.7193677645526
 20
105.4289493115971
 30
0.0
 10
152.2155049948498
 20
105.0213539401262
 30
0.0
 10
152.0362378092547
 20
104.9024067753289
 30
0.0
 10
151.6562951503994
 20
104.6963406579859
 30
0.0
 10
151.4555164539025
 20
104.609691700726
 30
0.0
 10
151.047138634778
 20
104.4733429937111
 30
0.0
 10
150.8378062415513
 20
104.4226188827196
 30
0.0
 10
150.4088167736012
 20
104.3560866509791
 30
0.0
 10
150.1917089062668
 20
104.3409390849417
 30
0.0
 10
149.7616520902248
 20
104.3462844368067
 30
0.0
 10
149.5472742837759
 20
104.366536368699
 30
0.0
 10
149.1198694096335
 20
104.443586641992
 30
0.0
 10
148.9101841788388
 20
104.5000180296804
 30
0.0
 10
148.5067841480637
 20
104.6462028078813
 30
0.0
 10
148.3117633411803
 20
104.736153913047
 30
0.0
 10
147.9360731178058
 20
104.952465982327
 30
0.0
 10
147.7585940962639
 20
105.0773527141991
 30
0.0
 10
147.4333167617248
 20
105.3554602042823
 30
0.0
 10
147.2840862080355
 20
105.5094199283089
 30
0.0
 10
147.0157677160627
 20
105.8510410373301
 30
0.0
 10
146.9004424120908
 20
106.0344633934229
 30
0.0
 10
146.7134470685234
 20
106.4198610162427
 30
0.0
 10
146.6403718065592
 20
106.6251476261983
 30
0.0
 10
146.5444596526762
 20
107.0494445276327
 30
0.0
 10
146.522199336414
 20
107.2635565603877
 30
0.0
 10
146.5290642556229
 20
107.6957108659417
 30
0.0
 10
146.5592244865123
 20
107.9145058461247
 30
0.0
 10
146.6680148908934
 20
108.3321846453683
 30
0.0
 10
146.7475806444926
 20
108.5362424523295
 30
0.0
 10
146.949196294815
 20
108.9205475547544
 30
0.0
 10
147.0697951930313
 20
109.0993457695414
 30
0.0
 10
147.3476438416531
 20
109.4323305350472
 30
0.0
 10
147.5047331401305
 20
109.5855871085608
 30
0.0
 10
147.843389844695
 20
109.8580830937803
 30
0.0
  0
SPLINE
  5
AE
330
1F
100
AcDbEntity
  8
0
  6
Continuous
 62
     7
370
    15
100
AcDbSpline
210
0.0
220
0.0
230
1.0
 70
     8
 71
     3
 72
    37
 73
    33
 74
     0
 42
0.00000001
 43
0.00000001
 40
0.0
 40
0.0
 40
0.0
 40
0.0
 40
0.0253261741981315
 40
0.0489570215777731
 40
0.070455088607259
 40
0.1141316802208921
 40
0.1363445073937923
 40
0.1589123374054026
 40
0.2046871237713414
 40
0.2279203268405057
 40
0.2530328202229025
 40
0.3039583666132481
 40
0.3298030053225433
 40
0.3578513267111439
 40
0.4147803470495497
 40
0.4437088703578038
 40
0.4738681563404761
 40
0.5351642136129395
 40
0.5663699470167697
 40
0.5972052724205453
 40
0.6282601115384715
 40
0.6600249449185062
 40
0.6920442472314685
 40
0.7219902279867496
 40
0.783073310836641
 40
0.8143385949535696
 40
0.8414935015496182
 40
0.8969886549704761
 40
0.9254612725503513
 40
0.9490310386877269
 40
0.9971218824265112
 40
0.9999999999999999
 40
0.9999999999999999
 40
0.9999999999999999
 40
0.9999999999999999
 10
146.5358516077586
 20
86.93811756441664
 30
0.0
 10
146.53381320993
 20
86.93785037828322
 30
0.0
 10
146.5298728640374
 20
86.9373338913793
 30
0.0
 10
146.5689976065431
 20
86.9424659546529
 30
0.0
 10
146.636986500357
 20
86.95126837937829
 30
0.0
 10
146.7413916656133
 20
86.96450994169281
 30
0.0
 10
146.8789985234849
 20
86.98120330374488
 30
0.0
 10
147.0412571047653
 20
87.00023459364117
 30
0.0
 10
147.2361336484823
 20
87.02179200669262
 30
0.0
 10
147.4627039816671
 20
87.04478218036917
 30
0.0
 10
147.7194603450394
 20
87.06913189007403
 30
0.0
 10
148.0090363204273
 20
87.09339858503482
 30
0.0
 10
148.3269517639502
 20
87.11582361030348
 30
0.0
 10
148.6761141164461
 20
87.13714667472344
 30
0.0
 10
149.0530855101011
 20
87.15432074028607
 30
0.0
 10
149.4470000655971
 20
87.16553894021246
 30
0.0
 10
149.8607268869214
 20
87.17245752627844
 30
0.0
 10
150.2867552161088
 20
87.17167354325112
 30
0.0
 10
150.7092939014314
 20
87.16299376029204
 30
0.0
 10
151.0235630128578
 20
87.15267233975536
 30
0.0
 10
151.3326341705184
 20
87.13880499315577
 30
0.0
 10
151.6359712188266
 20
87.12161580056978
 30
0.0
 10
151.9235904197129
 20
87.10201760994529
 30
0.0
 10
152.2820367224243
 20
87.07383446134892
 30
0.0
 10
152.6066146608063
 20
87.04342889539843
 30
0.0
 10
152.880107163929
 20
87.01457371852797
 30
0.0
 10
153.1115025514631
 20
86.98858728565352
 30
0.0
 10
153.2925387149045
 20
86.9665976892022
 30
0.0
 10
153.4156907780103
 20
86.95099049742208
 30
0.0
 10
153.4960096046126
 20
86.94060587666266
 30
0.0
 10
153.5313932194245
 20
86.9359247023612
 30
0.0
 10
153.5244406397003
 20
86.9368399794592
 30
0.0
 10
153.5240480411193
 20
86.93689166336706
 30
0.0
  0
SPLINE
  5
AF
330
1F
100
AcDbEntity
  8
0
  6
Continuous
 62
     7
370
    15
100
AcDbSpline
210
0.0
220
0.0
230
1.0
 70
     8
 71
     3
 72
     9
 73
     5
 74
     0
 42
0.00000001
 43
0.00000001
 40
0.0
 40
0.0
 40
0.0
 40
0.0
 40
0.369108632229193
 40
0.9999999999999999
 40
0.9999999999999999
 40
0.9999999999999999
 40
0.9999999999999999
 10
147.9834914009286
 20
87.08999113623287
 30
0.0
 10
147.943290781987
 20
87.08702853299685
 30
0.0
 10
147.8343780787029
 20
87.0790021608741
 30
0.0
 10
147.7360780998304
 20
87.07010081771318
 30
0.0
 10
147.6740614917076
 20
87.0644850371514
 30
0.0
  0
CIRCLE
  5
B0
330
1F
100
AcDbEntity
  8
0
  6
Continuous
 62
     7
370
    15
100
AcDbCircle
 10
150.0252910263
 20
107.4367280607
 30
0.0
 40
2.5
  0
SPLINE
  5
B1
330
1F
100
AcDbEntity
  8
0
  6
Continuous
 62
     7
370
    15
100
AcDbSpline
210
0.0
220
0.0
230
1.0
 70
     8
 71
     3
 72
    10
 73
     6
 74
     0
 42
0.00000001
 43
0.00000001
 40
0.0
 40
0.0
 40
0.0
 40
0.0
 40
0.5
 40
0.5
 40
1.0
 40
1.0
 40
1.0
 40
1.0
 10
139.0252910263352
 20
137.2831683844357
 30
0.0
 10
139.0252910263352
 20
137.4435736507865
 30
0.0
 10
138.9630531952283
 20
137.6026354637751
 30
0.0
 10
138.7439182714858
 20
137.8335479294054
 30
0.0
 10
138.5863295764939
 20
137.903923533836
 30
0.0
 10
138.4252910263352
 20
137.903923533836
 30
0.0
  0
SPLINE
  5
B2
330
1F
100
AcDbEntity
  8
0
  6
Continuous
 62
     7
370
    15
100
AcDbSpline
210
0.0
220
0.0
230
1.0
 70
     8
 71
     3
 72
    12
 73
     8
 74
     0
 42
0.00000001
 43
0.00000001
 40
0.0
 40
0.0
 40
0.0
 40
0.0
 40
0.250000000000002
 40
0.250000000000002
 40
0.500000000000004
 40
0.500000000000004
 40
1.0
 40
1.0
 40
1.0
 40
1.0
 10
138.4252910263352
 20
131.8954177230392
 30
0.0
 10
138.5164907481609
 20
131.8954177230392
 30
0.0
 10
138.6070857572969
 20
131.8671980244513
 30
0.0
 10
138.7604984837436
 20
131.7727550172033
 30
0.0
 10
138.8257073510672
 20
131.7064680404979
 30
0.0
 10
138.9784918804071
 20
131.4808432172096
 30
0.0
 10
139.0252910263352
 20
131.2984169541771
 30
0.0
 10
139.0252910263352
 20
131.1176803219302
 30
0.0
  0
LINE
  5
B3
330
1F
100
AcDbEntity
  8
0
  6
Continuous
 62
     7
370
    15
100
AcDbLine
 10
139.0252910263
 20
131.1176803219
 30
0.0
 11
139.0252910263
 21
137.2831683844
 31
0.0
  0
SPLINE
  5
B4
330
1F
100
AcDbEntity
  8
0
  6
Continuous
 62
     7
370
    15
100
AcDbSpline
210
0.0
220
0.0
230
1.0
 70
     8
 71
     3
 72
     8
 73
     4
 74
     0
 42
0.00000001
 43
0.00000001
 40
0.0
 40
0.0
 40
0.0
 40
0.0
 40
1.0
 40
1.0
 40
1.0
 40
1.0
 10
129.1652910263352
 20
135.2419622518434
 30
0.0
 10
128.6725809294894
 20
136.1299812499698
 30
0.0
 10
128.1784982242104
 20
137.0172438856558
 30
0.0
 10
127.6833581948462
 20
137.903923533836
 30
0.0
  0
LINE
  5
B5
330
1F
100
AcDbEntity
  8
0
  6
Continuous
 62
     7
370
    15
100
AcDbLine
 10
129.1652910263
 20
128.4868717283
 30
0.0
 11
129.1652910263
 21
135.2419622518
 31
0.0
  0
SPLINE
  5
B6
330
1F
100
AcDbEntity
  8
0
  6
Continuous
 62
     7
370
    15
100
AcDbSpline
210
0.0
220
0.0
230
1.0
 70
     8
 71
     3
 72
     8
 73
     4
 74
     0
 42
0.00000001
 43
0.00000001
 40
0.0
 40
0.0
 40
0.0
 40
0.0
 40
1.0
 40
1.0
 40
1.0
 40
1.0
 10
127.6833581948462
 20
131.8954177230392
 30
0.0
 10
128.1904450366054
 20
130.7642673688756
 30
0.0
 10
128.6860128757453
 20
129.6278829581077
 30
0.0
 10
129.1652910263352
 20
128.4868717282552
 30
0.0
  0
SPLINE
  5
B7
330
1F
100
AcDbEntity
  8
0
  6
Continuous
 62
     7
370
    15
100
AcDbSpline
210
0.0
220
0.0
230
1.0
 70
     8
 71
     3
 72
     8
 73
     4
 74
     0
 42
0.00000001
 43
0.00000001
 40
0.0
 40
0.0
 40
0.0
 40
0.0
 40
1.0
 40
1.0
 40
1.0
 40
1.0
 10
132.9852910263352
 20
128.4868717282551
 30
0.0
 10
133.464569176925
 20
129.6278829581077
 30
0.0
 10
133.960137016065
 20
130.7642673688755
 30
0.0
 10
134.4672238578243
 20
131.8954177230392
 30
0.0
  0
LINE
  5
B8
330
1F
100
AcDbEntity
  8
0
  6
Continuous
 62
     7
370
    15
100
AcDbLine
 10
134.4672238578
 20
131.895417723
 30
0.0
 11
138.4252910263
 21
131.895417723
 31
0.0
  0
LINE
  5
B9
330
1F
100
AcDbEntity
  8
0
  6
Continuous
 62
     7
370
    15
100
AcDbLine
 10
132.9852910263
 20
127.5725946921
 30
0.0
 11
132.9852910263
 21
128.4868717283
 31
0.0
  0
LINE
  5
BA
330
1F
100
AcDbEntity
  8
0
  6
Continuous
 62
     7
370
    15
100
AcDbLine
 10
139.0252910263
 20
131.1176803219
 30
0.0
 11
139.0252910263
 21
127.2867280607
 31
0.0
  0
SPLINE
  5
BB
330
1F
100
AcDbEntity
  8
0
  6
Continuous
 62
     7
370
    15
100
AcDbSpline
210
0.0
220
0.0
230
1.0
 70
     8
 71
     3
 72
     8
 73
     4
 74
     0
 42
0.00000001
 43
0.00000001
 40
0.0
 40
0.0
 40
0.0
 40
0.0
 40
1.0
 40
1.0
 40
1.0
 40
1.0
 10
134.4672238578243
 20
137.903923533836
 30
0.0
 10
133.9720838284599
 20
137.0172438856558
 30
0.0
 10
133.4780011231809
 20
136.1299812499698
 30
0.0
 10
132.9852910263352
 20
135.2419622518434
 30
0.0
  0
LINE
  5
BC
330
1F
100
AcDbEntity
  8
0
  6
Continuous
 62
     7
370
    15
100
AcDbLine
 10
134.4672238578
 20
131.895417723
 30
0.0
 11
134.4672238578
 21
137.9039235338
 31
0.0
  0
LINE
  5
BD
330
1F
100
AcDbEntity
  8
0
  6
Continuous
 62
     7
370
    15
100
AcDbLine
 10
132.9852910263
 20
128.4868717283
 30
0.0
 11
132.9852910263
 21
135.2419622518
 31
0.0
  0
LINE
  5
BE
330
1F
100
AcDbEntity
  8
0
  6
Continuous
 62
     7
370
    15
100
AcDbLine
 10
138.4252910263
 20
137.9039235338
 30
0.0
 11
134.4672238578
 21
137.9039235338
 31
0.0
  0
LINE
  5
BF
330
1F
100
AcDbEntity
  8
0
  6
Continuous
 62
     7
370
    15
100
AcDbLine
 10
129.1652910263
 20
128.4868717283
 30
0.0
 11
129.1652910263
 21
127.5725946921
 31
0.0
  0
ARC
  5
C0
330
1F
100
AcDbEntity
  8
0
  6
Continuous
 62
     7
370
    15
100
AcDbCircle
 10
121.0752353662
 20
126.1504319554
 30
0.0
 40
7.241520362858407
100
AcDbArc
 50
70.7639986023
 51
109.2206310147
  0
LINE
  5
C1
330
1F
100
AcDbEntity
  8
0
  6
Continuous
 62
     7
370
    15
100
AcDbLine
 10
213.0752910263
 20
92.785509044
 30
0.0
 11
213.0752910263
 21
122.0879470687
 31
0.0
  0
LINE
  5
C2
330
1F
100
AcDbEntity
  8
0
  6
Continuous
 62
     7
370
    15
100
AcDbLine
 10
213.0752910263
 20
95.1873067296
 30
0.0
 11
213.1526132335
 21
93.2193251427
 31
0.0
  0
LINE
  5
C3
330
1F
100
AcDbEntity
  8
0
  6
Continuous
 62
     7
370
    15
100
AcDbLine
 10
213.0937235098
 20
121.6564447621
 30
0.0
 11
213.0752910263
 21
121.1873067296
 31
0.0
  0
LINE
  5
C4
330
1F
100
AcDbEntity
  8
0
  6
HIDDEN
 62
     7
370
     0
100
AcDbLine
 10
127.6833581948
 20
131.895417723
 30
0.0
 11
127.6833581948
 21
127.2867280607
 31
0.0
  0
ARC
  5
C5
330
1F
100
AcDbEntity
  8
0
  6
HIDDEN
 62
     7
370
     0
100
AcDbCircle
 10
121.3588730044
 20
119.9330060295
 30
0.0
 40
3.67731416737329
100
AcDbArc
 50
265.5771529311
 51
11.8450004916
  0
ARC
  5
C6
330
1F
100
AcDbEntity
  8
0
  6
HIDDEN
 62
     7
370
     0
100
AcDbCircle
 10
120.7754254347
 20
119.9158720091
 30
0.0
 40
3.661528998094338
100
AcDbArc
 50
166.9502194616
 51
274.6975721236
  0
LINE
  5
C7
330
1F
100
AcDbEntity
  8
0
  6
HIDDEN
 62
     7
370
     0
100
AcDbLine
 10
101.0704412309
 20
83.9121284379
 30
0.0
 11
100.8215764122
 21
83.8888654713
 31
0.0
  0
LINE
  5
C8
330
1F
100
AcDbEntity
  8
0
  6
HIDDEN
 62
     7
370
     0
100
AcDbLine
 10
100.689015651
 20
130.9968143889
 30
0.0
 11
101.0703485106
 21
130.9613110907
 31
0.0
  0
SPLINE
  5
C9
330
1F
100
AcDbEntity
  8
0
  6
HIDDEN
 62
     7
370
     0
100
AcDbSpline
210
0.0
220
0.0
230
1.0
 70
     8
 71
     3
 72
    32
 73
    28
 74
     0
 42
0.00000001
 43
0.00000001
 40
0.0
 40
0.0
 40
0.0
 40
0.0
 40
0.0346246159901393
 40
0.0694870388940023
 40
0.105100760954932
 40
0.1409753874086758
 40
0.1756005721189328
 40
0.210469240812561
 40
0.2461122854708169
 40
0.2820258067991321
 40
0.3162663828049037
 40
0.3859338563640312
 40
0.4214461814158482
 40
0.4553763558770598
 40
0.5243713305904967
 40
0.5595124638219118
 40
0.593798734303577
 40
0.6635059787021123
 40
0.6990055363805018
 40
0.7337623601246063
 40
0.7687606633024604
 40
0.8045245907686109
 40
0.8405553812432468
 40
0.875170121130555
 40
0.9456085132854553
 40
0.9815233266320907
 40
1.0
 40
1.0
 40
1.0
 40
1.0
 10
106.8302930279368
 20
87.59919958485531
 30
0.0
 10
106.7582947260904
 20
87.60898752776363
 30
0.0
 10
106.6138036275572
 20
87.62863063860007
 30
0.0
 10
106.3724836932988
 20
87.6580798572218
 30
0.0
 10
106.1131854423131
 20
87.68663023931221
 30
0.0
 10
105.8391980231805
 20
87.71306145826705
 30
0.0
 10
105.554570242159
 20
87.73651393561835
 30
0.0
 10
105.2599852831908
 20
87.75651139207696
 30
0.0
 10
104.9530543742225
 20
87.77266707058071
 30
0.0
 10
104.64132290847
 20
87.78410905827619
 30
0.0
 10
104.2240573597846
 20
87.79280018597404
 30
0.0
 10
103.803414366427
 20
87.79151212951385
 30
0.0
 10
103.3900108132616
 20
87.78028431814637
 30
0.0
 10
102.9851668501943
 20
87.7629860460655
 30
0.0
 10
102.5945287656321
 20
87.73727040229728
 30
0.0
 10
102.2257476875909
 20
87.70517709140037
 30
0.0
 10
101.8723299053425
 20
87.66961888289792
 30
0.0
 10
101.5468888150215
 20
87.63037042656232
 30
0.0
 10
101.2575116093042
 20
87.59073890919
 30
0.0
 10
101.0595977323289
 20
87.56160316604775
 30
0.0
 10
100.8822707682914
 20
87.533868933735
 30
0.0
 10
100.7256614397789
 20
87.50808838948062
 30
0.0
 10
100.5940139200762
 20
87.48548175274642
 30
0.0
 10
100.4521527245044
 20
87.46029570743977
 30
0.0
 10
100.3633341366888
 20
87.44385015831615
 30
0.0
 10
100.3265111981384
 20
87.43695732749998
 30
0.0
 10
100.3279273453116
 20
87.43722231340918
 30
0.0
 10
100.3284084075208
 20
87.43731232856389
 30
0.0
  0
SPLINE
  5
CA
330
1F
100
AcDbEntity
  8
0
  6
HIDDEN
 62
     7
370
     0
100
AcDbSpline
210
0.0
220
0.0
230
1.0
 70
     8
 71
     3
 72
    22
 73
    18
 74
     0
 42
0.00000001
 43
0.00000001
 40
0.0
 40
0.0
 40
0.0
 40
0.0
 40
0.0499040281125884
 40
0.1203075863893544
 40
0.1885125365560131
 40
0.258644416829719
 40
0.3277839407293157
 40
0.3988873214655099
 40
0.4686969488930336
 40
0.5405663748364754
 40
0.609708789122301
 40
0.6809159691092499
 40
0.7490773369981711
 40
0.8192056085539694
 40
0.8876078379088254
 40
0.9579332867310426
 40
1.0
 40
1.0
 40
1.0
 40
1.0
 10
100.3352631679966
 20
127.4348632525901
 30
0.0
 10
100.3365141020221
 20
127.4346242221944
 30
0.0
 10
100.3395298275864
 20
127.4340479727197
 30
0.0
 10
100.4644231546399
 20
127.4108499378962
 30
0.0
 10
100.6889049825175
 20
127.3711699015786
 30
0.0
 10
101.007933144695
 20
127.3189584801793
 30
0.0
 10
101.4154683756917
 20
127.2596286685071
 30
0.0
 10
101.8972549295246
 20
127.2001538919911
 30
0.0
 10
102.4476746113199
 20
127.1465475356292
 30
0.0
 10
103.0405694972681
 20
127.1060736171548
 30
0.0
 10
103.6675220675853
 20
127.0828743687885
 30
0.0
 10
104.2957330414133
 20
127.0798962655736
 30
0.0
 10
104.9199931338903
 20
127.0970305912729
 30
0.0
 10
105.5126114237187
 20
127.1317164469629
 30
0.0
 10
106.0694375072468
 20
127.1806728106267
 30
0.0
 10
106.5072443518797
 20
127.2305729752499
 30
0.0
 10
106.7423110586526
 20
127.2623593642416
 30
0.0
 10
106.8302930279368
 20
127.2742565364882
 30
0.0
  0
SPLINE
  5
CB
330
1F
100
AcDbEntity
  8
0
  6
HIDDEN
 62
     7
370
     0
100
AcDbSpline
210
0.0
220
0.0
230
1.0
 70
     8
 71
     3
 72
    15
 73
    11
 74
     0
 42
0.00000001
 43
0.00000001
 40
0.0
 40
0.0
 40
0.0
 40
0.0
 40
0.1100514953777004
 40
0.2208770384259293
 40
0.334130122967031
 40
0.4482176105651682
 40
0.5582920650460343
 40
0.782147256626296
 40
0.8961885944059527
 40
1.0
 40
1.0
 40
1.0
 40
1.0
 10
106.8302930279368
 20
127.2742565364882
 30
0.0
 10
106.89788701386
 20
127.2833247905449
 30
0.0
 10
107.0335504082997
 20
127.3015250802626
 30
0.0
 10
107.2139958411205
 20
127.3222461361167
 30
0.0
 10
107.3761445838075
 20
127.3389858194081
 30
0.0
 10
107.5141958493963
 20
127.3515679389647
 30
0.0
 10
107.6658359858592
 20
127.3639467013762
 30
0.0
 10
107.7672852423067
 20
127.3709042191084
 30
0.0
 10
107.8187129111325
 20
127.3742017518377
 30
0.0
 10
107.8226680698708
 20
127.3744470706715
 30
0.0
 10
107.8245527860401
 20
127.3745639702458
 30
0.0
  0
SPLINE
  5
CC
330
1F
100
AcDbEntity
  8
0
  6
HIDDEN
 62
     7
370
     0
100
AcDbSpline
210
0.0
220
0.0
230
1.0
 70
     8
 71
     3
 72
    17
 73
    13
 74
     0
 42
0.00000001
 43
0.00000001
 40
0.0
 40
0.0
 40
0.0
 40
0.0
 40
0.0067793691499361
 40
0.118143460670705
 40
0.2319220377754621
 40
0.3465354972572183
 40
0.4572754319302699
 40
0.5687879717935548
 40
0.6827450694971511
 40
0.797551953855186
 40
0.8984782954613281
 40
1.0
 40
1.0
 40
1.0
 40
1.0
 10
107.8245562278752
 20
87.4988919336689
 30
0.0
 10
107.8247987342006
 20
87.49887661899979
 30
0.0
 10
107.8290248702732
 20
87.49860973162896
 30
0.0
 10
107.8130989198505
 20
87.49960698443567
 30
0.0
 10
107.7740922910435
 20
87.50212295535
 30
0.0
 10
107.7056376674396
 20
87.50682072139668
 30
0.0
 10
107.6128863435994
 20
87.51377054744073
 30
0.0
 10
107.4955945992325
 20
87.5235000428807
 30
0.0
 10
107.3527580045882
 20
87.53674704681839
 30
0.0
 10
107.1912086015815
 20
87.55373413611578
 30
0.0
 10
107.0174052636801
 20
87.57402677638498
 30
0.0
 10
106.8927859341223
 20
87.59079221399625
 30
0.0
 10
106.8302930279368
 20
87.59919958485531
 30
0.0
  0
LINE
  5
CD
330
1F
100
AcDbEntity
  8
0
  6
HIDDEN
 62
     7
370
     0
100
AcDbLine
 10
94.0792656226
 20
90.4367280607
 30
0.0
 11
94.0792656226
 21
124.4367280607
 31
0.0
  0
LWPOLYLINE
  5
CE
330
1F
100
AcDbEntity
  8
0
  6
HIDDEN
 62
     7
370
     0
100
AcDbPolyline
 90
       14
 70
   128
 43
0.0
 10
121.0752910263
 20
129.3823304753
 10
121.8804851067
 20
129.4232705928
 10
122.6527144468
 20
129.5444148521
 10
123.3603638867
 20
129.7408035929
 10
123.9744621753
 20
130.0043966372
 10
124.4698680563
 20
130.3244024547
 10
124.8262995549
 20
130.6877199696
 10
125.0291643236
 20
131.0794749203
 10
125.070157055
 20
131.483628813
 10
124.9475995018
 20
131.8836355398
 10
124.6665091846
 20
132.2631187784
 10
124.2383939741
 20
132.6065424404
 10
123.6807809572
 20
132.8998467207
 10
123.4610264766
 20
132.9876549255
  0
LWPOLYLINE
  5
CF
330
1F
100
AcDbEntity
  8
0
  6
HIDDEN
 62
     7
370
     0
100
AcDbPolyline
 90
       14
 70
   128
 43
0.0
 10
118.691278521
 20
132.9882947008
 10
118.4698010954
 20
132.8998467207
 10
117.9121880786
 20
132.6065424404
 10
117.4840728681
 20
132.2631187784
 10
117.2029825509
 20
131.8836355398
 10
117.0804249977
 20
131.483628813
 10
117.121417729
 20
131.0794749203
 10
117.3242824977
 20
130.6877199696
 10
117.6807139964
 20
130.3244024547
 10
118.1761198774
 20
130.0043966372
 10
118.790218166
 20
129.7408035929
 10
119.4978676059
 20
129.5444148521
 10
120.270096946
 20
129.4232705928
 10
121.0752910263
 20
129.3823304753
  0
SPLINE
  5
D0
330
1F
100
AcDbEntity
  8
0
  6
HIDDEN
 62
     7
370
     0
100
AcDbSpline
210
0.0
220
0.0
230
1.0
 70
     8
 71
     3
 72
    11
 73
     7
 74
     0
 42
0.00000001
 43
0.00000001
 40
0.0
 40
0.0
 40
0.0
 40
0.0
 40
0.0005779865010845
 40
0.0005779865010845
 40
0.0005779865010845
 40
0.0011559733324421
 40
0.0011559733324421
 40
0.0011559733324421
 40
0.0011559733324421
 10
81.17529102633522
 20
109.4365686688317
 30
0.0
 10
81.34195828114119
 20
109.4345850294906
 30
0.0
 10
81.50862471081884
 20
109.4325474224821
 30
0.0
 10
81.67529104927065
 20
109.4304359590757
 30
0.0
 10
81.84195747809707
 20
109.4283244945243
 30
0.0
 10
82.00862385173477
 20
109.4261389313679
 30
0.0
 10
82.17529102633522
 20
109.4238563540363
 30
0.0
  0
SPLINE
  5
D1
330
1F
100
AcDbEntity
  8
0
  6
HIDDEN
 62
     7
370
     0
100
AcDbSpline
210
0.0
220
0.0
230
1.0
 70
     8
 71
     3
 72
     8
 73
     4
 74
     0
 42
0.00000001
 43
0.00000001
 40
0.0
 40
0.0
 40
0.0
 40
0.0
 40
0.0011564765856722
 40
0.0011564765856722
 40
0.0011564765856722
 40
0.0011564765856722
 10
82.1752910263352
 20
105.4400277584555
 30
0.0
 10
81.84198309576635
 20
105.4391526028722
 30
0.0
 10
81.50864786337415
 20
105.4380977516207
 30
0.0
 10
81.17529102633519
 20
105.4369266645831
 30
0.0
  0
LINE
  5
D2
330
1F
100
AcDbEntity
  8
0
  6
HIDDEN
 62
     7
370
     0
100
AcDbLine
 10
120.7351169949
 20
90.4367280607
 30
0.0
 11
120.7351169949
 21
124.4367280607
 31
0.0
  0
LINE
  5
D3
330
1F
100
AcDbEntity
  8
0
  6
HIDDEN
 62
     7
370
     0
100
AcDbLine
 10
123.0252910263
 20
91.7117280607
 30
0.0
 11
123.0252910263
 21
123.1617280607
 31
0.0
  0
SPLINE
  5
D4
330
1F
100
AcDbEntity
  8
0
  6
HIDDEN
 62
     7
370
     0
100
AcDbSpline
210
0.0
220
0.0
230
1.0
 70
     8
 71
     3
 72
    16
 73
    12
 74
     0
 42
0.00000001
 43
0.00000001
 40
0.0
 40
0.0
 40
0.0
 40
0.0
 40
0.124999999999998
 40
0.124999999999998
 40
0.249999999999996
 40
0.249999999999996
 40
0.4999999999999973
 40
0.4999999999999973
 40
0.7499999999999987
 40
0.7499999999999987
 40
1.0
 40
1.0
 40
1.0
 40
1.0
 10
89.8752910263352
 20
91.63523762464013
 30
0.0
 10
89.97041278100104
 20
91.63523762464013
 30
0.0
 10
90.06374284972911
 20
91.63142179124732
 30
0.0
 10
90.24700461046712
 20
91.6166512385175
 30
0.0
 10
90.33788232602411
 20
91.60549319054192
 30
0.0
 10
90.59468402354386
 20
91.5630219204002
 30
0.0
 10
90.74975138841585
 20
91.52197572319741
 30
0.0
 10
91.00349784997047
 20
91.42682960661553
 30
0.0
 10
91.10436830163833
 20
91.37206687253394
 30
0.0
 10
91.23961471633316
 20
91.26080574863008
 30
0.0
 10
91.27529102633521
 20
91.20363601130138
 30
0.0
 10
91.27529102633521
 20
91.14921443826765
 30
0.0
  0
SPLINE
  5
D5
330
1F
100
AcDbEntity
  8
0
  6
HIDDEN
 62
     7
370
     0
100
AcDbSpline
210
0.0
220
0.0
230
1.0
 70
     8
 71
     3
 72
     8
 73
     4
 74
     0
 42
0.00000001
 43
0.00000001
 40
0.0
 40
0.0
 40
0.0
 40
0.0
 40
1.0
 40
1.0
 40
1.0
 40
1.0
 10
82.47529102965039
 20
93.78004057072236
 30
0.0
 10
82.47529102965233
 20
92.89614342840544
 30
0.0
 10
82.46181040374253
 20
92.18156018334349
 30
0.0
 10
82.46045903555323
 20
91.63523762464013
 30
0.0
  0
SPLINE
  5
D6
330
1F
100
AcDbEntity
  8
0
  6
HIDDEN
 62
     7
370
     0
100
AcDbSpline
210
0.0
220
0.0
230
1.0
 70
     8
 71
     3
 72
    10
 73
     6
 74
     0
 42
0.00000001
 43
0.00000001
 40
0.0
 40
0.0
 40
0.0
 40
0.0
 40
0.5
 40
0.5
 40
1.0
 40
1.0
 40
1.0
 40
1.0
 10
82.1752910263352
 20
94.80495083642556
 30
0.0
 10
82.2666821420281
 20
94.63031204880815
 30
0.0
 10
82.33933397576116
 20
94.45671022155257
 30
0.0
 10
82.44683286876932
 20
94.11309680254585
 30
0.0
 10
82.47529102964478
 20
93.94477097601441
 30
0.0
 10
82.47529102965039
 20
93.78004057078185
 30
0.0
  0
LINE
  5
D7
330
1F
100
AcDbEntity
  8
0
  6
HIDDEN
 62
     7
370
     0
100
AcDbLine
 10
82.1752910263
 20
97.8359012683
 30
0.0
 11
82.1752910263
 21
94.8049508364
 31
0.0
  0
SPLINE
  5
D8
330
1F
100
AcDbEntity
  8
0
  6
HIDDEN
 62
     7
370
     0
100
AcDbSpline
210
0.0
220
0.0
230
1.0
 70
     8
 71
     3
 72
    10
 73
     6
 74
     0
 42
0.00000001
 43
0.00000001
 40
0.0
 40
0.0
 40
0.0
 40
0.0
 40
0.5
 40
0.5
 40
1.0
 40
1.0
 40
1.0
 40
1.0
 10
82.47529102952292
 20
99.20374168502894
 30
0.0
 10
82.4752910295229
 20
98.96175771742213
 30
0.0
 10
82.44714100045232
 20
98.72741528845714
 30
0.0
 10
82.34355108630992
 20
98.27204026617945
 30
0.0
 10
82.26692237671841
 20
98.05043570307208
 30
0.0
 10
82.17529102633522
 20
97.83590126827414
 30
0.0
  0
LINE
  5
D9
330
1F
100
AcDbEntity
  8
0
  6
HIDDEN
 62
     7
370
     0
100
AcDbLine
 10
82.4752910295
 20
111.0413616822
 30
0.0
 11
82.4752910295
 21
99.203741685
 31
0.0
  0
SPLINE
  5
DA
330
1F
100
AcDbEntity
  8
0
  6
HIDDEN
 62
     7
370
     0
100
AcDbSpline
210
0.0
220
0.0
230
1.0
 70
     8
 71
     3
 72
     8
 73
     4
 74
     0
 42
0.00000001
 43
0.00000001
 40
0.0
 40
0.0
 40
0.0
 40
0.0
 40
1.0
 40
1.0
 40
1.0
 40
1.0
 10
82.1752910263352
 20
117.0436673817401
 30
0.0
 10
82.35632249289411
 20
116.6115598960774
 30
0.0
 10
82.47529102952863
 20
116.1574144899778
 30
0.0
 10
82.47529102952294
 20
115.6697144362837
 30
0.0
  0
LINE
  5
DB
330
1F
100
AcDbEntity
  8
0
  6
HIDDEN
 62
     7
370
     0
100
AcDbLine
 10
82.1752910263
 20
120.0768703677
 30
0.0
 11
82.1752910263
 21
117.0436673817
 31
0.0
  0
SPLINE
  5
DC
330
1F
100
AcDbEntity
  8
0
  6
HIDDEN
 62
     7
370
     0
100
AcDbSpline
210
0.0
220
0.0
230
1.0
 70
     8
 71
     3
 72
    10
 73
     6
 74
     0
 42
0.00000001
 43
0.00000001
 40
0.0
 40
0.0
 40
0.0
 40
0.0
 40
0.5
 40
0.5
 40
1.0
 40
1.0
 40
1.0
 40
1.0
 10
82.47529102972842
 20
121.0934155505916
 30
0.0
 10
82.47529102972663
 20
120.9287792039856
 30
0.0
 10
82.44813235897112
 20
120.7616239801551
 30
0.0
 10
82.3423673636527
 20
120.4230009723535
 30
0.0
 10
82.26595257535557
 20
120.2507291950625
 30
0.0
 10
82.17529102633522
 20
120.0768703677185
 30
0.0
  0
SPLINE
  5
DD
330
1F
100
AcDbEntity
  8
0
  6
HIDDEN
 62
     7
370
     0
100
AcDbSpline
210
0.0
220
0.0
230
1.0
 70
     8
 71
     3
 72
    18
 73
    14
 74
     0
 42
0.00000001
 43
0.00000001
 40
0.0
 40
0.0
 40
0.0
 40
0.0
 40
0.2500000000000033
 40
0.2500000000000033
 40
0.3750000000000029
 40
0.3750000000000029
 40
0.5000000000000026
 40
0.5000000000000026
 40
0.6250000000000022
 40
0.6250000000000022
 40
0.7500000000000018
 40
0.7500000000000018
 40
1.0
 40
1.0
 40
1.0
 40
1.0
 10
87.27529102633521
 20
123.7242416830759
 30
0.0
 10
87.2752910263352
 20
123.6697671625237
 30
0.0
 10
87.24038033494303
 20
123.6133861031712
 30
0.0
 10
87.13837103360999
 20
123.5293092623177
 30
0.0
 10
87.09673467893187
 20
123.5019755583268
 30
0.0
 10
86.99832888344312
 20
123.4490216427279
 30
0.0
 10
86.94078567173885
 20
123.4231342890107
 30
0.0
 10
86.8134874981659
 20
123.3753567441774
 30
0.0
 10
86.74390019340842
 20
123.3534088259995
 30
0.0
 10
86.59246594825346
 20
123.3139762610868
 30
0.0
 10
86.50978204515953
 20
123.296420011861
 30
0.0
 10
86.25367058312148
 20
123.2539812464404
 30
0.0
 10
86.06575557923348
 20
123.2382184967034
 30
0.0
 10
85.8752910263352
 20
123.2382184967034
 30
0.0
  0
LINE
  5
DE
330
1F
100
AcDbEntity
  8
0
  6
HIDDEN
 62
     7
370
     0
100
AcDbLine
 10
85.8752910263
 20
123.2382184967
 30
0.0
 11
82.4752910297
 21
123.2382184967
 31
0.0
  0
LINE
  5
DF
330
1F
100
AcDbEntity
  8
0
  6
HIDDEN
 62
     7
370
     0
100
AcDbLine
 10
82.4063220397
 20
91.6352376246
 30
0.0
 11
89.8752910263
 21
91.6352376246
 31
0.0
  0
SPLINE
  5
E0
330
1F
100
AcDbEntity
  8
0
  6
HIDDEN
 62
     7
370
     0
100
AcDbSpline
210
0.0
220
0.0
230
1.0
 70
     8
 71
     3
 72
    22
 73
    18
 74
     0
 42
0.00000001
 43
0.00000001
 40
0.0
 40
0.0
 40
0.0
 40
0.0
 40
0.1249999999999998
 40
0.1249999999999998
 40
0.2499999999999995
 40
0.2499999999999995
 40
0.4999999999999992
 40
0.4999999999999992
 40
0.5624999999999993
 40
0.5624999999999993
 40
0.6249999999999994
 40
0.6249999999999994
 40
0.7499999999999996
 40
0.7499999999999996
 40
0.8749999999999998
 40
0.8749999999999998
 40
1.0
 40
1.0
 40
1.0
 40
1.0
 10
82.40632203969312
 20
91.63523762464013
 30
0.0
 10
82.39323964696477
 20
91.8903433347878
 30
0.0
 10
82.38002008352494
 20
92.1835015938917
 30
0.0
 10
82.35757290573082
 20
92.8458020595165
 30
0.0
 10
82.34809443870634
 20
93.2160759801279
 30
0.0
 10
82.32889647776977
 20
94.43863278324169
 30
0.0
 10
82.33001025076668
 20
95.37577170937354
 30
0.0
 10
82.34892104371976
 20
96.69564293888854
 30
0.0
 10
82.35355057157875
 20
96.96714484786486
 30
0.0
 10
82.36403179132472
 20
97.52552968266716
 30
0.0
 10
82.36982705260912
 20
97.81265253860676
 30
0.0
 10
82.38813627351408
 20
98.68524179297845
 30
0.0
 10
82.40217120779442
 20
99.2856974693343
 30
0.0
 10
82.43162837993124
 20
100.5231719618304
 30
0.0
 10
82.44718407091283
 20
101.1601881184738
 30
0.0
 10
82.47097862090972
 20
102.4716767161584
 30
0.0
 10
82.47899767305508
 20
103.1477993278189
 30
0.0
 10
82.4752910263352
 20
103.8320944391037
 30
0.0
  0
LINE
  5
E1
330
1F
100
AcDbEntity
  8
0
  6
HIDDEN
 62
     7
370
     0
100
AcDbLine
 10
82.4752910297
 20
111.0413616822
 30
0.0
 11
82.4752910297
 21
123.2382184967
 31
0.0
  0
SPLINE
  5
E2
330
1F
100
AcDbEntity
  8
0
  6
HIDDEN
 62
     7
370
     0
100
AcDbSpline
210
0.0
220
0.0
230
1.0
 70
     8
 71
     3
 72
    10
 73
     6
 74
     0
 42
0.00000001
 43
0.00000001
 40
0.0
 40
0.0
 40
0.0
 40
0.0
 40
0.5
 40
0.5
 40
1.0
 40
1.0
 40
1.0
 40
1.0
 10
82.4752910263352
 20
103.8320944390886
 30
0.0
 10
82.47529102633503
 20
104.106009587163
 30
0.0
 10
82.44953179646731
 20
104.376951165893
 30
0.0
 10
82.3463258637342
 20
104.9126422474959
 30
0.0
 10
82.26898769985897
 20
105.1783890510179
 30
0.0
 10
82.1752910263352
 20
105.4400277584555
 30
0.0
  0
SPLINE
  5
E3
330
1F
100
AcDbEntity
  8
0
  6
HIDDEN
 62
     7
370
     0
100
AcDbSpline
210
0.0
220
0.0
230
1.0
 70
     8
 71
     3
 72
    10
 73
     6
 74
     0
 42
0.00000001
 43
0.00000001
 40
0.0
 40
0.0
 40
0.0
 40
0.0
 40
0.5
 40
0.5
 40
1.0
 40
1.0
 40
1.0
 40
1.0
 10
82.1752910263352
 20
109.4238563540363
 30
0.0
 10
82.26852160772621
 20
109.6877501621064
 30
0.0
 10
82.34355121996296
 20
109.9539304727447
 30
0.0
 10
82.4486183191411
 20
110.4922530477029
 30
0.0
 10
82.4752910297273
 20
110.7650011639484
 30
0.0
 10
82.47529102972848
 20
111.0413616822389
 30
0.0
  0
LINE
  5
E4
330
1F
100
AcDbEntity
  8
0
  6
HIDDEN
 62
     7
370
     0
100
AcDbLine
 10
82.1752910263
 20
105.4400277585
 30
0.0
 11
82.1752910263
 21
109.423856354
 31
0.0
  0
LINE
  5
E5
330
1F
100
AcDbEntity
  8
0
  6
HIDDEN
 62
     7
370
     0
100
AcDbLine
 10
82.3252910263
 20
89.4467280607
 30
0.0
 11
82.3252910263
 21
86.5667902953
 31
0.0
  0
LINE
  5
E6
330
1F
100
AcDbEntity
  8
0
  6
HIDDEN
 62
     7
370
     0
100
AcDbLine
 10
209.5752910263
 20
97.4367280607
 30
0.0
 11
209.5752910263
 21
117.4367280607
 31
0.0
  0
SPLINE
  5
E7
330
1F
100
AcDbEntity
  8
0
  6
HIDDEN
 62
     7
370
     0
100
AcDbSpline
210
0.0
220
0.0
230
1.0
 70
     8
 71
     3
 72
    23
 73
    19
 74
     0
 42
0.00000001
 43
0.00000001
 40
0.0
 40
0.0
 40
0.0
 40
0.0
 40
0.0523711147022147
 40
0.1051090178676
 40
0.1590014099607581
 40
0.2132913397102495
 40
0.265661816348173
 40
0.3721632116965783
 40
0.4264157408029578
 40
0.4791354114000914
 40
0.586349003413536
 40
0.640970322547607
 40
0.6939087030238115
 40
0.7472178304707026
 40
0.8017020366617527
 40
0.8565949775386862
 40
0.9091538294312319
 40
1.0
 40
1.0
 40
1.0
 40
1.0
 10
163.5752910263352
 20
117.6269194229574
 30
0.0
 10
163.6164649066579
 20
117.6270639223719
 30
0.0
 10
163.6991010343617
 20
117.627353933223
 30
0.0
 10
163.8232396128905
 20
117.6297022473829
 30
0.0
 10
163.9470953566708
 20
117.6334451541177
 30
0.0
 10
164.0679778976807
 20
117.638594710347
 30
0.0
 10
164.2237270134023
 20
117.647026994344
 30
0.0
 10
164.3711661844722
 20
117.6575391182714
 30
0.0
 10
164.5067944205987
 20
117.669249208187
 30
0.0
 10
164.6341145232746
 20
117.6814572611362
 30
0.0
 10
164.747411562127
 20
117.6938953808798
 30
0.0
 10
164.843565510645
 20
117.7054680395956
 30
0.0
 10
164.9066480116455
 20
117.7134695577333
 30
0.0
 10
164.9603364645234
 20
117.7205774749816
 30
0.0
 10
165.0048361428565
 20
117.7266796066321
 30
0.0
 10
165.0383441564475
 20
117.7313988523119
 30
0.0
 10
165.0683228723244
 20
117.7357070577971
 30
0.0
 10
165.0709296389721
 20
117.7360915262263
 30
0.0
 10
165.0725810090807
 20
117.7363350845334
 30
0.0
  0
LINE
  5
E8
330
1F
100
AcDbEntity
  8
0
  6
HIDDEN
 62
     7
370
     0
100
AcDbLine
 10
163.6117266166
 20
117.6271399896
 30
0.0
 11
163.3840645694
 21
117.6288315286
 31
0.0
  0
SPLINE
  5
E9
330
1F
100
AcDbEntity
  8
0
  6
HIDDEN
 62
     7
370
     0
100
AcDbSpline
210
0.0
220
0.0
230
1.0
 70
     8
 71
     3
 72
    22
 73
    18
 74
     0
 42
0.00000001
 43
0.00000001
 40
0.0
 40
0.0
 40
0.0
 40
0.0
 40
0.0485087214454547
 40
0.1548095505916306
 40
0.208975525233815
 40
0.261218693319797
 40
0.3674532577400172
 40
0.4215652858285642
 40
0.4742713221521622
 40
0.5814562394091434
 40
0.6360621773455254
 40
0.6890048364185336
 40
0.7423180915131288
 40
0.7968059662315914
 40
0.8517024667775706
 40
0.9253362786146828
 40
1.0
 40
1.0
 40
1.0
 40
1.0
 10
162.0756282919616
 20
117.7366790092352
 30
0.0
 10
162.0763776794094
 20
117.7365699331814
 30
0.0
 10
162.0787692562344
 20
117.7362218305235
 30
0.0
 10
162.1064167037457
 20
117.7322048944562
 30
0.0
 10
162.1533945261453
 20
117.7256179639797
 30
0.0
 10
162.2138029647659
 20
117.717383540393
 30
0.0
 10
162.2933177063352
 20
117.7070603336478
 30
0.0
 10
162.3904930087361
 20
117.6954697673671
 30
0.0
 10
162.4991356730296
 20
117.6833213727534
 30
0.0
 10
162.6238098698387
 20
117.6708559963034
 30
0.0
 10
162.7614986310069
 20
117.6591790344835
 30
0.0
 10
162.8704735561791
 20
117.6510662741328
 30
0.0
 10
162.984347907892
 20
117.6438194382151
 30
0.0
 10
163.1039304397111
 20
117.6375647227438
 30
0.0
 10
163.2423767583402
 20
117.6320245839563
 30
0.0
 10
163.3999525271351
 20
117.6277962038531
 30
0.0
 10
163.5165748835891
 20
117.6272130332738
 30
0.0
 10
163.5752910263352
 20
117.6269194229574
 30
0.0
  0
SPLINE
  5
EA
330
1F
100
AcDbEntity
  8
0
  6
HIDDEN
 62
     7
370
     0
100
AcDbSpline
210
0.0
220
0.0
230
1.0
 70
     8
 71
     3
 72
    38
 73
    34
 74
     0
 42
0.00000001
 43
0.00000001
 40
0.0
 40
0.0
 40
0.0
 40
0.0
 40
0.0261873832018917
 40
0.0525581206655296
 40
0.0795060236822411
 40
0.1066526939248032
 40
0.1328397688694961
 40
0.1860944466617451
 40
0.2132229029645576
 40
0.2395807549508565
 40
0.2931833788071539
 40
0.3204917880775378
 40
0.3469618275107785
 40
0.3736172230965932
 40
0.4008601416201549
 40
0.428307450633939
 40
0.4545878252981804
 40
0.5080548436653771
 40
0.5353073373711407
 40
0.5613917094794273
 40
0.6144422795758285
 40
0.6414696333443166
 40
0.6676572000269713
 40
0.7209071830460662
 40
0.7480304682975419
 40
0.7744586356036453
 40
0.8282105050253821
 40
0.8555995382670945
 40
0.8820327388660602
 40
0.9358113146557788
 40
0.9632244091500787
 40
0.9894212340207249
 40
1.0
 40
1.0
 40
1.0
 40
1.0
 10
165.0752910263352
 20
97.13672806067179
 30
0.0
 10
165.0743109411441
 20
97.13687102796023
 30
0.0
 10
165.0723439085719
 20
97.1371579635406
 30
0.0
 10
165.0563091661942
 20
97.13948203384835
 30
0.0
 10
165.0303759036807
 20
97.14318852845759
 30
0.0
 10
164.993905277008
 20
97.14829248505401
 30
0.0
 10
164.9323632802178
 20
97.15665955984619
 30
0.0
 10
164.851568547065
 20
97.16711028639276
 30
0.0
 10
164.7531976639852
 20
97.17878209368692
 30
0.0
 10
164.6435056224542
 20
97.19097032274837
 30
0.0
 10
164.5179484336916
 20
97.20342132107007
 30
0.0
 10
164.3795047330747
 20
97.21503712979153
 30
0.0
 10
164.2700404691599
 20
97.2230808670392
 30
0.0
 10
164.1557538131173
 20
97.23024102715543
 30
0.0
 10
164.0358358830559
 20
97.23638096865712
 30
0.0
 10
163.9130464232887
 20
97.241189651354
 30
0.0
 10
163.7473166902814
 20
97.24567462391933
 30
0.0
 10
163.5784519082854
 20
97.24715362089557
 30
0.0
 10
163.4107905230688
 20
97.24546398132813
 30
0.0
 10
163.2453697515804
 20
97.24177262618645
 30
0.0
 10
163.0840529637714
 20
97.23522756545536
 30
0.0
 10
162.930417183472
 20
97.226359631493
 30
0.0
 10
162.7825578611982
 20
97.21619691323258
 30
0.0
 10
162.6448915850904
 20
97.20449818359583
 30
0.0
 10
162.5207576028819
 20
97.19224678799074
 30
0.0
 10
162.4059536014313
 20
97.17992338789114
 30
0.0
 10
162.306805482021
 20
97.1680420500438
 30
0.0
 10
162.2262454118767
 20
97.15767569348027
 30
0.0
 10
162.158569025722
 20
97.14860779538046
 30
0.0
 10
162.1098793529948
 20
97.14172659522974
 30
0.0
 10
162.0847360265516
 20
97.13810289407937
 30
0.0
 10
162.0736055067146
 20
97.13648383414099
 30
0.0
 10
162.07751854572
 20
97.1370513678341
 30
0.0
 10
162.0786441598283
 20
97.13721462302554
 30
0.0
  0
LINE
  5
EB
330
1F
100
AcDbEntity
  8
0
  6
HIDDEN
 62
     7
370
     0
100
AcDbLine
 10
161.5752910263
 20
97.5367280607
 30
0.0
 11
161.5752910263
 21
117.3367280274
 31
0.0
  0
LINE
  5
EC
330
1F
100
AcDbEntity
  8
0
  6
HIDDEN
 62
     7
370
     0
100
AcDbLine
 10
172.0752910263
 20
97.4367280607
 30
0.0
 11
172.0752910263
 21
117.4367280607
 31
0.0
  0
LINE
  5
ED
330
1F
100
AcDbEntity
  8
0
  6
HIDDEN
 62
     7
370
     0
100
AcDbLine
 10
91.2752910263
 20
89.4467280607
 30
0.0
 11
91.2752910263
 21
85.4729905295
 31
0.0
  0
LINE
  5
EE
330
1F
100
AcDbEntity
  8
0
  6
HIDDEN
 62
     7
370
     0
100
AcDbLine
 10
82.3252910263
 20
125.4267280607
 30
0.0
 11
82.3252910263
 21
128.3066658261
 31
0.0
  0
LINE
  5
EF
330
1F
100
AcDbEntity
  8
0
  6
HIDDEN
 62
     7
370
     0
100
AcDbLine
 10
87.2752910263
 20
125.4267280607
 30
0.0
 11
87.2752910263
 21
129.280835733
 31
0.0
  0
LINE
  5
F0
330
1F
100
AcDbEntity
  8
0
  6
HIDDEN
 62
     7
370
     0
100
AcDbLine
 10
131.8752910263
 20
97.9367280607
 30
0.0
 11
131.8752910263
 21
116.9367280607
 31
0.0
  0
LINE
  5
F1
330
1F
100
AcDbEntity
  8
0
  6
HIDDEN
 62
     7
370
     0
100
AcDbLine
 10
134.8752910263
 20
97.9367280607
 30
0.0
 11
134.8752910263
 21
116.9367280607
 31
0.0
  0
LINE
  5
F2
330
1F
100
AcDbEntity
  8
0
  6
HIDDEN
 62
     7
370
     0
100
AcDbLine
 10
123.5252910263
 20
98.9367280607
 30
0.0
 11
123.5252910263
 21
115.9367280607
 31
0.0
  0
LINE
  5
F3
330
1F
100
AcDbEntity
  8
0
  6
HIDDEN
 62
     7
370
     0
100
AcDbLine
 10
129.2629658287
 20
81.0367280607
 30
0.0
 11
126.0252910263
 21
81.0367280607
 31
0.0
  0
LINE
  5
F4
330
1F
100
AcDbEntity
  8
0
  6
HIDDEN
 62
     7
370
     0
100
AcDbLine
 10
139.0252910263
 20
81.0367280607
 30
0.0
 11
132.887616224
 21
81.0367280607
 31
0.0
  0
LINE
  5
F5
330
1F
100
AcDbEntity
  8
0
  6
HIDDEN
 62
     7
370
     0
100
AcDbLine
 10
118.0252910263
 20
75.9526050778
 30
0.0
 11
118.0252910263
 21
81.0367280607
 31
0.0
  0
LINE
  5
F6
330
1F
100
AcDbEntity
  8
0
  6
HIDDEN
 62
     7
370
     0
100
AcDbLine
 10
126.0252910263
 20
81.0367280607
 30
0.0
 11
118.0252910263
 21
81.0367280607
 31
0.0
  0
LINE
  5
F7
330
1F
100
AcDbEntity
  8
0
  6
HIDDEN
 62
     7
370
     0
100
AcDbLine
 10
139.0252910263
 20
133.8367280607
 30
0.0
 11
132.5909934946
 21
133.8367280607
 31
0.0
  0
LINE
  5
F8
330
1F
100
AcDbEntity
  8
0
  6
HIDDEN
 62
     7
370
     0
100
AcDbLine
 10
126.0252910263
 20
133.8367280607
 30
0.0
 11
118.0252910263
 21
133.8367280607
 31
0.0
  0
LINE
  5
F9
330
1F
100
AcDbEntity
  8
0
  6
HIDDEN
 62
     7
370
     0
100
AcDbLine
 10
129.559588558
 20
133.8367280607
 30
0.0
 11
126.0252910263
 21
133.8367280607
 31
0.0
  0
SPLINE
  5
FA
330
1F
100
AcDbEntity
  8
0
  6
HIDDEN
 62
     7
370
     0
100
AcDbSpline
210
0.0
220
0.0
230
1.0
 70
     8
 71
     3
 72
    11
 73
     7
 74
     0
 42
0.00000001
 43
0.00000001
 40
0.0
 40
0.0
 40
0.0
 40
0.0
 40
0.0008203708524183
 40
0.0008203708524183
 40
0.0008203708524183
 40
0.0016409967870154
 40
0.0016409967870154
 40
0.0016409967870154
 40
0.0016409967870154
 10
82.32529102633521
 20
91.58469531002905
 30
0.0
 10
82.13413272603655
 20
91.54351628140992
 30
0.0
 10
81.94270565596437
 20
91.50476230917992
 30
0.0
 10
81.75106003244375
 20
91.46839454990138
 30
0.0
 10
81.55935462736329
 20
91.43201544613534
 30
0.0
 10
81.36741567530433
 20
91.39802119536779
 30
0.0
 10
81.17529102823352
 20
91.36637306997658
 30
0.0
  0
ELLIPSE
  5
FB
330
1F
100
AcDbEntity
  8
0
  6
HIDDEN
 62
     7
370
     0
100
AcDbEllipse
 10
76.9328591577
 20
107.4367280607
 30
0.0
 11
20.19992453366628
 21
-1.421085471520200E-14
 31
0.0
210
0.0
220
0.0
230
1.0
 40
0.8164965809
 41
1.300566354718001
 42
1.359198697209605
  0
LINE
  5
FC
330
1F
100
AcDbEntity
  8
0
  6
HIDDEN
 62
     7
370
     0
100
AcDbLine
 10
91.2752910263
 20
89.4467280607
 30
0.0
 11
91.2752910263
 21
91.1492144383
 31
0.0
  0
LINE
  5
FD
330
1F
100
AcDbEntity
  8
0
  6
HIDDEN
 62
     7
370
     0
100
AcDbLine
 10
82.3252910263
 20
89.4467280607
 30
0.0
 11
82.3252910263
 21
91.58469531
 31
0.0
  0
LINE
  5
FE
330
1F
100
AcDbEntity
  8
0
  6
HIDDEN
 62
     7
370
     0
100
AcDbLine
 10
82.4063220397
 20
91.6352376246
 30
0.0
 11
82.3252910263
 21
91.58469531
 31
0.0
  0
LINE
  5
FF
330
1F
100
AcDbEntity
  8
0
  6
HIDDEN
 62
     7
370
     0
100
AcDbLine
 10
82.3252910263
 20
125.4267280607
 30
0.0
 11
82.3252910263
 21
123.3313525117
 31
0.0
  0
SPLINE
  5
100
330
1F
100
AcDbEntity
  8
0
  6
HIDDEN
 62
     7
370
     0
100
AcDbSpline
210
0.0
220
0.0
230
1.0
 70
     8
 71
     3
 72
     8
 73
     4
 74
     0
 42
0.00000001
 43
0.00000001
 40
0.0
 40
0.0
 40
0.0
 40
0.0
 40
1.0
 40
1.0
 40
1.0
 40
1.0
 10
82.32529102633521
 20
123.3313525117304
 30
0.0
 10
82.37529652527894
 20
123.3003167375113
 30
0.0
 10
82.42529659594337
 20
123.2692720924838
 30
0.0
 10
82.47529102972848
 20
123.2382184967034
 30
0.0
  0
LINE
  5
101
330
1F
100
AcDbEntity
  8
0
  6
HIDDEN
 62
     7
370
     0
100
AcDbLine
 10
87.2752910263
 20
125.4267280607
 30
0.0
 11
87.2752910263
 21
123.7242416831
 31
0.0
  0
LINE
  5
102
330
1F
100
AcDbEntity
  8
0
  6
HIDDEN
 62
     7
370
     0
100
AcDbLine
 10
161.0752910263
 20
101.9367280607
 30
0.0
 11
161.0752910263
 21
112.9367280607
 31
0.0
  0
LINE
  5
103
330
1F
100
AcDbEntity
  8
0
  6
HIDDEN
 62
     7
370
     0
100
AcDbLine
 10
139.2752910263
 20
101.9367280607
 30
0.0
 11
139.2752910263
 21
112.9367280607
 31
0.0
  0
LINE
  5
104
330
1F
100
AcDbEntity
  8
0
  6
HIDDEN
 62
     7
370
     0
100
AcDbLine
 10
138.4941722216
 20
103.2367280607
 30
0.0
 11
138.4941722216
 21
111.6367280607
 31
0.0
  0
SPLINE
  5
105
330
1F
100
AcDbEntity
  8
0
  6
HIDDEN
 62
     7
370
     0
100
AcDbSpline
210
0.0
220
0.0
230
1.0
 70
     8
 71
     3
 72
    20
 73
    16
 74
     0
 42
0.00000001
 43
0.00000001
 40
0.0
 40
0.0
 40
0.0
 40
0.0
 40
0.1119050023708566
 40
0.1774240605860183
 40
0.2490454696616384
 40
0.3297937484450686
 40
0.3985660039401804
 40
0.4998455280731267
 40
0.6138104119273192
 40
0.6789762050375687
 40
0.7495025608867778
 40
0.8296483545779386
 40
0.8980918841945146
 40
0.99950208175381
 40
1.0
 40
1.0
 40
1.0
 40
1.0
 10
107.8240136969481
 20
83.8367657467259
 30
0.0
 10
107.7807065227276
 20
83.85018936038038
 30
0.0
 10
107.7120435091008
 20
83.87147234140768
 30
0.0
 10
107.266948986242
 20
83.97476312411321
 30
0.0
 10
106.7403951907988
 20
84.08806540912046
 30
0.0
 10
106.0549688339812
 20
84.2109985586115
 30
0.0
 10
105.1616517804755
 20
84.33303294352959
 30
0.0
 10
104.0482922882962
 20
84.45076928396328
 30
0.0
 10
102.9375181475522
 20
84.46274475894369
 30
0.0
 10
102.0527700769359
 20
84.43568651522587
 30
0.0
 10
101.3855726196875
 20
84.38775428666172
 30
0.0
 10
100.8443036564805
 20
84.33146144547783
 30
0.0
 10
100.4567102442427
 20
84.28637598409803
 30
0.0
 10
100.2627851102484
 20
84.24750459868005
 30
0.0
 10
100.3259235431945
 20
84.25821710677131
 30
0.0
 10
100.3262320345993
 20
84.25826944758047
 30
0.0
  0
LINE
  5
106
330
1F
100
AcDbEntity
  8
0
  6
HIDDEN
 62
     7
370
     0
100
AcDbLine
 10
101.2353029411
 20
84.3690662044
 30
0.0
 11
101.4191482518
 21
84.3872555466
 31
0.0
  0
SPLINE
  5
107
330
1F
100
AcDbEntity
  8
0
  6
HIDDEN
 62
     7
370
     0
100
AcDbSpline
210
0.0
220
0.0
230
1.0
 70
     8
 71
     3
 72
    27
 73
    23
 74
     0
 42
0.00000001
 43
0.00000001
 40
0.0
 40
0.0
 40
0.0
 40
0.0
 40
0.0007883268396938
 40
0.0456706305061151
 40
0.1022520342151599
 40
0.1705298083680751
 40
0.2091213018812425
 40
0.2506483487067123
 40
0.3210937999726163
 40
0.3861872330815189
 40
0.4266661955241423
 40
0.4647972719211114
 40
0.500601422957922
 40
0.5451929808839666
 40
0.6016869755634437
 40
0.6700926337464537
 40
0.7088297845648526
 40
0.7505583369688351
 40
0.8222225907032612
 40
0.8877617121054564
 40
0.9472351919361531
 40
1.0
 40
1.0
 40
1.0
 40
1.0
 10
100.325943056347
 20
130.6151457448481
 30
0.0
 10
100.3257263664024
 20
130.6151924544828
 30
0.0
 10
100.3131727326863
 20
130.6178985128852
 30
0.0
 10
100.3622553845709
 20
130.6060651795106
 30
0.0
 10
100.5073519818558
 20
130.5826228071631
 30
0.0
 10
100.7804065913985
 20
130.5487180933649
 30
0.0
 10
101.108932677856
 20
130.5151493873601
 30
0.0
 10
101.5016605475456
 20
130.4769660246814
 30
0.0
 10
102.0513884775884
 20
130.4379973625665
 30
0.0
 10
102.6774111348937
 20
130.4185362553772
 30
0.0
 10
103.2206026433858
 20
130.4163505779829
 30
0.0
 10
103.6656715406555
 20
130.4248654590771
 30
0.0
 10
104.1321193369184
 20
130.4446488559997
 30
0.0
 10
104.6693599866187
 20
130.4888112416376
 30
0.0
 10
105.3175734146746
 20
130.5612268609603
 30
0.0
 10
105.9031120554678
 20
130.6421289568915
 30
0.0
 10
106.3840816440606
 20
130.7202949387652
 30
0.0
 10
106.8294966519803
 20
130.8050671060888
 30
0.0
 10
107.2679956660537
 20
130.8988499685403
 30
0.0
 10
107.6070234889793
 20
130.9767543890553
 30
0.0
 10
107.7943825512845
 20
131.0269509816168
 30
0.0
 10
107.8148732969393
 20
131.033617984479
 30
0.0
 10
107.8245062865532
 20
131.0367522369073
 30
0.0
  0
LINE
  5
108
330
1F
100
AcDbEntity
  8
0
  6
HIDDEN
 62
     7
370
     0
100
AcDbLine
 10
150.0252910263
 20
127.3593777915
 30
0.0
 11
152.5252910263
 21
127.3593777915
 31
0.0
  0
LINE
  5
109
330
1F
100
AcDbEntity
  8
0
  6
HIDDEN
 62
     7
370
     0
100
AcDbLine
 10
147.5252910263
 20
127.3593777915
 30
0.0
 11
150.0252910263
 21
127.3593777915
 31
0.0
  0
LINE
  5
10A
330
1F
100
AcDbEntity
  8
0
  6
HIDDEN
 62
     7
370
     0
100
AcDbLine
 10
152.5252910263
 20
87.5140783299
 30
0.0
 11
147.5252910263
 21
87.5140783299
 31
0.0
  0
LINE
  5
10B
330
1F
100
AcDbEntity
  8
0
  6
HIDDEN
 62
     7
370
     0
100
AcDbLine
 10
150.0252910263
 20
115.9367280607
 30
0.0
 11
152.5252910263
 21
115.9367280607
 31
0.0
  0
LINE
  5
10C
330
1F
100
AcDbEntity
  8
0
  6
HIDDEN
 62
     7
370
     0
100
AcDbLine
 10
147.5252910263
 20
115.9367280607
 30
0.0
 11
150.0252910263
 21
115.9367280607
 31
0.0
  0
LINE
  5
10D
330
1F
100
AcDbEntity
  8
0
  6
HIDDEN
 62
     7
370
     0
100
AcDbLine
 10
152.5252910263
 20
98.9367280607
 30
0.0
 11
147.5252910263
 21
98.9367280607
 31
0.0
  0
SPLINE
  5
10E
330
1F
100
AcDbEntity
  8
0
  6
HIDDEN
 62
     7
370
     0
100
AcDbSpline
210
0.0
220
0.0
230
1.0
 70
     8
 71
     3
 72
    30
 73
    26
 74
     0
 42
0.00000001
 43
0.00000001
 40
0.0
 40
0.0
 40
0.0
 40
0.0
 40
0.0412274297564298
 40
0.0838627324950381
 40
0.1250516510534612
 40
0.1672473279861982
 40
0.2244849111414918
 40
0.2833611997047496
 40
0.3419130967478464
 40
0.4019328869320921
 40
0.4346453182317925
 40
0.4680030772970382
 40
0.5007963769266247
 40
0.5349012334331633
 40
0.5631174209943308
 40
0.5919349488450972
 40
0.6414698556812198
 40
0.6923287517706502
 40
0.7450260126139471
 40
0.7988519530010023
 40
0.8464596455547929
 40
0.8953104661842649
 40
0.9429925514063292
 40
0.9925828888811958
 40
1.0
 40
1.0
 40
1.0
 40
1.0
 10
165.0752910263352
 20
121.0716887487862
 30
0.0
 10
165.0733493554952
 20
121.0740934852966
 30
0.0
 10
165.069399707816
 20
121.0789850775178
 30
0.0
 10
165.0383072036469
 20
121.1177061673342
 30
0.0
 10
164.9912884158523
 20
121.1770080871604
 30
0.0
 10
164.9230637042444
 20
121.2647117745082
 30
0.0
 10
164.8310171947294
 20
121.386948146066
 30
0.0
 10
164.7183881387152
 20
121.5461710156724
 30
0.0
 10
164.6016755555873
 20
121.7296255294215
 30
0.0
 10
164.5094973380795
 20
121.9050520990337
 30
0.0
 10
164.4484814548158
 20
122.0645597677267
 30
0.0
 10
164.4146306792702
 20
122.1971394520939
 30
0.0
 10
164.4004958663702
 20
122.3371100020484
 30
0.0
 10
164.4100319366429
 20
122.4705551497424
 30
0.0
 10
164.4378541501786
 20
122.5938956000073
 30
0.0
 10
164.4858671558503
 20
122.7310050736014
 30
0.0
 10
164.5619135592782
 20
122.8843716322893
 30
0.0
 10
164.6633365688662
 20
123.0473603786695
 30
0.0
 10
164.7694605799075
 20
123.1966729912779
 30
0.0
 10
164.86771592893
 20
123.323903194667
 30
0.0
 10
164.9516833460802
 20
123.427438547921
 30
0.0
 10
165.0170423472894
 20
123.5055159076802
 30
0.0
 10
165.0598516256123
 20
123.5557017646075
 30
0.0
 10
165.0777367821183
 20
123.576460961808
 30
0.0
 10
165.0742963736685
 20
123.5724612719328
 30
0.0
 10
165.073848749851
 20
123.5719408812649
 30
0.0
  0
SPLINE
  5
10F
330
1F
100
AcDbEntity
  8
0
  6
HIDDEN
 62
     7
370
     0
100
AcDbSpline
210
0.0
220
0.0
230
1.0
 70
     8
 71
     3
 72
    10
 73
     6
 74
     0
 42
0.00000001
 43
0.00000001
 40
0.0
 40
0.0
 40
0.0
 40
0.0
 40
0.2650996170499575
 40
0.7083867387283488
 40
1.0
 40
1.0
 40
1.0
 40
1.0
 10
162.0790966748143
 20
123.5542002584789
 30
0.0
 10
162.0788048428796
 20
123.5541391206371
 30
0.0
 10
162.0780250232978
 20
123.5539757509693
 30
0.0
 10
162.1080389660386
 20
123.5616298128541
 30
0.0
 10
162.1449931281119
 20
123.5787126675082
 30
0.0
 10
162.1596567804514
 20
123.5854912555633
 30
0.0
  0
SPLINE
  5
110
330
1F
100
AcDbEntity
  8
0
  6
HIDDEN
 62
     7
370
     0
100
AcDbSpline
210
0.0
220
0.0
230
1.0
 70
     8
 71
     3
 72
    28
 73
    24
 74
     0
 42
0.00000001
 43
0.00000001
 40
0.0
 40
0.0
 40
0.0
 40
0.0
 40
0.0040516751403919
 40
0.0528289067143153
 40
0.0973939936154176
 40
0.1430755154409057
 40
0.1914237618347572
 40
0.2407633545793263
 40
0.2987015690795959
 40
0.3578141542405344
 40
0.4126723929340005
 40
0.4687521231130179
 40
0.503774252821927
 40
0.5396296059489448
 40
0.5747195206117746
 40
0.6110583697214151
 40
0.6538306178872529
 40
0.6977885756126562
 40
0.7667217770267176
 40
0.837546106610307
 40
0.908650660283416
 40
0.9822146771884213
 40
1.0
 40
1.0
 40
1.0
 40
1.0
 10
162.0760756931333
 20
121.1904716321089
 30
0.0
 10
162.0758185851617
 20
121.1901726099491
 30
0.0
 10
162.0724662105083
 20
121.1862737253542
 30
0.0
 10
162.0852438982273
 20
121.2011096549769
 30
0.0
 10
162.1142324380727
 20
121.2349868273155
 30
0.0
 10
162.1609353173365
 20
121.2902353982063
 30
0.0
 10
162.2227031694887
 20
121.3648266345814
 30
0.0
 10
162.3018469750334
 20
121.4634468924181
 30
0.0
 10
162.3958950578818
 20
121.5865875998224
 30
0.0
 10
162.4976535223445
 20
121.7315975360392
 30
0.0
 10
162.5956845945454
 20
121.8917117386537
 30
0.0
 10
162.6700804525358
 20
122.044421825759
 30
0.0
 10
162.7185892864777
 20
122.1885308778274
 30
0.0
 10
162.7436410014581
 20
122.3154329954486
 30
0.0
 10
162.7489658682322
 20
122.4474435940269
 30
0.0
 10
162.7323275681017
 20
122.5866670779917
 30
0.0
 10
162.6922529763758
 20
122.7301381458954
 30
0.0
 10
162.621420038261
 20
122.8993834590034
 30
0.0
 10
162.520397751128
 20
123.0812503450954
 30
0.0
 10
162.3983087289153
 20
123.2665939372386
 30
0.0
 10
162.2794923025078
 20
123.4304874231077
 30
0.0
 10
162.2016107528139
 20
123.5319228682993
 30
0.0
 10
162.1664938835716
 20
123.5767613888288
 30
0.0
 10
162.1596567804514
 20
123.5854912555633
 30
0.0
  0
LINE
  5
111
330
1F
100
AcDbEntity
  8
0
  6
HIDDEN
 62
     7
370
     0
100
AcDbLine
 10
165.0752910263
 20
124.3367280607
 30
0.0
 11
162.0752910263
 21
124.3367280607
 31
0.0
  0
LWPOLYLINE
  5
112
330
1F
100
AcDbEntity
  8
0
  6
HIDDEN
 62
     7
370
     0
100
AcDbPolyline
 90
       27
 70
   128
 43
0.0
 10
165.0738487499
 20
91.3015152401
 10
165.068832705
 20
91.3073480856
 10
165.0428739618
 20
91.337686353
 10
165.0019210983
 20
91.3860880654
 10
164.9461695016
 20
91.4531879176
 10
164.8537826842
 20
91.5681887135
 10
164.7457320428
 20
91.7111226059
 10
164.6342175827
 20
91.8743106377
 10
164.5259789153
 20
92.063772889
 10
164.4712480245
 20
92.1873394721
 10
164.4289555577
 20
92.3221675916
 10
164.4088782392
 20
92.4387183017
 10
164.4052536745
 20
92.561083954
 10
164.4186207147
 20
92.6790852324
 10
164.4472266386
 20
92.7960966695
 10
164.5137934646
 20
92.9687248133
 10
164.5979411085
 20
93.1311023193
 10
164.6599130647
 20
93.2342395624
 10
164.7232742828
 20
93.3315403714
 10
164.7871793823
 20
93.4240050582
 10
164.8490731459
 20
93.5096256509
 10
164.9310840488
 20
93.618659737
 10
165.0006907975
 20
93.7081906509
 10
165.0422434877
 20
93.7605826031
 10
165.0682013547
 20
93.7929657347
 10
165.0752910263
 20
93.8017673726
 10
165.0752910263
 20
93.8017673726
  0
LINE
  5
113
330
1F
100
AcDbEntity
  8
0
  6
HIDDEN
 62
     7
370
     0
100
AcDbLine
 10
163.5752910263
 20
90.9367280607
 30
0.0
 11
165.0752910263
 21
90.9367280607
 31
0.0
  0
LINE
  5
114
330
1F
100
AcDbEntity
  8
0
  6
HIDDEN
 62
     7
370
     0
100
AcDbLine
 10
162.0752910263
 20
90.9367280607
 30
0.0
 11
163.5752910263
 21
90.9367280607
 31
0.0
  0
SPLINE
  5
115
330
1F
100
AcDbEntity
  8
0
  6
HIDDEN
 62
     7
370
     0
100
AcDbSpline
210
0.0
220
0.0
230
1.0
 70
     8
 71
     3
 72
    10
 73
     6
 74
     0
 42
0.00000001
 43
0.00000001
 40
0.0
 40
0.0
 40
0.0
 40
0.0
 40
0.410755283158295
 40
0.832375436754487
 40
1.0
 40
1.0
 40
1.0
 40
1.0
 10
162.1596567804514
 20
91.28796486578028
 30
0.0
 10
162.1398217524341
 20
91.29682511674504
 30
0.0
 10
162.0996270409213
 20
91.31477998079413
 30
0.0
 10
162.0748039831168
 20
91.3203249724844
 30
0.0
 10
162.0781459682791
 20
91.31949263959451
 30
0.0
 10
162.0790966748143
 20
91.31925586286465
 30
0.0
  0
SPLINE
  5
116
330
1F
100
AcDbEntity
  8
0
  6
HIDDEN
 62
     7
370
     0
100
AcDbSpline
210
0.0
220
0.0
230
1.0
 70
     8
 71
     3
 72
    26
 73
    22
 74
     0
 42
0.00000001
 43
0.00000001
 40
0.0
 40
0.0
 40
0.0
 40
0.0
 40
0.0627854322058676
 40
0.1276813655174152
 40
0.1903431293029735
 40
0.2543040421310425
 40
0.3033366128922131
 40
0.3532972594214847
 40
0.3878878685856979
 40
0.4233444393630195
 40
0.4579950236790781
 40
0.4938278954902475
 40
0.5379763449028693
 40
0.5833378465362856
 40
0.6512048717997108
 40
0.7209804355026493
 40
0.7898055116762338
 40
0.8611604406778225
 40
0.9083466339170371
 40
0.9568254377037942
 40
0.9999999999999999
 40
0.9999999999999999
 40
0.9999999999999999
 40
0.9999999999999999
 10
162.1596567804514
 20
91.28796486578028
 30
0.0
 10
162.185426352383
 20
91.32100622152626
 30
0.0
 10
162.2378317276019
 20
91.38819960177345
 30
0.0
 10
162.3389084279875
 20
91.52382706473188
 30
0.0
 10
162.4474791426732
 20
91.67954857333157
 30
0.0
 10
162.5485001775583
 20
91.84074920872864
 30
0.0
 10
162.6352117967577
 20
92.0049184882658
 30
0.0
 10
162.6950495517563
 20
92.1512775303538
 30
0.0
 10
162.7324162913578
 20
92.29153624221797
 30
0.0
 10
162.7485121956118
 20
92.41897941620401
 30
0.0
 10
162.7446007532828
 20
92.54937396049672
 30
0.0
 10
162.7188946515964
 20
92.68703360396891
 30
0.0
 10
162.6696931137384
 20
92.82900748157057
 30
0.0
 10
162.5897853749651
 20
92.99307992678398
 30
0.0
 10
162.4832559424683
 20
93.16470043190351
 30
0.0
 10
162.3612565132325
 20
93.3338661177201
 30
0.0
 10
162.246901891216
 20
93.47943500747677
 30
0.0
 10
162.1626227028627
 20
93.58128944421459
 30
0.0
 10
162.109212357911
 20
93.64437698718916
 30
0.0
 10
162.0801761229356
 20
93.67822953160551
 30
0.0
 10
162.0773887316415
 20
93.68146185800502
 30
0.0
 10
162.0760756931333
 20
93.68298448923464
 30
0.0
  0
LINE
  5
117
330
1F
100
AcDbEntity
  8
0
  6
HIDDEN
 62
     7
370
     0
100
AcDbLine
 10
162.0655354084
 20
93.6835137523
 30
0.0
 11
162.1596567805
 21
91.2879648658
 31
0.0
  0
LINE
  5
118
330
1F
100
AcDbEntity
  8
0
  6
HIDDEN
 62
     7
370
     0
100
AcDbLine
 10
162.0655354084
 20
121.1899423691
 30
0.0
 11
162.1596567805
 21
123.5854912556
 31
0.0
  0
SPLINE
  5
119
330
1F
100
AcDbEntity
  8
0
  6
HIDDEN
 62
     7
370
     0
100
AcDbSpline
210
0.0
220
0.0
230
1.0
 70
     8
 71
     3
 72
     8
 73
     4
 74
     0
 42
0.00000001
 43
0.00000001
 40
0.0
 40
0.0
 40
0.0
 40
0.0
 40
0.000159097695343
 40
0.000159097695343
 40
0.000159097695343
 40
0.000159097695343
 10
82.46045903555323
 20
91.63523762464013
 30
0.0
 10
82.41540756504888
 20
91.60725874031635
 30
0.0
 10
82.37035152663408
 20
91.57928720994127
 30
0.0
 10
82.32529102633521
 20
91.55132287058876
 30
0.0
  0
SPLINE
  5
11A
330
1F
100
AcDbEntity
  8
0
  6
HIDDEN
 62
     7
370
     0
100
AcDbSpline
210
0.0
220
0.0
230
1.0
 70
     8
 71
     3
 72
    11
 73
     7
 74
     0
 42
0.00000001
 43
0.00000001
 40
0.0
 40
0.0
 40
0.0
 40
0.0
 40
0.0008212909311456
 40
0.0008212909311456
 40
0.0008212909311456
 40
0.001642825724306
 40
0.001642825724306
 40
0.001642825724306
 40
0.001642825724306
 10
82.32529102633521
 20
91.55132287058876
 30
0.0
 10
82.13414600485302
 20
91.50803668173621
 30
0.0
 10
81.94272766917655
 20
91.46710017209892
 30
0.0
 10
81.75108159451541
 20
91.42849840071234
 30
0.0
 10
81.55937851297382
 20
91.38988514687526
 30
0.0
 10
81.3674333896883
 20
91.35360493758925
 30
0.0
 10
81.17529102633513
 20
91.31963803123774
 30
0.0
  0
LINE
  5
11B
330
1F
100
AcDbEntity
  8
0
  6
HIDDEN
 62
     7
370
     0
100
AcDbLine
 10
129.1652910263
 20
127.6150370793
 30
0.0
 11
129.1652910263
 21
127.2867280607
 31
0.0
  0
LINE
  5
11C
330
1F
100
AcDbEntity
  8
0
  6
HIDDEN
 62
     7
370
     0
100
AcDbLine
 10
132.9852910263
 20
127.6150370793
 30
0.0
 11
132.9852910263
 21
127.2867280607
 31
0.0
  0
LINE
  5
11D
330
1F
100
AcDbEntity
  8
0
  6
HIDDEN
 62
     7
370
     0
100
AcDbLine
 10
134.4672238578
 20
131.895417723
 30
0.0
 11
134.4672238578
 21
127.2867280607
 31
0.0
  0
SPLINE
  5
11E
330
1F
100
AcDbEntity
  8
0
  6
HIDDEN
 62
     7
370
     0
100
AcDbSpline
210
0.0
220
0.0
230
1.0
 70
     8
 71
     3
 72
    11
 73
     7
 74
     0
 42
0.00000001
 43
0.00000001
 40
0.0
 40
0.0
 40
0.0
 40
0.0
 40
0.0005781862223978
 40
0.0005781862223978
 40
0.0005781862223978
 40
0.0011563724723928
 40
0.0011563724723928
 40
0.0011563724723928
 40
0.0011563724723928
 10
82.1752910263352
 20
120.0768703677185
 30
0.0
 10
82.00863047205958
 20
120.1413998791321
 30
0.0
 10
81.84196717515312
 20
120.2059025829759
 30
0.0
 10
81.67530059132288
 20
120.2703890314096
 30
0.0
 10
81.5086339990638
 20
120.3348754831045
 30
0.0
 10
81.3419641334379
 20
120.3993454918326
 30
0.0
 10
81.17529102633517
 20
120.4638012585652
 30
0.0
  0
SPLINE
  5
11F
330
1F
100
AcDbEntity
  8
0
  6
HIDDEN
 62
     7
370
     0
100
AcDbSpline
210
0.0
220
0.0
230
1.0
 70
     8
 71
     3
 72
    11
 73
     7
 74
     0
 42
0.00000001
 43
0.00000001
 40
0.0
 40
0.0
 40
0.0
 40
0.0
 40
0.0005778746105108
 40
0.0005778746105108
 40
0.0005778746105108
 40
0.0011557494857226
 40
0.0011557494857226
 40
0.0011557494857226
 40
0.0011557494857226
 10
81.17529102633517
 20
94.40950620518187
 30
0.0
 10
81.3419579027485
 20
94.47531833187574
 30
0.0
 10
81.50862462230997
 20
94.54117681201338
 30
0.0
 10
81.67529127035861
 20
94.607084384944
 30
0.0
 10
81.84195799487728
 20
94.67299198811435
 30
0.0
 10
82.00862468929786
 20
94.73894909650286
 30
0.0
 10
82.1752910263352
 20
94.80495083642556
 30
0.0
  0
SPLINE
  5
120
330
1F
100
AcDbEntity
  8
0
  6
HIDDEN
 62
     7
370
     0
100
AcDbSpline
210
0.0
220
0.0
230
1.0
 70
     8
 71
     3
 72
    11
 73
     7
 74
     0
 42
0.00000001
 43
0.00000001
 40
0.0000000000000006
 40
0.0000000000000006
 40
0.0000000000000006
 40
0.0000000000000006
 40
0.0005780486062768
 40
0.0005780486062768
 40
0.0005780486062768
 40
0.0011560973514127
 40
0.0011560973514127
 40
0.0011560973514127
 40
0.0011560973514127
 10
81.17529102633517
 20
117.4175425623635
 30
0.0
 10
81.3419608823801
 20
117.355170700849
 30
0.0
 10
81.50862858646435
 20
117.2928168405513
 30
0.0
 10
81.675294890918
 20
117.2304972803652
 30
0.0
 10
81.84196123161175
 20
117.1681777066284
 30
0.0
 10
82.00862618824054
 20
117.1058925023088
 30
0.0
 10
82.17529102633522
 20
117.0436673817401
 30
0.0
  0
SPLINE
  5
121
330
1F
100
AcDbEntity
  8
0
  6
HIDDEN
 62
     7
370
     0
100
AcDbSpline
210
0.0
220
0.0
230
1.0
 70
     8
 71
     3
 72
    11
 73
     7
 74
     0
 42
0.00000001
 43
0.00000001
 40
0.0
 40
0.0
 40
0.0
 40
0.0
 40
0.0005782401583533
 40
0.0005782401583533
 40
0.0005782401583533
 40
0.0011564805960993
 40
0.0011564805960993
 40
0.0011564805960993
 40
0.0011564805960993
 10
82.1752910263352
 20
97.83590126827413
 30
0.0
 10
82.00864007598629
 20
97.77247581021334
 30
0.0
 10
81.84198048340366
 20
97.70912028655806
 30
0.0
 10
81.67531343097511
 20
97.64582270220811
 30
0.0
 10
81.50864629441129
 20
97.58252508590485
 30
0.0
 10
81.34197168696522
 20
97.51928529096413
 30
0.0
 10
81.17529102633516
 20
97.4560852843253
 30
0.0
  0
CIRCLE
  5
122
330
1F
100
AcDbEntity
  8
0
  6
HIDDEN
 62
     7
370
     0
100
AcDbCircle
 10
120.0752910263
 20
107.4367280607
 30
0.0
 40
5.0
  0
LINE
  5
123
330
1F
100
AcDbEntity
  8
0
  6
HIDDEN
 62
     7
370
     0
100
AcDbLine
 10
212.8840242691
 20
95.9303705072
 30
0.0
 11
213.0018037164
 21
92.9326833985
 31
0.0
  0
LINE
  5
124
330
1F
100
AcDbEntity
  8
0
  6
HIDDEN
 62
     7
370
     0
100
AcDbLine
 10
207.5500864652
 20
95.7207995201
 30
0.0
 11
207.6678659125
 21
92.7231124114
 31
0.0
  0
LINE
  5
125
330
1F
100
AcDbEntity
  8
0
  6
HIDDEN
 62
     7
370
     0
100
AcDbLine
 10
213.0568585428
 20
95.6564447621
 30
0.0
 11
213.0752910263
 21
95.1873067296
 31
0.0
  0
LINE
  5
126
330
1F
100
AcDbEntity
  8
0
  6
HIDDEN
 62
     7
370
     0
100
AcDbLine
 10
207.070101855
 20
95.2015550941
 30
0.0
 11
207.1486214865
 21
93.2030970216
 31
0.0
  0
LINE
  5
127
330
1F
100
AcDbEntity
  8
0
  6
HIDDEN
 62
     7
370
     0
100
AcDbLine
 10
211.1062778157
 20
94.3593653209
 30
0.0
 11
211.1357226775
 21
93.6099435437
 31
0.0
  0
LINE
  5
128
330
1F
100
AcDbEntity
  8
0
  6
HIDDEN
 62
     7
370
     0
100
AcDbLine
 10
211.0768329539
 20
95.1087870981
 30
0.0
 11
211.1062778157
 21
94.3593653209
 31
0.0
  0
LINE
  5
129
330
1F
100
AcDbEntity
  8
0
  6
HIDDEN
 62
     7
370
     0
100
AcDbLine
 10
211.1062778157
 20
94.3593653209
 30
0.0
 11
213.1047358882
 21
94.4378849524
 31
0.0
  0
LINE
  5
12A
330
1F
100
AcDbEntity
  8
0
  6
HIDDEN
 62
     7
370
     0
100
AcDbLine
 10
211.0768329539
 20
95.1087870981
 30
0.0
 11
213.0752910263
 21
95.1873067296
 31
0.0
  0
LINE
  5
12B
330
1F
100
AcDbEntity
  8
0
  6
HIDDEN
 62
     7
370
     0
100
AcDbLine
 10
211.1357226775
 20
93.6099435437
 30
0.0
 11
213.13418075
 21
93.6884631753
 31
0.0
  0
LINE
  5
12C
330
1F
100
AcDbEntity
  8
0
  6
HIDDEN
 62
     7
370
     0
100
AcDbLine
 10
212.8840242691
 20
120.444242952
 30
0.0
 11
212.8251345454
 21
118.9453993977
 31
0.0
  0
LINE
  5
12D
330
1F
100
AcDbEntity
  8
0
  6
HIDDEN
 62
     7
370
     0
100
AcDbLine
 10
212.9429139927
 20
121.9430865064
 30
0.0
 11
212.8840242691
 21
120.444242952
 31
0.0
  0
LINE
  5
12E
330
1F
100
AcDbEntity
  8
0
  6
HIDDEN
 62
     7
370
     0
100
AcDbLine
 10
207.5500864652
 20
120.6538139391
 30
0.0
 11
207.4911967416
 21
119.1549703848
 31
0.0
  0
LINE
  5
12F
330
1F
100
AcDbEntity
  8
0
  6
HIDDEN
 62
     7
370
     0
100
AcDbLine
 10
207.6089761888
 20
122.1526574935
 30
0.0
 11
207.5500864652
 21
120.6538139391
 31
0.0
  0
LINE
  5
130
330
1F
100
AcDbEntity
  8
0
  6
HIDDEN
 62
     7
370
     0
100
AcDbLine
 10
207.0504719471
 20
120.673443847
 30
0.0
 11
207.0112121313
 21
119.6742148108
 31
0.0
  0
LINE
  5
131
330
1F
100
AcDbEntity
  8
0
  6
HIDDEN
 62
     7
370
     0
100
AcDbLine
 10
207.0897317628
 20
121.6726728832
 30
0.0
 11
207.0504719471
 21
120.673443847
 31
0.0
  0
LINE
  5
132
330
1F
100
AcDbEntity
  8
0
  6
HIDDEN
 62
     7
370
     0
100
AcDbLine
 10
213.0458461645
 20
120.4378849524
 30
0.0
 11
212.9979688192
 21
119.2193251427
 31
0.0
  0
LINE
  5
133
330
1F
100
AcDbEntity
  8
0
  6
HIDDEN
 62
     7
370
     0
100
AcDbLine
 10
213.0752910263
 20
121.1873067296
 30
0.0
 11
213.0458461645
 21
120.4378849524
 31
0.0
  0
LINE
  5
134
330
1F
100
AcDbEntity
  8
0
  6
HIDDEN
 62
     7
370
     0
100
AcDbLine
 10
211.0768329539
 20
121.2658263611
 30
0.0
 11
211.047388092
 21
120.516404584
 31
0.0
  0
LINE
  5
135
330
1F
100
AcDbEntity
  8
0
  6
HIDDEN
 62
     7
370
     0
100
AcDbLine
 10
211.0179432302
 20
119.7669828068
 30
0.0
 11
211.047388092
 21
120.516404584
 31
0.0
  0
LINE
  5
136
330
1F
100
AcDbEntity
  8
0
  6
HIDDEN
 62
     7
370
     0
100
AcDbLine
 10
211.047388092
 20
120.516404584
 30
0.0
 11
213.0458461645
 21
120.4378849524
 31
0.0
  0
LINE
  5
137
330
1F
100
AcDbEntity
  8
0
  6
HIDDEN
 62
     7
370
     0
100
AcDbLine
 10
211.0768329539
 20
121.2658263611
 30
0.0
 11
213.0752910263
 21
121.1873067296
 31
0.0
  0
LINE
  5
138
330
1F
100
AcDbEntity
  8
0
  6
HIDDEN
 62
     7
370
     0
100
AcDbLine
 10
211.0179432302
 20
119.7669828068
 30
0.0
 11
213.0164013027
 21
119.6884631753
 31
0.0
  0
LINE
  5
139
330
1F
100
AcDbEntity
  8
0
  6
HIDDEN
 62
     7
370
     0
100
AcDbLine
 10
161.0752910263
 20
103.066395333
 30
0.0
 11
161.0752910263
 21
112.9367280607
 31
0.0
  0
LINE
  5
13A
330
1F
100
AcDbEntity
  8
0
  6
HIDDEN
 62
     7
370
     0
100
AcDbLine
 10
161.0752910263
 20
101.9367280607
 30
0.0
 11
161.0752910263
 21
103.066395333
 31
0.0
  0
LINE
  5
13B
330
1F
100
AcDbEntity
  8
0
  6
HIDDEN
 62
     7
370
     0
100
AcDbLine
 10
160.5752910263
 20
102.6690923578
 30
0.0
 11
160.5752910263
 21
113.4367280607
 31
0.0
  0
LINE
  5
13C
330
1F
100
AcDbEntity
  8
0
  6
HIDDEN
 62
     7
370
     0
100
AcDbLine
 10
160.5752910263
 20
101.4367280607
 30
0.0
 11
160.5752910263
 21
102.6690923578
 31
0.0
  0
LINE
  5
13D
330
1F
100
AcDbEntity
  8
0
  6
HIDDEN
 62
     7
370
     0
100
AcDbLine
 10
145.5752910263
 20
102.6690923578
 30
0.0
 11
145.5752910263
 21
113.4367280607
 31
0.0
  0
LINE
  5
13E
330
1F
100
AcDbEntity
  8
0
  6
HIDDEN
 62
     7
370
     0
100
AcDbLine
 10
145.5752910263
 20
101.4367280607
 30
0.0
 11
145.5752910263
 21
102.6690923578
 31
0.0
  0
LINE
  5
13F
330
1F
100
AcDbEntity
  8
0
  6
HIDDEN
 62
     7
370
     0
100
AcDbLine
 10
145.0752910263
 20
103.066395333
 30
0.0
 11
145.0752910263
 21
112.9367280607
 31
0.0
  0
LINE
  5
140
330
1F
100
AcDbEntity
  8
0
  6
HIDDEN
 62
     7
370
     0
100
AcDbLine
 10
145.0752910263
 20
101.9367280607
 30
0.0
 11
145.0752910263
 21
103.066395333
 31
0.0
  0
LINE
  5
141
330
1F
100
AcDbEntity
  8
0
  6
HIDDEN
 62
     7
370
     0
100
AcDbLine
 10
165.0752910263
 20
109.4574253569
 30
0.0
 11
163.0752910263
 21
109.4574253569
 31
0.0
  0
LINE
  5
142
330
1F
100
AcDbEntity
  8
0
  6
HIDDEN
 62
     7
370
     0
100
AcDbLine
 10
165.0752910263
 20
101.9367280607
 30
0.0
 11
165.0752910263
 21
109.4574253569
 31
0.0
  0
LINE
  5
143
330
1F
100
AcDbEntity
  8
0
  6
HIDDEN
 62
     7
370
     0
100
AcDbLine
 10
163.0752910263
 20
103.0322129131
 30
0.0
 11
165.0752910263
 21
103.0322129131
 31
0.0
  0
LINE
  5
144
330
1F
100
AcDbEntity
  8
0
  6
HIDDEN
 62
     7
370
     0
100
AcDbLine
 10
165.0752910263
 20
105.4160307645
 30
0.0
 11
163.0752910263
 21
105.4160307645
 31
0.0
  0
LINE
  5
145
330
1F
100
AcDbEntity
  8
0
  6
HIDDEN
 62
     7
370
     0
100
AcDbLine
 10
165.0752910263
 20
111.8412432083
 30
0.0
 11
165.0752910263
 21
112.9367280607
 31
0.0
  0
LINE
  5
146
330
1F
100
AcDbEntity
  8
0
  6
HIDDEN
 62
     7
370
     0
100
AcDbLine
 10
163.0752910263
 20
111.8412432083
 30
0.0
 11
165.0752910263
 21
111.8412432083
 31
0.0
  0
LINE
  5
147
330
1F
100
AcDbEntity
  8
0
  6
HIDDEN
 62
     7
370
     0
100
AcDbLine
 10
163.0752910263
 20
109.4574253569
 30
0.0
 11
163.0752910263
 21
111.8412432083
 31
0.0
  0
LINE
  5
148
330
1F
100
AcDbEntity
  8
0
  6
HIDDEN
 62
     7
370
     0
100
AcDbLine
 10
163.0752910263
 20
107.8221774767
 30
0.0
 11
163.0752910263
 21
109.4574253569
 31
0.0
  0
LINE
  5
149
330
1F
100
AcDbEntity
  8
0
  6
HIDDEN
 62
     7
370
     0
100
AcDbLine
 10
163.0752910263
 20
107.8221774767
 30
0.0
 11
165.0752910263
 21
107.8221774767
 31
0.0
  0
LINE
  5
14A
330
1F
100
AcDbEntity
  8
0
  6
HIDDEN
 62
     7
370
     0
100
AcDbLine
 10
152.0752910263
 20
106.1044824371
 30
0.0
 11
152.0752910263
 21
107.8221774767
 31
0.0
  0
LINE
  5
14B
330
1F
100
AcDbEntity
  8
0
  6
HIDDEN
 62
     7
370
     0
100
AcDbLine
 10
158.0752910263
 20
107.8221774767
 30
0.0
 11
158.0752910263
 21
106.1044824371
 31
0.0
  0
LINE
  5
14C
330
1F
100
AcDbEntity
  8
0
  6
HIDDEN
 62
     7
370
     0
100
AcDbLine
 10
158.0752910263
 20
109.5398725164
 30
0.0
 11
158.0752910263
 21
107.8221774767
 31
0.0
  0
LINE
  5
14D
330
1F
100
AcDbEntity
  8
0
  6
HIDDEN
 62
     7
370
     0
100
AcDbLine
 10
152.0752910263
 20
107.8221774767
 30
0.0
 11
152.0752910263
 21
109.5398725164
 31
0.0
  0
LINE
  5
14E
330
1F
100
AcDbEntity
  8
0
  6
HIDDEN
 62
     7
370
     0
100
AcDbLine
 10
165.0752910263
 20
110.2059953282
 30
0.0
 11
163.0752910263
 21
110.2059953282
 31
0.0
  0
LINE
  5
14F
330
1F
100
AcDbEntity
  8
0
  6
HIDDEN
 62
     7
370
     0
100
AcDbLine
 10
165.0752910263
 20
110.2059953282
 30
0.0
 11
165.0752910263
 21
111.8412432083
 31
0.0
  0
LINE
  5
150
330
1F
100
AcDbEntity
  8
0
  6
HIDDEN
 62
     7
370
     0
100
AcDbLine
 10
152.0752910263
 20
105.0529102092
 30
0.0
 11
152.0752910263
 21
106.1044824371
 31
0.0
  0
LINE
  5
151
330
1F
100
AcDbEntity
  8
0
  6
HIDDEN
 62
     7
370
     0
100
AcDbLine
 10
152.0752910263
 20
106.1044824371
 30
0.0
 11
145.0752910263
 21
106.1044824371
 31
0.0
  0
LINE
  5
152
330
1F
100
AcDbEntity
  8
0
  6
HIDDEN
 62
     7
370
     0
100
AcDbLine
 10
158.0752910263
 20
106.1044824371
 30
0.0
 11
158.0752910263
 21
105.0529102092
 31
0.0
  0
LINE
  5
153
330
1F
100
AcDbEntity
  8
0
  6
HIDDEN
 62
     7
370
     0
100
AcDbLine
 10
158.0752910263
 20
106.1044824371
 30
0.0
 11
165.0752910263
 21
106.1044824371
 31
0.0
  0
LINE
  5
154
330
1F
100
AcDbEntity
  8
0
  6
HIDDEN
 62
     7
370
     0
100
AcDbLine
 10
158.0752910263
 20
110.2059953282
 30
0.0
 11
158.0752910263
 21
109.5398725164
 31
0.0
  0
LINE
  5
155
330
1F
100
AcDbEntity
  8
0
  6
HIDDEN
 62
     7
370
     0
100
AcDbLine
 10
158.0752910263
 20
109.5398725164
 30
0.0
 11
163.0752910263
 21
109.5398725164
 31
0.0
  0
LINE
  5
156
330
1F
100
AcDbEntity
  8
0
  6
HIDDEN
 62
     7
370
     0
100
AcDbLine
 10
152.0752910263
 20
109.5398725164
 30
0.0
 11
152.0752910263
 21
110.2059953282
 31
0.0
  0
LINE
  5
157
330
1F
100
AcDbEntity
  8
0
  6
HIDDEN
 62
     7
370
     0
100
AcDbLine
 10
152.0752910263
 20
109.5398725164
 30
0.0
 11
145.0752910263
 21
109.5398725164
 31
0.0
  0
LINE
  5
158
330
1F
100
AcDbEntity
  8
0
  6
HIDDEN
 62
     7
370
     0
100
AcDbLine
 10
152.0752910263
 20
104.0013379814
 30
0.0
 11
152.0752910263
 21
105.0529102092
 31
0.0
  0
LINE
  5
159
330
1F
100
AcDbEntity
  8
0
  6
HIDDEN
 62
     7
370
     0
100
AcDbLine
 10
158.0752910263
 20
105.0529102092
 30
0.0
 11
158.0752910263
 21
104.0013379814
 31
0.0
  0
LINE
  5
15A
330
1F
100
AcDbEntity
  8
0
  6
HIDDEN
 62
     7
370
     0
100
AcDbLine
 10
152.0752910263
 20
110.2059953282
 30
0.0
 11
152.0752910263
 21
110.87211814
 31
0.0
  0
LINE
  5
15B
330
1F
100
AcDbEntity
  8
0
  6
HIDDEN
 62
     7
370
     0
100
AcDbLine
 10
158.0752910263
 20
110.87211814
 30
0.0
 11
158.0752910263
 21
110.2059953282
 31
0.0
  0
LINE
  5
15C
330
1F
100
AcDbEntity
  8
0
  6
HIDDEN
 62
     7
370
     0
100
AcDbLine
 10
152.0752910263
 20
105.333583605
 30
0.0
 11
145.0752910263
 21
105.333583605
 31
0.0
  0
LINE
  5
15D
330
1F
100
AcDbEntity
  8
0
  6
HIDDEN
 62
     7
370
     0
100
AcDbLine
 10
152.0752910263
 20
104.0013379814
 30
0.0
 11
145.0752910263
 21
104.0013379814
 31
0.0
  0
LINE
  5
15E
330
1F
100
AcDbEntity
  8
0
  6
HIDDEN
 62
     7
370
     0
100
AcDbLine
 10
158.0752910263
 20
105.333583605
 30
0.0
 11
163.0752910263
 21
105.333583605
 31
0.0
  0
LINE
  5
15F
330
1F
100
AcDbEntity
  8
0
  6
HIDDEN
 62
     7
370
     0
100
AcDbLine
 10
163.0752910263
 20
104.6674607932
 30
0.0
 11
163.0752910263
 21
105.333583605
 31
0.0
  0
LINE
  5
160
330
1F
100
AcDbEntity
  8
0
  6
HIDDEN
 62
     7
370
     0
100
AcDbLine
 10
165.0752910263
 20
104.6674607932
 30
0.0
 11
163.0752910263
 21
104.6674607932
 31
0.0
  0
LINE
  5
161
330
1F
100
AcDbEntity
  8
0
  6
HIDDEN
 62
     7
370
     0
100
AcDbLine
 10
158.0752910263
 20
104.0013379814
 30
0.0
 11
165.0752910263
 21
104.0013379814
 31
0.0
  0
LINE
  5
162
330
1F
100
AcDbEntity
  8
0
  6
HIDDEN
 62
     7
370
     0
100
AcDbLine
 10
158.0752910263
 20
108.7689736843
 30
0.0
 11
165.0752910263
 21
108.7689736843
 31
0.0
  0
LINE
  5
163
330
1F
100
AcDbEntity
  8
0
  6
HIDDEN
 62
     7
370
     0
100
AcDbLine
 10
158.0752910263
 20
110.87211814
 30
0.0
 11
165.0752910263
 21
110.87211814
 31
0.0
  0
LINE
  5
164
330
1F
100
AcDbEntity
  8
0
  6
HIDDEN
 62
     7
370
     0
100
AcDbLine
 10
165.0752910263
 20
110.2059953282
 30
0.0
 11
165.0752910263
 21
109.4574253569
 31
0.0
  0
LINE
  5
165
330
1F
100
AcDbEntity
  8
0
  6
HIDDEN
 62
     7
370
     0
100
AcDbLine
 10
152.0752910263
 20
108.7689736843
 30
0.0
 11
145.0752910263
 21
108.7689736843
 31
0.0
  0
LINE
  5
166
330
1F
100
AcDbEntity
  8
0
  6
HIDDEN
 62
     7
370
     0
100
AcDbLine
 10
152.0752910263
 20
110.87211814
 30
0.0
 11
145.0752910263
 21
110.87211814
 31
0.0
  0
LINE
  5
167
330
1F
100
AcDbEntity
  8
0
  6
HIDDEN
 62
     7
370
     0
100
AcDbLine
 10
163.0752910263
 20
103.0322129131
 30
0.0
 11
163.0752910263
 21
104.6674607932
 31
0.0
  0
LINE
  5
168
330
1F
100
AcDbEntity
  8
0
  6
HIDDEN
 62
     7
370
     0
100
AcDbLine
 10
163.0752910263
 20
107.0512786446
 30
0.0
 11
165.0752910263
 21
107.0512786446
 31
0.0
  0
LINE
  5
169
330
1F
100
AcDbEntity
  8
0
  6
HIDDEN
 62
     7
370
     0
100
AcDbLine
 10
163.0752910263
 20
105.333583605
 30
0.0
 11
163.0752910263
 21
107.0512786446
 31
0.0
  0
LINE
  5
16A
330
1F
100
AcDbEntity
  8
0
  6
HIDDEN
 62
     7
370
     0
100
AcDbLine
 10
117.0752910263
 20
121.7373931647
 30
0.0
 11
117.0752910263
 21
119.8306687036
 31
0.0
  0
LINE
  5
16B
330
1F
100
AcDbEntity
  8
0
  6
HIDDEN
 62
     7
370
     0
100
AcDbLine
 10
125.0752910263
 20
119.8306687036
 30
0.0
 11
125.0752910263
 21
121.7366725208
 31
0.0
  0
LINE
  5
16C
330
1F
100
AcDbEntity
  8
0
  6
HIDDEN
 62
     7
370
     0
100
AcDbLine
 10
113.0752910263
 20
82.1127969147
 30
0.0
 11
113.1694518019
 21
82.7827856459
 31
0.0
  0
LINE
  5
16D
330
1F
100
AcDbEntity
  8
0
  6
HIDDEN
 62
     7
370
     0
100
AcDbLine
 10
113.1694518019
 20
132.0906704754
 30
0.0
 11
113.0752910263
 21
132.7606592067
 31
0.0
  0
ARC
  5
16E
330
1F
100
AcDbEntity
  8
0
  6
HIDDEN
 62
     7
370
     0
100
AcDbCircle
 10
112.5752842737
 20
82.8662904463
 30
0.0
 40
0.6000067526677081
100
AcDbArc
 50
352.0
 51
0.0
  0
ARC
  5
16F
330
1F
100
AcDbEntity
  8
0
  6
HIDDEN
 62
     7
370
     0
100
AcDbCircle
 10
112.5752842737
 20
82.8662904463
 30
0.0
 40
0.6000067526677045
100
AcDbArc
 50
0.0
 51
33.5571153394
  0
ARC
  5
170
330
1F
100
AcDbEntity
  8
0
  6
HIDDEN
 62
     7
370
     0
100
AcDbCircle
 10
112.5752842737
 20
132.0071656751
 30
0.0
 40
0.6000067526677042
100
AcDbArc
 50
348.75
 51
8.0
  0
LWPOLYLINE
  5
171
330
1F
100
AcDbEntity
  8
0
  6
HIDDEN
 62
     7
370
     0
100
AcDbPolyline
 90
        3
 70
   128
 43
0.0
 10
113.1637620648
 20
131.8901101645
 10
113.1296182318
 20
131.7775530315
 10
113.0752910263
 20
131.67550116
  0
LINE
  5
172
330
1F
100
AcDbEntity
  8
0
  6
HIDDEN
 62
     7
370
     0
100
AcDbLine
 10
113.1752910263
 20
82.8662904463
 30
0.0
 11
113.1752910263
 21
132.0071656751
 31
0.0
  0
LINE
  5
173
330
1F
100
AcDbEntity
  8
0
  6
HIDDEN
 62
     7
370
     0
100
AcDbLine
 10
96.1577265916
 20
87.4367280607
 30
0.0
 11
100.3284084075
 21
87.4367280607
 31
0.0
  0
LINE
  5
174
330
1F
100
AcDbEntity
  8
0
  6
HIDDEN
 62
     7
370
     0
100
AcDbLine
 10
100.335263168
 20
127.4367280607
 30
0.0
 11
96.1577265916
 21
127.4367280607
 31
0.0
  0
ARC
  5
175
330
1F
100
AcDbEntity
  8
0
  6
HIDDEN
 62
     7
370
     0
100
AcDbCircle
 10
96.1577265916
 20
88.0367280607
 30
0.0
 40
0.5999999999999962
100
AcDbArc
 50
210.0
 51
270.0
  0
ARC
  5
176
330
1F
100
AcDbEntity
  8
0
  6
HIDDEN
 62
     7
370
     0
100
AcDbCircle
 10
96.1577265916
 20
126.8367280607
 30
0.0
 40
0.6000000000000085
100
AcDbArc
 50
90.0
 51
150.0
  0
ARC
  5
177
330
1F
100
AcDbEntity
  8
0
  6
HIDDEN
 62
     7
370
     0
100
AcDbCircle
 10
106.8302930279
 20
95.4367280607
 30
0.0
 40
7.999999999999988
100
AcDbArc
 50
277.139527204
 51
321.3178125465
  0
ARC
  5
178
330
1F
100
AcDbEntity
  8
0
  6
HIDDEN
 62
     7
370
     0
100
AcDbCircle
 10
106.8302930279
 20
119.4367280607
 30
0.0
 40
7.999999999999984
100
AcDbArc
 50
38.6821874535
 51
82.8520570301
  0
LINE
  5
179
330
1F
100
AcDbEntity
  8
0
  6
HIDDEN
 62
     7
370
     0
100
AcDbLine
 10
95.6381113494
 20
127.1367280607
 30
0.0
 11
94.0792656226
 21
124.4367280607
 31
0.0
  0
LINE
  5
17A
330
1F
100
AcDbEntity
  8
0
  6
HIDDEN
 62
     7
370
     0
100
AcDbLine
 10
94.0792656226
 20
90.4367280607
 30
0.0
 11
95.6381113494
 21
87.7367280607
 31
0.0
  0
LINE
  5
17B
330
1F
100
AcDbEntity
  8
0
  6
HIDDEN
 62
     7
370
     0
100
AcDbLine
 10
117.0752910263
 20
134.7164602978
 30
0.0
 11
117.0752910263
 21
131.3823304753
 31
0.0
  0
LINE
  5
17C
330
1F
100
AcDbEntity
  8
0
  6
HIDDEN
 62
     7
370
     0
100
AcDbLine
 10
125.0752910263
 20
131.3823304753
 30
0.0
 11
125.0752910263
 21
134.7150856085
 31
0.0
  0
ARC
  5
17D
330
1F
100
AcDbEntity
  8
0
  6
HIDDEN
 62
     7
370
     0
100
AcDbCircle
 10
121.5252910263
 20
91.7117280607
 30
0.0
 40
1.5
100
AcDbArc
 50
238.2116693829
 51
0.0
  0
ARC
  5
17E
330
1F
100
AcDbEntity
  8
0
  6
HIDDEN
 62
     7
370
     0
100
AcDbCircle
 10
121.5252910263
 20
123.1617280607
 30
0.0
 40
1.5
100
AcDbArc
 50
0.0
 51
121.7883306171
  0
LINE
  5
17F
330
1F
100
AcDbEntity
  8
0
  6
HIDDEN
 62
     7
370
     0
100
AcDbLine
 10
91.2752910263
 20
90.4367280607
 30
0.0
 11
94.0792656226
 21
90.4367280607
 31
0.0
  0
LINE
  5
180
330
1F
100
AcDbEntity
  8
0
  6
HIDDEN
 62
     7
370
     0
100
AcDbLine
 10
94.0792656226
 20
124.4367280607
 30
0.0
 11
87.2752910263
 21
124.4367280607
 31
0.0
  0
LINE
  5
181
330
1F
100
AcDbEntity
  8
0
  6
HIDDEN
 62
     7
370
     0
100
AcDbLine
 10
113.0752910263
 20
90.4367280607
 30
0.0
 11
120.7351169949
 21
90.4367280607
 31
0.0
  0
LINE
  5
182
330
1F
100
AcDbEntity
  8
0
  6
HIDDEN
 62
     7
370
     0
100
AcDbLine
 10
120.7351169949
 20
124.4367280607
 30
0.0
 11
113.0752910263
 21
124.4367280607
 31
0.0
  0
ARC
  5
183
330
1F
100
AcDbEntity
  8
0
  6
HIDDEN
 62
     7
370
     0
100
AcDbCircle
 10
212.5752910263
 20
96.4000338126
 30
0.0
 40
0.5
100
AcDbArc
 50
0.0
 51
80.0
  0
ARC
  5
184
330
1F
100
AcDbEntity
  8
0
  6
HIDDEN
 62
     7
370
     0
100
AcDbCircle
 10
212.5752910263
 20
118.4734223087
 30
0.0
 40
0.5
100
AcDbArc
 50
280.0
 51
0.0
  0
LINE
  5
185
330
1F
100
AcDbEntity
  8
0
  6
HIDDEN
 62
     7
370
     0
100
AcDbLine
 10
212.6621151152
 20
117.9810184322
 30
0.0
 11
209.5752910263
 21
117.4367280607
 31
0.0
  0
LINE
  5
186
330
1F
100
AcDbEntity
  8
0
  6
HIDDEN
 62
     7
370
     0
100
AcDbLine
 10
209.5752910263
 20
97.4367280607
 30
0.0
 11
212.6621151152
 21
96.8924376891
 31
0.0
  0
LINE
  5
187
330
1F
100
AcDbEntity
  8
0
  6
HIDDEN
 62
     7
370
     0
100
AcDbLine
 10
165.0752910263
 20
97.1367280607
 30
0.0
 11
171.1805170082
 21
97.1367280607
 31
0.0
  0
LINE
  5
188
330
1F
100
AcDbEntity
  8
0
  6
HIDDEN
 62
     7
370
     0
100
AcDbLine
 10
161.9752910263
 20
97.1367280607
 30
0.0
 11
162.0786441598
 21
97.1367280607
 31
0.0
  0
LINE
  5
189
330
1F
100
AcDbEntity
  8
0
  6
HIDDEN
 62
     7
370
     0
100
AcDbLine
 10
162.075628292
 20
117.7367280607
 30
0.0
 11
161.9752910263
 21
117.7367280607
 31
0.0
  0
LINE
  5
18A
330
1F
100
AcDbEntity
  8
0
  6
HIDDEN
 62
     7
370
     0
100
AcDbLine
 10
171.1805170082
 20
117.7367280607
 30
0.0
 11
165.0725810091
 21
117.7367280607
 31
0.0
  0
ARC
  5
18B
330
1F
100
AcDbEntity
  8
0
  6
HIDDEN
 62
     7
370
     0
100
AcDbCircle
 10
161.9752910263
 20
97.5367280607
 30
0.0
 40
0.4000000000000341
100
AcDbArc
 50
180.0
 51
270.0
  0
ARC
  5
18C
330
1F
100
AcDbEntity
  8
0
  6
HIDDEN
 62
     7
370
     0
100
AcDbCircle
 10
161.9752910263
 20
117.3367280607
 30
0.0
 40
0.4000000000000341
100
AcDbArc
 50
90.0
 51
180.0
  0
ARC
  5
18D
330
1F
100
AcDbEntity
  8
0
  6
HIDDEN
 62
     7
370
     0
100
AcDbCircle
 10
171.1805170082
 20
97.5367280607
 30
0.0
 40
0.4000000000000057
100
AcDbArc
 50
270.0
 51
290.0
  0
ARC
  5
18E
330
1F
100
AcDbEntity
  8
0
  6
HIDDEN
 62
     7
370
     0
100
AcDbCircle
 10
171.1805170082
 20
117.3367280607
 30
0.0
 40
0.4000000000000057
100
AcDbArc
 50
70.0
 51
90.0
  0
LINE
  5
18F
330
1F
100
AcDbEntity
  8
0
  6
HIDDEN
 62
     7
370
     0
100
AcDbLine
 10
171.3173250655
 20
97.1608510124
 30
0.0
 11
172.0752910263
 21
97.4367280607
 31
0.0
  0
LINE
  5
190
330
1F
100
AcDbEntity
  8
0
  6
HIDDEN
 62
     7
370
     0
100
AcDbLine
 10
172.0752910263
 20
117.4367280607
 30
0.0
 11
171.3173250655
 21
117.712605109
 31
0.0
  0
LINE
  5
191
330
1F
100
AcDbEntity
  8
0
  6
HIDDEN
 62
     7
370
     0
100
AcDbLine
 10
172.0752910263
 20
97.4367280607
 30
0.0
 11
209.5752910263
 21
97.4367280607
 31
0.0
  0
LINE
  5
192
330
1F
100
AcDbEntity
  8
0
  6
HIDDEN
 62
     7
370
     0
100
AcDbLine
 10
209.5752910263
 20
117.4367280607
 30
0.0
 11
172.0752910263
 21
117.4367280607
 31
0.0
  0
LINE
  5
193
330
1F
100
AcDbEntity
  8
0
  6
HIDDEN
 62
     7
370
     0
100
AcDbLine
 10
131.8752910263
 20
97.9367280607
 30
0.0
 11
134.8752910263
 21
97.9367280607
 31
0.0
  0
LINE
  5
194
330
1F
100
AcDbEntity
  8
0
  6
HIDDEN
 62
     7
370
     0
100
AcDbLine
 10
134.8752910263
 20
116.9367280607
 30
0.0
 11
131.8752910263
 21
116.9367280607
 31
0.0
  0
LINE
  5
195
330
1F
100
AcDbEntity
  8
0
  6
HIDDEN
 62
     7
370
     0
100
AcDbLine
 10
123.0252910263
 20
98.4367280607
 30
0.0
 11
123.5252910263
 21
98.9367280607
 31
0.0
  0
LINE
  5
196
330
1F
100
AcDbEntity
  8
0
  6
HIDDEN
 62
     7
370
     0
100
AcDbLine
 10
123.5252910263
 20
115.9367280607
 30
0.0
 11
123.0252910263
 21
116.4367280607
 31
0.0
  0
LINE
  5
197
330
1F
100
AcDbEntity
  8
0
  6
HIDDEN
 62
     7
370
     0
100
AcDbLine
 10
123.5252910263
 20
98.9367280607
 30
0.0
 11
131.8752910263
 21
98.9367280607
 31
0.0
  0
LINE
  5
198
330
1F
100
AcDbEntity
  8
0
  6
HIDDEN
 62
     7
370
     0
100
AcDbLine
 10
131.8752910263
 20
115.9367280607
 30
0.0
 11
123.5252910263
 21
115.9367280607
 31
0.0
  0
LINE
  5
199
330
1F
100
AcDbEntity
  8
0
  6
HIDDEN
 62
     7
370
     0
100
AcDbLine
 10
118.0252910263
 20
138.9367280607
 30
0.0
 11
118.0252910263
 21
133.8367280607
 31
0.0
  0
LINE
  5
19A
330
1F
100
AcDbEntity
  8
0
  6
HIDDEN
 62
     7
370
     0
100
AcDbLine
 10
161.5752910263
 20
113.4367280607
 30
0.0
 11
161.0752910263
 21
112.9367280607
 31
0.0
  0
LINE
  5
19B
330
1F
100
AcDbEntity
  8
0
  6
HIDDEN
 62
     7
370
     0
100
AcDbLine
 10
161.0752910263
 20
101.9367280607
 30
0.0
 11
161.5752910263
 21
101.4367280607
 31
0.0
  0
LINE
  5
19C
330
1F
100
AcDbEntity
  8
0
  6
HIDDEN
 62
     7
370
     0
100
AcDbLine
 10
139.2752910263
 20
101.9367280607
 30
0.0
 11
161.0752910263
 21
101.9367280607
 31
0.0
  0
LINE
  5
19D
330
1F
100
AcDbEntity
  8
0
  6
HIDDEN
 62
     7
370
     0
100
AcDbLine
 10
161.0752910263
 20
112.9367280607
 30
0.0
 11
139.2752910263
 21
112.9367280607
 31
0.0
  0
LINE
  5
19E
330
1F
100
AcDbEntity
  8
0
  6
HIDDEN
 62
     7
370
     0
100
AcDbLine
 10
139.2752910263
 20
112.9367280607
 30
0.0
 11
138.4941722216
 21
111.6367280607
 31
0.0
  0
LINE
  5
19F
330
1F
100
AcDbEntity
  8
0
  6
HIDDEN
 62
     7
370
     0
100
AcDbLine
 10
138.4941722216
 20
103.2367280607
 30
0.0
 11
139.2752910263
 21
101.9367280607
 31
0.0
  0
LINE
  5
1A0
330
1F
100
AcDbEntity
  8
0
  6
HIDDEN
 62
     7
370
     0
100
AcDbLine
 10
108.2597288568
 20
83.3573567271
 30
0.0
 11
107.8252967073
 21
83.8364227462
 31
0.0
  0
LINE
  5
1A1
330
1F
100
AcDbEntity
  8
0
  6
HIDDEN
 62
     7
370
     0
100
AcDbLine
 10
100.3252933822
 20
84.2581107054
 30
0.0
 11
99.8428596389
 21
83.7790447299
 31
0.0
  0
LINE
  5
1A2
330
1F
100
AcDbEntity
  8
0
  6
HIDDEN
 62
     7
370
     0
100
AcDbLine
 10
99.8427377107
 20
131.094406101
 30
0.0
 11
100.3252884616
 21
130.6152858431
 31
0.0
  0
LINE
  5
1A3
330
1F
100
AcDbEntity
  8
0
  6
HIDDEN
 62
     7
370
     0
100
AcDbLine
 10
107.8252909083
 20
131.0369836208
 30
0.0
 11
108.2598332987
 21
131.5161038713
 31
0.0
  0
LINE
  5
1A4
330
1F
100
AcDbEntity
  8
0
  6
HIDDEN
 62
     7
370
     0
100
AcDbLine
 10
134.8752910263
 20
103.2367280607
 30
0.0
 11
138.4941722216
 21
103.2367280607
 31
0.0
  0
LINE
  5
1A5
330
1F
100
AcDbEntity
  8
0
  6
HIDDEN
 62
     7
370
     0
100
AcDbLine
 10
138.4941722216
 20
111.6367280607
 30
0.0
 11
134.8752910263
 21
111.6367280607
 31
0.0
  0
LINE
  5
1A6
330
1F
100
AcDbEntity
  8
0
  6
HIDDEN
 62
     7
370
     0
100
AcDbLine
 10
107.8252910263
 20
83.8369066479
 30
0.0
 11
107.8252910263
 21
87.49889187
 31
0.0
  0
LINE
  5
1A7
330
1F
100
AcDbEntity
  8
0
  6
HIDDEN
 62
     7
370
     0
100
AcDbLine
 10
100.3252910263
 20
87.4373123219
 30
0.0
 11
100.3252910263
 21
84.2584339432
 31
0.0
  0
LINE
  5
1A8
330
1F
100
AcDbEntity
  8
0
  6
HIDDEN
 62
     7
370
     0
100
AcDbLine
 10
107.8252910263
 20
127.3745642513
 30
0.0
 11
107.8252910263
 21
131.0366923147
 31
0.0
  0
LINE
  5
1A9
330
1F
100
AcDbEntity
  8
0
  6
HIDDEN
 62
     7
370
     0
100
AcDbLine
 10
100.3252910263
 20
130.6151420639
 30
0.0
 11
100.3252910263
 21
127.4348658151
 31
0.0
  0
LINE
  5
1AA
330
1F
100
AcDbEntity
  8
0
  6
HIDDEN
 62
     7
370
     0
100
AcDbLine
 10
146.5252910263
 20
127.9367280607
 30
0.0
 11
147.5252910263
 21
127.3593777915
 31
0.0
  0
LINE
  5
1AB
330
1F
100
AcDbEntity
  8
0
  6
HIDDEN
 62
     7
370
     0
100
AcDbLine
 10
152.5252910263
 20
127.3593777915
 30
0.0
 11
153.5252910263
 21
127.9367280607
 31
0.0
  0
LINE
  5
1AC
330
1F
100
AcDbEntity
  8
0
  6
HIDDEN
 62
     7
370
     0
100
AcDbLine
 10
153.5252910263
 20
86.9367280607
 30
0.0
 11
152.5252910263
 21
87.5140783299
 31
0.0
  0
LINE
  5
1AD
330
1F
100
AcDbEntity
  8
0
  6
HIDDEN
 62
     7
370
     0
100
AcDbLine
 10
147.5252910263
 20
87.5140783299
 30
0.0
 11
146.5252910263
 21
86.9367280607
 31
0.0
  0
LINE
  5
1AE
330
1F
100
AcDbEntity
  8
0
  6
HIDDEN
 62
     7
370
     0
100
AcDbLine
 10
147.5252910263
 20
127.3593777915
 30
0.0
 11
147.5252910263
 21
115.9367280607
 31
0.0
  0
LINE
  5
1AF
330
1F
100
AcDbEntity
  8
0
  6
HIDDEN
 62
     7
370
     0
100
AcDbLine
 10
152.5252910263
 20
115.9367280607
 30
0.0
 11
152.5252910263
 21
127.3593777915
 31
0.0
  0
LINE
  5
1B0
330
1F
100
AcDbEntity
  8
0
  6
HIDDEN
 62
     7
370
     0
100
AcDbLine
 10
147.5252910263
 20
115.9367280607
 30
0.0
 11
150.0252910263
 21
114.4345765131
 31
0.0
  0
LINE
  5
1B1
330
1F
100
AcDbEntity
  8
0
  6
HIDDEN
 62
     7
370
     0
100
AcDbLine
 10
150.0252910263
 20
114.4345765131
 30
0.0
 11
152.5252910263
 21
115.9367280607
 31
0.0
  0
LINE
  5
1B2
330
1F
100
AcDbEntity
  8
0
  6
HIDDEN
 62
     7
370
     0
100
AcDbLine
 10
152.5252910263
 20
87.5140783299
 30
0.0
 11
152.5252910263
 21
98.9367280607
 31
0.0
  0
LINE
  5
1B3
330
1F
100
AcDbEntity
  8
0
  6
HIDDEN
 62
     7
370
     0
100
AcDbLine
 10
147.5252910263
 20
98.9367280607
 30
0.0
 11
147.5252910263
 21
87.5140783299
 31
0.0
  0
LINE
  5
1B4
330
1F
100
AcDbEntity
  8
0
  6
HIDDEN
 62
     7
370
     0
100
AcDbLine
 10
152.5252910263
 20
98.9367280607
 30
0.0
 11
150.0252910263
 21
100.4388796082
 31
0.0
  0
LINE
  5
1B5
330
1F
100
AcDbEntity
  8
0
  6
HIDDEN
 62
     7
370
     0
100
AcDbLine
 10
150.0252910263
 20
100.4388796082
 30
0.0
 11
147.5252910263
 21
98.9367280607
 31
0.0
  0
LINE
  5
1B6
330
1F
100
AcDbEntity
  8
0
  6
HIDDEN
 62
     7
370
     0
100
AcDbLine
 10
162.0752910263
 20
121.1904716321
 30
0.0
 11
162.0752910263
 21
117.7366790687
 31
0.0
  0
LINE
  5
1B7
330
1F
100
AcDbEntity
  8
0
  6
HIDDEN
 62
     7
370
     0
100
AcDbLine
 10
162.0752910263
 20
124.3367280607
 30
0.0
 11
162.0752910263
 21
123.5542002585
 31
0.0
  0
LINE
  5
1B8
330
1F
100
AcDbEntity
  8
0
  6
HIDDEN
 62
     7
370
     0
100
AcDbLine
 10
165.0752910263
 20
123.5719408813
 30
0.0
 11
165.0752910263
 21
124.3367280607
 31
0.0
  0
LINE
  5
1B9
330
1F
100
AcDbEntity
  8
0
  6
HIDDEN
 62
     7
370
     0
100
AcDbLine
 10
165.0752910263
 20
117.7363364164
 30
0.0
 11
165.0752910263
 21
121.0716887488
 31
0.0
  0
LINE
  5
1BA
330
1F
100
AcDbEntity
  8
0
  6
HIDDEN
 62
     7
370
     0
100
AcDbLine
 10
162.0752910263
 20
91.3192558629
 30
0.0
 11
162.0752910263
 21
90.9367280607
 31
0.0
  0
LINE
  5
1BB
330
1F
100
AcDbEntity
  8
0
  6
HIDDEN
 62
     7
370
     0
100
AcDbLine
 10
162.0752910263
 20
97.1372134037
 30
0.0
 11
162.0752910263
 21
93.6829844892
 31
0.0
  0
LINE
  5
1BC
330
1F
100
AcDbEntity
  8
0
  6
HIDDEN
 62
     7
370
     0
100
AcDbLine
 10
165.0752910263
 20
93.8017673726
 30
0.0
 11
165.0752910263
 21
97.1367280607
 31
0.0
  0
LINE
  5
1BD
330
1F
100
AcDbEntity
  8
0
  6
HIDDEN
 62
     7
370
     0
100
AcDbLine
 10
165.0752910263
 20
90.9367280607
 30
0.0
 11
165.0752910263
 21
91.3015152401
 31
0.0
  0
LINE
  5
1BE
330
1F
100
AcDbEntity
  8
0
  6
HIDDEN
 62
     7
370
     0
100
AcDbLine
 10
162.0752910263
 20
90.9367280607
 30
0.0
 11
163.5752910263
 21
90.0354371321
 31
0.0
  0
LINE
  5
1BF
330
1F
100
AcDbEntity
  8
0
  6
HIDDEN
 62
     7
370
     0
100
AcDbLine
 10
163.5752910263
 20
90.0354371321
 30
0.0
 11
165.0752910263
 21
90.9367280607
 31
0.0
  0
LINE
  5
1C0
330
1F
100
AcDbEntity
  8
0
  6
HIDDEN
 62
     7
370
     0
100
AcDbLine
 10
165.073917541
 20
91.2997845117
 30
0.0
 11
213.0752910263
 21
93.1857636124
 31
0.0
  0
LINE
  5
1C1
330
1F
100
AcDbEntity
  8
0
  6
HIDDEN
 62
     7
370
     0
100
AcDbLine
 10
213.0752910263
 20
95.6876925089
 30
0.0
 11
165.0752910263
 21
93.8017673726
 31
0.0
  0
LINE
  5
1C2
330
1F
100
AcDbEntity
  8
0
  6
HIDDEN
 62
     7
370
     0
100
AcDbLine
 10
165.0752910263
 20
121.0716887488
 30
0.0
 11
213.0752910263
 21
119.1857636124
 31
0.0
  0
LINE
  5
1C3
330
1F
100
AcDbEntity
  8
0
  6
HIDDEN
 62
     7
370
     0
100
AcDbLine
 10
213.0752910263
 20
121.6876925089
 30
0.0
 11
165.073917541
 21
123.5736716097
 31
0.0
  0
LINE
  5
1C4
330
1F
100
AcDbEntity
  8
0
  6
HIDDEN
 62
     7
370
     0
100
AcDbLine
 10
162.0655354084
 20
93.6835137523
 30
0.0
 11
161.3641134565
 21
92.4049903605
 31
0.0
  0
LINE
  5
1C5
330
1F
100
AcDbEntity
  8
0
  6
HIDDEN
 62
     7
370
     0
100
AcDbLine
 10
161.3641134565
 20
92.4049903605
 30
0.0
 11
162.0768977289
 21
91.3178136691
 31
0.0
  0
LINE
  5
1C6
330
1F
100
AcDbEntity
  8
0
  6
HIDDEN
 62
     7
370
     0
100
AcDbLine
 10
162.0768977289
 20
123.5556424522
 30
0.0
 11
161.3641134565
 21
122.4684657609
 31
0.0
  0
LINE
  5
1C7
330
1F
100
AcDbEntity
  8
0
  6
HIDDEN
 62
     7
370
     0
100
AcDbLine
 10
161.3641134565
 20
122.4684657609
 30
0.0
 11
162.0655354084
 21
121.1899423691
 31
0.0
  0
LINE
  5
1C8
330
1F
100
AcDbEntity
  8
0
  6
HIDDEN
 62
     7
370
     0
100
AcDbLine
 10
212.8840242691
 20
95.9303705072
 30
0.0
 11
207.5500864652
 21
95.7207995201
 31
0.0
  0
LINE
  5
1C9
330
1F
100
AcDbEntity
  8
0
  6
HIDDEN
 62
     7
370
     0
100
AcDbLine
 10
207.6678659125
 20
92.7231124114
 30
0.0
 11
213.0018037164
 21
92.9326833985
 31
0.0
  0
LINE
  5
1CA
330
1F
100
AcDbEntity
  8
0
  6
HIDDEN
 62
     7
370
     0
100
AcDbLine
 10
213.0018037164
 20
92.9326833985
 30
0.0
 11
213.0752910263
 21
93.0723598003
 31
0.0
  0
LINE
  5
1CB
330
1F
100
AcDbEntity
  8
0
  6
HIDDEN
 62
     7
370
     0
100
AcDbLine
 10
213.0568585428
 20
95.6564447621
 30
0.0
 11
212.8840242691
 21
95.9303705072
 31
0.0
  0
LINE
  5
1CC
330
1F
100
AcDbEntity
  8
0
  6
HIDDEN
 62
     7
370
     0
100
AcDbLine
 10
207.5500864652
 20
95.7207995201
 30
0.0
 11
207.070101855
 21
95.2015550941
 31
0.0
  0
LINE
  5
1CD
330
1F
100
AcDbEntity
  8
0
  6
HIDDEN
 62
     7
370
     0
100
AcDbLine
 10
207.1486214865
 20
93.2030970216
 30
0.0
 11
207.6678659125
 21
92.7231124114
 31
0.0
  0
LINE
  5
1CE
330
1F
100
AcDbEntity
  8
0
  6
HIDDEN
 62
     7
370
     0
100
AcDbLine
 10
212.9429139927
 20
121.9430865064
 30
0.0
 11
207.6089761888
 21
122.1526574935
 31
0.0
  0
LINE
  5
1CF
330
1F
100
AcDbEntity
  8
0
  6
HIDDEN
 62
     7
370
     0
100
AcDbLine
 10
207.4911967416
 20
119.1549703848
 30
0.0
 11
212.8251345454
 21
118.9453993977
 31
0.0
  0
LINE
  5
1D0
330
1F
100
AcDbEntity
  8
0
  6
HIDDEN
 62
     7
370
     0
100
AcDbLine
 10
207.6089761888
 20
122.1526574935
 30
0.0
 11
207.0897317628
 21
121.6726728832
 31
0.0
  0
LINE
  5
1D1
330
1F
100
AcDbEntity
  8
0
  6
HIDDEN
 62
     7
370
     0
100
AcDbLine
 10
207.0112121313
 20
119.6742148108
 30
0.0
 11
207.4911967416
 21
119.1549703848
 31
0.0
  0
LINE
  5
1D2
330
1F
100
AcDbEntity
  8
0
  6
HIDDEN
 62
     7
370
     0
100
AcDbLine
 10
212.8251345454
 20
118.9453993977
 30
0.0
 11
212.9979688192
 21
119.2193251427
 31
0.0
  0
LINE
  5
1D3
330
1F
100
AcDbEntity
  8
0
  6
HIDDEN
 62
     7
370
     0
100
AcDbLine
 10
213.0752910263
 20
121.6914791507
 30
0.0
 11
212.9429139927
 21
121.9430865064
 31
0.0
  0
LINE
  5
1D4
330
1F
100
AcDbEntity
  8
0
  6
HIDDEN
 62
     7
370
     0
100
AcDbLine
 10
160.5752910263
 20
101.4367280607
 30
0.0
 11
161.0752910263
 21
101.9367280607
 31
0.0
  0
LINE
  5
1D5
330
1F
100
AcDbEntity
  8
0
  6
HIDDEN
 62
     7
370
     0
100
AcDbLine
 10
161.0752910263
 20
112.9367280607
 30
0.0
 11
160.5752910263
 21
113.4367280607
 31
0.0
  0
LINE
  5
1D6
330
1F
100
AcDbEntity
  8
0
  6
HIDDEN
 62
     7
370
     0
100
AcDbLine
 10
145.5752910263
 20
101.4367280607
 30
0.0
 11
160.5752910263
 21
101.4367280607
 31
0.0
  0
LINE
  5
1D7
330
1F
100
AcDbEntity
  8
0
  6
HIDDEN
 62
     7
370
     0
100
AcDbLine
 10
160.5752910263
 20
113.4367280607
 30
0.0
 11
145.5752910263
 21
113.4367280607
 31
0.0
  0
LINE
  5
1D8
330
1F
100
AcDbEntity
  8
0
  6
HIDDEN
 62
     7
370
     0
100
AcDbLine
 10
145.5752910263
 20
113.4367280607
 30
0.0
 11
145.0752910263
 21
112.9367280607
 31
0.0
  0
LINE
  5
1D9
330
1F
100
AcDbEntity
  8
0
  6
HIDDEN
 62
     7
370
     0
100
AcDbLine
 10
145.0752910263
 20
101.9367280607
 30
0.0
 11
145.5752910263
 21
101.4367280607
 31
0.0
  0
LINE
  5
1DA
330
1F
100
AcDbEntity
  8
0
  6
HIDDEN
 62
     7
370
     0
100
AcDbLine
 10
161.0752910263
 20
101.9367280607
 30
0.0
 11
165.0752910263
 21
101.9367280607
 31
0.0
  0
LINE
  5
1DB
330
1F
100
AcDbEntity
  8
0
  6
HIDDEN
 62
     7
370
     0
100
AcDbLine
 10
165.0752910263
 20
112.9367280607
 30
0.0
 11
161.0752910263
 21
112.9367280607
 31
0.0
  0
LINE
  5
1DC
330
1F
100
AcDbEntity
  8
0
  6
HIDDEN
 62
     7
370
     0
100
AcDbLine
 10
152.0752910263
 20
104.4367280607
 30
0.0
 11
158.0752910263
 21
104.4367280607
 31
0.0
  0
LINE
  5
1DD
330
1F
100
AcDbEntity
  8
0
  6
HIDDEN
 62
     7
370
     0
100
AcDbLine
 10
158.0752910263
 20
110.4367280607
 30
0.0
 11
152.0752910263
 21
110.4367280607
 31
0.0
  0
DIMENSION
  5
1DE
330
1F
100
AcDbEntity
  8
VERMASSUNG
100
AcDbDimension
  2
*D1
 10
74.7019501625
 20
75.9367280607
 30
0.0
 11
74.7019501625
 21
107.4367280607
 31
0.0
 70
   160
  1
HSK A %%c<>
 71
     2
 42
-1.0
  3
SLDDIMSTYLE0
100
AcDbAlignedDimension
 13
113.3752910263
 23
138.9367280607
 33
0.0
 14
113.3752910263
 24
75.9367280607
 34
0.0
 50
90.0
100
AcDbRotatedDimension
  0
DIMENSION
  5
1EB
330
1F
100
AcDbEntity
  8
VERMASSUNG
100
AcDbDimension
  2
*D2
 10
213.0752910263
 20
142.9367280607
 30
0.0
 11
187.3252910263
 21
142.9367280607
 31
0.0
 70
   160
 71
     2
 42
-1.0
  3
SLDDIMSTYLE1
100
AcDbAlignedDimension
 13
161.5752910263
 23
117.3367280607
 33
0.0
 14
213.0752910263
 24
122.0879470774
 34
0.0
100
AcDbRotatedDimension
  0
DIMENSION
  5
1F6
330
1F
100
AcDbEntity
  8
VERMASSUNG
100
AcDbDimension
  2
*D3
 10
219.9773564464
 20
117.4367280607
 30
0.0
 11
219.9773564464
 21
107.4367280607
 31
0.0
 70
   160
  1
%%c<>
 71
     2
 42
-1.0
  3
SLDDIMSTYLE2
100
AcDbAlignedDimension
 13
209.5752910263
 23
97.4367280607
 33
0.0
 14
209.5752910263
 24
117.4367280607
 34
0.0
 50
90.0
100
AcDbRotatedDimension
  0
DIMENSION
  5
202
330
1F
100
AcDbEntity
  8
VERMASSUNG
100
AcDbDimension
  2
*D4
 10
225.9773564464
 20
123.9367280607
 30
0.0
 11
225.9773564464
 21
107.4367280607
 31
0.0
 70
   160
  1
%%c<>
 71
     2
 42
-1.0
  3
SLDDIMSTYLE3
100
AcDbAlignedDimension
 13
213.0752910263
 23
90.9367280607
 33
0.0
 14
213.0752910263
 24
123.9367280607
 34
0.0
 50
90.0
100
AcDbRotatedDimension
  0
DIMENSION
  5
20E
330
1F
100
AcDbEntity
  8
VERMASSUNG
100
AcDbDimension
  2
*D5
 10
231.9773564464
 20
127.9367280607
 30
0.0
 11
231.9773564464
 21
107.4367280607
 31
0.0
 70
   160
  1
%%c<>
 71
     2
 42
-1.0
  3
SLDDIMSTYLE3
100
AcDbAlignedDimension
 13
157.0752910263
 23
86.9367280607
 33
0.0
 14
157.0752910263
 24
127.9367280607
 34
0.0
 50
90.0
100
AcDbRotatedDimension
  0
DIMENSION
  5
219
330
1F
100
AcDbEntity
  8
VERMASSUNG
100
AcDbDimension
  2
*D6
 10
213.0752910263
 20
154.9367280607
 30
0.0
 11
163.0752910263
 21
154.9367280607
 31
0.0
 70
   160
 71
     2
 42
-1.0
  3
SLDDIMSTYLE0
100
AcDbAlignedDimension
 13
113.0752910263
 23
138.6367280607
 33
0.0
 14
213.0752910263
 24
122.0879470774
 34
0.0
100
AcDbRotatedDimension
  0
DIMENSION
  5
223
330
1F
100
AcDbEntity
  8
VERMASSUNG
100
AcDbDimension
  2
*D7
 10
213.0752910263
 20
148.9367280607
 30
0.0
 11
176.0502910263
 21
148.9367280607
 31
0.0
 70
   160
 71
     2
 42
-1.0
  3
SLDDIMSTYLE0
100
AcDbAlignedDimension
 13
139.0252910263
 23
137.2831683844
 33
0.0
 14
213.0752910263
 24
122.0879470774
 34
0.0
100
AcDbRotatedDimension
  0
DIMENSION
  5
22D
330
1F
100
AcDbEntity
  8
VERMASSUNG
100
AcDbDimension
  2
*D8
 10
213.0752910263
 20
160.9367280607
 30
0.0
 11
147.1252910263
 21
160.9367280607
 31
0.0
 70
   160
 71
     2
 42
-1.0
  3
SLDDIMSTYLE0
100
AcDbAlignedDimension
 13
81.1752910263
 23
127.1274058071
 33
0.0
 14
213.0752910263
 24
122.0879470774
 34
0.0
100
AcDbRotatedDimension
  0
LINE
  5
237
330
1F
100
AcDbEntity
  8
VERMASSUNG
  6
CENTERX2
370
     0
100
AcDbLine
 10
77.0226435536
 20
107.4367280607
 30
0.0
 11
215.0752910263
 21
107.4367280607
 31
0.0
  0
OLE2FRAME
  5
238
330
1F
100
AcDbEntity
  8
0
100
AcDbOle2Frame
 70
     2
  3
Bitmap Image
 10
13.8511154363
 20
38.264191557
 30
0.0
 11
51.6290888628
 21
31.9806341108
 31
0.0
 71
     2
 72
     0
 73
     1
 90
    12928
310
80552BED0767C5B32B40DDAF6807D121434000000000000000006FFBDDFB85D0
310
4940DDAF6807D121434000000000000000006FFBDDFB85D04940416F4BD60AFB
310
3F4000000000000000002BED0767C5B32B40416F4BD60AFB3F40000000000000
310
0000000000000100000000010000010000000100000000000100000000320000
310
D0CF11E0A1B11AE1000000000000000000000000000000003E000300FEFF0900
310
0600000000000000000000000100000001000000000000000010000002000000
310
01000000FEFFFFFF0000000000000000FFFFFFFFFFFFFFFFFFFFFFFFFFFFFFFF
310
FFFFFFFFFFFFFFFFFFFFFFFFFFFFFFFFFFFFFFFFFFFFFFFFFFFFFFFFFFFFFFFF
310
FFFFFFFFFFFFFFFFFFFFFFFFFFFFFFFFFFFFFFFFFFFFFFFFFFFFFFFFFFFFFFFF
310
FFFFFFFFFFFFFFFFFFFFFFFFFFFFFFFFFFFFFFFFFFFFFFFFFFFFFFFFFFFFFFFF
310
FFFFFFFFFFFFFFFFFFFFFFFFFFFFFFFFFFFFFFFFFFFFFFFFFFFFFFFFFFFFFFFF
310
FFFFFFFFFFFFFFFFFFFFFFFFFFFFFFFFFFFFFFFFFFFFFFFFFFFFFFFFFFFFFFFF
310
FFFFFFFFFFFFFFFFFFFFFFFFFFFFFFFFFFFFFFFFFFFFFFFFFFFFFFFFFFFFFFFF
310
FFFFFFFFFFFFFFFFFFFFFFFFFFFFFFFFFFFFFFFFFFFFFFFFFFFFFFFFFFFFFFFF
310
FFFFFFFFFFFFFFFFFFFFFFFFFFFFFFFFFFFFFFFFFFFFFFFFFFFFFFFFFFFFFFFF
310
FFFFFFFFFFFFFFFFFFFFFFFFFFFFFFFFFFFFFFFFFFFFFFFFFFFFFFFFFFFFFFFF
310
FFFFFFFFFFFFFFFFFFFFFFFFFFFFFFFFFFFFFFFFFFFFFFFFFFFFFFFFFFFFFFFF
310
FFFFFFFFFFFFFFFFFFFFFFFFFFFFFFFFFFFFFFFFFFFFFFFFFFFFFFFFFFFFFFFF
310
FFFFFFFFFFFFFFFFFFFFFFFFFFFFFFFFFFFFFFFFFFFFFFFFFFFFFFFFFFFFFFFF
310
FFFFFFFFFFFFFFFFFFFFFFFFFFFFFFFFFFFFFFFFFFFFFFFFFFFFFFFFFFFFFFFF
310
FDFFFFFFFEFFFFFFFEFFFFFFFEFFFFFF05000000060000000700000008000000
310
090000000A0000000B0000000C0000000D0000000E0000000F00000010000000
310
11000000120000001300000014000000150000001600000017000000FEFFFFFF
310
FFFFFFFFFFFFFFFFFFFFFFFFFFFFFFFFFFFFFFFFFFFFFFFFFFFFFFFFFFFFFFFF
310
FFFFFFFFFFFFFFFFFFFFFFFFFFFFFFFFFFFFFFFFFFFFFFFFFFFFFFFFFFFFFFFF
310
FFFFFFFFFFFFFFFFFFFFFFFFFFFFFFFFFFFFFFFFFFFFFFFFFFFFFFFFFFFFFFFF
310
FFFFFFFFFFFFFFFFFFFFFFFFFFFFFFFFFFFFFFFFFFFFFFFFFFFFFFFFFFFFFFFF
310
FFFFFFFFFFFFFFFFFFFFFFFFFFFFFFFFFFFFFFFFFFFFFFFFFFFFFFFFFFFFFFFF
310
FFFFFFFFFFFFFFFFFFFFFFFFFFFFFFFFFFFFFFFFFFFFFFFFFFFFFFFFFFFFFFFF
310
FFFFFFFFFFFFFFFFFFFFFFFFFFFFFFFFFFFFFFFFFFFFFFFFFFFFFFFFFFFFFFFF
310
FFFFFFFFFFFFFFFFFFFFFFFFFFFFFFFFFFFFFFFFFFFFFFFFFFFFFFFFFFFFFFFF
310
FFFFFFFFFFFFFFFFFFFFFFFFFFFFFFFFFFFFFFFFFFFFFFFFFFFFFFFFFFFFFFFF
310
FFFFFFFFFFFFFFFFFFFFFFFFFFFFFFFFFFFFFFFFFFFFFFFFFFFFFFFFFFFFFFFF
310
FFFFFFFFFFFFFFFFFFFFFFFFFFFFFFFFFFFFFFFFFFFFFFFFFFFFFFFFFFFFFFFF
310
FFFFFFFFFFFFFFFFFFFFFFFFFFFFFFFFFFFFFFFFFFFFFFFFFFFFFFFFFFFFFFFF
310
FFFFFFFFFFFFFFFFFFFFFFFFFFFFFFFFFFFFFFFFFFFFFFFFFFFFFFFFFFFFFFFF
310
52006F006F007400200045006E00740072007900000000000000000000000000
310
0000000000000000000000000000000000000000000000000000000000000000
310
16000500FFFFFFFFFFFFFFFF020000000A00030000000000C000000000000046
310
00000000000000000000000010DE41D07205CC0103000000C000000000000000
310
01004F006C006500000000000000000000000000000000000000000000000000
310
0000000000000000000000000000000000000000000000000000000000000000
310
0A000200FFFFFFFFFFFFFFFFFFFFFFFF00000000000000000000000000000000
310
0000000000000000000000000000000000000000000000001400000000000000
310
010043006F006D0070004F0062006A0000000000000000000000000000000000
310
0000000000000000000000000000000000000000000000000000000000000000
310
120002010100000003000000FFFFFFFF00000000000000000000000000000000
310
0000000000000000000000000000000000000000010000004D00000000000000
310
01004F006C006500310030004E00610074006900760065000000000000000000
310
0000000000000000000000000000000000000000000000000000000000000000
310
1A000200FFFFFFFFFFFFFFFFFFFFFFFF00000000000000000000000000000000
310
0000000000000000000000000000000000000000040000002426000000000000
310
FEFFFFFF02000000FEFFFFFFFFFFFFFFFFFFFFFFFFFFFFFFFFFFFFFFFFFFFFFF
310
FFFFFFFFFFFFFFFFFFFFFFFFFFFFFFFFFFFFFFFFFFFFFFFFFFFFFFFFFFFFFFFF
310
FFFFFFFFFFFFFFFFFFFFFFFFFFFFFFFFFFFFFFFFFFFFFFFFFFFFFFFFFFFFFFFF
310
FFFFFFFFFFFFFFFFFFFFFFFFFFFFFFFFFFFFFFFFFFFFFFFFFFFFFFFFFFFFFFFF
310
FFFFFFFFFFFFFFFFFFFFFFFFFFFFFFFFFFFFFFFFFFFFFFFFFFFFFFFFFFFFFFFF
310
FFFFFFFFFFFFFFFFFFFFFFFFFFFFFFFFFFFFFFFFFFFFFFFFFFFFFFFFFFFFFFFF
310
FFFFFFFFFFFFFFFFFFFFFFFFFFFFFFFFFFFFFFFFFFFFFFFFFFFFFFFFFFFFFFFF
310
FFFFFFFFFFFFFFFFFFFFFFFFFFFFFFFFFFFFFFFFFFFFFFFFFFFFFFFFFFFFFFFF
310
FFFFFFFFFFFFFFFFFFFFFFFFFFFFFFFFFFFFFFFFFFFFFFFFFFFFFFFFFFFFFFFF
310
FFFFFFFFFFFFFFFFFFFFFFFFFFFFFFFFFFFFFFFFFFFFFFFFFFFFFFFFFFFFFFFF
310
FFFFFFFFFFFFFFFFFFFFFFFFFFFFFFFFFFFFFFFFFFFFFFFFFFFFFFFFFFFFFFFF
310
FFFFFFFFFFFFFFFFFFFFFFFFFFFFFFFFFFFFFFFFFFFFFFFFFFFFFFFFFFFFFFFF
310
FFFFFFFFFFFFFFFFFFFFFFFFFFFFFFFFFFFFFFFFFFFFFFFFFFFFFFFFFFFFFFFF
310
FFFFFFFFFFFFFFFFFFFFFFFFFFFFFFFFFFFFFFFFFFFFFFFFFFFFFFFFFFFFFFFF
310
FFFFFFFFFFFFFFFFFFFFFFFFFFFFFFFFFFFFFFFFFFFFFFFFFFFFFFFFFFFFFFFF
310
FFFFFFFFFFFFFFFFFFFFFFFFFFFFFFFFFFFFFFFFFFFFFFFFFFFFFFFFFFFFFFFF
310
0100000200000000000000000000000000000000000000005A05820000000004
310
A010385E00000000C80225000000000000000000000000000000000000000000
310
0100FEFF030A0000FFFFFFFF0A00030000000000C00000000000004607000000
310
5042727573680007000000504272757368000700000050427275736800F439B2
310
7100000000000000000000000000000000000000000000000000000000000000
310
0000000000000000000000000000000000000000000000000000000000000000
310
0000000000000000000000000000000000000000000000000000000000000000
310
0000000000000000000000000000000000000000000000000000000000000000
310
0000000000000000000000000000000000000000000000000000000000000000
310
0000000000000000000000000000000000000000000000000000000000000000
310
0000000000000000000000000000000000000000000000000000000000000000
310
0000000000000000000000000000000000000000000000000000000000000000
310
0000000000000000000000000000000000000000000000000000000000000000
310
0000000000000000000000000000000000000000000000000000000000000000
310
0000000000000000000000000000000000000000000000000000000000000000
310
0000000000000000000000000000000000000000000000000000000000000000
310
20260000424D0E260000000000003E00000028000000B40200006E0000000100
310
01000000000000000000130B0000130B00000200000002000000000000FFFFFF
310
FFFFFFFFFFFFFFFFFFFFFFFFFFFFFFFFFFFFFFFFFFFFFFFFFFFFFFFFFFFFFFFF
310
FFFFFFFFFFFFFFFFFFFFFFFFFFFFFFFFFFFFFFFFFFFFFFFFFFFFFFFFFFFFFFFF
310
FFFFFFFFFFFFFFFFFFFFFFFFFFFFFFFFFFFFFFFFFFFFFFFFF000FFFFFFFFFFFF
310
FFFFFFFFFFFFFFFFFFFFFFFFFFFFFFFFFFFFFFFFFFFFFFFFFFFFFFFFFFFFFFFF
310
FFFFFFFFFFFFFFFFFFFFFFFFFFFFFFFFFFFFFFFFFFFFFFFFFFFFFFFFFFFFFFFF
310
FFFFFFFFFFFFFFFFFFFFFFFFFFFFFFFFF000FFFFFFFFFFFFFFFFFFFFFFFFFFFF
310
FFFFFFFFFFFFFFFFFFFFFFFFFFFFFFFFFFFFFFFFFFFFFFFFFFFFFFFFFFFFFFFF
310
FFFFFFFFFFFFFFFFFFFFFFFFFFFFFFFFFFFFFFFFFFFFFFFFFFFFFFFFFFFFFFFF
310
FFFFFFFFFFFFFFFFF000FFFFFFFFFFFFFFFFFFFFFFFFFFFFFFFFFFFFFFFFFFFF
310
FFFFFFFFFFFFFFFFFFFFFFFFFFFFFFFFFFFFFFFFFFFFFFFFFFFFFFFFFFFFFFFF
310
FFFFFFFFFFFFFFFFFFFFFFFFFFFFFFFFFFFFFFFFFFFFFFFFFFFFFFFFFFFFFFFF
310
F000FFFFFFFFFFFFFFFFFFFFFFFFFFFFFFFFFFFFFFFFFFFFFFFFFFFFFFFFFFFF
310
FFFFFFFFFFFFFFFFFFFFFFFFFFFFFFFFFFFFFFFFFFFFFFFFFFFFFFFFFFFFFFFF
310
FFFFFFFFFFFFFFFFFFFFFFFFFFFFFFFFFFFFFFFFFFFFFFFFF000FFFFFFFFFFFF
310
FFFFFFFFFFFFFFFFFFFFFFFFFFFFFFFFFFFFFFFFFFFFFFFFFFFFFFFFFFFFFFFF
310
FFFFFFFFFFFFFFFFFFFFFFFFFFFFFFFFFFFFFFFFFFFFFFFFFFFFFFFFFFFFFFFF
310
FFFFFFFFFFFFFFFFFFFFFFFFFFFFFFFFF000FFFFFFFFFFFFFFFFFFFFFFFFFFFF
310
FFFFFFFFFFFFFFFFFFFFFFFFFFFFFFFFFFFFFFFFFFFFFFFFFFFFFFFFFFFFFFFF
310
FFFFFFFFFFFFFFFFFFFFFFFFFFFFFFFFFFFFFFFFFFFFFFFFFFFFFFFFFFFFFFFF
310
FFFFFFFFFFFFFFFFF000FFFFFFFFFFFFFFFFFFFFFFFFFFFFFFFFFFFFFFFFFFFF
310
FFFFFFFFFFFFFFFFFFFFFFFFFFFFFFFFFFFFFFFFFFFFFFFFFFFFFFFFFFFFFFFF
310
FFFFFFFFFFFFFFFFFFFFFFFFFFFFFFFFFFFFFFFFFFFFFFFFFFFFFFFFFFFFFFFF
310
F000FFFFFFFFFFFFFFFFFFFFFFFFFFFFFFFFFFFFFFFFFFFFFFFFFFFFFFFFFFFF
310
FFFFFFFFFFFFFFFFFFFFFFFFFFFFFFFFFFFFFFFFFFFFFFFFFFFFFFFFFFFFFFFF
310
FFFFFFFFFFFFFFFFFFFFFFFFFFFFFFFFFFFFFFFFFFFFFFFFF000FFFFFFFFFFFF
310
FFFFFFFFFFFFFFFFFFFFFFFFFFFFFFFFFFFFFFFFFFFFFFFFFFFFFFFFFFFFFFFF
310
FFFFFFFFFFFFFFFFFFFFFFFFFFFFFFFFFFFFFFFFFFFFFFFFFFFFFFFFFFFFFFFF
310
FFFFFFFFFFFFFFFFFFFFFFFFFFFFFFFFF000FFFFFFFFFFFFFFFFFFFFFFFFFFFF
310
FFFFFFFFFFFFFFFFFFFFFFFFFFFFFFFFFFFFFFFFFFFFFFFFFFFFFFFFFFFFFFFF
310
FFFFFFFFFFFFFFFFFFFFFFFFFFFFFFFFFFFFFFFFFFFFFFFFFFFFFFFFFFFFFFFF
310
FFFFFFFFFFFFFFFFF000FFFFFFFFFFFFFFFFFFFFFFFFFFFFFFFFFFFFFFFFFFFF
310
FFFFFFFFFFFFFFFFFFFFFFFFFFFFFFFFFFFFFFFFFFFFFFFFFFFFFFFFFFFFFFFF
310
FFFFFFFFFFFFFFFFFFFFFFFFFFFFFFFFFFFFFFFFFFFFFFFFFFFFFFFFFFFFFFFF
310
F000FFFFFFFFFFFFFFFFFFFFFFFFFFFFFFFFFFFFFFFFFFFFFFFFFFFFFFFFFFFF
310
FFFFFFFFFFFFFFFFFFFFFFFFFFFFFFFFFFFFFFFFFFFFFFFFFFFFFFFFFFFFFFFF
310
FFFFFFFFFFFFFFFFFFFFFFFFFFFFFFFFFFFFFFFFFFFFFFFFF000FFFFFFFFFFFF
310
FFFFFFFFFFFFFFFFFFFFFFFFFFFFFFFFFFFFFFFFFFFFFFFFFFFFFFFFFFFFFFFF
310
FFFFFFFFFFFFFFFFFFFFFFFFFFFFFFFFFFFFFFFFFFFFFFFFFFFFFFFFFFFFFFFF
310
FFFFFFFFFFFFFFFFFFFFFFFFFFFFFFFFF000FFFFFFFFFFFFFFFFFFFFFFFFFFFF
310
FFFFFFFFFFFFFFFFFFFFFFFFFFFFFFFFFFFFFFFFFFFFFFFFFFFFFFFFFFFFFFFF
310
FFFFFFFFFFFFFFFFFFFFFFFFFFFFFFFFFFFFFFFFFFFFFFFFFFFFFFFFFFFFFFFF
310
FFFFFFFFFFFFFFFFF000FFFFFFFFFFFFFFFFFFFFFFFFFFFFFFFFFFFFFFFFFFFF
310
FFFFFFFFFFFFFFFFFFFFFFFFFFFFFFFFFFFFFFFFFFFFFFFFFFFFFFFFFFFFFFFF
310
FFFFFFFFFFFFFFFFFFFFFFFFFFFFFFFFFFFFFFFFFFFFFFFFFFFFFFFFFFFFFFFF
310
F000FFFFFFFFFFFFFFFFFFFFFFFFFFFFFFFFFFFFFFFFFFFFFFFFFFFFFFFFFFFF
310
FFFFFFFFFFFFFFFFFFFFFFFFFFFFFFFFFFFFFFFFFFFFFFFFFFFFFFFFFFFFFFFF
310
FFFFFFFFFFFFFFFFFFFFFFFFFFFFFFFFFFFFFFFFFFFFFFFFF000FFFFFFFFFFFF
310
FFFFFFFFFFFFFFFFFFFFFFFFFFFFFFFFFFFFFFFFFFFFFFFFFFFFFFFFFFFFFFFF
310
FFFFFFFFFFFFFFFFFFFFFFFFFFFFFFFFFFFFFFFFFFFFFFFFFFFFFFFFFFFFFFFF
310
FFFFFFFFFFFFFFFFFFFFFFFFFFFFFFFFF000FFFFFFFFFFFFFFFFFFFFFFFFFFFF
310
FFFFFFFFFFFFFFFFFFFFFFFFFFFFFFFFFFFFFFFFFFFFFFFFFFFFFFFFFFFFFFFF
310
FFFFFFFFFFFFFFFFFFFFFFFFFFFFFFFFFFFFFFFFFFFFFFFFFFFFFFFFFFFFFFFF
310
FFFFFFFFFFFFFFFFF000FFFFF80003FFFFFFFFFFFFFFFFFFFFFFFFFFFFFFFFFF
310
FFFFF00007FFFFFFFFFF00007FFFFFF800000000000000007FFFFFFFFFFFFFFF
310
FFFFFFFC001FFFFFFFFFFFFFFC001FFFFFFFFFFFFFFFFFFFFFFFFFFE0007FFFF
310
F000FFFF8000007FFFFFFFF8000FFFFFC0007FFFFF80007FFFFF0000007FFFFF
310
FFF8000007FFFFF800000000000000007FFFFFF0001FFFFFFFFFFFC00001FFFF
310
FFFFFFFFC00001FFFFFFFF000000000003FFFFE000007FFFF000FFFE0000000F
310
FFFFFFF0000FFFFF80007FFFFF80007FFFFC0000001FFFFFFFC0000001FFFFF8
310
00000000000000007FFFFFF0001FFFFFFFFFFE0000003FFFFFFFFFFE0000003F
310
FFFFFF000000000003FFFF0000000FFFF000FFF800000003FFFFFFF00007FFFF
310
80007FFFFF80007FFFF000000007FFFFFF000000003FFFF80000000000000000
310
7FFFFFF0001FFFFFFFFFF80000000FFFFFFFFFF80000000FFFFFFF0000000000
310
03FFFC00000003FFF000FFE000000000FFFFFFF00007FFFF80003FFFFF80007F
310
FFC000000001FFFFFC000000001FFFF800000000000000007FFFFFF0001FFFFF
310
FFFFE000000003FFFFFFFFE000000003FFFFFF000000000003FFF000000000FF
310
F000FF80000000007FFFFFF00007FFFF80003FFFFF80007FFF8000000000FFFF
310
F80000000007FFF800000000000000007FFFFFF0001FFFFFFFFFC000000001FF
310
FFFFFFC000000001FFFFFF000000000003FFC0000000007FF000FF0000000000
310
3FFFFFE00007FFFF00003FFFFF80007FFE00000000003FFFF00000000003FFF8
310
00000000000000007FFFFFF0001FFFFFFFFF8000000000FFFFFFFF8000000000
310
FFFFFF000000000003FF80000000003FF000FE00000000001FFFFFE00003FFFF
310
00003FFFFF80007FFC00000000001FFFE00000000001FFF8000001FFFE000000
310
7FFFFFF0001FFFFFFFFE00000000003FFFFFFE00000000003FFFFF0000000000
310
03FF00000000001FF000FC00000000000FFFFFE00003FFFF00001FFFFF80007F
310
F800000000001FFFC00000000000FFF8000001FFFE0000007FFFFFF0001FFFFF
310
FFFC00000000001FFFFFFC00000000001FFFFF000000000003FE00000000000F
310
F000F8000000000007FFFFE00003FFFF00001FFFFF80007FF800000000000FFF
310
800000000000FFF8000001FFFE0000007FFFFFF0001FFFFFFFF800000000000F
310
FFFFF800000000000FFFFF000000000003FC000000000007F000F80000000000
310
03FFFFC00003FFFE00001FFFFF80007FF0000000000007FF0000000000007FF8
310
000001FFFE0000007FFFFFF0001FFFFFFFF0000000000007FFFFF00000000000
310
07FFFF000000000003F8000000000003F000F0000000000003FFFFC00001FFFE
310
00001FFFFF80007FE0000000000007FE0000000000003FF8000001FFFE000000
310
7FFFFFF0001FFFFFFFF0000000000007FFFFF0000000000007FFFF0000000000
310
03F800001F800003F000E00001FFF00001FFFFC00001FFFE00000FFFFF80007F
310
E00001FFE00003FE00001FFF00003FF8000001FFFE0000007FFFFFF0001FFFFF
310
FFE000003E000003FFFFE000003E000003FFFF000000000003F00001FFF80001
310
F000E00007FFFC0001FFFFC00001FFFE00000FFFFF80007FC0000FFFFC0003FC
310
0000FFFFC0001FF8000001FFFE0000007FFFFFF0001FFFFFFFC00003FFE00001
310
FFFFC00003FFE00001FFFF0001FFFFFFFFF00007FFFE0001F000E0000FFFFF00
310
00FFFF800001FFFC00000FFFFF80007FC0001FFFFE0001FC0001FFFFE0001FF8
310
000001FFFE0000007FFFFFF0001FFFFFFF80000FFFF80000FFFF80000FFFF800
310
00FFFF0003FFFFFFFFE0000FFFFF8000F000C0003FFFFF8000FFFF800000FFFC
310
000007FFFF80007F80003FFFFF0001FC0003FFFFF0001FF8000001FFFE000000
310
7FFFFFF0001FFFFFFF80003FFFFE0000FFFF80003FFFFE0000FFFF0003FFFFFF
310
FFE0003FFFFF8000F000C0003FFFFF8000FFFF800000FFFC000007FFFF80007F
310
80007FFFFF8001F80007FFFFF8000FF8000001FFFE0000007FFFFFF0001FFFFF
310
FF00007FFFFF00007FFF00007FFFFF00007FFF0003FFFFFFFFE0003FFFFFC000
310
F000C0007FFFFFC000FFFF000000FFFC000007FFFF80007F8000FFFFFF8000F8
310
000FFFFFF8000FF8000001FFFE0000007FFFFFF0001FFFFFFF0000FFFFFF8000
310
7FFF0000FFFFFF80007FFF0003FFFFFFFFC0007FFFFFC00070008000FFFFFFC0
310
00FFFF000000FFF8000007FFFF80007F8000FFFFFF8000F8000FFFFFF8000FF8
310
000001FFFE0000007FFFFFF0001FFFFFFE0001FFFFFFC0003FFE0001FFFFFFC0
310
003FFF0003FFFFFFFFC0007FFFFFE00070008000FFFFFFC0007FFF0000007FF8
310
000003FFFF80007F0001FFFFFF8000F8000FFFFFF8000FF8000001FFFE000000
310
7FFFFFF0001FFFFFFE0001FFFFFFC0003FFE0001FFFFFFC0003FFF0003FFFFFF
310
FFC000FFFFFFE00070008000FFFFFFC0007FFF0000007FF8000003FFFF80007F
310
0001FFFFFF8000F8001FFFFFF8000FF8000001FFFE0000007FFFFFF0001FFFFF
310
FE0003FFFFFFE0003FFE0003FFFFFFE0003FFF0003FFFFFFFFC000FFFFFFE000
310
70008000FFFFFFC0007FFE0000007FF8000003FFFF80007F0001FFFFFF8000F0
310
001FFFFFF8000FF8000001FFFE0000007FFFFFF0001FFFFFFC0003FFFFFFE000
310
1FFC0003FFFFFFE0001FFF0003FFFFFFFFC000FFFFFFC00070008000FFFFFF80
310
007FFE0000007FF0000003FFFF80007F0001FFFFFF0000F0001FFFFFF8000FF8
310
000001FFFE0000007FFFFFF0001FFFFFFC0007FFFFFFF0001FFC0007FFFFFFF0
310
001FFF0003FFFFFFFFC000FFFFFFC00070008001FFFFFF0000FFFE0000003FF0
310
000001FFFF80007F0001FFFFFF0000F8001FFFFFF0000FF8000001FFFE000000
310
7FFFFFF0001FFFFFFC0007FFFFFFF0001FFC0007FFFFFFF0001FFF0003FFFFFF
310
FFC001FFFFFF80007000FFFFFFFFFE0000FFFE0008003FF0008001FFFF80007F
310
FFFFFFFFFC0000FFFFFFFFFFE0000FF8000001FFFE0000007FFFFFF0001FFFFF
310
F8000FFFFFFFF8000FF8000FFFFFFFF8000FFF0003FFFFFFFFFFFFFFFFFF0000
310
7000FFFFFFFFFC0000FFFC0008003FF0008001FFFF80007FFFFFFFFFF80001FF
310
FFFFFFFF80000FF8000001FFFE0000007FFFFFF0001FFFFFF8000FFFFFFFF800
310
0FF8000FFFFFFFF8000FFF0003FFFFFFFFFFFFFFFFFE0000F000FFFFFFFFE000
310
00FFFC000C003FE000C001FFFF80007FFFFFFFFFC00001FFFFFFFFFE00001FF8
310
000001FFFE0000007FFFFFF0001FFFFFF8000FFFFFFFF8000FF8000FFFFFFFF8
310
000FFF0003FFFFFFFFFFFFFFFFF00000F000FFFFFFFE000001FFFC000C001FE0
310
00C000FFFF80007FFFFFFFFE000001FFFFFFFFE000001FF80FFFFFFFFFFFFFC0
310
7FFFFFF0001FFFFFF8000FFFFFFFF8000FF8000FFFFFFFF8000FFF0003FFFFFF
310
FFFFFFFFFF800000F000FFFFFFC0000001FFFC001C001FE001C000FFFF80007F
310
FFFFFF80000003FFFFFFF80000001FF80FFFFFFFFFFFFFC07FFFFFF0001FFFFF
310
F8001FFFFFFFFC000FF8001FFFFFFFFC000FFF0003FFFFFFFFFFFFFFF0000001
310
F000FFFFF800000001FFF8001C001FE001C000FFFF80007FFFFFF800000003FF
310
FFFF800000003FF80FFFFFFFFFFFFFC07FFFFFF0001FFFFFF8001FFFFFFFFC00
310
0FF8001FFFFFFFFC000FFF0003FFFFFFFFFFFFFE00000001F000FFFFC0000000
310
03FFF8001E001FC001E000FFFF80007FFFFF8000000007FFFFFC000000003FF8
310
0FFFFFFFFFFFFFC07FFFFFF0001FFFFFF8001FFFFFFFFC000FF8001FFFFFFFFC
310
000FFF0003FFFFFFFFFFFFE000000003F000FFFE0000000007FFF8001E000FC0
310
01E0007FFF80007FFFFE0000000007FFFFE0000000007FF80FFFFFFFFFFFFFC0
310
7FFFFFF0001FFFFFF0001FFFFFFFFC0007F0001FFFFFFFFC0007FF0003FFFFFF
310
FFFFFF0000000003F000FFF80000000007FFF8001E000FC003E0007FFF80007F
310
FFF0000000000FFFFF8000000000FFF80FFFFFFFFFFFFFC07FFFFFF0001FFFFF
310
F0001FFFFFFFFC0007F0001FFFFFFFFC0007FF0003FFFFFFFFFFFC0000000007
310
F000FFE0000000000FFFF0003E000FC003E0007FFF80007FFFC0000000001FFF
310
FE0000000001FFF80FFFFFFFFFFFFFC07FFFFFF0001FFFFFF0001FFFFFFFFC00
310
07F0001FFFFFFFFC0007FF0003FFFFFFFFFFF0000000000FF000FFC000000000
310
1FFFF0003F000F8003F0003FFF80007FFF80000000003FFFF80000000003FFF8
310
0FFFFFFFFFFFFFC07FFFFFF0001FFFFFF0001FFFFFFFFC0007F0001FFFFFFFFC
310
0007FF0003FFFFFFFFFFE0000000001FF000FF00000000007FFFF0003F000780
310
03F0003FFF80007FFF00000000007FFFF00000000007FFF80FFFFFFFFFFFFFC0
310
7FFFFFF0001FFFFFF0001FFFFFFFFC0007F0001FFFFFFFFC0007FF0003FFFFFF
310
FFFF80000000007FF000FE0000000000FFFFE0003F00078007F0003FFF80007F
310
FE0000000001FFFFE0000000001FFFF80FFFFFFFFFFFFFC07FFFFFF0001FFFFF
310
F0001FFFFFFFFC0007F0001FFFFFFFFC0007FF0003FFFFFFFFFF0000000000FF
310
F000FC0000000003FFFFE0007F00078007F0003FFF80007FFC0000000007FFFF
310
C0000000007FFFF80FFFFFFFFFFFFFC07FFFFFF0001FFFFFF8001FFFFFFFFC00
310
0FF8001FFFFFFFFC000FFF0003FFFFFFFFFE0000000003FFF000FC000000000F
310
FFFFE0007F80070007F8001FFF80007FF8000000001FFFFF8000000001FFFFF8
310
0FFFFFFFFFFFFFC07FFFFFF0001FFFFFF8001FFFFFFFFC000FF8001FFFFFFFFC
310
000FFF0003FFFFFFFFFC000000000FFFF000F8000000007FFFFFE0007F800700
310
07F8001FFF80007FF000000000FFFFFF800000000FFFFFF80FFFFFFFFFFFFFC0
310
7FFFFFF0001FFFFFF8000FFFFFFFF8000FF8000FFFFFFFF8000FFF0003FFFFFF
310
FFFC000000007FFFF000F800000007FFFFFFC0007F8003000FF8001FFF80007F
310
F000000007FFFFFF000000007FFFFFF80FFFFFFFFFFFFFC07FFFFFF0001FFFFF
310
F8000FFFFFFFF8000FF8000FFFFFFFF8000FFF0003FFFFFFFFF80000000FFFFF
310
F000F0000000FFFFFFFFC000FF8003000FF8001FFF80007FE0000000FFFFFFFF
310
0000000FFFFFFFF8000001FFFE0000007FFFFFF0001FFFFFF8000FFFFFFFF800
310
0FF8000FFFFFFFF8000FFF0003FFFFFFFFF8000000FFFFFFF000F000000FFFFF
310
FFFFC000FFC002000FF8000FFF80007FE000001FFFFFFFFE000001FFFFFFFFF8
310
000001FFFE0000007FFFFFF0001FFFFFF8000FFFFFFFF8000FF8000FFFFFFFF8
310
000FFF0003FFFFFFFFF000001FFFFFFFF000E00000FFFFFFFFFFC000FFC00200
310
0FFC000FFF80007FE00001FFFFFFFFFE00001FFFFFFFFFF8000001FFFE000000
310
7FFFFFF0001FFFFFFC000FFFFFFFF8001FFC000FFFFFFFF8001FFF0003FFFFFF
310
FFF00001FFFFFFFFF000E00007FFFFFFFFFF8000FFC000001FFC000FFF80007F
310
C0000FFFFFFFFFFE0000FFFFFFFFFFF8000001FFFE0000007FFFFFF0001FFFFF
310
FC0007FFFFFFF0001FFC0007FFFFFFF0001FFF0003FFFFFFFFF00007FFFFFFFF
310
F000E0001FFFFFFFFFFF8000FFC000001FFC000FFF80007FC0003FFFFFFFFFFE
310
0001FFFFFFFFFFF8000001FFFE0000007FFFFFF0001FFFFFFC0007FFFFFFF000
310
1FFC0007FFFFFFF0001FFF0003FFFFFFFFF0001FFFFFFFFFF000E0003FFFFF00
310
03FF8001FFE000001FFC0007FF80007FC0007FFFFF0007FC0003FFFFF0003FF8
310
000001FFFE0000007FFFFFF0001FFFFFFC0003FFFFFFE0001FFC0003FFFFFFE0
310
001FFF0003FFFFFFFFF0003FFFFFFFFFF000E0003FFFFF0001FF8001FFE00000
310
1FFE0007FF80007FC0007FFFFE0003FC0007FFFFE0003FF8000001FFFE000000
310
7FFFFFF0001FFFFFFE0003FFFFFFE0003FFE0003FFFFFFE0003FFF0003FFFFFF
310
FFF0003FFFFF8001F000E0003FFFFF0001FF0001FFE000001FFE0007FF80007F
310
C0007FFFFE0003FC0007FFFFE0003FF8000001FFFE0000007FFFFFF0001FFFFF
310
FE0001FFFFFFC0003FFE0001FFFFFFC0003FFF0003FFFFFFFFF0003FFFFF0001
310
F000E0003FFFFF0003FF0001FFE000003FFE0007FF80007FC0007FFFFE0003FC
310
0007FFFFE0003FF8000001FFFE0000007FFFFFF0001FFFFFFF0001FFFFFFC000
310
7FFF0001FFFFFFC0007FFF0003FFFFFFFFF0003FFFFF0001F000E0003FFFFE00
310
03FF0003FFF000003FFE0003FF80007FC0007FFFFC0003FE0007FFFFE0003FF8
310
000001FFFE0000007FFFFFF0001FFFFFFF0000FFFFFF80007FFF0000FFFFFF80
310
007FFF0003FFFFFFFFF0003FFFFF0001F000E0003FFFFE0003FF0003FFF00000
310
3FFF0003FF80007FC0007FFFFC0007FE0007FFFFC0003FF8000001FFFE000000
310
7FFFFFF0001FFFFFFF80007FFFFF0000FFFF80007FFFFF0000FFFF0003FFFFFF
310
FFF0003FFFFF0003F000E0003FFFFC0003FE0003FFF000003FFF0003FF80007F
310
E0003FFFF80007FE0003FFFFC0007FF8000001FFFE0000007FFFFFF0001FFFFF
310
FF80003FFFFE0000FFFF80003FFFFE0000FFFF0003FFFFFFFFF0001FFFFE0003
310
F000F0001FFFF80003FE0003FFF000007FFF0001FF80007FE0003FFFF00007FE
310
0001FFFF80007FF8000001FFFE0000007FFFFFF0001FFFFFFFC0000FFFF80001
310
FFFFC0000FFFF80001FFFF0003FFFFFFFFF0001FFFFC0003F000F0000FFFF000
310
07FE0007FFF800007FFF0001FF80007FE0001FFFE00007FF0000FFFE00007FF8
310
000001FFFE0000007FFFFFF0001FFFFFFFC00003FFE00001FFFFC00003FFE000
310
01FFFF0003FFFFFFFFF8000FFFF80003F000F00003FFC00007FC0007FFF80000
310
7FFF8001FF80007FF00007FF80000FFF00007FF80000FFF8000001FFFE000000
310
7F80000000000001FFE000003E000003FFFFE000003E000003FFFF0003FFFFFF
310
FFF80003FFE00007F000F800000000000FFC0007FFF800007FFF8001FF80007F
310
F000000000000FFF000000000000FFF8000001FFFE0000007F80000000000001
310
FFF0000000000007FFFFF0000000000007FFFF0003FFFFFFFFFC00007E000007
310
F000F800000000000FFC0007FFF80000FFFF8000FF80007FF800000000001FFF
310
800000000001FFF8000001FFFE0000007F80000000000001FFF800000000000F
310
FFFFF800000000000FFFFF0003FFFFFFFFFC00000000000FF000FC0000000000
310
1FFC0007FFFC0000FFFF8000FF80007FF800000000003FFFC00000000001FFF8
310
000001FFFE0000007F80000000000001FFF800000000000FFFFFF80000000000
310
0FFFFF0003FFFFFFFFFE00000000001FF000FE00000000003FF8000FFFFC0000
310
FFFF8000FF80007FFC00000000003FFFC00000000003FFF8000001FFFE000000
310
7F80000000000001FFFC00000000001FFFFFFC00000000001FFFFF0003FFFFFF
310
FFFF00000000001FF000FF00000000003FF8000FFFFC0000FFFFC000FF80007F
310
FE00000000007FFFE00000000007FFF8000001FFFE0000007F80000000000001
310
FFFE00000000003FFFFFFE00000000003FFFFF0003FFFFFFFFFF80000000003F
310
F000FF80000000007FF8000FFFFC0001FFFFC0007F80007FFF0000000000FFFF
310
F0000000000FFFF800000000000000007F80000000000001FFFF8000000000FF
310
FFFFFF8000000000FFFFFF0003FFFFFFFFFFC0000000007FF000FFC000000000
310
FFF8000FFFFE0001FFFFC0007F80007FFF8000000001FFFFF8000000001FFFF8
310
00000000000000007F80000000000001FFFFC000000001FFFFFFFFC000000001
310
FFFFFF0003FFFFFFFFFFE000000000FFF000FFE000000003FFF0001FFFFE0001
310
FFFFC0007F80007FFFC000000007FFFFFE000000003FFFF80000000000000000
310
7F80000000000001FFFFE000000003FFFFFFFFE000000003FFFFFF0003FFFFFF
310
FFFFF000000003FFF000FFF80000000FFFF0001FFFFE0001FFFFE0007F80007F
310
FFF00000000FFFFFFF00000000FFFFF800000000000000007F80000000000001
310
FFFFF80000000FFFFFFFFFF80000000FFFFFFF0003FFFFFFFFFFFC0000000FFF
310
F000FFFE0000003FFFF0001FFFFE0003FFFFE0003F80007FFFFC0000003FFFFF
310
FFC0000003FFFFF800000000000000007F80000000000001FFFFFE0000003FFF
310
FFFFFFFE0000003FFFFFFF0003FFFFFFFFFFFF0000003FFFF000FFFF800000FF
310
FFF0001FFFFF0003FFFFE0003F80007FFFFF000001FFFFFFFFF800001FFFFFF8
310
00000000000000007F80000000000001FFFFFFC00001FFFFFFFFFFFFC00001FF
310
FFFFFF0003FFFFFFFFFFFFC00000FFFFF000FFFFF8000FFFFFFFFFFFFFFFFFFF
310
FFFFFFFFFFFFFFFFFFFFF0001FFFFFFFFFFF0000FFFFFFF80000000000000000
310
7FFFFFFFFFFFFFFFFFFFFFFC001FFFFFFFFFFFFFFC001FFFFFFFFFFFFFFFFFFF
310
FFFFFFFC001FFFFFF000FFFFFFFFFFFFFFFFFFFFFFFFFFFFFFFFFFFFFFFFFFFF
310
FFFFFFFFFFFFFFFFFFFFFFFFFFFFFFFFFFFFFFFFFFFFFFFFFFFFFFFFFFFFFFFF
310
FFFFFFFFFFFFFFFFFFFFFFFFFFFFFFFFFFFFFFFFFFFFFFFFFFFFFFFFFFFFFFFF
310
F000FFFFFFFFFFFFFFFFFFFFFFFFFFFFFFFFFFFFFFFFFFFFFFFFFFFFFFFFFFFF
310
FFFFFFFFFFFFFFFFFFFFFFFFFFFFFFFFFFFFFFFFFFFFFFFFFFFFFFFFFFFFFFFF
310
FFFFFFFFFFFFFFFFFFFFFFFFFFFFFFFFFFFFFFFFFFFFFFFFF000FFFFFFFFFFFF
310
FFFFFFFFFFFFFFFFFFFFFFFFFFFFFFFFFFFFFFFFFFFFFFFFFFFFFFFFFFFFFFFF
310
FFFFFFFFFFFFFFFFFFFFFFFFFFFFFFFFFFFFFFFFFFFFFFFFFFFFFFFFFFFFFFFF
310
FFFFFFFFFFFFFFFFFFFFFFFFFFFFFFFFF000FFFFFFFFFFFFFFFFFFFFFFFFFFFF
310
FFFFFFFFFFFFFFFFFFFFFFFFFFFFFFFFFFFFFFFFFFFFFFFFFFFFFFFFFFFFFFFF
310
FFFFFFFFFFFFFFFFFFFFFFFFFFFFFFFFFFFFFFFFFFFFFFFFFFFFFFFFFFFFFFFF
310
FFFFFFFFFFFFFFFFF000FFFFFFFFFFFFFFFFFFFFFFFFFFFFFFFFFFFFFFFFFFFF
310
FFFFFFFFFFFFFFFFFFFFFFFFFFFFFFFFFFFFFFFFFFFFFFFFFFFFFFFFFFFFFFFF
310
FFFFFFFFFFFFFFFFFFFFFFFFFFFFFFFFFFFFFFFFFFFFFFFFFFFFFFFFFFFFFFFF
310
F000FFFFFFFFFFFFFFFFFFFFFFFFFFFFFFFFFFFFFFFFFFFFFFFFFFFFFFFFFFFF
310
FFFFFFFFFFFFFFFFFFFFFFFFFFFFFFFFFFFFFFFFFFFFFFFFFFFFFFFFFFFFFFFF
310
FFFFFFFFFFFFFFFFFFFFFFFFFFFFFFFFFFFFFFFFFFFFFFFFF000FFFFFFFFFFFF
310
FFFFFFFFFFFFFFFFFFFFFFFFFFFFFFFFFFFFFFFFFFFFFFFFFFFFFFFFFFFFFFFF
310
FFFFFFFFFFFFFFFFFFFFFFFFFFFFFFFFFFFFFFFFFFFFFFFFFFFFFFFFFFFFFFFF
310
FFFFFFFFFFFFFFFFFFFFFFFFFFFFFFFFF000FFFFFFFFFFFFFFFFFFFFFFFFFFFF
310
FFFFFFFFFFFFFFFFFFFFFFFFFFFFFFFFFFFFFFFFFFFFFFFFFFFFFFFFFFFFFFFF
310
FFFFFFFFFFFFFFFFFFFFFFFFFFFFFFFFFFFFFFFFFFFFFFFFFFFFFFFFFFFFFFFF
310
FFFFFFFFFFFFFFFFF000FFFFFFFFFFFFFFFFFFFFFFFFFFFFFFFFFFFFFFFFFFFF
310
FFFFFFFFFFFFFFFFFFFFFFFFFFFFFFFFFFFFFFFFFFFFFFFFFFFFFFFFFFFFFFFF
310
FFFFFFFFFFFFFFFFFFFFFFFFFFFFFFFFFFFFFFFFFFFFFFFFFFFFFFFFFFFFFFFF
310
F000FFFFFFFFFFFFFFFFFFFFFFFFFFFFFFFFFFFFFFFFFFFFFFFFFFFFFFFFFFFF
310
FFFFFFFFFFFFFFFFFFFFFFFFFFFFFFFFFFFFFFFFFFFFFFFFFFFFFFFFFFFFFFFF
310
FFFFFFFFFFFFFFFFFFFFFFFFFFFFFFFFFFFFFFFFFFFFFFFFF000FFFFFFFFFFFF
310
FFFFFFFFFFFFFFFFFFFFFFFFFFFFFFFFFFFFFFFFFFFFFFFFFFFFFFFFFFFFFFFF
310
FFFFFFFFFFFFFFFFFFFFFFFFFFFFFFFFFFFFFFFFFFFFFFFFFFFFFFFFFFFFFFFF
310
FFFFFFFFFFFFFFFFFFFFFFFFFFFFFFFFF000FFFFFFFFFFFFFFFFFFFFFFFFFFFF
310
FFFFFFFFFFFFFFFFFFFFFFFFFFFFFFFFFFFFFFFFFFFFFFFFFFFFFFFFFFFFFFFF
310
FFFFFFFFFFFFFFFFFFFFFFFFFFFFFFFFFFFFFFFFFFFFFFFFFFFFFFFFFFFFFFFF
310
FFFFFFFFFFFFFFFFF000FFFFFFFFFFFFFFFFFFFFFFFFFFFFFFFFFFFFFFFFFFFF
310
FFFFFFFFFFFFFFFFFFFFFFFFFFFFFFFFFFFFFFFFFFFFFFFFFFFFFFFFFFFFFFFF
310
FFFFFFFFFFFFFFFFFFFFFFFFFFFFFFFFFFFFFFFFFFFFFFFFFFFFFFFFFFFFFFFF
310
F000FFFFFFFFFFFFFFFFFFFFFFFFFFFFFFFFFFFFFFFFFFFFFFFFFFFFFFFFFFFF
310
FFFFFFFFFFFFFFFFFFFFFFFFFFFFFFFFFFFFFFFFFFFFFFFFFFFFFFFFFFFFFFFF
310
FFFFFFFFFFFFFFFFFFFFFFFFFFFFFFFFFFFFFFFFFFFFFFFFF000FFFFFFFFFFFF
310
FFFFFFFFFFFFFFFFFFFFFFFFFFFFFFFFFFFFFFFFFFFFFFFFFFFFFFFFFFFFFFFF
310
FFFFFFFFFFFFFFFFFFFFFFFFFFFFFFFFFFFFFFFFFFFFFFFFFFFFFFFFFFFFFFFF
310
FFFFFFFFFFFFFFFFFFFFFFFFFFFFFFFFF000FFFFFFFFFFFFFFFFFFFFFFFFFFFF
310
FFFFFFFFFFFFFFFFFFFFFFFFFFFFFFFFFFFFFFFFFFFFFFFFFFFFFFFFFFFFFFFF
310
FFFFFFFFFFFFFFFFFFFFFFFFFFFFFFFFFFFFFFFFFFFFFFFFFFFFFFFFFFFFFFFF
310
FFFFFFFFFFFFFFFFF000FFFFFFFFFFFFFFFFFFFFFFFFFFFFFFFFFFFFFFFFFFFF
310
FFFFFFFFFFFFFFFFFFFFFFFFFFFFFFFFFFFFFFFFFFFFFFFFFFFFFFFFFFFFFFFF
310
FFFFFFFFFFFFFFFFFFFFFFFFFFFFFFFFFFFFFFFFFFFFFFFFFFFFFFFFFFFFFFFF
310
F000FFFFFFFFFFFFFFFFFFFFFFFFFFFFFFFFFFFFFFFFFFFFFFFFFFFFFFFFFFFF
310
FFFFFFFFFFFFFFFFFFFFFFFFFFFFFFFFFFFFFFFFFFFFFFFFFFFFFFFFFFFFFFFF
310
FFFFFFFFFFFFFFFFFFFFFFFFFFFFFFFFFFFFFFFFFFFFFFFFF000FFFFFFFFFFFF
310
FFFFFFFFFFFFFFFFFFFFFFFFFFFFFFFFFFFFFFFFFFFFFFFFFFFFFFFFFFFFFFFF
310
FFFFFFFFFFFFFFFFFFFFFFFFFFFFFFFFFFFFFFFFFFFFFFFFFFFFFFFFFFFFFFFF
310
FFFFFFFFFFFFFFFFFFFFFFFFFFFFFFFFF000FFFFFFFFFFFFFFFFFFFFFFFFFFFF
310
FFFFFFFFFFFFFFFFFFFFFFFFFFFFFFFFFFFFFFFFFFFFFFFFFFFFFFFFFFFFFFFF
310
FFFFFFFFFFFFFFFFFFFFFFFFFFFFFFFFFFFFFFFFFFFFFFFFFFFFFFFFFFFFFFFF
310
FFFFFFFFFFFFFFFFF000FFFFFFFFFFFFFFFFFFFFFFFFFFFFFFFFFFFFFFFFFFFF
310
FFFFFFFFFFFFFFFFFFFFFFFFFFFFFFFFFFFFFFFFFFFFFFFFFFFFFFFFFFFFFFFF
310
FFFFFFFFFFFFFFFFFFFFFFFFFFFFFFFFFFFFFFFFFFFFFFFFFFFFFFFFFFFFFFFF
310
F000FFFFFFFFFFFFFFFFFFFFFFFFFFFFFFFFFFFFFFFFFFFFFFFFFFFFFFFFFFFF
310
FFFFFFFFFFFFFFFFFFFFFFFFFFFFFFFFFFFFFFFFFFFFFFFFFFFFFFFFFFFFFFFF
310
FFFFFFFFFFFFFFFFFFFFFFFFFFFFFFFFFFFFFFFFFFFFFFFFF000FFFFFFFFFFFF
310
FFFFFFFFFFFFFFFFFFFFFFFFFFFFFFFFFFFFFFFFFFFFFFFFFFFFFFFFFFFFFFFF
310
FFFFFFFFFFFFFFFFFFFFFFFFFFFFFFFFFFFFFFFFFFFFFFFFFFFFFFFFFFFFFFFF
310
FFFFFFFFFFFFFFFFFFFFFFFFFFFFFFFFF0000000000000000000000000000000
310
000000005994AB3D597ACC3D9D3D063E5877CD3D03C0053E82D3DC3D8F2E063E
310
55B7DD3D28AC063EC01C0A3EC76DD33D6BD10D3EC76DD33D6BD10D3ECCA1E43D
310
C01C0A3ECCA1E43D82D3DC3DAFB2AB3D82D3DC3D9E32B33D5977CD3D5512B33D
310
5977CD3DB08FAC3D82D3DC3D7A6E023E82D3DC3D7C2E063E5977CD3DFABF053E
310
5977CD3D497E023EBA0A163ED801033EDF10173E7F6A023E972F1C3E7F6A023E
310
BC351D3ED801033EBC351D3EE20BB23D972F1C3E953AB33DDF10173E953AB33D
310
BA0A163EE20BB23DDF10173E7F6A023EDF10173E3C70ED3D972F1C3E3C70ED3D
310
972F1C3E7F6A023EDF10173E3C70ED3D3BA0193EAD5CEA3D3BA0193EAD5CEA3D
310
972F1C3E3C70ED3D972F1C3E953AB33D972F1C3E579FCA3DDF10173E579FCA3D
310
DF10173E953AB33D972F1C3E579FCA3D3BA0193EE6B2CD3D3BA0193EE6B2CD3D
310
DF10173E579FCA3D11F7253EB632F83D11F7253EEE1FF13D11F7253E41A4FE3D
310
11F7253EFC09FD3D7F09293E4913FD3D7F09293E41A4FE3D7F09293EC01FF13D
310
7F09293E6FF4F73D11F7253E9705BB3D11F7253E093DBA3D11F7253EE0EFC63D
310
11F7253EDDDCBF3D7F09293E241BC03D7F09293E9FEFC63D7F09293E093DBA3D
310
7F09293E4AFCBA3D11F7253E093DBA3D4880273E8064B83D4880273E8064B83D
  1
OLE
  0
ENDSEC
  0
SECTION
  2
OBJECTS
  0
DICTIONARY
  5
C
330
0
100
AcDbDictionary
281
     1
  3
ACAD_GROUP
350
D
  3
ACAD_LAYOUT
350
1A
  3
ACAD_MLEADERSTYLE
350
23A
  3
ACAD_MLINESTYLE
350
17
  3
ACAD_PLOTSETTINGS
350
19
  3
ACAD_PLOTSTYLENAME
350
E
  3
ACAD_TABLESTYLE
350
239
  3
ACAD_VISUALSTYLE
350
2A
  3
AcDbVariableDictionary
350
23B
  0
DICTIONARY
  5
D
102
{ACAD_REACTORS
330
C
102
}
330
C
100
AcDbDictionary
281
     1
  0
DICTIONARY
  5
1A
102
{ACAD_REACTORS
330
C
102
}
330
C
100
AcDbDictionary
281
     1
  3
Layout1
350
1E
  3
Layout2
350
26
  3
Model
350
22
  0
DICTIONARY
  5
23A
102
{ACAD_REACTORS
330
C
102
}
330
C
100
AcDbDictionary
281
     1
  0
DICTIONARY
  5
17
102
{ACAD_REACTORS
330
C
102
}
330
C
100
AcDbDictionary
281
     1
  3
Standard
350
18
  0
DICTIONARY
  5
19
102
{ACAD_REACTORS
330
C
102
}
330
C
100
AcDbDictionary
281
     1
  0
ACDBDICTIONARYWDFLT
  5
E
102
{ACAD_REACTORS
330
C
102
}
330
C
100
AcDbDictionary
281
     1
  3
Normal
350
F
100
AcDbDictionaryWithDefault
340
F
  0
DICTIONARY
  5
239
102
{ACAD_REACTORS
330
C
102
}
330
C
100
AcDbDictionary
281
     1
  0
DICTIONARY
  5
2A
102
{ACAD_REACTORS
330
C
102
}
330
C
100
AcDbDictionary
281
     1
  3
2dWireframe
350
2F
  3
3D Hidden
350
31
  3
3dWireframe
350
30
  3
Basic
350
32
  3
Brighten
350
36
  3
ColorChange
350
3A
  3
Conceptual
350
34
  3
Dim
350
35
  3
Facepattern
350
39
  3
Flat
350
2B
  3
FlatWithEdges
350
2C
  3
Gouraud
350
2D
  3
GouraudWithEdges
350
2E
  3
Linepattern
350
38
  3
Realistic
350
33
  3
Thicken
350
37
  0
DICTIONARY
  5
23B
102
{ACAD_REACTORS
330
C
102
}
330
C
100
AcDbDictionary
281
     1
  3
PSOLHEIGHT
350
23D
  3
PSOLWIDTH
350
23C
  0
LAYOUT
  5
1E
102
{ACAD_REACTORS
330
1A
102
}
330
1A
100
AcDbPlotSettings
  1

  2
none_device
  4

  6

 40
0.0
 41
0.0
 42
0.0
 43
0.0
 44
0.0
 45
0.0
 46
0.0
 47
0.0
 48
0.0
 49
0.0
140
0.0
141
0.0
142
1.0
143
1.0
 70
   688
 72
     0
 73
     0
 74
     5
  7

 75
    16
147
1.0
148
0.0
149
0.0
100
AcDbLayout
  1
Layout1
 70
     1
 71
     1
 10
0.0
 20
0.0
 11
420.0
 21
297.0
 12
0.0
 22
0.0
 32
0.0
 14
1.0000000000E+20
 24
1.0000000000E+20
 34
1.0000000000E+20
 15
-1.0000000000E+20
 25
-1.0000000000E+20
 35
-1.0000000000E+20
146
0.0
 13
0.0
 23
0.0
 33
0.0
 16
1.0
 26
0.0
 36
0.0
 17
0.0
 27
1.0
 37
0.0
 76
     0
330
1B
  0
LAYOUT
  5
26
102
{ACAD_REACTORS
330
1A
102
}
330
1A
100
AcDbPlotSettings
  1

  2
none_device
  4

  6

 40
0.0
 41
0.0
 42
0.0
 43
0.0
 44
0.0
 45
0.0
 46
0.0
 47
0.0
 48
0.0
 49
0.0
140
0.0
141
0.0
142
1.0
143
1.0
 70
   688
 72
     0
 73
     0
 74
     5
  7

 75
    16
147
1.0
148
0.0
149
0.0
100
AcDbLayout
  1
Layout2
 70
     1
 71
     2
 10
0.0
 20
0.0
 11
0.0
 21
0.0
 12
0.0
 22
0.0
 32
0.0
 14
0.0
 24
0.0
 34
0.0
 15
0.0
 25
0.0
 35
0.0
146
0.0
 13
0.0
 23
0.0
 33
0.0
 16
1.0
 26
0.0
 36
0.0
 17
0.0
 27
1.0
 37
0.0
 76
     0
330
23
  0
LAYOUT
  5
22
102
{ACAD_REACTORS
330
1A
102
}
330
1A
100
AcDbPlotSettings
  1

  2
none_device
  4

  6

 40
0.0
 41
0.0
 42
0.0
 43
0.0
 44
0.0
 45
0.0
 46
0.0
 47
0.0
 48
0.0
 49
0.0
140
0.0
141
0.0
142
1.0
143
1.0
 70
  1712
 72
     0
 73
     0
 74
     0
  7

 75
     0
147
1.0
148
0.0
149
0.0
100
AcDbLayout
  1
Model
 70
     1
 71
     0
 10
0.0
 20
0.0
 11
297.0
 21
210.0
 12
0.0
 22
0.0
 32
0.0
 14
0.0
 24
0.0
 34
0.0
 15
297.0
 25
210.0
 35
0.0
146
0.0
 13
0.0
 23
0.0
 33
0.0
 16
1.0
 26
0.0
 36
0.0
 17
0.0
 27
1.0
 37
0.0
 76
     0
330
1F
331
29
  0
MLINESTYLE
  5
18
102
{ACAD_REACTORS
330
17
102
}
330
17
100
AcDbMlineStyle
  2
Standard
 70
     0
  3

 62
   256
 51
90.0
 52
90.0
 71
     2
 49
0.5
 62
   256
  6
BYLAYER
 49
-0.5
 62
   256
  6
BYLAYER
  0
ACDBPLACEHOLDER
  5
F
102
{ACAD_REACTORS
330
E
102
}
330
E
  0
VISUALSTYLE
  5
2F
102
{ACAD_REACTORS
330
2A
102
}
330
2A
100
AcDbVisualStyle
  2
2dWireframe
 70
     4
 71
     0
 72
     2
 73
     0
 90
        0
 40
-0.6
 41
-30.0
 62
     5
 63
     7
 74
     1
 91
        4
 64
     7
 65
   257
 75
     1
175
     1
 42
1.0
 92
        0
 66
   257
 43
1.0
 76
     1
 77
     6
 78
     2
 67
     7
 79
     5
170
     0
171
     0
290
     0
174
     0
 93
        1
 44
0.0
173
     0
291
     0
 45
0.0
1001
ACAD
1000
AcDbSavedByObjectVersion
1070
     0
  0
VISUALSTYLE
  5
31
102
{ACAD_REACTORS
330
2A
102
}
330
2A
100
AcDbVisualStyle
  2
3D Hidden
 70
     6
 71
     1
 72
     2
 73
     2
 90
        0
 40
-0.6
 41
-30.0
 62
     5
 63
     7
 74
     2
 91
        2
 64
     7
 65
   257
 75
     2
175
     1
 42
40.0
 92
        0
 66
   257
 43
1.0
 76
     1
 77
     6
 78
     2
 67
     7
 79
     3
170
     0
171
     0
290
     0
174
     0
 93
        1
 44
0.0
173
     0
291
     0
 45
0.0
1001
ACAD
1000
AcDbSavedByObjectVersion
1070
     0
  0
VISUALSTYLE
  5
30
102
{ACAD_REACTORS
330
2A
102
}
330
2A
100
AcDbVisualStyle
  2
3dWireframe
 70
     5
 71
     0
 72
     2
 73
     0
 90
        0
 40
-0.6
 41
-30.0
 62
     5
 63
     7
 74
     1
 91
        4
 64
     7
 65
   257
 75
     1
175
     1
 42
1.0
 92
        0
 66
   257
 43
1.0
 76
     1
 77
     6
 78
     2
 67
     7
 79
     5
170
     0
171
     0
290
     0
174
     0
 93
        1
 44
0.0
173
     0
291
     0
 45
0.0
1001
ACAD
1000
AcDbSavedByObjectVersion
1070
     0
  0
VISUALSTYLE
  5
32
102
{ACAD_REACTORS
330
2A
102
}
330
2A
100
AcDbVisualStyle
  2
Basic
 70
     7
 71
     1
 72
     0
 73
     1
 90
        0
 40
-0.6
 41
-30.0
 62
     5
 63
     7
 74
     0
 91
        4
 64
     7
 65
   257
 75
     1
175
     1
 42
1.0
 92
        8
 66
     7
 43
1.0
 76
     1
 77
     6
 78
     2
 67
     7
 79
     5
170
     0
171
     0
290
     0
174
     0
 93
        1
 44
0.0
173
     0
291
     1
 45
0.0
1001
ACAD
1000
AcDbSavedByObjectVersion
1070
     0
  0
VISUALSTYLE
  5
36
102
{ACAD_REACTORS
330
2A
102
}
330
2A
100
AcDbVisualStyle
  2
Brighten
 70
    12
 71
     2
 72
     2
 73
     0
 90
        0
 40
-0.6
 41
-30.0
 62
     5
 63
     7
 74
     1
 91
        4
 64
     7
 65
   257
 75
     1
175
     1
 42
1.0
 92
        8
 66
     7
 43
1.0
 76
     1
 77
     6
 78
     2
 67
     7
 79
     5
170
     0
171
     0
290
     0
174
     0
 93
        1
 44
50.0
173
     0
291
     1
 45
0.0
1001
ACAD
1000
AcDbSavedByObjectVersion
1070
     0
  0
VISUALSTYLE
  5
3A
102
{ACAD_REACTORS
330
2A
102
}
330
2A
100
AcDbVisualStyle
  2
ColorChange
 70
    16
 71
     2
 72
     2
 73
     3
 90
        0
 40
-0.6
 41
-30.0
 62
     5
 63
     8
 74
     1
 91
        4
 64
     7
 65
   257
 75
     1
175
     1
 42
1.0
 92
        8
 66
     8
 43
1.0
 76
     1
 77
     6
 78
     2
 67
     7
 79
     5
170
     0
171
     0
290
     0
174
     0
 93
        1
 44
0.0
173
     0
291
     1
 45
0.0
1001
ACAD
1000
AcDbSavedByObjectVersion
1070
     0
  0
VISUALSTYLE
  5
34
102
{ACAD_REACTORS
330
2A
102
}
330
2A
100
AcDbVisualStyle
  2
Conceptual
 70
     9
 71
     3
 72
     2
 73
     0
 90
        0
 40
-0.6
 41
-30.0
 62
     5
 63
     7
 74
     2
 91
        2
 64
     7
 65
   257
 75
     1
175
     1
 42
40.0
 92
        8
 66
     7
 43
1.0
 76
     1
 77
     6
 78
     2
 67
     7
 79
     3
170
     0
171
     0
290
     0
174
     0
 93
        1
 44
0.0
173
     0
291
     0
 45
0.0
1001
ACAD
1000
AcDbSavedByObjectVersion
1070
     0
  0
VISUALSTYLE
  5
35
102
{ACAD_REACTORS
330
2A
102
}
330
2A
100
AcDbVisualStyle
  2
Dim
 70
    11
 71
     2
 72
     2
 73
     0
 90
        0
 40
-0.6
 41
-30.0
 62
     5
 63
     7
 74
     1
 91
        4
 64
     7
 65
   257
 75
     1
175
     1
 42
1.0
 92
        8
 66
     7
 43
1.0
 76
     1
 77
     6
 78
     2
 67
     7
 79
     5
170
     0
171
     0
290
     0
174
     0
 93
        1
 44
-50.0
173
     0
291
     1
 45
0.0
1001
ACAD
1000
AcDbSavedByObjectVersion
1070
     0
  0
VISUALSTYLE
  5
39
102
{ACAD_REACTORS
330
2A
102
}
330
2A
100
AcDbVisualStyle
  2
Facepattern
 70
    15
 71
     2
 72
     2
 73
     0
 90
        0
 40
-0.6
 41
-30.0
 62
     5
 63
     7
 74
     1
 91
        4
 64
     7
 65
   257
 75
     1
175
     1
 42
1.0
 92
        8
 66
     7
 43
1.0
 76
     1
 77
     6
 78
     2
 67
     7
 79
     5
170
     0
171
     0
290
     0
174
     0
 93
        1
 44
0.0
173
     0
291
     1
 45
0.0
1001
ACAD
1000
AcDbSavedByObjectVersion
1070
     0
  0
VISUALSTYLE
  5
2B
102
{ACAD_REACTORS
330
2A
102
}
330
2A
100
AcDbVisualStyle
  2
Flat
 70
     0
 71
     2
 72
     1
 73
     1
 90
        2
 40
-0.6
 41
30.0
 62
     5
 63
     7
 74
     0
 91
        4
 64
     7
 65
   257
 75
     1
175
     1
 42
1.0
 92
        8
 66
     7
 43
1.0
 76
     1
 77
     6
 78
     2
 67
     7
 79
     5
170
     0
171
     0
290
     0
174
     0
 93
       13
 44
0.0
173
     0
291
     1
 45
0.0
1001
ACAD
1000
AcDbSavedByObjectVersion
1070
     0
  0
VISUALSTYLE
  5
2C
102
{ACAD_REACTORS
330
2A
102
}
330
2A
100
AcDbVisualStyle
  2
FlatWithEdges
 70
     1
 71
     2
 72
     1
 73
     1
 90
        2
 40
-0.6
 41
30.0
 62
     5
 63
     7
 74
     1
 91
        4
 64
     7
 65
   257
 75
     1
175
     1
 42
1.0
 92
        0
 66
   257
 43
1.0
 76
     1
 77
     6
 78
     2
 67
     7
 79
     5
170
     0
171
     0
290
     0
174
     0
 93
       13
 44
0.0
173
     0
291
     1
 45
0.0
1001
ACAD
1000
AcDbSavedByObjectVersion
1070
     0
  0
VISUALSTYLE
  5
2D
102
{ACAD_REACTORS
330
2A
102
}
330
2A
100
AcDbVisualStyle
  2
Gouraud
 70
     2
 71
     2
 72
     2
 73
     1
 90
        2
 40
-0.6
 41
30.0
 62
     5
 63
     7
 74
     0
 91
        4
 64
     7
 65
   257
 75
     1
175
     1
 42
1.0
 92
        0
 66
     7
 43
1.0
 76
     1
 77
     6
 78
     2
 67
     7
 79
     5
170
     0
171
     0
290
     0
174
     0
 93
       13
 44
0.0
173
     0
291
     1
 45
0.0
1001
ACAD
1000
AcDbSavedByObjectVersion
1070
     0
  0
VISUALSTYLE
  5
2E
102
{ACAD_REACTORS
330
2A
102
}
330
2A
100
AcDbVisualStyle
  2
GouraudWithEdges
 70
     3
 71
     2
 72
     2
 73
     1
 90
        2
 40
-0.6
 41
30.0
 62
     5
 63
     7
 74
     1
 91
        4
 64
     7
 65
   257
 75
     1
175
     1
 42
1.0
 92
        0
 66
   257
 43
1.0
 76
     1
 77
     6
 78
     2
 67
     7
 79
     5
170
     0
171
     0
290
     0
174
     0
 93
       13
 44
0.0
173
     0
291
     1
 45
0.0
1001
ACAD
1000
AcDbSavedByObjectVersion
1070
     0
  0
VISUALSTYLE
  5
38
102
{ACAD_REACTORS
330
2A
102
}
330
2A
100
AcDbVisualStyle
  2
Linepattern
 70
    14
 71
     2
 72
     2
 73
     0
 90
        0
 40
-0.6
 41
-30.0
 62
     5
 63
     7
 74
     1
 91
        4
 64
     7
 65
   257
 75
     7
175
     7
 42
1.0
 92
        8
 66
     7
 43
1.0
 76
     1
 77
     6
 78
     2
 67
     7
 79
     5
170
     0
171
     0
290
     0
174
     0
 93
        1
 44
0.0
173
     0
291
     1
 45
0.0
1001
ACAD
1000
AcDbSavedByObjectVersion
1070
     0
  0
VISUALSTYLE
  5
33
102
{ACAD_REACTORS
330
2A
102
}
330
2A
100
AcDbVisualStyle
  2
Realistic
 70
     8
 71
     2
 72
     2
 73
     0
 90
        0
 40
-0.6
 41
-30.0
 62
     5
 63
     7
 74
     1
 91
        0
 64
     7
 65
   257
 75
     1
175
     1
 42
1.0
 92
        8
 66
     8
 43
1.0
 76
     1
 77
     6
 78
     2
 67
     7
 79
     5
170
     0
171
     0
290
     0
174
     0
 93
       13
 44
0.0
173
     0
291
     0
 45
0.0
1001
ACAD
1000
AcDbSavedByObjectVersion
1070
     0
  0
VISUALSTYLE
  5
37
102
{ACAD_REACTORS
330
2A
102
}
330
2A
100
AcDbVisualStyle
  2
Thicken
 70
    13
 71
     2
 72
     2
 73
     0
 90
        0
 40
-0.6
 41
-30.0
 62
     5
 63
     7
 74
     1
 91
        4
 64
     7
 65
   257
 75
     1
175
     1
 42
1.0
 92
       12
 66
     7
 43
1.0
 76
     1
 77
     6
 78
     2
 67
     7
 79
     5
170
     0
171
     0
290
     0
174
     0
 93
        1
 44
0.0
173
     0
291
     1
 45
0.0
1001
ACAD
1000
AcDbSavedByObjectVersion
1070
     0
  0
DICTIONARYVAR
  5
23D
102
{ACAD_REACTORS
330
23B
102
}
330
23B
100
DictionaryVariables
280
     0
  1
80.000000
  0
DICTIONARYVAR
  5
23C
102
{ACAD_REACTORS
330
23B
102
}
330
23B
100
DictionaryVariables
280
     0
  1
5.000000
  0
ENDSEC
  0
EOF
