  0
SECTION
  2
HEADER
  9
$ACADVER
  1
AC1015
  9
$ACADMAINTVER
 70
     6
  9
$DWGCODEPAGE
  3
ANSI_1252
  9
$INSBASE
 10
0.0
 20
0.0
 30
0.0
  9
$EXTMIN
 10
0.0
 20
0.0
 30
0.0
  9
$EXTMAX
 10
297.0
 20
210.0
 30
0.0
  9
$LIMMIN
 10
0.0
 20
0.0
  9
$LIMMAX
 10
297.0
 20
210.0
  9
$ORTHOMODE
 70
     0
  9
$REGENMODE
 70
     1
  9
$FILLMODE
 70
     1
  9
$QTEXTMODE
 70
     0
  9
$MIRRTEXT
 70
     1
  9
$LTSCALE
 40
1.0
  9
$ATTMODE
 70
     1
  9
$TEXTSIZE
 40
2.0
  9
$TRACEWID
 40
1.0
  9
$TEXTSTYLE
  7
Standard
  9
$CLAYER
  8
0
  9
$CELTYPE
  6
ByLayer
  9
$CECOLOR
 62
   256
  9
$CELTSCALE
 40
1.0
  9
$DISPSILH
 70
     0
  9
$DIMSCALE
 40
1.0
  9
$DIMASZ
 40
3.0
  9
$DIMEXO
 40
0.0
  9
$DIMDLI
 40
3.75
  9
$DIMRND
 40
0.0
  9
$DIMDLE
 40
0.0
  9
$DIMEXE
 40
1.0
  9
$DIMTP
 40
0.0
  9
$DIMTM
 40
0.0
  9
$DIMTXT
 40
2.0
  9
$DIMCEN
 40
2.5
  9
$DIMTSZ
 40
0.0
  9
$DIMTOL
 70
     0
  9
$DIMLIM
 70
     0
  9
$DIMTIH
 70
     1
  9
$DIMTOH
 70
     1
  9
$DIMSE1
 70
     0
  9
$DIMSE2
 70
     0
  9
$DIMTAD
 70
     1
  9
$DIMZIN
 70
     0
  9
$DIMBLK
  1

  9
$DIMASO
 70
     1
  9
$DIMSHO
 70
     1
  9
$DIMPOST
  1

  9
$DIMAPOST
  1

  9
$DIMALT
 70
     0
  9
$DIMALTD
 70
     3
  9
$DIMALTF
 40
0.0393700787
  9
$DIMLFAC
 40
1.0
  9
$DIMTOFL
 70
     1
  9
$DIMTVP
 40
0.0
  9
$DIMTIX
 70
     0
  9
$DIMSOXD
 70
     0
  9
$DIMSAH
 70
     0
  9
$DIMBLK1
  1

  9
$DIMBLK2
  1

  9
$DIMSTYLE
  2
ISO-25
  9
$DIMCLRD
 70
     0
  9
$DIMCLRE
 70
     0
  9
$DIMCLRT
 70
     0
  9
$DIMTFAC
 40
1.0
  9
$DIMGAP
 40
1.524
  9
$DIMJUST
 70
     0
  9
$DIMSD1
 70
     0
  9
$DIMSD2
 70
     0
  9
$DIMTOLJ
 70
     0
  9
$DIMTZIN
 70
     0
  9
$DIMALTZ
 70
     0
  9
$DIMALTTZ
 70
     0
  9
$DIMUPT
 70
     0
  9
$DIMDEC
 70
     2
  9
$DIMTDEC
 70
     3
  9
$DIMALTU
 70
     2
  9
$DIMALTTD
 70
     3
  9
$DIMTXSTY
  7
Standard
  9
$DIMAUNIT
 70
     0
  9
$DIMADEC
 70
     2
  9
$DIMALTRND
 40
0.0
  9
$DIMAZIN
 70
     0
  9
$DIMDSEP
 70
    44
  9
$DIMATFIT
 70
     3
  9
$DIMFRAC
 70
     0
  9
$DIMLDRBLK
  1

  9
$DIMLUNIT
 70
     2
  9
$DIMLWD
 70
    -2
  9
$DIMLWE
 70
    -2
  9
$DIMTMOVE
 70
     0
  9
$LUNITS
 70
     2
  9
$LUPREC
 70
     2
  9
$SKETCHINC
 40
1.0
  9
$FILLETRAD
 40
10.0
  9
$AUNITS
 70
     0
  9
$AUPREC
 70
     2
  9
$MENU
  1
.
  9
$ELEVATION
 40
0.0
  9
$PELEVATION
 40
0.0
  9
$THICKNESS
 40
0.0
  9
$LIMCHECK
 70
     0
  9
$CHAMFERA
 40
10.0
  9
$CHAMFERB
 40
10.0
  9
$CHAMFERC
 40
20.0
  9
$CHAMFERD
 40
0.0
  9
$SKPOLY
 70
     0
  9
$TDCREATE
 40
2455680.381666308
  9
$TDUCREATE
 40
2455680.298332974
  9
$TDUPDATE
 40
2455680.381666319
  9
$TDUUPDATE
 40
2455680.298332986
  9
$TDINDWG
 40
0.0000000116
  9
$TDUSRTIMER
 40
0.0000000116
  9
$USRTIMER
 70
     1
  9
$ANGBASE
 50
0.0
  9
$ANGDIR
 70
     0
  9
$PDMODE
 70
     0
  9
$PDSIZE
 40
-1.0
  9
$PLINEWID
 40
0.0
  9
$SPLFRAME
 70
     0
  9
$SPLINETYPE
 70
     6
  9
$SPLINESEGS
 70
     8
  9
$HANDSEED
  5
23B
  9
$SURFTAB1
 70
     6
  9
$SURFTAB2
 70
     6
  9
$SURFTYPE
 70
     6
  9
$SURFU
 70
     6
  9
$SURFV
 70
     6
  9
$UCSBASE
  2

  9
$UCSNAME
  2

  9
$UCSORG
 10
0.0
 20
0.0
 30
0.0
  9
$UCSXDIR
 10
1.0
 20
0.0
 30
0.0
  9
$UCSYDIR
 10
0.0
 20
1.0
 30
0.0
  9
$UCSORTHOREF
  2

  9
$UCSORTHOVIEW
 70
     0
  9
$UCSORGTOP
 10
0.0
 20
0.0
 30
0.0
  9
$UCSORGBOTTOM
 10
0.0
 20
0.0
 30
0.0
  9
$UCSORGLEFT
 10
0.0
 20
0.0
 30
0.0
  9
$UCSORGRIGHT
 10
0.0
 20
0.0
 30
0.0
  9
$UCSORGFRONT
 10
0.0
 20
0.0
 30
0.0
  9
$UCSORGBACK
 10
0.0
 20
0.0
 30
0.0
  9
$PUCSBASE
  2

  9
$PUCSNAME
  2

  9
$PUCSORG
 10
0.0
 20
0.0
 30
0.0
  9
$PUCSXDIR
 10
1.0
 20
0.0
 30
0.0
  9
$PUCSYDIR
 10
0.0
 20
1.0
 30
0.0
  9
$PUCSORTHOREF
  2

  9
$PUCSORTHOVIEW
 70
     0
  9
$PUCSORGTOP
 10
0.0
 20
0.0
 30
0.0
  9
$PUCSORGBOTTOM
 10
0.0
 20
0.0
 30
0.0
  9
$PUCSORGLEFT
 10
0.0
 20
0.0
 30
0.0
  9
$PUCSORGRIGHT
 10
0.0
 20
0.0
 30
0.0
  9
$PUCSORGFRONT
 10
0.0
 20
0.0
 30
0.0
  9
$PUCSORGBACK
 10
0.0
 20
0.0
 30
0.0
  9
$USERI1
 70
     0
  9
$USERI2
 70
     0
  9
$USERI3
 70
     0
  9
$USERI4
 70
     0
  9
$USERI5
 70
     0
  9
$USERR1
 40
0.0
  9
$USERR2
 40
0.0
  9
$USERR3
 40
0.0
  9
$USERR4
 40
0.0
  9
$USERR5
 40
0.0
  9
$WORLDVIEW
 70
     1
  9
$SHADEDGE
 70
     3
  9
$SHADEDIF
 70
    70
  9
$TILEMODE
 70
     1
  9
$MAXACTVP
 70
    64
  9
$PINSBASE
 10
0.0
 20
0.0
 30
0.0
  9
$PLIMCHECK
 70
     0
  9
$PEXTMIN
 10
1.0000000000E+20
 20
1.0000000000E+20
 30
1.0000000000E+20
  9
$PEXTMAX
 10
-1.0000000000E+20
 20
-1.0000000000E+20
 30
-1.0000000000E+20
  9
$PLIMMIN
 10
0.0
 20
0.0
  9
$PLIMMAX
 10
420.0
 20
297.0
  9
$UNITMODE
 70
     0
  9
$VISRETAIN
 70
     1
  9
$PLINEGEN
 70
     0
  9
$PSLTSCALE
 70
     1
  9
$TREEDEPTH
 70
  3020
  9
$CMLSTYLE
  2
Standard
  9
$CMLJUST
 70
     0
  9
$CMLSCALE
 40
20.0
  9
$PROXYGRAPHICS
 70
     1
  9
$MEASUREMENT
 70
     1
  9
$CELWEIGHT
370
    -1
  9
$ENDCAPS
280
     0
  9
$JOINSTYLE
280
     0
  9
$LWDISPLAY
290
     1
  9
$INSUNITS
 70
     4
  9
$HYPERLINKBASE
  1

  9
$STYLESHEET
  1

  9
$XEDIT
290
     1
  9
$CEPSNTYPE
380
     0
  9
$PSTYLEMODE
290
     1
  9
$FINGERPRINTGUID
  2
{187C15B7-7703-4829-8679-FAE60EE17370}
  9
$VERSIONGUID
  2
{FAEB1C32-E019-11D5-929B-00C0DF256EC4}
  9
$EXTNAMES
290
     1
  9
$PSVPSCALE
 40
0.0
  9
$OLESTARTUP
290
     0
  0
ENDSEC
  0
SECTION
  2
CLASSES
  0
CLASS
  1
ACDBDICTIONARYWDFLT
  2
AcDbDictionaryWithDefault
  3
ObjectDBX Classes
 90
        0
280
     0
281
     0
  0
CLASS
  1
VISUALSTYLE
  2
AcDbVisualStyle
  3
ObjectDBX Classes
 90
     4095
280
     0
281
     0
  0
CLASS
  1
DICTIONARYVAR
  2
AcDbDictionaryVar
  3
ObjectDBX Classes
 90
        0
280
     0
281
     0
  0
CLASS
  1
ACDBPLACEHOLDER
  2
AcDbPlaceHolder
  3
ObjectDBX Classes
 90
        0
280
     0
281
     0
  0
CLASS
  1
LAYOUT
  2
AcDbLayout
  3
ObjectDBX Classes
 90
        0
280
     0
281
     0
  0
ENDSEC
  0
SECTION
  2
TABLES
  0
TABLE
  2
VPORT
  5
8
330
0
100
AcDbSymbolTable
 70
     1
  0
VPORT
  5
29
330
8
100
AcDbSymbolTableRecord
100
AcDbViewportTableRecord
  2
*Active
 70
     0
 10
0.0
 20
0.0
 11
1.0
 21
1.0
 12
148.5
 22
105.0
 13
0.0
 23
0.0
 14
10.0
 24
10.0
 15
10.0
 25
10.0
 16
0.0
 26
0.0
 36
1.0
 17
0.0
 27
0.0
 37
0.0
 40
210.0
 41
1.4142857143
 42
50.0
 43
0.0
 44
0.0
 50
0.0
 51
0.0
 71
     0
 72
  2000
 73
     1
 74
     3
 75
     0
 76
     0
 77
     0
 78
     0
281
     0
 65
     1
110
0.0
120
0.0
130
0.0
111
1.0
121
0.0
131
0.0
112
0.0
122
1.0
132
0.0
 79
     0
146
0.0
  0
ENDTAB
  0
TABLE
  2
LTYPE
  5
5
330
0
100
AcDbSymbolTable
 70
     6
  0
LTYPE
  5
14
330
5
100
AcDbSymbolTableRecord
100
AcDbLinetypeTableRecord
  2
ByBlock
 70
     0
  3

 72
    65
 73
     0
 40
0.0
  0
LTYPE
  5
15
330
5
100
AcDbSymbolTableRecord
100
AcDbLinetypeTableRecord
  2
ByLayer
 70
     0
  3

 72
    65
 73
     0
 40
0.0
  0
LTYPE
  5
16
330
5
100
AcDbSymbolTableRecord
100
AcDbLinetypeTableRecord
  2
Continuous
 70
     0
  3
Solid line
 72
    65
 73
     0
 40
0.0
  0
LTYPE
  5
3B
330
5
100
AcDbSymbolTableRecord
100
AcDbLinetypeTableRecord
  2
HIDDEN
 70
     0
  3
Hidden __ __ __ __ __ __ __ __ __ __ __ __ __ __
 72
    65
 73
     2
 40
1.905
 49
1.27
 74
     0
 49
-0.635
 74
     0
  0
LTYPE
  5
3C
330
5
100
AcDbSymbolTableRecord
100
AcDbLinetypeTableRecord
  2
PHANTOM
 70
     0
  3
Phantom ______  __  __  ______  __  __  ______
 72
    65
 73
     6
 40
12.7
 49
6.35
 74
     0
 49
-1.27
 74
     0
 49
1.27
 74
     0
 49
-1.27
 74
     0
 49
1.27
 74
     0
 49
-1.27
 74
     0
  0
LTYPE
  5
3D
330
5
100
AcDbSymbolTableRecord
100
AcDbLinetypeTableRecord
  2
CENTER
 70
     0
  3
Center ____ _ ____ _ ____ _ ____ _ ____ _ ____
 72
    65
 73
     4
 40
10.16
 49
6.35
 74
     0
 49
-1.27
 74
     0
 49
1.27
 74
     0
 49
-1.27
 74
     0
  0
LTYPE
  5
3E
330
5
100
AcDbSymbolTableRecord
100
AcDbLinetypeTableRecord
  2
CENTERX2
 70
     0
  3
Center (2x) ________  __  ________  __  _____
 72
    65
 73
     4
 40
20.32
 49
12.7
 74
     0
 49
-2.54
 74
     0
 49
2.54
 74
     0
 49
-2.54
 74
     0
  0
LTYPE
  5
3F
330
5
100
AcDbSymbolTableRecord
100
AcDbLinetypeTableRecord
  2
DOT2
 70
     0
  3
Dot (.5x) ........................................
 72
    65
 73
     2
 40
0.635
 49
0.0
 74
     0
 49
-0.635
 74
     0
  0
ENDTAB
  0
TABLE
  2
LAYER
  5
2
330
0
100
AcDbSymbolTable
 70
     5
  0
LAYER
  5
10
330
2
100
AcDbSymbolTableRecord
100
AcDbLayerTableRecord
  2
0
 70
     0
 62
     7
  6
Continuous
370
    -3
390
F
  0
LAYER
  5
40
330
2
100
AcDbSymbolTableRecord
100
AcDbLayerTableRecord
  2
FORMAT
 70
     0
 62
     7
  6
Continuous
370
    -3
390
F
  0
LAYER
  5
41
330
2
100
AcDbSymbolTableRecord
100
AcDbLayerTableRecord
  2
VERMASSUNG
 70
     0
 62
     7
  6
Continuous
370
    -3
390
F
  0
LAYER
  5
42
330
2
100
AcDbSymbolTableRecord
100
AcDbLayerTableRecord
  2
KOPF_DÜNN
 70
     0
 62
     7
  6
Continuous
370
    -3
390
F
  0
LAYER
  5
43
330
2
100
AcDbSymbolTableRecord
100
AcDbLayerTableRecord
  2
KOPF_DICK
 70
     0
 62
     7
  6
Continuous
370
    15
390
F
  0
ENDTAB
  0
TABLE
  2
STYLE
  5
3
330
0
100
AcDbSymbolTable
 70
     3
  0
STYLE
  5
11
330
3
100
AcDbSymbolTableRecord
100
AcDbTextStyleTableRecord
  2
Standard
 70
     0
 40
0.0
 41
1.0
 50
0.0
 71
     0
 42
2.5
  3
txt
  4

  0
STYLE
  5
44
330
3
100
AcDbSymbolTableRecord
100
AcDbTextStyleTableRecord
  2
SLDTEXTSTYLE0
 70
     0
 40
0.0
 41
0.7
 50
0.0
 71
     0
 42
0.2
  3
TXT
  4

  0
STYLE
  5
48
330
3
100
AcDbSymbolTableRecord
100
AcDbTextStyleTableRecord
  2
SLDTEXTSTYLE1
 70
     0
 40
0.0
 41
0.6473684211
 50
0.0
 71
     0
 42
0.2
  3
TXT
  4

  0
ENDTAB
  0
TABLE
  2
VIEW
  5
6
330
0
100
AcDbSymbolTable
 70
     0
  0
ENDTAB
  0
TABLE
  2
UCS
  5
7
330
0
100
AcDbSymbolTable
 70
     0
  0
ENDTAB
  0
TABLE
  2
APPID
  5
9
330
0
100
AcDbSymbolTable
 70
     1
  0
APPID
  5
12
330
9
100
AcDbSymbolTableRecord
100
AcDbRegAppTableRecord
  2
ACAD
 70
     0
  0
ENDTAB
  0
TABLE
  2
DIMSTYLE
  5
A
330
0
100
AcDbSymbolTable
 70
     5
100
AcDbDimStyleTable
  0
DIMSTYLE
105
27
330
A
100
AcDbSymbolTableRecord
100
AcDbDimStyleTableRecord
  2
ISO-25
 70
     0
 41
2.5
 42
0.625
 43
3.75
 44
1.25
 73
     0
 74
     0
 77
     1
 78
     8
140
2.5
141
2.5
143
0.0393700787
147
0.625
171
     3
172
     1
271
     2
272
     2
274
     3
278
    44
283
     0
284
     8
340
11
  0
DIMSTYLE
105
1DC
102
{ACAD_REACTORS
330
1DB
330
216
330
220
330
22A
102
}
330
A
100
AcDbSymbolTableRecord
100
AcDbDimStyleTableRecord
  2
SLDDIMSTYLE0
 70
     0
 41
3.0
 44
0.0
 45
0.000000001
 73
     0
 74
     0
 77
     1
 78
    12
140
2.0
147
0.5
173
     1
271
     2
272
     3
284
    12
340
44
  0
DIMSTYLE
105
1E9
102
{ACAD_REACTORS
330
1E8
102
}
330
A
100
AcDbSymbolTableRecord
100
AcDbDimStyleTableRecord
  2
SLDDIMSTYLE1
 70
     0
 41
3.0
 44
0.0
 45
0.000000001
 73
     0
 74
     0
 77
     1
 78
    12
140
2.0
147
0.5
173
     1
271
     2
272
     2
284
    12
340
44
  0
DIMSTYLE
105
1F4
102
{ACAD_REACTORS
330
1F3
102
}
330
A
100
AcDbSymbolTableRecord
100
AcDbDimStyleTableRecord
  2
SLDDIMSTYLE2
 70
     0
 41
3.0
 44
0.0
 45
0.000000001
 73
     0
 74
     0
 77
     1
 78
    12
140
2.0
147
0.5
173
     1
271
     2
272
     2
284
    12
340
44
  0
DIMSTYLE
105
200
102
{ACAD_REACTORS
330
1FF
330
20B
102
}
330
A
100
AcDbSymbolTableRecord
100
AcDbDimStyleTableRecord
  2
SLDDIMSTYLE3
 70
     0
 41
3.0
 44
0.0
 45
0.000000001
 73
     0
 74
     0
 77
     1
 78
    12
140
2.0
147
0.5
173
     1
271
     2
272
     3
284
    12
340
44
  0
ENDTAB
  0
TABLE
  2
BLOCK_RECORD
  5
1
330
0
100
AcDbSymbolTable
 70
     9
  0
BLOCK_RECORD
  5
1F
330
1
100
AcDbSymbolTableRecord
100
AcDbBlockTableRecord
  2
*Model_Space
340
22
  0
BLOCK_RECORD
  5
1B
330
1
100
AcDbSymbolTableRecord
100
AcDbBlockTableRecord
  2
*Paper_Space
340
1E
  0
BLOCK_RECORD
  5
23
330
1
100
AcDbSymbolTableRecord
100
AcDbBlockTableRecord
  2
*Paper_Space0
340
26
  0
BLOCK_RECORD
  5
1DD
330
1
100
AcDbSymbolTableRecord
100
AcDbBlockTableRecord
  2
*D1
340
0
  0
BLOCK_RECORD
  5
1EA
330
1
100
AcDbSymbolTableRecord
100
AcDbBlockTableRecord
  2
*D2
340
0
  0
BLOCK_RECORD
  5
1F5
330
1
100
AcDbSymbolTableRecord
100
AcDbBlockTableRecord
  2
*D3
340
0
  0
BLOCK_RECORD
  5
201
330
1
100
AcDbSymbolTableRecord
100
AcDbBlockTableRecord
  2
*D4
340
0
  0
BLOCK_RECORD
  5
20C
330
1
100
AcDbSymbolTableRecord
100
AcDbBlockTableRecord
  2
*D5
340
0
  0
BLOCK_RECORD
  5
217
330
1
100
AcDbSymbolTableRecord
100
AcDbBlockTableRecord
  2
*D6
340
0
  0
BLOCK_RECORD
  5
221
330
1
100
AcDbSymbolTableRecord
100
AcDbBlockTableRecord
  2
*D7
340
0
  0
BLOCK_RECORD
  5
22B
330
1
100
AcDbSymbolTableRecord
100
AcDbBlockTableRecord
  2
*D8
340
0
  0
ENDTAB
  0
ENDSEC
  0
SECTION
  2
BLOCKS
  0
BLOCK
  5
20
330
1F
100
AcDbEntity
  8
0
100
AcDbBlockBegin
  2
*Model_Space
 70
     0
 10
0.0
 20
0.0
 30
0.0
  3
*Model_Space
  1

  0
ENDBLK
  5
21
330
1F
100
AcDbEntity
  8
0
100
AcDbBlockEnd
  0
BLOCK
  5
1C
330
1B
100
AcDbEntity
 67
     1
  8
0
100
AcDbBlockBegin
  2
*Paper_Space
 70
     0
 10
0.0
 20
0.0
 30
0.0
  3
*Paper_Space
  1

  0
ENDBLK
  5
1D
330
1B
100
AcDbEntity
 67
     1
  8
0
100
AcDbBlockEnd
  0
BLOCK
  5
24
330
23
100
AcDbEntity
  8
0
100
AcDbBlockBegin
  2
*Paper_Space0
 70
     0
 10
0.0
 20
0.0
 30
0.0
  3
*Paper_Space0
  1

  0
ENDBLK
  5
25
330
23
100
AcDbEntity
  8
0
100
AcDbBlockEnd
  0
BLOCK
  5
1DE
330
1DD
100
AcDbEntity
  8
0
100
AcDbBlockBegin
  2
*D1
 70
     1
 10
0.0
 20
0.0
 30
0.0
  3
*D1
  1

  0
SOLID
  5
1E0
330
1DD
100
AcDbEntity
  8
VERMASSUNG
100
AcDbTrace
 10
62.4022751896
 20
138.0084507042
 30
0.0
 11
61.9522751896
 21
135.0084507042
 31
0.0
 12
62.8522751896
 22
135.0084507042
 32
0.0
 13
62.8522751896
 23
135.0084507042
 33
0.0
  0
SOLID
  5
1E1
330
1DD
100
AcDbEntity
  8
VERMASSUNG
100
AcDbTrace
 10
62.4022751896
 20
75.0084507042
 30
0.0
 11
62.8522751896
 21
78.0084507042
 31
0.0
 12
61.9522751896
 22
78.0084507042
 32
0.0
 13
61.9522751896
 23
78.0084507042
 33
0.0
  0
LINE
  5
1E2
330
1DD
100
AcDbEntity
  8
VERMASSUNG
100
AcDbLine
 10
99.0714990437
 20
138.0084507042
 30
0.0
 11
61.4022751896
 21
138.0084507042
 31
0.0
  0
LINE
  5
1E3
330
1DD
100
AcDbEntity
  8
VERMASSUNG
100
AcDbLine
 10
99.0714990437
 20
75.0084507042
 30
0.0
 11
61.4022751896
 21
75.0084507042
 31
0.0
  0
LINE
  5
1E4
330
1DD
100
AcDbEntity
  8
VERMASSUNG
100
AcDbLine
 10
62.4022751896
 20
138.0084507042
 30
0.0
 11
62.4022751896
 21
75.0084507042
 31
0.0
  0
MTEXT
  5
1E5
330
1DD
100
AcDbEntity
  8
VERMASSUNG
100
AcDbMText
 10
59.6241397006
 20
98.8049089924
 30
0.0
 40
2.0
 41
0.0
 71
     1
 72
     1
  1
HSK A 
  7
SLDTEXTSTYLE0
 11
-7.044195017643634E-15
 21
1.0
 31
0.0
 73
     1
 44
1.0
  0
MTEXT
  5
1E6
330
1DD
100
AcDbEntity
  8
VERMASSUNG
100
AcDbMText
 10
59.8241397101
 20
107.8049095363
 30
0.0
 40
2.0
 41
0.0
 71
     1
 72
     1
  1
%%c
  7
SLDTEXTSTYLE0
 11
-7.044195017643634E-15
 21
1.0
 31
0.0
 73
     1
 44
1.0
  0
MTEXT
  5
1E7
330
1DD
100
AcDbEntity
  8
VERMASSUNG
100
AcDbMText
 10
59.8241398265
 20
111.4132361863
 30
0.0
 40
2.0
 41
0.0
 71
     1
 72
     1
  1
63
  7
SLDTEXTSTYLE0
 11
-7.044195017643634E-15
 21
1.0
 31
0.0
 73
     1
 44
1.0
  0
ENDBLK
  5
1DF
330
1DD
100
AcDbEntity
  8
0
100
AcDbBlockEnd
  0
BLOCK
  5
1EB
330
1EA
100
AcDbEntity
  8
0
100
AcDbBlockBegin
  2
*D2
 70
     1
 10
0.0
 20
0.0
 30
0.0
  3
*D2
  1

  0
SOLID
  5
1ED
330
1EA
100
AcDbEntity
  8
VERMASSUNG
100
AcDbTrace
 10
177.2714990437
 20
136.6774647887
 30
0.0
 11
180.2714990437
 21
136.2274647887
 31
0.0
 12
180.2714990437
 22
137.1274647887
 32
0.0
 13
180.2714990437
 23
137.1274647887
 33
0.0
  0
SOLID
  5
1EE
330
1EA
100
AcDbEntity
  8
VERMASSUNG
100
AcDbTrace
 10
228.7714990437
 20
136.6774647887
 30
0.0
 11
225.7714990437
 21
137.1274647887
 31
0.0
 12
225.7714990437
 22
136.2274647887
 32
0.0
 13
225.7714990437
 23
136.2274647887
 33
0.0
  0
LINE
  5
1EF
330
1EA
100
AcDbEntity
  8
VERMASSUNG
100
AcDbLine
 10
177.2714990437
 20
116.4084507042
 30
0.0
 11
177.2714990437
 21
137.6774647887
 31
0.0
  0
LINE
  5
1F0
330
1EA
100
AcDbEntity
  8
VERMASSUNG
100
AcDbLine
 10
228.7714990437
 20
121.1596697209
 30
0.0
 11
228.7714990437
 21
137.6774647887
 31
0.0
  0
LINE
  5
1F1
330
1EA
100
AcDbEntity
  8
VERMASSUNG
100
AcDbLine
 10
177.2714990437
 20
136.6774647887
 30
0.0
 11
228.7714990437
 21
136.6774647887
 31
0.0
  0
MTEXT
  5
1F2
330
1EA
100
AcDbEntity
  8
VERMASSUNG
100
AcDbMText
 10
200.8226420556
 20
139.2556001519
 30
0.0
 40
2.0
 41
0.0
 71
     1
 72
     1
  1
51.5
  7
SLDTEXTSTYLE0
 73
     1
 44
1.0
  0
ENDBLK
  5
1EC
330
1EA
100
AcDbEntity
  8
0
100
AcDbBlockEnd
  0
BLOCK
  5
1F6
330
1F5
100
AcDbEntity
  8
0
100
AcDbBlockBegin
  2
*D3
 70
     1
 10
0.0
 20
0.0
 30
0.0
  3
*D3
  1

  0
SOLID
  5
1F8
330
1F5
100
AcDbEntity
  8
VERMASSUNG
100
AcDbTrace
 10
236.7539544962
 20
96.5084507042
 30
0.0
 11
237.2039544962
 21
99.5084507042
 31
0.0
 12
236.3039544962
 22
99.5084507042
 32
0.0
 13
236.3039544962
 23
99.5084507042
 33
0.0
  0
SOLID
  5
1F9
330
1F5
100
AcDbEntity
  8
VERMASSUNG
100
AcDbTrace
 10
236.7539544962
 20
116.5084507042
 30
0.0
 11
236.3039544962
 21
113.5084507042
 31
0.0
 12
237.2039544962
 22
113.5084507042
 32
0.0
 13
237.2039544962
 23
113.5084507042
 33
0.0
  0
LINE
  5
1FA
330
1F5
100
AcDbEntity
  8
VERMASSUNG
100
AcDbLine
 10
225.2714990437
 20
96.5084507042
 30
0.0
 11
237.7539544962
 21
96.5084507042
 31
0.0
  0
LINE
  5
1FB
330
1F5
100
AcDbEntity
  8
VERMASSUNG
100
AcDbLine
 10
225.2714990437
 20
116.5084507042
 30
0.0
 11
237.7539544962
 21
116.5084507042
 31
0.0
  0
LINE
  5
1FC
330
1F5
100
AcDbEntity
  8
VERMASSUNG
100
AcDbLine
 10
236.7539544962
 20
96.5084507042
 30
0.0
 11
236.7539544962
 21
116.5084507042
 31
0.0
  0
MTEXT
  5
1FD
330
1F5
100
AcDbEntity
  8
VERMASSUNG
100
AcDbMText
 10
234.1758190167
 20
103.3047334778
 30
0.0
 40
2.0
 41
0.0
 71
     1
 72
     1
  1
%%c
  7
SLDTEXTSTYLE0
 11
6.123233995736766E-17
 21
1.0
 31
0.0
 73
     1
 44
1.0
  0
MTEXT
  5
1FE
330
1F5
100
AcDbEntity
  8
VERMASSUNG
100
AcDbMText
 10
234.1758191331
 20
106.913411701
 30
0.0
 40
2.0
 41
0.0
 71
     1
 72
     1
  1
20
  7
SLDTEXTSTYLE0
 11
6.123233995736766E-17
 21
1.0
 31
0.0
 73
     1
 44
1.0
  0
ENDBLK
  5
1F7
330
1F5
100
AcDbEntity
  8
0
100
AcDbBlockEnd
  0
BLOCK
  5
202
330
201
100
AcDbEntity
  8
0
100
AcDbBlockBegin
  2
*D4
 70
     1
 10
0.0
 20
0.0
 30
0.0
  3
*D4
  1

  0
SOLID
  5
204
330
201
100
AcDbEntity
  8
VERMASSUNG
100
AcDbTrace
 10
242.7539544962
 20
90.0084507042
 30
0.0
 11
243.2039544962
 21
93.0084507042
 31
0.0
 12
242.3039544962
 22
93.0084507042
 32
0.0
 13
242.3039544962
 23
93.0084507042
 33
0.0
  0
SOLID
  5
205
330
201
100
AcDbEntity
  8
VERMASSUNG
100
AcDbTrace
 10
242.7539544962
 20
123.0084507042
 30
0.0
 11
242.3039544962
 21
120.0084507042
 31
0.0
 12
243.2039544962
 22
120.0084507042
 32
0.0
 13
243.2039544962
 23
120.0084507042
 33
0.0
  0
LINE
  5
206
330
201
100
AcDbEntity
  8
VERMASSUNG
100
AcDbLine
 10
228.7714990437
 20
90.0084507042
 30
0.0
 11
243.7539544962
 21
90.0084507042
 31
0.0
  0
LINE
  5
207
330
201
100
AcDbEntity
  8
VERMASSUNG
100
AcDbLine
 10
228.7714990437
 20
123.0084507042
 30
0.0
 11
243.7539544962
 21
123.0084507042
 31
0.0
  0
LINE
  5
208
330
201
100
AcDbEntity
  8
VERMASSUNG
100
AcDbLine
 10
242.7539544962
 20
90.0084507042
 30
0.0
 11
242.7539544962
 21
123.0084507042
 31
0.0
  0
MTEXT
  5
209
330
201
100
AcDbEntity
  8
VERMASSUNG
100
AcDbMText
 10
240.1758190167
 20
103.3047334778
 30
0.0
 40
2.0
 41
0.0
 71
     1
 72
     1
  1
%%c
  7
SLDTEXTSTYLE0
 11
6.123233995736766E-17
 21
1.0
 31
0.0
 73
     1
 44
1.0
  0
MTEXT
  5
20A
330
201
100
AcDbEntity
  8
VERMASSUNG
100
AcDbMText
 10
240.1758191331
 20
106.913411701
 30
0.0
 40
2.0
 41
0.0
 71
     1
 72
     1
  1
33
  7
SLDTEXTSTYLE0
 11
6.123233995736766E-17
 21
1.0
 31
0.0
 73
     1
 44
1.0
  0
ENDBLK
  5
203
330
201
100
AcDbEntity
  8
0
100
AcDbBlockEnd
  0
BLOCK
  5
20D
330
20C
100
AcDbEntity
  8
0
100
AcDbBlockBegin
  2
*D5
 70
     1
 10
0.0
 20
0.0
 30
0.0
  3
*D5
  1

  0
SOLID
  5
20F
330
20C
100
AcDbEntity
  8
VERMASSUNG
100
AcDbTrace
 10
248.7539544962
 20
86.0084507042
 30
0.0
 11
249.2039544962
 21
89.0084507042
 31
0.0
 12
248.3039544962
 22
89.0084507042
 32
0.0
 13
248.3039544962
 23
89.0084507042
 33
0.0
  0
SOLID
  5
210
330
20C
100
AcDbEntity
  8
VERMASSUNG
100
AcDbTrace
 10
248.7539544962
 20
127.0084507042
 30
0.0
 11
248.3039544962
 21
124.0084507042
 31
0.0
 12
249.2039544962
 22
124.0084507042
 32
0.0
 13
249.2039544962
 23
124.0084507042
 33
0.0
  0
LINE
  5
211
330
20C
100
AcDbEntity
  8
VERMASSUNG
100
AcDbLine
 10
168.7714990437
 20
86.0084507042
 30
0.0
 11
249.7539544962
 21
86.0084507042
 31
0.0
  0
LINE
  5
212
330
20C
100
AcDbEntity
  8
VERMASSUNG
100
AcDbLine
 10
168.7714990437
 20
127.0084507042
 30
0.0
 11
249.7539544962
 21
127.0084507042
 31
0.0
  0
LINE
  5
213
330
20C
100
AcDbEntity
  8
VERMASSUNG
100
AcDbLine
 10
248.7539544962
 20
86.0084507042
 30
0.0
 11
248.7539544962
 21
127.0084507042
 31
0.0
  0
MTEXT
  5
214
330
20C
100
AcDbEntity
  8
VERMASSUNG
100
AcDbMText
 10
246.1758190167
 20
103.4045232936
 30
0.0
 40
2.0
 41
0.0
 71
     1
 72
     1
  1
%%c
  7
SLDTEXTSTYLE0
 11
6.123233995736766E-17
 21
1.0
 31
0.0
 73
     1
 44
1.0
  0
MTEXT
  5
215
330
20C
100
AcDbEntity
  8
VERMASSUNG
100
AcDbMText
 10
246.1758191331
 20
107.0132015168
 30
0.0
 40
2.0
 41
0.0
 71
     1
 72
     1
  1
41
  7
SLDTEXTSTYLE0
 11
6.123233995736766E-17
 21
1.0
 31
0.0
 73
     1
 44
1.0
  0
ENDBLK
  5
20E
330
20C
100
AcDbEntity
  8
0
100
AcDbBlockEnd
  0
BLOCK
  5
218
330
217
100
AcDbEntity
  8
0
100
AcDbBlockBegin
  2
*D6
 70
     1
 10
0.0
 20
0.0
 30
0.0
  3
*D6
  1

  0
SOLID
  5
21A
330
217
100
AcDbEntity
  8
VERMASSUNG
100
AcDbTrace
 10
98.7714990437
 20
148.6774647887
 30
0.0
 11
101.7714990437
 21
148.2274647887
 31
0.0
 12
101.7714990437
 22
149.1274647887
 32
0.0
 13
101.7714990437
 23
149.1274647887
 33
0.0
  0
SOLID
  5
21B
330
217
100
AcDbEntity
  8
VERMASSUNG
100
AcDbTrace
 10
228.7714990437
 20
148.6774647887
 30
0.0
 11
225.7714990437
 21
149.1274647887
 31
0.0
 12
225.7714990437
 22
148.2274647887
 32
0.0
 13
225.7714990437
 23
148.2274647887
 33
0.0
  0
LINE
  5
21C
330
217
100
AcDbEntity
  8
VERMASSUNG
100
AcDbLine
 10
98.7714990437
 20
137.7084507042
 30
0.0
 11
98.7714990437
 21
149.6774647887
 31
0.0
  0
LINE
  5
21D
330
217
100
AcDbEntity
  8
VERMASSUNG
100
AcDbLine
 10
228.7714990437
 20
121.1596697209
 30
0.0
 11
228.7714990437
 21
149.6774647887
 31
0.0
  0
LINE
  5
21E
330
217
100
AcDbEntity
  8
VERMASSUNG
100
AcDbLine
 10
98.7714990437
 20
148.6774647887
 30
0.0
 11
228.7714990437
 21
148.6774647887
 31
0.0
  0
MTEXT
  5
21F
330
217
100
AcDbEntity
  8
VERMASSUNG
100
AcDbMText
 10
161.872011503
 20
151.2556001519
 30
0.0
 40
2.0
 41
0.0
 71
     1
 72
     1
  1
130
  7
SLDTEXTSTYLE0
 73
     1
 44
1.0
  0
ENDBLK
  5
219
330
217
100
AcDbEntity
  8
0
100
AcDbBlockEnd
  0
BLOCK
  5
222
330
221
100
AcDbEntity
  8
0
100
AcDbBlockBegin
  2
*D7
 70
     1
 10
0.0
 20
0.0
 30
0.0
  3
*D7
  1

  0
SOLID
  5
224
330
221
100
AcDbEntity
  8
VERMASSUNG
100
AcDbTrace
 10
124.7214990437
 20
142.6774647887
 30
0.0
 11
127.7214990437
 21
142.2274647887
 31
0.0
 12
127.7214990437
 22
143.1274647887
 32
0.0
 13
127.7214990437
 23
143.1274647887
 33
0.0
  0
SOLID
  5
225
330
221
100
AcDbEntity
  8
VERMASSUNG
100
AcDbTrace
 10
228.7714990437
 20
142.6774647887
 30
0.0
 11
225.7714990437
 21
143.1274647887
 31
0.0
 12
225.7714990437
 22
142.2274647887
 32
0.0
 13
225.7714990437
 23
142.2274647887
 33
0.0
  0
LINE
  5
226
330
221
100
AcDbEntity
  8
VERMASSUNG
100
AcDbLine
 10
124.7214990437
 20
136.354891028
 30
0.0
 11
124.7214990437
 21
143.6774647887
 31
0.0
  0
LINE
  5
227
330
221
100
AcDbEntity
  8
VERMASSUNG
100
AcDbLine
 10
228.7714990437
 20
121.1596697209
 30
0.0
 11
228.7714990437
 21
143.6774647887
 31
0.0
  0
LINE
  5
228
330
221
100
AcDbEntity
  8
VERMASSUNG
100
AcDbLine
 10
124.7214990437
 20
142.6774647887
 30
0.0
 11
228.7714990437
 21
142.6774647887
 31
0.0
  0
MTEXT
  5
229
330
221
100
AcDbEntity
  8
VERMASSUNG
100
AcDbMText
 10
173.0473137782
 20
145.2556001519
 30
0.0
 40
2.0
 41
0.0
 71
     1
 72
     1
  1
104.05
  7
SLDTEXTSTYLE0
 73
     1
 44
1.0
  0
ENDBLK
  5
223
330
221
100
AcDbEntity
  8
0
100
AcDbBlockEnd
  0
BLOCK
  5
22C
330
22B
100
AcDbEntity
  8
0
100
AcDbBlockBegin
  2
*D8
 70
     1
 10
0.0
 20
0.0
 30
0.0
  3
*D8
  1

  0
SOLID
  5
22E
330
22B
100
AcDbEntity
  8
VERMASSUNG
100
AcDbTrace
 10
66.8714990437
 20
154.6774647887
 30
0.0
 11
69.8714990437
 21
154.2274647887
 31
0.0
 12
69.8714990437
 22
155.1274647887
 32
0.0
 13
69.8714990437
 23
155.1274647887
 33
0.0
  0
SOLID
  5
22F
330
22B
100
AcDbEntity
  8
VERMASSUNG
100
AcDbTrace
 10
228.7714990437
 20
154.6774647887
 30
0.0
 11
225.7714990437
 21
155.1274647887
 31
0.0
 12
225.7714990437
 22
154.2274647887
 32
0.0
 13
225.7714990437
 23
154.2274647887
 33
0.0
  0
LINE
  5
230
330
22B
100
AcDbEntity
  8
VERMASSUNG
100
AcDbLine
 10
66.8714990437
 20
126.1991284507
 30
0.0
 11
66.8714990437
 21
155.6774647887
 31
0.0
  0
LINE
  5
231
330
22B
100
AcDbEntity
  8
VERMASSUNG
100
AcDbLine
 10
228.7714990437
 20
121.1596697209
 30
0.0
 11
228.7714990437
 21
155.6774647887
 31
0.0
  0
LINE
  5
232
330
22B
100
AcDbEntity
  8
VERMASSUNG
100
AcDbLine
 10
66.8714990437
 20
154.6774647887
 30
0.0
 11
228.7714990437
 21
154.6774647887
 31
0.0
  0
MTEXT
  5
233
330
22B
100
AcDbEntity
  8
VERMASSUNG
100
AcDbMText
 10
145.1225326298
 20
157.2556001519
 30
0.0
 40
2.0
 41
0.0
 71
     1
 72
     1
  1
161.9
  7
SLDTEXTSTYLE0
 73
     1
 44
1.0
  0
ENDBLK
  5
22D
330
22B
100
AcDbEntity
  8
0
100
AcDbBlockEnd
  0
ENDSEC
  0
SECTION
  2
ENTITIES
  0
MTEXT
  5
45
330
1F
100
AcDbEntity
  8
KOPF_DÜNN
100
AcDbMText
 10
13.8892156294
 20
23.8442973028
 30
0.0
 40
3.0
 41
0.0
 71
     1
 72
     1
  1
HA6.S20.K21.130
  7
SLDTEXTSTYLE0
 73
     1
 44
1.0
  0
MTEXT
  5
46
330
1F
100
AcDbEntity
  8
VERMASSUNG
100
AcDbMText
 10
13.9329988022
 20
28.8834360957
 30
0.0
 40
3.0
 41
0.0
 71
     1
 72
     1
  1
Schrumpffutter_Heat shrink chuck
  7
SLDTEXTSTYLE0
 73
     1
 44
1.0
  0
MTEXT
  5
47
330
1F
100
AcDbEntity
  8
VERMASSUNG
100
AcDbMText
 10
98.8601118557
 20
13.8365368179
 30
0.0
 40
2.0
 41
0.0
 71
     1
 72
     1
  1
Datum: 28.04.2011
  7
SLDTEXTSTYLE0
 73
     1
 44
1.0
  0
MTEXT
  5
49
330
1F
100
AcDbEntity
  8
VERMASSUNG
100
AcDbMText
 10
13.933048693
 20
18.0482802738
 30
0.0
 40
2.0
 41
0.0
 71
     1
 72
     1
  1
DIN 69 893 HSK A 63
  7
SLDTEXTSTYLE1
 73
     1
 44
1.0
  0
MTEXT
  5
4A
330
1F
100
AcDbEntity
  8
VERMASSUNG
100
AcDbMText
 10
13.9808475933
 20
13.9090973692
 30
0.0
 40
2.0
 41
0.0
 71
     1
 72
     1
  1
Gewicht: 1492g
  7
SLDTEXTSTYLE0
 73
     1
 44
1.0
  0
LINE
  5
4B
330
1F
100
AcDbEntity
  8
0
  6
Continuous
 62
     7
370
    15
100
AcDbLine
 10
99.0714990437
 20
75.0084507042
 30
0.0
 11
103.7214990437
 21
75.0084507042
 31
0.0
  0
LINE
  5
4C
330
1F
100
AcDbEntity
  8
0
  6
Continuous
 62
     7
370
    15
100
AcDbLine
 10
103.7308071305
 20
138.0084507042
 30
0.0
 11
99.0714990437
 21
138.0084507042
 31
0.0
  0
ARC
  5
4D
330
1F
100
AcDbEntity
  8
0
  6
Continuous
 62
     7
370
    15
100
AcDbCircle
 10
99.0714990437
 20
75.3084507042
 30
0.0
 40
0.2999999999999972
100
AcDbArc
 50
180.0
 51
270.0
  0
ARC
  5
4E
330
1F
100
AcDbEntity
  8
0
  6
Continuous
 62
     7
370
    15
100
AcDbCircle
 10
99.0714990437
 20
137.7084507042
 30
0.0
 40
0.2999999999999972
100
AcDbArc
 50
90.0
 51
180.0
  0
ARC
  5
4F
330
1F
100
AcDbEntity
  8
0
  6
Continuous
 62
     7
370
    15
100
AcDbCircle
 10
127.7214990437
 20
79.9924919027
 30
0.0
 40
3.000000000000003
100
AcDbArc
 50
104.3250519401
 51
180.0
  0
ARC
  5
50
330
1F
100
AcDbEntity
  8
0
  6
Continuous
 62
     7
370
    15
100
AcDbCircle
 10
127.7214990437
 20
133.0244095057
 30
0.0
 40
3.0
100
AcDbArc
 50
180.0
 51
255.6749480599
  0
ARC
  5
51
330
1F
100
AcDbEntity
  8
0
  6
Continuous
 62
     7
370
    15
100
AcDbCircle
 10
98.271492291
 20
81.9380130898
 30
0.0
 40
0.60000675266771
100
AcDbArc
 50
33.5571153394
 51
90.0
  0
ARC
  5
52
330
1F
100
AcDbEntity
  8
0
  6
Continuous
 62
     7
370
    15
100
AcDbCircle
 10
98.271492291
 20
131.0788883186
 30
0.0
 40
0.6000067526677242
100
AcDbArc
 50
270.0
 51
326.4428846606
  0
LINE
  5
53
330
1F
100
AcDbEntity
  8
0
  6
Continuous
 62
     7
370
    15
100
AcDbLine
 10
85.5410768612
 20
130.166235164
 30
0.0
 11
72.9714990437
 21
129.5364967964
 31
0.0
  0
LINE
  5
54
330
1F
100
AcDbEntity
  8
0
  6
Continuous
 62
     7
370
    15
100
AcDbLine
 10
96.7714990437
 20
130.7288815659
 30
0.0
 11
93.9528896862
 21
130.5876686723
 31
0.0
  0
LINE
  5
55
330
1F
100
AcDbEntity
  8
0
  6
Continuous
 62
     7
370
    15
100
AcDbLine
 10
93.9531111613
 20
82.4292216402
 30
0.0
 11
96.7714990437
 21
82.2880198425
 31
0.0
  0
LINE
  5
56
330
1F
100
AcDbEntity
  8
0
  6
Continuous
 62
     7
370
    15
100
AcDbLine
 10
76.9714990437
 20
83.2800038104
 30
0.0
 11
85.5417758129
 21
82.8506312268
 31
0.0
  0
LINE
  5
57
330
1F
100
AcDbEntity
  8
0
  6
Continuous
 62
     7
370
    15
100
AcDbLine
 10
96.7714990437
 20
82.2880198425
 30
0.0
 11
97.6282118171
 21
82.5175753383
 31
0.0
  0
LINE
  5
58
330
1F
100
AcDbEntity
  8
0
  6
Continuous
 62
     7
370
    15
100
AcDbLine
 10
97.6282118171
 20
130.4993260702
 30
0.0
 11
96.7714990437
 21
130.7288815659
 31
0.0
  0
ARC
  5
59
330
1F
100
AcDbEntity
  8
0
  6
Continuous
 62
     7
370
    15
100
AcDbCircle
 10
97.7835032441
 20
81.9380198425
 30
0.0
 40
0.6000000000000085
100
AcDbArc
 50
90.0
 51
105.0
  0
ARC
  5
5A
330
1F
100
AcDbEntity
  8
0
  6
Continuous
 62
     7
370
    15
100
AcDbCircle
 10
97.7835032441
 20
131.0788815659
 30
0.0
 40
0.5999999999999943
100
AcDbArc
 50
255.0
 51
270.0
  0
LINE
  5
5B
330
1F
100
AcDbEntity
  8
0
  6
Continuous
 62
     7
370
    15
100
AcDbLine
 10
97.7835032441
 20
82.5380198425
 30
0.0
 11
98.271492291
 21
82.5380198425
 31
0.0
  0
LINE
  5
5C
330
1F
100
AcDbEntity
  8
0
  6
Continuous
 62
     7
370
    15
100
AcDbLine
 10
98.271492291
 20
130.4788815659
 30
0.0
 11
97.7835032441
 21
130.4788815659
 31
0.0
  0
ARC
  5
5D
330
1F
100
AcDbEntity
  8
0
  6
Continuous
 62
     7
370
    15
100
AcDbCircle
 10
151.7214990437
 20
-13.9915492958
 30
0.0
 40
100.0
100
AcDbArc
 50
90.0
 51
104.3250519401
  0
ARC
  5
5E
330
1F
100
AcDbEntity
  8
0
  6
Continuous
 62
     7
370
    15
100
AcDbCircle
 10
151.7214990437
 20
227.0084507042
 30
0.0
 40
100.0
100
AcDbArc
 50
255.6749480599
 51
270.0
  0
LINE
  5
5F
330
1F
100
AcDbEntity
  8
0
  6
Continuous
 62
     7
370
    15
100
AcDbLine
 10
177.946680099
 20
86.0084507042
 30
0.0
 11
226.9284172351
 21
89.8633970201
 31
0.0
  0
LINE
  5
60
330
1F
100
AcDbEntity
  8
0
  6
Continuous
 62
     7
370
    15
100
AcDbLine
 10
226.9284172351
 20
123.1535043884
 30
0.0
 11
177.7714990437
 21
127.0222377523
 31
0.0
  0
LINE
  5
61
330
1F
100
AcDbEntity
  8
0
  6
Continuous
 62
     7
370
    15
100
AcDbLine
 10
164.2097306847
 20
86.0084507042
 30
0.0
 11
177.946680099
 21
86.0084507042
 31
0.0
  0
LINE
  5
62
330
1F
100
AcDbEntity
  8
0
  6
Continuous
 62
     7
370
    15
100
AcDbLine
 10
151.7214990437
 20
86.0084507042
 30
0.0
 11
157.223167357
 21
86.0084507042
 31
0.0
  0
LINE
  5
63
330
1F
100
AcDbEntity
  8
0
  6
Continuous
 62
     7
370
    15
100
AcDbLine
 10
157.2247272045
 20
127.0084507042
 30
0.0
 11
151.7214990437
 21
127.0084507042
 31
0.0
  0
LINE
  5
64
330
1F
100
AcDbEntity
  8
0
  6
Continuous
 62
     7
370
    15
100
AcDbLine
 10
177.7925063621
 20
127.0084507042
 30
0.0
 11
164.2124978664
 21
127.0084507042
 31
0.0
  0
ARC
  5
65
330
1F
100
AcDbEntity
  8
0
  6
Continuous
 62
     7
370
    15
100
AcDbCircle
 10
226.7714990437
 20
91.8572316875
 30
0.0
 40
2.0
100
AcDbArc
 50
274.5
 51
0.0
  0
ARC
  5
66
330
1F
100
AcDbEntity
  8
0
  6
Continuous
 62
     7
370
    15
100
AcDbCircle
 10
226.7714990437
 20
121.1596697209
 30
0.0
 40
2.0
100
AcDbArc
 50
0.0
 51
85.5
  0
LINE
  5
67
330
1F
100
AcDbEntity
  8
0
  6
Continuous
 62
     7
370
    15
100
AcDbLine
 10
68.1548356837
 20
85.6384507042
 30
0.0
 11
75.5714990437
 21
85.6384507042
 31
0.0
  0
ARC
  5
68
330
1F
100
AcDbEntity
  8
0
  6
Continuous
 62
     7
370
    15
100
AcDbCircle
 10
75.5714990437
 20
84.2384507042
 30
0.0
 40
1.400000000000006
100
AcDbArc
 50
42.2465410162
 51
90.0
  0
LINE
  5
69
330
1F
100
AcDbEntity
  8
0
  6
Continuous
 62
     7
370
    15
100
AcDbLine
 10
66.8826594788
 20
86.7772902691
 30
0.0
 11
68.0126625018
 21
85.647287246
 31
0.0
  0
LINE
  5
6A
330
1F
100
AcDbEntity
  8
0
  6
Continuous
 62
     7
370
    15
100
AcDbLine
 10
68.0126625018
 20
127.3696141624
 30
0.0
 11
66.8826666629
 21
126.2396183234
 31
0.0
  0
ARC
  5
6B
330
1F
100
AcDbEntity
  8
0
  6
Continuous
 62
     7
370
    15
100
AcDbCircle
 10
71.5714990437
 20
128.7784507042
 30
0.0
 40
1.400000000000006
100
AcDbArc
 50
270.0
 51
302.5610026528
  0
LINE
  5
6C
330
1F
100
AcDbEntity
  8
0
  6
Continuous
 62
     7
370
    15
100
AcDbLine
 10
71.5714990437
 20
127.3784507042
 30
0.0
 11
68.1623874451
 21
127.3784507042
 31
0.0
  0
LINE
  5
6D
330
1F
100
AcDbEntity
  8
0
  6
Continuous
 62
     7
370
    15
100
AcDbLine
 10
177.7714990437
 20
127.0191757468
 30
0.0
 11
177.7714990437
 21
127.0069251651
 31
0.0
  0
LINE
  5
6E
330
1F
100
AcDbEntity
  8
0
  6
Continuous
 62
     7
370
    15
100
AcDbLine
 10
228.7714990437
 20
92.1440824439
 30
0.0
 11
228.8488212508
 21
92.2910477863
 31
0.0
  0
LINE
  5
6F
330
1F
100
AcDbEntity
  8
0
  6
Continuous
 62
     7
370
    15
100
AcDbLine
 10
228.7899315272
 20
120.7281674057
 30
0.0
 11
228.7714990437
 21
120.7632017943
 31
0.0
  0
SPLINE
  5
70
330
1F
100
AcDbEntity
  8
0
  6
Continuous
 62
     7
370
    15
100
AcDbSpline
210
0.0
220
0.0
230
1.0
 70
     8
 71
     3
 72
    70
 73
    66
 74
     0
 42
0.00000001
 43
0.00000001
 40
-0.0312500000000002
 40
-0.0312500000000002
 40
0.0
 40
0.0
 40
0.0312499999999999
 40
0.0312499999999999
 40
0.0624999999999999
 40
0.0624999999999999
 40
0.0937499999999998
 40
0.0937499999999998
 40
0.1249999999999998
 40
0.1249999999999998
 40
0.1562499999999997
 40
0.1562499999999997
 40
0.1874999999999997
 40
0.1874999999999997
 40
0.2187499999999996
 40
0.2187499999999996
 40
0.2499999999999996
 40
0.2499999999999996
 40
0.2812499999999995
 40
0.2812499999999995
 40
0.3124999999999994
 40
0.3124999999999994
 40
0.3437499999999994
 40
0.3437499999999994
 40
0.3749999999999993
 40
0.3749999999999993
 40
0.4062499999999993
 40
0.4062499999999993
 40
0.4374999999999992
 40
0.4374999999999992
 40
0.4687499999999992
 40
0.4687499999999992
 40
0.4999999999999991
 40
0.4999999999999991
 40
0.5312499999999991
 40
0.5312499999999991
 40
0.562499999999999
 40
0.562499999999999
 40
0.5937499999999989
 40
0.5937499999999989
 40
0.6249999999999989
 40
0.6249999999999989
 40
0.6562499999999989
 40
0.6562499999999989
 40
0.6874999999999988
 40
0.6874999999999988
 40
0.7187499999999987
 40
0.7187499999999987
 40
0.7499999999999987
 40
0.7499999999999987
 40
0.7812499999999988
 40
0.7812499999999988
 40
0.812499999999999
 40
0.812499999999999
 40
0.8437499999999991
 40
0.8437499999999991
 40
0.8749999999999993
 40
0.8749999999999993
 40
0.9062499999999994
 40
0.9062499999999994
 40
0.9374999999999997
 40
0.9374999999999997
 40
0.9687499999999998
 40
0.9687499999999998
 40
1.0
 40
1.0
 40
1.03125
 40
1.03125
 10
106.5069537050101
 20
117.1293575902087
 30
0.0
 10
107.0360443823304
 20
117.1293575902087
 30
0.0
 10
107.2961150497075
 20
117.1540348849939
 30
0.0
 10
107.8076897295429
 20
117.2505065580358
 30
0.0
 10
108.0618650132831
 20
117.3234874740159
 30
0.0
 10
108.5461356433448
 20
117.5132280769545
 30
0.0
 10
108.775776735226
 20
117.6290887353483
 30
0.0
 10
109.2103810834595
 20
117.901706581306
 30
0.0
 10
109.4159468601061
 20
118.0597456633597
 30
0.0
 10
109.7845040007013
 20
118.4032885143304
 30
0.0
 10
109.9499849834368
 20
118.5900509584321
 30
0.0
 10
110.2424094928719
 20
118.9935941328289
 30
0.0
 10
110.3665104694984
 20
119.207091129258
 30
0.0
 10
110.5660896662481
 20
119.6464744431805
 30
0.0
 10
110.6430232521064
 20
119.8756144303262
 30
0.0
 10
110.7458803106268
 20
120.3415885530862
 30
0.0
 10
110.7713532200859
 20
120.5744709987623
 30
0.0
 10
110.7716436306537
 20
121.0398685338422
 30
0.0
 10
110.7456189968779
 20
121.2747442912365
 30
0.0
 10
110.6434707123859
 20
121.7262374384828
 30
0.0
 10
110.5678942648028
 20
121.9442839138941
 30
0.0
 10
110.3673967336579
 20
122.3653784389319
 30
0.0
 10
110.2422678921495
 20
122.5672998234503
 30
0.0
 10
109.9529090911279
 20
122.9393293059692
 30
0.0
 10
109.7874981040724
 20
123.1119576095495
 30
0.0
 10
109.4145075459246
 20
123.4292756140955
 30
0.0
 10
109.2127745128355
 20
123.5690625475972
 30
0.0
 10
108.7799152620076
 20
123.813238801149
 30
0.0
 10
108.5459967291182
 20
123.9184683121905
 30
0.0
 10
108.0618129939756
 20
124.0866254585656
 30
0.0
 10
107.8124973680201
 20
124.1498763491594
 30
0.0
 10
107.2994648435924
 20
124.235455558262
 30
0.0
 10
107.0341710206878
 20
124.2573277231845
 30
0.0
 10
106.511836400818
 20
124.2574913728284
 30
0.0
 10
106.2520827383363
 20
124.2364896807324
 30
0.0
 10
105.735470922691
 20
124.1510873256547
 30
0.0
 10
105.4831048821908
 20
124.0870811423678
 30
0.0
 10
105.0015797606579
 20
123.9202666223266
 30
0.0
 10
104.7687290285444
 20
123.8161334589275
 30
0.0
 10
104.3316391801056
 20
123.5701468064325
 30
0.0
 10
104.1303181914484
 20
123.4303969754836
 30
0.0
 10
103.7612321661485
 20
123.117258905759
 30
0.0
 10
103.5922474150968
 20
122.9418027464889
 30
0.0
 10
103.3017913584376
 20
122.5689624823887
 30
0.0
 10
103.1787195470755
 20
122.3708406722778
 30
0.0
 10
102.9773833056535
 20
121.9501293295441
 30
0.0
 10
102.9001707597112
 20
121.7281393088766
 30
0.0
 10
102.7979672168112
 20
121.2782743691682
 30
0.0
 10
102.7717388653588
 20
121.0480189560515
 30
0.0
 10
102.7712624660417
 20
120.5767030135024
 30
0.0
 10
102.7970048785397
 20
120.3434655977883
 30
0.0
 10
102.8983156549036
 20
119.8817890582902
 30
0.0
 10
102.9751482942945
 20
119.6508916711781
 30
0.0
 10
103.1755521335097
 20
119.2086156573864
 30
0.0
 10
103.2982236318017
 20
118.9975532261005
 30
0.0
 10
103.588170920966
 20
118.5960547153678
 30
0.0
 10
103.7567419003312
 20
118.4051481932919
 30
0.0
 10
104.1250114944444
 20
118.0614228612948
 30
0.0
 10
104.3260733517147
 20
117.9062856750807
 30
0.0
 10
104.7631042702996
 20
117.631208315001
 30
0.0
 10
104.9952524834292
 20
117.514092085579
 30
0.0
 10
105.4762627649281
 20
117.3251656005145
 30
0.0
 10
105.7283628477585
 20
117.2520906301202
 30
0.0
 10
106.2454323340175
 20
117.1540385709857
 30
0.0
 10
106.5069537050101
 20
117.1293575902087
 30
0.0
 10
107.0360443823304
 20
117.1293575902087
 30
0.0
  0
LINE
  5
71
330
1F
100
AcDbEntity
  8
0
  6
Continuous
 62
     7
370
    15
100
AcDbLine
 10
103.7214990437
 20
126.3584507042
 30
0.0
 11
113.3795662122
 21
126.3584507042
 31
0.0
  0
LINE
  5
72
330
1F
100
AcDbEntity
  8
0
  6
Continuous
 62
     7
370
    15
100
AcDbLine
 10
113.3795662122
 20
76.321533008
 30
0.0
 11
113.3795662122
 21
126.3584507042
 31
0.0
  0
LINE
  5
73
330
1F
100
AcDbEntity
  8
0
  6
Continuous
 62
     7
370
    15
100
AcDbLine
 10
113.3795662122
 20
76.321533008
 30
0.0
 11
111.7214990437
 21
76.321533008
 31
0.0
  0
SPLINE
  5
74
330
1F
100
AcDbEntity
  8
0
  6
Continuous
 62
     7
370
    15
100
AcDbSpline
210
0.0
220
0.0
230
1.0
 70
     8
 71
     3
 72
    28
 73
    24
 74
     0
 42
0.00000001
 43
0.00000001
 40
0.0
 40
0.0
 40
0.0
 40
0.0
 40
0.1250000000000001
 40
0.1250000000000001
 40
0.1875000000000001
 40
0.1875000000000001
 40
0.2500000000000001
 40
0.2500000000000001
 40
0.3749999999999999
 40
0.3749999999999999
 40
0.4375
 40
0.4375
 40
0.4999999999999999
 40
0.4999999999999999
 40
0.6249999999999999
 40
0.6249999999999999
 40
0.7499999999999997
 40
0.7499999999999997
 40
0.8124999999999998
 40
0.8124999999999998
 40
0.8749999999999998
 40
0.8749999999999998
 40
1.0
 40
1.0
 40
1.0
 40
1.0
 10
111.7214990436703
 20
76.32153300797825
 30
0.0
 10
111.1897912861773
 20
76.32153300797826
 30
0.0
 10
110.667552720867
 20
76.30574829402804
 30
0.0
 10
109.897682234592
 20
76.26075287995182
 30
0.0
 10
109.6433226624007
 20
76.2421978848761
 30
0.0
 10
109.1392010817022
 20
76.19834516242959
 30
0.0
 10
108.8894782642742
 20
76.17300055547739
 30
0.0
 10
108.1638883128278
 20
76.08959847772728
 30
0.0
 10
107.7055280512463
 20
76.0237329185762
 30
0.0
 10
107.0550301078524
 20
75.9147625780844
 30
0.0
 10
106.8433480570599
 20
75.87652294231775
 30
0.0
 10
106.439276567922
 20
75.79876420489839
 30
0.0
 10
106.2467700541011
 20
75.75926324272305
 30
0.0
 10
105.6969350830798
 20
75.64035550035706
 30
0.0
 10
105.367006304771
 20
75.56053781893245
 30
0.0
 10
104.7825350362023
 20
75.40719465713639
 30
0.0
 10
104.5362578981889
 20
75.33586090386713
 30
0.0
 10
104.2364151054908
 20
75.2419173967925
 30
0.0
 10
104.1479582484186
 20
75.21272360343258
 30
0.0
 10
103.9945968951135
 20
75.15925702916917
 30
0.0
 10
103.9295086808873
 20
75.13489769489398
 30
0.0
 10
103.7739146649465
 20
75.07130754944924
 30
0.0
 10
103.7214990436703
 20
75.04120461436
 30
0.0
 10
103.7214990436703
 20
75.02432772136308
 30
0.0
  0
LINE
  5
75
330
1F
100
AcDbEntity
  8
0
  6
Continuous
 62
     7
370
    15
100
AcDbLine
 10
103.7214990437
 20
75.0243277214
 30
0.0
 11
103.7214990437
 21
75.0084507042
 31
0.0
  0
SPLINE
  5
76
330
1F
100
AcDbEntity
  8
0
  6
Continuous
 62
     7
370
    15
100
AcDbSpline
210
0.0
220
0.0
230
1.0
 70
     8
 71
     3
 72
    22
 73
    18
 74
     0
 42
0.00000001
 43
0.00000001
 40
0.0
 40
0.0
 40
0.0
 40
0.0
 40
0.0515773377536172
 40
0.1565264849943629
 40
0.2100197540385886
 40
0.2615951369298746
 40
0.3664424119934943
 40
0.4198226601719804
 40
0.4724528789006786
 40
0.5794488992297344
 40
0.6339397336480286
 40
0.6872670452602943
 40
0.7409741315029978
 40
0.7958968813361827
 40
0.8512481408256359
 40
0.9034470736265863
 40
1.0
 40
1.0
 40
1.0
 40
1.0
 10
111.7214990436703
 20
136.9756461773897
 30
0.0
 10
111.5046888476678
 20
136.9770427984582
 30
0.0
 10
110.846715028753
 20
136.9812812527144
 30
0.0
 10
109.9716200514221
 20
137.0208135770687
 30
0.0
 10
109.1267945565653
 20
137.0837868239106
 30
0.0
 10
108.307069272961
 20
137.1618008571657
 30
0.0
 10
107.5312792949326
 20
137.2586839850409
 30
0.0
 10
106.8137908336262
 20
137.3669433969569
 30
0.0
 10
106.1345260864541
 20
137.4806617692613
 30
0.0
 10
105.5262111085452
 20
137.5971619542021
 30
0.0
 10
105.006119167822
 20
137.7062622056192
 30
0.0
 10
104.6622289901059
 20
137.7822661033492
 30
0.0
 10
104.3672752623783
 20
137.8502995592708
 30
0.0
 10
104.1215009750371
 20
137.9090126100294
 30
0.0
 10
103.9355986660638
 20
137.9546279899631
 30
0.0
 10
103.76400206034
 20
137.9975874415236
 30
0.0
 10
103.7438727851638
 20
138.0027484633257
 30
0.0
 10
103.73080713049
 20
138.006098416468
 30
0.0
  0
LINE
  5
77
330
1F
100
AcDbEntity
  8
0
  6
Continuous
 62
     7
370
    15
100
AcDbLine
 10
113.3795662122
 20
136.9756461774
 30
0.0
 11
111.7214990437
 21
136.9756461774
 31
0.0
  0
LINE
  5
78
330
1F
100
AcDbEntity
  8
0
  6
Continuous
 62
     7
370
    15
100
AcDbLine
 10
113.3795662122
 20
130.9671403666
 30
0.0
 11
113.3795662122
 21
136.9756461774
 31
0.0
  0
LINE
  5
79
330
1F
100
AcDbEntity
  8
0
  6
Continuous
 62
     7
370
    15
100
AcDbLine
 10
110.9671193894
 20
130.9671403666
 30
0.0
 11
113.3795662122
 21
130.9671403666
 31
0.0
  0
SPLINE
  5
7A
330
1F
100
AcDbEntity
  8
0
  6
Continuous
 62
     7
370
    15
100
AcDbSpline
210
0.0
220
0.0
230
1.0
 70
     8
 71
     3
 72
    20
 73
    16
 74
     0
 42
0.00000001
 43
0.00000001
 40
0.0
 40
0.0
 40
0.0
 40
0.0
 40
0.2499999999999997
 40
0.2499999999999997
 40
0.3749999999999997
 40
0.3749999999999997
 40
0.4999999999999998
 40
0.4999999999999998
 40
0.6249999999999998
 40
0.6249999999999998
 40
0.7499999999999999
 40
0.7499999999999999
 40
0.8749999999999999
 40
0.8749999999999999
 40
1.0
 40
1.0
 40
1.0
 40
1.0
 10
103.7214990436703
 20
126.3584507042254
 30
0.0
 10
103.9698727779583
 20
127.0123131325228
 30
0.0
 10
104.2894428703036
 20
127.61609891452
 30
0.0
 10
104.9117491035083
 20
128.4429376506886
 30
0.0
 10
105.143173363939
 20
128.7053662886415
 30
0.0
 10
105.6643877035887
 20
129.2020289427464
 30
0.0
 10
105.9510081862238
 20
129.432615821768
 30
0.0
 10
106.5704929275314
 20
129.8491700463506
 30
0.0
 10
106.9047933070184
 20
130.0366678483181
 30
0.0
 10
107.6300537796432
 20
130.3680648259545
 30
0.0
 10
108.0119688370336
 20
130.5075688134498
 30
0.0
 10
108.8067570132053
 20
130.7330223209208
 30
0.0
 10
109.2209152074117
 20
130.8196484324644
 30
0.0
 10
110.0864615479931
 20
130.9376292213185
 30
0.0
 10
110.5243491630049
 20
130.9671403665928
 30
0.0
 10
110.9671193893596
 20
130.9671403665928
 30
0.0
  0
SPLINE
  5
7B
330
1F
100
AcDbEntity
  8
0
  6
Continuous
 62
     7
370
    15
100
AcDbSpline
210
0.0
220
0.0
230
1.0
 70
     8
 71
     3
 72
    70
 73
    66
 74
     0
 42
0.00000001
 43
0.00000001
 40
-0.0312499999999998
 40
-0.0312499999999998
 40
0.0
 40
0.0
 40
0.0312500000000003
 40
0.0312500000000003
 40
0.0625000000000006
 40
0.0625000000000006
 40
0.0937500000000009
 40
0.0937500000000009
 40
0.1250000000000012
 40
0.1250000000000012
 40
0.1562500000000014
 40
0.1562500000000014
 40
0.1875000000000017
 40
0.1875000000000017
 40
0.2187500000000021
 40
0.2187500000000021
 40
0.2500000000000023
 40
0.2500000000000023
 40
0.2812500000000024
 40
0.2812500000000024
 40
0.3125000000000026
 40
0.3125000000000026
 40
0.3437500000000027
 40
0.3437500000000027
 40
0.3750000000000028
 40
0.3750000000000028
 40
0.4062500000000029
 40
0.4062500000000029
 40
0.4375000000000031
 40
0.4375000000000031
 40
0.4687500000000032
 40
0.4687500000000032
 40
0.5000000000000033
 40
0.5000000000000033
 40
0.5312500000000032
 40
0.5312500000000032
 40
0.562500000000003
 40
0.562500000000003
 40
0.5937500000000029
 40
0.5937500000000029
 40
0.6250000000000027
 40
0.6250000000000027
 40
0.6562500000000026
 40
0.6562500000000026
 40
0.6875000000000024
 40
0.6875000000000024
 40
0.7187500000000022
 40
0.7187500000000022
 40
0.7500000000000021
 40
0.7500000000000021
 40
0.7812500000000019
 40
0.7812500000000019
 40
0.8125000000000016
 40
0.8125000000000016
 40
0.8437500000000013
 40
0.8437500000000013
 40
0.875000000000001
 40
0.875000000000001
 40
0.9062500000000008
 40
0.9062500000000008
 40
0.9375000000000006
 40
0.9375000000000006
 40
0.9687500000000002
 40
0.9687500000000002
 40
1.0
 40
1.0
 40
1.03125
 40
1.03125
 10
106.5069537050101
 20
131.5674140990046
 30
0.0
 10
107.0360443823304
 20
131.5674140990046
 30
0.0
 10
107.2961150497075
 20
131.5833145394193
 30
0.0
 10
107.8076897295429
 20
131.6452588895936
 30
0.0
 10
108.0618650132831
 20
131.6920611236849
 30
0.0
 10
108.5461356433448
 20
131.81303810714
 30
0.0
 10
108.775776735226
 20
131.8866404349468
 30
0.0
 10
109.2103810834595
 20
132.058464705925
 30
0.0
 10
109.4159468601061
 20
132.1574681288524
 30
0.0
 10
109.7845040007013
 20
132.3705645427652
 30
0.0
 10
109.9499849834368
 20
132.4854642588949
 30
0.0
 10
110.2424094928719
 20
132.7308311575852
 30
0.0
 10
110.3665104694984
 20
132.8592710580554
 30
0.0
 10
110.5660896662481
 20
133.1201632061414
 30
0.0
 10
110.6430232521064
 20
133.2545443774808
 30
0.0
 10
110.7458803106268
 20
133.5238643285872
 30
0.0
 10
110.7713532200859
 20
133.6565455928053
 30
0.0
 10
110.7716436306537
 20
133.9177320669363
 30
0.0
 10
110.745618996878
 20
134.0474971051011
 30
0.0
 10
110.6434707123859
 20
134.2930797393737
 30
0.0
 10
110.5678942648028
 20
134.4097412766826
 30
0.0
 10
110.3673967336579
 20
134.6316464668371
 30
0.0
 10
110.2422678921495
 20
134.7362577207601
 30
0.0
 10
109.9529090911279
 20
134.9263041323682
 30
0.0
 10
109.7874981040724
 20
135.0130638038179
 30
0.0
 10
109.4145075459246
 20
135.1705681795694
 30
0.0
 10
109.2127745128355
 20
135.2388934443566
 30
0.0
 10
108.7799152620076
 20
135.3571231679759
 30
0.0
 10
108.5459967291182
 20
135.4074180840797
 30
0.0
 10
108.0618129939756
 20
135.4872836209694
 30
0.0
 10
107.8124973680201
 20
135.517024748769
 30
0.0
 10
107.2994648435924
 20
135.5571774902772
 30
0.0
 10
107.0341710206878
 20
135.567375759687
 30
0.0
 10
106.511836400818
 20
135.5674522180717
 30
0.0
 10
106.2520827383363
 20
135.5576612064627
 30
0.0
 10
105.735470922691
 20
135.5175943677239
 30
0.0
 10
105.4831048821908
 20
135.4874972008672
 30
0.0
 10
105.0015797606579
 20
135.4082749910369
 30
0.0
 10
104.7687290285444
 20
135.3585175115736
 30
0.0
 10
104.3316391801056
 20
135.2394255691232
 30
0.0
 10
104.1303181914484
 20
135.1711103075759
 30
0.0
 10
103.7612321661485
 20
135.0157093406424
 30
0.0
 10
103.5922474150968
 20
134.9275569985754
 30
0.0
 10
103.3017913584376
 20
134.7371176094591
 30
0.0
 10
103.1787195470755
 20
134.63449303176
 30
0.0
 10
102.9773833056535
 20
134.4128526851519
 30
0.0
 10
102.9001707597112
 20
134.2940986096044
 30
0.0
 10
102.7979672168112
 20
134.0494326706867
 30
0.0
 10
102.7717388653588
 20
133.9222759452382
 30
0.0
 10
102.7712624660417
 20
133.6578277993826
 30
0.0
 10
102.7970048785397
 20
133.5249271191255
 30
0.0
 10
102.8983156549036
 20
133.2581348456434
 30
0.0
 10
102.9751482942945
 20
133.1227709441748
 30
0.0
 10
103.1755521335097
 20
132.8601911488723
 30
0.0
 10
103.2982236318017
 20
132.7332159891185
 30
0.0
 10
103.588170920966
 20
132.4891366030361
 30
0.0
 10
103.7567419003312
 20
132.3717114782822
 30
0.0
 10
104.1250114944444
 20
132.1585150173338
 30
0.0
 10
104.3260733517147
 20
132.0613408989089
 30
0.0
 10
104.7631042702996
 20
131.8879860116948
 30
0.0
 10
104.9952524834292
 20
131.813586460038
 30
0.0
 10
105.4762627649281
 20
131.6931335805334
 30
0.0
 10
105.7283628477585
 20
131.6462752052674
 30
0.0
 10
106.2454323340175
 20
131.5833177082837
 30
0.0
 10
106.5069537050101
 20
131.5674140990046
 30
0.0
 10
107.0360443823304
 20
131.5674140990046
 30
0.0
  0
LINE
  5
7C
330
1F
100
AcDbEntity
  8
0
  6
Continuous
 62
     7
370
    15
100
AcDbLine
 10
124.7214990437
 20
76.9481733036
 30
0.0
 11
124.7214990437
 21
126.3584507042
 31
0.0
  0
SPLINE
  5
7D
330
1F
100
AcDbEntity
  8
0
  6
Continuous
 62
     7
370
    15
100
AcDbSpline
210
0.0
220
0.0
230
1.0
 70
     8
 71
     3
 72
    10
 73
     6
 74
     0
 42
0.00000001
 43
0.00000001
 40
0.0
 40
0.0
 40
0.0
 40
0.0
 40
0.5
 40
0.5
 40
1.0
 40
1.0
 40
1.0
 40
1.0
 10
124.7214990436703
 20
76.94817330363256
 30
0.0
 10
124.7214990436703
 20
76.7882860354389
 30
0.0
 10
124.6601893924344
 20
76.62715877992429
 30
0.0
 10
124.4410897548993
 20
76.39305978156946
 30
0.0
 10
124.2830415485859
 20
76.32153300797825
 30
0.0
 10
124.1214990436703
 20
76.32153300797825
 30
0.0
  0
SPLINE
  5
7E
330
1F
100
AcDbEntity
  8
0
  6
Continuous
 62
     7
370
    15
100
AcDbSpline
210
0.0
220
0.0
230
1.0
 70
    24
 71
     3
 72
    12
 73
     8
 74
     0
 42
0.00000001
 43
0.00000001
 40
0.0
 40
0.0
 40
0.0
 40
0.0
 40
0.2500000000000033
 40
0.2500000000000033
 40
0.5000000000000067
 40
0.5000000000000067
 40
1.0
 40
1.0
 40
1.0
 40
1.0
 10
124.1214990436703
 20
126.3584507042254
 30
0.0
 10
124.2117381113573
 20
126.3584507042254
 30
0.0
 10
124.3026362254638
 20
126.3584507042254
 30
0.0
 10
124.4572332619524
 20
126.3584507042254
 30
0.0
 10
124.5222116780604
 20
126.3584507042254
 30
0.0
 10
124.6740467059967
 20
126.3584507042254
 30
0.0
 10
124.7214990436703
 20
126.3584507042254
 30
0.0
 10
124.7214990436703
 20
126.3584507042254
 30
0.0
  0
LINE
  5
7F
330
1F
100
AcDbEntity
  8
0
  6
Continuous
 62
     7
370
    15
100
AcDbLine
 10
120.1634318752
 20
76.321533008
 30
0.0
 11
120.1634318752
 21
126.3584507042
 31
0.0
  0
SPLINE
  5
80
330
1F
100
AcDbEntity
  8
0
  6
Continuous
 62
     7
370
    15
100
AcDbSpline
210
0.0
220
0.0
230
1.0
 70
     8
 71
     3
 72
     8
 73
     4
 74
     0
 42
0.00000001
 43
0.00000001
 40
0.0
 40
0.0
 40
0.0
 40
0.0
 40
1.0
 40
1.0
 40
1.0
 40
1.0
 10
120.1634318751593
 20
76.32153300797825
 30
0.0
 10
119.6679522144936
 20
77.21705909591161
 30
0.0
 10
119.1738381664515
 20
78.11334351096386
 30
0.0
 10
118.6814990436703
 20
79.01061354517056
 30
0.0
  0
LINE
  5
81
330
1F
100
AcDbEntity
  8
0
  6
Continuous
 62
     7
370
    15
100
AcDbLine
 10
118.6814990437
 20
79.0106135452
 30
0.0
 11
118.6814990437
 21
126.3584507042
 31
0.0
  0
SPLINE
  5
82
330
1F
100
AcDbEntity
  8
0
  6
Continuous
 62
     7
370
    15
100
AcDbSpline
210
0.0
220
0.0
230
1.0
 70
    24
 71
     3
 72
     8
 73
     4
 74
     0
 42
0.00000001
 43
0.00000001
 40
0.0
 40
0.0
 40
0.0
 40
0.0
 40
1.0
 40
1.0
 40
1.0
 40
1.0
 10
118.6814990436703
 20
126.3584507042254
 30
0.0
 10
119.1614510380352
 20
126.3584507042254
 30
0.0
 10
119.6567517670088
 20
126.3584507042254
 30
0.0
 10
120.1634318751593
 20
126.3584507042254
 30
0.0
  0
LINE
  5
83
330
1F
100
AcDbEntity
  8
0
  6
Continuous
 62
     7
370
    15
100
AcDbLine
 10
124.1214990437
 20
76.321533008
 30
0.0
 11
120.1634318752
 21
76.321533008
 31
0.0
  0
LINE
  5
84
330
1F
100
AcDbEntity
  8
0
  6
Continuous
 62
     7
370
    15
100
AcDbLine
 10
120.1634318752
 20
126.3584507042
 30
0.0
 11
124.1214990437
 21
126.3584507042
 31
0.0
  0
LINE
  5
85
330
1F
100
AcDbEntity
  8
0
  6
Continuous
 62
     7
370
    15
100
AcDbLine
 10
98.7714990437
 20
75.3084507042
 30
0.0
 11
98.7714990437
 21
137.7084507004
 31
0.0
  0
LINE
  5
86
330
1F
100
AcDbEntity
  8
0
  6
Continuous
 62
     7
370
    15
100
AcDbLine
 10
114.8614990437
 20
79.0106135452
 30
0.0
 11
114.8614990437
 21
126.3584507042
 31
0.0
  0
SPLINE
  5
87
330
1F
100
AcDbEntity
  8
0
  6
Continuous
 62
     7
370
    15
100
AcDbSpline
210
0.0
220
0.0
230
1.0
 70
     8
 71
     3
 72
     8
 73
     4
 74
     0
 42
0.00000001
 43
0.00000001
 40
0.0
 40
0.0
 40
0.0
 40
0.0
 40
1.0
 40
1.0
 40
1.0
 40
1.0
 10
114.8614990436703
 20
79.01061354517054
 30
0.0
 10
114.3691599208891
 20
78.11334351096384
 30
0.0
 10
113.875045872847
 20
77.2170590959116
 30
0.0
 10
113.3795662121812
 20
76.32153300797825
 30
0.0
  0
SPLINE
  5
88
330
1F
100
AcDbEntity
  8
0
  6
Continuous
 62
     7
370
    15
100
AcDbSpline
210
0.0
220
0.0
230
1.0
 70
    24
 71
     3
 72
     8
 73
     4
 74
     0
 42
0.00000001
 43
0.00000001
 40
0.0
 40
0.0
 40
0.0
 40
0.0
 40
1.0
 40
1.0
 40
1.0
 40
1.0
 10
113.3795662121812
 20
126.3584507042254
 30
0.0
 10
113.8862463203317
 20
126.3584507042254
 30
0.0
 10
114.3815470493054
 20
126.3584507042254
 30
0.0
 10
114.8614990436703
 20
126.3584507042254
 30
0.0
  0
ARC
  5
89
330
1F
100
AcDbEntity
  8
0
  6
Continuous
 62
     7
370
    15
100
AcDbCircle
 10
106.7686368249
 20
118.4032864878
 30
0.0
 40
4.117825238058644
100
AcDbArc
 50
19.7823364131
 51
158.9347445832
  0
SPLINE
  5
8A
330
1F
100
AcDbEntity
  8
0
  6
Continuous
 62
     7
370
    15
100
AcDbSpline
210
0.0
220
0.0
230
1.0
 70
    24
 71
     3
 72
    14
 73
    10
 74
     0
 42
0.00000001
 43
0.00000001
 40
0.0
 40
0.0
 40
0.0
 40
0.0
 40
0.4999999999999984
 40
0.4999999999999984
 40
0.7499999999999992
 40
0.7499999999999992
 40
0.8749999999999996
 40
0.8749999999999996
 40
1.0
 40
1.0
 40
1.0
 40
1.0
 10
118.583824241338
 20
80.1084507042254
 30
0.0
 10
118.5370395362898
 20
80.10845070422542
 30
0.0
 10
118.4749883395101
 20
80.10845070422542
 30
0.0
 10
118.3315967009596
 20
80.1084507042254
 30
0.0
 10
118.2754530474084
 20
80.1084507042254
 30
0.0
 10
118.1625020252722
 20
80.10845070422542
 30
0.0
 10
118.1195012632341
 20
80.10845070422542
 30
0.0
 10
118.0154385529276
 20
80.1084507042254
 30
0.0
 10
117.9501063145707
 20
80.10845070422542
 30
0.0
 10
117.8814990436703
 20
80.1084507042254
 30
0.0
  0
SPLINE
  5
8B
330
1F
100
AcDbEntity
  8
0
  6
Continuous
 62
     7
370
    15
100
AcDbSpline
210
0.0
220
0.0
230
1.0
 70
    24
 71
     3
 72
    12
 73
     8
 74
     0
 42
0.00000001
 43
0.00000001
 40
0.0
 40
0.0
 40
0.0
 40
0.0
 40
0.5000000000000017
 40
0.5000000000000017
 40
0.7500000000000008
 40
0.7500000000000008
 40
1.0
 40
1.0
 40
1.0
 40
1.0
 10
118.2872015119793
 20
132.9084507042254
 30
0.0
 10
118.2441159623684
 20
132.9084507042254
 30
0.0
 10
118.194963760619
 20
132.9084507042254
 30
0.0
 10
118.0984911663311
 20
132.9084507042254
 30
0.0
 10
118.0623895811965
 20
132.9084507042254
 30
0.0
 10
117.9792838233353
 20
132.9084507042254
 30
0.0
 10
117.931287226369
 20
132.9084507042254
 30
0.0
 10
117.8814990436703
 20
132.9084507042254
 30
0.0
  0
SPLINE
  5
8C
330
1F
100
AcDbEntity
  8
0
  6
Continuous
 62
     7
370
    15
100
AcDbSpline
210
0.0
220
0.0
230
1.0
 70
     8
 71
     3
 72
    10
 73
     6
 74
     0
 42
0.00000001
 43
0.00000001
 40
0.0
 40
0.0
 40
0.0
 40
0.0
 40
0.5
 40
0.5
 40
1.0
 40
1.0
 40
1.0
 40
1.0
 10
118.6814990436703
 20
133.6281045552612
 30
0.0
 10
118.6814990436703
 20
133.4843344974432
 30
0.0
 10
118.6454499849514
 20
133.341915134948
 30
0.0
 10
118.5099411241774
 20
133.0920208415908
 30
0.0
 10
118.4100651310812
 20
132.9839905053426
 30
0.0
 10
118.2872015119793
 20
132.9084507042254
 30
0.0
  0
SPLINE
  5
8D
330
1F
100
AcDbEntity
  8
0
  6
Continuous
 62
     7
370
    15
100
AcDbSpline
210
0.0
220
0.0
230
1.0
 70
     8
 71
     3
 72
    10
 73
     6
 74
     0
 42
0.00000001
 43
0.00000001
 40
0.0
 40
0.0
 40
0.0
 40
0.0
 40
0.5
 40
0.5
 40
1.0
 40
1.0
 40
1.0
 40
1.0
 10
118.6553514205101
 20
126.3584507042254
 30
0.0
 10
118.6640410634218
 20
126.4053295535436
 30
0.0
 10
118.6705801281723
 20
126.4527520189449
 30
0.0
 10
118.6793387625653
 20
126.5486888175317
 30
0.0
 10
118.6814990436703
 20
126.5966041055422
 30
0.0
 10
118.6814990436703
 20
126.6443173356868
 30
0.0
  0
SPLINE
  5
8E
330
1F
100
AcDbEntity
  8
0
  6
Continuous
 62
     7
370
    15
100
AcDbSpline
210
0.0
220
0.0
230
1.0
 70
     8
 71
     3
 72
    10
 73
     6
 74
     0
 42
0.00000001
 43
0.00000001
 40
0.0
 40
0.0
 40
0.0
 40
0.0
 40
0.5
 40
0.5
 40
1.0
 40
1.0
 40
1.0
 40
1.0
 10
115.2557965753612
 20
132.9084507042254
 30
0.0
 10
115.1342563116927
 20
132.9831768714372
 30
0.0
 10
115.0329219513438
 20
133.092121887354
 30
0.0
 10
114.8972830084553
 20
133.3425523681155
 30
0.0
 10
114.8614990436703
 20
133.4849717302145
 30
0.0
 10
114.8614990436703
 20
133.6281045552612
 30
0.0
  0
SPLINE
  5
8F
330
1F
100
AcDbEntity
  8
0
  6
Continuous
 62
     7
370
    15
100
AcDbSpline
210
0.0
220
0.0
230
1.0
 70
    24
 71
     3
 72
    12
 73
     8
 74
     0
 42
0.00000001
 43
0.00000001
 40
0.0
 40
0.0
 40
0.0
 40
0.0
 40
0.2500000000000037
 40
0.2500000000000037
 40
0.5000000000000074
 40
0.5000000000000074
 40
1.0
 40
1.0
 40
1.0
 40
1.0
 10
115.6614990436703
 20
132.9084507042254
 30
0.0
 10
115.6116223613528
 20
132.9084507042254
 30
0.0
 10
115.5636191679492
 20
132.9084507042254
 30
0.0
 10
115.4805710652373
 20
132.9084507042254
 30
0.0
 10
115.4444414857694
 20
132.9084507042254
 30
0.0
 10
115.3485294548252
 20
132.9084507042254
 30
0.0
 10
115.2987707868564
 20
132.9084507042254
 30
0.0
 10
115.2557965753612
 20
132.9084507042254
 30
0.0
  0
SPLINE
  5
90
330
1F
100
AcDbEntity
  8
0
  6
Continuous
 62
     7
370
    15
100
AcDbSpline
210
0.0
220
0.0
230
1.0
 70
    24
 71
     3
 72
    14
 73
    10
 74
     0
 42
0.00000001
 43
0.00000001
 40
0.0
 40
0.0
 40
0.0
 40
0.0
 40
0.1249999999999991
 40
0.1249999999999991
 40
0.2499999999999982
 40
0.2499999999999982
 40
0.4999999999999998
 40
0.4999999999999998
 40
1.0
 40
1.0
 40
1.0
 40
1.0
 10
115.6614990436703
 20
80.1084507042254
 30
0.0
 10
115.5930611957838
 20
80.1084507042254
 30
0.0
 10
115.5275111570188
 20
80.10845070422542
 30
0.0
 10
115.4230845176108
 20
80.10845070422542
 30
0.0
 10
115.3805399078494
 20
80.10845070422542
 30
0.0
 10
115.2679304473091
 20
80.1084507042254
 30
0.0
 10
115.2123914002897
 20
80.1084507042254
 30
0.0
 10
115.0697797048258
 20
80.1084507042254
 30
0.0
 10
115.0063743498301
 20
80.1084507042254
 30
0.0
 10
114.9591738460025
 20
80.1084507042254
 30
0.0
  0
SPLINE
  5
91
330
1F
100
AcDbEntity
  8
0
  6
Continuous
 62
     7
370
    15
100
AcDbSpline
210
0.0
220
0.0
230
1.0
 70
     8
 71
     3
 72
    10
 73
     6
 74
     0
 42
0.00000001
 43
0.00000001
 40
0.0
 40
0.0
 40
0.0
 40
0.0
 40
0.5
 40
0.5
 40
1.0
 40
1.0
 40
1.0
 40
1.0
 10
114.8614990436703
 20
126.6443173356868
 30
0.0
 10
114.8614990436703
 20
126.5965458276935
 30
0.0
 10
114.8636602872674
 20
126.5488361056318
 30
0.0
 10
114.8723316611276
 20
126.4535409880835
 30
0.0
 10
114.8788608440836
 20
126.4058484241169
 30
0.0
 10
114.8876466668304
 20
126.3584507042254
 30
0.0
  0
LINE
  5
92
330
1F
100
AcDbEntity
  8
0
  6
Continuous
 62
     7
370
    15
100
AcDbLine
 10
117.8814990437
 20
132.9084507042
 30
0.0
 11
115.6614990437
 21
132.9084507042
 31
0.0
  0
LINE
  5
93
330
1F
100
AcDbEntity
  8
0
  6
Continuous
 62
     7
370
    15
100
AcDbLine
 10
117.8814990437
 20
80.1084507042
 30
0.0
 11
115.6614990437
 21
80.1084507042
 31
0.0
  0
LINE
  5
94
330
1F
100
AcDbEntity
  8
0
  6
Continuous
 62
     7
370
    15
100
AcDbLine
 10
76.9714990437
 20
83.2800038104
 30
0.0
 11
76.9714990437
 21
84.544713173
 31
0.0
  0
SPLINE
  5
95
330
1F
100
AcDbEntity
  8
0
  6
Continuous
 62
     7
370
    15
100
AcDbSpline
210
0.0
220
0.0
230
1.0
 70
     8
 71
     3
 72
    14
 73
    10
 74
     0
 42
0.00000001
 43
0.00000001
 40
0.0
 40
0.0
 40
0.0
 40
0.0
 40
0.25
 40
0.25
 40
0.5
 40
0.5
 40
0.75
 40
0.75
 40
1.0
 40
1.0
 40
1.0
 40
1.0
 10
76.19321192575457
 20
85.67529938066545
 30
0.0
 10
76.24983860095664
 20
85.56760192682859
 30
0.0
 10
76.34436126124636
 20
85.46481234510928
 30
0.0
 10
76.5274062368086
 20
85.26645503288913
 30
0.0
 10
76.61903281376331
 20
85.17039552421087
 30
0.0
 10
76.77788613145651
 20
84.98286648150163
 30
0.0
 10
76.84577673907822
 20
84.89145750871808
 30
0.0
 10
76.9426937647858
 20
84.71308128780792
 30
0.0
 10
76.97149904367085
 20
84.62585938156175
 30
0.0
 10
76.97149904367085
 20
84.5447131730275
 30
0.0
  0
SPLINE
  5
96
330
1F
100
AcDbEntity
  8
0
  6
Continuous
 62
     7
370
    15
100
AcDbSpline
210
0.0
220
0.0
230
1.0
 70
     8
 71
     3
 72
    14
 73
    10
 74
     0
 42
0.00000001
 43
0.00000001
 40
0.0
 40
0.0
 40
0.0
 40
0.0
 40
0.1250000000000022
 40
0.1250000000000022
 40
0.2500000000000044
 40
0.2500000000000044
 40
0.5000000000000029
 40
0.5000000000000029
 40
1.0
 40
1.0
 40
1.0
 40
1.0
 10
75.57149904367027
 20
86.12198124294477
 30
0.0
 10
75.62004345232744
 20
86.12772955622506
 30
0.0
 10
75.67295880711235
 20
86.12462866756883
 30
0.0
 10
75.76825415209538
 20
86.1024338234065
 30
0.0
 10
75.80850514938034
 20
86.08520159631064
 30
0.0
 10
75.91277516289331
 20
86.02887367985858
 30
0.0
 10
75.96309713804663
 20
85.98468733391277
 30
0.0
 10
76.09078008557202
 20
85.85367943506216
 30
0.0
 10
76.14686553263428
 20
85.76344491483185
 30
0.0
 10
76.193211925756
 20
85.67529938066598
 30
0.0
  0
SPLINE
  5
97
330
1F
100
AcDbEntity
  8
0
  6
Continuous
 62
     7
370
    15
100
AcDbSpline
210
0.0
220
0.0
230
1.0
 70
     8
 71
     3
 72
     8
 73
     4
 74
     0
 42
0.00000001
 43
0.00000001
 40
0.0
 40
0.0
 40
0.0
 40
0.0
 40
1.0
 40
1.0
 40
1.0
 40
1.0
 10
73.30297395072405
 20
85.81213595636197
 30
0.0
 10
74.03755097720702
 20
85.93076096743094
 30
0.0
 10
74.80102604660266
 20
86.03074683956723
 30
0.0
 10
75.57149904367027
 20
86.12198124294477
 30
0.0
  0
SPLINE
  5
98
330
1F
100
AcDbEntity
  8
0
  6
Continuous
 62
     7
370
    15
100
AcDbSpline
210
0.0
220
0.0
230
1.0
 70
     8
 71
     3
 72
    14
 73
    10
 74
     0
 42
0.00000001
 43
0.00000001
 40
0.0
 40
0.0
 40
0.0
 40
0.0
 40
0.5000000000000001
 40
0.5000000000000001
 40
0.7499999999999991
 40
0.7499999999999991
 40
0.8749999999999997
 40
0.8749999999999997
 40
1.0
 40
1.0
 40
1.0
 40
1.0
 10
68.02149904367027
 20
85.63851293883033
 30
0.0
 10
68.91364517422386
 20
85.63779071262968
 30
0.0
 10
69.80362161001744
 20
85.64237691908714
 30
0.0
 10
71.13021677709305
 20
85.6701019234787
 30
0.0
 10
71.5710637055918
 20
85.68270846110286
 30
0.0
 10
72.22750394301421
 20
85.71372460911032
 30
0.0
 10
72.4455175996061
 20
85.72606778173709
 30
0.0
 10
72.87822645328887
 20
85.75909183690037
 30
0.0
 10
73.09350291845365
 20
85.7783090020388
 30
0.0
 10
73.30297395072405
 20
85.81213595636198
 30
0.0
  0
SPLINE
  5
99
330
1F
100
AcDbEntity
  8
0
  6
Continuous
 62
     7
370
    15
100
AcDbSpline
210
0.0
220
0.0
230
1.0
 70
     8
 71
     3
 72
     8
 73
     4
 74
     0
 42
0.00000001
 43
0.00000001
 40
0.0000005163856712
 40
0.0000005163856712
 40
0.0000005163856712
 40
0.0000005163856712
 40
0.000026289209185
 40
0.000026289209185
 40
0.000026289209185
 40
0.000026289209185
 10
68.01145411325159
 20
85.6484968119382
 30
0.0
 10
68.01478185146307
 20
85.64516256506538
 30
0.0
 10
68.01813030444235
 20
85.64183460778636
 30
0.0
 10
68.02149904367025
 20
85.63851293883032
 30
0.0
  0
SPLINE
  5
9A
330
1F
100
AcDbEntity
  8
0
  6
Continuous
 62
     7
370
    15
100
AcDbSpline
210
0.0
220
0.0
230
1.0
 70
     8
 71
     3
 72
     8
 73
     4
 74
     0
 42
0.00000001
 43
0.00000001
 40
0.0000005099763573
 40
0.0000005099763573
 40
0.0000005099763573
 40
0.0000005099763573
 40
0.0000262827998699
 40
0.0000262827998699
 40
0.0000262827998699
 40
0.0000262827998699
 10
68.02149904367025
 20
127.3783884696205
 30
0.0
 10
68.01813030444252
 20
127.3750668006646
 30
0.0
 10
68.01478185146338
 20
127.3717388433857
 30
0.0
 10
68.01145411325206
 20
127.3684045965131
 30
0.0
  0
SPLINE
  5
9B
330
1F
100
AcDbEntity
  8
0
  6
Continuous
 62
     7
370
    15
100
AcDbSpline
210
0.0
220
0.0
230
1.0
 70
     8
 71
     3
 72
    10
 73
     6
 74
     0
 42
0.00000001
 43
0.00000001
 40
0.0
 40
0.0
 40
0.0
 40
0.0
 40
0.5
 40
0.5
 40
1.0
 40
1.0
 40
1.0
 40
1.0
 10
71.57149904367027
 20
127.3315380960531
 30
0.0
 10
70.98391349657969
 20
127.3526036162896
 30
0.0
 10
70.3931671031193
 20
127.3633621021618
 30
0.0
 10
69.20914793782045
 20
127.3767268826974
 30
0.0
 10
68.61573394961498
 20
127.378869525362
 30
0.0
 10
68.02149904367027
 20
127.3783884696205
 30
0.0
  0
SPLINE
  5
9C
330
1F
100
AcDbEntity
  8
0
  6
Continuous
 62
     7
370
    15
100
AcDbSpline
210
0.0
220
0.0
230
1.0
 70
     8
 71
     3
 72
    18
 73
    14
 74
     0
 42
0.00000001
 43
0.00000001
 40
0.0
 40
0.0
 40
0.0
 40
0.0
 40
0.249999999999999
 40
0.249999999999999
 40
0.499999999999998
 40
0.499999999999998
 40
0.749999999999997
 40
0.749999999999997
 40
0.874999999999998
 40
0.874999999999998
 40
0.937499999999999
 40
0.937499999999999
 40
1.0
 40
1.0
 40
1.0
 40
1.0
 10
72.97149904367029
 20
128.3525583765884
 30
0.0
 10
72.97149904367029
 20
128.2693514677312
 30
0.0
 10
72.93564994373203
 20
128.1806148124176
 30
0.0
 10
72.8107782076981
 20
127.9984896218574
 30
0.0
 10
72.72037779005022
 20
127.9033595732308
 30
0.0
 10
72.49813513530805
 20
127.7141780641064
 30
0.0
 10
72.36837034886229
 20
127.6192328960117
 30
0.0
 10
72.12773289155076
 20
127.4809541884318
 30
0.0
 10
72.03996559341333
 20
127.4352437551294
 30
0.0
 10
71.8854415062065
 20
127.377420449908
 30
0.0
 10
71.82883062015175
 20
127.3597056858701
 30
0.0
 10
71.70478658924517
 20
127.3351663826372
 30
0.0
 10
71.63707191422688
 20
127.3291872440989
 30
0.0
 10
71.57149904367027
 20
127.3315380960531
 30
0.0
  0
LINE
  5
9D
330
1F
100
AcDbEntity
  8
0
  6
Continuous
 62
     7
370
    15
100
AcDbLine
 10
72.9714990437
 20
128.3525583766
 30
0.0
 11
72.9714990437
 21
129.5364967964
 31
0.0
  0
LINE
  5
9E
330
1F
100
AcDbEntity
  8
0
  6
Continuous
 62
     7
370
    15
100
AcDbLine
 10
96.7714990437
 20
82.2880198425
 30
0.0
 11
96.7714990437
 21
130.7288815659
 31
0.0
  0
SPLINE
  5
9F
330
1F
100
AcDbEntity
  8
0
  6
Continuous
 62
     7
370
    15
100
AcDbSpline
210
0.0
220
0.0
230
1.0
 70
     8
 71
     3
 72
    18
 73
    14
 74
     0
 42
0.00000001
 43
0.00000001
 40
0.0
 40
0.0
 40
0.0
 40
0.0
 40
0.0010671296451825
 40
0.1270947795731591
 40
0.2524053457512679
 40
0.3766468878986963
 40
0.4391415999051271
 40
0.5008278021400229
 40
0.5624255708816985
 40
0.6253162439161283
 40
0.7499985144706796
 40
0.8752758950341297
 40
1.0
 40
1.0
 40
1.0
 40
1.0
 10
85.54179988374294
 20
82.85111168130905
 30
0.0
 10
85.54088805110445
 20
82.85099690277242
 30
0.0
 10
85.43228909246764
 20
82.83732681790663
 30
0.0
 10
85.8199301601173
 20
82.88824631852206
 30
0.0
 10
86.68589484195249
 20
82.9878294915686
 30
0.0
 10
87.88629876672229
 20
83.05695337471225
 30
0.0
 10
88.9438746812111
 20
83.06090560385113
 30
0.0
 10
89.77100876812088
 20
83.03341666539576
 30
0.0
 10
90.59628063575614
 20
82.97487648898856
 30
0.0
 10
91.65064585575385
 20
82.86135532925186
 30
0.0
 10
92.81248213722697
 20
82.67820450500419
 30
0.0
 10
93.76471691861028
 20
82.47360129536912
 30
0.0
 10
93.89042197941818
 20
82.44431594459307
 30
0.0
 10
93.9531354115634
 20
82.42970567475238
 30
0.0
  0
SPLINE
  5
A0
330
1F
100
AcDbEntity
  8
0
  6
Continuous
 62
     7
370
    15
100
AcDbSpline
210
0.0
220
0.0
230
1.0
 70
     8
 71
     3
 72
    18
 73
    14
 74
     0
 42
0.00000001
 43
0.00000001
 40
0.0
 40
0.0
 40
0.0
 40
0.0
 40
0.1248907792210118
 40
0.2505384020341681
 40
0.3748721840485256
 40
0.4374907653350248
 40
0.499077626589441
 40
0.5607931536355697
 40
0.6233901338664959
 40
0.7478191038417357
 40
0.8731940995934964
 40
0.9991614644710061
 40
1.0
 40
1.0
 40
1.0
 40
1.0
 10
93.95291664603947
 20
130.587130553144
 30
0.0
 10
93.88917589332782
 20
130.572469260546
 30
0.0
 10
93.76130811615133
 20
130.5430578272745
 30
0.0
 10
92.80930889509105
 20
130.338104723212
 30
0.0
 10
91.64876518988719
 20
130.1548409474012
 30
0.0
 10
90.59650073779973
 20
130.0418133551519
 30
0.0
 10
89.77227362273076
 20
129.9835497076108
 30
0.0
 10
88.94466985321081
 20
129.9561033196068
 30
0.0
 10
87.88585266072552
 20
129.9600881255358
 30
0.0
 10
86.68363396269154
 20
130.0291776019171
 30
0.0
 10
85.8184500230042
 20
130.1288038184742
 30
0.0
 10
85.4323096014739
 20
130.1796198920736
 30
0.0
 10
85.54038114225433
 20
130.1659477120113
 30
0.0
 10
85.54109579217462
 20
130.1658573013229
 30
0.0
  0
SPLINE
  5
A1
330
1F
100
AcDbEntity
  8
0
  6
Continuous
 62
     7
370
    15
100
AcDbSpline
210
0.0
220
0.0
230
1.0
 70
     8
 71
     3
 72
    10
 73
     6
 74
     0
 42
0.00000001
 43
0.00000001
 40
0.0
 40
0.0
 40
0.0
 40
0.0
 40
0.5
 40
0.5
 40
1.0
 40
1.0
 40
1.0
 40
1.0
 10
66.87149904366962
 20
86.81777295774789
 30
0.0
 10
66.87149904366957
 20
86.7888986928885
 30
0.0
 10
66.88169295343067
 20
86.77139513650998
 30
0.0
 10
66.90844355823883
 20
86.77086357368223
 30
0.0
 10
66.92533101017017
 20
86.78853103086179
 30
0.0
 10
66.93416241839368
 20
86.83389815944466
 30
0.0
  0
LINE
  5
A2
330
1F
100
AcDbEntity
  8
0
  6
Continuous
 62
     7
370
    15
100
AcDbLine
 10
66.8714990437
 20
86.8177729577
 30
0.0
 11
66.8714990437
 21
126.1991284507
 31
0.0
  0
SPLINE
  5
A3
330
1F
100
AcDbEntity
  8
0
  6
Continuous
 62
     7
370
    15
100
AcDbSpline
210
0.0
220
0.0
230
1.0
 70
     8
 71
     3
 72
    10
 73
     6
 74
     0
 42
0.00000001
 43
0.00000001
 40
0.0
 40
0.0
 40
0.0
 40
0.0
 40
0.5
 40
0.5
 40
1.0
 40
1.0
 40
1.0
 40
1.0
 10
66.93416241839367
 20
126.1830032490061
 30
0.0
 10
66.92525812928493
 20
126.2287447682194
 30
0.0
 10
66.90874274909194
 20
126.2459356076883
 30
0.0
 10
66.88163480303034
 20
126.2456123307526
 30
0.0
 10
66.87149904367028
 20
126.2277347884562
 30
0.0
 10
66.87149904367028
 20
126.1991284507036
 30
0.0
  0
SPLINE
  5
A4
330
1F
100
AcDbEntity
  8
0
  6
Continuous
 62
     7
370
    15
100
AcDbSpline
210
0.0
220
0.0
230
1.0
 70
     8
 71
     3
 72
    26
 73
    22
 74
     0
 42
0.00000001
 43
0.00000001
 40
0.0
 40
0.0
 40
0.0
 40
0.0
 40
0.2499999999999842
 40
0.2499999999999842
 40
0.3749999999999759
 40
0.3749999999999759
 40
0.4374999999999711
 40
0.4374999999999711
 40
0.4687499999999716
 40
0.4687499999999716
 40
0.4999999999999721
 40
0.4999999999999721
 40
0.5312499999999726
 40
0.5312499999999726
 40
0.562499999999973
 40
0.562499999999973
 40
0.624999999999976
 40
0.624999999999976
 40
0.749999999999984
 40
0.749999999999984
 40
1.0
 40
1.0
 40
1.0
 40
1.0
 10
67.69565268977479
 20
126.8985700378232
 30
0.0
 10
67.65705216690631
 20
126.7807953414678
 30
0.0
 10
67.61075516435206
 20
126.6564056553059
 30
0.0
 10
67.51681581591812
 20
126.4511863229524
 30
0.0
 10
67.48150434900468
 20
126.379613456506
 30
0.0
 10
67.41532437325901
 20
126.2636602239055
 30
0.0
 10
67.39078600659077
 20
126.2230756890952
 30
0.0
 10
67.34741326103695
 20
126.1589340072235
 30
0.0
 10
67.33190485961177
 20
126.1370675819385
 30
0.0
 10
67.29686221502473
 20
126.0914733135952
 30
0.0
 10
67.27731192430495
 20
126.0678030226278
 30
0.0
 10
67.23538464393438
 20
126.0231864632879
 30
0.0
 10
67.21273253370273
 20
126.00230645077
 30
0.0
 10
67.17175881961612
 20
125.9714330370192
 30
0.0
 10
67.15415951972071
 20
125.9615941671868
 30
0.0
 10
67.10953253386455
 20
125.9426045514906
 30
0.0
 10
67.08897331121119
 20
125.9422802268372
 30
0.0
 10
67.03784787171455
 20
125.9515036677134
 30
0.0
 10
67.01693645872601
 20
125.9727505639303
 30
0.0
 10
66.96548655116507
 20
126.0467194427611
 30
0.0
 10
66.94782125186049
 20
126.1128375360759
 30
0.0
 10
66.93416241839367
 20
126.1830032490061
 30
0.0
  0
SPLINE
  5
A5
330
1F
100
AcDbEntity
  8
0
  6
Continuous
 62
     7
370
    15
100
AcDbSpline
210
0.0
220
0.0
230
1.0
 70
     8
 71
     3
 72
    10
 73
     6
 74
     0
 42
0.00000001
 43
0.00000001
 40
0.0
 40
0.0
 40
0.0
 40
0.0
 40
0.5
 40
0.5
 40
1.0
 40
1.0
 40
1.0
 40
1.0
 10
68.01145411325207
 20
127.368404596513
 30
0.0
 10
67.94389485833382
 20
127.3007132037033
 30
0.0
 10
67.88025820299734
 20
127.2260060389496
 30
0.0
 10
67.77003744842547
 20
127.067039906523
 30
0.0
 10
67.72322115520285
 20
126.982684640515
 30
0.0
 10
67.69565268977479
 20
126.8985700378232
 30
0.0
  0
SPLINE
  5
A6
330
1F
100
AcDbEntity
  8
0
  6
Continuous
 62
     7
370
    15
100
AcDbSpline
210
0.0
220
0.0
230
1.0
 70
     8
 71
     3
 72
    10
 73
     6
 74
     0
 42
0.00000001
 43
0.00000001
 40
0.0
 40
0.0
 40
0.0
 40
0.0
 40
0.5
 40
0.5
 40
1.0
 40
1.0
 40
1.0
 40
1.0
 10
67.69565268977482
 20
86.11833137062744
 30
0.0
 10
67.72313010452802
 20
86.03449457416184
 30
0.0
 10
67.76983873481568
 20
85.950184086575
 30
0.0
 10
67.88011719755764
 20
85.79106285609215
 30
0.0
 10
67.94400473616928
 20
85.71607811200407
 30
0.0
 10
68.01145411325162
 20
85.6484968119382
 30
0.0
  0
SPLINE
  5
A7
330
1F
100
AcDbEntity
  8
0
  6
Continuous
 62
     7
370
    15
100
AcDbSpline
210
0.0
220
0.0
230
1.0
 70
     8
 71
     3
 72
    24
 73
    20
 74
     0
 42
0.00000001
 43
0.00000001
 40
0.0
 40
0.0
 40
0.0
 40
0.0
 40
0.2499999999999937
 40
0.2499999999999937
 40
0.3749999999999912
 40
0.3749999999999912
 40
0.4374999999999901
 40
0.4374999999999901
 40
0.4687499999999891
 40
0.4687499999999891
 40
0.4999999999999881
 40
0.4999999999999881
 40
0.5624999999999888
 40
0.5624999999999888
 40
0.6249999999999893
 40
0.6249999999999893
 40
0.749999999999992
 40
0.749999999999992
 40
1.0
 40
1.0
 40
1.0
 40
1.0
 10
66.93416241839368
 20
86.83389815944466
 30
0.0
 10
66.94791553706392
 20
86.90454821743494
 30
0.0
 10
66.96568810446976
 20
86.97114633019987
 30
0.0
 10
67.01793919602514
 20
87.04524435043307
 30
0.0
 10
67.03897427160668
 20
87.06650215759463
 30
0.0
 10
67.09187467923512
 20
87.07464808374085
 30
0.0
 10
67.11298035211306
 20
87.07370828034507
 30
0.0
 10
67.159032520791
 20
87.05269228876774
 30
0.0
 10
67.17740299277438
 20
87.04178348266015
 30
0.0
 10
67.21895462784008
 20
87.00914857171277
 30
0.0
 10
67.241521300597
 20
86.9876565913414
 30
0.0
 10
67.30430231705704
 20
86.9191906477551
 30
0.0
 10
67.33743207802489
 20
86.87311618955002
 30
0.0
 10
67.39434976450993
 20
86.78810830121533
 30
0.0
 10
67.4185357900137
 20
86.74782800003396
 30
0.0
 10
67.48374374039345
 20
86.632891773568
 30
0.0
 10
67.51845980058471
 20
86.562308788421
 30
0.0
 10
67.6116750709156
 20
86.35810302934239
 30
0.0
 10
67.65734760627628
 20
86.23520464701502
 30
0.0
 10
67.69565268977482
 20
86.11833137062744
 30
0.0
  0
SPLINE
  5
A8
330
1F
100
AcDbEntity
  8
0
  6
Continuous
 62
     7
370
    15
100
AcDbSpline
210
0.0
220
0.0
230
1.0
 70
     8
 71
     3
 72
     9
 73
     5
 74
     0
 42
0.00000001
 43
0.00000001
 40
0.0
 40
0.0
 40
0.0
 40
0.0
 40
0.4073655984813304
 40
1.0
 40
1.0
 40
1.0
 40
1.0
 10
177.7917618424228
 20
127.0191726860323
 30
0.0
 10
177.7887551754806
 20
127.0195997354466
 30
0.0
 10
177.7813744173767
 20
127.0206480552259
 30
0.0
 10
177.8851682833368
 20
127.0054088173149
 30
0.0
 10
177.9466800989715
 20
126.9963775206759
 30
0.0
  0
LINE
  5
A9
330
1F
100
AcDbEntity
  8
0
  6
Continuous
 62
     7
370
    15
100
AcDbLine
 10
177.946680099
 20
86.0084507042
 30
0.0
 11
177.946680099
 21
126.9963775207
 31
0.0
  0
SPLINE
  5
AA
330
1F
100
AcDbEntity
  8
0
  6
Continuous
 62
     7
370
    15
100
AcDbSpline
210
0.0
220
0.0
230
1.0
 70
     8
 71
     3
 72
    68
 73
    64
 74
     0
 42
0.00000001
 43
0.00000001
 40
-0.03125
 40
-0.03125
 40
0.0
 40
0.0
 40
0.0312499999999994
 40
0.0312499999999994
 40
0.0624999999999989
 40
0.0624999999999989
 40
0.0937499999999983
 40
0.0937499999999983
 40
0.1249999999999978
 40
0.1249999999999978
 40
0.1562499999999972
 40
0.1562499999999972
 40
0.1874999999999976
 40
0.1874999999999976
 40
0.2187499999999981
 40
0.2187499999999981
 40
0.2499999999999985
 40
0.2499999999999985
 40
0.2812499999999989
 40
0.2812499999999989
 40
0.3124999999999994
 40
0.3124999999999994
 40
0.3437499999999998
 40
0.3437499999999998
 40
0.3750000000000002
 40
0.3750000000000002
 40
0.4062500000000007
 40
0.4062500000000007
 40
0.4375000000000011
 40
0.4375000000000011
 40
0.500000000000001
 40
0.500000000000001
 40
0.5312500000000009
 40
0.5312500000000009
 40
0.5625000000000008
 40
0.5625000000000008
 40
0.5937500000000007
 40
0.5937500000000007
 40
0.6250000000000006
 40
0.6250000000000006
 40
0.6562500000000004
 40
0.6562500000000004
 40
0.6875000000000003
 40
0.6875000000000003
 40
0.7187500000000002
 40
0.7187500000000002
 40
0.75
 40
0.75
 40
0.78125
 40
0.78125
 40
0.8125
 40
0.8125
 40
0.84375
 40
0.84375
 40
0.875
 40
0.875
 40
0.90625
 40
0.90625
 40
0.9375
 40
0.9375
 40
0.96875
 40
0.96875
 40
1.0
 40
1.0
 40
1.031249999999999
 40
1.031249999999999
 10
158.2009411574656
 20
108.6573097521144
 30
0.0
 10
158.53959786203
 20
108.9298057373339
 30
0.0
 10
158.7190671062695
 20
109.0479300771344
 30
0.0
 10
159.0964074193346
 20
109.2514837870753
 30
0.0
 10
159.2955731403997
 20
109.3372841690957
 30
0.0
 10
159.7068993867413
 20
109.4738838250369
 30
0.0
 10
159.9160529479442
 20
109.5239399260526
 30
0.0
 10
160.3410348399694
 20
109.5892763956164
 30
0.0
 10
160.5587761906396
 20
109.604462008352
 30
0.0
 10
160.9912555684079
 20
109.5985438784031
 30
0.0
 10
161.2050008374867
 20
109.5778277956363
 30
0.0
 10
161.6275678378231
 20
109.5012986915104
 30
0.0
 10
161.83833029271
 20
109.4447268034475
 30
0.0
 10
162.2442193972375
 20
109.2972552973596
 30
0.0
 10
162.4385166606819
 20
109.207106778196
 30
0.0
 10
162.8095434103271
 20
108.9932965708343
 30
0.0
 10
162.9880876869567
 20
108.8680391867927
 30
0.0
 10
163.3157745584744
 20
108.5876296627198
 30
0.0
 10
163.4641821141092
 20
108.4337910175559
 30
0.0
 10
163.7285856437593
 20
108.0973255380307
 30
0.0
 10
163.8458485832826
 20
107.9117647922691
 30
0.0
 10
164.0339494242859
 20
107.5240470712624
 30
0.0
 10
164.1055809682592
 20
107.3222341007124
 30
0.0
 10
164.201315442309
 20
106.9016965008838
 30
0.0
 10
164.2244669225036
 20
106.6824136797744
 30
0.0
 10
164.2179027173706
 20
106.2520863822323
 30
0.0
 10
164.1885376200916
 20
106.0355536030591
 30
0.0
 10
164.0796450127716
 20
105.6152041424592
 30
0.0
 10
164.0015428506505
 20
105.4143855715403
 30
0.0
 10
163.7007798366455
 20
104.8381311611193
 30
0.0
 10
163.4155757818878
 20
104.5006719551507
 30
0.0
 10
162.9117130121848
 20
104.0930765836798
 30
0.0
 10
162.7324458265898
 20
103.9741294188825
 30
0.0
 10
162.3525031677345
 20
103.7680633015396
 30
0.0
 10
162.1517244712375
 20
103.6814143442796
 30
0.0
 10
161.7433466521131
 20
103.5450656372647
 30
0.0
 10
161.5340142588864
 20
103.4943415262732
 30
0.0
 10
161.1050247909363
 20
103.4278092945327
 30
0.0
 10
160.8879169236019
 20
103.4126617284954
 30
0.0
 10
160.4578601075599
 20
103.4180070803603
 30
0.0
 10
160.243482301111
 20
103.4382590122526
 30
0.0
 10
159.8160774269685
 20
103.5153092855456
 30
0.0
 10
159.6063921961739
 20
103.571740673234
 30
0.0
 10
159.2029921653988
 20
103.7179254514349
 30
0.0
 10
159.0079713585154
 20
103.8078765566006
 30
0.0
 10
158.6322811351409
 20
104.0241886258806
 30
0.0
 10
158.4548021135989
 20
104.1490753577527
 30
0.0
 10
158.1295247790599
 20
104.4271828478359
 30
0.0
 10
157.9802942253705
 20
104.5811425718625
 30
0.0
 10
157.7119757333977
 20
104.9227636808837
 30
0.0
 10
157.5966504294258
 20
105.1061860369766
 30
0.0
 10
157.4096550858585
 20
105.4915836597963
 30
0.0
 10
157.3365798238943
 20
105.6968702697519
 30
0.0
 10
157.2406676700113
 20
106.1211671711864
 30
0.0
 10
157.2184073537491
 20
106.3352792039413
 30
0.0
 10
157.225272272958
 20
106.7674335094953
 30
0.0
 10
157.2554325038474
 20
106.9862284896783
 30
0.0
 10
157.3642229082284
 20
107.403907288922
 30
0.0
 10
157.4437886618277
 20
107.6079650958831
 30
0.0
 10
157.64540431215
 20
107.992270198308
 30
0.0
 10
157.7660032103664
 20
108.171068413095
 30
0.0
 10
158.0438518589882
 20
108.5040531786008
 30
0.0
 10
158.2009411574656
 20
108.6573097521144
 30
0.0
 10
158.53959786203
 20
108.9298057373339
 30
0.0
  0
CIRCLE
  5
AB
330
1F
100
AcDbEntity
  8
0
  6
Continuous
 62
     7
370
    15
100
AcDbCircle
 10
160.7214990437
 20
106.5084507042
 30
0.0
 40
2.5
  0
SPLINE
  5
AC
330
1F
100
AcDbEntity
  8
0
  6
Continuous
 62
     7
370
    15
100
AcDbSpline
210
0.0
220
0.0
230
1.0
 70
     8
 71
     3
 72
     9
 73
     5
 74
     0
 42
0.00000001
 43
0.00000001
 40
0.0
 40
0.0
 40
0.0
 40
0.0
 40
0.6896535809718914
 40
1.0
 40
1.0
 40
1.0
 40
1.0
 10
177.9466800989715
 20
126.9963775206759
 30
0.0
 10
177.8748600888486
 20
127.001300883923
 30
0.0
 10
177.7707208338597
 20
127.0084397771049
 30
0.0
 10
177.7873466115346
 20
127.0072835577846
 30
0.0
 10
177.7925063620996
 20
127.006924729259
 30
0.0
  0
LINE
  5
AD
330
1F
100
AcDbEntity
  8
0
  6
Continuous
 62
     7
370
    15
100
AcDbLine
 10
158.3702695086
 20
126.8806937278
 30
0.0
 11
158.4555628157
 21
126.8733735577
 31
0.0
  0
SPLINE
  5
AE
330
1F
100
AcDbEntity
  8
0
  6
Continuous
 62
     7
370
    15
100
AcDbSpline
210
0.0
220
0.0
230
1.0
 70
     8
 71
     3
 72
    36
 73
    32
 74
     0
 42
0.00000001
 43
0.00000001
 40
0.0
 40
0.0
 40
0.0
 40
0.0
 40
0.0316636627240481
 40
0.0551239763724237
 40
0.076630679266582
 40
0.1203174111506416
 40
0.1425306175384997
 40
0.1652407202479302
 40
0.2113014363857092
 40
0.2346782741540893
 40
0.2599993935861576
 40
0.3113496050206845
 40
0.3374111038804617
 40
0.3656478992863459
 40
0.4229645179695732
 40
0.4520935844167567
 40
0.4823496268686082
 40
0.5438481947528163
 40
0.5751612163398164
 40
0.6059897222026036
 40
0.6370388948046295
 40
0.6688035933926132
 40
0.7008255880925748
 40
0.7306398602360489
 40
0.791465154217464
 40
0.8226064832595607
 40
0.849508425432361
 40
0.9044878985738433
 40
0.9326954327645656
 40
0.9560527454254207
 40
1.0
 40
1.0
 40
1.0
 40
1.0
 10
164.2124978663772
 20
127.007267022426
 30
0.0
 10
164.2126265431763
 20
127.0072815328125
 30
0.0
 10
164.2128505594849
 20
127.0073067942679
 30
0.0
 10
164.1653390574309
 20
127.0010908105167
 30
0.0
 10
164.0902203653219
 20
126.9914050787942
 30
0.0
 10
163.9795331388209
 20
126.9774569904211
 30
0.0
 10
163.8357541964197
 20
126.9601668848484
 30
0.0
 10
163.6670183328581
 20
126.9405835421861
 30
0.0
 10
163.4656267297666
 20
126.9186115492495
 30
0.0
 10
163.232649497133
 20
126.895389499225
 30
0.0
 10
162.9691439254085
 20
126.8709243067624
 30
0.0
 10
162.6729171861414
 20
126.8467853958409
 30
0.0
 10
162.3488279835363
 20
126.824769975212
 30
0.0
 10
161.9938386789796
 20
126.8040849800857
 30
0.0
 10
161.6117617545443
 20
126.7878565544841
 30
0.0
 10
161.2139229889837
 20
126.7778370528867
 30
0.0
 10
160.7975513166073
 20
126.7722902884046
 30
0.0
 10
160.370340490422
 20
126.7745764064634
 30
0.0
 10
159.9482582431422
 20
126.7847231319625
 30
0.0
 10
159.6354444229908
 20
126.79607459906
 30
0.0
 10
159.3288487656941
 20
126.8108557537682
 30
0.0
 10
159.0286723893271
 20
126.828829672127
 30
0.0
 10
158.7452745329174
 20
126.8490042063652
 30
0.0
 10
158.3938771484148
 20
126.8776314200644
 30
0.0
 10
158.0778643625381
 20
126.9080205417542
 30
0.0
 10
157.8141586028408
 20
126.9363849776169
 30
0.0
 10
157.5933538170634
 20
126.9615680127258
 30
0.0
 10
157.4227219791623
 20
126.9825220163263
 30
0.0
 10
157.3115242709876
 20
126.9967023760576
 30
0.0
 10
157.2391891765697
 20
127.0061060522905
 30
0.0
 10
157.2304400454966
 20
127.0072683869189
 30
0.0
 10
157.2247272045058
 20
127.0080273460492
 30
0.0
  0
SPLINE
  5
AF
330
1F
100
AcDbEntity
  8
0
  6
Continuous
 62
     7
370
    15
100
AcDbSpline
210
0.0
220
0.0
230
1.0
 70
     8
 71
     3
 72
     9
 73
     5
 74
     0
 42
0.00000001
 43
0.00000001
 40
0.0
 40
0.0
 40
0.0
 40
0.0
 40
0.4519147939478145
 40
1.0
 40
1.0
 40
1.0
 40
1.0
 10
158.0259194766199
 20
126.9140477496485
 30
0.0
 10
158.07487805347
 20
126.9090305610324
 30
0.0
 10
158.1832139112595
 20
126.8979284933786
 30
0.0
 10
158.3040442096304
 20
126.8867955366612
 30
0.0
 10
158.3702695086104
 20
126.8806937277848
 30
0.0
  0
LINE
  5
B0
330
1F
100
AcDbEntity
  8
0
  6
Continuous
 62
     7
370
    15
100
AcDbLine
 10
158.370269509
 20
86.1362076807
 30
0.0
 11
158.2599551382
 21
86.1254509351
 31
0.0
  0
SPLINE
  5
B1
330
1F
100
AcDbEntity
  8
0
  6
Continuous
 62
     7
370
    15
100
AcDbSpline
210
0.0
220
0.0
230
1.0
 70
     8
 71
     3
 72
    27
 73
    23
 74
     0
 42
0.00000001
 43
0.00000001
 40
0.0
 40
0.0
 40
0.0
 40
0.0
 40
0.0019280461217055
 40
0.0489708445640605
 40
0.0920955638151168
 40
0.1363672298887164
 40
0.1816273647078837
 40
0.2279564199305267
 40
0.2783177879815655
 40
0.329854163233365
 40
0.3861090829477437
 40
0.4437735422965385
 40
0.5042727394054597
 40
0.5664439282217484
 40
0.6283101924456193
 40
0.692062432930967
 40
0.752159931611756
 40
0.814350376395623
 40
0.8688607900686484
 40
0.925461604781698
 40
0.9727681419720502
 40
1.0
 40
1.0
 40
1.0
 40
1.0
 10
157.2231673570312
 20
86.00866947390189
 30
0.0
 10
157.2226146174661
 20
86.00859699581886
 30
0.0
 10
157.2085754702575
 20
86.00675610990962
 30
0.0
 10
157.2589555104625
 20
86.01340489518516
 30
0.0
 10
157.3757342971487
 20
86.02848615272119
 30
0.0
 10
157.5687827782343
 20
86.05238885055589
 30
0.0
 10
157.8280114831084
 20
86.08235821893336
 30
0.0
 10
158.1578244951687
 20
86.11700370164111
 30
0.0
 10
158.555190750598
 20
86.15343234495501
 30
0.0
 10
159.0261820184887
 20
86.18894181821926
 30
0.0
 10
159.5578978477105
 20
86.21887612689582
 30
0.0
 10
160.146844901621
 20
86.23914945646911
 30
0.0
 10
160.7707816054352
 20
86.24580115215223
 30
0.0
 10
161.4081325230332
 20
86.23661783947298
 30
0.0
 10
162.0374253095951
 20
86.21191822880841
 30
0.0
 10
162.6221802175174
 20
86.17503949324224
 30
0.0
 10
163.1506953968679
 20
86.13051639048308
 30
0.0
 10
163.5796229344355
 20
86.08658617888744
 30
0.0
 10
163.9120177615626
 20
86.04796534279475
 30
0.0
 10
164.1165407698302
 20
86.02221946378997
 30
0.0
 10
164.2162150053665
 20
86.0091494729307
 30
0.0
 10
164.2114657702862
 20
86.00977155455696
 30
0.0
 10
164.2097306846961
 20
86.0099988258643
 30
0.0
  0
LINE
  5
B2
330
1F
100
AcDbEntity
  8
0
  6
Continuous
 62
     7
370
    15
100
AcDbLine
 10
158.4677127683
 20
86.1442950809
 30
0.0
 11
158.370269509
 21
86.1362076807
 31
0.0
  0
SPLINE
  5
B3
330
1F
100
AcDbEntity
  8
0
  6
Continuous
 62
     7
370
    15
100
AcDbSpline
210
0.0
220
0.0
230
1.0
 70
     8
 71
     3
 72
     8
 73
     4
 74
     0
 42
0.00000001
 43
0.00000001
 40
0.0
 40
0.0
 40
0.0
 40
0.0
 40
1.0
 40
1.0
 40
1.0
 40
1.0
 10
120.1634318751593
 20
136.9756461773897
 30
0.0
 10
119.668291845795
 20
136.0889665292094
 30
0.0
 10
119.174209140516
 20
135.2017038935234
 30
0.0
 10
118.6814990436703
 20
134.313684895397
 30
0.0
  0
LINE
  5
B4
330
1F
100
AcDbEntity
  8
0
  6
Continuous
 62
     7
370
    15
100
AcDbLine
 10
120.1634318752
 20
130.9671403666
 30
0.0
 11
120.1634318752
 21
136.9756461774
 31
0.0
  0
SPLINE
  5
B5
330
1F
100
AcDbEntity
  8
0
  6
Continuous
 62
     7
370
    15
100
AcDbSpline
210
0.0
220
0.0
230
1.0
 70
     8
 71
     3
 72
     8
 73
     4
 74
     0
 42
0.00000001
 43
0.00000001
 40
0.0
 40
0.0
 40
0.0
 40
0.0
 40
1.0
 40
1.0
 40
1.0
 40
1.0
 10
118.6814990436703
 20
127.5585943718087
 30
0.0
 10
119.1607771942601
 20
128.6996056016613
 30
0.0
 10
119.6563450334001
 20
129.8359900124292
 30
0.0
 10
120.1634318751593
 20
130.9671403665928
 30
0.0
  0
LINE
  5
B6
330
1F
100
AcDbEntity
  8
0
  6
Continuous
 62
     7
370
    15
100
AcDbLine
 10
118.6814990437
 20
127.5585943718
 30
0.0
 11
118.6814990437
 21
134.3136848954
 31
0.0
  0
SPLINE
  5
B7
330
1F
100
AcDbEntity
  8
0
  6
Continuous
 62
     7
370
    15
100
AcDbSpline
210
0.0
220
0.0
230
1.0
 70
     8
 71
     3
 72
     8
 73
     4
 74
     0
 42
0.00000001
 43
0.00000001
 40
0.0
 40
0.0
 40
0.0
 40
0.0
 40
1.0
 40
1.0
 40
1.0
 40
1.0
 10
114.8614990436703
 20
134.313684895397
 30
0.0
 10
114.3687889468245
 20
135.2017038935234
 30
0.0
 10
113.8747062415455
 20
136.0889665292094
 30
0.0
 10
113.3795662121812
 20
136.9756461773897
 30
0.0
  0
LINE
  5
B8
330
1F
100
AcDbEntity
  8
0
  6
Continuous
 62
     7
370
    15
100
AcDbLine
 10
114.8614990437
 20
127.5585943718
 30
0.0
 11
114.8614990437
 21
134.3136848954
 31
0.0
  0
SPLINE
  5
B9
330
1F
100
AcDbEntity
  8
0
  6
Continuous
 62
     7
370
    15
100
AcDbSpline
210
0.0
220
0.0
230
1.0
 70
     8
 71
     3
 72
     8
 73
     4
 74
     0
 42
0.00000001
 43
0.00000001
 40
0.0
 40
0.0
 40
0.0
 40
0.0
 40
1.0
 40
1.0
 40
1.0
 40
1.0
 10
113.3795662121812
 20
130.9671403665928
 30
0.0
 10
113.8866530539405
 20
129.8359900124292
 30
0.0
 10
114.3822208930804
 20
128.6996056016613
 30
0.0
 10
114.8614990436703
 20
127.5585943718087
 30
0.0
  0
LINE
  5
BA
330
1F
100
AcDbEntity
  8
0
  6
Continuous
 62
     7
370
    15
100
AcDbLine
 10
114.8614990437
 20
127.5585943718
 30
0.0
 11
114.8614990437
 21
126.6443173357
 31
0.0
  0
LINE
  5
BB
330
1F
100
AcDbEntity
  8
0
  6
Continuous
 62
     7
370
    15
100
AcDbLine
 10
124.1214990437
 20
136.9756461774
 30
0.0
 11
120.1634318752
 21
136.9756461774
 31
0.0
  0
LINE
  5
BC
330
1F
100
AcDbEntity
  8
0
  6
Continuous
 62
     7
370
    15
100
AcDbLine
 10
120.1634318752
 20
130.9671403666
 30
0.0
 11
124.1214990437
 21
130.9671403666
 31
0.0
  0
LINE
  5
BD
330
1F
100
AcDbEntity
  8
0
  6
Continuous
 62
     7
370
    15
100
AcDbLine
 10
118.6814990437
 20
126.6443173357
 30
0.0
 11
118.6814990437
 21
127.5585943718
 31
0.0
  0
SPLINE
  5
BE
330
1F
100
AcDbEntity
  8
0
  6
Continuous
 62
     7
370
    15
100
AcDbSpline
210
0.0
220
0.0
230
1.0
 70
     8
 71
     3
 72
    12
 73
     8
 74
     0
 42
0.00000001
 43
0.00000001
 40
0.0
 40
0.0
 40
0.0
 40
0.0
 40
0.25
 40
0.25
 40
0.5
 40
0.5
 40
1.0
 40
1.0
 40
1.0
 40
1.0
 10
124.1214990436703
 20
130.9671403665928
 30
0.0
 10
124.2126987654959
 20
130.9671403665928
 30
0.0
 10
124.303293774632
 20
130.938920668005
 30
0.0
 10
124.4567065010786
 20
130.8444776607569
 30
0.0
 10
124.5219153684023
 20
130.7781906840516
 30
0.0
 10
124.6746998977422
 20
130.5525658607633
 30
0.0
 10
124.7214990436703
 20
130.3701395977307
 30
0.0
 10
124.7214990436703
 20
130.1894029654838
 30
0.0
  0
LINE
  5
BF
330
1F
100
AcDbEntity
  8
0
  6
Continuous
 62
     7
370
    15
100
AcDbLine
 10
124.7214990437
 20
130.1894029655
 30
0.0
 11
124.7214990437
 21
126.3584507042
 31
0.0
  0
SPLINE
  5
C0
330
1F
100
AcDbEntity
  8
0
  6
Continuous
 62
     7
370
    15
100
AcDbSpline
210
0.0
220
0.0
230
1.0
 70
     8
 71
     3
 72
    10
 73
     6
 74
     0
 42
0.00000001
 43
0.00000001
 40
0.0
 40
0.0
 40
0.0
 40
0.0
 40
0.5
 40
0.5
 40
1.0
 40
1.0
 40
1.0
 40
1.0
 10
124.7214990436703
 20
136.3548910279893
 30
0.0
 10
124.7214990436703
 20
136.5152962943401
 30
0.0
 10
124.6592612125634
 20
136.6743581073287
 30
0.0
 10
124.4401262888208
 20
136.905270572959
 30
0.0
 10
124.282537593829
 20
136.9756461773897
 30
0.0
 10
124.1214990436703
 20
136.9756461773897
 30
0.0
  0
LINE
  5
C1
330
1F
100
AcDbEntity
  8
0
  6
Continuous
 62
     7
370
    15
100
AcDbLine
 10
124.7214990437
 20
130.1894029655
 30
0.0
 11
124.7214990437
 21
136.354891028
 31
0.0
  0
ARC
  5
C2
330
1F
100
AcDbEntity
  8
0
  6
Continuous
 62
     7
370
    15
100
AcDbCircle
 10
106.7713489654
 20
125.2387357802
 30
0.0
 40
7.226153047389759
100
AcDbArc
 50
70.8273481302
 51
109.12768509
  0
LINE
  5
C3
330
1F
100
AcDbEntity
  8
0
  6
Continuous
 62
     7
370
    15
100
AcDbLine
 10
228.7714990437
 20
91.8572316875
 30
0.0
 11
228.7714990437
 21
121.1596697162
 31
0.0
  0
LINE
  5
C4
330
1F
100
AcDbEntity
  8
0
  6
Continuous
 62
     7
370
    15
100
AcDbLine
 10
228.7714990437
 20
94.2590293732
 30
0.0
 11
228.8488212508
 21
92.2910477863
 31
0.0
  0
LINE
  5
C5
330
1F
100
AcDbEntity
  8
0
  6
Continuous
 62
     7
370
    15
100
AcDbLine
 10
228.7899315272
 20
120.7281674057
 30
0.0
 11
228.7714990437
 21
120.2590293732
 31
0.0
  0
LINE
  5
C6
330
1F
100
AcDbEntity
  8
0
  6
HIDDEN
 62
     7
370
     0
100
AcDbLine
 10
113.3795662122
 20
130.9671403666
 30
0.0
 11
113.3795662122
 21
126.3584507042
 31
0.0
  0
ARC
  5
C7
330
1F
100
AcDbEntity
  8
0
  6
HIDDEN
 62
     7
370
     0
100
AcDbCircle
 10
107.0737443535
 20
118.9864317921
 30
0.0
 40
3.660565765032639
100
AcDbArc
 50
265.2638146341
 51
12.7924708268
  0
ARC
  5
C8
330
1F
100
AcDbEntity
  8
0
  6
HIDDEN
 62
     7
370
     0
100
AcDbCircle
 10
106.488585851
 20
118.9983214587
 30
0.0
 40
3.670874462837141
100
AcDbArc
 50
166.0486690848
 51
274.4201516687
  0
LINE
  5
C9
330
1F
100
AcDbEntity
  8
0
  6
HIDDEN
 62
     7
370
     0
100
AcDbLine
 10
86.7666492482
 20
82.9838510814
 30
0.0
 11
86.2325038191
 21
82.9292364819
 31
0.0
  0
LINE
  5
CA
330
1F
100
AcDbEntity
  8
0
  6
HIDDEN
 62
     7
370
     0
100
AcDbLine
 10
85.9948501471
 20
130.1117838847
 30
0.0
 11
86.766556528
 21
130.0330337342
 31
0.0
  0
SPLINE
  5
CB
330
1F
100
AcDbEntity
  8
0
  6
HIDDEN
 62
     7
370
     0
100
AcDbSpline
210
0.0
220
0.0
230
1.0
 70
     8
 71
     3
 72
    22
 73
    18
 74
     0
 42
0.00000001
 43
0.00000001
 40
0.0
 40
0.0
 40
0.0
 40
0.0
 40
0.069470503305567
 40
0.1409377255045835
 40
0.210413548914841
 40
0.2819466223559928
 40
0.3506518733998513
 40
0.4213897814436845
 40
0.4894670043894698
 40
0.5594810940348494
 40
0.6282706827033766
 40
0.6989997382187428
 40
0.7687375408512302
 40
0.8405098102584779
 40
0.9099666189318144
 40
0.9814998892127903
 40
1.0
 40
1.0
 40
1.0
 40
1.0
 10
92.52650104527189
 20
86.67092222840894
 30
0.0
 10
92.37832719081251
 20
86.69064856821826
 30
0.0
 10
92.07772067390138
 20
86.73066822163904
 30
0.0
 10
91.54282581122064
 20
86.7860418851689
 30
0.0
 10
90.95718725855187
 20
86.8304982702967
 30
0.0
 10
90.34295459897854
 20
86.85818324574888
 30
0.0
 10
89.70903795361026
 20
86.86643649921874
 30
0.0
 10
89.08688925303848
 20
86.85445644433825
 30
0.0
 10
88.48089178317784
 20
86.8237056905773
 30
0.0
 10
87.91640286205133
 20
86.7782397198271
 30
0.0
 10
87.39702662446966
 20
86.72215856802751
 30
0.0
 10
86.94416112678823
 20
86.66216840570911
 30
0.0
 10
86.56544598312254
 20
86.60418849135019
 30
0.0
 10
86.27736086204743
 20
86.55526968320368
 30
0.0
 10
86.09490296549481
 20
86.52223432067794
 30
0.0
 10
86.01424501416076
 20
86.50709452442229
 30
0.0
 10
86.02853489285961
 20
86.5097664777953
 30
0.0
 10
86.03147118533167
 20
86.51031551230707
 30
0.0
  0
SPLINE
  5
CC
330
1F
100
AcDbEntity
  8
0
  6
HIDDEN
 62
     7
370
     0
100
AcDbSpline
210
0.0
220
0.0
230
1.0
 70
     8
 71
     3
 72
    30
 73
    26
 74
     0
 42
0.00000001
 43
0.00000001
 40
0.0
 40
0.0
 40
0.0
 40
0.0
 40
0.0156161600804337
 40
0.0849748372628082
 40
0.1203204532886746
 40
0.15431851909124
 40
0.2234436946574013
 40
0.2586467089786606
 40
0.2931107206687011
 40
0.3631864361325603
 40
0.3988795186727328
 40
0.4336750628309723
 40
0.4687145712104809
 40
0.5045294144990544
 40
0.5406151111978532
 40
0.5750767863722916
 40
0.6452033649630275
 40
0.6809575734718859
 40
0.7149323277721685
 40
0.784033058295527
 40
0.8192378401372485
 40
0.8533347063218409
 40
0.9226550151093995
 40
0.9579547149334489
 40
1.0
 40
1.0
 40
1.0
 40
1.0
 10
86.02461642485585
 20
126.5078664363333
 30
0.0
 10
86.02401868577078
 20
126.507978689215
 30
0.0
 10
86.02076610759411
 20
126.5085895096923
 30
0.0
 10
86.07108701004245
 20
126.4991303752352
 30
0.0
 10
86.17139203908374
 20
126.480825539139
 30
0.0
 10
86.30600902715342
 20
126.4568422337652
 30
0.0
 10
86.48806767218349
 20
126.4257434396188
 30
0.0
 10
86.71499024584877
 20
126.3898242955764
 30
0.0
 10
86.97157665122614
 20
126.3515052744374
 30
0.0
 10
87.26961330969883
 20
126.3112601391291
 30
0.0
 10
87.60216256369857
 20
126.2725991157268
 30
0.0
 10
87.86736026910285
 20
126.2451964569956
 30
0.0
 10
88.14641809436179
 20
126.2201516203834
 30
0.0
 10
88.44086911025596
 20
126.1979839230878
 30
0.0
 10
88.74373404357219
 20
126.1798218358178
 30
0.0
 10
89.15412003044096
 20
126.1615637308234
 30
0.0
 10
89.57496086939575
 20
126.152716496819
 30
0.0
 10
89.99486478662472
 20
126.1541818912602
 30
0.0
 10
90.40947930747842
 20
126.1622252844275
 30
0.0
 10
90.81570042695428
 20
126.1797320700268
 30
0.0
 10
91.20523092667624
 20
126.2052973830546
 30
0.0
 10
91.5820516279146
 20
126.2354816187688
 30
0.0
 10
91.93518878761856
 20
126.2713791936163
 30
0.0
 10
92.27694027544015
 20
126.3121974714749
 30
0.0
 10
92.43861403644974
 20
126.3340823850414
 30
0.0
 10
92.52650104527189
 20
126.3459791800419
 30
0.0
  0
SPLINE
  5
CD
330
1F
100
AcDbEntity
  8
0
  6
HIDDEN
 62
     7
370
     0
100
AcDbSpline
210
0.0
220
0.0
230
1.0
 70
     8
 71
     3
 72
    15
 73
    11
 74
     0
 42
0.00000001
 43
0.00000001
 40
0.0
 40
0.0
 40
0.0
 40
0.0
 40
0.110073497728565
 40
0.2209211978812889
 40
0.3341969248598607
 40
0.4483072217158166
 40
0.5584036831377097
 40
0.7823036295888718
 40
0.8963677673997164
 40
0.9999999999999999
 40
0.9999999999999999
 40
0.9999999999999999
 40
0.9999999999999999
 10
92.52650104527189
 20
126.3459791800419
 30
0.0
 10
92.59409503175937
 20
126.355047434135
 30
0.0
 10
92.72975842733176
 20
126.3732477239257
 30
0.0
 10
92.91020385154947
 20
126.3939687792248
 30
0.0
 10
93.07235262775099
 20
126.4107084646782
 30
0.0
 10
93.21040376814115
 20
126.4232905761586
 30
0.0
 10
93.3620445105568
 20
126.4356693776582
 30
0.0
 10
93.46349000887841
 20
126.4426266529656
 30
0.0
 10
93.51490312138684
 20
126.4459232557197
 30
0.0
 10
93.51885791486481
 20
126.4461685599981
 30
0.0
 10
93.52074055570453
 20
126.4462853347059
 30
0.0
  0
SPLINE
  5
CE
330
1F
100
AcDbEntity
  8
0
  6
HIDDEN
 62
     7
370
     0
100
AcDbSpline
210
0.0
220
0.0
230
1.0
 70
     8
 71
     3
 72
    13
 73
     9
 74
     0
 42
0.00000001
 43
0.00000001
 40
0.0
 40
0.0
 40
0.0
 40
0.0
 40
0.1180811140092918
 40
0.346439758780825
 40
0.5686696161153982
 40
0.797396614200461
 40
0.8984003972211108
 40
1.0
 40
1.0
 40
1.0
 40
1.0
 10
93.50869437972015
 20
86.57137792834618
 30
0.0
 10
93.51082574746533
 20
86.5712411929368
 30
0.0
 10
93.51707899578295
 20
86.57084002309144
 30
0.0
 10
93.41208535167226
 20
86.57756527734742
 30
0.0
 10
93.2034689355697
 20
86.59354897230602
 30
0.0
 10
92.9496972418379
 20
86.61816301815536
 30
0.0
 10
92.71361867680955
 20
86.64575243478897
 30
0.0
 10
92.5889957535783
 20
86.66251586446833
 30
0.0
 10
92.52650104527189
 20
86.67092222840894
 30
0.0
  0
LINE
  5
CF
330
1F
100
AcDbEntity
  8
0
  6
HIDDEN
 62
     7
370
     0
100
AcDbLine
 10
79.7754736399
 20
89.5084507042
 30
0.0
 11
79.7754736399
 21
123.5084507042
 31
0.0
  0
LWPOLYLINE
  5
D0
330
1F
100
AcDbEntity
  8
0
  6
HIDDEN
 62
     7
370
     0
100
AcDbPolyline
 90
       13
 70
   128
 43
0.0
 10
106.7714990437
 20
128.4540531189
 10
107.6313808045
 20
128.5008120074
 10
108.4510554499
 20
128.6389022795
 10
109.1921959044
 20
128.8618669875
 10
109.8201472642
 20
129.1592805493
 10
110.3055472215
 20
129.5172362375
 10
110.6256990137
 20
129.9189964418
 10
110.7656326991
 20
130.3457753017
 10
110.7188051338
 20
130.777617112
 10
110.4874059229
 20
131.1943294295
 10
110.0822550363
 20
131.5764272496
 10
109.5222968791
 20
131.9060441027
 10
109.1445321199
 20
132.064077499
  0
LWPOLYLINE
  5
D1
330
1F
100
AcDbEntity
  8
0
  6
HIDDEN
 62
     7
370
     0
100
AcDbPolyline
 90
       13
 70
   128
 43
0.0
 10
104.4035231946
 20
132.0659379146
 10
104.0207012083
 20
131.9060441027
 10
103.460743051
 20
131.5764272496
 10
103.0555921644
 20
131.1943294295
 10
102.8241929535
 20
130.777617112
 10
102.7773653883
 20
130.3457753017
 10
102.9172990736
 20
129.9189964418
 10
103.2374508659
 20
129.5172362375
 10
103.7228508232
 20
129.1592805493
 10
104.3508021829
 20
128.8618669875
 10
105.0919426374
 20
128.6389022795
 10
105.9116172828
 20
128.5008120074
 10
106.7714990437
 20
128.4540531189
  0
SPLINE
  5
D2
330
1F
100
AcDbEntity
  8
0
  6
HIDDEN
 62
     7
370
     0
100
AcDbSpline
210
0.0
220
0.0
230
1.0
 70
     8
 71
     3
 72
    11
 73
     7
 74
     0
 42
0.00000001
 43
0.00000001
 40
0.0
 40
0.0
 40
0.0
 40
0.0
 40
0.0005779865010845
 40
0.0005779865010845
 40
0.0005779865010845
 40
0.0011559733324421
 40
0.0011559733324421
 40
0.0011559733324421
 40
0.0011559733324421
 10
66.87149904367028
 20
108.5082913123853
 30
0.0
 10
67.03816629847624
 20
108.5063076730443
 30
0.0
 10
67.2048327281539
 20
108.5042700660357
 30
0.0
 10
67.37149906660572
 20
108.5021586026293
 30
0.0
 10
67.53816549543214
 20
108.5000471380779
 30
0.0
 10
67.70483186906984
 20
108.4978615749216
 30
0.0
 10
67.87149904367028
 20
108.4955789975899
 30
0.0
  0
SPLINE
  5
D3
330
1F
100
AcDbEntity
  8
0
  6
HIDDEN
 62
     7
370
     0
100
AcDbSpline
210
0.0
220
0.0
230
1.0
 70
     8
 71
     3
 72
     8
 73
     4
 74
     0
 42
0.00000001
 43
0.00000001
 40
0.0
 40
0.0
 40
0.0
 40
0.0
 40
0.0011564765856722
 40
0.0011564765856722
 40
0.0011564765856722
 40
0.0011564765856722
 10
67.87149904367028
 20
104.5117504020091
 30
0.0
 10
67.53819111310142
 20
104.5108752464259
 30
0.0
 10
67.20485588070923
 20
104.5098203951743
 30
0.0
 10
66.87149904367027
 20
104.5086493081367
 30
0.0
  0
LINE
  5
D4
330
1F
100
AcDbEntity
  8
0
  6
HIDDEN
 62
     7
370
     0
100
AcDbLine
 10
106.4313250122
 20
89.5084507042
 30
0.0
 11
106.4313250122
 21
123.5084507042
 31
0.0
  0
LINE
  5
D5
330
1F
100
AcDbEntity
  8
0
  6
HIDDEN
 62
     7
370
     0
100
AcDbLine
 10
108.7214990437
 20
90.7834507042
 30
0.0
 11
108.7214990437
 21
122.2334507033
 31
0.0
  0
SPLINE
  5
D6
330
1F
100
AcDbEntity
  8
0
  6
HIDDEN
 62
     7
370
     0
100
AcDbSpline
210
0.0
220
0.0
230
1.0
 70
     8
 71
     3
 72
    16
 73
    12
 74
     0
 42
0.00000001
 43
0.00000001
 40
0.0
 40
0.0
 40
0.0
 40
0.0
 40
0.124999999999998
 40
0.124999999999998
 40
0.249999999999996
 40
0.249999999999996
 40
0.4999999999999973
 40
0.4999999999999973
 40
0.7499999999999987
 40
0.7499999999999987
 40
1.0
 40
1.0
 40
1.0
 40
1.0
 10
75.57149904367027
 20
90.70696026819375
 30
0.0
 10
75.66662079833611
 20
90.70696026819375
 30
0.0
 10
75.75995086706418
 20
90.70314443480095
 30
0.0
 10
75.94321262780218
 20
90.68837388207113
 30
0.0
 10
76.03409034335918
 20
90.67721583409555
 30
0.0
 10
76.29089204087893
 20
90.63474456395383
 30
0.0
 10
76.44595940575091
 20
90.59369836675103
 30
0.0
 10
76.69970586730554
 20
90.49855225016914
 30
0.0
 10
76.8005763189734
 20
90.44378951608756
 30
0.0
 10
76.93582273366823
 20
90.3325283921837
 30
0.0
 10
76.97149904367028
 20
90.275358654855
 30
0.0
 10
76.97149904367028
 20
90.22093708182128
 30
0.0
  0
SPLINE
  5
D7
330
1F
100
AcDbEntity
  8
0
  6
HIDDEN
 62
     7
370
     0
100
AcDbSpline
210
0.0
220
0.0
230
1.0
 70
     8
 71
     3
 72
     8
 73
     4
 74
     0
 42
0.00000001
 43
0.00000001
 40
0.0
 40
0.0
 40
0.0
 40
0.0
 40
1.0
 40
1.0
 40
1.0
 40
1.0
 10
68.17149904698547
 20
92.85176321427599
 30
0.0
 10
68.17149904698739
 20
91.96786607195907
 30
0.0
 10
68.1580184210776
 20
91.2532828268971
 30
0.0
 10
68.1566670528883
 20
90.70696026819375
 30
0.0
  0
LINE
  5
D8
330
1F
100
AcDbEntity
  8
0
  6
HIDDEN
 62
     7
370
     0
100
AcDbLine
 10
67.8714990437
 20
96.9076239118
 30
0.0
 11
67.8714990437
 21
93.87667348
 31
0.0
  0
SPLINE
  5
D9
330
1F
100
AcDbEntity
  8
0
  6
HIDDEN
 62
     7
370
     0
100
AcDbSpline
210
0.0
220
0.0
230
1.0
 70
     8
 71
     3
 72
    10
 73
     6
 74
     0
 42
0.00000001
 43
0.00000001
 40
0.0
 40
0.0
 40
0.0
 40
0.0
 40
0.5
 40
0.5
 40
1.0
 40
1.0
 40
1.0
 40
1.0
 10
68.17149904685799
 20
98.27546432858257
 30
0.0
 10
68.17149904685796
 20
98.03348036097576
 30
0.0
 10
68.14334901778739
 20
97.79913793201075
 30
0.0
 10
68.03975910364497
 20
97.34376290973306
 30
0.0
 10
67.96313039405348
 20
97.1221583466257
 30
0.0
 10
67.87149904367028
 20
96.90762391182777
 30
0.0
  0
LINE
  5
DA
330
1F
100
AcDbEntity
  8
0
  6
HIDDEN
 62
     7
370
     0
100
AcDbLine
 10
68.1714990469
 20
110.1130843258
 30
0.0
 11
68.1714990469
 21
98.2754643285
 31
0.0
  0
SPLINE
  5
DB
330
1F
100
AcDbEntity
  8
0
  6
HIDDEN
 62
     7
370
     0
100
AcDbSpline
210
0.0
220
0.0
230
1.0
 70
     8
 71
     3
 72
     8
 73
     4
 74
     0
 42
0.00000001
 43
0.00000001
 40
0.0
 40
0.0
 40
0.0
 40
0.0
 40
1.0
 40
1.0
 40
1.0
 40
1.0
 10
67.87149904367027
 20
116.1153900252937
 30
0.0
 10
68.05253051022918
 20
115.6832825396311
 30
0.0
 10
68.1714990468637
 20
115.2291371335314
 30
0.0
 10
68.171499046858
 20
114.7414370798373
 30
0.0
  0
LINE
  5
DC
330
1F
100
AcDbEntity
  8
0
  6
HIDDEN
 62
     7
370
     0
100
AcDbLine
 10
67.8714990437
 20
119.1485930113
 30
0.0
 11
67.8714990437
 21
116.1153900253
 31
0.0
  0
SPLINE
  5
DD
330
1F
100
AcDbEntity
  8
0
  6
HIDDEN
 62
     7
370
     0
100
AcDbSpline
210
0.0
220
0.0
230
1.0
 70
     8
 71
     3
 72
    10
 73
     6
 74
     0
 42
0.00000001
 43
0.00000001
 40
0.0
 40
0.0
 40
0.0
 40
0.0
 40
0.5
 40
0.5
 40
1.0
 40
1.0
 40
1.0
 40
1.0
 10
68.17149904706349
 20
120.1651381941452
 30
0.0
 10
68.17149904706169
 20
120.0005018475392
 30
0.0
 10
68.1443403763062
 20
119.8333466237087
 30
0.0
 10
68.0385753809878
 20
119.4947236159071
 30
0.0
 10
67.96216059269064
 20
119.3224518386161
 30
0.0
 10
67.8714990436703
 20
119.1485930112721
 30
0.0
  0
SPLINE
  5
DE
330
1F
100
AcDbEntity
  8
0
  6
HIDDEN
 62
     7
370
     0
100
AcDbSpline
210
0.0
220
0.0
230
1.0
 70
     8
 71
     3
 72
    18
 73
    14
 74
     0
 42
0.00000001
 43
0.00000001
 40
0.0
 40
0.0
 40
0.0
 40
0.0
 40
0.2500000000000033
 40
0.2500000000000033
 40
0.3750000000000029
 40
0.3750000000000029
 40
0.5000000000000026
 40
0.5000000000000026
 40
0.6250000000000022
 40
0.6250000000000022
 40
0.7500000000000018
 40
0.7500000000000018
 40
1.0
 40
1.0
 40
1.0
 40
1.0
 10
72.97149904367029
 20
122.7959643266295
 30
0.0
 10
72.97149904367028
 20
122.7414898060773
 30
0.0
 10
72.9365883522781
 20
122.6851087467249
 30
0.0
 10
72.83457905094505
 20
122.6010319058714
 30
0.0
 10
72.79294269626693
 20
122.5736982018805
 30
0.0
 10
72.69453690077819
 20
122.5207442862815
 30
0.0
 10
72.63699368907392
 20
122.4948569325643
 30
0.0
 10
72.50969551550097
 20
122.447079387731
 30
0.0
 10
72.44010821074349
 20
122.4251314695531
 30
0.0
 10
72.28867396558854
 20
122.3856989046404
 30
0.0
 10
72.20599006249459
 20
122.3681426554146
 30
0.0
 10
71.94987860045654
 20
122.3257038899941
 30
0.0
 10
71.76196359656856
 20
122.3099411402571
 30
0.0
 10
71.57149904367027
 20
122.3099411402571
 30
0.0
  0
LINE
  5
DF
330
1F
100
AcDbEntity
  8
0
  6
HIDDEN
 62
     7
370
     0
100
AcDbLine
 10
71.5714990437
 20
122.3099411403
 30
0.0
 11
68.1714990471
 21
122.3099411403
 31
0.0
  0
LINE
  5
E0
330
1F
100
AcDbEntity
  8
0
  6
HIDDEN
 62
     7
370
     0
100
AcDbLine
 10
68.102530057
 20
90.7069602682
 30
0.0
 11
75.5714990437
 21
90.7069602682
 31
0.0
  0
SPLINE
  5
E1
330
1F
100
AcDbEntity
  8
0
  6
HIDDEN
 62
     7
370
     0
100
AcDbSpline
210
0.0
220
0.0
230
1.0
 70
     8
 71
     3
 72
    22
 73
    18
 74
     0
 42
0.00000001
 43
0.00000001
 40
0.0
 40
0.0
 40
0.0
 40
0.0
 40
0.1249999999999998
 40
0.1249999999999998
 40
0.2499999999999995
 40
0.2499999999999995
 40
0.4999999999999992
 40
0.4999999999999992
 40
0.5624999999999993
 40
0.5624999999999993
 40
0.6249999999999994
 40
0.6249999999999994
 40
0.7499999999999996
 40
0.7499999999999996
 40
0.8749999999999998
 40
0.8749999999999998
 40
1.0
 40
1.0
 40
1.0
 40
1.0
 10
68.10253005702819
 20
90.70696026819375
 30
0.0
 10
68.08944766429984
 20
90.96206597834141
 30
0.0
 10
68.07622810086
 20
91.25522423744532
 30
0.0
 10
68.05378092306589
 20
91.91752470307013
 30
0.0
 10
68.04430245604141
 20
92.28779862368151
 30
0.0
 10
68.02510449510486
 20
93.51035542679531
 30
0.0
 10
68.02621826810174
 20
94.44749435292717
 30
0.0
 10
68.04512906105482
 20
95.76736558244215
 30
0.0
 10
68.04975858891382
 20
96.03886749141847
 30
0.0
 10
68.06023980865979
 20
96.59725232622078
 30
0.0
 10
68.0660350699442
 20
96.88437518216038
 30
0.0
 10
68.08434429084915
 20
97.75696443653206
 30
0.0
 10
68.0983792251295
 20
98.35742011288792
 30
0.0
 10
68.12783639726631
 20
99.594894605384
 30
0.0
 10
68.1433920882479
 20
100.2319107620275
 30
0.0
 10
68.16718663824479
 20
101.543399359712
 30
0.0
 10
68.17520569039016
 20
102.2195219713725
 30
0.0
 10
68.17149904367027
 20
102.9038170826573
 30
0.0
  0
LINE
  5
E2
330
1F
100
AcDbEntity
  8
0
  6
HIDDEN
 62
     7
370
     0
100
AcDbLine
 10
68.1714990471
 20
110.1130843258
 30
0.0
 11
68.1714990471
 21
122.3099411403
 31
0.0
  0
SPLINE
  5
E3
330
1F
100
AcDbEntity
  8
0
  6
HIDDEN
 62
     7
370
     0
100
AcDbSpline
210
0.0
220
0.0
230
1.0
 70
     8
 71
     3
 72
    10
 73
     6
 74
     0
 42
0.00000001
 43
0.00000001
 40
0.0
 40
0.0
 40
0.0
 40
0.0
 40
0.5
 40
0.5
 40
1.0
 40
1.0
 40
1.0
 40
1.0
 10
68.17149904367027
 20
102.9038170826422
 30
0.0
 10
68.1714990436701
 20
103.1777322307166
 30
0.0
 10
68.1457398138024
 20
103.4486738094467
 30
0.0
 10
68.04253388106925
 20
103.9843648910496
 30
0.0
 10
67.96519571719404
 20
104.2501116945715
 30
0.0
 10
67.87149904367027
 20
104.5117504020091
 30
0.0
  0
SPLINE
  5
E4
330
1F
100
AcDbEntity
  8
0
  6
HIDDEN
 62
     7
370
     0
100
AcDbSpline
210
0.0
220
0.0
230
1.0
 70
     8
 71
     3
 72
    10
 73
     6
 74
     0
 42
0.00000001
 43
0.00000001
 40
0.0
 40
0.0
 40
0.0
 40
0.0
 40
0.5
 40
0.5
 40
1.0
 40
1.0
 40
1.0
 40
1.0
 10
67.87149904367027
 20
108.4955789975899
 30
0.0
 10
67.96472962506128
 20
108.7594728056601
 30
0.0
 10
68.03975923729801
 20
109.0256531162983
 30
0.0
 10
68.14482633647617
 20
109.5639756912565
 30
0.0
 10
68.17149904706237
 20
109.8367238075021
 30
0.0
 10
68.17149904706355
 20
110.1130843257925
 30
0.0
  0
LINE
  5
E5
330
1F
100
AcDbEntity
  8
0
  6
HIDDEN
 62
     7
370
     0
100
AcDbLine
 10
67.8714990437
 20
104.511750402
 30
0.0
 11
67.8714990437
 21
108.4955789976
 31
0.0
  0
LINE
  5
E6
330
1F
100
AcDbEntity
  8
0
  6
HIDDEN
 62
     7
370
     0
100
AcDbLine
 10
68.0214990437
 20
88.5184507042
 30
0.0
 11
68.0214990437
 21
85.6385129388
 31
0.0
  0
LINE
  5
E7
330
1F
100
AcDbEntity
  8
0
  6
HIDDEN
 62
     7
370
     0
100
AcDbLine
 10
225.2714990437
 20
96.5084507042
 30
0.0
 11
225.2714990437
 21
116.5084507042
 31
0.0
  0
LINE
  5
E8
330
1F
100
AcDbEntity
  8
0
  6
HIDDEN
 62
     7
370
     0
100
AcDbLine
 10
177.2714990437
 20
96.6084507042
 30
0.0
 11
177.2714990437
 21
116.408450703
 31
0.0
  0
SPLINE
  5
E9
330
1F
100
AcDbEntity
  8
0
  6
HIDDEN
 62
     7
370
     0
100
AcDbSpline
210
0.0
220
0.0
230
1.0
 70
     8
 71
     3
 72
    17
 73
    13
 74
     0
 42
0.00000001
 43
0.00000001
 40
0.0
 40
0.0
 40
0.0
 40
0.0
 40
0.1050741377840422
 40
0.2132156150751862
 40
0.3182840573060145
 40
0.4263613331268762
 40
0.532129860374769
 40
0.6409367872909469
 40
0.7471489453140548
 40
0.8564829370771745
 40
0.9619349001843815
 40
1.0
 40
1.0
 40
1.0
 40
1.0
 10
179.2714990436703
 20
116.698642066511
 30
0.0
 10
179.354133203585
 20
116.6992288851788
 30
0.0
 10
179.5218137918251
 20
116.7004196530103
 30
0.0
 10
179.7650927425689
 20
116.7097378151749
 30
0.0
 10
179.9964600217533
 20
116.7235836377162
 30
0.0
 10
180.2058181229949
 20
116.7407584188751
 30
0.0
 10
180.3911502577194
 20
116.7595057473074
 30
0.0
 10
180.5437791523682
 20
116.7774652278019
 30
0.0
 10
180.6625942947061
 20
116.7930083415029
 30
0.0
 10
180.7378997753936
 20
116.8035601749039
 30
0.0
 10
180.7729644252015
 20
116.8086632472328
 30
0.0
 10
180.7678736743579
 20
116.807923852442
 30
0.0
 10
180.7665234520564
 20
116.807727742405
 30
0.0
  0
LINE
  5
EA
330
1F
100
AcDbEntity
  8
0
  6
HIDDEN
 62
     7
370
     0
100
AcDbLine
 10
179.3584635251
 20
116.6996948478
 30
0.0
 11
179.2424865863
 21
116.6991353856
 31
0.0
  0
SPLINE
  5
EB
330
1F
100
AcDbEntity
  8
0
  6
HIDDEN
 62
     7
370
     0
100
AcDbSpline
210
0.0
220
0.0
230
1.0
 70
     8
 71
     3
 72
    16
 73
    12
 74
     0
 42
0.00000001
 43
0.00000001
 40
0.0
 40
0.0
 40
0.0
 40
0.0
 40
0.1011088093895654
 40
0.2090275157269332
 40
0.3138606750502936
 40
0.4216822275279439
 40
0.5274448153049984
 40
0.6362437013869504
 40
0.7424859207372988
 40
0.8518494159823942
 40
1.0
 40
1.0
 40
1.0
 40
1.0
 10
177.7722031082643
 20
116.8083487812022
 30
0.0
 10
177.7755823866365
 20
116.8078532082176
 30
0.0
 10
177.7825685450865
 20
116.8068286843362
 30
0.0
 10
177.8449205353858
 20
116.7979092284121
 30
0.0
 10
177.945130860217
 20
116.784381380586
 30
0.0
 10
178.0822737776416
 20
116.7674137824359
 30
0.0
 10
178.2542635763954
 20
116.7487365304261
 30
0.0
 10
178.4542106913865
 20
116.7305998506134
 30
0.0
 10
178.6798200448201
 20
116.7150018629132
 30
0.0
 10
178.9520796610133
 20
116.7018068541312
 30
0.0
 10
179.1548456292355
 20
116.6997978613748
 30
0.0
 10
179.2714990436703
 20
116.698642066511
 30
0.0
  0
SPLINE
  5
EC
330
1F
100
AcDbEntity
  8
0
  6
HIDDEN
 62
     7
370
     0
100
AcDbSpline
210
0.0
220
0.0
230
1.0
 70
     8
 71
     3
 72
    26
 73
    22
 74
     0
 42
0.00000001
 43
0.00000001
 40
0.0
 40
0.0
 40
0.0
 40
0.0
 40
0.052543449762733
 40
0.1066204398707517
 40
0.1591611335114188
 40
0.2132068895386796
 40
0.2660899371602105
 40
0.3204918511833422
 40
0.3736024034979782
 40
0.4282739164987372
 40
0.4810046224565899
 40
0.5352887493769446
 40
0.587624033985179
 40
0.6414670088958803
 40
0.6940077648795513
 40
0.74804431953679
 40
0.8010691975714335
 40
0.8556291054873537
 40
0.9086663223060546
 40
0.9632688169391662
 40
1.0
 40
1.0
 40
1.0
 40
1.0
 10
180.7714990436703
 20
96.2084507042254
 30
0.0
 10
180.7675393542147
 20
96.20903116195153
 30
0.0
 10
180.7595044072629
 20
96.21020901872272
 30
0.0
 10
180.6948976084245
 20
96.21943711779889
 30
0.0
 10
180.5927925252612
 20
96.23318154227886
 30
0.0
 10
180.4538894067166
 20
96.25028459205836
 30
0.0
 10
180.2803238914076
 20
96.26901161398155
 30
0.0
 10
180.0791823429623
 20
96.28704783419055
 30
0.0
 10
179.8526754316668
 20
96.30259934452602
 30
0.0
 10
179.611663358453
 20
96.31358824181237
 30
0.0
 10
179.3591324642946
 20
96.31893144523347
 30
0.0
 10
179.1076113374007
 20
96.31797290668145
 30
0.0
 10
178.8591956073621
 20
96.31087731811124
 30
0.0
 10
178.6249879604316
 20
96.29860932753209
 30
0.0
 10
178.4066755770263
 20
96.28231706597549
 30
0.0
 10
178.2135672945632
 20
96.26400812059454
 30
0.0
 10
178.0481411995709
 20
96.24544254191767
 30
0.0
 10
177.917781769648
 20
96.22892585860593
 30
0.0
 10
177.8263787437849
 20
96.21638297536079
 30
0.0
 10
177.7766286596642
 20
96.20920047774554
 30
0.0
 10
177.7760452901819
 20
96.20911246082703
 30
0.0
 10
177.7758106795564
 20
96.2090770635275
 30
0.0
  0
LINE
  5
ED
330
1F
100
AcDbEntity
  8
0
  6
HIDDEN
 62
     7
370
     0
100
AcDbLine
 10
187.7714990437
 20
96.5084507042
 30
0.0
 11
187.7714990437
 21
116.5084507042
 31
0.0
  0
LINE
  5
EE
330
1F
100
AcDbEntity
  8
0
  6
HIDDEN
 62
     7
370
     0
100
AcDbLine
 10
76.9714990437
 20
88.5184507042
 30
0.0
 11
76.9714990437
 21
84.544713173
 31
0.0
  0
LINE
  5
EF
330
1F
100
AcDbEntity
  8
0
  6
HIDDEN
 62
     7
370
     0
100
AcDbLine
 10
68.0214990437
 20
124.4984507042
 30
0.0
 11
68.0214990437
 21
127.3783884696
 31
0.0
  0
LINE
  5
F0
330
1F
100
AcDbEntity
  8
0
  6
HIDDEN
 62
     7
370
     0
100
AcDbLine
 10
72.9714990437
 20
124.4984507042
 30
0.0
 11
72.9714990437
 21
128.3525583766
 31
0.0
  0
LINE
  5
F1
330
1F
100
AcDbEntity
  8
0
  6
HIDDEN
 62
     7
370
     0
100
AcDbLine
 10
117.5714990437
 20
97.0084507042
 30
0.0
 11
117.5714990437
 21
116.0084507042
 31
0.0
  0
LINE
  5
F2
330
1F
100
AcDbEntity
  8
0
  6
HIDDEN
 62
     7
370
     0
100
AcDbLine
 10
120.5714990437
 20
97.0084507042
 30
0.0
 11
120.5714990437
 21
116.0084507042
 31
0.0
  0
LINE
  5
F3
330
1F
100
AcDbEntity
  8
0
  6
HIDDEN
 62
     7
370
     0
100
AcDbLine
 10
109.2214990437
 20
98.0084507042
 30
0.0
 11
109.2214990437
 21
115.0084507042
 31
0.0
  0
LINE
  5
F4
330
1F
100
AcDbEntity
  8
0
  6
HIDDEN
 62
     7
370
     0
100
AcDbLine
 10
124.7214990437
 20
80.1084507042
 30
0.0
 11
118.5838242413
 21
80.1084507042
 31
0.0
  0
LINE
  5
F5
330
1F
100
AcDbEntity
  8
0
  6
HIDDEN
 62
     7
370
     0
100
AcDbLine
 10
114.959173846
 20
80.1084507042
 30
0.0
 11
111.7214990437
 21
80.1084507042
 31
0.0
  0
LINE
  5
F6
330
1F
100
AcDbEntity
  8
0
  6
HIDDEN
 62
     7
370
     0
100
AcDbLine
 10
103.7214990437
 20
75.0243277214
 30
0.0
 11
103.7214990437
 21
80.1084507042
 31
0.0
  0
LINE
  5
F7
330
1F
100
AcDbEntity
  8
0
  6
HIDDEN
 62
     7
370
     0
100
AcDbLine
 10
111.7214990437
 20
80.1084507042
 30
0.0
 11
103.7214990437
 21
80.1084507042
 31
0.0
  0
LINE
  5
F8
330
1F
100
AcDbEntity
  8
0
  6
HIDDEN
 62
     7
370
     0
100
AcDbLine
 10
111.7214990437
 20
132.9084507042
 30
0.0
 11
103.7214990437
 21
132.9084507042
 31
0.0
  0
LINE
  5
F9
330
1F
100
AcDbEntity
  8
0
  6
HIDDEN
 62
     7
370
     0
100
AcDbLine
 10
124.7214990437
 20
132.9084507042
 30
0.0
 11
118.287201512
 21
132.9084507042
 31
0.0
  0
LINE
  5
FA
330
1F
100
AcDbEntity
  8
0
  6
HIDDEN
 62
     7
370
     0
100
AcDbLine
 10
115.2557965754
 20
132.9084507042
 30
0.0
 11
111.7214990437
 21
132.9084507042
 31
0.0
  0
SPLINE
  5
FB
330
1F
100
AcDbEntity
  8
0
  6
HIDDEN
 62
     7
370
     0
100
AcDbSpline
210
0.0
220
0.0
230
1.0
 70
     8
 71
     3
 72
    11
 73
     7
 74
     0
 42
0.00000001
 43
0.00000001
 40
0.0
 40
0.0
 40
0.0
 40
0.0
 40
0.0008203708524183
 40
0.0008203708524183
 40
0.0008203708524183
 40
0.0016409967870154
 40
0.0016409967870154
 40
0.0016409967870154
 40
0.0016409967870154
 10
68.02149904367027
 20
90.65641795358268
 30
0.0
 10
67.83034074337162
 20
90.61523892496353
 30
0.0
 10
67.63891367329941
 20
90.57648495273354
 30
0.0
 10
67.4472680497788
 20
90.54011719345499
 30
0.0
 10
67.25556264469834
 20
90.50373808968897
 30
0.0
 10
67.0636236926394
 20
90.4697438389214
 30
0.0
 10
66.87149904556858
 20
90.4380957135302
 30
0.0
  0
ELLIPSE
  5
FC
330
1F
100
AcDbEntity
  8
0
  6
HIDDEN
 62
     7
370
     0
100
AcDbEllipse
 10
62.6290671751
 20
106.5084507042
 30
0.0
 11
20.19992453366649
 21
-1.421085471520200E-14
 31
0.0
210
0.0
220
0.0
230
1.0
 40
0.8164965809
 41
1.300566354717996
 42
1.3591986972096
  0
LINE
  5
FD
330
1F
100
AcDbEntity
  8
0
  6
HIDDEN
 62
     7
370
     0
100
AcDbLine
 10
68.0214990437
 20
88.5184507042
 30
0.0
 11
68.0214990437
 21
90.6564179536
 31
0.0
  0
LINE
  5
FE
330
1F
100
AcDbEntity
  8
0
  6
HIDDEN
 62
     7
370
     0
100
AcDbLine
 10
68.102530057
 20
90.7069602682
 30
0.0
 11
68.0214990437
 21
90.6564179536
 31
0.0
  0
LINE
  5
FF
330
1F
100
AcDbEntity
  8
0
  6
HIDDEN
 62
     7
370
     0
100
AcDbLine
 10
76.9714990437
 20
88.5184507042
 30
0.0
 11
76.9714990437
 21
90.2209370818
 31
0.0
  0
LINE
  5
100
330
1F
100
AcDbEntity
  8
0
  6
HIDDEN
 62
     7
370
     0
100
AcDbLine
 10
68.0214990437
 20
124.4984507042
 30
0.0
 11
68.0214990437
 21
122.4030751553
 31
0.0
  0
SPLINE
  5
101
330
1F
100
AcDbEntity
  8
0
  6
HIDDEN
 62
     7
370
     0
100
AcDbSpline
210
0.0
220
0.0
230
1.0
 70
     8
 71
     3
 72
     8
 73
     4
 74
     0
 42
0.00000001
 43
0.00000001
 40
0.0
 40
0.0
 40
0.0
 40
0.0
 40
1.0
 40
1.0
 40
1.0
 40
1.0
 10
68.02149904367027
 20
122.403075155284
 30
0.0
 10
68.07150454261401
 20
122.3720393810649
 30
0.0
 10
68.12150461327843
 20
122.3409947360374
 30
0.0
 10
68.17149904706355
 20
122.3099411402571
 30
0.0
  0
LINE
  5
102
330
1F
100
AcDbEntity
  8
0
  6
HIDDEN
 62
     7
370
     0
100
AcDbLine
 10
72.9714990437
 20
124.4984507042
 30
0.0
 11
72.9714990437
 21
122.7959643266
 31
0.0
  0
LINE
  5
103
330
1F
100
AcDbEntity
  8
0
  6
HIDDEN
 62
     7
370
     0
100
AcDbLine
 10
146.7714990437
 20
101.0084507042
 30
0.0
 11
146.7714990437
 21
112.0084507042
 31
0.0
  0
LINE
  5
104
330
1F
100
AcDbEntity
  8
0
  6
HIDDEN
 62
     7
370
     0
100
AcDbLine
 10
145.9903802389
 20
102.3084507042
 30
0.0
 11
145.9903802389
 21
110.7084507042
 31
0.0
  0
SPLINE
  5
105
330
1F
100
AcDbEntity
  8
0
  6
HIDDEN
 62
     7
370
     0
100
AcDbSpline
210
0.0
220
0.0
230
1.0
 70
     8
 71
     3
 72
    20
 73
    16
 74
     0
 42
0.00000001
 43
0.00000001
 40
0.0
 40
0.0
 40
0.0
 40
0.0
 40
0.1119595197684167
 40
0.177476763464755
 40
0.2490961890179855
 40
0.3298422315094334
 40
0.3986125823882006
 40
0.4998893016461228
 40
0.6138510293005642
 40
0.6790150176761717
 40
0.7495394203320147
 40
0.8296829944178317
 40
0.8981246285223357
 40
0.9995320175861916
 40
1.0
 40
1.0
 40
1.0
 40
1.0
 10
93.52033949353314
 20
82.9084569424576
 30
0.0
 10
93.47701575523459
 20
82.92188626049465
 30
0.0
 10
93.4083395330578
 20
82.94317423945061
 30
0.0
 10
92.96316040700752
 20
83.04648505109911
 30
0.0
 10
92.43660212333766
 20
83.15978828116101
 30
0.0
 10
91.75117710220832
 20
83.28272114895363
 30
0.0
 10
90.85785970490943
 20
83.4047556081381
 30
0.0
 10
89.74450031777177
 20
83.52249191592266
 30
0.0
 10
88.6337262371362
 20
83.53446741829826
 30
0.0
 10
87.74897793523087
 20
83.50740912816693
 30
0.0
 10
87.08178134060782
 20
83.4594770637599
 30
0.0
 10
86.54050883838944
 20
83.40318355139667
 30
0.0
 10
86.15292887930426
 20
83.35810064075858
 30
0.0
 10
85.95899235922869
 20
83.31922746605642
 30
0.0
 10
86.02209481945862
 20
83.32993352329659
 30
0.0
 10
86.02238469169394
 20
83.3299827034511
 30
0.0
  0
LINE
  5
106
330
1F
100
AcDbEntity
  8
0
  6
HIDDEN
 62
     7
370
     0
100
AcDbLine
 10
86.9315109565
 20
83.4407888477
 30
0.0
 11
87.1153562692
 21
83.4589781902
 31
0.0
  0
LINE
  5
107
330
1F
100
AcDbEntity
  8
0
  6
HIDDEN
 62
     7
370
     0
100
AcDbLine
 10
87.1153535707
 20
129.557853787
 30
0.0
 11
86.9412802903
 21
129.575063313
 31
0.0
  0
SPLINE
  5
108
330
1F
100
AcDbEntity
  8
0
  6
HIDDEN
 62
     7
370
     0
100
AcDbSpline
210
0.0
220
0.0
230
1.0
 70
     8
 71
     3
 72
    20
 73
    16
 74
     0
 42
0.00000001
 43
0.00000001
 40
0.0
 40
0.0
 40
0.0
 40
0.0
 40
0.0004889684280515
 40
0.1018319933920969
 40
0.1702475582146014
 40
0.2503692056770022
 40
0.3209568221778694
 40
0.3861816196697952
 40
0.5002554836816518
 40
0.6012243489253606
 40
0.6697680558604869
 40
0.7502401907580438
 40
0.8220490693851532
 40
0.8877204546109767
 40
1.0
 40
1.0
 40
1.0
 40
1.0
 10
86.02241807645535
 20
129.6868521584179
 30
0.0
 10
86.02211443545848
 20
129.6869037455681
 30
0.0
 10
85.95887851629615
 20
129.6976472251807
 30
0.0
 10
86.15208255008545
 20
129.658791234518
 30
0.0
 10
86.5390296049928
 20
129.6137677441155
 30
0.0
 10
87.08003652831583
 20
129.5575047820257
 30
0.0
 10
87.74753678977366
 20
129.5095735894349
 30
0.0
 10
88.63336464112389
 20
129.4825001337081
 30
0.0
 10
89.74417121320022
 20
129.4943261372792
 30
0.0
 10
90.85624157921792
 20
129.6117752124306
 30
0.0
 10
91.74734188542155
 20
129.7334796006714
 30
0.0
 10
92.43282633625938
 20
129.8563006462504
 30
0.0
 10
92.96081423581224
 20
129.969738897937
 30
0.0
 10
93.40819818729615
 20
130.0734794535778
 30
0.0
 10
93.47700865364716
 20
130.0949022468514
 30
0.0
 10
93.52042516095737
 20
130.108419127496
 30
0.0
  0
LINE
  5
109
330
1F
100
AcDbEntity
  8
0
  6
HIDDEN
 62
     7
370
     0
100
AcDbLine
 10
160.7214990437
 20
126.431100435
 30
0.0
 11
163.2214990437
 21
126.431100435
 31
0.0
  0
LINE
  5
10A
330
1F
100
AcDbEntity
  8
0
  6
HIDDEN
 62
     7
370
     0
100
AcDbLine
 10
158.2214990437
 20
126.431100435
 30
0.0
 11
160.7214990437
 21
126.431100435
 31
0.0
  0
LINE
  5
10B
330
1F
100
AcDbEntity
  8
0
  6
HIDDEN
 62
     7
370
     0
100
AcDbLine
 10
163.2214990437
 20
86.5858009734
 30
0.0
 11
158.2214990437
 21
86.5858009734
 31
0.0
  0
LINE
  5
10C
330
1F
100
AcDbEntity
  8
0
  6
HIDDEN
 62
     7
370
     0
100
AcDbLine
 10
160.7214990437
 20
115.0084507042
 30
0.0
 11
163.2214990437
 21
115.0084507042
 31
0.0
  0
LINE
  5
10D
330
1F
100
AcDbEntity
  8
0
  6
HIDDEN
 62
     7
370
     0
100
AcDbLine
 10
158.2214990437
 20
115.0084507042
 30
0.0
 11
160.7214990437
 21
115.0084507042
 31
0.0
  0
LINE
  5
10E
330
1F
100
AcDbEntity
  8
0
  6
HIDDEN
 62
     7
370
     0
100
AcDbLine
 10
163.2214990437
 20
98.0084507042
 30
0.0
 11
158.2214990437
 21
98.0084507042
 31
0.0
  0
SPLINE
  5
10F
330
1F
100
AcDbEntity
  8
0
  6
HIDDEN
 62
     7
370
     0
100
AcDbSpline
210
0.0
220
0.0
230
1.0
 70
     8
 71
     3
 72
    20
 73
    16
 74
     0
 42
0.00000001
 43
0.00000001
 40
0.0
 40
0.0
 40
0.0
 40
0.0
 40
0.0837700074900129
 40
0.167164295662389
 40
0.2832392399699925
 40
0.3419682516181161
 40
0.40216959666171
 40
0.4682656389883211
 40
0.5350318016472163
 40
0.5920958805130505
 40
0.6924889590539784
 40
0.7990475557046257
 40
0.8954755043762722
 40
0.992555180236636
 40
1.0
 40
1.0
 40
1.0
 40
1.0
 10
180.7714990436703
 20
120.1434113923398
 30
0.0
 10
180.7632532657335
 20
120.1535713646598
 30
0.0
 10
180.7467986932405
 20
120.1738457405101
 30
0.0
 10
180.615651561899
 20
120.3396008855139
 30
0.0
 10
180.4521257550051
 20
120.5590955201138
 30
0.0
 10
180.2977991873378
 20
120.8014164533786
 30
0.0
 10
180.185755468263
 20
121.014964706561
 30
0.0
 10
180.0998817638467
 20
121.2672229193048
 30
0.0
 10
180.0954233577664
 20
121.5396328540952
 30
0.0
 10
180.1864616215869
 20
121.8367193960969
 30
0.0
 10
180.3617597956477
 20
122.1317196631066
 30
0.0
 10
180.5691465193751
 20
122.4046694032387
 30
0.0
 10
180.7183017830107
 20
122.5838481730224
 30
0.0
 10
180.7840457776538
 20
122.659983111583
 30
0.0
 10
180.7693281340918
 20
122.6428068971629
 30
0.0
 10
180.76827986112
 20
122.6415835110101
 30
0.0
  0
SPLINE
  5
110
330
1F
100
AcDbEntity
  8
0
  6
HIDDEN
 62
     7
370
     0
100
AcDbSpline
210
0.0
220
0.0
230
1.0
 70
     8
 71
     3
 72
     9
 73
     5
 74
     0
 42
0.00000001
 43
0.00000001
 40
0.0
 40
0.0
 40
0.0
 40
0.0
 40
0.7078888132122775
 40
1.0
 40
1.0
 40
1.0
 40
1.0
 10
177.7815986252803
 20
122.6280511332175
 30
0.0
 10
177.7844140207843
 20
122.6275507067051
 30
0.0
 10
177.7883911926953
 20
122.6268437785786
 30
0.0
 10
177.8406108513293
 20
122.6503480410979
 30
0.0
 10
177.8558647977865
 20
122.6572138991169
 30
0.0
  0
SPLINE
  5
111
330
1F
100
AcDbEntity
  8
0
  6
HIDDEN
 62
     7
370
     0
100
AcDbSpline
210
0.0
220
0.0
230
1.0
 70
     8
 71
     3
 72
    18
 73
    14
 74
     0
 42
0.00000001
 43
0.00000001
 40
0.0
 40
0.0
 40
0.0
 40
0.0
 40
0.0527648566387228
 40
0.1430329665714219
 40
0.240799764399795
 40
0.3579447684186078
 40
0.4689184767769461
 40
0.5398049008204466
 40
0.6111570715509903
 40
0.6978986902523193
 40
0.837660901343721
 40
0.9821567271865748
 40
1.0
 40
1.0
 40
1.0
 40
1.0
 10
177.7817103346536
 20
120.2731628234981
 30
0.0
 10
177.7801598839048
 20
120.2713513079037
 30
0.0
 10
177.7759569809832
 20
120.2664407203279
 30
0.0
 10
177.8544429944203
 20
120.3580576462675
 30
0.0
 10
177.9984833507707
 20
120.5332550702337
 30
0.0
 10
178.1935570983982
 20
120.7936408896114
 30
0.0
 10
178.3658547638923
 20
121.0889279503522
 30
0.0
 10
178.450672297503
 20
121.3865787807999
 30
0.0
 10
178.4374657864283
 20
121.6728404367084
 30
0.0
 10
178.3103694147303
 20
122.0087223609033
 30
0.0
 10
178.0892489229424
 20
122.352850971591
 30
0.0
 10
177.9249544830568
 20
122.568993553145
 30
0.0
 10
177.8627066774488
 20
122.6484775300258
 30
0.0
 10
177.8558647977865
 20
122.6572138991169
 30
0.0
  0
LINE
  5
112
330
1F
100
AcDbEntity
  8
0
  6
HIDDEN
 62
     7
370
     0
100
AcDbLine
 10
180.7714990437
 20
123.3084507042
 30
0.0
 11
177.7714990437
 21
123.3084507042
 31
0.0
  0
LWPOLYLINE
  5
113
330
1F
100
AcDbEntity
  8
0
  6
HIDDEN
 62
     7
370
     0
100
AcDbPolyline
 90
       15
 70
   128
 43
0.0
 10
180.7682798611
 20
90.3753178974
 10
180.7390819792
 20
90.4094089965
 10
180.642377519
 20
90.5249105611
 10
180.4419400601
 20
90.7828452495
 10
180.2221869326
 20
91.1354955325
 10
180.125163575
 20
91.3938902351
 10
180.1014616918
 20
91.6328065976
 10
180.1434346559
 20
91.8678193131
 10
180.2941491258
 20
92.2028249628
 10
180.4194823002
 20
92.403263015
 10
180.5452811633
 20
92.5813482944
 10
180.6968988148
 20
92.7799132944
 10
180.7644093721
 20
92.8646883782
 10
180.7714990437
 20
92.8734900161
 10
180.7714990437
 20
92.8734900161
  0
LINE
  5
114
330
1F
100
AcDbEntity
  8
0
  6
HIDDEN
 62
     7
370
     0
100
AcDbLine
 10
179.2714990437
 20
90.0084507042
 30
0.0
 11
180.7714990437
 21
90.0084507042
 31
0.0
  0
LINE
  5
115
330
1F
100
AcDbEntity
  8
0
  6
HIDDEN
 62
     7
370
     0
100
AcDbLine
 10
177.7714990437
 20
90.0084507042
 30
0.0
 11
179.2714990437
 21
90.0084507042
 31
0.0
  0
SPLINE
  5
116
330
1F
100
AcDbEntity
  8
0
  6
HIDDEN
 62
     7
370
     0
100
AcDbSpline
210
0.0
220
0.0
230
1.0
 70
     8
 71
     3
 72
     9
 73
     5
 74
     0
 42
0.00000001
 43
0.00000001
 40
0.0
 40
0.0
 40
0.0
 40
0.0
 40
0.8327408107797547
 40
1.0
 40
1.0
 40
1.0
 40
1.0
 10
177.8558647977865
 20
90.35968750933388
 30
0.0
 10
177.8118553368516
 20
90.376371646979
 30
0.0
 10
177.75900640671
 20
90.39640685773023
 30
0.0
 10
177.7783613355715
 20
90.38993307490061
 30
0.0
 10
177.7815986252803
 20
90.38885027523332
 30
0.0
  0
SPLINE
  5
117
330
1F
100
AcDbEntity
  8
0
  6
HIDDEN
 62
     7
370
     0
100
AcDbSpline
210
0.0
220
0.0
230
1.0
 70
     8
 71
     3
 72
    17
 73
    13
 74
     0
 42
0.00000001
 43
0.00000001
 40
0.0
 40
0.0
 40
0.0
 40
0.0
 40
0.1276251075914073
 40
0.2543675816240206
 40
0.3534544309631037
 40
0.423515088818553
 40
0.4939530046281007
 40
0.583496499370844
 40
0.7211543217676507
 40
0.8611616864502908
 40
0.9568277839795776
 40
1.0
 40
1.0
 40
1.0
 40
1.0
 10
177.8558647977864
 20
90.35968750933388
 30
0.0
 10
177.9130134914582
 20
90.43330022867154
 30
0.0
 10
178.0269156481467
 20
90.58001657428778
 30
0.0
 10
178.2413583642781
 20
90.89392575579538
 30
0.0
 10
178.3942544252716
 20
91.20219298518649
 30
0.0
 10
178.4555541559007
 20
91.49128105839999
 30
0.0
 10
178.422014055727
 20
91.7761029992813
 30
0.0
 10
178.2775224571578
 20
92.09881646252518
 30
0.0
 10
178.0491984365739
 20
92.42190870901376
 30
0.0
 10
177.8601048106545
 20
92.65246927089912
 30
0.0
 10
177.772168323715
 20
92.75485124648922
 30
0.0
 10
177.7794470053919
 20
92.74637446665444
 30
0.0
 10
177.7817103346536
 20
92.74373858495272
 30
0.0
  0
LINE
  5
118
330
1F
100
AcDbEntity
  8
0
  6
HIDDEN
 62
     7
370
     0
100
AcDbLine
 10
177.7617434257
 20
120.2616650126
 30
0.0
 11
177.8558647978
 21
122.6572138991
 31
0.0
  0
LINE
  5
119
330
1F
100
AcDbEntity
  8
0
  6
HIDDEN
 62
     7
370
     0
100
AcDbLine
 10
177.7617434257
 20
92.7552363958
 30
0.0
 11
177.8558647978
 21
90.3596875093
 31
0.0
  0
SPLINE
  5
11A
330
1F
100
AcDbEntity
  8
0
  6
HIDDEN
 62
     7
370
     0
100
AcDbSpline
210
0.0
220
0.0
230
1.0
 70
     8
 71
     3
 72
     8
 73
     4
 74
     0
 42
0.00000001
 43
0.00000001
 40
0.0
 40
0.0
 40
0.0
 40
0.0
 40
0.000159097695343
 40
0.000159097695343
 40
0.000159097695343
 40
0.000159097695343
 10
68.1566670528883
 20
90.70696026819375
 30
0.0
 10
68.11161558238395
 20
90.67898138386997
 30
0.0
 10
68.06655954396915
 20
90.65100985349488
 30
0.0
 10
68.02149904367027
 20
90.62304551414238
 30
0.0
  0
SPLINE
  5
11B
330
1F
100
AcDbEntity
  8
0
  6
HIDDEN
 62
     7
370
     0
100
AcDbSpline
210
0.0
220
0.0
230
1.0
 70
     8
 71
     3
 72
    11
 73
     7
 74
     0
 42
0.00000001
 43
0.00000001
 40
0.0
 40
0.0
 40
0.0
 40
0.0
 40
0.0008212909311457
 40
0.0008212909311457
 40
0.0008212909311457
 40
0.001642825724306
 40
0.001642825724306
 40
0.001642825724306
 40
0.001642825724306
 10
68.02149904367027
 20
90.62304551414238
 30
0.0
 10
67.83035402218809
 20
90.57975932528983
 30
0.0
 10
67.63893568651162
 20
90.53882281565255
 30
0.0
 10
67.44728961185045
 20
90.50022104426596
 30
0.0
 10
67.25558653030886
 20
90.46160779042886
 30
0.0
 10
67.06364140702334
 20
90.42532758114285
 30
0.0
 10
66.87149904367018
 20
90.39136067479136
 30
0.0
  0
LINE
  5
11C
330
1F
100
AcDbEntity
  8
0
  6
HIDDEN
 62
     7
370
     0
100
AcDbLine
 10
114.8614990437
 20
126.6443173357
 30
0.0
 11
114.8614990437
 21
126.3584507042
 31
0.0
  0
LINE
  5
11D
330
1F
100
AcDbEntity
  8
0
  6
HIDDEN
 62
     7
370
     0
100
AcDbLine
 10
118.6814990437
 20
126.6525253722
 30
0.0
 11
118.6814990437
 21
126.3584507042
 31
0.0
  0
LINE
  5
11E
330
1F
100
AcDbEntity
  8
0
  6
HIDDEN
 62
     7
370
     0
100
AcDbLine
 10
120.1634318752
 20
130.9671403666
 30
0.0
 11
120.1634318752
 21
126.3584507042
 31
0.0
  0
SPLINE
  5
11F
330
1F
100
AcDbEntity
  8
0
  6
HIDDEN
 62
     7
370
     0
100
AcDbSpline
210
0.0
220
0.0
230
1.0
 70
     8
 71
     3
 72
    24
 73
    20
 74
     0
 42
0.00000001
 43
0.00000001
 40
0.0
 40
0.0
 40
0.0
 40
0.0
 40
0.2499999999999937
 40
0.2499999999999937
 40
0.3749999999999912
 40
0.3749999999999912
 40
0.4374999999999901
 40
0.4374999999999901
 40
0.4687499999999891
 40
0.4687499999999891
 40
0.4999999999999881
 40
0.4999999999999881
 40
0.5624999999999888
 40
0.5624999999999888
 40
0.6249999999999893
 40
0.6249999999999893
 40
0.749999999999992
 40
0.749999999999992
 40
1.0
 40
1.0
 40
1.0
 40
1.0
 10
66.93416241839368
 20
86.83389815944466
 30
0.0
 10
66.94791553706392
 20
86.90454821743494
 30
0.0
 10
66.96568810446976
 20
86.97114633019987
 30
0.0
 10
67.01793919602514
 20
87.04524435043307
 30
0.0
 10
67.03897427160668
 20
87.06650215759463
 30
0.0
 10
67.09187467923512
 20
87.07464808374085
 30
0.0
 10
67.11298035211306
 20
87.07370828034507
 30
0.0
 10
67.159032520791
 20
87.05269228876774
 30
0.0
 10
67.17740299277438
 20
87.04178348266015
 30
0.0
 10
67.21895462784008
 20
87.00914857171277
 30
0.0
 10
67.241521300597
 20
86.9876565913414
 30
0.0
 10
67.30430231705704
 20
86.9191906477551
 30
0.0
 10
67.33743207802489
 20
86.87311618955002
 30
0.0
 10
67.39434976450993
 20
86.78810830121533
 30
0.0
 10
67.4185357900137
 20
86.74782800003396
 30
0.0
 10
67.48374374039345
 20
86.632891773568
 30
0.0
 10
67.51845980058471
 20
86.562308788421
 30
0.0
 10
67.6116750709156
 20
86.35810302934239
 30
0.0
 10
67.65734760627628
 20
86.23520464701502
 30
0.0
 10
67.69565268977482
 20
86.11833137062744
 30
0.0
  0
SPLINE
  5
120
330
1F
100
AcDbEntity
  8
0
  6
HIDDEN
 62
     7
370
     0
100
AcDbSpline
210
0.0
220
0.0
230
1.0
 70
     8
 71
     3
 72
    11
 73
     7
 74
     0
 42
0.00000001
 43
0.00000001
 40
0.0
 40
0.0
 40
0.0
 40
0.0
 40
0.0005781862223978
 40
0.0005781862223978
 40
0.0005781862223978
 40
0.0011563724723928
 40
0.0011563724723928
 40
0.0011563724723928
 40
0.0011563724723928
 10
67.87149904367027
 20
119.1485930112721
 30
0.0
 10
67.70483848939465
 20
119.2131225226857
 30
0.0
 10
67.53817519248818
 20
119.2776252265295
 30
0.0
 10
67.37150860865795
 20
119.3421116749632
 30
0.0
 10
67.20484201639887
 20
119.4065981266581
 30
0.0
 10
67.03817215077297
 20
119.4710681353863
 30
0.0
 10
66.87149904367024
 20
119.5355239021189
 30
0.0
  0
SPLINE
  5
121
330
1F
100
AcDbEntity
  8
0
  6
HIDDEN
 62
     7
370
     0
100
AcDbSpline
210
0.0
220
0.0
230
1.0
 70
     8
 71
     3
 72
    11
 73
     7
 74
     0
 42
0.00000001
 43
0.00000001
 40
0.0
 40
0.0
 40
0.0
 40
0.0
 40
0.0005778746105108
 40
0.0005778746105108
 40
0.0005778746105108
 40
0.0011557494857226
 40
0.0011557494857226
 40
0.0011557494857226
 40
0.0011557494857226
 10
66.87149904367025
 20
93.4812288487355
 30
0.0
 10
67.03816592008357
 20
93.54704097542937
 30
0.0
 10
67.20483263964505
 20
93.61289945556699
 30
0.0
 10
67.3714992876937
 20
93.67880702849763
 30
0.0
 10
67.53816601221236
 20
93.74471463166797
 30
0.0
 10
67.70483270663294
 20
93.81067174005645
 30
0.0
 10
67.87149904367028
 20
93.87667347997917
 30
0.0
  0
SPLINE
  5
122
330
1F
100
AcDbEntity
  8
0
  6
HIDDEN
 62
     7
370
     0
100
AcDbSpline
210
0.0
220
0.0
230
1.0
 70
     8
 71
     3
 72
    11
 73
     7
 74
     0
 42
0.00000001
 43
0.00000001
 40
0.0000000000000006
 40
0.0000000000000006
 40
0.0000000000000006
 40
0.0000000000000006
 40
0.0005780486062768
 40
0.0005780486062768
 40
0.0005780486062768
 40
0.0011560973514127
 40
0.0011560973514127
 40
0.0011560973514127
 40
0.0011560973514127
 10
66.87149904367025
 20
116.4892652059171
 30
0.0
 10
67.03816889971517
 20
116.4268933444026
 30
0.0
 10
67.20483660379944
 20
116.3645394841049
 30
0.0
 10
67.37150290825308
 20
116.3022199239189
 30
0.0
 10
67.53816924894682
 20
116.2399003501819
 30
0.0
 10
67.7048342055756
 20
116.1776151458624
 30
0.0
 10
67.87149904367027
 20
116.1153900252937
 30
0.0
  0
SPLINE
  5
123
330
1F
100
AcDbEntity
  8
0
  6
HIDDEN
 62
     7
370
     0
100
AcDbSpline
210
0.0
220
0.0
230
1.0
 70
     8
 71
     3
 72
    11
 73
     7
 74
     0
 42
0.00000001
 43
0.00000001
 40
0.0
 40
0.0
 40
0.0
 40
0.0
 40
0.0005782401583533
 40
0.0005782401583533
 40
0.0005782401583533
 40
0.0011564805960992
 40
0.0011564805960992
 40
0.0011564805960992
 40
0.0011564805960992
 10
67.87149904367027
 20
96.90762391182776
 30
0.0
 10
67.70484809332136
 20
96.84419845376696
 30
0.0
 10
67.53818850073871
 20
96.78084293011169
 30
0.0
 10
67.37152144831016
 20
96.7175453457617
 30
0.0
 10
67.20485431174635
 20
96.65424772945845
 30
0.0
 10
67.03817970430028
 20
96.59100793451773
 30
0.0
 10
66.87149904367021
 20
96.52780792787891
 30
0.0
  0
CIRCLE
  5
124
330
1F
100
AcDbEntity
  8
0
  6
HIDDEN
 62
     7
370
     0
100
AcDbCircle
 10
105.7714990437
 20
106.5084507042
 30
0.0
 40
5.000000000000014
  0
LINE
  5
125
330
1F
100
AcDbEntity
  8
0
  6
HIDDEN
 62
     7
370
     0
100
AcDbLine
 10
228.7594809082
 20
94.5649113472
 30
0.0
 11
228.7714990437
 21
94.2590293732
 31
0.0
  0
LINE
  5
126
330
1F
100
AcDbEntity
  8
0
  6
HIDDEN
 62
     7
370
     0
100
AcDbLine
 10
228.7530665602
 20
94.7281674057
 30
0.0
 11
228.7594809082
 21
94.5649113472
 31
0.0
  0
LINE
  5
127
330
1F
100
AcDbEntity
  8
0
  6
HIDDEN
 62
     7
370
     0
100
AcDbLine
 10
228.5881220134
 20
94.8012861908
 30
0.0
 11
228.6980117337
 21
92.004406042
 31
0.0
  0
LINE
  5
128
330
1F
100
AcDbEntity
  8
0
  6
HIDDEN
 62
     7
370
     0
100
AcDbLine
 10
228.5802322864
 20
95.0020931508
 30
0.0
 11
228.5881220134
 21
94.8012861908
 31
0.0
  0
LINE
  5
129
330
1F
100
AcDbEntity
  8
0
  6
HIDDEN
 62
     7
370
     0
100
AcDbLine
 10
223.2541842095
 20
94.5917152037
 30
0.0
 11
223.3640739298
 21
91.794835055
 31
0.0
  0
LINE
  5
12A
330
1F
100
AcDbEntity
  8
0
  6
HIDDEN
 62
     7
370
     0
100
AcDbLine
 10
223.2462944825
 20
94.7925221637
 30
0.0
 11
223.2541842095
 21
94.5917152037
 31
0.0
  0
LINE
  5
12B
330
1F
100
AcDbEntity
  8
0
  6
HIDDEN
 62
     7
370
     0
100
AcDbLine
 10
222.7715696902
 20
94.139406431
 30
0.0
 11
222.8448295038
 21
92.2748196652
 31
0.0
  0
LINE
  5
12C
330
1F
100
AcDbEntity
  8
0
  6
HIDDEN
 62
     7
370
     0
100
AcDbLine
 10
222.7663098723
 20
94.2732777377
 30
0.0
 11
222.7715696902
 21
94.139406431
 31
0.0
  0
LINE
  5
12D
330
1F
100
AcDbEntity
  8
0
  6
HIDDEN
 62
     7
370
     0
100
AcDbLine
 10
226.802485833
 20
93.4310879645
 30
0.0
 11
226.7730409712
 21
94.1805097417
 31
0.0
  0
LINE
  5
12E
330
1F
100
AcDbEntity
  8
0
  6
HIDDEN
 62
     7
370
     0
100
AcDbLine
 10
226.802485833
 20
93.4310879645
 30
0.0
 11
228.8009439055
 21
93.509607596
 31
0.0
  0
LINE
  5
12F
330
1F
100
AcDbEntity
  8
0
  6
HIDDEN
 62
     7
370
     0
100
AcDbLine
 10
226.802485833
 20
93.4310879645
 30
0.0
 11
226.8319306948
 21
92.6816661873
 31
0.0
  0
LINE
  5
130
330
1F
100
AcDbEntity
  8
0
  6
HIDDEN
 62
     7
370
     0
100
AcDbLine
 10
226.8319306948
 20
92.6816661873
 30
0.0
 11
228.8303887673
 21
92.7601858188
 31
0.0
  0
LINE
  5
131
330
1F
100
AcDbEntity
  8
0
  6
HIDDEN
 62
     7
370
     0
100
AcDbLine
 10
226.7730409712
 20
94.1805097417
 30
0.0
 11
228.7714990437
 21
94.2590293732
 31
0.0
  0
LINE
  5
132
330
1F
100
AcDbEntity
  8
0
  6
HIDDEN
 62
     7
370
     0
100
AcDbLine
 10
228.6391220101
 20
121.0148091499
 30
0.0
 11
228.5213425628
 21
118.0171220412
 31
0.0
  0
LINE
  5
133
330
1F
100
AcDbEntity
  8
0
  6
HIDDEN
 62
     7
370
     0
100
AcDbLine
 10
223.3051842062
 20
121.224380137
 30
0.0
 11
223.1874047589
 21
118.2266930283
 31
0.0
  0
LINE
  5
134
330
1F
100
AcDbEntity
  8
0
  6
HIDDEN
 62
     7
370
     0
100
AcDbLine
 10
222.7859397802
 20
120.7443955268
 30
0.0
 11
222.7074201486
 21
118.7459374543
 31
0.0
  0
LINE
  5
135
330
1F
100
AcDbEntity
  8
0
  6
HIDDEN
 62
     7
370
     0
100
AcDbLine
 10
228.7714990437
 20
120.2590293732
 30
0.0
 11
228.6941768365
 21
118.2910477863
 31
0.0
  0
LINE
  5
136
330
1F
100
AcDbEntity
  8
0
  6
HIDDEN
 62
     7
370
     0
100
AcDbLine
 10
226.7435961094
 20
119.5881272275
 30
0.0
 11
226.7730409712
 21
120.3375490047
 31
0.0
  0
LINE
  5
137
330
1F
100
AcDbEntity
  8
0
  6
HIDDEN
 62
     7
370
     0
100
AcDbLine
 10
226.7435961094
 20
119.5881272275
 30
0.0
 11
228.7420541819
 21
119.509607596
 31
0.0
  0
LINE
  5
138
330
1F
100
AcDbEntity
  8
0
  6
HIDDEN
 62
     7
370
     0
100
AcDbLine
 10
226.7141512476
 20
118.8387054503
 30
0.0
 11
226.7435961094
 21
119.5881272275
 31
0.0
  0
LINE
  5
139
330
1F
100
AcDbEntity
  8
0
  6
HIDDEN
 62
     7
370
     0
100
AcDbLine
 10
226.7730409712
 20
120.3375490047
 30
0.0
 11
228.7714990437
 21
120.2590293732
 31
0.0
  0
LINE
  5
13A
330
1F
100
AcDbEntity
  8
0
  6
HIDDEN
 62
     7
370
     0
100
AcDbLine
 10
226.7141512476
 20
118.8387054503
 30
0.0
 11
228.71260932
 21
118.7601858188
 31
0.0
  0
LINE
  5
13B
330
1F
100
AcDbEntity
  8
0
  6
HIDDEN
 62
     7
370
     0
100
AcDbLine
 10
176.7714990437
 20
100.5084507042
 30
0.0
 11
176.7714990437
 21
112.5084507042
 31
0.0
  0
LINE
  5
13C
330
1F
100
AcDbEntity
  8
0
  6
HIDDEN
 62
     7
370
     0
100
AcDbLine
 10
161.7714990437
 20
100.5084507042
 30
0.0
 11
161.7714990437
 21
112.5084507042
 31
0.0
  0
LINE
  5
13D
330
1F
100
AcDbEntity
  8
0
  6
HIDDEN
 62
     7
370
     0
100
AcDbLine
 10
161.2714990437
 20
101.0084507042
 30
0.0
 11
161.2714990437
 21
112.0084507042
 31
0.0
  0
LINE
  5
13E
330
1F
100
AcDbEntity
  8
0
  6
HIDDEN
 62
     7
370
     0
100
AcDbLine
 10
181.2714990437
 20
104.2197654477
 30
0.0
 11
179.2714990437
 21
104.2197654477
 31
0.0
  0
LINE
  5
13F
330
1F
100
AcDbEntity
  8
0
  6
HIDDEN
 62
     7
370
     0
100
AcDbLine
 10
181.2714990437
 20
101.0084507042
 30
0.0
 11
181.2714990437
 21
104.2197654477
 31
0.0
  0
LINE
  5
140
330
1F
100
AcDbEntity
  8
0
  6
HIDDEN
 62
     7
370
     0
100
AcDbLine
 10
179.2714990437
 20
105.8321593385
 30
0.0
 11
181.2714990437
 21
105.8321593385
 31
0.0
  0
LINE
  5
141
330
1F
100
AcDbEntity
  8
0
  6
HIDDEN
 62
     7
370
     0
100
AcDbLine
 10
181.2714990437
 20
108.7971359607
 30
0.0
 11
179.2714990437
 21
108.7971359607
 31
0.0
  0
LINE
  5
142
330
1F
100
AcDbEntity
  8
0
  6
HIDDEN
 62
     7
370
     0
100
AcDbLine
 10
181.2714990437
 20
107.18474207
 30
0.0
 11
181.2714990437
 21
112.0084507042
 31
0.0
  0
LINE
  5
143
330
1F
100
AcDbEntity
  8
0
  6
HIDDEN
 62
     7
370
     0
100
AcDbLine
 10
179.2714990437
 20
107.18474207
 30
0.0
 11
181.2714990437
 21
107.18474207
 31
0.0
  0
LINE
  5
144
330
1F
100
AcDbEntity
  8
0
  6
HIDDEN
 62
     7
370
     0
100
AcDbLine
 10
179.2714990437
 20
104.2197654477
 30
0.0
 11
179.2714990437
 21
107.18474207
 31
0.0
  0
LINE
  5
145
330
1F
100
AcDbEntity
  8
0
  6
HIDDEN
 62
     7
370
     0
100
AcDbLine
 10
179.2714990437
 20
107.5951041731
 30
0.0
 11
179.2714990437
 21
107.18474207
 31
0.0
  0
LINE
  5
146
330
1F
100
AcDbEntity
  8
0
  6
HIDDEN
 62
     7
370
     0
100
AcDbLine
 10
179.2714990437
 20
104.6301275509
 30
0.0
 11
181.2714990437
 21
104.6301275509
 31
0.0
  0
LINE
  5
147
330
1F
100
AcDbEntity
  8
0
  6
HIDDEN
 62
     7
370
     0
100
AcDbLine
 10
181.2714990437
 20
104.6301275509
 30
0.0
 11
181.2714990437
 21
104.2197654477
 31
0.0
  0
LINE
  5
148
330
1F
100
AcDbEntity
  8
0
  6
HIDDEN
 62
     7
370
     0
100
AcDbLine
 10
181.2714990437
 20
107.5951041731
 30
0.0
 11
179.2714990437
 21
107.5951041731
 31
0.0
  0
LINE
  5
149
330
1F
100
AcDbEntity
  8
0
  6
HIDDEN
 62
     7
370
     0
100
AcDbLine
 10
168.2714990436
 20
105.9806709146
 30
0.0
 11
168.2714990436
 21
107.5951041731
 31
0.0
  0
LINE
  5
14A
330
1F
100
AcDbEntity
  8
0
  6
HIDDEN
 62
     7
370
     0
100
AcDbLine
 10
174.2714990437
 20
107.5951041731
 30
0.0
 11
174.2714990437
 21
105.9806709146
 31
0.0
  0
LINE
  5
14B
330
1F
100
AcDbEntity
  8
0
  6
HIDDEN
 62
     7
370
     0
100
AcDbLine
 10
168.2714990436
 20
104.6301275509
 30
0.0
 11
168.2714990436
 21
105.9806709146
 31
0.0
  0
LINE
  5
14C
330
1F
100
AcDbEntity
  8
0
  6
HIDDEN
 62
     7
370
     0
100
AcDbLine
 10
168.2714990436
 20
105.9806709146
 30
0.0
 11
161.2714990437
 21
105.9806709146
 31
0.0
  0
LINE
  5
14D
330
1F
100
AcDbEntity
  8
0
  6
HIDDEN
 62
     7
370
     0
100
AcDbLine
 10
174.2714990437
 20
105.9806709146
 30
0.0
 11
174.2714990437
 21
104.6301275509
 31
0.0
  0
LINE
  5
14E
330
1F
100
AcDbEntity
  8
0
  6
HIDDEN
 62
     7
370
     0
100
AcDbLine
 10
174.2714990437
 20
105.9806709146
 30
0.0
 11
179.2714990437
 21
105.9806709146
 31
0.0
  0
LINE
  5
14F
330
1F
100
AcDbEntity
  8
0
  6
HIDDEN
 62
     7
370
     0
100
AcDbLine
 10
168.2714990436
 20
107.5951041731
 30
0.0
 11
168.2714990436
 21
109.2095374316
 31
0.0
  0
LINE
  5
150
330
1F
100
AcDbEntity
  8
0
  6
HIDDEN
 62
     7
370
     0
100
AcDbLine
 10
174.2714990437
 20
109.2095374316
 30
0.0
 11
174.2714990437
 21
107.5951041731
 31
0.0
  0
LINE
  5
151
330
1F
100
AcDbEntity
  8
0
  6
HIDDEN
 62
     7
370
     0
100
AcDbLine
 10
168.2714990436
 20
103.2795841872
 30
0.0
 11
168.2714990436
 21
104.6301275509
 31
0.0
  0
LINE
  5
152
330
1F
100
AcDbEntity
  8
0
  6
HIDDEN
 62
     7
370
     0
100
AcDbLine
 10
174.2714990437
 20
104.6301275509
 30
0.0
 11
174.2714990437
 21
103.2795841872
 31
0.0
  0
LINE
  5
153
330
1F
100
AcDbEntity
  8
0
  6
HIDDEN
 62
     7
370
     0
100
AcDbLine
 10
174.2714990437
 20
109.4734273264
 30
0.0
 11
174.2714990437
 21
109.2095374316
 31
0.0
  0
LINE
  5
154
330
1F
100
AcDbEntity
  8
0
  6
HIDDEN
 62
     7
370
     0
100
AcDbLine
 10
174.2714990437
 20
109.2095374316
 30
0.0
 11
181.2714990437
 21
109.2095374316
 31
0.0
  0
LINE
  5
155
330
1F
100
AcDbEntity
  8
0
  6
HIDDEN
 62
     7
370
     0
100
AcDbLine
 10
168.2714990436
 20
109.2095374316
 30
0.0
 11
168.2714990436
 21
109.4734273264
 31
0.0
  0
LINE
  5
156
330
1F
100
AcDbEntity
  8
0
  6
HIDDEN
 62
     7
370
     0
100
AcDbLine
 10
168.2714990436
 20
109.2095374316
 30
0.0
 11
161.2714990436
 21
109.2095374316
 31
0.0
  0
LINE
  5
157
330
1F
100
AcDbEntity
  8
0
  6
HIDDEN
 62
     7
370
     0
100
AcDbLine
 10
174.2714990437
 20
103.8073639768
 30
0.0
 11
181.2714990437
 21
103.8073639768
 31
0.0
  0
LINE
  5
158
330
1F
100
AcDbEntity
  8
0
  6
HIDDEN
 62
     7
370
     0
100
AcDbLine
 10
174.2714990437
 20
103.2795841872
 30
0.0
 11
181.2714990437
 21
103.2795841872
 31
0.0
  0
LINE
  5
159
330
1F
100
AcDbEntity
  8
0
  6
HIDDEN
 62
     7
370
     0
100
AcDbLine
 10
168.2714990436
 20
103.8073639768
 30
0.0
 11
161.2714990436
 21
103.8073639768
 31
0.0
  0
LINE
  5
15A
330
1F
100
AcDbEntity
  8
0
  6
HIDDEN
 62
     7
370
     0
100
AcDbLine
 10
168.2714990436
 20
103.2795841872
 30
0.0
 11
161.2714990436
 21
103.2795841872
 31
0.0
  0
LINE
  5
15B
330
1F
100
AcDbEntity
  8
0
  6
HIDDEN
 62
     7
370
     0
100
AcDbLine
 10
168.2714990436
 20
109.4734273264
 30
0.0
 11
168.2714990436
 21
109.7373172212
 31
0.0
  0
LINE
  5
15C
330
1F
100
AcDbEntity
  8
0
  6
HIDDEN
 62
     7
370
     0
100
AcDbLine
 10
174.2714990437
 20
109.7373172212
 30
0.0
 11
174.2714990437
 21
109.4734273264
 31
0.0
  0
LINE
  5
15D
330
1F
100
AcDbEntity
  8
0
  6
HIDDEN
 62
     7
370
     0
100
AcDbLine
 10
179.2714990437
 20
108.3867738575
 30
0.0
 11
181.2714990437
 21
108.3867738575
 31
0.0
  0
LINE
  5
15E
330
1F
100
AcDbEntity
  8
0
  6
HIDDEN
 62
     7
370
     0
100
AcDbLine
 10
179.2714990437
 20
107.5951041731
 30
0.0
 11
179.2714990437
 21
108.3867738575
 31
0.0
  0
LINE
  5
15F
330
1F
100
AcDbEntity
  8
0
  6
HIDDEN
 62
     7
370
     0
100
AcDbLine
 10
174.2714990437
 20
107.0362304938
 30
0.0
 11
179.2714990437
 21
107.0362304938
 31
0.0
  0
LINE
  5
160
330
1F
100
AcDbEntity
  8
0
  6
HIDDEN
 62
     7
370
     0
100
AcDbLine
 10
174.2714990437
 20
109.7373172212
 30
0.0
 11
181.2714990437
 21
109.7373172212
 31
0.0
  0
LINE
  5
161
330
1F
100
AcDbEntity
  8
0
  6
HIDDEN
 62
     7
370
     0
100
AcDbLine
 10
168.2714990436
 20
107.0362304938
 30
0.0
 11
161.2714990436
 21
107.0362304938
 31
0.0
  0
LINE
  5
162
330
1F
100
AcDbEntity
  8
0
  6
HIDDEN
 62
     7
370
     0
100
AcDbLine
 10
168.2714990436
 20
109.7373172212
 30
0.0
 11
161.2714990436
 21
109.7373172212
 31
0.0
  0
LINE
  5
163
330
1F
100
AcDbEntity
  8
0
  6
HIDDEN
 62
     7
370
     0
100
AcDbLine
 10
181.2714990437
 20
105.4217972353
 30
0.0
 11
179.2714990437
 21
105.4217972353
 31
0.0
  0
LINE
  5
164
330
1F
100
AcDbEntity
  8
0
  6
HIDDEN
 62
     7
370
     0
100
AcDbLine
 10
181.2714990437
 20
105.4217972353
 30
0.0
 11
181.2714990437
 21
104.6301275509
 31
0.0
  0
LINE
  5
165
330
1F
100
AcDbEntity
  8
0
  6
HIDDEN
 62
     7
370
     0
100
AcDbLine
 10
179.2714990437
 20
108.7971359607
 30
0.0
 11
179.2714990437
 21
108.3867738575
 31
0.0
  0
LINE
  5
166
330
1F
100
AcDbEntity
  8
0
  6
HIDDEN
 62
     7
370
     0
100
AcDbLine
 10
181.2714990437
 20
105.8321593385
 30
0.0
 11
181.2714990437
 21
105.4217972353
 31
0.0
  0
LINE
  5
167
330
1F
100
AcDbEntity
  8
0
  6
HIDDEN
 62
     7
370
     0
100
AcDbLine
 10
102.7714990437
 20
120.80908121
 30
0.0
 11
102.7714990437
 21
118.9023913471
 31
0.0
  0
LINE
  5
168
330
1F
100
AcDbEntity
  8
0
  6
HIDDEN
 62
     7
370
     0
100
AcDbLine
 10
110.7714990437
 20
118.9023913471
 30
0.0
 11
110.7714990437
 21
120.806285854
 31
0.0
  0
LINE
  5
169
330
1F
100
AcDbEntity
  8
0
  6
HIDDEN
 62
     7
370
     0
100
AcDbLine
 10
98.7714990437
 20
81.1845195582
 30
0.0
 11
98.8656598192
 21
81.8545082895
 31
0.0
  0
LINE
  5
16A
330
1F
100
AcDbEntity
  8
0
  6
HIDDEN
 62
     7
370
     0
100
AcDbLine
 10
98.8656598192
 20
131.162393119
 30
0.0
 11
98.7714990437
 21
131.8323818502
 31
0.0
  0
ARC
  5
16B
330
1F
100
AcDbEntity
  8
0
  6
HIDDEN
 62
     7
370
     0
100
AcDbCircle
 10
98.271492291
 20
81.9380130898
 30
0.0
 40
0.60000675266771
100
AcDbArc
 50
352.0
 51
0.0
  0
ARC
  5
16C
330
1F
100
AcDbEntity
  8
0
  6
HIDDEN
 62
     7
370
     0
100
AcDbCircle
 10
98.271492291
 20
81.9380130898
 30
0.0
 40
0.60000675266771
100
AcDbArc
 50
0.0
 51
33.5571153394
  0
ARC
  5
16D
330
1F
100
AcDbEntity
  8
0
  6
HIDDEN
 62
     7
370
     0
100
AcDbCircle
 10
98.271492291
 20
131.0788883186
 30
0.0
 40
0.6000067526677121
100
AcDbArc
 50
348.75
 51
8.0
  0
LWPOLYLINE
  5
16E
330
1F
100
AcDbEntity
  8
0
  6
HIDDEN
 62
     7
370
     0
100
AcDbPolyline
 90
        3
 70
   128
 43
0.0
 10
98.8599700822
 20
130.961832808
 10
98.8258262492
 20
130.8492756751
 10
98.7714990437
 20
130.7472238036
  0
LINE
  5
16F
330
1F
100
AcDbEntity
  8
0
  6
HIDDEN
 62
     7
370
     0
100
AcDbLine
 10
98.8714990437
 20
81.9380130898
 30
0.0
 11
98.8714990437
 21
131.0788883186
 31
0.0
  0
LINE
  5
170
330
1F
100
AcDbEntity
  8
0
  6
HIDDEN
 62
     7
370
     0
100
AcDbLine
 10
81.853934609
 20
86.5084507042
 30
0.0
 11
86.0314711853
 21
86.5084507042
 31
0.0
  0
LINE
  5
171
330
1F
100
AcDbEntity
  8
0
  6
HIDDEN
 62
     7
370
     0
100
AcDbLine
 10
86.0246164249
 20
126.5084507042
 30
0.0
 11
81.853934609
 21
126.5084507042
 31
0.0
  0
ARC
  5
172
330
1F
100
AcDbEntity
  8
0
  6
HIDDEN
 62
     7
370
     0
100
AcDbCircle
 10
92.5265010453
 20
94.5084507042
 30
0.0
 40
7.999999999999996
100
AcDbArc
 50
277.0582614335
 51
321.3178125465
  0
ARC
  5
173
330
1F
100
AcDbEntity
  8
0
  6
HIDDEN
 62
     7
370
     0
100
AcDbCircle
 10
92.5265010453
 20
118.5084507042
 30
0.0
 40
7.999999999999993
100
AcDbArc
 50
38.6821874535
 51
82.8732855887
  0
ARC
  5
174
330
1F
100
AcDbEntity
  8
0
  6
HIDDEN
 62
     7
370
     0
100
AcDbCircle
 10
81.853934609
 20
87.1084507042
 30
0.0
 40
0.6000000000000085
100
AcDbArc
 50
210.0
 51
270.0
  0
ARC
  5
175
330
1F
100
AcDbEntity
  8
0
  6
HIDDEN
 62
     7
370
     0
100
AcDbCircle
 10
81.853934609
 20
125.9084507042
 30
0.0
 40
0.5999999999999962
100
AcDbArc
 50
90.0
 51
150.0
  0
LINE
  5
176
330
1F
100
AcDbEntity
  8
0
  6
HIDDEN
 62
     7
370
     0
100
AcDbLine
 10
81.3343193667
 20
126.2084507042
 30
0.0
 11
79.7754736399
 21
123.5084507042
 31
0.0
  0
LINE
  5
177
330
1F
100
AcDbEntity
  8
0
  6
HIDDEN
 62
     7
370
     0
100
AcDbLine
 10
79.7754736399
 20
89.5084507042
 30
0.0
 11
81.3343193667
 21
86.8084507042
 31
0.0
  0
LINE
  5
178
330
1F
100
AcDbEntity
  8
0
  6
HIDDEN
 62
     7
370
     0
100
AcDbLine
 10
102.7714990437
 20
133.7881169422
 30
0.0
 11
102.7714990437
 21
130.4540531189
 31
0.0
  0
LINE
  5
179
330
1F
100
AcDbEntity
  8
0
  6
HIDDEN
 62
     7
370
     0
100
AcDbLine
 10
110.7714990437
 20
130.4540531189
 30
0.0
 11
110.7714990437
 21
133.7827845634
 31
0.0
  0
ARC
  5
17A
330
1F
100
AcDbEntity
  8
0
  6
HIDDEN
 62
     7
370
     0
100
AcDbCircle
 10
107.2214990437
 20
90.7834507042
 30
0.0
 40
1.5
100
AcDbArc
 50
238.2116693829
 51
0.0
  0
ARC
  5
17B
330
1F
100
AcDbEntity
  8
0
  6
HIDDEN
 62
     7
370
     0
100
AcDbCircle
 10
107.2214990437
 20
122.2334507042
 30
0.0
 40
1.500000000000009
100
AcDbArc
 50
0.0
 51
121.7883306171
  0
LINE
  5
17C
330
1F
100
AcDbEntity
  8
0
  6
HIDDEN
 62
     7
370
     0
100
AcDbLine
 10
98.7714990437
 20
89.5084507042
 30
0.0
 11
106.4313250122
 21
89.5084507042
 31
0.0
  0
LINE
  5
17D
330
1F
100
AcDbEntity
  8
0
  6
HIDDEN
 62
     7
370
     0
100
AcDbLine
 10
106.4313250122
 20
123.5084507042
 30
0.0
 11
98.7714990437
 21
123.5084507042
 31
0.0
  0
LINE
  5
17E
330
1F
100
AcDbEntity
  8
0
  6
HIDDEN
 62
     7
370
     0
100
AcDbLine
 10
76.9714990437
 20
89.5084507042
 30
0.0
 11
79.7754736399
 21
89.5084507042
 31
0.0
  0
LINE
  5
17F
330
1F
100
AcDbEntity
  8
0
  6
HIDDEN
 62
     7
370
     0
100
AcDbLine
 10
79.7754736399
 20
123.5084507042
 30
0.0
 11
72.9714990437
 21
123.5084507042
 31
0.0
  0
ARC
  5
180
330
1F
100
AcDbEntity
  8
0
  6
HIDDEN
 62
     7
370
     0
100
AcDbCircle
 10
228.2714990437
 20
95.4717564562
 30
0.0
 40
0.4999999999999776
100
AcDbArc
 50
0.0
 51
80.0
  0
ARC
  5
181
330
1F
100
AcDbEntity
  8
0
  6
HIDDEN
 62
     7
370
     0
100
AcDbCircle
 10
228.2714990437
 20
117.5451449523
 30
0.0
 40
0.4999999999999776
100
AcDbArc
 50
280.0
 51
0.0
  0
LINE
  5
182
330
1F
100
AcDbEntity
  8
0
  6
HIDDEN
 62
     7
370
     0
100
AcDbLine
 10
228.3583231325
 20
117.0527410758
 30
0.0
 11
225.2714990437
 21
116.5084507042
 31
0.0
  0
LINE
  5
183
330
1F
100
AcDbEntity
  8
0
  6
HIDDEN
 62
     7
370
     0
100
AcDbLine
 10
225.2714990437
 20
96.5084507042
 30
0.0
 11
228.3583231325
 21
95.9641603327
 31
0.0
  0
ARC
  5
184
330
1F
100
AcDbEntity
  8
0
  6
HIDDEN
 62
     7
370
     0
100
AcDbCircle
 10
177.6714990437
 20
96.6084507042
 30
0.0
 40
0.4000000000000199
100
AcDbArc
 50
180.0
 51
270.0
  0
ARC
  5
185
330
1F
100
AcDbEntity
  8
0
  6
HIDDEN
 62
     7
370
     0
100
AcDbCircle
 10
177.6714990437
 20
116.4084507042
 30
0.0
 40
0.4000000000000057
100
AcDbArc
 50
90.0
 51
180.0
  0
ARC
  5
186
330
1F
100
AcDbEntity
  8
0
  6
HIDDEN
 62
     7
370
     0
100
AcDbCircle
 10
186.8767250256
 20
96.6084507042
 30
0.0
 40
0.4000000000000208
100
AcDbArc
 50
270.0
 51
290.0
  0
ARC
  5
187
330
1F
100
AcDbEntity
  8
0
  6
HIDDEN
 62
     7
370
     0
100
AcDbCircle
 10
186.8767250256
 20
116.4084507042
 30
0.0
 40
0.4000000000000208
100
AcDbArc
 50
70.0
 51
90.0
  0
LINE
  5
188
330
1F
100
AcDbEntity
  8
0
  6
HIDDEN
 62
     7
370
     0
100
AcDbLine
 10
180.7714990437
 20
96.2084507042
 30
0.0
 11
186.8767250256
 21
96.2084507042
 31
0.0
  0
LINE
  5
189
330
1F
100
AcDbEntity
  8
0
  6
HIDDEN
 62
     7
370
     0
100
AcDbLine
 10
177.6714990437
 20
96.2084507042
 30
0.0
 11
177.7758106796
 21
96.2084507042
 31
0.0
  0
LINE
  5
18A
330
1F
100
AcDbEntity
  8
0
  6
HIDDEN
 62
     7
370
     0
100
AcDbLine
 10
177.7722031083
 20
116.8084507042
 30
0.0
 11
177.6714990437
 21
116.8084507042
 31
0.0
  0
LINE
  5
18B
330
1F
100
AcDbEntity
  8
0
  6
HIDDEN
 62
     7
370
     0
100
AcDbLine
 10
186.8767250256
 20
116.8084507042
 30
0.0
 11
180.7665234521
 21
116.8084507042
 31
0.0
  0
LINE
  5
18C
330
1F
100
AcDbEntity
  8
0
  6
HIDDEN
 62
     7
370
     0
100
AcDbLine
 10
187.0135330829
 20
96.2325736559
 30
0.0
 11
187.7714990437
 21
96.5084507042
 31
0.0
  0
LINE
  5
18D
330
1F
100
AcDbEntity
  8
0
  6
HIDDEN
 62
     7
370
     0
100
AcDbLine
 10
187.7714990437
 20
116.5084507042
 30
0.0
 11
187.0135330829
 21
116.7843277525
 31
0.0
  0
LINE
  5
18E
330
1F
100
AcDbEntity
  8
0
  6
HIDDEN
 62
     7
370
     0
100
AcDbLine
 10
187.7714990437
 20
96.5084507042
 30
0.0
 11
225.2714990437
 21
96.5084507042
 31
0.0
  0
LINE
  5
18F
330
1F
100
AcDbEntity
  8
0
  6
HIDDEN
 62
     7
370
     0
100
AcDbLine
 10
225.2714990437
 20
116.5084507042
 30
0.0
 11
187.7714990437
 21
116.5084507042
 31
0.0
  0
LINE
  5
190
330
1F
100
AcDbEntity
  8
0
  6
HIDDEN
 62
     7
370
     0
100
AcDbLine
 10
117.5714990437
 20
97.0084507042
 30
0.0
 11
120.5714990437
 21
97.0084507042
 31
0.0
  0
LINE
  5
191
330
1F
100
AcDbEntity
  8
0
  6
HIDDEN
 62
     7
370
     0
100
AcDbLine
 10
120.5714990437
 20
116.0084507042
 30
0.0
 11
117.5714990437
 21
116.0084507042
 31
0.0
  0
LINE
  5
192
330
1F
100
AcDbEntity
  8
0
  6
HIDDEN
 62
     7
370
     0
100
AcDbLine
 10
108.7214990437
 20
97.5084507042
 30
0.0
 11
109.2214990437
 21
98.0084507042
 31
0.0
  0
LINE
  5
193
330
1F
100
AcDbEntity
  8
0
  6
HIDDEN
 62
     7
370
     0
100
AcDbLine
 10
109.2214990437
 20
115.0084507042
 30
0.0
 11
108.7214990437
 21
115.5084507042
 31
0.0
  0
LINE
  5
194
330
1F
100
AcDbEntity
  8
0
  6
HIDDEN
 62
     7
370
     0
100
AcDbLine
 10
109.2214990437
 20
98.0084507042
 30
0.0
 11
117.5714990437
 21
98.0084507042
 31
0.0
  0
LINE
  5
195
330
1F
100
AcDbEntity
  8
0
  6
HIDDEN
 62
     7
370
     0
100
AcDbLine
 10
117.5714990437
 20
115.0084507042
 30
0.0
 11
109.2214990437
 21
115.0084507042
 31
0.0
  0
LINE
  5
196
330
1F
100
AcDbEntity
  8
0
  6
HIDDEN
 62
     7
370
     0
100
AcDbLine
 10
103.7214990437
 20
138.0084507042
 30
0.0
 11
103.7214990437
 21
132.9084507042
 31
0.0
  0
LINE
  5
197
330
1F
100
AcDbEntity
  8
0
  6
HIDDEN
 62
     7
370
     0
100
AcDbLine
 10
177.2714990437
 20
112.5084507042
 30
0.0
 11
176.7714990437
 21
112.0084507042
 31
0.0
  0
LINE
  5
198
330
1F
100
AcDbEntity
  8
0
  6
HIDDEN
 62
     7
370
     0
100
AcDbLine
 10
176.7714990437
 20
101.0084507042
 30
0.0
 11
177.2714990437
 21
100.5084507042
 31
0.0
  0
LINE
  5
199
330
1F
100
AcDbEntity
  8
0
  6
HIDDEN
 62
     7
370
     0
100
AcDbLine
 10
146.7714990437
 20
101.0084507042
 30
0.0
 11
176.7714990437
 21
101.0084507042
 31
0.0
  0
LINE
  5
19A
330
1F
100
AcDbEntity
  8
0
  6
HIDDEN
 62
     7
370
     0
100
AcDbLine
 10
176.7714990437
 20
112.0084507042
 30
0.0
 11
146.7714990437
 21
112.0084507042
 31
0.0
  0
LINE
  5
19B
330
1F
100
AcDbEntity
  8
0
  6
HIDDEN
 62
     7
370
     0
100
AcDbLine
 10
146.7714990437
 20
112.0084507042
 30
0.0
 11
145.9903802389
 21
110.7084507042
 31
0.0
  0
LINE
  5
19C
330
1F
100
AcDbEntity
  8
0
  6
HIDDEN
 62
     7
370
     0
100
AcDbLine
 10
145.9903802389
 20
102.3084507042
 30
0.0
 11
146.7714990437
 21
101.0084507042
 31
0.0
  0
LINE
  5
19D
330
1F
100
AcDbEntity
  8
0
  6
HIDDEN
 62
     7
370
     0
100
AcDbLine
 10
93.9559368741
 20
82.4290793707
 30
0.0
 11
93.5215047246
 21
82.9081453898
 31
0.0
  0
LINE
  5
19E
330
1F
100
AcDbEntity
  8
0
  6
HIDDEN
 62
     7
370
     0
100
AcDbLine
 10
86.0215013996
 20
83.3298333489
 30
0.0
 11
85.5390676562
 21
82.8507673735
 31
0.0
  0
LINE
  5
19F
330
1F
100
AcDbEntity
  8
0
  6
HIDDEN
 62
     7
370
     0
100
AcDbLine
 10
85.538945728
 20
130.1661287446
 30
0.0
 11
86.021496479
 21
129.6870084866
 31
0.0
  0
LINE
  5
1A0
330
1F
100
AcDbEntity
  8
0
  6
HIDDEN
 62
     7
370
     0
100
AcDbLine
 10
93.5214989257
 20
130.1087062643
 30
0.0
 11
93.956041316
 21
130.5878265149
 31
0.0
  0
LINE
  5
1A1
330
1F
100
AcDbEntity
  8
0
  6
HIDDEN
 62
     7
370
     0
100
AcDbLine
 10
120.5714990437
 20
102.3084507042
 30
0.0
 11
145.9903802389
 21
102.3084507042
 31
0.0
  0
LINE
  5
1A2
330
1F
100
AcDbEntity
  8
0
  6
HIDDEN
 62
     7
370
     0
100
AcDbLine
 10
145.9903802389
 20
110.7084507042
 30
0.0
 11
120.5714990437
 21
110.7084507042
 31
0.0
  0
LINE
  5
1A3
330
1F
100
AcDbEntity
  8
0
  6
HIDDEN
 62
     7
370
     0
100
AcDbLine
 10
93.5214990437
 20
126.4462868949
 30
0.0
 11
93.5214990437
 21
130.1081528427
 31
0.0
  0
LINE
  5
1A4
330
1F
100
AcDbEntity
  8
0
  6
HIDDEN
 62
     7
370
     0
100
AcDbLine
 10
86.0214990437
 20
129.6867532954
 30
0.0
 11
86.0214990437
 21
126.507866443
 31
0.0
  0
LINE
  5
1A5
330
1F
100
AcDbEntity
  8
0
  6
HIDDEN
 62
     7
370
     0
100
AcDbLine
 10
93.5214990437
 20
82.9086292915
 30
0.0
 11
93.5214990437
 21
86.5713778782
 31
0.0
  0
LINE
  5
1A6
330
1F
100
AcDbEntity
  8
0
  6
HIDDEN
 62
     7
370
     0
100
AcDbLine
 10
86.0214990437
 20
86.5103129498
 30
0.0
 11
86.0214990437
 21
83.3301565867
 31
0.0
  0
LINE
  5
1A7
330
1F
100
AcDbEntity
  8
0
  6
HIDDEN
 62
     7
370
     0
100
AcDbLine
 10
157.2214990437
 20
127.0084507042
 30
0.0
 11
158.2214990437
 21
126.431100435
 31
0.0
  0
LINE
  5
1A8
330
1F
100
AcDbEntity
  8
0
  6
HIDDEN
 62
     7
370
     0
100
AcDbLine
 10
163.2214990437
 20
126.431100435
 30
0.0
 11
164.2214990437
 21
127.0084507042
 31
0.0
  0
LINE
  5
1A9
330
1F
100
AcDbEntity
  8
0
  6
HIDDEN
 62
     7
370
     0
100
AcDbLine
 10
164.2214990437
 20
86.0084507042
 30
0.0
 11
163.2214990437
 21
86.5858009734
 31
0.0
  0
LINE
  5
1AA
330
1F
100
AcDbEntity
  8
0
  6
HIDDEN
 62
     7
370
     0
100
AcDbLine
 10
158.2214990437
 20
86.5858009734
 30
0.0
 11
157.2214990437
 21
86.0084507042
 31
0.0
  0
LINE
  5
1AB
330
1F
100
AcDbEntity
  8
0
  6
HIDDEN
 62
     7
370
     0
100
AcDbLine
 10
158.2214990437
 20
126.431100435
 30
0.0
 11
158.2214990437
 21
115.0084507042
 31
0.0
  0
LINE
  5
1AC
330
1F
100
AcDbEntity
  8
0
  6
HIDDEN
 62
     7
370
     0
100
AcDbLine
 10
163.2214990437
 20
115.0084507042
 30
0.0
 11
163.2214990437
 21
126.431100435
 31
0.0
  0
LINE
  5
1AD
330
1F
100
AcDbEntity
  8
0
  6
HIDDEN
 62
     7
370
     0
100
AcDbLine
 10
158.2214990437
 20
115.0084507042
 30
0.0
 11
160.7214990437
 21
113.5062991567
 31
0.0
  0
LINE
  5
1AE
330
1F
100
AcDbEntity
  8
0
  6
HIDDEN
 62
     7
370
     0
100
AcDbLine
 10
160.7214990437
 20
113.5062991567
 30
0.0
 11
163.2214990437
 21
115.0084507042
 31
0.0
  0
LINE
  5
1AF
330
1F
100
AcDbEntity
  8
0
  6
HIDDEN
 62
     7
370
     0
100
AcDbLine
 10
163.2214990437
 20
86.5858009734
 30
0.0
 11
163.2214990437
 21
98.0084507042
 31
0.0
  0
LINE
  5
1B0
330
1F
100
AcDbEntity
  8
0
  6
HIDDEN
 62
     7
370
     0
100
AcDbLine
 10
158.2214990437
 20
98.0084507042
 30
0.0
 11
158.2214990437
 21
86.5858009734
 31
0.0
  0
LINE
  5
1B1
330
1F
100
AcDbEntity
  8
0
  6
HIDDEN
 62
     7
370
     0
100
AcDbLine
 10
163.2214990437
 20
98.0084507042
 30
0.0
 11
160.7214990437
 21
99.5106022518
 31
0.0
  0
LINE
  5
1B2
330
1F
100
AcDbEntity
  8
0
  6
HIDDEN
 62
     7
370
     0
100
AcDbLine
 10
160.7214990437
 20
99.5106022518
 30
0.0
 11
158.2214990437
 21
98.0084507042
 31
0.0
  0
LINE
  5
1B3
330
1F
100
AcDbEntity
  8
0
  6
HIDDEN
 62
     7
370
     0
100
AcDbLine
 10
177.7714990437
 20
120.2731628235
 30
0.0
 11
177.7714990437
 21
116.8083493648
 31
0.0
  0
LINE
  5
1B4
330
1F
100
AcDbEntity
  8
0
  6
HIDDEN
 62
     7
370
     0
100
AcDbLine
 10
177.7714990437
 20
123.3084507042
 30
0.0
 11
177.7714990437
 21
122.6280511332
 31
0.0
  0
LINE
  5
1B5
330
1F
100
AcDbEntity
  8
0
  6
HIDDEN
 62
     7
370
     0
100
AcDbLine
 10
180.7714990437
 20
122.641583511
 30
0.0
 11
180.7714990437
 21
123.3084507042
 31
0.0
  0
LINE
  5
1B6
330
1F
100
AcDbEntity
  8
0
  6
HIDDEN
 62
     7
370
     0
100
AcDbLine
 10
180.7714990437
 20
116.8077282039
 30
0.0
 11
180.7714990437
 21
120.1434113923
 31
0.0
  0
LINE
  5
1B7
330
1F
100
AcDbEntity
  8
0
  6
HIDDEN
 62
     7
370
     0
100
AcDbLine
 10
177.7714990437
 20
90.3888502752
 30
0.0
 11
177.7714990437
 21
90.0084507042
 31
0.0
  0
LINE
  5
1B8
330
1F
100
AcDbEntity
  8
0
  6
HIDDEN
 62
     7
370
     0
100
AcDbLine
 10
177.7714990437
 20
96.2090763997
 30
0.0
 11
177.7714990437
 21
92.743738585
 31
0.0
  0
LINE
  5
1B9
330
1F
100
AcDbEntity
  8
0
  6
HIDDEN
 62
     7
370
     0
100
AcDbLine
 10
180.7714990437
 20
92.8734900161
 30
0.0
 11
180.7714990437
 21
96.2084507042
 31
0.0
  0
LINE
  5
1BA
330
1F
100
AcDbEntity
  8
0
  6
HIDDEN
 62
     7
370
     0
100
AcDbLine
 10
180.7714990437
 20
90.0084507042
 30
0.0
 11
180.7714990437
 21
90.3753178974
 31
0.0
  0
LINE
  5
1BB
330
1F
100
AcDbEntity
  8
0
  6
HIDDEN
 62
     7
370
     0
100
AcDbLine
 10
177.7714990437
 20
90.0084507042
 30
0.0
 11
179.2714990437
 21
89.1071597757
 31
0.0
  0
LINE
  5
1BC
330
1F
100
AcDbEntity
  8
0
  6
HIDDEN
 62
     7
370
     0
100
AcDbLine
 10
179.2714990437
 20
89.1071597757
 30
0.0
 11
180.7714990437
 21
90.0084507042
 31
0.0
  0
LINE
  5
1BD
330
1F
100
AcDbEntity
  8
0
  6
HIDDEN
 62
     7
370
     0
100
AcDbLine
 10
180.768444347
 20
90.3714411002
 30
0.0
 11
228.7714990437
 21
92.257486256
 31
0.0
  0
LINE
  5
1BE
330
1F
100
AcDbEntity
  8
0
  6
HIDDEN
 62
     7
370
     0
100
AcDbLine
 10
228.7714990437
 20
94.7594151525
 30
0.0
 11
180.7714990437
 21
92.8734900161
 31
0.0
  0
LINE
  5
1BF
330
1F
100
AcDbEntity
  8
0
  6
HIDDEN
 62
     7
370
     0
100
AcDbLine
 10
180.7714990437
 20
120.1434113923
 30
0.0
 11
228.7714990437
 21
118.257486256
 31
0.0
  0
LINE
  5
1C0
330
1F
100
AcDbEntity
  8
0
  6
HIDDEN
 62
     7
370
     0
100
AcDbLine
 10
228.7714990437
 20
120.7594151525
 30
0.0
 11
180.768444347
 21
122.6454603082
 31
0.0
  0
LINE
  5
1C1
330
1F
100
AcDbEntity
  8
0
  6
HIDDEN
 62
     7
370
     0
100
AcDbLine
 10
177.77599482
 20
122.6317716655
 30
0.0
 11
177.0603214738
 21
121.5401884044
 31
0.0
  0
LINE
  5
1C2
330
1F
100
AcDbEntity
  8
0
  6
HIDDEN
 62
     7
370
     0
100
AcDbLine
 10
177.0603214738
 20
121.5401884044
 30
0.0
 11
177.7617434257
 21
120.2616650126
 31
0.0
  0
LINE
  5
1C3
330
1F
100
AcDbEntity
  8
0
  6
HIDDEN
 62
     7
370
     0
100
AcDbLine
 10
177.7617434257
 20
92.7552363958
 30
0.0
 11
177.0603214738
 21
91.476713004
 31
0.0
  0
LINE
  5
1C4
330
1F
100
AcDbEntity
  8
0
  6
HIDDEN
 62
     7
370
     0
100
AcDbLine
 10
177.0603214738
 20
91.476713004
 30
0.0
 11
177.77599482
 21
90.3851297429
 31
0.0
  0
LINE
  5
1C5
330
1F
100
AcDbEntity
  8
0
  6
HIDDEN
 62
     7
370
     0
100
AcDbLine
 10
228.6980117337
 20
92.004406042
 30
0.0
 11
228.7714990437
 21
92.1440824439
 31
0.0
  0
LINE
  5
1C6
330
1F
100
AcDbEntity
  8
0
  6
HIDDEN
 62
     7
370
     0
100
AcDbLine
 10
228.7530665602
 20
94.7281674057
 30
0.0
 11
228.5802322864
 21
95.0020931508
 31
0.0
  0
LINE
  5
1C7
330
1F
100
AcDbEntity
  8
0
  6
HIDDEN
 62
     7
370
     0
100
AcDbLine
 10
228.5802322864
 20
95.0020931508
 30
0.0
 11
223.2462944825
 21
94.7925221637
 31
0.0
  0
LINE
  5
1C8
330
1F
100
AcDbEntity
  8
0
  6
HIDDEN
 62
     7
370
     0
100
AcDbLine
 10
223.3640739298
 20
91.794835055
 30
0.0
 11
228.6980117337
 21
92.004406042
 31
0.0
  0
LINE
  5
1C9
330
1F
100
AcDbEntity
  8
0
  6
HIDDEN
 62
     7
370
     0
100
AcDbLine
 10
223.2462944825
 20
94.7925221637
 30
0.0
 11
222.7663098723
 21
94.2732777377
 31
0.0
  0
LINE
  5
1CA
330
1F
100
AcDbEntity
  8
0
  6
HIDDEN
 62
     7
370
     0
100
AcDbLine
 10
222.8448295038
 20
92.2748196652
 30
0.0
 11
223.3640739298
 21
91.794835055
 31
0.0
  0
LINE
  5
1CB
330
1F
100
AcDbEntity
  8
0
  6
HIDDEN
 62
     7
370
     0
100
AcDbLine
 10
228.6391220101
 20
121.0148091499
 30
0.0
 11
223.3051842062
 21
121.224380137
 31
0.0
  0
LINE
  5
1CC
330
1F
100
AcDbEntity
  8
0
  6
HIDDEN
 62
     7
370
     0
100
AcDbLine
 10
223.1874047589
 20
118.2266930283
 30
0.0
 11
228.5213425628
 21
118.0171220412
 31
0.0
  0
LINE
  5
1CD
330
1F
100
AcDbEntity
  8
0
  6
HIDDEN
 62
     7
370
     0
100
AcDbLine
 10
223.3051842062
 20
121.224380137
 30
0.0
 11
222.7859397802
 21
120.7443955268
 31
0.0
  0
LINE
  5
1CE
330
1F
100
AcDbEntity
  8
0
  6
HIDDEN
 62
     7
370
     0
100
AcDbLine
 10
222.7074201486
 20
118.7459374543
 30
0.0
 11
223.1874047589
 21
118.2266930283
 31
0.0
  0
LINE
  5
1CF
330
1F
100
AcDbEntity
  8
0
  6
HIDDEN
 62
     7
370
     0
100
AcDbLine
 10
228.5213425628
 20
118.0171220412
 30
0.0
 11
228.6941768365
 21
118.2910477863
 31
0.0
  0
LINE
  5
1D0
330
1F
100
AcDbEntity
  8
0
  6
HIDDEN
 62
     7
370
     0
100
AcDbLine
 10
228.7714990437
 20
120.7632017943
 30
0.0
 11
228.6391220101
 21
121.0148091499
 31
0.0
  0
LINE
  5
1D1
330
1F
100
AcDbEntity
  8
0
  6
HIDDEN
 62
     7
370
     0
100
AcDbLine
 10
176.7714990437
 20
100.5084507042
 30
0.0
 11
177.2714990437
 21
101.0084507042
 31
0.0
  0
LINE
  5
1D2
330
1F
100
AcDbEntity
  8
0
  6
HIDDEN
 62
     7
370
     0
100
AcDbLine
 10
177.2714990437
 20
112.0084507042
 30
0.0
 11
176.7714990437
 21
112.5084507042
 31
0.0
  0
LINE
  5
1D3
330
1F
100
AcDbEntity
  8
0
  6
HIDDEN
 62
     7
370
     0
100
AcDbLine
 10
161.7714990437
 20
100.5084507042
 30
0.0
 11
176.7714990437
 21
100.5084507042
 31
0.0
  0
LINE
  5
1D4
330
1F
100
AcDbEntity
  8
0
  6
HIDDEN
 62
     7
370
     0
100
AcDbLine
 10
176.7714990437
 20
112.5084507042
 30
0.0
 11
161.7714990437
 21
112.5084507042
 31
0.0
  0
LINE
  5
1D5
330
1F
100
AcDbEntity
  8
0
  6
HIDDEN
 62
     7
370
     0
100
AcDbLine
 10
161.7714990437
 20
112.5084507042
 30
0.0
 11
161.2714990437
 21
112.0084507042
 31
0.0
  0
LINE
  5
1D6
330
1F
100
AcDbEntity
  8
0
  6
HIDDEN
 62
     7
370
     0
100
AcDbLine
 10
161.2714990437
 20
101.0084507042
 30
0.0
 11
161.7714990437
 21
100.5084507042
 31
0.0
  0
LINE
  5
1D7
330
1F
100
AcDbEntity
  8
0
  6
HIDDEN
 62
     7
370
     0
100
AcDbLine
 10
177.2714990437
 20
101.0084507042
 30
0.0
 11
181.2714990437
 21
101.0084507042
 31
0.0
  0
LINE
  5
1D8
330
1F
100
AcDbEntity
  8
0
  6
HIDDEN
 62
     7
370
     0
100
AcDbLine
 10
181.2714990437
 20
112.0084507042
 30
0.0
 11
177.2714990437
 21
112.0084507042
 31
0.0
  0
LINE
  5
1D9
330
1F
100
AcDbEntity
  8
0
  6
HIDDEN
 62
     7
370
     0
100
AcDbLine
 10
168.2714990436
 20
103.5084507042
 30
0.0
 11
174.2714990437
 21
103.5084507042
 31
0.0
  0
LINE
  5
1DA
330
1F
100
AcDbEntity
  8
0
  6
HIDDEN
 62
     7
370
     0
100
AcDbLine
 10
174.2714990437
 20
109.5084507042
 30
0.0
 11
168.2714990436
 21
109.5084507042
 31
0.0
  0
DIMENSION
  5
1DB
330
1F
100
AcDbEntity
  8
VERMASSUNG
100
AcDbDimension
  2
*D1
 10
62.4022751896
 20
75.0084507042
 30
0.0
 11
62.4022751896
 21
106.5084507042
 31
0.0
 70
   160
  1
HSK A %%c<>
 71
     2
 42
-1.0
  3
SLDDIMSTYLE0
100
AcDbAlignedDimension
 13
99.0714990437
 23
138.0084507042
 33
0.0
 14
99.0714990437
 24
75.0084507042
 34
0.0
 50
90.0
100
AcDbRotatedDimension
  0
DIMENSION
  5
1E8
330
1F
100
AcDbEntity
  8
VERMASSUNG
100
AcDbDimension
  2
*D2
 10
228.7714990437
 20
136.6774647887
 30
0.0
 11
203.0214990437
 21
136.6774647887
 31
0.0
 70
   160
 71
     2
 42
-1.0
  3
SLDDIMSTYLE1
100
AcDbAlignedDimension
 13
177.2714990437
 23
116.4084507042
 33
0.0
 14
228.7714990437
 24
121.1596697209
 34
0.0
100
AcDbRotatedDimension
  0
DIMENSION
  5
1F3
330
1F
100
AcDbEntity
  8
VERMASSUNG
100
AcDbDimension
  2
*D3
 10
236.7539544962
 20
116.5084507042
 30
0.0
 11
236.7539544962
 21
106.5084507042
 31
0.0
 70
   160
  1
%%c<>
 71
     2
 42
-1.0
  3
SLDDIMSTYLE2
100
AcDbAlignedDimension
 13
225.2714990437
 23
96.5084507042
 33
0.0
 14
225.2714990437
 24
116.5084507042
 34
0.0
 50
90.0
100
AcDbRotatedDimension
  0
DIMENSION
  5
1FF
330
1F
100
AcDbEntity
  8
VERMASSUNG
100
AcDbDimension
  2
*D4
 10
242.7539544962
 20
123.0084507042
 30
0.0
 11
242.7539544962
 21
106.5084507042
 31
0.0
 70
   160
  1
%%c<>
 71
     2
 42
-1.0
  3
SLDDIMSTYLE3
100
AcDbAlignedDimension
 13
228.7714990437
 23
90.0084507042
 33
0.0
 14
228.7714990437
 24
123.0084507042
 34
0.0
 50
90.0
100
AcDbRotatedDimension
  0
DIMENSION
  5
20B
330
1F
100
AcDbEntity
  8
VERMASSUNG
100
AcDbDimension
  2
*D5
 10
248.7539544962
 20
127.0084507042
 30
0.0
 11
248.7539544962
 21
106.5084507042
 31
0.0
 70
   160
  1
%%c<>
 71
     2
 42
-1.0
  3
SLDDIMSTYLE3
100
AcDbAlignedDimension
 13
168.7714990437
 23
86.0084507042
 33
0.0
 14
168.7714990437
 24
127.0084507042
 34
0.0
 50
90.0
100
AcDbRotatedDimension
  0
DIMENSION
  5
216
330
1F
100
AcDbEntity
  8
VERMASSUNG
100
AcDbDimension
  2
*D6
 10
228.7714990437
 20
148.6774647887
 30
0.0
 11
163.7714990437
 21
148.6774647887
 31
0.0
 70
   160
 71
     2
 42
-1.0
  3
SLDDIMSTYLE0
100
AcDbAlignedDimension
 13
98.7714990437
 23
137.7084507042
 33
0.0
 14
228.7714990437
 24
121.1596697209
 34
0.0
100
AcDbRotatedDimension
  0
DIMENSION
  5
220
330
1F
100
AcDbEntity
  8
VERMASSUNG
100
AcDbDimension
  2
*D7
 10
228.7714990437
 20
142.6774647887
 30
0.0
 11
176.7464990437
 21
142.6774647887
 31
0.0
 70
   160
 71
     2
 42
-1.0
  3
SLDDIMSTYLE0
100
AcDbAlignedDimension
 13
124.7214990437
 23
136.354891028
 33
0.0
 14
228.7714990437
 24
121.1596697209
 34
0.0
100
AcDbRotatedDimension
  0
DIMENSION
  5
22A
330
1F
100
AcDbEntity
  8
VERMASSUNG
100
AcDbDimension
  2
*D8
 10
228.7714990437
 20
154.6774647887
 30
0.0
 11
147.8214990437
 21
154.6774647887
 31
0.0
 70
   160
 71
     2
 42
-1.0
  3
SLDDIMSTYLE0
100
AcDbAlignedDimension
 13
66.8714990437
 23
126.1991284507
 33
0.0
 14
228.7714990437
 24
121.1596697209
 34
0.0
100
AcDbRotatedDimension
  0
LINE
  5
234
330
1F
100
AcDbEntity
  8
VERMASSUNG
  6
CENTERX2
370
     0
100
AcDbLine
 10
64.7261952013
 20
106.5084507042
 30
0.0
 11
230.6525460455
 21
106.5084507042
 31
0.0
  0
OLE2FRAME
  5
235
330
1F
100
AcDbEntity
  8
0
100
AcDbOle2Frame
 70
     2
  3
Bitmap Image
 10
13.8511154363
 20
38.264191557
 30
0.0
 11
51.6290888628
 21
31.9806341108
 31
0.0
 71
     2
 72
     0
 73
     1
 90
    12928
310
80552BED0767C5B32B40DDAF6807D121434000000000000000006FFBDDFB85D0
310
4940DDAF6807D121434000000000000000006FFBDDFB85D04940416F4BD60AFB
310
3F4000000000000000002BED0767C5B32B40416F4BD60AFB3F40000000000000
310
0000000000000100000000010000010000000100000000000100000000320000
310
D0CF11E0A1B11AE1000000000000000000000000000000003E000300FEFF0900
310
0600000000000000000000000100000001000000000000000010000002000000
310
01000000FEFFFFFF0000000000000000FFFFFFFFFFFFFFFFFFFFFFFFFFFFFFFF
310
FFFFFFFFFFFFFFFFFFFFFFFFFFFFFFFFFFFFFFFFFFFFFFFFFFFFFFFFFFFFFFFF
310
FFFFFFFFFFFFFFFFFFFFFFFFFFFFFFFFFFFFFFFFFFFFFFFFFFFFFFFFFFFFFFFF
310
FFFFFFFFFFFFFFFFFFFFFFFFFFFFFFFFFFFFFFFFFFFFFFFFFFFFFFFFFFFFFFFF
310
FFFFFFFFFFFFFFFFFFFFFFFFFFFFFFFFFFFFFFFFFFFFFFFFFFFFFFFFFFFFFFFF
310
FFFFFFFFFFFFFFFFFFFFFFFFFFFFFFFFFFFFFFFFFFFFFFFFFFFFFFFFFFFFFFFF
310
FFFFFFFFFFFFFFFFFFFFFFFFFFFFFFFFFFFFFFFFFFFFFFFFFFFFFFFFFFFFFFFF
310
FFFFFFFFFFFFFFFFFFFFFFFFFFFFFFFFFFFFFFFFFFFFFFFFFFFFFFFFFFFFFFFF
310
FFFFFFFFFFFFFFFFFFFFFFFFFFFFFFFFFFFFFFFFFFFFFFFFFFFFFFFFFFFFFFFF
310
FFFFFFFFFFFFFFFFFFFFFFFFFFFFFFFFFFFFFFFFFFFFFFFFFFFFFFFFFFFFFFFF
310
FFFFFFFFFFFFFFFFFFFFFFFFFFFFFFFFFFFFFFFFFFFFFFFFFFFFFFFFFFFFFFFF
310
FFFFFFFFFFFFFFFFFFFFFFFFFFFFFFFFFFFFFFFFFFFFFFFFFFFFFFFFFFFFFFFF
310
FFFFFFFFFFFFFFFFFFFFFFFFFFFFFFFFFFFFFFFFFFFFFFFFFFFFFFFFFFFFFFFF
310
FFFFFFFFFFFFFFFFFFFFFFFFFFFFFFFFFFFFFFFFFFFFFFFFFFFFFFFFFFFFFFFF
310
FDFFFFFFFEFFFFFFFEFFFFFFFEFFFFFF05000000060000000700000008000000
310
090000000A0000000B0000000C0000000D0000000E0000000F00000010000000
310
11000000120000001300000014000000150000001600000017000000FEFFFFFF
310
FFFFFFFFFFFFFFFFFFFFFFFFFFFFFFFFFFFFFFFFFFFFFFFFFFFFFFFFFFFFFFFF
310
FFFFFFFFFFFFFFFFFFFFFFFFFFFFFFFFFFFFFFFFFFFFFFFFFFFFFFFFFFFFFFFF
310
FFFFFFFFFFFFFFFFFFFFFFFFFFFFFFFFFFFFFFFFFFFFFFFFFFFFFFFFFFFFFFFF
310
FFFFFFFFFFFFFFFFFFFFFFFFFFFFFFFFFFFFFFFFFFFFFFFFFFFFFFFFFFFFFFFF
310
FFFFFFFFFFFFFFFFFFFFFFFFFFFFFFFFFFFFFFFFFFFFFFFFFFFFFFFFFFFFFFFF
310
FFFFFFFFFFFFFFFFFFFFFFFFFFFFFFFFFFFFFFFFFFFFFFFFFFFFFFFFFFFFFFFF
310
FFFFFFFFFFFFFFFFFFFFFFFFFFFFFFFFFFFFFFFFFFFFFFFFFFFFFFFFFFFFFFFF
310
FFFFFFFFFFFFFFFFFFFFFFFFFFFFFFFFFFFFFFFFFFFFFFFFFFFFFFFFFFFFFFFF
310
FFFFFFFFFFFFFFFFFFFFFFFFFFFFFFFFFFFFFFFFFFFFFFFFFFFFFFFFFFFFFFFF
310
FFFFFFFFFFFFFFFFFFFFFFFFFFFFFFFFFFFFFFFFFFFFFFFFFFFFFFFFFFFFFFFF
310
FFFFFFFFFFFFFFFFFFFFFFFFFFFFFFFFFFFFFFFFFFFFFFFFFFFFFFFFFFFFFFFF
310
FFFFFFFFFFFFFFFFFFFFFFFFFFFFFFFFFFFFFFFFFFFFFFFFFFFFFFFFFFFFFFFF
310
FFFFFFFFFFFFFFFFFFFFFFFFFFFFFFFFFFFFFFFFFFFFFFFFFFFFFFFFFFFFFFFF
310
52006F006F007400200045006E00740072007900000000000000000000000000
310
0000000000000000000000000000000000000000000000000000000000000000
310
16000500FFFFFFFFFFFFFFFF020000000A00030000000000C000000000000046
310
000000000000000000000000E0C04B3B7305CC0103000000C000000000000000
310
01004F006C006500000000000000000000000000000000000000000000000000
310
0000000000000000000000000000000000000000000000000000000000000000
310
0A000200FFFFFFFFFFFFFFFFFFFFFFFF00000000000000000000000000000000
310
0000000000000000000000000000000000000000000000001400000000000000
310
010043006F006D0070004F0062006A0000000000000000000000000000000000
310
0000000000000000000000000000000000000000000000000000000000000000
310
120002010100000003000000FFFFFFFF00000000000000000000000000000000
310
0000000000000000000000000000000000000000010000004D00000000000000
310
01004F006C006500310030004E00610074006900760065000000000000000000
310
0000000000000000000000000000000000000000000000000000000000000000
310
1A000200FFFFFFFFFFFFFFFFFFFFFFFF00000000000000000000000000000000
310
0000000000000000000000000000000000000000040000002426000000000000
310
FEFFFFFF02000000FEFFFFFFFFFFFFFFFFFFFFFFFFFFFFFFFFFFFFFFFFFFFFFF
310
FFFFFFFFFFFFFFFFFFFFFFFFFFFFFFFFFFFFFFFFFFFFFFFFFFFFFFFFFFFFFFFF
310
FFFFFFFFFFFFFFFFFFFFFFFFFFFFFFFFFFFFFFFFFFFFFFFFFFFFFFFFFFFFFFFF
310
FFFFFFFFFFFFFFFFFFFFFFFFFFFFFFFFFFFFFFFFFFFFFFFFFFFFFFFFFFFFFFFF
310
FFFFFFFFFFFFFFFFFFFFFFFFFFFFFFFFFFFFFFFFFFFFFFFFFFFFFFFFFFFFFFFF
310
FFFFFFFFFFFFFFFFFFFFFFFFFFFFFFFFFFFFFFFFFFFFFFFFFFFFFFFFFFFFFFFF
310
FFFFFFFFFFFFFFFFFFFFFFFFFFFFFFFFFFFFFFFFFFFFFFFFFFFFFFFFFFFFFFFF
310
FFFFFFFFFFFFFFFFFFFFFFFFFFFFFFFFFFFFFFFFFFFFFFFFFFFFFFFFFFFFFFFF
310
FFFFFFFFFFFFFFFFFFFFFFFFFFFFFFFFFFFFFFFFFFFFFFFFFFFFFFFFFFFFFFFF
310
FFFFFFFFFFFFFFFFFFFFFFFFFFFFFFFFFFFFFFFFFFFFFFFFFFFFFFFFFFFFFFFF
310
FFFFFFFFFFFFFFFFFFFFFFFFFFFFFFFFFFFFFFFFFFFFFFFFFFFFFFFFFFFFFFFF
310
FFFFFFFFFFFFFFFFFFFFFFFFFFFFFFFFFFFFFFFFFFFFFFFFFFFFFFFFFFFFFFFF
310
FFFFFFFFFFFFFFFFFFFFFFFFFFFFFFFFFFFFFFFFFFFFFFFFFFFFFFFFFFFFFFFF
310
FFFFFFFFFFFFFFFFFFFFFFFFFFFFFFFFFFFFFFFFFFFFFFFFFFFFFFFFFFFFFFFF
310
FFFFFFFFFFFFFFFFFFFFFFFFFFFFFFFFFFFFFFFFFFFFFFFFFFFFFFFFFFFFFFFF
310
FFFFFFFFFFFFFFFFFFFFFFFFFFFFFFFFFFFFFFFFFFFFFFFFFFFFFFFFFFFFFFFF
310
0100000200000000000000000000000000000000000000000000000000000000
310
0000000000000000000000000000000000000000000000000000000000000000
310
0100FEFF030A0000FFFFFFFF0A00030000000000C00000000000004607000000
310
5042727573680007000000504272757368000700000050427275736800F439B2
310
7100000000000000000000000000000000000000000000000000000000000000
310
0000000000000000000000000000000000000000000000000000000000000000
310
0000000000000000000000000000000000000000000000000000000000000000
310
0000000000000000000000000000000000000000000000000000000000000000
310
0000000000000000000000000000000000000000000000000000000000000000
310
0000000000000000000000000000000000000000000000000000000000000000
310
0000000000000000000000000000000000000000000000000000000000000000
310
0000000000000000000000000000000000000000000000000000000000000000
310
0000000000000000000000000000000000000000000000000000000000000000
310
0000000000000000000000000000000000000000000000000000000000000000
310
0000000000000000000000000000000000000000000000000000000000000000
310
0000000000000000000000000000000000000000000000000000000000000000
310
20260000424D0E260000000000003E00000028000000B40200006E0000000100
310
01000000000000000000130B0000130B00000200000002000000000000FFFFFF
310
FFFFFFFFFFFFFFFFFFFFFFFFFFFFFFFFFFFFFFFFFFFFFFFFFFFFFFFFFFFFFFFF
310
FFFFFFFFFFFFFFFFFFFFFFFFFFFFFFFFFFFFFFFFFFFFFFFFFFFFFFFFFFFFFFFF
310
FFFFFFFFFFFFFFFFFFFFFFFFFFFFFFFFFFFFFFFFFFFFFFFFF000FFFFFFFFFFFF
310
FFFFFFFFFFFFFFFFFFFFFFFFFFFFFFFFFFFFFFFFFFFFFFFFFFFFFFFFFFFFFFFF
310
FFFFFFFFFFFFFFFFFFFFFFFFFFFFFFFFFFFFFFFFFFFFFFFFFFFFFFFFFFFFFFFF
310
FFFFFFFFFFFFFFFFFFFFFFFFFFFFFFFFF000FFFFFFFFFFFFFFFFFFFFFFFFFFFF
310
FFFFFFFFFFFFFFFFFFFFFFFFFFFFFFFFFFFFFFFFFFFFFFFFFFFFFFFFFFFFFFFF
310
FFFFFFFFFFFFFFFFFFFFFFFFFFFFFFFFFFFFFFFFFFFFFFFFFFFFFFFFFFFFFFFF
310
FFFFFFFFFFFFFFFFF000FFFFFFFFFFFFFFFFFFFFFFFFFFFFFFFFFFFFFFFFFFFF
310
FFFFFFFFFFFFFFFFFFFFFFFFFFFFFFFFFFFFFFFFFFFFFFFFFFFFFFFFFFFFFFFF
310
FFFFFFFFFFFFFFFFFFFFFFFFFFFFFFFFFFFFFFFFFFFFFFFFFFFFFFFFFFFFFFFF
310
F000FFFFFFFFFFFFFFFFFFFFFFFFFFFFFFFFFFFFFFFFFFFFFFFFFFFFFFFFFFFF
310
FFFFFFFFFFFFFFFFFFFFFFFFFFFFFFFFFFFFFFFFFFFFFFFFFFFFFFFFFFFFFFFF
310
FFFFFFFFFFFFFFFFFFFFFFFFFFFFFFFFFFFFFFFFFFFFFFFFF000FFFFFFFFFFFF
310
FFFFFFFFFFFFFFFFFFFFFFFFFFFFFFFFFFFFFFFFFFFFFFFFFFFFFFFFFFFFFFFF
310
FFFFFFFFFFFFFFFFFFFFFFFFFFFFFFFFFFFFFFFFFFFFFFFFFFFFFFFFFFFFFFFF
310
FFFFFFFFFFFFFFFFFFFFFFFFFFFFFFFFF000FFFFFFFFFFFFFFFFFFFFFFFFFFFF
310
FFFFFFFFFFFFFFFFFFFFFFFFFFFFFFFFFFFFFFFFFFFFFFFFFFFFFFFFFFFFFFFF
310
FFFFFFFFFFFFFFFFFFFFFFFFFFFFFFFFFFFFFFFFFFFFFFFFFFFFFFFFFFFFFFFF
310
FFFFFFFFFFFFFFFFF000FFFFFFFFFFFFFFFFFFFFFFFFFFFFFFFFFFFFFFFFFFFF
310
FFFFFFFFFFFFFFFFFFFFFFFFFFFFFFFFFFFFFFFFFFFFFFFFFFFFFFFFFFFFFFFF
310
FFFFFFFFFFFFFFFFFFFFFFFFFFFFFFFFFFFFFFFFFFFFFFFFFFFFFFFFFFFFFFFF
310
F000FFFFFFFFFFFFFFFFFFFFFFFFFFFFFFFFFFFFFFFFFFFFFFFFFFFFFFFFFFFF
310
FFFFFFFFFFFFFFFFFFFFFFFFFFFFFFFFFFFFFFFFFFFFFFFFFFFFFFFFFFFFFFFF
310
FFFFFFFFFFFFFFFFFFFFFFFFFFFFFFFFFFFFFFFFFFFFFFFFF000FFFFFFFFFFFF
310
FFFFFFFFFFFFFFFFFFFFFFFFFFFFFFFFFFFFFFFFFFFFFFFFFFFFFFFFFFFFFFFF
310
FFFFFFFFFFFFFFFFFFFFFFFFFFFFFFFFFFFFFFFFFFFFFFFFFFFFFFFFFFFFFFFF
310
FFFFFFFFFFFFFFFFFFFFFFFFFFFFFFFFF000FFFFFFFFFFFFFFFFFFFFFFFFFFFF
310
FFFFFFFFFFFFFFFFFFFFFFFFFFFFFFFFFFFFFFFFFFFFFFFFFFFFFFFFFFFFFFFF
310
FFFFFFFFFFFFFFFFFFFFFFFFFFFFFFFFFFFFFFFFFFFFFFFFFFFFFFFFFFFFFFFF
310
FFFFFFFFFFFFFFFFF000FFFFFFFFFFFFFFFFFFFFFFFFFFFFFFFFFFFFFFFFFFFF
310
FFFFFFFFFFFFFFFFFFFFFFFFFFFFFFFFFFFFFFFFFFFFFFFFFFFFFFFFFFFFFFFF
310
FFFFFFFFFFFFFFFFFFFFFFFFFFFFFFFFFFFFFFFFFFFFFFFFFFFFFFFFFFFFFFFF
310
F000FFFFFFFFFFFFFFFFFFFFFFFFFFFFFFFFFFFFFFFFFFFFFFFFFFFFFFFFFFFF
310
FFFFFFFFFFFFFFFFFFFFFFFFFFFFFFFFFFFFFFFFFFFFFFFFFFFFFFFFFFFFFFFF
310
FFFFFFFFFFFFFFFFFFFFFFFFFFFFFFFFFFFFFFFFFFFFFFFFF000FFFFFFFFFFFF
310
FFFFFFFFFFFFFFFFFFFFFFFFFFFFFFFFFFFFFFFFFFFFFFFFFFFFFFFFFFFFFFFF
310
FFFFFFFFFFFFFFFFFFFFFFFFFFFFFFFFFFFFFFFFFFFFFFFFFFFFFFFFFFFFFFFF
310
FFFFFFFFFFFFFFFFFFFFFFFFFFFFFFFFF000FFFFFFFFFFFFFFFFFFFFFFFFFFFF
310
FFFFFFFFFFFFFFFFFFFFFFFFFFFFFFFFFFFFFFFFFFFFFFFFFFFFFFFFFFFFFFFF
310
FFFFFFFFFFFFFFFFFFFFFFFFFFFFFFFFFFFFFFFFFFFFFFFFFFFFFFFFFFFFFFFF
310
FFFFFFFFFFFFFFFFF000FFFFFFFFFFFFFFFFFFFFFFFFFFFFFFFFFFFFFFFFFFFF
310
FFFFFFFFFFFFFFFFFFFFFFFFFFFFFFFFFFFFFFFFFFFFFFFFFFFFFFFFFFFFFFFF
310
FFFFFFFFFFFFFFFFFFFFFFFFFFFFFFFFFFFFFFFFFFFFFFFFFFFFFFFFFFFFFFFF
310
F000FFFFFFFFFFFFFFFFFFFFFFFFFFFFFFFFFFFFFFFFFFFFFFFFFFFFFFFFFFFF
310
FFFFFFFFFFFFFFFFFFFFFFFFFFFFFFFFFFFFFFFFFFFFFFFFFFFFFFFFFFFFFFFF
310
FFFFFFFFFFFFFFFFFFFFFFFFFFFFFFFFFFFFFFFFFFFFFFFFF000FFFFFFFFFFFF
310
FFFFFFFFFFFFFFFFFFFFFFFFFFFFFFFFFFFFFFFFFFFFFFFFFFFFFFFFFFFFFFFF
310
FFFFFFFFFFFFFFFFFFFFFFFFFFFFFFFFFFFFFFFFFFFFFFFFFFFFFFFFFFFFFFFF
310
FFFFFFFFFFFFFFFFFFFFFFFFFFFFFFFFF000FFFFFFFFFFFFFFFFFFFFFFFFFFFF
310
FFFFFFFFFFFFFFFFFFFFFFFFFFFFFFFFFFFFFFFFFFFFFFFFFFFFFFFFFFFFFFFF
310
FFFFFFFFFFFFFFFFFFFFFFFFFFFFFFFFFFFFFFFFFFFFFFFFFFFFFFFFFFFFFFFF
310
FFFFFFFFFFFFFFFFF000FFFFF80003FFFFFFFFFFFFFFFFFFFFFFFFFFFFFFFFFF
310
FFFFF00007FFFFFFFFFF00007FFFFFF800000000000000007FFFFFFFFFFFFFFF
310
FFFFFFFC001FFFFFFFFFFFFFFC001FFFFFFFFFFFFFFFFFFFFFFFFFFE0007FFFF
310
F000FFFF8000007FFFFFFFF8000FFFFFC0007FFFFF80007FFFFF0000007FFFFF
310
FFF8000007FFFFF800000000000000007FFFFFF0001FFFFFFFFFFFC00001FFFF
310
FFFFFFFFC00001FFFFFFFF000000000003FFFFE000007FFFF000FFFE0000000F
310
FFFFFFF0000FFFFF80007FFFFF80007FFFFC0000001FFFFFFFC0000001FFFFF8
310
00000000000000007FFFFFF0001FFFFFFFFFFE0000003FFFFFFFFFFE0000003F
310
FFFFFF000000000003FFFF0000000FFFF000FFF800000003FFFFFFF00007FFFF
310
80007FFFFF80007FFFF000000007FFFFFF000000003FFFF80000000000000000
310
7FFFFFF0001FFFFFFFFFF80000000FFFFFFFFFF80000000FFFFFFF0000000000
310
03FFFC00000003FFF000FFE000000000FFFFFFF00007FFFF80003FFFFF80007F
310
FFC000000001FFFFFC000000001FFFF800000000000000007FFFFFF0001FFFFF
310
FFFFE000000003FFFFFFFFE000000003FFFFFF000000000003FFF000000000FF
310
F000FF80000000007FFFFFF00007FFFF80003FFFFF80007FFF8000000000FFFF
310
F80000000007FFF800000000000000007FFFFFF0001FFFFFFFFFC000000001FF
310
FFFFFFC000000001FFFFFF000000000003FFC0000000007FF000FF0000000000
310
3FFFFFE00007FFFF00003FFFFF80007FFE00000000003FFFF00000000003FFF8
310
00000000000000007FFFFFF0001FFFFFFFFF8000000000FFFFFFFF8000000000
310
FFFFFF000000000003FF80000000003FF000FE00000000001FFFFFE00003FFFF
310
00003FFFFF80007FFC00000000001FFFE00000000001FFF8000001FFFE000000
310
7FFFFFF0001FFFFFFFFE00000000003FFFFFFE00000000003FFFFF0000000000
310
03FF00000000001FF000FC00000000000FFFFFE00003FFFF00001FFFFF80007F
310
F800000000001FFFC00000000000FFF8000001FFFE0000007FFFFFF0001FFFFF
310
FFFC00000000001FFFFFFC00000000001FFFFF000000000003FE00000000000F
310
F000F8000000000007FFFFE00003FFFF00001FFFFF80007FF800000000000FFF
310
800000000000FFF8000001FFFE0000007FFFFFF0001FFFFFFFF800000000000F
310
FFFFF800000000000FFFFF000000000003FC000000000007F000F80000000000
310
03FFFFC00003FFFE00001FFFFF80007FF0000000000007FF0000000000007FF8
310
000001FFFE0000007FFFFFF0001FFFFFFFF0000000000007FFFFF00000000000
310
07FFFF000000000003F8000000000003F000F0000000000003FFFFC00001FFFE
310
00001FFFFF80007FE0000000000007FE0000000000003FF8000001FFFE000000
310
7FFFFFF0001FFFFFFFF0000000000007FFFFF0000000000007FFFF0000000000
310
03F800001F800003F000E00001FFF00001FFFFC00001FFFE00000FFFFF80007F
310
E00001FFE00003FE00001FFF00003FF8000001FFFE0000007FFFFFF0001FFFFF
310
FFE000003E000003FFFFE000003E000003FFFF000000000003F00001FFF80001
310
F000E00007FFFC0001FFFFC00001FFFE00000FFFFF80007FC0000FFFFC0003FC
310
0000FFFFC0001FF8000001FFFE0000007FFFFFF0001FFFFFFFC00003FFE00001
310
FFFFC00003FFE00001FFFF0001FFFFFFFFF00007FFFE0001F000E0000FFFFF00
310
00FFFF800001FFFC00000FFFFF80007FC0001FFFFE0001FC0001FFFFE0001FF8
310
000001FFFE0000007FFFFFF0001FFFFFFF80000FFFF80000FFFF80000FFFF800
310
00FFFF0003FFFFFFFFE0000FFFFF8000F000C0003FFFFF8000FFFF800000FFFC
310
000007FFFF80007F80003FFFFF0001FC0003FFFFF0001FF8000001FFFE000000
310
7FFFFFF0001FFFFFFF80003FFFFE0000FFFF80003FFFFE0000FFFF0003FFFFFF
310
FFE0003FFFFF8000F000C0003FFFFF8000FFFF800000FFFC000007FFFF80007F
310
80007FFFFF8001F80007FFFFF8000FF8000001FFFE0000007FFFFFF0001FFFFF
310
FF00007FFFFF00007FFF00007FFFFF00007FFF0003FFFFFFFFE0003FFFFFC000
310
F000C0007FFFFFC000FFFF000000FFFC000007FFFF80007F8000FFFFFF8000F8
310
000FFFFFF8000FF8000001FFFE0000007FFFFFF0001FFFFFFF0000FFFFFF8000
310
7FFF0000FFFFFF80007FFF0003FFFFFFFFC0007FFFFFC00070008000FFFFFFC0
310
00FFFF000000FFF8000007FFFF80007F8000FFFFFF8000F8000FFFFFF8000FF8
310
000001FFFE0000007FFFFFF0001FFFFFFE0001FFFFFFC0003FFE0001FFFFFFC0
310
003FFF0003FFFFFFFFC0007FFFFFE00070008000FFFFFFC0007FFF0000007FF8
310
000003FFFF80007F0001FFFFFF8000F8000FFFFFF8000FF8000001FFFE000000
310
7FFFFFF0001FFFFFFE0001FFFFFFC0003FFE0001FFFFFFC0003FFF0003FFFFFF
310
FFC000FFFFFFE00070008000FFFFFFC0007FFF0000007FF8000003FFFF80007F
310
0001FFFFFF8000F8001FFFFFF8000FF8000001FFFE0000007FFFFFF0001FFFFF
310
FE0003FFFFFFE0003FFE0003FFFFFFE0003FFF0003FFFFFFFFC000FFFFFFE000
310
70008000FFFFFFC0007FFE0000007FF8000003FFFF80007F0001FFFFFF8000F0
310
001FFFFFF8000FF8000001FFFE0000007FFFFFF0001FFFFFFC0003FFFFFFE000
310
1FFC0003FFFFFFE0001FFF0003FFFFFFFFC000FFFFFFC00070008000FFFFFF80
310
007FFE0000007FF0000003FFFF80007F0001FFFFFF0000F0001FFFFFF8000FF8
310
000001FFFE0000007FFFFFF0001FFFFFFC0007FFFFFFF0001FFC0007FFFFFFF0
310
001FFF0003FFFFFFFFC000FFFFFFC00070008001FFFFFF0000FFFE0000003FF0
310
000001FFFF80007F0001FFFFFF0000F8001FFFFFF0000FF8000001FFFE000000
310
7FFFFFF0001FFFFFFC0007FFFFFFF0001FFC0007FFFFFFF0001FFF0003FFFFFF
310
FFC001FFFFFF80007000FFFFFFFFFE0000FFFE0008003FF0008001FFFF80007F
310
FFFFFFFFFC0000FFFFFFFFFFE0000FF8000001FFFE0000007FFFFFF0001FFFFF
310
F8000FFFFFFFF8000FF8000FFFFFFFF8000FFF0003FFFFFFFFFFFFFFFFFF0000
310
7000FFFFFFFFFC0000FFFC0008003FF0008001FFFF80007FFFFFFFFFF80001FF
310
FFFFFFFF80000FF8000001FFFE0000007FFFFFF0001FFFFFF8000FFFFFFFF800
310
0FF8000FFFFFFFF8000FFF0003FFFFFFFFFFFFFFFFFE0000F000FFFFFFFFE000
310
00FFFC000C003FE000C001FFFF80007FFFFFFFFFC00001FFFFFFFFFE00001FF8
310
000001FFFE0000007FFFFFF0001FFFFFF8000FFFFFFFF8000FF8000FFFFFFFF8
310
000FFF0003FFFFFFFFFFFFFFFFF00000F000FFFFFFFE000001FFFC000C001FE0
310
00C000FFFF80007FFFFFFFFE000001FFFFFFFFE000001FF80FFFFFFFFFFFFFC0
310
7FFFFFF0001FFFFFF8000FFFFFFFF8000FF8000FFFFFFFF8000FFF0003FFFFFF
310
FFFFFFFFFF800000F000FFFFFFC0000001FFFC001C001FE001C000FFFF80007F
310
FFFFFF80000003FFFFFFF80000001FF80FFFFFFFFFFFFFC07FFFFFF0001FFFFF
310
F8001FFFFFFFFC000FF8001FFFFFFFFC000FFF0003FFFFFFFFFFFFFFF0000001
310
F000FFFFF800000001FFF8001C001FE001C000FFFF80007FFFFFF800000003FF
310
FFFF800000003FF80FFFFFFFFFFFFFC07FFFFFF0001FFFFFF8001FFFFFFFFC00
310
0FF8001FFFFFFFFC000FFF0003FFFFFFFFFFFFFE00000001F000FFFFC0000000
310
03FFF8001E001FC001E000FFFF80007FFFFF8000000007FFFFFC000000003FF8
310
0FFFFFFFFFFFFFC07FFFFFF0001FFFFFF8001FFFFFFFFC000FF8001FFFFFFFFC
310
000FFF0003FFFFFFFFFFFFE000000003F000FFFE0000000007FFF8001E000FC0
310
01E0007FFF80007FFFFE0000000007FFFFE0000000007FF80FFFFFFFFFFFFFC0
310
7FFFFFF0001FFFFFF0001FFFFFFFFC0007F0001FFFFFFFFC0007FF0003FFFFFF
310
FFFFFF0000000003F000FFF80000000007FFF8001E000FC003E0007FFF80007F
310
FFF0000000000FFFFF8000000000FFF80FFFFFFFFFFFFFC07FFFFFF0001FFFFF
310
F0001FFFFFFFFC0007F0001FFFFFFFFC0007FF0003FFFFFFFFFFFC0000000007
310
F000FFE0000000000FFFF0003E000FC003E0007FFF80007FFFC0000000001FFF
310
FE0000000001FFF80FFFFFFFFFFFFFC07FFFFFF0001FFFFFF0001FFFFFFFFC00
310
07F0001FFFFFFFFC0007FF0003FFFFFFFFFFF0000000000FF000FFC000000000
310
1FFFF0003F000F8003F0003FFF80007FFF80000000003FFFF80000000003FFF8
310
0FFFFFFFFFFFFFC07FFFFFF0001FFFFFF0001FFFFFFFFC0007F0001FFFFFFFFC
310
0007FF0003FFFFFFFFFFE0000000001FF000FF00000000007FFFF0003F000780
310
03F0003FFF80007FFF00000000007FFFF00000000007FFF80FFFFFFFFFFFFFC0
310
7FFFFFF0001FFFFFF0001FFFFFFFFC0007F0001FFFFFFFFC0007FF0003FFFFFF
310
FFFF80000000007FF000FE0000000000FFFFE0003F00078007F0003FFF80007F
310
FE0000000001FFFFE0000000001FFFF80FFFFFFFFFFFFFC07FFFFFF0001FFFFF
310
F0001FFFFFFFFC0007F0001FFFFFFFFC0007FF0003FFFFFFFFFF0000000000FF
310
F000FC0000000003FFFFE0007F00078007F0003FFF80007FFC0000000007FFFF
310
C0000000007FFFF80FFFFFFFFFFFFFC07FFFFFF0001FFFFFF8001FFFFFFFFC00
310
0FF8001FFFFFFFFC000FFF0003FFFFFFFFFE0000000003FFF000FC000000000F
310
FFFFE0007F80070007F8001FFF80007FF8000000001FFFFF8000000001FFFFF8
310
0FFFFFFFFFFFFFC07FFFFFF0001FFFFFF8001FFFFFFFFC000FF8001FFFFFFFFC
310
000FFF0003FFFFFFFFFC000000000FFFF000F8000000007FFFFFE0007F800700
310
07F8001FFF80007FF000000000FFFFFF800000000FFFFFF80FFFFFFFFFFFFFC0
310
7FFFFFF0001FFFFFF8000FFFFFFFF8000FF8000FFFFFFFF8000FFF0003FFFFFF
310
FFFC000000007FFFF000F800000007FFFFFFC0007F8003000FF8001FFF80007F
310
F000000007FFFFFF000000007FFFFFF80FFFFFFFFFFFFFC07FFFFFF0001FFFFF
310
F8000FFFFFFFF8000FF8000FFFFFFFF8000FFF0003FFFFFFFFF80000000FFFFF
310
F000F0000000FFFFFFFFC000FF8003000FF8001FFF80007FE0000000FFFFFFFF
310
0000000FFFFFFFF8000001FFFE0000007FFFFFF0001FFFFFF8000FFFFFFFF800
310
0FF8000FFFFFFFF8000FFF0003FFFFFFFFF8000000FFFFFFF000F000000FFFFF
310
FFFFC000FFC002000FF8000FFF80007FE000001FFFFFFFFE000001FFFFFFFFF8
310
000001FFFE0000007FFFFFF0001FFFFFF8000FFFFFFFF8000FF8000FFFFFFFF8
310
000FFF0003FFFFFFFFF000001FFFFFFFF000E00000FFFFFFFFFFC000FFC00200
310
0FFC000FFF80007FE00001FFFFFFFFFE00001FFFFFFFFFF8000001FFFE000000
310
7FFFFFF0001FFFFFFC000FFFFFFFF8001FFC000FFFFFFFF8001FFF0003FFFFFF
310
FFF00001FFFFFFFFF000E00007FFFFFFFFFF8000FFC000001FFC000FFF80007F
310
C0000FFFFFFFFFFE0000FFFFFFFFFFF8000001FFFE0000007FFFFFF0001FFFFF
310
FC0007FFFFFFF0001FFC0007FFFFFFF0001FFF0003FFFFFFFFF00007FFFFFFFF
310
F000E0001FFFFFFFFFFF8000FFC000001FFC000FFF80007FC0003FFFFFFFFFFE
310
0001FFFFFFFFFFF8000001FFFE0000007FFFFFF0001FFFFFFC0007FFFFFFF000
310
1FFC0007FFFFFFF0001FFF0003FFFFFFFFF0001FFFFFFFFFF000E0003FFFFF00
310
03FF8001FFE000001FFC0007FF80007FC0007FFFFF0007FC0003FFFFF0003FF8
310
000001FFFE0000007FFFFFF0001FFFFFFC0003FFFFFFE0001FFC0003FFFFFFE0
310
001FFF0003FFFFFFFFF0003FFFFFFFFFF000E0003FFFFF0001FF8001FFE00000
310
1FFE0007FF80007FC0007FFFFE0003FC0007FFFFE0003FF8000001FFFE000000
310
7FFFFFF0001FFFFFFE0003FFFFFFE0003FFE0003FFFFFFE0003FFF0003FFFFFF
310
FFF0003FFFFF8001F000E0003FFFFF0001FF0001FFE000001FFE0007FF80007F
310
C0007FFFFE0003FC0007FFFFE0003FF8000001FFFE0000007FFFFFF0001FFFFF
310
FE0001FFFFFFC0003FFE0001FFFFFFC0003FFF0003FFFFFFFFF0003FFFFF0001
310
F000E0003FFFFF0003FF0001FFE000003FFE0007FF80007FC0007FFFFE0003FC
310
0007FFFFE0003FF8000001FFFE0000007FFFFFF0001FFFFFFF0001FFFFFFC000
310
7FFF0001FFFFFFC0007FFF0003FFFFFFFFF0003FFFFF0001F000E0003FFFFE00
310
03FF0003FFF000003FFE0003FF80007FC0007FFFFC0003FE0007FFFFE0003FF8
310
000001FFFE0000007FFFFFF0001FFFFFFF0000FFFFFF80007FFF0000FFFFFF80
310
007FFF0003FFFFFFFFF0003FFFFF0001F000E0003FFFFE0003FF0003FFF00000
310
3FFF0003FF80007FC0007FFFFC0007FE0007FFFFC0003FF8000001FFFE000000
310
7FFFFFF0001FFFFFFF80007FFFFF0000FFFF80007FFFFF0000FFFF0003FFFFFF
310
FFF0003FFFFF0003F000E0003FFFFC0003FE0003FFF000003FFF0003FF80007F
310
E0003FFFF80007FE0003FFFFC0007FF8000001FFFE0000007FFFFFF0001FFFFF
310
FF80003FFFFE0000FFFF80003FFFFE0000FFFF0003FFFFFFFFF0001FFFFE0003
310
F000F0001FFFF80003FE0003FFF000007FFF0001FF80007FE0003FFFF00007FE
310
0001FFFF80007FF8000001FFFE0000007FFFFFF0001FFFFFFFC0000FFFF80001
310
FFFFC0000FFFF80001FFFF0003FFFFFFFFF0001FFFFC0003F000F0000FFFF000
310
07FE0007FFF800007FFF0001FF80007FE0001FFFE00007FF0000FFFE00007FF8
310
000001FFFE0000007FFFFFF0001FFFFFFFC00003FFE00001FFFFC00003FFE000
310
01FFFF0003FFFFFFFFF8000FFFF80003F000F00003FFC00007FC0007FFF80000
310
7FFF8001FF80007FF00007FF80000FFF00007FF80000FFF8000001FFFE000000
310
7F80000000000001FFE000003E000003FFFFE000003E000003FFFF0003FFFFFF
310
FFF80003FFE00007F000F800000000000FFC0007FFF800007FFF8001FF80007F
310
F000000000000FFF000000000000FFF8000001FFFE0000007F80000000000001
310
FFF0000000000007FFFFF0000000000007FFFF0003FFFFFFFFFC00007E000007
310
F000F800000000000FFC0007FFF80000FFFF8000FF80007FF800000000001FFF
310
800000000001FFF8000001FFFE0000007F80000000000001FFF800000000000F
310
FFFFF800000000000FFFFF0003FFFFFFFFFC00000000000FF000FC0000000000
310
1FFC0007FFFC0000FFFF8000FF80007FF800000000003FFFC00000000001FFF8
310
000001FFFE0000007F80000000000001FFF800000000000FFFFFF80000000000
310
0FFFFF0003FFFFFFFFFE00000000001FF000FE00000000003FF8000FFFFC0000
310
FFFF8000FF80007FFC00000000003FFFC00000000003FFF8000001FFFE000000
310
7F80000000000001FFFC00000000001FFFFFFC00000000001FFFFF0003FFFFFF
310
FFFF00000000001FF000FF00000000003FF8000FFFFC0000FFFFC000FF80007F
310
FE00000000007FFFE00000000007FFF8000001FFFE0000007F80000000000001
310
FFFE00000000003FFFFFFE00000000003FFFFF0003FFFFFFFFFF80000000003F
310
F000FF80000000007FF8000FFFFC0001FFFFC0007F80007FFF0000000000FFFF
310
F0000000000FFFF800000000000000007F80000000000001FFFF8000000000FF
310
FFFFFF8000000000FFFFFF0003FFFFFFFFFFC0000000007FF000FFC000000000
310
FFF8000FFFFE0001FFFFC0007F80007FFF8000000001FFFFF8000000001FFFF8
310
00000000000000007F80000000000001FFFFC000000001FFFFFFFFC000000001
310
FFFFFF0003FFFFFFFFFFE000000000FFF000FFE000000003FFF0001FFFFE0001
310
FFFFC0007F80007FFFC000000007FFFFFE000000003FFFF80000000000000000
310
7F80000000000001FFFFE000000003FFFFFFFFE000000003FFFFFF0003FFFFFF
310
FFFFF000000003FFF000FFF80000000FFFF0001FFFFE0001FFFFE0007F80007F
310
FFF00000000FFFFFFF00000000FFFFF800000000000000007F80000000000001
310
FFFFF80000000FFFFFFFFFF80000000FFFFFFF0003FFFFFFFFFFFC0000000FFF
310
F000FFFE0000003FFFF0001FFFFE0003FFFFE0003F80007FFFFC0000003FFFFF
310
FFC0000003FFFFF800000000000000007F80000000000001FFFFFE0000003FFF
310
FFFFFFFE0000003FFFFFFF0003FFFFFFFFFFFF0000003FFFF000FFFF800000FF
310
FFF0001FFFFF0003FFFFE0003F80007FFFFF000001FFFFFFFFF800001FFFFFF8
310
00000000000000007F80000000000001FFFFFFC00001FFFFFFFFFFFFC00001FF
310
FFFFFF0003FFFFFFFFFFFFC00000FFFFF000FFFFF8000FFFFFFFFFFFFFFFFFFF
310
FFFFFFFFFFFFFFFFFFFFF0001FFFFFFFFFFF0000FFFFFFF80000000000000000
310
7FFFFFFFFFFFFFFFFFFFFFFC001FFFFFFFFFFFFFFC001FFFFFFFFFFFFFFFFFFF
310
FFFFFFFC001FFFFFF000FFFFFFFFFFFFFFFFFFFFFFFFFFFFFFFFFFFFFFFFFFFF
310
FFFFFFFFFFFFFFFFFFFFFFFFFFFFFFFFFFFFFFFFFFFFFFFFFFFFFFFFFFFFFFFF
310
FFFFFFFFFFFFFFFFFFFFFFFFFFFFFFFFFFFFFFFFFFFFFFFFFFFFFFFFFFFFFFFF
310
F000FFFFFFFFFFFFFFFFFFFFFFFFFFFFFFFFFFFFFFFFFFFFFFFFFFFFFFFFFFFF
310
FFFFFFFFFFFFFFFFFFFFFFFFFFFFFFFFFFFFFFFFFFFFFFFFFFFFFFFFFFFFFFFF
310
FFFFFFFFFFFFFFFFFFFFFFFFFFFFFFFFFFFFFFFFFFFFFFFFF000FFFFFFFFFFFF
310
FFFFFFFFFFFFFFFFFFFFFFFFFFFFFFFFFFFFFFFFFFFFFFFFFFFFFFFFFFFFFFFF
310
FFFFFFFFFFFFFFFFFFFFFFFFFFFFFFFFFFFFFFFFFFFFFFFFFFFFFFFFFFFFFFFF
310
FFFFFFFFFFFFFFFFFFFFFFFFFFFFFFFFF000FFFFFFFFFFFFFFFFFFFFFFFFFFFF
310
FFFFFFFFFFFFFFFFFFFFFFFFFFFFFFFFFFFFFFFFFFFFFFFFFFFFFFFFFFFFFFFF
310
FFFFFFFFFFFFFFFFFFFFFFFFFFFFFFFFFFFFFFFFFFFFFFFFFFFFFFFFFFFFFFFF
310
FFFFFFFFFFFFFFFFF000FFFFFFFFFFFFFFFFFFFFFFFFFFFFFFFFFFFFFFFFFFFF
310
FFFFFFFFFFFFFFFFFFFFFFFFFFFFFFFFFFFFFFFFFFFFFFFFFFFFFFFFFFFFFFFF
310
FFFFFFFFFFFFFFFFFFFFFFFFFFFFFFFFFFFFFFFFFFFFFFFFFFFFFFFFFFFFFFFF
310
F000FFFFFFFFFFFFFFFFFFFFFFFFFFFFFFFFFFFFFFFFFFFFFFFFFFFFFFFFFFFF
310
FFFFFFFFFFFFFFFFFFFFFFFFFFFFFFFFFFFFFFFFFFFFFFFFFFFFFFFFFFFFFFFF
310
FFFFFFFFFFFFFFFFFFFFFFFFFFFFFFFFFFFFFFFFFFFFFFFFF000FFFFFFFFFFFF
310
FFFFFFFFFFFFFFFFFFFFFFFFFFFFFFFFFFFFFFFFFFFFFFFFFFFFFFFFFFFFFFFF
310
FFFFFFFFFFFFFFFFFFFFFFFFFFFFFFFFFFFFFFFFFFFFFFFFFFFFFFFFFFFFFFFF
310
FFFFFFFFFFFFFFFFFFFFFFFFFFFFFFFFF000FFFFFFFFFFFFFFFFFFFFFFFFFFFF
310
FFFFFFFFFFFFFFFFFFFFFFFFFFFFFFFFFFFFFFFFFFFFFFFFFFFFFFFFFFFFFFFF
310
FFFFFFFFFFFFFFFFFFFFFFFFFFFFFFFFFFFFFFFFFFFFFFFFFFFFFFFFFFFFFFFF
310
FFFFFFFFFFFFFFFFF000FFFFFFFFFFFFFFFFFFFFFFFFFFFFFFFFFFFFFFFFFFFF
310
FFFFFFFFFFFFFFFFFFFFFFFFFFFFFFFFFFFFFFFFFFFFFFFFFFFFFFFFFFFFFFFF
310
FFFFFFFFFFFFFFFFFFFFFFFFFFFFFFFFFFFFFFFFFFFFFFFFFFFFFFFFFFFFFFFF
310
F000FFFFFFFFFFFFFFFFFFFFFFFFFFFFFFFFFFFFFFFFFFFFFFFFFFFFFFFFFFFF
310
FFFFFFFFFFFFFFFFFFFFFFFFFFFFFFFFFFFFFFFFFFFFFFFFFFFFFFFFFFFFFFFF
310
FFFFFFFFFFFFFFFFFFFFFFFFFFFFFFFFFFFFFFFFFFFFFFFFF000FFFFFFFFFFFF
310
FFFFFFFFFFFFFFFFFFFFFFFFFFFFFFFFFFFFFFFFFFFFFFFFFFFFFFFFFFFFFFFF
310
FFFFFFFFFFFFFFFFFFFFFFFFFFFFFFFFFFFFFFFFFFFFFFFFFFFFFFFFFFFFFFFF
310
FFFFFFFFFFFFFFFFFFFFFFFFFFFFFFFFF000FFFFFFFFFFFFFFFFFFFFFFFFFFFF
310
FFFFFFFFFFFFFFFFFFFFFFFFFFFFFFFFFFFFFFFFFFFFFFFFFFFFFFFFFFFFFFFF
310
FFFFFFFFFFFFFFFFFFFFFFFFFFFFFFFFFFFFFFFFFFFFFFFFFFFFFFFFFFFFFFFF
310
FFFFFFFFFFFFFFFFF000FFFFFFFFFFFFFFFFFFFFFFFFFFFFFFFFFFFFFFFFFFFF
310
FFFFFFFFFFFFFFFFFFFFFFFFFFFFFFFFFFFFFFFFFFFFFFFFFFFFFFFFFFFFFFFF
310
FFFFFFFFFFFFFFFFFFFFFFFFFFFFFFFFFFFFFFFFFFFFFFFFFFFFFFFFFFFFFFFF
310
F000FFFFFFFFFFFFFFFFFFFFFFFFFFFFFFFFFFFFFFFFFFFFFFFFFFFFFFFFFFFF
310
FFFFFFFFFFFFFFFFFFFFFFFFFFFFFFFFFFFFFFFFFFFFFFFFFFFFFFFFFFFFFFFF
310
FFFFFFFFFFFFFFFFFFFFFFFFFFFFFFFFFFFFFFFFFFFFFFFFF000FFFFFFFFFFFF
310
FFFFFFFFFFFFFFFFFFFFFFFFFFFFFFFFFFFFFFFFFFFFFFFFFFFFFFFFFFFFFFFF
310
FFFFFFFFFFFFFFFFFFFFFFFFFFFFFFFFFFFFFFFFFFFFFFFFFFFFFFFFFFFFFFFF
310
FFFFFFFFFFFFFFFFFFFFFFFFFFFFFFFFF000FFFFFFFFFFFFFFFFFFFFFFFFFFFF
310
FFFFFFFFFFFFFFFFFFFFFFFFFFFFFFFFFFFFFFFFFFFFFFFFFFFFFFFFFFFFFFFF
310
FFFFFFFFFFFFFFFFFFFFFFFFFFFFFFFFFFFFFFFFFFFFFFFFFFFFFFFFFFFFFFFF
310
FFFFFFFFFFFFFFFFF000FFFFFFFFFFFFFFFFFFFFFFFFFFFFFFFFFFFFFFFFFFFF
310
FFFFFFFFFFFFFFFFFFFFFFFFFFFFFFFFFFFFFFFFFFFFFFFFFFFFFFFFFFFFFFFF
310
FFFFFFFFFFFFFFFFFFFFFFFFFFFFFFFFFFFFFFFFFFFFFFFFFFFFFFFFFFFFFFFF
310
F000FFFFFFFFFFFFFFFFFFFFFFFFFFFFFFFFFFFFFFFFFFFFFFFFFFFFFFFFFFFF
310
FFFFFFFFFFFFFFFFFFFFFFFFFFFFFFFFFFFFFFFFFFFFFFFFFFFFFFFFFFFFFFFF
310
FFFFFFFFFFFFFFFFFFFFFFFFFFFFFFFFFFFFFFFFFFFFFFFFF000FFFFFFFFFFFF
310
FFFFFFFFFFFFFFFFFFFFFFFFFFFFFFFFFFFFFFFFFFFFFFFFFFFFFFFFFFFFFFFF
310
FFFFFFFFFFFFFFFFFFFFFFFFFFFFFFFFFFFFFFFFFFFFFFFFFFFFFFFFFFFFFFFF
310
FFFFFFFFFFFFFFFFFFFFFFFFFFFFFFFFF000FFFFFFFFFFFFFFFFFFFFFFFFFFFF
310
FFFFFFFFFFFFFFFFFFFFFFFFFFFFFFFFFFFFFFFFFFFFFFFFFFFFFFFFFFFFFFFF
310
FFFFFFFFFFFFFFFFFFFFFFFFFFFFFFFFFFFFFFFFFFFFFFFFFFFFFFFFFFFFFFFF
310
FFFFFFFFFFFFFFFFF000FFFFFFFFFFFFFFFFFFFFFFFFFFFFFFFFFFFFFFFFFFFF
310
FFFFFFFFFFFFFFFFFFFFFFFFFFFFFFFFFFFFFFFFFFFFFFFFFFFFFFFFFFFFFFFF
310
FFFFFFFFFFFFFFFFFFFFFFFFFFFFFFFFFFFFFFFFFFFFFFFFFFFFFFFFFFFFFFFF
310
F000FFFFFFFFFFFFFFFFFFFFFFFFFFFFFFFFFFFFFFFFFFFFFFFFFFFFFFFFFFFF
310
FFFFFFFFFFFFFFFFFFFFFFFFFFFFFFFFFFFFFFFFFFFFFFFFFFFFFFFFFFFFFFFF
310
FFFFFFFFFFFFFFFFFFFFFFFFFFFFFFFFFFFFFFFFFFFFFFFFF000FFFFFFFFFFFF
310
FFFFFFFFFFFFFFFFFFFFFFFFFFFFFFFFFFFFFFFFFFFFFFFFFFFFFFFFFFFFFFFF
310
FFFFFFFFFFFFFFFFFFFFFFFFFFFFFFFFFFFFFFFFFFFFFFFFFFFFFFFFFFFFFFFF
310
FFFFFFFFFFFFFFFFFFFFFFFFFFFFFFFFF0000000000000000000000000000000
310
00000000FF07000080E3A163FF070000309AA163FF0700000000000000000000
310
00000000010000000100000000000000B0EFA163FF0700000000000000000000
310
0000000000000000000000000000000000000000780020C7780020C700000000
310
0000000000000000000000000000000000000000000000000000000000000000
310
0000000000000000000000000000000000000000000000000000000000000000
310
0000000000000000000000000000000000000000000000000000000000000000
310
0000000000000000000000000000000000000000000000000000000000000000
310
0000000000000000000000000000000000000000000000000000000000000000
310
0000000000000000000000000000000000000000000000000000000000000000
310
0000000000000000000000000000000000000000000000000000000000000000
310
0000000000000000000000000000000000000000000000000000000000000000
310
0000000000000000500000004000000000000000000000000000000000000000
310
0000000000000000000000000000000050639D63FF07000040AE9D63FF070000
310
0000000000000000000000000000000000000000000000000000000000000000
310
0000000000000000000000000000000000000000000000000000000000000000
  1
OLE
  0
ENDSEC
  0
SECTION
  2
OBJECTS
  0
DICTIONARY
  5
C
330
0
100
AcDbDictionary
281
     1
  3
ACAD_GROUP
350
D
  3
ACAD_LAYOUT
350
1A
  3
ACAD_MLEADERSTYLE
350
237
  3
ACAD_MLINESTYLE
350
17
  3
ACAD_PLOTSETTINGS
350
19
  3
ACAD_PLOTSTYLENAME
350
E
  3
ACAD_TABLESTYLE
350
236
  3
ACAD_VISUALSTYLE
350
2A
  3
AcDbVariableDictionary
350
238
  0
DICTIONARY
  5
D
102
{ACAD_REACTORS
330
C
102
}
330
C
100
AcDbDictionary
281
     1
  0
DICTIONARY
  5
1A
102
{ACAD_REACTORS
330
C
102
}
330
C
100
AcDbDictionary
281
     1
  3
Layout1
350
1E
  3
Layout2
350
26
  3
Model
350
22
  0
DICTIONARY
  5
237
102
{ACAD_REACTORS
330
C
102
}
330
C
100
AcDbDictionary
281
     1
  0
DICTIONARY
  5
17
102
{ACAD_REACTORS
330
C
102
}
330
C
100
AcDbDictionary
281
     1
  3
Standard
350
18
  0
DICTIONARY
  5
19
102
{ACAD_REACTORS
330
C
102
}
330
C
100
AcDbDictionary
281
     1
  0
ACDBDICTIONARYWDFLT
  5
E
102
{ACAD_REACTORS
330
C
102
}
330
C
100
AcDbDictionary
281
     1
  3
Normal
350
F
100
AcDbDictionaryWithDefault
340
F
  0
DICTIONARY
  5
236
102
{ACAD_REACTORS
330
C
102
}
330
C
100
AcDbDictionary
281
     1
  0
DICTIONARY
  5
2A
102
{ACAD_REACTORS
330
C
102
}
330
C
100
AcDbDictionary
281
     1
  3
2dWireframe
350
2F
  3
3D Hidden
350
31
  3
3dWireframe
350
30
  3
Basic
350
32
  3
Brighten
350
36
  3
ColorChange
350
3A
  3
Conceptual
350
34
  3
Dim
350
35
  3
Facepattern
350
39
  3
Flat
350
2B
  3
FlatWithEdges
350
2C
  3
Gouraud
350
2D
  3
GouraudWithEdges
350
2E
  3
Linepattern
350
38
  3
Realistic
350
33
  3
Thicken
350
37
  0
DICTIONARY
  5
238
102
{ACAD_REACTORS
330
C
102
}
330
C
100
AcDbDictionary
281
     1
  3
PSOLHEIGHT
350
23A
  3
PSOLWIDTH
350
239
  0
LAYOUT
  5
1E
102
{ACAD_REACTORS
330
1A
102
}
330
1A
100
AcDbPlotSettings
  1

  2
none_device
  4

  6

 40
0.0
 41
0.0
 42
0.0
 43
0.0
 44
0.0
 45
0.0
 46
0.0
 47
0.0
 48
0.0
 49
0.0
140
0.0
141
0.0
142
1.0
143
1.0
 70
   688
 72
     0
 73
     0
 74
     5
  7

 75
    16
147
1.0
148
0.0
149
0.0
100
AcDbLayout
  1
Layout1
 70
     1
 71
     1
 10
0.0
 20
0.0
 11
420.0
 21
297.0
 12
0.0
 22
0.0
 32
0.0
 14
1.0000000000E+20
 24
1.0000000000E+20
 34
1.0000000000E+20
 15
-1.0000000000E+20
 25
-1.0000000000E+20
 35
-1.0000000000E+20
146
0.0
 13
0.0
 23
0.0
 33
0.0
 16
1.0
 26
0.0
 36
0.0
 17
0.0
 27
1.0
 37
0.0
 76
     0
330
1B
  0
LAYOUT
  5
26
102
{ACAD_REACTORS
330
1A
102
}
330
1A
100
AcDbPlotSettings
  1

  2
none_device
  4

  6

 40
0.0
 41
0.0
 42
0.0
 43
0.0
 44
0.0
 45
0.0
 46
0.0
 47
0.0
 48
0.0
 49
0.0
140
0.0
141
0.0
142
1.0
143
1.0
 70
   688
 72
     0
 73
     0
 74
     5
  7

 75
    16
147
1.0
148
0.0
149
0.0
100
AcDbLayout
  1
Layout2
 70
     1
 71
     2
 10
0.0
 20
0.0
 11
0.0
 21
0.0
 12
0.0
 22
0.0
 32
0.0
 14
0.0
 24
0.0
 34
0.0
 15
0.0
 25
0.0
 35
0.0
146
0.0
 13
0.0
 23
0.0
 33
0.0
 16
1.0
 26
0.0
 36
0.0
 17
0.0
 27
1.0
 37
0.0
 76
     0
330
23
  0
LAYOUT
  5
22
102
{ACAD_REACTORS
330
1A
102
}
330
1A
100
AcDbPlotSettings
  1

  2
none_device
  4

  6

 40
0.0
 41
0.0
 42
0.0
 43
0.0
 44
0.0
 45
0.0
 46
0.0
 47
0.0
 48
0.0
 49
0.0
140
0.0
141
0.0
142
1.0
143
1.0
 70
  1712
 72
     0
 73
     0
 74
     0
  7

 75
     0
147
1.0
148
0.0
149
0.0
100
AcDbLayout
  1
Model
 70
     1
 71
     0
 10
0.0
 20
0.0
 11
297.0
 21
210.0
 12
0.0
 22
0.0
 32
0.0
 14
0.0
 24
0.0
 34
0.0
 15
297.0
 25
210.0
 35
0.0
146
0.0
 13
0.0
 23
0.0
 33
0.0
 16
1.0
 26
0.0
 36
0.0
 17
0.0
 27
1.0
 37
0.0
 76
     0
330
1F
331
29
  0
MLINESTYLE
  5
18
102
{ACAD_REACTORS
330
17
102
}
330
17
100
AcDbMlineStyle
  2
Standard
 70
     0
  3

 62
   256
 51
90.0
 52
90.0
 71
     2
 49
0.5
 62
   256
  6
BYLAYER
 49
-0.5
 62
   256
  6
BYLAYER
  0
ACDBPLACEHOLDER
  5
F
102
{ACAD_REACTORS
330
E
102
}
330
E
  0
VISUALSTYLE
  5
2F
102
{ACAD_REACTORS
330
2A
102
}
330
2A
100
AcDbVisualStyle
  2
2dWireframe
 70
     4
 71
     0
 72
     2
 73
     0
 90
        0
 40
-0.6
 41
-30.0
 62
     5
 63
     7
 74
     1
 91
        4
 64
     7
 65
   257
 75
     1
175
     1
 42
1.0
 92
        0
 66
   257
 43
1.0
 76
     1
 77
     6
 78
     2
 67
     7
 79
     5
170
     0
171
     0
290
     0
174
     0
 93
        1
 44
0.0
173
     0
291
     0
 45
0.0
1001
ACAD
1000
AcDbSavedByObjectVersion
1070
     0
  0
VISUALSTYLE
  5
31
102
{ACAD_REACTORS
330
2A
102
}
330
2A
100
AcDbVisualStyle
  2
3D Hidden
 70
     6
 71
     1
 72
     2
 73
     2
 90
        0
 40
-0.6
 41
-30.0
 62
     5
 63
     7
 74
     2
 91
        2
 64
     7
 65
   257
 75
     2
175
     1
 42
40.0
 92
        0
 66
   257
 43
1.0
 76
     1
 77
     6
 78
     2
 67
     7
 79
     3
170
     0
171
     0
290
     0
174
     0
 93
        1
 44
0.0
173
     0
291
     0
 45
0.0
1001
ACAD
1000
AcDbSavedByObjectVersion
1070
     0
  0
VISUALSTYLE
  5
30
102
{ACAD_REACTORS
330
2A
102
}
330
2A
100
AcDbVisualStyle
  2
3dWireframe
 70
     5
 71
     0
 72
     2
 73
     0
 90
        0
 40
-0.6
 41
-30.0
 62
     5
 63
     7
 74
     1
 91
        4
 64
     7
 65
   257
 75
     1
175
     1
 42
1.0
 92
        0
 66
   257
 43
1.0
 76
     1
 77
     6
 78
     2
 67
     7
 79
     5
170
     0
171
     0
290
     0
174
     0
 93
        1
 44
0.0
173
     0
291
     0
 45
0.0
1001
ACAD
1000
AcDbSavedByObjectVersion
1070
     0
  0
VISUALSTYLE
  5
32
102
{ACAD_REACTORS
330
2A
102
}
330
2A
100
AcDbVisualStyle
  2
Basic
 70
     7
 71
     1
 72
     0
 73
     1
 90
        0
 40
-0.6
 41
-30.0
 62
     5
 63
     7
 74
     0
 91
        4
 64
     7
 65
   257
 75
     1
175
     1
 42
1.0
 92
        8
 66
     7
 43
1.0
 76
     1
 77
     6
 78
     2
 67
     7
 79
     5
170
     0
171
     0
290
     0
174
     0
 93
        1
 44
0.0
173
     0
291
     1
 45
0.0
1001
ACAD
1000
AcDbSavedByObjectVersion
1070
     0
  0
VISUALSTYLE
  5
36
102
{ACAD_REACTORS
330
2A
102
}
330
2A
100
AcDbVisualStyle
  2
Brighten
 70
    12
 71
     2
 72
     2
 73
     0
 90
        0
 40
-0.6
 41
-30.0
 62
     5
 63
     7
 74
     1
 91
        4
 64
     7
 65
   257
 75
     1
175
     1
 42
1.0
 92
        8
 66
     7
 43
1.0
 76
     1
 77
     6
 78
     2
 67
     7
 79
     5
170
     0
171
     0
290
     0
174
     0
 93
        1
 44
50.0
173
     0
291
     1
 45
0.0
1001
ACAD
1000
AcDbSavedByObjectVersion
1070
     0
  0
VISUALSTYLE
  5
3A
102
{ACAD_REACTORS
330
2A
102
}
330
2A
100
AcDbVisualStyle
  2
ColorChange
 70
    16
 71
     2
 72
     2
 73
     3
 90
        0
 40
-0.6
 41
-30.0
 62
     5
 63
     8
 74
     1
 91
        4
 64
     7
 65
   257
 75
     1
175
     1
 42
1.0
 92
        8
 66
     8
 43
1.0
 76
     1
 77
     6
 78
     2
 67
     7
 79
     5
170
     0
171
     0
290
     0
174
     0
 93
        1
 44
0.0
173
     0
291
     1
 45
0.0
1001
ACAD
1000
AcDbSavedByObjectVersion
1070
     0
  0
VISUALSTYLE
  5
34
102
{ACAD_REACTORS
330
2A
102
}
330
2A
100
AcDbVisualStyle
  2
Conceptual
 70
     9
 71
     3
 72
     2
 73
     0
 90
        0
 40
-0.6
 41
-30.0
 62
     5
 63
     7
 74
     2
 91
        2
 64
     7
 65
   257
 75
     1
175
     1
 42
40.0
 92
        8
 66
     7
 43
1.0
 76
     1
 77
     6
 78
     2
 67
     7
 79
     3
170
     0
171
     0
290
     0
174
     0
 93
        1
 44
0.0
173
     0
291
     0
 45
0.0
1001
ACAD
1000
AcDbSavedByObjectVersion
1070
     0
  0
VISUALSTYLE
  5
35
102
{ACAD_REACTORS
330
2A
102
}
330
2A
100
AcDbVisualStyle
  2
Dim
 70
    11
 71
     2
 72
     2
 73
     0
 90
        0
 40
-0.6
 41
-30.0
 62
     5
 63
     7
 74
     1
 91
        4
 64
     7
 65
   257
 75
     1
175
     1
 42
1.0
 92
        8
 66
     7
 43
1.0
 76
     1
 77
     6
 78
     2
 67
     7
 79
     5
170
     0
171
     0
290
     0
174
     0
 93
        1
 44
-50.0
173
     0
291
     1
 45
0.0
1001
ACAD
1000
AcDbSavedByObjectVersion
1070
     0
  0
VISUALSTYLE
  5
39
102
{ACAD_REACTORS
330
2A
102
}
330
2A
100
AcDbVisualStyle
  2
Facepattern
 70
    15
 71
     2
 72
     2
 73
     0
 90
        0
 40
-0.6
 41
-30.0
 62
     5
 63
     7
 74
     1
 91
        4
 64
     7
 65
   257
 75
     1
175
     1
 42
1.0
 92
        8
 66
     7
 43
1.0
 76
     1
 77
     6
 78
     2
 67
     7
 79
     5
170
     0
171
     0
290
     0
174
     0
 93
        1
 44
0.0
173
     0
291
     1
 45
0.0
1001
ACAD
1000
AcDbSavedByObjectVersion
1070
     0
  0
VISUALSTYLE
  5
2B
102
{ACAD_REACTORS
330
2A
102
}
330
2A
100
AcDbVisualStyle
  2
Flat
 70
     0
 71
     2
 72
     1
 73
     1
 90
        2
 40
-0.6
 41
30.0
 62
     5
 63
     7
 74
     0
 91
        4
 64
     7
 65
   257
 75
     1
175
     1
 42
1.0
 92
        8
 66
     7
 43
1.0
 76
     1
 77
     6
 78
     2
 67
     7
 79
     5
170
     0
171
     0
290
     0
174
     0
 93
       13
 44
0.0
173
     0
291
     1
 45
0.0
1001
ACAD
1000
AcDbSavedByObjectVersion
1070
     0
  0
VISUALSTYLE
  5
2C
102
{ACAD_REACTORS
330
2A
102
}
330
2A
100
AcDbVisualStyle
  2
FlatWithEdges
 70
     1
 71
     2
 72
     1
 73
     1
 90
        2
 40
-0.6
 41
30.0
 62
     5
 63
     7
 74
     1
 91
        4
 64
     7
 65
   257
 75
     1
175
     1
 42
1.0
 92
        0
 66
   257
 43
1.0
 76
     1
 77
     6
 78
     2
 67
     7
 79
     5
170
     0
171
     0
290
     0
174
     0
 93
       13
 44
0.0
173
     0
291
     1
 45
0.0
1001
ACAD
1000
AcDbSavedByObjectVersion
1070
     0
  0
VISUALSTYLE
  5
2D
102
{ACAD_REACTORS
330
2A
102
}
330
2A
100
AcDbVisualStyle
  2
Gouraud
 70
     2
 71
     2
 72
     2
 73
     1
 90
        2
 40
-0.6
 41
30.0
 62
     5
 63
     7
 74
     0
 91
        4
 64
     7
 65
   257
 75
     1
175
     1
 42
1.0
 92
        0
 66
     7
 43
1.0
 76
     1
 77
     6
 78
     2
 67
     7
 79
     5
170
     0
171
     0
290
     0
174
     0
 93
       13
 44
0.0
173
     0
291
     1
 45
0.0
1001
ACAD
1000
AcDbSavedByObjectVersion
1070
     0
  0
VISUALSTYLE
  5
2E
102
{ACAD_REACTORS
330
2A
102
}
330
2A
100
AcDbVisualStyle
  2
GouraudWithEdges
 70
     3
 71
     2
 72
     2
 73
     1
 90
        2
 40
-0.6
 41
30.0
 62
     5
 63
     7
 74
     1
 91
        4
 64
     7
 65
   257
 75
     1
175
     1
 42
1.0
 92
        0
 66
   257
 43
1.0
 76
     1
 77
     6
 78
     2
 67
     7
 79
     5
170
     0
171
     0
290
     0
174
     0
 93
       13
 44
0.0
173
     0
291
     1
 45
0.0
1001
ACAD
1000
AcDbSavedByObjectVersion
1070
     0
  0
VISUALSTYLE
  5
38
102
{ACAD_REACTORS
330
2A
102
}
330
2A
100
AcDbVisualStyle
  2
Linepattern
 70
    14
 71
     2
 72
     2
 73
     0
 90
        0
 40
-0.6
 41
-30.0
 62
     5
 63
     7
 74
     1
 91
        4
 64
     7
 65
   257
 75
     7
175
     7
 42
1.0
 92
        8
 66
     7
 43
1.0
 76
     1
 77
     6
 78
     2
 67
     7
 79
     5
170
     0
171
     0
290
     0
174
     0
 93
        1
 44
0.0
173
     0
291
     1
 45
0.0
1001
ACAD
1000
AcDbSavedByObjectVersion
1070
     0
  0
VISUALSTYLE
  5
33
102
{ACAD_REACTORS
330
2A
102
}
330
2A
100
AcDbVisualStyle
  2
Realistic
 70
     8
 71
     2
 72
     2
 73
     0
 90
        0
 40
-0.6
 41
-30.0
 62
     5
 63
     7
 74
     1
 91
        0
 64
     7
 65
   257
 75
     1
175
     1
 42
1.0
 92
        8
 66
     8
 43
1.0
 76
     1
 77
     6
 78
     2
 67
     7
 79
     5
170
     0
171
     0
290
     0
174
     0
 93
       13
 44
0.0
173
     0
291
     0
 45
0.0
1001
ACAD
1000
AcDbSavedByObjectVersion
1070
     0
  0
VISUALSTYLE
  5
37
102
{ACAD_REACTORS
330
2A
102
}
330
2A
100
AcDbVisualStyle
  2
Thicken
 70
    13
 71
     2
 72
     2
 73
     0
 90
        0
 40
-0.6
 41
-30.0
 62
     5
 63
     7
 74
     1
 91
        4
 64
     7
 65
   257
 75
     1
175
     1
 42
1.0
 92
       12
 66
     7
 43
1.0
 76
     1
 77
     6
 78
     2
 67
     7
 79
     5
170
     0
171
     0
290
     0
174
     0
 93
        1
 44
0.0
173
     0
291
     1
 45
0.0
1001
ACAD
1000
AcDbSavedByObjectVersion
1070
     0
  0
DICTIONARYVAR
  5
23A
102
{ACAD_REACTORS
330
238
102
}
330
238
100
DictionaryVariables
280
     0
  1
80.000000
  0
DICTIONARYVAR
  5
239
102
{ACAD_REACTORS
330
238
102
}
330
238
100
DictionaryVariables
280
     0
  1
5.000000
  0
ENDSEC
  0
EOF
