  0
SECTION
  2
HEADER
  9
$ACADVER
  1
AC1015
  9
$ACADMAINTVER
 70
     6
  9
$DWGCODEPAGE
  3
ANSI_1252
  9
$INSBASE
 10
0.0
 20
0.0
 30
0.0
  9
$EXTMIN
 10
0.0
 20
0.0
 30
0.0
  9
$EXTMAX
 10
297.0
 20
210.0
 30
0.0
  9
$LIMMIN
 10
0.0
 20
0.0
  9
$LIMMAX
 10
297.0
 20
210.0
  9
$ORTHOMODE
 70
     0
  9
$REGENMODE
 70
     1
  9
$FILLMODE
 70
     1
  9
$QTEXTMODE
 70
     0
  9
$MIRRTEXT
 70
     1
  9
$LTSCALE
 40
1.0
  9
$ATTMODE
 70
     1
  9
$TEXTSIZE
 40
2.0
  9
$TRACEWID
 40
1.0
  9
$TEXTSTYLE
  7
Standard
  9
$CLAYER
  8
0
  9
$CELTYPE
  6
ByLayer
  9
$CECOLOR
 62
   256
  9
$CELTSCALE
 40
1.0
  9
$DISPSILH
 70
     0
  9
$DIMSCALE
 40
1.0
  9
$DIMASZ
 40
3.0
  9
$DIMEXO
 40
0.0
  9
$DIMDLI
 40
3.75
  9
$DIMRND
 40
0.0
  9
$DIMDLE
 40
0.0
  9
$DIMEXE
 40
1.0
  9
$DIMTP
 40
0.0
  9
$DIMTM
 40
0.0
  9
$DIMTXT
 40
2.0
  9
$DIMCEN
 40
2.5
  9
$DIMTSZ
 40
0.0
  9
$DIMTOL
 70
     0
  9
$DIMLIM
 70
     0
  9
$DIMTIH
 70
     1
  9
$DIMTOH
 70
     1
  9
$DIMSE1
 70
     0
  9
$DIMSE2
 70
     0
  9
$DIMTAD
 70
     1
  9
$DIMZIN
 70
     0
  9
$DIMBLK
  1

  9
$DIMASO
 70
     1
  9
$DIMSHO
 70
     1
  9
$DIMPOST
  1

  9
$DIMAPOST
  1

  9
$DIMALT
 70
     0
  9
$DIMALTD
 70
     3
  9
$DIMALTF
 40
0.0393700787
  9
$DIMLFAC
 40
1.0
  9
$DIMTOFL
 70
     1
  9
$DIMTVP
 40
0.0
  9
$DIMTIX
 70
     0
  9
$DIMSOXD
 70
     0
  9
$DIMSAH
 70
     0
  9
$DIMBLK1
  1

  9
$DIMBLK2
  1

  9
$DIMSTYLE
  2
ISO-25
  9
$DIMCLRD
 70
     0
  9
$DIMCLRE
 70
     0
  9
$DIMCLRT
 70
     0
  9
$DIMTFAC
 40
1.0
  9
$DIMGAP
 40
1.524
  9
$DIMJUST
 70
     0
  9
$DIMSD1
 70
     0
  9
$DIMSD2
 70
     0
  9
$DIMTOLJ
 70
     0
  9
$DIMTZIN
 70
     0
  9
$DIMALTZ
 70
     0
  9
$DIMALTTZ
 70
     0
  9
$DIMUPT
 70
     0
  9
$DIMDEC
 70
     2
  9
$DIMTDEC
 70
     3
  9
$DIMALTU
 70
     2
  9
$DIMALTTD
 70
     3
  9
$DIMTXSTY
  7
Standard
  9
$DIMAUNIT
 70
     0
  9
$DIMADEC
 70
     2
  9
$DIMALTRND
 40
0.0
  9
$DIMAZIN
 70
     0
  9
$DIMDSEP
 70
    44
  9
$DIMATFIT
 70
     3
  9
$DIMFRAC
 70
     0
  9
$DIMLDRBLK
  1

  9
$DIMLUNIT
 70
     2
  9
$DIMLWD
 70
    -2
  9
$DIMLWE
 70
    -2
  9
$DIMTMOVE
 70
     0
  9
$LUNITS
 70
     2
  9
$LUPREC
 70
     2
  9
$SKETCHINC
 40
1.0
  9
$FILLETRAD
 40
10.0
  9
$AUNITS
 70
     0
  9
$AUPREC
 70
     2
  9
$MENU
  1
.
  9
$ELEVATION
 40
0.0
  9
$PELEVATION
 40
0.0
  9
$THICKNESS
 40
0.0
  9
$LIMCHECK
 70
     0
  9
$CHAMFERA
 40
10.0
  9
$CHAMFERB
 40
10.0
  9
$CHAMFERC
 40
20.0
  9
$CHAMFERD
 40
0.0
  9
$SKPOLY
 70
     0
  9
$TDCREATE
 40
2455680.383621261
  9
$TDUCREATE
 40
2455680.300287928
  9
$TDUPDATE
 40
2455680.383621273
  9
$TDUUPDATE
 40
2455680.30028794
  9
$TDINDWG
 40
0.0000000116
  9
$TDUSRTIMER
 40
0.0000000116
  9
$USRTIMER
 70
     1
  9
$ANGBASE
 50
0.0
  9
$ANGDIR
 70
     0
  9
$PDMODE
 70
     0
  9
$PDSIZE
 40
-1.0
  9
$PLINEWID
 40
0.0
  9
$SPLFRAME
 70
     0
  9
$SPLINETYPE
 70
     6
  9
$SPLINESEGS
 70
     8
  9
$HANDSEED
  5
239
  9
$SURFTAB1
 70
     6
  9
$SURFTAB2
 70
     6
  9
$SURFTYPE
 70
     6
  9
$SURFU
 70
     6
  9
$SURFV
 70
     6
  9
$UCSBASE
  2

  9
$UCSNAME
  2

  9
$UCSORG
 10
0.0
 20
0.0
 30
0.0
  9
$UCSXDIR
 10
1.0
 20
0.0
 30
0.0
  9
$UCSYDIR
 10
0.0
 20
1.0
 30
0.0
  9
$UCSORTHOREF
  2

  9
$UCSORTHOVIEW
 70
     0
  9
$UCSORGTOP
 10
0.0
 20
0.0
 30
0.0
  9
$UCSORGBOTTOM
 10
0.0
 20
0.0
 30
0.0
  9
$UCSORGLEFT
 10
0.0
 20
0.0
 30
0.0
  9
$UCSORGRIGHT
 10
0.0
 20
0.0
 30
0.0
  9
$UCSORGFRONT
 10
0.0
 20
0.0
 30
0.0
  9
$UCSORGBACK
 10
0.0
 20
0.0
 30
0.0
  9
$PUCSBASE
  2

  9
$PUCSNAME
  2

  9
$PUCSORG
 10
0.0
 20
0.0
 30
0.0
  9
$PUCSXDIR
 10
1.0
 20
0.0
 30
0.0
  9
$PUCSYDIR
 10
0.0
 20
1.0
 30
0.0
  9
$PUCSORTHOREF
  2

  9
$PUCSORTHOVIEW
 70
     0
  9
$PUCSORGTOP
 10
0.0
 20
0.0
 30
0.0
  9
$PUCSORGBOTTOM
 10
0.0
 20
0.0
 30
0.0
  9
$PUCSORGLEFT
 10
0.0
 20
0.0
 30
0.0
  9
$PUCSORGRIGHT
 10
0.0
 20
0.0
 30
0.0
  9
$PUCSORGFRONT
 10
0.0
 20
0.0
 30
0.0
  9
$PUCSORGBACK
 10
0.0
 20
0.0
 30
0.0
  9
$USERI1
 70
     0
  9
$USERI2
 70
     0
  9
$USERI3
 70
     0
  9
$USERI4
 70
     0
  9
$USERI5
 70
     0
  9
$USERR1
 40
0.0
  9
$USERR2
 40
0.0
  9
$USERR3
 40
0.0
  9
$USERR4
 40
0.0
  9
$USERR5
 40
0.0
  9
$WORLDVIEW
 70
     1
  9
$SHADEDGE
 70
     3
  9
$SHADEDIF
 70
    70
  9
$TILEMODE
 70
     1
  9
$MAXACTVP
 70
    64
  9
$PINSBASE
 10
0.0
 20
0.0
 30
0.0
  9
$PLIMCHECK
 70
     0
  9
$PEXTMIN
 10
1.0000000000E+20
 20
1.0000000000E+20
 30
1.0000000000E+20
  9
$PEXTMAX
 10
-1.0000000000E+20
 20
-1.0000000000E+20
 30
-1.0000000000E+20
  9
$PLIMMIN
 10
0.0
 20
0.0
  9
$PLIMMAX
 10
420.0
 20
297.0
  9
$UNITMODE
 70
     0
  9
$VISRETAIN
 70
     1
  9
$PLINEGEN
 70
     0
  9
$PSLTSCALE
 70
     1
  9
$TREEDEPTH
 70
  3020
  9
$CMLSTYLE
  2
Standard
  9
$CMLJUST
 70
     0
  9
$CMLSCALE
 40
20.0
  9
$PROXYGRAPHICS
 70
     1
  9
$MEASUREMENT
 70
     1
  9
$CELWEIGHT
370
    -1
  9
$ENDCAPS
280
     0
  9
$JOINSTYLE
280
     0
  9
$LWDISPLAY
290
     1
  9
$INSUNITS
 70
     4
  9
$HYPERLINKBASE
  1

  9
$STYLESHEET
  1

  9
$XEDIT
290
     1
  9
$CEPSNTYPE
380
     0
  9
$PSTYLEMODE
290
     1
  9
$FINGERPRINTGUID
  2
{EBDA8200-54A6-4A16-8E18-35D8A3D23982}
  9
$VERSIONGUID
  2
{FAEB1C32-E019-11D5-929B-00C0DF256EC4}
  9
$EXTNAMES
290
     1
  9
$PSVPSCALE
 40
0.0
  9
$OLESTARTUP
290
     0
  0
ENDSEC
  0
SECTION
  2
CLASSES
  0
CLASS
  1
ACDBDICTIONARYWDFLT
  2
AcDbDictionaryWithDefault
  3
ObjectDBX Classes
 90
        0
280
     0
281
     0
  0
CLASS
  1
VISUALSTYLE
  2
AcDbVisualStyle
  3
ObjectDBX Classes
 90
     4095
280
     0
281
     0
  0
CLASS
  1
DICTIONARYVAR
  2
AcDbDictionaryVar
  3
ObjectDBX Classes
 90
        0
280
     0
281
     0
  0
CLASS
  1
ACDBPLACEHOLDER
  2
AcDbPlaceHolder
  3
ObjectDBX Classes
 90
        0
280
     0
281
     0
  0
CLASS
  1
LAYOUT
  2
AcDbLayout
  3
ObjectDBX Classes
 90
        0
280
     0
281
     0
  0
ENDSEC
  0
SECTION
  2
TABLES
  0
TABLE
  2
VPORT
  5
8
330
0
100
AcDbSymbolTable
 70
     1
  0
VPORT
  5
29
330
8
100
AcDbSymbolTableRecord
100
AcDbViewportTableRecord
  2
*Active
 70
     0
 10
0.0
 20
0.0
 11
1.0
 21
1.0
 12
148.5
 22
105.0
 13
0.0
 23
0.0
 14
10.0
 24
10.0
 15
10.0
 25
10.0
 16
0.0
 26
0.0
 36
1.0
 17
0.0
 27
0.0
 37
0.0
 40
210.0
 41
1.4142857143
 42
50.0
 43
0.0
 44
0.0
 50
0.0
 51
0.0
 71
     0
 72
  2000
 73
     1
 74
     3
 75
     0
 76
     0
 77
     0
 78
     0
281
     0
 65
     1
110
0.0
120
0.0
130
0.0
111
1.0
121
0.0
131
0.0
112
0.0
122
1.0
132
0.0
 79
     0
146
0.0
  0
ENDTAB
  0
TABLE
  2
LTYPE
  5
5
330
0
100
AcDbSymbolTable
 70
     6
  0
LTYPE
  5
14
330
5
100
AcDbSymbolTableRecord
100
AcDbLinetypeTableRecord
  2
ByBlock
 70
     0
  3

 72
    65
 73
     0
 40
0.0
  0
LTYPE
  5
15
330
5
100
AcDbSymbolTableRecord
100
AcDbLinetypeTableRecord
  2
ByLayer
 70
     0
  3

 72
    65
 73
     0
 40
0.0
  0
LTYPE
  5
16
330
5
100
AcDbSymbolTableRecord
100
AcDbLinetypeTableRecord
  2
Continuous
 70
     0
  3
Solid line
 72
    65
 73
     0
 40
0.0
  0
LTYPE
  5
3B
330
5
100
AcDbSymbolTableRecord
100
AcDbLinetypeTableRecord
  2
HIDDEN
 70
     0
  3
Hidden __ __ __ __ __ __ __ __ __ __ __ __ __ __
 72
    65
 73
     2
 40
1.905
 49
1.27
 74
     0
 49
-0.635
 74
     0
  0
LTYPE
  5
3C
330
5
100
AcDbSymbolTableRecord
100
AcDbLinetypeTableRecord
  2
PHANTOM
 70
     0
  3
Phantom ______  __  __  ______  __  __  ______
 72
    65
 73
     6
 40
12.7
 49
6.35
 74
     0
 49
-1.27
 74
     0
 49
1.27
 74
     0
 49
-1.27
 74
     0
 49
1.27
 74
     0
 49
-1.27
 74
     0
  0
LTYPE
  5
3D
330
5
100
AcDbSymbolTableRecord
100
AcDbLinetypeTableRecord
  2
CENTER
 70
     0
  3
Center ____ _ ____ _ ____ _ ____ _ ____ _ ____
 72
    65
 73
     4
 40
10.16
 49
6.35
 74
     0
 49
-1.27
 74
     0
 49
1.27
 74
     0
 49
-1.27
 74
     0
  0
LTYPE
  5
3E
330
5
100
AcDbSymbolTableRecord
100
AcDbLinetypeTableRecord
  2
CENTERX2
 70
     0
  3
Center (2x) ________  __  ________  __  _____
 72
    65
 73
     4
 40
20.32
 49
12.7
 74
     0
 49
-2.54
 74
     0
 49
2.54
 74
     0
 49
-2.54
 74
     0
  0
LTYPE
  5
3F
330
5
100
AcDbSymbolTableRecord
100
AcDbLinetypeTableRecord
  2
DOT2
 70
     0
  3
Dot (.5x) ........................................
 72
    65
 73
     2
 40
0.635
 49
0.0
 74
     0
 49
-0.635
 74
     0
  0
ENDTAB
  0
TABLE
  2
LAYER
  5
2
330
0
100
AcDbSymbolTable
 70
     5
  0
LAYER
  5
10
330
2
100
AcDbSymbolTableRecord
100
AcDbLayerTableRecord
  2
0
 70
     0
 62
     7
  6
Continuous
370
    -3
390
F
  0
LAYER
  5
40
330
2
100
AcDbSymbolTableRecord
100
AcDbLayerTableRecord
  2
FORMAT
 70
     0
 62
     7
  6
Continuous
370
    -3
390
F
  0
LAYER
  5
41
330
2
100
AcDbSymbolTableRecord
100
AcDbLayerTableRecord
  2
VERMASSUNG
 70
     0
 62
     7
  6
Continuous
370
    -3
390
F
  0
LAYER
  5
42
330
2
100
AcDbSymbolTableRecord
100
AcDbLayerTableRecord
  2
KOPF_DÜNN
 70
     0
 62
     7
  6
Continuous
370
    -3
390
F
  0
LAYER
  5
43
330
2
100
AcDbSymbolTableRecord
100
AcDbLayerTableRecord
  2
KOPF_DICK
 70
     0
 62
     7
  6
Continuous
370
    15
390
F
  0
ENDTAB
  0
TABLE
  2
STYLE
  5
3
330
0
100
AcDbSymbolTable
 70
     3
  0
STYLE
  5
11
330
3
100
AcDbSymbolTableRecord
100
AcDbTextStyleTableRecord
  2
Standard
 70
     0
 40
0.0
 41
1.0
 50
0.0
 71
     0
 42
2.5
  3
txt
  4

  0
STYLE
  5
44
330
3
100
AcDbSymbolTableRecord
100
AcDbTextStyleTableRecord
  2
SLDTEXTSTYLE0
 70
     0
 40
0.0
 41
0.7
 50
0.0
 71
     0
 42
0.2
  3
TXT
  4

  0
STYLE
  5
48
330
3
100
AcDbSymbolTableRecord
100
AcDbTextStyleTableRecord
  2
SLDTEXTSTYLE1
 70
     0
 40
0.0
 41
0.6473684211
 50
0.0
 71
     0
 42
0.2
  3
TXT
  4

  0
ENDTAB
  0
TABLE
  2
VIEW
  5
6
330
0
100
AcDbSymbolTable
 70
     0
  0
ENDTAB
  0
TABLE
  2
UCS
  5
7
330
0
100
AcDbSymbolTable
 70
     0
  0
ENDTAB
  0
TABLE
  2
APPID
  5
9
330
0
100
AcDbSymbolTable
 70
     1
  0
APPID
  5
12
330
9
100
AcDbSymbolTableRecord
100
AcDbRegAppTableRecord
  2
ACAD
 70
     0
  0
ENDTAB
  0
TABLE
  2
DIMSTYLE
  5
A
330
0
100
AcDbSymbolTable
 70
     5
100
AcDbDimStyleTable
  0
DIMSTYLE
105
27
330
A
100
AcDbSymbolTableRecord
100
AcDbDimStyleTableRecord
  2
ISO-25
 70
     0
 41
2.5
 42
0.625
 43
3.75
 44
1.25
 73
     0
 74
     0
 77
     1
 78
     8
140
2.5
141
2.5
143
0.0393700787
147
0.625
171
     3
172
     1
271
     2
272
     2
274
     3
278
    44
283
     0
284
     8
340
11
  0
DIMSTYLE
105
1D9
102
{ACAD_REACTORS
330
1D8
330
214
330
21E
330
228
102
}
330
A
100
AcDbSymbolTableRecord
100
AcDbDimStyleTableRecord
  2
SLDDIMSTYLE0
 70
     0
 41
3.0
 44
0.0
 45
0.000000001
 73
     0
 74
     0
 77
     1
 78
    12
140
2.0
147
0.5
173
     1
271
     2
272
     3
284
    12
340
44
  0
DIMSTYLE
105
1E6
102
{ACAD_REACTORS
330
1E5
102
}
330
A
100
AcDbSymbolTableRecord
100
AcDbDimStyleTableRecord
  2
SLDDIMSTYLE1
 70
     0
 41
3.0
 44
0.0
 45
0.000000001
 73
     0
 74
     0
 77
     1
 78
    12
140
2.0
147
0.5
173
     1
271
     2
272
     2
284
    12
340
44
  0
DIMSTYLE
105
1F1
102
{ACAD_REACTORS
330
1F0
102
}
330
A
100
AcDbSymbolTableRecord
100
AcDbDimStyleTableRecord
  2
SLDDIMSTYLE2
 70
     0
 41
3.0
 44
0.0
 45
0.000000001
 73
     0
 74
     0
 77
     1
 78
    12
140
2.0
147
0.5
173
     1
271
     2
272
     2
284
    12
340
44
  0
DIMSTYLE
105
1FE
102
{ACAD_REACTORS
330
1FD
330
209
102
}
330
A
100
AcDbSymbolTableRecord
100
AcDbDimStyleTableRecord
  2
SLDDIMSTYLE3
 70
     0
 41
3.0
 44
0.0
 45
0.000000001
 73
     0
 74
     0
 77
     1
 78
    12
140
2.0
147
0.5
173
     1
271
     2
272
     3
284
    12
340
44
  0
ENDTAB
  0
TABLE
  2
BLOCK_RECORD
  5
1
330
0
100
AcDbSymbolTable
 70
     9
  0
BLOCK_RECORD
  5
1F
330
1
100
AcDbSymbolTableRecord
100
AcDbBlockTableRecord
  2
*Model_Space
340
22
  0
BLOCK_RECORD
  5
1B
330
1
100
AcDbSymbolTableRecord
100
AcDbBlockTableRecord
  2
*Paper_Space
340
1E
  0
BLOCK_RECORD
  5
23
330
1
100
AcDbSymbolTableRecord
100
AcDbBlockTableRecord
  2
*Paper_Space0
340
26
  0
BLOCK_RECORD
  5
1DA
330
1
100
AcDbSymbolTableRecord
100
AcDbBlockTableRecord
  2
*D1
340
0
  0
BLOCK_RECORD
  5
1E7
330
1
100
AcDbSymbolTableRecord
100
AcDbBlockTableRecord
  2
*D2
340
0
  0
BLOCK_RECORD
  5
1F2
330
1
100
AcDbSymbolTableRecord
100
AcDbBlockTableRecord
  2
*D3
340
0
  0
BLOCK_RECORD
  5
1FF
330
1
100
AcDbSymbolTableRecord
100
AcDbBlockTableRecord
  2
*D4
340
0
  0
BLOCK_RECORD
  5
20A
330
1
100
AcDbSymbolTableRecord
100
AcDbBlockTableRecord
  2
*D5
340
0
  0
BLOCK_RECORD
  5
215
330
1
100
AcDbSymbolTableRecord
100
AcDbBlockTableRecord
  2
*D6
340
0
  0
BLOCK_RECORD
  5
21F
330
1
100
AcDbSymbolTableRecord
100
AcDbBlockTableRecord
  2
*D7
340
0
  0
BLOCK_RECORD
  5
229
330
1
100
AcDbSymbolTableRecord
100
AcDbBlockTableRecord
  2
*D8
340
0
  0
ENDTAB
  0
ENDSEC
  0
SECTION
  2
BLOCKS
  0
BLOCK
  5
20
330
1F
100
AcDbEntity
  8
0
100
AcDbBlockBegin
  2
*Model_Space
 70
     0
 10
0.0
 20
0.0
 30
0.0
  3
*Model_Space
  1

  0
ENDBLK
  5
21
330
1F
100
AcDbEntity
  8
0
100
AcDbBlockEnd
  0
BLOCK
  5
1C
330
1B
100
AcDbEntity
 67
     1
  8
0
100
AcDbBlockBegin
  2
*Paper_Space
 70
     0
 10
0.0
 20
0.0
 30
0.0
  3
*Paper_Space
  1

  0
ENDBLK
  5
1D
330
1B
100
AcDbEntity
 67
     1
  8
0
100
AcDbBlockEnd
  0
BLOCK
  5
24
330
23
100
AcDbEntity
  8
0
100
AcDbBlockBegin
  2
*Paper_Space0
 70
     0
 10
0.0
 20
0.0
 30
0.0
  3
*Paper_Space0
  1

  0
ENDBLK
  5
25
330
23
100
AcDbEntity
  8
0
100
AcDbBlockEnd
  0
BLOCK
  5
1DB
330
1DA
100
AcDbEntity
  8
0
100
AcDbBlockBegin
  2
*D1
 70
     1
 10
0.0
 20
0.0
 30
0.0
  3
*D1
  1

  0
SOLID
  5
1DD
330
1DA
100
AcDbEntity
  8
VERMASSUNG
100
AcDbTrace
 10
47.0856988082
 20
136.8481040087
 30
0.0
 11
46.6356988082
 21
133.8481040087
 31
0.0
 12
47.5356988082
 22
133.8481040087
 32
0.0
 13
47.5356988082
 23
133.8481040087
 33
0.0
  0
SOLID
  5
1DE
330
1DA
100
AcDbEntity
  8
VERMASSUNG
100
AcDbTrace
 10
47.0856988082
 20
73.8481040087
 30
0.0
 11
47.5356988082
 21
76.8481040087
 31
0.0
 12
46.6356988082
 22
76.8481040087
 32
0.0
 13
46.6356988082
 23
76.8481040087
 33
0.0
  0
LINE
  5
1DF
330
1DA
100
AcDbEntity
  8
VERMASSUNG
100
AcDbLine
 10
83.8394297046
 20
136.8481040087
 30
0.0
 11
46.0856988082
 21
136.8481040087
 31
0.0
  0
LINE
  5
1E0
330
1DA
100
AcDbEntity
  8
VERMASSUNG
100
AcDbLine
 10
83.8394297046
 20
73.8481040087
 30
0.0
 11
46.0856988082
 21
73.8481040087
 31
0.0
  0
LINE
  5
1E1
330
1DA
100
AcDbEntity
  8
VERMASSUNG
100
AcDbLine
 10
47.0856988082
 20
136.8481040087
 30
0.0
 11
47.0856988082
 21
73.8481040087
 31
0.0
  0
MTEXT
  5
1E2
330
1DA
100
AcDbEntity
  8
VERMASSUNG
100
AcDbMText
 10
44.3075633192
 20
97.6445622969
 30
0.0
 40
2.0
 41
0.0
 71
     1
 72
     1
  1
HSK A 
  7
SLDTEXTSTYLE0
 11
-7.044195017643634E-15
 21
1.0
 31
0.0
 73
     1
 44
1.0
  0
MTEXT
  5
1E3
330
1DA
100
AcDbEntity
  8
VERMASSUNG
100
AcDbMText
 10
44.5075633287
 20
106.6445628408
 30
0.0
 40
2.0
 41
0.0
 71
     1
 72
     1
  1
%%c
  7
SLDTEXTSTYLE0
 11
-7.044195017643634E-15
 21
1.0
 31
0.0
 73
     1
 44
1.0
  0
MTEXT
  5
1E4
330
1DA
100
AcDbEntity
  8
VERMASSUNG
100
AcDbMText
 10
44.5075634451
 20
110.2528894908
 30
0.0
 40
2.0
 41
0.0
 71
     1
 72
     1
  1
63
  7
SLDTEXTSTYLE0
 11
-7.044195017643634E-15
 21
1.0
 31
0.0
 73
     1
 44
1.0
  0
ENDBLK
  5
1DC
330
1DA
100
AcDbEntity
  8
0
100
AcDbBlockEnd
  0
BLOCK
  5
1E8
330
1E7
100
AcDbEntity
  8
0
100
AcDbBlockBegin
  2
*D2
 70
     1
 10
0.0
 20
0.0
 30
0.0
  3
*D2
  1

  0
SOLID
  5
1EA
330
1E7
100
AcDbEntity
  8
VERMASSUNG
100
AcDbTrace
 10
192.0394297046
 20
137.6057421452
 30
0.0
 11
195.0394297046
 21
137.1557421452
 31
0.0
 12
195.0394297046
 22
138.0557421452
 32
0.0
 13
195.0394297046
 23
138.0557421452
 33
0.0
  0
SOLID
  5
1EB
330
1E7
100
AcDbEntity
  8
VERMASSUNG
100
AcDbTrace
 10
243.5394297046
 20
137.6057421452
 30
0.0
 11
240.5394297046
 21
138.0557421452
 31
0.0
 12
240.5394297046
 22
137.1557421452
 32
0.0
 13
240.5394297046
 23
137.1557421452
 33
0.0
  0
LINE
  5
1EC
330
1E7
100
AcDbEntity
  8
VERMASSUNG
100
AcDbLine
 10
192.0394297046
 20
115.2481040087
 30
0.0
 11
192.0394297046
 21
138.6057421452
 31
0.0
  0
LINE
  5
1ED
330
1E7
100
AcDbEntity
  8
VERMASSUNG
100
AcDbLine
 10
243.5394297046
 20
119.9993230254
 30
0.0
 11
243.5394297046
 21
138.6057421452
 31
0.0
  0
LINE
  5
1EE
330
1E7
100
AcDbEntity
  8
VERMASSUNG
100
AcDbLine
 10
192.0394297046
 20
137.6057421452
 30
0.0
 11
243.5394297046
 21
137.6057421452
 31
0.0
  0
MTEXT
  5
1EF
330
1E7
100
AcDbEntity
  8
VERMASSUNG
100
AcDbMText
 10
215.5905727165
 20
140.1838775083
 30
0.0
 40
2.0
 41
0.0
 71
     1
 72
     1
  1
51.5
  7
SLDTEXTSTYLE0
 73
     1
 44
1.0
  0
ENDBLK
  5
1E9
330
1E7
100
AcDbEntity
  8
0
100
AcDbBlockEnd
  0
BLOCK
  5
1F3
330
1F2
100
AcDbEntity
  8
0
100
AcDbBlockBegin
  2
*D3
 70
     1
 10
0.0
 20
0.0
 30
0.0
  3
*D3
  1

  0
SOLID
  5
1F5
330
1F2
100
AcDbEntity
  8
VERMASSUNG
100
AcDbTrace
 10
253.6493194249
 20
95.3481040087
 30
0.0
 11
254.0993194249
 21
98.3481040087
 31
0.0
 12
253.1993194249
 22
98.3481040087
 32
0.0
 13
253.1993194249
 23
98.3481040087
 33
0.0
  0
SOLID
  5
1F6
330
1F2
100
AcDbEntity
  8
VERMASSUNG
100
AcDbTrace
 10
253.6493194249
 20
115.3481040087
 30
0.0
 11
253.1993194249
 21
112.3481040087
 31
0.0
 12
254.0993194249
 22
112.3481040087
 32
0.0
 13
254.0993194249
 23
112.3481040087
 33
0.0
  0
LINE
  5
1F7
330
1F2
100
AcDbEntity
  8
VERMASSUNG
100
AcDbLine
 10
240.0394297046
 20
95.3481040087
 30
0.0
 11
254.6493194249
 21
95.3481040087
 31
0.0
  0
LINE
  5
1F8
330
1F2
100
AcDbEntity
  8
VERMASSUNG
100
AcDbLine
 10
240.0394297046
 20
115.3481040087
 30
0.0
 11
254.6493194249
 21
115.3481040087
 31
0.0
  0
LINE
  5
1F9
330
1F2
100
AcDbEntity
  8
VERMASSUNG
100
AcDbLine
 10
253.6493194249
 20
95.3481040087
 30
0.0
 11
253.6493194249
 21
115.3481040087
 31
0.0
  0
MTEXT
  5
1FA
330
1F2
100
AcDbEntity
  8
VERMASSUNG
100
AcDbMText
 10
251.0711839453
 20
100.944588299
 30
0.0
 40
2.0
 41
0.0
 71
     1
 72
     1
  1
%%c
  7
SLDTEXTSTYLE0
 11
6.123233995736766E-17
 21
1.0
 31
0.0
 73
     1
 44
1.0
  0
MTEXT
  5
1FB
330
1F2
100
AcDbEntity
  8
VERMASSUNG
100
AcDbMText
 10
251.0711840618
 20
104.5532665222
 30
0.0
 40
2.0
 41
0.0
 71
     1
 72
     1
  1
20
  7
SLDTEXTSTYLE0
 11
6.123233995736766E-17
 21
1.0
 31
0.0
 73
     1
 44
1.0
  0
MTEXT
  5
1FC
330
1F2
100
AcDbEntity
  8
VERMASSUNG
100
AcDbMText
 10
251.0711840618
 20
107.3520227519
 30
0.0
 40
2.0
 41
0.0
 71
     1
 72
     1
  1
  
  7
SLDTEXTSTYLE0
 11
6.123233995736766E-17
 21
1.0
 31
0.0
 73
     1
 44
1.0
  0
ENDBLK
  5
1F4
330
1F2
100
AcDbEntity
  8
0
100
AcDbBlockEnd
  0
BLOCK
  5
200
330
1FF
100
AcDbEntity
  8
0
100
AcDbBlockBegin
  2
*D4
 70
     1
 10
0.0
 20
0.0
 30
0.0
  3
*D4
  1

  0
SOLID
  5
202
330
1FF
100
AcDbEntity
  8
VERMASSUNG
100
AcDbTrace
 10
259.6493194249
 20
88.8481040087
 30
0.0
 11
260.0993194249
 21
91.8481040087
 31
0.0
 12
259.1993194249
 22
91.8481040087
 32
0.0
 13
259.1993194249
 23
91.8481040087
 33
0.0
  0
SOLID
  5
203
330
1FF
100
AcDbEntity
  8
VERMASSUNG
100
AcDbTrace
 10
259.6493194249
 20
121.8481040087
 30
0.0
 11
259.1993194249
 21
118.8481040087
 31
0.0
 12
260.0993194249
 22
118.8481040087
 32
0.0
 13
260.0993194249
 23
118.8481040087
 33
0.0
  0
LINE
  5
204
330
1FF
100
AcDbEntity
  8
VERMASSUNG
100
AcDbLine
 10
243.5394297046
 20
88.8481040087
 30
0.0
 11
260.6493194249
 21
88.8481040087
 31
0.0
  0
LINE
  5
205
330
1FF
100
AcDbEntity
  8
VERMASSUNG
100
AcDbLine
 10
243.5394297046
 20
121.8481040087
 30
0.0
 11
260.6493194249
 21
121.8481040087
 31
0.0
  0
LINE
  5
206
330
1FF
100
AcDbEntity
  8
VERMASSUNG
100
AcDbLine
 10
259.6493194249
 20
88.8481040087
 30
0.0
 11
259.6493194249
 21
121.8481040087
 31
0.0
  0
MTEXT
  5
207
330
1FF
100
AcDbEntity
  8
VERMASSUNG
100
AcDbMText
 10
257.0711839453
 20
102.1443867822
 30
0.0
 40
2.0
 41
0.0
 71
     1
 72
     1
  1
%%c
  7
SLDTEXTSTYLE0
 11
6.123233995736766E-17
 21
1.0
 31
0.0
 73
     1
 44
1.0
  0
MTEXT
  5
208
330
1FF
100
AcDbEntity
  8
VERMASSUNG
100
AcDbMText
 10
257.0711840618
 20
105.7530650054
 30
0.0
 40
2.0
 41
0.0
 71
     1
 72
     1
  1
33
  7
SLDTEXTSTYLE0
 11
6.123233995736766E-17
 21
1.0
 31
0.0
 73
     1
 44
1.0
  0
ENDBLK
  5
201
330
1FF
100
AcDbEntity
  8
0
100
AcDbBlockEnd
  0
BLOCK
  5
20B
330
20A
100
AcDbEntity
  8
0
100
AcDbBlockBegin
  2
*D5
 70
     1
 10
0.0
 20
0.0
 30
0.0
  3
*D5
  1

  0
SOLID
  5
20D
330
20A
100
AcDbEntity
  8
VERMASSUNG
100
AcDbTrace
 10
265.6493194249
 20
84.8481040087
 30
0.0
 11
266.0993194249
 21
87.8481040087
 31
0.0
 12
265.1993194249
 22
87.8481040087
 32
0.0
 13
265.1993194249
 23
87.8481040087
 33
0.0
  0
SOLID
  5
20E
330
20A
100
AcDbEntity
  8
VERMASSUNG
100
AcDbTrace
 10
265.6493194249
 20
125.8481040087
 30
0.0
 11
265.1993194249
 21
122.8481040087
 31
0.0
 12
266.0993194249
 22
122.8481040087
 32
0.0
 13
266.0993194249
 23
122.8481040087
 33
0.0
  0
LINE
  5
20F
330
20A
100
AcDbEntity
  8
VERMASSUNG
100
AcDbLine
 10
183.5394297046
 20
84.8481040087
 30
0.0
 11
266.6493194249
 21
84.8481040087
 31
0.0
  0
LINE
  5
210
330
20A
100
AcDbEntity
  8
VERMASSUNG
100
AcDbLine
 10
183.5394297046
 20
125.8481040087
 30
0.0
 11
266.6493194249
 21
125.8481040087
 31
0.0
  0
LINE
  5
211
330
20A
100
AcDbEntity
  8
VERMASSUNG
100
AcDbLine
 10
265.6493194249
 20
84.8481040087
 30
0.0
 11
265.6493194249
 21
125.8481040087
 31
0.0
  0
MTEXT
  5
212
330
20A
100
AcDbEntity
  8
VERMASSUNG
100
AcDbMText
 10
263.0711839453
 20
102.244176598
 30
0.0
 40
2.0
 41
0.0
 71
     1
 72
     1
  1
%%c
  7
SLDTEXTSTYLE0
 11
6.123233995736766E-17
 21
1.0
 31
0.0
 73
     1
 44
1.0
  0
MTEXT
  5
213
330
20A
100
AcDbEntity
  8
VERMASSUNG
100
AcDbMText
 10
263.0711840618
 20
105.8528548212
 30
0.0
 40
2.0
 41
0.0
 71
     1
 72
     1
  1
41
  7
SLDTEXTSTYLE0
 11
6.123233995736766E-17
 21
1.0
 31
0.0
 73
     1
 44
1.0
  0
ENDBLK
  5
20C
330
20A
100
AcDbEntity
  8
0
100
AcDbBlockEnd
  0
BLOCK
  5
216
330
215
100
AcDbEntity
  8
0
100
AcDbBlockBegin
  2
*D6
 70
     1
 10
0.0
 20
0.0
 30
0.0
  3
*D6
  1

  0
SOLID
  5
218
330
215
100
AcDbEntity
  8
VERMASSUNG
100
AcDbTrace
 10
83.5394297046
 20
149.6057421452
 30
0.0
 11
86.5394297046
 21
149.1557421452
 31
0.0
 12
86.5394297046
 22
150.0557421452
 32
0.0
 13
86.5394297046
 23
150.0557421452
 33
0.0
  0
SOLID
  5
219
330
215
100
AcDbEntity
  8
VERMASSUNG
100
AcDbTrace
 10
243.5394297046
 20
149.6057421452
 30
0.0
 11
240.5394297046
 21
150.0557421452
 31
0.0
 12
240.5394297046
 22
149.1557421452
 32
0.0
 13
240.5394297046
 23
149.1557421452
 33
0.0
  0
LINE
  5
21A
330
215
100
AcDbEntity
  8
VERMASSUNG
100
AcDbLine
 10
83.5394297046
 20
136.5481040087
 30
0.0
 11
83.5394297046
 21
150.6057421452
 31
0.0
  0
LINE
  5
21B
330
215
100
AcDbEntity
  8
VERMASSUNG
100
AcDbLine
 10
243.5394297046
 20
119.9993230254
 30
0.0
 11
243.5394297046
 21
150.6057421452
 31
0.0
  0
LINE
  5
21C
330
215
100
AcDbEntity
  8
VERMASSUNG
100
AcDbLine
 10
83.5394297046
 20
149.6057421452
 30
0.0
 11
243.5394297046
 21
149.6057421452
 31
0.0
  0
MTEXT
  5
21D
330
215
100
AcDbEntity
  8
VERMASSUNG
100
AcDbMText
 10
161.6399421639
 20
152.1838775083
 30
0.0
 40
2.0
 41
0.0
 71
     1
 72
     1
  1
160
  7
SLDTEXTSTYLE0
 73
     1
 44
1.0
  0
ENDBLK
  5
217
330
215
100
AcDbEntity
  8
0
100
AcDbBlockEnd
  0
BLOCK
  5
220
330
21F
100
AcDbEntity
  8
0
100
AcDbBlockBegin
  2
*D7
 70
     1
 10
0.0
 20
0.0
 30
0.0
  3
*D7
  1

  0
SOLID
  5
222
330
21F
100
AcDbEntity
  8
VERMASSUNG
100
AcDbTrace
 10
243.5394297046
 20
143.6057421452
 30
0.0
 11
240.5394297046
 21
144.0557421452
 31
0.0
 12
240.5394297046
 22
143.1557421452
 32
0.0
 13
240.5394297046
 23
143.1557421452
 33
0.0
  0
SOLID
  5
223
330
21F
100
AcDbEntity
  8
VERMASSUNG
100
AcDbTrace
 10
109.4894297046
 20
143.6057421452
 30
0.0
 11
112.4894297046
 21
143.1557421452
 31
0.0
 12
112.4894297046
 22
144.0557421452
 32
0.0
 13
112.4894297046
 23
144.0557421452
 33
0.0
  0
LINE
  5
224
330
21F
100
AcDbEntity
  8
VERMASSUNG
100
AcDbLine
 10
243.5394297046
 20
119.9993230254
 30
0.0
 11
243.5394297046
 21
144.6057421452
 31
0.0
  0
LINE
  5
225
330
21F
100
AcDbEntity
  8
VERMASSUNG
100
AcDbLine
 10
109.4894297046
 20
135.1945443324
 30
0.0
 11
109.4894297046
 21
144.6057421452
 31
0.0
  0
LINE
  5
226
330
21F
100
AcDbEntity
  8
VERMASSUNG
100
AcDbLine
 10
243.5394297046
 20
143.6057421452
 30
0.0
 11
109.4894297046
 21
143.6057421452
 31
0.0
  0
MTEXT
  5
227
330
21F
100
AcDbEntity
  8
VERMASSUNG
100
AcDbMText
 10
172.8152444391
 20
146.1838775083
 30
0.0
 40
2.0
 41
0.0
 71
     1
 72
     1
  1
134.05
  7
SLDTEXTSTYLE0
 73
     1
 44
1.0
  0
ENDBLK
  5
221
330
21F
100
AcDbEntity
  8
0
100
AcDbBlockEnd
  0
BLOCK
  5
22A
330
229
100
AcDbEntity
  8
0
100
AcDbBlockBegin
  2
*D8
 70
     1
 10
0.0
 20
0.0
 30
0.0
  3
*D8
  1

  0
SOLID
  5
22C
330
229
100
AcDbEntity
  8
VERMASSUNG
100
AcDbTrace
 10
51.6394297046
 20
155.6057421452
 30
0.0
 11
54.6394297046
 21
155.1557421452
 31
0.0
 12
54.6394297046
 22
156.0557421452
 32
0.0
 13
54.6394297046
 23
156.0557421452
 33
0.0
  0
SOLID
  5
22D
330
229
100
AcDbEntity
  8
VERMASSUNG
100
AcDbTrace
 10
243.5394297046
 20
155.6057421452
 30
0.0
 11
240.5394297046
 21
156.0557421452
 31
0.0
 12
240.5394297046
 22
155.1557421452
 32
0.0
 13
240.5394297046
 23
155.1557421452
 33
0.0
  0
LINE
  5
22E
330
229
100
AcDbEntity
  8
VERMASSUNG
100
AcDbLine
 10
51.6394297046
 20
125.0387817551
 30
0.0
 11
51.6394297046
 21
156.6057421452
 31
0.0
  0
LINE
  5
22F
330
229
100
AcDbEntity
  8
VERMASSUNG
100
AcDbLine
 10
243.5394297046
 20
119.9993230254
 30
0.0
 11
243.5394297046
 21
156.6057421452
 31
0.0
  0
LINE
  5
230
330
229
100
AcDbEntity
  8
VERMASSUNG
100
AcDbLine
 10
51.6394297046
 20
155.6057421452
 30
0.0
 11
243.5394297046
 21
155.6057421452
 31
0.0
  0
MTEXT
  5
231
330
229
100
AcDbEntity
  8
VERMASSUNG
100
AcDbMText
 10
144.8904632907
 20
158.1838775083
 30
0.0
 40
2.0
 41
0.0
 71
     1
 72
     1
  1
191.9
  7
SLDTEXTSTYLE0
 73
     1
 44
1.0
  0
ENDBLK
  5
22B
330
229
100
AcDbEntity
  8
0
100
AcDbBlockEnd
  0
ENDSEC
  0
SECTION
  2
ENTITIES
  0
MTEXT
  5
45
330
1F
100
AcDbEntity
  8
KOPF_DÜNN
100
AcDbMText
 10
13.8892156294
 20
23.8442973028
 30
0.0
 40
3.0
 41
0.0
 71
     1
 72
     1
  1
HA6.S20.K21.160
  7
SLDTEXTSTYLE0
 73
     1
 44
1.0
  0
MTEXT
  5
46
330
1F
100
AcDbEntity
  8
VERMASSUNG
100
AcDbMText
 10
13.9329988022
 20
28.8834360957
 30
0.0
 40
3.0
 41
0.0
 71
     1
 72
     1
  1
Schrumpffutter_Heat shrink chuck
  7
SLDTEXTSTYLE0
 73
     1
 44
1.0
  0
MTEXT
  5
47
330
1F
100
AcDbEntity
  8
VERMASSUNG
100
AcDbMText
 10
98.8601118557
 20
13.8365368179
 30
0.0
 40
2.0
 41
0.0
 71
     1
 72
     1
  1
Datum: 28.04.2011
  7
SLDTEXTSTYLE0
 73
     1
 44
1.0
  0
MTEXT
  5
49
330
1F
100
AcDbEntity
  8
VERMASSUNG
100
AcDbMText
 10
13.933048693
 20
18.0482802738
 30
0.0
 40
2.0
 41
0.0
 71
     1
 72
     1
  1
DIN 69 893 HSK A 63
  7
SLDTEXTSTYLE1
 73
     1
 44
1.0
  0
MTEXT
  5
4A
330
1F
100
AcDbEntity
  8
VERMASSUNG
100
AcDbMText
 10
13.9808475933
 20
13.9090973692
 30
0.0
 40
2.0
 41
0.0
 71
     1
 72
     1
  1
Gewicht: 1788g
  7
SLDTEXTSTYLE0
 73
     1
 44
1.0
  0
LINE
  5
4B
330
1F
100
AcDbEntity
  8
0
  6
Continuous
 62
     7
370
    15
100
AcDbLine
 10
83.8394297046
 20
73.8481040087
 30
0.0
 11
88.4894297046
 21
73.8481040087
 31
0.0
  0
LINE
  5
4C
330
1F
100
AcDbEntity
  8
0
  6
Continuous
 62
     7
370
    15
100
AcDbLine
 10
88.5174180636
 20
136.8481040087
 30
0.0
 11
83.8394297046
 21
136.8481040087
 31
0.0
  0
ARC
  5
4D
330
1F
100
AcDbEntity
  8
0
  6
Continuous
 62
     7
370
    15
100
AcDbCircle
 10
83.8394297046
 20
74.1481040087
 30
0.0
 40
0.3000000000000114
100
AcDbArc
 50
180.0
 51
270.0
  0
ARC
  5
4E
330
1F
100
AcDbEntity
  8
0
  6
Continuous
 62
     7
370
    15
100
AcDbCircle
 10
83.8394297046
 20
136.5481040087
 30
0.0
 40
0.3000000000000114
100
AcDbArc
 50
90.0
 51
180.0
  0
ARC
  5
4F
330
1F
100
AcDbEntity
  8
0
  6
Continuous
 62
     7
370
    15
100
AcDbCircle
 10
112.4894297046
 20
78.8321452072
 30
0.0
 40
3.0
100
AcDbArc
 50
104.3250519401
 51
180.0
  0
ARC
  5
50
330
1F
100
AcDbEntity
  8
0
  6
Continuous
 62
     7
370
    15
100
AcDbCircle
 10
112.4894297046
 20
131.8640628102
 30
0.0
 40
3.000000000000013
100
AcDbArc
 50
180.0
 51
255.6749480599
  0
ARC
  5
51
330
1F
100
AcDbEntity
  8
0
  6
Continuous
 62
     7
370
    15
100
AcDbCircle
 10
83.0394229519
 20
80.7776663943
 30
0.0
 40
0.6000067526677164
100
AcDbArc
 50
33.5571153394
 51
90.0
  0
ARC
  5
52
330
1F
100
AcDbEntity
  8
0
  6
Continuous
 62
     7
370
    15
100
AcDbCircle
 10
83.0394229519
 20
129.9185416231
 30
0.0
 40
0.6000067526677478
100
AcDbArc
 50
270.0
 51
326.4428846606
  0
LINE
  5
53
330
1F
100
AcDbEntity
  8
0
  6
Continuous
 62
     7
370
    15
100
AcDbLine
 10
70.3090077021
 20
129.0058884775
 30
0.0
 11
57.7394297046
 21
128.3761501009
 31
0.0
  0
LINE
  5
54
330
1F
100
AcDbEntity
  8
0
  6
Continuous
 62
     7
370
    15
100
AcDbLine
 10
81.5394297046
 20
129.5685348704
 30
0.0
 11
78.720819912
 21
129.4273219549
 31
0.0
  0
LINE
  5
55
330
1F
100
AcDbEntity
  8
0
  6
Continuous
 62
     7
370
    15
100
AcDbLine
 10
78.7210418222
 20
81.2688749447
 30
0.0
 11
81.5394297046
 21
81.1276731469
 31
0.0
  0
LINE
  5
56
330
1F
100
AcDbEntity
  8
0
  6
Continuous
 62
     7
370
    15
100
AcDbLine
 10
61.7394297046
 20
82.1196571149
 30
0.0
 11
70.3097064738
 21
81.6902845313
 31
0.0
  0
LINE
  5
57
330
1F
100
AcDbEntity
  8
0
  6
Continuous
 62
     7
370
    15
100
AcDbLine
 10
81.5394297046
 20
81.1276731469
 30
0.0
 11
82.3961424779
 21
81.3572286427
 31
0.0
  0
LINE
  5
58
330
1F
100
AcDbEntity
  8
0
  6
Continuous
 62
     7
370
    15
100
AcDbLine
 10
82.3961424779
 20
129.3389793746
 30
0.0
 11
81.5394297046
 21
129.5685348704
 31
0.0
  0
ARC
  5
59
330
1F
100
AcDbEntity
  8
0
  6
Continuous
 62
     7
370
    15
100
AcDbCircle
 10
82.551433905
 20
80.7776731469
 30
0.0
 40
0.5999999999999898
100
AcDbArc
 50
90.0
 51
105.0
  0
ARC
  5
5A
330
1F
100
AcDbEntity
  8
0
  6
Continuous
 62
     7
370
    15
100
AcDbCircle
 10
82.551433905
 20
129.9185348704
 30
0.0
 40
0.5999999999999943
100
AcDbArc
 50
255.0
 51
270.0
  0
LINE
  5
5B
330
1F
100
AcDbEntity
  8
0
  6
Continuous
 62
     7
370
    15
100
AcDbLine
 10
82.551433905
 20
81.3776731469
 30
0.0
 11
83.0394229519
 21
81.3776731469
 31
0.0
  0
LINE
  5
5C
330
1F
100
AcDbEntity
  8
0
  6
Continuous
 62
     7
370
    15
100
AcDbLine
 10
83.0394229519
 20
129.3185348704
 30
0.0
 11
82.551433905
 21
129.3185348704
 31
0.0
  0
ARC
  5
5D
330
1F
100
AcDbEntity
  8
0
  6
Continuous
 62
     7
370
    15
100
AcDbCircle
 10
136.4894297046
 20
-15.1518959913
 30
0.0
 40
100.0
100
AcDbArc
 50
90.0
 51
104.3250519401
  0
ARC
  5
5E
330
1F
100
AcDbEntity
  8
0
  6
Continuous
 62
     7
370
    15
100
AcDbCircle
 10
136.4894297046
 20
225.8481040087
 30
0.0
 40
100.0
100
AcDbArc
 50
255.6749480599
 51
270.0
  0
LINE
  5
5F
330
1F
100
AcDbEntity
  8
0
  6
Continuous
 62
     7
370
    15
100
AcDbLine
 10
192.7146107599
 20
84.8481040087
 30
0.0
 11
241.696347896
 21
88.7030503245
 31
0.0
  0
LINE
  5
60
330
1F
100
AcDbEntity
  8
0
  6
Continuous
 62
     7
370
    15
100
AcDbLine
 10
241.696347896
 20
121.9931576928
 30
0.0
 11
192.5394297046
 21
125.8618910567
 31
0.0
  0
LINE
  5
61
330
1F
100
AcDbEntity
  8
0
  6
Continuous
 62
     7
370
    15
100
AcDbLine
 10
158.9776613456
 20
84.8481040087
 30
0.0
 11
192.7146107599
 21
84.8481040087
 31
0.0
  0
LINE
  5
62
330
1F
100
AcDbEntity
  8
0
  6
Continuous
 62
     7
370
    15
100
AcDbLine
 10
136.4894297046
 20
84.8481040087
 30
0.0
 11
151.9910980179
 21
84.8481040087
 31
0.0
  0
LINE
  5
63
330
1F
100
AcDbEntity
  8
0
  6
Continuous
 62
     7
370
    15
100
AcDbLine
 10
152.0008378312
 20
125.8481040087
 30
0.0
 11
136.4894297046
 21
125.8481040087
 31
0.0
  0
LINE
  5
64
330
1F
100
AcDbEntity
  8
0
  6
Continuous
 62
     7
370
    15
100
AcDbLine
 10
192.5410886625
 20
125.8481040087
 30
0.0
 11
158.9832468376
 21
125.8481040087
 31
0.0
  0
ARC
  5
65
330
1F
100
AcDbEntity
  8
0
  6
Continuous
 62
     7
370
    15
100
AcDbCircle
 10
241.5394297046
 20
90.696884992
 30
0.0
 40
2.000000000000002
100
AcDbArc
 50
274.5
 51
0.0
  0
ARC
  5
66
330
1F
100
AcDbEntity
  8
0
  6
Continuous
 62
     7
370
    15
100
AcDbCircle
 10
241.5394297046
 20
119.9993230254
 30
0.0
 40
2.000000000000002
100
AcDbArc
 50
0.0
 51
85.5
  0
LINE
  5
67
330
1F
100
AcDbEntity
  8
0
  6
Continuous
 62
     7
370
    15
100
AcDbLine
 10
52.9285789637
 20
84.4781040087
 30
0.0
 11
60.3394297046
 21
84.4781040087
 31
0.0
  0
ARC
  5
68
330
1F
100
AcDbEntity
  8
0
  6
Continuous
 62
     7
370
    15
100
AcDbCircle
 10
60.3394297046
 20
83.0781040087
 30
0.0
 40
1.400000000000007
100
AcDbArc
 50
42.2465410162
 51
90.0
  0
LINE
  5
69
330
1F
100
AcDbEntity
  8
0
  6
Continuous
 62
     7
370
    15
100
AcDbLine
 10
51.6505901397
 20
85.6169435736
 30
0.0
 11
52.7805931627
 21
84.4869405505
 31
0.0
  0
LINE
  5
6A
330
1F
100
AcDbEntity
  8
0
  6
Continuous
 62
     7
370
    15
100
AcDbLine
 10
52.7805931627
 20
126.2092674668
 30
0.0
 11
51.6493304779
 21
125.078004782
 31
0.0
  0
ARC
  5
6B
330
1F
100
AcDbEntity
  8
0
  6
Continuous
 62
     7
370
    15
100
AcDbCircle
 10
56.3394297046
 20
127.6181040087
 30
0.0
 40
1.399999999999996
100
AcDbArc
 50
270.0
 51
301.7485287426
  0
LINE
  5
6C
330
1F
100
AcDbEntity
  8
0
  6
Continuous
 62
     7
370
    15
100
AcDbLine
 10
56.3394297046
 20
126.2181040087
 30
0.0
 11
52.9136954384
 21
126.2181040087
 31
0.0
  0
LINE
  5
6D
330
1F
100
AcDbEntity
  8
0
  6
Continuous
 62
     7
370
    15
100
AcDbLine
 10
243.5578621881
 20
119.5678207101
 30
0.0
 11
243.5394297046
 21
119.6028550987
 31
0.0
  0
LINE
  5
6E
330
1F
100
AcDbEntity
  8
0
  6
Continuous
 62
     7
370
    15
100
AcDbLine
 10
243.5394297046
 20
90.9837357483
 30
0.0
 11
243.6167519117
 21
91.1307010907
 31
0.0
  0
SPLINE
  5
6F
330
1F
100
AcDbEntity
  8
0
  6
Continuous
 62
     7
370
    15
100
AcDbSpline
210
0.0
220
0.0
230
1.0
 70
     8
 71
     3
 72
    70
 73
    66
 74
     0
 42
0.00000001
 43
0.00000001
 40
-0.0312499999999998
 40
-0.0312499999999998
 40
0.0
 40
0.0
 40
0.03125
 40
0.03125
 40
0.0625000000000001
 40
0.0625000000000001
 40
0.0937500000000001
 40
0.0937500000000001
 40
0.1250000000000002
 40
0.1250000000000002
 40
0.1562500000000002
 40
0.1562500000000002
 40
0.1875000000000003
 40
0.1875000000000003
 40
0.2187500000000003
 40
0.2187500000000003
 40
0.2500000000000004
 40
0.2500000000000004
 40
0.2812500000000004
 40
0.2812500000000004
 40
0.3125000000000005
 40
0.3125000000000005
 40
0.3437500000000006
 40
0.3437500000000006
 40
0.3750000000000006
 40
0.3750000000000006
 40
0.4062500000000006
 40
0.4062500000000006
 40
0.4375000000000007
 40
0.4375000000000007
 40
0.4687500000000007
 40
0.4687500000000007
 40
0.5000000000000008
 40
0.5000000000000008
 40
0.5312500000000009
 40
0.5312500000000009
 40
0.5625000000000011
 40
0.5625000000000011
 40
0.5937500000000012
 40
0.5937500000000012
 40
0.6250000000000014
 40
0.6250000000000014
 40
0.6562500000000016
 40
0.6562500000000016
 40
0.6875000000000018
 40
0.6875000000000018
 40
0.7187500000000016
 40
0.7187500000000016
 40
0.7500000000000014
 40
0.7500000000000014
 40
0.7812500000000012
 40
0.7812500000000012
 40
0.812500000000001
 40
0.812500000000001
 40
0.8437500000000009
 40
0.8437500000000009
 40
0.8750000000000007
 40
0.8750000000000007
 40
0.9062500000000006
 40
0.9062500000000006
 40
0.9375000000000003
 40
0.9375000000000003
 40
0.9687500000000002
 40
0.9687500000000002
 40
1.0
 40
1.0
 40
1.03125
 40
1.03125
 10
91.27488436589842
 20
115.9690108946508
 30
0.0
 10
91.80397504321868
 20
115.9690108946508
 30
0.0
 10
92.06404571059579
 20
115.993688189436
 30
0.0
 10
92.57562039043121
 20
116.0901598624779
 30
0.0
 10
92.82979567417141
 20
116.1631407784579
 30
0.0
 10
93.31406630423311
 20
116.3528813813966
 30
0.0
 10
93.54370739611429
 20
116.4687420397903
 30
0.0
 10
93.97831174434776
 20
116.741359885748
 30
0.0
 10
94.18387752099437
 20
116.8993989678018
 30
0.0
 10
94.5524346615896
 20
117.2429418187724
 30
0.0
 10
94.7179156443251
 20
117.4297042628741
 30
0.0
 10
95.0103401537602
 20
117.8332474372709
 30
0.0
 10
95.1344411303867
 20
118.0467444337001
 30
0.0
 10
95.33402032713641
 20
118.4861277476226
 30
0.0
 10
95.41095391299469
 20
118.7152677347682
 30
0.0
 10
95.51381097151507
 20
119.1812418575282
 30
0.0
 10
95.53928388097418
 20
119.4141243032044
 30
0.0
 10
95.53957429154194
 20
119.8795218382842
 30
0.0
 10
95.51354965776622
 20
120.1143975956785
 30
0.0
 10
95.41140137327423
 20
120.5658907429248
 30
0.0
 10
95.33582492569106
 20
120.7839372183362
 30
0.0
 10
95.13532739454614
 20
121.205031743374
 30
0.0
 10
95.01019855303774
 20
121.4069531278923
 30
0.0
 10
94.72083975201616
 20
121.7789826104112
 30
0.0
 10
94.55542876496071
 20
121.9516109139915
 30
0.0
 10
94.18243820681286
 20
122.2689289185376
 30
0.0
 10
93.98070517372376
 20
122.4087158520392
 30
0.0
 10
93.54784592289589
 20
122.652892105591
 30
0.0
 10
93.31392739000651
 20
122.7581216166325
 30
0.0
 10
92.8297436548639
 20
122.9262787630076
 30
0.0
 10
92.5804280289084
 20
122.9895296536015
 30
0.0
 10
92.06739550448067
 20
123.0751088627041
 30
0.0
 10
91.80210168157603
 20
123.0969810276265
 30
0.0
 10
91.2797670617063
 20
123.0971446772704
 30
0.0
 10
91.02001339922455
 20
123.0761429851744
 30
0.0
 10
90.5034015835793
 20
122.9907406300968
 30
0.0
 10
90.25103554307903
 20
122.9267344468098
 30
0.0
 10
89.76951042154622
 20
122.7599199267686
 30
0.0
 10
89.53665968943264
 20
122.6557867633695
 30
0.0
 10
89.09956984099388
 20
122.4098001108745
 30
0.0
 10
88.89824885233669
 20
122.2700502799257
 30
0.0
 10
88.5291628270368
 20
121.9569122102011
 30
0.0
 10
88.36017807598509
 20
121.781456050931
 30
0.0
 10
88.0697220193259
 20
121.4086157868308
 30
0.0
 10
87.94665020796376
 20
121.2104939767198
 30
0.0
 10
87.74531396654174
 20
120.7897826339861
 30
0.0
 10
87.66810142059951
 20
120.5677926133186
 30
0.0
 10
87.56589787769944
 20
120.1179276736103
 30
0.0
 10
87.53966952624711
 20
119.8876722604935
 30
0.0
 10
87.53919312693002
 20
119.4163563179444
 30
0.0
 10
87.56493553942798
 20
119.1831189022303
 30
0.0
 10
87.66624631579184
 20
118.7214423627322
 30
0.0
 10
87.74307895518278
 20
118.4905449756201
 30
0.0
 10
87.94348279439797
 20
118.0482689618284
 30
0.0
 10
88.06615429269002
 20
117.8372065305425
 30
0.0
 10
88.35610158185425
 20
117.4357080198099
 30
0.0
 10
88.52467256121949
 20
117.2448014977339
 30
0.0
 10
88.89294215533263
 20
116.9010761657369
 30
0.0
 10
89.09400401260295
 20
116.7459389795228
 30
0.0
 10
89.53103493118789
 20
116.470861619443
 30
0.0
 10
89.7631831443175
 20
116.353745390021
 30
0.0
 10
90.24419342581635
 20
116.1648189049565
 30
0.0
 10
90.49629350864679
 20
116.0917439345622
 30
0.0
 10
91.01336299490578
 20
115.9936918754277
 30
0.0
 10
91.27488436589842
 20
115.9690108946508
 30
0.0
 10
91.80397504321868
 20
115.9690108946508
 30
0.0
  0
LINE
  5
70
330
1F
100
AcDbEntity
  8
0
  6
Continuous
 62
     7
370
    15
100
AcDbLine
 10
88.4894297046
 20
125.1981040087
 30
0.0
 11
98.1474968731
 21
125.1981040087
 31
0.0
  0
LINE
  5
71
330
1F
100
AcDbEntity
  8
0
  6
Continuous
 62
     7
370
    15
100
AcDbLine
 10
98.1474968731
 20
75.1611863124
 30
0.0
 11
98.1474968731
 21
125.1981040087
 31
0.0
  0
LINE
  5
72
330
1F
100
AcDbEntity
  8
0
  6
Continuous
 62
     7
370
    15
100
AcDbLine
 10
98.1474968731
 20
75.1611863124
 30
0.0
 11
96.4894297046
 21
75.1611863124
 31
0.0
  0
SPLINE
  5
73
330
1F
100
AcDbEntity
  8
0
  6
Continuous
 62
     7
370
    15
100
AcDbSpline
210
0.0
220
0.0
230
1.0
 70
     8
 71
     3
 72
    28
 73
    24
 74
     0
 42
0.00000001
 43
0.00000001
 40
0.0
 40
0.0
 40
0.0
 40
0.0
 40
0.1250000000000001
 40
0.1250000000000001
 40
0.1875000000000001
 40
0.1875000000000001
 40
0.2500000000000001
 40
0.2500000000000001
 40
0.3750000000000001
 40
0.3750000000000001
 40
0.4375000000000003
 40
0.4375000000000003
 40
0.5000000000000003
 40
0.5000000000000003
 40
0.6250000000000002
 40
0.6250000000000002
 40
0.75
 40
0.75
 40
0.8125000000000001
 40
0.8125000000000001
 40
0.8750000000000001
 40
0.8750000000000001
 40
1.0
 40
1.0
 40
1.0
 40
1.0
 10
96.48942970455853
 20
75.16118631242027
 30
0.0
 10
95.95772194706562
 20
75.16118631242027
 30
0.0
 10
95.43548338175528
 20
75.14540159847006
 30
0.0
 10
94.66561289548028
 20
75.10040618439388
 30
0.0
 10
94.41125332328893
 20
75.08185118931814
 30
0.0
 10
93.90713174259044
 20
75.03799846687164
 30
0.0
 10
93.6574089251625
 20
75.01265385991944
 30
0.0
 10
92.93181897371609
 20
74.92925178216933
 30
0.0
 10
92.47345871213456
 20
74.86338622301825
 30
0.0
 10
91.82296076874067
 20
74.75441588252646
 30
0.0
 10
91.61127871794822
 20
74.7161762467598
 30
0.0
 10
91.2072072288102
 20
74.63841750934044
 30
0.0
 10
91.01470071498935
 20
74.5989165471651
 30
0.0
 10
90.46486574396808
 20
74.4800088047991
 30
0.0
 10
90.13493696565928
 20
74.40019112337448
 30
0.0
 10
89.55046569709057
 20
74.24684796157844
 30
0.0
 10
89.30418855907715
 20
74.17551420830917
 30
0.0
 10
89.00434576637907
 20
74.08157070123455
 30
0.0
 10
88.91588890930689
 20
74.05237690787462
 30
0.0
 10
88.76252755600176
 20
73.99891033361122
 30
0.0
 10
88.69743934177552
 20
73.97455099933605
 30
0.0
 10
88.54184532583473
 20
73.91096085389128
 30
0.0
 10
88.48942970455855
 20
73.88085791880202
 30
0.0
 10
88.48942970455855
 20
73.86398102580513
 30
0.0
  0
LINE
  5
74
330
1F
100
AcDbEntity
  8
0
  6
Continuous
 62
     7
370
    15
100
AcDbLine
 10
88.4894297046
 20
73.8639810258
 30
0.0
 11
88.4894297046
 21
73.8481040087
 31
0.0
  0
SPLINE
  5
75
330
1F
100
AcDbEntity
  8
0
  6
Continuous
 62
     7
370
    15
100
AcDbSpline
210
0.0
220
0.0
230
1.0
 70
     8
 71
     3
 72
    17
 73
    13
 74
     0
 42
0.00000001
 43
0.00000001
 40
0.0
 40
0.0
 40
0.0
 40
0.0
 40
0.1034796923964057
 40
0.2100239188807852
 40
0.3134862136955586
 40
0.4198361274354886
 40
0.5254127712915686
 40
0.6339610695419797
 40
0.7409508756305039
 40
0.8511696089308182
 40
0.9558996534551946
 40
1.0
 40
1.0
 40
1.0
 40
1.0
 10
96.48942970455853
 20
135.8152994818317
 30
0.0
 10
96.05418135544852
 20
135.820747678365
 30
0.0
 10
95.17079484888353
 20
135.8318054188768
 30
0.0
 10
93.88996726365487
 20
135.9181638117784
 30
0.0
 10
92.67255072778083
 20
136.0460339883161
 30
0.0
 10
91.56474487553427
 20
136.2049792869093
 30
0.0
 10
90.57650607158605
 20
136.3794729746249
 30
0.0
 10
89.75178251405453
 20
136.5486388252648
 30
0.0
 10
89.10282901339522
 20
136.6965226077931
 30
0.0
 10
88.6857941979335
 20
136.7983131920239
 30
0.0
 10
88.48719748496899
 20
136.8486647146271
 30
0.0
 10
88.51051020640227
 20
136.8427590304047
 30
0.0
 10
88.5174180636398
 20
136.8410091007101
 30
0.0
  0
LINE
  5
76
330
1F
100
AcDbEntity
  8
0
  6
Continuous
 62
     7
370
    15
100
AcDbLine
 10
98.1474968731
 20
135.8152994818
 30
0.0
 11
96.4894297046
 21
135.8152994818
 31
0.0
  0
LINE
  5
77
330
1F
100
AcDbEntity
  8
0
  6
Continuous
 62
     7
370
    15
100
AcDbLine
 10
98.1474968731
 20
129.806793671
 30
0.0
 11
98.1474968731
 21
135.8152994818
 31
0.0
  0
LINE
  5
78
330
1F
100
AcDbEntity
  8
0
  6
Continuous
 62
     7
370
    15
100
AcDbLine
 10
95.7350500502
 20
129.806793671
 30
0.0
 11
98.1474968731
 21
129.806793671
 31
0.0
  0
SPLINE
  5
79
330
1F
100
AcDbEntity
  8
0
  6
Continuous
 62
     7
370
    15
100
AcDbSpline
210
0.0
220
0.0
230
1.0
 70
     8
 71
     3
 72
    20
 73
    16
 74
     0
 42
0.00000001
 43
0.00000001
 40
0.0
 40
0.0
 40
0.0
 40
0.0
 40
0.25
 40
0.25
 40
0.375
 40
0.375
 40
0.5
 40
0.5
 40
0.625
 40
0.625
 40
0.75
 40
0.75
 40
0.875
 40
0.875
 40
1.0
 40
1.0
 40
1.0
 40
1.0
 10
88.48942970455855
 20
125.1981040086674
 30
0.0
 10
88.7378034388466
 20
125.8519664369648
 30
0.0
 10
89.05737353119186
 20
126.455752218962
 30
0.0
 10
89.67967976439655
 20
127.2825909551306
 30
0.0
 10
89.91110402482731
 20
127.5450195930835
 30
0.0
 10
90.43231836447701
 20
128.0416822471885
 30
0.0
 10
90.7189388471121
 20
128.27226912621
 30
0.0
 10
91.3384235884197
 20
128.6888233507926
 30
0.0
 10
91.67272396790668
 20
128.8763211527601
 30
0.0
 10
92.39798444053146
 20
129.2077181303966
 30
0.0
 10
92.77989949792193
 20
129.3472221178918
 30
0.0
 10
93.57468767409362
 20
129.5726756253628
 30
0.0
 10
93.9888458683
 20
129.6593017369064
 30
0.0
 10
94.85439220888139
 20
129.7772825257605
 30
0.0
 10
95.29227982389321
 20
129.8067936710349
 30
0.0
 10
95.73505005024782
 20
129.8067936710349
 30
0.0
  0
SPLINE
  5
7A
330
1F
100
AcDbEntity
  8
0
  6
Continuous
 62
     7
370
    15
100
AcDbSpline
210
0.0
220
0.0
230
1.0
 70
     8
 71
     3
 72
    70
 73
    66
 74
     0
 42
0.00000001
 43
0.00000001
 40
-0.03125
 40
-0.03125
 40
0.0
 40
0.0
 40
0.0312499999999998
 40
0.0312499999999998
 40
0.0624999999999997
 40
0.0624999999999997
 40
0.0937499999999995
 40
0.0937499999999995
 40
0.1249999999999994
 40
0.1249999999999994
 40
0.1562499999999992
 40
0.1562499999999992
 40
0.1874999999999991
 40
0.1874999999999991
 40
0.2187499999999989
 40
0.2187499999999989
 40
0.2499999999999988
 40
0.2499999999999988
 40
0.2812499999999988
 40
0.2812499999999988
 40
0.3124999999999988
 40
0.3124999999999988
 40
0.3437499999999988
 40
0.3437499999999988
 40
0.3749999999999988
 40
0.3749999999999988
 40
0.4062499999999988
 40
0.4062499999999988
 40
0.4374999999999988
 40
0.4374999999999988
 40
0.4687499999999989
 40
0.4687499999999989
 40
0.4999999999999989
 40
0.4999999999999989
 40
0.5312499999999991
 40
0.5312499999999991
 40
0.5624999999999992
 40
0.5624999999999992
 40
0.5937499999999994
 40
0.5937499999999994
 40
0.6249999999999996
 40
0.6249999999999996
 40
0.6562499999999998
 40
0.6562499999999998
 40
0.6875
 40
0.6875
 40
0.7187500000000001
 40
0.7187500000000001
 40
0.7500000000000003
 40
0.7500000000000003
 40
0.7812500000000003
 40
0.7812500000000003
 40
0.8125000000000002
 40
0.8125000000000002
 40
0.8437500000000002
 40
0.8437500000000002
 40
0.8750000000000001
 40
0.8750000000000001
 40
0.9062500000000001
 40
0.9062500000000001
 40
0.9375000000000001
 40
0.9375000000000001
 40
0.96875
 40
0.96875
 40
1.0
 40
1.0
 40
1.03125
 40
1.03125
 10
91.27488436589842
 20
130.4070674034466
 30
0.0
 10
91.8039750432187
 20
130.4070674034466
 30
0.0
 10
92.0640457105958
 20
130.4229678438614
 30
0.0
 10
92.57562039043121
 20
130.4849121940356
 30
0.0
 10
92.82979567417141
 20
130.531714428127
 30
0.0
 10
93.31406630423311
 20
130.652691411582
 30
0.0
 10
93.54370739611429
 20
130.7262937393889
 30
0.0
 10
93.97831174434776
 20
130.898118010367
 30
0.0
 10
94.18387752099439
 20
130.9971214332944
 30
0.0
 10
94.5524346615896
 20
131.2102178472072
 30
0.0
 10
94.7179156443251
 20
131.3251175633369
 30
0.0
 10
95.0103401537602
 20
131.5704844620272
 30
0.0
 10
95.1344411303867
 20
131.6989243624975
 30
0.0
 10
95.33402032713641
 20
131.9598165105834
 30
0.0
 10
95.41095391299469
 20
132.0941976819229
 30
0.0
 10
95.51381097151507
 20
132.3635176330292
 30
0.0
 10
95.53928388097418
 20
132.4961988972473
 30
0.0
 10
95.53957429154194
 20
132.7573853713783
 30
0.0
 10
95.51354965776622
 20
132.8871504095431
 30
0.0
 10
95.41140137327423
 20
133.1327330438157
 30
0.0
 10
95.33582492569107
 20
133.2493945811246
 30
0.0
 10
95.13532739454614
 20
133.4712997712792
 30
0.0
 10
95.01019855303774
 20
133.5759110252022
 30
0.0
 10
94.72083975201618
 20
133.7659574368103
 30
0.0
 10
94.55542876496071
 20
133.8527171082599
 30
0.0
 10
94.18243820681288
 20
134.0102214840115
 30
0.0
 10
93.98070517372376
 20
134.0785467487987
 30
0.0
 10
93.54784592289589
 20
134.1967764724179
 30
0.0
 10
93.31392739000651
 20
134.2470713885218
 30
0.0
 10
92.8297436548639
 20
134.3269369254114
 30
0.0
 10
92.5804280289084
 20
134.3566780532109
 30
0.0
 10
92.06739550448067
 20
134.3968307947192
 30
0.0
 10
91.80210168157605
 20
134.4070290641291
 30
0.0
 10
91.2797670617063
 20
134.4071055225138
 30
0.0
 10
91.02001339922455
 20
134.3973145109047
 30
0.0
 10
90.5034015835793
 20
134.357247672166
 30
0.0
 10
90.25103554307903
 20
134.3271505053092
 30
0.0
 10
89.76951042154622
 20
134.2479282954789
 30
0.0
 10
89.53665968943264
 20
134.1981708160156
 30
0.0
 10
89.09956984099388
 20
134.0790788735652
 30
0.0
 10
88.89824885233669
 20
134.0107636120179
 30
0.0
 10
88.5291628270368
 20
133.8553626450843
 30
0.0
 10
88.3601780759851
 20
133.7672103030175
 30
0.0
 10
88.0697220193259
 20
133.5767709139011
 30
0.0
 10
87.94665020796376
 20
133.474146336202
 30
0.0
 10
87.74531396654174
 20
133.2525059895939
 30
0.0
 10
87.66810142059951
 20
133.1337519140465
 30
0.0
 10
87.56589787769944
 20
132.8890859751288
 30
0.0
 10
87.53966952624711
 20
132.7619292496802
 30
0.0
 10
87.53919312693003
 20
132.4974811038246
 30
0.0
 10
87.56493553942798
 20
132.3645804235675
 30
0.0
 10
87.66624631579185
 20
132.0977881500854
 30
0.0
 10
87.7430789551828
 20
131.9624242486169
 30
0.0
 10
87.94348279439798
 20
131.6998444533143
 30
0.0
 10
88.06615429269002
 20
131.5728692935606
 30
0.0
 10
88.35610158185425
 20
131.3287899074781
 30
0.0
 10
88.52467256121949
 20
131.2113647827243
 30
0.0
 10
88.89294215533263
 20
130.9981683217759
 30
0.0
 10
89.09400401260295
 20
130.9009942033509
 30
0.0
 10
89.53103493118789
 20
130.7276393161368
 30
0.0
 10
89.7631831443175
 20
130.6532397644801
 30
0.0
 10
90.24419342581635
 20
130.5327868849755
 30
0.0
 10
90.49629350864679
 20
130.4859285097095
 30
0.0
 10
91.01336299490578
 20
130.4229710127257
 30
0.0
 10
91.27488436589842
 20
130.4070674034466
 30
0.0
 10
91.8039750432187
 20
130.4070674034466
 30
0.0
  0
LINE
  5
7B
330
1F
100
AcDbEntity
  8
0
  6
Continuous
 62
     7
370
    15
100
AcDbLine
 10
109.4894297046
 20
75.7878266081
 30
0.0
 11
109.4894297046
 21
125.1981040087
 31
0.0
  0
SPLINE
  5
7C
330
1F
100
AcDbEntity
  8
0
  6
Continuous
 62
     7
370
    15
100
AcDbSpline
210
0.0
220
0.0
230
1.0
 70
     8
 71
     3
 72
    10
 73
     6
 74
     0
 42
0.00000001
 43
0.00000001
 40
0.0
 40
0.0
 40
0.0
 40
0.0
 40
0.5
 40
0.5
 40
1.0
 40
1.0
 40
1.0
 40
1.0
 10
109.4894297045585
 20
75.78782660807461
 30
0.0
 10
109.4894297045585
 20
75.62793933988094
 30
0.0
 10
109.4281200533227
 20
75.46681208436634
 30
0.0
 10
109.2090204157876
 20
75.23271308601151
 30
0.0
 10
109.0509722094742
 20
75.16118631242028
 30
0.0
 10
108.8894297045586
 20
75.16118631242028
 30
0.0
  0
SPLINE
  5
7D
330
1F
100
AcDbEntity
  8
0
  6
Continuous
 62
     7
370
    15
100
AcDbSpline
210
0.0
220
0.0
230
1.0
 70
    24
 71
     3
 72
    12
 73
     8
 74
     0
 42
0.00000001
 43
0.00000001
 40
0.0
 40
0.0
 40
0.0
 40
0.0
 40
0.2500000000000013
 40
0.2500000000000013
 40
0.5000000000000027
 40
0.5000000000000027
 40
1.0
 40
1.0
 40
1.0
 40
1.0
 10
108.8894297045585
 20
125.1981040086674
 30
0.0
 10
108.9796687722456
 20
125.1981040086674
 30
0.0
 10
109.0705668863521
 20
125.1981040086674
 30
0.0
 10
109.2251639228406
 20
125.1981040086674
 30
0.0
 10
109.2901423389487
 20
125.1981040086675
 30
0.0
 10
109.441977366885
 20
125.1981040086674
 30
0.0
 10
109.4894297045585
 20
125.1981040086674
 30
0.0
 10
109.4894297045585
 20
125.1981040086674
 30
0.0
  0
LINE
  5
7E
330
1F
100
AcDbEntity
  8
0
  6
Continuous
 62
     7
370
    15
100
AcDbLine
 10
104.931362536
 20
75.1611863124
 30
0.0
 11
104.931362536
 21
125.1981040087
 31
0.0
  0
SPLINE
  5
7F
330
1F
100
AcDbEntity
  8
0
  6
Continuous
 62
     7
370
    15
100
AcDbSpline
210
0.0
220
0.0
230
1.0
 70
     8
 71
     3
 72
     8
 73
     4
 74
     0
 42
0.00000001
 43
0.00000001
 40
0.0
 40
0.0
 40
0.0
 40
0.0
 40
1.0
 40
1.0
 40
1.0
 40
1.0
 10
104.9313625360476
 20
75.16118631242028
 30
0.0
 10
104.4358828753819
 20
76.05671240035365
 30
0.0
 10
103.9417688273397
 20
76.95299681540591
 30
0.0
 10
103.4494297045585
 20
77.85026684961261
 30
0.0
  0
LINE
  5
80
330
1F
100
AcDbEntity
  8
0
  6
Continuous
 62
     7
370
    15
100
AcDbLine
 10
103.4494297046
 20
77.8502668496
 30
0.0
 11
103.4494297046
 21
125.1981040087
 31
0.0
  0
SPLINE
  5
81
330
1F
100
AcDbEntity
  8
0
  6
Continuous
 62
     7
370
    15
100
AcDbSpline
210
0.0
220
0.0
230
1.0
 70
    24
 71
     3
 72
     8
 73
     4
 74
     0
 42
0.00000001
 43
0.00000001
 40
0.0
 40
0.0
 40
0.0
 40
0.0
 40
1.0
 40
1.0
 40
1.0
 40
1.0
 10
103.4494297045585
 20
125.1981040086674
 30
0.0
 10
103.9293816989234
 20
125.1981040086674
 30
0.0
 10
104.4246824278971
 20
125.1981040086674
 30
0.0
 10
104.9313625360476
 20
125.1981040086674
 30
0.0
  0
LINE
  5
82
330
1F
100
AcDbEntity
  8
0
  6
Continuous
 62
     7
370
    15
100
AcDbLine
 10
108.8894297046
 20
75.1611863124
 30
0.0
 11
104.931362536
 21
75.1611863124
 31
0.0
  0
LINE
  5
83
330
1F
100
AcDbEntity
  8
0
  6
Continuous
 62
     7
370
    15
100
AcDbLine
 10
104.931362536
 20
125.1981040087
 30
0.0
 11
108.8894297046
 21
125.1981040087
 31
0.0
  0
LINE
  5
84
330
1F
100
AcDbEntity
  8
0
  6
Continuous
 62
     7
370
    15
100
AcDbLine
 10
83.5394297046
 20
74.1481040087
 30
0.0
 11
83.5394297046
 21
136.5481040087
 31
0.0
  0
LINE
  5
85
330
1F
100
AcDbEntity
  8
0
  6
Continuous
 62
     7
370
    15
100
AcDbLine
 10
99.6294297046
 20
77.8502668496
 30
0.0
 11
99.6294297046
 21
125.1981040087
 31
0.0
  0
SPLINE
  5
86
330
1F
100
AcDbEntity
  8
0
  6
Continuous
 62
     7
370
    15
100
AcDbSpline
210
0.0
220
0.0
230
1.0
 70
     8
 71
     3
 72
     8
 73
     4
 74
     0
 42
0.00000001
 43
0.00000001
 40
0.0
 40
0.0
 40
0.0
 40
0.0
 40
1.0
 40
1.0
 40
1.0
 40
1.0
 10
99.62942970455856
 20
77.85026684961258
 30
0.0
 10
99.13709058177737
 20
76.95299681540588
 30
0.0
 10
98.64297653373524
 20
76.05671240035363
 30
0.0
 10
98.14749687306949
 20
75.16118631242028
 30
0.0
  0
SPLINE
  5
87
330
1F
100
AcDbEntity
  8
0
  6
Continuous
 62
     7
370
    15
100
AcDbSpline
210
0.0
220
0.0
230
1.0
 70
    24
 71
     3
 72
     8
 73
     4
 74
     0
 42
0.00000001
 43
0.00000001
 40
0.0
 40
0.0
 40
0.0
 40
0.0
 40
1.0
 40
1.0
 40
1.0
 40
1.0
 10
98.14749687306947
 20
125.1981040086674
 30
0.0
 10
98.65417698122
 20
125.1981040086674
 30
0.0
 10
99.14947771019364
 20
125.1981040086674
 30
0.0
 10
99.62942970455856
 20
125.1981040086674
 30
0.0
  0
ARC
  5
88
330
1F
100
AcDbEntity
  8
0
  6
Continuous
 62
     7
370
    15
100
AcDbCircle
 10
91.5372804925
 20
117.2615522749
 30
0.0
 40
4.108559335819256
100
AcDbArc
 50
18.9925603252
 51
160.0201117809
  0
SPLINE
  5
89
330
1F
100
AcDbEntity
  8
0
  6
Continuous
 62
     7
370
    15
100
AcDbSpline
210
0.0
220
0.0
230
1.0
 70
    24
 71
     3
 72
    14
 73
    10
 74
     0
 42
0.00000001
 43
0.00000001
 40
0.0
 40
0.0
 40
0.0
 40
0.0
 40
0.4999999999999989
 40
0.4999999999999989
 40
0.7499999999999994
 40
0.7499999999999994
 40
0.8749999999999997
 40
0.8749999999999997
 40
1.0
 40
1.0
 40
1.0
 40
1.0
 10
103.3517549022263
 20
78.94810400866744
 30
0.0
 10
103.3049701971781
 20
78.94810400866744
 30
0.0
 10
103.2429190003984
 20
78.94810400866744
 30
0.0
 10
103.0995273618477
 20
78.94810400866744
 30
0.0
 10
103.0433837082966
 20
78.94810400866744
 30
0.0
 10
102.9304326861605
 20
78.94810400866743
 30
0.0
 10
102.8874319241224
 20
78.94810400866744
 30
0.0
 10
102.7833692138159
 20
78.94810400866744
 30
0.0
 10
102.718036975459
 20
78.94810400866743
 30
0.0
 10
102.6494297045586
 20
78.94810400866744
 30
0.0
  0
SPLINE
  5
8A
330
1F
100
AcDbEntity
  8
0
  6
Continuous
 62
     7
370
    15
100
AcDbSpline
210
0.0
220
0.0
230
1.0
 70
    24
 71
     3
 72
    12
 73
     8
 74
     0
 42
0.00000001
 43
0.00000001
 40
0.0
 40
0.0
 40
0.0
 40
0.0
 40
0.4999999999999983
 40
0.4999999999999983
 40
0.7499999999999991
 40
0.7499999999999991
 40
1.0
 40
1.0
 40
1.0
 40
1.0
 10
103.0551321728676
 20
131.7481040086674
 30
0.0
 10
103.0120466232566
 20
131.7481040086674
 30
0.0
 10
102.9628944215062
 20
131.7481040086674
 30
0.0
 10
102.8664218272191
 20
131.7481040086674
 30
0.0
 10
102.8303202420843
 20
131.7481040086674
 30
0.0
 10
102.7472144842236
 20
131.7481040086674
 30
0.0
 10
102.6992178872563
 20
131.7481040086674
 30
0.0
 10
102.6494297045585
 20
131.7481040086674
 30
0.0
  0
SPLINE
  5
8B
330
1F
100
AcDbEntity
  8
0
  6
Continuous
 62
     7
370
    15
100
AcDbSpline
210
0.0
220
0.0
230
1.0
 70
     8
 71
     3
 72
    10
 73
     6
 74
     0
 42
0.00000001
 43
0.00000001
 40
0.0
 40
0.0
 40
0.0
 40
0.0
 40
0.5
 40
0.5
 40
1.0
 40
1.0
 40
1.0
 40
1.0
 10
103.4494297045585
 20
132.4677578597032
 30
0.0
 10
103.4494297045585
 20
132.3239878018852
 30
0.0
 10
103.4133806458397
 20
132.18156843939
 30
0.0
 10
103.2778717850657
 20
131.9316741460328
 30
0.0
 10
103.1779957919695
 20
131.8236438097846
 30
0.0
 10
103.0551321728676
 20
131.7481040086674
 30
0.0
  0
SPLINE
  5
8C
330
1F
100
AcDbEntity
  8
0
  6
Continuous
 62
     7
370
    15
100
AcDbSpline
210
0.0
220
0.0
230
1.0
 70
     8
 71
     3
 72
    10
 73
     6
 74
     0
 42
0.00000001
 43
0.00000001
 40
0.0
 40
0.0
 40
0.0
 40
0.0
 40
0.5
 40
0.5
 40
1.0
 40
1.0
 40
1.0
 40
1.0
 10
103.4232820813984
 20
125.1981040086674
 30
0.0
 10
103.4319717243101
 20
125.2449828579856
 30
0.0
 10
103.4385107890606
 20
125.2924053233869
 30
0.0
 10
103.4472694234536
 20
125.3883421219737
 30
0.0
 10
103.4494297045585
 20
125.4362574099842
 30
0.0
 10
103.4494297045586
 20
125.4839706401288
 30
0.0
  0
SPLINE
  5
8D
330
1F
100
AcDbEntity
  8
0
  6
Continuous
 62
     7
370
    15
100
AcDbSpline
210
0.0
220
0.0
230
1.0
 70
     8
 71
     3
 72
    10
 73
     6
 74
     0
 42
0.00000001
 43
0.00000001
 40
0.0
 40
0.0
 40
0.0
 40
0.0
 40
0.5
 40
0.5
 40
1.0
 40
1.0
 40
1.0
 40
1.0
 10
100.0237272362495
 20
131.7481040086674
 30
0.0
 10
99.90218697258096
 20
131.8228301758792
 30
0.0
 10
99.80085261223205
 20
131.931775191796
 30
0.0
 10
99.66521366934363
 20
132.1822056725576
 30
0.0
 10
99.62942970455856
 20
132.3246250346565
 30
0.0
 10
99.62942970455856
 20
132.4677578597032
 30
0.0
  0
SPLINE
  5
8E
330
1F
100
AcDbEntity
  8
0
  6
Continuous
 62
     7
370
    15
100
AcDbSpline
210
0.0
220
0.0
230
1.0
 70
    24
 71
     3
 72
    12
 73
     8
 74
     0
 42
0.00000001
 43
0.00000001
 40
0.0
 40
0.0
 40
0.0
 40
0.0
 40
0.2500000000000021
 40
0.2500000000000021
 40
0.5000000000000041
 40
0.5000000000000041
 40
1.0
 40
1.0
 40
1.0
 40
1.0
 10
100.4294297045585
 20
131.7481040086674
 30
0.0
 10
100.3795530222408
 20
131.7481040086674
 30
0.0
 10
100.3315498288376
 20
131.7481040086674
 30
0.0
 10
100.2485017261255
 20
131.7481040086674
 30
0.0
 10
100.2123721466577
 20
131.7481040086674
 30
0.0
 10
100.1164601157134
 20
131.7481040086674
 30
0.0
 10
100.0667014477447
 20
131.7481040086674
 30
0.0
 10
100.0237272362495
 20
131.7481040086674
 30
0.0
  0
SPLINE
  5
8F
330
1F
100
AcDbEntity
  8
0
  6
Continuous
 62
     7
370
    15
100
AcDbSpline
210
0.0
220
0.0
230
1.0
 70
    24
 71
     3
 72
    14
 73
    10
 74
     0
 42
0.00000001
 43
0.00000001
 40
0.0
 40
0.0
 40
0.0
 40
0.0
 40
0.1249999999999991
 40
0.1249999999999991
 40
0.2499999999999982
 40
0.2499999999999982
 40
0.4999999999999998
 40
0.4999999999999998
 40
1.0
 40
1.0
 40
1.0
 40
1.0
 10
100.4294297045585
 20
78.94810400866744
 30
0.0
 10
100.3609918566721
 20
78.94810400866744
 30
0.0
 10
100.295441817907
 20
78.94810400866744
 30
0.0
 10
100.1910151784992
 20
78.94810400866744
 30
0.0
 10
100.1484705687376
 20
78.94810400866744
 30
0.0
 10
100.0358611081975
 20
78.94810400866743
 30
0.0
 10
99.98032206117784
 20
78.94810400866744
 30
0.0
 10
99.83771036571406
 20
78.94810400866743
 30
0.0
 10
99.77430501071838
 20
78.94810400866743
 30
0.0
 10
99.72710450689083
 20
78.94810400866744
 30
0.0
  0
SPLINE
  5
90
330
1F
100
AcDbEntity
  8
0
  6
Continuous
 62
     7
370
    15
100
AcDbSpline
210
0.0
220
0.0
230
1.0
 70
     8
 71
     3
 72
    10
 73
     6
 74
     0
 42
0.00000001
 43
0.00000001
 40
0.0
 40
0.0
 40
0.0
 40
0.0
 40
0.5
 40
0.5
 40
1.0
 40
1.0
 40
1.0
 40
1.0
 10
99.62942970455855
 20
125.4839706401288
 30
0.0
 10
99.62942970455855
 20
125.4361991321355
 30
0.0
 10
99.6315909481557
 20
125.3884894100739
 30
0.0
 10
99.64026232201589
 20
125.2931942925256
 30
0.0
 10
99.64679150497186
 20
125.2455017285589
 30
0.0
 10
99.65557732771867
 20
125.1981040086674
 30
0.0
  0
LINE
  5
91
330
1F
100
AcDbEntity
  8
0
  6
Continuous
 62
     7
370
    15
100
AcDbLine
 10
102.6494297046
 20
131.7481040087
 30
0.0
 11
100.4294297046
 21
131.7481040087
 31
0.0
  0
LINE
  5
92
330
1F
100
AcDbEntity
  8
0
  6
Continuous
 62
     7
370
    15
100
AcDbLine
 10
102.6494297046
 20
78.9481040087
 30
0.0
 11
100.4294297046
 21
78.9481040087
 31
0.0
  0
LINE
  5
93
330
1F
100
AcDbEntity
  8
0
  6
Continuous
 62
     7
370
    15
100
AcDbLine
 10
61.7394297046
 20
82.1196571149
 30
0.0
 11
61.7394297046
 21
83.3843664775
 31
0.0
  0
SPLINE
  5
94
330
1F
100
AcDbEntity
  8
0
  6
Continuous
 62
     7
370
    15
100
AcDbSpline
210
0.0
220
0.0
230
1.0
 70
     8
 71
     3
 72
    14
 73
    10
 74
     0
 42
0.00000001
 43
0.00000001
 40
0.0
 40
0.0
 40
0.0
 40
0.0
 40
0.25
 40
0.25
 40
0.5
 40
0.5
 40
0.75
 40
0.75
 40
1.0
 40
1.0
 40
1.0
 40
1.0
 10
60.96114258664284
 20
84.51495268510749
 30
0.0
 10
61.0177692618449
 20
84.40725523127063
 30
0.0
 10
61.11229192213465
 20
84.3044656495513
 30
0.0
 10
61.29533689769688
 20
84.10610833733116
 30
0.0
 10
61.3869634746516
 20
84.01004882865291
 30
0.0
 10
61.54581679234479
 20
83.82251978594367
 30
0.0
 10
61.61370739996649
 20
83.7311108131601
 30
0.0
 10
61.71062442567408
 20
83.55273459224996
 30
0.0
 10
61.73942970455913
 20
83.46551268600379
 30
0.0
 10
61.73942970455913
 20
83.38436647746953
 30
0.0
  0
SPLINE
  5
95
330
1F
100
AcDbEntity
  8
0
  6
Continuous
 62
     7
370
    15
100
AcDbSpline
210
0.0
220
0.0
230
1.0
 70
     8
 71
     3
 72
    14
 73
    10
 74
     0
 42
0.00000001
 43
0.00000001
 40
0.0
 40
0.0
 40
0.0
 40
0.0
 40
0.1250000000000004
 40
0.1250000000000004
 40
0.2500000000000009
 40
0.2500000000000009
 40
0.5000000000000018
 40
0.5000000000000018
 40
1.0
 40
1.0
 40
1.0
 40
1.0
 10
60.33942970455856
 20
84.9616345473868
 30
0.0
 10
60.38797411321573
 20
84.9673828606671
 30
0.0
 10
60.44088946800062
 20
84.96428197201085
 30
0.0
 10
60.53618481298366
 20
84.94208712784852
 30
0.0
 10
60.57643581026861
 20
84.92485490075268
 30
0.0
 10
60.68070582378159
 20
84.86852698430062
 30
0.0
 10
60.73102779893491
 20
84.82434063835481
 30
0.0
 10
60.85871074646028
 20
84.69333273950417
 30
0.0
 10
60.91479619352256
 20
84.60309821927389
 30
0.0
 10
60.96114258664429
 20
84.51495268510801
 30
0.0
  0
SPLINE
  5
96
330
1F
100
AcDbEntity
  8
0
  6
Continuous
 62
     7
370
    15
100
AcDbSpline
210
0.0
220
0.0
230
1.0
 70
     8
 71
     3
 72
     8
 73
     4
 74
     0
 42
0.00000001
 43
0.00000001
 40
0.0
 40
0.0
 40
0.0
 40
0.0
 40
1.0
 40
1.0
 40
1.0
 40
1.0
 10
58.07090461161228
 20
84.651789260804
 30
0.0
 10
58.80548163809525
 20
84.77041427187295
 30
0.0
 10
59.56895670749092
 20
84.87040014400925
 30
0.0
 10
60.33942970455855
 20
84.9616345473868
 30
0.0
  0
SPLINE
  5
97
330
1F
100
AcDbEntity
  8
0
  6
Continuous
 62
     7
370
    15
100
AcDbSpline
210
0.0
220
0.0
230
1.0
 70
     8
 71
     3
 72
    14
 73
    10
 74
     0
 42
0.00000001
 43
0.00000001
 40
0.0
 40
0.0
 40
0.0
 40
0.0
 40
0.5000000000000001
 40
0.5000000000000001
 40
0.7500000000000002
 40
0.7500000000000002
 40
0.8750000000000001
 40
0.8750000000000001
 40
1.0
 40
1.0
 40
1.0
 40
1.0
 10
52.78942970455856
 20
84.47816624327237
 30
0.0
 10
53.68157583511214
 20
84.47744401707172
 30
0.0
 10
54.57155227090571
 20
84.48203022352918
 30
0.0
 10
55.8981474379813
 20
84.50975522792073
 30
0.0
 10
56.33899436648003
 20
84.5223617655449
 30
0.0
 10
56.99543460390244
 20
84.55337791355232
 30
0.0
 10
57.21344826049432
 20
84.56572108617911
 30
0.0
 10
57.64615711417709
 20
84.59874514134239
 30
0.0
 10
57.86143357934187
 20
84.61796230648083
 30
0.0
 10
58.07090461161227
 20
84.65178926080401
 30
0.0
  0
SPLINE
  5
98
330
1F
100
AcDbEntity
  8
0
  6
Continuous
 62
     7
370
    15
100
AcDbSpline
210
0.0
220
0.0
230
1.0
 70
     8
 71
     3
 72
     8
 73
     4
 74
     0
 42
0.00000001
 43
0.00000001
 40
0.0000005163856712
 40
0.0000005163856712
 40
0.0000005163856712
 40
0.0000005163856712
 40
0.000026289209185
 40
0.000026289209185
 40
0.000026289209185
 40
0.000026289209185
 10
52.77938477413988
 20
84.48815011638024
 30
0.0
 10
52.78271251235135
 20
84.48481586950741
 30
0.0
 10
52.78606096533064
 20
84.4814879122284
 30
0.0
 10
52.78942970455854
 20
84.47816624327236
 30
0.0
  0
SPLINE
  5
99
330
1F
100
AcDbEntity
  8
0
  6
Continuous
 62
     7
370
    15
100
AcDbSpline
210
0.0
220
0.0
230
1.0
 70
     8
 71
     3
 72
     8
 73
     4
 74
     0
 42
0.00000001
 43
0.00000001
 40
0.0000005099763573
 40
0.0000005099763573
 40
0.0000005099763573
 40
0.0000005099763573
 40
0.0000262827998699
 40
0.0000262827998699
 40
0.0000262827998699
 40
0.0000262827998699
 10
52.78942970455854
 20
126.2180417740625
 30
0.0
 10
52.7860609653308
 20
126.2147201051066
 30
0.0
 10
52.78271251235167
 20
126.2113921478278
 30
0.0
 10
52.77938477414033
 20
126.2080579009551
 30
0.0
  0
SPLINE
  5
9A
330
1F
100
AcDbEntity
  8
0
  6
Continuous
 62
     7
370
    15
100
AcDbSpline
210
0.0
220
0.0
230
1.0
 70
     8
 71
     3
 72
    10
 73
     6
 74
     0
 42
0.00000001
 43
0.00000001
 40
0.0
 40
0.0
 40
0.0
 40
0.0
 40
0.5
 40
0.5
 40
1.0
 40
1.0
 40
1.0
 40
1.0
 10
56.33942970455856
 20
126.1711914004952
 30
0.0
 10
55.75184415746796
 20
126.1922569207316
 30
0.0
 10
55.16109776400759
 20
126.2030154066038
 30
0.0
 10
53.97707859870872
 20
126.2163801871395
 30
0.0
 10
53.38366461050326
 20
126.2185228298041
 30
0.0
 10
52.78942970455855
 20
126.2180417740625
 30
0.0
  0
SPLINE
  5
9B
330
1F
100
AcDbEntity
  8
0
  6
Continuous
 62
     7
370
    15
100
AcDbSpline
210
0.0
220
0.0
230
1.0
 70
     8
 71
     3
 72
    18
 73
    14
 74
     0
 42
0.00000001
 43
0.00000001
 40
0.0
 40
0.0
 40
0.0
 40
0.0
 40
0.2499999999999984
 40
0.2499999999999984
 40
0.4999999999999976
 40
0.4999999999999976
 40
0.7499999999999967
 40
0.7499999999999967
 40
0.8749999999999979
 40
0.8749999999999979
 40
0.937499999999999
 40
0.937499999999999
 40
1.0
 40
1.0
 40
1.0
 40
1.0
 10
57.73942970455857
 20
127.1922116810304
 30
0.0
 10
57.73942970455856
 20
127.1090047721732
 30
0.0
 10
57.7035806046203
 20
127.0202681168597
 30
0.0
 10
57.57870886858638
 20
126.8381429262994
 30
0.0
 10
57.48830845093851
 20
126.7430128776728
 30
0.0
 10
57.26606579619634
 20
126.5538313685485
 30
0.0
 10
57.13630100975056
 20
126.4588862004538
 30
0.0
 10
56.89566355243904
 20
126.3206074928738
 30
0.0
 10
56.8078962543016
 20
126.2748970595715
 30
0.0
 10
56.65337216709479
 20
126.21707375435
 30
0.0
 10
56.59676128104003
 20
126.1993589903121
 30
0.0
 10
56.47271725013345
 20
126.1748196870792
 30
0.0
 10
56.40500257511515
 20
126.1688405485409
 30
0.0
 10
56.33942970455856
 20
126.1711914004952
 30
0.0
  0
LINE
  5
9C
330
1F
100
AcDbEntity
  8
0
  6
Continuous
 62
     7
370
    15
100
AcDbLine
 10
57.7394297046
 20
127.192211681
 30
0.0
 11
57.7394297046
 21
128.3761501009
 31
0.0
  0
LINE
  5
9D
330
1F
100
AcDbEntity
  8
0
  6
Continuous
 62
     7
370
    15
100
AcDbLine
 10
81.5394297046
 20
81.1276731469
 30
0.0
 11
81.5394297046
 21
129.5685348704
 31
0.0
  0
SPLINE
  5
9E
330
1F
100
AcDbEntity
  8
0
  6
Continuous
 62
     7
370
    15
100
AcDbSpline
210
0.0
220
0.0
230
1.0
 70
     8
 71
     3
 72
    18
 73
    14
 74
     0
 42
0.00000001
 43
0.00000001
 40
0.0
 40
0.0
 40
0.0
 40
0.0
 40
0.0010671296451831
 40
0.1270947795731633
 40
0.2524053457512758
 40
0.3766468878987075
 40
0.4391415999050405
 40
0.5008278021400039
 40
0.5624255708808992
 40
0.6253162439161173
 40
0.7499985144706733
 40
0.8752758950341271
 40
0.9999999999999999
 40
0.9999999999999999
 40
0.9999999999999999
 40
0.9999999999999999
 10
70.30973054463122
 20
81.69076498575109
 30
0.0
 10
70.30881871199273
 20
81.69065020721447
 30
0.0
 10
70.20021975335588
 20
81.67698012234848
 30
0.0
 10
70.58786082100553
 20
81.72789962296422
 30
0.0
 10
71.45382550284096
 20
81.82748279601049
 30
0.0
 10
72.65422942760965
 20
81.89660667915464
 30
0.0
 10
73.7118053420997
 20
81.90055890829251
 30
0.0
 10
74.53893942900525
 20
81.87306996983808
 30
0.0
 10
75.36421129664102
 20
81.81452979343095
 30
0.0
 10
76.41857651663915
 20
81.70100863369434
 30
0.0
 10
77.58041279811528
 20
81.51785780944624
 30
0.0
 10
78.53264757949853
 20
81.31325459981116
 30
0.0
 10
78.65835264030645
 20
81.28396924903511
 30
0.0
 10
78.72106607245166
 20
81.26935897919444
 30
0.0
  0
SPLINE
  5
9F
330
1F
100
AcDbEntity
  8
0
  6
Continuous
 62
     7
370
    15
100
AcDbSpline
210
0.0
220
0.0
230
1.0
 70
     8
 71
     3
 72
    18
 73
    14
 74
     0
 42
0.00000001
 43
0.00000001
 40
0.0
 40
0.0
 40
0.0
 40
0.0
 40
0.1249080880615186
 40
0.2505384005827851
 40
0.3748721824256792
 40
0.4374907636253189
 40
0.4990776247952343
 40
0.5607931517551704
 40
0.6233901319009026
 40
0.747819101704548
 40
0.8731940972834111
 40
0.9991614619872062
 40
1.0
 40
1.0
 40
1.0
 40
1.0
 10
78.7208468754573
 20
129.4267837639851
 30
0.0
 10
78.65708929785686
 20
129.412118353144
 30
0.0
 10
78.52920549333346
 20
129.3827027353643
 30
0.0
 10
77.5771751459473
 20
129.1777476823948
 30
0.0
 10
76.41669586987406
 20
128.9944942762847
 30
0.0
 10
75.36443139354643
 20
128.8814666552501
 30
0.0
 10
74.54020429122806
 20
128.8232030124678
 30
0.0
 10
73.71260048856035
 20
128.795756626736
 30
0.0
 10
72.65378345781902
 20
128.7997414139732
 30
0.0
 10
71.45156353154438
 20
128.8688310362397
 30
0.0
 10
70.58638471281812
 20
128.9684566435007
 30
0.0
 10
70.20023151076629
 20
129.0192742379894
 30
0.0
 10
70.30831192394558
 20
129.0056010020461
 30
0.0
 10
70.30902663464082
 20
129.0055105841094
 30
0.0
  0
SPLINE
  5
A0
330
1F
100
AcDbEntity
  8
0
  6
Continuous
 62
     7
370
    15
100
AcDbSpline
210
0.0
220
0.0
230
1.0
 70
     8
 71
     3
 72
    10
 73
     6
 74
     0
 42
0.00000001
 43
0.00000001
 40
0.0
 40
0.0
 40
0.0
 40
0.0
 40
0.5
 40
0.5
 40
1.0
 40
1.0
 40
1.0
 40
1.0
 10
51.6394297045579
 20
85.65742626218994
 30
0.0
 10
51.63942970455786
 20
85.62855199733055
 30
0.0
 10
51.64962361431896
 20
85.61104844095202
 30
0.0
 10
51.6763742191271
 20
85.61051687812429
 30
0.0
 10
51.69326167105842
 20
85.62818433530384
 30
0.0
 10
51.70209307928194
 20
85.67355146388671
 30
0.0
  0
LINE
  5
A1
330
1F
100
AcDbEntity
  8
0
  6
Continuous
 62
     7
370
    15
100
AcDbLine
 10
51.6394297046
 20
85.6574262622
 30
0.0
 11
51.6394297046
 21
125.0387817551
 31
0.0
  0
SPLINE
  5
A2
330
1F
100
AcDbEntity
  8
0
  6
Continuous
 62
     7
370
    15
100
AcDbSpline
210
0.0
220
0.0
230
1.0
 70
     8
 71
     3
 72
    10
 73
     6
 74
     0
 42
0.00000001
 43
0.00000001
 40
0.0
 40
0.0
 40
0.0
 40
0.0
 40
0.5
 40
0.5
 40
1.0
 40
1.0
 40
1.0
 40
1.0
 10
51.70209307928194
 20
125.0226565534482
 30
0.0
 10
51.6931887901732
 20
125.0683980726614
 30
0.0
 10
51.67667340998022
 20
125.0855889121303
 30
0.0
 10
51.64956546391861
 20
125.0852656351946
 30
0.0
 10
51.63942970455855
 20
125.0673880928982
 30
0.0
 10
51.63942970455855
 20
125.0387817551456
 30
0.0
  0
SPLINE
  5
A3
330
1F
100
AcDbEntity
  8
0
  6
Continuous
 62
     7
370
    15
100
AcDbSpline
210
0.0
220
0.0
230
1.0
 70
     8
 71
     3
 72
    26
 73
    22
 74
     0
 42
0.00000001
 43
0.00000001
 40
0.0
 40
0.0
 40
0.0
 40
0.0
 40
0.2499999999999942
 40
0.2499999999999942
 40
0.3749999999999899
 40
0.3749999999999899
 40
0.4374999999999888
 40
0.4374999999999888
 40
0.4687499999999888
 40
0.4687499999999888
 40
0.4999999999999888
 40
0.4999999999999888
 40
0.5312499999999887
 40
0.5312499999999887
 40
0.5624999999999887
 40
0.5624999999999887
 40
0.6249999999999912
 40
0.6249999999999912
 40
0.7499999999999942
 40
0.7499999999999942
 40
1.0
 40
1.0
 40
1.0
 40
1.0
 10
52.46358335066308
 20
125.7382233422653
 30
0.0
 10
52.42498282779459
 20
125.6204486459098
 30
0.0
 10
52.37868582524033
 20
125.4960589597479
 30
0.0
 10
52.2847464768064
 20
125.2908396273944
 30
0.0
 10
52.24943500989293
 20
125.219266760948
 30
0.0
 10
52.18325503414727
 20
125.1033135283475
 30
0.0
 10
52.15871666747904
 20
125.0627289935373
 30
0.0
 10
52.11534392192522
 20
124.9985873116655
 30
0.0
 10
52.09983552050004
 20
124.9767208863804
 30
0.0
 10
52.06479287591301
 20
124.9311266180373
 30
0.0
 10
52.04524258519322
 20
124.9074563270698
 30
0.0
 10
52.00331530482261
 20
124.8628397677299
 30
0.0
 10
51.98066319459098
 20
124.841959755212
 30
0.0
 10
51.93968948050437
 20
124.8110863414612
 30
0.0
 10
51.92209018060895
 20
124.8012474716288
 30
0.0
 10
51.87746319475281
 20
124.7822578559326
 30
0.0
 10
51.85690397209948
 20
124.7819335312792
 30
0.0
 10
51.80577853260282
 20
124.7911569721554
 30
0.0
 10
51.78486711961428
 20
124.8124038683724
 30
0.0
 10
51.73341721205334
 20
124.8863727472031
 30
0.0
 10
51.71575191274877
 20
124.9524908405179
 30
0.0
 10
51.70209307928194
 20
125.0226565534482
 30
0.0
  0
SPLINE
  5
A4
330
1F
100
AcDbEntity
  8
0
  6
Continuous
 62
     7
370
    15
100
AcDbSpline
210
0.0
220
0.0
230
1.0
 70
     8
 71
     3
 72
    10
 73
     6
 74
     0
 42
0.00000001
 43
0.00000001
 40
0.0
 40
0.0
 40
0.0
 40
0.0
 40
0.5
 40
0.5
 40
1.0
 40
1.0
 40
1.0
 40
1.0
 10
52.77938477414035
 20
126.2080579009551
 30
0.0
 10
52.71182551922212
 20
126.1403665081453
 30
0.0
 10
52.64818886388561
 20
126.0656593433917
 30
0.0
 10
52.53796810931376
 20
125.9066932109651
 30
0.0
 10
52.49115181609114
 20
125.8223379449571
 30
0.0
 10
52.46358335066308
 20
125.7382233422653
 30
0.0
  0
SPLINE
  5
A5
330
1F
100
AcDbEntity
  8
0
  6
Continuous
 62
     7
370
    15
100
AcDbSpline
210
0.0
220
0.0
230
1.0
 70
     8
 71
     3
 72
    10
 73
     6
 74
     0
 42
0.00000001
 43
0.00000001
 40
0.0
 40
0.0
 40
0.0
 40
0.0
 40
0.5
 40
0.5
 40
1.0
 40
1.0
 40
1.0
 40
1.0
 10
52.46358335066311
 20
84.95798467506947
 30
0.0
 10
52.49106076541632
 20
84.87414787860388
 30
0.0
 10
52.53776939570397
 20
84.78983739101703
 30
0.0
 10
52.64804785844593
 20
84.63071616053419
 30
0.0
 10
52.71193539705755
 20
84.55573141644611
 30
0.0
 10
52.77938477413989
 20
84.48815011638024
 30
0.0
  0
SPLINE
  5
A6
330
1F
100
AcDbEntity
  8
0
  6
Continuous
 62
     7
370
    15
100
AcDbSpline
210
0.0
220
0.0
230
1.0
 70
     8
 71
     3
 72
    24
 73
    20
 74
     0
 42
0.00000001
 43
0.00000001
 40
0.0
 40
0.0
 40
0.0
 40
0.0
 40
0.2499999999999893
 40
0.2499999999999893
 40
0.3749999999999847
 40
0.3749999999999847
 40
0.4374999999999823
 40
0.4374999999999823
 40
0.4687499999999816
 40
0.4687499999999816
 40
0.4999999999999808
 40
0.4999999999999808
 40
0.5624999999999839
 40
0.5624999999999839
 40
0.624999999999987
 40
0.624999999999987
 40
0.7499999999999907
 40
0.7499999999999907
 40
1.0
 40
1.0
 40
1.0
 40
1.0
 10
51.70209307928196
 20
85.6735514638867
 30
0.0
 10
51.71584619795219
 20
85.74420152187697
 30
0.0
 10
51.73361876535804
 20
85.8107996346419
 30
0.0
 10
51.78586985691341
 20
85.88489765487512
 30
0.0
 10
51.80690493249496
 20
85.90615546203666
 30
0.0
 10
51.85980534012339
 20
85.9143013881829
 30
0.0
 10
51.88091101300131
 20
85.91336158478714
 30
0.0
 10
51.92696318167928
 20
85.8923455932098
 30
0.0
 10
51.94533365366265
 20
85.88143678710219
 30
0.0
 10
51.98688528872836
 20
85.84880187615482
 30
0.0
 10
52.00945196148526
 20
85.82730989578346
 30
0.0
 10
52.0722329779453
 20
85.75884395219713
 30
0.0
 10
52.10536273891319
 20
85.71276949399206
 30
0.0
 10
52.16228042539822
 20
85.62776160565738
 30
0.0
 10
52.18646645090197
 20
85.58748130447599
 30
0.0
 10
52.25167440128174
 20
85.47254507801006
 30
0.0
 10
52.28639046147301
 20
85.40196209286303
 30
0.0
 10
52.37960573180388
 20
85.19775633378443
 30
0.0
 10
52.42527826716456
 20
85.07485795145706
 30
0.0
 10
52.46358335066309
 20
84.95798467506948
 30
0.0
  0
SPLINE
  5
A7
330
1F
100
AcDbEntity
  8
0
  6
Continuous
 62
     7
370
    15
100
AcDbSpline
210
0.0
220
0.0
230
1.0
 70
     8
 71
     3
 72
    11
 73
     7
 74
     0
 42
0.00000001
 43
0.00000001
 40
0.0
 40
0.0
 40
0.0
 40
0.0
 40
0.0617739273502987
 40
0.4096329471686055
 40
0.7016962382449964
 40
1.0
 40
1.0
 40
1.0
 40
1.0
 10
192.5424812087553
 20
125.8614285931197
 30
0.0
 10
192.5415187408507
 20
125.8615743987114
 30
0.0
 10
192.5351364598269
 20
125.8625412592752
 30
0.0
 10
192.5630719811906
 20
125.8583071886328
 30
0.0
 10
192.6205760702347
 20
125.8496623219318
 30
0.0
 10
192.683045751546
 20
125.8406065653259
 30
0.0
 10
192.7146107598599
 20
125.836030825118
 30
0.0
  0
LINE
  5
A8
330
1F
100
AcDbEntity
  8
0
  6
Continuous
 62
     7
370
    15
100
AcDbLine
 10
192.7146107599
 20
84.8481040087
 30
0.0
 11
192.7146107599
 21
125.8360308251
 31
0.0
  0
SPLINE
  5
A9
330
1F
100
AcDbEntity
  8
0
  6
Continuous
 62
     7
370
    15
100
AcDbSpline
210
0.0
220
0.0
230
1.0
 70
     8
 71
     3
 72
    10
 73
     6
 74
     0
 42
0.00000001
 43
0.00000001
 40
0.0
 40
0.0
 40
0.0
 40
0.0
 40
0.3400460882383705
 40
0.6899397732010433
 40
1.0
 40
1.0
 40
1.0
 40
1.0
 10
192.7146107598599
 20
125.836030825118
 30
0.0
 10
192.6794176207468
 20
125.8383676482694
 30
0.0
 10
192.6080121634932
 20
125.8431089680225
 30
0.0
 10
192.5497627147799
 20
125.8473534321026
 30
0.0
 10
192.5438612804337
 20
125.847781933255
 30
0.0
 10
192.5410886624687
 20
125.8479832521079
 30
0.0
  0
LINE
  5
AA
330
1F
100
AcDbEntity
  8
0
  6
Continuous
 62
     7
370
    15
100
AcDbLine
 10
153.1382001706
 20
125.7203470374
 30
0.0
 11
153.3274017815
 21
125.7050086078
 31
0.0
  0
SPLINE
  5
AB
330
1F
100
AcDbEntity
  8
0
  6
Continuous
 62
     7
370
    15
100
AcDbSpline
210
0.0
220
0.0
230
1.0
 70
     8
 71
     3
 72
    25
 73
    21
 74
     0
 42
0.00000001
 43
0.00000001
 40
0.0
 40
0.0
 40
0.0
 40
0.0
 40
0.0084646352717537
 40
0.0551944509954071
 40
0.1423735271265302
 40
0.2343168933767052
 40
0.2851208309502614
 40
0.3371133973118473
 40
0.3937737533269558
 40
0.4518634214013261
 40
0.5125861583626312
 40
0.574998230622287
 40
0.6368809539634203
 40
0.7006651727678465
 40
0.7605279795840528
 40
0.822496573681873
 40
0.8765251034285145
 40
0.9326263605045494
 40
0.979527361734988
 40
1.0
 40
1.0
 40
1.0
 40
1.0
 10
158.9832468376094
 20
125.8472917153228
 30
0.0
 10
158.9851783642474
 20
125.8475453878597
 30
0.0
 10
158.9977730654887
 20
125.8491994835123
 30
0.0
 10
158.9173225108427
 20
125.8386009342891
 30
0.0
 10
158.6386967245633
 20
125.8028026470249
 30
0.0
 10
158.1240302929291
 20
125.7454329448875
 30
0.0
 10
157.5942453400986
 20
125.6980171272233
 30
0.0
 10
157.1135303684567
 20
125.6629731950013
 30
0.0
 10
156.5734368039668
 20
125.6341424637812
 30
0.0
 10
155.9782764369908
 20
125.6155837596103
 30
0.0
 10
155.350736791422
 20
125.6110670808668
 30
0.0
 10
154.7136036677846
 20
125.6224968301526
 30
0.0
 10
154.0878626037286
 20
125.6492018245377
 30
0.0
 10
153.5108130607175
 20
125.6874200289237
 30
0.0
 10
152.993330531863
 20
125.7324336734055
 30
0.0
 10
152.578656402945
 20
125.7758215979723
 30
0.0
 10
152.2621380608923
 20
125.8131101608931
 30
0.0
 10
152.0743838962562
 20
125.8369304786504
 30
0.0
 10
151.9890924068841
 20
125.8481471479002
 30
0.0
 10
151.9981005515917
 20
125.8469631028018
 30
0.0
 10
152.0008378311778
 20
125.8466033103493
 30
0.0
  0
SPLINE
  5
AC
330
1F
100
AcDbEntity
  8
0
  6
Continuous
 62
     7
370
    15
100
AcDbSpline
210
0.0
220
0.0
230
1.0
 70
     8
 71
     3
 72
    68
 73
    64
 74
     0
 42
0.00000001
 43
0.00000001
 40
-0.0312500000000002
 40
-0.0312500000000002
 40
0.0
 40
0.0
 40
0.0312499999999997
 40
0.0312499999999997
 40
0.0624999999999994
 40
0.0624999999999994
 40
0.093749999999999
 40
0.093749999999999
 40
0.1249999999999987
 40
0.1249999999999987
 40
0.1562499999999984
 40
0.1562499999999984
 40
0.1874999999999981
 40
0.1874999999999981
 40
0.2187499999999978
 40
0.2187499999999978
 40
0.2499999999999974
 40
0.2499999999999974
 40
0.2812499999999972
 40
0.2812499999999972
 40
0.3124999999999969
 40
0.3124999999999969
 40
0.3437499999999967
 40
0.3437499999999967
 40
0.3749999999999964
 40
0.3749999999999964
 40
0.4062499999999961
 40
0.4062499999999961
 40
0.4374999999999958
 40
0.4374999999999958
 40
0.4999999999999962
 40
0.4999999999999962
 40
0.5312499999999964
 40
0.5312499999999964
 40
0.5624999999999967
 40
0.5624999999999967
 40
0.5937499999999969
 40
0.5937499999999969
 40
0.6249999999999971
 40
0.6249999999999971
 40
0.6562499999999974
 40
0.6562499999999974
 40
0.6874999999999977
 40
0.6874999999999977
 40
0.7187499999999979
 40
0.7187499999999979
 40
0.7499999999999981
 40
0.7499999999999981
 40
0.7812499999999983
 40
0.7812499999999983
 40
0.8124999999999986
 40
0.8124999999999986
 40
0.8437499999999988
 40
0.8437499999999988
 40
0.874999999999999
 40
0.874999999999999
 40
0.9062499999999993
 40
0.9062499999999993
 40
0.9374999999999996
 40
0.9374999999999996
 40
0.9687499999999998
 40
0.9687499999999998
 40
1.0
 40
1.0
 40
1.03125
 40
1.03125
 10
152.9688718183538
 20
107.4969630565564
 30
0.0
 10
153.3075285229183
 20
107.7694590417759
 30
0.0
 10
153.4869977671578
 20
107.8875833815764
 30
0.0
 10
153.8643380802229
 20
108.0911370915174
 30
0.0
 10
154.063503801288
 20
108.1769374735378
 30
0.0
 10
154.4748300476296
 20
108.3135371294789
 30
0.0
 10
154.6839836088324
 20
108.3635932304947
 30
0.0
 10
155.1089655008577
 20
108.4289297000584
 30
0.0
 10
155.3267068515279
 20
108.4441153127941
 30
0.0
 10
155.7591862292961
 20
108.4381971828452
 30
0.0
 10
155.9729314983749
 20
108.4174811000784
 30
0.0
 10
156.3954984987114
 20
108.3409519959524
 30
0.0
 10
156.6062609535983
 20
108.2843801078895
 30
0.0
 10
157.0121500581258
 20
108.1369086018016
 30
0.0
 10
157.2064473215702
 20
108.046760082638
 30
0.0
 10
157.5774740712154
 20
107.8329498752763
 30
0.0
 10
157.756018347845
 20
107.7076924912348
 30
0.0
 10
158.0837052193628
 20
107.4272829671619
 30
0.0
 10
158.2321127749975
 20
107.2734443219979
 30
0.0
 10
158.4965163046476
 20
106.9369788424727
 30
0.0
 10
158.6137792441709
 20
106.7514180967111
 30
0.0
 10
158.8018800851742
 20
106.3637003757044
 30
0.0
 10
158.8735116291476
 20
106.1618874051544
 30
0.0
 10
158.9692461031973
 20
105.7413498053258
 30
0.0
 10
158.9923975833919
 20
105.5220669842164
 30
0.0
 10
158.9858333782589
 20
105.0917396866743
 30
0.0
 10
158.9564682809798
 20
104.8752069075011
 30
0.0
 10
158.8475756736599
 20
104.4548574469012
 30
0.0
 10
158.7694735115387
 20
104.2540388759823
 30
0.0
 10
158.4687104975337
 20
103.6777844655613
 30
0.0
 10
158.183506442776
 20
103.3403252595927
 30
0.0
 10
157.6796436730731
 20
102.9327298881218
 30
0.0
 10
157.500376487478
 20
102.8137827233246
 30
0.0
 10
157.1204338286228
 20
102.6077166059816
 30
0.0
 10
156.9196551321259
 20
102.5210676487217
 30
0.0
 10
156.5112773130013
 20
102.3847189417067
 30
0.0
 10
156.3019449197747
 20
102.3339948307152
 30
0.0
 10
155.8729554518246
 20
102.2674625989747
 30
0.0
 10
155.6558475844901
 20
102.2523150329374
 30
0.0
 10
155.2257907684482
 20
102.2576603848023
 30
0.0
 10
155.0114129619992
 20
102.2779123166946
 30
0.0
 10
154.5840080878568
 20
102.3549625899876
 30
0.0
 10
154.3743228570621
 20
102.411393977676
 30
0.0
 10
153.9709228262871
 20
102.5575787558769
 30
0.0
 10
153.7759020194037
 20
102.6475298610426
 30
0.0
 10
153.4002117960293
 20
102.8638419303226
 30
0.0
 10
153.2227327744872
 20
102.9887286621948
 30
0.0
 10
152.8974554399481
 20
103.2668361522779
 30
0.0
 10
152.7482248862588
 20
103.4207958763045
 30
0.0
 10
152.479906394286
 20
103.7624169853257
 30
0.0
 10
152.3645810903141
 20
103.9458393414186
 30
0.0
 10
152.1775857467468
 20
104.3312369642383
 30
0.0
 10
152.1045104847825
 20
104.536523574194
 30
0.0
 10
152.0085983308996
 20
104.9608204756284
 30
0.0
 10
151.9863380146374
 20
105.1749325083834
 30
0.0
 10
151.9932029338462
 20
105.6070868139373
 30
0.0
 10
152.0233631647357
 20
105.8258817941203
 30
0.0
 10
152.1321535691167
 20
106.243560593364
 30
0.0
 10
152.2117193227159
 20
106.4476184003252
 30
0.0
 10
152.4133349730383
 20
106.8319235027501
 30
0.0
 10
152.5339338712546
 20
107.0107217175371
 30
0.0
 10
152.8117825198765
 20
107.3437064830429
 30
0.0
 10
152.9688718183538
 20
107.4969630565564
 30
0.0
 10
153.3075285229183
 20
107.7694590417759
 30
0.0
  0
LINE
  5
AD
330
1F
100
AcDbEntity
  8
0
  6
Continuous
 62
     7
370
    15
100
AcDbLine
 10
153.1382001706
 20
84.9758609799
 30
0.0
 11
153.0278863557
 21
84.96510429
 31
0.0
  0
SPLINE
  5
AE
330
1F
100
AcDbEntity
  8
0
  6
Continuous
 62
     7
370
    15
100
AcDbSpline
210
0.0
220
0.0
230
1.0
 70
     8
 71
     3
 72
    25
 73
    21
 74
     0
 42
0.00000001
 43
0.00000001
 40
0.0
 40
0.0
 40
0.0
 40
0.0
 40
0.0019290923386843
 40
0.0489974176468411
 40
0.1361595712872915
 40
0.227537485396146
 40
0.2779261810706765
 40
0.3294905215409253
 40
0.3857759669007529
 40
0.4434717167544517
 40
0.5040037425839607
 40
0.5662086673948379
 40
0.6281085021518553
 40
0.6918953365589374
 40
0.7520254459864216
 40
0.8142496372137564
 40
0.8687896299097275
 40
0.925421157961465
 40
0.9727533651303562
 40
1.0
 40
1.0
 40
1.0
 40
1.0
 10
151.9910980179195
 20
84.84832277834394
 30
0.0
 10
151.9905459185769
 20
84.84825038819739
 30
0.0
 10
151.9765230325131
 20
84.84641173580471
 30
0.0
 10
152.0475694376268
 20
84.8557696323818
 30
0.0
 10
152.3057233424971
 20
84.88915928854519
 30
0.0
 10
152.8059442038195
 20
84.94570716576317
 30
0.0
 10
153.322953384831
 20
84.9930633343606
 30
0.0
 10
153.7941627471656
 20
85.02860177199042
 30
0.0
 10
154.3258142362349
 20
85.05852753587483
 30
0.0
 10
154.9147796349689
 20
85.07880330176037
 30
0.0
 10
155.5387111187097
 20
85.0854543041837
 30
0.0
 10
156.1760634929942
 20
85.0762711849619
 30
0.0
 10
156.8053558848704
 20
85.05157152188053
 30
0.0
 10
157.3901109001409
 20
85.01469280057087
 30
0.0
 10
157.9186260518323
 20
84.97016969413842
 30
0.0
 10
158.3475535967132
 20
84.92623948351405
 30
0.0
 10
158.6799484220819
 20
84.88761864718784
 30
0.0
 10
158.8844714308019
 20
84.8618727682431
 30
0.0
 10
158.9841456662447
 20
84.84880277737142
 30
0.0
 10
158.9793964311718
 20
84.84942485899866
 30
0.0
 10
158.9776613455844
 20
84.84965213030637
 30
0.0
  0
CIRCLE
  5
AF
330
1F
100
AcDbEntity
  8
0
  6
Continuous
 62
     7
370
    15
100
AcDbCircle
 10
155.4894297046
 20
105.3481040087
 30
0.0
 40
2.500000000000014
  0
SPLINE
  5
B0
330
1F
100
AcDbEntity
  8
0
  6
Continuous
 62
     7
370
    15
100
AcDbSpline
210
0.0
220
0.0
230
1.0
 70
     8
 71
     3
 72
     8
 73
     4
 74
     0
 42
0.00000001
 43
0.00000001
 40
0.0
 40
0.0
 40
0.0
 40
0.0
 40
1.0
 40
1.0
 40
1.0
 40
1.0
 10
104.9313625360476
 20
135.8152994818317
 30
0.0
 10
104.4362225066833
 20
134.9286198336514
 30
0.0
 10
103.9421398014043
 20
134.0413571979654
 30
0.0
 10
103.4494297045585
 20
133.153338199839
 30
0.0
  0
LINE
  5
B1
330
1F
100
AcDbEntity
  8
0
  6
Continuous
 62
     7
370
    15
100
AcDbLine
 10
104.931362536
 20
129.806793671
 30
0.0
 11
104.931362536
 21
135.8152994818
 31
0.0
  0
SPLINE
  5
B2
330
1F
100
AcDbEntity
  8
0
  6
Continuous
 62
     7
370
    15
100
AcDbSpline
210
0.0
220
0.0
230
1.0
 70
     8
 71
     3
 72
     8
 73
     4
 74
     0
 42
0.00000001
 43
0.00000001
 40
0.0
 40
0.0
 40
0.0
 40
0.0
 40
1.0
 40
1.0
 40
1.0
 40
1.0
 10
103.4494297045585
 20
126.3982476762508
 30
0.0
 10
103.9287078551484
 20
127.5392589061033
 30
0.0
 10
104.4242756942883
 20
128.6756433168712
 30
0.0
 10
104.9313625360476
 20
129.8067936710349
 30
0.0
  0
LINE
  5
B3
330
1F
100
AcDbEntity
  8
0
  6
Continuous
 62
     7
370
    15
100
AcDbLine
 10
103.4494297046
 20
126.3982476763
 30
0.0
 11
103.4494297046
 21
133.1533381998
 31
0.0
  0
LINE
  5
B4
330
1F
100
AcDbEntity
  8
0
  6
Continuous
 62
     7
370
    15
100
AcDbLine
 10
108.8894297046
 20
135.8152994818
 30
0.0
 11
104.931362536
 21
135.8152994818
 31
0.0
  0
LINE
  5
B5
330
1F
100
AcDbEntity
  8
0
  6
Continuous
 62
     7
370
    15
100
AcDbLine
 10
104.931362536
 20
129.806793671
 30
0.0
 11
108.8894297046
 21
129.806793671
 31
0.0
  0
LINE
  5
B6
330
1F
100
AcDbEntity
  8
0
  6
Continuous
 62
     7
370
    15
100
AcDbLine
 10
103.4494297046
 20
125.4839706401
 30
0.0
 11
103.4494297046
 21
126.3982476763
 31
0.0
  0
SPLINE
  5
B7
330
1F
100
AcDbEntity
  8
0
  6
Continuous
 62
     7
370
    15
100
AcDbSpline
210
0.0
220
0.0
230
1.0
 70
     8
 71
     3
 72
    12
 73
     8
 74
     0
 42
0.00000001
 43
0.00000001
 40
0.0
 40
0.0
 40
0.0
 40
0.0
 40
0.25
 40
0.25
 40
0.5
 40
0.5
 40
1.0
 40
1.0
 40
1.0
 40
1.0
 10
108.8894297045586
 20
129.8067936710349
 30
0.0
 10
108.9806294263842
 20
129.8067936710349
 30
0.0
 10
109.0712244355202
 20
129.778573972447
 30
0.0
 10
109.2246371619669
 20
129.6841309651989
 30
0.0
 10
109.2898460292906
 20
129.6178439884936
 30
0.0
 10
109.4426305586305
 20
129.3922191652053
 30
0.0
 10
109.4894297045585
 20
129.2097929021727
 30
0.0
 10
109.4894297045585
 20
129.0290562699258
 30
0.0
  0
LINE
  5
B8
330
1F
100
AcDbEntity
  8
0
  6
Continuous
 62
     7
370
    15
100
AcDbLine
 10
109.4894297046
 20
129.0290562699
 30
0.0
 11
109.4894297046
 21
125.1981040087
 31
0.0
  0
SPLINE
  5
B9
330
1F
100
AcDbEntity
  8
0
  6
Continuous
 62
     7
370
    15
100
AcDbSpline
210
0.0
220
0.0
230
1.0
 70
     8
 71
     3
 72
     8
 73
     4
 74
     0
 42
0.00000001
 43
0.00000001
 40
0.0
 40
0.0
 40
0.0
 40
0.0
 40
1.0
 40
1.0
 40
1.0
 40
1.0
 10
99.62942970455856
 20
133.1533381998391
 30
0.0
 10
99.13671960771279
 20
134.0413571979654
 30
0.0
 10
98.64263690243381
 20
134.9286198336514
 30
0.0
 10
98.1474968730695
 20
135.8152994818317
 30
0.0
  0
SPLINE
  5
BA
330
1F
100
AcDbEntity
  8
0
  6
Continuous
 62
     7
370
    15
100
AcDbSpline
210
0.0
220
0.0
230
1.0
 70
     8
 71
     3
 72
     8
 73
     4
 74
     0
 42
0.00000001
 43
0.00000001
 40
0.0
 40
0.0
 40
0.0
 40
0.0
 40
1.0
 40
1.0
 40
1.0
 40
1.0
 10
98.14749687306949
 20
129.8067936710349
 30
0.0
 10
98.65458371482877
 20
128.6756433168712
 30
0.0
 10
99.15015155396871
 20
127.5392589061034
 30
0.0
 10
99.62942970455856
 20
126.3982476762508
 30
0.0
  0
LINE
  5
BB
330
1F
100
AcDbEntity
  8
0
  6
Continuous
 62
     7
370
    15
100
AcDbLine
 10
99.6294297046
 20
126.3982476763
 30
0.0
 11
99.6294297046
 21
133.1533381998
 31
0.0
  0
LINE
  5
BC
330
1F
100
AcDbEntity
  8
0
  6
Continuous
 62
     7
370
    15
100
AcDbLine
 10
99.6294297046
 20
126.3982476763
 30
0.0
 11
99.6294297046
 21
125.4839706401
 31
0.0
  0
SPLINE
  5
BD
330
1F
100
AcDbEntity
  8
0
  6
Continuous
 62
     7
370
    15
100
AcDbSpline
210
0.0
220
0.0
230
1.0
 70
     8
 71
     3
 72
    10
 73
     6
 74
     0
 42
0.00000001
 43
0.00000001
 40
0.0
 40
0.0
 40
0.0
 40
0.0
 40
0.5
 40
0.5
 40
1.0
 40
1.0
 40
1.0
 40
1.0
 10
109.4894297045585
 20
135.1945443324313
 30
0.0
 10
109.4894297045585
 20
135.3549495987821
 30
0.0
 10
109.4271918734517
 20
135.5140114117708
 30
0.0
 10
109.2080569497091
 20
135.744923877401
 30
0.0
 10
109.0504682547173
 20
135.8152994818317
 30
0.0
 10
108.8894297045586
 20
135.8152994818317
 30
0.0
  0
LINE
  5
BE
330
1F
100
AcDbEntity
  8
0
  6
Continuous
 62
     7
370
    15
100
AcDbLine
 10
109.4894297046
 20
129.0290562699
 30
0.0
 11
109.4894297046
 21
135.1945443324
 31
0.0
  0
ARC
  5
BF
330
1F
100
AcDbEntity
  8
0
  6
Continuous
 62
     7
370
    15
100
AcDbCircle
 10
91.5393829345
 20
124.1169258587
 30
0.0
 40
7.189493853402997
100
AcDbArc
 50
70.6167057305
 51
109.3684161953
  0
LINE
  5
C0
330
1F
100
AcDbEntity
  8
0
  6
Continuous
 62
     7
370
    15
100
AcDbLine
 10
243.5394297046
 20
90.696884992
 30
0.0
 11
243.5394297046
 21
119.9993230032
 31
0.0
  0
LINE
  5
C1
330
1F
100
AcDbEntity
  8
0
  6
Continuous
 62
     7
370
    15
100
AcDbLine
 10
243.5578621881
 20
119.5678207101
 30
0.0
 11
243.5394297046
 21
119.0986826776
 31
0.0
  0
LINE
  5
C2
330
1F
100
AcDbEntity
  8
0
  6
Continuous
 62
     7
370
    15
100
AcDbLine
 10
243.6103375637
 20
91.2939571492
 30
0.0
 11
243.6167519117
 21
91.1307010907
 31
0.0
  0
LINE
  5
C3
330
1F
100
AcDbEntity
  8
0
  6
Continuous
 62
     7
370
    15
100
AcDbLine
 10
243.5394297046
 20
93.0986826776
 30
0.0
 11
243.6103375637
 21
91.2939571492
 31
0.0
  0
LINE
  5
C4
330
1F
100
AcDbEntity
  8
0
  6
HIDDEN
 62
     7
370
     0
100
AcDbLine
 10
98.1474968731
 20
129.806793671
 30
0.0
 11
98.1474968731
 21
125.1981040087
 31
0.0
  0
ARC
  5
C5
330
1F
100
AcDbEntity
  8
0
  6
HIDDEN
 62
     7
370
     0
100
AcDbCircle
 10
91.8190144405
 20
117.8479229499
 30
0.0
 40
3.680538804811087
100
AcDbArc
 50
265.6434445208
 51
11.7695519744
  0
ARC
  5
C6
330
1F
100
AcDbEntity
  8
0
  6
HIDDEN
 62
     7
370
     0
100
AcDbCircle
 10
91.2574116641
 20
117.8420202339
 30
0.0
 40
3.67483910935028
100
AcDbArc
 50
167.0523533452
 51
274.4013754008
  0
LINE
  5
C7
330
1F
100
AcDbEntity
  8
0
  6
HIDDEN
 62
     7
370
     0
100
AcDbLine
 10
71.5345799091
 20
81.8235043858
 30
0.0
 11
71.00043448
 21
81.7688897863
 31
0.0
  0
LINE
  5
C8
330
1F
100
AcDbEntity
  8
0
  6
HIDDEN
 62
     7
370
     0
100
AcDbLine
 10
70.760643283
 20
128.9516543766
 30
0.0
 11
71.5344871888
 21
128.8726870386
 31
0.0
  0
SPLINE
  5
C9
330
1F
100
AcDbEntity
  8
0
  6
HIDDEN
 62
     7
370
     0
100
AcDbSpline
210
0.0
220
0.0
230
1.0
 70
     8
 71
     3
 72
    30
 73
    26
 74
     0
 42
0.00000001
 43
0.00000001
 40
0.0
 40
0.0
 40
0.0
 40
0.0
 40
0.0156161600804321
 40
0.0849748372628066
 40
0.1203204532886729
 40
0.1543185190912384
 40
0.2234436946573996
 40
0.2586467089786589
 40
0.2931107206686994
 40
0.3631864361325587
 40
0.3988795186727313
 40
0.433675062830971
 40
0.4687145712104796
 40
0.5045294144990531
 40
0.5406151111978519
 40
0.5750767863722904
 40
0.645203364963026
 40
0.6809575734718843
 40
0.7149323277721671
 40
0.7840330582955255
 40
0.8192378401372471
 40
0.8533347063218395
 40
0.9226550151093981
 40
0.9579547149334475
 40
1.0
 40
1.0
 40
1.0
 40
1.0
 10
70.79254708574413
 20
125.3475197407753
 30
0.0
 10
70.79194934665905
 20
125.347631993657
 30
0.0
 10
70.78869676848238
 20
125.3482428141343
 30
0.0
 10
70.83901767093073
 20
125.3387836796772
 30
0.0
 10
70.93932269997201
 20
125.320478843581
 30
0.0
 10
71.07393968804169
 20
125.2964955382073
 30
0.0
 10
71.25599833307176
 20
125.2653967440608
 30
0.0
 10
71.48292090673704
 20
125.2294776000185
 30
0.0
 10
71.7395073121144
 20
125.1911585788794
 30
0.0
 10
72.0375439705871
 20
125.1509134435712
 30
0.0
 10
72.37009322458684
 20
125.1122524201688
 30
0.0
 10
72.6352909299911
 20
125.0848497614376
 30
0.0
 10
72.91434875525006
 20
125.0598049248254
 30
0.0
 10
73.20879977114423
 20
125.0376372275298
 30
0.0
 10
73.51166470446047
 20
125.0194751402599
 30
0.0
 10
73.92205069132922
 20
125.0012170352655
 30
0.0
 10
74.34289153028402
 20
124.9923698012611
 30
0.0
 10
74.76279544751297
 20
124.9938351957022
 30
0.0
 10
75.17740996836669
 20
125.0018785888695
 30
0.0
 10
75.58363108784253
 20
125.0193853744688
 30
0.0
 10
75.97316158756449
 20
125.0449506874967
 30
0.0
 10
76.34998228880285
 20
125.0751349232108
 30
0.0
 10
76.70311944850681
 20
125.1110324980583
 30
0.0
 10
77.04487093632844
 20
125.1518507759169
 30
0.0
 10
77.20654469733799
 20
125.1737356894834
 30
0.0
 10
77.29443170616015
 20
125.1856324844839
 30
0.0
  0
SPLINE
  5
CA
330
1F
100
AcDbEntity
  8
0
  6
HIDDEN
 62
     7
370
     0
100
AcDbSpline
210
0.0
220
0.0
230
1.0
 70
     8
 71
     3
 72
    32
 73
    28
 74
     0
 42
0.00000001
 43
0.00000001
 40
0.0
 40
0.0
 40
0.0
 40
0.0
 40
0.0346246159901392
 40
0.0694870388940023
 40
0.1051007609549318
 40
0.1409753874086758
 40
0.1756005721189327
 40
0.2104692408125609
 40
0.246112285470817
 40
0.2820258067991321
 40
0.3162663828049037
 40
0.3859338563640311
 40
0.4214461814158481
 40
0.4553763558770598
 40
0.5243713305904967
 40
0.5595124638219118
 40
0.593798734303577
 40
0.6635059787021124
 40
0.6990055363805017
 40
0.7337623601246063
 40
0.7687606633024604
 40
0.8045245907686108
 40
0.8405553812432468
 40
0.875170121130555
 40
0.9456085132854553
 40
0.9815233266320907
 40
1.0
 40
1.0
 40
1.0
 40
1.0
 10
77.29443170616015
 20
85.51057553285099
 30
0.0
 10
77.22243340431373
 20
85.52036347575931
 30
0.0
 10
77.07794230578057
 20
85.54000658659574
 30
0.0
 10
76.8366223715221
 20
85.56945580521744
 30
0.0
 10
76.57732412053647
 20
85.59800618730789
 30
0.0
 10
76.30333670140382
 20
85.62443740626269
 30
0.0
 10
76.01870892038231
 20
85.64788988361401
 30
0.0
 10
75.72412396141416
 20
85.66788734007264
 30
0.0
 10
75.41719305244585
 20
85.68404301857635
 30
0.0
 10
75.10546158669337
 20
85.69548500627187
 30
0.0
 10
74.68819603800797
 20
85.70417613396971
 30
0.0
 10
74.26755304465041
 20
85.70288807750951
 30
0.0
 10
73.85414949148493
 20
85.69166026614202
 30
0.0
 10
73.44930552841764
 20
85.67436199406117
 30
0.0
 10
73.05866744385547
 20
85.64864635029294
 30
0.0
 10
72.68988636581419
 20
85.61655303939602
 30
0.0
 10
72.33646858356579
 20
85.58099483089359
 30
0.0
 10
72.01102749324488
 20
85.541746374558
 30
0.0
 10
71.72165028752752
 20
85.50211485718565
 30
0.0
 10
71.52373641055223
 20
85.4729791140434
 30
0.0
 10
71.34640944651473
 20
85.44524488173064
 30
0.0
 10
71.18980011800221
 20
85.41946433747627
 30
0.0
 10
71.05815259829951
 20
85.39685770074209
 30
0.0
 10
70.9162914027278
 20
85.37167165543543
 30
0.0
 10
70.82747281491217
 20
85.35522610631183
 30
0.0
 10
70.79064987636177
 20
85.34833327549565
 30
0.0
 10
70.79206602353496
 20
85.34859826140485
 30
0.0
 10
70.79254708574413
 20
85.34868827655956
 30
0.0
  0
SPLINE
  5
CB
330
1F
100
AcDbEntity
  8
0
  6
HIDDEN
 62
     7
370
     0
100
AcDbSpline
210
0.0
220
0.0
230
1.0
 70
     8
 71
     3
 72
    15
 73
    11
 74
     0
 42
0.00000001
 43
0.00000001
 40
0.0
 40
0.0
 40
0.0
 40
0.0
 40
0.110072588692132
 40
0.2209193734147121
 40
0.3341941649114025
 40
0.448303519393223
 40
0.5583990715890395
 40
0.7822971689737802
 40
0.8963603647916926
 40
1.0
 40
1.0
 40
1.0
 40
1.0
 10
77.29443170616015
 20
125.1856324844839
 30
0.0
 10
77.3620256926243
 20
125.1947007385755
 30
0.0
 10
77.49768908814987
 20
125.2129010283632
 30
0.0
 10
77.67813451272329
 20
125.2336220836853
 30
0.0
 10
77.84028328753911
 20
125.2503617690492
 30
0.0
 10
77.97833443310572
 20
125.2629438808636
 30
0.0
 10
78.12997515046777
 20
125.275322680747
 30
0.0
 10
78.23142080417205
 20
125.2822799660777
 30
0.0
 10
78.28283451778825
 20
125.2855766072353
 30
0.0
 10
78.28678932634794
 20
125.2858219121146
 30
0.0
 10
78.28867205297357
 20
125.2859386919841
 30
0.0
  0
SPLINE
  5
CC
330
1F
100
AcDbEntity
  8
0
  6
HIDDEN
 62
     7
370
     0
100
AcDbSpline
210
0.0
220
0.0
230
1.0
 70
     8
 71
     3
 72
    17
 73
    13
 74
     0
 42
0.00000001
 43
0.00000001
 40
0.0
 40
0.0
 40
0.0
 40
0.0
 40
0.007026850021131
 40
0.1183631929415051
 40
0.232113419828284
 40
0.3466983210643472
 40
0.4574106626582204
 40
0.5688954169322241
 40
0.682824119935849
 40
0.7976023978524978
 40
0.8985035916333007
 40
1.0
 40
1.0
 40
1.0
 40
1.0
 10
78.28866965374311
 20
85.41026947691589
 30
0.0
 10
78.28892155658876
 20
85.41025356901001
 30
0.0
 10
78.29316471319952
 20
85.40998560960774
 30
0.0
 10
78.2772448332209
 20
85.41098247805805
 30
0.0
 10
78.23822899488495
 20
85.41349902733852
 30
0.0
 10
78.16977685625936
 20
85.41819663732646
 30
0.0
 10
78.07702488605015
 20
85.42514650396302
 30
0.0
 10
77.9597333148354
 20
85.4348759885289
 30
0.0
 10
77.81689667258033
 20
85.4481229954566
 30
0.0
 10
77.6553472821744
 20
85.46511008396263
 30
0.0
 10
77.48154394133923
 20
85.48540272441609
 30
0.0
 10
77.35692461215723
 20
85.50216816200374
 30
0.0
 10
77.29443170616015
 20
85.51057553285099
 30
0.0
  0
LINE
  5
CD
330
1F
100
AcDbEntity
  8
0
  6
HIDDEN
 62
     7
370
     0
100
AcDbLine
 10
64.5434043008
 20
88.3481040087
 30
0.0
 11
64.5434043008
 21
122.3481040087
 31
0.0
  0
LWPOLYLINE
  5
CE
330
1F
100
AcDbEntity
  8
0
  6
HIDDEN
 62
     7
370
     0
100
AcDbPolyline
 90
       12
 70
   128
 43
0.0
 10
91.5394297046
 20
127.2937064233
 10
92.4618931875
 20
127.3476166821
 10
93.3346264254
 20
127.5064411427
 10
94.1105801433
 20
127.7616175371
 10
94.7479224756
 20
128.0993892399
 10
95.2122941321
 20
128.5015468912
 10
95.4786607166
 20
128.946410068
 10
95.5326623376
 20
129.4099960811
 10
95.3713877538
 20
129.8673128887
 10
95.0035313197
 20
130.2937064233
 10
94.4489242709
 20
130.666189699
 10
93.9254760273
 20
130.8989153619
  0
LWPOLYLINE
  5
CF
330
1F
100
AcDbEntity
  8
0
  6
HIDDEN
 62
     7
370
     0
100
AcDbPolyline
 90
       12
 70
   128
 43
0.0
 10
89.1550510108
 20
130.8995347333
 10
88.6299351383
 20
130.666189699
 10
88.0753280894
 20
130.2937064233
 10
87.7074716553
 20
129.8673128887
 10
87.5461970715
 20
129.4099960811
 10
87.6001986925
 20
128.946410068
 10
87.866565277
 20
128.5015468912
 10
88.3309369335
 20
128.0993892399
 10
88.9682792658
 20
127.7616175371
 10
89.7442329838
 20
127.5064411427
 10
90.6169662216
 20
127.3476166821
 10
91.5394297046
 20
127.2937064233
  0
SPLINE
  5
D0
330
1F
100
AcDbEntity
  8
0
  6
HIDDEN
 62
     7
370
     0
100
AcDbSpline
210
0.0
220
0.0
230
1.0
 70
     8
 71
     3
 72
    11
 73
     7
 74
     0
 42
0.00000001
 43
0.00000001
 40
0.0
 40
0.0
 40
0.0
 40
0.0
 40
0.000577986501074
 40
0.000577986501074
 40
0.000577986501074
 40
0.0011559733324211
 40
0.0011559733324211
 40
0.0011559733324211
 40
0.0011559733324211
 10
51.63942970455857
 20
107.3479446272941
 30
0.0
 10
51.80609695936458
 20
107.3459609878195
 30
0.0
 10
51.97276338904226
 20
107.3439233806853
 30
0.0
 10
52.13942972749408
 20
107.3418119171487
 30
0.0
 10
52.30609615632046
 20
107.3397004524672
 30
0.0
 10
52.47276252995814
 20
107.337514889182
 30
0.0
 10
52.63942970455855
 20
107.3352323117214
 30
0.0
  0
SPLINE
  5
D1
330
1F
100
AcDbEntity
  8
0
  6
HIDDEN
 62
     7
370
     0
100
AcDbSpline
210
0.0
220
0.0
230
1.0
 70
     8
 71
     3
 72
    11
 73
     7
 74
     0
 42
0.00000001
 43
0.00000001
 40
0.0
 40
0.0
 40
0.0
 40
0.0
 40
0.0005782382535738
 40
0.0005782382535738
 40
0.0005782382535738
 40
0.0011564766069466
 40
0.0011564766069466
 40
0.0011564766069466
 40
0.0011564766069466
 10
52.63942970455854
 20
103.3514037064504
 30
0.0
 10
52.4727757505899
 20
103.3509661286885
 30
0.0
 10
52.3061150783879
 20
103.350486064016
 30
0.0
 10
52.13944818972249
 20
103.3499665246464
 30
0.0
 10
51.97278127132645
 20
103.3494469851842
 30
0.0
 10
51.80610814149328
 20
103.348888156162
 30
0.0
 10
51.63942970455859
 20
103.3483026125787
 30
0.0
  0
LINE
  5
D2
330
1F
100
AcDbEntity
  8
0
  6
HIDDEN
 62
     7
370
     0
100
AcDbLine
 10
91.1992556731
 20
88.3481040087
 30
0.0
 11
91.1992556731
 21
122.3481040087
 31
0.0
  0
LINE
  5
D3
330
1F
100
AcDbEntity
  8
0
  6
HIDDEN
 62
     7
370
     0
100
AcDbLine
 10
93.4894297046
 20
89.6231040087
 30
0.0
 11
93.4894297046
 21
121.0731040087
 31
0.0
  0
SPLINE
  5
D4
330
1F
100
AcDbEntity
  8
0
  6
HIDDEN
 62
     7
370
     0
100
AcDbSpline
210
0.0
220
0.0
230
1.0
 70
     8
 71
     3
 72
    16
 73
    12
 74
     0
 42
0.00000001
 43
0.00000001
 40
0.0
 40
0.0
 40
0.0
 40
0.0
 40
0.1249999999999985
 40
0.1249999999999985
 40
0.249999999999997
 40
0.249999999999997
 40
0.499999999999998
 40
0.499999999999998
 40
0.749999999999999
 40
0.749999999999999
 40
1.0
 40
1.0
 40
1.0
 40
1.0
 10
60.33942970455855
 20
89.54661357263576
 30
0.0
 10
60.43455145922438
 20
89.54661357263576
 30
0.0
 10
60.52788152795247
 20
89.54279773924299
 30
0.0
 10
60.71114328869046
 20
89.52802718651316
 30
0.0
 10
60.80202100424746
 20
89.51686913853759
 30
0.0
 10
61.05882270176721
 20
89.47439786839587
 30
0.0
 10
61.2138900666392
 20
89.43335167119307
 30
0.0
 10
61.46763652819383
 20
89.33820555461116
 30
0.0
 10
61.56850697986169
 20
89.2834428205296
 30
0.0
 10
61.70375339455654
 20
89.17218169662571
 30
0.0
 10
61.73942970455856
 20
89.11501195929704
 30
0.0
 10
61.73942970455856
 20
89.06059038626331
 30
0.0
  0
SPLINE
  5
D5
330
1F
100
AcDbEntity
  8
0
  6
HIDDEN
 62
     7
370
     0
100
AcDbSpline
210
0.0
220
0.0
230
1.0
 70
     8
 71
     3
 72
     8
 73
     4
 74
     0
 42
0.00000001
 43
0.00000001
 40
0.0
 40
0.0
 40
0.0
 40
0.0
 40
1.0
 40
1.0
 40
1.0
 40
1.0
 10
52.93942970478916
 20
91.69141651871803
 30
0.0
 10
52.93942970479107
 20
90.80751937640109
 30
0.0
 10
52.92594907887889
 20
90.09293613133914
 30
0.0
 10
52.92459771068778
 20
89.54661357263578
 30
0.0
  0
LINE
  5
D6
330
1F
100
AcDbEntity
  8
0
  6
HIDDEN
 62
     7
370
     0
100
AcDbLine
 10
52.6394297046
 20
95.7472772239
 30
0.0
 11
52.6394297046
 21
92.7163267784
 31
0.0
  0
LINE
  5
D7
330
1F
100
AcDbEntity
  8
0
  6
HIDDEN
 62
     7
370
     0
100
AcDbLine
 10
52.9394297046
 20
108.9527376302
 30
0.0
 11
52.9394297046
 21
97.115117633
 31
0.0
  0
SPLINE
  5
D8
330
1F
100
AcDbEntity
  8
0
  6
HIDDEN
 62
     7
370
     0
100
AcDbSpline
210
0.0
220
0.0
230
1.0
 70
     8
 71
     3
 72
     8
 73
     4
 74
     0
 42
0.00000001
 43
0.00000001
 40
0.0
 40
0.0
 40
0.0
 40
0.0
 40
1.0
 40
1.0
 40
1.0
 40
1.0
 10
52.63942970455854
 20
114.9550433219992
 30
0.0
 10
52.8204611692423
 20
114.5229358385732
 30
0.0
 10
52.9394297045562
 20
114.0687904349799
 30
0.0
 10
52.93942970455048
 20
113.5810903842794
 30
0.0
  0
LINE
  5
D9
330
1F
100
AcDbEntity
  8
0
  6
HIDDEN
 62
     7
370
     0
100
AcDbLine
 10
52.6394297046
 20
117.9882463223
 30
0.0
 11
52.6394297046
 21
114.955043322
 31
0.0
  0
SPLINE
  5
DA
330
1F
100
AcDbEntity
  8
0
  6
HIDDEN
 62
     7
370
     0
100
AcDbSpline
210
0.0
220
0.0
230
1.0
 70
     8
 71
     3
 72
    10
 73
     6
 74
     0
 42
0.00000001
 43
0.00000001
 40
0.0
 40
0.0
 40
0.0
 40
0.0
 40
0.5
 40
0.5
 40
1.0
 40
1.0
 40
1.0
 40
1.0
 10
52.93942970457055
 20
119.0047914985873
 30
0.0
 10
52.93942970456876
 20
118.8401551530168
 30
0.0
 10
52.9122710341535
 20
118.6729999302536
 30
0.0
 10
52.80650604013
 20
118.3343769246384
 30
0.0
 10
52.73009125263029
 20
118.1621051485027
 30
0.0
 10
52.63942970455857
 20
117.9882463222754
 30
0.0
  0
SPLINE
  5
DB
330
1F
100
AcDbEntity
  8
0
  6
HIDDEN
 62
     7
370
     0
100
AcDbSpline
210
0.0
220
0.0
230
1.0
 70
     8
 71
     3
 72
    18
 73
    14
 74
     0
 42
0.00000001
 43
0.00000001
 40
0.0
 40
0.0
 40
0.0
 40
0.0
 40
0.2499999999999999
 40
0.2499999999999999
 40
0.3749999999999992
 40
0.3749999999999992
 40
0.4999999999999984
 40
0.4999999999999984
 40
0.6249999999999978
 40
0.6249999999999978
 40
0.749999999999997
 40
0.749999999999997
 40
1.0
 40
1.0
 40
1.0
 40
1.0
 10
57.73942970455856
 20
121.6356176310716
 30
0.0
 10
57.73942970455856
 20
121.5811431105194
 30
0.0
 10
57.70451901316638
 20
121.5247620511669
 30
0.0
 10
57.60250971183333
 20
121.4406852103134
 30
0.0
 10
57.56087335715522
 20
121.4133515063225
 30
0.0
 10
57.46246756166646
 20
121.3603975907235
 30
0.0
 10
57.40492434996219
 20
121.3345102370063
 30
0.0
 10
57.27762617638923
 20
121.2867326921731
 30
0.0
 10
57.20803887163177
 20
121.2647847739952
 30
0.0
 10
57.05660462647683
 20
121.2253522090825
 30
0.0
 10
56.97392072338287
 20
121.2077959598566
 30
0.0
 10
56.71780926134481
 20
121.1653571944361
 30
0.0
 10
56.52989425745683
 20
121.1495944446991
 30
0.0
 10
56.33942970455856
 20
121.1495944446991
 30
0.0
  0
LINE
  5
DC
330
1F
100
AcDbEntity
  8
0
  6
HIDDEN
 62
     7
370
     0
100
AcDbLine
 10
56.3394297046
 20
121.1495944447
 30
0.0
 11
52.9394297046
 21
121.1495944447
 31
0.0
  0
LINE
  5
DD
330
1F
100
AcDbEntity
  8
0
  6
HIDDEN
 62
     7
370
     0
100
AcDbLine
 10
52.8704607179
 20
89.5466135726
 30
0.0
 11
60.3394297046
 21
89.5466135726
 31
0.0
  0
SPLINE
  5
DE
330
1F
100
AcDbEntity
  8
0
  6
HIDDEN
 62
     7
370
     0
100
AcDbSpline
210
0.0
220
0.0
230
1.0
 70
     8
 71
     3
 72
    22
 73
    18
 74
     0
 42
0.00000001
 43
0.00000001
 40
0.0
 40
0.0
 40
0.0
 40
0.0
 40
0.1250000000000001
 40
0.1250000000000001
 40
0.2500000000000001
 40
0.2500000000000001
 40
0.5
 40
0.5
 40
0.5625
 40
0.5625
 40
0.6249999999999999
 40
0.6249999999999999
 40
0.75
 40
0.75
 40
0.875
 40
0.875
 40
1.0
 40
1.0
 40
1.0
 40
1.0
 10
52.87046071791643
 20
89.54661357263576
 30
0.0
 10
52.85737832518807
 20
89.80171928278345
 30
0.0
 10
52.84415876174826
 20
90.09487754188736
 30
0.0
 10
52.82171158395414
 20
90.75717800751217
 30
0.0
 10
52.81223311692968
 20
91.12745192812355
 30
0.0
 10
52.79303515599314
 20
92.35000873123734
 30
0.0
 10
52.79414892899003
 20
93.2871476573692
 30
0.0
 10
52.81305972194311
 20
94.60701888688419
 30
0.0
 10
52.81768924980209
 20
94.8785207958605
 30
0.0
 10
52.82817046954805
 20
95.43690563066279
 30
0.0
 10
52.83396573083249
 20
95.7240284866024
 30
0.0
 10
52.85227495173741
 20
96.5966177409741
 30
0.0
 10
52.86630988601779
 20
97.19707341732996
 30
0.0
 10
52.8957670581546
 20
98.43454790982602
 30
0.0
 10
52.91132274913617
 20
99.07156406646946
 30
0.0
 10
52.93511729913305
 20
100.383052664154
 30
0.0
 10
52.94313635127843
 20
101.0591752758146
 30
0.0
 10
52.93942970455855
 20
101.7434703870993
 30
0.0
  0
LINE
  5
DF
330
1F
100
AcDbEntity
  8
0
  6
HIDDEN
 62
     7
370
     0
100
AcDbLine
 10
52.9394297046
 20
108.9527376302
 30
0.0
 11
52.9394297046
 21
121.1495944447
 31
0.0
  0
SPLINE
  5
E0
330
1F
100
AcDbEntity
  8
0
  6
HIDDEN
 62
     7
370
     0
100
AcDbSpline
210
0.0
220
0.0
230
1.0
 70
     8
 71
     3
 72
    10
 73
     6
 74
     0
 42
0.00000001
 43
0.00000001
 40
0.0
 40
0.0
 40
0.0
 40
0.0
 40
0.5
 40
0.5
 40
1.0
 40
1.0
 40
1.0
 40
1.0
 10
52.93942970455851
 20
101.7434703870843
 30
0.0
 10
52.93942970455834
 20
102.0173855351585
 30
0.0
 10
52.91367047468966
 20
102.2883271138883
 30
0.0
 10
52.81046454195631
 20
102.8240181954909
 30
0.0
 10
52.73312637808185
 20
103.0897649990128
 30
0.0
 10
52.63942970455854
 20
103.3514037064504
 30
0.0
  0
SPLINE
  5
E1
330
1F
100
AcDbEntity
  8
0
  6
HIDDEN
 62
     7
370
     0
100
AcDbSpline
210
0.0
220
0.0
230
1.0
 70
     8
 71
     3
 72
    10
 73
     6
 74
     0
 42
0.00000001
 43
0.00000001
 40
0.0
 40
0.0
 40
0.0
 40
0.0
 40
0.5
 40
0.5
 40
1.0
 40
1.0
 40
1.0
 40
1.0
 10
52.63942970455854
 20
107.3352323117214
 30
0.0
 10
52.73266028488063
 20
107.599126118289
 30
0.0
 10
52.80768989638987
 20
107.8653064273545
 30
0.0
 10
52.91275699433621
 20
108.4036289991054
 30
0.0
 10
52.93942970456931
 20
108.6763771136856
 30
0.0
 10
52.93942970457052
 20
108.9527376302346
 30
0.0
  0
LINE
  5
E2
330
1F
100
AcDbEntity
  8
0
  6
HIDDEN
 62
     7
370
     0
100
AcDbLine
 10
52.6394297046
 20
103.3514037065
 30
0.0
 11
52.6394297046
 21
107.3352323117
 31
0.0
  0
LINE
  5
E3
330
1F
100
AcDbEntity
  8
0
  6
HIDDEN
 62
     7
370
     0
100
AcDbLine
 10
52.7894297046
 20
87.3581040087
 30
0.0
 11
52.7894297046
 21
84.4781662433
 31
0.0
  0
LINE
  5
E4
330
1F
100
AcDbEntity
  8
0
  6
HIDDEN
 62
     7
370
     0
100
AcDbLine
 10
240.0394297046
 20
95.3481040087
 30
0.0
 11
240.0394297046
 21
115.3481040087
 31
0.0
  0
LINE
  5
E5
330
1F
100
AcDbEntity
  8
0
  6
HIDDEN
 62
     7
370
     0
100
AcDbLine
 10
192.0394297046
 20
95.4481040087
 30
0.0
 11
192.0394297046
 21
115.2481040087
 31
0.0
  0
SPLINE
  5
E6
330
1F
100
AcDbEntity
  8
0
  6
HIDDEN
 62
     7
370
     0
100
AcDbSpline
210
0.0
220
0.0
230
1.0
 70
     8
 71
     3
 72
    17
 73
    13
 74
     0
 42
0.00000001
 43
0.00000001
 40
0.0
 40
0.0
 40
0.0
 40
0.0
 40
0.1050741377840418
 40
0.2132156150751852
 40
0.3182840573060131
 40
0.4263613331268743
 40
0.5321298603747666
 40
0.6409367872909442
 40
0.7471489453140516
 40
0.8564829370771705
 40
0.9619349001843771
 40
1.0
 40
1.0
 40
1.0
 40
1.0
 10
194.0394297045586
 20
115.538295370953
 30
0.0
 10
194.1220638644733
 20
115.5388821896208
 30
0.0
 10
194.2897444527135
 20
115.5400729574523
 30
0.0
 10
194.5330234034571
 20
115.549391119617
 30
0.0
 10
194.7643906826416
 20
115.5632369421583
 30
0.0
 10
194.9737487838832
 20
115.5804117233172
 30
0.0
 10
195.1590809186077
 20
115.5991590517494
 30
0.0
 10
195.3117098132565
 20
115.6171185322439
 30
0.0
 10
195.4305249555944
 20
115.6326616459449
 30
0.0
 10
195.5058304362819
 20
115.6432134793459
 30
0.0
 10
195.5408950860898
 20
115.6483165516748
 30
0.0
 10
195.5358043352462
 20
115.647577156884
 30
0.0
 10
195.5344541129448
 20
115.647381046847
 30
0.0
  0
LINE
  5
E7
330
1F
100
AcDbEntity
  8
0
  6
HIDDEN
 62
     7
370
     0
100
AcDbLine
 10
194.126394186
 20
115.5393481522
 30
0.0
 11
194.0104172472
 21
115.53878869
 31
0.0
  0
SPLINE
  5
E8
330
1F
100
AcDbEntity
  8
0
  6
HIDDEN
 62
     7
370
     0
100
AcDbSpline
210
0.0
220
0.0
230
1.0
 70
     8
 71
     3
 72
    16
 73
    12
 74
     0
 42
0.00000001
 43
0.00000001
 40
0.0
 40
0.0
 40
0.0
 40
0.0
 40
0.1011088093895701
 40
0.2090275157269375
 40
0.3138606750502972
 40
0.4216822275279468
 40
0.5274448153050009
 40
0.6362437013869525
 40
0.7424859207373001
 40
0.8518494159823948
 40
1.0
 40
1.0
 40
1.0
 40
1.0
 10
192.5401337691525
 20
115.6480020856443
 30
0.0
 10
192.5435130475248
 20
115.6475065126596
 30
0.0
 10
192.5504992059749
 20
115.6464819887783
 30
0.0
 10
192.6128511962741
 20
115.6375625328541
 30
0.0
 10
192.7130615211053
 20
115.624034685028
 30
0.0
 10
192.8502044385299
 20
115.6070670868779
 30
0.0
 10
193.0221942372837
 20
115.5883898348681
 30
0.0
 10
193.2221413522748
 20
115.5702531550555
 30
0.0
 10
193.4477507057084
 20
115.5546551673552
 30
0.0
 10
193.7200103219016
 20
115.5414601585732
 30
0.0
 10
193.9227762901238
 20
115.5394511658168
 30
0.0
 10
194.0394297045586
 20
115.538295370953
 30
0.0
  0
SPLINE
  5
E9
330
1F
100
AcDbEntity
  8
0
  6
HIDDEN
 62
     7
370
     0
100
AcDbSpline
210
0.0
220
0.0
230
1.0
 70
     8
 71
     3
 72
    38
 73
    34
 74
     0
 42
0.00000001
 43
0.00000001
 40
0.0
 40
0.0
 40
0.0
 40
0.0
 40
0.026187383201891
 40
0.0525581206655284
 40
0.0795060236822387
 40
0.1066526939248008
 40
0.1328397688694934
 40
0.1860944466617402
 40
0.2132229029645528
 40
0.2395807549508508
 40
0.2931833788071483
 40
0.3204917880775307
 40
0.3469618275107703
 40
0.3736172230965847
 40
0.4008601416201475
 40
0.4283074506339312
 40
0.4545878252981752
 40
0.5080548436653692
 40
0.5353073373711307
 40
0.5613917094794181
 40
0.614442279575818
 40
0.6414696333443064
 40
0.6676572000269558
 40
0.7209071830460482
 40
0.7480304682975246
 40
0.774458635603629
 40
0.8282105050253644
 40
0.8555995382670782
 40
0.8820327388660439
 40
0.935811314655761
 40
0.963224409150059
 40
0.9894212340207048
 40
1.0
 40
1.0
 40
1.0
 40
1.0
 10
195.5394297045586
 20
95.04810400866744
 30
0.0
 10
195.5384496193674
 20
95.04824697595589
 30
0.0
 10
195.5364825867952
 20
95.04853391153625
 30
0.0
 10
195.5204478444175
 20
95.05085798184402
 30
0.0
 10
195.494514581904
 20
95.05456447645325
 30
0.0
 10
195.4580439552314
 20
95.05966843304967
 30
0.0
 10
195.3965019584411
 20
95.06803550784184
 30
0.0
 10
195.3157072252884
 20
95.07848623438842
 30
0.0
 10
195.2173363422086
 20
95.09015804168259
 30
0.0
 10
195.1076443006775
 20
95.10234627074404
 30
0.0
 10
194.982087111915
 20
95.11479726906573
 30
0.0
 10
194.8436434112981
 20
95.12641307778719
 30
0.0
 10
194.7341791473834
 20
95.13445681503487
 30
0.0
 10
194.6198924913407
 20
95.14161697515108
 30
0.0
 10
194.4999745612793
 20
95.14775691665277
 30
0.0
 10
194.377185101512
 20
95.15256559934967
 30
0.0
 10
194.2114553685048
 20
95.15705057191498
 30
0.0
 10
194.0425905865088
 20
95.15852956889124
 30
0.0
 10
193.8749292012921
 20
95.15683992932381
 30
0.0
 10
193.7095084298038
 20
95.15314857418211
 30
0.0
 10
193.5481916419948
 20
95.14660351345103
 30
0.0
 10
193.3945558616954
 20
95.13773557948866
 30
0.0
 10
193.2466965394215
 20
95.12757286122823
 30
0.0
 10
193.1090302633138
 20
95.11587413159151
 30
0.0
 10
192.9848962811053
 20
95.1036227359864
 30
0.0
 10
192.8700922796547
 20
95.0912993358868
 30
0.0
 10
192.7709441602444
 20
95.07941799803946
 30
0.0
 10
192.6903840901001
 20
95.06905164147594
 30
0.0
 10
192.6227077039453
 20
95.05998374337612
 30
0.0
 10
192.5740180312181
 20
95.05310254322539
 30
0.0
 10
192.5488747047749
 20
95.04947884207503
 30
0.0
 10
192.5377441849379
 20
95.04785978213664
 30
0.0
 10
192.5416572239433
 20
95.04842731582976
 30
0.0
 10
192.5427828380517
 20
95.04859057102121
 30
0.0
  0
LINE
  5
EA
330
1F
100
AcDbEntity
  8
0
  6
HIDDEN
 62
     7
370
     0
100
AcDbLine
 10
202.5394297046
 20
95.3481040087
 30
0.0
 11
202.5394297046
 21
115.3481040087
 31
0.0
  0
LINE
  5
EB
330
1F
100
AcDbEntity
  8
0
  6
HIDDEN
 62
     7
370
     0
100
AcDbLine
 10
61.7394297046
 20
87.3581040087
 30
0.0
 11
61.7394297046
 21
83.3843664775
 31
0.0
  0
LINE
  5
EC
330
1F
100
AcDbEntity
  8
0
  6
HIDDEN
 62
     7
370
     0
100
AcDbLine
 10
52.7894297046
 20
123.3381040087
 30
0.0
 11
52.7894297046
 21
126.2180417741
 31
0.0
  0
LINE
  5
ED
330
1F
100
AcDbEntity
  8
0
  6
HIDDEN
 62
     7
370
     0
100
AcDbLine
 10
57.7394297046
 20
123.3381040087
 30
0.0
 11
57.7394297046
 21
127.192211681
 31
0.0
  0
LINE
  5
EE
330
1F
100
AcDbEntity
  8
0
  6
HIDDEN
 62
     7
370
     0
100
AcDbLine
 10
102.3394297046
 20
95.8481040087
 30
0.0
 11
102.3394297046
 21
114.8481040087
 31
0.0
  0
LINE
  5
EF
330
1F
100
AcDbEntity
  8
0
  6
HIDDEN
 62
     7
370
     0
100
AcDbLine
 10
105.3394297046
 20
95.8481040087
 30
0.0
 11
105.3394297046
 21
114.8481040087
 31
0.0
  0
LINE
  5
F0
330
1F
100
AcDbEntity
  8
0
  6
HIDDEN
 62
     7
370
     0
100
AcDbLine
 10
109.4894297046
 20
78.9481040087
 30
0.0
 11
103.3517549022
 21
78.9481040087
 31
0.0
  0
LINE
  5
F1
330
1F
100
AcDbEntity
  8
0
  6
HIDDEN
 62
     7
370
     0
100
AcDbLine
 10
93.9894297046
 20
96.8481040087
 30
0.0
 11
93.9894297046
 21
113.8481040087
 31
0.0
  0
LINE
  5
F2
330
1F
100
AcDbEntity
  8
0
  6
HIDDEN
 62
     7
370
     0
100
AcDbLine
 10
88.4894297046
 20
73.8639810258
 30
0.0
 11
88.4894297046
 21
78.9481040087
 31
0.0
  0
LINE
  5
F3
330
1F
100
AcDbEntity
  8
0
  6
HIDDEN
 62
     7
370
     0
100
AcDbLine
 10
96.4894297046
 20
78.9481040087
 30
0.0
 11
88.4894297046
 21
78.9481040087
 31
0.0
  0
LINE
  5
F4
330
1F
100
AcDbEntity
  8
0
  6
HIDDEN
 62
     7
370
     0
100
AcDbLine
 10
99.7271045069
 20
78.9481040087
 30
0.0
 11
96.4894297046
 21
78.9481040087
 31
0.0
  0
LINE
  5
F5
330
1F
100
AcDbEntity
  8
0
  6
HIDDEN
 62
     7
370
     0
100
AcDbLine
 10
109.4894297046
 20
131.7481040087
 30
0.0
 11
103.0551321729
 21
131.7481040087
 31
0.0
  0
LINE
  5
F6
330
1F
100
AcDbEntity
  8
0
  6
HIDDEN
 62
     7
370
     0
100
AcDbLine
 10
96.4894297046
 20
131.7481040087
 30
0.0
 11
88.4894297046
 21
131.7481040087
 31
0.0
  0
LINE
  5
F7
330
1F
100
AcDbEntity
  8
0
  6
HIDDEN
 62
     7
370
     0
100
AcDbLine
 10
100.0237272362
 20
131.7481040087
 30
0.0
 11
96.4894297046
 21
131.7481040087
 31
0.0
  0
SPLINE
  5
F8
330
1F
100
AcDbEntity
  8
0
  6
HIDDEN
 62
     7
370
     0
100
AcDbSpline
210
0.0
220
0.0
230
1.0
 70
     8
 71
     3
 72
    11
 73
     7
 74
     0
 42
0.00000001
 43
0.00000001
 40
0.0
 40
0.0
 40
0.0
 40
0.0
 40
0.0008203708524183
 40
0.0008203708524183
 40
0.0008203708524183
 40
0.0016409967870155
 40
0.0016409967870155
 40
0.0016409967870155
 40
0.0016409967870155
 10
52.78942970455856
 20
89.49607125802473
 30
0.0
 10
52.5982714042599
 20
89.45489222940559
 30
0.0
 10
52.40684433418771
 20
89.41613825717558
 30
0.0
 10
52.21519871066708
 20
89.37977049789703
 30
0.0
 10
52.02349330558663
 20
89.343391394131
 30
0.0
 10
51.83155435352768
 20
89.30939714336344
 30
0.0
 10
51.63942970645688
 20
89.27774901797224
 30
0.0
  0
ELLIPSE
  5
F9
330
1F
100
AcDbEntity
  8
0
  6
HIDDEN
 62
     7
370
     0
100
AcDbEllipse
 10
47.3969978404
 20
105.3481040087
 30
0.0
 11
20.19992452871122
 21
-1.421085471520200E-14
 31
0.0
210
0.0
220
0.0
230
1.0
 40
0.8164965809
 41
1.300566354878502
 42
1.359198697382093
  0
LINE
  5
FA
330
1F
100
AcDbEntity
  8
0
  6
HIDDEN
 62
     7
370
     0
100
AcDbLine
 10
52.7894297046
 20
87.3581040087
 30
0.0
 11
52.7894297046
 21
89.496071258
 31
0.0
  0
LINE
  5
FB
330
1F
100
AcDbEntity
  8
0
  6
HIDDEN
 62
     7
370
     0
100
AcDbLine
 10
52.8704607179
 20
89.5466135726
 30
0.0
 11
52.7894297046
 21
89.496071258
 31
0.0
  0
LINE
  5
FC
330
1F
100
AcDbEntity
  8
0
  6
HIDDEN
 62
     7
370
     0
100
AcDbLine
 10
61.7394297046
 20
87.3581040087
 30
0.0
 11
61.7394297046
 21
89.0605903863
 31
0.0
  0
LINE
  5
FD
330
1F
100
AcDbEntity
  8
0
  6
HIDDEN
 62
     7
370
     0
100
AcDbLine
 10
52.7894297046
 20
123.3381040087
 30
0.0
 11
52.7894297046
 21
121.2427284576
 31
0.0
  0
SPLINE
  5
FE
330
1F
100
AcDbEntity
  8
0
  6
HIDDEN
 62
     7
370
     0
100
AcDbSpline
210
0.0
220
0.0
230
1.0
 70
     8
 71
     3
 72
     8
 73
     4
 74
     0
 42
0.00000001
 43
0.00000001
 40
0.0
 40
0.0
 40
0.0
 40
0.0
 40
1.0
 40
1.0
 40
1.0
 40
1.0
 10
52.78942970455855
 20
121.2427284576148
 30
0.0
 10
52.83943520237494
 20
121.211692684099
 30
0.0
 10
52.88943527191226
 20
121.1806480397753
 30
0.0
 10
52.93942970457052
 20
121.1495944446991
 30
0.0
  0
LINE
  5
FF
330
1F
100
AcDbEntity
  8
0
  6
HIDDEN
 62
     7
370
     0
100
AcDbLine
 10
57.7394297046
 20
123.3381040087
 30
0.0
 11
57.7394297046
 21
121.6356176311
 31
0.0
  0
LINE
  5
100
330
1F
100
AcDbEntity
  8
0
  6
HIDDEN
 62
     7
370
     0
100
AcDbLine
 10
191.5394297046
 20
99.8481040087
 30
0.0
 11
191.5394297046
 21
110.8481040087
 31
0.0
  0
LINE
  5
101
330
1F
100
AcDbEntity
  8
0
  6
HIDDEN
 62
     7
370
     0
100
AcDbLine
 10
161.5394297046
 20
99.8481040087
 30
0.0
 11
161.5394297046
 21
110.8481040087
 31
0.0
  0
LINE
  5
102
330
1F
100
AcDbEntity
  8
0
  6
HIDDEN
 62
     7
370
     0
100
AcDbLine
 10
160.7583108998
 20
101.1481040087
 30
0.0
 11
160.7583108998
 21
109.5481040087
 31
0.0
  0
SPLINE
  5
103
330
1F
100
AcDbEntity
  8
0
  6
HIDDEN
 62
     7
370
     0
100
AcDbSpline
210
0.0
220
0.0
230
1.0
 70
     8
 71
     3
 72
    20
 73
    16
 74
     0
 42
0.00000001
 43
0.00000001
 40
0.0
 40
0.0
 40
0.0
 40
0.0
 40
0.1119595197697403
 40
0.1774767634657198
 40
0.2490961890178592
 40
0.329842231515121
 40
0.3986125823958296
 40
0.4998893016460016
 40
0.6138510292917251
 40
0.6790150176695212
 40
0.7495394203319203
 40
0.8296829944361284
 40
0.898124628546775
 40
0.9995320175861881
 40
0.9999999999999999
 40
0.9999999999999999
 40
0.9999999999999999
 40
0.9999999999999999
 10
78.2882701544215
 20
81.74811024689953
 30
0.0
 10
78.24494641612186
 20
81.76153956494056
 30
0.0
 10
78.17627019394382
 20
81.78282754390275
 30
0.0
 10
77.7310910678904
 20
81.88613835554784
 30
0.0
 10
77.20453278420864
 20
81.99944158560639
 30
0.0
 10
76.51910776305174
 20
82.1223744533975
 30
0.0
 10
75.62579036574326
 20
82.24440891257974
 30
0.0
 10
74.51243097866379
 20
82.3621452203662
 30
0.0
 10
73.40165689808582
 20
82.3741207227319
 30
0.0
 10
72.5169085961692
 20
82.34706243260275
 30
0.0
 10
71.84971200145549
 20
82.29913036819976
 30
0.0
 10
71.30843949917544
 20
82.24283685583892
 30
0.0
 10
70.92085954015366
 20
82.19775394520519
 30
0.0
 10
70.72692302013533
 20
82.1588807704996
 30
0.0
 10
70.79002548034687
 20
82.16958682773864
 30
0.0
 10
70.7903153525822
 20
82.16963600789316
 30
0.0
  0
LINE
  5
104
330
1F
100
AcDbEntity
  8
0
  6
HIDDEN
 62
     7
370
     0
100
AcDbLine
 10
71.699441619
 20
82.2804421523
 30
0.0
 11
71.8832869301
 21
82.2986314946
 31
0.0
  0
LINE
  5
105
330
1F
100
AcDbEntity
  8
0
  6
HIDDEN
 62
     7
370
     0
100
AcDbLine
 10
71.8832842316
 20
128.3975070915
 30
0.0
 11
71.7092109513
 21
128.4147166174
 31
0.0
  0
SPLINE
  5
106
330
1F
100
AcDbEntity
  8
0
  6
HIDDEN
 62
     7
370
     0
100
AcDbSpline
210
0.0
220
0.0
230
1.0
 70
     8
 71
     3
 72
    20
 73
    16
 74
     0
 42
0.00000001
 43
0.00000001
 40
0.0
 40
0.0
 40
0.0
 40
0.0
 40
0.0004889684280482
 40
0.1018319933902445
 40
0.1702475582132129
 40
0.2503692056770098
 40
0.3209568221784361
 40
0.3861816196705448
 40
0.5002554836816774
 40
0.6012243489286591
 40
0.6697680558629565
 40
0.750240190758037
 40
0.8220490693851168
 40
0.8877204546109287
 40
1.0
 40
1.0
 40
1.0
 40
1.0
 10
70.79034873734379
 20
128.5265054628599
 30
0.0
 10
70.79004509634684
 20
128.5265570500101
 30
0.0
 10
70.72680917717487
 20
128.5373005296232
 30
0.0
 10
70.92001321097419
 20
128.4984445389664
 30
0.0
 10
71.30696026587258
 20
128.4534210485612
 30
0.0
 10
71.84796718920141
 20
128.3971580864681
 30
0.0
 10
72.515467450666
 20
128.349226893874
 30
0.0
 10
73.40129530201737
 20
128.3221534381453
 30
0.0
 10
74.51210187410416
 20
128.3339794417226
 30
0.0
 10
75.62417224012891
 20
128.4514285168765
 30
0.0
 10
76.51527254632862
 20
128.5731329051166
 30
0.0
 10
77.20075699715352
 20
128.6959539506937
 30
0.0
 10
77.72874489670036
 20
128.8093922023791
 30
0.0
 10
78.1761288481844
 20
128.9131327580199
 30
0.0
 10
78.2449393145354
 20
128.9345555512934
 30
0.0
 10
78.28835582184561
 20
128.948072431938
 30
0.0
  0
LINE
  5
107
330
1F
100
AcDbEntity
  8
0
  6
HIDDEN
 62
     7
370
     0
100
AcDbLine
 10
155.4894297046
 20
125.2707537395
 30
0.0
 11
157.9894297046
 21
125.2707537395
 31
0.0
  0
LINE
  5
108
330
1F
100
AcDbEntity
  8
0
  6
HIDDEN
 62
     7
370
     0
100
AcDbLine
 10
152.9894297046
 20
125.2707537395
 30
0.0
 11
155.4894297046
 21
125.2707537395
 31
0.0
  0
LINE
  5
109
330
1F
100
AcDbEntity
  8
0
  6
HIDDEN
 62
     7
370
     0
100
AcDbLine
 10
157.9894297046
 20
85.4254542779
 30
0.0
 11
152.9894297046
 21
85.4254542779
 31
0.0
  0
LINE
  5
10A
330
1F
100
AcDbEntity
  8
0
  6
HIDDEN
 62
     7
370
     0
100
AcDbLine
 10
155.4894297046
 20
111.8481040087
 30
0.0
 11
157.9894297046
 21
111.8481040087
 31
0.0
  0
LINE
  5
10B
330
1F
100
AcDbEntity
  8
0
  6
HIDDEN
 62
     7
370
     0
100
AcDbLine
 10
152.9894297046
 20
111.8481040087
 30
0.0
 11
155.4894297046
 21
111.8481040087
 31
0.0
  0
LINE
  5
10C
330
1F
100
AcDbEntity
  8
0
  6
HIDDEN
 62
     7
370
     0
100
AcDbLine
 10
157.9894297046
 20
98.8481040087
 30
0.0
 11
152.9894297046
 21
98.8481040087
 31
0.0
  0
LWPOLYLINE
  5
10D
330
1F
100
AcDbEntity
  8
0
  6
HIDDEN
 62
     7
370
     0
100
AcDbPolyline
 90
       27
 70
   128
 43
0.0
 10
195.5379874281
 20
89.2128911881
 10
195.5329713832
 20
89.2187240336
 10
195.5070126401
 20
89.249062301
 10
195.4660597765
 20
89.2974640134
 10
195.4103081799
 20
89.3645638656
 10
195.3179213624
 20
89.4795646615
 10
195.209870721
 20
89.6224985539
 10
195.098356261
 20
89.7856865857
 10
194.9901175935
 20
89.975148837
 10
194.9353867028
 20
90.0987154201
 10
194.8930942359
 20
90.2335435396
 10
194.8730169174
 20
90.3500942497
 10
194.8693923527
 20
90.472459902
 10
194.882759393
 20
90.5904611804
 10
194.9113653168
 20
90.7074726175
 10
194.9779321428
 20
90.8801007613
 10
195.0620797867
 20
91.0424782673
 10
195.1240517429
 20
91.1456155104
 10
195.1874129611
 20
91.2429163194
 10
195.2513180605
 20
91.3353810062
 10
195.3132118242
 20
91.4210015988
 10
195.3952227271
 20
91.5300356849
 10
195.4648294757
 20
91.6195665989
 10
195.5063821659
 20
91.671958551
 10
195.532340033
 20
91.7043416827
 10
195.5394297046
 20
91.7131433206
 10
195.5394297046
 20
91.7131433206
  0
LINE
  5
10E
330
1F
100
AcDbEntity
  8
0
  6
HIDDEN
 62
     7
370
     0
100
AcDbLine
 10
194.0394297046
 20
88.8481040087
 30
0.0
 11
195.5394297046
 21
88.8481040087
 31
0.0
  0
LINE
  5
10F
330
1F
100
AcDbEntity
  8
0
  6
HIDDEN
 62
     7
370
     0
100
AcDbLine
 10
192.5394297046
 20
88.8481040087
 30
0.0
 11
194.0394297046
 21
88.8481040087
 31
0.0
  0
SPLINE
  5
110
330
1F
100
AcDbEntity
  8
0
  6
HIDDEN
 62
     7
370
     0
100
AcDbSpline
210
0.0
220
0.0
230
1.0
 70
     8
 71
     3
 72
    10
 73
     6
 74
     0
 42
0.00000001
 43
0.00000001
 40
0.0
 40
0.0
 40
0.0
 40
0.0
 40
0.4107552831582006
 40
0.8323754367542996
 40
1.0
 40
1.0
 40
1.0
 40
1.0
 10
192.6237954586748
 20
89.19934081377596
 30
0.0
 10
192.6039604306575
 20
89.20820106474073
 30
0.0
 10
192.5637657191447
 20
89.2261559287898
 30
0.0
 10
192.5389426613402
 20
89.23170092048007
 30
0.0
 10
192.5422846465024
 20
89.23086858759018
 30
0.0
 10
192.5432353530377
 20
89.23063181086032
 30
0.0
  0
SPLINE
  5
111
330
1F
100
AcDbEntity
  8
0
  6
HIDDEN
 62
     7
370
     0
100
AcDbSpline
210
0.0
220
0.0
230
1.0
 70
     8
 71
     3
 72
    26
 73
    22
 74
     0
 42
0.00000001
 43
0.00000001
 40
0.0
 40
0.0
 40
0.0
 40
0.0
 40
0.0627854322058888
 40
0.1276813655174412
 40
0.1903431293030045
 40
0.254304042131078
 40
0.3033366128922365
 40
0.353297259421491
 40
0.3878878685856981
 40
0.4233444393630157
 40
0.4579950236790694
 40
0.4938278954902339
 40
0.5379763449028528
 40
0.5833378465362654
 40
0.6512048717996977
 40
0.7209804355026422
 40
0.7898055116762275
 40
0.8611604406778209
 40
0.9083466339170353
 40
0.9568254377037918
 40
1.0
 40
1.0
 40
1.0
 40
1.0
 10
192.6237954586747
 20
89.19934081377595
 30
0.0
 10
192.6495650306064
 20
89.23238216952194
 30
0.0
 10
192.7019704058253
 20
89.29957554976914
 30
0.0
 10
192.803047106211
 20
89.4352030127276
 30
0.0
 10
192.9116178208967
 20
89.59092452132734
 30
0.0
 10
193.0126388557818
 20
89.75212515672442
 30
0.0
 10
193.0993504749812
 20
89.91629443626155
 30
0.0
 10
193.1591882299797
 20
90.06265347834952
 30
0.0
 10
193.1965549695812
 20
90.20291219021367
 30
0.0
 10
193.2126508738353
 20
90.33035536419969
 30
0.0
 10
193.2087394315062
 20
90.4607499084924
 30
0.0
 10
193.1830333298198
 20
90.59840955196458
 30
0.0
 10
193.1338317919618
 20
90.74038342956621
 30
0.0
 10
193.0539240531886
 20
90.90445587477961
 30
0.0
 10
192.9473946206917
 20
91.07607637989916
 30
0.0
 10
192.8253951914558
 20
91.24524206571576
 30
0.0
 10
192.7110405694393
 20
91.39081095547246
 30
0.0
 10
192.6267613810861
 20
91.49266539221027
 30
0.0
 10
192.5733510361344
 20
91.55575293518483
 30
0.0
 10
192.544314801159
 20
91.58960547960118
 30
0.0
 10
192.5415274098648
 20
91.59283780600067
 30
0.0
 10
192.5402143713567
 20
91.59436043723029
 30
0.0
  0
SPLINE
  5
112
330
1F
100
AcDbEntity
  8
0
  6
HIDDEN
 62
     7
370
     0
100
AcDbSpline
210
0.0
220
0.0
230
1.0
 70
     8
 71
     3
 72
    20
 73
    16
 74
     0
 42
0.00000001
 43
0.00000001
 40
0.0
 40
0.0
 40
0.0
 40
0.0
 40
0.0837700074900136
 40
0.167164295662388
 40
0.2832392399699966
 40
0.3419682516181186
 40
0.402169596661714
 40
0.468265638988328
 40
0.5350318016472246
 40
0.5920958805130607
 40
0.6924889590540036
 40
0.7990475557046577
 40
0.8954755043762939
 40
0.9925551802366465
 40
1.0
 40
1.0
 40
1.0
 40
1.0
 10
195.5394297045586
 20
118.9830646967818
 30
0.0
 10
195.5311839266218
 20
118.9932246691019
 30
0.0
 10
195.5147293541288
 20
119.0134990449521
 30
0.0
 10
195.3835822227872
 20
119.1792541899559
 30
0.0
 10
195.2200564158934
 20
119.3987488245559
 30
0.0
 10
195.065729848226
 20
119.6410697578207
 30
0.0
 10
194.9536861291513
 20
119.8546180110031
 30
0.0
 10
194.867812424735
 20
120.1068762237469
 30
0.0
 10
194.8633540186547
 20
120.3792861585373
 30
0.0
 10
194.9543922824753
 20
120.6763727005389
 30
0.0
 10
195.129690456536
 20
120.9713729675487
 30
0.0
 10
195.3370771802634
 20
121.2443227076808
 30
0.0
 10
195.4862324438991
 20
121.4235014774645
 30
0.0
 10
195.5519764385419
 20
121.499636416025
 30
0.0
 10
195.5372587949801
 20
121.4824602016049
 30
0.0
 10
195.5362105220082
 20
121.4812368154521
 30
0.0
  0
SPLINE
  5
113
330
1F
100
AcDbEntity
  8
0
  6
HIDDEN
 62
     7
370
     0
100
AcDbSpline
210
0.0
220
0.0
230
1.0
 70
     8
 71
     3
 72
     9
 73
     5
 74
     0
 42
0.00000001
 43
0.00000001
 40
0.0
 40
0.0
 40
0.0
 40
0.0
 40
0.7078888132122193
 40
1.0
 40
1.0
 40
1.0
 40
1.0
 10
192.5495292861686
 20
121.4677044376595
 30
0.0
 10
192.5523446816727
 20
121.467204011147
 30
0.0
 10
192.5563218535837
 20
121.4664970830206
 30
0.0
 10
192.6085415122176
 20
121.4900013455399
 30
0.0
 10
192.6237954586747
 20
121.4968672035589
 30
0.0
  0
SPLINE
  5
114
330
1F
100
AcDbEntity
  8
0
  6
HIDDEN
 62
     7
370
     0
100
AcDbSpline
210
0.0
220
0.0
230
1.0
 70
     8
 71
     3
 72
    18
 73
    14
 74
     0
 42
0.00000001
 43
0.00000001
 40
0.0
 40
0.0
 40
0.0
 40
0.0
 40
0.0527648566387582
 40
0.1430329665714618
 40
0.2407997643998454
 40
0.3579447684186707
 40
0.4689184767769826
 40
0.539804900820485
 40
0.6111570715510288
 40
0.6978986902523665
 40
0.8376609013437817
 40
0.9821567271866437
 40
1.0
 40
1.0
 40
1.0
 40
1.0
 10
192.5496409955419
 20
119.1128161279401
 30
0.0
 10
192.5480905447931
 20
119.1110046123458
 30
0.0
 10
192.5438876418716
 20
119.1060940247699
 30
0.0
 10
192.6223736553085
 20
119.1977109507096
 30
0.0
 10
192.7664140116592
 20
119.3729083746758
 30
0.0
 10
192.9614877592865
 20
119.6332941940535
 30
0.0
 10
193.1337854247807
 20
119.9285812547944
 30
0.0
 10
193.2186029583913
 20
120.226232085242
 30
0.0
 10
193.2053964473165
 20
120.5124937411505
 30
0.0
 10
193.0783000756185
 20
120.8483756653454
 30
0.0
 10
192.8571795838305
 20
121.192504276033
 30
0.0
 10
192.6928851439452
 20
121.408646857587
 30
0.0
 10
192.6306373383371
 20
121.4881308344678
 30
0.0
 10
192.6237954586748
 20
121.4968672035589
 30
0.0
  0
LINE
  5
115
330
1F
100
AcDbEntity
  8
0
  6
HIDDEN
 62
     7
370
     0
100
AcDbLine
 10
195.5394297046
 20
122.2481040087
 30
0.0
 11
192.5394297046
 21
122.2481040087
 31
0.0
  0
LINE
  5
116
330
1F
100
AcDbEntity
  8
0
  6
HIDDEN
 62
     7
370
     0
100
AcDbLine
 10
192.5296740866
 20
119.1013183171
 30
0.0
 11
192.6237954587
 21
121.4968672036
 31
0.0
  0
LINE
  5
117
330
1F
100
AcDbEntity
  8
0
  6
HIDDEN
 62
     7
370
     0
100
AcDbLine
 10
192.5296740866
 20
91.5948897003
 30
0.0
 11
192.6237954587
 21
89.1993408138
 31
0.0
  0
SPLINE
  5
118
330
1F
100
AcDbEntity
  8
0
  6
HIDDEN
 62
     7
370
     0
100
AcDbSpline
210
0.0
220
0.0
230
1.0
 70
     8
 71
     3
 72
     8
 73
     4
 74
     0
 42
0.00000001
 43
0.00000001
 40
0.0
 40
0.0
 40
0.0
 40
0.0
 40
0.0001590976916942
 40
0.0001590976916942
 40
0.0001590976916942
 40
0.0001590976916942
 10
52.92459771068778
 20
89.54661357263576
 30
0.0
 10
52.87954624121283
 20
89.51863468895986
 30
0.0
 10
52.83449020382763
 20
89.49066315923233
 30
0.0
 10
52.78942970455858
 20
89.46269882052701
 30
0.0
  0
SPLINE
  5
119
330
1F
100
AcDbEntity
  8
0
  6
HIDDEN
 62
     7
370
     0
100
AcDbSpline
210
0.0
220
0.0
230
1.0
 70
     8
 71
     3
 72
    11
 73
     7
 74
     0
 42
0.00000001
 43
0.00000001
 40
0.0
 40
0.0
 40
0.0
 40
0.0
 40
0.0008212909311266
 40
0.0008212909311266
 40
0.0008212909311266
 40
0.0016428257242681
 40
0.0016428257242681
 40
0.0016428257242681
 40
0.0016428257242681
 10
52.78942970455856
 20
89.46269882052701
 30
0.0
 10
52.59828468307602
 20
89.41941263171766
 30
0.0
 10
52.40686634739936
 20
89.37847612212434
 30
0.0
 10
52.21522027273824
 20
89.33987435078248
 30
0.0
 10
52.02351719119663
 20
89.30126109699013
 30
0.0
 10
51.83157206791137
 20
89.26498088774967
 30
0.0
 10
51.63942970455859
 20
89.2310139814445
 30
0.0
  0
LINE
  5
11A
330
1F
100
AcDbEntity
  8
0
  6
HIDDEN
 62
     7
370
     0
100
AcDbLine
 10
99.6294297046
 20
125.4839706401
 30
0.0
 11
99.6294297046
 21
125.1981040087
 31
0.0
  0
LINE
  5
11B
330
1F
100
AcDbEntity
  8
0
  6
HIDDEN
 62
     7
370
     0
100
AcDbLine
 10
103.4494297046
 20
125.5292500212
 30
0.0
 11
103.4494297046
 21
125.1981040087
 31
0.0
  0
LINE
  5
11C
330
1F
100
AcDbEntity
  8
0
  6
HIDDEN
 62
     7
370
     0
100
AcDbLine
 10
104.931362536
 20
129.806793671
 30
0.0
 11
104.931362536
 21
125.1981040087
 31
0.0
  0
SPLINE
  5
11D
330
1F
100
AcDbEntity
  8
0
  6
HIDDEN
 62
     7
370
     0
100
AcDbSpline
210
0.0
220
0.0
230
1.0
 70
     8
 71
     3
 72
    24
 73
    20
 74
     0
 42
0.00000001
 43
0.00000001
 40
0.0
 40
0.0
 40
0.0
 40
0.0
 40
0.2500000000000047
 40
0.2500000000000047
 40
0.3750000000000068
 40
0.3750000000000068
 40
0.437500000000008
 40
0.437500000000008
 40
0.4687500000000068
 40
0.4687500000000068
 40
0.5000000000000056
 40
0.5000000000000056
 40
0.5625000000000058
 40
0.5625000000000058
 40
0.625000000000006
 40
0.625000000000006
 40
0.7500000000000029
 40
0.7500000000000029
 40
1.0
 40
1.0
 40
1.0
 40
1.0
 10
51.70209307928197
 20
85.6735514638867
 30
0.0
 10
51.71584619795219
 20
85.74420152187697
 30
0.0
 10
51.73361876535804
 20
85.81079963464188
 30
0.0
 10
51.78586985691341
 20
85.88489765487509
 30
0.0
 10
51.80690493249496
 20
85.90615546203664
 30
0.0
 10
51.85980534012339
 20
85.9143013881829
 30
0.0
 10
51.8809110130013
 20
85.91336158478713
 30
0.0
 10
51.92696318167925
 20
85.89234559320981
 30
0.0
 10
51.94533365366262
 20
85.88143678710219
 30
0.0
 10
51.98688528872833
 20
85.84880187615485
 30
0.0
 10
52.00945196148524
 20
85.8273098957835
 30
0.0
 10
52.07223297794529
 20
85.75884395219717
 30
0.0
 10
52.10536273891317
 20
85.71276949399208
 30
0.0
 10
52.16228042539819
 20
85.6277616056574
 30
0.0
 10
52.18646645090197
 20
85.58748130447601
 30
0.0
 10
52.25167440128173
 20
85.47254507801006
 30
0.0
 10
52.28639046147299
 20
85.40196209286304
 30
0.0
 10
52.37960573180386
 20
85.19775633378443
 30
0.0
 10
52.42527826716456
 20
85.07485795145706
 30
0.0
 10
52.46358335066309
 20
84.95798467506948
 30
0.0
  0
SPLINE
  5
11E
330
1F
100
AcDbEntity
  8
0
  6
HIDDEN
 62
     7
370
     0
100
AcDbSpline
210
0.0
220
0.0
230
1.0
 70
     8
 71
     3
 72
    11
 73
     7
 74
     0
 42
0.00000001
 43
0.00000001
 40
0.0
 40
0.0
 40
0.0
 40
0.0
 40
0.0005781862223847
 40
0.0005781862223847
 40
0.0005781862223847
 40
0.0011563724723663
 40
0.0011563724723663
 40
0.0011563724723663
 40
0.0011563724723663
 10
52.63942970455884
 20
117.9882463222802
 30
0.0
 10
52.47276915028353
 20
118.052775833785
 30
0.0
 10
52.30610585337715
 20
118.1172785377191
 30
0.0
 10
52.13943926954684
 20
118.1817649862513
 30
0.0
 10
51.9727726772877
 20
118.2462514380447
 30
0.0
 10
51.80610281166162
 20
118.3107214468745
 30
0.0
 10
51.63942970455857
 20
118.3751772137115
 30
0.0
  0
SPLINE
  5
11F
330
1F
100
AcDbEntity
  8
0
  6
HIDDEN
 62
     7
370
     0
100
AcDbSpline
210
0.0
220
0.0
230
1.0
 70
     8
 71
     3
 72
     8
 73
     4
 74
     0
 42
0.00000001
 43
0.00000001
 40
0.0
 40
0.0
 40
0.0
 40
0.0
 40
0.0011557494192644
 40
0.0011557494192644
 40
0.0011557494192644
 40
0.0011557494192644
 10
51.63942970455855
 20
92.32088214621668
 30
0.0
 10
51.97276351457279
 20
92.4525064224823
 30
0.0
 10
52.30609712623546
 20
92.5843233361238
 30
0.0
 10
52.63942970455855
 20
92.71632677835068
 30
0.0
  0
SPLINE
  5
120
330
1F
100
AcDbEntity
  8
0
  6
HIDDEN
 62
     7
370
     0
100
AcDbSpline
210
0.0
220
0.0
230
1.0
 70
     8
 71
     3
 72
    11
 73
     7
 74
     0
 42
0.00000001
 43
0.00000001
 40
0.0000000000000006
 40
0.0000000000000006
 40
0.0000000000000006
 40
0.0000000000000006
 40
0.0005780486062644
 40
0.0005780486062644
 40
0.0005780486062644
 40
0.0011560973513878
 40
0.0011560973513878
 40
0.0011560973513878
 40
0.0011560973513878
 10
51.63942970455857
 20
115.3289185019547
 30
0.0
 10
51.80609956060377
 20
115.2665466405586
 30
0.0
 10
51.97276726468819
 20
115.2041927803761
 30
0.0
 10
52.13943356914184
 20
115.1418732203013
 30
0.0
 10
52.30609990983559
 20
115.0795536466757
 30
0.0
 10
52.4727648664642
 20
115.0172684424637
 30
0.0
 10
52.63942970455855
 20
114.9550433219992
 30
0.0
  0
SPLINE
  5
121
330
1F
100
AcDbEntity
  8
0
  6
HIDDEN
 62
     7
370
     0
100
AcDbSpline
210
0.0
220
0.0
230
1.0
 70
     8
 71
     3
 72
    11
 73
     7
 74
     0
 42
0.00000001
 43
0.00000001
 40
0.0
 40
0.0
 40
0.0
 40
0.0
 40
0.000578240158334
 40
0.000578240158334
 40
0.000578240158334
 40
0.0011564805960605
 40
0.0011564805960605
 40
0.0011564805960605
 40
0.0011564805960605
 10
52.63942970455855
 20
95.74727722385637
 30
0.0
 10
52.47277875420983
 20
95.68385176592528
 30
0.0
 10
52.30611916162727
 20
95.62049624240368
 30
0.0
 10
52.13945210919871
 20
95.55719865819076
 30
0.0
 10
51.97278497263491
 20
95.49390104202459
 30
0.0
 10
51.80611036518877
 20
95.4306612472244
 30
0.0
 10
51.63942970455857
 20
95.3674612407291
 30
0.0
  0
CIRCLE
  5
122
330
1F
100
AcDbEntity
  8
0
  6
HIDDEN
 62
     7
370
     0
100
AcDbCircle
 10
90.5394297046
 20
105.3481040087
 30
0.0
 40
5.0
  0
LINE
  5
123
330
1F
100
AcDbEntity
  8
0
  6
HIDDEN
 62
     7
370
     0
100
AcDbLine
 10
243.4070526709
 20
119.8544624544
 30
0.0
 11
243.2892732237
 21
116.8567753457
 31
0.0
  0
LINE
  5
124
330
1F
100
AcDbEntity
  8
0
  6
HIDDEN
 62
     7
370
     0
100
AcDbLine
 10
238.0731148671
 20
120.0640334415
 30
0.0
 11
237.9553354198
 21
117.0663463328
 31
0.0
  0
LINE
  5
125
330
1F
100
AcDbEntity
  8
0
  6
HIDDEN
 62
     7
370
     0
100
AcDbLine
 10
243.5394297046
 20
119.0986826776
 30
0.0
 11
243.4621074974
 21
117.1307010907
 31
0.0
  0
LINE
  5
126
330
1F
100
AcDbEntity
  8
0
  6
HIDDEN
 62
     7
370
     0
100
AcDbLine
 10
237.5538704411
 20
119.5840488312
 30
0.0
 11
237.4753508095
 21
117.5855907588
 31
0.0
  0
LINE
  5
127
330
1F
100
AcDbEntity
  8
0
  6
HIDDEN
 62
     7
370
     0
100
AcDbLine
 10
241.5115267703
 20
118.427780532
 30
0.0
 11
241.4820819084
 21
117.6783587548
 31
0.0
  0
LINE
  5
128
330
1F
100
AcDbEntity
  8
0
  6
HIDDEN
 62
     7
370
     0
100
AcDbLine
 10
241.5409716321
 20
119.1772023091
 30
0.0
 11
241.5115267703
 21
118.427780532
 31
0.0
  0
LINE
  5
129
330
1F
100
AcDbEntity
  8
0
  6
HIDDEN
 62
     7
370
     0
100
AcDbLine
 10
241.5115267703
 20
118.427780532
 30
0.0
 11
243.5099848427
 21
118.3492609004
 31
0.0
  0
LINE
  5
12A
330
1F
100
AcDbEntity
  8
0
  6
HIDDEN
 62
     7
370
     0
100
AcDbLine
 10
241.4820819084
 20
117.6783587548
 30
0.0
 11
243.4805399809
 21
117.5998391233
 31
0.0
  0
LINE
  5
12B
330
1F
100
AcDbEntity
  8
0
  6
HIDDEN
 62
     7
370
     0
100
AcDbLine
 10
241.5409716321
 20
119.1772023091
 30
0.0
 11
243.5394297046
 21
119.0986826776
 31
0.0
  0
LINE
  5
12C
330
1F
100
AcDbEntity
  8
0
  6
HIDDEN
 62
     7
370
     0
100
AcDbLine
 10
243.4580526676
 20
91.0448663065
 30
0.0
 11
243.4659423946
 21
90.8440593465
 31
0.0
  0
LINE
  5
12D
330
1F
100
AcDbEntity
  8
0
  6
HIDDEN
 62
     7
370
     0
100
AcDbLine
 10
243.3481629473
 20
93.8417464552
 30
0.0
 11
243.4580526676
 21
91.0448663065
 31
0.0
  0
LINE
  5
12E
330
1F
100
AcDbEntity
  8
0
  6
HIDDEN
 62
     7
370
     0
100
AcDbLine
 10
238.1241148637
 20
90.8352953194
 30
0.0
 11
238.1320045907
 21
90.6344883594
 31
0.0
  0
LINE
  5
12F
330
1F
100
AcDbEntity
  8
0
  6
HIDDEN
 62
     7
370
     0
100
AcDbLine
 10
238.0142251434
 20
93.6321754681
 30
0.0
 11
238.1241148637
 21
90.8352953194
 31
0.0
  0
LINE
  5
130
330
1F
100
AcDbEntity
  8
0
  6
HIDDEN
 62
     7
370
     0
100
AcDbLine
 10
237.6075003467
 20
91.2483442763
 30
0.0
 11
237.6127601647
 21
91.1144729696
 31
0.0
  0
LINE
  5
131
330
1F
100
AcDbEntity
  8
0
  6
HIDDEN
 62
     7
370
     0
100
AcDbLine
 10
237.5342405332
 20
93.1129310421
 30
0.0
 11
237.6075003467
 21
91.2483442763
 31
0.0
  0
LINE
  5
132
330
1F
100
AcDbEntity
  8
0
  6
HIDDEN
 62
     7
370
     0
100
AcDbLine
 10
243.5209972211
 20
93.5678207101
 30
0.0
 11
243.5394297046
 21
93.0986826776
 31
0.0
  0
LINE
  5
133
330
1F
100
AcDbEntity
  8
0
  6
HIDDEN
 62
     7
370
     0
100
AcDbLine
 10
241.5704164939
 20
92.2707412689
 30
0.0
 11
241.5998613557
 21
91.5213194917
 31
0.0
  0
LINE
  5
134
330
1F
100
AcDbEntity
  8
0
  6
HIDDEN
 62
     7
370
     0
100
AcDbLine
 10
241.5704164939
 20
92.2707412689
 30
0.0
 11
241.5409716321
 21
93.0201630461
 31
0.0
  0
LINE
  5
135
330
1F
100
AcDbEntity
  8
0
  6
HIDDEN
 62
     7
370
     0
100
AcDbLine
 10
241.5704164939
 20
92.2707412689
 30
0.0
 11
243.5688745664
 21
92.3492609004
 31
0.0
  0
LINE
  5
136
330
1F
100
AcDbEntity
  8
0
  6
HIDDEN
 62
     7
370
     0
100
AcDbLine
 10
241.5998613557
 20
91.5213194917
 30
0.0
 11
243.5983194282
 21
91.5998391233
 31
0.0
  0
LINE
  5
137
330
1F
100
AcDbEntity
  8
0
  6
HIDDEN
 62
     7
370
     0
100
AcDbLine
 10
241.5409716321
 20
93.0201630461
 30
0.0
 11
243.5394297046
 21
93.0986826776
 31
0.0
  0
LINE
  5
138
330
1F
100
AcDbEntity
  8
0
  6
HIDDEN
 62
     7
370
     0
100
AcDbLine
 10
192.5394297046
 20
99.8481040087
 30
0.0
 11
192.5394297046
 21
110.8481040087
 31
0.0
  0
LINE
  5
139
330
1F
100
AcDbEntity
  8
0
  6
HIDDEN
 62
     7
370
     0
100
AcDbLine
 10
177.0394297046
 20
99.3481040087
 30
0.0
 11
177.0394297046
 21
111.3481040087
 31
0.0
  0
LINE
  5
13A
330
1F
100
AcDbEntity
  8
0
  6
HIDDEN
 62
     7
370
     0
100
AcDbLine
 10
176.5394297046
 20
99.8481040087
 30
0.0
 11
176.5394297046
 21
110.8481040087
 31
0.0
  0
LINE
  5
13B
330
1F
100
AcDbEntity
  8
0
  6
HIDDEN
 62
     7
370
     0
100
AcDbLine
 10
196.5394297046
 20
103.1767220246
 30
0.0
 11
194.5394297046
 21
103.1767220246
 31
0.0
  0
LINE
  5
13C
330
1F
100
AcDbEntity
  8
0
  6
HIDDEN
 62
     7
370
     0
100
AcDbLine
 10
196.5394297046
 20
99.8481040087
 30
0.0
 11
196.5394297046
 21
103.1767220246
 31
0.0
  0
LINE
  5
13D
330
1F
100
AcDbEntity
  8
0
  6
HIDDEN
 62
     7
370
     0
100
AcDbLine
 10
194.5394297046
 20
104.5446527287
 30
0.0
 11
196.5394297046
 21
104.5446527287
 31
0.0
  0
LINE
  5
13E
330
1F
100
AcDbEntity
  8
0
  6
HIDDEN
 62
     7
370
     0
100
AcDbLine
 10
196.5394297046
 20
107.5194859927
 30
0.0
 11
194.5394297046
 21
107.5194859927
 31
0.0
  0
LINE
  5
13F
330
1F
100
AcDbEntity
  8
0
  6
HIDDEN
 62
     7
370
     0
100
AcDbLine
 10
196.5394297046
 20
106.1515552887
 30
0.0
 11
196.5394297046
 21
110.8481040087
 31
0.0
  0
LINE
  5
140
330
1F
100
AcDbEntity
  8
0
  6
HIDDEN
 62
     7
370
     0
100
AcDbLine
 10
194.5394297046
 20
106.1515552887
 30
0.0
 11
196.5394297046
 21
106.1515552887
 31
0.0
  0
LINE
  5
141
330
1F
100
AcDbEntity
  8
0
  6
HIDDEN
 62
     7
370
     0
100
AcDbLine
 10
194.5394297046
 20
103.1767220246
 30
0.0
 11
194.5394297046
 21
106.1515552887
 31
0.0
  0
LINE
  5
142
330
1F
100
AcDbEntity
  8
0
  6
HIDDEN
 62
     7
370
     0
100
AcDbLine
 10
194.5394297046
 20
106.4997003195
 30
0.0
 11
194.5394297046
 21
106.1515552887
 31
0.0
  0
LINE
  5
143
330
1F
100
AcDbEntity
  8
0
  6
HIDDEN
 62
     7
370
     0
100
AcDbLine
 10
194.5394297046
 20
103.5248670554
 30
0.0
 11
196.5394297046
 21
103.5248670554
 31
0.0
  0
LINE
  5
144
330
1F
100
AcDbEntity
  8
0
  6
HIDDEN
 62
     7
370
     0
100
AcDbLine
 10
196.5394297046
 20
103.5248670554
 30
0.0
 11
196.5394297046
 21
103.1767220246
 31
0.0
  0
LINE
  5
145
330
1F
100
AcDbEntity
  8
0
  6
HIDDEN
 62
     7
370
     0
100
AcDbLine
 10
196.5394297046
 20
106.4997003195
 30
0.0
 11
194.5394297046
 21
106.4997003195
 31
0.0
  0
LINE
  5
146
330
1F
100
AcDbEntity
  8
0
  6
HIDDEN
 62
     7
370
     0
100
AcDbLine
 10
183.5394297045
 20
104.9003435803
 30
0.0
 11
183.5394297045
 21
106.4997003195
 31
0.0
  0
LINE
  5
147
330
1F
100
AcDbEntity
  8
0
  6
HIDDEN
 62
     7
370
     0
100
AcDbLine
 10
189.5394297046
 20
106.4997003195
 30
0.0
 11
189.5394297046
 21
104.9003435803
 31
0.0
  0
LINE
  5
148
330
1F
100
AcDbEntity
  8
0
  6
HIDDEN
 62
     7
370
     0
100
AcDbLine
 10
183.5394297045
 20
103.5248670554
 30
0.0
 11
183.5394297045
 21
104.9003435803
 31
0.0
  0
LINE
  5
149
330
1F
100
AcDbEntity
  8
0
  6
HIDDEN
 62
     7
370
     0
100
AcDbLine
 10
183.5394297045
 20
104.9003435803
 30
0.0
 11
176.5394297046
 21
104.9003435803
 31
0.0
  0
LINE
  5
14A
330
1F
100
AcDbEntity
  8
0
  6
HIDDEN
 62
     7
370
     0
100
AcDbLine
 10
189.5394297046
 20
104.9003435803
 30
0.0
 11
189.5394297046
 21
103.5248670554
 31
0.0
  0
LINE
  5
14B
330
1F
100
AcDbEntity
  8
0
  6
HIDDEN
 62
     7
370
     0
100
AcDbLine
 10
189.5394297046
 20
104.9003435803
 30
0.0
 11
194.5394297046
 21
104.9003435803
 31
0.0
  0
LINE
  5
14C
330
1F
100
AcDbEntity
  8
0
  6
HIDDEN
 62
     7
370
     0
100
AcDbLine
 10
183.5394297045
 20
106.4997003195
 30
0.0
 11
183.5394297045
 21
108.0990570586
 31
0.0
  0
LINE
  5
14D
330
1F
100
AcDbEntity
  8
0
  6
HIDDEN
 62
     7
370
     0
100
AcDbLine
 10
189.5394297046
 20
108.0990570586
 30
0.0
 11
189.5394297046
 21
106.4997003195
 31
0.0
  0
LINE
  5
14E
330
1F
100
AcDbEntity
  8
0
  6
HIDDEN
 62
     7
370
     0
100
AcDbLine
 10
189.5394297046
 20
103.5248670554
 30
0.0
 11
189.5394297046
 21
102.1493905304
 31
0.0
  0
LINE
  5
14F
330
1F
100
AcDbEntity
  8
0
  6
HIDDEN
 62
     7
370
     0
100
AcDbLine
 10
183.5394297045
 20
102.1493905304
 30
0.0
 11
183.5394297045
 21
103.5248670554
 31
0.0
  0
LINE
  5
150
330
1F
100
AcDbEntity
  8
0
  6
HIDDEN
 62
     7
370
     0
100
AcDbLine
 10
189.5394297046
 20
108.3229372728
 30
0.0
 11
189.5394297046
 21
108.0990570586
 31
0.0
  0
LINE
  5
151
330
1F
100
AcDbEntity
  8
0
  6
HIDDEN
 62
     7
370
     0
100
AcDbLine
 10
189.5394297046
 20
108.0990570586
 30
0.0
 11
196.5394297046
 21
108.0990570586
 31
0.0
  0
LINE
  5
152
330
1F
100
AcDbEntity
  8
0
  6
HIDDEN
 62
     7
370
     0
100
AcDbLine
 10
183.5394297045
 20
108.0990570586
 30
0.0
 11
183.5394297045
 21
108.3229372728
 31
0.0
  0
LINE
  5
153
330
1F
100
AcDbEntity
  8
0
  6
HIDDEN
 62
     7
370
     0
100
AcDbLine
 10
183.5394297045
 20
108.0990570586
 30
0.0
 11
176.5394297045
 21
108.0990570586
 31
0.0
  0
LINE
  5
154
330
1F
100
AcDbEntity
  8
0
  6
HIDDEN
 62
     7
370
     0
100
AcDbLine
 10
183.5394297045
 20
102.5971509588
 30
0.0
 11
176.5394297045
 21
102.5971509588
 31
0.0
  0
LINE
  5
155
330
1F
100
AcDbEntity
  8
0
  6
HIDDEN
 62
     7
370
     0
100
AcDbLine
 10
183.5394297045
 20
102.1493905304
 30
0.0
 11
176.5394297045
 21
102.1493905304
 31
0.0
  0
LINE
  5
156
330
1F
100
AcDbEntity
  8
0
  6
HIDDEN
 62
     7
370
     0
100
AcDbLine
 10
189.5394297046
 20
102.5971509588
 30
0.0
 11
196.5394297046
 21
102.5971509588
 31
0.0
  0
LINE
  5
157
330
1F
100
AcDbEntity
  8
0
  6
HIDDEN
 62
     7
370
     0
100
AcDbLine
 10
189.5394297046
 20
102.1493905304
 30
0.0
 11
196.5394297046
 21
102.1493905304
 31
0.0
  0
LINE
  5
158
330
1F
100
AcDbEntity
  8
0
  6
HIDDEN
 62
     7
370
     0
100
AcDbLine
 10
183.5394297045
 20
108.3229372728
 30
0.0
 11
183.5394297045
 21
108.5468174869
 31
0.0
  0
LINE
  5
159
330
1F
100
AcDbEntity
  8
0
  6
HIDDEN
 62
     7
370
     0
100
AcDbLine
 10
189.5394297046
 20
108.5468174869
 30
0.0
 11
189.5394297046
 21
108.3229372728
 31
0.0
  0
LINE
  5
15A
330
1F
100
AcDbEntity
  8
0
  6
HIDDEN
 62
     7
370
     0
100
AcDbLine
 10
194.5394297046
 20
107.171340962
 30
0.0
 11
196.5394297046
 21
107.171340962
 31
0.0
  0
LINE
  5
15B
330
1F
100
AcDbEntity
  8
0
  6
HIDDEN
 62
     7
370
     0
100
AcDbLine
 10
194.5394297046
 20
106.4997003195
 30
0.0
 11
194.5394297046
 21
107.171340962
 31
0.0
  0
LINE
  5
15C
330
1F
100
AcDbEntity
  8
0
  6
HIDDEN
 62
     7
370
     0
100
AcDbLine
 10
189.5394297046
 20
105.795864437
 30
0.0
 11
194.5394297046
 21
105.795864437
 31
0.0
  0
LINE
  5
15D
330
1F
100
AcDbEntity
  8
0
  6
HIDDEN
 62
     7
370
     0
100
AcDbLine
 10
189.5394297046
 20
108.5468174869
 30
0.0
 11
196.5394297046
 21
108.5468174869
 31
0.0
  0
LINE
  5
15E
330
1F
100
AcDbEntity
  8
0
  6
HIDDEN
 62
     7
370
     0
100
AcDbLine
 10
183.5394297045
 20
105.795864437
 30
0.0
 11
176.5394297045
 21
105.795864437
 31
0.0
  0
LINE
  5
15F
330
1F
100
AcDbEntity
  8
0
  6
HIDDEN
 62
     7
370
     0
100
AcDbLine
 10
183.5394297045
 20
108.5468174869
 30
0.0
 11
176.5394297045
 21
108.5468174869
 31
0.0
  0
LINE
  5
160
330
1F
100
AcDbEntity
  8
0
  6
HIDDEN
 62
     7
370
     0
100
AcDbLine
 10
196.5394297046
 20
104.1965076979
 30
0.0
 11
194.5394297046
 21
104.1965076979
 31
0.0
  0
LINE
  5
161
330
1F
100
AcDbEntity
  8
0
  6
HIDDEN
 62
     7
370
     0
100
AcDbLine
 10
196.5394297046
 20
104.1965076979
 30
0.0
 11
196.5394297046
 21
103.5248670554
 31
0.0
  0
LINE
  5
162
330
1F
100
AcDbEntity
  8
0
  6
HIDDEN
 62
     7
370
     0
100
AcDbLine
 10
194.5394297046
 20
107.5194859927
 30
0.0
 11
194.5394297046
 21
107.171340962
 31
0.0
  0
LINE
  5
163
330
1F
100
AcDbEntity
  8
0
  6
HIDDEN
 62
     7
370
     0
100
AcDbLine
 10
196.5394297046
 20
104.5446527287
 30
0.0
 11
196.5394297046
 21
104.1965076979
 31
0.0
  0
LINE
  5
164
330
1F
100
AcDbEntity
  8
0
  6
HIDDEN
 62
     7
370
     0
100
AcDbLine
 10
87.5394297046
 20
119.6487691127
 30
0.0
 11
87.5394297046
 21
117.7420446516
 31
0.0
  0
LINE
  5
165
330
1F
100
AcDbEntity
  8
0
  6
HIDDEN
 62
     7
370
     0
100
AcDbLine
 10
95.5394297046
 20
117.7420446516
 30
0.0
 11
95.5394297046
 21
119.6480484688
 31
0.0
  0
LINE
  5
166
330
1F
100
AcDbEntity
  8
0
  6
HIDDEN
 62
     7
370
     0
100
AcDbLine
 10
83.5394297046
 20
80.0241728627
 30
0.0
 11
83.6335904801
 21
80.6941615939
 31
0.0
  0
LINE
  5
167
330
1F
100
AcDbEntity
  8
0
  6
HIDDEN
 62
     7
370
     0
100
AcDbLine
 10
83.6335904801
 20
130.0020464234
 30
0.0
 11
83.5394297046
 21
130.6720351547
 31
0.0
  0
ARC
  5
168
330
1F
100
AcDbEntity
  8
0
  6
HIDDEN
 62
     7
370
     0
100
AcDbCircle
 10
83.0394229519
 20
80.7776663943
 30
0.0
 40
0.6000067526677242
100
AcDbArc
 50
352.0
 51
0.0
  0
ARC
  5
169
330
1F
100
AcDbEntity
  8
0
  6
HIDDEN
 62
     7
370
     0
100
AcDbCircle
 10
83.0394229519
 20
80.7776663943
 30
0.0
 40
0.6000067526677242
100
AcDbArc
 50
0.0
 51
33.5571153394
  0
ARC
  5
16A
330
1F
100
AcDbEntity
  8
0
  6
HIDDEN
 62
     7
370
     0
100
AcDbCircle
 10
83.0394229519
 20
129.9185416231
 30
0.0
 40
0.6000067526677224
100
AcDbArc
 50
348.75
 51
8.0
  0
LWPOLYLINE
  5
16B
330
1F
100
AcDbEntity
  8
0
  6
HIDDEN
 62
     7
370
     0
100
AcDbPolyline
 90
        3
 70
   128
 43
0.0
 10
83.627900743
 20
129.8014861125
 10
83.59375691
 20
129.6889289795
 10
83.5394297046
 20
129.586877108
  0
LINE
  5
16C
330
1F
100
AcDbEntity
  8
0
  6
HIDDEN
 62
     7
370
     0
100
AcDbLine
 10
83.6394297046
 20
80.7776663943
 30
0.0
 11
83.6394297046
 21
129.9185416231
 31
0.0
  0
LINE
  5
16D
330
1F
100
AcDbEntity
  8
0
  6
HIDDEN
 62
     7
370
     0
100
AcDbLine
 10
66.6218652699
 20
85.3481040087
 30
0.0
 11
70.7925470857
 21
85.3481040087
 31
0.0
  0
LINE
  5
16E
330
1F
100
AcDbEntity
  8
0
  6
HIDDEN
 62
     7
370
     0
100
AcDbLine
 10
70.7925470857
 20
125.3481040087
 30
0.0
 11
66.6218652699
 21
125.3481040087
 31
0.0
  0
ARC
  5
16F
330
1F
100
AcDbEntity
  8
0
  6
HIDDEN
 62
     7
370
     0
100
AcDbCircle
 10
77.2944317062
 20
93.3481040087
 30
0.0
 40
8.000000000000005
100
AcDbArc
 50
277.1234766433
 51
321.3178125465
  0
ARC
  5
170
330
1F
100
AcDbEntity
  8
0
  6
HIDDEN
 62
     7
370
     0
100
AcDbCircle
 10
77.2944317062
 20
117.3481040087
 30
0.0
 40
8.000000000000004
100
AcDbArc
 50
38.6821874535
 51
82.8557416614
  0
ARC
  5
171
330
1F
100
AcDbEntity
  8
0
  6
HIDDEN
 62
     7
370
     0
100
AcDbCircle
 10
66.6218652699
 20
85.9481040087
 30
0.0
 40
0.6000000000000155
100
AcDbArc
 50
210.0
 51
270.0
  0
ARC
  5
172
330
1F
100
AcDbEntity
  8
0
  6
HIDDEN
 62
     7
370
     0
100
AcDbCircle
 10
66.6218652699
 20
124.7481040087
 30
0.0
 40
0.6000000000000155
100
AcDbArc
 50
90.0
 51
150.0
  0
LINE
  5
173
330
1F
100
AcDbEntity
  8
0
  6
HIDDEN
 62
     7
370
     0
100
AcDbLine
 10
66.1022500276
 20
125.0481040087
 30
0.0
 11
64.5434043008
 21
122.3481040087
 31
0.0
  0
LINE
  5
174
330
1F
100
AcDbEntity
  8
0
  6
HIDDEN
 62
     7
370
     0
100
AcDbLine
 10
64.5434043008
 20
88.3481040087
 30
0.0
 11
66.1022500276
 21
85.6481040087
 31
0.0
  0
LINE
  5
175
330
1F
100
AcDbEntity
  8
0
  6
HIDDEN
 62
     7
370
     0
100
AcDbLine
 10
87.5394297046
 20
132.6278362458
 30
0.0
 11
87.5394297046
 21
129.2937064233
 31
0.0
  0
LINE
  5
176
330
1F
100
AcDbEntity
  8
0
  6
HIDDEN
 62
     7
370
     0
100
AcDbLine
 10
95.5394297046
 20
129.2937064233
 30
0.0
 11
95.5394297046
 21
132.6264615565
 31
0.0
  0
ARC
  5
177
330
1F
100
AcDbEntity
  8
0
  6
HIDDEN
 62
     7
370
     0
100
AcDbCircle
 10
91.9894297046
 20
89.6231040087
 30
0.0
 40
1.500000000000009
100
AcDbArc
 50
238.2116693829
 51
0.0
  0
ARC
  5
178
330
1F
100
AcDbEntity
  8
0
  6
HIDDEN
 62
     7
370
     0
100
AcDbCircle
 10
91.9894297046
 20
121.0731040087
 30
0.0
 40
1.500000000000009
100
AcDbArc
 50
0.0
 51
121.7883306171
  0
LINE
  5
179
330
1F
100
AcDbEntity
  8
0
  6
HIDDEN
 62
     7
370
     0
100
AcDbLine
 10
61.7394297046
 20
88.3481040087
 30
0.0
 11
64.5434043008
 21
88.3481040087
 31
0.0
  0
LINE
  5
17A
330
1F
100
AcDbEntity
  8
0
  6
HIDDEN
 62
     7
370
     0
100
AcDbLine
 10
64.5434043008
 20
122.3481040087
 30
0.0
 11
57.7394297046
 21
122.3481040087
 31
0.0
  0
LINE
  5
17B
330
1F
100
AcDbEntity
  8
0
  6
HIDDEN
 62
     7
370
     0
100
AcDbLine
 10
83.5394297046
 20
88.3481040087
 30
0.0
 11
91.1992556731
 21
88.3481040087
 31
0.0
  0
LINE
  5
17C
330
1F
100
AcDbEntity
  8
0
  6
HIDDEN
 62
     7
370
     0
100
AcDbLine
 10
91.1992556731
 20
122.3481040087
 30
0.0
 11
83.5394297046
 21
122.3481040087
 31
0.0
  0
ARC
  5
17D
330
1F
100
AcDbEntity
  8
0
  6
HIDDEN
 62
     7
370
     0
100
AcDbCircle
 10
243.0394297046
 20
94.3114097606
 30
0.0
 40
0.5000000000000056
100
AcDbArc
 50
0.0
 51
80.0
  0
ARC
  5
17E
330
1F
100
AcDbEntity
  8
0
  6
HIDDEN
 62
     7
370
     0
100
AcDbCircle
 10
243.0394297046
 20
116.3847982567
 30
0.0
 40
0.5000000000000056
100
AcDbArc
 50
280.0
 51
0.0
  0
LINE
  5
17F
330
1F
100
AcDbEntity
  8
0
  6
HIDDEN
 62
     7
370
     0
100
AcDbLine
 10
243.1262537934
 20
115.8923943802
 30
0.0
 11
240.0394297046
 21
115.3481040087
 31
0.0
  0
LINE
  5
180
330
1F
100
AcDbEntity
  8
0
  6
HIDDEN
 62
     7
370
     0
100
AcDbLine
 10
240.0394297046
 20
95.3481040087
 30
0.0
 11
243.1262537934
 21
94.8038136371
 31
0.0
  0
ARC
  5
181
330
1F
100
AcDbEntity
  8
0
  6
HIDDEN
 62
     7
370
     0
100
AcDbCircle
 10
192.4394297046
 20
95.4481040087
 30
0.0
 40
0.4000000000000057
100
AcDbArc
 50
180.0
 51
270.0
  0
ARC
  5
182
330
1F
100
AcDbEntity
  8
0
  6
HIDDEN
 62
     7
370
     0
100
AcDbCircle
 10
192.4394297046
 20
115.2481040087
 30
0.0
 40
0.4000000000000199
100
AcDbArc
 50
90.0
 51
180.0
  0
LINE
  5
183
330
1F
100
AcDbEntity
  8
0
  6
HIDDEN
 62
     7
370
     0
100
AcDbLine
 10
195.5394297046
 20
95.0481040087
 30
0.0
 11
201.6446556864
 21
95.0481040087
 31
0.0
  0
LINE
  5
184
330
1F
100
AcDbEntity
  8
0
  6
HIDDEN
 62
     7
370
     0
100
AcDbLine
 10
192.4394297046
 20
95.0481040087
 30
0.0
 11
192.5427828381
 21
95.0481040087
 31
0.0
  0
LINE
  5
185
330
1F
100
AcDbEntity
  8
0
  6
HIDDEN
 62
     7
370
     0
100
AcDbLine
 10
192.5401337692
 20
115.6481040087
 30
0.0
 11
192.4394297046
 21
115.6481040087
 31
0.0
  0
LINE
  5
186
330
1F
100
AcDbEntity
  8
0
  6
HIDDEN
 62
     7
370
     0
100
AcDbLine
 10
201.6446556864
 20
115.6481040087
 30
0.0
 11
195.5344541129
 21
115.6481040087
 31
0.0
  0
ARC
  5
187
330
1F
100
AcDbEntity
  8
0
  6
HIDDEN
 62
     7
370
     0
100
AcDbCircle
 10
201.6446556864
 20
95.4481040087
 30
0.0
 40
0.3999999999999977
100
AcDbArc
 50
270.0
 51
290.0
  0
ARC
  5
188
330
1F
100
AcDbEntity
  8
0
  6
HIDDEN
 62
     7
370
     0
100
AcDbCircle
 10
201.6446556864
 20
115.2481040087
 30
0.0
 40
0.4000000000000111
100
AcDbArc
 50
70.0
 51
90.0
  0
LINE
  5
189
330
1F
100
AcDbEntity
  8
0
  6
HIDDEN
 62
     7
370
     0
100
AcDbLine
 10
201.7814637438
 20
95.0722269604
 30
0.0
 11
202.5394297046
 21
95.3481040087
 31
0.0
  0
LINE
  5
18A
330
1F
100
AcDbEntity
  8
0
  6
HIDDEN
 62
     7
370
     0
100
AcDbLine
 10
202.5394297046
 20
115.3481040087
 30
0.0
 11
201.7814637438
 21
115.623981057
 31
0.0
  0
LINE
  5
18B
330
1F
100
AcDbEntity
  8
0
  6
HIDDEN
 62
     7
370
     0
100
AcDbLine
 10
202.5394297046
 20
95.3481040087
 30
0.0
 11
240.0394297046
 21
95.3481040087
 31
0.0
  0
LINE
  5
18C
330
1F
100
AcDbEntity
  8
0
  6
HIDDEN
 62
     7
370
     0
100
AcDbLine
 10
240.0394297046
 20
115.3481040087
 30
0.0
 11
202.5394297046
 21
115.3481040087
 31
0.0
  0
LINE
  5
18D
330
1F
100
AcDbEntity
  8
0
  6
HIDDEN
 62
     7
370
     0
100
AcDbLine
 10
102.3394297046
 20
95.8481040087
 30
0.0
 11
105.3394297046
 21
95.8481040087
 31
0.0
  0
LINE
  5
18E
330
1F
100
AcDbEntity
  8
0
  6
HIDDEN
 62
     7
370
     0
100
AcDbLine
 10
105.3394297046
 20
114.8481040087
 30
0.0
 11
102.3394297046
 21
114.8481040087
 31
0.0
  0
LINE
  5
18F
330
1F
100
AcDbEntity
  8
0
  6
HIDDEN
 62
     7
370
     0
100
AcDbLine
 10
93.4894297046
 20
96.3481040087
 30
0.0
 11
93.9894297046
 21
96.8481040087
 31
0.0
  0
LINE
  5
190
330
1F
100
AcDbEntity
  8
0
  6
HIDDEN
 62
     7
370
     0
100
AcDbLine
 10
93.9894297046
 20
113.8481040087
 30
0.0
 11
93.4894297046
 21
114.3481040087
 31
0.0
  0
LINE
  5
191
330
1F
100
AcDbEntity
  8
0
  6
HIDDEN
 62
     7
370
     0
100
AcDbLine
 10
93.9894297046
 20
96.8481040087
 30
0.0
 11
102.3394297046
 21
96.8481040087
 31
0.0
  0
LINE
  5
192
330
1F
100
AcDbEntity
  8
0
  6
HIDDEN
 62
     7
370
     0
100
AcDbLine
 10
102.3394297046
 20
113.8481040087
 30
0.0
 11
93.9894297046
 21
113.8481040087
 31
0.0
  0
LINE
  5
193
330
1F
100
AcDbEntity
  8
0
  6
HIDDEN
 62
     7
370
     0
100
AcDbLine
 10
88.4894297046
 20
136.8481040087
 30
0.0
 11
88.4894297046
 21
131.7481040087
 31
0.0
  0
LINE
  5
194
330
1F
100
AcDbEntity
  8
0
  6
HIDDEN
 62
     7
370
     0
100
AcDbLine
 10
192.0394297046
 20
111.3481040087
 30
0.0
 11
191.5394297046
 21
110.8481040087
 31
0.0
  0
LINE
  5
195
330
1F
100
AcDbEntity
  8
0
  6
HIDDEN
 62
     7
370
     0
100
AcDbLine
 10
191.5394297046
 20
99.8481040087
 30
0.0
 11
192.0394297046
 21
99.3481040087
 31
0.0
  0
LINE
  5
196
330
1F
100
AcDbEntity
  8
0
  6
HIDDEN
 62
     7
370
     0
100
AcDbLine
 10
161.5394297046
 20
99.8481040087
 30
0.0
 11
191.5394297046
 21
99.8481040087
 31
0.0
  0
LINE
  5
197
330
1F
100
AcDbEntity
  8
0
  6
HIDDEN
 62
     7
370
     0
100
AcDbLine
 10
191.5394297046
 20
110.8481040087
 30
0.0
 11
161.5394297046
 21
110.8481040087
 31
0.0
  0
LINE
  5
198
330
1F
100
AcDbEntity
  8
0
  6
HIDDEN
 62
     7
370
     0
100
AcDbLine
 10
161.5394297046
 20
110.8481040087
 30
0.0
 11
160.7583108998
 21
109.5481040087
 31
0.0
  0
LINE
  5
199
330
1F
100
AcDbEntity
  8
0
  6
HIDDEN
 62
     7
370
     0
100
AcDbLine
 10
160.7583108998
 20
101.1481040087
 30
0.0
 11
161.5394297046
 21
99.8481040087
 31
0.0
  0
LINE
  5
19A
330
1F
100
AcDbEntity
  8
0
  6
HIDDEN
 62
     7
370
     0
100
AcDbLine
 10
78.723867535
 20
81.2687326751
 30
0.0
 11
78.2894353855
 21
81.7477986942
 31
0.0
  0
LINE
  5
19B
330
1F
100
AcDbEntity
  8
0
  6
HIDDEN
 62
     7
370
     0
100
AcDbLine
 10
70.7894320605
 20
82.1694866534
 30
0.0
 11
70.3069983171
 21
81.6904206779
 31
0.0
  0
LINE
  5
19C
330
1F
100
AcDbEntity
  8
0
  6
HIDDEN
 62
     7
370
     0
100
AcDbLine
 10
70.3068763889
 20
129.005782049
 30
0.0
 11
70.7894271399
 21
128.5266617911
 31
0.0
  0
LINE
  5
19D
330
1F
100
AcDbEntity
  8
0
  6
HIDDEN
 62
     7
370
     0
100
AcDbLine
 10
78.2894295866
 20
128.9483595688
 30
0.0
 11
78.7239719769
 21
129.4274798193
 31
0.0
  0
LINE
  5
19E
330
1F
100
AcDbEntity
  8
0
  6
HIDDEN
 62
     7
370
     0
100
AcDbLine
 10
105.3394297046
 20
101.1481040087
 30
0.0
 11
160.7583108998
 21
101.1481040087
 31
0.0
  0
LINE
  5
19F
330
1F
100
AcDbEntity
  8
0
  6
HIDDEN
 62
     7
370
     0
100
AcDbLine
 10
160.7583108998
 20
109.5481040087
 30
0.0
 11
105.3394297046
 21
109.5481040087
 31
0.0
  0
LINE
  5
1A0
330
1F
100
AcDbEntity
  8
0
  6
HIDDEN
 62
     7
370
     0
100
AcDbLine
 10
78.2894297046
 20
125.2859401993
 30
0.0
 11
78.2894297046
 21
129.0483900695
 31
0.0
  0
LINE
  5
1A1
330
1F
100
AcDbEntity
  8
0
  6
HIDDEN
 62
     7
370
     0
100
AcDbLine
 10
70.7894297046
 20
128.5264065998
 30
0.0
 11
70.7894297046
 21
125.3475197474
 31
0.0
  0
LINE
  5
1A2
330
1F
100
AcDbEntity
  8
0
  6
HIDDEN
 62
     7
370
     0
100
AcDbLine
 10
78.2894297046
 20
81.6477391488
 30
0.0
 11
78.2894297046
 21
85.410267818
 31
0.0
  0
LINE
  5
1A3
330
1F
100
AcDbEntity
  8
0
  6
HIDDEN
 62
     7
370
     0
100
AcDbLine
 10
70.7894297046
 20
85.3486882699
 30
0.0
 11
70.7894297046
 21
82.1698098912
 31
0.0
  0
LINE
  5
1A4
330
1F
100
AcDbEntity
  8
0
  6
HIDDEN
 62
     7
370
     0
100
AcDbLine
 10
151.9894297046
 20
125.8481040087
 30
0.0
 11
152.9894297046
 21
125.2707537395
 31
0.0
  0
LINE
  5
1A5
330
1F
100
AcDbEntity
  8
0
  6
HIDDEN
 62
     7
370
     0
100
AcDbLine
 10
157.9894297046
 20
125.2707537395
 30
0.0
 11
158.9894297046
 21
125.8481040087
 31
0.0
  0
LINE
  5
1A6
330
1F
100
AcDbEntity
  8
0
  6
HIDDEN
 62
     7
370
     0
100
AcDbLine
 10
158.9894297046
 20
84.8481040087
 30
0.0
 11
157.9894297046
 21
85.4254542779
 31
0.0
  0
LINE
  5
1A7
330
1F
100
AcDbEntity
  8
0
  6
HIDDEN
 62
     7
370
     0
100
AcDbLine
 10
152.9894297046
 20
85.4254542779
 30
0.0
 11
151.9894297046
 21
84.8481040087
 31
0.0
  0
LINE
  5
1A8
330
1F
100
AcDbEntity
  8
0
  6
HIDDEN
 62
     7
370
     0
100
AcDbLine
 10
152.9894297046
 20
125.2707537395
 30
0.0
 11
152.9894297046
 21
111.8481040087
 31
0.0
  0
LINE
  5
1A9
330
1F
100
AcDbEntity
  8
0
  6
HIDDEN
 62
     7
370
     0
100
AcDbLine
 10
157.9894297046
 20
111.8481040087
 30
0.0
 11
157.9894297046
 21
125.2707537395
 31
0.0
  0
LINE
  5
1AA
330
1F
100
AcDbEntity
  8
0
  6
HIDDEN
 62
     7
370
     0
100
AcDbLine
 10
152.9894297046
 20
111.8481040087
 30
0.0
 11
155.4894297046
 21
110.3459524611
 31
0.0
  0
LINE
  5
1AB
330
1F
100
AcDbEntity
  8
0
  6
HIDDEN
 62
     7
370
     0
100
AcDbLine
 10
155.4894297046
 20
110.3459524611
 30
0.0
 11
157.9894297046
 21
111.8481040087
 31
0.0
  0
LINE
  5
1AC
330
1F
100
AcDbEntity
  8
0
  6
HIDDEN
 62
     7
370
     0
100
AcDbLine
 10
157.9894297046
 20
98.8481040087
 30
0.0
 11
155.4894297046
 21
100.3502555562
 31
0.0
  0
LINE
  5
1AD
330
1F
100
AcDbEntity
  8
0
  6
HIDDEN
 62
     7
370
     0
100
AcDbLine
 10
155.4894297046
 20
100.3502555562
 30
0.0
 11
152.9894297046
 21
98.8481040087
 31
0.0
  0
LINE
  5
1AE
330
1F
100
AcDbEntity
  8
0
  6
HIDDEN
 62
     7
370
     0
100
AcDbLine
 10
157.9894297046
 20
85.4254542779
 30
0.0
 11
157.9894297046
 21
98.8481040087
 31
0.0
  0
LINE
  5
1AF
330
1F
100
AcDbEntity
  8
0
  6
HIDDEN
 62
     7
370
     0
100
AcDbLine
 10
152.9894297046
 20
98.8481040087
 30
0.0
 11
152.9894297046
 21
85.4254542779
 31
0.0
  0
LINE
  5
1B0
330
1F
100
AcDbEntity
  8
0
  6
HIDDEN
 62
     7
370
     0
100
AcDbLine
 10
192.5394297046
 20
89.2306318109
 30
0.0
 11
192.5394297046
 21
88.8481040087
 31
0.0
  0
LINE
  5
1B1
330
1F
100
AcDbEntity
  8
0
  6
HIDDEN
 62
     7
370
     0
100
AcDbLine
 10
192.5394297046
 20
95.0485893517
 30
0.0
 11
192.5394297046
 21
91.5943604372
 31
0.0
  0
LINE
  5
1B2
330
1F
100
AcDbEntity
  8
0
  6
HIDDEN
 62
     7
370
     0
100
AcDbLine
 10
195.5394297046
 20
91.7131433206
 30
0.0
 11
195.5394297046
 21
95.0481040087
 31
0.0
  0
LINE
  5
1B3
330
1F
100
AcDbEntity
  8
0
  6
HIDDEN
 62
     7
370
     0
100
AcDbLine
 10
195.5394297046
 20
88.8481040087
 30
0.0
 11
195.5394297046
 21
89.2128911881
 31
0.0
  0
LINE
  5
1B4
330
1F
100
AcDbEntity
  8
0
  6
HIDDEN
 62
     7
370
     0
100
AcDbLine
 10
192.5394297046
 20
88.8481040087
 30
0.0
 11
194.0394297046
 21
87.9468130801
 31
0.0
  0
LINE
  5
1B5
330
1F
100
AcDbEntity
  8
0
  6
HIDDEN
 62
     7
370
     0
100
AcDbLine
 10
194.0394297046
 20
87.9468130801
 30
0.0
 11
195.5394297046
 21
88.8481040087
 31
0.0
  0
LINE
  5
1B6
330
1F
100
AcDbEntity
  8
0
  6
HIDDEN
 62
     7
370
     0
100
AcDbLine
 10
192.5394297046
 20
119.1128161279
 30
0.0
 11
192.5394297046
 21
115.6480026692
 31
0.0
  0
LINE
  5
1B7
330
1F
100
AcDbEntity
  8
0
  6
HIDDEN
 62
     7
370
     0
100
AcDbLine
 10
192.5394297046
 20
122.2481040087
 30
0.0
 11
192.5394297046
 21
121.4677044377
 31
0.0
  0
LINE
  5
1B8
330
1F
100
AcDbEntity
  8
0
  6
HIDDEN
 62
     7
370
     0
100
AcDbLine
 10
195.5394297046
 20
121.4812368155
 30
0.0
 11
195.5394297046
 21
122.2481040087
 31
0.0
  0
LINE
  5
1B9
330
1F
100
AcDbEntity
  8
0
  6
HIDDEN
 62
     7
370
     0
100
AcDbLine
 10
195.5394297046
 20
115.6473815083
 30
0.0
 11
195.5394297046
 21
118.9830646968
 31
0.0
  0
LINE
  5
1BA
330
1F
100
AcDbEntity
  8
0
  6
HIDDEN
 62
     7
370
     0
100
AcDbLine
 10
195.5380562193
 20
89.2111604597
 30
0.0
 11
243.5394297046
 21
91.0971395604
 31
0.0
  0
LINE
  5
1BB
330
1F
100
AcDbEntity
  8
0
  6
HIDDEN
 62
     7
370
     0
100
AcDbLine
 10
243.5394297046
 20
93.5990684569
 30
0.0
 11
195.5394297046
 21
91.7131433206
 31
0.0
  0
LINE
  5
1BC
330
1F
100
AcDbEntity
  8
0
  6
HIDDEN
 62
     7
370
     0
100
AcDbLine
 10
195.5394297046
 20
118.9830646968
 30
0.0
 11
243.5394297046
 21
117.0971395604
 31
0.0
  0
LINE
  5
1BD
330
1F
100
AcDbEntity
  8
0
  6
HIDDEN
 62
     7
370
     0
100
AcDbLine
 10
243.5394297046
 20
119.5990684569
 30
0.0
 11
195.5363750079
 21
121.4851136126
 31
0.0
  0
LINE
  5
1BE
330
1F
100
AcDbEntity
  8
0
  6
HIDDEN
 62
     7
370
     0
100
AcDbLine
 10
192.5439254809
 20
121.47142497
 30
0.0
 11
191.8282521347
 21
120.3798417089
 31
0.0
  0
LINE
  5
1BF
330
1F
100
AcDbEntity
  8
0
  6
HIDDEN
 62
     7
370
     0
100
AcDbLine
 10
191.8282521347
 20
120.3798417089
 30
0.0
 11
192.5296740866
 21
119.1013183171
 31
0.0
  0
LINE
  5
1C0
330
1F
100
AcDbEntity
  8
0
  6
HIDDEN
 62
     7
370
     0
100
AcDbLine
 10
192.5296740866
 20
91.5948897003
 30
0.0
 11
191.8282521347
 21
90.3163663085
 31
0.0
  0
LINE
  5
1C1
330
1F
100
AcDbEntity
  8
0
  6
HIDDEN
 62
     7
370
     0
100
AcDbLine
 10
191.8282521347
 20
90.3163663085
 30
0.0
 11
192.5410364071
 21
89.2291896171
 31
0.0
  0
LINE
  5
1C2
330
1F
100
AcDbEntity
  8
0
  6
HIDDEN
 62
     7
370
     0
100
AcDbLine
 10
243.4070526709
 20
119.8544624544
 30
0.0
 11
238.0731148671
 21
120.0640334415
 31
0.0
  0
LINE
  5
1C3
330
1F
100
AcDbEntity
  8
0
  6
HIDDEN
 62
     7
370
     0
100
AcDbLine
 10
237.9553354198
 20
117.0663463328
 30
0.0
 11
243.2892732237
 21
116.8567753457
 31
0.0
  0
LINE
  5
1C4
330
1F
100
AcDbEntity
  8
0
  6
HIDDEN
 62
     7
370
     0
100
AcDbLine
 10
243.2892732237
 20
116.8567753457
 30
0.0
 11
243.4621074974
 21
117.1307010907
 31
0.0
  0
LINE
  5
1C5
330
1F
100
AcDbEntity
  8
0
  6
HIDDEN
 62
     7
370
     0
100
AcDbLine
 10
243.5394297046
 20
119.6028550987
 30
0.0
 11
243.4070526709
 21
119.8544624544
 31
0.0
  0
LINE
  5
1C6
330
1F
100
AcDbEntity
  8
0
  6
HIDDEN
 62
     7
370
     0
100
AcDbLine
 10
238.0731148671
 20
120.0640334415
 30
0.0
 11
237.5538704411
 21
119.5840488312
 31
0.0
  0
LINE
  5
1C7
330
1F
100
AcDbEntity
  8
0
  6
HIDDEN
 62
     7
370
     0
100
AcDbLine
 10
237.4753508095
 20
117.5855907588
 30
0.0
 11
237.9553354198
 21
117.0663463328
 31
0.0
  0
LINE
  5
1C8
330
1F
100
AcDbEntity
  8
0
  6
HIDDEN
 62
     7
370
     0
100
AcDbLine
 10
243.3481629473
 20
93.8417464552
 30
0.0
 11
238.0142251434
 21
93.6321754681
 31
0.0
  0
LINE
  5
1C9
330
1F
100
AcDbEntity
  8
0
  6
HIDDEN
 62
     7
370
     0
100
AcDbLine
 10
238.1320045907
 20
90.6344883594
 30
0.0
 11
243.4659423946
 21
90.8440593465
 31
0.0
  0
LINE
  5
1CA
330
1F
100
AcDbEntity
  8
0
  6
HIDDEN
 62
     7
370
     0
100
AcDbLine
 10
238.0142251434
 20
93.6321754681
 30
0.0
 11
237.5342405332
 21
93.1129310421
 31
0.0
  0
LINE
  5
1CB
330
1F
100
AcDbEntity
  8
0
  6
HIDDEN
 62
     7
370
     0
100
AcDbLine
 10
237.6127601647
 20
91.1144729696
 30
0.0
 11
238.1320045907
 21
90.6344883594
 31
0.0
  0
LINE
  5
1CC
330
1F
100
AcDbEntity
  8
0
  6
HIDDEN
 62
     7
370
     0
100
AcDbLine
 10
243.4659423946
 20
90.8440593465
 30
0.0
 11
243.5394297046
 21
90.9837357483
 31
0.0
  0
LINE
  5
1CD
330
1F
100
AcDbEntity
  8
0
  6
HIDDEN
 62
     7
370
     0
100
AcDbLine
 10
243.5209972211
 20
93.5678207101
 30
0.0
 11
243.3481629473
 21
93.8417464552
 31
0.0
  0
LINE
  5
1CE
330
1F
100
AcDbEntity
  8
0
  6
HIDDEN
 62
     7
370
     0
100
AcDbLine
 10
192.0394297046
 20
99.3481040087
 30
0.0
 11
192.5394297046
 21
99.8481040087
 31
0.0
  0
LINE
  5
1CF
330
1F
100
AcDbEntity
  8
0
  6
HIDDEN
 62
     7
370
     0
100
AcDbLine
 10
192.5394297046
 20
110.8481040087
 30
0.0
 11
192.0394297046
 21
111.3481040087
 31
0.0
  0
LINE
  5
1D0
330
1F
100
AcDbEntity
  8
0
  6
HIDDEN
 62
     7
370
     0
100
AcDbLine
 10
177.0394297046
 20
99.3481040087
 30
0.0
 11
192.0394297046
 21
99.3481040087
 31
0.0
  0
LINE
  5
1D1
330
1F
100
AcDbEntity
  8
0
  6
HIDDEN
 62
     7
370
     0
100
AcDbLine
 10
192.0394297046
 20
111.3481040087
 30
0.0
 11
177.0394297046
 21
111.3481040087
 31
0.0
  0
LINE
  5
1D2
330
1F
100
AcDbEntity
  8
0
  6
HIDDEN
 62
     7
370
     0
100
AcDbLine
 10
177.0394297046
 20
111.3481040087
 30
0.0
 11
176.5394297046
 21
110.8481040087
 31
0.0
  0
LINE
  5
1D3
330
1F
100
AcDbEntity
  8
0
  6
HIDDEN
 62
     7
370
     0
100
AcDbLine
 10
176.5394297046
 20
99.8481040087
 30
0.0
 11
177.0394297046
 21
99.3481040087
 31
0.0
  0
LINE
  5
1D4
330
1F
100
AcDbEntity
  8
0
  6
HIDDEN
 62
     7
370
     0
100
AcDbLine
 10
192.5394297046
 20
99.8481040087
 30
0.0
 11
196.5394297046
 21
99.8481040087
 31
0.0
  0
LINE
  5
1D5
330
1F
100
AcDbEntity
  8
0
  6
HIDDEN
 62
     7
370
     0
100
AcDbLine
 10
196.5394297046
 20
110.8481040087
 30
0.0
 11
192.5394297046
 21
110.8481040087
 31
0.0
  0
LINE
  5
1D6
330
1F
100
AcDbEntity
  8
0
  6
HIDDEN
 62
     7
370
     0
100
AcDbLine
 10
183.5394297045
 20
102.3481040087
 30
0.0
 11
189.5394297046
 21
102.3481040087
 31
0.0
  0
LINE
  5
1D7
330
1F
100
AcDbEntity
  8
0
  6
HIDDEN
 62
     7
370
     0
100
AcDbLine
 10
189.5394297046
 20
108.3481040087
 30
0.0
 11
183.5394297045
 21
108.3481040087
 31
0.0
  0
DIMENSION
  5
1D8
330
1F
100
AcDbEntity
  8
VERMASSUNG
100
AcDbDimension
  2
*D1
 10
47.0856988082
 20
73.8481040087
 30
0.0
 11
47.0856988082
 21
105.3481040087
 31
0.0
 70
   160
  1
HSK A %%c<>
 71
     2
 42
-1.0
  3
SLDDIMSTYLE0
100
AcDbAlignedDimension
 13
83.8394297046
 23
136.8481040087
 33
0.0
 14
83.8394297046
 24
73.8481040087
 34
0.0
 50
90.0
100
AcDbRotatedDimension
  0
DIMENSION
  5
1E5
330
1F
100
AcDbEntity
  8
VERMASSUNG
100
AcDbDimension
  2
*D2
 10
243.5394297046
 20
137.6057421452
 30
0.0
 11
217.7894297046
 21
137.6057421452
 31
0.0
 70
   160
 71
     2
 42
-1.0
  3
SLDDIMSTYLE1
100
AcDbAlignedDimension
 13
192.0394297046
 23
115.2481040087
 33
0.0
 14
243.5394297046
 24
119.9993230254
 34
0.0
100
AcDbRotatedDimension
  0
DIMENSION
  5
1F0
330
1F
100
AcDbEntity
  8
VERMASSUNG
100
AcDbDimension
  2
*D3
 10
253.6493194249
 20
115.3481040087
 30
0.0
 11
253.6493194249
 21
105.3481040087
 31
0.0
 70
   160
  1
%%c<>  
 71
     2
 42
-1.0
  3
SLDDIMSTYLE2
100
AcDbAlignedDimension
 13
240.0394297046
 23
95.3481040087
 33
0.0
 14
240.0394297046
 24
115.3481040087
 34
0.0
 50
90.0
100
AcDbRotatedDimension
  0
DIMENSION
  5
1FD
330
1F
100
AcDbEntity
  8
VERMASSUNG
100
AcDbDimension
  2
*D4
 10
259.6493194249
 20
121.8481040087
 30
0.0
 11
259.6493194249
 21
105.3481040087
 31
0.0
 70
   160
  1
%%c<>
 71
     2
 42
-1.0
  3
SLDDIMSTYLE3
100
AcDbAlignedDimension
 13
243.5394297046
 23
88.8481040087
 33
0.0
 14
243.5394297046
 24
121.8481040087
 34
0.0
 50
90.0
100
AcDbRotatedDimension
  0
DIMENSION
  5
209
330
1F
100
AcDbEntity
  8
VERMASSUNG
100
AcDbDimension
  2
*D5
 10
265.6493194249
 20
125.8481040087
 30
0.0
 11
265.6493194249
 21
105.3481040087
 31
0.0
 70
   160
  1
%%c<>
 71
     2
 42
-1.0
  3
SLDDIMSTYLE3
100
AcDbAlignedDimension
 13
183.5394297046
 23
84.8481040087
 33
0.0
 14
183.5394297046
 24
125.8481040087
 34
0.0
 50
90.0
100
AcDbRotatedDimension
  0
DIMENSION
  5
214
330
1F
100
AcDbEntity
  8
VERMASSUNG
100
AcDbDimension
  2
*D6
 10
243.5394297046
 20
149.6057421452
 30
0.0
 11
163.5394297046
 21
149.6057421452
 31
0.0
 70
   160
 71
     2
 42
-1.0
  3
SLDDIMSTYLE0
100
AcDbAlignedDimension
 13
83.5394297046
 23
136.5481040087
 33
0.0
 14
243.5394297046
 24
119.9993230254
 34
0.0
100
AcDbRotatedDimension
  0
DIMENSION
  5
21E
330
1F
100
AcDbEntity
  8
VERMASSUNG
100
AcDbDimension
  2
*D7
 10
109.4894297046
 20
143.6057421452
 30
0.0
 11
176.5144297046
 21
143.6057421452
 31
0.0
 70
   160
 71
     2
 42
-1.0
  3
SLDDIMSTYLE0
100
AcDbAlignedDimension
 13
243.5394297046
 23
119.9993230254
 33
0.0
 14
109.4894297046
 24
135.1945443324
 34
0.0
100
AcDbRotatedDimension
  0
DIMENSION
  5
228
330
1F
100
AcDbEntity
  8
VERMASSUNG
100
AcDbDimension
  2
*D8
 10
243.5394297046
 20
155.6057421452
 30
0.0
 11
147.5894297046
 21
155.6057421452
 31
0.0
 70
   160
 71
     2
 42
-1.0
  3
SLDDIMSTYLE0
100
AcDbAlignedDimension
 13
51.6394297046
 23
125.0387817551
 33
0.0
 14
243.5394297046
 24
119.9993230254
 34
0.0
100
AcDbRotatedDimension
  0
LINE
  5
232
330
1F
100
AcDbEntity
  8
VERMASSUNG
  6
CENTERX2
370
     0
100
AcDbLine
 10
49.4941258622
 20
105.3481040087
 30
0.0
 11
246.8973997833
 21
105.3481040087
 31
0.0
  0
OLE2FRAME
  5
233
330
1F
100
AcDbEntity
  8
0
100
AcDbOle2Frame
 70
     2
  3
Bitmap Image
 10
13.8511154363
 20
38.264191557
 30
0.0
 11
51.6290888628
 21
31.9806341108
 31
0.0
 71
     2
 72
     0
 73
     1
 90
    12928
310
80552BED0767C5B32B40DDAF6807D121434000000000000000006FFBDDFB85D0
310
4940DDAF6807D121434000000000000000006FFBDDFB85D04940416F4BD60AFB
310
3F4000000000000000002BED0767C5B32B40416F4BD60AFB3F40000000000000
310
0000000000000100000000010000010000000100000000000100000000320000
310
D0CF11E0A1B11AE1000000000000000000000000000000003E000300FEFF0900
310
0600000000000000000000000100000001000000000000000010000002000000
310
01000000FEFFFFFF0000000000000000FFFFFFFFFFFFFFFFFFFFFFFFFFFFFFFF
310
FFFFFFFFFFFFFFFFFFFFFFFFFFFFFFFFFFFFFFFFFFFFFFFFFFFFFFFFFFFFFFFF
310
FFFFFFFFFFFFFFFFFFFFFFFFFFFFFFFFFFFFFFFFFFFFFFFFFFFFFFFFFFFFFFFF
310
FFFFFFFFFFFFFFFFFFFFFFFFFFFFFFFFFFFFFFFFFFFFFFFFFFFFFFFFFFFFFFFF
310
FFFFFFFFFFFFFFFFFFFFFFFFFFFFFFFFFFFFFFFFFFFFFFFFFFFFFFFFFFFFFFFF
310
FFFFFFFFFFFFFFFFFFFFFFFFFFFFFFFFFFFFFFFFFFFFFFFFFFFFFFFFFFFFFFFF
310
FFFFFFFFFFFFFFFFFFFFFFFFFFFFFFFFFFFFFFFFFFFFFFFFFFFFFFFFFFFFFFFF
310
FFFFFFFFFFFFFFFFFFFFFFFFFFFFFFFFFFFFFFFFFFFFFFFFFFFFFFFFFFFFFFFF
310
FFFFFFFFFFFFFFFFFFFFFFFFFFFFFFFFFFFFFFFFFFFFFFFFFFFFFFFFFFFFFFFF
310
FFFFFFFFFFFFFFFFFFFFFFFFFFFFFFFFFFFFFFFFFFFFFFFFFFFFFFFFFFFFFFFF
310
FFFFFFFFFFFFFFFFFFFFFFFFFFFFFFFFFFFFFFFFFFFFFFFFFFFFFFFFFFFFFFFF
310
FFFFFFFFFFFFFFFFFFFFFFFFFFFFFFFFFFFFFFFFFFFFFFFFFFFFFFFFFFFFFFFF
310
FFFFFFFFFFFFFFFFFFFFFFFFFFFFFFFFFFFFFFFFFFFFFFFFFFFFFFFFFFFFFFFF
310
FFFFFFFFFFFFFFFFFFFFFFFFFFFFFFFFFFFFFFFFFFFFFFFFFFFFFFFFFFFFFFFF
310
FDFFFFFFFEFFFFFFFEFFFFFFFEFFFFFF05000000060000000700000008000000
310
090000000A0000000B0000000C0000000D0000000E0000000F00000010000000
310
11000000120000001300000014000000150000001600000017000000FEFFFFFF
310
FFFFFFFFFFFFFFFFFFFFFFFFFFFFFFFFFFFFFFFFFFFFFFFFFFFFFFFFFFFFFFFF
310
FFFFFFFFFFFFFFFFFFFFFFFFFFFFFFFFFFFFFFFFFFFFFFFFFFFFFFFFFFFFFFFF
310
FFFFFFFFFFFFFFFFFFFFFFFFFFFFFFFFFFFFFFFFFFFFFFFFFFFFFFFFFFFFFFFF
310
FFFFFFFFFFFFFFFFFFFFFFFFFFFFFFFFFFFFFFFFFFFFFFFFFFFFFFFFFFFFFFFF
310
FFFFFFFFFFFFFFFFFFFFFFFFFFFFFFFFFFFFFFFFFFFFFFFFFFFFFFFFFFFFFFFF
310
FFFFFFFFFFFFFFFFFFFFFFFFFFFFFFFFFFFFFFFFFFFFFFFFFFFFFFFFFFFFFFFF
310
FFFFFFFFFFFFFFFFFFFFFFFFFFFFFFFFFFFFFFFFFFFFFFFFFFFFFFFFFFFFFFFF
310
FFFFFFFFFFFFFFFFFFFFFFFFFFFFFFFFFFFFFFFFFFFFFFFFFFFFFFFFFFFFFFFF
310
FFFFFFFFFFFFFFFFFFFFFFFFFFFFFFFFFFFFFFFFFFFFFFFFFFFFFFFFFFFFFFFF
310
FFFFFFFFFFFFFFFFFFFFFFFFFFFFFFFFFFFFFFFFFFFFFFFFFFFFFFFFFFFFFFFF
310
FFFFFFFFFFFFFFFFFFFFFFFFFFFFFFFFFFFFFFFFFFFFFFFFFFFFFFFFFFFFFFFF
310
FFFFFFFFFFFFFFFFFFFFFFFFFFFFFFFFFFFFFFFFFFFFFFFFFFFFFFFFFFFFFFFF
310
FFFFFFFFFFFFFFFFFFFFFFFFFFFFFFFFFFFFFFFFFFFFFFFFFFFFFFFFFFFFFFFF
310
52006F006F007400200045006E00740072007900000000000000000000000000
310
0000000000000000000000000000000000000000000000000000000000000000
310
16000500FFFFFFFFFFFFFFFF020000000A00030000000000C000000000000046
310
000000000000000000000000B056F49F7305CC0103000000C000000000000000
310
01004F006C006500000000000000000000000000000000000000000000000000
310
0000000000000000000000000000000000000000000000000000000000000000
310
0A000200FFFFFFFFFFFFFFFFFFFFFFFF00000000000000000000000000000000
310
0000000000000000000000000000000000000000000000001400000000000000
310
010043006F006D0070004F0062006A0000000000000000000000000000000000
310
0000000000000000000000000000000000000000000000000000000000000000
310
120002010100000003000000FFFFFFFF00000000000000000000000000000000
310
0000000000000000000000000000000000000000010000004D00000000000000
310
01004F006C006500310030004E00610074006900760065000000000000000000
310
0000000000000000000000000000000000000000000000000000000000000000
310
1A000200FFFFFFFFFFFFFFFFFFFFFFFF00000000000000000000000000000000
310
0000000000000000000000000000000000000000040000002426000000000000
310
FEFFFFFF02000000FEFFFFFFFFFFFFFFFFFFFFFFFFFFFFFFFFFFFFFFFFFFFFFF
310
FFFFFFFFFFFFFFFFFFFFFFFFFFFFFFFFFFFFFFFFFFFFFFFFFFFFFFFFFFFFFFFF
310
FFFFFFFFFFFFFFFFFFFFFFFFFFFFFFFFFFFFFFFFFFFFFFFFFFFFFFFFFFFFFFFF
310
FFFFFFFFFFFFFFFFFFFFFFFFFFFFFFFFFFFFFFFFFFFFFFFFFFFFFFFFFFFFFFFF
310
FFFFFFFFFFFFFFFFFFFFFFFFFFFFFFFFFFFFFFFFFFFFFFFFFFFFFFFFFFFFFFFF
310
FFFFFFFFFFFFFFFFFFFFFFFFFFFFFFFFFFFFFFFFFFFFFFFFFFFFFFFFFFFFFFFF
310
FFFFFFFFFFFFFFFFFFFFFFFFFFFFFFFFFFFFFFFFFFFFFFFFFFFFFFFFFFFFFFFF
310
FFFFFFFFFFFFFFFFFFFFFFFFFFFFFFFFFFFFFFFFFFFFFFFFFFFFFFFFFFFFFFFF
310
FFFFFFFFFFFFFFFFFFFFFFFFFFFFFFFFFFFFFFFFFFFFFFFFFFFFFFFFFFFFFFFF
310
FFFFFFFFFFFFFFFFFFFFFFFFFFFFFFFFFFFFFFFFFFFFFFFFFFFFFFFFFFFFFFFF
310
FFFFFFFFFFFFFFFFFFFFFFFFFFFFFFFFFFFFFFFFFFFFFFFFFFFFFFFFFFFFFFFF
310
FFFFFFFFFFFFFFFFFFFFFFFFFFFFFFFFFFFFFFFFFFFFFFFFFFFFFFFFFFFFFFFF
310
FFFFFFFFFFFFFFFFFFFFFFFFFFFFFFFFFFFFFFFFFFFFFFFFFFFFFFFFFFFFFFFF
310
FFFFFFFFFFFFFFFFFFFFFFFFFFFFFFFFFFFFFFFFFFFFFFFFFFFFFFFFFFFFFFFF
310
FFFFFFFFFFFFFFFFFFFFFFFFFFFFFFFFFFFFFFFFFFFFFFFFFFFFFFFFFFFFFFFF
310
FFFFFFFFFFFFFFFFFFFFFFFFFFFFFFFFFFFFFFFFFFFFFFFFFFFFFFFFFFFFFFFF
310
010000020000000000000000000000000000000000000000000080BF00000000
310
0000000000000000000000000000000000000000000000000000000000000000
310
0100FEFF030A0000FFFFFFFF0A00030000000000C00000000000004607000000
310
5042727573680007000000504272757368000700000050427275736800F439B2
310
7100000000000000000000000000000000000000000000000000000000000000
310
0000000000000000000000000000000000000000000000000000000000000000
310
0000000000000000000000000000000000000000000000000000000000000000
310
0000000000000000000000000000000000000000000000000000000000000000
310
0000000000000000000000000000000000000000000080BF0000000000000000
310
0000803F000000000000000000000000000080BF000000000000000000000000
310
0000000000000000000000000000000000000000000000000000000000000000
310
0000000000000000000000000000000000000000000000000000000000000000
310
0000000000000000000000000000000000000000000000000000000000000000
310
0000000000000000000000000000000000000000000000000000000000000000
310
0000000000000000000000000000000000000000000000000000000000000000
310
0000000000000000000000000000000000000000000000000000000000000000
310
20260000424D0E260000000000003E00000028000000B40200006E0000000100
310
01000000000000000000130B0000130B00000200000002000000000000FFFFFF
310
FFFFFFFFFFFFFFFFFFFFFFFFFFFFFFFFFFFFFFFFFFFFFFFFFFFFFFFFFFFFFFFF
310
FFFFFFFFFFFFFFFFFFFFFFFFFFFFFFFFFFFFFFFFFFFFFFFFFFFFFFFFFFFFFFFF
310
FFFFFFFFFFFFFFFFFFFFFFFFFFFFFFFFFFFFFFFFFFFFFFFFF000FFFFFFFFFFFF
310
FFFFFFFFFFFFFFFFFFFFFFFFFFFFFFFFFFFFFFFFFFFFFFFFFFFFFFFFFFFFFFFF
310
FFFFFFFFFFFFFFFFFFFFFFFFFFFFFFFFFFFFFFFFFFFFFFFFFFFFFFFFFFFFFFFF
310
FFFFFFFFFFFFFFFFFFFFFFFFFFFFFFFFF000FFFFFFFFFFFFFFFFFFFFFFFFFFFF
310
FFFFFFFFFFFFFFFFFFFFFFFFFFFFFFFFFFFFFFFFFFFFFFFFFFFFFFFFFFFFFFFF
310
FFFFFFFFFFFFFFFFFFFFFFFFFFFFFFFFFFFFFFFFFFFFFFFFFFFFFFFFFFFFFFFF
310
FFFFFFFFFFFFFFFFF000FFFFFFFFFFFFFFFFFFFFFFFFFFFFFFFFFFFFFFFFFFFF
310
FFFFFFFFFFFFFFFFFFFFFFFFFFFFFFFFFFFFFFFFFFFFFFFFFFFFFFFFFFFFFFFF
310
FFFFFFFFFFFFFFFFFFFFFFFFFFFFFFFFFFFFFFFFFFFFFFFFFFFFFFFFFFFFFFFF
310
F000FFFFFFFFFFFFFFFFFFFFFFFFFFFFFFFFFFFFFFFFFFFFFFFFFFFFFFFFFFFF
310
FFFFFFFFFFFFFFFFFFFFFFFFFFFFFFFFFFFFFFFFFFFFFFFFFFFFFFFFFFFFFFFF
310
FFFFFFFFFFFFFFFFFFFFFFFFFFFFFFFFFFFFFFFFFFFFFFFFF000FFFFFFFFFFFF
310
FFFFFFFFFFFFFFFFFFFFFFFFFFFFFFFFFFFFFFFFFFFFFFFFFFFFFFFFFFFFFFFF
310
FFFFFFFFFFFFFFFFFFFFFFFFFFFFFFFFFFFFFFFFFFFFFFFFFFFFFFFFFFFFFFFF
310
FFFFFFFFFFFFFFFFFFFFFFFFFFFFFFFFF000FFFFFFFFFFFFFFFFFFFFFFFFFFFF
310
FFFFFFFFFFFFFFFFFFFFFFFFFFFFFFFFFFFFFFFFFFFFFFFFFFFFFFFFFFFFFFFF
310
FFFFFFFFFFFFFFFFFFFFFFFFFFFFFFFFFFFFFFFFFFFFFFFFFFFFFFFFFFFFFFFF
310
FFFFFFFFFFFFFFFFF000FFFFFFFFFFFFFFFFFFFFFFFFFFFFFFFFFFFFFFFFFFFF
310
FFFFFFFFFFFFFFFFFFFFFFFFFFFFFFFFFFFFFFFFFFFFFFFFFFFFFFFFFFFFFFFF
310
FFFFFFFFFFFFFFFFFFFFFFFFFFFFFFFFFFFFFFFFFFFFFFFFFFFFFFFFFFFFFFFF
310
F000FFFFFFFFFFFFFFFFFFFFFFFFFFFFFFFFFFFFFFFFFFFFFFFFFFFFFFFFFFFF
310
FFFFFFFFFFFFFFFFFFFFFFFFFFFFFFFFFFFFFFFFFFFFFFFFFFFFFFFFFFFFFFFF
310
FFFFFFFFFFFFFFFFFFFFFFFFFFFFFFFFFFFFFFFFFFFFFFFFF000FFFFFFFFFFFF
310
FFFFFFFFFFFFFFFFFFFFFFFFFFFFFFFFFFFFFFFFFFFFFFFFFFFFFFFFFFFFFFFF
310
FFFFFFFFFFFFFFFFFFFFFFFFFFFFFFFFFFFFFFFFFFFFFFFFFFFFFFFFFFFFFFFF
310
FFFFFFFFFFFFFFFFFFFFFFFFFFFFFFFFF000FFFFFFFFFFFFFFFFFFFFFFFFFFFF
310
FFFFFFFFFFFFFFFFFFFFFFFFFFFFFFFFFFFFFFFFFFFFFFFFFFFFFFFFFFFFFFFF
310
FFFFFFFFFFFFFFFFFFFFFFFFFFFFFFFFFFFFFFFFFFFFFFFFFFFFFFFFFFFFFFFF
310
FFFFFFFFFFFFFFFFF000FFFFFFFFFFFFFFFFFFFFFFFFFFFFFFFFFFFFFFFFFFFF
310
FFFFFFFFFFFFFFFFFFFFFFFFFFFFFFFFFFFFFFFFFFFFFFFFFFFFFFFFFFFFFFFF
310
FFFFFFFFFFFFFFFFFFFFFFFFFFFFFFFFFFFFFFFFFFFFFFFFFFFFFFFFFFFFFFFF
310
F000FFFFFFFFFFFFFFFFFFFFFFFFFFFFFFFFFFFFFFFFFFFFFFFFFFFFFFFFFFFF
310
FFFFFFFFFFFFFFFFFFFFFFFFFFFFFFFFFFFFFFFFFFFFFFFFFFFFFFFFFFFFFFFF
310
FFFFFFFFFFFFFFFFFFFFFFFFFFFFFFFFFFFFFFFFFFFFFFFFF000FFFFFFFFFFFF
310
FFFFFFFFFFFFFFFFFFFFFFFFFFFFFFFFFFFFFFFFFFFFFFFFFFFFFFFFFFFFFFFF
310
FFFFFFFFFFFFFFFFFFFFFFFFFFFFFFFFFFFFFFFFFFFFFFFFFFFFFFFFFFFFFFFF
310
FFFFFFFFFFFFFFFFFFFFFFFFFFFFFFFFF000FFFFFFFFFFFFFFFFFFFFFFFFFFFF
310
FFFFFFFFFFFFFFFFFFFFFFFFFFFFFFFFFFFFFFFFFFFFFFFFFFFFFFFFFFFFFFFF
310
FFFFFFFFFFFFFFFFFFFFFFFFFFFFFFFFFFFFFFFFFFFFFFFFFFFFFFFFFFFFFFFF
310
FFFFFFFFFFFFFFFFF000FFFFFFFFFFFFFFFFFFFFFFFFFFFFFFFFFFFFFFFFFFFF
310
FFFFFFFFFFFFFFFFFFFFFFFFFFFFFFFFFFFFFFFFFFFFFFFFFFFFFFFFFFFFFFFF
310
FFFFFFFFFFFFFFFFFFFFFFFFFFFFFFFFFFFFFFFFFFFFFFFFFFFFFFFFFFFFFFFF
310
F000FFFFFFFFFFFFFFFFFFFFFFFFFFFFFFFFFFFFFFFFFFFFFFFFFFFFFFFFFFFF
310
FFFFFFFFFFFFFFFFFFFFFFFFFFFFFFFFFFFFFFFFFFFFFFFFFFFFFFFFFFFFFFFF
310
FFFFFFFFFFFFFFFFFFFFFFFFFFFFFFFFFFFFFFFFFFFFFFFFF000FFFFFFFFFFFF
310
FFFFFFFFFFFFFFFFFFFFFFFFFFFFFFFFFFFFFFFFFFFFFFFFFFFFFFFFFFFFFFFF
310
FFFFFFFFFFFFFFFFFFFFFFFFFFFFFFFFFFFFFFFFFFFFFFFFFFFFFFFFFFFFFFFF
310
FFFFFFFFFFFFFFFFFFFFFFFFFFFFFFFFF000FFFFFFFFFFFFFFFFFFFFFFFFFFFF
310
FFFFFFFFFFFFFFFFFFFFFFFFFFFFFFFFFFFFFFFFFFFFFFFFFFFFFFFFFFFFFFFF
310
FFFFFFFFFFFFFFFFFFFFFFFFFFFFFFFFFFFFFFFFFFFFFFFFFFFFFFFFFFFFFFFF
310
FFFFFFFFFFFFFFFFF000FFFFF80003FFFFFFFFFFFFFFFFFFFFFFFFFFFFFFFFFF
310
FFFFF00007FFFFFFFFFF00007FFFFFF800000000000000007FFFFFFFFFFFFFFF
310
FFFFFFFC001FFFFFFFFFFFFFFC001FFFFFFFFFFFFFFFFFFFFFFFFFFE0007FFFF
310
F000FFFF8000007FFFFFFFF8000FFFFFC0007FFFFF80007FFFFF0000007FFFFF
310
FFF8000007FFFFF800000000000000007FFFFFF0001FFFFFFFFFFFC00001FFFF
310
FFFFFFFFC00001FFFFFFFF000000000003FFFFE000007FFFF000FFFE0000000F
310
FFFFFFF0000FFFFF80007FFFFF80007FFFFC0000001FFFFFFFC0000001FFFFF8
310
00000000000000007FFFFFF0001FFFFFFFFFFE0000003FFFFFFFFFFE0000003F
310
FFFFFF000000000003FFFF0000000FFFF000FFF800000003FFFFFFF00007FFFF
310
80007FFFFF80007FFFF000000007FFFFFF000000003FFFF80000000000000000
310
7FFFFFF0001FFFFFFFFFF80000000FFFFFFFFFF80000000FFFFFFF0000000000
310
03FFFC00000003FFF000FFE000000000FFFFFFF00007FFFF80003FFFFF80007F
310
FFC000000001FFFFFC000000001FFFF800000000000000007FFFFFF0001FFFFF
310
FFFFE000000003FFFFFFFFE000000003FFFFFF000000000003FFF000000000FF
310
F000FF80000000007FFFFFF00007FFFF80003FFFFF80007FFF8000000000FFFF
310
F80000000007FFF800000000000000007FFFFFF0001FFFFFFFFFC000000001FF
310
FFFFFFC000000001FFFFFF000000000003FFC0000000007FF000FF0000000000
310
3FFFFFE00007FFFF00003FFFFF80007FFE00000000003FFFF00000000003FFF8
310
00000000000000007FFFFFF0001FFFFFFFFF8000000000FFFFFFFF8000000000
310
FFFFFF000000000003FF80000000003FF000FE00000000001FFFFFE00003FFFF
310
00003FFFFF80007FFC00000000001FFFE00000000001FFF8000001FFFE000000
310
7FFFFFF0001FFFFFFFFE00000000003FFFFFFE00000000003FFFFF0000000000
310
03FF00000000001FF000FC00000000000FFFFFE00003FFFF00001FFFFF80007F
310
F800000000001FFFC00000000000FFF8000001FFFE0000007FFFFFF0001FFFFF
310
FFFC00000000001FFFFFFC00000000001FFFFF000000000003FE00000000000F
310
F000F8000000000007FFFFE00003FFFF00001FFFFF80007FF800000000000FFF
310
800000000000FFF8000001FFFE0000007FFFFFF0001FFFFFFFF800000000000F
310
FFFFF800000000000FFFFF000000000003FC000000000007F000F80000000000
310
03FFFFC00003FFFE00001FFFFF80007FF0000000000007FF0000000000007FF8
310
000001FFFE0000007FFFFFF0001FFFFFFFF0000000000007FFFFF00000000000
310
07FFFF000000000003F8000000000003F000F0000000000003FFFFC00001FFFE
310
00001FFFFF80007FE0000000000007FE0000000000003FF8000001FFFE000000
310
7FFFFFF0001FFFFFFFF0000000000007FFFFF0000000000007FFFF0000000000
310
03F800001F800003F000E00001FFF00001FFFFC00001FFFE00000FFFFF80007F
310
E00001FFE00003FE00001FFF00003FF8000001FFFE0000007FFFFFF0001FFFFF
310
FFE000003E000003FFFFE000003E000003FFFF000000000003F00001FFF80001
310
F000E00007FFFC0001FFFFC00001FFFE00000FFFFF80007FC0000FFFFC0003FC
310
0000FFFFC0001FF8000001FFFE0000007FFFFFF0001FFFFFFFC00003FFE00001
310
FFFFC00003FFE00001FFFF0001FFFFFFFFF00007FFFE0001F000E0000FFFFF00
310
00FFFF800001FFFC00000FFFFF80007FC0001FFFFE0001FC0001FFFFE0001FF8
310
000001FFFE0000007FFFFFF0001FFFFFFF80000FFFF80000FFFF80000FFFF800
310
00FFFF0003FFFFFFFFE0000FFFFF8000F000C0003FFFFF8000FFFF800000FFFC
310
000007FFFF80007F80003FFFFF0001FC0003FFFFF0001FF8000001FFFE000000
310
7FFFFFF0001FFFFFFF80003FFFFE0000FFFF80003FFFFE0000FFFF0003FFFFFF
310
FFE0003FFFFF8000F000C0003FFFFF8000FFFF800000FFFC000007FFFF80007F
310
80007FFFFF8001F80007FFFFF8000FF8000001FFFE0000007FFFFFF0001FFFFF
310
FF00007FFFFF00007FFF00007FFFFF00007FFF0003FFFFFFFFE0003FFFFFC000
310
F000C0007FFFFFC000FFFF000000FFFC000007FFFF80007F8000FFFFFF8000F8
310
000FFFFFF8000FF8000001FFFE0000007FFFFFF0001FFFFFFF0000FFFFFF8000
310
7FFF0000FFFFFF80007FFF0003FFFFFFFFC0007FFFFFC00070008000FFFFFFC0
310
00FFFF000000FFF8000007FFFF80007F8000FFFFFF8000F8000FFFFFF8000FF8
310
000001FFFE0000007FFFFFF0001FFFFFFE0001FFFFFFC0003FFE0001FFFFFFC0
310
003FFF0003FFFFFFFFC0007FFFFFE00070008000FFFFFFC0007FFF0000007FF8
310
000003FFFF80007F0001FFFFFF8000F8000FFFFFF8000FF8000001FFFE000000
310
7FFFFFF0001FFFFFFE0001FFFFFFC0003FFE0001FFFFFFC0003FFF0003FFFFFF
310
FFC000FFFFFFE00070008000FFFFFFC0007FFF0000007FF8000003FFFF80007F
310
0001FFFFFF8000F8001FFFFFF8000FF8000001FFFE0000007FFFFFF0001FFFFF
310
FE0003FFFFFFE0003FFE0003FFFFFFE0003FFF0003FFFFFFFFC000FFFFFFE000
310
70008000FFFFFFC0007FFE0000007FF8000003FFFF80007F0001FFFFFF8000F0
310
001FFFFFF8000FF8000001FFFE0000007FFFFFF0001FFFFFFC0003FFFFFFE000
310
1FFC0003FFFFFFE0001FFF0003FFFFFFFFC000FFFFFFC00070008000FFFFFF80
310
007FFE0000007FF0000003FFFF80007F0001FFFFFF0000F0001FFFFFF8000FF8
310
000001FFFE0000007FFFFFF0001FFFFFFC0007FFFFFFF0001FFC0007FFFFFFF0
310
001FFF0003FFFFFFFFC000FFFFFFC00070008001FFFFFF0000FFFE0000003FF0
310
000001FFFF80007F0001FFFFFF0000F8001FFFFFF0000FF8000001FFFE000000
310
7FFFFFF0001FFFFFFC0007FFFFFFF0001FFC0007FFFFFFF0001FFF0003FFFFFF
310
FFC001FFFFFF80007000FFFFFFFFFE0000FFFE0008003FF0008001FFFF80007F
310
FFFFFFFFFC0000FFFFFFFFFFE0000FF8000001FFFE0000007FFFFFF0001FFFFF
310
F8000FFFFFFFF8000FF8000FFFFFFFF8000FFF0003FFFFFFFFFFFFFFFFFF0000
310
7000FFFFFFFFFC0000FFFC0008003FF0008001FFFF80007FFFFFFFFFF80001FF
310
FFFFFFFF80000FF8000001FFFE0000007FFFFFF0001FFFFFF8000FFFFFFFF800
310
0FF8000FFFFFFFF8000FFF0003FFFFFFFFFFFFFFFFFE0000F000FFFFFFFFE000
310
00FFFC000C003FE000C001FFFF80007FFFFFFFFFC00001FFFFFFFFFE00001FF8
310
000001FFFE0000007FFFFFF0001FFFFFF8000FFFFFFFF8000FF8000FFFFFFFF8
310
000FFF0003FFFFFFFFFFFFFFFFF00000F000FFFFFFFE000001FFFC000C001FE0
310
00C000FFFF80007FFFFFFFFE000001FFFFFFFFE000001FF80FFFFFFFFFFFFFC0
310
7FFFFFF0001FFFFFF8000FFFFFFFF8000FF8000FFFFFFFF8000FFF0003FFFFFF
310
FFFFFFFFFF800000F000FFFFFFC0000001FFFC001C001FE001C000FFFF80007F
310
FFFFFF80000003FFFFFFF80000001FF80FFFFFFFFFFFFFC07FFFFFF0001FFFFF
310
F8001FFFFFFFFC000FF8001FFFFFFFFC000FFF0003FFFFFFFFFFFFFFF0000001
310
F000FFFFF800000001FFF8001C001FE001C000FFFF80007FFFFFF800000003FF
310
FFFF800000003FF80FFFFFFFFFFFFFC07FFFFFF0001FFFFFF8001FFFFFFFFC00
310
0FF8001FFFFFFFFC000FFF0003FFFFFFFFFFFFFE00000001F000FFFFC0000000
310
03FFF8001E001FC001E000FFFF80007FFFFF8000000007FFFFFC000000003FF8
310
0FFFFFFFFFFFFFC07FFFFFF0001FFFFFF8001FFFFFFFFC000FF8001FFFFFFFFC
310
000FFF0003FFFFFFFFFFFFE000000003F000FFFE0000000007FFF8001E000FC0
310
01E0007FFF80007FFFFE0000000007FFFFE0000000007FF80FFFFFFFFFFFFFC0
310
7FFFFFF0001FFFFFF0001FFFFFFFFC0007F0001FFFFFFFFC0007FF0003FFFFFF
310
FFFFFF0000000003F000FFF80000000007FFF8001E000FC003E0007FFF80007F
310
FFF0000000000FFFFF8000000000FFF80FFFFFFFFFFFFFC07FFFFFF0001FFFFF
310
F0001FFFFFFFFC0007F0001FFFFFFFFC0007FF0003FFFFFFFFFFFC0000000007
310
F000FFE0000000000FFFF0003E000FC003E0007FFF80007FFFC0000000001FFF
310
FE0000000001FFF80FFFFFFFFFFFFFC07FFFFFF0001FFFFFF0001FFFFFFFFC00
310
07F0001FFFFFFFFC0007FF0003FFFFFFFFFFF0000000000FF000FFC000000000
310
1FFFF0003F000F8003F0003FFF80007FFF80000000003FFFF80000000003FFF8
310
0FFFFFFFFFFFFFC07FFFFFF0001FFFFFF0001FFFFFFFFC0007F0001FFFFFFFFC
310
0007FF0003FFFFFFFFFFE0000000001FF000FF00000000007FFFF0003F000780
310
03F0003FFF80007FFF00000000007FFFF00000000007FFF80FFFFFFFFFFFFFC0
310
7FFFFFF0001FFFFFF0001FFFFFFFFC0007F0001FFFFFFFFC0007FF0003FFFFFF
310
FFFF80000000007FF000FE0000000000FFFFE0003F00078007F0003FFF80007F
310
FE0000000001FFFFE0000000001FFFF80FFFFFFFFFFFFFC07FFFFFF0001FFFFF
310
F0001FFFFFFFFC0007F0001FFFFFFFFC0007FF0003FFFFFFFFFF0000000000FF
310
F000FC0000000003FFFFE0007F00078007F0003FFF80007FFC0000000007FFFF
310
C0000000007FFFF80FFFFFFFFFFFFFC07FFFFFF0001FFFFFF8001FFFFFFFFC00
310
0FF8001FFFFFFFFC000FFF0003FFFFFFFFFE0000000003FFF000FC000000000F
310
FFFFE0007F80070007F8001FFF80007FF8000000001FFFFF8000000001FFFFF8
310
0FFFFFFFFFFFFFC07FFFFFF0001FFFFFF8001FFFFFFFFC000FF8001FFFFFFFFC
310
000FFF0003FFFFFFFFFC000000000FFFF000F8000000007FFFFFE0007F800700
310
07F8001FFF80007FF000000000FFFFFF800000000FFFFFF80FFFFFFFFFFFFFC0
310
7FFFFFF0001FFFFFF8000FFFFFFFF8000FF8000FFFFFFFF8000FFF0003FFFFFF
310
FFFC000000007FFFF000F800000007FFFFFFC0007F8003000FF8001FFF80007F
310
F000000007FFFFFF000000007FFFFFF80FFFFFFFFFFFFFC07FFFFFF0001FFFFF
310
F8000FFFFFFFF8000FF8000FFFFFFFF8000FFF0003FFFFFFFFF80000000FFFFF
310
F000F0000000FFFFFFFFC000FF8003000FF8001FFF80007FE0000000FFFFFFFF
310
0000000FFFFFFFF8000001FFFE0000007FFFFFF0001FFFFFF8000FFFFFFFF800
310
0FF8000FFFFFFFF8000FFF0003FFFFFFFFF8000000FFFFFFF000F000000FFFFF
310
FFFFC000FFC002000FF8000FFF80007FE000001FFFFFFFFE000001FFFFFFFFF8
310
000001FFFE0000007FFFFFF0001FFFFFF8000FFFFFFFF8000FF8000FFFFFFFF8
310
000FFF0003FFFFFFFFF000001FFFFFFFF000E00000FFFFFFFFFFC000FFC00200
310
0FFC000FFF80007FE00001FFFFFFFFFE00001FFFFFFFFFF8000001FFFE000000
310
7FFFFFF0001FFFFFFC000FFFFFFFF8001FFC000FFFFFFFF8001FFF0003FFFFFF
310
FFF00001FFFFFFFFF000E00007FFFFFFFFFF8000FFC000001FFC000FFF80007F
310
C0000FFFFFFFFFFE0000FFFFFFFFFFF8000001FFFE0000007FFFFFF0001FFFFF
310
FC0007FFFFFFF0001FFC0007FFFFFFF0001FFF0003FFFFFFFFF00007FFFFFFFF
310
F000E0001FFFFFFFFFFF8000FFC000001FFC000FFF80007FC0003FFFFFFFFFFE
310
0001FFFFFFFFFFF8000001FFFE0000007FFFFFF0001FFFFFFC0007FFFFFFF000
310
1FFC0007FFFFFFF0001FFF0003FFFFFFFFF0001FFFFFFFFFF000E0003FFFFF00
310
03FF8001FFE000001FFC0007FF80007FC0007FFFFF0007FC0003FFFFF0003FF8
310
000001FFFE0000007FFFFFF0001FFFFFFC0003FFFFFFE0001FFC0003FFFFFFE0
310
001FFF0003FFFFFFFFF0003FFFFFFFFFF000E0003FFFFF0001FF8001FFE00000
310
1FFE0007FF80007FC0007FFFFE0003FC0007FFFFE0003FF8000001FFFE000000
310
7FFFFFF0001FFFFFFE0003FFFFFFE0003FFE0003FFFFFFE0003FFF0003FFFFFF
310
FFF0003FFFFF8001F000E0003FFFFF0001FF0001FFE000001FFE0007FF80007F
310
C0007FFFFE0003FC0007FFFFE0003FF8000001FFFE0000007FFFFFF0001FFFFF
310
FE0001FFFFFFC0003FFE0001FFFFFFC0003FFF0003FFFFFFFFF0003FFFFF0001
310
F000E0003FFFFF0003FF0001FFE000003FFE0007FF80007FC0007FFFFE0003FC
310
0007FFFFE0003FF8000001FFFE0000007FFFFFF0001FFFFFFF0001FFFFFFC000
310
7FFF0001FFFFFFC0007FFF0003FFFFFFFFF0003FFFFF0001F000E0003FFFFE00
310
03FF0003FFF000003FFE0003FF80007FC0007FFFFC0003FE0007FFFFE0003FF8
310
000001FFFE0000007FFFFFF0001FFFFFFF0000FFFFFF80007FFF0000FFFFFF80
310
007FFF0003FFFFFFFFF0003FFFFF0001F000E0003FFFFE0003FF0003FFF00000
310
3FFF0003FF80007FC0007FFFFC0007FE0007FFFFC0003FF8000001FFFE000000
310
7FFFFFF0001FFFFFFF80007FFFFF0000FFFF80007FFFFF0000FFFF0003FFFFFF
310
FFF0003FFFFF0003F000E0003FFFFC0003FE0003FFF000003FFF0003FF80007F
310
E0003FFFF80007FE0003FFFFC0007FF8000001FFFE0000007FFFFFF0001FFFFF
310
FF80003FFFFE0000FFFF80003FFFFE0000FFFF0003FFFFFFFFF0001FFFFE0003
310
F000F0001FFFF80003FE0003FFF000007FFF0001FF80007FE0003FFFF00007FE
310
0001FFFF80007FF8000001FFFE0000007FFFFFF0001FFFFFFFC0000FFFF80001
310
FFFFC0000FFFF80001FFFF0003FFFFFFFFF0001FFFFC0003F000F0000FFFF000
310
07FE0007FFF800007FFF0001FF80007FE0001FFFE00007FF0000FFFE00007FF8
310
000001FFFE0000007FFFFFF0001FFFFFFFC00003FFE00001FFFFC00003FFE000
310
01FFFF0003FFFFFFFFF8000FFFF80003F000F00003FFC00007FC0007FFF80000
310
7FFF8001FF80007FF00007FF80000FFF00007FF80000FFF8000001FFFE000000
310
7F80000000000001FFE000003E000003FFFFE000003E000003FFFF0003FFFFFF
310
FFF80003FFE00007F000F800000000000FFC0007FFF800007FFF8001FF80007F
310
F000000000000FFF000000000000FFF8000001FFFE0000007F80000000000001
310
FFF0000000000007FFFFF0000000000007FFFF0003FFFFFFFFFC00007E000007
310
F000F800000000000FFC0007FFF80000FFFF8000FF80007FF800000000001FFF
310
800000000001FFF8000001FFFE0000007F80000000000001FFF800000000000F
310
FFFFF800000000000FFFFF0003FFFFFFFFFC00000000000FF000FC0000000000
310
1FFC0007FFFC0000FFFF8000FF80007FF800000000003FFFC00000000001FFF8
310
000001FFFE0000007F80000000000001FFF800000000000FFFFFF80000000000
310
0FFFFF0003FFFFFFFFFE00000000001FF000FE00000000003FF8000FFFFC0000
310
FFFF8000FF80007FFC00000000003FFFC00000000003FFF8000001FFFE000000
310
7F80000000000001FFFC00000000001FFFFFFC00000000001FFFFF0003FFFFFF
310
FFFF00000000001FF000FF00000000003FF8000FFFFC0000FFFFC000FF80007F
310
FE00000000007FFFE00000000007FFF8000001FFFE0000007F80000000000001
310
FFFE00000000003FFFFFFE00000000003FFFFF0003FFFFFFFFFF80000000003F
310
F000FF80000000007FF8000FFFFC0001FFFFC0007F80007FFF0000000000FFFF
310
F0000000000FFFF800000000000000007F80000000000001FFFF8000000000FF
310
FFFFFF8000000000FFFFFF0003FFFFFFFFFFC0000000007FF000FFC000000000
310
FFF8000FFFFE0001FFFFC0007F80007FFF8000000001FFFFF8000000001FFFF8
310
00000000000000007F80000000000001FFFFC000000001FFFFFFFFC000000001
310
FFFFFF0003FFFFFFFFFFE000000000FFF000FFE000000003FFF0001FFFFE0001
310
FFFFC0007F80007FFFC000000007FFFFFE000000003FFFF80000000000000000
310
7F80000000000001FFFFE000000003FFFFFFFFE000000003FFFFFF0003FFFFFF
310
FFFFF000000003FFF000FFF80000000FFFF0001FFFFE0001FFFFE0007F80007F
310
FFF00000000FFFFFFF00000000FFFFF800000000000000007F80000000000001
310
FFFFF80000000FFFFFFFFFF80000000FFFFFFF0003FFFFFFFFFFFC0000000FFF
310
F000FFFE0000003FFFF0001FFFFE0003FFFFE0003F80007FFFFC0000003FFFFF
310
FFC0000003FFFFF800000000000000007F80000000000001FFFFFE0000003FFF
310
FFFFFFFE0000003FFFFFFF0003FFFFFFFFFFFF0000003FFFF000FFFF800000FF
310
FFF0001FFFFF0003FFFFE0003F80007FFFFF000001FFFFFFFFF800001FFFFFF8
310
00000000000000007F80000000000001FFFFFFC00001FFFFFFFFFFFFC00001FF
310
FFFFFF0003FFFFFFFFFFFFC00000FFFFF000FFFFF8000FFFFFFFFFFFFFFFFFFF
310
FFFFFFFFFFFFFFFFFFFFF0001FFFFFFFFFFF0000FFFFFFF80000000000000000
310
7FFFFFFFFFFFFFFFFFFFFFFC001FFFFFFFFFFFFFFC001FFFFFFFFFFFFFFFFFFF
310
FFFFFFFC001FFFFFF000FFFFFFFFFFFFFFFFFFFFFFFFFFFFFFFFFFFFFFFFFFFF
310
FFFFFFFFFFFFFFFFFFFFFFFFFFFFFFFFFFFFFFFFFFFFFFFFFFFFFFFFFFFFFFFF
310
FFFFFFFFFFFFFFFFFFFFFFFFFFFFFFFFFFFFFFFFFFFFFFFFFFFFFFFFFFFFFFFF
310
F000FFFFFFFFFFFFFFFFFFFFFFFFFFFFFFFFFFFFFFFFFFFFFFFFFFFFFFFFFFFF
310
FFFFFFFFFFFFFFFFFFFFFFFFFFFFFFFFFFFFFFFFFFFFFFFFFFFFFFFFFFFFFFFF
310
FFFFFFFFFFFFFFFFFFFFFFFFFFFFFFFFFFFFFFFFFFFFFFFFF000FFFFFFFFFFFF
310
FFFFFFFFFFFFFFFFFFFFFFFFFFFFFFFFFFFFFFFFFFFFFFFFFFFFFFFFFFFFFFFF
310
FFFFFFFFFFFFFFFFFFFFFFFFFFFFFFFFFFFFFFFFFFFFFFFFFFFFFFFFFFFFFFFF
310
FFFFFFFFFFFFFFFFFFFFFFFFFFFFFFFFF000FFFFFFFFFFFFFFFFFFFFFFFFFFFF
310
FFFFFFFFFFFFFFFFFFFFFFFFFFFFFFFFFFFFFFFFFFFFFFFFFFFFFFFFFFFFFFFF
310
FFFFFFFFFFFFFFFFFFFFFFFFFFFFFFFFFFFFFFFFFFFFFFFFFFFFFFFFFFFFFFFF
310
FFFFFFFFFFFFFFFFF000FFFFFFFFFFFFFFFFFFFFFFFFFFFFFFFFFFFFFFFFFFFF
310
FFFFFFFFFFFFFFFFFFFFFFFFFFFFFFFFFFFFFFFFFFFFFFFFFFFFFFFFFFFFFFFF
310
FFFFFFFFFFFFFFFFFFFFFFFFFFFFFFFFFFFFFFFFFFFFFFFFFFFFFFFFFFFFFFFF
310
F000FFFFFFFFFFFFFFFFFFFFFFFFFFFFFFFFFFFFFFFFFFFFFFFFFFFFFFFFFFFF
310
FFFFFFFFFFFFFFFFFFFFFFFFFFFFFFFFFFFFFFFFFFFFFFFFFFFFFFFFFFFFFFFF
310
FFFFFFFFFFFFFFFFFFFFFFFFFFFFFFFFFFFFFFFFFFFFFFFFF000FFFFFFFFFFFF
310
FFFFFFFFFFFFFFFFFFFFFFFFFFFFFFFFFFFFFFFFFFFFFFFFFFFFFFFFFFFFFFFF
310
FFFFFFFFFFFFFFFFFFFFFFFFFFFFFFFFFFFFFFFFFFFFFFFFFFFFFFFFFFFFFFFF
310
FFFFFFFFFFFFFFFFFFFFFFFFFFFFFFFFF000FFFFFFFFFFFFFFFFFFFFFFFFFFFF
310
FFFFFFFFFFFFFFFFFFFFFFFFFFFFFFFFFFFFFFFFFFFFFFFFFFFFFFFFFFFFFFFF
310
FFFFFFFFFFFFFFFFFFFFFFFFFFFFFFFFFFFFFFFFFFFFFFFFFFFFFFFFFFFFFFFF
310
FFFFFFFFFFFFFFFFF000FFFFFFFFFFFFFFFFFFFFFFFFFFFFFFFFFFFFFFFFFFFF
310
FFFFFFFFFFFFFFFFFFFFFFFFFFFFFFFFFFFFFFFFFFFFFFFFFFFFFFFFFFFFFFFF
310
FFFFFFFFFFFFFFFFFFFFFFFFFFFFFFFFFFFFFFFFFFFFFFFFFFFFFFFFFFFFFFFF
310
F000FFFFFFFFFFFFFFFFFFFFFFFFFFFFFFFFFFFFFFFFFFFFFFFFFFFFFFFFFFFF
310
FFFFFFFFFFFFFFFFFFFFFFFFFFFFFFFFFFFFFFFFFFFFFFFFFFFFFFFFFFFFFFFF
310
FFFFFFFFFFFFFFFFFFFFFFFFFFFFFFFFFFFFFFFFFFFFFFFFF000FFFFFFFFFFFF
310
FFFFFFFFFFFFFFFFFFFFFFFFFFFFFFFFFFFFFFFFFFFFFFFFFFFFFFFFFFFFFFFF
310
FFFFFFFFFFFFFFFFFFFFFFFFFFFFFFFFFFFFFFFFFFFFFFFFFFFFFFFFFFFFFFFF
310
FFFFFFFFFFFFFFFFFFFFFFFFFFFFFFFFF000FFFFFFFFFFFFFFFFFFFFFFFFFFFF
310
FFFFFFFFFFFFFFFFFFFFFFFFFFFFFFFFFFFFFFFFFFFFFFFFFFFFFFFFFFFFFFFF
310
FFFFFFFFFFFFFFFFFFFFFFFFFFFFFFFFFFFFFFFFFFFFFFFFFFFFFFFFFFFFFFFF
310
FFFFFFFFFFFFFFFFF000FFFFFFFFFFFFFFFFFFFFFFFFFFFFFFFFFFFFFFFFFFFF
310
FFFFFFFFFFFFFFFFFFFFFFFFFFFFFFFFFFFFFFFFFFFFFFFFFFFFFFFFFFFFFFFF
310
FFFFFFFFFFFFFFFFFFFFFFFFFFFFFFFFFFFFFFFFFFFFFFFFFFFFFFFFFFFFFFFF
310
F000FFFFFFFFFFFFFFFFFFFFFFFFFFFFFFFFFFFFFFFFFFFFFFFFFFFFFFFFFFFF
310
FFFFFFFFFFFFFFFFFFFFFFFFFFFFFFFFFFFFFFFFFFFFFFFFFFFFFFFFFFFFFFFF
310
FFFFFFFFFFFFFFFFFFFFFFFFFFFFFFFFFFFFFFFFFFFFFFFFF000FFFFFFFFFFFF
310
FFFFFFFFFFFFFFFFFFFFFFFFFFFFFFFFFFFFFFFFFFFFFFFFFFFFFFFFFFFFFFFF
310
FFFFFFFFFFFFFFFFFFFFFFFFFFFFFFFFFFFFFFFFFFFFFFFFFFFFFFFFFFFFFFFF
310
FFFFFFFFFFFFFFFFFFFFFFFFFFFFFFFFF000FFFFFFFFFFFFFFFFFFFFFFFFFFFF
310
FFFFFFFFFFFFFFFFFFFFFFFFFFFFFFFFFFFFFFFFFFFFFFFFFFFFFFFFFFFFFFFF
310
FFFFFFFFFFFFFFFFFFFFFFFFFFFFFFFFFFFFFFFFFFFFFFFFFFFFFFFFFFFFFFFF
310
FFFFFFFFFFFFFFFFF000FFFFFFFFFFFFFFFFFFFFFFFFFFFFFFFFFFFFFFFFFFFF
310
FFFFFFFFFFFFFFFFFFFFFFFFFFFFFFFFFFFFFFFFFFFFFFFFFFFFFFFFFFFFFFFF
310
FFFFFFFFFFFFFFFFFFFFFFFFFFFFFFFFFFFFFFFFFFFFFFFFFFFFFFFFFFFFFFFF
310
F000FFFFFFFFFFFFFFFFFFFFFFFFFFFFFFFFFFFFFFFFFFFFFFFFFFFFFFFFFFFF
310
FFFFFFFFFFFFFFFFFFFFFFFFFFFFFFFFFFFFFFFFFFFFFFFFFFFFFFFFFFFFFFFF
310
FFFFFFFFFFFFFFFFFFFFFFFFFFFFFFFFFFFFFFFFFFFFFFFFF000FFFFFFFFFFFF
310
FFFFFFFFFFFFFFFFFFFFFFFFFFFFFFFFFFFFFFFFFFFFFFFFFFFFFFFFFFFFFFFF
310
FFFFFFFFFFFFFFFFFFFFFFFFFFFFFFFFFFFFFFFFFFFFFFFFFFFFFFFFFFFFFFFF
310
FFFFFFFFFFFFFFFFFFFFFFFFFFFFFFFFF000FFFFFFFFFFFFFFFFFFFFFFFFFFFF
310
FFFFFFFFFFFFFFFFFFFFFFFFFFFFFFFFFFFFFFFFFFFFFFFFFFFFFFFFFFFFFFFF
310
FFFFFFFFFFFFFFFFFFFFFFFFFFFFFFFFFFFFFFFFFFFFFFFFFFFFFFFFFFFFFFFF
310
FFFFFFFFFFFFFFFFF000FFFFFFFFFFFFFFFFFFFFFFFFFFFFFFFFFFFFFFFFFFFF
310
FFFFFFFFFFFFFFFFFFFFFFFFFFFFFFFFFFFFFFFFFFFFFFFFFFFFFFFFFFFFFFFF
310
FFFFFFFFFFFFFFFFFFFFFFFFFFFFFFFFFFFFFFFFFFFFFFFFFFFFFFFFFFFFFFFF
310
F000FFFFFFFFFFFFFFFFFFFFFFFFFFFFFFFFFFFFFFFFFFFFFFFFFFFFFFFFFFFF
310
FFFFFFFFFFFFFFFFFFFFFFFFFFFFFFFFFFFFFFFFFFFFFFFFFFFFFFFFFFFFFFFF
310
FFFFFFFFFFFFFFFFFFFFFFFFFFFFFFFFFFFFFFFFFFFFFFFFF000FFFFFFFFFFFF
310
FFFFFFFFFFFFFFFFFFFFFFFFFFFFFFFFFFFFFFFFFFFFFFFFFFFFFFFFFFFFFFFF
310
FFFFFFFFFFFFFFFFFFFFFFFFFFFFFFFFFFFFFFFFFFFFFFFFFFFFFFFFFFFFFFFF
310
FFFFFFFFFFFFFFFFFFFFFFFFFFFFFFFFF0000000000000000000000000000000
310
0000000001000000010000000100000001000000010000000100000001000000
310
0100000001000000010000000100000001000000010000000100000001000000
310
0100000001000000000000000100000001000000010000000100000001000000
310
0100000001000000010000000100000001000000010000000100000001000000
310
0100000001000000010000000100000001000000010000000100000001000000
310
0100000001000000010000000100000000000000010000000100000001000000
310
0100000001000000010000000100000001000000000000000100000001000000
310
0100000001000000010000000100000001000000010000000100000001000000
310
0000000001000000010000000100000001000000010000000100000001000000
310
0100000001000000010000000100000001000000010000000100000001000000
310
0100000001000000010000000100000001000000010000000100000001000000
310
0100000001000000010000000100000001000000000000000100000001000000
310
0100000001000000010000000100000001000000010000000100000001000000
310
0100000000000000010000000100000001000000010000000100000001000000
310
0100000001000000010000000100000001000000000000000100000001000000
  1
OLE
  0
ENDSEC
  0
SECTION
  2
OBJECTS
  0
DICTIONARY
  5
C
330
0
100
AcDbDictionary
281
     1
  3
ACAD_GROUP
350
D
  3
ACAD_LAYOUT
350
1A
  3
ACAD_MLEADERSTYLE
350
235
  3
ACAD_MLINESTYLE
350
17
  3
ACAD_PLOTSETTINGS
350
19
  3
ACAD_PLOTSTYLENAME
350
E
  3
ACAD_TABLESTYLE
350
234
  3
ACAD_VISUALSTYLE
350
2A
  3
AcDbVariableDictionary
350
236
  0
DICTIONARY
  5
D
102
{ACAD_REACTORS
330
C
102
}
330
C
100
AcDbDictionary
281
     1
  0
DICTIONARY
  5
1A
102
{ACAD_REACTORS
330
C
102
}
330
C
100
AcDbDictionary
281
     1
  3
Layout1
350
1E
  3
Layout2
350
26
  3
Model
350
22
  0
DICTIONARY
  5
235
102
{ACAD_REACTORS
330
C
102
}
330
C
100
AcDbDictionary
281
     1
  0
DICTIONARY
  5
17
102
{ACAD_REACTORS
330
C
102
}
330
C
100
AcDbDictionary
281
     1
  3
Standard
350
18
  0
DICTIONARY
  5
19
102
{ACAD_REACTORS
330
C
102
}
330
C
100
AcDbDictionary
281
     1
  0
ACDBDICTIONARYWDFLT
  5
E
102
{ACAD_REACTORS
330
C
102
}
330
C
100
AcDbDictionary
281
     1
  3
Normal
350
F
100
AcDbDictionaryWithDefault
340
F
  0
DICTIONARY
  5
234
102
{ACAD_REACTORS
330
C
102
}
330
C
100
AcDbDictionary
281
     1
  0
DICTIONARY
  5
2A
102
{ACAD_REACTORS
330
C
102
}
330
C
100
AcDbDictionary
281
     1
  3
2dWireframe
350
2F
  3
3D Hidden
350
31
  3
3dWireframe
350
30
  3
Basic
350
32
  3
Brighten
350
36
  3
ColorChange
350
3A
  3
Conceptual
350
34
  3
Dim
350
35
  3
Facepattern
350
39
  3
Flat
350
2B
  3
FlatWithEdges
350
2C
  3
Gouraud
350
2D
  3
GouraudWithEdges
350
2E
  3
Linepattern
350
38
  3
Realistic
350
33
  3
Thicken
350
37
  0
DICTIONARY
  5
236
102
{ACAD_REACTORS
330
C
102
}
330
C
100
AcDbDictionary
281
     1
  3
PSOLHEIGHT
350
238
  3
PSOLWIDTH
350
237
  0
LAYOUT
  5
1E
102
{ACAD_REACTORS
330
1A
102
}
330
1A
100
AcDbPlotSettings
  1

  2
none_device
  4

  6

 40
0.0
 41
0.0
 42
0.0
 43
0.0
 44
0.0
 45
0.0
 46
0.0
 47
0.0
 48
0.0
 49
0.0
140
0.0
141
0.0
142
1.0
143
1.0
 70
   688
 72
     0
 73
     0
 74
     5
  7

 75
    16
147
1.0
148
0.0
149
0.0
100
AcDbLayout
  1
Layout1
 70
     1
 71
     1
 10
0.0
 20
0.0
 11
420.0
 21
297.0
 12
0.0
 22
0.0
 32
0.0
 14
1.0000000000E+20
 24
1.0000000000E+20
 34
1.0000000000E+20
 15
-1.0000000000E+20
 25
-1.0000000000E+20
 35
-1.0000000000E+20
146
0.0
 13
0.0
 23
0.0
 33
0.0
 16
1.0
 26
0.0
 36
0.0
 17
0.0
 27
1.0
 37
0.0
 76
     0
330
1B
  0
LAYOUT
  5
26
102
{ACAD_REACTORS
330
1A
102
}
330
1A
100
AcDbPlotSettings
  1

  2
none_device
  4

  6

 40
0.0
 41
0.0
 42
0.0
 43
0.0
 44
0.0
 45
0.0
 46
0.0
 47
0.0
 48
0.0
 49
0.0
140
0.0
141
0.0
142
1.0
143
1.0
 70
   688
 72
     0
 73
     0
 74
     5
  7

 75
    16
147
1.0
148
0.0
149
0.0
100
AcDbLayout
  1
Layout2
 70
     1
 71
     2
 10
0.0
 20
0.0
 11
0.0
 21
0.0
 12
0.0
 22
0.0
 32
0.0
 14
0.0
 24
0.0
 34
0.0
 15
0.0
 25
0.0
 35
0.0
146
0.0
 13
0.0
 23
0.0
 33
0.0
 16
1.0
 26
0.0
 36
0.0
 17
0.0
 27
1.0
 37
0.0
 76
     0
330
23
  0
LAYOUT
  5
22
102
{ACAD_REACTORS
330
1A
102
}
330
1A
100
AcDbPlotSettings
  1

  2
none_device
  4

  6

 40
0.0
 41
0.0
 42
0.0
 43
0.0
 44
0.0
 45
0.0
 46
0.0
 47
0.0
 48
0.0
 49
0.0
140
0.0
141
0.0
142
1.0
143
1.0
 70
  1712
 72
     0
 73
     0
 74
     0
  7

 75
     0
147
1.0
148
0.0
149
0.0
100
AcDbLayout
  1
Model
 70
     1
 71
     0
 10
0.0
 20
0.0
 11
297.0
 21
210.0
 12
0.0
 22
0.0
 32
0.0
 14
0.0
 24
0.0
 34
0.0
 15
297.0
 25
210.0
 35
0.0
146
0.0
 13
0.0
 23
0.0
 33
0.0
 16
1.0
 26
0.0
 36
0.0
 17
0.0
 27
1.0
 37
0.0
 76
     0
330
1F
331
29
  0
MLINESTYLE
  5
18
102
{ACAD_REACTORS
330
17
102
}
330
17
100
AcDbMlineStyle
  2
Standard
 70
     0
  3

 62
   256
 51
90.0
 52
90.0
 71
     2
 49
0.5
 62
   256
  6
BYLAYER
 49
-0.5
 62
   256
  6
BYLAYER
  0
ACDBPLACEHOLDER
  5
F
102
{ACAD_REACTORS
330
E
102
}
330
E
  0
VISUALSTYLE
  5
2F
102
{ACAD_REACTORS
330
2A
102
}
330
2A
100
AcDbVisualStyle
  2
2dWireframe
 70
     4
 71
     0
 72
     2
 73
     0
 90
        0
 40
-0.6
 41
-30.0
 62
     5
 63
     7
 74
     1
 91
        4
 64
     7
 65
   257
 75
     1
175
     1
 42
1.0
 92
        0
 66
   257
 43
1.0
 76
     1
 77
     6
 78
     2
 67
     7
 79
     5
170
     0
171
     0
290
     0
174
     0
 93
        1
 44
0.0
173
     0
291
     0
 45
0.0
1001
ACAD
1000
AcDbSavedByObjectVersion
1070
     0
  0
VISUALSTYLE
  5
31
102
{ACAD_REACTORS
330
2A
102
}
330
2A
100
AcDbVisualStyle
  2
3D Hidden
 70
     6
 71
     1
 72
     2
 73
     2
 90
        0
 40
-0.6
 41
-30.0
 62
     5
 63
     7
 74
     2
 91
        2
 64
     7
 65
   257
 75
     2
175
     1
 42
40.0
 92
        0
 66
   257
 43
1.0
 76
     1
 77
     6
 78
     2
 67
     7
 79
     3
170
     0
171
     0
290
     0
174
     0
 93
        1
 44
0.0
173
     0
291
     0
 45
0.0
1001
ACAD
1000
AcDbSavedByObjectVersion
1070
     0
  0
VISUALSTYLE
  5
30
102
{ACAD_REACTORS
330
2A
102
}
330
2A
100
AcDbVisualStyle
  2
3dWireframe
 70
     5
 71
     0
 72
     2
 73
     0
 90
        0
 40
-0.6
 41
-30.0
 62
     5
 63
     7
 74
     1
 91
        4
 64
     7
 65
   257
 75
     1
175
     1
 42
1.0
 92
        0
 66
   257
 43
1.0
 76
     1
 77
     6
 78
     2
 67
     7
 79
     5
170
     0
171
     0
290
     0
174
     0
 93
        1
 44
0.0
173
     0
291
     0
 45
0.0
1001
ACAD
1000
AcDbSavedByObjectVersion
1070
     0
  0
VISUALSTYLE
  5
32
102
{ACAD_REACTORS
330
2A
102
}
330
2A
100
AcDbVisualStyle
  2
Basic
 70
     7
 71
     1
 72
     0
 73
     1
 90
        0
 40
-0.6
 41
-30.0
 62
     5
 63
     7
 74
     0
 91
        4
 64
     7
 65
   257
 75
     1
175
     1
 42
1.0
 92
        8
 66
     7
 43
1.0
 76
     1
 77
     6
 78
     2
 67
     7
 79
     5
170
     0
171
     0
290
     0
174
     0
 93
        1
 44
0.0
173
     0
291
     1
 45
0.0
1001
ACAD
1000
AcDbSavedByObjectVersion
1070
     0
  0
VISUALSTYLE
  5
36
102
{ACAD_REACTORS
330
2A
102
}
330
2A
100
AcDbVisualStyle
  2
Brighten
 70
    12
 71
     2
 72
     2
 73
     0
 90
        0
 40
-0.6
 41
-30.0
 62
     5
 63
     7
 74
     1
 91
        4
 64
     7
 65
   257
 75
     1
175
     1
 42
1.0
 92
        8
 66
     7
 43
1.0
 76
     1
 77
     6
 78
     2
 67
     7
 79
     5
170
     0
171
     0
290
     0
174
     0
 93
        1
 44
50.0
173
     0
291
     1
 45
0.0
1001
ACAD
1000
AcDbSavedByObjectVersion
1070
     0
  0
VISUALSTYLE
  5
3A
102
{ACAD_REACTORS
330
2A
102
}
330
2A
100
AcDbVisualStyle
  2
ColorChange
 70
    16
 71
     2
 72
     2
 73
     3
 90
        0
 40
-0.6
 41
-30.0
 62
     5
 63
     8
 74
     1
 91
        4
 64
     7
 65
   257
 75
     1
175
     1
 42
1.0
 92
        8
 66
     8
 43
1.0
 76
     1
 77
     6
 78
     2
 67
     7
 79
     5
170
     0
171
     0
290
     0
174
     0
 93
        1
 44
0.0
173
     0
291
     1
 45
0.0
1001
ACAD
1000
AcDbSavedByObjectVersion
1070
     0
  0
VISUALSTYLE
  5
34
102
{ACAD_REACTORS
330
2A
102
}
330
2A
100
AcDbVisualStyle
  2
Conceptual
 70
     9
 71
     3
 72
     2
 73
     0
 90
        0
 40
-0.6
 41
-30.0
 62
     5
 63
     7
 74
     2
 91
        2
 64
     7
 65
   257
 75
     1
175
     1
 42
40.0
 92
        8
 66
     7
 43
1.0
 76
     1
 77
     6
 78
     2
 67
     7
 79
     3
170
     0
171
     0
290
     0
174
     0
 93
        1
 44
0.0
173
     0
291
     0
 45
0.0
1001
ACAD
1000
AcDbSavedByObjectVersion
1070
     0
  0
VISUALSTYLE
  5
35
102
{ACAD_REACTORS
330
2A
102
}
330
2A
100
AcDbVisualStyle
  2
Dim
 70
    11
 71
     2
 72
     2
 73
     0
 90
        0
 40
-0.6
 41
-30.0
 62
     5
 63
     7
 74
     1
 91
        4
 64
     7
 65
   257
 75
     1
175
     1
 42
1.0
 92
        8
 66
     7
 43
1.0
 76
     1
 77
     6
 78
     2
 67
     7
 79
     5
170
     0
171
     0
290
     0
174
     0
 93
        1
 44
-50.0
173
     0
291
     1
 45
0.0
1001
ACAD
1000
AcDbSavedByObjectVersion
1070
     0
  0
VISUALSTYLE
  5
39
102
{ACAD_REACTORS
330
2A
102
}
330
2A
100
AcDbVisualStyle
  2
Facepattern
 70
    15
 71
     2
 72
     2
 73
     0
 90
        0
 40
-0.6
 41
-30.0
 62
     5
 63
     7
 74
     1
 91
        4
 64
     7
 65
   257
 75
     1
175
     1
 42
1.0
 92
        8
 66
     7
 43
1.0
 76
     1
 77
     6
 78
     2
 67
     7
 79
     5
170
     0
171
     0
290
     0
174
     0
 93
        1
 44
0.0
173
     0
291
     1
 45
0.0
1001
ACAD
1000
AcDbSavedByObjectVersion
1070
     0
  0
VISUALSTYLE
  5
2B
102
{ACAD_REACTORS
330
2A
102
}
330
2A
100
AcDbVisualStyle
  2
Flat
 70
     0
 71
     2
 72
     1
 73
     1
 90
        2
 40
-0.6
 41
30.0
 62
     5
 63
     7
 74
     0
 91
        4
 64
     7
 65
   257
 75
     1
175
     1
 42
1.0
 92
        8
 66
     7
 43
1.0
 76
     1
 77
     6
 78
     2
 67
     7
 79
     5
170
     0
171
     0
290
     0
174
     0
 93
       13
 44
0.0
173
     0
291
     1
 45
0.0
1001
ACAD
1000
AcDbSavedByObjectVersion
1070
     0
  0
VISUALSTYLE
  5
2C
102
{ACAD_REACTORS
330
2A
102
}
330
2A
100
AcDbVisualStyle
  2
FlatWithEdges
 70
     1
 71
     2
 72
     1
 73
     1
 90
        2
 40
-0.6
 41
30.0
 62
     5
 63
     7
 74
     1
 91
        4
 64
     7
 65
   257
 75
     1
175
     1
 42
1.0
 92
        0
 66
   257
 43
1.0
 76
     1
 77
     6
 78
     2
 67
     7
 79
     5
170
     0
171
     0
290
     0
174
     0
 93
       13
 44
0.0
173
     0
291
     1
 45
0.0
1001
ACAD
1000
AcDbSavedByObjectVersion
1070
     0
  0
VISUALSTYLE
  5
2D
102
{ACAD_REACTORS
330
2A
102
}
330
2A
100
AcDbVisualStyle
  2
Gouraud
 70
     2
 71
     2
 72
     2
 73
     1
 90
        2
 40
-0.6
 41
30.0
 62
     5
 63
     7
 74
     0
 91
        4
 64
     7
 65
   257
 75
     1
175
     1
 42
1.0
 92
        0
 66
     7
 43
1.0
 76
     1
 77
     6
 78
     2
 67
     7
 79
     5
170
     0
171
     0
290
     0
174
     0
 93
       13
 44
0.0
173
     0
291
     1
 45
0.0
1001
ACAD
1000
AcDbSavedByObjectVersion
1070
     0
  0
VISUALSTYLE
  5
2E
102
{ACAD_REACTORS
330
2A
102
}
330
2A
100
AcDbVisualStyle
  2
GouraudWithEdges
 70
     3
 71
     2
 72
     2
 73
     1
 90
        2
 40
-0.6
 41
30.0
 62
     5
 63
     7
 74
     1
 91
        4
 64
     7
 65
   257
 75
     1
175
     1
 42
1.0
 92
        0
 66
   257
 43
1.0
 76
     1
 77
     6
 78
     2
 67
     7
 79
     5
170
     0
171
     0
290
     0
174
     0
 93
       13
 44
0.0
173
     0
291
     1
 45
0.0
1001
ACAD
1000
AcDbSavedByObjectVersion
1070
     0
  0
VISUALSTYLE
  5
38
102
{ACAD_REACTORS
330
2A
102
}
330
2A
100
AcDbVisualStyle
  2
Linepattern
 70
    14
 71
     2
 72
     2
 73
     0
 90
        0
 40
-0.6
 41
-30.0
 62
     5
 63
     7
 74
     1
 91
        4
 64
     7
 65
   257
 75
     7
175
     7
 42
1.0
 92
        8
 66
     7
 43
1.0
 76
     1
 77
     6
 78
     2
 67
     7
 79
     5
170
     0
171
     0
290
     0
174
     0
 93
        1
 44
0.0
173
     0
291
     1
 45
0.0
1001
ACAD
1000
AcDbSavedByObjectVersion
1070
     0
  0
VISUALSTYLE
  5
33
102
{ACAD_REACTORS
330
2A
102
}
330
2A
100
AcDbVisualStyle
  2
Realistic
 70
     8
 71
     2
 72
     2
 73
     0
 90
        0
 40
-0.6
 41
-30.0
 62
     5
 63
     7
 74
     1
 91
        0
 64
     7
 65
   257
 75
     1
175
     1
 42
1.0
 92
        8
 66
     8
 43
1.0
 76
     1
 77
     6
 78
     2
 67
     7
 79
     5
170
     0
171
     0
290
     0
174
     0
 93
       13
 44
0.0
173
     0
291
     0
 45
0.0
1001
ACAD
1000
AcDbSavedByObjectVersion
1070
     0
  0
VISUALSTYLE
  5
37
102
{ACAD_REACTORS
330
2A
102
}
330
2A
100
AcDbVisualStyle
  2
Thicken
 70
    13
 71
     2
 72
     2
 73
     0
 90
        0
 40
-0.6
 41
-30.0
 62
     5
 63
     7
 74
     1
 91
        4
 64
     7
 65
   257
 75
     1
175
     1
 42
1.0
 92
       12
 66
     7
 43
1.0
 76
     1
 77
     6
 78
     2
 67
     7
 79
     5
170
     0
171
     0
290
     0
174
     0
 93
        1
 44
0.0
173
     0
291
     1
 45
0.0
1001
ACAD
1000
AcDbSavedByObjectVersion
1070
     0
  0
DICTIONARYVAR
  5
238
102
{ACAD_REACTORS
330
236
102
}
330
236
100
DictionaryVariables
280
     0
  1
80.000000
  0
DICTIONARYVAR
  5
237
102
{ACAD_REACTORS
330
236
102
}
330
236
100
DictionaryVariables
280
     0
  1
5.000000
  0
ENDSEC
  0
EOF
