  0
SECTION
  2
HEADER
  9
$ACADVER
  1
AC1015
  9
$ACADMAINTVER
 70
     6
  9
$DWGCODEPAGE
  3
ANSI_1252
  9
$INSBASE
 10
0.0
 20
0.0
 30
0.0
  9
$EXTMIN
 10
0.0
 20
0.0
 30
0.0
  9
$EXTMAX
 10
297.0
 20
210.0
 30
0.0
  9
$LIMMIN
 10
0.0
 20
0.0
  9
$LIMMAX
 10
297.0
 20
210.0
  9
$ORTHOMODE
 70
     0
  9
$REGENMODE
 70
     1
  9
$FILLMODE
 70
     1
  9
$QTEXTMODE
 70
     0
  9
$MIRRTEXT
 70
     1
  9
$LTSCALE
 40
1.0
  9
$ATTMODE
 70
     1
  9
$TEXTSIZE
 40
2.0
  9
$TRACEWID
 40
1.0
  9
$TEXTSTYLE
  7
Standard
  9
$CLAYER
  8
0
  9
$CELTYPE
  6
ByLayer
  9
$CECOLOR
 62
   256
  9
$CELTSCALE
 40
1.0
  9
$DISPSILH
 70
     0
  9
$DIMSCALE
 40
1.0
  9
$DIMASZ
 40
3.0
  9
$DIMEXO
 40
0.0
  9
$DIMDLI
 40
3.75
  9
$DIMRND
 40
0.0
  9
$DIMDLE
 40
0.0
  9
$DIMEXE
 40
1.0
  9
$DIMTP
 40
0.0
  9
$DIMTM
 40
0.0
  9
$DIMTXT
 40
2.0
  9
$DIMCEN
 40
2.5
  9
$DIMTSZ
 40
0.0
  9
$DIMTOL
 70
     0
  9
$DIMLIM
 70
     0
  9
$DIMTIH
 70
     1
  9
$DIMTOH
 70
     1
  9
$DIMSE1
 70
     0
  9
$DIMSE2
 70
     0
  9
$DIMTAD
 70
     1
  9
$DIMZIN
 70
     0
  9
$DIMBLK
  1

  9
$DIMASO
 70
     1
  9
$DIMSHO
 70
     1
  9
$DIMPOST
  1

  9
$DIMAPOST
  1

  9
$DIMALT
 70
     0
  9
$DIMALTD
 70
     3
  9
$DIMALTF
 40
0.0393700787
  9
$DIMLFAC
 40
1.0
  9
$DIMTOFL
 70
     1
  9
$DIMTVP
 40
0.0
  9
$DIMTIX
 70
     0
  9
$DIMSOXD
 70
     0
  9
$DIMSAH
 70
     0
  9
$DIMBLK1
  1

  9
$DIMBLK2
  1

  9
$DIMSTYLE
  2
ISO-25
  9
$DIMCLRD
 70
     0
  9
$DIMCLRE
 70
     0
  9
$DIMCLRT
 70
     0
  9
$DIMTFAC
 40
1.0
  9
$DIMGAP
 40
1.524
  9
$DIMJUST
 70
     0
  9
$DIMSD1
 70
     0
  9
$DIMSD2
 70
     0
  9
$DIMTOLJ
 70
     0
  9
$DIMTZIN
 70
     0
  9
$DIMALTZ
 70
     0
  9
$DIMALTTZ
 70
     0
  9
$DIMUPT
 70
     0
  9
$DIMDEC
 70
     2
  9
$DIMTDEC
 70
     3
  9
$DIMALTU
 70
     2
  9
$DIMALTTD
 70
     3
  9
$DIMTXSTY
  7
Standard
  9
$DIMAUNIT
 70
     0
  9
$DIMADEC
 70
     2
  9
$DIMALTRND
 40
0.0
  9
$DIMAZIN
 70
     0
  9
$DIMDSEP
 70
    44
  9
$DIMATFIT
 70
     3
  9
$DIMFRAC
 70
     0
  9
$DIMLDRBLK
  1

  9
$DIMLUNIT
 70
     2
  9
$DIMLWD
 70
    -2
  9
$DIMLWE
 70
    -2
  9
$DIMTMOVE
 70
     0
  9
$LUNITS
 70
     2
  9
$LUPREC
 70
     2
  9
$SKETCHINC
 40
1.0
  9
$FILLETRAD
 40
10.0
  9
$AUNITS
 70
     0
  9
$AUPREC
 70
     2
  9
$MENU
  1
.
  9
$ELEVATION
 40
0.0
  9
$PELEVATION
 40
0.0
  9
$THICKNESS
 40
0.0
  9
$LIMCHECK
 70
     0
  9
$CHAMFERA
 40
10.0
  9
$CHAMFERB
 40
10.0
  9
$CHAMFERC
 40
20.0
  9
$CHAMFERD
 40
0.0
  9
$SKPOLY
 70
     0
  9
$TDCREATE
 40
2455679.384653229
  9
$TDUCREATE
 40
2455679.301319896
  9
$TDUPDATE
 40
2455679.384653241
  9
$TDUUPDATE
 40
2455679.301319907
  9
$TDINDWG
 40
0.0000000116
  9
$TDUSRTIMER
 40
0.0000000116
  9
$USRTIMER
 70
     1
  9
$ANGBASE
 50
0.0
  9
$ANGDIR
 70
     0
  9
$PDMODE
 70
     0
  9
$PDSIZE
 40
-1.0
  9
$PLINEWID
 40
0.0
  9
$SPLFRAME
 70
     0
  9
$SPLINETYPE
 70
     6
  9
$SPLINESEGS
 70
     8
  9
$HANDSEED
  5
1BF
  9
$SURFTAB1
 70
     6
  9
$SURFTAB2
 70
     6
  9
$SURFTYPE
 70
     6
  9
$SURFU
 70
     6
  9
$SURFV
 70
     6
  9
$UCSBASE
  2

  9
$UCSNAME
  2

  9
$UCSORG
 10
0.0
 20
0.0
 30
0.0
  9
$UCSXDIR
 10
1.0
 20
0.0
 30
0.0
  9
$UCSYDIR
 10
0.0
 20
1.0
 30
0.0
  9
$UCSORTHOREF
  2

  9
$UCSORTHOVIEW
 70
     0
  9
$UCSORGTOP
 10
0.0
 20
0.0
 30
0.0
  9
$UCSORGBOTTOM
 10
0.0
 20
0.0
 30
0.0
  9
$UCSORGLEFT
 10
0.0
 20
0.0
 30
0.0
  9
$UCSORGRIGHT
 10
0.0
 20
0.0
 30
0.0
  9
$UCSORGFRONT
 10
0.0
 20
0.0
 30
0.0
  9
$UCSORGBACK
 10
0.0
 20
0.0
 30
0.0
  9
$PUCSBASE
  2

  9
$PUCSNAME
  2

  9
$PUCSORG
 10
0.0
 20
0.0
 30
0.0
  9
$PUCSXDIR
 10
1.0
 20
0.0
 30
0.0
  9
$PUCSYDIR
 10
0.0
 20
1.0
 30
0.0
  9
$PUCSORTHOREF
  2

  9
$PUCSORTHOVIEW
 70
     0
  9
$PUCSORGTOP
 10
0.0
 20
0.0
 30
0.0
  9
$PUCSORGBOTTOM
 10
0.0
 20
0.0
 30
0.0
  9
$PUCSORGLEFT
 10
0.0
 20
0.0
 30
0.0
  9
$PUCSORGRIGHT
 10
0.0
 20
0.0
 30
0.0
  9
$PUCSORGFRONT
 10
0.0
 20
0.0
 30
0.0
  9
$PUCSORGBACK
 10
0.0
 20
0.0
 30
0.0
  9
$USERI1
 70
     0
  9
$USERI2
 70
     0
  9
$USERI3
 70
     0
  9
$USERI4
 70
     0
  9
$USERI5
 70
     0
  9
$USERR1
 40
0.0
  9
$USERR2
 40
0.0
  9
$USERR3
 40
0.0
  9
$USERR4
 40
0.0
  9
$USERR5
 40
0.0
  9
$WORLDVIEW
 70
     1
  9
$SHADEDGE
 70
     3
  9
$SHADEDIF
 70
    70
  9
$TILEMODE
 70
     1
  9
$MAXACTVP
 70
    64
  9
$PINSBASE
 10
0.0
 20
0.0
 30
0.0
  9
$PLIMCHECK
 70
     0
  9
$PEXTMIN
 10
1.0000000000E+20
 20
1.0000000000E+20
 30
1.0000000000E+20
  9
$PEXTMAX
 10
-1.0000000000E+20
 20
-1.0000000000E+20
 30
-1.0000000000E+20
  9
$PLIMMIN
 10
0.0
 20
0.0
  9
$PLIMMAX
 10
420.0
 20
297.0
  9
$UNITMODE
 70
     0
  9
$VISRETAIN
 70
     1
  9
$PLINEGEN
 70
     0
  9
$PSLTSCALE
 70
     1
  9
$TREEDEPTH
 70
  3020
  9
$CMLSTYLE
  2
Standard
  9
$CMLJUST
 70
     0
  9
$CMLSCALE
 40
20.0
  9
$PROXYGRAPHICS
 70
     1
  9
$MEASUREMENT
 70
     1
  9
$CELWEIGHT
370
    -1
  9
$ENDCAPS
280
     0
  9
$JOINSTYLE
280
     0
  9
$LWDISPLAY
290
     1
  9
$INSUNITS
 70
     4
  9
$HYPERLINKBASE
  1

  9
$STYLESHEET
  1

  9
$XEDIT
290
     1
  9
$CEPSNTYPE
380
     0
  9
$PSTYLEMODE
290
     1
  9
$FINGERPRINTGUID
  2
{FF3B9DF6-6807-4977-BA2C-6FE07B1E211C}
  9
$VERSIONGUID
  2
{FAEB1C32-E019-11D5-929B-00C0DF256EC4}
  9
$EXTNAMES
290
     1
  9
$PSVPSCALE
 40
0.0
  9
$OLESTARTUP
290
     0
  0
ENDSEC
  0
SECTION
  2
CLASSES
  0
CLASS
  1
ACDBDICTIONARYWDFLT
  2
AcDbDictionaryWithDefault
  3
ObjectDBX Classes
 90
        0
280
     0
281
     0
  0
CLASS
  1
VISUALSTYLE
  2
AcDbVisualStyle
  3
ObjectDBX Classes
 90
     4095
280
     0
281
     0
  0
CLASS
  1
DICTIONARYVAR
  2
AcDbDictionaryVar
  3
ObjectDBX Classes
 90
        0
280
     0
281
     0
  0
CLASS
  1
ACDBPLACEHOLDER
  2
AcDbPlaceHolder
  3
ObjectDBX Classes
 90
        0
280
     0
281
     0
  0
CLASS
  1
LAYOUT
  2
AcDbLayout
  3
ObjectDBX Classes
 90
        0
280
     0
281
     0
  0
ENDSEC
  0
SECTION
  2
TABLES
  0
TABLE
  2
VPORT
  5
8
330
0
100
AcDbSymbolTable
 70
     1
  0
VPORT
  5
29
330
8
100
AcDbSymbolTableRecord
100
AcDbViewportTableRecord
  2
*Active
 70
     0
 10
0.0
 20
0.0
 11
1.0
 21
1.0
 12
148.5
 22
105.0
 13
0.0
 23
0.0
 14
10.0
 24
10.0
 15
10.0
 25
10.0
 16
0.0
 26
0.0
 36
1.0
 17
0.0
 27
0.0
 37
0.0
 40
210.0
 41
1.4142857143
 42
50.0
 43
0.0
 44
0.0
 50
0.0
 51
0.0
 71
     0
 72
  2000
 73
     1
 74
     3
 75
     0
 76
     0
 77
     0
 78
     0
281
     0
 65
     1
110
0.0
120
0.0
130
0.0
111
1.0
121
0.0
131
0.0
112
0.0
122
1.0
132
0.0
 79
     0
146
0.0
  0
ENDTAB
  0
TABLE
  2
LTYPE
  5
5
330
0
100
AcDbSymbolTable
 70
     6
  0
LTYPE
  5
14
330
5
100
AcDbSymbolTableRecord
100
AcDbLinetypeTableRecord
  2
ByBlock
 70
     0
  3

 72
    65
 73
     0
 40
0.0
  0
LTYPE
  5
15
330
5
100
AcDbSymbolTableRecord
100
AcDbLinetypeTableRecord
  2
ByLayer
 70
     0
  3

 72
    65
 73
     0
 40
0.0
  0
LTYPE
  5
16
330
5
100
AcDbSymbolTableRecord
100
AcDbLinetypeTableRecord
  2
Continuous
 70
     0
  3
Solid line
 72
    65
 73
     0
 40
0.0
  0
LTYPE
  5
3B
330
5
100
AcDbSymbolTableRecord
100
AcDbLinetypeTableRecord
  2
HIDDEN
 70
     0
  3
Hidden __ __ __ __ __ __ __ __ __ __ __ __ __ __
 72
    65
 73
     2
 40
1.905
 49
1.27
 74
     0
 49
-0.635
 74
     0
  0
LTYPE
  5
3C
330
5
100
AcDbSymbolTableRecord
100
AcDbLinetypeTableRecord
  2
PHANTOM
 70
     0
  3
Phantom ______  __  __  ______  __  __  ______
 72
    65
 73
     6
 40
12.7
 49
6.35
 74
     0
 49
-1.27
 74
     0
 49
1.27
 74
     0
 49
-1.27
 74
     0
 49
1.27
 74
     0
 49
-1.27
 74
     0
  0
LTYPE
  5
3D
330
5
100
AcDbSymbolTableRecord
100
AcDbLinetypeTableRecord
  2
CENTER
 70
     0
  3
Center ____ _ ____ _ ____ _ ____ _ ____ _ ____
 72
    65
 73
     4
 40
10.16
 49
6.35
 74
     0
 49
-1.27
 74
     0
 49
1.27
 74
     0
 49
-1.27
 74
     0
  0
LTYPE
  5
3E
330
5
100
AcDbSymbolTableRecord
100
AcDbLinetypeTableRecord
  2
CENTERX2
 70
     0
  3
Center (2x) ________  __  ________  __  _____
 72
    65
 73
     4
 40
20.32
 49
12.7
 74
     0
 49
-2.54
 74
     0
 49
2.54
 74
     0
 49
-2.54
 74
     0
  0
LTYPE
  5
3F
330
5
100
AcDbSymbolTableRecord
100
AcDbLinetypeTableRecord
  2
DOT2
 70
     0
  3
Dot (.5x) ........................................
 72
    65
 73
     2
 40
0.635
 49
0.0
 74
     0
 49
-0.635
 74
     0
  0
ENDTAB
  0
TABLE
  2
LAYER
  5
2
330
0
100
AcDbSymbolTable
 70
     5
  0
LAYER
  5
10
330
2
100
AcDbSymbolTableRecord
100
AcDbLayerTableRecord
  2
0
 70
     0
 62
     7
  6
Continuous
370
    -3
390
F
  0
LAYER
  5
40
330
2
100
AcDbSymbolTableRecord
100
AcDbLayerTableRecord
  2
FORMAT
 70
     0
 62
     7
  6
Continuous
370
    -3
390
F
  0
LAYER
  5
41
330
2
100
AcDbSymbolTableRecord
100
AcDbLayerTableRecord
  2
VERMASSUNG
 70
     0
 62
     7
  6
Continuous
370
    -3
390
F
  0
LAYER
  5
42
330
2
100
AcDbSymbolTableRecord
100
AcDbLayerTableRecord
  2
KOPF_DÜNN
 70
     0
 62
     7
  6
Continuous
370
    -3
390
F
  0
LAYER
  5
43
330
2
100
AcDbSymbolTableRecord
100
AcDbLayerTableRecord
  2
KOPF_DICK
 70
     0
 62
     7
  6
Continuous
370
    15
390
F
  0
ENDTAB
  0
TABLE
  2
STYLE
  5
3
330
0
100
AcDbSymbolTable
 70
     3
  0
STYLE
  5
11
330
3
100
AcDbSymbolTableRecord
100
AcDbTextStyleTableRecord
  2
Standard
 70
     0
 40
0.0
 41
1.0
 50
0.0
 71
     0
 42
2.5
  3
txt
  4

  0
STYLE
  5
44
330
3
100
AcDbSymbolTableRecord
100
AcDbTextStyleTableRecord
  2
SLDTEXTSTYLE0
 70
     0
 40
0.0
 41
0.7
 50
0.0
 71
     0
 42
0.2
  3
TXT
  4

  0
STYLE
  5
48
330
3
100
AcDbSymbolTableRecord
100
AcDbTextStyleTableRecord
  2
SLDTEXTSTYLE1
 70
     0
 40
0.0
 41
0.6473684211
 50
0.0
 71
     0
 42
0.2
  3
TXT
  4

  0
ENDTAB
  0
TABLE
  2
VIEW
  5
6
330
0
100
AcDbSymbolTable
 70
     0
  0
ENDTAB
  0
TABLE
  2
UCS
  5
7
330
0
100
AcDbSymbolTable
 70
     0
  0
ENDTAB
  0
TABLE
  2
APPID
  5
9
330
0
100
AcDbSymbolTable
 70
     1
  0
APPID
  5
12
330
9
100
AcDbSymbolTableRecord
100
AcDbRegAppTableRecord
  2
ACAD
 70
     0
  0
ENDTAB
  0
TABLE
  2
DIMSTYLE
  5
A
330
0
100
AcDbSymbolTable
 70
     5
100
AcDbDimStyleTable
  0
DIMSTYLE
105
27
330
A
100
AcDbSymbolTableRecord
100
AcDbDimStyleTableRecord
  2
ISO-25
 70
     0
 41
2.5
 42
0.625
 43
3.75
 44
1.25
 73
     0
 74
     0
 77
     1
 78
     8
140
2.5
141
2.5
143
0.0393700787
147
0.625
171
     3
172
     1
271
     2
272
     2
274
     3
278
    44
283
     0
284
     8
340
11
  0
DIMSTYLE
105
160
102
{ACAD_REACTORS
330
15F
330
19A
330
1A4
330
1AE
102
}
330
A
100
AcDbSymbolTableRecord
100
AcDbDimStyleTableRecord
  2
SLDDIMSTYLE0
 70
     0
 41
3.0
 44
0.0
 45
0.000000001
 73
     0
 74
     0
 77
     1
 78
    12
140
2.0
147
0.5
173
     1
271
     2
272
     3
284
    12
340
44
  0
DIMSTYLE
105
16D
102
{ACAD_REACTORS
330
16C
102
}
330
A
100
AcDbSymbolTableRecord
100
AcDbDimStyleTableRecord
  2
SLDDIMSTYLE1
 70
     0
 41
3.0
 44
0.0
 45
0.000000001
 73
     0
 74
     0
 77
     1
 78
    12
140
2.0
147
0.5
173
     1
271
     2
272
     2
284
    12
340
44
  0
DIMSTYLE
105
178
102
{ACAD_REACTORS
330
177
102
}
330
A
100
AcDbSymbolTableRecord
100
AcDbDimStyleTableRecord
  2
SLDDIMSTYLE2
 70
     0
 41
3.0
 44
0.0
 45
0.000000001
 73
     0
 74
     0
 77
     1
 78
    12
140
2.0
147
0.5
173
     1
271
     2
272
     2
284
    12
340
44
  0
DIMSTYLE
105
184
102
{ACAD_REACTORS
330
183
330
18F
102
}
330
A
100
AcDbSymbolTableRecord
100
AcDbDimStyleTableRecord
  2
SLDDIMSTYLE3
 70
     0
 41
3.0
 44
0.0
 45
0.000000001
 73
     0
 74
     0
 77
     1
 78
    12
140
2.0
147
0.5
173
     1
271
     2
272
     3
284
    12
340
44
  0
ENDTAB
  0
TABLE
  2
BLOCK_RECORD
  5
1
330
0
100
AcDbSymbolTable
 70
     9
  0
BLOCK_RECORD
  5
1F
330
1
100
AcDbSymbolTableRecord
100
AcDbBlockTableRecord
  2
*Model_Space
340
22
  0
BLOCK_RECORD
  5
1B
330
1
100
AcDbSymbolTableRecord
100
AcDbBlockTableRecord
  2
*Paper_Space
340
1E
  0
BLOCK_RECORD
  5
23
330
1
100
AcDbSymbolTableRecord
100
AcDbBlockTableRecord
  2
*Paper_Space0
340
26
  0
BLOCK_RECORD
  5
161
330
1
100
AcDbSymbolTableRecord
100
AcDbBlockTableRecord
  2
*D1
340
0
  0
BLOCK_RECORD
  5
16E
330
1
100
AcDbSymbolTableRecord
100
AcDbBlockTableRecord
  2
*D2
340
0
  0
BLOCK_RECORD
  5
179
330
1
100
AcDbSymbolTableRecord
100
AcDbBlockTableRecord
  2
*D3
340
0
  0
BLOCK_RECORD
  5
185
330
1
100
AcDbSymbolTableRecord
100
AcDbBlockTableRecord
  2
*D4
340
0
  0
BLOCK_RECORD
  5
190
330
1
100
AcDbSymbolTableRecord
100
AcDbBlockTableRecord
  2
*D5
340
0
  0
BLOCK_RECORD
  5
19B
330
1
100
AcDbSymbolTableRecord
100
AcDbBlockTableRecord
  2
*D6
340
0
  0
BLOCK_RECORD
  5
1A5
330
1
100
AcDbSymbolTableRecord
100
AcDbBlockTableRecord
  2
*D7
340
0
  0
BLOCK_RECORD
  5
1AF
330
1
100
AcDbSymbolTableRecord
100
AcDbBlockTableRecord
  2
*D8
340
0
  0
ENDTAB
  0
ENDSEC
  0
SECTION
  2
BLOCKS
  0
BLOCK
  5
20
330
1F
100
AcDbEntity
  8
0
100
AcDbBlockBegin
  2
*Model_Space
 70
     0
 10
0.0
 20
0.0
 30
0.0
  3
*Model_Space
  1

  0
ENDBLK
  5
21
330
1F
100
AcDbEntity
  8
0
100
AcDbBlockEnd
  0
BLOCK
  5
1C
330
1B
100
AcDbEntity
 67
     1
  8
0
100
AcDbBlockBegin
  2
*Paper_Space
 70
     0
 10
0.0
 20
0.0
 30
0.0
  3
*Paper_Space
  1

  0
ENDBLK
  5
1D
330
1B
100
AcDbEntity
 67
     1
  8
0
100
AcDbBlockEnd
  0
BLOCK
  5
24
330
23
100
AcDbEntity
  8
0
100
AcDbBlockBegin
  2
*Paper_Space0
 70
     0
 10
0.0
 20
0.0
 30
0.0
  3
*Paper_Space0
  1

  0
ENDBLK
  5
25
330
23
100
AcDbEntity
  8
0
100
AcDbBlockEnd
  0
BLOCK
  5
162
330
161
100
AcDbEntity
  8
0
100
AcDbBlockBegin
  2
*D1
 70
     1
 10
0.0
 20
0.0
 30
0.0
  3
*D1
  1

  0
SOLID
  5
164
330
161
100
AcDbEntity
  8
VERMASSUNG
100
AcDbTrace
 10
65.1871072589
 20
138.2405200433
 30
0.0
 11
64.7371072589
 21
135.2405200433
 31
0.0
 12
65.6371072589
 22
135.2405200433
 32
0.0
 13
65.6371072589
 23
135.2405200433
 33
0.0
  0
SOLID
  5
165
330
161
100
AcDbEntity
  8
VERMASSUNG
100
AcDbTrace
 10
65.1871072589
 20
75.2405200433
 30
0.0
 11
65.6371072589
 21
78.2405200433
 31
0.0
 12
64.7371072589
 22
78.2405200433
 32
0.0
 13
64.7371072589
 23
78.2405200433
 33
0.0
  0
LINE
  5
166
330
161
100
AcDbEntity
  8
VERMASSUNG
100
AcDbLine
 10
103.8943745647
 20
138.2405200433
 30
0.0
 11
64.1871072589
 21
138.2405200433
 31
0.0
  0
LINE
  5
167
330
161
100
AcDbEntity
  8
VERMASSUNG
100
AcDbLine
 10
103.8943745647
 20
75.2405200433
 30
0.0
 11
64.1871072589
 21
75.2405200433
 31
0.0
  0
LINE
  5
168
330
161
100
AcDbEntity
  8
VERMASSUNG
100
AcDbLine
 10
65.1871072589
 20
138.2405200433
 30
0.0
 11
65.1871072589
 21
75.2405200433
 31
0.0
  0
MTEXT
  5
169
330
161
100
AcDbEntity
  8
VERMASSUNG
100
AcDbMText
 10
62.4089717699
 20
99.0369783315
 30
0.0
 40
2.0
 41
0.0
 71
     1
 72
     1
  1
HSK A 
  7
SLDTEXTSTYLE0
 11
-7.044195017643634E-15
 21
1.0
 31
0.0
 73
     1
 44
1.0
  0
MTEXT
  5
16A
330
161
100
AcDbEntity
  8
VERMASSUNG
100
AcDbMText
 10
62.6089717794
 20
108.0369788754
 30
0.0
 40
2.0
 41
0.0
 71
     1
 72
     1
  1
%%c
  7
SLDTEXTSTYLE0
 11
-7.044195017643634E-15
 21
1.0
 31
0.0
 73
     1
 44
1.0
  0
MTEXT
  5
16B
330
161
100
AcDbEntity
  8
VERMASSUNG
100
AcDbMText
 10
62.6089718958
 20
111.6453055255
 30
0.0
 40
2.0
 41
0.0
 71
     1
 72
     1
  1
63
  7
SLDTEXTSTYLE0
 11
-7.044195017643634E-15
 21
1.0
 31
0.0
 73
     1
 44
1.0
  0
ENDBLK
  5
163
330
161
100
AcDbEntity
  8
0
100
AcDbBlockEnd
  0
BLOCK
  5
16F
330
16E
100
AcDbEntity
  8
0
100
AcDbBlockBegin
  2
*D2
 70
     1
 10
0.0
 20
0.0
 30
0.0
  3
*D2
  1

  0
SOLID
  5
171
330
16E
100
AcDbEntity
  8
VERMASSUNG
100
AcDbTrace
 10
162.0943745647
 20
142.2471289274
 30
0.0
 11
165.0943745647
 21
141.7971289274
 31
0.0
 12
165.0943745647
 22
142.6971289274
 32
0.0
 13
165.0943745647
 23
142.6971289274
 33
0.0
  0
SOLID
  5
172
330
16E
100
AcDbEntity
  8
VERMASSUNG
100
AcDbTrace
 10
223.5943745647
 20
142.2471289274
 30
0.0
 11
220.5943745647
 21
142.6971289274
 31
0.0
 12
220.5943745647
 22
141.7971289274
 32
0.0
 13
220.5943745647
 23
141.7971289274
 33
0.0
  0
LINE
  5
173
330
16E
100
AcDbEntity
  8
VERMASSUNG
100
AcDbLine
 10
162.0943745647
 20
122.6405200433
 30
0.0
 11
162.0943745647
 21
143.2471289274
 31
0.0
  0
LINE
  5
174
330
16E
100
AcDbEntity
  8
VERMASSUNG
100
AcDbLine
 10
223.5943745647
 20
126.4295438142
 30
0.0
 11
223.5943745647
 21
143.2471289274
 31
0.0
  0
LINE
  5
175
330
16E
100
AcDbEntity
  8
VERMASSUNG
100
AcDbLine
 10
162.0943745647
 20
142.2471289274
 30
0.0
 11
223.5943745647
 21
142.2471289274
 31
0.0
  0
MTEXT
  5
176
330
16E
100
AcDbEntity
  8
VERMASSUNG
100
AcDbMText
 10
190.6455175766
 20
144.8252642905
 30
0.0
 40
2.0
 41
0.0
 71
     1
 72
     1
  1
61.5
  7
SLDTEXTSTYLE0
 73
     1
 44
1.0
  0
ENDBLK
  5
170
330
16E
100
AcDbEntity
  8
0
100
AcDbBlockEnd
  0
BLOCK
  5
17A
330
179
100
AcDbEntity
  8
0
100
AcDbBlockBegin
  2
*D3
 70
     1
 10
0.0
 20
0.0
 30
0.0
  3
*D3
  1

  0
SOLID
  5
17C
330
179
100
AcDbEntity
  8
VERMASSUNG
100
AcDbTrace
 10
233.5943745647
 20
90.7405200433
 30
0.0
 11
234.0443745647
 21
93.7405200433
 31
0.0
 12
233.1443745647
 22
93.7405200433
 32
0.0
 13
233.1443745647
 23
93.7405200433
 33
0.0
  0
SOLID
  5
17D
330
179
100
AcDbEntity
  8
VERMASSUNG
100
AcDbTrace
 10
233.5943745647
 20
122.7405200433
 30
0.0
 11
233.1443745647
 21
119.7405200433
 31
0.0
 12
234.0443745647
 22
119.7405200433
 32
0.0
 13
234.0443745647
 23
119.7405200433
 33
0.0
  0
LINE
  5
17E
330
179
100
AcDbEntity
  8
VERMASSUNG
100
AcDbLine
 10
220.0943745647
 20
90.7405200433
 30
0.0
 11
234.5943745647
 21
90.7405200433
 31
0.0
  0
LINE
  5
17F
330
179
100
AcDbEntity
  8
VERMASSUNG
100
AcDbLine
 10
220.0943745647
 20
122.7405200433
 30
0.0
 11
234.5943745647
 21
122.7405200433
 31
0.0
  0
LINE
  5
180
330
179
100
AcDbEntity
  8
VERMASSUNG
100
AcDbLine
 10
233.5943745647
 20
90.7405200433
 30
0.0
 11
233.5943745647
 21
122.7405200433
 31
0.0
  0
MTEXT
  5
181
330
179
100
AcDbEntity
  8
VERMASSUNG
100
AcDbMText
 10
231.0162390852
 20
103.5368028169
 30
0.0
 40
2.0
 41
0.0
 71
     1
 72
     1
  1
%%c
  7
SLDTEXTSTYLE0
 11
6.123233995736766E-17
 21
1.0
 31
0.0
 73
     1
 44
1.0
  0
MTEXT
  5
182
330
179
100
AcDbEntity
  8
VERMASSUNG
100
AcDbMText
 10
231.0162392016
 20
107.1454810401
 30
0.0
 40
2.0
 41
0.0
 71
     1
 72
     1
  1
32
  7
SLDTEXTSTYLE0
 11
6.123233995736766E-17
 21
1.0
 31
0.0
 73
     1
 44
1.0
  0
ENDBLK
  5
17B
330
179
100
AcDbEntity
  8
0
100
AcDbBlockEnd
  0
BLOCK
  5
186
330
185
100
AcDbEntity
  8
0
100
AcDbBlockBegin
  2
*D4
 70
     1
 10
0.0
 20
0.0
 30
0.0
  3
*D4
  1

  0
SOLID
  5
188
330
185
100
AcDbEntity
  8
VERMASSUNG
100
AcDbTrace
 10
239.5943745647
 20
84.7405200433
 30
0.0
 11
240.0443745647
 21
87.7405200433
 31
0.0
 12
239.1443745647
 22
87.7405200433
 32
0.0
 13
239.1443745647
 23
87.7405200433
 33
0.0
  0
SOLID
  5
189
330
185
100
AcDbEntity
  8
VERMASSUNG
100
AcDbTrace
 10
239.5943745647
 20
128.7405200433
 30
0.0
 11
239.1443745647
 21
125.7405200433
 31
0.0
 12
240.0443745647
 22
125.7405200433
 32
0.0
 13
240.0443745647
 23
125.7405200433
 33
0.0
  0
LINE
  5
18A
330
185
100
AcDbEntity
  8
VERMASSUNG
100
AcDbLine
 10
223.5943745647
 20
84.7405200433
 30
0.0
 11
240.5943745647
 21
84.7405200433
 31
0.0
  0
LINE
  5
18B
330
185
100
AcDbEntity
  8
VERMASSUNG
100
AcDbLine
 10
223.5943745647
 20
128.7405200433
 30
0.0
 11
240.5943745647
 21
128.7405200433
 31
0.0
  0
LINE
  5
18C
330
185
100
AcDbEntity
  8
VERMASSUNG
100
AcDbLine
 10
239.5943745647
 20
84.7405200433
 30
0.0
 11
239.5943745647
 21
128.7405200433
 31
0.0
  0
MTEXT
  5
18D
330
185
100
AcDbEntity
  8
VERMASSUNG
100
AcDbMText
 10
237.0162390852
 20
103.3372231853
 30
0.0
 40
2.0
 41
0.0
 71
     1
 72
     1
  1
%%c
  7
SLDTEXTSTYLE0
 11
6.123233995736766E-17
 21
1.0
 31
0.0
 73
     1
 44
1.0
  0
MTEXT
  5
18E
330
185
100
AcDbEntity
  8
VERMASSUNG
100
AcDbMText
 10
237.0162392016
 20
106.9459014085
 30
0.0
 40
2.0
 41
0.0
 71
     1
 72
     1
  1
44
  7
SLDTEXTSTYLE0
 11
6.123233995736766E-17
 21
1.0
 31
0.0
 73
     1
 44
1.0
  0
ENDBLK
  5
187
330
185
100
AcDbEntity
  8
0
100
AcDbBlockEnd
  0
BLOCK
  5
191
330
190
100
AcDbEntity
  8
0
100
AcDbBlockBegin
  2
*D5
 70
     1
 10
0.0
 20
0.0
 30
0.0
  3
*D5
  1

  0
SOLID
  5
193
330
190
100
AcDbEntity
  8
VERMASSUNG
100
AcDbTrace
 10
245.5943745647
 20
80.7405200433
 30
0.0
 11
246.0443745647
 21
83.7405200433
 31
0.0
 12
245.1443745647
 22
83.7405200433
 32
0.0
 13
245.1443745647
 23
83.7405200433
 33
0.0
  0
SOLID
  5
194
330
190
100
AcDbEntity
  8
VERMASSUNG
100
AcDbTrace
 10
245.5943745647
 20
132.7405200433
 30
0.0
 11
245.1443745647
 21
129.7405200433
 31
0.0
 12
246.0443745647
 22
129.7405200433
 32
0.0
 13
246.0443745647
 23
129.7405200433
 33
0.0
  0
LINE
  5
195
330
190
100
AcDbEntity
  8
VERMASSUNG
100
AcDbLine
 10
131.0994753474
 20
80.7405200433
 30
0.0
 11
246.5943745647
 21
80.7405200433
 31
0.0
  0
LINE
  5
196
330
190
100
AcDbEntity
  8
VERMASSUNG
100
AcDbLine
 10
131.0994753474
 20
132.7405200433
 30
0.0
 11
246.5943745647
 21
132.7405200433
 31
0.0
  0
LINE
  5
197
330
190
100
AcDbEntity
  8
VERMASSUNG
100
AcDbLine
 10
245.5943745647
 20
80.7405200433
 30
0.0
 11
245.5943745647
 21
132.7405200433
 31
0.0
  0
MTEXT
  5
198
330
190
100
AcDbEntity
  8
VERMASSUNG
100
AcDbMText
 10
243.0162390852
 20
103.5368028169
 30
0.0
 40
2.0
 41
0.0
 71
     1
 72
     1
  1
%%c
  7
SLDTEXTSTYLE0
 11
6.123233995736766E-17
 21
1.0
 31
0.0
 73
     1
 44
1.0
  0
MTEXT
  5
199
330
190
100
AcDbEntity
  8
VERMASSUNG
100
AcDbMText
 10
243.0162392016
 20
107.1454810401
 30
0.0
 40
2.0
 41
0.0
 71
     1
 72
     1
  1
52
  7
SLDTEXTSTYLE0
 11
6.123233995736766E-17
 21
1.0
 31
0.0
 73
     1
 44
1.0
  0
ENDBLK
  5
192
330
190
100
AcDbEntity
  8
0
100
AcDbBlockEnd
  0
BLOCK
  5
19C
330
19B
100
AcDbEntity
  8
0
100
AcDbBlockBegin
  2
*D6
 70
     1
 10
0.0
 20
0.0
 30
0.0
  3
*D6
  1

  0
SOLID
  5
19E
330
19B
100
AcDbEntity
  8
VERMASSUNG
100
AcDbTrace
 10
103.5943745647
 20
154.2471289274
 30
0.0
 11
106.5943745647
 21
153.7971289274
 31
0.0
 12
106.5943745647
 22
154.6971289274
 32
0.0
 13
106.5943745647
 23
154.6971289274
 33
0.0
  0
SOLID
  5
19F
330
19B
100
AcDbEntity
  8
VERMASSUNG
100
AcDbTrace
 10
223.5943745647
 20
154.2471289274
 30
0.0
 11
220.5943745647
 21
154.6971289274
 31
0.0
 12
220.5943745647
 22
153.7971289274
 32
0.0
 13
220.5943745647
 23
153.7971289274
 33
0.0
  0
LINE
  5
1A0
330
19B
100
AcDbEntity
  8
VERMASSUNG
100
AcDbLine
 10
103.5943745647
 20
137.9405200433
 30
0.0
 11
103.5943745647
 21
155.2471289274
 31
0.0
  0
LINE
  5
1A1
330
19B
100
AcDbEntity
  8
VERMASSUNG
100
AcDbLine
 10
223.5943745647
 20
126.4295438142
 30
0.0
 11
223.5943745647
 21
155.2471289274
 31
0.0
  0
LINE
  5
1A2
330
19B
100
AcDbEntity
  8
VERMASSUNG
100
AcDbLine
 10
103.5943745647
 20
154.2471289274
 30
0.0
 11
223.5943745647
 21
154.2471289274
 31
0.0
  0
MTEXT
  5
1A3
330
19B
100
AcDbEntity
  8
VERMASSUNG
100
AcDbMText
 10
161.6948870241
 20
156.8252642905
 30
0.0
 40
2.0
 41
0.0
 71
     1
 72
     1
  1
120
  7
SLDTEXTSTYLE0
 73
     1
 44
1.0
  0
ENDBLK
  5
19D
330
19B
100
AcDbEntity
  8
0
100
AcDbBlockEnd
  0
BLOCK
  5
1A6
330
1A5
100
AcDbEntity
  8
0
100
AcDbBlockBegin
  2
*D7
 70
     1
 10
0.0
 20
0.0
 30
0.0
  3
*D7
  1

  0
SOLID
  5
1A8
330
1A5
100
AcDbEntity
  8
VERMASSUNG
100
AcDbTrace
 10
129.5443745647
 20
148.2471289274
 30
0.0
 11
132.5443745647
 21
147.7971289274
 31
0.0
 12
132.5443745647
 22
148.6971289274
 32
0.0
 13
132.5443745647
 23
148.6971289274
 33
0.0
  0
SOLID
  5
1A9
330
1A5
100
AcDbEntity
  8
VERMASSUNG
100
AcDbTrace
 10
223.5943745647
 20
148.2471289274
 30
0.0
 11
220.5943745647
 21
148.6971289274
 31
0.0
 12
220.5943745647
 22
147.7971289274
 32
0.0
 13
220.5943745647
 23
147.7971289274
 33
0.0
  0
LINE
  5
1AA
330
1A5
100
AcDbEntity
  8
VERMASSUNG
100
AcDbLine
 10
129.5443745647
 20
136.5869603671
 30
0.0
 11
129.5443745647
 21
149.2471289274
 31
0.0
  0
LINE
  5
1AB
330
1A5
100
AcDbEntity
  8
VERMASSUNG
100
AcDbLine
 10
223.5943745647
 20
126.4295438142
 30
0.0
 11
223.5943745647
 21
149.2471289274
 31
0.0
  0
LINE
  5
1AC
330
1A5
100
AcDbEntity
  8
VERMASSUNG
100
AcDbLine
 10
129.5443745647
 20
148.2471289274
 30
0.0
 11
223.5943745647
 21
148.2471289274
 31
0.0
  0
MTEXT
  5
1AD
330
1A5
100
AcDbEntity
  8
VERMASSUNG
100
AcDbMText
 10
173.3702987251
 20
150.8252642905
 30
0.0
 40
2.0
 41
0.0
 71
     1
 72
     1
  1
94.05
  7
SLDTEXTSTYLE0
 73
     1
 44
1.0
  0
ENDBLK
  5
1A7
330
1A5
100
AcDbEntity
  8
0
100
AcDbBlockEnd
  0
BLOCK
  5
1B0
330
1AF
100
AcDbEntity
  8
0
100
AcDbBlockBegin
  2
*D8
 70
     1
 10
0.0
 20
0.0
 30
0.0
  3
*D8
  1

  0
SOLID
  5
1B2
330
1AF
100
AcDbEntity
  8
VERMASSUNG
100
AcDbTrace
 10
71.6943745647
 20
160.2471289274
 30
0.0
 11
74.6943745647
 21
159.7971289274
 31
0.0
 12
74.6943745647
 22
160.6971289274
 32
0.0
 13
74.6943745647
 23
160.6971289274
 33
0.0
  0
SOLID
  5
1B3
330
1AF
100
AcDbEntity
  8
VERMASSUNG
100
AcDbTrace
 10
223.5943745647
 20
160.2471289274
 30
0.0
 11
220.5943745647
 21
160.6971289274
 31
0.0
 12
220.5943745647
 22
159.7971289274
 32
0.0
 13
220.5943745647
 23
159.7971289274
 33
0.0
  0
LINE
  5
1B4
330
1AF
100
AcDbEntity
  8
VERMASSUNG
100
AcDbLine
 10
71.6943745647
 20
126.4311977898
 30
0.0
 11
71.6943745647
 21
161.2471289274
 31
0.0
  0
LINE
  5
1B5
330
1AF
100
AcDbEntity
  8
VERMASSUNG
100
AcDbLine
 10
223.5943745647
 20
126.4295438142
 30
0.0
 11
223.5943745647
 21
161.2471289274
 31
0.0
  0
LINE
  5
1B6
330
1AF
100
AcDbEntity
  8
VERMASSUNG
100
AcDbLine
 10
71.6943745647
 20
160.2471289274
 30
0.0
 11
223.5943745647
 21
160.2471289274
 31
0.0
  0
MTEXT
  5
1B7
330
1AF
100
AcDbEntity
  8
VERMASSUNG
100
AcDbMText
 10
144.9454081509
 20
162.8252642905
 30
0.0
 40
2.0
 41
0.0
 71
     1
 72
     1
  1
151.9
  7
SLDTEXTSTYLE0
 73
     1
 44
1.0
  0
ENDBLK
  5
1B1
330
1AF
100
AcDbEntity
  8
0
100
AcDbBlockEnd
  0
ENDSEC
  0
SECTION
  2
ENTITIES
  0
MTEXT
  5
45
330
1F
100
AcDbEntity
  8
KOPF_DÜNN
100
AcDbMText
 10
13.8892156294
 20
23.8442973028
 30
0.0
 40
3.0
 41
0.0
 71
     1
 72
     1
  1
HA6.S32.K01.120
  7
SLDTEXTSTYLE0
 73
     1
 44
1.0
  0
MTEXT
  5
46
330
1F
100
AcDbEntity
  8
VERMASSUNG
100
AcDbMText
 10
13.9329988022
 20
28.8834360957
 30
0.0
 40
3.0
 41
0.0
 71
     1
 72
     1
  1
Schrumpffutter_Heat shrink chuck
  7
SLDTEXTSTYLE0
 73
     1
 44
1.0
  0
MTEXT
  5
47
330
1F
100
AcDbEntity
  8
VERMASSUNG
100
AcDbMText
 10
98.8601118557
 20
13.8365368179
 30
0.0
 40
2.0
 41
0.0
 71
     1
 72
     1
  1
Datum: 27.04.2011
  7
SLDTEXTSTYLE0
 73
     1
 44
1.0
  0
MTEXT
  5
49
330
1F
100
AcDbEntity
  8
VERMASSUNG
100
AcDbMText
 10
13.933048693
 20
18.0482802738
 30
0.0
 40
2.0
 41
0.0
 71
     1
 72
     1
  1
DIN 69 893 HSK A 63
  7
SLDTEXTSTYLE1
 73
     1
 44
1.0
  0
MTEXT
  5
4A
330
1F
100
AcDbEntity
  8
VERMASSUNG
100
AcDbMText
 10
13.9808475933
 20
13.9090973692
 30
0.0
 40
2.0
 41
0.0
 71
     1
 72
     1
  1
Gewicht: 1675g
  7
SLDTEXTSTYLE0
 73
     1
 44
1.0
  0
LINE
  5
4B
330
1F
100
AcDbEntity
  8
0
  6
Continuous
 62
     7
370
    15
100
AcDbLine
 10
103.8943745647
 20
75.2405200433
 30
0.0
 11
108.5443745647
 21
75.2405200433
 31
0.0
  0
LINE
  5
4C
330
1F
100
AcDbEntity
  8
0
  6
Continuous
 62
     7
370
    15
100
AcDbLine
 10
108.5536826515
 20
138.2405200433
 30
0.0
 11
103.8943745647
 21
138.2405200433
 31
0.0
  0
ARC
  5
4D
330
1F
100
AcDbEntity
  8
0
  6
Continuous
 62
     7
370
    15
100
AcDbCircle
 10
103.8943745647
 20
75.5405200433
 30
0.0
 40
0.2999999999999972
100
AcDbArc
 50
180.0
 51
270.0
  0
ARC
  5
4E
330
1F
100
AcDbEntity
  8
0
  6
Continuous
 62
     7
370
    15
100
AcDbCircle
 10
103.8943745647
 20
137.9405200433
 30
0.0
 40
0.2999999999999972
100
AcDbArc
 50
90.0
 51
180.0
  0
ARC
  5
4F
330
1F
100
AcDbEntity
  8
0
  6
Continuous
 62
     7
370
    15
100
AcDbCircle
 10
130.5443745647
 20
79.7405200433
 30
0.0
 40
1.0
100
AcDbArc
 50
90.0
 51
143.1139143113
  0
ARC
  5
50
330
1F
100
AcDbEntity
  8
0
  6
Continuous
 62
     7
370
    15
100
AcDbCircle
 10
130.5443745647
 20
133.7405200433
 30
0.0
 40
1.0
100
AcDbArc
 50
216.9066288368
 51
270.0
  0
LINE
  5
51
330
1F
100
AcDbEntity
  8
0
  6
Continuous
 62
     7
370
    15
100
AcDbLine
 10
172.76955562
 20
80.7405200433
 30
0.0
 11
221.290522304
 21
84.5592029381
 31
0.0
  0
LINE
  5
52
330
1F
100
AcDbEntity
  8
0
  6
Continuous
 62
     7
370
    15
100
AcDbLine
 10
221.290522304
 20
128.9218371485
 30
0.0
 11
172.76955562
 21
132.7405200433
 31
0.0
  0
LINE
  5
53
330
1F
100
AcDbEntity
  8
0
  6
Continuous
 62
     7
370
    15
100
AcDbLine
 10
130.5443745647
 20
80.7405200433
 30
0.0
 11
172.76955562
 21
80.7405200433
 31
0.0
  0
LINE
  5
54
330
1F
100
AcDbEntity
  8
0
  6
Continuous
 62
     7
370
    15
100
AcDbLine
 10
172.76955562
 20
132.7405200433
 30
0.0
 11
130.5443745647
 21
132.7405200433
 31
0.0
  0
ARC
  5
55
330
1F
100
AcDbEntity
  8
0
  6
Continuous
 62
     7
370
    15
100
AcDbCircle
 10
103.0943678121
 20
82.1700824289
 30
0.0
 40
0.6000067526677164
100
AcDbArc
 50
33.5571153394
 51
90.0
  0
ARC
  5
56
330
1F
100
AcDbEntity
  8
0
  6
Continuous
 62
     7
370
    15
100
AcDbCircle
 10
103.0943678121
 20
131.3109576577
 30
0.0
 40
0.6000067526677242
100
AcDbArc
 50
270.0
 51
326.4428846606
  0
LINE
  5
57
330
1F
100
AcDbEntity
  8
0
  6
Continuous
 62
     7
370
    15
100
AcDbLine
 10
101.5943745647
 20
82.5200891816
 30
0.0
 11
102.4510873381
 21
82.7496446774
 31
0.0
  0
LINE
  5
58
330
1F
100
AcDbEntity
  8
0
  6
Continuous
 62
     7
370
    15
100
AcDbLine
 10
102.4510873381
 20
130.7313954093
 30
0.0
 11
101.5943745647
 21
130.9609509051
 31
0.0
  0
LINE
  5
59
330
1F
100
AcDbEntity
  8
0
  6
Continuous
 62
     7
370
    15
100
AcDbLine
 10
90.3639523822
 20
130.3983045031
 30
0.0
 11
77.7943745647
 21
129.7685661355
 31
0.0
  0
LINE
  5
5A
330
1F
100
AcDbEntity
  8
0
  6
Continuous
 62
     7
370
    15
100
AcDbLine
 10
101.5943745647
 20
130.9609509051
 30
0.0
 11
98.7757652072
 21
130.8197380114
 31
0.0
  0
LINE
  5
5B
330
1F
100
AcDbEntity
  8
0
  6
Continuous
 62
     7
370
    15
100
AcDbLine
 10
98.7759866824
 20
82.6612909793
 30
0.0
 11
101.5943745647
 21
82.5200891816
 31
0.0
  0
LINE
  5
5C
330
1F
100
AcDbEntity
  8
0
  6
Continuous
 62
     7
370
    15
100
AcDbLine
 10
81.7943745647
 20
83.5120731495
 30
0.0
 11
90.3646513339
 21
83.0827005659
 31
0.0
  0
ARC
  5
5D
330
1F
100
AcDbEntity
  8
0
  6
Continuous
 62
     7
370
    15
100
AcDbCircle
 10
102.6063787652
 20
82.1700891816
 30
0.0
 40
0.5999999999999943
100
AcDbArc
 50
90.0
 51
105.0
  0
ARC
  5
5E
330
1F
100
AcDbEntity
  8
0
  6
Continuous
 62
     7
370
    15
100
AcDbCircle
 10
102.6063787652
 20
131.3109509051
 30
0.0
 40
0.5999999999999943
100
AcDbArc
 50
255.0
 51
270.0
  0
LINE
  5
5F
330
1F
100
AcDbEntity
  8
0
  6
Continuous
 62
     7
370
    15
100
AcDbLine
 10
102.6063787652
 20
82.7700891816
 30
0.0
 11
103.0943678121
 21
82.7700891816
 31
0.0
  0
LINE
  5
60
330
1F
100
AcDbEntity
  8
0
  6
Continuous
 62
     7
370
    15
100
AcDbLine
 10
103.0943678121
 20
130.7109509051
 30
0.0
 11
102.6063787652
 21
130.7109509051
 31
0.0
  0
ARC
  5
61
330
1F
100
AcDbEntity
  8
0
  6
Continuous
 62
     7
370
    15
100
AcDbCircle
 10
221.0943745647
 20
87.0514962725
 30
0.0
 40
2.500000000000007
100
AcDbArc
 50
274.5
 51
0.0
  0
ARC
  5
62
330
1F
100
AcDbEntity
  8
0
  6
Continuous
 62
     7
370
    15
100
AcDbCircle
 10
221.0943745647
 20
126.4295438142
 30
0.0
 40
2.500000000000021
100
AcDbArc
 50
0.0
 51
85.5
  0
LINE
  5
63
330
1F
100
AcDbEntity
  8
0
  6
Continuous
 62
     7
370
    15
100
AcDbLine
 10
72.9835238239
 20
85.8705200433
 30
0.0
 11
80.3943745647
 21
85.8705200433
 31
0.0
  0
ARC
  5
64
330
1F
100
AcDbEntity
  8
0
  6
Continuous
 62
     7
370
    15
100
AcDbCircle
 10
80.3943745647
 20
84.4705200433
 30
0.0
 40
1.400000000000006
100
AcDbArc
 50
42.2210104152
 51
90.0
  0
LINE
  5
65
330
1F
100
AcDbEntity
  8
0
  6
Continuous
 62
     7
370
    15
100
AcDbLine
 10
71.7059307908
 20
87.0089638172
 30
0.0
 11
72.8355380229
 21
85.8793565852
 31
0.0
  0
LINE
  5
66
330
1F
100
AcDbEntity
  8
0
  6
Continuous
 62
     7
370
    15
100
AcDbLine
 10
72.8355380229
 20
127.6016835015
 30
0.0
 11
71.7042753381
 21
126.4704208167
 31
0.0
  0
ARC
  5
67
330
1F
100
AcDbEntity
  8
0
  6
Continuous
 62
     7
370
    15
100
AcDbCircle
 10
76.3943745647
 20
129.0105200433
 30
0.0
 40
1.400000000000008
100
AcDbArc
 50
270.0
 51
301.7485287426
  0
LINE
  5
68
330
1F
100
AcDbEntity
  8
0
  6
Continuous
 62
     7
370
    15
100
AcDbLine
 10
76.3943745647
 20
127.6105200433
 30
0.0
 11
72.9686402986
 21
127.6105200433
 31
0.0
  0
LINE
  5
69
330
1F
100
AcDbEntity
  8
0
  6
Continuous
 62
     7
370
    15
100
AcDbLine
 10
128.9443745647
 20
76.5536023471
 30
0.0
 11
124.9863073962
 21
76.5536023471
 31
0.0
  0
LINE
  5
6A
330
1F
100
AcDbEntity
  8
0
  6
Continuous
 62
     7
370
    15
100
AcDbLine
 10
124.9863073962
 20
76.5536023471
 30
0.0
 11
124.9863073962
 21
126.5905200433
 31
0.0
  0
LINE
  5
6B
330
1F
100
AcDbEntity
  8
0
  6
Continuous
 62
     7
370
    15
100
AcDbLine
 10
124.9863073962
 20
126.5905200433
 30
0.0
 11
128.9443745647
 21
126.5905200433
 31
0.0
  0
LINE
  5
6C
330
1F
100
AcDbEntity
  8
0
  6
Continuous
 62
     7
370
    15
100
AcDbLine
 10
119.6843745647
 20
79.2426828843
 30
0.0
 11
119.6843745647
 21
126.5905200433
 31
0.0
  0
SPLINE
  5
6D
330
1F
100
AcDbEntity
  8
0
  6
Continuous
 62
     7
370
    15
100
AcDbSpline
210
0.0
220
0.0
230
1.0
 70
     8
 71
     3
 72
     8
 73
     4
 74
     0
 42
0.00000001
 43
0.00000001
 40
0.0
 40
0.0
 40
0.0
 40
0.0
 40
1.0
 40
1.0
 40
1.0
 40
1.0
 10
119.6843745647243
 20
79.2426828842822
 30
0.0
 10
119.1920354419431
 20
78.3454128500755
 30
0.0
 10
118.6979213939009
 20
77.44912843502324
 30
0.0
 10
118.2024417332352
 20
76.55360234708989
 30
0.0
  0
LINE
  5
6E
330
1F
100
AcDbEntity
  8
0
  6
Continuous
 62
     7
370
    15
100
AcDbLine
 10
118.2024417332
 20
76.5536023471
 30
0.0
 11
118.2024417332
 21
126.5905200433
 31
0.0
  0
SPLINE
  5
6F
330
1F
100
AcDbEntity
  8
0
  6
Continuous
 62
     7
370
    15
100
AcDbSpline
210
0.0
220
0.0
230
1.0
 70
    24
 71
     3
 72
     8
 73
     4
 74
     0
 42
0.00000001
 43
0.00000001
 40
0.0
 40
0.0
 40
0.0
 40
0.0
 40
1.0
 40
1.0
 40
1.0
 40
1.0
 10
118.2024417332352
 20
126.5905200433371
 30
0.0
 10
118.7091218413857
 20
126.5905200433371
 30
0.0
 10
119.2044225703593
 20
126.5905200433371
 30
0.0
 10
119.6843745647243
 20
126.5905200433371
 30
0.0
  0
LINE
  5
70
330
1F
100
AcDbEntity
  8
0
  6
Continuous
 62
     7
370
    15
100
AcDbLine
 10
108.5443745647
 20
126.5905200433
 30
0.0
 11
118.2024417332
 21
126.5905200433
 31
0.0
  0
LINE
  5
71
330
1F
100
AcDbEntity
  8
0
  6
Continuous
 62
     7
370
    15
100
AcDbLine
 10
118.2024417332
 20
76.5536023471
 30
0.0
 11
116.5443745647
 21
76.5536023471
 31
0.0
  0
SPLINE
  5
72
330
1F
100
AcDbEntity
  8
0
  6
Continuous
 62
     7
370
    15
100
AcDbSpline
210
0.0
220
0.0
230
1.0
 70
     8
 71
     3
 72
    28
 73
    24
 74
     0
 42
0.00000001
 43
0.00000001
 40
0.0
 40
0.0
 40
0.0
 40
0.0
 40
0.1249999999999999
 40
0.1249999999999999
 40
0.1874999999999998
 40
0.1874999999999998
 40
0.2499999999999997
 40
0.2499999999999997
 40
0.3749999999999993
 40
0.3749999999999993
 40
0.4374999999999993
 40
0.4374999999999993
 40
0.4999999999999992
 40
0.4999999999999992
 40
0.6249999999999992
 40
0.6249999999999992
 40
0.7499999999999992
 40
0.7499999999999992
 40
0.8124999999999993
 40
0.8124999999999993
 40
0.8749999999999996
 40
0.8749999999999996
 40
1.0
 40
1.0
 40
1.0
 40
1.0
 10
116.5443745647242
 20
76.55360234708989
 30
0.0
 10
116.0126668072313
 20
76.55360234708989
 30
0.0
 10
115.490428241921
 20
76.53781763313968
 30
0.0
 10
114.720557755646
 20
76.49282221906348
 30
0.0
 10
114.4661981834546
 20
76.47426722398775
 30
0.0
 10
113.9620766027561
 20
76.43041450154125
 30
0.0
 10
113.7123537853282
 20
76.40506989458905
 30
0.0
 10
112.9867638338818
 20
76.32166781683894
 30
0.0
 10
112.5284035723002
 20
76.25580225768786
 30
0.0
 10
111.8779056289064
 20
76.14683191719607
 30
0.0
 10
111.6662235781139
 20
76.10859228142941
 30
0.0
 10
111.2621520889759
 20
76.03083354401006
 30
0.0
 10
111.0696455751551
 20
75.99133258183471
 30
0.0
 10
110.5198106041338
 20
75.8724248394687
 30
0.0
 10
110.189881825825
 20
75.79260715804409
 30
0.0
 10
109.6054105572563
 20
75.63926399624805
 30
0.0
 10
109.3591334192428
 20
75.56793024297878
 30
0.0
 10
109.0592906265448
 20
75.47398673590416
 30
0.0
 10
108.9708337694726
 20
75.44479294254425
 30
0.0
 10
108.8174724161675
 20
75.39132636828083
 30
0.0
 10
108.7523842019412
 20
75.36696703400564
 30
0.0
 10
108.5967901860004
 20
75.3033768885609
 30
0.0
 10
108.5443745647242
 20
75.27327395347166
 30
0.0
 10
108.5443745647242
 20
75.25639706047474
 30
0.0
  0
LINE
  5
73
330
1F
100
AcDbEntity
  8
0
  6
Continuous
 62
     7
370
    15
100
AcDbLine
 10
108.5443745647
 20
75.2563970605
 30
0.0
 11
108.5443745647
 21
75.2405200433
 31
0.0
  0
SPLINE
  5
74
330
1F
100
AcDbEntity
  8
0
  6
Continuous
 62
     7
370
    15
100
AcDbSpline
210
0.0
220
0.0
230
1.0
 70
     8
 71
     3
 72
    22
 73
    18
 74
     0
 42
0.00000001
 43
0.00000001
 40
0.0
 40
0.0
 40
0.0
 40
0.0
 40
0.0515773377536172
 40
0.1565264849943629
 40
0.2100197540385886
 40
0.2615951369298746
 40
0.3664424119934943
 40
0.4198226601719804
 40
0.4724528789006786
 40
0.5794488992297344
 40
0.6339397336480286
 40
0.6872670452602943
 40
0.7409741315029978
 40
0.7958968813361827
 40
0.8512481408256359
 40
0.9034470736265863
 40
1.0
 40
1.0
 40
1.0
 40
1.0
 10
116.5443745647242
 20
137.2077155165013
 30
0.0
 10
116.3275643687218
 20
137.2091121375698
 30
0.0
 10
115.669590549807
 20
137.213350591826
 30
0.0
 10
114.7944955724761
 20
137.2528829161803
 30
0.0
 10
113.9496700776192
 20
137.3158561630223
 30
0.0
 10
113.129944794015
 20
137.3938701962774
 30
0.0
 10
112.3541548159866
 20
137.4907533241525
 30
0.0
 10
111.6366663546801
 20
137.5990127360685
 30
0.0
 10
110.9574016075081
 20
137.712731108373
 30
0.0
 10
110.3490866295991
 20
137.8292312933138
 30
0.0
 10
109.828994688876
 20
137.9383315447308
 30
0.0
 10
109.4851045111598
 20
138.0143354424609
 30
0.0
 10
109.1901507834323
 20
138.0823688983825
 30
0.0
 10
108.9443764960911
 20
138.141081949141
 30
0.0
 10
108.7584741871177
 20
138.1866973290747
 30
0.0
 10
108.586877581394
 20
138.2296567806353
 30
0.0
 10
108.5667483062177
 20
138.2348178024374
 30
0.0
 10
108.553682651544
 20
138.2381677555796
 30
0.0
  0
LINE
  5
75
330
1F
100
AcDbEntity
  8
0
  6
Continuous
 62
     7
370
    15
100
AcDbLine
 10
118.2024417332
 20
137.2077155165
 30
0.0
 11
116.5443745647
 21
137.2077155165
 31
0.0
  0
LINE
  5
76
330
1F
100
AcDbEntity
  8
0
  6
Continuous
 62
     7
370
    15
100
AcDbLine
 10
118.2024417332
 20
131.1992097057
 30
0.0
 11
118.2024417332
 21
137.2077155165
 31
0.0
  0
LINE
  5
77
330
1F
100
AcDbEntity
  8
0
  6
Continuous
 62
     7
370
    15
100
AcDbLine
 10
115.7899949104
 20
131.1992097057
 30
0.0
 11
118.2024417332
 21
131.1992097057
 31
0.0
  0
SPLINE
  5
78
330
1F
100
AcDbEntity
  8
0
  6
Continuous
 62
     7
370
    15
100
AcDbSpline
210
0.0
220
0.0
230
1.0
 70
     8
 71
     3
 72
    20
 73
    16
 74
     0
 42
0.00000001
 43
0.00000001
 40
0.0
 40
0.0
 40
0.0
 40
0.0
 40
0.2499999999999995
 40
0.2499999999999995
 40
0.3749999999999996
 40
0.3749999999999996
 40
0.4999999999999997
 40
0.4999999999999997
 40
0.6249999999999998
 40
0.6249999999999998
 40
0.7499999999999998
 40
0.7499999999999998
 40
0.8749999999999999
 40
0.8749999999999999
 40
1.0
 40
1.0
 40
1.0
 40
1.0
 10
108.5443745647242
 20
126.5905200433371
 30
0.0
 10
108.7927482990123
 20
127.2443824716345
 30
0.0
 10
109.1123183913576
 20
127.8481682536316
 30
0.0
 10
109.7346246245622
 20
128.6750069898002
 30
0.0
 10
109.966048884993
 20
128.9374356277531
 30
0.0
 10
110.4872632246427
 20
129.4340982818581
 30
0.0
 10
110.7738837072778
 20
129.6646851608797
 30
0.0
 10
111.3933684485854
 20
130.0812393854623
 30
0.0
 10
111.7276688280724
 20
130.2687371874298
 30
0.0
 10
112.4529293006971
 20
130.6001341650662
 30
0.0
 10
112.8348443580876
 20
130.7396381525615
 30
0.0
 10
113.6296325342593
 20
130.9650916600324
 30
0.0
 10
114.0437907284657
 20
131.0517177715761
 30
0.0
 10
114.9093370690471
 20
131.1696985604302
 30
0.0
 10
115.3472246840589
 20
131.1992097057045
 30
0.0
 10
115.7899949104135
 20
131.1992097057045
 30
0.0
  0
SPLINE
  5
79
330
1F
100
AcDbEntity
  8
0
  6
Continuous
 62
     7
370
    15
100
AcDbSpline
210
0.0
220
0.0
230
1.0
 70
     8
 71
     3
 72
    70
 73
    66
 74
     0
 42
0.00000001
 43
0.00000001
 40
-0.0312500000000001
 40
-0.0312500000000001
 40
0.0
 40
0.0
 40
0.0312499999999997
 40
0.0312499999999997
 40
0.0624999999999994
 40
0.0624999999999994
 40
0.0937499999999993
 40
0.0937499999999993
 40
0.1249999999999991
 40
0.1249999999999991
 40
0.156249999999999
 40
0.156249999999999
 40
0.1874999999999989
 40
0.1874999999999989
 40
0.2187499999999988
 40
0.2187499999999988
 40
0.2499999999999986
 40
0.2499999999999986
 40
0.2812499999999987
 40
0.2812499999999987
 40
0.3124999999999988
 40
0.3124999999999988
 40
0.3437499999999989
 40
0.3437499999999989
 40
0.3749999999999989
 40
0.3749999999999989
 40
0.4062499999999991
 40
0.4062499999999991
 40
0.4374999999999992
 40
0.4374999999999992
 40
0.4687499999999992
 40
0.4687499999999992
 40
0.4999999999999993
 40
0.4999999999999993
 40
0.5312499999999993
 40
0.5312499999999993
 40
0.5624999999999994
 40
0.5624999999999994
 40
0.5937499999999994
 40
0.5937499999999994
 40
0.6249999999999994
 40
0.6249999999999994
 40
0.6562499999999996
 40
0.6562499999999996
 40
0.6874999999999996
 40
0.6874999999999996
 40
0.7187499999999996
 40
0.7187499999999996
 40
0.7499999999999996
 40
0.7499999999999996
 40
0.7812499999999997
 40
0.7812499999999997
 40
0.8124999999999997
 40
0.8124999999999997
 40
0.8437499999999997
 40
0.8437499999999997
 40
0.8749999999999998
 40
0.8749999999999998
 40
0.9062499999999998
 40
0.9062499999999998
 40
0.9374999999999998
 40
0.9374999999999998
 40
0.9687499999999999
 40
0.9687499999999999
 40
1.0
 40
1.0
 40
1.03125
 40
1.03125
 10
107.5943745647242
 20
120.8055094784128
 30
0.0
 10
107.5943745647242
 20
121.2769320918527
 30
0.0
 10
107.6203596401082
 20
121.5071456517688
 30
0.0
 10
107.7221245426923
 20
121.957208439831
 30
0.0
 10
107.7991589284982
 20
122.179369380322
 30
0.0
 10
108.0000252159354
 20
122.6001535977945
 30
0.0
 10
108.1229042645267
 20
122.7984208954388
 30
0.0
 10
108.4131689265904
 20
123.1717077839053
 30
0.0
 10
108.5819425024423
 20
123.3472188294203
 30
0.0
 10
108.9505805237287
 20
123.6605181797231
 30
0.0
 10
109.1517735716812
 20
123.8004504702658
 30
0.0
 10
109.5889110969354
 20
124.0469072292573
 30
0.0
 10
109.8213257645588
 20
124.1510375672073
 30
0.0
 10
110.3025099866711
 20
124.3181595458915
 30
0.0
 10
110.5548449926291
 20
124.3823713126515
 30
0.0
 10
111.0712898583168
 20
124.4681562591845
 30
0.0
 10
111.3309951063692
 20
124.4893575657803
 30
0.0
 10
111.8533021635222
 20
124.4895996481855
 30
0.0
 10
112.1186084788363
 20
124.4679386063382
 30
0.0
 10
112.6318145689655
 20
124.3827451166164
 30
0.0
 10
112.8812820072773
 20
124.3196689008541
 30
0.0
 10
113.3658846167691
 20
124.1517814953097
 30
0.0
 10
113.5997542755536
 20
124.0467853933619
 30
0.0
 10
114.0328965968088
 20
123.8029176160923
 30
0.0
 10
114.2350735125746
 20
123.6630592794025
 30
0.0
 10
114.6083483048843
 20
123.3459975804591
 30
0.0
 10
114.7736705990342
 20
123.1737545177395
 30
0.0
 10
115.0633855863694
 20
122.8019865157276
 30
0.0
 10
115.1887888520001
 20
122.6000332202431
 30
0.0
 10
115.3896043000121
 20
122.1793241801068
 30
0.0
 10
115.465388857118
 20
121.9614224338105
 30
0.0
 10
115.5679985758502
 20
121.5101058785676
 30
0.0
 10
115.5942761087084
 20
121.275256626989
 30
0.0
 10
115.5944724555298
 20
120.8098643620408
 30
0.0
 10
115.5692392093122
 20
120.5769525302479
 30
0.0
 10
115.4668387233951
 20
120.1108524599374
 30
0.0
 10
115.3901504263359
 20
119.8816998402616
 30
0.0
 10
115.1909343160195
 20
119.4420299281659
 30
0.0
 10
115.066827682015
 20
119.2281425075017
 30
0.0
 10
114.7749513340133
 20
118.8246597853581
 30
0.0
 10
114.6096790298315
 20
118.6377868279805
 30
0.0
 10
114.2412959266478
 20
118.2938388045545
 30
0.0
 10
114.0357860200202
 20
118.1356066929221
 30
0.0
 10
113.6016816760881
 20
117.8628173437054
 30
0.0
 10
113.3721963884607
 20
117.7467782737859
 30
0.0
 10
112.8879837111001
 20
117.5565977181862
 30
0.0
 10
112.6339903853282
 20
117.4834491971333
 30
0.0
 10
112.122612249202
 20
117.3865629090845
 30
0.0
 10
111.8624822251348
 20
117.3616547616721
 30
0.0
 10
111.3334780112429
 20
117.3612021816345
 30
0.0
 10
111.0733902804559
 20
117.3856491896742
 30
0.0
 10
110.5616727577471
 20
117.481691319989
 30
0.0
 10
110.3073616400139
 20
117.5544819809802
 30
0.0
 10
109.8229837940483
 20
117.7437899968644
 30
0.0
 10
109.5932190372855
 20
117.8594583047206
 30
0.0
 10
109.1582569804123
 20
118.1317866203884
 30
0.0
 10
108.9525807182825
 20
118.2896413143357
 30
0.0
 10
108.5837378731565
 20
118.6328542306286
 30
0.0
 10
108.4180541555022
 20
118.8195033672076
 30
0.0
 10
108.1251527385021
 20
119.2229665646189
 30
0.0
 10
108.0009420065764
 20
119.4362288239743
 30
0.0
 10
107.8009334546546
 20
119.8754761475429
 30
0.0
 10
107.7237959050683
 20
120.1044171506121
 30
0.0
 10
107.6203628747975
 20
120.57097946263
 30
0.0
 10
107.5943745647242
 20
120.8055094784128
 30
0.0
 10
107.5943745647242
 20
121.2769320918527
 30
0.0
  0
SPLINE
  5
7A
330
1F
100
AcDbEntity
  8
0
  6
Continuous
 62
     7
370
    15
100
AcDbSpline
210
0.0
220
0.0
230
1.0
 70
     8
 71
     3
 72
    70
 73
    66
 74
     0
 42
0.00000001
 43
0.00000001
 40
-0.0312499999999998
 40
-0.0312499999999998
 40
0.0
 40
0.0
 40
0.0312500000000001
 40
0.0312500000000001
 40
0.0625000000000001
 40
0.0625000000000001
 40
0.0937500000000002
 40
0.0937500000000002
 40
0.1250000000000002
 40
0.1250000000000002
 40
0.1562500000000003
 40
0.1562500000000003
 40
0.1875000000000003
 40
0.1875000000000003
 40
0.2187500000000004
 40
0.2187500000000004
 40
0.2500000000000004
 40
0.2500000000000004
 40
0.2812500000000007
 40
0.2812500000000007
 40
0.312500000000001
 40
0.312500000000001
 40
0.3437500000000013
 40
0.3437500000000013
 40
0.3750000000000016
 40
0.3750000000000016
 40
0.4062500000000018
 40
0.4062500000000018
 40
0.4375000000000021
 40
0.4375000000000021
 40
0.4687500000000024
 40
0.4687500000000024
 40
0.5000000000000027
 40
0.5000000000000027
 40
0.5312500000000027
 40
0.5312500000000027
 40
0.5625000000000026
 40
0.5625000000000026
 40
0.5937500000000026
 40
0.5937500000000026
 40
0.6250000000000024
 40
0.6250000000000024
 40
0.6562500000000024
 40
0.6562500000000024
 40
0.6875000000000023
 40
0.6875000000000023
 40
0.7187500000000023
 40
0.7187500000000023
 40
0.7500000000000022
 40
0.7500000000000022
 40
0.781250000000002
 40
0.781250000000002
 40
0.8125000000000017
 40
0.8125000000000017
 40
0.8437500000000013
 40
0.8437500000000013
 40
0.8750000000000011
 40
0.8750000000000011
 40
0.9062500000000008
 40
0.9062500000000008
 40
0.9375000000000006
 40
0.9375000000000006
 40
0.9687500000000002
 40
0.9687500000000002
 40
1.0
 40
1.0
 40
1.03125
 40
1.03125
 10
107.5943745647242
 20
133.8880477705275
 30
0.0
 10
107.5943745647242
 20
134.1525927545663
 30
0.0
 10
107.6203596401082
 20
134.2797448487212
 30
0.0
 10
107.7221245426923
 20
134.5245538444591
 30
0.0
 10
107.7991589284982
 20
134.6434158435321
 30
0.0
 10
108.0000252159354
 20
134.8651256698776
 30
0.0
 10
108.1229042645267
 20
134.9678410088031
 30
0.0
 10
108.4131689265904
 20
135.1585330293809
 30
0.0
 10
108.5819425024423
 20
135.2467227266919
 30
0.0
 10
108.9505805237287
 20
135.4022218427889
 30
0.0
 10
109.1517735716812
 20
135.470634500253
 30
0.0
 10
109.5889110969354
 20
135.5899651195981
 30
0.0
 10
109.8213257645587
 20
135.6397248117804
 30
0.0
 10
110.3025099866711
 20
135.7190987888532
 30
0.0
 10
110.5548449926291
 20
135.749294473093
 30
0.0
 10
111.0712898583168
 20
135.7895423609359
 30
0.0
 10
111.3309951063692
 20
135.7994266457187
 30
0.0
 10
111.8533021635222
 20
135.7995397485007
 30
0.0
 10
112.1186084788363
 20
135.7894401427695
 30
0.0
 10
112.6318145689655
 20
135.7494699527931
 30
0.0
 10
112.8812820072773
 20
135.7198127890219
 30
0.0
 10
113.3658846167691
 20
135.6400809620613
 30
0.0
 10
113.5997542755536
 20
135.5899019087482
 30
0.0
 10
114.0328965968088
 20
135.4718332341621
 30
0.0
 10
114.2350735125746
 20
135.4034800737614
 30
0.0
 10
114.6083483048843
 20
135.246119561657
 30
0.0
 10
114.7736705990342
 20
135.1595641445886
 30
0.0
 10
115.0633855863694
 20
134.9696767243448
 30
0.0
 10
115.1887888520001
 20
134.8650627038933
 30
0.0
 10
115.3896043000121
 20
134.643391566952
 30
0.0
 10
115.465388857118
 20
134.5268252824071
 30
0.0
 10
115.5679985758502
 20
134.281375458735
 30
0.0
 10
115.5942761087084
 20
134.1516449032578
 30
0.0
 10
115.5944724555298
 20
133.8904991689544
 30
0.0
 10
115.5692392093122
 20
133.7578200069216
 30
0.0
 10
115.4668387233951
 20
133.4884627536065
 30
0.0
 10
115.3901504263359
 20
133.3540913152598
 30
0.0
 10
115.1909343160195
 20
133.0930591853557
 30
0.0
 10
115.066827682015
 20
132.9643965480619
 30
0.0
 10
114.7749513340133
 20
132.7190888267238
 30
0.0
 10
114.6096790298315
 20
132.6041322189944
 30
0.0
 10
114.2412959266478
 20
132.3908010393094
 30
0.0
 10
114.0357860200203
 20
132.2916828517733
 30
0.0
 10
113.6016816760881
 20
132.1197605895023
 30
0.0
 10
113.3721963884607
 20
132.0460491007146
 30
0.0
 10
112.8879837111001
 20
131.9247966293879
 30
0.0
 10
112.6339903853282
 20
131.877888298704
 30
0.0
 10
112.122612249202
 20
131.8156790653291
 30
0.0
 10
111.8624822251349
 20
131.7996300736767
 30
0.0
 10
111.333478011243
 20
131.7993387878827
 30
0.0
 10
111.0733902804559
 20
131.8150910285292
 30
0.0
 10
110.5616727577471
 20
131.8767609063268
 30
0.0
 10
110.3073616400139
 20
131.923442582167
 30
0.0
 10
109.8229837940483
 20
132.0441488706242
 30
0.0
 10
109.5932190372855
 20
132.1176330850656
 30
0.0
 10
109.1582569804123
 20
132.2892855325894
 30
0.0
 10
108.9525807182825
 20
132.3881804128868
 30
0.0
 10
108.5837378731565
 20
132.6010895265057
 30
0.0
 10
108.4180541555022
 20
132.7159304761897
 30
0.0
 10
108.1251527385021
 20
132.9612724823496
 30
0.0
 10
108.0009420065764
 20
133.089584562031
 30
0.0
 10
107.8009334546546
 20
133.3504259899374
 30
0.0
 10
107.7237959050683
 20
133.4847092620197
 30
0.0
 10
107.6203628747975
 20
133.7544018431603
 30
0.0
 10
107.5943745647242
 20
133.8880477705275
 30
0.0
 10
107.5943745647242
 20
134.1525927545663
 30
0.0
  0
LINE
  5
7B
330
1F
100
AcDbEntity
  8
0
  6
Continuous
 62
     7
370
    15
100
AcDbLine
 10
103.5943745647
 20
75.5405200433
 30
0.0
 11
103.5943745647
 21
137.9405200365
 31
0.0
  0
SPLINE
  5
7C
330
1F
100
AcDbEntity
  8
0
  6
Continuous
 62
     7
370
    15
100
AcDbSpline
210
0.0
220
0.0
230
1.0
 70
     8
 71
     3
 72
     8
 73
     4
 74
     0
 42
0.00000001
 43
0.00000001
 40
0.0
 40
0.0
 40
0.0
 40
0.0
 40
1.0
 40
1.0
 40
1.0
 40
1.0
 10
124.9863073962133
 20
76.55360234708989
 30
0.0
 10
124.4908277355476
 20
77.44912843502325
 30
0.0
 10
123.9967136875054
 20
78.34541285007552
 30
0.0
 10
123.5043745647242
 20
79.24268288428222
 30
0.0
  0
LINE
  5
7D
330
1F
100
AcDbEntity
  8
0
  6
Continuous
 62
     7
370
    15
100
AcDbLine
 10
123.5043745647
 20
79.2426828843
 30
0.0
 11
123.5043745647
 21
126.5905200433
 31
0.0
  0
SPLINE
  5
7E
330
1F
100
AcDbEntity
  8
0
  6
Continuous
 62
     7
370
    15
100
AcDbSpline
210
0.0
220
0.0
230
1.0
 70
    24
 71
     3
 72
     8
 73
     4
 74
     0
 42
0.00000001
 43
0.00000001
 40
0.0
 40
0.0
 40
0.0
 40
0.0
 40
1.0
 40
1.0
 40
1.0
 40
1.0
 10
123.5043745647242
 20
126.5905200433371
 30
0.0
 10
123.9843265590891
 20
126.5905200433371
 30
0.0
 10
124.4796272880627
 20
126.5905200433371
 30
0.0
 10
124.9863073962133
 20
126.5905200433371
 30
0.0
  0
LINE
  5
7F
330
1F
100
AcDbEntity
  8
0
  6
Continuous
 62
     7
370
    15
100
AcDbLine
 10
129.5443745647
 20
77.1802426427
 30
0.0
 11
129.5443745647
 21
126.5905200433
 31
0.0
  0
SPLINE
  5
80
330
1F
100
AcDbEntity
  8
0
  6
Continuous
 62
     7
370
    15
100
AcDbSpline
210
0.0
220
0.0
230
1.0
 70
     8
 71
     3
 72
    10
 73
     6
 74
     0
 42
0.00000001
 43
0.00000001
 40
0.0
 40
0.0
 40
0.0
 40
0.0
 40
0.5
 40
0.5
 40
1.0
 40
1.0
 40
1.0
 40
1.0
 10
129.5443745647242
 20
77.18024264274422
 30
0.0
 10
129.5443745647242
 20
77.02035537455056
 30
0.0
 10
129.4830649134884
 20
76.85922811903595
 30
0.0
 10
129.2639652759533
 20
76.62512912068112
 30
0.0
 10
129.1059170696398
 20
76.55360234708989
 30
0.0
 10
128.9443745647242
 20
76.55360234708989
 30
0.0
  0
SPLINE
  5
81
330
1F
100
AcDbEntity
  8
0
  6
Continuous
 62
     7
370
    15
100
AcDbSpline
210
0.0
220
0.0
230
1.0
 70
    24
 71
     3
 72
    12
 73
     8
 74
     0
 42
0.00000001
 43
0.00000001
 40
0.0
 40
0.0
 40
0.0
 40
0.0
 40
0.250000000000002
 40
0.250000000000002
 40
0.500000000000004
 40
0.500000000000004
 40
1.0
 40
1.0
 40
1.0
 40
1.0
 10
128.9443745647242
 20
126.5905200433371
 30
0.0
 10
129.0346136324113
 20
126.5905200433371
 30
0.0
 10
129.1255117465178
 20
126.5905200433371
 30
0.0
 10
129.2801087830063
 20
126.5905200433371
 30
0.0
 10
129.3450871991144
 20
126.5905200433371
 30
0.0
 10
129.4969222270507
 20
126.5905200433371
 30
0.0
 10
129.5443745647242
 20
126.5905200433371
 30
0.0
 10
129.5443745647242
 20
126.5905200433371
 30
0.0
  0
ARC
  5
82
330
1F
100
AcDbEntity
  8
0
  6
Continuous
 62
     7
370
    15
100
AcDbCircle
 10
111.7842410574
 20
118.8322583788
 30
0.0
 40
3.870887670542961
100
AcDbArc
 50
17.6303210824
 51
92.8114780005
  0
ARC
  5
83
330
1F
100
AcDbEntity
  8
0
  6
Continuous
 62
     7
370
    15
100
AcDbCircle
 10
111.4552005738
 20
118.7595475504
 30
0.0
 40
3.941397173250478
100
AcDbArc
 50
87.9764180156
 51
161.6464582261
  0
SPLINE
  5
84
330
1F
100
AcDbEntity
  8
0
  6
Continuous
 62
     7
370
    15
100
AcDbSpline
210
0.0
220
0.0
230
1.0
 70
     8
 71
     3
 72
    10
 73
     6
 74
     0
 42
0.00000001
 43
0.00000001
 40
0.0
 40
0.0
 40
0.0
 40
0.0
 40
0.5
 40
0.5
 40
1.0
 40
1.0
 40
1.0
 40
1.0
 10
120.0786720964152
 20
133.1405200433371
 30
0.0
 10
119.9571318327467
 20
133.2152462105488
 30
0.0
 10
119.8557974723977
 20
133.3241912264656
 30
0.0
 10
119.7201585295093
 20
133.5746217072272
 30
0.0
 10
119.6843745647242
 20
133.7170410693261
 30
0.0
 10
119.6843745647242
 20
133.8601738943728
 30
0.0
  0
SPLINE
  5
85
330
1F
100
AcDbEntity
  8
0
  6
Continuous
 62
     7
370
    15
100
AcDbSpline
210
0.0
220
0.0
230
1.0
 70
    24
 71
     3
 72
    12
 73
     8
 74
     0
 42
0.00000001
 43
0.00000001
 40
0.0
 40
0.0
 40
0.0
 40
0.0
 40
0.2499999999999992
 40
0.2499999999999992
 40
0.4999999999999983
 40
0.4999999999999983
 40
1.0
 40
1.0
 40
1.0
 40
1.0
 10
120.4843745647242
 20
133.1405200433371
 30
0.0
 10
120.4344978824069
 20
133.1405200433371
 30
0.0
 10
120.3864946890031
 20
133.140520043337
 30
0.0
 10
120.3034465862912
 20
133.1405200433371
 30
0.0
 10
120.2673170068234
 20
133.1405200433371
 30
0.0
 10
120.1714049758792
 20
133.1405200433371
 30
0.0
 10
120.1216463079104
 20
133.1405200433371
 30
0.0
 10
120.0786720964152
 20
133.1405200433371
 30
0.0
  0
SPLINE
  5
86
330
1F
100
AcDbEntity
  8
0
  6
Continuous
 62
     7
370
    15
100
AcDbSpline
210
0.0
220
0.0
230
1.0
 70
    24
 71
     3
 72
    14
 73
    10
 74
     0
 42
0.00000001
 43
0.00000001
 40
0.0
 40
0.0
 40
0.0
 40
0.0
 40
0.1250000000000012
 40
0.1250000000000012
 40
0.2500000000000024
 40
0.2500000000000024
 40
0.5000000000000013
 40
0.5000000000000013
 40
1.0
 40
1.0
 40
1.0
 40
1.0
 10
120.4843745647242
 20
80.34052004333705
 30
0.0
 10
120.4159367168378
 20
80.34052004333705
 30
0.0
 10
120.3503866780728
 20
80.34052004333705
 30
0.0
 10
120.2459600386648
 20
80.34052004333707
 30
0.0
 10
120.2034154289034
 20
80.34052004333705
 30
0.0
 10
120.0908059683631
 20
80.34052004333705
 30
0.0
 10
120.0352669213437
 20
80.34052004333705
 30
0.0
 10
119.8926552258798
 20
80.34052004333705
 30
0.0
 10
119.8292498708841
 20
80.34052004333705
 30
0.0
 10
119.7820493670565
 20
80.34052004333705
 30
0.0
  0
SPLINE
  5
87
330
1F
100
AcDbEntity
  8
0
  6
Continuous
 62
     7
370
    15
100
AcDbSpline
210
0.0
220
0.0
230
1.0
 70
     8
 71
     3
 72
    10
 73
     6
 74
     0
 42
0.00000001
 43
0.00000001
 40
0.0
 40
0.0
 40
0.0
 40
0.0
 40
0.5
 40
0.5
 40
1.0
 40
1.0
 40
1.0
 40
1.0
 10
119.6843745647242
 20
126.8763866747985
 30
0.0
 10
119.6843745647242
 20
126.8286151668051
 30
0.0
 10
119.6865358083214
 20
126.7809054447435
 30
0.0
 10
119.6952071821816
 20
126.6856103271952
 30
0.0
 10
119.7017363651375
 20
126.6379177632286
 30
0.0
 10
119.7105221878844
 20
126.5905200433371
 30
0.0
  0
SPLINE
  5
88
330
1F
100
AcDbEntity
  8
0
  6
Continuous
 62
     7
370
    15
100
AcDbSpline
210
0.0
220
0.0
230
1.0
 70
    24
 71
     3
 72
    14
 73
    10
 74
     0
 42
0.00000001
 43
0.00000001
 40
0.0
 40
0.0
 40
0.0
 40
0.0
 40
0.5
 40
0.5
 40
0.75
 40
0.75
 40
0.875
 40
0.875
 40
1.0
 40
1.0
 40
1.0
 40
1.0
 10
123.406699762392
 20
80.34052004333705
 30
0.0
 10
123.3599150573437
 20
80.34052004333707
 30
0.0
 10
123.2978638605641
 20
80.34052004333707
 30
0.0
 10
123.1544722220135
 20
80.34052004333705
 30
0.0
 10
123.0983285684624
 20
80.34052004333707
 30
0.0
 10
122.9853775463262
 20
80.34052004333705
 30
0.0
 10
122.942376784288
 20
80.34052004333705
 30
0.0
 10
122.8383140739816
 20
80.34052004333705
 30
0.0
 10
122.7729818356247
 20
80.34052004333705
 30
0.0
 10
122.7043745647242
 20
80.34052004333705
 30
0.0
  0
SPLINE
  5
89
330
1F
100
AcDbEntity
  8
0
  6
Continuous
 62
     7
370
    15
100
AcDbSpline
210
0.0
220
0.0
230
1.0
 70
    24
 71
     3
 72
    12
 73
     8
 74
     0
 42
0.00000001
 43
0.00000001
 40
0.0
 40
0.0
 40
0.0
 40
0.0
 40
0.5000000000000017
 40
0.5000000000000017
 40
0.7500000000000008
 40
0.7500000000000008
 40
1.0
 40
1.0
 40
1.0
 40
1.0
 10
123.1100770330333
 20
133.1405200433371
 30
0.0
 10
123.0669914834223
 20
133.1405200433371
 30
0.0
 10
123.017839281673
 20
133.1405200433371
 30
0.0
 10
122.9213666873851
 20
133.1405200433371
 30
0.0
 10
122.8852651022505
 20
133.1405200433371
 30
0.0
 10
122.8021593443892
 20
133.1405200433371
 30
0.0
 10
122.7541627474229
 20
133.1405200433371
 30
0.0
 10
122.7043745647242
 20
133.1405200433371
 30
0.0
  0
SPLINE
  5
8A
330
1F
100
AcDbEntity
  8
0
  6
Continuous
 62
     7
370
    15
100
AcDbSpline
210
0.0
220
0.0
230
1.0
 70
     8
 71
     3
 72
    10
 73
     6
 74
     0
 42
0.00000001
 43
0.00000001
 40
0.0
 40
0.0
 40
0.0
 40
0.0
 40
0.5
 40
0.5
 40
1.0
 40
1.0
 40
1.0
 40
1.0
 10
123.5043745647242
 20
133.8601738943728
 30
0.0
 10
123.5043745647242
 20
133.7164038365548
 30
0.0
 10
123.4683255060054
 20
133.5739844740597
 30
0.0
 10
123.3328166452313
 20
133.3240901807024
 30
0.0
 10
123.2329406521352
 20
133.2160598444543
 30
0.0
 10
123.1100770330332
 20
133.140520043337
 30
0.0
  0
SPLINE
  5
8B
330
1F
100
AcDbEntity
  8
0
  6
Continuous
 62
     7
370
    15
100
AcDbSpline
210
0.0
220
0.0
230
1.0
 70
     8
 71
     3
 72
    10
 73
     6
 74
     0
 42
0.00000001
 43
0.00000001
 40
0.0
 40
0.0
 40
0.0
 40
0.0
 40
0.5
 40
0.5
 40
1.0
 40
1.0
 40
1.0
 40
1.0
 10
123.4782269415641
 20
126.5905200433371
 30
0.0
 10
123.4869165844758
 20
126.6373988926552
 30
0.0
 10
123.4934556492263
 20
126.6848213580565
 30
0.0
 10
123.5022142836193
 20
126.7807581566434
 30
0.0
 10
123.5043745647242
 20
126.8286734446539
 30
0.0
 10
123.5043745647242
 20
126.8763866747985
 30
0.0
  0
LINE
  5
8C
330
1F
100
AcDbEntity
  8
0
  6
Continuous
 62
     7
370
    15
100
AcDbLine
 10
122.7043745647
 20
133.1405200433
 30
0.0
 11
120.4843745647
 21
133.1405200433
 31
0.0
  0
LINE
  5
8D
330
1F
100
AcDbEntity
  8
0
  6
Continuous
 62
     7
370
    15
100
AcDbLine
 10
122.7043745647
 20
80.3405200433
 30
0.0
 11
120.4843745647
 21
80.3405200433
 31
0.0
  0
LINE
  5
8E
330
1F
100
AcDbEntity
  8
0
  6
Continuous
 62
     7
370
    15
100
AcDbLine
 10
129.744373267
 20
133.1405200433
 30
0.0
 11
129.7296474024
 21
133.1405200433
 31
0.0
  0
LINE
  5
8F
330
1F
100
AcDbEntity
  8
0
  6
Continuous
 62
     7
370
    15
100
AcDbLine
 10
129.7443732084
 20
80.3405200433
 30
0.0
 11
129.728128965
 21
80.3405200433
 31
0.0
  0
LINE
  5
90
330
1F
100
AcDbEntity
  8
0
  6
Continuous
 62
     7
370
    15
100
AcDbLine
 10
172.76955562
 20
80.7405200433
 30
0.0
 11
172.76955562
 21
132.7405200433
 31
0.0
  0
LINE
  5
91
330
1F
100
AcDbEntity
  8
0
  6
Continuous
 62
     7
370
    15
100
AcDbLine
 10
101.5943745647
 20
82.5200891816
 30
0.0
 11
101.5943745647
 21
130.9609509051
 31
0.0
  0
LINE
  5
92
330
1F
100
AcDbEntity
  8
0
  6
Continuous
 62
     7
370
    15
100
AcDbLine
 10
81.7943745647
 20
83.5120731495
 30
0.0
 11
81.7943745647
 21
84.7767825121
 31
0.0
  0
SPLINE
  5
93
330
1F
100
AcDbEntity
  8
0
  6
Continuous
 62
     7
370
    15
100
AcDbSpline
210
0.0
220
0.0
230
1.0
 70
     8
 71
     3
 72
    14
 73
    10
 74
     0
 42
0.00000001
 43
0.00000001
 40
0.0
 40
0.0
 40
0.0
 40
0.0
 40
0.25
 40
0.25
 40
0.5
 40
0.5
 40
0.75
 40
0.75
 40
1.0
 40
1.0
 40
1.0
 40
1.0
 10
81.01608744680853
 20
85.90736871977711
 30
0.0
 10
81.0727141220106
 20
85.79967126594025
 30
0.0
 10
81.16723678230032
 20
85.69688168422093
 30
0.0
 10
81.35028175786256
 20
85.49852437200079
 30
0.0
 10
81.4419083348173
 20
85.40246486332254
 30
0.0
 10
81.60076165251049
 20
85.21493582061329
 30
0.0
 10
81.66865226013218
 20
85.12352684782972
 30
0.0
 10
81.76556928583976
 20
84.94515062691958
 30
0.0
 10
81.79437456472482
 20
84.85792872067341
 30
0.0
 10
81.7943745647248
 20
84.77678251213916
 30
0.0
  0
SPLINE
  5
94
330
1F
100
AcDbEntity
  8
0
  6
Continuous
 62
     7
370
    15
100
AcDbSpline
210
0.0
220
0.0
230
1.0
 70
     8
 71
     3
 72
    14
 73
    10
 74
     0
 42
0.00000001
 43
0.00000001
 40
0.0
 40
0.0
 40
0.0
 40
0.0
 40
0.125
 40
0.125
 40
0.25
 40
0.25
 40
0.5
 40
0.5
 40
1.0
 40
1.0
 40
1.0
 40
1.0
 10
80.39437456472425
 20
86.35405058205643
 30
0.0
 10
80.44291897338141
 20
86.35979889533672
 30
0.0
 10
80.49583432816631
 20
86.35669800668049
 30
0.0
 10
80.59112967314935
 20
86.33450316251816
 30
0.0
 10
80.63138067043431
 20
86.3172709354223
 30
0.0
 10
80.73565068394727
 20
86.26094301897024
 30
0.0
 10
80.78597265910061
 20
86.21675667302443
 30
0.0
 10
80.91365560662597
 20
86.08574877417381
 30
0.0
 10
80.96974105368825
 20
85.99551425394353
 30
0.0
 10
81.01608744680999
 20
85.90736871977764
 30
0.0
  0
SPLINE
  5
95
330
1F
100
AcDbEntity
  8
0
  6
Continuous
 62
     7
370
    15
100
AcDbSpline
210
0.0
220
0.0
230
1.0
 70
     8
 71
     3
 72
     8
 73
     4
 74
     0
 42
0.00000001
 43
0.00000001
 40
0.0
 40
0.0
 40
0.0
 40
0.0
 40
1.0
 40
1.0
 40
1.0
 40
1.0
 10
78.12584947177797
 20
86.04420529547363
 30
0.0
 10
78.86042649826095
 20
86.16283030654259
 30
0.0
 10
79.62390156765662
 20
86.26281617867889
 30
0.0
 10
80.39437456472425
 20
86.35405058205643
 30
0.0
  0
SPLINE
  5
96
330
1F
100
AcDbEntity
  8
0
  6
Continuous
 62
     7
370
    15
100
AcDbSpline
210
0.0
220
0.0
230
1.0
 70
     8
 71
     3
 72
    14
 73
    10
 74
     0
 42
0.00000001
 43
0.00000001
 40
0.0
 40
0.0
 40
0.0
 40
0.0
 40
0.5000000000000002
 40
0.5000000000000002
 40
0.7500000000000002
 40
0.7500000000000002
 40
0.8750000000000001
 40
0.8750000000000001
 40
1.0
 40
1.0
 40
1.0
 40
1.0
 10
72.84437456472425
 20
85.87058227794199
 30
0.0
 10
73.7365206952778
 20
85.86986005174134
 30
0.0
 10
74.62649713107139
 20
85.8744462581988
 30
0.0
 10
75.95309229814698
 20
85.90217126259034
 30
0.0
 10
76.39393922664571
 20
85.91477780021451
 30
0.0
 10
77.05037946406813
 20
85.94579394822195
 30
0.0
 10
77.26839312066001
 20
85.95813712084873
 30
0.0
 10
77.70110197434276
 20
85.991161176012
 30
0.0
 10
77.91637843950758
 20
86.01037834115046
 30
0.0
 10
78.12584947177797
 20
86.04420529547363
 30
0.0
  0
SPLINE
  5
97
330
1F
100
AcDbEntity
  8
0
  6
Continuous
 62
     7
370
    15
100
AcDbSpline
210
0.0
220
0.0
230
1.0
 70
     8
 71
     3
 72
     8
 73
     4
 74
     0
 42
0.00000001
 43
0.00000001
 40
0.0000005163856711
 40
0.0000005163856711
 40
0.0000005163856711
 40
0.0000005163856711
 40
0.000026289209185
 40
0.000026289209185
 40
0.000026289209185
 40
0.000026289209185
 10
72.83432963430555
 20
85.88056615104989
 30
0.0
 10
72.83765737251701
 20
85.87723190417705
 30
0.0
 10
72.84100582549632
 20
85.87390394689804
 30
0.0
 10
72.84437456472422
 20
85.87058227794198
 30
0.0
  0
SPLINE
  5
98
330
1F
100
AcDbEntity
  8
0
  6
Continuous
 62
     7
370
    15
100
AcDbSpline
210
0.0
220
0.0
230
1.0
 70
     8
 71
     3
 72
     8
 73
     4
 74
     0
 42
0.00000001
 43
0.00000001
 40
0.0000005099763573
 40
0.0000005099763573
 40
0.0000005099763573
 40
0.0000005099763573
 40
0.0000262827998699
 40
0.0000262827998699
 40
0.0000262827998699
 40
0.0000262827998699
 10
72.84437456472423
 20
127.6104578087321
 30
0.0
 10
72.8410058254965
 20
127.6071361397763
 30
0.0
 10
72.83765737251736
 20
127.6038081824974
 30
0.0
 10
72.83432963430603
 20
127.6004739356247
 30
0.0
  0
SPLINE
  5
99
330
1F
100
AcDbEntity
  8
0
  6
Continuous
 62
     7
370
    15
100
AcDbSpline
210
0.0
220
0.0
230
1.0
 70
     8
 71
     3
 72
    10
 73
     6
 74
     0
 42
0.00000001
 43
0.00000001
 40
0.0
 40
0.0
 40
0.0
 40
0.0
 40
0.5
 40
0.5
 40
1.0
 40
1.0
 40
1.0
 40
1.0
 10
76.39437456472426
 20
127.5636074351648
 30
0.0
 10
75.80678901763366
 20
127.5846729554012
 30
0.0
 10
75.21604262417327
 20
127.5954314412734
 30
0.0
 10
74.03202345887442
 20
127.6087962218091
 30
0.0
 10
73.43860947066895
 20
127.6109388644737
 30
0.0
 10
72.84437456472425
 20
127.6104578087321
 30
0.0
  0
SPLINE
  5
9A
330
1F
100
AcDbEntity
  8
0
  6
Continuous
 62
     7
370
    15
100
AcDbSpline
210
0.0
220
0.0
230
1.0
 70
     8
 71
     3
 72
    18
 73
    14
 74
     0
 42
0.00000001
 43
0.00000001
 40
0.0
 40
0.0
 40
0.0
 40
0.0
 40
0.2500000000000008
 40
0.2500000000000008
 40
0.5000000000000009
 40
0.5000000000000009
 40
0.7500000000000009
 40
0.7500000000000009
 40
0.875000000000001
 40
0.875000000000001
 40
0.9375000000000006
 40
0.9375000000000006
 40
1.0
 40
1.0
 40
1.0
 40
1.0
 10
77.79437456472425
 20
128.5846277157001
 30
0.0
 10
77.79437456472427
 20
128.5014208068428
 30
0.0
 10
77.75852546478599
 20
128.4126841515293
 30
0.0
 10
77.63365372875207
 20
128.2305589609691
 30
0.0
 10
77.54325331110421
 20
128.1354289123424
 30
0.0
 10
77.32101065636202
 20
127.9462474032181
 30
0.0
 10
77.19124586991624
 20
127.8513022351234
 30
0.0
 10
76.95060841260475
 20
127.7130235275434
 30
0.0
 10
76.86284111446732
 20
127.6673130942411
 30
0.0
 10
76.70831702726046
 20
127.6094897890196
 30
0.0
 10
76.65170614120572
 20
127.5917750249818
 30
0.0
 10
76.52766211029913
 20
127.5672357217488
 30
0.0
 10
76.45994743528084
 20
127.5612565832106
 30
0.0
 10
76.39437456472425
 20
127.5636074351648
 30
0.0
  0
LINE
  5
9B
330
1F
100
AcDbEntity
  8
0
  6
Continuous
 62
     7
370
    15
100
AcDbLine
 10
77.7943745647
 20
128.5846277157
 30
0.0
 11
77.7943745647
 21
129.7685661355
 31
0.0
  0
SPLINE
  5
9C
330
1F
100
AcDbEntity
  8
0
  6
Continuous
 62
     7
370
    15
100
AcDbSpline
210
0.0
220
0.0
230
1.0
 70
     8
 71
     3
 72
    18
 73
    14
 74
     0
 42
0.00000001
 43
0.00000001
 40
0.0
 40
0.0
 40
0.0
 40
0.0
 40
0.0010671296451833
 40
0.127094779573168
 40
0.2524053457512858
 40
0.3766468878987227
 40
0.4391415999059739
 40
0.5008278021400219
 40
0.5624255708808634
 40
0.6253162439161013
 40
0.749998514470662
 40
0.8752758950341211
 40
1.0
 40
1.0
 40
1.0
 40
1.0
 10
90.36467540479693
 20
83.08318102042071
 30
0.0
 10
90.36376357215842
 20
83.08306624188408
 30
0.0
 10
90.25516461352167
 20
83.06939615701828
 30
0.0
 10
90.64280568117117
 20
83.12031565763378
 30
0.0
 10
91.5087703630067
 20
83.21989883068011
 30
0.0
 10
92.7091742877788
 20
83.28902271382454
 30
0.0
 10
93.76675020226953
 20
83.29297494296198
 30
0.0
 10
94.59388428917492
 20
83.26548600450764
 30
0.0
 10
95.41915615680563
 20
83.20694582809989
 30
0.0
 10
96.47352137680545
 20
83.09342466836436
 30
0.0
 10
97.63535765828072
 20
82.91027384411572
 30
0.0
 10
98.58759243966428
 20
82.70567063448081
 30
0.0
 10
98.71329750047215
 20
82.67638528370473
 30
0.0
 10
98.77601093261737
 20
82.66177501386404
 30
0.0
  0
SPLINE
  5
9D
330
1F
100
AcDbEntity
  8
0
  6
Continuous
 62
     7
370
    15
100
AcDbSpline
210
0.0
220
0.0
230
1.0
 70
     8
 71
     3
 72
    18
 73
    14
 74
     0
 42
0.00000001
 43
0.00000001
 40
0.0
 40
0.0
 40
0.0
 40
0.0
 40
0.1248907792210144
 40
0.2505384020341699
 40
0.3748721840485282
 40
0.4374907653350173
 40
0.4990776265894303
 40
0.5607931536354078
 40
0.6233901338664936
 40
0.7478191038417354
 40
0.8731940995934957
 40
0.9991614644710077
 40
1.0
 40
1.0
 40
1.0
 40
1.0
 10
98.77579216709346
 20
130.8191998922557
 30
0.0
 10
98.7120514143818
 20
130.8045385996576
 30
0.0
 10
98.58418363720531
 20
130.7751271663862
 30
0.0
 10
97.63218441614492
 20
130.5701740623237
 30
0.0
 10
96.47164071094144
 20
130.3869102865127
 30
0.0
 10
95.41937625885339
 20
130.2738826942638
 30
0.0
 10
94.59514914378548
 20
130.2156190467225
 30
0.0
 10
93.76754537426531
 20
130.1881726587183
 30
0.0
 10
92.7087281817802
 20
130.1921574646475
 30
0.0
 10
91.50650948374546
 20
130.2612469410288
 30
0.0
 10
90.64132554405823
 20
130.3608731575857
 30
0.0
 10
90.25518512252772
 20
130.4116892311857
 30
0.0
 10
90.3632566633083
 20
130.3980170511229
 30
0.0
 10
90.36397131322859
 20
130.3979266404346
 30
0.0
  0
SPLINE
  5
9E
330
1F
100
AcDbEntity
  8
0
  6
Continuous
 62
     7
370
    15
100
AcDbSpline
210
0.0
220
0.0
230
1.0
 70
     8
 71
     3
 72
     8
 73
     4
 74
     0
 42
0.00000001
 43
0.00000001
 40
0.0
 40
0.0
 40
0.0
 40
0.0
 40
1.0
 40
1.0
 40
1.0
 40
1.0
 10
71.69437456472357
 20
87.04984229685957
 30
0.0
 10
71.69437456472356
 20
87.03844546844525
 30
0.0
 10
71.6959435810332
 20
87.02886005682734
 30
0.0
 10
71.69868104250163
 20
87.0213829780676
 30
0.0
  0
SPLINE
  5
9F
330
1F
100
AcDbEntity
  8
0
  6
Continuous
 62
     7
370
    15
100
AcDbSpline
210
0.0
220
0.0
230
1.0
 70
     8
 71
     3
 72
    12
 73
     8
 74
     0
 42
0.00000001
 43
0.00000001
 40
0.0
 40
0.0
 40
0.0
 40
0.0
 40
0.0839988866763276
 40
0.3910885625176496
 40
0.7012505400504081
 40
0.8502953555951864
 40
1.0
 40
1.0
 40
1.0
 40
1.0
 10
71.70693102577168
 20
87.00996405214356
 30
0.0
 10
71.70795199710903
 20
87.00835769897556
 30
0.0
 10
71.71270551502451
 20
87.00087871471479
 30
0.0
 10
71.72649738128814
 20
87.00270588331924
 30
0.0
 10
71.74098911455468
 20
87.01757696422082
 30
0.0
 10
71.75130053332445
 20
87.04106926700636
 30
0.0
 10
71.7551226568465
 20
87.05765587677763
 30
0.0
 10
71.75703793944763
 20
87.06596749855633
 30
0.0
  0
LINE
  5
A0
330
1F
100
AcDbEntity
  8
0
  6
Continuous
 62
     7
370
    15
100
AcDbLine
 10
71.6943745647
 20
87.0498422969
 30
0.0
 11
71.6943745647
 21
126.4311977898
 31
0.0
  0
SPLINE
  5
A1
330
1F
100
AcDbEntity
  8
0
  6
Continuous
 62
     7
370
    15
100
AcDbSpline
210
0.0
220
0.0
230
1.0
 70
     8
 71
     3
 72
    10
 73
     6
 74
     0
 42
0.00000001
 43
0.00000001
 40
0.0
 40
0.0
 40
0.0
 40
0.0
 40
0.5
 40
0.5
 40
1.0
 40
1.0
 40
1.0
 40
1.0
 10
71.75703793944766
 20
126.4150725881178
 30
0.0
 10
71.74813365033889
 20
126.460814107331
 30
0.0
 10
71.7316182701459
 20
126.4780049468
 30
0.0
 10
71.70451032408428
 20
126.4776816698643
 30
0.0
 10
71.69437456472424
 20
126.4598041275678
 30
0.0
 10
71.69437456472424
 20
126.4311977898152
 30
0.0
  0
SPLINE
  5
A2
330
1F
100
AcDbEntity
  8
0
  6
Continuous
 62
     7
370
    15
100
AcDbSpline
210
0.0
220
0.0
230
1.0
 70
     8
 71
     3
 72
    26
 73
    22
 74
     0
 42
0.00000001
 43
0.00000001
 40
0.0
 40
0.0
 40
0.0
 40
0.0
 40
0.2500000000000165
 40
0.2500000000000165
 40
0.3750000000000256
 40
0.3750000000000256
 40
0.4375000000000291
 40
0.4375000000000291
 40
0.4687500000000291
 40
0.4687500000000291
 40
0.5000000000000292
 40
0.5000000000000292
 40
0.5312500000000293
 40
0.5312500000000293
 40
0.5625000000000293
 40
0.5625000000000293
 40
0.625000000000026
 40
0.625000000000026
 40
0.7500000000000173
 40
0.7500000000000173
 40
1.0
 40
1.0
 40
1.0
 40
1.0
 10
72.51852821082876
 20
127.1306393769349
 30
0.0
 10
72.47992768796028
 20
127.0128646805795
 30
0.0
 10
72.43363068540602
 20
126.8884749944175
 30
0.0
 10
72.3396913369721
 20
126.683255662064
 30
0.0
 10
72.30437987005864
 20
126.6116827956176
 30
0.0
 10
72.23819989431296
 20
126.4957295630171
 30
0.0
 10
72.21366152764475
 20
126.4551450282069
 30
0.0
 10
72.17028878209095
 20
126.3910033463352
 30
0.0
 10
72.15478038066576
 20
126.3691369210501
 30
0.0
 10
72.11973773607872
 20
126.3235426527069
 30
0.0
 10
72.10018744535896
 20
126.2998723617395
 30
0.0
 10
72.05826016498834
 20
126.2552558023996
 30
0.0
 10
72.0356080547567
 20
126.2343757898816
 30
0.0
 10
71.99463434067007
 20
126.2035023761308
 30
0.0
 10
71.97703504077465
 20
126.1936635062984
 30
0.0
 10
71.9324080549185
 20
126.1746738906023
 30
0.0
 10
71.91184883226518
 20
126.1743495659488
 30
0.0
 10
71.8607233927685
 20
126.183573006825
 30
0.0
 10
71.83981197977995
 20
126.204819903042
 30
0.0
 10
71.78836207221903
 20
126.2787887818728
 30
0.0
 10
71.77069677291448
 20
126.3449068751875
 30
0.0
 10
71.75703793944766
 20
126.4150725881178
 30
0.0
  0
SPLINE
  5
A3
330
1F
100
AcDbEntity
  8
0
  6
Continuous
 62
     7
370
    15
100
AcDbSpline
210
0.0
220
0.0
230
1.0
 70
     8
 71
     3
 72
    10
 73
     6
 74
     0
 42
0.00000001
 43
0.00000001
 40
0.0
 40
0.0
 40
0.0
 40
0.0
 40
0.5
 40
0.5
 40
1.0
 40
1.0
 40
1.0
 40
1.0
 10
72.83432963430604
 20
127.6004739356247
 30
0.0
 10
72.76677037938781
 20
127.532782542815
 30
0.0
 10
72.70313372405131
 20
127.4580753780613
 30
0.0
 10
72.59291296947944
 20
127.2991092456347
 30
0.0
 10
72.54609667625682
 20
127.2147539796267
 30
0.0
 10
72.51852821082875
 20
127.1306393769349
 30
0.0
  0
SPLINE
  5
A4
330
1F
100
AcDbEntity
  8
0
  6
Continuous
 62
     7
370
    15
100
AcDbSpline
210
0.0
220
0.0
230
1.0
 70
     8
 71
     3
 72
    10
 73
     6
 74
     0
 42
0.00000001
 43
0.00000001
 40
0.0
 40
0.0
 40
0.0
 40
0.0
 40
0.5
 40
0.5
 40
1.0
 40
1.0
 40
1.0
 40
1.0
 10
72.51852821082879
 20
86.35040070973909
 30
0.0
 10
72.546005625582
 20
86.2665639132735
 30
0.0
 10
72.59271425586965
 20
86.18225342568667
 30
0.0
 10
72.70299271861161
 20
86.02313219520383
 30
0.0
 10
72.76688025722324
 20
85.94814745111576
 30
0.0
 10
72.83432963430556
 20
85.88056615104989
 30
0.0
  0
SPLINE
  5
A5
330
1F
100
AcDbEntity
  8
0
  6
Continuous
 62
     7
370
    15
100
AcDbSpline
210
0.0
220
0.0
230
1.0
 70
     8
 71
     3
 72
    24
 73
    20
 74
     0
 42
0.00000001
 43
0.00000001
 40
0.0
 40
0.0
 40
0.0
 40
0.0
 40
0.249999999999999
 40
0.249999999999999
 40
0.3749999999999983
 40
0.3749999999999983
 40
0.4374999999999987
 40
0.4374999999999987
 40
0.4687499999999975
 40
0.4687499999999975
 40
0.4999999999999963
 40
0.4999999999999963
 40
0.5624999999999984
 40
0.5624999999999984
 40
0.6250000000000006
 40
0.6250000000000006
 40
0.7500000000000001
 40
0.7500000000000001
 40
1.0
 40
1.0
 40
1.0
 40
1.0
 10
71.75703793944766
 20
87.06596749855633
 30
0.0
 10
71.77079105811787
 20
87.13661755654661
 30
0.0
 10
71.78856362552375
 20
87.20321566931152
 30
0.0
 10
71.8408147170791
 20
87.27731368954474
 30
0.0
 10
71.86184979266066
 20
87.29857149670629
 30
0.0
 10
71.91475020028909
 20
87.30671742285254
 30
0.0
 10
71.935855873167
 20
87.30577761945675
 30
0.0
 10
71.98190804184499
 20
87.2847616278794
 30
0.0
 10
72.00027851382836
 20
87.2738528217718
 30
0.0
 10
72.04183014889409
 20
87.24121791082443
 30
0.0
 10
72.064396821651
 20
87.21972593045305
 30
0.0
 10
72.12717783811101
 20
87.15125998686673
 30
0.0
 10
72.1603075990789
 20
87.10518552866165
 30
0.0
 10
72.21722528556393
 20
87.02017764032698
 30
0.0
 10
72.24141131106768
 20
86.9798973391456
 30
0.0
 10
72.30661926144744
 20
86.86496111267967
 30
0.0
 10
72.3413353216387
 20
86.79437812753264
 30
0.0
 10
72.43455059196957
 20
86.59017236845405
 30
0.0
 10
72.48022312733025
 20
86.46727398612668
 30
0.0
 10
72.51852821082879
 20
86.35040070973912
 30
0.0
  0
LINE
  5
A6
330
1F
100
AcDbEntity
  8
0
  6
Continuous
 62
     7
370
    15
100
AcDbLine
 10
223.5943745647
 20
87.0514962725
 30
0.0
 11
223.5943745647
 21
126.4295438142
 31
0.0
  0
SPLINE
  5
A7
330
1F
100
AcDbEntity
  8
0
  6
Continuous
 62
     7
370
    15
100
AcDbSpline
210
0.0
220
0.0
230
1.0
 70
     8
 71
     3
 72
     8
 73
     4
 74
     0
 42
0.00000001
 43
0.00000001
 40
0.0
 40
0.0
 40
0.0
 40
0.0
 40
1.0
 40
1.0
 40
1.0
 40
1.0
 10
124.9863073962133
 20
137.2077155165013
 30
0.0
 10
124.491167366849
 20
136.321035868321
 30
0.0
 10
123.99708466157
 20
135.433773232635
 30
0.0
 10
123.5043745647242
 20
134.5457542345086
 30
0.0
  0
LINE
  5
A8
330
1F
100
AcDbEntity
  8
0
  6
Continuous
 62
     7
370
    15
100
AcDbLine
 10
124.9863073962
 20
131.1992097057
 30
0.0
 11
124.9863073962
 21
137.2077155165
 31
0.0
  0
SPLINE
  5
A9
330
1F
100
AcDbEntity
  8
0
  6
Continuous
 62
     7
370
    15
100
AcDbSpline
210
0.0
220
0.0
230
1.0
 70
     8
 71
     3
 72
     8
 73
     4
 74
     0
 42
0.00000001
 43
0.00000001
 40
0.0
 40
0.0
 40
0.0
 40
0.0
 40
1.0
 40
1.0
 40
1.0
 40
1.0
 10
123.5043745647242
 20
127.7906637109204
 30
0.0
 10
123.9836527153141
 20
128.931674940773
 30
0.0
 10
124.479220554454
 20
130.0680593515408
 30
0.0
 10
124.9863073962133
 20
131.1992097057045
 30
0.0
  0
LINE
  5
AA
330
1F
100
AcDbEntity
  8
0
  6
Continuous
 62
     7
370
    15
100
AcDbLine
 10
123.5043745647
 20
127.7906637109
 30
0.0
 11
123.5043745647
 21
134.5457542345
 31
0.0
  0
SPLINE
  5
AB
330
1F
100
AcDbEntity
  8
0
  6
Continuous
 62
     7
370
    15
100
AcDbSpline
210
0.0
220
0.0
230
1.0
 70
     8
 71
     3
 72
    10
 73
     6
 74
     0
 42
0.00000001
 43
0.00000001
 40
0.0
 40
0.0
 40
0.0
 40
0.0
 40
0.5
 40
0.5
 40
1.0
 40
1.0
 40
1.0
 40
1.0
 10
129.5443745647242
 20
136.586960367101
 30
0.0
 10
129.5443745647242
 20
136.7473656334518
 30
0.0
 10
129.4821367336174
 20
136.9064274464403
 30
0.0
 10
129.2630018098748
 20
137.1373399120707
 30
0.0
 10
129.1054131148829
 20
137.2077155165013
 30
0.0
 10
128.9443745647242
 20
137.2077155165013
 30
0.0
  0
SPLINE
  5
AC
330
1F
100
AcDbEntity
  8
0
  6
Continuous
 62
     7
370
    15
100
AcDbSpline
210
0.0
220
0.0
230
1.0
 70
     8
 71
     3
 72
    12
 73
     8
 74
     0
 42
0.00000001
 43
0.00000001
 40
0.0
 40
0.0
 40
0.0
 40
0.0
 40
0.2499999999999987
 40
0.2499999999999987
 40
0.4999999999999973
 40
0.4999999999999973
 40
1.0
 40
1.0
 40
1.0
 40
1.0
 10
128.9443745647242
 20
131.1992097057045
 30
0.0
 10
129.0355742865499
 20
131.1992097057045
 30
0.0
 10
129.1261692956859
 20
131.1709900071166
 30
0.0
 10
129.2795820221326
 20
131.0765469998685
 30
0.0
 10
129.3447908894562
 20
131.0102600231632
 30
0.0
 10
129.4975754187962
 20
130.7846351998749
 30
0.0
 10
129.5443745647242
 20
130.6022089368423
 30
0.0
 10
129.5443745647242
 20
130.4214723045955
 30
0.0
  0
LINE
  5
AD
330
1F
100
AcDbEntity
  8
0
  6
Continuous
 62
     7
370
    15
100
AcDbLine
 10
129.5443745647
 20
130.4214723046
 30
0.0
 11
129.5443745647
 21
136.5869603671
 31
0.0
  0
LINE
  5
AE
330
1F
100
AcDbEntity
  8
0
  6
Continuous
 62
     7
370
    15
100
AcDbLine
 10
128.9443745647
 20
137.2077155165
 30
0.0
 11
124.9863073962
 21
137.2077155165
 31
0.0
  0
LINE
  5
AF
330
1F
100
AcDbEntity
  8
0
  6
Continuous
 62
     7
370
    15
100
AcDbLine
 10
124.9863073962
 20
131.1992097057
 30
0.0
 11
128.9443745647
 21
131.1992097057
 31
0.0
  0
LINE
  5
B0
330
1F
100
AcDbEntity
  8
0
  6
Continuous
 62
     7
370
    15
100
AcDbLine
 10
123.5043745647
 20
126.8763866748
 30
0.0
 11
123.5043745647
 21
127.7906637109
 31
0.0
  0
LINE
  5
B1
330
1F
100
AcDbEntity
  8
0
  6
Continuous
 62
     7
370
    15
100
AcDbLine
 10
129.5443745647
 20
130.4214723046
 30
0.0
 11
129.5443745647
 21
126.5905200433
 31
0.0
  0
SPLINE
  5
B2
330
1F
100
AcDbEntity
  8
0
  6
Continuous
 62
     7
370
    15
100
AcDbSpline
210
0.0
220
0.0
230
1.0
 70
     8
 71
     3
 72
     8
 73
     4
 74
     0
 42
0.00000001
 43
0.00000001
 40
0.0
 40
0.0
 40
0.0
 40
0.0
 40
1.0
 40
1.0
 40
1.0
 40
1.0
 10
118.2024417332352
 20
131.1992097057045
 30
0.0
 10
118.7095285749945
 20
130.0680593515408
 30
0.0
 10
119.2050964141344
 20
128.931674940773
 30
0.0
 10
119.6843745647243
 20
127.7906637109204
 30
0.0
  0
LINE
  5
B3
330
1F
100
AcDbEntity
  8
0
  6
Continuous
 62
     7
370
    15
100
AcDbLine
 10
119.6843745647
 20
127.7906637109
 30
0.0
 11
119.6843745647
 21
126.8763866748
 31
0.0
  0
SPLINE
  5
B4
330
1F
100
AcDbEntity
  8
0
  6
Continuous
 62
     7
370
    15
100
AcDbSpline
210
0.0
220
0.0
230
1.0
 70
     8
 71
     3
 72
     8
 73
     4
 74
     0
 42
0.00000001
 43
0.00000001
 40
0.0
 40
0.0
 40
0.0
 40
0.0
 40
1.0
 40
1.0
 40
1.0
 40
1.0
 10
119.6843745647243
 20
134.5457542345087
 30
0.0
 10
119.1916644678785
 20
135.433773232635
 30
0.0
 10
118.6975817625995
 20
136.321035868321
 30
0.0
 10
118.2024417332352
 20
137.2077155165013
 30
0.0
  0
LINE
  5
B5
330
1F
100
AcDbEntity
  8
0
  6
Continuous
 62
     7
370
    15
100
AcDbLine
 10
119.6843745647
 20
127.7906637109
 30
0.0
 11
119.6843745647
 21
134.5457542345
 31
0.0
  0
ARC
  5
B6
330
1F
100
AcDbEntity
  8
0
  6
Continuous
 62
     7
370
    15
100
AcDbCircle
 10
111.6671167639
 20
125.7170191954
 30
0.0
 40
6.969482886954796
100
AcDbArc
 50
70.6394987153
 51
90.5980209361
  0
ARC
  5
B7
330
1F
100
AcDbEntity
  8
0
  6
Continuous
 62
     7
370
    15
100
AcDbCircle
 10
111.5209415283
 20
125.7252996892
 30
0.0
 40
6.961210098037115
100
AcDbArc
 50
89.3955819406
 51
109.4876524552
  0
LINE
  5
B8
330
1F
100
AcDbEntity
  8
0
  6
HIDDEN
 62
     7
370
     0
100
AcDbLine
 10
161.5943745647
 20
100.7405200433
 30
0.0
 11
161.5943745647
 21
112.7405200433
 31
0.0
  0
LINE
  5
B9
330
1F
100
AcDbEntity
  8
0
  6
HIDDEN
 62
     7
370
     0
100
AcDbLine
 10
146.5943745647
 20
100.7405200433
 30
0.0
 11
146.5943745647
 21
112.7405200433
 31
0.0
  0
LINE
  5
BA
330
1F
100
AcDbEntity
  8
0
  6
HIDDEN
 62
     7
370
     0
100
AcDbLine
 10
146.0943745647
 20
101.2405200433
 30
0.0
 11
146.0943745647
 21
112.2405200433
 31
0.0
  0
LINE
  5
BB
330
1F
100
AcDbEntity
  8
0
  6
HIDDEN
 62
     7
370
     0
100
AcDbLine
 10
166.0943745647
 20
105.2405200433
 30
0.0
 11
164.0943745647
 21
105.2405200433
 31
0.0
  0
LINE
  5
BC
330
1F
100
AcDbEntity
  8
0
  6
HIDDEN
 62
     7
370
     0
100
AcDbLine
 10
166.0943745647
 20
101.2405200433
 30
0.0
 11
166.0943745647
 21
105.2405200433
 31
0.0
  0
LINE
  5
BD
330
1F
100
AcDbEntity
  8
0
  6
HIDDEN
 62
     7
370
     0
100
AcDbLine
 10
166.0943745647
 20
108.2405200433
 30
0.0
 11
166.0943745647
 21
112.2405200433
 31
0.0
  0
LINE
  5
BE
330
1F
100
AcDbEntity
  8
0
  6
HIDDEN
 62
     7
370
     0
100
AcDbLine
 10
164.0943745647
 20
108.2405200433
 30
0.0
 11
166.0943745647
 21
108.2405200433
 31
0.0
  0
LINE
  5
BF
330
1F
100
AcDbEntity
  8
0
  6
HIDDEN
 62
     7
370
     0
100
AcDbLine
 10
164.0943745647
 20
105.2405200433
 30
0.0
 11
164.0943745647
 21
108.2405200433
 31
0.0
  0
LINE
  5
C0
330
1F
100
AcDbEntity
  8
0
  6
HIDDEN
 62
     7
370
     0
100
AcDbLine
 10
159.0943745647
 20
108.2405200433
 30
0.0
 11
159.0943745647
 21
106.7405200433
 31
0.0
  0
LINE
  5
C1
330
1F
100
AcDbEntity
  8
0
  6
HIDDEN
 62
     7
370
     0
100
AcDbLine
 10
159.0943745647
 20
106.7405200433
 30
0.0
 11
159.0943745647
 21
105.2405200433
 31
0.0
  0
LINE
  5
C2
330
1F
100
AcDbEntity
  8
0
  6
HIDDEN
 62
     7
370
     0
100
AcDbLine
 10
159.0943745647
 20
106.7405200433
 30
0.0
 11
164.0943745647
 21
106.7405200433
 31
0.0
  0
LINE
  5
C3
330
1F
100
AcDbEntity
  8
0
  6
HIDDEN
 62
     7
370
     0
100
AcDbLine
 10
153.0943745647
 20
106.7405200433
 30
0.0
 11
146.0943745647
 21
106.7405200433
 31
0.0
  0
LINE
  5
C4
330
1F
100
AcDbEntity
  8
0
  6
HIDDEN
 62
     7
370
     0
100
AcDbLine
 10
153.0943745647
 20
105.2405200433
 30
0.0
 11
153.0943745647
 21
106.7405200433
 31
0.0
  0
LINE
  5
C5
330
1F
100
AcDbEntity
  8
0
  6
HIDDEN
 62
     7
370
     0
100
AcDbLine
 10
153.0943745647
 20
106.7405200433
 30
0.0
 11
153.0943745647
 21
108.2405200433
 31
0.0
  0
LINE
  5
C6
330
1F
100
AcDbEntity
  8
0
  6
HIDDEN
 62
     7
370
     0
100
AcDbLine
 10
153.0943745647
 20
103.7405200433
 30
0.0
 11
153.0943745647
 21
105.2405200433
 31
0.0
  0
LINE
  5
C7
330
1F
100
AcDbEntity
  8
0
  6
HIDDEN
 62
     7
370
     0
100
AcDbLine
 10
159.0943745647
 20
105.2405200433
 30
0.0
 11
159.0943745647
 21
103.7405200433
 31
0.0
  0
LINE
  5
C8
330
1F
100
AcDbEntity
  8
0
  6
HIDDEN
 62
     7
370
     0
100
AcDbLine
 10
153.0943745647
 20
108.2405200433
 30
0.0
 11
153.0943745647
 21
109.7405200433
 31
0.0
  0
LINE
  5
C9
330
1F
100
AcDbEntity
  8
0
  6
HIDDEN
 62
     7
370
     0
100
AcDbLine
 10
159.0943745647
 20
109.7405200433
 30
0.0
 11
159.0943745647
 21
108.2405200433
 31
0.0
  0
LINE
  5
CA
330
1F
100
AcDbEntity
  8
0
  6
HIDDEN
 62
     7
370
     0
100
AcDbLine
 10
159.0943745647
 20
109.7405200433
 30
0.0
 11
166.0943745647
 21
109.7405200433
 31
0.0
  0
LINE
  5
CB
330
1F
100
AcDbEntity
  8
0
  6
HIDDEN
 62
     7
370
     0
100
AcDbLine
 10
153.0943745647
 20
109.7405200433
 30
0.0
 11
146.0943745647
 21
109.7405200433
 31
0.0
  0
LINE
  5
CC
330
1F
100
AcDbEntity
  8
0
  6
HIDDEN
 62
     7
370
     0
100
AcDbLine
 10
153.0943745647
 20
103.7405200433
 30
0.0
 11
146.0943745647
 21
103.7405200433
 31
0.0
  0
LINE
  5
CD
330
1F
100
AcDbEntity
  8
0
  6
HIDDEN
 62
     7
370
     0
100
AcDbLine
 10
159.0943745647
 20
103.7405200433
 30
0.0
 11
166.0943745647
 21
103.7405200433
 31
0.0
  0
LINE
  5
CE
330
1F
100
AcDbEntity
  8
0
  6
HIDDEN
 62
     7
370
     0
100
AcDbLine
 10
118.2024417332
 20
131.1992097057
 30
0.0
 11
118.2024417332
 21
126.5905200433
 31
0.0
  0
LWPOLYLINE
  5
CF
330
1F
100
AcDbEntity
  8
0
  6
HIDDEN
 62
     7
370
     0
100
AcDbPolyline
 90
       18
 70
   128
 43
0.0
 10
115.4733151445
 20
120.004650693
 10
115.5885082201
 20
119.3274131693
 10
115.5416806549
 20
118.5578654285
 10
115.310281444
 20
117.8152786412
 10
114.9051305574
 20
117.1343753401
 10
114.3451724001
 20
116.5469938069
 10
113.6565899934
 20
116.0805993492
 10
112.8715806853
 20
115.7570000535
 10
112.0268506384
 20
115.5913270632
 10
111.161898491
 20
115.5913270632
 10
110.3171684442
 20
115.7570000535
 10
109.532159136
 20
116.0805993492
 10
108.8435767293
 20
116.5469938069
 10
108.2836185721
 20
117.1343753401
 10
107.8784676855
 20
117.8152786412
 10
107.6470684746
 20
118.5578654285
 10
107.6002409093
 20
119.3274131693
 10
107.7142957975
 20
120.0006128718
  0
LINE
  5
D0
330
1F
100
AcDbEntity
  8
0
  6
HIDDEN
 62
     7
370
     0
100
AcDbLine
 10
91.5895247693
 20
83.2159204205
 30
0.0
 11
91.0553793402
 21
83.161305821
 31
0.0
  0
LINE
  5
D1
330
1F
100
AcDbEntity
  8
0
  6
HIDDEN
 62
     7
370
     0
100
AcDbLine
 10
90.8177256681
 20
130.3438532239
 30
0.0
 11
91.589432049
 21
130.2651030733
 31
0.0
  0
SPLINE
  5
D2
330
1F
100
AcDbEntity
  8
0
  6
HIDDEN
 62
     7
370
     0
100
AcDbSpline
210
0.0
220
0.0
230
1.0
 70
     8
 71
     3
 72
    32
 73
    28
 74
     0
 42
0.00000001
 43
0.00000001
 40
0.0
 40
0.0
 40
0.0
 40
0.0
 40
0.0346246159901393
 40
0.0694870388940024
 40
0.105100760954932
 40
0.1409753874086759
 40
0.175600572118933
 40
0.2104692408125612
 40
0.2461122854708171
 40
0.2820258067991323
 40
0.3162663828049038
 40
0.3859338563640314
 40
0.4214461814158482
 40
0.4553763558770599
 40
0.5243713305904969
 40
0.559512463821912
 40
0.5937987343035772
 40
0.6635059787021125
 40
0.6990055363805019
 40
0.7337623601246064
 40
0.7687606633024605
 40
0.8045245907686109
 40
0.8405553812432469
 40
0.8751701211305551
 40
0.9456085132854554
 40
0.9815233266320909
 40
1.0
 40
1.0
 40
1.0
 40
1.0
 10
97.34937656632583
 20
86.9029915675206
 30
0.0
 10
97.27737826447942
 20
86.91277951042892
 30
0.0
 10
97.13288716594626
 20
86.93242262126536
 30
0.0
 10
96.89156723168779
 20
86.96187183988707
 30
0.0
 10
96.63226898070215
 20
86.9904222219775
 30
0.0
 10
96.35828156156951
 20
87.01685344093231
 30
0.0
 10
96.073653780548
 20
87.04030591828362
 30
0.0
 10
95.77906882157984
 20
87.06030337474225
 30
0.0
 10
95.47213791261153
 20
87.07645905324597
 30
0.0
 10
95.16040644685907
 20
87.08790104094147
 30
0.0
 10
94.74314089817365
 20
87.09659216863932
 30
0.0
 10
94.32249790481609
 20
87.09530411217911
 30
0.0
 10
93.90909435165062
 20
87.08407630081165
 30
0.0
 10
93.50425038858333
 20
87.06677802873078
 30
0.0
 10
93.11361230402116
 20
87.04106238496256
 30
0.0
 10
92.7448312259799
 20
87.00896907406565
 30
0.0
 10
92.39141344373148
 20
86.97341086556321
 30
0.0
 10
92.06597235341057
 20
86.93416240922761
 30
0.0
 10
91.77659514769321
 20
86.89453089185528
 30
0.0
 10
91.57868127071792
 20
86.865395148713
 30
0.0
 10
91.40135430668042
 20
86.83766091640027
 30
0.0
 10
91.2447449781679
 20
86.81188037214588
 30
0.0
 10
91.11309745846522
 20
86.78927373541171
 30
0.0
 10
90.97123626289348
 20
86.76408769010504
 30
0.0
 10
90.88241767507787
 20
86.74764214098145
 30
0.0
 10
90.84559473652746
 20
86.74074931016524
 30
0.0
 10
90.84701088370065
 20
86.74101429607448
 30
0.0
 10
90.84749194590982
 20
86.74110431122918
 30
0.0
  0
SPLINE
  5
D3
330
1F
100
AcDbEntity
  8
0
  6
HIDDEN
 62
     7
370
     0
100
AcDbSpline
210
0.0
220
0.0
230
1.0
 70
     8
 71
     3
 72
    30
 73
    26
 74
     0
 42
0.00000001
 43
0.00000001
 40
0.0
 40
0.0
 40
0.0
 40
0.0
 40
0.0156161600804338
 40
0.0849748372628083
 40
0.1203204532886746
 40
0.15431851909124
 40
0.2234436946574014
 40
0.2586467089786606
 40
0.2931107206687012
 40
0.3631864361325605
 40
0.3988795186727329
 40
0.4336750628309725
 40
0.468714571210481
 40
0.5045294144990545
 40
0.5406151111978533
 40
0.575076786372292
 40
0.6452033649630279
 40
0.6809575734718862
 40
0.7149323277721686
 40
0.7840330582955269
 40
0.8192378401372485
 40
0.8533347063218408
 40
0.9226550151093995
 40
0.9579547149334489
 40
1.0
 40
1.0
 40
1.0
 40
1.0
 10
90.84749194590982
 20
126.739935775445
 30
0.0
 10
90.84689420682473
 20
126.7400480283266
 30
0.0
 10
90.84364162864809
 20
126.740658848804
 30
0.0
 10
90.8939625310964
 20
126.7311997143468
 30
0.0
 10
90.9942675601377
 20
126.7128948782507
 30
0.0
 10
91.1288845482074
 20
126.6889115728769
 30
0.0
 10
91.31094319323746
 20
126.6578127787304
 30
0.0
 10
91.53786576690273
 20
126.6218936346881
 30
0.0
 10
91.7944521722801
 20
126.583574613549
 30
0.0
 10
92.0924888307528
 20
126.5433294782408
 30
0.0
 10
92.42503808475254
 20
126.5046684548384
 30
0.0
 10
92.6902357901568
 20
126.4772657961072
 30
0.0
 10
92.96929361541576
 20
126.452220959495
 30
0.0
 10
93.26374463130993
 20
126.4300532621995
 30
0.0
 10
93.56660956462618
 20
126.4118911749295
 30
0.0
 10
93.97699555149492
 20
126.3936330699351
 30
0.0
 10
94.39783639044973
 20
126.3847858359307
 30
0.0
 10
94.81774030767869
 20
126.3862512303718
 30
0.0
 10
95.2323548285324
 20
126.3942946235392
 30
0.0
 10
95.63857594800824
 20
126.4118014091384
 30
0.0
 10
96.02810644773018
 20
126.4373667221663
 30
0.0
 10
96.40492714896857
 20
126.4675509578804
 30
0.0
 10
96.75806430867252
 20
126.5034485327279
 30
0.0
 10
97.09981579649413
 20
126.5442668105866
 30
0.0
 10
97.2614895575037
 20
126.566151724153
 30
0.0
 10
97.34937656632583
 20
126.5780485191535
 30
0.0
  0
SPLINE
  5
D4
330
1F
100
AcDbEntity
  8
0
  6
HIDDEN
 62
     7
370
     0
100
AcDbSpline
210
0.0
220
0.0
230
1.0
 70
     8
 71
     3
 72
    15
 73
    11
 74
     0
 42
0.00000001
 43
0.00000001
 40
0.0
 40
0.0
 40
0.0
 40
0.0
 40
0.1100645742760638
 40
0.2209032882131446
 40
0.3341698321404816
 40
0.4482708782881843
 40
0.5583584143959527
 40
0.7822402096973974
 40
0.8962951005420163
 40
1.0
 40
1.0
 40
1.0
 40
1.0
 10
97.34937656632583
 20
126.5780485191535
 30
0.0
 10
97.41697055258436
 20
126.5871167732319
 30
0.0
 10
97.55263394769719
 20
126.605317062993
 30
0.0
 10
97.7330793754056
 20
126.6260381185172
 30
0.0
 10
97.89522813800849
 20
126.6427778030934
 30
0.0
 10
98.03327932919838
 20
126.6553599178507
 30
0.0
 10
98.18491982574696
 20
126.6677387034902
 30
0.0
 10
98.28636684893905
 20
126.6746960771622
 30
0.0
 10
98.3377858632449
 20
126.6779930569701
 30
0.0
 10
98.3417408048052
 20
126.6782383671486
 30
0.0
 10
98.34362428759282
 20
126.6783551925155
 30
0.0
  0
SPLINE
  5
D5
330
1F
100
AcDbEntity
  8
0
  6
HIDDEN
 62
     7
370
     0
100
AcDbSpline
210
0.0
220
0.0
230
1.0
 70
     8
 71
     3
 72
    17
 73
    13
 74
     0
 42
0.00000001
 43
0.00000001
 40
0.0
 40
0.0
 40
0.0
 40
0.0
 40
0.0068975368197966
 40
0.1182483788823964
 40
0.2320134192673967
 40
0.3466132426998996
 40
0.4573400021733688
 40
0.5688392749169557
 40
0.6827828146614425
 40
0.7975760399576465
 40
0.8984903739289846
 40
0.9999999999999999
 40
0.9999999999999999
 40
0.9999999999999999
 40
0.9999999999999999
 10
98.34362771028823
 20
86.80268467793883
 30
0.0
 10
98.34387469872581
 20
86.80266908029624
 30
0.0
 10
98.34810896134888
 20
86.80240168107817
 30
0.0
 10
98.33218591678946
 20
86.80339874990112
 30
0.0
 10
98.29317488563714
 20
86.80591499728642
 30
0.0
 10
98.22472144990432
 20
86.81061268873381
 30
0.0
 10
98.13196981708631
 20
86.8175625341819
 30
0.0
 10
98.01467815548975
 20
86.82729202442385
 30
0.0
 10
97.87184153808651
 20
86.84053902979082
 30
0.0
 10
97.71029214110321
 20
86.85752611870993
 30
0.0
 10
97.53648880179941
 20
86.87781875906721
 30
0.0
 10
97.41186947242129
 20
86.89458419666718
 30
0.0
 10
97.34937656632583
 20
86.9029915675206
 30
0.0
  0
LINE
  5
D6
330
1F
100
AcDbEntity
  8
0
  6
HIDDEN
 62
     7
370
     0
100
AcDbLine
 10
84.5983491609
 20
89.7405200433
 30
0.0
 11
84.5983491609
 21
123.7405200433
 31
0.0
  0
LWPOLYLINE
  5
D7
330
1F
100
AcDbEntity
  8
0
  6
HIDDEN
 62
     7
370
     0
100
AcDbPolyline
 90
       26
 70
   128
 43
0.0
 10
113.9775756928
 20
132.2923877212
 10
114.0150714255
 20
132.2783085894
 10
114.6430227852
 20
131.9808950275
 10
115.1284227425
 20
131.6229393394
 10
115.4485745348
 20
131.221179135
 10
115.5885082201
 20
130.7944002751
 10
115.5416806549
 20
130.3625584649
 10
115.310281444
 20
129.9458461473
 10
114.9051305574
 20
129.5637483273
 10
114.3451724001
 20
129.2341314741
 10
113.6565899934
 20
128.9724081056
 10
112.8715806853
 20
128.7908161156
 10
112.0268506384
 20
128.6978465437
 10
111.161898491
 20
128.6978465437
 10
110.3171684442
 20
128.7908161156
 10
109.532159136
 20
128.9724081056
 10
108.8435767293
 20
129.2341314741
 10
108.2836185721
 20
129.5637483273
 10
107.8784676855
 20
129.9458461473
 10
107.6470684746
 20
130.3625584649
 10
107.6002409093
 20
130.7944002751
 10
107.7401745946
 20
131.221179135
 10
108.0603263869
 20
131.6229393394
 10
108.5457263442
 20
131.9808950275
 10
109.1736777039
 20
132.2783085894
 10
109.1986560328
 20
132.2877257731
  0
SPLINE
  5
D8
330
1F
100
AcDbEntity
  8
0
  6
HIDDEN
 62
     7
370
     0
100
AcDbSpline
210
0.0
220
0.0
230
1.0
 70
     8
 71
     3
 72
    11
 73
     7
 74
     0
 42
0.00000001
 43
0.00000001
 40
0.0
 40
0.0
 40
0.0
 40
0.0
 40
0.0005779865010846
 40
0.0005779865010846
 40
0.0005779865010846
 40
0.0011559733324423
 40
0.0011559733324423
 40
0.0011559733324423
 40
0.0011559733324423
 10
71.69437456472424
 20
108.7403606514969
 30
0.0
 10
71.86104181953021
 20
108.7383770121565
 30
0.0
 10
72.02770824920788
 20
108.7363394051486
 30
0.0
 10
72.19437458765971
 20
108.7342279417428
 30
0.0
 10
72.3610410164861
 20
108.7321164771921
 30
0.0
 10
72.5277073901238
 20
108.7299309140363
 30
0.0
 10
72.69437456472423
 20
108.7276483367052
 30
0.0
  0
SPLINE
  5
D9
330
1F
100
AcDbEntity
  8
0
  6
HIDDEN
 62
     7
370
     0
100
AcDbSpline
210
0.0
220
0.0
230
1.0
 70
     8
 71
     3
 72
    11
 73
     7
 74
     0
 42
0.00000001
 43
0.00000001
 40
0.0
 40
0.0
 40
0.0
 40
0.0
 40
0.0005782382535738
 40
0.0005782382535738
 40
0.0005782382535738
 40
0.0011564766069467
 40
0.0011564766069467
 40
0.0011564766069467
 40
0.0011564766069467
 10
72.69437456472424
 20
104.7438197411194
 30
0.0
 10
72.5277206107556
 20
104.7433821633577
 30
0.0
 10
72.3610599385536
 20
104.7429020986852
 30
0.0
 10
72.19439304988818
 20
104.7423825593158
 30
0.0
 10
72.02772613149214
 20
104.7418630198537
 30
0.0
 10
71.86105300165893
 20
104.7413041908316
 30
0.0
 10
71.69437456472424
 20
104.7407186472484
 30
0.0
  0
LINE
  5
DA
330
1F
100
AcDbEntity
  8
0
  6
HIDDEN
 62
     7
370
     0
100
AcDbLine
 10
111.2542005333
 20
89.7405200433
 30
0.0
 11
111.2542005333
 21
123.7405200433
 31
0.0
  0
LINE
  5
DB
330
1F
100
AcDbEntity
  8
0
  6
HIDDEN
 62
     7
370
     0
100
AcDbLine
 10
113.5443745647
 20
91.0155200433
 30
0.0
 11
113.5443745647
 21
122.4655200006
 31
0.0
  0
SPLINE
  5
DC
330
1F
100
AcDbEntity
  8
0
  6
HIDDEN
 62
     7
370
     0
100
AcDbSpline
210
0.0
220
0.0
230
1.0
 70
     8
 71
     3
 72
    16
 73
    12
 74
     0
 42
0.00000001
 43
0.00000001
 40
0.0
 40
0.0
 40
0.0
 40
0.0
 40
0.124999999999998
 40
0.124999999999998
 40
0.249999999999996
 40
0.249999999999996
 40
0.4999999999999973
 40
0.4999999999999973
 40
0.7499999999999987
 40
0.7499999999999987
 40
1.0
 40
1.0
 40
1.0
 40
1.0
 10
80.39437456472425
 20
90.9390296073054
 30
0.0
 10
80.48949631939007
 20
90.9390296073054
 30
0.0
 10
80.58282638811815
 20
90.93521377391261
 30
0.0
 10
80.76608814885616
 20
90.92044322118278
 30
0.0
 10
80.85696586441316
 20
90.90928517320721
 30
0.0
 10
81.11376756193289
 20
90.86681390306549
 30
0.0
 10
81.2688349268049
 20
90.82576770586269
 30
0.0
 10
81.52258138835951
 20
90.7306215892808
 30
0.0
 10
81.62345184002737
 20
90.67585885519921
 30
0.0
 10
81.7586982547222
 20
90.56459773129535
 30
0.0
 10
81.79437456472424
 20
90.50742799396666
 30
0.0
 10
81.79437456472424
 20
90.45300642093294
 30
0.0
  0
SPLINE
  5
DD
330
1F
100
AcDbEntity
  8
0
  6
HIDDEN
 62
     7
370
     0
100
AcDbSpline
210
0.0
220
0.0
230
1.0
 70
     8
 71
     3
 72
     8
 73
     4
 74
     0
 42
0.00000001
 43
0.00000001
 40
0.0
 40
0.0
 40
0.0
 40
0.0
 40
1.0
 40
1.0
 40
1.0
 40
1.0
 10
72.99437456811742
 20
93.08383255338764
 30
0.0
 10
72.99437456811934
 20
92.1999354110707
 30
0.0
 10
72.98089394220867
 20
91.48535216600875
 30
0.0
 10
72.97954257401933
 20
90.9390296073054
 30
0.0
  0
LINE
  5
DE
330
1F
100
AcDbEntity
  8
0
  6
HIDDEN
 62
     7
370
     0
100
AcDbLine
 10
72.6943745647
 20
97.1396932508
 30
0.0
 11
72.6943745647
 21
94.1087428192
 31
0.0
  0
SPLINE
  5
DF
330
1F
100
AcDbEntity
  8
0
  6
HIDDEN
 62
     7
370
     0
100
AcDbSpline
210
0.0
220
0.0
230
1.0
 70
     8
 71
     3
 72
    10
 73
     6
 74
     0
 42
0.00000001
 43
0.00000001
 40
0.0
 40
0.0
 40
0.0
 40
0.0
 40
0.5
 40
0.5
 40
1.0
 40
1.0
 40
1.0
 40
1.0
 10
72.99437456799096
 20
98.50753366769425
 30
0.0
 10
72.99437456799096
 20
98.26554970006022
 30
0.0
 10
72.96622453891251
 20
98.03120727106999
 30
0.0
 10
72.86263462474153
 20
97.5758322487451
 30
0.0
 10
72.78600591512952
 20
97.35422768561502
 30
0.0
 10
72.69437456472424
 20
97.13969325079782
 30
0.0
  0
LINE
  5
E0
330
1F
100
AcDbEntity
  8
0
  6
HIDDEN
 62
     7
370
     0
100
AcDbLine
 10
72.994374568
 20
110.3451536649
 30
0.0
 11
72.994374568
 21
98.5075336676
 31
0.0
  0
SPLINE
  5
E1
330
1F
100
AcDbEntity
  8
0
  6
HIDDEN
 62
     7
370
     0
100
AcDbSpline
210
0.0
220
0.0
230
1.0
 70
     8
 71
     3
 72
     8
 73
     4
 74
     0
 42
0.00000001
 43
0.00000001
 40
0.0
 40
0.0
 40
0.0
 40
0.0
 40
1.0
 40
1.0
 40
1.0
 40
1.0
 10
72.69437456472424
 20
116.3474593645509
 30
0.0
 10
72.8754060313293
 20
115.9153518788477
 30
0.0
 10
72.99437456799667
 20
115.4612064727014
 30
0.0
 10
72.99437456799097
 20
114.973506418949
 30
0.0
  0
LINE
  5
E2
330
1F
100
AcDbEntity
  8
0
  6
HIDDEN
 62
     7
370
     0
100
AcDbLine
 10
72.6943745647
 20
119.3806623504
 30
0.0
 11
72.6943745647
 21
116.3474593646
 31
0.0
  0
SPLINE
  5
E3
330
1F
100
AcDbEntity
  8
0
  6
HIDDEN
 62
     7
370
     0
100
AcDbSpline
210
0.0
220
0.0
230
1.0
 70
     8
 71
     3
 72
    10
 73
     6
 74
     0
 42
0.00000001
 43
0.00000001
 40
0.0
 40
0.0
 40
0.0
 40
0.0
 40
0.5
 40
0.5
 40
1.0
 40
1.0
 40
1.0
 40
1.0
 10
72.99437456811563
 20
120.3972075332569
 30
0.0
 10
72.99437456811384
 20
120.2325711866513
 30
0.0
 10
72.96721589735884
 20
120.0654159628212
 30
0.0
 10
72.86145090204107
 20
119.7267929550206
 30
0.0
 10
72.78503611374416
 20
119.5545211777301
 30
0.0
 10
72.69437456472426
 20
119.3806623503865
 30
0.0
  0
SPLINE
  5
E4
330
1F
100
AcDbEntity
  8
0
  6
HIDDEN
 62
     7
370
     0
100
AcDbSpline
210
0.0
220
0.0
230
1.0
 70
     8
 71
     3
 72
    18
 73
    14
 74
     0
 42
0.00000001
 43
0.00000001
 40
0.0
 40
0.0
 40
0.0
 40
0.0
 40
0.2500000000000033
 40
0.2500000000000033
 40
0.3750000000000029
 40
0.3750000000000029
 40
0.5000000000000026
 40
0.5000000000000026
 40
0.6250000000000022
 40
0.6250000000000022
 40
0.7500000000000018
 40
0.7500000000000018
 40
1.0
 40
1.0
 40
1.0
 40
1.0
 10
77.79437456472424
 20
123.0280336657412
 30
0.0
 10
77.79437456472424
 20
122.973559145189
 30
0.0
 10
77.75946387333208
 20
122.9171780858365
 30
0.0
 10
77.65745457199901
 20
122.833101244983
 30
0.0
 10
77.61581821732092
 20
122.8057675409921
 30
0.0
 10
77.51741242183216
 20
122.7528136253931
 30
0.0
 10
77.45986921012788
 20
122.726926271676
 30
0.0
 10
77.33257103655492
 20
122.6791487268427
 30
0.0
 10
77.26298373179746
 20
122.6572008086648
 30
0.0
 10
77.1115494866425
 20
122.6177682437521
 30
0.0
 10
77.02886558354857
 20
122.6002119945262
 30
0.0
 10
76.7727541215105
 20
122.5577732291057
 30
0.0
 10
76.58483911762252
 20
122.5420104793687
 30
0.0
 10
76.39437456472425
 20
122.5420104793687
 30
0.0
  0
LINE
  5
E5
330
1F
100
AcDbEntity
  8
0
  6
HIDDEN
 62
     7
370
     0
100
AcDbLine
 10
76.3943745647
 20
122.5420104794
 30
0.0
 11
72.9943745681
 21
122.5420104794
 31
0.0
  0
LINE
  5
E6
330
1F
100
AcDbEntity
  8
0
  6
HIDDEN
 62
     7
370
     0
100
AcDbLine
 10
72.9254055781
 20
90.9390296073
 30
0.0
 11
80.3943745647
 21
90.9390296073
 31
0.0
  0
SPLINE
  5
E7
330
1F
100
AcDbEntity
  8
0
  6
HIDDEN
 62
     7
370
     0
100
AcDbSpline
210
0.0
220
0.0
230
1.0
 70
     8
 71
     3
 72
    22
 73
    18
 74
     0
 42
0.00000001
 43
0.00000001
 40
0.0
 40
0.0
 40
0.0
 40
0.0
 40
0.1249999999999999
 40
0.1249999999999999
 40
0.2499999999999998
 40
0.2499999999999998
 40
0.4999999999999998
 40
0.4999999999999998
 40
0.5624999999999997
 40
0.5624999999999997
 40
0.6249999999999997
 40
0.6249999999999997
 40
0.7499999999999997
 40
0.7499999999999997
 40
0.8749999999999999
 40
0.8749999999999999
 40
1.0
 40
1.0
 40
1.0
 40
1.0
 10
72.92540557808215
 20
90.9390296073054
 30
0.0
 10
72.91232318535378
 20
91.19413531745307
 30
0.0
 10
72.89910362191395
 20
91.48729357655698
 30
0.0
 10
72.8766564441198
 20
92.14959404218179
 30
0.0
 10
72.86717797709537
 20
92.51986796279317
 30
0.0
 10
72.84798001615886
 20
93.74242476590696
 30
0.0
 10
72.84909378915576
 20
94.67956369203881
 30
0.0
 10
72.86800458210884
 20
95.99943492155381
 30
0.0
 10
72.87263410996782
 20
96.27093683053012
 30
0.0
 10
72.88311532971377
 20
96.82932166533242
 30
0.0
 10
72.8889105909982
 20
97.11644452127203
 30
0.0
 10
72.90721981190312
 20
97.98903377564372
 30
0.0
 10
72.9212547461835
 20
98.58948945199958
 30
0.0
 10
72.95071191832034
 20
99.82696394449565
 30
0.0
 10
72.96626760930191
 20
100.4639801011391
 30
0.0
 10
72.99006215929879
 20
101.7754686988237
 30
0.0
 10
72.99808121144413
 20
102.4515913104842
 30
0.0
 10
72.99437456472424
 20
103.1358864217689
 30
0.0
  0
LINE
  5
E8
330
1F
100
AcDbEntity
  8
0
  6
HIDDEN
 62
     7
370
     0
100
AcDbLine
 10
72.9943745681
 20
110.3451536649
 30
0.0
 11
72.9943745681
 21
122.5420104794
 31
0.0
  0
SPLINE
  5
E9
330
1F
100
AcDbEntity
  8
0
  6
HIDDEN
 62
     7
370
     0
100
AcDbSpline
210
0.0
220
0.0
230
1.0
 70
     8
 71
     3
 72
    10
 73
     6
 74
     0
 42
0.00000001
 43
0.00000001
 40
0.0
 40
0.0
 40
0.0
 40
0.0
 40
0.5
 40
0.5
 40
1.0
 40
1.0
 40
1.0
 40
1.0
 10
72.99437456472424
 20
103.1358864217539
 30
0.0
 10
72.99437456472405
 20
103.4098015698281
 30
0.0
 10
72.96861533485554
 20
103.6807431485578
 30
0.0
 10
72.86540940212224
 20
104.2164342301602
 30
0.0
 10
72.78807123824758
 20
104.482181033682
 30
0.0
 10
72.69437456472423
 20
104.7438197411194
 30
0.0
  0
SPLINE
  5
EA
330
1F
100
AcDbEntity
  8
0
  6
HIDDEN
 62
     7
370
     0
100
AcDbSpline
210
0.0
220
0.0
230
1.0
 70
     8
 71
     3
 72
    10
 73
     6
 74
     0
 42
0.00000001
 43
0.00000001
 40
0.0
 40
0.0
 40
0.0
 40
0.0
 40
0.5
 40
0.5
 40
1.0
 40
1.0
 40
1.0
 40
1.0
 10
72.69437456472423
 20
108.7276483367053
 30
0.0
 10
72.78760514611474
 20
108.9915421447748
 30
0.0
 10
72.86263475835172
 20
109.2577224554124
 30
0.0
 10
72.96770185752952
 20
109.7960450303693
 30
0.0
 10
72.99437456811445
 20
110.0687931466144
 30
0.0
 10
72.99437456811563
 20
110.3451536649042
 30
0.0
  0
LINE
  5
EB
330
1F
100
AcDbEntity
  8
0
  6
HIDDEN
 62
     7
370
     0
100
AcDbLine
 10
72.6943745647
 20
104.7438197411
 30
0.0
 11
72.6943745647
 21
108.7276483367
 31
0.0
  0
LINE
  5
EC
330
1F
100
AcDbEntity
  8
0
  6
HIDDEN
 62
     7
370
     0
100
AcDbLine
 10
220.0943745647
 20
90.7405200433
 30
0.0
 11
220.0943745647
 21
122.7405200433
 31
0.0
  0
LINE
  5
ED
330
1F
100
AcDbEntity
  8
0
  6
HIDDEN
 62
     7
370
     0
100
AcDbLine
 10
162.0943745647
 20
90.8405200433
 30
0.0
 11
162.0943745647
 21
122.6405200227
 31
0.0
  0
LINE
  5
EE
330
1F
100
AcDbEntity
  8
0
  6
HIDDEN
 62
     7
370
     0
100
AcDbLine
 10
172.5943745647
 20
90.7405200433
 30
0.0
 11
172.5943745647
 21
122.7405200433
 31
0.0
  0
LINE
  5
EF
330
1F
100
AcDbEntity
  8
0
  6
HIDDEN
 62
     7
370
     0
100
AcDbLine
 10
72.8443745647
 20
88.7505200433
 30
0.0
 11
72.8443745647
 21
85.8705822779
 31
0.0
  0
LINE
  5
F0
330
1F
100
AcDbEntity
  8
0
  6
HIDDEN
 62
     7
370
     0
100
AcDbLine
 10
81.7943745647
 20
88.7505200433
 30
0.0
 11
81.7943745647
 21
84.7767825121
 31
0.0
  0
LINE
  5
F1
330
1F
100
AcDbEntity
  8
0
  6
HIDDEN
 62
     7
370
     0
100
AcDbLine
 10
72.8443745647
 20
124.7305200433
 30
0.0
 11
72.8443745647
 21
127.6104578087
 31
0.0
  0
LINE
  5
F2
330
1F
100
AcDbEntity
  8
0
  6
HIDDEN
 62
     7
370
     0
100
AcDbLine
 10
77.7943745647
 20
124.7305200433
 30
0.0
 11
77.7943745647
 21
128.5846277157
 31
0.0
  0
LINE
  5
F3
330
1F
100
AcDbEntity
  8
0
  6
HIDDEN
 62
     7
370
     0
100
AcDbLine
 10
122.3943745647
 20
97.2405200433
 30
0.0
 11
122.3943745647
 21
116.2405200433
 31
0.0
  0
LINE
  5
F4
330
1F
100
AcDbEntity
  8
0
  6
HIDDEN
 62
     7
370
     0
100
AcDbLine
 10
125.3943745647
 20
97.2405200433
 30
0.0
 11
125.3943745647
 21
116.2405200433
 31
0.0
  0
LINE
  5
F5
330
1F
100
AcDbEntity
  8
0
  6
HIDDEN
 62
     7
370
     0
100
AcDbLine
 10
114.0443745647
 20
98.2405200433
 30
0.0
 11
114.0443745647
 21
115.2405200433
 31
0.0
  0
LINE
  5
F6
330
1F
100
AcDbEntity
  8
0
  6
HIDDEN
 62
     7
370
     0
100
AcDbLine
 10
119.7820493671
 20
80.3405200433
 30
0.0
 11
116.5443745647
 21
80.3405200433
 31
0.0
  0
LINE
  5
F7
330
1F
100
AcDbEntity
  8
0
  6
HIDDEN
 62
     7
370
     0
100
AcDbLine
 10
129.5443745647
 20
80.3405200433
 30
0.0
 11
123.4066997624
 21
80.3405200433
 31
0.0
  0
LINE
  5
F8
330
1F
100
AcDbEntity
  8
0
  6
HIDDEN
 62
     7
370
     0
100
AcDbLine
 10
108.5443745647
 20
75.2563970605
 30
0.0
 11
108.5443745647
 21
80.3405200433
 31
0.0
  0
LINE
  5
F9
330
1F
100
AcDbEntity
  8
0
  6
HIDDEN
 62
     7
370
     0
100
AcDbLine
 10
116.5443745647
 20
80.3405200433
 30
0.0
 11
108.5443745647
 21
80.3405200433
 31
0.0
  0
LINE
  5
FA
330
1F
100
AcDbEntity
  8
0
  6
HIDDEN
 62
     7
370
     0
100
AcDbLine
 10
116.5443745647
 20
133.1405200433
 30
0.0
 11
108.5443745647
 21
133.1405200433
 31
0.0
  0
LINE
  5
FB
330
1F
100
AcDbEntity
  8
0
  6
HIDDEN
 62
     7
370
     0
100
AcDbLine
 10
129.5443745647
 20
133.1405200433
 30
0.0
 11
123.110077033
 21
133.1405200433
 31
0.0
  0
LINE
  5
FC
330
1F
100
AcDbEntity
  8
0
  6
HIDDEN
 62
     7
370
     0
100
AcDbLine
 10
120.0786720964
 20
133.1405200433
 30
0.0
 11
116.5443745647
 21
133.1405200433
 31
0.0
  0
SPLINE
  5
FD
330
1F
100
AcDbEntity
  8
0
  6
HIDDEN
 62
     7
370
     0
100
AcDbSpline
210
0.0
220
0.0
230
1.0
 70
     8
 71
     3
 72
    11
 73
     7
 74
     0
 42
0.00000001
 43
0.00000001
 40
0.0
 40
0.0
 40
0.0
 40
0.0
 40
0.0008203708524183
 40
0.0008203708524183
 40
0.0008203708524183
 40
0.0016409967870154
 40
0.0016409967870154
 40
0.0016409967870154
 40
0.0016409967870154
 10
72.84437456472425
 20
90.88848729269434
 30
0.0
 10
72.65321626442558
 20
90.8473082640752
 30
0.0
 10
72.46178919435339
 20
90.80855429184518
 30
0.0
 10
72.27014357083276
 20
90.77218653256665
 30
0.0
 10
72.07843816575229
 20
90.73580742880063
 30
0.0
 10
71.88649921369334
 20
90.70181317803306
 30
0.0
 10
71.69437456662253
 20
90.67016505264186
 30
0.0
  0
ELLIPSE
  5
FE
330
1F
100
AcDbEntity
  8
0
  6
HIDDEN
 62
     7
370
     0
100
AcDbEllipse
 10
67.4519426961
 20
106.7405200433
 30
0.0
 11
20.19992453368615
 21
-1.421085471520200E-14
 31
0.0
210
0.0
220
0.0
230
1.0
 40
0.8164965809
 41
1.30056635471682
 42
1.359198697208384
  0
LINE
  5
FF
330
1F
100
AcDbEntity
  8
0
  6
HIDDEN
 62
     7
370
     0
100
AcDbLine
 10
81.7943745647
 20
88.7505200433
 30
0.0
 11
81.7943745647
 21
90.4530064209
 31
0.0
  0
LINE
  5
100
330
1F
100
AcDbEntity
  8
0
  6
HIDDEN
 62
     7
370
     0
100
AcDbLine
 10
72.8443745647
 20
88.7505200433
 30
0.0
 11
72.8443745647
 21
90.8884872927
 31
0.0
  0
LINE
  5
101
330
1F
100
AcDbEntity
  8
0
  6
HIDDEN
 62
     7
370
     0
100
AcDbLine
 10
72.9254055781
 20
90.9390296073
 30
0.0
 11
72.8443745647
 21
90.8884872927
 31
0.0
  0
LINE
  5
102
330
1F
100
AcDbEntity
  8
0
  6
HIDDEN
 62
     7
370
     0
100
AcDbLine
 10
72.8443745647
 20
124.7305200433
 30
0.0
 11
72.8443745647
 21
122.6351444944
 31
0.0
  0
SPLINE
  5
103
330
1F
100
AcDbEntity
  8
0
  6
HIDDEN
 62
     7
370
     0
100
AcDbSpline
210
0.0
220
0.0
230
1.0
 70
     8
 71
     3
 72
     8
 73
     4
 74
     0
 42
0.00000001
 43
0.00000001
 40
0.0
 40
0.0
 40
0.0
 40
0.0
 40
1.0
 40
1.0
 40
1.0
 40
1.0
 10
72.84437456472425
 20
122.6351444943947
 30
0.0
 10
72.89438006366736
 20
122.6041087201759
 30
0.0
 10
72.94438013433114
 20
122.5730640751487
 30
0.0
 10
72.99437456811563
 20
122.5420104793687
 30
0.0
  0
LINE
  5
104
330
1F
100
AcDbEntity
  8
0
  6
HIDDEN
 62
     7
370
     0
100
AcDbLine
 10
77.7943745647
 20
124.7305200433
 30
0.0
 11
77.7943745647
 21
123.0280336657
 31
0.0
  0
LINE
  5
105
330
1F
100
AcDbEntity
  8
0
  6
HIDDEN
 62
     7
370
     0
100
AcDbLine
 10
132.81325576
 20
102.5405200433
 30
0.0
 11
132.81325576
 21
110.9405200433
 31
0.0
  0
LINE
  5
106
330
1F
100
AcDbEntity
  8
0
  6
HIDDEN
 62
     7
370
     0
100
AcDbLine
 10
133.5943745647
 20
101.2405200433
 30
0.0
 11
133.5943745647
 21
112.2405200433
 31
0.0
  0
SPLINE
  5
107
330
1F
100
AcDbEntity
  8
0
  6
HIDDEN
 62
     7
370
     0
100
AcDbSpline
210
0.0
220
0.0
230
1.0
 70
     8
 71
     3
 72
    20
 73
    16
 74
     0
 42
0.00000001
 43
0.00000001
 40
0.0
 40
0.0
 40
0.0
 40
0.0
 40
0.1119567450710254
 40
0.1774741936217809
 40
0.2490938430364044
 40
0.3298401376372713
 40
0.3986107033341486
 40
0.4998877393025999
 40
0.6138498230063314
 40
0.6790140150071253
 40
0.7495386380580655
 40
0.8296824623312099
 40
0.898124310213952
 40
0.9995320164510015
 40
1.0
 40
1.0
 40
1.0
 40
1.0
 10
98.34320862656544
 20
83.14052798720691
 30
0.0
 10
98.2998857862539
 20
83.15395699606852
 30
0.0
 10
98.23121027996957
 20
83.17524470425748
 30
0.0
 10
97.78603574002102
 20
83.27855442990499
 30
0.0
 10
97.25947769837727
 20
83.39185760886264
 30
0.0
 10
96.57405260443608
 20
83.51479049187863
 30
0.0
 10
95.68073522549408
 20
83.63682494697797
 30
0.0
 10
94.56737583015584
 20
83.7545612557977
 30
0.0
 10
93.45660175122478
 20
83.76653675728721
 30
0.0
 10
92.57185344982823
 20
83.73947846695148
 30
0.0
 10
91.90465685695979
 20
83.69154640240636
 30
0.0
 10
91.36338435661192
 20
83.63525289005727
 30
0.0
 10
90.97580439867349
 20
83.59016997948973
 30
0.0
 10
90.7818678793407
 20
83.55129680502199
 30
0.0
 10
90.84497034009217
 20
83.56200286233745
 30
0.0
 10
90.84526021212736
 20
83.56205204245794
 30
0.0
  0
LINE
  5
108
330
1F
100
AcDbEntity
  8
0
  6
HIDDEN
 62
     7
370
     0
100
AcDbLine
 10
91.7543864499
 20
83.6728581841
 30
0.0
 11
91.9382317957
 21
83.6910475298
 31
0.0
  0
LINE
  5
109
330
1F
100
AcDbEntity
  8
0
  6
HIDDEN
 62
     7
370
     0
100
AcDbLine
 10
91.9382290958
 20
129.7899231258
 30
0.0
 11
91.764155794
 21
129.8071326538
 31
0.0
  0
SPLINE
  5
10A
330
1F
100
AcDbEntity
  8
0
  6
HIDDEN
 62
     7
370
     0
100
AcDbSpline
210
0.0
220
0.0
230
1.0
 70
     8
 71
     3
 72
    20
 73
    16
 74
     0
 42
0.00000001
 43
0.00000001
 40
0.0
 40
0.0
 40
0.0
 40
0.0
 40
0.0004946589632277
 40
0.1018371071371104
 40
0.1702522823560434
 40
0.2503734734445849
 40
0.320960688057402
 40
0.3861851141808891
 40
0.5002583286498722
 40
0.6012266192050286
 40
0.6697699358141924
 40
0.750241612364073
 40
0.8220500821743805
 40
0.8877210935778218
 40
1.0
 40
1.0
 40
1.0
 40
1.0
 10
90.84530415592296
 20
129.9189197046745
 30
0.0
 10
90.84499696335659
 20
129.918971895544
 30
0.0
 10
90.78175419486607
 20
129.9297166056678
 30
0.0
 10
90.97495605201311
 20
129.8908609574653
 30
0.0
 10
91.36190566304423
 20
129.8458369811076
 30
0.0
 10
91.9029119119535
 20
129.7895741469405
 30
0.0
 10
92.57041233666952
 20
129.7416429229886
 30
0.0
 10
93.4562401421252
 20
129.714569475659
 30
0.0
 10
94.56704673366356
 20
129.7263954753166
 30
0.0
 10
95.6791170955412
 20
129.8438445510778
 30
0.0
 10
96.57021740300364
 20
129.9655489390726
 30
0.0
 10
97.25570185374012
 20
130.0883699846629
 30
0.0
 10
97.78368975427695
 20
130.2018082364314
 30
0.0
 10
98.2310737076961
 20
130.305548792319
 30
0.0
 10
98.29988417443548
 20
130.3269715858187
 30
0.0
 10
98.34330068201413
 20
130.3404884666132
 30
0.0
  0
SPLINE
  5
10B
330
1F
100
AcDbEntity
  8
0
  6
HIDDEN
 62
     7
370
     0
100
AcDbSpline
210
0.0
220
0.0
230
1.0
 70
     8
 71
     3
 72
     8
 73
     4
 74
     0
 42
0.00000001
 43
0.00000001
 40
0.0
 40
0.0
 40
0.0
 40
0.0
 40
0.0001590976954311
 40
0.0001590976954311
 40
0.0001590976954311
 40
0.0001590976954311
 10
72.97954257401935
 20
90.9390296073054
 30
0.0
 10
72.93449110348932
 20
90.91105072296735
 30
0.0
 10
72.88943506504881
 20
90.883079192578
 30
0.0
 10
72.84437456472426
 20
90.85511485321122
 30
0.0
  0
SPLINE
  5
10C
330
1F
100
AcDbEntity
  8
0
  6
HIDDEN
 62
     7
370
     0
100
AcDbSpline
210
0.0
220
0.0
230
1.0
 70
     8
 71
     3
 72
    11
 73
     7
 74
     0
 42
0.00000001
 43
0.00000001
 40
0.0
 40
0.0
 40
0.0
 40
0.0
 40
0.0008212909311426
 40
0.0008212909311426
 40
0.0008212909311426
 40
0.0016428257242999
 40
0.0016428257242999
 40
0.0016428257242999
 40
0.0016428257242999
 10
72.84437456472425
 20
90.8551148532112
 30
0.0
 10
72.65322954324199
 20
90.8118286643656
 30
0.0
 10
72.4618112075655
 20
90.77089215473535
 30
0.0
 10
72.27016513290438
 20
90.7322903833559
 30
0.0
 10
72.07846205136279
 20
90.69367712952592
 30
0.0
 10
71.88651692807736
 20
90.65739692024714
 30
0.0
 10
71.69437456472426
 20
90.62343001390293
 30
0.0
  0
LINE
  5
10D
330
1F
100
AcDbEntity
  8
0
  6
HIDDEN
 62
     7
370
     0
100
AcDbLine
 10
119.6843745647
 20
126.8763866748
 30
0.0
 11
119.6843745647
 21
126.5905200433
 31
0.0
  0
LINE
  5
10E
330
1F
100
AcDbEntity
  8
0
  6
HIDDEN
 62
     7
370
     0
100
AcDbLine
 10
123.5043745647
 20
126.8988608445
 30
0.0
 11
123.5043745647
 21
126.5905200433
 31
0.0
  0
LINE
  5
10F
330
1F
100
AcDbEntity
  8
0
  6
HIDDEN
 62
     7
370
     0
100
AcDbLine
 10
124.9863073962
 20
131.1992097057
 30
0.0
 11
124.9863073962
 21
126.5905200433
 31
0.0
  0
SPLINE
  5
110
330
1F
100
AcDbEntity
  8
0
  6
HIDDEN
 62
     7
370
     0
100
AcDbSpline
210
0.0
220
0.0
230
1.0
 70
     8
 71
     3
 72
    24
 73
    20
 74
     0
 42
0.00000001
 43
0.00000001
 40
0.0
 40
0.0
 40
0.0
 40
0.0
 40
0.249999999999999
 40
0.249999999999999
 40
0.3749999999999983
 40
0.3749999999999983
 40
0.4374999999999987
 40
0.4374999999999987
 40
0.4687499999999975
 40
0.4687499999999975
 40
0.4999999999999963
 40
0.4999999999999963
 40
0.5624999999999984
 40
0.5624999999999984
 40
0.6250000000000006
 40
0.6250000000000006
 40
0.7500000000000001
 40
0.7500000000000001
 40
1.0
 40
1.0
 40
1.0
 40
1.0
 10
71.75703793944766
 20
87.06596749855633
 30
0.0
 10
71.77079105811787
 20
87.13661755654661
 30
0.0
 10
71.78856362552375
 20
87.20321566931152
 30
0.0
 10
71.8408147170791
 20
87.27731368954474
 30
0.0
 10
71.86184979266066
 20
87.29857149670629
 30
0.0
 10
71.91475020028909
 20
87.30671742285254
 30
0.0
 10
71.935855873167
 20
87.30577761945675
 30
0.0
 10
71.98190804184499
 20
87.2847616278794
 30
0.0
 10
72.00027851382836
 20
87.2738528217718
 30
0.0
 10
72.04183014889409
 20
87.24121791082443
 30
0.0
 10
72.064396821651
 20
87.21972593045305
 30
0.0
 10
72.12717783811101
 20
87.15125998686673
 30
0.0
 10
72.1603075990789
 20
87.10518552866165
 30
0.0
 10
72.21722528556393
 20
87.02017764032698
 30
0.0
 10
72.24141131106768
 20
86.9798973391456
 30
0.0
 10
72.30661926144744
 20
86.86496111267967
 30
0.0
 10
72.3413353216387
 20
86.79437812753264
 30
0.0
 10
72.43455059196957
 20
86.59017236845405
 30
0.0
 10
72.48022312733025
 20
86.46727398612668
 30
0.0
 10
72.51852821082879
 20
86.35040070973912
 30
0.0
  0
SPLINE
  5
111
330
1F
100
AcDbEntity
  8
0
  6
HIDDEN
 62
     7
370
     0
100
AcDbSpline
210
0.0
220
0.0
230
1.0
 70
     8
 71
     3
 72
    11
 73
     7
 74
     0
 42
0.00000001
 43
0.00000001
 40
0.0
 40
0.0
 40
0.0
 40
0.0
 40
0.0005781862223979
 40
0.0005781862223979
 40
0.0005781862223979
 40
0.001156372472393
 40
0.001156372472393
 40
0.001156372472393
 40
0.001156372472393
 10
72.69437456472424
 20
119.3806623503865
 30
0.0
 10
72.52771401044863
 20
119.4451918617997
 30
0.0
 10
72.36105071354217
 20
119.509694565643
 30
0.0
 10
72.19438412971193
 20
119.5741810140762
 30
0.0
 10
72.02771753745284
 20
119.6386674657706
 30
0.0
 10
71.86104767182697
 20
119.7031374744982
 30
0.0
 10
71.69437456472421
 20
119.7675932412303
 30
0.0
  0
SPLINE
  5
112
330
1F
100
AcDbEntity
  8
0
  6
HIDDEN
 62
     7
370
     0
100
AcDbSpline
210
0.0
220
0.0
230
1.0
 70
     8
 71
     3
 72
    11
 73
     7
 74
     0
 42
0.00000001
 43
0.00000001
 40
0.0
 40
0.0
 40
0.0
 40
0.0
 40
0.0005778746105071
 40
0.0005778746105071
 40
0.0005778746105071
 40
0.0011557494857152
 40
0.0011557494857152
 40
0.0011557494857152
 40
0.0011557494857152
 10
71.69437456472426
 20
93.71329818784749
 30
0.0
 10
71.86104144113762
 20
93.77911031456127
 30
0.0
 10
72.02770816069908
 20
93.84496879471844
 30
0.0
 10
72.19437480874771
 20
93.91087636766812
 30
0.0
 10
72.36104153326636
 20
93.97678397085753
 30
0.0
 10
72.52770822768693
 20
94.04274107926459
 30
0.0
 10
72.69437456472423
 20
94.10874281920532
 30
0.0
  0
SPLINE
  5
113
330
1F
100
AcDbEntity
  8
0
  6
HIDDEN
 62
     7
370
     0
100
AcDbSpline
210
0.0
220
0.0
230
1.0
 70
     8
 71
     3
 72
    11
 73
     7
 74
     0
 42
0.00000001
 43
0.00000001
 40
0.0000000000000006
 40
0.0000000000000006
 40
0.0000000000000006
 40
0.0000000000000006
 40
0.0005780486062724
 40
0.0005780486062724
 40
0.0005780486062724
 40
0.0011560973514039
 40
0.0011560973514039
 40
0.0011560973514039
 40
0.0011560973514039
 10
71.69437456472424
 20
116.7213345450291
 30
0.0
 10
71.86104442076916
 20
116.6589626835397
 30
0.0
 10
72.02771212485342
 20
116.5966088232666
 30
0.0
 10
72.19437842930706
 20
116.5342892631047
 30
0.0
 10
72.36104477000082
 20
116.471969689392
 30
0.0
 10
72.5277097266296
 20
116.4096844850962
 30
0.0
 10
72.69437456472426
 20
116.347459364551
 30
0.0
  0
SPLINE
  5
114
330
1F
100
AcDbEntity
  8
0
  6
HIDDEN
 62
     7
370
     0
100
AcDbSpline
210
0.0
220
0.0
230
1.0
 70
     8
 71
     3
 72
    11
 73
     7
 74
     0
 42
0.00000001
 43
0.00000001
 40
0.0
 40
0.0
 40
0.0
 40
0.0
 40
0.0005782401583485
 40
0.0005782401583485
 40
0.0005782401583485
 40
0.0011564805960896
 40
0.0011564805960896
 40
0.0011564805960896
 40
0.0011564805960896
 10
72.69437456472424
 20
97.13969325079783
 30
0.0
 10
72.52772361437536
 20
97.0762677927593
 30
0.0
 10
72.36106402179273
 20
97.01291226912686
 30
0.0
 10
72.19439696936418
 20
96.9496146848004
 30
0.0
 10
72.02772983280039
 20
96.88631706852067
 30
0.0
 10
71.86105522535432
 20
96.82307727360417
 30
0.0
 10
71.69437456472424
 20
96.75987726699026
 30
0.0
  0
CIRCLE
  5
115
330
1F
100
AcDbEntity
  8
0
  6
HIDDEN
 62
     7
370
     0
100
AcDbCircle
 10
110.5943745647
 20
106.7405200433
 30
0.0
 40
5.0
  0
LINE
  5
116
330
1F
100
AcDbEntity
  8
0
  6
HIDDEN
 62
     7
370
     0
100
AcDbLine
 10
161.5943745647
 20
100.7405200433
 30
0.0
 11
162.0943745647
 21
101.2405200433
 31
0.0
  0
LINE
  5
117
330
1F
100
AcDbEntity
  8
0
  6
HIDDEN
 62
     7
370
     0
100
AcDbLine
 10
162.0943745647
 20
112.2405200433
 30
0.0
 11
161.5943745647
 21
112.7405200433
 31
0.0
  0
LINE
  5
118
330
1F
100
AcDbEntity
  8
0
  6
HIDDEN
 62
     7
370
     0
100
AcDbLine
 10
146.5943745647
 20
100.7405200433
 30
0.0
 11
161.5943745647
 21
100.7405200433
 31
0.0
  0
LINE
  5
119
330
1F
100
AcDbEntity
  8
0
  6
HIDDEN
 62
     7
370
     0
100
AcDbLine
 10
161.5943745647
 20
112.7405200433
 30
0.0
 11
146.5943745647
 21
112.7405200433
 31
0.0
  0
LINE
  5
11A
330
1F
100
AcDbEntity
  8
0
  6
HIDDEN
 62
     7
370
     0
100
AcDbLine
 10
146.5943745647
 20
112.7405200433
 30
0.0
 11
146.0943745647
 21
112.2405200433
 31
0.0
  0
LINE
  5
11B
330
1F
100
AcDbEntity
  8
0
  6
HIDDEN
 62
     7
370
     0
100
AcDbLine
 10
146.0943745647
 20
101.2405200433
 30
0.0
 11
146.5943745647
 21
100.7405200433
 31
0.0
  0
LINE
  5
11C
330
1F
100
AcDbEntity
  8
0
  6
HIDDEN
 62
     7
370
     0
100
AcDbLine
 10
162.0943745647
 20
101.2405200433
 30
0.0
 11
166.0943745647
 21
101.2405200433
 31
0.0
  0
LINE
  5
11D
330
1F
100
AcDbEntity
  8
0
  6
HIDDEN
 62
     7
370
     0
100
AcDbLine
 10
166.0943745647
 20
112.2405200433
 30
0.0
 11
162.0943745647
 21
112.2405200433
 31
0.0
  0
LINE
  5
11E
330
1F
100
AcDbEntity
  8
0
  6
HIDDEN
 62
     7
370
     0
100
AcDbLine
 10
153.0943745647
 20
103.7405200433
 30
0.0
 11
159.0943745647
 21
103.7405200433
 31
0.0
  0
LINE
  5
11F
330
1F
100
AcDbEntity
  8
0
  6
HIDDEN
 62
     7
370
     0
100
AcDbLine
 10
159.0943745647
 20
109.7405200433
 30
0.0
 11
153.0943745647
 21
109.7405200433
 31
0.0
  0
LINE
  5
120
330
1F
100
AcDbEntity
  8
0
  6
HIDDEN
 62
     7
370
     0
100
AcDbLine
 10
115.5943745647
 20
119.1344606862
 30
0.0
 11
115.5943745647
 21
121.0405393654
 31
0.0
  0
LINE
  5
121
330
1F
100
AcDbEntity
  8
0
  6
HIDDEN
 62
     7
370
     0
100
AcDbLine
 10
107.5943745647
 20
121.0412207851
 30
0.0
 11
107.5943745647
 21
119.1344606862
 31
0.0
  0
LINE
  5
122
330
1F
100
AcDbEntity
  8
0
  6
HIDDEN
 62
     7
370
     0
100
AcDbLine
 10
103.5943745647
 20
81.4165888973
 30
0.0
 11
103.6885353403
 21
82.0865776286
 31
0.0
  0
LINE
  5
123
330
1F
100
AcDbEntity
  8
0
  6
HIDDEN
 62
     7
370
     0
100
AcDbLine
 10
103.6885353403
 20
131.3944624581
 30
0.0
 11
103.5943745647
 21
132.0644511893
 31
0.0
  0
ARC
  5
124
330
1F
100
AcDbEntity
  8
0
  6
HIDDEN
 62
     7
370
     0
100
AcDbCircle
 10
103.0943678121
 20
82.1700824289
 30
0.0
 40
0.6000067526677101
100
AcDbArc
 50
352.0
 51
0.0
  0
ARC
  5
125
330
1F
100
AcDbEntity
  8
0
  6
HIDDEN
 62
     7
370
     0
100
AcDbCircle
 10
103.0943678121
 20
82.1700824289
 30
0.0
 40
0.6000067526677164
100
AcDbArc
 50
0.0
 51
33.5571153394
  0
ARC
  5
126
330
1F
100
AcDbEntity
  8
0
  6
HIDDEN
 62
     7
370
     0
100
AcDbCircle
 10
103.0943678121
 20
131.3109576577
 30
0.0
 40
0.6000067526677169
100
AcDbArc
 50
348.75
 51
8.0
  0
LWPOLYLINE
  5
127
330
1F
100
AcDbEntity
  8
0
  6
HIDDEN
 62
     7
370
     0
100
AcDbPolyline
 90
        3
 70
   128
 43
0.0
 10
103.6828456032
 20
131.1939021471
 10
103.6487017702
 20
131.0813450142
 10
103.5943745647
 20
130.9792931427
  0
LINE
  5
128
330
1F
100
AcDbEntity
  8
0
  6
HIDDEN
 62
     7
370
     0
100
AcDbLine
 10
103.6943745647
 20
82.1700824289
 30
0.0
 11
103.6943745647
 21
131.3109576577
 31
0.0
  0
LINE
  5
129
330
1F
100
AcDbEntity
  8
0
  6
HIDDEN
 62
     7
370
     0
100
AcDbLine
 10
86.67681013
 20
86.7405200433
 30
0.0
 11
90.8474919459
 21
86.7405200433
 31
0.0
  0
LINE
  5
12A
330
1F
100
AcDbEntity
  8
0
  6
HIDDEN
 62
     7
370
     0
100
AcDbLine
 10
90.8474919459
 20
126.7405200433
 30
0.0
 11
86.67681013
 21
126.7405200433
 31
0.0
  0
ARC
  5
12B
330
1F
100
AcDbEntity
  8
0
  6
HIDDEN
 62
     7
370
     0
100
AcDbCircle
 10
97.3493765663
 20
94.7405200433
 30
0.0
 40
8.000000000000016
100
AcDbArc
 50
277.1500659513
 51
321.3178125465
  0
ARC
  5
12C
330
1F
100
AcDbEntity
  8
0
  6
HIDDEN
 62
     7
370
     0
100
AcDbCircle
 10
97.3493765663
 20
118.7405200433
 30
0.0
 40
8.000000000000007
100
AcDbArc
 50
38.6821874535
 51
82.8711307653
  0
ARC
  5
12D
330
1F
100
AcDbEntity
  8
0
  6
HIDDEN
 62
     7
370
     0
100
AcDbCircle
 10
86.67681013
 20
87.3405200433
 30
0.0
 40
0.6000000000000085
100
AcDbArc
 50
210.0
 51
270.0
  0
ARC
  5
12E
330
1F
100
AcDbEntity
  8
0
  6
HIDDEN
 62
     7
370
     0
100
AcDbCircle
 10
86.67681013
 20
126.1405200433
 30
0.0
 40
0.6000000000000227
100
AcDbArc
 50
90.0
 51
150.0
  0
LINE
  5
12F
330
1F
100
AcDbEntity
  8
0
  6
HIDDEN
 62
     7
370
     0
100
AcDbLine
 10
86.1571948878
 20
126.4405200433
 30
0.0
 11
84.5983491609
 21
123.7405200433
 31
0.0
  0
LINE
  5
130
330
1F
100
AcDbEntity
  8
0
  6
HIDDEN
 62
     7
370
     0
100
AcDbLine
 10
84.5983491609
 20
89.7405200433
 30
0.0
 11
86.1571948878
 21
87.0405200433
 31
0.0
  0
LINE
  5
131
330
1F
100
AcDbEntity
  8
0
  6
HIDDEN
 62
     7
370
     0
100
AcDbLine
 10
115.5943745647
 20
130.686122458
 30
0.0
 11
115.5943745647
 21
134.0190203966
 31
0.0
  0
LINE
  5
132
330
1F
100
AcDbEntity
  8
0
  6
HIDDEN
 62
     7
370
     0
100
AcDbLine
 10
107.5943745647
 20
134.0203202625
 30
0.0
 11
107.5943745647
 21
130.686122458
 31
0.0
  0
ARC
  5
133
330
1F
100
AcDbEntity
  8
0
  6
HIDDEN
 62
     7
370
     0
100
AcDbCircle
 10
112.0443745647
 20
91.0155200433
 30
0.0
 40
1.500000000000001
100
AcDbArc
 50
238.2116693829
 51
0.0
  0
ARC
  5
134
330
1F
100
AcDbEntity
  8
0
  6
HIDDEN
 62
     7
370
     0
100
AcDbCircle
 10
112.0443745647
 20
122.4655200433
 30
0.0
 40
1.5
100
AcDbArc
 50
0.0
 51
121.7883306171
  0
ARC
  5
135
330
1F
100
AcDbEntity
  8
0
  6
HIDDEN
 62
     7
370
     0
100
AcDbCircle
 10
223.0943745647
 20
89.7038257953
 30
0.0
 40
0.5
100
AcDbArc
 50
0.0
 51
80.0
  0
ARC
  5
136
330
1F
100
AcDbEntity
  8
0
  6
HIDDEN
 62
     7
370
     0
100
AcDbCircle
 10
223.0943745647
 20
123.7772142914
 30
0.0
 40
0.5
100
AcDbArc
 50
280.0
 51
0.0
  0
LINE
  5
137
330
1F
100
AcDbEntity
  8
0
  6
HIDDEN
 62
     7
370
     0
100
AcDbLine
 10
103.5943745647
 20
89.7405200433
 30
0.0
 11
111.2542005333
 21
89.7405200433
 31
0.0
  0
LINE
  5
138
330
1F
100
AcDbEntity
  8
0
  6
HIDDEN
 62
     7
370
     0
100
AcDbLine
 10
111.2542005333
 20
123.7405200433
 30
0.0
 11
103.5943745647
 21
123.7405200433
 31
0.0
  0
LINE
  5
139
330
1F
100
AcDbEntity
  8
0
  6
HIDDEN
 62
     7
370
     0
100
AcDbLine
 10
81.7943745647
 20
89.7405200433
 30
0.0
 11
84.5983491609
 21
89.7405200433
 31
0.0
  0
LINE
  5
13A
330
1F
100
AcDbEntity
  8
0
  6
HIDDEN
 62
     7
370
     0
100
AcDbLine
 10
84.5983491609
 20
123.7405200433
 30
0.0
 11
77.7943745647
 21
123.7405200433
 31
0.0
  0
LINE
  5
13B
330
1F
100
AcDbEntity
  8
0
  6
HIDDEN
 62
     7
370
     0
100
AcDbLine
 10
223.1811986536
 20
123.2848104149
 30
0.0
 11
220.0943745647
 21
122.7405200433
 31
0.0
  0
LINE
  5
13C
330
1F
100
AcDbEntity
  8
0
  6
HIDDEN
 62
     7
370
     0
100
AcDbLine
 10
220.0943745647
 20
90.7405200433
 30
0.0
 11
223.1811986536
 21
90.1962296718
 31
0.0
  0
LINE
  5
13D
330
1F
100
AcDbEntity
  8
0
  6
HIDDEN
 62
     7
370
     0
100
AcDbLine
 10
162.4943745647
 20
90.4405200433
 30
0.0
 11
171.6996005466
 21
90.4405200433
 31
0.0
  0
LINE
  5
13E
330
1F
100
AcDbEntity
  8
0
  6
HIDDEN
 62
     7
370
     0
100
AcDbLine
 10
171.6996005466
 20
123.0405200433
 30
0.0
 11
162.4943745647
 21
123.0405200433
 31
0.0
  0
ARC
  5
13F
330
1F
100
AcDbEntity
  8
0
  6
HIDDEN
 62
     7
370
     0
100
AcDbCircle
 10
171.6996005466
 20
90.8405200433
 30
0.0
 40
0.4000000000000111
100
AcDbArc
 50
270.0
 51
290.0
  0
ARC
  5
140
330
1F
100
AcDbEntity
  8
0
  6
HIDDEN
 62
     7
370
     0
100
AcDbCircle
 10
171.6996005466
 20
122.6405200433
 30
0.0
 40
0.4000000000000111
100
AcDbArc
 50
70.0
 51
90.0
  0
ARC
  5
141
330
1F
100
AcDbEntity
  8
0
  6
HIDDEN
 62
     7
370
     0
100
AcDbCircle
 10
162.4943745647
 20
90.8405200433
 30
0.0
 40
0.4000000000000057
100
AcDbArc
 50
180.0
 51
270.0
  0
ARC
  5
142
330
1F
100
AcDbEntity
  8
0
  6
HIDDEN
 62
     7
370
     0
100
AcDbCircle
 10
162.4943745647
 20
122.6405200433
 30
0.0
 40
0.4000000000000057
100
AcDbArc
 50
90.0
 51
180.0
  0
LINE
  5
143
330
1F
100
AcDbEntity
  8
0
  6
HIDDEN
 62
     7
370
     0
100
AcDbLine
 10
171.8364086039
 20
90.464642995
 30
0.0
 11
172.5943745647
 21
90.7405200433
 31
0.0
  0
LINE
  5
144
330
1F
100
AcDbEntity
  8
0
  6
HIDDEN
 62
     7
370
     0
100
AcDbLine
 10
172.5943745647
 20
122.7405200433
 30
0.0
 11
171.8364086039
 21
123.0163970917
 31
0.0
  0
LINE
  5
145
330
1F
100
AcDbEntity
  8
0
  6
HIDDEN
 62
     7
370
     0
100
AcDbLine
 10
172.5943745647
 20
90.7405200433
 30
0.0
 11
220.0943745647
 21
90.7405200433
 31
0.0
  0
LINE
  5
146
330
1F
100
AcDbEntity
  8
0
  6
HIDDEN
 62
     7
370
     0
100
AcDbLine
 10
220.0943745647
 20
122.7405200433
 30
0.0
 11
172.5943745647
 21
122.7405200433
 31
0.0
  0
LINE
  5
147
330
1F
100
AcDbEntity
  8
0
  6
HIDDEN
 62
     7
370
     0
100
AcDbLine
 10
122.3943745647
 20
97.2405200433
 30
0.0
 11
125.3943745647
 21
97.2405200433
 31
0.0
  0
LINE
  5
148
330
1F
100
AcDbEntity
  8
0
  6
HIDDEN
 62
     7
370
     0
100
AcDbLine
 10
125.3943745647
 20
116.2405200433
 30
0.0
 11
122.3943745647
 21
116.2405200433
 31
0.0
  0
LINE
  5
149
330
1F
100
AcDbEntity
  8
0
  6
HIDDEN
 62
     7
370
     0
100
AcDbLine
 10
113.5443745647
 20
97.7405200433
 30
0.0
 11
114.0443745647
 21
98.2405200433
 31
0.0
  0
LINE
  5
14A
330
1F
100
AcDbEntity
  8
0
  6
HIDDEN
 62
     7
370
     0
100
AcDbLine
 10
114.0443745647
 20
115.2405200433
 30
0.0
 11
113.5443745647
 21
115.7405200433
 31
0.0
  0
LINE
  5
14B
330
1F
100
AcDbEntity
  8
0
  6
HIDDEN
 62
     7
370
     0
100
AcDbLine
 10
114.0443745647
 20
98.2405200433
 30
0.0
 11
122.3943745647
 21
98.2405200433
 31
0.0
  0
LINE
  5
14C
330
1F
100
AcDbEntity
  8
0
  6
HIDDEN
 62
     7
370
     0
100
AcDbLine
 10
122.3943745647
 20
115.2405200433
 30
0.0
 11
114.0443745647
 21
115.2405200433
 31
0.0
  0
LINE
  5
14D
330
1F
100
AcDbEntity
  8
0
  6
HIDDEN
 62
     7
370
     0
100
AcDbLine
 10
108.5443745647
 20
138.2405200433
 30
0.0
 11
108.5443745647
 21
133.1405200433
 31
0.0
  0
LINE
  5
14E
330
1F
100
AcDbEntity
  8
0
  6
HIDDEN
 62
     7
370
     0
100
AcDbLine
 10
162.0943745647
 20
112.7405200433
 30
0.0
 11
161.5943745647
 21
112.2405200433
 31
0.0
  0
LINE
  5
14F
330
1F
100
AcDbEntity
  8
0
  6
HIDDEN
 62
     7
370
     0
100
AcDbLine
 10
161.5943745647
 20
101.2405200433
 30
0.0
 11
162.0943745647
 21
100.7405200433
 31
0.0
  0
LINE
  5
150
330
1F
100
AcDbEntity
  8
0
  6
HIDDEN
 62
     7
370
     0
100
AcDbLine
 10
133.5943745647
 20
112.2405200433
 30
0.0
 11
132.81325576
 21
110.9405200433
 31
0.0
  0
LINE
  5
151
330
1F
100
AcDbEntity
  8
0
  6
HIDDEN
 62
     7
370
     0
100
AcDbLine
 10
132.81325576
 20
102.5405200433
 30
0.0
 11
133.5943745647
 21
101.2405200433
 31
0.0
  0
LINE
  5
152
330
1F
100
AcDbEntity
  8
0
  6
HIDDEN
 62
     7
370
     0
100
AcDbLine
 10
133.5943745647
 20
101.2405200433
 30
0.0
 11
161.5943745647
 21
101.2405200433
 31
0.0
  0
LINE
  5
153
330
1F
100
AcDbEntity
  8
0
  6
HIDDEN
 62
     7
370
     0
100
AcDbLine
 10
161.5943745647
 20
112.2405200433
 30
0.0
 11
133.5943745647
 21
112.2405200433
 31
0.0
  0
LINE
  5
154
330
1F
100
AcDbEntity
  8
0
  6
HIDDEN
 62
     7
370
     0
100
AcDbLine
 10
98.7788123952
 20
82.6611487098
 30
0.0
 11
98.3443802457
 21
83.1402147289
 31
0.0
  0
LINE
  5
155
330
1F
100
AcDbEntity
  8
0
  6
HIDDEN
 62
     7
370
     0
100
AcDbLine
 10
90.8443769206
 20
83.561902688
 30
0.0
 11
90.3619431773
 21
83.0828367126
 31
0.0
  0
LINE
  5
156
330
1F
100
AcDbEntity
  8
0
  6
HIDDEN
 62
     7
370
     0
100
AcDbLine
 10
90.361821249
 20
130.3981980837
 30
0.0
 11
90.844372
 21
129.9190778258
 31
0.0
  0
LINE
  5
157
330
1F
100
AcDbEntity
  8
0
  6
HIDDEN
 62
     7
370
     0
100
AcDbLine
 10
98.3443744467
 20
130.3407756034
 30
0.0
 11
98.7789168371
 21
130.819895854
 31
0.0
  0
LINE
  5
158
330
1F
100
AcDbEntity
  8
0
  6
HIDDEN
 62
     7
370
     0
100
AcDbLine
 10
125.3943745647
 20
102.5405200433
 30
0.0
 11
132.81325576
 21
102.5405200433
 31
0.0
  0
LINE
  5
159
330
1F
100
AcDbEntity
  8
0
  6
HIDDEN
 62
     7
370
     0
100
AcDbLine
 10
132.81325576
 20
110.9405200433
 30
0.0
 11
125.3943745647
 21
110.9405200433
 31
0.0
  0
LINE
  5
15A
330
1F
100
AcDbEntity
  8
0
  6
HIDDEN
 62
     7
370
     0
100
AcDbLine
 10
98.3443745647
 20
126.678356234
 30
0.0
 11
98.3443745647
 21
130.3402221818
 31
0.0
  0
LINE
  5
15B
330
1F
100
AcDbEntity
  8
0
  6
HIDDEN
 62
     7
370
     0
100
AcDbLine
 10
90.8443745647
 20
129.9188226346
 30
0.0
 11
90.8443745647
 21
126.7399357821
 31
0.0
  0
LINE
  5
15C
330
1F
100
AcDbEntity
  8
0
  6
HIDDEN
 62
     7
370
     0
100
AcDbLine
 10
98.3443745647
 20
83.1406986306
 30
0.0
 11
98.3443745647
 21
86.8026838527
 31
0.0
  0
LINE
  5
15D
330
1F
100
AcDbEntity
  8
0
  6
HIDDEN
 62
     7
370
     0
100
AcDbLine
 10
90.8443745647
 20
86.7411043046
 30
0.0
 11
90.8443745647
 21
83.5622259256
 31
0.0
  0
LINE
  5
15E
330
1F
100
AcDbEntity
  8
0
  6
HIDDEN
 62
     7
370
     0
100
AcDbLine
 10
71.7055349998
 20
87.0093596082
 30
0.0
 11
71.7059307908
 21
87.0089638172
 31
0.0
  0
DIMENSION
  5
15F
330
1F
100
AcDbEntity
  8
VERMASSUNG
100
AcDbDimension
  2
*D1
 10
65.1871072589
 20
75.2405200433
 30
0.0
 11
65.1871072589
 21
106.7405200433
 31
0.0
 70
   160
  1
HSK A %%c<>
 71
     2
 42
-1.0
  3
SLDDIMSTYLE0
100
AcDbAlignedDimension
 13
103.8943745647
 23
138.2405200433
 33
0.0
 14
103.8943745647
 24
75.2405200433
 34
0.0
 50
90.0
100
AcDbRotatedDimension
  0
DIMENSION
  5
16C
330
1F
100
AcDbEntity
  8
VERMASSUNG
100
AcDbDimension
  2
*D2
 10
223.5943745647
 20
142.2471289274
 30
0.0
 11
192.8443745647
 21
142.2471289274
 31
0.0
 70
   160
 71
     2
 42
-1.0
  3
SLDDIMSTYLE1
100
AcDbAlignedDimension
 13
162.0943745647
 23
122.6405200433
 33
0.0
 14
223.5943745647
 24
126.4295438142
 34
0.0
100
AcDbRotatedDimension
  0
DIMENSION
  5
177
330
1F
100
AcDbEntity
  8
VERMASSUNG
100
AcDbDimension
  2
*D3
 10
233.5943745647
 20
122.7405200433
 30
0.0
 11
233.5943745647
 21
106.7405200433
 31
0.0
 70
   160
  1
%%c<>
 71
     2
 42
-1.0
  3
SLDDIMSTYLE2
100
AcDbAlignedDimension
 13
220.0943745647
 23
90.7405200433
 33
0.0
 14
220.0943745647
 24
122.7405200433
 34
0.0
 50
90.0
100
AcDbRotatedDimension
  0
DIMENSION
  5
183
330
1F
100
AcDbEntity
  8
VERMASSUNG
100
AcDbDimension
  2
*D4
 10
239.5943745647
 20
128.7405200433
 30
0.0
 11
239.5943745647
 21
106.7405200433
 31
0.0
 70
   160
  1
%%c<>
 71
     2
 42
-1.0
  3
SLDDIMSTYLE3
100
AcDbAlignedDimension
 13
223.5943745647
 23
84.7405200433
 33
0.0
 14
223.5943745647
 24
128.7405200433
 34
0.0
 50
90.0
100
AcDbRotatedDimension
  0
DIMENSION
  5
18F
330
1F
100
AcDbEntity
  8
VERMASSUNG
100
AcDbDimension
  2
*D5
 10
245.5943745647
 20
132.7405200433
 30
0.0
 11
245.5943745647
 21
106.7405200433
 31
0.0
 70
   160
  1
%%c<>
 71
     2
 42
-1.0
  3
SLDDIMSTYLE3
100
AcDbAlignedDimension
 13
131.0994753474
 23
80.7405200433
 33
0.0
 14
131.0994753474
 24
132.7405200433
 34
0.0
 50
90.0
100
AcDbRotatedDimension
  0
DIMENSION
  5
19A
330
1F
100
AcDbEntity
  8
VERMASSUNG
100
AcDbDimension
  2
*D6
 10
223.5943745647
 20
154.2471289274
 30
0.0
 11
163.5943745647
 21
154.2471289274
 31
0.0
 70
   160
 71
     2
 42
-1.0
  3
SLDDIMSTYLE0
100
AcDbAlignedDimension
 13
103.5943745647
 23
137.9405200433
 33
0.0
 14
223.5943745647
 24
126.4295438142
 34
0.0
100
AcDbRotatedDimension
  0
DIMENSION
  5
1A4
330
1F
100
AcDbEntity
  8
VERMASSUNG
100
AcDbDimension
  2
*D7
 10
223.5943745647
 20
148.2471289274
 30
0.0
 11
176.5693745647
 21
148.2471289274
 31
0.0
 70
   160
 71
     2
 42
-1.0
  3
SLDDIMSTYLE0
100
AcDbAlignedDimension
 13
129.5443745647
 23
136.5869603671
 33
0.0
 14
223.5943745647
 24
126.4295438142
 34
0.0
100
AcDbRotatedDimension
  0
DIMENSION
  5
1AE
330
1F
100
AcDbEntity
  8
VERMASSUNG
100
AcDbDimension
  2
*D8
 10
223.5943745647
 20
160.2471289274
 30
0.0
 11
147.6443745647
 21
160.2471289274
 31
0.0
 70
   160
 71
     2
 42
-1.0
  3
SLDDIMSTYLE0
100
AcDbAlignedDimension
 13
71.6943745647
 23
126.4311977898
 33
0.0
 14
223.5943745647
 24
126.4295438142
 34
0.0
100
AcDbRotatedDimension
  0
LINE
  5
1B8
330
1F
100
AcDbEntity
  8
VERMASSUNG
  6
CENTERX2
370
     0
100
AcDbLine
 10
67.9719393283
 20
106.7405200433
 30
0.0
 11
225.5943745647
 21
106.7405200433
 31
0.0
  0
OLE2FRAME
  5
1B9
330
1F
100
AcDbEntity
  8
0
100
AcDbOle2Frame
 70
     2
  3
Bitmap Image
 10
13.8511154363
 20
38.264191557
 30
0.0
 11
51.6290888628
 21
31.9806341108
 31
0.0
 71
     2
 72
     0
 73
     1
 90
    12928
310
80552BED0767C5B32B40DDAF6807D121434000000000000000006FFBDDFB85D0
310
4940DDAF6807D121434000000000000000006FFBDDFB85D04940416F4BD60AFB
310
3F4000000000000000002BED0767C5B32B40416F4BD60AFB3F40000000000000
310
0000000000000100000000010000010000000100000000000100000000320000
310
D0CF11E0A1B11AE1000000000000000000000000000000003E000300FEFF0900
310
0600000000000000000000000100000001000000000000000010000002000000
310
01000000FEFFFFFF0000000000000000FFFFFFFFFFFFFFFFFFFFFFFFFFFFFFFF
310
FFFFFFFFFFFFFFFFFFFFFFFFFFFFFFFFFFFFFFFFFFFFFFFFFFFFFFFFFFFFFFFF
310
FFFFFFFFFFFFFFFFFFFFFFFFFFFFFFFFFFFFFFFFFFFFFFFFFFFFFFFFFFFFFFFF
310
FFFFFFFFFFFFFFFFFFFFFFFFFFFFFFFFFFFFFFFFFFFFFFFFFFFFFFFFFFFFFFFF
310
FFFFFFFFFFFFFFFFFFFFFFFFFFFFFFFFFFFFFFFFFFFFFFFFFFFFFFFFFFFFFFFF
310
FFFFFFFFFFFFFFFFFFFFFFFFFFFFFFFFFFFFFFFFFFFFFFFFFFFFFFFFFFFFFFFF
310
FFFFFFFFFFFFFFFFFFFFFFFFFFFFFFFFFFFFFFFFFFFFFFFFFFFFFFFFFFFFFFFF
310
FFFFFFFFFFFFFFFFFFFFFFFFFFFFFFFFFFFFFFFFFFFFFFFFFFFFFFFFFFFFFFFF
310
FFFFFFFFFFFFFFFFFFFFFFFFFFFFFFFFFFFFFFFFFFFFFFFFFFFFFFFFFFFFFFFF
310
FFFFFFFFFFFFFFFFFFFFFFFFFFFFFFFFFFFFFFFFFFFFFFFFFFFFFFFFFFFFFFFF
310
FFFFFFFFFFFFFFFFFFFFFFFFFFFFFFFFFFFFFFFFFFFFFFFFFFFFFFFFFFFFFFFF
310
FFFFFFFFFFFFFFFFFFFFFFFFFFFFFFFFFFFFFFFFFFFFFFFFFFFFFFFFFFFFFFFF
310
FFFFFFFFFFFFFFFFFFFFFFFFFFFFFFFFFFFFFFFFFFFFFFFFFFFFFFFFFFFFFFFF
310
FFFFFFFFFFFFFFFFFFFFFFFFFFFFFFFFFFFFFFFFFFFFFFFFFFFFFFFFFFFFFFFF
310
FDFFFFFFFEFFFFFFFEFFFFFFFEFFFFFF05000000060000000700000008000000
310
090000000A0000000B0000000C0000000D0000000E0000000F00000010000000
310
11000000120000001300000014000000150000001600000017000000FEFFFFFF
310
FFFFFFFFFFFFFFFFFFFFFFFFFFFFFFFFFFFFFFFFFFFFFFFFFFFFFFFFFFFFFFFF
310
FFFFFFFFFFFFFFFFFFFFFFFFFFFFFFFFFFFFFFFFFFFFFFFFFFFFFFFFFFFFFFFF
310
FFFFFFFFFFFFFFFFFFFFFFFFFFFFFFFFFFFFFFFFFFFFFFFFFFFFFFFFFFFFFFFF
310
FFFFFFFFFFFFFFFFFFFFFFFFFFFFFFFFFFFFFFFFFFFFFFFFFFFFFFFFFFFFFFFF
310
FFFFFFFFFFFFFFFFFFFFFFFFFFFFFFFFFFFFFFFFFFFFFFFFFFFFFFFFFFFFFFFF
310
FFFFFFFFFFFFFFFFFFFFFFFFFFFFFFFFFFFFFFFFFFFFFFFFFFFFFFFFFFFFFFFF
310
FFFFFFFFFFFFFFFFFFFFFFFFFFFFFFFFFFFFFFFFFFFFFFFFFFFFFFFFFFFFFFFF
310
FFFFFFFFFFFFFFFFFFFFFFFFFFFFFFFFFFFFFFFFFFFFFFFFFFFFFFFFFFFFFFFF
310
FFFFFFFFFFFFFFFFFFFFFFFFFFFFFFFFFFFFFFFFFFFFFFFFFFFFFFFFFFFFFFFF
310
FFFFFFFFFFFFFFFFFFFFFFFFFFFFFFFFFFFFFFFFFFFFFFFFFFFFFFFFFFFFFFFF
310
FFFFFFFFFFFFFFFFFFFFFFFFFFFFFFFFFFFFFFFFFFFFFFFFFFFFFFFFFFFFFFFF
310
FFFFFFFFFFFFFFFFFFFFFFFFFFFFFFFFFFFFFFFFFFFFFFFFFFFFFFFFFFFFFFFF
310
FFFFFFFFFFFFFFFFFFFFFFFFFFFFFFFFFFFFFFFFFFFFFFFFFFFFFFFFFFFFFFFF
310
52006F006F007400200045006E00740072007900000000000000000000000000
310
0000000000000000000000000000000000000000000000000000000000000000
310
16000500FFFFFFFFFFFFFFFF020000000A00030000000000C000000000000046
310
000000000000000000000000407AAFAAAA04CC0103000000C000000000000000
310
01004F006C006500000000000000000000000000000000000000000000000000
310
0000000000000000000000000000000000000000000000000000000000000000
310
0A000200FFFFFFFFFFFFFFFFFFFFFFFF00000000000000000000000000000000
310
0000000000000000000000000000000000000000000000001400000000000000
310
010043006F006D0070004F0062006A0000000000000000000000000000000000
310
0000000000000000000000000000000000000000000000000000000000000000
310
120002010100000003000000FFFFFFFF00000000000000000000000000000000
310
0000000000000000000000000000000000000000010000004D00000000000000
310
01004F006C006500310030004E00610074006900760065000000000000000000
310
0000000000000000000000000000000000000000000000000000000000000000
310
1A000200FFFFFFFFFFFFFFFFFFFFFFFF00000000000000000000000000000000
310
0000000000000000000000000000000000000000040000002426000000000000
310
FEFFFFFF02000000FEFFFFFFFFFFFFFFFFFFFFFFFFFFFFFFFFFFFFFFFFFFFFFF
310
FFFFFFFFFFFFFFFFFFFFFFFFFFFFFFFFFFFFFFFFFFFFFFFFFFFFFFFFFFFFFFFF
310
FFFFFFFFFFFFFFFFFFFFFFFFFFFFFFFFFFFFFFFFFFFFFFFFFFFFFFFFFFFFFFFF
310
FFFFFFFFFFFFFFFFFFFFFFFFFFFFFFFFFFFFFFFFFFFFFFFFFFFFFFFFFFFFFFFF
310
FFFFFFFFFFFFFFFFFFFFFFFFFFFFFFFFFFFFFFFFFFFFFFFFFFFFFFFFFFFFFFFF
310
FFFFFFFFFFFFFFFFFFFFFFFFFFFFFFFFFFFFFFFFFFFFFFFFFFFFFFFFFFFFFFFF
310
FFFFFFFFFFFFFFFFFFFFFFFFFFFFFFFFFFFFFFFFFFFFFFFFFFFFFFFFFFFFFFFF
310
FFFFFFFFFFFFFFFFFFFFFFFFFFFFFFFFFFFFFFFFFFFFFFFFFFFFFFFFFFFFFFFF
310
FFFFFFFFFFFFFFFFFFFFFFFFFFFFFFFFFFFFFFFFFFFFFFFFFFFFFFFFFFFFFFFF
310
FFFFFFFFFFFFFFFFFFFFFFFFFFFFFFFFFFFFFFFFFFFFFFFFFFFFFFFFFFFFFFFF
310
FFFFFFFFFFFFFFFFFFFFFFFFFFFFFFFFFFFFFFFFFFFFFFFFFFFFFFFFFFFFFFFF
310
FFFFFFFFFFFFFFFFFFFFFFFFFFFFFFFFFFFFFFFFFFFFFFFFFFFFFFFFFFFFFFFF
310
FFFFFFFFFFFFFFFFFFFFFFFFFFFFFFFFFFFFFFFFFFFFFFFFFFFFFFFFFFFFFFFF
310
FFFFFFFFFFFFFFFFFFFFFFFFFFFFFFFFFFFFFFFFFFFFFFFFFFFFFFFFFFFFFFFF
310
FFFFFFFFFFFFFFFFFFFFFFFFFFFFFFFFFFFFFFFFFFFFFFFFFFFFFFFFFFFFFFFF
310
FFFFFFFFFFFFFFFFFFFFFFFFFFFFFFFFFFFFFFFFFFFFFFFFFFFFFFFFFFFFFFFF
310
0100000200000000000000000000000000000000000000000000000000000000
310
000000000000000000000000000000000000FF000000FF000000FF000000FF00
310
0100FEFF030A0000FFFFFFFF0A00030000000000C00000000000004607000000
310
5042727573680007000000504272757368000700000050427275736800F439B2
310
71000000000000000000000000000000000000000000FF000000FF000000FF00
310
0000000000000000000000000000000000000000000000000000000000000000
310
0000000000000000000000000000000000000000000000000000000000000000
310
0000000000000000000000000000000000000000000000000000FF0000000000
310
0000000000000000000000000000000000000000000000000000000000000000
310
0000000000000000000000000000000000000000000000000000000000000000
310
0000000000000000000000000000FF000000FF000000FF000000FF000000FF00
310
0000000000000000000000000000000000000000000000000000000000000000
310
0000000000000000000000000000000000000000000000000000000000000000
310
0000000000000000000000000000000000000000000000000000000000000000
310
0000000000000000000000000000000000000000000000000000000000000000
310
0000000000000000000000000000000000000000000000000000000000000000
310
20260000424D0E260000000000003E00000028000000B40200006E0000000100
310
01000000000000000000130B0000130B00000200000002000000000000FFFFFF
310
FFFFFFFFFFFFFFFFFFFFFFFFFFFFFFFFFFFFFFFFFFFFFFFFFFFFFFFFFFFFFFFF
310
FFFFFFFFFFFFFFFFFFFFFFFFFFFFFFFFFFFFFFFFFFFFFFFFFFFFFFFFFFFFFFFF
310
FFFFFFFFFFFFFFFFFFFFFFFFFFFFFFFFFFFFFFFFFFFFFFFFF000FFFFFFFFFFFF
310
FFFFFFFFFFFFFFFFFFFFFFFFFFFFFFFFFFFFFFFFFFFFFFFFFFFFFFFFFFFFFFFF
310
FFFFFFFFFFFFFFFFFFFFFFFFFFFFFFFFFFFFFFFFFFFFFFFFFFFFFFFFFFFFFFFF
310
FFFFFFFFFFFFFFFFFFFFFFFFFFFFFFFFF000FFFFFFFFFFFFFFFFFFFFFFFFFFFF
310
FFFFFFFFFFFFFFFFFFFFFFFFFFFFFFFFFFFFFFFFFFFFFFFFFFFFFFFFFFFFFFFF
310
FFFFFFFFFFFFFFFFFFFFFFFFFFFFFFFFFFFFFFFFFFFFFFFFFFFFFFFFFFFFFFFF
310
FFFFFFFFFFFFFFFFF000FFFFFFFFFFFFFFFFFFFFFFFFFFFFFFFFFFFFFFFFFFFF
310
FFFFFFFFFFFFFFFFFFFFFFFFFFFFFFFFFFFFFFFFFFFFFFFFFFFFFFFFFFFFFFFF
310
FFFFFFFFFFFFFFFFFFFFFFFFFFFFFFFFFFFFFFFFFFFFFFFFFFFFFFFFFFFFFFFF
310
F000FFFFFFFFFFFFFFFFFFFFFFFFFFFFFFFFFFFFFFFFFFFFFFFFFFFFFFFFFFFF
310
FFFFFFFFFFFFFFFFFFFFFFFFFFFFFFFFFFFFFFFFFFFFFFFFFFFFFFFFFFFFFFFF
310
FFFFFFFFFFFFFFFFFFFFFFFFFFFFFFFFFFFFFFFFFFFFFFFFF000FFFFFFFFFFFF
310
FFFFFFFFFFFFFFFFFFFFFFFFFFFFFFFFFFFFFFFFFFFFFFFFFFFFFFFFFFFFFFFF
310
FFFFFFFFFFFFFFFFFFFFFFFFFFFFFFFFFFFFFFFFFFFFFFFFFFFFFFFFFFFFFFFF
310
FFFFFFFFFFFFFFFFFFFFFFFFFFFFFFFFF000FFFFFFFFFFFFFFFFFFFFFFFFFFFF
310
FFFFFFFFFFFFFFFFFFFFFFFFFFFFFFFFFFFFFFFFFFFFFFFFFFFFFFFFFFFFFFFF
310
FFFFFFFFFFFFFFFFFFFFFFFFFFFFFFFFFFFFFFFFFFFFFFFFFFFFFFFFFFFFFFFF
310
FFFFFFFFFFFFFFFFF000FFFFFFFFFFFFFFFFFFFFFFFFFFFFFFFFFFFFFFFFFFFF
310
FFFFFFFFFFFFFFFFFFFFFFFFFFFFFFFFFFFFFFFFFFFFFFFFFFFFFFFFFFFFFFFF
310
FFFFFFFFFFFFFFFFFFFFFFFFFFFFFFFFFFFFFFFFFFFFFFFFFFFFFFFFFFFFFFFF
310
F000FFFFFFFFFFFFFFFFFFFFFFFFFFFFFFFFFFFFFFFFFFFFFFFFFFFFFFFFFFFF
310
FFFFFFFFFFFFFFFFFFFFFFFFFFFFFFFFFFFFFFFFFFFFFFFFFFFFFFFFFFFFFFFF
310
FFFFFFFFFFFFFFFFFFFFFFFFFFFFFFFFFFFFFFFFFFFFFFFFF000FFFFFFFFFFFF
310
FFFFFFFFFFFFFFFFFFFFFFFFFFFFFFFFFFFFFFFFFFFFFFFFFFFFFFFFFFFFFFFF
310
FFFFFFFFFFFFFFFFFFFFFFFFFFFFFFFFFFFFFFFFFFFFFFFFFFFFFFFFFFFFFFFF
310
FFFFFFFFFFFFFFFFFFFFFFFFFFFFFFFFF000FFFFFFFFFFFFFFFFFFFFFFFFFFFF
310
FFFFFFFFFFFFFFFFFFFFFFFFFFFFFFFFFFFFFFFFFFFFFFFFFFFFFFFFFFFFFFFF
310
FFFFFFFFFFFFFFFFFFFFFFFFFFFFFFFFFFFFFFFFFFFFFFFFFFFFFFFFFFFFFFFF
310
FFFFFFFFFFFFFFFFF000FFFFFFFFFFFFFFFFFFFFFFFFFFFFFFFFFFFFFFFFFFFF
310
FFFFFFFFFFFFFFFFFFFFFFFFFFFFFFFFFFFFFFFFFFFFFFFFFFFFFFFFFFFFFFFF
310
FFFFFFFFFFFFFFFFFFFFFFFFFFFFFFFFFFFFFFFFFFFFFFFFFFFFFFFFFFFFFFFF
310
F000FFFFFFFFFFFFFFFFFFFFFFFFFFFFFFFFFFFFFFFFFFFFFFFFFFFFFFFFFFFF
310
FFFFFFFFFFFFFFFFFFFFFFFFFFFFFFFFFFFFFFFFFFFFFFFFFFFFFFFFFFFFFFFF
310
FFFFFFFFFFFFFFFFFFFFFFFFFFFFFFFFFFFFFFFFFFFFFFFFF000FFFFFFFFFFFF
310
FFFFFFFFFFFFFFFFFFFFFFFFFFFFFFFFFFFFFFFFFFFFFFFFFFFFFFFFFFFFFFFF
310
FFFFFFFFFFFFFFFFFFFFFFFFFFFFFFFFFFFFFFFFFFFFFFFFFFFFFFFFFFFFFFFF
310
FFFFFFFFFFFFFFFFFFFFFFFFFFFFFFFFF000FFFFFFFFFFFFFFFFFFFFFFFFFFFF
310
FFFFFFFFFFFFFFFFFFFFFFFFFFFFFFFFFFFFFFFFFFFFFFFFFFFFFFFFFFFFFFFF
310
FFFFFFFFFFFFFFFFFFFFFFFFFFFFFFFFFFFFFFFFFFFFFFFFFFFFFFFFFFFFFFFF
310
FFFFFFFFFFFFFFFFF000FFFFFFFFFFFFFFFFFFFFFFFFFFFFFFFFFFFFFFFFFFFF
310
FFFFFFFFFFFFFFFFFFFFFFFFFFFFFFFFFFFFFFFFFFFFFFFFFFFFFFFFFFFFFFFF
310
FFFFFFFFFFFFFFFFFFFFFFFFFFFFFFFFFFFFFFFFFFFFFFFFFFFFFFFFFFFFFFFF
310
F000FFFFFFFFFFFFFFFFFFFFFFFFFFFFFFFFFFFFFFFFFFFFFFFFFFFFFFFFFFFF
310
FFFFFFFFFFFFFFFFFFFFFFFFFFFFFFFFFFFFFFFFFFFFFFFFFFFFFFFFFFFFFFFF
310
FFFFFFFFFFFFFFFFFFFFFFFFFFFFFFFFFFFFFFFFFFFFFFFFF000FFFFFFFFFFFF
310
FFFFFFFFFFFFFFFFFFFFFFFFFFFFFFFFFFFFFFFFFFFFFFFFFFFFFFFFFFFFFFFF
310
FFFFFFFFFFFFFFFFFFFFFFFFFFFFFFFFFFFFFFFFFFFFFFFFFFFFFFFFFFFFFFFF
310
FFFFFFFFFFFFFFFFFFFFFFFFFFFFFFFFF000FFFFFFFFFFFFFFFFFFFFFFFFFFFF
310
FFFFFFFFFFFFFFFFFFFFFFFFFFFFFFFFFFFFFFFFFFFFFFFFFFFFFFFFFFFFFFFF
310
FFFFFFFFFFFFFFFFFFFFFFFFFFFFFFFFFFFFFFFFFFFFFFFFFFFFFFFFFFFFFFFF
310
FFFFFFFFFFFFFFFFF000FFFFF80003FFFFFFFFFFFFFFFFFFFFFFFFFFFFFFFFFF
310
FFFFF00007FFFFFFFFFF00007FFFFFF800000000000000007FFFFFFFFFFFFFFF
310
FFFFFFFC001FFFFFFFFFFFFFFC001FFFFFFFFFFFFFFFFFFFFFFFFFFE0007FFFF
310
F000FFFF8000007FFFFFFFF8000FFFFFC0007FFFFF80007FFFFF0000007FFFFF
310
FFF8000007FFFFF800000000000000007FFFFFF0001FFFFFFFFFFFC00001FFFF
310
FFFFFFFFC00001FFFFFFFF000000000003FFFFE000007FFFF000FFFE0000000F
310
FFFFFFF0000FFFFF80007FFFFF80007FFFFC0000001FFFFFFFC0000001FFFFF8
310
00000000000000007FFFFFF0001FFFFFFFFFFE0000003FFFFFFFFFFE0000003F
310
FFFFFF000000000003FFFF0000000FFFF000FFF800000003FFFFFFF00007FFFF
310
80007FFFFF80007FFFF000000007FFFFFF000000003FFFF80000000000000000
310
7FFFFFF0001FFFFFFFFFF80000000FFFFFFFFFF80000000FFFFFFF0000000000
310
03FFFC00000003FFF000FFE000000000FFFFFFF00007FFFF80003FFFFF80007F
310
FFC000000001FFFFFC000000001FFFF800000000000000007FFFFFF0001FFFFF
310
FFFFE000000003FFFFFFFFE000000003FFFFFF000000000003FFF000000000FF
310
F000FF80000000007FFFFFF00007FFFF80003FFFFF80007FFF8000000000FFFF
310
F80000000007FFF800000000000000007FFFFFF0001FFFFFFFFFC000000001FF
310
FFFFFFC000000001FFFFFF000000000003FFC0000000007FF000FF0000000000
310
3FFFFFE00007FFFF00003FFFFF80007FFE00000000003FFFF00000000003FFF8
310
00000000000000007FFFFFF0001FFFFFFFFF8000000000FFFFFFFF8000000000
310
FFFFFF000000000003FF80000000003FF000FE00000000001FFFFFE00003FFFF
310
00003FFFFF80007FFC00000000001FFFE00000000001FFF8000001FFFE000000
310
7FFFFFF0001FFFFFFFFE00000000003FFFFFFE00000000003FFFFF0000000000
310
03FF00000000001FF000FC00000000000FFFFFE00003FFFF00001FFFFF80007F
310
F800000000001FFFC00000000000FFF8000001FFFE0000007FFFFFF0001FFFFF
310
FFFC00000000001FFFFFFC00000000001FFFFF000000000003FE00000000000F
310
F000F8000000000007FFFFE00003FFFF00001FFFFF80007FF800000000000FFF
310
800000000000FFF8000001FFFE0000007FFFFFF0001FFFFFFFF800000000000F
310
FFFFF800000000000FFFFF000000000003FC000000000007F000F80000000000
310
03FFFFC00003FFFE00001FFFFF80007FF0000000000007FF0000000000007FF8
310
000001FFFE0000007FFFFFF0001FFFFFFFF0000000000007FFFFF00000000000
310
07FFFF000000000003F8000000000003F000F0000000000003FFFFC00001FFFE
310
00001FFFFF80007FE0000000000007FE0000000000003FF8000001FFFE000000
310
7FFFFFF0001FFFFFFFF0000000000007FFFFF0000000000007FFFF0000000000
310
03F800001F800003F000E00001FFF00001FFFFC00001FFFE00000FFFFF80007F
310
E00001FFE00003FE00001FFF00003FF8000001FFFE0000007FFFFFF0001FFFFF
310
FFE000003E000003FFFFE000003E000003FFFF000000000003F00001FFF80001
310
F000E00007FFFC0001FFFFC00001FFFE00000FFFFF80007FC0000FFFFC0003FC
310
0000FFFFC0001FF8000001FFFE0000007FFFFFF0001FFFFFFFC00003FFE00001
310
FFFFC00003FFE00001FFFF0001FFFFFFFFF00007FFFE0001F000E0000FFFFF00
310
00FFFF800001FFFC00000FFFFF80007FC0001FFFFE0001FC0001FFFFE0001FF8
310
000001FFFE0000007FFFFFF0001FFFFFFF80000FFFF80000FFFF80000FFFF800
310
00FFFF0003FFFFFFFFE0000FFFFF8000F000C0003FFFFF8000FFFF800000FFFC
310
000007FFFF80007F80003FFFFF0001FC0003FFFFF0001FF8000001FFFE000000
310
7FFFFFF0001FFFFFFF80003FFFFE0000FFFF80003FFFFE0000FFFF0003FFFFFF
310
FFE0003FFFFF8000F000C0003FFFFF8000FFFF800000FFFC000007FFFF80007F
310
80007FFFFF8001F80007FFFFF8000FF8000001FFFE0000007FFFFFF0001FFFFF
310
FF00007FFFFF00007FFF00007FFFFF00007FFF0003FFFFFFFFE0003FFFFFC000
310
F000C0007FFFFFC000FFFF000000FFFC000007FFFF80007F8000FFFFFF8000F8
310
000FFFFFF8000FF8000001FFFE0000007FFFFFF0001FFFFFFF0000FFFFFF8000
310
7FFF0000FFFFFF80007FFF0003FFFFFFFFC0007FFFFFC00070008000FFFFFFC0
310
00FFFF000000FFF8000007FFFF80007F8000FFFFFF8000F8000FFFFFF8000FF8
310
000001FFFE0000007FFFFFF0001FFFFFFE0001FFFFFFC0003FFE0001FFFFFFC0
310
003FFF0003FFFFFFFFC0007FFFFFE00070008000FFFFFFC0007FFF0000007FF8
310
000003FFFF80007F0001FFFFFF8000F8000FFFFFF8000FF8000001FFFE000000
310
7FFFFFF0001FFFFFFE0001FFFFFFC0003FFE0001FFFFFFC0003FFF0003FFFFFF
310
FFC000FFFFFFE00070008000FFFFFFC0007FFF0000007FF8000003FFFF80007F
310
0001FFFFFF8000F8001FFFFFF8000FF8000001FFFE0000007FFFFFF0001FFFFF
310
FE0003FFFFFFE0003FFE0003FFFFFFE0003FFF0003FFFFFFFFC000FFFFFFE000
310
70008000FFFFFFC0007FFE0000007FF8000003FFFF80007F0001FFFFFF8000F0
310
001FFFFFF8000FF8000001FFFE0000007FFFFFF0001FFFFFFC0003FFFFFFE000
310
1FFC0003FFFFFFE0001FFF0003FFFFFFFFC000FFFFFFC00070008000FFFFFF80
310
007FFE0000007FF0000003FFFF80007F0001FFFFFF0000F0001FFFFFF8000FF8
310
000001FFFE0000007FFFFFF0001FFFFFFC0007FFFFFFF0001FFC0007FFFFFFF0
310
001FFF0003FFFFFFFFC000FFFFFFC00070008001FFFFFF0000FFFE0000003FF0
310
000001FFFF80007F0001FFFFFF0000F8001FFFFFF0000FF8000001FFFE000000
310
7FFFFFF0001FFFFFFC0007FFFFFFF0001FFC0007FFFFFFF0001FFF0003FFFFFF
310
FFC001FFFFFF80007000FFFFFFFFFE0000FFFE0008003FF0008001FFFF80007F
310
FFFFFFFFFC0000FFFFFFFFFFE0000FF8000001FFFE0000007FFFFFF0001FFFFF
310
F8000FFFFFFFF8000FF8000FFFFFFFF8000FFF0003FFFFFFFFFFFFFFFFFF0000
310
7000FFFFFFFFFC0000FFFC0008003FF0008001FFFF80007FFFFFFFFFF80001FF
310
FFFFFFFF80000FF8000001FFFE0000007FFFFFF0001FFFFFF8000FFFFFFFF800
310
0FF8000FFFFFFFF8000FFF0003FFFFFFFFFFFFFFFFFE0000F000FFFFFFFFE000
310
00FFFC000C003FE000C001FFFF80007FFFFFFFFFC00001FFFFFFFFFE00001FF8
310
000001FFFE0000007FFFFFF0001FFFFFF8000FFFFFFFF8000FF8000FFFFFFFF8
310
000FFF0003FFFFFFFFFFFFFFFFF00000F000FFFFFFFE000001FFFC000C001FE0
310
00C000FFFF80007FFFFFFFFE000001FFFFFFFFE000001FF80FFFFFFFFFFFFFC0
310
7FFFFFF0001FFFFFF8000FFFFFFFF8000FF8000FFFFFFFF8000FFF0003FFFFFF
310
FFFFFFFFFF800000F000FFFFFFC0000001FFFC001C001FE001C000FFFF80007F
310
FFFFFF80000003FFFFFFF80000001FF80FFFFFFFFFFFFFC07FFFFFF0001FFFFF
310
F8001FFFFFFFFC000FF8001FFFFFFFFC000FFF0003FFFFFFFFFFFFFFF0000001
310
F000FFFFF800000001FFF8001C001FE001C000FFFF80007FFFFFF800000003FF
310
FFFF800000003FF80FFFFFFFFFFFFFC07FFFFFF0001FFFFFF8001FFFFFFFFC00
310
0FF8001FFFFFFFFC000FFF0003FFFFFFFFFFFFFE00000001F000FFFFC0000000
310
03FFF8001E001FC001E000FFFF80007FFFFF8000000007FFFFFC000000003FF8
310
0FFFFFFFFFFFFFC07FFFFFF0001FFFFFF8001FFFFFFFFC000FF8001FFFFFFFFC
310
000FFF0003FFFFFFFFFFFFE000000003F000FFFE0000000007FFF8001E000FC0
310
01E0007FFF80007FFFFE0000000007FFFFE0000000007FF80FFFFFFFFFFFFFC0
310
7FFFFFF0001FFFFFF0001FFFFFFFFC0007F0001FFFFFFFFC0007FF0003FFFFFF
310
FFFFFF0000000003F000FFF80000000007FFF8001E000FC003E0007FFF80007F
310
FFF0000000000FFFFF8000000000FFF80FFFFFFFFFFFFFC07FFFFFF0001FFFFF
310
F0001FFFFFFFFC0007F0001FFFFFFFFC0007FF0003FFFFFFFFFFFC0000000007
310
F000FFE0000000000FFFF0003E000FC003E0007FFF80007FFFC0000000001FFF
310
FE0000000001FFF80FFFFFFFFFFFFFC07FFFFFF0001FFFFFF0001FFFFFFFFC00
310
07F0001FFFFFFFFC0007FF0003FFFFFFFFFFF0000000000FF000FFC000000000
310
1FFFF0003F000F8003F0003FFF80007FFF80000000003FFFF80000000003FFF8
310
0FFFFFFFFFFFFFC07FFFFFF0001FFFFFF0001FFFFFFFFC0007F0001FFFFFFFFC
310
0007FF0003FFFFFFFFFFE0000000001FF000FF00000000007FFFF0003F000780
310
03F0003FFF80007FFF00000000007FFFF00000000007FFF80FFFFFFFFFFFFFC0
310
7FFFFFF0001FFFFFF0001FFFFFFFFC0007F0001FFFFFFFFC0007FF0003FFFFFF
310
FFFF80000000007FF000FE0000000000FFFFE0003F00078007F0003FFF80007F
310
FE0000000001FFFFE0000000001FFFF80FFFFFFFFFFFFFC07FFFFFF0001FFFFF
310
F0001FFFFFFFFC0007F0001FFFFFFFFC0007FF0003FFFFFFFFFF0000000000FF
310
F000FC0000000003FFFFE0007F00078007F0003FFF80007FFC0000000007FFFF
310
C0000000007FFFF80FFFFFFFFFFFFFC07FFFFFF0001FFFFFF8001FFFFFFFFC00
310
0FF8001FFFFFFFFC000FFF0003FFFFFFFFFE0000000003FFF000FC000000000F
310
FFFFE0007F80070007F8001FFF80007FF8000000001FFFFF8000000001FFFFF8
310
0FFFFFFFFFFFFFC07FFFFFF0001FFFFFF8001FFFFFFFFC000FF8001FFFFFFFFC
310
000FFF0003FFFFFFFFFC000000000FFFF000F8000000007FFFFFE0007F800700
310
07F8001FFF80007FF000000000FFFFFF800000000FFFFFF80FFFFFFFFFFFFFC0
310
7FFFFFF0001FFFFFF8000FFFFFFFF8000FF8000FFFFFFFF8000FFF0003FFFFFF
310
FFFC000000007FFFF000F800000007FFFFFFC0007F8003000FF8001FFF80007F
310
F000000007FFFFFF000000007FFFFFF80FFFFFFFFFFFFFC07FFFFFF0001FFFFF
310
F8000FFFFFFFF8000FF8000FFFFFFFF8000FFF0003FFFFFFFFF80000000FFFFF
310
F000F0000000FFFFFFFFC000FF8003000FF8001FFF80007FE0000000FFFFFFFF
310
0000000FFFFFFFF8000001FFFE0000007FFFFFF0001FFFFFF8000FFFFFFFF800
310
0FF8000FFFFFFFF8000FFF0003FFFFFFFFF8000000FFFFFFF000F000000FFFFF
310
FFFFC000FFC002000FF8000FFF80007FE000001FFFFFFFFE000001FFFFFFFFF8
310
000001FFFE0000007FFFFFF0001FFFFFF8000FFFFFFFF8000FF8000FFFFFFFF8
310
000FFF0003FFFFFFFFF000001FFFFFFFF000E00000FFFFFFFFFFC000FFC00200
310
0FFC000FFF80007FE00001FFFFFFFFFE00001FFFFFFFFFF8000001FFFE000000
310
7FFFFFF0001FFFFFFC000FFFFFFFF8001FFC000FFFFFFFF8001FFF0003FFFFFF
310
FFF00001FFFFFFFFF000E00007FFFFFFFFFF8000FFC000001FFC000FFF80007F
310
C0000FFFFFFFFFFE0000FFFFFFFFFFF8000001FFFE0000007FFFFFF0001FFFFF
310
FC0007FFFFFFF0001FFC0007FFFFFFF0001FFF0003FFFFFFFFF00007FFFFFFFF
310
F000E0001FFFFFFFFFFF8000FFC000001FFC000FFF80007FC0003FFFFFFFFFFE
310
0001FFFFFFFFFFF8000001FFFE0000007FFFFFF0001FFFFFFC0007FFFFFFF000
310
1FFC0007FFFFFFF0001FFF0003FFFFFFFFF0001FFFFFFFFFF000E0003FFFFF00
310
03FF8001FFE000001FFC0007FF80007FC0007FFFFF0007FC0003FFFFF0003FF8
310
000001FFFE0000007FFFFFF0001FFFFFFC0003FFFFFFE0001FFC0003FFFFFFE0
310
001FFF0003FFFFFFFFF0003FFFFFFFFFF000E0003FFFFF0001FF8001FFE00000
310
1FFE0007FF80007FC0007FFFFE0003FC0007FFFFE0003FF8000001FFFE000000
310
7FFFFFF0001FFFFFFE0003FFFFFFE0003FFE0003FFFFFFE0003FFF0003FFFFFF
310
FFF0003FFFFF8001F000E0003FFFFF0001FF0001FFE000001FFE0007FF80007F
310
C0007FFFFE0003FC0007FFFFE0003FF8000001FFFE0000007FFFFFF0001FFFFF
310
FE0001FFFFFFC0003FFE0001FFFFFFC0003FFF0003FFFFFFFFF0003FFFFF0001
310
F000E0003FFFFF0003FF0001FFE000003FFE0007FF80007FC0007FFFFE0003FC
310
0007FFFFE0003FF8000001FFFE0000007FFFFFF0001FFFFFFF0001FFFFFFC000
310
7FFF0001FFFFFFC0007FFF0003FFFFFFFFF0003FFFFF0001F000E0003FFFFE00
310
03FF0003FFF000003FFE0003FF80007FC0007FFFFC0003FE0007FFFFE0003FF8
310
000001FFFE0000007FFFFFF0001FFFFFFF0000FFFFFF80007FFF0000FFFFFF80
310
007FFF0003FFFFFFFFF0003FFFFF0001F000E0003FFFFE0003FF0003FFF00000
310
3FFF0003FF80007FC0007FFFFC0007FE0007FFFFC0003FF8000001FFFE000000
310
7FFFFFF0001FFFFFFF80007FFFFF0000FFFF80007FFFFF0000FFFF0003FFFFFF
310
FFF0003FFFFF0003F000E0003FFFFC0003FE0003FFF000003FFF0003FF80007F
310
E0003FFFF80007FE0003FFFFC0007FF8000001FFFE0000007FFFFFF0001FFFFF
310
FF80003FFFFE0000FFFF80003FFFFE0000FFFF0003FFFFFFFFF0001FFFFE0003
310
F000F0001FFFF80003FE0003FFF000007FFF0001FF80007FE0003FFFF00007FE
310
0001FFFF80007FF8000001FFFE0000007FFFFFF0001FFFFFFFC0000FFFF80001
310
FFFFC0000FFFF80001FFFF0003FFFFFFFFF0001FFFFC0003F000F0000FFFF000
310
07FE0007FFF800007FFF0001FF80007FE0001FFFE00007FF0000FFFE00007FF8
310
000001FFFE0000007FFFFFF0001FFFFFFFC00003FFE00001FFFFC00003FFE000
310
01FFFF0003FFFFFFFFF8000FFFF80003F000F00003FFC00007FC0007FFF80000
310
7FFF8001FF80007FF00007FF80000FFF00007FF80000FFF8000001FFFE000000
310
7F80000000000001FFE000003E000003FFFFE000003E000003FFFF0003FFFFFF
310
FFF80003FFE00007F000F800000000000FFC0007FFF800007FFF8001FF80007F
310
F000000000000FFF000000000000FFF8000001FFFE0000007F80000000000001
310
FFF0000000000007FFFFF0000000000007FFFF0003FFFFFFFFFC00007E000007
310
F000F800000000000FFC0007FFF80000FFFF8000FF80007FF800000000001FFF
310
800000000001FFF8000001FFFE0000007F80000000000001FFF800000000000F
310
FFFFF800000000000FFFFF0003FFFFFFFFFC00000000000FF000FC0000000000
310
1FFC0007FFFC0000FFFF8000FF80007FF800000000003FFFC00000000001FFF8
310
000001FFFE0000007F80000000000001FFF800000000000FFFFFF80000000000
310
0FFFFF0003FFFFFFFFFE00000000001FF000FE00000000003FF8000FFFFC0000
310
FFFF8000FF80007FFC00000000003FFFC00000000003FFF8000001FFFE000000
310
7F80000000000001FFFC00000000001FFFFFFC00000000001FFFFF0003FFFFFF
310
FFFF00000000001FF000FF00000000003FF8000FFFFC0000FFFFC000FF80007F
310
FE00000000007FFFE00000000007FFF8000001FFFE0000007F80000000000001
310
FFFE00000000003FFFFFFE00000000003FFFFF0003FFFFFFFFFF80000000003F
310
F000FF80000000007FF8000FFFFC0001FFFFC0007F80007FFF0000000000FFFF
310
F0000000000FFFF800000000000000007F80000000000001FFFF8000000000FF
310
FFFFFF8000000000FFFFFF0003FFFFFFFFFFC0000000007FF000FFC000000000
310
FFF8000FFFFE0001FFFFC0007F80007FFF8000000001FFFFF8000000001FFFF8
310
00000000000000007F80000000000001FFFFC000000001FFFFFFFFC000000001
310
FFFFFF0003FFFFFFFFFFE000000000FFF000FFE000000003FFF0001FFFFE0001
310
FFFFC0007F80007FFFC000000007FFFFFE000000003FFFF80000000000000000
310
7F80000000000001FFFFE000000003FFFFFFFFE000000003FFFFFF0003FFFFFF
310
FFFFF000000003FFF000FFF80000000FFFF0001FFFFE0001FFFFE0007F80007F
310
FFF00000000FFFFFFF00000000FFFFF800000000000000007F80000000000001
310
FFFFF80000000FFFFFFFFFF80000000FFFFFFF0003FFFFFFFFFFFC0000000FFF
310
F000FFFE0000003FFFF0001FFFFE0003FFFFE0003F80007FFFFC0000003FFFFF
310
FFC0000003FFFFF800000000000000007F80000000000001FFFFFE0000003FFF
310
FFFFFFFE0000003FFFFFFF0003FFFFFFFFFFFF0000003FFFF000FFFF800000FF
310
FFF0001FFFFF0003FFFFE0003F80007FFFFF000001FFFFFFFFF800001FFFFFF8
310
00000000000000007F80000000000001FFFFFFC00001FFFFFFFFFFFFC00001FF
310
FFFFFF0003FFFFFFFFFFFFC00000FFFFF000FFFFF8000FFFFFFFFFFFFFFFFFFF
310
FFFFFFFFFFFFFFFFFFFFF0001FFFFFFFFFFF0000FFFFFFF80000000000000000
310
7FFFFFFFFFFFFFFFFFFFFFFC001FFFFFFFFFFFFFFC001FFFFFFFFFFFFFFFFFFF
310
FFFFFFFC001FFFFFF000FFFFFFFFFFFFFFFFFFFFFFFFFFFFFFFFFFFFFFFFFFFF
310
FFFFFFFFFFFFFFFFFFFFFFFFFFFFFFFFFFFFFFFFFFFFFFFFFFFFFFFFFFFFFFFF
310
FFFFFFFFFFFFFFFFFFFFFFFFFFFFFFFFFFFFFFFFFFFFFFFFFFFFFFFFFFFFFFFF
310
F000FFFFFFFFFFFFFFFFFFFFFFFFFFFFFFFFFFFFFFFFFFFFFFFFFFFFFFFFFFFF
310
FFFFFFFFFFFFFFFFFFFFFFFFFFFFFFFFFFFFFFFFFFFFFFFFFFFFFFFFFFFFFFFF
310
FFFFFFFFFFFFFFFFFFFFFFFFFFFFFFFFFFFFFFFFFFFFFFFFF000FFFFFFFFFFFF
310
FFFFFFFFFFFFFFFFFFFFFFFFFFFFFFFFFFFFFFFFFFFFFFFFFFFFFFFFFFFFFFFF
310
FFFFFFFFFFFFFFFFFFFFFFFFFFFFFFFFFFFFFFFFFFFFFFFFFFFFFFFFFFFFFFFF
310
FFFFFFFFFFFFFFFFFFFFFFFFFFFFFFFFF000FFFFFFFFFFFFFFFFFFFFFFFFFFFF
310
FFFFFFFFFFFFFFFFFFFFFFFFFFFFFFFFFFFFFFFFFFFFFFFFFFFFFFFFFFFFFFFF
310
FFFFFFFFFFFFFFFFFFFFFFFFFFFFFFFFFFFFFFFFFFFFFFFFFFFFFFFFFFFFFFFF
310
FFFFFFFFFFFFFFFFF000FFFFFFFFFFFFFFFFFFFFFFFFFFFFFFFFFFFFFFFFFFFF
310
FFFFFFFFFFFFFFFFFFFFFFFFFFFFFFFFFFFFFFFFFFFFFFFFFFFFFFFFFFFFFFFF
310
FFFFFFFFFFFFFFFFFFFFFFFFFFFFFFFFFFFFFFFFFFFFFFFFFFFFFFFFFFFFFFFF
310
F000FFFFFFFFFFFFFFFFFFFFFFFFFFFFFFFFFFFFFFFFFFFFFFFFFFFFFFFFFFFF
310
FFFFFFFFFFFFFFFFFFFFFFFFFFFFFFFFFFFFFFFFFFFFFFFFFFFFFFFFFFFFFFFF
310
FFFFFFFFFFFFFFFFFFFFFFFFFFFFFFFFFFFFFFFFFFFFFFFFF000FFFFFFFFFFFF
310
FFFFFFFFFFFFFFFFFFFFFFFFFFFFFFFFFFFFFFFFFFFFFFFFFFFFFFFFFFFFFFFF
310
FFFFFFFFFFFFFFFFFFFFFFFFFFFFFFFFFFFFFFFFFFFFFFFFFFFFFFFFFFFFFFFF
310
FFFFFFFFFFFFFFFFFFFFFFFFFFFFFFFFF000FFFFFFFFFFFFFFFFFFFFFFFFFFFF
310
FFFFFFFFFFFFFFFFFFFFFFFFFFFFFFFFFFFFFFFFFFFFFFFFFFFFFFFFFFFFFFFF
310
FFFFFFFFFFFFFFFFFFFFFFFFFFFFFFFFFFFFFFFFFFFFFFFFFFFFFFFFFFFFFFFF
310
FFFFFFFFFFFFFFFFF000FFFFFFFFFFFFFFFFFFFFFFFFFFFFFFFFFFFFFFFFFFFF
310
FFFFFFFFFFFFFFFFFFFFFFFFFFFFFFFFFFFFFFFFFFFFFFFFFFFFFFFFFFFFFFFF
310
FFFFFFFFFFFFFFFFFFFFFFFFFFFFFFFFFFFFFFFFFFFFFFFFFFFFFFFFFFFFFFFF
310
F000FFFFFFFFFFFFFFFFFFFFFFFFFFFFFFFFFFFFFFFFFFFFFFFFFFFFFFFFFFFF
310
FFFFFFFFFFFFFFFFFFFFFFFFFFFFFFFFFFFFFFFFFFFFFFFFFFFFFFFFFFFFFFFF
310
FFFFFFFFFFFFFFFFFFFFFFFFFFFFFFFFFFFFFFFFFFFFFFFFF000FFFFFFFFFFFF
310
FFFFFFFFFFFFFFFFFFFFFFFFFFFFFFFFFFFFFFFFFFFFFFFFFFFFFFFFFFFFFFFF
310
FFFFFFFFFFFFFFFFFFFFFFFFFFFFFFFFFFFFFFFFFFFFFFFFFFFFFFFFFFFFFFFF
310
FFFFFFFFFFFFFFFFFFFFFFFFFFFFFFFFF000FFFFFFFFFFFFFFFFFFFFFFFFFFFF
310
FFFFFFFFFFFFFFFFFFFFFFFFFFFFFFFFFFFFFFFFFFFFFFFFFFFFFFFFFFFFFFFF
310
FFFFFFFFFFFFFFFFFFFFFFFFFFFFFFFFFFFFFFFFFFFFFFFFFFFFFFFFFFFFFFFF
310
FFFFFFFFFFFFFFFFF000FFFFFFFFFFFFFFFFFFFFFFFFFFFFFFFFFFFFFFFFFFFF
310
FFFFFFFFFFFFFFFFFFFFFFFFFFFFFFFFFFFFFFFFFFFFFFFFFFFFFFFFFFFFFFFF
310
FFFFFFFFFFFFFFFFFFFFFFFFFFFFFFFFFFFFFFFFFFFFFFFFFFFFFFFFFFFFFFFF
310
F000FFFFFFFFFFFFFFFFFFFFFFFFFFFFFFFFFFFFFFFFFFFFFFFFFFFFFFFFFFFF
310
FFFFFFFFFFFFFFFFFFFFFFFFFFFFFFFFFFFFFFFFFFFFFFFFFFFFFFFFFFFFFFFF
310
FFFFFFFFFFFFFFFFFFFFFFFFFFFFFFFFFFFFFFFFFFFFFFFFF000FFFFFFFFFFFF
310
FFFFFFFFFFFFFFFFFFFFFFFFFFFFFFFFFFFFFFFFFFFFFFFFFFFFFFFFFFFFFFFF
310
FFFFFFFFFFFFFFFFFFFFFFFFFFFFFFFFFFFFFFFFFFFFFFFFFFFFFFFFFFFFFFFF
310
FFFFFFFFFFFFFFFFFFFFFFFFFFFFFFFFF000FFFFFFFFFFFFFFFFFFFFFFFFFFFF
310
FFFFFFFFFFFFFFFFFFFFFFFFFFFFFFFFFFFFFFFFFFFFFFFFFFFFFFFFFFFFFFFF
310
FFFFFFFFFFFFFFFFFFFFFFFFFFFFFFFFFFFFFFFFFFFFFFFFFFFFFFFFFFFFFFFF
310
FFFFFFFFFFFFFFFFF000FFFFFFFFFFFFFFFFFFFFFFFFFFFFFFFFFFFFFFFFFFFF
310
FFFFFFFFFFFFFFFFFFFFFFFFFFFFFFFFFFFFFFFFFFFFFFFFFFFFFFFFFFFFFFFF
310
FFFFFFFFFFFFFFFFFFFFFFFFFFFFFFFFFFFFFFFFFFFFFFFFFFFFFFFFFFFFFFFF
310
F000FFFFFFFFFFFFFFFFFFFFFFFFFFFFFFFFFFFFFFFFFFFFFFFFFFFFFFFFFFFF
310
FFFFFFFFFFFFFFFFFFFFFFFFFFFFFFFFFFFFFFFFFFFFFFFFFFFFFFFFFFFFFFFF
310
FFFFFFFFFFFFFFFFFFFFFFFFFFFFFFFFFFFFFFFFFFFFFFFFF000FFFFFFFFFFFF
310
FFFFFFFFFFFFFFFFFFFFFFFFFFFFFFFFFFFFFFFFFFFFFFFFFFFFFFFFFFFFFFFF
310
FFFFFFFFFFFFFFFFFFFFFFFFFFFFFFFFFFFFFFFFFFFFFFFFFFFFFFFFFFFFFFFF
310
FFFFFFFFFFFFFFFFFFFFFFFFFFFFFFFFF000FFFFFFFFFFFFFFFFFFFFFFFFFFFF
310
FFFFFFFFFFFFFFFFFFFFFFFFFFFFFFFFFFFFFFFFFFFFFFFFFFFFFFFFFFFFFFFF
310
FFFFFFFFFFFFFFFFFFFFFFFFFFFFFFFFFFFFFFFFFFFFFFFFFFFFFFFFFFFFFFFF
310
FFFFFFFFFFFFFFFFF000FFFFFFFFFFFFFFFFFFFFFFFFFFFFFFFFFFFFFFFFFFFF
310
FFFFFFFFFFFFFFFFFFFFFFFFFFFFFFFFFFFFFFFFFFFFFFFFFFFFFFFFFFFFFFFF
310
FFFFFFFFFFFFFFFFFFFFFFFFFFFFFFFFFFFFFFFFFFFFFFFFFFFFFFFFFFFFFFFF
310
F000FFFFFFFFFFFFFFFFFFFFFFFFFFFFFFFFFFFFFFFFFFFFFFFFFFFFFFFFFFFF
310
FFFFFFFFFFFFFFFFFFFFFFFFFFFFFFFFFFFFFFFFFFFFFFFFFFFFFFFFFFFFFFFF
310
FFFFFFFFFFFFFFFFFFFFFFFFFFFFFFFFFFFFFFFFFFFFFFFFF000FFFFFFFFFFFF
310
FFFFFFFFFFFFFFFFFFFFFFFFFFFFFFFFFFFFFFFFFFFFFFFFFFFFFFFFFFFFFFFF
310
FFFFFFFFFFFFFFFFFFFFFFFFFFFFFFFFFFFFFFFFFFFFFFFFFFFFFFFFFFFFFFFF
310
FFFFFFFFFFFFFFFFFFFFFFFFFFFFFFFFF0000000000000000000000000000000
310
0000000001000000000000000100000000000000010000000000000001000000
310
0000000001000000000000000100000000000000010000000100000001000000
310
0100000001000000010000000100000001000000000000000100000001000000
310
0100000000000000010000000100000001000000010000000100000001000000
310
0100000001000000010000000000000001000000010000000000000001000000
310
0100000001000000010000000100000001000000010000000100000001000000
310
0100000001000000010000000100000001000000010000000100000001000000
310
0100000001000000010000000100000001000000010000000100000001000000
310
0100000001000000010000000100000001000000010000000100000001000000
310
0100000001000000010000000100000000000000010000000000000001000000
310
0000000001000000010000000100000001000000010000000100000001000000
310
0100000000000000010000000100000001000000010000000100000001000000
310
0100000001000000000000000100000001000000010000000100000001000000
310
0100000001000000010000000000000001000000010000000100000001000000
310
0100000001000000010000000100000000000000010000000000000001000000
  1
OLE
  0
ENDSEC
  0
SECTION
  2
OBJECTS
  0
DICTIONARY
  5
C
330
0
100
AcDbDictionary
281
     1
  3
ACAD_GROUP
350
D
  3
ACAD_LAYOUT
350
1A
  3
ACAD_MLEADERSTYLE
350
1BB
  3
ACAD_MLINESTYLE
350
17
  3
ACAD_PLOTSETTINGS
350
19
  3
ACAD_PLOTSTYLENAME
350
E
  3
ACAD_TABLESTYLE
350
1BA
  3
ACAD_VISUALSTYLE
350
2A
  3
AcDbVariableDictionary
350
1BC
  0
DICTIONARY
  5
D
102
{ACAD_REACTORS
330
C
102
}
330
C
100
AcDbDictionary
281
     1
  0
DICTIONARY
  5
1A
102
{ACAD_REACTORS
330
C
102
}
330
C
100
AcDbDictionary
281
     1
  3
Layout1
350
1E
  3
Layout2
350
26
  3
Model
350
22
  0
DICTIONARY
  5
1BB
102
{ACAD_REACTORS
330
C
102
}
330
C
100
AcDbDictionary
281
     1
  0
DICTIONARY
  5
17
102
{ACAD_REACTORS
330
C
102
}
330
C
100
AcDbDictionary
281
     1
  3
Standard
350
18
  0
DICTIONARY
  5
19
102
{ACAD_REACTORS
330
C
102
}
330
C
100
AcDbDictionary
281
     1
  0
ACDBDICTIONARYWDFLT
  5
E
102
{ACAD_REACTORS
330
C
102
}
330
C
100
AcDbDictionary
281
     1
  3
Normal
350
F
100
AcDbDictionaryWithDefault
340
F
  0
DICTIONARY
  5
1BA
102
{ACAD_REACTORS
330
C
102
}
330
C
100
AcDbDictionary
281
     1
  0
DICTIONARY
  5
2A
102
{ACAD_REACTORS
330
C
102
}
330
C
100
AcDbDictionary
281
     1
  3
2dWireframe
350
2F
  3
3D Hidden
350
31
  3
3dWireframe
350
30
  3
Basic
350
32
  3
Brighten
350
36
  3
ColorChange
350
3A
  3
Conceptual
350
34
  3
Dim
350
35
  3
Facepattern
350
39
  3
Flat
350
2B
  3
FlatWithEdges
350
2C
  3
Gouraud
350
2D
  3
GouraudWithEdges
350
2E
  3
Linepattern
350
38
  3
Realistic
350
33
  3
Thicken
350
37
  0
DICTIONARY
  5
1BC
102
{ACAD_REACTORS
330
C
102
}
330
C
100
AcDbDictionary
281
     1
  3
PSOLHEIGHT
350
1BE
  3
PSOLWIDTH
350
1BD
  0
LAYOUT
  5
1E
102
{ACAD_REACTORS
330
1A
102
}
330
1A
100
AcDbPlotSettings
  1

  2
none_device
  4

  6

 40
0.0
 41
0.0
 42
0.0
 43
0.0
 44
0.0
 45
0.0
 46
0.0
 47
0.0
 48
0.0
 49
0.0
140
0.0
141
0.0
142
1.0
143
1.0
 70
   688
 72
     0
 73
     0
 74
     5
  7

 75
    16
147
1.0
148
0.0
149
0.0
100
AcDbLayout
  1
Layout1
 70
     1
 71
     1
 10
0.0
 20
0.0
 11
420.0
 21
297.0
 12
0.0
 22
0.0
 32
0.0
 14
1.0000000000E+20
 24
1.0000000000E+20
 34
1.0000000000E+20
 15
-1.0000000000E+20
 25
-1.0000000000E+20
 35
-1.0000000000E+20
146
0.0
 13
0.0
 23
0.0
 33
0.0
 16
1.0
 26
0.0
 36
0.0
 17
0.0
 27
1.0
 37
0.0
 76
     0
330
1B
  0
LAYOUT
  5
26
102
{ACAD_REACTORS
330
1A
102
}
330
1A
100
AcDbPlotSettings
  1

  2
none_device
  4

  6

 40
0.0
 41
0.0
 42
0.0
 43
0.0
 44
0.0
 45
0.0
 46
0.0
 47
0.0
 48
0.0
 49
0.0
140
0.0
141
0.0
142
1.0
143
1.0
 70
   688
 72
     0
 73
     0
 74
     5
  7

 75
    16
147
1.0
148
0.0
149
0.0
100
AcDbLayout
  1
Layout2
 70
     1
 71
     2
 10
0.0
 20
0.0
 11
0.0
 21
0.0
 12
0.0
 22
0.0
 32
0.0
 14
0.0
 24
0.0
 34
0.0
 15
0.0
 25
0.0
 35
0.0
146
0.0
 13
0.0
 23
0.0
 33
0.0
 16
1.0
 26
0.0
 36
0.0
 17
0.0
 27
1.0
 37
0.0
 76
     0
330
23
  0
LAYOUT
  5
22
102
{ACAD_REACTORS
330
1A
102
}
330
1A
100
AcDbPlotSettings
  1

  2
none_device
  4

  6

 40
0.0
 41
0.0
 42
0.0
 43
0.0
 44
0.0
 45
0.0
 46
0.0
 47
0.0
 48
0.0
 49
0.0
140
0.0
141
0.0
142
1.0
143
1.0
 70
  1712
 72
     0
 73
     0
 74
     0
  7

 75
     0
147
1.0
148
0.0
149
0.0
100
AcDbLayout
  1
Model
 70
     1
 71
     0
 10
0.0
 20
0.0
 11
297.0
 21
210.0
 12
0.0
 22
0.0
 32
0.0
 14
0.0
 24
0.0
 34
0.0
 15
297.0
 25
210.0
 35
0.0
146
0.0
 13
0.0
 23
0.0
 33
0.0
 16
1.0
 26
0.0
 36
0.0
 17
0.0
 27
1.0
 37
0.0
 76
     0
330
1F
331
29
  0
MLINESTYLE
  5
18
102
{ACAD_REACTORS
330
17
102
}
330
17
100
AcDbMlineStyle
  2
Standard
 70
     0
  3

 62
   256
 51
90.0
 52
90.0
 71
     2
 49
0.5
 62
   256
  6
BYLAYER
 49
-0.5
 62
   256
  6
BYLAYER
  0
ACDBPLACEHOLDER
  5
F
102
{ACAD_REACTORS
330
E
102
}
330
E
  0
VISUALSTYLE
  5
2F
102
{ACAD_REACTORS
330
2A
102
}
330
2A
100
AcDbVisualStyle
  2
2dWireframe
 70
     4
 71
     0
 72
     2
 73
     0
 90
        0
 40
-0.6
 41
-30.0
 62
     5
 63
     7
 74
     1
 91
        4
 64
     7
 65
   257
 75
     1
175
     1
 42
1.0
 92
        0
 66
   257
 43
1.0
 76
     1
 77
     6
 78
     2
 67
     7
 79
     5
170
     0
171
     0
290
     0
174
     0
 93
        1
 44
0.0
173
     0
291
     0
 45
0.0
1001
ACAD
1000
AcDbSavedByObjectVersion
1070
     0
  0
VISUALSTYLE
  5
31
102
{ACAD_REACTORS
330
2A
102
}
330
2A
100
AcDbVisualStyle
  2
3D Hidden
 70
     6
 71
     1
 72
     2
 73
     2
 90
        0
 40
-0.6
 41
-30.0
 62
     5
 63
     7
 74
     2
 91
        2
 64
     7
 65
   257
 75
     2
175
     1
 42
40.0
 92
        0
 66
   257
 43
1.0
 76
     1
 77
     6
 78
     2
 67
     7
 79
     3
170
     0
171
     0
290
     0
174
     0
 93
        1
 44
0.0
173
     0
291
     0
 45
0.0
1001
ACAD
1000
AcDbSavedByObjectVersion
1070
     0
  0
VISUALSTYLE
  5
30
102
{ACAD_REACTORS
330
2A
102
}
330
2A
100
AcDbVisualStyle
  2
3dWireframe
 70
     5
 71
     0
 72
     2
 73
     0
 90
        0
 40
-0.6
 41
-30.0
 62
     5
 63
     7
 74
     1
 91
        4
 64
     7
 65
   257
 75
     1
175
     1
 42
1.0
 92
        0
 66
   257
 43
1.0
 76
     1
 77
     6
 78
     2
 67
     7
 79
     5
170
     0
171
     0
290
     0
174
     0
 93
        1
 44
0.0
173
     0
291
     0
 45
0.0
1001
ACAD
1000
AcDbSavedByObjectVersion
1070
     0
  0
VISUALSTYLE
  5
32
102
{ACAD_REACTORS
330
2A
102
}
330
2A
100
AcDbVisualStyle
  2
Basic
 70
     7
 71
     1
 72
     0
 73
     1
 90
        0
 40
-0.6
 41
-30.0
 62
     5
 63
     7
 74
     0
 91
        4
 64
     7
 65
   257
 75
     1
175
     1
 42
1.0
 92
        8
 66
     7
 43
1.0
 76
     1
 77
     6
 78
     2
 67
     7
 79
     5
170
     0
171
     0
290
     0
174
     0
 93
        1
 44
0.0
173
     0
291
     1
 45
0.0
1001
ACAD
1000
AcDbSavedByObjectVersion
1070
     0
  0
VISUALSTYLE
  5
36
102
{ACAD_REACTORS
330
2A
102
}
330
2A
100
AcDbVisualStyle
  2
Brighten
 70
    12
 71
     2
 72
     2
 73
     0
 90
        0
 40
-0.6
 41
-30.0
 62
     5
 63
     7
 74
     1
 91
        4
 64
     7
 65
   257
 75
     1
175
     1
 42
1.0
 92
        8
 66
     7
 43
1.0
 76
     1
 77
     6
 78
     2
 67
     7
 79
     5
170
     0
171
     0
290
     0
174
     0
 93
        1
 44
50.0
173
     0
291
     1
 45
0.0
1001
ACAD
1000
AcDbSavedByObjectVersion
1070
     0
  0
VISUALSTYLE
  5
3A
102
{ACAD_REACTORS
330
2A
102
}
330
2A
100
AcDbVisualStyle
  2
ColorChange
 70
    16
 71
     2
 72
     2
 73
     3
 90
        0
 40
-0.6
 41
-30.0
 62
     5
 63
     8
 74
     1
 91
        4
 64
     7
 65
   257
 75
     1
175
     1
 42
1.0
 92
        8
 66
     8
 43
1.0
 76
     1
 77
     6
 78
     2
 67
     7
 79
     5
170
     0
171
     0
290
     0
174
     0
 93
        1
 44
0.0
173
     0
291
     1
 45
0.0
1001
ACAD
1000
AcDbSavedByObjectVersion
1070
     0
  0
VISUALSTYLE
  5
34
102
{ACAD_REACTORS
330
2A
102
}
330
2A
100
AcDbVisualStyle
  2
Conceptual
 70
     9
 71
     3
 72
     2
 73
     0
 90
        0
 40
-0.6
 41
-30.0
 62
     5
 63
     7
 74
     2
 91
        2
 64
     7
 65
   257
 75
     1
175
     1
 42
40.0
 92
        8
 66
     7
 43
1.0
 76
     1
 77
     6
 78
     2
 67
     7
 79
     3
170
     0
171
     0
290
     0
174
     0
 93
        1
 44
0.0
173
     0
291
     0
 45
0.0
1001
ACAD
1000
AcDbSavedByObjectVersion
1070
     0
  0
VISUALSTYLE
  5
35
102
{ACAD_REACTORS
330
2A
102
}
330
2A
100
AcDbVisualStyle
  2
Dim
 70
    11
 71
     2
 72
     2
 73
     0
 90
        0
 40
-0.6
 41
-30.0
 62
     5
 63
     7
 74
     1
 91
        4
 64
     7
 65
   257
 75
     1
175
     1
 42
1.0
 92
        8
 66
     7
 43
1.0
 76
     1
 77
     6
 78
     2
 67
     7
 79
     5
170
     0
171
     0
290
     0
174
     0
 93
        1
 44
-50.0
173
     0
291
     1
 45
0.0
1001
ACAD
1000
AcDbSavedByObjectVersion
1070
     0
  0
VISUALSTYLE
  5
39
102
{ACAD_REACTORS
330
2A
102
}
330
2A
100
AcDbVisualStyle
  2
Facepattern
 70
    15
 71
     2
 72
     2
 73
     0
 90
        0
 40
-0.6
 41
-30.0
 62
     5
 63
     7
 74
     1
 91
        4
 64
     7
 65
   257
 75
     1
175
     1
 42
1.0
 92
        8
 66
     7
 43
1.0
 76
     1
 77
     6
 78
     2
 67
     7
 79
     5
170
     0
171
     0
290
     0
174
     0
 93
        1
 44
0.0
173
     0
291
     1
 45
0.0
1001
ACAD
1000
AcDbSavedByObjectVersion
1070
     0
  0
VISUALSTYLE
  5
2B
102
{ACAD_REACTORS
330
2A
102
}
330
2A
100
AcDbVisualStyle
  2
Flat
 70
     0
 71
     2
 72
     1
 73
     1
 90
        2
 40
-0.6
 41
30.0
 62
     5
 63
     7
 74
     0
 91
        4
 64
     7
 65
   257
 75
     1
175
     1
 42
1.0
 92
        8
 66
     7
 43
1.0
 76
     1
 77
     6
 78
     2
 67
     7
 79
     5
170
     0
171
     0
290
     0
174
     0
 93
       13
 44
0.0
173
     0
291
     1
 45
0.0
1001
ACAD
1000
AcDbSavedByObjectVersion
1070
     0
  0
VISUALSTYLE
  5
2C
102
{ACAD_REACTORS
330
2A
102
}
330
2A
100
AcDbVisualStyle
  2
FlatWithEdges
 70
     1
 71
     2
 72
     1
 73
     1
 90
        2
 40
-0.6
 41
30.0
 62
     5
 63
     7
 74
     1
 91
        4
 64
     7
 65
   257
 75
     1
175
     1
 42
1.0
 92
        0
 66
   257
 43
1.0
 76
     1
 77
     6
 78
     2
 67
     7
 79
     5
170
     0
171
     0
290
     0
174
     0
 93
       13
 44
0.0
173
     0
291
     1
 45
0.0
1001
ACAD
1000
AcDbSavedByObjectVersion
1070
     0
  0
VISUALSTYLE
  5
2D
102
{ACAD_REACTORS
330
2A
102
}
330
2A
100
AcDbVisualStyle
  2
Gouraud
 70
     2
 71
     2
 72
     2
 73
     1
 90
        2
 40
-0.6
 41
30.0
 62
     5
 63
     7
 74
     0
 91
        4
 64
     7
 65
   257
 75
     1
175
     1
 42
1.0
 92
        0
 66
     7
 43
1.0
 76
     1
 77
     6
 78
     2
 67
     7
 79
     5
170
     0
171
     0
290
     0
174
     0
 93
       13
 44
0.0
173
     0
291
     1
 45
0.0
1001
ACAD
1000
AcDbSavedByObjectVersion
1070
     0
  0
VISUALSTYLE
  5
2E
102
{ACAD_REACTORS
330
2A
102
}
330
2A
100
AcDbVisualStyle
  2
GouraudWithEdges
 70
     3
 71
     2
 72
     2
 73
     1
 90
        2
 40
-0.6
 41
30.0
 62
     5
 63
     7
 74
     1
 91
        4
 64
     7
 65
   257
 75
     1
175
     1
 42
1.0
 92
        0
 66
   257
 43
1.0
 76
     1
 77
     6
 78
     2
 67
     7
 79
     5
170
     0
171
     0
290
     0
174
     0
 93
       13
 44
0.0
173
     0
291
     1
 45
0.0
1001
ACAD
1000
AcDbSavedByObjectVersion
1070
     0
  0
VISUALSTYLE
  5
38
102
{ACAD_REACTORS
330
2A
102
}
330
2A
100
AcDbVisualStyle
  2
Linepattern
 70
    14
 71
     2
 72
     2
 73
     0
 90
        0
 40
-0.6
 41
-30.0
 62
     5
 63
     7
 74
     1
 91
        4
 64
     7
 65
   257
 75
     7
175
     7
 42
1.0
 92
        8
 66
     7
 43
1.0
 76
     1
 77
     6
 78
     2
 67
     7
 79
     5
170
     0
171
     0
290
     0
174
     0
 93
        1
 44
0.0
173
     0
291
     1
 45
0.0
1001
ACAD
1000
AcDbSavedByObjectVersion
1070
     0
  0
VISUALSTYLE
  5
33
102
{ACAD_REACTORS
330
2A
102
}
330
2A
100
AcDbVisualStyle
  2
Realistic
 70
     8
 71
     2
 72
     2
 73
     0
 90
        0
 40
-0.6
 41
-30.0
 62
     5
 63
     7
 74
     1
 91
        0
 64
     7
 65
   257
 75
     1
175
     1
 42
1.0
 92
        8
 66
     8
 43
1.0
 76
     1
 77
     6
 78
     2
 67
     7
 79
     5
170
     0
171
     0
290
     0
174
     0
 93
       13
 44
0.0
173
     0
291
     0
 45
0.0
1001
ACAD
1000
AcDbSavedByObjectVersion
1070
     0
  0
VISUALSTYLE
  5
37
102
{ACAD_REACTORS
330
2A
102
}
330
2A
100
AcDbVisualStyle
  2
Thicken
 70
    13
 71
     2
 72
     2
 73
     0
 90
        0
 40
-0.6
 41
-30.0
 62
     5
 63
     7
 74
     1
 91
        4
 64
     7
 65
   257
 75
     1
175
     1
 42
1.0
 92
       12
 66
     7
 43
1.0
 76
     1
 77
     6
 78
     2
 67
     7
 79
     5
170
     0
171
     0
290
     0
174
     0
 93
        1
 44
0.0
173
     0
291
     1
 45
0.0
1001
ACAD
1000
AcDbSavedByObjectVersion
1070
     0
  0
DICTIONARYVAR
  5
1BE
102
{ACAD_REACTORS
330
1BC
102
}
330
1BC
100
DictionaryVariables
280
     0
  1
80.000000
  0
DICTIONARYVAR
  5
1BD
102
{ACAD_REACTORS
330
1BC
102
}
330
1BC
100
DictionaryVariables
280
     0
  1
5.000000
  0
ENDSEC
  0
EOF
