  0
SECTION
  2
HEADER
  9
$ACADVER
  1
AC1015
  9
$ACADMAINTVER
 70
     6
  9
$DWGCODEPAGE
  3
ANSI_1252
  9
$INSBASE
 10
0.0
 20
0.0
 30
0.0
  9
$EXTMIN
 10
0.0
 20
0.0
 30
0.0
  9
$EXTMAX
 10
297.0
 20
210.0
 30
0.0
  9
$LIMMIN
 10
0.0
 20
0.0
  9
$LIMMAX
 10
297.0
 20
210.0
  9
$ORTHOMODE
 70
     0
  9
$REGENMODE
 70
     1
  9
$FILLMODE
 70
     1
  9
$QTEXTMODE
 70
     0
  9
$MIRRTEXT
 70
     1
  9
$LTSCALE
 40
1.0
  9
$ATTMODE
 70
     1
  9
$TEXTSIZE
 40
2.0
  9
$TRACEWID
 40
1.0
  9
$TEXTSTYLE
  7
Standard
  9
$CLAYER
  8
0
  9
$CELTYPE
  6
ByLayer
  9
$CECOLOR
 62
   256
  9
$CELTSCALE
 40
1.0
  9
$DISPSILH
 70
     0
  9
$DIMSCALE
 40
1.0
  9
$DIMASZ
 40
3.0
  9
$DIMEXO
 40
0.0
  9
$DIMDLI
 40
3.75
  9
$DIMRND
 40
0.0
  9
$DIMDLE
 40
0.0
  9
$DIMEXE
 40
1.0
  9
$DIMTP
 40
0.0
  9
$DIMTM
 40
0.0
  9
$DIMTXT
 40
2.0
  9
$DIMCEN
 40
2.5
  9
$DIMTSZ
 40
0.0
  9
$DIMTOL
 70
     0
  9
$DIMLIM
 70
     0
  9
$DIMTIH
 70
     1
  9
$DIMTOH
 70
     1
  9
$DIMSE1
 70
     0
  9
$DIMSE2
 70
     0
  9
$DIMTAD
 70
     1
  9
$DIMZIN
 70
     0
  9
$DIMBLK
  1

  9
$DIMASO
 70
     1
  9
$DIMSHO
 70
     1
  9
$DIMPOST
  1

  9
$DIMAPOST
  1

  9
$DIMALT
 70
     0
  9
$DIMALTD
 70
     3
  9
$DIMALTF
 40
0.0393700787
  9
$DIMLFAC
 40
1.0
  9
$DIMTOFL
 70
     1
  9
$DIMTVP
 40
0.0
  9
$DIMTIX
 70
     0
  9
$DIMSOXD
 70
     0
  9
$DIMSAH
 70
     0
  9
$DIMBLK1
  1

  9
$DIMBLK2
  1

  9
$DIMSTYLE
  2
ISO-25
  9
$DIMCLRD
 70
     0
  9
$DIMCLRE
 70
     0
  9
$DIMCLRT
 70
     0
  9
$DIMTFAC
 40
1.0
  9
$DIMGAP
 40
1.524
  9
$DIMJUST
 70
     0
  9
$DIMSD1
 70
     0
  9
$DIMSD2
 70
     0
  9
$DIMTOLJ
 70
     0
  9
$DIMTZIN
 70
     0
  9
$DIMALTZ
 70
     0
  9
$DIMALTTZ
 70
     0
  9
$DIMUPT
 70
     0
  9
$DIMDEC
 70
     2
  9
$DIMTDEC
 70
     3
  9
$DIMALTU
 70
     2
  9
$DIMALTTD
 70
     3
  9
$DIMTXSTY
  7
Standard
  9
$DIMAUNIT
 70
     0
  9
$DIMADEC
 70
     2
  9
$DIMALTRND
 40
0.0
  9
$DIMAZIN
 70
     0
  9
$DIMDSEP
 70
    44
  9
$DIMATFIT
 70
     3
  9
$DIMFRAC
 70
     0
  9
$DIMLDRBLK
  1

  9
$DIMLUNIT
 70
     2
  9
$DIMLWD
 70
    -2
  9
$DIMLWE
 70
    -2
  9
$DIMTMOVE
 70
     0
  9
$LUNITS
 70
     2
  9
$LUPREC
 70
     2
  9
$SKETCHINC
 40
1.0
  9
$FILLETRAD
 40
10.0
  9
$AUNITS
 70
     0
  9
$AUPREC
 70
     2
  9
$MENU
  1
.
  9
$ELEVATION
 40
0.0
  9
$PELEVATION
 40
0.0
  9
$THICKNESS
 40
0.0
  9
$LIMCHECK
 70
     0
  9
$CHAMFERA
 40
10.0
  9
$CHAMFERB
 40
10.0
  9
$CHAMFERC
 40
20.0
  9
$CHAMFERD
 40
0.0
  9
$SKPOLY
 70
     0
  9
$TDCREATE
 40
2455680.389207639
  9
$TDUCREATE
 40
2455680.305874306
  9
$TDUPDATE
 40
2455680.38920765
  9
$TDUUPDATE
 40
2455680.305874317
  9
$TDINDWG
 40
0.0000000116
  9
$TDUSRTIMER
 40
0.0000000116
  9
$USRTIMER
 70
     1
  9
$ANGBASE
 50
0.0
  9
$ANGDIR
 70
     0
  9
$PDMODE
 70
     0
  9
$PDSIZE
 40
-1.0
  9
$PLINEWID
 40
0.0
  9
$SPLFRAME
 70
     0
  9
$SPLINETYPE
 70
     6
  9
$SPLINESEGS
 70
     8
  9
$HANDSEED
  5
20F
  9
$SURFTAB1
 70
     6
  9
$SURFTAB2
 70
     6
  9
$SURFTYPE
 70
     6
  9
$SURFU
 70
     6
  9
$SURFV
 70
     6
  9
$UCSBASE
  2

  9
$UCSNAME
  2

  9
$UCSORG
 10
0.0
 20
0.0
 30
0.0
  9
$UCSXDIR
 10
1.0
 20
0.0
 30
0.0
  9
$UCSYDIR
 10
0.0
 20
1.0
 30
0.0
  9
$UCSORTHOREF
  2

  9
$UCSORTHOVIEW
 70
     0
  9
$UCSORGTOP
 10
0.0
 20
0.0
 30
0.0
  9
$UCSORGBOTTOM
 10
0.0
 20
0.0
 30
0.0
  9
$UCSORGLEFT
 10
0.0
 20
0.0
 30
0.0
  9
$UCSORGRIGHT
 10
0.0
 20
0.0
 30
0.0
  9
$UCSORGFRONT
 10
0.0
 20
0.0
 30
0.0
  9
$UCSORGBACK
 10
0.0
 20
0.0
 30
0.0
  9
$PUCSBASE
  2

  9
$PUCSNAME
  2

  9
$PUCSORG
 10
0.0
 20
0.0
 30
0.0
  9
$PUCSXDIR
 10
1.0
 20
0.0
 30
0.0
  9
$PUCSYDIR
 10
0.0
 20
1.0
 30
0.0
  9
$PUCSORTHOREF
  2

  9
$PUCSORTHOVIEW
 70
     0
  9
$PUCSORGTOP
 10
0.0
 20
0.0
 30
0.0
  9
$PUCSORGBOTTOM
 10
0.0
 20
0.0
 30
0.0
  9
$PUCSORGLEFT
 10
0.0
 20
0.0
 30
0.0
  9
$PUCSORGRIGHT
 10
0.0
 20
0.0
 30
0.0
  9
$PUCSORGFRONT
 10
0.0
 20
0.0
 30
0.0
  9
$PUCSORGBACK
 10
0.0
 20
0.0
 30
0.0
  9
$USERI1
 70
     0
  9
$USERI2
 70
     0
  9
$USERI3
 70
     0
  9
$USERI4
 70
     0
  9
$USERI5
 70
     0
  9
$USERR1
 40
0.0
  9
$USERR2
 40
0.0
  9
$USERR3
 40
0.0
  9
$USERR4
 40
0.0
  9
$USERR5
 40
0.0
  9
$WORLDVIEW
 70
     1
  9
$SHADEDGE
 70
     3
  9
$SHADEDIF
 70
    70
  9
$TILEMODE
 70
     1
  9
$MAXACTVP
 70
    64
  9
$PINSBASE
 10
0.0
 20
0.0
 30
0.0
  9
$PLIMCHECK
 70
     0
  9
$PEXTMIN
 10
1.0000000000E+20
 20
1.0000000000E+20
 30
1.0000000000E+20
  9
$PEXTMAX
 10
-1.0000000000E+20
 20
-1.0000000000E+20
 30
-1.0000000000E+20
  9
$PLIMMIN
 10
0.0
 20
0.0
  9
$PLIMMAX
 10
420.0
 20
297.0
  9
$UNITMODE
 70
     0
  9
$VISRETAIN
 70
     1
  9
$PLINEGEN
 70
     0
  9
$PSLTSCALE
 70
     1
  9
$TREEDEPTH
 70
  3020
  9
$CMLSTYLE
  2
Standard
  9
$CMLJUST
 70
     0
  9
$CMLSCALE
 40
20.0
  9
$PROXYGRAPHICS
 70
     1
  9
$MEASUREMENT
 70
     1
  9
$CELWEIGHT
370
    -1
  9
$ENDCAPS
280
     0
  9
$JOINSTYLE
280
     0
  9
$LWDISPLAY
290
     1
  9
$INSUNITS
 70
     4
  9
$HYPERLINKBASE
  1

  9
$STYLESHEET
  1

  9
$XEDIT
290
     1
  9
$CEPSNTYPE
380
     0
  9
$PSTYLEMODE
290
     1
  9
$FINGERPRINTGUID
  2
{DAAD55C9-775E-4B68-A339-FC36D0D8185B}
  9
$VERSIONGUID
  2
{FAEB1C32-E019-11D5-929B-00C0DF256EC4}
  9
$EXTNAMES
290
     1
  9
$PSVPSCALE
 40
0.0
  9
$OLESTARTUP
290
     0
  0
ENDSEC
  0
SECTION
  2
CLASSES
  0
CLASS
  1
ACDBDICTIONARYWDFLT
  2
AcDbDictionaryWithDefault
  3
ObjectDBX Classes
 90
        0
280
     0
281
     0
  0
CLASS
  1
VISUALSTYLE
  2
AcDbVisualStyle
  3
ObjectDBX Classes
 90
     4095
280
     0
281
     0
  0
CLASS
  1
DICTIONARYVAR
  2
AcDbDictionaryVar
  3
ObjectDBX Classes
 90
        0
280
     0
281
     0
  0
CLASS
  1
ACDBPLACEHOLDER
  2
AcDbPlaceHolder
  3
ObjectDBX Classes
 90
        0
280
     0
281
     0
  0
CLASS
  1
LAYOUT
  2
AcDbLayout
  3
ObjectDBX Classes
 90
        0
280
     0
281
     0
  0
ENDSEC
  0
SECTION
  2
TABLES
  0
TABLE
  2
VPORT
  5
8
330
0
100
AcDbSymbolTable
 70
     1
  0
VPORT
  5
29
330
8
100
AcDbSymbolTableRecord
100
AcDbViewportTableRecord
  2
*Active
 70
     0
 10
0.0
 20
0.0
 11
1.0
 21
1.0
 12
148.5
 22
105.0
 13
0.0
 23
0.0
 14
10.0
 24
10.0
 15
10.0
 25
10.0
 16
0.0
 26
0.0
 36
1.0
 17
0.0
 27
0.0
 37
0.0
 40
210.0
 41
1.4142857143
 42
50.0
 43
0.0
 44
0.0
 50
0.0
 51
0.0
 71
     0
 72
  2000
 73
     1
 74
     3
 75
     0
 76
     0
 77
     0
 78
     0
281
     0
 65
     1
110
0.0
120
0.0
130
0.0
111
1.0
121
0.0
131
0.0
112
0.0
122
1.0
132
0.0
 79
     0
146
0.0
  0
ENDTAB
  0
TABLE
  2
LTYPE
  5
5
330
0
100
AcDbSymbolTable
 70
     6
  0
LTYPE
  5
14
330
5
100
AcDbSymbolTableRecord
100
AcDbLinetypeTableRecord
  2
ByBlock
 70
     0
  3

 72
    65
 73
     0
 40
0.0
  0
LTYPE
  5
15
330
5
100
AcDbSymbolTableRecord
100
AcDbLinetypeTableRecord
  2
ByLayer
 70
     0
  3

 72
    65
 73
     0
 40
0.0
  0
LTYPE
  5
16
330
5
100
AcDbSymbolTableRecord
100
AcDbLinetypeTableRecord
  2
Continuous
 70
     0
  3
Solid line
 72
    65
 73
     0
 40
0.0
  0
LTYPE
  5
3B
330
5
100
AcDbSymbolTableRecord
100
AcDbLinetypeTableRecord
  2
HIDDEN
 70
     0
  3
Hidden __ __ __ __ __ __ __ __ __ __ __ __ __ __
 72
    65
 73
     2
 40
1.905
 49
1.27
 74
     0
 49
-0.635
 74
     0
  0
LTYPE
  5
3C
330
5
100
AcDbSymbolTableRecord
100
AcDbLinetypeTableRecord
  2
PHANTOM
 70
     0
  3
Phantom ______  __  __  ______  __  __  ______
 72
    65
 73
     6
 40
12.7
 49
6.35
 74
     0
 49
-1.27
 74
     0
 49
1.27
 74
     0
 49
-1.27
 74
     0
 49
1.27
 74
     0
 49
-1.27
 74
     0
  0
LTYPE
  5
3D
330
5
100
AcDbSymbolTableRecord
100
AcDbLinetypeTableRecord
  2
CENTER
 70
     0
  3
Center ____ _ ____ _ ____ _ ____ _ ____ _ ____
 72
    65
 73
     4
 40
10.16
 49
6.35
 74
     0
 49
-1.27
 74
     0
 49
1.27
 74
     0
 49
-1.27
 74
     0
  0
LTYPE
  5
3E
330
5
100
AcDbSymbolTableRecord
100
AcDbLinetypeTableRecord
  2
CENTERX2
 70
     0
  3
Center (2x) ________  __  ________  __  _____
 72
    65
 73
     4
 40
20.32
 49
12.7
 74
     0
 49
-2.54
 74
     0
 49
2.54
 74
     0
 49
-2.54
 74
     0
  0
LTYPE
  5
3F
330
5
100
AcDbSymbolTableRecord
100
AcDbLinetypeTableRecord
  2
DOT2
 70
     0
  3
Dot (.5x) ........................................
 72
    65
 73
     2
 40
0.635
 49
0.0
 74
     0
 49
-0.635
 74
     0
  0
ENDTAB
  0
TABLE
  2
LAYER
  5
2
330
0
100
AcDbSymbolTable
 70
     5
  0
LAYER
  5
10
330
2
100
AcDbSymbolTableRecord
100
AcDbLayerTableRecord
  2
0
 70
     0
 62
     7
  6
Continuous
370
    -3
390
F
  0
LAYER
  5
40
330
2
100
AcDbSymbolTableRecord
100
AcDbLayerTableRecord
  2
FORMAT
 70
     0
 62
     7
  6
Continuous
370
    -3
390
F
  0
LAYER
  5
41
330
2
100
AcDbSymbolTableRecord
100
AcDbLayerTableRecord
  2
VERMASSUNG
 70
     0
 62
     7
  6
Continuous
370
    -3
390
F
  0
LAYER
  5
42
330
2
100
AcDbSymbolTableRecord
100
AcDbLayerTableRecord
  2
KOPF_DÜNN
 70
     0
 62
     7
  6
Continuous
370
    -3
390
F
  0
LAYER
  5
43
330
2
100
AcDbSymbolTableRecord
100
AcDbLayerTableRecord
  2
KOPF_DICK
 70
     0
 62
     7
  6
Continuous
370
    15
390
F
  0
ENDTAB
  0
TABLE
  2
STYLE
  5
3
330
0
100
AcDbSymbolTable
 70
     3
  0
STYLE
  5
11
330
3
100
AcDbSymbolTableRecord
100
AcDbTextStyleTableRecord
  2
Standard
 70
     0
 40
0.0
 41
1.0
 50
0.0
 71
     0
 42
2.5
  3
txt
  4

  0
STYLE
  5
44
330
3
100
AcDbSymbolTableRecord
100
AcDbTextStyleTableRecord
  2
SLDTEXTSTYLE0
 70
     0
 40
0.0
 41
0.7
 50
0.0
 71
     0
 42
0.2
  3
TXT
  4

  0
STYLE
  5
48
330
3
100
AcDbSymbolTableRecord
100
AcDbTextStyleTableRecord
  2
SLDTEXTSTYLE1
 70
     0
 40
0.0
 41
0.6473684211
 50
0.0
 71
     0
 42
0.2
  3
TXT
  4

  0
ENDTAB
  0
TABLE
  2
VIEW
  5
6
330
0
100
AcDbSymbolTable
 70
     0
  0
ENDTAB
  0
TABLE
  2
UCS
  5
7
330
0
100
AcDbSymbolTable
 70
     0
  0
ENDTAB
  0
TABLE
  2
APPID
  5
9
330
0
100
AcDbSymbolTable
 70
     1
  0
APPID
  5
12
330
9
100
AcDbSymbolTableRecord
100
AcDbRegAppTableRecord
  2
ACAD
 70
     0
  0
ENDTAB
  0
TABLE
  2
DIMSTYLE
  5
A
330
0
100
AcDbSymbolTable
 70
     5
100
AcDbDimStyleTable
  0
DIMSTYLE
105
27
330
A
100
AcDbSymbolTableRecord
100
AcDbDimStyleTableRecord
  2
ISO-25
 70
     0
 41
2.5
 42
0.625
 43
3.75
 44
1.25
 73
     0
 74
     0
 77
     1
 78
     8
140
2.5
141
2.5
143
0.0393700787
147
0.625
171
     3
172
     1
271
     2
272
     2
274
     3
278
    44
283
     0
284
     8
340
11
  0
DIMSTYLE
105
1B0
102
{ACAD_REACTORS
330
1AF
330
1EA
330
1F4
330
1FE
102
}
330
A
100
AcDbSymbolTableRecord
100
AcDbDimStyleTableRecord
  2
SLDDIMSTYLE0
 70
     0
 41
3.0
 44
0.0
 45
0.000000001
 73
     0
 74
     0
 77
     1
 78
    12
140
2.0
147
0.5
173
     1
271
     2
272
     3
284
    12
340
44
  0
DIMSTYLE
105
1BD
102
{ACAD_REACTORS
330
1BC
102
}
330
A
100
AcDbSymbolTableRecord
100
AcDbDimStyleTableRecord
  2
SLDDIMSTYLE1
 70
     0
 41
3.0
 44
0.0
 45
0.000000001
 73
     0
 74
     0
 77
     1
 78
    12
140
2.0
147
0.5
173
     1
271
     2
272
     2
284
    12
340
44
  0
DIMSTYLE
105
1C8
102
{ACAD_REACTORS
330
1C7
102
}
330
A
100
AcDbSymbolTableRecord
100
AcDbDimStyleTableRecord
  2
SLDDIMSTYLE2
 70
     0
 41
3.0
 44
0.0
 45
0.000000001
 73
     0
 74
     0
 77
     1
 78
    12
140
2.0
147
0.5
173
     1
271
     2
272
     2
284
    12
340
44
  0
DIMSTYLE
105
1D4
102
{ACAD_REACTORS
330
1D3
330
1DF
102
}
330
A
100
AcDbSymbolTableRecord
100
AcDbDimStyleTableRecord
  2
SLDDIMSTYLE3
 70
     0
 41
3.0
 44
0.0
 45
0.000000001
 73
     0
 74
     0
 77
     1
 78
    12
140
2.0
147
0.5
173
     1
271
     2
272
     3
284
    12
340
44
  0
ENDTAB
  0
TABLE
  2
BLOCK_RECORD
  5
1
330
0
100
AcDbSymbolTable
 70
     9
  0
BLOCK_RECORD
  5
1F
330
1
100
AcDbSymbolTableRecord
100
AcDbBlockTableRecord
  2
*Model_Space
340
22
  0
BLOCK_RECORD
  5
1B
330
1
100
AcDbSymbolTableRecord
100
AcDbBlockTableRecord
  2
*Paper_Space
340
1E
  0
BLOCK_RECORD
  5
23
330
1
100
AcDbSymbolTableRecord
100
AcDbBlockTableRecord
  2
*Paper_Space0
340
26
  0
BLOCK_RECORD
  5
1B1
330
1
100
AcDbSymbolTableRecord
100
AcDbBlockTableRecord
  2
*D1
340
0
  0
BLOCK_RECORD
  5
1BE
330
1
100
AcDbSymbolTableRecord
100
AcDbBlockTableRecord
  2
*D2
340
0
  0
BLOCK_RECORD
  5
1C9
330
1
100
AcDbSymbolTableRecord
100
AcDbBlockTableRecord
  2
*D3
340
0
  0
BLOCK_RECORD
  5
1D5
330
1
100
AcDbSymbolTableRecord
100
AcDbBlockTableRecord
  2
*D4
340
0
  0
BLOCK_RECORD
  5
1E0
330
1
100
AcDbSymbolTableRecord
100
AcDbBlockTableRecord
  2
*D5
340
0
  0
BLOCK_RECORD
  5
1EB
330
1
100
AcDbSymbolTableRecord
100
AcDbBlockTableRecord
  2
*D6
340
0
  0
BLOCK_RECORD
  5
1F5
330
1
100
AcDbSymbolTableRecord
100
AcDbBlockTableRecord
  2
*D7
340
0
  0
BLOCK_RECORD
  5
1FF
330
1
100
AcDbSymbolTableRecord
100
AcDbBlockTableRecord
  2
*D8
340
0
  0
ENDTAB
  0
ENDSEC
  0
SECTION
  2
BLOCKS
  0
BLOCK
  5
20
330
1F
100
AcDbEntity
  8
0
100
AcDbBlockBegin
  2
*Model_Space
 70
     0
 10
0.0
 20
0.0
 30
0.0
  3
*Model_Space
  1

  0
ENDBLK
  5
21
330
1F
100
AcDbEntity
  8
0
100
AcDbBlockEnd
  0
BLOCK
  5
1C
330
1B
100
AcDbEntity
 67
     1
  8
0
100
AcDbBlockBegin
  2
*Paper_Space
 70
     0
 10
0.0
 20
0.0
 30
0.0
  3
*Paper_Space
  1

  0
ENDBLK
  5
1D
330
1B
100
AcDbEntity
 67
     1
  8
0
100
AcDbBlockEnd
  0
BLOCK
  5
24
330
23
100
AcDbEntity
  8
0
100
AcDbBlockBegin
  2
*Paper_Space0
 70
     0
 10
0.0
 20
0.0
 30
0.0
  3
*Paper_Space0
  1

  0
ENDBLK
  5
25
330
23
100
AcDbEntity
  8
0
100
AcDbBlockEnd
  0
BLOCK
  5
1B2
330
1B1
100
AcDbEntity
  8
0
100
AcDbBlockBegin
  2
*D1
 70
     1
 10
0.0
 20
0.0
 30
0.0
  3
*D1
  1

  0
SOLID
  5
1B4
330
1B1
100
AcDbEntity
  8
VERMASSUNG
100
AcDbTrace
 10
61.241928494
 20
135.455687974
 30
0.0
 11
60.791928494
 21
132.455687974
 31
0.0
 12
61.691928494
 22
132.455687974
 32
0.0
 13
61.691928494
 23
132.455687974
 33
0.0
  0
SOLID
  5
1B5
330
1B1
100
AcDbEntity
  8
VERMASSUNG
100
AcDbTrace
 10
61.241928494
 20
72.455687974
 30
0.0
 11
61.691928494
 21
75.455687974
 31
0.0
 12
60.791928494
 22
75.455687974
 32
0.0
 13
60.791928494
 23
75.455687974
 33
0.0
  0
LINE
  5
1B6
330
1B1
100
AcDbEntity
  8
VERMASSUNG
100
AcDbLine
 10
98.7155892907
 20
135.455687974
 30
0.0
 11
60.241928494
 21
135.455687974
 31
0.0
  0
LINE
  5
1B7
330
1B1
100
AcDbEntity
  8
VERMASSUNG
100
AcDbLine
 10
98.7155892907
 20
72.455687974
 30
0.0
 11
60.241928494
 21
72.455687974
 31
0.0
  0
LINE
  5
1B8
330
1B1
100
AcDbEntity
  8
VERMASSUNG
100
AcDbLine
 10
61.241928494
 20
135.455687974
 30
0.0
 11
61.241928494
 21
72.455687974
 31
0.0
  0
MTEXT
  5
1B9
330
1B1
100
AcDbEntity
  8
VERMASSUNG
100
AcDbMText
 10
58.463793005
 20
96.2521462622
 30
0.0
 40
2.0
 41
0.0
 71
     1
 72
     1
  1
HSK A 
  7
SLDTEXTSTYLE0
 11
-7.044195017643634E-15
 21
1.0
 31
0.0
 73
     1
 44
1.0
  0
MTEXT
  5
1BA
330
1B1
100
AcDbEntity
  8
VERMASSUNG
100
AcDbMText
 10
58.6637930145
 20
105.2521468061
 30
0.0
 40
2.0
 41
0.0
 71
     1
 72
     1
  1
%%c
  7
SLDTEXTSTYLE0
 11
-7.044195017643634E-15
 21
1.0
 31
0.0
 73
     1
 44
1.0
  0
MTEXT
  5
1BB
330
1B1
100
AcDbEntity
  8
VERMASSUNG
100
AcDbMText
 10
58.6637931309
 20
108.8604734561
 30
0.0
 40
2.0
 41
0.0
 71
     1
 72
     1
  1
63
  7
SLDTEXTSTYLE0
 11
-7.044195017643634E-15
 21
1.0
 31
0.0
 73
     1
 44
1.0
  0
ENDBLK
  5
1B3
330
1B1
100
AcDbEntity
  8
0
100
AcDbBlockEnd
  0
BLOCK
  5
1BF
330
1BE
100
AcDbEntity
  8
0
100
AcDbBlockBegin
  2
*D2
 70
     1
 10
0.0
 20
0.0
 30
0.0
  3
*D2
  1

  0
SOLID
  5
1C1
330
1BE
100
AcDbEntity
  8
VERMASSUNG
100
AcDbTrace
 10
156.9155892907
 20
136.6774647887
 30
0.0
 11
159.9155892907
 21
136.2274647887
 31
0.0
 12
159.9155892907
 22
137.1274647887
 32
0.0
 13
159.9155892907
 23
137.1274647887
 33
0.0
  0
SOLID
  5
1C2
330
1BE
100
AcDbEntity
  8
VERMASSUNG
100
AcDbTrace
 10
218.4155892907
 20
136.6774647887
 30
0.0
 11
215.4155892907
 21
137.1274647887
 31
0.0
 12
215.4155892907
 22
136.2274647887
 32
0.0
 13
215.4155892907
 23
136.2274647887
 33
0.0
  0
LINE
  5
1C3
330
1BE
100
AcDbEntity
  8
VERMASSUNG
100
AcDbLine
 10
156.9155892907
 20
119.855687974
 30
0.0
 11
156.9155892907
 21
137.6774647887
 31
0.0
  0
LINE
  5
1C4
330
1BE
100
AcDbEntity
  8
VERMASSUNG
100
AcDbLine
 10
218.4155892907
 20
123.6447117449
 30
0.0
 11
218.4155892907
 21
137.6774647887
 31
0.0
  0
LINE
  5
1C5
330
1BE
100
AcDbEntity
  8
VERMASSUNG
100
AcDbLine
 10
156.9155892907
 20
136.6774647887
 30
0.0
 11
218.4155892907
 21
136.6774647887
 31
0.0
  0
MTEXT
  5
1C6
330
1BE
100
AcDbEntity
  8
VERMASSUNG
100
AcDbMText
 10
185.4667323026
 20
139.2556001519
 30
0.0
 40
2.0
 41
0.0
 71
     1
 72
     1
  1
61.5
  7
SLDTEXTSTYLE0
 73
     1
 44
1.0
  0
ENDBLK
  5
1C0
330
1BE
100
AcDbEntity
  8
0
100
AcDbBlockEnd
  0
BLOCK
  5
1CA
330
1C9
100
AcDbEntity
  8
0
100
AcDbBlockBegin
  2
*D3
 70
     1
 10
0.0
 20
0.0
 30
0.0
  3
*D3
  1

  0
SOLID
  5
1CC
330
1C9
100
AcDbEntity
  8
VERMASSUNG
100
AcDbTrace
 10
226.0111592633
 20
87.955687974
 30
0.0
 11
226.4611592633
 21
90.955687974
 31
0.0
 12
225.5611592633
 22
90.955687974
 32
0.0
 13
225.5611592633
 23
90.955687974
 33
0.0
  0
SOLID
  5
1CD
330
1C9
100
AcDbEntity
  8
VERMASSUNG
100
AcDbTrace
 10
226.0111592633
 20
119.955687974
 30
0.0
 11
225.5611592633
 21
116.955687974
 31
0.0
 12
226.4611592633
 22
116.955687974
 32
0.0
 13
226.4611592633
 23
116.955687974
 33
0.0
  0
LINE
  5
1CE
330
1C9
100
AcDbEntity
  8
VERMASSUNG
100
AcDbLine
 10
214.9155892907
 20
87.955687974
 30
0.0
 11
227.0111592633
 21
87.955687974
 31
0.0
  0
LINE
  5
1CF
330
1C9
100
AcDbEntity
  8
VERMASSUNG
100
AcDbLine
 10
214.9155892907
 20
119.955687974
 30
0.0
 11
227.0111592633
 21
119.955687974
 31
0.0
  0
LINE
  5
1D0
330
1C9
100
AcDbEntity
  8
VERMASSUNG
100
AcDbLine
 10
226.0111592633
 20
87.955687974
 30
0.0
 11
226.0111592633
 21
119.955687974
 31
0.0
  0
MTEXT
  5
1D1
330
1C9
100
AcDbEntity
  8
VERMASSUNG
100
AcDbMText
 10
223.4330237837
 20
100.7519707476
 30
0.0
 40
2.0
 41
0.0
 71
     1
 72
     1
  1
%%c
  7
SLDTEXTSTYLE0
 11
6.123233995736766E-17
 21
1.0
 31
0.0
 73
     1
 44
1.0
  0
MTEXT
  5
1D2
330
1C9
100
AcDbEntity
  8
VERMASSUNG
100
AcDbMText
 10
223.4330239001
 20
104.3606489707
 30
0.0
 40
2.0
 41
0.0
 71
     1
 72
     1
  1
32
  7
SLDTEXTSTYLE0
 11
6.123233995736766E-17
 21
1.0
 31
0.0
 73
     1
 44
1.0
  0
ENDBLK
  5
1CB
330
1C9
100
AcDbEntity
  8
0
100
AcDbBlockEnd
  0
BLOCK
  5
1D6
330
1D5
100
AcDbEntity
  8
0
100
AcDbBlockBegin
  2
*D4
 70
     1
 10
0.0
 20
0.0
 30
0.0
  3
*D4
  1

  0
SOLID
  5
1D8
330
1D5
100
AcDbEntity
  8
VERMASSUNG
100
AcDbTrace
 10
232.0111592633
 20
81.955687974
 30
0.0
 11
232.4611592633
 21
84.955687974
 31
0.0
 12
231.5611592633
 22
84.955687974
 32
0.0
 13
231.5611592633
 23
84.955687974
 33
0.0
  0
SOLID
  5
1D9
330
1D5
100
AcDbEntity
  8
VERMASSUNG
100
AcDbTrace
 10
232.0111592633
 20
125.955687974
 30
0.0
 11
231.5611592633
 21
122.955687974
 31
0.0
 12
232.4611592633
 22
122.955687974
 32
0.0
 13
232.4611592633
 23
122.955687974
 33
0.0
  0
LINE
  5
1DA
330
1D5
100
AcDbEntity
  8
VERMASSUNG
100
AcDbLine
 10
218.4155892907
 20
81.955687974
 30
0.0
 11
233.0111592633
 21
81.955687974
 31
0.0
  0
LINE
  5
1DB
330
1D5
100
AcDbEntity
  8
VERMASSUNG
100
AcDbLine
 10
218.4155892907
 20
125.955687974
 30
0.0
 11
233.0111592633
 21
125.955687974
 31
0.0
  0
LINE
  5
1DC
330
1D5
100
AcDbEntity
  8
VERMASSUNG
100
AcDbLine
 10
232.0111592633
 20
81.955687974
 30
0.0
 11
232.0111592633
 21
125.955687974
 31
0.0
  0
MTEXT
  5
1DD
330
1D5
100
AcDbEntity
  8
VERMASSUNG
100
AcDbMText
 10
229.4330237837
 20
100.5523911159
 30
0.0
 40
2.0
 41
0.0
 71
     1
 72
     1
  1
%%c
  7
SLDTEXTSTYLE0
 11
6.123233995736766E-17
 21
1.0
 31
0.0
 73
     1
 44
1.0
  0
MTEXT
  5
1DE
330
1D5
100
AcDbEntity
  8
VERMASSUNG
100
AcDbMText
 10
229.4330239001
 20
104.1610693391
 30
0.0
 40
2.0
 41
0.0
 71
     1
 72
     1
  1
44
  7
SLDTEXTSTYLE0
 11
6.123233995736766E-17
 21
1.0
 31
0.0
 73
     1
 44
1.0
  0
ENDBLK
  5
1D7
330
1D5
100
AcDbEntity
  8
0
100
AcDbBlockEnd
  0
BLOCK
  5
1E1
330
1E0
100
AcDbEntity
  8
0
100
AcDbBlockBegin
  2
*D5
 70
     1
 10
0.0
 20
0.0
 30
0.0
  3
*D5
  1

  0
SOLID
  5
1E3
330
1E0
100
AcDbEntity
  8
VERMASSUNG
100
AcDbTrace
 10
238.0111592633
 20
77.955687974
 30
0.0
 11
238.4611592633
 21
80.955687974
 31
0.0
 12
237.5611592633
 22
80.955687974
 32
0.0
 13
237.5611592633
 23
80.955687974
 33
0.0
  0
SOLID
  5
1E4
330
1E0
100
AcDbEntity
  8
VERMASSUNG
100
AcDbTrace
 10
238.0111592633
 20
129.955687974
 30
0.0
 11
237.5611592633
 21
126.955687974
 31
0.0
 12
238.4611592633
 22
126.955687974
 32
0.0
 13
238.4611592633
 23
126.955687974
 33
0.0
  0
LINE
  5
1E5
330
1E0
100
AcDbEntity
  8
VERMASSUNG
100
AcDbLine
 10
152.0427136352
 20
77.955687974
 30
0.0
 11
239.0111592633
 21
77.955687974
 31
0.0
  0
LINE
  5
1E6
330
1E0
100
AcDbEntity
  8
VERMASSUNG
100
AcDbLine
 10
152.0427136352
 20
129.955687974
 30
0.0
 11
239.0111592633
 21
129.955687974
 31
0.0
  0
LINE
  5
1E7
330
1E0
100
AcDbEntity
  8
VERMASSUNG
100
AcDbLine
 10
238.0111592633
 20
77.955687974
 30
0.0
 11
238.0111592633
 21
129.955687974
 31
0.0
  0
MTEXT
  5
1E8
330
1E0
100
AcDbEntity
  8
VERMASSUNG
100
AcDbMText
 10
235.4330237837
 20
100.7519707476
 30
0.0
 40
2.0
 41
0.0
 71
     1
 72
     1
  1
%%c
  7
SLDTEXTSTYLE0
 11
6.123233995736766E-17
 21
1.0
 31
0.0
 73
     1
 44
1.0
  0
MTEXT
  5
1E9
330
1E0
100
AcDbEntity
  8
VERMASSUNG
100
AcDbMText
 10
235.4330239001
 20
104.3606489707
 30
0.0
 40
2.0
 41
0.0
 71
     1
 72
     1
  1
52
  7
SLDTEXTSTYLE0
 11
6.123233995736766E-17
 21
1.0
 31
0.0
 73
     1
 44
1.0
  0
ENDBLK
  5
1E2
330
1E0
100
AcDbEntity
  8
0
100
AcDbBlockEnd
  0
BLOCK
  5
1EC
330
1EB
100
AcDbEntity
  8
0
100
AcDbBlockBegin
  2
*D6
 70
     1
 10
0.0
 20
0.0
 30
0.0
  3
*D6
  1

  0
SOLID
  5
1EE
330
1EB
100
AcDbEntity
  8
VERMASSUNG
100
AcDbTrace
 10
98.4155892907
 20
148.6774647887
 30
0.0
 11
101.4155892907
 21
148.2274647887
 31
0.0
 12
101.4155892907
 22
149.1274647887
 32
0.0
 13
101.4155892907
 23
149.1274647887
 33
0.0
  0
SOLID
  5
1EF
330
1EB
100
AcDbEntity
  8
VERMASSUNG
100
AcDbTrace
 10
218.4155892907
 20
148.6774647887
 30
0.0
 11
215.4155892907
 21
149.1274647887
 31
0.0
 12
215.4155892907
 22
148.2274647887
 32
0.0
 13
215.4155892907
 23
148.2274647887
 33
0.0
  0
LINE
  5
1F0
330
1EB
100
AcDbEntity
  8
VERMASSUNG
100
AcDbLine
 10
98.4155892907
 20
135.155687974
 30
0.0
 11
98.4155892907
 21
149.6774647887
 31
0.0
  0
LINE
  5
1F1
330
1EB
100
AcDbEntity
  8
VERMASSUNG
100
AcDbLine
 10
218.4155892907
 20
123.6447117449
 30
0.0
 11
218.4155892907
 21
149.6774647887
 31
0.0
  0
LINE
  5
1F2
330
1EB
100
AcDbEntity
  8
VERMASSUNG
100
AcDbLine
 10
98.4155892907
 20
148.6774647887
 30
0.0
 11
218.4155892907
 21
148.6774647887
 31
0.0
  0
MTEXT
  5
1F3
330
1EB
100
AcDbEntity
  8
VERMASSUNG
100
AcDbMText
 10
156.5161017501
 20
151.2556001519
 30
0.0
 40
2.0
 41
0.0
 71
     1
 72
     1
  1
120
  7
SLDTEXTSTYLE0
 73
     1
 44
1.0
  0
ENDBLK
  5
1ED
330
1EB
100
AcDbEntity
  8
0
100
AcDbBlockEnd
  0
BLOCK
  5
1F6
330
1F5
100
AcDbEntity
  8
0
100
AcDbBlockBegin
  2
*D7
 70
     1
 10
0.0
 20
0.0
 30
0.0
  3
*D7
  1

  0
SOLID
  5
1F8
330
1F5
100
AcDbEntity
  8
VERMASSUNG
100
AcDbTrace
 10
124.3655892907
 20
142.6774647887
 30
0.0
 11
127.3655892907
 21
142.2274647887
 31
0.0
 12
127.3655892907
 22
143.1274647887
 32
0.0
 13
127.3655892907
 23
143.1274647887
 33
0.0
  0
SOLID
  5
1F9
330
1F5
100
AcDbEntity
  8
VERMASSUNG
100
AcDbTrace
 10
218.4155892907
 20
142.6774647887
 30
0.0
 11
215.4155892907
 21
143.1274647887
 31
0.0
 12
215.4155892907
 22
142.2274647887
 32
0.0
 13
215.4155892907
 23
142.2274647887
 33
0.0
  0
LINE
  5
1FA
330
1F5
100
AcDbEntity
  8
VERMASSUNG
100
AcDbLine
 10
124.3655892907
 20
133.8021282978
 30
0.0
 11
124.3655892907
 21
143.6774647887
 31
0.0
  0
LINE
  5
1FB
330
1F5
100
AcDbEntity
  8
VERMASSUNG
100
AcDbLine
 10
218.4155892907
 20
123.5855444364
 30
0.0
 11
218.4155892907
 21
143.6774647887
 31
0.0
  0
LINE
  5
1FC
330
1F5
100
AcDbEntity
  8
VERMASSUNG
100
AcDbLine
 10
124.3655892907
 20
142.6774647887
 30
0.0
 11
218.4155892907
 21
142.6774647887
 31
0.0
  0
MTEXT
  5
1FD
330
1F5
100
AcDbEntity
  8
VERMASSUNG
100
AcDbMText
 10
168.1915134511
 20
145.2556001519
 30
0.0
 40
2.0
 41
0.0
 71
     1
 72
     1
  1
94.05
  7
SLDTEXTSTYLE0
 73
     1
 44
1.0
  0
ENDBLK
  5
1F7
330
1F5
100
AcDbEntity
  8
0
100
AcDbBlockEnd
  0
BLOCK
  5
200
330
1FF
100
AcDbEntity
  8
0
100
AcDbBlockBegin
  2
*D8
 70
     1
 10
0.0
 20
0.0
 30
0.0
  3
*D8
  1

  0
SOLID
  5
202
330
1FF
100
AcDbEntity
  8
VERMASSUNG
100
AcDbTrace
 10
66.5155892907
 20
154.6774647887
 30
0.0
 11
69.5155892907
 21
154.2274647887
 31
0.0
 12
69.5155892907
 22
155.1274647887
 32
0.0
 13
69.5155892907
 23
155.1274647887
 33
0.0
  0
SOLID
  5
203
330
1FF
100
AcDbEntity
  8
VERMASSUNG
100
AcDbTrace
 10
218.4155892907
 20
154.6774647887
 30
0.0
 11
215.4155892907
 21
155.1274647887
 31
0.0
 12
215.4155892907
 22
154.2274647887
 32
0.0
 13
215.4155892907
 23
154.2274647887
 33
0.0
  0
LINE
  5
204
330
1FF
100
AcDbEntity
  8
VERMASSUNG
100
AcDbLine
 10
66.5155892907
 20
123.6463657205
 30
0.0
 11
66.5155892907
 21
155.6774647887
 31
0.0
  0
LINE
  5
205
330
1FF
100
AcDbEntity
  8
VERMASSUNG
100
AcDbLine
 10
218.4155892907
 20
123.5855444364
 30
0.0
 11
218.4155892907
 21
155.6774647887
 31
0.0
  0
LINE
  5
206
330
1FF
100
AcDbEntity
  8
VERMASSUNG
100
AcDbLine
 10
66.5155892907
 20
154.6774647887
 30
0.0
 11
218.4155892907
 21
154.6774647887
 31
0.0
  0
MTEXT
  5
207
330
1FF
100
AcDbEntity
  8
VERMASSUNG
100
AcDbMText
 10
139.7666228768
 20
157.2556001519
 30
0.0
 40
2.0
 41
0.0
 71
     1
 72
     1
  1
151.9
  7
SLDTEXTSTYLE0
 73
     1
 44
1.0
  0
ENDBLK
  5
201
330
1FF
100
AcDbEntity
  8
0
100
AcDbBlockEnd
  0
ENDSEC
  0
SECTION
  2
ENTITIES
  0
MTEXT
  5
45
330
1F
100
AcDbEntity
  8
KOPF_DÜNN
100
AcDbMText
 10
13.8892156294
 20
23.8442973028
 30
0.0
 40
3.0
 41
0.0
 71
     1
 72
     1
  1
HA6.S32.K21.120
  7
SLDTEXTSTYLE0
 73
     1
 44
1.0
  0
MTEXT
  5
46
330
1F
100
AcDbEntity
  8
VERMASSUNG
100
AcDbMText
 10
13.9329988022
 20
28.8834360957
 30
0.0
 40
3.0
 41
0.0
 71
     1
 72
     1
  1
Schrumpffutter_Heat shrink chuck
  7
SLDTEXTSTYLE0
 73
     1
 44
1.0
  0
MTEXT
  5
47
330
1F
100
AcDbEntity
  8
VERMASSUNG
100
AcDbMText
 10
98.8601118557
 20
13.8365368179
 30
0.0
 40
2.0
 41
0.0
 71
     1
 72
     1
  1
Datum: 28.04.2011
  7
SLDTEXTSTYLE0
 73
     1
 44
1.0
  0
MTEXT
  5
49
330
1F
100
AcDbEntity
  8
VERMASSUNG
100
AcDbMText
 10
13.933048693
 20
18.0482802738
 30
0.0
 40
2.0
 41
0.0
 71
     1
 72
     1
  1
DIN 69 893 HSK A 63
  7
SLDTEXTSTYLE1
 73
     1
 44
1.0
  0
MTEXT
  5
4A
330
1F
100
AcDbEntity
  8
VERMASSUNG
100
AcDbMText
 10
13.9808475933
 20
13.9090973692
 30
0.0
 40
2.0
 41
0.0
 71
     1
 72
     1
  1
Gewicht: 1659g
  7
SLDTEXTSTYLE0
 73
     1
 44
1.0
  0
LINE
  5
4B
330
1F
100
AcDbEntity
  8
0
  6
Continuous
 62
     7
370
    15
100
AcDbLine
 10
218.0340115852
 20
82.9391526279
 30
0.0
 11
218.3083757283
 21
82.9499324245
 31
0.0
  0
LINE
  5
4C
330
1F
100
AcDbEntity
  8
0
  6
Continuous
 62
     7
370
    15
100
AcDbLine
 10
218.3083757283
 20
82.9499324245
 30
0.0
 11
218.5180574098
 21
83.348471748
 31
0.0
  0
LINE
  5
4D
330
1F
100
AcDbEntity
  8
0
  6
Continuous
 62
     7
370
    15
100
AcDbLine
 10
218.2298560968
 20
124.9645285683
 30
0.0
 11
218.0340115852
 21
124.9722233201
 31
0.0
  0
LINE
  5
4E
330
1F
100
AcDbEntity
  8
0
  6
Continuous
 62
     7
370
    15
100
AcDbLine
 10
218.4395377783
 20
124.5659892447
 30
0.0
 11
218.2298560968
 21
124.9645285683
 31
0.0
  0
LINE
  5
4F
330
1F
100
AcDbEntity
  8
0
  6
Continuous
 62
     7
370
    15
100
AcDbLine
 10
98.7155892907
 20
72.455687974
 30
0.0
 11
103.3655892907
 21
72.455687974
 31
0.0
  0
LINE
  5
50
330
1F
100
AcDbEntity
  8
0
  6
Continuous
 62
     7
370
    15
100
AcDbLine
 10
103.3935776498
 20
135.455687974
 30
0.0
 11
98.7155892907
 21
135.455687974
 31
0.0
  0
ARC
  5
51
330
1F
100
AcDbEntity
  8
0
  6
Continuous
 62
     7
370
    15
100
AcDbCircle
 10
98.7155892907
 20
72.755687974
 30
0.0
 40
0.2999999999999972
100
AcDbArc
 50
180.0
 51
270.0
  0
ARC
  5
52
330
1F
100
AcDbEntity
  8
0
  6
Continuous
 62
     7
370
    15
100
AcDbCircle
 10
98.7155892907
 20
135.155687974
 30
0.0
 40
0.2999999999999972
100
AcDbArc
 50
90.0
 51
180.0
  0
ARC
  5
53
330
1F
100
AcDbEntity
  8
0
  6
Continuous
 62
     7
370
    15
100
AcDbCircle
 10
125.3655892907
 20
76.955687974
 30
0.0
 40
0.9999999999999969
100
AcDbArc
 50
90.0
 51
143.1139143113
  0
ARC
  5
54
330
1F
100
AcDbEntity
  8
0
  6
Continuous
 62
     7
370
    15
100
AcDbCircle
 10
125.3655892907
 20
130.955687974
 30
0.0
 40
1.000000000000003
100
AcDbArc
 50
216.9066557268
 51
270.0
  0
LINE
  5
55
330
1F
100
AcDbEntity
  8
0
  6
Continuous
 62
     7
370
    15
100
AcDbLine
 10
151.8536862297
 20
77.955687974
 30
0.0
 11
167.590770346
 21
77.955687974
 31
0.0
  0
LINE
  5
56
330
1F
100
AcDbEntity
  8
0
  6
Continuous
 62
     7
370
    15
100
AcDbLine
 10
125.3655892907
 20
77.955687974
 30
0.0
 11
144.8681701624
 21
77.955687974
 31
0.0
  0
LINE
  5
57
330
1F
100
AcDbEntity
  8
0
  6
Continuous
 62
     7
370
    15
100
AcDbLine
 10
144.8768653734
 20
129.955687974
 30
0.0
 11
125.3655892907
 21
129.955687974
 31
0.0
  0
LINE
  5
58
330
1F
100
AcDbEntity
  8
0
  6
Continuous
 62
     7
370
    15
100
AcDbLine
 10
167.590770346
 20
129.955687974
 30
0.0
 11
151.8642405961
 21
129.955687974
 31
0.0
  0
LINE
  5
59
330
1F
100
AcDbEntity
  8
0
  6
Continuous
 62
     7
370
    15
100
AcDbLine
 10
167.590770346
 20
77.955687974
 30
0.0
 11
216.11173703
 21
81.7743708688
 31
0.0
  0
LINE
  5
5A
330
1F
100
AcDbEntity
  8
0
  6
Continuous
 62
     7
370
    15
100
AcDbLine
 10
216.11173703
 20
126.1370050792
 30
0.0
 11
167.590770346
 21
129.955687974
 31
0.0
  0
ARC
  5
5B
330
1F
100
AcDbEntity
  8
0
  6
Continuous
 62
     7
370
    15
100
AcDbCircle
 10
97.915582538
 20
79.3902603796
 30
0.0
 40
0.6000067526677242
100
AcDbArc
 50
33.5571153394
 51
90.0
  0
ARC
  5
5C
330
1F
100
AcDbEntity
  8
0
  6
Continuous
 62
     7
370
    15
100
AcDbCircle
 10
97.915582538
 20
128.5211155683
 30
0.0
 40
0.60000675266771
100
AcDbArc
 50
270.0
 51
326.4428846606
  0
LINE
  5
5D
330
1F
100
AcDbEntity
  8
0
  6
Continuous
 62
     7
370
    15
100
AcDbLine
 10
96.3998369574
 20
79.7360463073
 30
0.0
 11
97.2723020641
 21
79.9698226281
 31
0.0
  0
LINE
  5
5E
330
1F
100
AcDbEntity
  8
0
  6
Continuous
 62
     7
370
    15
100
AcDbLine
 10
97.2723020641
 20
127.9415533199
 30
0.0
 11
96.3998369574
 21
128.1753296407
 31
0.0
  0
LINE
  5
5F
330
1F
100
AcDbEntity
  8
0
  6
Continuous
 62
     7
370
    15
100
AcDbLine
 10
85.1851640719
 20
127.6134722817
 30
0.0
 11
72.6155892907
 21
126.9837340662
 31
0.0
  0
LINE
  5
60
330
1F
100
AcDbEntity
  8
0
  6
Continuous
 62
     7
370
    15
100
AcDbLine
 10
96.3998369574
 20
128.1753296407
 30
0.0
 11
93.5969830806
 21
128.0349060997
 31
0.0
  0
LINE
  5
61
330
1F
100
AcDbEntity
  8
0
  6
Continuous
 62
     7
370
    15
100
AcDbLine
 10
93.5972045298
 20
79.8764587536
 30
0.0
 11
96.3998369574
 21
79.7360463073
 31
0.0
  0
LINE
  5
62
330
1F
100
AcDbEntity
  8
0
  6
Continuous
 62
     7
370
    15
100
AcDbLine
 10
76.6155892907
 20
80.7272410802
 30
0.0
 11
85.1858630185
 21
80.297868649
 31
0.0
  0
ARC
  5
63
330
1F
100
AcDbEntity
  8
0
  6
Continuous
 62
     7
370
    15
100
AcDbCircle
 10
97.4275934912
 20
79.3902671323
 30
0.0
 40
0.6000000000000085
100
AcDbArc
 50
90.0
 51
105.0
  0
ARC
  5
64
330
1F
100
AcDbEntity
  8
0
  6
Continuous
 62
     7
370
    15
100
AcDbCircle
 10
97.4275934912
 20
128.5211088157
 30
0.0
 40
0.6000000000000085
100
AcDbArc
 50
255.0
 51
270.0
  0
LINE
  5
65
330
1F
100
AcDbEntity
  8
0
  6
Continuous
 62
     7
370
    15
100
AcDbLine
 10
97.4275934912
 20
79.9902671323
 30
0.0
 11
97.915582538
 21
79.9902671323
 31
0.0
  0
LINE
  5
66
330
1F
100
AcDbEntity
  8
0
  6
Continuous
 62
     7
370
    15
100
AcDbLine
 10
97.915582538
 20
127.9211088157
 30
0.0
 11
97.4275934912
 21
127.9211088157
 31
0.0
  0
ARC
  5
67
330
1F
100
AcDbEntity
  8
0
  6
Continuous
 62
     7
370
    15
100
AcDbCircle
 10
215.9155892907
 20
84.2666642031
 30
0.0
 40
2.499999999999995
100
AcDbArc
 50
274.5
 51
327.926641205
  0
ARC
  5
68
330
1F
100
AcDbEntity
  8
0
  6
Continuous
 62
     7
370
    15
100
AcDbCircle
 10
215.9155892907
 20
123.6447117449
 30
0.0
 40
2.500000000000009
100
AcDbArc
 50
32.073358795
 51
85.5
  0
LINE
  5
69
330
1F
100
AcDbEntity
  8
0
  6
Continuous
 62
     7
370
    15
100
AcDbLine
 10
67.7989259307
 20
83.085687974
 30
0.0
 11
75.2155892907
 21
83.085687974
 31
0.0
  0
ARC
  5
6A
330
1F
100
AcDbEntity
  8
0
  6
Continuous
 62
     7
370
    15
100
AcDbCircle
 10
75.2155892907
 20
81.685687974
 30
0.0
 40
1.400000000000006
100
AcDbArc
 50
42.2465410162
 51
90.0
  0
LINE
  5
6B
330
1F
100
AcDbEntity
  8
0
  6
Continuous
 62
     7
370
    15
100
AcDbLine
 10
66.5267497258
 20
84.2245275389
 30
0.0
 11
67.6567527489
 21
83.0945245158
 31
0.0
  0
LINE
  5
6C
330
1F
100
AcDbEntity
  8
0
  6
Continuous
 62
     7
370
    15
100
AcDbLine
 10
67.6567527489
 20
124.8168514322
 30
0.0
 11
66.5254900641
 21
123.6855887474
 31
0.0
  0
ARC
  5
6D
330
1F
100
AcDbEntity
  8
0
  6
Continuous
 62
     7
370
    15
100
AcDbCircle
 10
71.2155892907
 20
126.225687974
 30
0.0
 40
1.400000000000006
100
AcDbArc
 50
270.0
 51
302.5610026528
  0
LINE
  5
6E
330
1F
100
AcDbEntity
  8
0
  6
Continuous
 62
     7
370
    15
100
AcDbLine
 10
71.2155892907
 20
124.825687974
 30
0.0
 11
67.8064776921
 21
124.825687974
 31
0.0
  0
LINE
  5
6F
330
1F
100
AcDbEntity
  8
0
  6
Continuous
 62
     7
370
    15
100
AcDbLine
 10
218.2859791682
 20
83.5199629446
 30
0.0
 11
218.3083757283
 21
82.9499324245
 31
0.0
  0
LINE
  5
70
330
1F
100
AcDbEntity
  8
0
  6
Continuous
 62
     7
370
    15
100
AcDbLine
 10
218.4155892907
 20
85.9564595326
 30
0.0
 11
218.5180574098
 21
83.348471748
 31
0.0
  0
LINE
  5
71
330
1F
100
AcDbEntity
  8
0
  6
Continuous
 62
     7
370
    15
100
AcDbLine
 10
218.2298560968
 20
124.9645285683
 30
0.0
 11
218.215244148
 21
124.5926296385
 31
0.0
  0
LINE
  5
72
330
1F
100
AcDbEntity
  8
0
  6
Continuous
 62
     7
370
    15
100
AcDbLine
 10
218.4395377783
 20
124.5659892447
 30
0.0
 11
218.4084358406
 21
123.77439207
 31
0.0
  0
LINE
  5
73
330
1F
100
AcDbEntity
  8
0
  6
Continuous
 62
     7
370
    15
100
AcDbLine
 10
123.7655892907
 20
73.7687702778
 30
0.0
 11
119.8075221222
 21
73.7687702778
 31
0.0
  0
LINE
  5
74
330
1F
100
AcDbEntity
  8
0
  6
Continuous
 62
     7
370
    15
100
AcDbLine
 10
119.8075221222
 20
73.7687702778
 30
0.0
 11
119.8075221222
 21
123.805687974
 31
0.0
  0
LINE
  5
75
330
1F
100
AcDbEntity
  8
0
  6
Continuous
 62
     7
370
    15
100
AcDbLine
 10
119.8075221222
 20
123.805687974
 30
0.0
 11
123.7655892907
 21
123.805687974
 31
0.0
  0
LINE
  5
76
330
1F
100
AcDbEntity
  8
0
  6
Continuous
 62
     7
370
    15
100
AcDbLine
 10
124.3655892907
 20
74.3954105734
 30
0.0
 11
124.3655892907
 21
123.805687974
 31
0.0
  0
SPLINE
  5
77
330
1F
100
AcDbEntity
  8
0
  6
Continuous
 62
     7
370
    15
100
AcDbSpline
210
0.0
220
0.0
230
1.0
 70
     8
 71
     3
 72
    10
 73
     6
 74
     0
 42
0.00000001
 43
0.00000001
 40
0.0
 40
0.0
 40
0.0
 40
0.0
 40
0.5
 40
0.5
 40
1.0
 40
1.0
 40
1.0
 40
1.0
 10
124.3655892907151
 20
74.39541057340502
 30
0.0
 10
124.3655892907151
 20
74.23552330521136
 30
0.0
 10
124.3042796394792
 20
74.07439604969674
 30
0.0
 10
124.0851800019442
 20
73.84029705134192
 30
0.0
 10
123.9271317956307
 20
73.76877027775069
 30
0.0
 10
123.7655892907151
 20
73.76877027775069
 30
0.0
  0
SPLINE
  5
78
330
1F
100
AcDbEntity
  8
0
  6
Continuous
 62
     7
370
    15
100
AcDbSpline
210
0.0
220
0.0
230
1.0
 70
    24
 71
     3
 72
    12
 73
     8
 74
     0
 42
0.00000001
 43
0.00000001
 40
0.0
 40
0.0
 40
0.0
 40
0.0
 40
0.250000000000002
 40
0.250000000000002
 40
0.500000000000004
 40
0.500000000000004
 40
1.0
 40
1.0
 40
1.0
 40
1.0
 10
123.7655892907151
 20
123.8056879739979
 30
0.0
 10
123.8558283584021
 20
123.8056879739979
 30
0.0
 10
123.9467264725086
 20
123.8056879739979
 30
0.0
 10
124.1013235089972
 20
123.8056879739979
 30
0.0
 10
124.1663019251053
 20
123.8056879739979
 30
0.0
 10
124.3181369530415
 20
123.8056879739979
 30
0.0
 10
124.3655892907151
 20
123.8056879739979
 30
0.0
 10
124.3655892907151
 20
123.8056879739979
 30
0.0
  0
SPLINE
  5
79
330
1F
100
AcDbEntity
  8
0
  6
Continuous
 62
     7
370
    15
100
AcDbSpline
210
0.0
220
0.0
230
1.0
 70
     8
 71
     3
 72
    70
 73
    66
 74
     0
 42
0.00000001
 43
0.00000001
 40
-0.0312499999999998
 40
-0.0312499999999998
 40
0.0
 40
0.0
 40
0.0312500000000003
 40
0.0312500000000003
 40
0.0625000000000006
 40
0.0625000000000006
 40
0.0937500000000009
 40
0.0937500000000009
 40
0.1250000000000012
 40
0.1250000000000012
 40
0.1562500000000014
 40
0.1562500000000014
 40
0.1875000000000017
 40
0.1875000000000017
 40
0.2187500000000021
 40
0.2187500000000021
 40
0.2500000000000023
 40
0.2500000000000023
 40
0.2812500000000024
 40
0.2812500000000024
 40
0.3125000000000026
 40
0.3125000000000026
 40
0.3437500000000027
 40
0.3437500000000027
 40
0.3750000000000028
 40
0.3750000000000028
 40
0.4062500000000029
 40
0.4062500000000029
 40
0.4375000000000031
 40
0.4375000000000031
 40
0.4687500000000032
 40
0.4687500000000032
 40
0.5000000000000033
 40
0.5000000000000033
 40
0.5312500000000032
 40
0.5312500000000032
 40
0.562500000000003
 40
0.562500000000003
 40
0.5937500000000029
 40
0.5937500000000029
 40
0.6250000000000027
 40
0.6250000000000027
 40
0.6562500000000026
 40
0.6562500000000026
 40
0.6875000000000024
 40
0.6875000000000024
 40
0.7187500000000022
 40
0.7187500000000022
 40
0.7500000000000021
 40
0.7500000000000021
 40
0.7812500000000019
 40
0.7812500000000019
 40
0.8125000000000016
 40
0.8125000000000016
 40
0.8437500000000013
 40
0.8437500000000013
 40
0.875000000000001
 40
0.875000000000001
 40
0.9062500000000008
 40
0.9062500000000008
 40
0.9375000000000006
 40
0.9375000000000006
 40
0.9687500000000002
 40
0.9687500000000002
 40
1.0
 40
1.0
 40
1.03125
 40
1.03125
 10
106.1510439520549
 20
129.014651368777
 30
0.0
 10
106.6801346293752
 20
129.014651368777
 30
0.0
 10
106.9402052967523
 20
129.0305518091918
 30
0.0
 10
107.4517799765878
 20
129.0924961593661
 30
0.0
 10
107.7059552603279
 20
129.1392983934574
 30
0.0
 10
108.1902258903897
 20
129.2602753769125
 30
0.0
 10
108.4198669822708
 20
129.3338777047193
 30
0.0
 10
108.8544713305043
 20
129.5057019756974
 30
0.0
 10
109.0600371071509
 20
129.6047053986248
 30
0.0
 10
109.4285942477461
 20
129.8178018125377
 30
0.0
 10
109.5940752304816
 20
129.9327015286673
 30
0.0
 10
109.8864997399167
 20
130.1780684273576
 30
0.0
 10
110.0106007165432
 20
130.3065083278279
 30
0.0
 10
110.210179913293
 20
130.5674004759139
 30
0.0
 10
110.2871134991512
 20
130.7017816472533
 30
0.0
 10
110.3899705576716
 20
130.9711015983596
 30
0.0
 10
110.4154434671307
 20
131.1037828625777
 30
0.0
 10
110.4157338776985
 20
131.3649693367088
 30
0.0
 10
110.3897092439228
 20
131.4947343748735
 30
0.0
 10
110.2875609594308
 20
131.7403170091461
 30
0.0
 10
110.2119845118476
 20
131.8569785464551
 30
0.0
 10
110.0114869807027
 20
132.0788837366096
 30
0.0
 10
109.8863581391943
 20
132.1834949905326
 30
0.0
 10
109.5969993381727
 20
132.3735414021407
 30
0.0
 10
109.4315883511172
 20
132.4603010735903
 30
0.0
 10
109.0585977929694
 20
132.6178054493419
 30
0.0
 10
108.8568647598803
 20
132.6861307141291
 30
0.0
 10
108.4240055090524
 20
132.8043604377483
 30
0.0
 10
108.1900869761631
 20
132.8546553538522
 30
0.0
 10
107.7059032410205
 20
132.9345208907418
 30
0.0
 10
107.4565876150649
 20
132.9642620185414
 30
0.0
 10
106.9435550906372
 20
133.0044147600496
 30
0.0
 10
106.6782612677326
 20
133.0146130294595
 30
0.0
 10
106.1559266478628
 20
133.0146894878442
 30
0.0
 10
105.8961729853811
 20
133.0048984762352
 30
0.0
 10
105.3795611697359
 20
132.9648316374964
 30
0.0
 10
105.1271951292356
 20
132.9347344706396
 30
0.0
 10
104.6456700077027
 20
132.8555122608093
 30
0.0
 10
104.4128192755892
 20
132.805754781346
 30
0.0
 10
103.9757294271504
 20
132.6866628388956
 30
0.0
 10
103.7744084384932
 20
132.6183475773483
 30
0.0
 10
103.4053224131933
 20
132.4629466104148
 30
0.0
 10
103.2363376621417
 20
132.3747942683479
 30
0.0
 10
102.9458816054824
 20
132.1843548792316
 30
0.0
 10
102.8228097941203
 20
132.0817303015325
 30
0.0
 10
102.6214735526983
 20
131.8600899549243
 30
0.0
 10
102.544261006756
 20
131.7413358793769
 30
0.0
 10
102.442057463856
 20
131.4966699404592
 30
0.0
 10
102.4158291124037
 20
131.3695132150106
 30
0.0
 10
102.4153527130865
 20
131.1050650691551
 30
0.0
 10
102.4410951255845
 20
130.9721643888979
 30
0.0
 10
102.5424059019484
 20
130.7053721154159
 30
0.0
 10
102.6192385413393
 20
130.5700082139473
 30
0.0
 10
102.8196423805545
 20
130.3074284186447
 30
0.0
 10
102.9423138788466
 20
130.180453258891
 30
0.0
 10
103.2322611680108
 20
129.9363738728085
 30
0.0
 10
103.400832147376
 20
129.8189487480547
 30
0.0
 10
103.7691017414892
 20
129.6057522871062
 30
0.0
 10
103.9701635987595
 20
129.5085781686814
 30
0.0
 10
104.4071945173444
 20
129.3352232814673
 30
0.0
 10
104.639342730474
 20
129.2608237298105
 30
0.0
 10
105.1203530119729
 20
129.1403708503059
 30
0.0
 10
105.3724530948033
 20
129.0935124750399
 30
0.0
 10
105.8895225810623
 20
129.0305549780561
 30
0.0
 10
106.1510439520549
 20
129.014651368777
 30
0.0
 10
106.6801346293752
 20
129.014651368777
 30
0.0
  0
SPLINE
  5
7A
330
1F
100
AcDbEntity
  8
0
  6
Continuous
 62
     7
370
    15
100
AcDbSpline
210
0.0
220
0.0
230
1.0
 70
     8
 71
     3
 72
    70
 73
    66
 74
     0
 42
0.00000001
 43
0.00000001
 40
-0.0312499999999999
 40
-0.0312499999999999
 40
0.0
 40
0.0
 40
0.0312500000000001
 40
0.0312500000000001
 40
0.0625000000000002
 40
0.0625000000000002
 40
0.0937500000000003
 40
0.0937500000000003
 40
0.1250000000000004
 40
0.1250000000000004
 40
0.1562500000000006
 40
0.1562500000000006
 40
0.1875000000000007
 40
0.1875000000000007
 40
0.2187500000000008
 40
0.2187500000000008
 40
0.2500000000000009
 40
0.2500000000000009
 40
0.281250000000001
 40
0.281250000000001
 40
0.3125000000000011
 40
0.3125000000000011
 40
0.3437500000000012
 40
0.3437500000000012
 40
0.3750000000000013
 40
0.3750000000000013
 40
0.4062500000000014
 40
0.4062500000000014
 40
0.4375000000000016
 40
0.4375000000000016
 40
0.4687500000000017
 40
0.4687500000000017
 40
0.5000000000000018
 40
0.5000000000000018
 40
0.5312500000000017
 40
0.5312500000000017
 40
0.5625000000000016
 40
0.5625000000000016
 40
0.5937500000000014
 40
0.5937500000000014
 40
0.6250000000000013
 40
0.6250000000000013
 40
0.6562500000000012
 40
0.6562500000000012
 40
0.6875000000000011
 40
0.6875000000000011
 40
0.718750000000001
 40
0.718750000000001
 40
0.7500000000000009
 40
0.7500000000000009
 40
0.7812500000000008
 40
0.7812500000000008
 40
0.8125000000000007
 40
0.8125000000000007
 40
0.8437500000000006
 40
0.8437500000000006
 40
0.8750000000000004
 40
0.8750000000000004
 40
0.9062500000000003
 40
0.9062500000000003
 40
0.9375000000000002
 40
0.9375000000000002
 40
0.9687500000000001
 40
0.9687500000000001
 40
1.0
 40
1.0
 40
1.03125
 40
1.03125
 10
106.1510439520549
 20
114.5765948599812
 30
0.0
 10
106.6801346293752
 20
114.5765948599812
 30
0.0
 10
106.9402052967523
 20
114.6012721547664
 30
0.0
 10
107.4517799765878
 20
114.6977438278083
 30
0.0
 10
107.7059552603279
 20
114.7707247437883
 30
0.0
 10
108.1902258903897
 20
114.960465346727
 30
0.0
 10
108.4198669822708
 20
115.0763260051207
 30
0.0
 10
108.8544713305043
 20
115.3489438510784
 30
0.0
 10
109.0600371071509
 20
115.5069829331322
 30
0.0
 10
109.4285942477461
 20
115.8505257841028
 30
0.0
 10
109.5940752304816
 20
116.0372882282045
 30
0.0
 10
109.8864997399167
 20
116.4408314026013
 30
0.0
 10
110.0106007165432
 20
116.6543283990305
 30
0.0
 10
110.210179913293
 20
117.093711712953
 30
0.0
 10
110.2871134991512
 20
117.3228517000986
 30
0.0
 10
110.3899705576716
 20
117.7888258228586
 30
0.0
 10
110.4154434671307
 20
118.0217082685348
 30
0.0
 10
110.4157338776985
 20
118.4871058036146
 30
0.0
 10
110.3897092439228
 20
118.7219815610089
 30
0.0
 10
110.2875609594308
 20
119.1734747082552
 30
0.0
 10
110.2119845118476
 20
119.3915211836666
 30
0.0
 10
110.0114869807027
 20
119.8126157087044
 30
0.0
 10
109.8863581391943
 20
120.0145370932227
 30
0.0
 10
109.5969993381727
 20
120.3865665757416
 30
0.0
 10
109.4315883511172
 20
120.559194879322
 30
0.0
 10
109.0585977929694
 20
120.876512883868
 30
0.0
 10
108.8568647598803
 20
121.0162998173696
 30
0.0
 10
108.4240055090524
 20
121.2604760709214
 30
0.0
 10
108.1900869761631
 20
121.3657055819629
 30
0.0
 10
107.7059032410205
 20
121.5338627283381
 30
0.0
 10
107.4565876150649
 20
121.5971136189319
 30
0.0
 10
106.9435550906372
 20
121.6826928280345
 30
0.0
 10
106.6782612677326
 20
121.7045649929569
 30
0.0
 10
106.1559266478628
 20
121.7047286426009
 30
0.0
 10
105.8961729853811
 20
121.6837269505049
 30
0.0
 10
105.3795611697359
 20
121.5983245954272
 30
0.0
 10
105.1271951292356
 20
121.5343184121403
 30
0.0
 10
104.6456700077027
 20
121.3675038920991
 30
0.0
 10
104.4128192755892
 20
121.2633707286999
 30
0.0
 10
103.9757294271504
 20
121.0173840762049
 30
0.0
 10
103.7744084384932
 20
120.8776342452561
 30
0.0
 10
103.4053224131933
 20
120.5644961755315
 30
0.0
 10
103.2363376621416
 20
120.3890400162614
 30
0.0
 10
102.9458816054824
 20
120.0161997521612
 30
0.0
 10
102.8228097941203
 20
119.8180779420503
 30
0.0
 10
102.6214735526983
 20
119.3973665993166
 30
0.0
 10
102.544261006756
 20
119.1753765786491
 30
0.0
 10
102.442057463856
 20
118.7255116389407
 30
0.0
 10
102.4158291124037
 20
118.4952562258239
 30
0.0
 10
102.4153527130865
 20
118.0239402832748
 30
0.0
 10
102.4410951255845
 20
117.7907028675607
 30
0.0
 10
102.5424059019484
 20
117.3290263280627
 30
0.0
 10
102.6192385413393
 20
117.0981289409505
 30
0.0
 10
102.8196423805545
 20
116.6558529271588
 30
0.0
 10
102.9423138788466
 20
116.4447904958729
 30
0.0
 10
103.2322611680108
 20
116.0432919851403
 30
0.0
 10
103.400832147376
 20
115.8523854630644
 30
0.0
 10
103.7691017414892
 20
115.5086601310673
 30
0.0
 10
103.9701635987595
 20
115.3535229448532
 30
0.0
 10
104.4071945173444
 20
115.0784455847734
 30
0.0
 10
104.639342730474
 20
114.9613293553514
 30
0.0
 10
105.1203530119729
 20
114.7724028702869
 30
0.0
 10
105.3724530948033
 20
114.6993278998926
 30
0.0
 10
105.8895225810623
 20
114.6012758407581
 30
0.0
 10
106.1510439520549
 20
114.5765948599812
 30
0.0
 10
106.6801346293752
 20
114.5765948599812
 30
0.0
  0
LINE
  5
7B
330
1F
100
AcDbEntity
  8
0
  6
Continuous
 62
     7
370
    15
100
AcDbLine
 10
103.3655892907
 20
123.805687974
 30
0.0
 11
113.0236564592
 21
123.805687974
 31
0.0
  0
LINE
  5
7C
330
1F
100
AcDbEntity
  8
0
  6
Continuous
 62
     7
370
    15
100
AcDbLine
 10
113.0236564592
 20
73.7687702778
 30
0.0
 11
113.0236564592
 21
123.805687974
 31
0.0
  0
LINE
  5
7D
330
1F
100
AcDbEntity
  8
0
  6
Continuous
 62
     7
370
    15
100
AcDbLine
 10
113.0236564592
 20
73.7687702778
 30
0.0
 11
111.3655892907
 21
73.7687702778
 31
0.0
  0
SPLINE
  5
7E
330
1F
100
AcDbEntity
  8
0
  6
Continuous
 62
     7
370
    15
100
AcDbSpline
210
0.0
220
0.0
230
1.0
 70
     8
 71
     3
 72
    28
 73
    24
 74
     0
 42
0.00000001
 43
0.00000001
 40
0.0
 40
0.0
 40
0.0
 40
0.0
 40
0.1249999999999999
 40
0.1249999999999999
 40
0.1874999999999998
 40
0.1874999999999998
 40
0.2499999999999997
 40
0.2499999999999997
 40
0.3749999999999993
 40
0.3749999999999993
 40
0.4374999999999993
 40
0.4374999999999993
 40
0.4999999999999992
 40
0.4999999999999992
 40
0.6249999999999992
 40
0.6249999999999992
 40
0.7499999999999992
 40
0.7499999999999992
 40
0.8124999999999993
 40
0.8124999999999993
 40
0.8749999999999996
 40
0.8749999999999996
 40
1.0
 40
1.0
 40
1.0
 40
1.0
 10
111.3655892907151
 20
73.76877027775069
 30
0.0
 10
110.8338815332222
 20
73.76877027775069
 30
0.0
 10
110.3116429679118
 20
73.75298556380046
 30
0.0
 10
109.5417724816368
 20
73.70799014972428
 30
0.0
 10
109.2874129094455
 20
73.68943515464854
 30
0.0
 10
108.783291328747
 20
73.64558243220205
 30
0.0
 10
108.533568511319
 20
73.62023782524984
 30
0.0
 10
107.8079785598727
 20
73.53683574749974
 30
0.0
 10
107.3496182982911
 20
73.47097018834866
 30
0.0
 10
106.6991203548972
 20
73.36199984785688
 30
0.0
 10
106.4874383041048
 20
73.32376021209022
 30
0.0
 10
106.0833668149668
 20
73.24600147467086
 30
0.0
 10
105.8908603011459
 20
73.20650051249552
 30
0.0
 10
105.3410253301246
 20
73.0875927701295
 30
0.0
 10
105.0110965518158
 20
73.00777508870489
 30
0.0
 10
104.4266252832471
 20
72.85443192690884
 30
0.0
 10
104.1803481452337
 20
72.78309817363957
 30
0.0
 10
103.8805053525356
 20
72.68915466656496
 30
0.0
 10
103.7920484954634
 20
72.65996087320504
 30
0.0
 10
103.6386871421583
 20
72.60649429894163
 30
0.0
 10
103.5735989279321
 20
72.58213496466645
 30
0.0
 10
103.4180049119913
 20
72.5185448192217
 30
0.0
 10
103.3655892907151
 20
72.48844188413244
 30
0.0
 10
103.3655892907151
 20
72.47156499113552
 30
0.0
  0
LINE
  5
7F
330
1F
100
AcDbEntity
  8
0
  6
Continuous
 62
     7
370
    15
100
AcDbLine
 10
103.3655892907
 20
72.4715649911
 30
0.0
 11
103.3655892907
 21
72.455687974
 31
0.0
  0
SPLINE
  5
80
330
1F
100
AcDbEntity
  8
0
  6
Continuous
 62
     7
370
    15
100
AcDbSpline
210
0.0
220
0.0
230
1.0
 70
     8
 71
     3
 72
    17
 73
    13
 74
     0
 42
0.00000001
 43
0.00000001
 40
0.0
 40
0.0
 40
0.0
 40
0.0
 40
0.1034796923964057
 40
0.210023918880785
 40
0.3134862136955584
 40
0.4198361274354883
 40
0.5254127712915682
 40
0.6339610695419791
 40
0.7409508756305032
 40
0.8511696089308174
 40
0.9558996534551938
 40
0.9999999999999999
 40
0.9999999999999999
 40
0.9999999999999999
 40
0.9999999999999999
 10
111.3655892907151
 20
134.4228834471621
 30
0.0
 10
110.9303409416051
 20
134.4283316436954
 30
0.0
 10
110.0469544350401
 20
134.4393893842072
 30
0.0
 10
108.7661268498114
 20
134.5257477771088
 30
0.0
 10
107.5487103139374
 20
134.6536179536466
 30
0.0
 10
106.4409044616908
 20
134.8125632522398
 30
0.0
 10
105.4526656577426
 20
134.9870569399553
 30
0.0
 10
104.6279421002111
 20
135.1562227905952
 30
0.0
 10
103.9789885995518
 20
135.3041065731236
 30
0.0
 10
103.56195378409
 20
135.4058971573543
 30
0.0
 10
103.3633570711255
 20
135.4562486799575
 30
0.0
 10
103.3866697925588
 20
135.4503429957352
 30
0.0
 10
103.3935776497963
 20
135.4485930660406
 30
0.0
  0
LINE
  5
81
330
1F
100
AcDbEntity
  8
0
  6
Continuous
 62
     7
370
    15
100
AcDbLine
 10
113.0236564592
 20
134.4228834472
 30
0.0
 11
111.3655892907
 21
134.4228834472
 31
0.0
  0
LINE
  5
82
330
1F
100
AcDbEntity
  8
0
  6
Continuous
 62
     7
370
    15
100
AcDbLine
 10
113.0236564592
 20
128.4143776364
 30
0.0
 11
113.0236564592
 21
134.4228834472
 31
0.0
  0
LINE
  5
83
330
1F
100
AcDbEntity
  8
0
  6
Continuous
 62
     7
370
    15
100
AcDbLine
 10
110.6112096364
 20
128.4143776364
 30
0.0
 11
113.0236564592
 21
128.4143776364
 31
0.0
  0
SPLINE
  5
84
330
1F
100
AcDbEntity
  8
0
  6
Continuous
 62
     7
370
    15
100
AcDbSpline
210
0.0
220
0.0
230
1.0
 70
     8
 71
     3
 72
    20
 73
    16
 74
     0
 42
0.00000001
 43
0.00000001
 40
0.0
 40
0.0
 40
0.0
 40
0.0
 40
0.2500000000000005
 40
0.2500000000000005
 40
0.3750000000000004
 40
0.3750000000000004
 40
0.5000000000000003
 40
0.5000000000000003
 40
0.6250000000000002
 40
0.6250000000000002
 40
0.7500000000000001
 40
0.7500000000000001
 40
0.8750000000000001
 40
0.8750000000000001
 40
1.0
 40
1.0
 40
1.0
 40
1.0
 10
103.3655892907151
 20
123.8056879739979
 30
0.0
 10
103.6139630250031
 20
124.4595504022953
 30
0.0
 10
103.9335331173484
 20
125.0633361842924
 30
0.0
 10
104.5558393505531
 20
125.890174920461
 30
0.0
 10
104.7872636109839
 20
126.1526035584139
 30
0.0
 10
105.3084779506336
 20
126.6492662125189
 30
0.0
 10
105.5950984332686
 20
126.8798530915404
 30
0.0
 10
106.2145831745762
 20
127.2964073161231
 30
0.0
 10
106.5488835540632
 20
127.4839051180906
 30
0.0
 10
107.274144026688
 20
127.815302095727
 30
0.0
 10
107.6560590840785
 20
127.9548060832223
 30
0.0
 10
108.4508472602502
 20
128.1802595906932
 30
0.0
 10
108.8650054544565
 20
128.2668857022369
 30
0.0
 10
109.7305517950379
 20
128.384866491091
 30
0.0
 10
110.1684394100498
 20
128.4143776363653
 30
0.0
 10
110.6112096364044
 20
128.4143776363653
 30
0.0
  0
SPLINE
  5
85
330
1F
100
AcDbEntity
  8
0
  6
Continuous
 62
     7
370
    15
100
AcDbSpline
210
0.0
220
0.0
230
1.0
 70
     8
 71
     3
 72
     8
 73
     4
 74
     0
 42
0.00000001
 43
0.00000001
 40
0.0
 40
0.0
 40
0.0
 40
0.0
 40
1.0
 40
1.0
 40
1.0
 40
1.0
 10
119.8075221222041
 20
73.76877027775069
 30
0.0
 10
119.3120424615384
 20
74.66429636568404
 30
0.0
 10
118.8179284134963
 20
75.5605807807363
 30
0.0
 10
118.3255892907151
 20
76.457850814943
 30
0.0
  0
LINE
  5
86
330
1F
100
AcDbEntity
  8
0
  6
Continuous
 62
     7
370
    15
100
AcDbLine
 10
118.3255892907
 20
76.4578508149
 30
0.0
 11
118.3255892907
 21
123.805687974
 31
0.0
  0
SPLINE
  5
87
330
1F
100
AcDbEntity
  8
0
  6
Continuous
 62
     7
370
    15
100
AcDbSpline
210
0.0
220
0.0
230
1.0
 70
    24
 71
     3
 72
     8
 73
     4
 74
     0
 42
0.00000001
 43
0.00000001
 40
0.0
 40
0.0
 40
0.0
 40
0.0
 40
1.0
 40
1.0
 40
1.0
 40
1.0
 10
118.3255892907151
 20
123.8056879739979
 30
0.0
 10
118.80554128508
 20
123.8056879739979
 30
0.0
 10
119.3008420140536
 20
123.8056879739979
 30
0.0
 10
119.8075221222041
 20
123.8056879739979
 30
0.0
  0
LINE
  5
88
330
1F
100
AcDbEntity
  8
0
  6
Continuous
 62
     7
370
    15
100
AcDbLine
 10
114.5055892907
 20
76.4578508149
 30
0.0
 11
114.5055892907
 21
123.805687974
 31
0.0
  0
SPLINE
  5
89
330
1F
100
AcDbEntity
  8
0
  6
Continuous
 62
     7
370
    15
100
AcDbSpline
210
0.0
220
0.0
230
1.0
 70
     8
 71
     3
 72
     8
 73
     4
 74
     0
 42
0.00000001
 43
0.00000001
 40
0.0
 40
0.0
 40
0.0
 40
0.0
 40
1.0
 40
1.0
 40
1.0
 40
1.0
 10
114.5055892907151
 20
76.457850814943
 30
0.0
 10
114.0132501679339
 20
75.5605807807363
 30
0.0
 10
113.5191361198918
 20
74.66429636568405
 30
0.0
 10
113.023656459226
 20
73.76877027775069
 30
0.0
  0
SPLINE
  5
8A
330
1F
100
AcDbEntity
  8
0
  6
Continuous
 62
     7
370
    15
100
AcDbSpline
210
0.0
220
0.0
230
1.0
 70
    24
 71
     3
 72
     8
 73
     4
 74
     0
 42
0.00000001
 43
0.00000001
 40
0.0
 40
0.0
 40
0.0
 40
0.0
 40
1.0
 40
1.0
 40
1.0
 40
1.0
 10
113.023656459226
 20
123.8056879739979
 30
0.0
 10
113.5303365673765
 20
123.8056879739979
 30
0.0
 10
114.0256372963502
 20
123.8056879739979
 30
0.0
 10
114.5055892907151
 20
123.8056879739979
 30
0.0
  0
LINE
  5
8B
330
1F
100
AcDbEntity
  8
0
  6
Continuous
 62
     7
370
    15
100
AcDbLine
 10
98.4155892907
 20
72.755687974
 30
0.0
 11
98.4155892907
 21
135.1556879665
 31
0.0
  0
ARC
  5
8C
330
1F
100
AcDbEntity
  8
0
  6
Continuous
 62
     7
370
    15
100
AcDbCircle
 10
106.4127270719
 20
115.8505237576
 30
0.0
 40
4.117825238058662
100
AcDbArc
 50
19.7823364131
 51
158.9347445832
  0
SPLINE
  5
8D
330
1F
100
AcDbEntity
  8
0
  6
Continuous
 62
     7
370
    15
100
AcDbSpline
210
0.0
220
0.0
230
1.0
 70
     8
 71
     3
 72
    10
 73
     6
 74
     0
 42
0.00000001
 43
0.00000001
 40
0.0
 40
0.0
 40
0.0
 40
0.0
 40
0.5
 40
0.5
 40
1.0
 40
1.0
 40
1.0
 40
1.0
 10
114.899886822406
 20
130.3556879739978
 30
0.0
 10
114.7783465587375
 20
130.4304141412096
 30
0.0
 10
114.6770121983886
 20
130.5393591571264
 30
0.0
 10
114.5413732555002
 20
130.789789637888
 30
0.0
 10
114.5055892907151
 20
130.932208999987
 30
0.0
 10
114.5055892907151
 20
131.0753418250336
 30
0.0
  0
SPLINE
  5
8E
330
1F
100
AcDbEntity
  8
0
  6
Continuous
 62
     7
370
    15
100
AcDbSpline
210
0.0
220
0.0
230
1.0
 70
    24
 71
     3
 72
    12
 73
     8
 74
     0
 42
0.00000001
 43
0.00000001
 40
0.0
 40
0.0
 40
0.0
 40
0.0
 40
0.2500000000000008
 40
0.2500000000000008
 40
0.5000000000000017
 40
0.5000000000000017
 40
1.0
 40
1.0
 40
1.0
 40
1.0
 10
115.3055892907151
 20
130.3556879739978
 30
0.0
 10
115.2557126083977
 20
130.3556879739978
 30
0.0
 10
115.207709414994
 20
130.3556879739978
 30
0.0
 10
115.1246613122821
 20
130.3556879739978
 30
0.0
 10
115.0885317328142
 20
130.3556879739978
 30
0.0
 10
114.99261970187
 20
130.3556879739978
 30
0.0
 10
114.9428610339012
 20
130.3556879739978
 30
0.0
 10
114.899886822406
 20
130.3556879739978
 30
0.0
  0
SPLINE
  5
8F
330
1F
100
AcDbEntity
  8
0
  6
Continuous
 62
     7
370
    15
100
AcDbSpline
210
0.0
220
0.0
230
1.0
 70
    24
 71
     3
 72
    14
 73
    10
 74
     0
 42
0.00000001
 43
0.00000001
 40
0.0
 40
0.0
 40
0.0
 40
0.0
 40
0.1250000000000006
 40
0.1250000000000006
 40
0.2500000000000012
 40
0.2500000000000012
 40
0.4999999999999998
 40
0.4999999999999998
 40
1.0
 40
1.0
 40
1.0
 40
1.0
 10
115.3055892907151
 20
77.55568797399786
 30
0.0
 10
115.2371514428286
 20
77.55568797399786
 30
0.0
 10
115.1716014040636
 20
77.55568797399786
 30
0.0
 10
115.0671747646556
 20
77.55568797399786
 30
0.0
 10
115.0246301548942
 20
77.55568797399786
 30
0.0
 10
114.912020694354
 20
77.55568797399786
 30
0.0
 10
114.8564816473344
 20
77.55568797399785
 30
0.0
 10
114.7138699518706
 20
77.55568797399786
 30
0.0
 10
114.6504645968749
 20
77.55568797399785
 30
0.0
 10
114.6032640930474
 20
77.55568797399786
 30
0.0
  0
SPLINE
  5
90
330
1F
100
AcDbEntity
  8
0
  6
Continuous
 62
     7
370
    15
100
AcDbSpline
210
0.0
220
0.0
230
1.0
 70
     8
 71
     3
 72
    10
 73
     6
 74
     0
 42
0.00000001
 43
0.00000001
 40
0.0
 40
0.0
 40
0.0
 40
0.0
 40
0.5
 40
0.5
 40
1.0
 40
1.0
 40
1.0
 40
1.0
 10
114.5055892907151
 20
124.0915546054592
 30
0.0
 10
114.5055892907151
 20
124.0437830974659
 30
0.0
 10
114.5077505343122
 20
123.9960733754043
 30
0.0
 10
114.5164219081724
 20
123.900778257856
 30
0.0
 10
114.5229510911284
 20
123.8530856938894
 30
0.0
 10
114.5317369138752
 20
123.8056879739979
 30
0.0
  0
SPLINE
  5
91
330
1F
100
AcDbEntity
  8
0
  6
Continuous
 62
     7
370
    15
100
AcDbSpline
210
0.0
220
0.0
230
1.0
 70
    24
 71
     3
 72
    14
 73
    10
 74
     0
 42
0.00000001
 43
0.00000001
 40
0.0
 40
0.0
 40
0.0
 40
0.0
 40
0.4999999999999954
 40
0.4999999999999954
 40
0.7499999999999947
 40
0.7499999999999947
 40
0.8749999999999973
 40
0.8749999999999973
 40
1.0
 40
1.0
 40
1.0
 40
1.0
 10
118.2279144883828
 20
77.55568797399786
 30
0.0
 10
118.180704329153
 20
77.55568797399786
 30
0.0
 10
118.1174698556093
 20
77.55568797399786
 30
0.0
 10
117.9736579248814
 20
77.55568797399786
 30
0.0
 10
117.918332850405
 20
77.55568797399785
 30
0.0
 10
117.80642167717
 20
77.55568797399786
 30
0.0
 10
117.763634590729
 20
77.55568797399785
 30
0.0
 10
117.6592692576954
 20
77.55568797399785
 30
0.0
 10
117.5950454633937
 20
77.55568797399785
 30
0.0
 10
117.5255892907706
 20
77.55568797399786
 30
0.0
  0
SPLINE
  5
92
330
1F
100
AcDbEntity
  8
0
  6
Continuous
 62
     7
370
    15
100
AcDbSpline
210
0.0
220
0.0
230
1.0
 70
    24
 71
     3
 72
    12
 73
     8
 74
     0
 42
0.00000001
 43
0.00000001
 40
0.0
 40
0.0
 40
0.0
 40
0.0
 40
0.5000000000000074
 40
0.5000000000000074
 40
0.7500000000000037
 40
0.7500000000000037
 40
1.0
 40
1.0
 40
1.0
 40
1.0
 10
117.9312917590243
 20
130.3556879739978
 30
0.0
 10
117.8878535712214
 20
130.3556879739978
 30
0.0
 10
117.8386593229233
 20
130.3556879739978
 30
0.0
 10
117.7419405655423
 20
130.3556879739978
 30
0.0
 10
117.7057530840406
 20
130.3556879739978
 30
0.0
 10
117.6228752255159
 20
130.3556879739978
 30
0.0
 10
117.5749217782092
 20
130.3556879739978
 30
0.0
 10
117.5255892907151
 20
130.3556879739978
 30
0.0
  0
SPLINE
  5
93
330
1F
100
AcDbEntity
  8
0
  6
Continuous
 62
     7
370
    15
100
AcDbSpline
210
0.0
220
0.0
230
1.0
 70
     8
 71
     3
 72
    10
 73
     6
 74
     0
 42
0.00000001
 43
0.00000001
 40
0.0
 40
0.0
 40
0.0
 40
0.0
 40
0.5
 40
0.5
 40
1.0
 40
1.0
 40
1.0
 40
1.0
 10
118.3255892907151
 20
131.0753418250336
 30
0.0
 10
118.3255892907151
 20
130.9315717672158
 30
0.0
 10
118.2895402319963
 20
130.7891524047209
 30
0.0
 10
118.1540313712227
 20
130.5392581113639
 30
0.0
 10
118.0541553781269
 20
130.4312277751158
 30
0.0
 10
117.9312917590252
 20
130.3556879739985
 30
0.0
  0
SPLINE
  5
94
330
1F
100
AcDbEntity
  8
0
  6
Continuous
 62
     7
370
    15
100
AcDbSpline
210
0.0
220
0.0
230
1.0
 70
     8
 71
     3
 72
     9
 73
     5
 74
     0
 42
0.00000001
 43
0.00000001
 40
0.0
 40
0.0
 40
0.0
 40
0.0
 40
0.5
 40
1.0
 40
1.0
 40
1.0
 40
1.0
 10
118.299441667555
 20
123.8056879739978
 30
0.0
 10
118.3081802374373
 20
123.8528307743332
 30
0.0
 10
118.3211995237737
 20
123.9476268560038
 30
0.0
 10
118.3255892907151
 20
124.0434111275641
 30
0.0
 10
118.3255892907151
 20
124.0915546054592
 30
0.0
  0
LINE
  5
95
330
1F
100
AcDbEntity
  8
0
  6
Continuous
 62
     7
370
    15
100
AcDbLine
 10
117.5255892907
 20
130.355687974
 30
0.0
 11
115.3055892907
 21
130.355687974
 31
0.0
  0
LINE
  5
96
330
1F
100
AcDbEntity
  8
0
  6
Continuous
 62
     7
370
    15
100
AcDbLine
 10
117.5255892907
 20
77.555687974
 30
0.0
 11
115.3055892907
 21
77.555687974
 31
0.0
  0
LINE
  5
97
330
1F
100
AcDbEntity
  8
0
  6
Continuous
 62
     7
370
    15
100
AcDbLine
 10
124.565587992
 20
130.355687974
 30
0.0
 11
124.550984239
 21
130.355687974
 31
0.0
  0
LINE
  5
98
330
1F
100
AcDbEntity
  8
0
  6
Continuous
 62
     7
370
    15
100
AcDbLine
 10
124.5655879333
 20
77.555687974
 30
0.0
 11
124.5492023414
 21
77.555687974
 31
0.0
  0
LINE
  5
99
330
1F
100
AcDbEntity
  8
0
  6
Continuous
 62
     7
370
    15
100
AcDbLine
 10
167.590770346
 20
77.955687974
 30
0.0
 11
167.590770346
 21
129.955687974
 31
0.0
  0
SPLINE
  5
9A
330
1F
100
AcDbEntity
  8
0
  6
Continuous
 62
     7
370
    15
100
AcDbSpline
210
0.0
220
0.0
230
1.0
 70
     8
 71
     3
 72
    66
 73
    62
 74
     0
 42
0.00000001
 43
0.00000001
 40
-0.0312500000000006
 40
-0.0312500000000006
 40
0.0
 40
0.0
 40
0.0312499999999997
 40
0.0312499999999997
 40
0.0624999999999994
 40
0.0624999999999994
 40
0.0937499999999991
 40
0.0937499999999991
 40
0.1249999999999989
 40
0.1249999999999989
 40
0.1562499999999986
 40
0.1562499999999986
 40
0.1874999999999983
 40
0.1874999999999983
 40
0.218749999999998
 40
0.218749999999998
 40
0.2499999999999977
 40
0.2499999999999977
 40
0.2812499999999974
 40
0.2812499999999974
 40
0.3124999999999972
 40
0.3124999999999972
 40
0.3437499999999969
 40
0.3437499999999969
 40
0.3749999999999966
 40
0.3749999999999966
 40
0.4062499999999963
 40
0.4062499999999963
 40
0.437499999999996
 40
0.437499999999996
 40
0.4687499999999957
 40
0.4687499999999957
 40
0.4999999999999954
 40
0.4999999999999954
 40
0.5312499999999951
 40
0.5312499999999951
 40
0.5624999999999949
 40
0.5624999999999949
 40
0.5937499999999946
 40
0.5937499999999946
 40
0.6249999999999943
 40
0.6249999999999943
 40
0.6874999999999948
 40
0.6874999999999948
 40
0.7499999999999951
 40
0.7499999999999951
 40
0.7812499999999958
 40
0.7812499999999958
 40
0.8124999999999963
 40
0.8124999999999963
 40
0.843749999999997
 40
0.843749999999997
 40
0.8749999999999976
 40
0.8749999999999976
 40
0.9062499999999982
 40
0.9062499999999982
 40
0.9374999999999988
 40
0.9374999999999988
 40
0.9687499999999994
 40
0.9687499999999994
 40
1.0
 40
1.0
 40
1.03125
 40
1.03125
 10
145.8270620643962
 20
106.1396065654587
 30
0.0
 10
146.1647217799707
 20
106.4212590628456
 30
0.0
 10
146.3442523065471
 20
106.5436970177054
 30
0.0
 10
146.7228776649089
 20
106.7550829491935
 30
0.0
 10
146.9235436343581
 20
106.8445044039767
 30
0.0
 10
147.3376695912125
 20
106.9867102608785
 30
0.0
 10
147.5486218994671
 20
107.0389644374801
 30
0.0
 10
147.9779964044645
 20
107.1073481009639
 30
0.0
 10
148.1985219609211
 20
107.1233352694152
 30
0.0
 10
148.6350095648395
 20
107.1175136099718
 30
0.0
 10
148.8509415211566
 20
107.0961673916
 30
0.0
 10
149.2782082066423
 20
107.0167826077199
 30
0.0
 10
149.4915653302065
 20
106.9578324937223
 30
0.0
 10
149.8995061901779
 20
106.8052757132322
 30
0.0
 10
150.0948641078666
 20
106.7119637001462
 30
0.0
 10
150.4679166502124
 20
106.4902888044958
 30
0.0
 10
150.6472849354907
 20
106.3601733166254
 30
0.0
 10
150.9728193296765
 20
106.0722538546655
 30
0.0
 10
151.1203053483812
 20
105.9142091838989
 30
0.0
 10
151.3829052863878
 20
105.5681698614826
 30
0.0
 10
151.4984035392985
 20
105.378209676918
 30
0.0
 10
151.6822679245736
 20
104.9850273310099
 30
0.0
 10
151.7525101270689
 20
104.7799765793207
 30
0.0
 10
151.8463055218549
 20
104.3516293413278
 30
0.0
 10
151.8684241496416
 20
104.1321266464553
 30
0.0
 10
151.862166010067
 20
103.6975177572646
 30
0.0
 10
151.8334512602543
 20
103.4773330504763
 30
0.0
 10
151.7277385516973
 20
103.0530307327189
 30
0.0
 10
151.6516512228307
 20
102.8490984339964
 30
0.0
 10
151.4546464931317
 20
102.4570603013559
 30
0.0
 10
151.3350561128688
 20
102.2724266173729
 30
0.0
 10
151.0627828595794
 20
101.9328864936946
 30
0.0
 10
150.9075087553675
 20
101.7751360126843
 30
0.0
 10
150.5728355200033
 20
101.4949159532899
 30
0.0
 10
150.3935901375706
 20
101.3718309129903
 30
0.0
 10
150.0123119660425
 20
101.1581127119467
 30
0.0
 10
149.8105532691746
 20
101.0681626809069
 30
0.0
 10
149.3993684461774
 20
100.9263948365134
 30
0.0
 10
149.1881647604731
 20
100.8735084385862
 30
0.0
 10
148.7544193477558
 20
100.8040243072919
 30
0.0
 10
148.5358271346297
 20
100.7882389753261
 30
0.0
 10
147.8842095642
 20
100.79621510819
 30
0.0
 10
147.4450113766438
 20
100.8771449601085
 30
0.0
 10
146.6324728130456
 20
101.1801838167336
 30
0.0
 10
146.247358382538
 20
101.40703831033
 30
0.0
 10
145.7607220974908
 20
101.8368278143897
 30
0.0
 10
145.6109595930392
 20
101.9968387848938
 30
0.0
 10
145.3459016954409
 20
102.3465472788097
 30
0.0
 10
145.2334283517008
 20
102.5320243896506
 30
0.0
 10
145.0495238400855
 20
102.9247839360311
 30
0.0
 10
144.9775814348213
 20
103.1352602657512
 30
0.0
 10
144.8846221020037
 20
103.5620119731014
 30
0.0
 10
144.8626829871893
 20
103.7782044967057
 30
0.0
 10
144.8691052772036
 20
104.2163664208488
 30
0.0
 10
144.8981559862875
 20
104.4361769310611
 30
0.0
 10
145.0036558309726
 20
104.8587953599738
 30
0.0
 10
145.0814026485766
 20
105.0666718948357
 30
0.0
 10
145.2783968820538
 20
105.4573512900288
 30
0.0
 10
145.3968296170478
 20
105.640164822021
 30
0.0
 10
145.6715491581851
 20
105.9820836054098
 30
0.0
 10
145.8270620643962
 20
106.1396065654587
 30
0.0
 10
146.1647217799707
 20
106.4212590628456
 30
0.0
  0
LINE
  5
9B
330
1F
100
AcDbEntity
  8
0
  6
Continuous
 62
     7
370
    15
100
AcDbLine
 10
145.9958919222
 20
129.8515479063
 30
0.0
 11
146.317327643
 21
129.8298815684
 31
0.0
  0
SPLINE
  5
9C
330
1F
100
AcDbEntity
  8
0
  6
Continuous
 62
     7
370
    15
100
AcDbSpline
210
0.0
220
0.0
230
1.0
 70
     8
 71
     3
 72
    24
 73
    20
 74
     0
 42
0.00000001
 43
0.00000001
 40
0.0
 40
0.0
 40
0.0
 40
0.0
 40
0.0470671694528431
 40
0.1378966603257509
 40
0.2319980363134782
 40
0.2828031510940656
 40
0.3348399004537529
 40
0.3904988568613816
 40
0.4475834942587942
 40
0.5067928761133335
 40
0.567649093835085
 40
0.6280095768661267
 40
0.6902049444175757
 40
0.7489566125332804
 40
0.8096947458838228
 40
0.8638562256148212
 40
0.9199738101482875
 40
0.9684247060838239
 40
0.9999999999999999
 40
0.9999999999999999
 40
0.9999999999999999
 40
0.9999999999999999
 10
151.8642405961231
 20
129.9555415753254
 30
0.0
 10
151.8561642313172
 20
129.9546582611525
 30
0.0
 10
151.8325022234411
 20
129.95207034104
 30
0.0
 10
151.5461580953815
 20
129.9212548692397
 30
0.0
 10
151.038443016149
 20
129.8740216852857
 30
0.0
 10
150.5055938685925
 20
129.8341518159714
 30
0.0
 10
150.0283531138843
 20
129.8050336585369
 30
0.0
 10
149.4925953099435
 20
129.7808992612742
 30
0.0
 10
148.9053680590095
 20
129.7650276927904
 30
0.0
 10
148.2861447101062
 20
129.760296261048
 30
0.0
 10
147.657410784742
 20
129.7682455499467
 30
0.0
 10
147.0382640437828
 20
129.7884957849507
 30
0.0
 10
146.4641355893598
 20
129.8183233970879
 30
0.0
 10
145.9458043684435
 20
129.8541677823969
 30
0.0
 10
145.5226480855735
 20
129.8897163584136
 30
0.0
 10
145.19205664571
 20
129.92127777602
 30
0.0
 10
144.982075611678
 20
129.9430501092833
 30
0.0
 10
144.8743157171925
 20
129.9547318381846
 30
0.0
 10
144.8761440017391
 20
129.9545365433835
 30
0.0
 10
144.8768653733555
 20
129.9544594874751
 30
0.0
  0
LINE
  5
9D
330
1F
100
AcDbEntity
  8
0
  6
Continuous
 62
     7
370
    15
100
AcDbLine
 10
145.9958919222
 20
78.0598280417
 30
0.0
 11
145.9213354483
 21
78.053798557
 31
0.0
  0
SPLINE
  5
9E
330
1F
100
AcDbEntity
  8
0
  6
Continuous
 62
     7
370
    15
100
AcDbSpline
210
0.0
220
0.0
230
1.0
 70
     8
 71
     3
 72
    25
 73
    21
 74
     0
 42
0.00000001
 43
0.00000001
 40
0.0
 40
0.0
 40
0.0
 40
0.0
 40
0.0030602780011242
 40
0.0513947594287006
 40
0.142214805402739
 40
0.2366190689327623
 40
0.2876513922792028
 40
0.3399224723202994
 40
0.395788573030562
 40
0.4530908162860101
 40
0.5124094346861934
 40
0.5733844839509995
 40
0.6337323671565789
 40
0.6959232165373102
 40
0.7545219089377924
 40
0.815111660818177
 40
0.8690012508100523
 40
0.9248371707951892
 40
0.9730547719949098
 40
1.0
 40
1.0
 40
1.0
 40
1.0
 10
144.8681701624422
 20
77.95596838444585
 30
0.0
 10
144.8673208528721
 20
77.95587612345648
 30
0.0
 10
144.853057422876
 20
77.95432667881391
 30
0.0
 10
144.9279994982005
 20
77.96250376091014
 30
0.0
 10
145.2006525033621
 20
77.99167179814957
 30
0.0
 10
145.7272343216046
 20
78.04032449608982
 30
0.0
 10
146.2672074688685
 20
78.0800400483345
 30
0.0
 10
146.7507931736163
 20
78.10887635492192
 30
0.0
 10
147.2917310113916
 20
78.13236971932797
 30
0.0
 10
147.8827619167768
 20
78.14729900455805
 30
0.0
 10
148.5040817828221
 20
78.15088033647858
 30
0.0
 10
149.1325155469229
 20
78.1417368057267
 30
0.0
 10
149.7492111139044
 20
78.12042468455226
 30
0.0
 10
150.3182954856485
 20
78.0898825654442
 30
0.0
 10
150.8294944654164
 20
78.05376419233774
 30
0.0
 10
151.2436061519809
 20
78.01846793447278
 30
0.0
 10
151.5641490760734
 20
77.98757194419065
 30
0.0
 10
151.7634119217985
 20
77.96679512169725
 30
0.0
 10
151.8609654211537
 20
77.95619463334481
 30
0.0
 10
151.8556071307557
 20
77.95677656710062
 30
0.0
 10
151.8536862297196
 20
77.95698518534849
 30
0.0
  0
CIRCLE
  5
9F
330
1F
100
AcDbEntity
  8
0
  6
Continuous
 62
     7
370
    15
100
AcDbCircle
 10
148.3655892907
 20
103.955687974
 30
0.0
 40
2.499999999999986
  0
LINE
  5
A0
330
1F
100
AcDbEntity
  8
0
  6
Continuous
 62
     7
370
    15
100
AcDbLine
 10
96.3998369574
 20
79.7360463073
 30
0.0
 11
96.3998369574
 21
128.1753296407
 31
0.0
  0
LINE
  5
A1
330
1F
100
AcDbEntity
  8
0
  6
Continuous
 62
     7
370
    15
100
AcDbLine
 10
76.6155892907
 20
80.7272410802
 30
0.0
 11
76.6155892907
 21
81.9919504428
 31
0.0
  0
SPLINE
  5
A2
330
1F
100
AcDbEntity
  8
0
  6
Continuous
 62
     7
370
    15
100
AcDbSpline
210
0.0
220
0.0
230
1.0
 70
     8
 71
     3
 72
    14
 73
    10
 74
     0
 42
0.00000001
 43
0.00000001
 40
0.0
 40
0.0
 40
0.0
 40
0.0
 40
0.25
 40
0.25
 40
0.5
 40
0.5
 40
0.75
 40
0.75
 40
1.0
 40
1.0
 40
1.0
 40
1.0
 10
75.83730217279935
 20
83.12253665043792
 30
0.0
 10
75.89392884800144
 20
83.01483919660106
 30
0.0
 10
75.98845150829116
 20
82.91204961488174
 30
0.0
 10
76.17149648385342
 20
82.71369230266158
 30
0.0
 10
76.26312306080813
 20
82.61763279398335
 30
0.0
 10
76.42197637850133
 20
82.43010375127409
 30
0.0
 10
76.48986698612303
 20
82.33869477849053
 30
0.0
 10
76.58678401183062
 20
82.16031855758038
 30
0.0
 10
76.61558929071566
 20
82.07309665133421
 30
0.0
 10
76.61558929071566
 20
81.99195044279996
 30
0.0
  0
SPLINE
  5
A3
330
1F
100
AcDbEntity
  8
0
  6
Continuous
 62
     7
370
    15
100
AcDbSpline
210
0.0
220
0.0
230
1.0
 70
     8
 71
     3
 72
    14
 73
    10
 74
     0
 42
0.00000001
 43
0.00000001
 40
0.0
 40
0.0
 40
0.0
 40
0.0
 40
0.1250000000000006
 40
0.1250000000000006
 40
0.2500000000000012
 40
0.2500000000000012
 40
0.4999999999999997
 40
0.4999999999999997
 40
1.0
 40
1.0
 40
1.0
 40
1.0
 10
75.21558929071509
 20
83.56921851271721
 30
0.0
 10
75.26413369937225
 20
83.5749668259975
 30
0.0
 10
75.31704905415715
 20
83.57186593734126
 30
0.0
 10
75.41234439914018
 20
83.54967109317893
 30
0.0
 10
75.45259539642515
 20
83.53243886608308
 30
0.0
 10
75.55686540993811
 20
83.47611094963104
 30
0.0
 10
75.60718738509144
 20
83.43192460368523
 30
0.0
 10
75.73487033261681
 20
83.3009167048346
 30
0.0
 10
75.7909557796791
 20
83.21068218460432
 30
0.0
 10
75.83730217280082
 20
83.12253665043845
 30
0.0
  0
SPLINE
  5
A4
330
1F
100
AcDbEntity
  8
0
  6
Continuous
 62
     7
370
    15
100
AcDbSpline
210
0.0
220
0.0
230
1.0
 70
     8
 71
     3
 72
     8
 73
     4
 74
     0
 42
0.00000001
 43
0.00000001
 40
0.0
 40
0.0
 40
0.0
 40
0.0
 40
1.0
 40
1.0
 40
1.0
 40
1.0
 10
72.94706419776898
 20
83.25937322613444
 30
0.0
 10
73.6816412242519
 20
83.37799823720339
 30
0.0
 10
74.44511629364752
 20
83.47798410933967
 30
0.0
 10
75.21558929071509
 20
83.56921851271721
 30
0.0
  0
SPLINE
  5
A5
330
1F
100
AcDbEntity
  8
0
  6
Continuous
 62
     7
370
    15
100
AcDbSpline
210
0.0
220
0.0
230
1.0
 70
     8
 71
     3
 72
    14
 73
    10
 74
     0
 42
0.00000001
 43
0.00000001
 40
0.0
 40
0.0
 40
0.0
 40
0.0
 40
0.5
 40
0.5
 40
0.75
 40
0.75
 40
0.875
 40
0.875
 40
1.0
 40
1.0
 40
1.0
 40
1.0
 10
67.66558929071508
 20
83.08575020860279
 30
0.0
 10
68.55773542126867
 20
83.08502798240215
 30
0.0
 10
69.44771185706229
 20
83.0896141888596
 30
0.0
 10
70.77430702413793
 20
83.11733919325114
 30
0.0
 10
71.21515395263668
 20
83.12994573087532
 30
0.0
 10
71.8715941900591
 20
83.16096187888276
 30
0.0
 10
72.089607846651
 20
83.17330505150953
 30
0.0
 10
72.52231670033377
 20
83.20632910667281
 30
0.0
 10
72.73759316549857
 20
83.22554627181125
 30
0.0
 10
72.94706419776898
 20
83.25937322613443
 30
0.0
  0
SPLINE
  5
A6
330
1F
100
AcDbEntity
  8
0
  6
Continuous
 62
     7
370
    15
100
AcDbSpline
210
0.0
220
0.0
230
1.0
 70
     8
 71
     3
 72
     8
 73
     4
 74
     0
 42
0.00000001
 43
0.00000001
 40
0.0000005163856711
 40
0.0000005163856711
 40
0.0000005163856711
 40
0.0000005163856711
 40
0.000026289209185
 40
0.000026289209185
 40
0.000026289209185
 40
0.000026289209185
 10
67.65554436029639
 20
83.09573408171067
 30
0.0
 10
67.65887209850786
 20
83.09239983483785
 30
0.0
 10
67.66222055148715
 20
83.08907187755884
 30
0.0
 10
67.66558929071506
 20
83.08575020860279
 30
0.0
  0
SPLINE
  5
A7
330
1F
100
AcDbEntity
  8
0
  6
Continuous
 62
     7
370
    15
100
AcDbSpline
210
0.0
220
0.0
230
1.0
 70
     8
 71
     3
 72
     8
 73
     4
 74
     0
 42
0.00000001
 43
0.00000001
 40
0.0000005099763573
 40
0.0000005099763573
 40
0.0000005099763573
 40
0.0000005099763573
 40
0.0000262827998699
 40
0.0000262827998699
 40
0.0000262827998699
 40
0.0000262827998699
 10
67.66558929071506
 20
124.8256257393929
 30
0.0
 10
67.66222055148732
 20
124.8223040704371
 30
0.0
 10
67.65887209850818
 20
124.8189761131582
 30
0.0
 10
67.65554436029686
 20
124.8156418662855
 30
0.0
  0
SPLINE
  5
A8
330
1F
100
AcDbEntity
  8
0
  6
Continuous
 62
     7
370
    15
100
AcDbSpline
210
0.0
220
0.0
230
1.0
 70
     8
 71
     3
 72
    10
 73
     6
 74
     0
 42
0.00000001
 43
0.00000001
 40
0.0
 40
0.0
 40
0.0
 40
0.0
 40
0.5
 40
0.5
 40
1.0
 40
1.0
 40
1.0
 40
1.0
 10
71.21558929071509
 20
124.7787753658256
 30
0.0
 10
70.62800374362449
 20
124.799840886062
 30
0.0
 10
70.03725735016411
 20
124.8105993719342
 30
0.0
 10
68.85323818486525
 20
124.8239641524699
 30
0.0
 10
68.25982419665979
 20
124.8261067951345
 30
0.0
 10
67.66558929071508
 20
124.8256257393929
 30
0.0
  0
SPLINE
  5
A9
330
1F
100
AcDbEntity
  8
0
  6
Continuous
 62
     7
370
    15
100
AcDbSpline
210
0.0
220
0.0
230
1.0
 70
     8
 71
     3
 72
    18
 73
    14
 74
     0
 42
0.00000001
 43
0.00000001
 40
0.0
 40
0.0
 40
0.0
 40
0.0
 40
0.2500000000000001
 40
0.2500000000000001
 40
0.5000000000000002
 40
0.5000000000000002
 40
0.7500000000000003
 40
0.7500000000000003
 40
0.8750000000000002
 40
0.8750000000000002
 40
0.9375000000000002
 40
0.9375000000000002
 40
1.0
 40
1.0
 40
1.0
 40
1.0
 10
72.61558929071509
 20
125.7997956463608
 30
0.0
 10
72.61558929071509
 20
125.7165887375036
 30
0.0
 10
72.57974019077685
 20
125.6278520821901
 30
0.0
 10
72.45486845474292
 20
125.4457268916299
 30
0.0
 10
72.36446803709505
 20
125.3505968430032
 30
0.0
 10
72.14222538235288
 20
125.1614153338789
 30
0.0
 10
72.01246059590709
 20
125.0664701657842
 30
0.0
 10
71.77182313859558
 20
124.9281914582043
 30
0.0
 10
71.68405584045814
 20
124.8824810249019
 30
0.0
 10
71.52953175325133
 20
124.8246577196804
 30
0.0
 10
71.47292086719656
 20
124.8069429556426
 30
0.0
 10
71.34887683628997
 20
124.7824036524096
 30
0.0
 10
71.28116216127167
 20
124.7764245138714
 30
0.0
 10
71.21558929071509
 20
124.7787753658256
 30
0.0
  0
LINE
  5
AA
330
1F
100
AcDbEntity
  8
0
  6
Continuous
 62
     7
370
    15
100
AcDbLine
 10
72.6155892907
 20
125.7997956464
 30
0.0
 11
72.6155892907
 21
126.9837340662
 31
0.0
  0
SPLINE
  5
AB
330
1F
100
AcDbEntity
  8
0
  6
Continuous
 62
     7
370
    15
100
AcDbSpline
210
0.0
220
0.0
230
1.0
 70
     8
 71
     3
 72
    18
 73
    14
 74
     0
 42
0.00000001
 43
0.00000001
 40
0.0
 40
0.0
 40
0.0
 40
0.0
 40
0.0010655908135292
 40
0.1270932442222494
 40
0.2524038213230003
 40
0.3766453754199021
 40
0.4391400916978163
 40
0.5008262944158763
 40
0.5624240613472017
 40
0.6253147316538588
 40
0.7499969917139828
 40
0.8752743618592033
 40
1.0
 40
1.0
 40
1.0
 40
1.0
 10
85.18588705487446
 20
80.29834841545497
 30
0.0
 10
85.18497652614818
 20
80.29823380121877
 30
0.0
 10
85.07637757023423
 20
80.28456373675475
 30
0.0
 10
85.46401451722016
 20
80.33548260834053
 30
0.0
 10
86.32997108365146
 20
80.43506530039244
 30
0.0
 10
87.53037142187121
 20
80.50418987864798
 30
0.0
 10
88.58794558817559
 20
80.50814299036604
 30
0.0
 10
89.41507917359733
 20
80.48065480073208
 30
0.0
 10
90.24035134010796
 20
80.42211533207526
 30
0.0
 10
91.29471793086735
 20
80.30859492269141
 30
0.0
 10
92.45655793042893
 20
80.12544437852219
 30
0.0
 10
93.40880180275948
 20
79.92083970067459
 30
0.0
 10
93.53451224191012
 20
79.89155309828638
 30
0.0
 10
93.59722874620947
 20
79.8769421134151
 30
0.0
  0
SPLINE
  5
AC
330
1F
100
AcDbEntity
  8
0
  6
Continuous
 62
     7
370
    15
100
AcDbSpline
210
0.0
220
0.0
230
1.0
 70
     8
 71
     3
 72
    18
 73
    14
 74
     0
 42
0.00000001
 43
0.00000001
 40
0.0
 40
0.0
 40
0.0
 40
0.0
 40
0.1248923132163087
 40
0.2505399251702286
 40
0.3748736960321593
 40
0.4374922746932932
 40
0.4990791346244216
 40
0.5607946627363165
 40
0.623391648031894
 40
0.747820629863259
 40
0.8731956351447466
 40
0.9991630028880233
 40
0.9999999999999999
 40
0.9999999999999999
 40
0.9999999999999999
 40
0.9999999999999999
 10
93.59701000667833
 20
128.0343686553126
 30
0.0
 10
93.53326616876281
 20
128.0197066469679
 30
0.0
 10
93.40539299570568
 20
127.9902939603188
 30
0.0
 10
92.45338466853121
 20
127.7853393884284
 30
0.0
 10
91.29283725417781
 20
127.6020758935666
 30
0.0
 10
90.24057144139425
 20
127.4890490511852
 30
0.0
 10
89.41634402754697
 20
127.4307861106947
 30
0.0
 10
88.58874075268054
 20
127.4033404720435
 30
0.0
 10
87.52992530766676
 20
127.4073261627687
 30
0.0
 10
86.32771020331153
 20
127.4764163349684
 30
0.0
 10
85.46253438391746
 20
127.5760420651368
 30
0.0
 10
85.07639808360658
 20
127.6268575123567
 30
0.0
 10
85.18446962092563
 20
127.6131853541929
 30
0.0
 10
85.18518296833071
 20
127.6130951084281
 30
0.0
  0
SPLINE
  5
AD
330
1F
100
AcDbEntity
  8
0
  6
Continuous
 62
     7
370
    15
100
AcDbSpline
210
0.0
220
0.0
230
1.0
 70
     8
 71
     3
 72
    10
 73
     6
 74
     0
 42
0.00000001
 43
0.00000001
 40
0.0
 40
0.0
 40
0.0
 40
0.0
 40
0.0840381716605667
 40
0.7011125076932596
 40
1.0
 40
1.0
 40
1.0
 40
1.0
 10
66.52913625325075
 20
84.2269140663145
 30
0.0
 10
66.52981081058567
 20
84.22470843947862
 30
0.0
 10
66.53543849828186
 20
84.20630736611639
 30
0.0
 10
66.5617599784087
 20
84.22054192883954
 30
0.0
 10
66.57419499525341
 20
84.26622770439054
 30
0.0
 10
66.57825266543848
 20
84.28113542921712
 30
0.0
  0
LINE
  5
AE
330
1F
100
AcDbEntity
  8
0
  6
Continuous
 62
     7
370
    15
100
AcDbLine
 10
66.5155892907
 20
84.2650102275
 30
0.0
 11
66.5155892907
 21
123.6463657205
 31
0.0
  0
SPLINE
  5
AF
330
1F
100
AcDbEntity
  8
0
  6
Continuous
 62
     7
370
    15
100
AcDbSpline
210
0.0
220
0.0
230
1.0
 70
     8
 71
     3
 72
    10
 73
     6
 74
     0
 42
0.00000001
 43
0.00000001
 40
0.0
 40
0.0
 40
0.0
 40
0.0
 40
0.5
 40
0.5
 40
1.0
 40
1.0
 40
1.0
 40
1.0
 10
66.57825266543848
 20
123.6302405187786
 30
0.0
 10
66.56934837632974
 20
123.6759820379918
 30
0.0
 10
66.55283299613676
 20
123.6931728774608
 30
0.0
 10
66.52572505007515
 20
123.6928496005251
 30
0.0
 10
66.5155892907151
 20
123.6749720582286
 30
0.0
 10
66.51558929071508
 20
123.646365720476
 30
0.0
  0
SPLINE
  5
B0
330
1F
100
AcDbEntity
  8
0
  6
Continuous
 62
     7
370
    15
100
AcDbSpline
210
0.0
220
0.0
230
1.0
 70
     8
 71
     3
 72
    26
 73
    22
 74
     0
 42
0.00000001
 43
0.00000001
 40
0.0
 40
0.0
 40
0.0
 40
0.0
 40
0.2500000000000115
 40
0.2500000000000115
 40
0.3750000000000181
 40
0.3750000000000181
 40
0.4375000000000201
 40
0.4375000000000201
 40
0.4687500000000187
 40
0.4687500000000187
 40
0.5000000000000172
 40
0.5000000000000172
 40
0.5312500000000158
 40
0.5312500000000158
 40
0.5625000000000143
 40
0.5625000000000143
 40
0.625000000000013
 40
0.625000000000013
 40
0.7500000000000084
 40
0.7500000000000084
 40
1.0
 40
1.0
 40
1.0
 40
1.0
 10
67.33974293681959
 20
124.3458073075957
 30
0.0
 10
67.30114241395111
 20
124.2280326112402
 30
0.0
 10
67.25484541139687
 20
124.1036429250783
 30
0.0
 10
67.16090606296295
 20
123.8984235927249
 30
0.0
 10
67.12559459604947
 20
123.8268507262784
 30
0.0
 10
67.0594146203038
 20
123.7108974936779
 30
0.0
 10
67.03487625363555
 20
123.6703129588677
 30
0.0
 10
66.99150350808175
 20
123.606171276996
 30
0.0
 10
66.97599510665658
 20
123.5843048517109
 30
0.0
 10
66.94095246206957
 20
123.5387105833678
 30
0.0
 10
66.92140217134978
 20
123.5150402924003
 30
0.0
 10
66.87947489097914
 20
123.4704237330604
 30
0.0
 10
66.85682278074752
 20
123.4495437205425
 30
0.0
 10
66.81584906666087
 20
123.4186703067916
 30
0.0
 10
66.79824976676548
 20
123.4088314369592
 30
0.0
 10
66.75362278090935
 20
123.3898418212631
 30
0.0
 10
66.73306355825602
 20
123.3895174966096
 30
0.0
 10
66.68193811875935
 20
123.3987409374859
 30
0.0
 10
66.66102670577081
 20
123.4199878337028
 30
0.0
 10
66.60957679820989
 20
123.4939567125336
 30
0.0
 10
66.5919114989053
 20
123.5600748058483
 30
0.0
 10
66.57825266543848
 20
123.6302405187786
 30
0.0
  0
SPLINE
  5
B1
330
1F
100
AcDbEntity
  8
0
  6
Continuous
 62
     7
370
    15
100
AcDbSpline
210
0.0
220
0.0
230
1.0
 70
     8
 71
     3
 72
    10
 73
     6
 74
     0
 42
0.00000001
 43
0.00000001
 40
0.0
 40
0.0
 40
0.0
 40
0.0
 40
0.5
 40
0.5
 40
1.0
 40
1.0
 40
1.0
 40
1.0
 10
67.65554436029689
 20
124.8156418662855
 30
0.0
 10
67.58798510537865
 20
124.7479504734758
 30
0.0
 10
67.52434845004215
 20
124.6732433087221
 30
0.0
 10
67.41412769547027
 20
124.5142771762955
 30
0.0
 10
67.36731140224767
 20
124.4299219102875
 30
0.0
 10
67.33974293681959
 20
124.3458073075957
 30
0.0
  0
SPLINE
  5
B2
330
1F
100
AcDbEntity
  8
0
  6
Continuous
 62
     7
370
    15
100
AcDbSpline
210
0.0
220
0.0
230
1.0
 70
     8
 71
     3
 72
    10
 73
     6
 74
     0
 42
0.00000001
 43
0.00000001
 40
0.0
 40
0.0
 40
0.0
 40
0.0
 40
0.5
 40
0.5
 40
1.0
 40
1.0
 40
1.0
 40
1.0
 10
67.33974293681962
 20
83.5655686403999
 30
0.0
 10
67.36722035157283
 20
83.48173184393431
 30
0.0
 10
67.41392898186048
 20
83.39742135634748
 30
0.0
 10
67.52420744460244
 20
83.23830012586461
 30
0.0
 10
67.58809498321408
 20
83.16331538177654
 30
0.0
 10
67.65554436029642
 20
83.09573408171067
 30
0.0
  0
SPLINE
  5
B3
330
1F
100
AcDbEntity
  8
0
  6
Continuous
 62
     7
370
    15
100
AcDbSpline
210
0.0
220
0.0
230
1.0
 70
     8
 71
     3
 72
    24
 73
    20
 74
     0
 42
0.00000001
 43
0.00000001
 40
0.0
 40
0.0
 40
0.0
 40
0.0
 40
0.24999999999998
 40
0.24999999999998
 40
0.3749999999999705
 40
0.3749999999999705
 40
0.4374999999999656
 40
0.4374999999999656
 40
0.4687499999999649
 40
0.4687499999999649
 40
0.4999999999999643
 40
0.4999999999999643
 40
0.5624999999999676
 40
0.5624999999999676
 40
0.6249999999999709
 40
0.6249999999999709
 40
0.7499999999999798
 40
0.7499999999999798
 40
1.0
 40
1.0
 40
1.0
 40
1.0
 10
66.5782526654385
 20
84.28113542921712
 30
0.0
 10
66.59200578410871
 20
84.35178548720738
 30
0.0
 10
66.60977835151458
 20
84.4183835999723
 30
0.0
 10
66.66202944306995
 20
84.49248162020551
 30
0.0
 10
66.68306451865149
 20
84.51373942736706
 30
0.0
 10
66.73596492627992
 20
84.52188535351331
 30
0.0
 10
66.75707059915784
 20
84.52094555011755
 30
0.0
 10
66.80312276783579
 20
84.49992955854022
 30
0.0
 10
66.82149323981918
 20
84.48902075243261
 30
0.0
 10
66.86304487488486
 20
84.45638584148526
 30
0.0
 10
66.88561154764177
 20
84.4348938611139
 30
0.0
 10
66.94839256410182
 20
84.36642791752759
 30
0.0
 10
66.9815223250697
 20
84.32035345932249
 30
0.0
 10
67.03844001155474
 20
84.2353455709878
 30
0.0
 10
67.06262603705848
 20
84.1950652698064
 30
0.0
 10
67.12783398743827
 20
84.08012904334048
 30
0.0
 10
67.16255004762951
 20
84.00954605819346
 30
0.0
 10
67.2557653179604
 20
83.80534029911485
 30
0.0
 10
67.30143785332109
 20
83.6824419167875
 30
0.0
 10
67.33974293681963
 20
83.5655686403999
 30
0.0
  0
SPLINE
  5
B4
330
1F
100
AcDbEntity
  8
0
  6
Continuous
 62
     7
370
    15
100
AcDbSpline
210
0.0
220
0.0
230
1.0
 70
     8
 71
     3
 72
     9
 73
     5
 74
     0
 42
0.00000001
 43
0.00000001
 40
0.0
 40
0.0
 40
0.0
 40
0.0
 40
0.4357932741415368
 40
1.0
 40
1.0
 40
1.0
 40
1.0
 10
218.415589290715
 20
123.5855444364421
 30
0.0
 10
218.4149709383791
 20
123.6409949044276
 30
0.0
 10
218.4135520263108
 20
123.7682352068271
 30
0.0
 10
218.3962873490356
 20
123.8733769107639
 30
0.0
 10
218.3865465019971
 20
123.9326985672933
 30
0.0
  0
LINE
  5
B5
330
1F
100
AcDbEntity
  8
0
  6
Continuous
 62
     7
370
    15
100
AcDbLine
 10
218.4155892907
 20
84.3258315116
 30
0.0
 11
218.4155892907
 21
123.5855444364
 31
0.0
  0
SPLINE
  5
B6
330
1F
100
AcDbEntity
  8
0
  6
Continuous
 62
     7
370
    15
100
AcDbSpline
210
0.0
220
0.0
230
1.0
 70
     8
 71
     3
 72
     8
 73
     4
 74
     0
 42
0.00000001
 43
0.00000001
 40
0.0
 40
0.0
 40
0.0
 40
0.0
 40
1.0
 40
1.0
 40
1.0
 40
1.0
 10
114.5055892907151
 20
131.7609221651695
 30
0.0
 10
114.0128791938693
 20
132.6489411632959
 30
0.0
 10
113.5187964885904
 20
133.5362037989819
 30
0.0
 10
113.023656459226
 20
134.4228834471621
 30
0.0
  0
LINE
  5
B7
330
1F
100
AcDbEntity
  8
0
  6
Continuous
 62
     7
370
    15
100
AcDbLine
 10
114.5055892907
 20
125.0058316416
 30
0.0
 11
114.5055892907
 21
131.7609221652
 31
0.0
  0
SPLINE
  5
B8
330
1F
100
AcDbEntity
  8
0
  6
Continuous
 62
     7
370
    15
100
AcDbSpline
210
0.0
220
0.0
230
1.0
 70
     8
 71
     3
 72
     8
 73
     4
 74
     0
 42
0.00000001
 43
0.00000001
 40
0.0
 40
0.0
 40
0.0
 40
0.0
 40
1.0
 40
1.0
 40
1.0
 40
1.0
 10
113.023656459226
 20
128.4143776363653
 30
0.0
 10
113.5307433009853
 20
127.2832272822016
 30
0.0
 10
114.0263111401252
 20
126.1468428714338
 30
0.0
 10
114.5055892907151
 20
125.0058316415812
 30
0.0
  0
LINE
  5
B9
330
1F
100
AcDbEntity
  8
0
  6
Continuous
 62
     7
370
    15
100
AcDbLine
 10
114.5055892907
 20
125.0058316416
 30
0.0
 11
114.5055892907
 21
124.0915546055
 31
0.0
  0
SPLINE
  5
BA
330
1F
100
AcDbEntity
  8
0
  6
Continuous
 62
     7
370
    15
100
AcDbSpline
210
0.0
220
0.0
230
1.0
 70
     8
 71
     3
 72
     8
 73
     4
 74
     0
 42
0.00000001
 43
0.00000001
 40
0.0
 40
0.0
 40
0.0
 40
0.0
 40
1.0
 40
1.0
 40
1.0
 40
1.0
 10
119.8075221222041
 20
134.4228834471621
 30
0.0
 10
119.3123820928398
 20
133.5362037989819
 30
0.0
 10
118.8182993875608
 20
132.6489411632959
 30
0.0
 10
118.3255892907151
 20
131.7609221651695
 30
0.0
  0
LINE
  5
BB
330
1F
100
AcDbEntity
  8
0
  6
Continuous
 62
     7
370
    15
100
AcDbLine
 10
119.8075221222
 20
128.4143776364
 30
0.0
 11
119.8075221222
 21
134.4228834472
 31
0.0
  0
SPLINE
  5
BC
330
1F
100
AcDbEntity
  8
0
  6
Continuous
 62
     7
370
    15
100
AcDbSpline
210
0.0
220
0.0
230
1.0
 70
     8
 71
     3
 72
     8
 73
     4
 74
     0
 42
0.00000001
 43
0.00000001
 40
0.0
 40
0.0
 40
0.0
 40
0.0
 40
1.0
 40
1.0
 40
1.0
 40
1.0
 10
118.3255892907151
 20
125.0058316415812
 30
0.0
 10
118.8048674413049
 20
126.1468428714338
 30
0.0
 10
119.3004352804449
 20
127.2832272822017
 30
0.0
 10
119.8075221222041
 20
128.4143776363653
 30
0.0
  0
LINE
  5
BD
330
1F
100
AcDbEntity
  8
0
  6
Continuous
 62
     7
370
    15
100
AcDbLine
 10
118.3255892907
 20
125.0058316416
 30
0.0
 11
118.3255892907
 21
131.7609221652
 31
0.0
  0
SPLINE
  5
BE
330
1F
100
AcDbEntity
  8
0
  6
Continuous
 62
     7
370
    15
100
AcDbSpline
210
0.0
220
0.0
230
1.0
 70
     8
 71
     3
 72
    10
 73
     6
 74
     0
 42
0.00000001
 43
0.00000001
 40
0.0
 40
0.0
 40
0.0
 40
0.0
 40
0.5
 40
0.5
 40
1.0
 40
1.0
 40
1.0
 40
1.0
 10
124.3655892907151
 20
133.8021282977618
 30
0.0
 10
124.3655892907151
 20
133.9625335641126
 30
0.0
 10
124.3033514596082
 20
134.1215953771012
 30
0.0
 10
124.0842165358657
 20
134.3525078427315
 30
0.0
 10
123.9266278408738
 20
134.4228834471621
 30
0.0
 10
123.7655892907151
 20
134.4228834471621
 30
0.0
  0
SPLINE
  5
BF
330
1F
100
AcDbEntity
  8
0
  6
Continuous
 62
     7
370
    15
100
AcDbSpline
210
0.0
220
0.0
230
1.0
 70
     8
 71
     3
 72
    12
 73
     8
 74
     0
 42
0.00000001
 43
0.00000001
 40
0.0
 40
0.0
 40
0.0
 40
0.0
 40
0.2499999999999987
 40
0.2499999999999987
 40
0.4999999999999973
 40
0.4999999999999973
 40
1.0
 40
1.0
 40
1.0
 40
1.0
 10
123.7655892907151
 20
128.4143776363653
 30
0.0
 10
123.8567890125408
 20
128.4143776363653
 30
0.0
 10
123.9473840216768
 20
128.3861579377774
 30
0.0
 10
124.1007967481234
 20
128.2917149305293
 30
0.0
 10
124.1660056154471
 20
128.225427953824
 30
0.0
 10
124.318790144787
 20
127.9998031305357
 30
0.0
 10
124.3655892907151
 20
127.8173768675032
 30
0.0
 10
124.3655892907151
 20
127.6366402352563
 30
0.0
  0
LINE
  5
C0
330
1F
100
AcDbEntity
  8
0
  6
Continuous
 62
     7
370
    15
100
AcDbLine
 10
124.3655892907
 20
127.6366402353
 30
0.0
 11
124.3655892907
 21
133.8021282978
 31
0.0
  0
LINE
  5
C1
330
1F
100
AcDbEntity
  8
0
  6
Continuous
 62
     7
370
    15
100
AcDbLine
 10
119.8075221222
 20
128.4143776364
 30
0.0
 11
123.7655892907
 21
128.4143776364
 31
0.0
  0
LINE
  5
C2
330
1F
100
AcDbEntity
  8
0
  6
Continuous
 62
     7
370
    15
100
AcDbLine
 10
118.3255892907
 20
124.0915546055
 30
0.0
 11
118.3255892907
 21
125.0058316416
 31
0.0
  0
LINE
  5
C3
330
1F
100
AcDbEntity
  8
0
  6
Continuous
 62
     7
370
    15
100
AcDbLine
 10
124.3655892907
 20
127.6366402353
 30
0.0
 11
124.3655892907
 21
123.805687974
 31
0.0
  0
LINE
  5
C4
330
1F
100
AcDbEntity
  8
0
  6
Continuous
 62
     7
370
    15
100
AcDbLine
 10
123.7655892907
 20
134.4228834472
 30
0.0
 11
119.8075221222
 21
134.4228834472
 31
0.0
  0
ARC
  5
C5
330
1F
100
AcDbEntity
  8
0
  6
Continuous
 62
     7
370
    15
100
AcDbCircle
 10
106.4155385965
 20
122.6942852999
 30
0.0
 40
7.218013502892287
100
AcDbArc
 50
70.6963021116
 51
109.2888198142
  0
LINE
  5
C6
330
1F
100
AcDbEntity
  8
0
  6
HIDDEN
 62
     7
370
     0
100
AcDbLine
 10
211.1319189622
 20
86.6710549046
 30
0.0
 11
211.2889582252
 21
82.6741387596
 31
0.0
  0
LINE
  5
C7
330
1F
100
AcDbEntity
  8
0
  6
HIDDEN
 62
     7
370
     0
100
AcDbLine
 10
210.4119420468
 20
85.8921882656
 30
0.0
 11
210.5100915862
 21
83.394115675
 31
0.0
  0
LINE
  5
C8
330
1F
100
AcDbEntity
  8
0
  6
HIDDEN
 62
     7
370
     0
100
AcDbLine
 10
218.1513364653
 20
86.9468485694
 30
0.0
 11
218.2859791682
 21
83.5199629446
 31
0.0
  0
LINE
  5
C9
330
1F
100
AcDbEntity
  8
0
  6
HIDDEN
 62
     7
370
     0
100
AcDbLine
 10
218.3916408031
 20
86.5659892447
 30
0.0
 11
218.4155892907
 21
85.9564595326
 31
0.0
  0
LINE
  5
CA
330
1F
100
AcDbEntity
  8
0
  6
HIDDEN
 62
     7
370
     0
100
AcDbLine
 10
215.9567765159
 20
84.859080957
 30
0.0
 11
215.9960363316
 21
83.8598519207
 31
0.0
  0
LINE
  5
CB
330
1F
100
AcDbEntity
  8
0
  6
HIDDEN
 62
     7
370
     0
100
AcDbLine
 10
215.9175167001
 20
85.8583099932
 30
0.0
 11
215.9567765159
 21
84.859080957
 31
0.0
  0
LINE
  5
CC
330
1F
100
AcDbEntity
  8
0
  6
HIDDEN
 62
     7
370
     0
100
AcDbLine
 10
215.9567765159
 20
84.859080957
 30
0.0
 11
218.4548491065
 21
84.9572304964
 31
0.0
  0
LINE
  5
CD
330
1F
100
AcDbEntity
  8
0
  6
HIDDEN
 62
     7
370
     0
100
AcDbLine
 10
215.9960363316
 20
83.8598519207
 30
0.0
 11
218.4941089222
 21
83.9580014601
 31
0.0
  0
LINE
  5
CE
330
1F
100
AcDbEntity
  8
0
  6
HIDDEN
 62
     7
370
     0
100
AcDbLine
 10
215.9175167001
 20
85.8583099932
 30
0.0
 11
218.4155892907
 21
85.9564595326
 31
0.0
  0
LINE
  5
CF
330
1F
100
AcDbEntity
  8
0
  6
HIDDEN
 62
     7
370
     0
100
AcDbLine
 10
218.215244148
 20
124.5926296385
 30
0.0
 11
218.0728168337
 21
120.9676124233
 31
0.0
  0
LINE
  5
D0
330
1F
100
AcDbEntity
  8
0
  6
HIDDEN
 62
     7
370
     0
100
AcDbLine
 10
211.2104385937
 20
125.2403222331
 30
0.0
 11
211.0533993307
 21
121.2434060881
 31
0.0
  0
LINE
  5
D1
330
1F
100
AcDbEntity
  8
0
  6
HIDDEN
 62
     7
370
     0
100
AcDbLine
 10
210.4315719547
 20
124.5203453177
 30
0.0
 11
210.3334224153
 21
122.0222727271
 31
0.0
  0
LINE
  5
D2
330
1F
100
AcDbEntity
  8
0
  6
HIDDEN
 62
     7
370
     0
100
AcDbLine
 10
218.4084358406
 20
123.77439207
 30
0.0
 11
218.3131211716
 21
121.348471748
 31
0.0
  0
LINE
  5
D3
330
1F
100
AcDbEntity
  8
0
  6
HIDDEN
 62
     7
370
     0
100
AcDbLine
 10
215.8782568844
 20
123.0553800358
 30
0.0
 11
215.8389970686
 21
122.0561509995
 31
0.0
  0
LINE
  5
D4
330
1F
100
AcDbEntity
  8
0
  6
HIDDEN
 62
     7
370
     0
100
AcDbLine
 10
215.9175167001
 20
124.054609072
 30
0.0
 11
215.8782568844
 21
123.0553800358
 31
0.0
  0
LINE
  5
D5
330
1F
100
AcDbEntity
  8
0
  6
HIDDEN
 62
     7
370
     0
100
AcDbLine
 10
215.8782568844
 20
123.0553800358
 30
0.0
 11
218.376329475
 21
122.9572304964
 31
0.0
  0
LINE
  5
D6
330
1F
100
AcDbEntity
  8
0
  6
HIDDEN
 62
     7
370
     0
100
AcDbLine
 10
215.8389970686
 20
122.0561509995
 30
0.0
 11
218.3370696592
 21
121.9580014601
 31
0.0
  0
LINE
  5
D7
330
1F
100
AcDbEntity
  8
0
  6
HIDDEN
 62
     7
370
     0
100
AcDbLine
 10
215.9175167001
 20
124.054609072
 30
0.0
 11
218.4155892907
 21
123.9564595326
 31
0.0
  0
LINE
  5
D8
330
1F
100
AcDbEntity
  8
0
  6
HIDDEN
 62
     7
370
     0
100
AcDbLine
 10
156.4155892907
 20
97.955687974
 30
0.0
 11
156.4155892907
 21
109.955687974
 31
0.0
  0
LINE
  5
D9
330
1F
100
AcDbEntity
  8
0
  6
HIDDEN
 62
     7
370
     0
100
AcDbLine
 10
141.4155892907
 20
97.955687974
 30
0.0
 11
141.4155892907
 21
109.955687974
 31
0.0
  0
LINE
  5
DA
330
1F
100
AcDbEntity
  8
0
  6
HIDDEN
 62
     7
370
     0
100
AcDbLine
 10
140.9155892907
 20
98.455687974
 30
0.0
 11
140.9155892907
 21
109.455687974
 31
0.0
  0
LINE
  5
DB
330
1F
100
AcDbEntity
  8
0
  6
HIDDEN
 62
     7
370
     0
100
AcDbLine
 10
160.9155892907
 20
102.455687974
 30
0.0
 11
158.9155892907
 21
102.455687974
 31
0.0
  0
LINE
  5
DC
330
1F
100
AcDbEntity
  8
0
  6
HIDDEN
 62
     7
370
     0
100
AcDbLine
 10
160.9155892907
 20
98.455687974
 30
0.0
 11
160.9155892907
 21
102.455687974
 31
0.0
  0
LINE
  5
DD
330
1F
100
AcDbEntity
  8
0
  6
HIDDEN
 62
     7
370
     0
100
AcDbLine
 10
160.9155892907
 20
105.455687974
 30
0.0
 11
160.9155892907
 21
109.455687974
 31
0.0
  0
LINE
  5
DE
330
1F
100
AcDbEntity
  8
0
  6
HIDDEN
 62
     7
370
     0
100
AcDbLine
 10
158.9155892907
 20
105.455687974
 30
0.0
 11
160.9155892907
 21
105.455687974
 31
0.0
  0
LINE
  5
DF
330
1F
100
AcDbEntity
  8
0
  6
HIDDEN
 62
     7
370
     0
100
AcDbLine
 10
158.9155892907
 20
102.455687974
 30
0.0
 11
158.9155892907
 21
105.455687974
 31
0.0
  0
LINE
  5
E0
330
1F
100
AcDbEntity
  8
0
  6
HIDDEN
 62
     7
370
     0
100
AcDbLine
 10
153.9155892907
 20
103.955687974
 30
0.0
 11
158.9155892907
 21
103.955687974
 31
0.0
  0
LINE
  5
E1
330
1F
100
AcDbEntity
  8
0
  6
HIDDEN
 62
     7
370
     0
100
AcDbLine
 10
147.9155892906
 20
103.955687974
 30
0.0
 11
147.9155892906
 21
105.455687974
 31
0.0
  0
LINE
  5
E2
330
1F
100
AcDbEntity
  8
0
  6
HIDDEN
 62
     7
370
     0
100
AcDbLine
 10
153.9155892907
 20
103.955687974
 30
0.0
 11
153.9155892907
 21
102.455687974
 31
0.0
  0
LINE
  5
E3
330
1F
100
AcDbEntity
  8
0
  6
HIDDEN
 62
     7
370
     0
100
AcDbLine
 10
153.9155892907
 20
105.455687974
 30
0.0
 11
153.9155892907
 21
103.955687974
 31
0.0
  0
LINE
  5
E4
330
1F
100
AcDbEntity
  8
0
  6
HIDDEN
 62
     7
370
     0
100
AcDbLine
 10
147.9155892906
 20
103.955687974
 30
0.0
 11
140.9155892907
 21
103.955687974
 31
0.0
  0
LINE
  5
E5
330
1F
100
AcDbEntity
  8
0
  6
HIDDEN
 62
     7
370
     0
100
AcDbLine
 10
147.9155892906
 20
102.455687974
 30
0.0
 11
147.9155892906
 21
103.955687974
 31
0.0
  0
LINE
  5
E6
330
1F
100
AcDbEntity
  8
0
  6
HIDDEN
 62
     7
370
     0
100
AcDbLine
 10
153.9155892907
 20
102.455687974
 30
0.0
 11
153.9155892907
 21
100.955687974
 31
0.0
  0
LINE
  5
E7
330
1F
100
AcDbEntity
  8
0
  6
HIDDEN
 62
     7
370
     0
100
AcDbLine
 10
147.9155892906
 20
100.955687974
 30
0.0
 11
147.9155892906
 21
102.455687974
 31
0.0
  0
LINE
  5
E8
330
1F
100
AcDbEntity
  8
0
  6
HIDDEN
 62
     7
370
     0
100
AcDbLine
 10
147.9155892906
 20
105.455687974
 30
0.0
 11
147.9155892906
 21
106.955687974
 31
0.0
  0
LINE
  5
E9
330
1F
100
AcDbEntity
  8
0
  6
HIDDEN
 62
     7
370
     0
100
AcDbLine
 10
153.9155892907
 20
106.955687974
 30
0.0
 11
153.9155892907
 21
105.455687974
 31
0.0
  0
LINE
  5
EA
330
1F
100
AcDbEntity
  8
0
  6
HIDDEN
 62
     7
370
     0
100
AcDbLine
 10
147.9155892906
 20
106.955687974
 30
0.0
 11
140.9155892906
 21
106.955687974
 31
0.0
  0
LINE
  5
EB
330
1F
100
AcDbEntity
  8
0
  6
HIDDEN
 62
     7
370
     0
100
AcDbLine
 10
153.9155892907
 20
106.955687974
 30
0.0
 11
160.9155892907
 21
106.955687974
 31
0.0
  0
LINE
  5
EC
330
1F
100
AcDbEntity
  8
0
  6
HIDDEN
 62
     7
370
     0
100
AcDbLine
 10
147.9155892906
 20
100.955687974
 30
0.0
 11
140.9155892906
 21
100.955687974
 31
0.0
  0
LINE
  5
ED
330
1F
100
AcDbEntity
  8
0
  6
HIDDEN
 62
     7
370
     0
100
AcDbLine
 10
153.9155892907
 20
100.955687974
 30
0.0
 11
160.9155892907
 21
100.955687974
 31
0.0
  0
LINE
  5
EE
330
1F
100
AcDbEntity
  8
0
  6
HIDDEN
 62
     7
370
     0
100
AcDbLine
 10
113.0236564592
 20
128.4143776364
 30
0.0
 11
113.0236564592
 21
123.805687974
 31
0.0
  0
ARC
  5
EF
330
1F
100
AcDbEntity
  8
0
  6
HIDDEN
 62
     7
370
     0
100
AcDbCircle
 10
106.7178346006
 20
116.4336690619
 30
0.0
 40
3.660565765032651
100
AcDbArc
 50
265.2638146341
 51
12.7924708268
  0
ARC
  5
F0
330
1F
100
AcDbEntity
  8
0
  6
HIDDEN
 62
     7
370
     0
100
AcDbCircle
 10
106.132676098
 20
116.4455587285
 30
0.0
 40
3.670874462837196
100
AcDbArc
 50
166.0486690848
 51
274.4201516687
  0
LINE
  5
F1
330
1F
100
AcDbEntity
  8
0
  6
HIDDEN
 62
     7
370
     0
100
AcDbLine
 10
86.4107540015
 20
80.4310893711
 30
0.0
 11
85.8766808294
 21
80.3764824329
 31
0.0
  0
LINE
  5
F2
330
1F
100
AcDbEntity
  8
0
  6
HIDDEN
 62
     7
370
     0
100
AcDbLine
 10
85.6385645559
 20
127.5590595744
 30
0.0
 11
86.4106612819
 21
127.480269984
 31
0.0
  0
SPLINE
  5
F3
330
1F
100
AcDbEntity
  8
0
  6
HIDDEN
 62
     7
370
     0
100
AcDbSpline
210
0.0
220
0.0
230
1.0
 70
     8
 71
     3
 72
    11
 73
     7
 74
     0
 42
0.00000001
 43
0.00000001
 40
0.0
 40
0.0
 40
0.0
 40
0.0
 40
0.1657198923044376
 40
0.5168908109438635
 40
0.8862897677935132
 40
0.9999999999999999
 40
0.9999999999999999
 40
0.9999999999999999
 40
0.9999999999999999
 10
218.3865465019971
 20
123.9326985672933
 30
0.0
 10
218.3783975679264
 20
124.0031109978512
 30
0.0
 10
218.352980527874
 20
124.2227318160012
 30
0.0
 10
218.2739801917004
 20
124.4668985946731
 30
0.0
 10
218.2165276642743
 20
124.6237110030948
 30
0.0
 10
218.2251598604816
 20
124.6006211719208
 30
0.0
 10
218.2271916351972
 20
124.5951864790525
 30
0.0
  0
SPLINE
  5
F4
330
1F
100
AcDbEntity
  8
0
  6
HIDDEN
 62
     7
370
     0
100
AcDbSpline
210
0.0
220
0.0
230
1.0
 70
     8
 71
     3
 72
    12
 73
     8
 74
     0
 42
0.00000001
 43
0.00000001
 40
0.0
 40
0.0
 40
0.0
 40
0.0
 40
0.1577787696422716
 40
0.4193129465133476
 40
0.6961234971026368
 40
0.9881441100122291
 40
1.0
 40
1.0
 40
1.0
 40
1.0
 10
218.2281914742174
 20
83.31873732840606
 30
0.0
 10
218.2271424295043
 20
83.31585172948236
 30
0.0
 10
218.2243544876874
 20
83.30818296016764
 30
0.0
 10
218.2897947890457
 20
83.48462495522574
 30
0.0
 10
218.3768812676116
 20
83.81127563072188
 30
0.0
 10
218.415100643794
 20
84.13618712078896
 30
0.0
 10
218.4155709418086
 20
84.31871028140942
 30
0.0
 10
218.415589290715
 20
84.32583151155359
 30
0.0
  0
SPLINE
  5
F5
330
1F
100
AcDbEntity
  8
0
  6
HIDDEN
 62
     7
370
     0
100
AcDbSpline
210
0.0
220
0.0
230
1.0
 70
     8
 71
     3
 72
    33
 73
    29
 74
     0
 42
0.00000001
 43
0.00000001
 40
0.0
 40
0.0
 40
0.0
 40
0.0
 40
0.0328797206495011
 40
0.0659852640169779
 40
0.0998042450848349
 40
0.1338709823604259
 40
0.1667512430695944
 40
0.1998627174724586
 40
0.2337095434356666
 40
0.2678132154923094
 40
0.3003282497173358
 40
0.3664848554579732
 40
0.4002075493833167
 40
0.4324278246404109
 40
0.4979458218780771
 40
0.5313160300642094
 40
0.5638744560080935
 40
0.6300688283506797
 40
0.6637793983098875
 40
0.696784664150108
 40
0.7300192401529755
 40
0.7639808570775048
 40
0.7981958885430991
 40
0.8310662307924965
 40
0.8979549049575095
 40
0.932059803921664
 40
0.9644327457459906
 40
1.0
 40
1.0
 40
1.0
 40
1.0
 10
92.1705912923167
 20
84.1181594981814
 30
0.0
 10
92.09859299047027
 20
84.12794744108973
 30
0.0
 10
91.95410189193709
 20
84.14759055192614
 30
0.0
 10
91.71278195767866
 20
84.17703977054786
 30
0.0
 10
91.45348370669299
 20
84.2055901526383
 30
0.0
 10
91.17949628756038
 20
84.2320213715931
 30
0.0
 10
90.8948685065388
 20
84.25547384894442
 30
0.0
 10
90.60028354757083
 20
84.27547130540307
 30
0.0
 10
90.29335263860186
 20
84.29162698390667
 30
0.0
 10
89.9816211728518
 20
84.30306897160263
 30
0.0
 10
89.56435562415489
 20
84.31176009929833
 30
0.0
 10
89.1437126308687
 20
84.31047204285142
 30
0.0
 10
88.73030907753554
 20
84.29924423145273
 30
0.0
 10
88.32546511512332
 20
84.28194595949381
 30
0.0
 10
87.93482702648414
 20
84.25623031496669
 30
0.0
 10
87.56604595806529
 20
84.2241370058609
 30
0.0
 10
87.21262813735052
 20
84.18857879019825
 30
0.0
 10
86.88718728709127
 20
84.14933037854819
 30
0.0
 10
86.59780951445647
 20
84.10969875564878
 30
0.0
 10
86.39989733670895
 20
84.0805633288039
 30
0.0
 10
86.22256393538022
 20
84.05282789824199
 30
0.0
 10
86.06597925146286
 20
84.02705194137764
 30
0.0
 10
85.93423990236762
 20
84.00442821135236
 30
0.0
 10
85.79282127507278
 20
83.97932454651428
 30
0.0
 10
85.70125720125131
 20
83.96236794760361
 30
0.0
 10
85.66626767276266
 20
83.95581157012738
 30
0.0
 10
85.65970473853332
 20
83.9546029716726
 30
0.0
 10
85.69195081631864
 20
83.96058518914275
 30
0.0
 10
85.70883190459166
 20
83.96371692943855
 30
0.0
  0
SPLINE
  5
F6
330
1F
100
AcDbEntity
  8
0
  6
HIDDEN
 62
     7
370
     0
100
AcDbSpline
210
0.0
220
0.0
230
1.0
 70
     8
 71
     3
 72
    22
 73
    18
 74
     0
 42
0.00000001
 43
0.00000001
 40
0.0
 40
0.0
 40
0.0
 40
0.0
 40
0.0499040281125873
 40
0.1203075863893531
 40
0.1885125365560117
 40
0.2586444168297174
 40
0.3277839407293139
 40
0.3988873214655081
 40
0.468696948893032
 40
0.5405663748364734
 40
0.6097087891222991
 40
0.6809159691092479
 40
0.7490773369981691
 40
0.8192056085539673
 40
0.8876078379088231
 40
0.9579332867310403
 40
1.0
 40
1.0
 40
1.0
 40
1.0
 10
85.67556143237648
 20
123.9538231659162
 30
0.0
 10
85.67681236640199
 20
123.9535841355205
 30
0.0
 10
85.67982809196629
 20
123.9530078860458
 30
0.0
 10
85.80472141901978
 20
123.9298098512223
 30
0.0
 10
86.02920324689735
 20
123.8901298149046
 30
0.0
 10
86.34823140907486
 20
123.8379183935054
 30
0.0
 10
86.75576664007154
 20
123.7785885818332
 30
0.0
 10
87.23755319390447
 20
123.7191138053172
 30
0.0
 10
87.78797287569974
 20
123.6655074489552
 30
0.0
 10
88.38086776164798
 20
123.6250335304809
 30
0.0
 10
89.00782033196516
 20
123.6018342821146
 30
0.0
 10
89.63603130579317
 20
123.5988561788997
 30
0.0
 10
90.26029139827021
 20
123.615990504599
 30
0.0
 10
90.8529096880985
 20
123.650676360289
 30
0.0
 10
91.40973577162666
 20
123.6996327239528
 30
0.0
 10
91.84754261625953
 20
123.749532888576
 30
0.0
 10
92.08260932303244
 20
123.7813192775677
 30
0.0
 10
92.1705912923167
 20
123.7932164498143
 30
0.0
  0
SPLINE
  5
F7
330
1F
100
AcDbEntity
  8
0
  6
HIDDEN
 62
     7
370
     0
100
AcDbSpline
210
0.0
220
0.0
230
1.0
 70
     8
 71
     3
 72
    12
 73
     8
 74
     0
 42
0.00000001
 43
0.00000001
 40
0.0
 40
0.0
 40
0.0
 40
0.0
 40
0.2208187400486002
 40
0.4480899087913332
 40
0.6689430263065297
 40
0.8961368007032334
 40
1.0
 40
1.0
 40
1.0
 40
1.0
 10
92.1705912923167
 20
123.7932164498143
 30
0.0
 10
92.30263450803072
 20
123.8102735376801
 30
0.0
 10
92.57057930507465
 20
123.8448861296385
 30
0.0
 10
92.86573528049645
 20
123.8718580666492
 30
0.0
 10
93.0668280152079
 20
123.8873678258639
 30
0.0
 10
93.16415994274115
 20
123.8934770809688
 30
0.0
 10
93.15550124737189
 20
123.8929318220946
 30
0.0
 10
93.15278473669775
 20
123.8927607568834
 30
0.0
  0
SPLINE
  5
F8
330
1F
100
AcDbEntity
  8
0
  6
HIDDEN
 62
     7
370
     0
100
AcDbSpline
210
0.0
220
0.0
230
1.0
 70
     8
 71
     3
 72
    17
 73
    13
 74
     0
 42
0.00000001
 43
0.00000001
 40
0.0
 40
0.0
 40
0.0
 40
0.0
 40
0.0068986554210187
 40
0.1182493720613262
 40
0.232014284304753
 40
0.3466139786554074
 40
0.4573406134095327
 40
0.5688397605636396
 40
0.6827831719654964
 40
0.7975762679620098
 40
0.8984904882664261
 40
1.0
 40
1.0
 40
1.0
 40
1.0
 10
93.16484232214083
 20
84.01785261581001
 30
0.0
 10
93.16508935304691
 20
84.01783701548622
 30
0.0
 10
93.16932369260161
 20
84.0175696114226
 30
0.0
 10
93.15340067548563
 20
84.01856667850802
 30
0.0
 10
93.1143896027031
 20
84.02108292850771
 30
0.0
 10
93.04593617820322
 20
84.02578061924966
 30
0.0
 10
92.95318454246342
 20
84.03273046488125
 30
0.0
 10
92.83589288164956
 20
84.04245995507404
 30
0.0
 10
92.69305626403111
 20
84.05570696045453
 30
0.0
 10
92.53150686710477
 20
84.07269404937004
 30
0.0
 10
92.3577035277877
 20
84.09298668972818
 30
0.0
 10
92.23308419841128
 20
84.10975212732805
 30
0.0
 10
92.1705912923167
 20
84.1181594981814
 30
0.0
  0
LINE
  5
F9
330
1F
100
AcDbEntity
  8
0
  6
HIDDEN
 62
     7
370
     0
100
AcDbLine
 10
79.4195638869
 20
86.955687974
 30
0.0
 11
79.4195638869
 21
120.955687974
 31
0.0
  0
LWPOLYLINE
  5
FA
330
1F
100
AcDbEntity
  8
0
  6
HIDDEN
 62
     7
370
     0
100
AcDbPolyline
 90
       13
 70
   128
 43
0.0
 10
106.4155892907
 20
125.9012903886
 10
107.2754710516
 20
125.9480492772
 10
108.095145697
 20
126.0861395493
 10
108.8362861515
 20
126.3091042572
 10
109.4642375112
 20
126.6065178191
 10
109.9496374685
 20
126.9644735072
 10
110.2697892608
 20
127.3662337116
 10
110.4097229461
 20
127.7930125715
 10
110.3628953809
 20
128.2248543817
 10
110.13149617
 20
128.6415666993
 10
109.7263452833
 20
129.0236645194
 10
109.1663871261
 20
129.3532813725
 10
108.8016356135
 20
129.5064993272
  0
LWPOLYLINE
  5
FB
330
1F
100
AcDbEntity
  8
0
  6
HIDDEN
 62
     7
370
     0
100
AcDbPolyline
 90
       13
 70
   128
 43
0.0
 10
104.0312105969
 20
129.5071186986
 10
103.6647914553
 20
129.3532813725
 10
103.1048332981
 20
129.0236645194
 10
102.6996824114
 20
128.6415666993
 10
102.4682832005
 20
128.2248543817
 10
102.4214556353
 20
127.7930125715
 10
102.5613893206
 20
127.3662337116
 10
102.8815411129
 20
126.9644735072
 10
103.3669410702
 20
126.6065178191
 10
103.9948924299
 20
126.3091042572
 10
104.7360328845
 20
126.0861395493
 10
105.5557075299
 20
125.9480492772
 10
106.4155892907
 20
125.9012903886
  0
LINE
  5
FC
330
1F
100
AcDbEntity
  8
0
  6
HIDDEN
 62
     7
370
     0
100
AcDbLine
 10
106.0754152593
 20
86.955687974
 30
0.0
 11
106.0754152593
 21
120.955687974
 31
0.0
  0
LINE
  5
FD
330
1F
100
AcDbEntity
  8
0
  6
HIDDEN
 62
     7
370
     0
100
AcDbLine
 10
108.3655892907
 20
88.230687974
 30
0.0
 11
108.3655892907
 21
119.6806879305
 31
0.0
  0
SPLINE
  5
FE
330
1F
100
AcDbEntity
  8
0
  6
HIDDEN
 62
     7
370
     0
100
AcDbSpline
210
0.0
220
0.0
230
1.0
 70
     8
 71
     3
 72
    18
 73
    14
 74
     0
 42
0.00000001
 43
0.00000001
 40
0.0
 40
0.0
 40
0.0
 40
0.0
 40
0.2500000000000033
 40
0.2500000000000033
 40
0.3750000000000029
 40
0.3750000000000029
 40
0.5000000000000026
 40
0.5000000000000026
 40
0.6250000000000022
 40
0.6250000000000022
 40
0.7500000000000018
 40
0.7500000000000018
 40
1.0
 40
1.0
 40
1.0
 40
1.0
 10
72.61558929071509
 20
120.243201596402
 30
0.0
 10
72.61558929071508
 20
120.1887270758498
 30
0.0
 10
72.58067859932291
 20
120.1323460164973
 30
0.0
 10
72.47866929798987
 20
120.0482691756438
 30
0.0
 10
72.43703294331175
 20
120.0209354716529
 30
0.0
 10
72.338627147823
 20
119.9679815560539
 30
0.0
 10
72.28108393611873
 20
119.9420942023368
 30
0.0
 10
72.15378576254578
 20
119.8943166575035
 30
0.0
 10
72.0841984577883
 20
119.8723687393256
 30
0.0
 10
71.93276421263336
 20
119.8329361744129
 30
0.0
 10
71.85008030953941
 20
119.815379925187
 30
0.0
 10
71.59396884750136
 20
119.7729411597665
 30
0.0
 10
71.40605384361336
 20
119.7571784100295
 30
0.0
 10
71.21558929071509
 20
119.7571784100295
 30
0.0
  0
LINE
  5
FF
330
1F
100
AcDbEntity
  8
0
  6
HIDDEN
 62
     7
370
     0
100
AcDbLine
 10
71.2155892907
 20
119.75717841
 30
0.0
 11
67.6655892907
 21
119.75717841
 31
0.0
  0
LINE
  5
100
330
1F
100
AcDbEntity
  8
0
  6
HIDDEN
 62
     7
370
     0
100
AcDbLine
 10
67.6655892907
 20
88.154197538
 30
0.0
 11
75.2155892907
 21
88.154197538
 31
0.0
  0
SPLINE
  5
101
330
1F
100
AcDbEntity
  8
0
  6
HIDDEN
 62
     7
370
     0
100
AcDbSpline
210
0.0
220
0.0
230
1.0
 70
     8
 71
     3
 72
    16
 73
    12
 74
     0
 42
0.00000001
 43
0.00000001
 40
0.0
 40
0.0
 40
0.0
 40
0.0
 40
0.124999999999998
 40
0.124999999999998
 40
0.249999999999996
 40
0.249999999999996
 40
0.4999999999999973
 40
0.4999999999999973
 40
0.7499999999999987
 40
0.7499999999999987
 40
1.0
 40
1.0
 40
1.0
 40
1.0
 10
75.21558929071509
 20
88.1541975379662
 30
0.0
 10
75.31071104538093
 20
88.1541975379662
 30
0.0
 10
75.40404111410899
 20
88.1503817045734
 30
0.0
 10
75.587302874847
 20
88.13561115184359
 30
0.0
 10
75.678180590404
 20
88.12445310386802
 30
0.0
 10
75.93498228792375
 20
88.08198183372629
 30
0.0
 10
76.09004965279573
 20
88.04093563652349
 30
0.0
 10
76.34379611435035
 20
87.9457895199416
 30
0.0
 10
76.44466656601821
 20
87.89102678586002
 30
0.0
 10
76.57991298071305
 20
87.77976566195613
 30
0.0
 10
76.61558929071509
 20
87.72259592462746
 30
0.0
 10
76.61558929071509
 20
87.66817435159375
 30
0.0
  0
LINE
  5
102
330
1F
100
AcDbEntity
  8
0
  6
HIDDEN
 62
     7
370
     0
100
AcDbLine
 10
67.6655892907
 20
88.154197538
 30
0.0
 11
67.6655892907
 21
119.75717841
 31
0.0
  0
LINE
  5
103
330
1F
100
AcDbEntity
  8
0
  6
HIDDEN
 62
     7
370
     0
100
AcDbLine
 10
214.9155892907
 20
87.955687974
 30
0.0
 11
214.9155892907
 21
119.955687974
 31
0.0
  0
SPLINE
  5
104
330
1F
100
AcDbEntity
  8
0
  6
HIDDEN
 62
     7
370
     0
100
AcDbSpline
210
0.0
220
0.0
230
1.0
 70
     8
 71
     3
 72
    17
 73
    13
 74
     0
 42
0.00000001
 43
0.00000001
 40
0.0
 40
0.0
 40
0.0
 40
0.0
 40
0.1052992287148272
 40
0.2136663978245714
 40
0.3189615854481397
 40
0.4272831437090223
 40
0.5330757867477783
 40
0.6419159875060239
 40
0.7480214449179022
 40
0.8572335677201105
 40
0.962797594202198
 40
1.0
 40
1.0
 40
1.0
 40
1.0
 10
159.415589290715
 20
120.1325232640044
 30
0.0
 10
159.5259610659689
 20
120.1331826747863
 30
0.0
 10
159.7499203477967
 20
120.1345207085799
 30
0.0
 10
160.0748795890071
 20
120.1449941444685
 30
0.0
 10
160.3839518359055
 20
120.1605641426537
 30
0.0
 10
160.6633998865893
 20
120.179871777889
 30
0.0
 10
160.910506354195
 20
120.2009297946358
 30
0.0
 10
161.1136282854811
 20
120.2210687379233
 30
0.0
 10
161.2715118317583
 20
120.2384734476516
 30
0.0
 10
161.3713799212304
 20
120.2502655092869
 30
0.0
 10
161.4177398893931
 20
120.255950827724
 30
0.0
 10
161.4108241377467
 20
120.2551045726311
 30
0.0
 10
161.4090220152516
 20
120.2548840535296
 30
0.0
  0
LINE
  5
105
330
1F
100
AcDbEntity
  8
0
  6
HIDDEN
 62
     7
370
     0
100
AcDbLine
 10
159.5285151415
 20
120.1336735357
 30
0.0
 11
159.3468447076
 21
120.1330069195
 31
0.0
  0
SPLINE
  5
106
330
1F
100
AcDbEntity
  8
0
  6
HIDDEN
 62
     7
370
     0
100
AcDbSpline
210
0.0
220
0.0
230
1.0
 70
     8
 71
     3
 72
    17
 73
    13
 74
     0
 42
0.00000001
 43
0.00000001
 40
0.0
 40
0.0
 40
0.0
 40
0.0
 40
0.1044377601094618
 40
0.2126140192666986
 40
0.31772478284174
 40
0.4258463320521405
 40
0.531625202649803
 40
0.6404506646577877
 40
0.7465529798762552
 40
0.8557615262610535
 40
0.927410392837309
 40
1.0
 40
1.0
 40
1.0
 40
1.0
 10
157.4157661192802
 20
120.2556664200746
 30
0.0
 10
157.4209056260584
 20
120.2550315658473
 30
0.0
 10
157.4313686156135
 20
120.2537391318774
 30
0.0
 10
157.5170447588216
 20
120.2434271891486
 30
0.0
 10
157.6529097760516
 20
120.2280182371338
 30
0.0
 10
157.8379746606017
 20
120.2088254924547
 30
0.0
 10
158.0693602374627
 20
120.1878035961121
 30
0.0
 10
158.3374725587638
 20
120.1675763682322
 30
0.0
 10
158.6392064496998
 20
120.1501178958344
 30
0.0
 10
158.9264465492261
 20
120.1391674749133
 30
0.0
 10
159.1884267342169
 20
120.1334540785931
 30
0.0
 10
159.3395399124717
 20
120.1328348816927
 30
0.0
 10
159.415589290715
 20
120.1325232640044
 30
0.0
  0
SPLINE
  5
107
330
1F
100
AcDbEntity
  8
0
  6
HIDDEN
 62
     7
370
     0
100
AcDbSpline
210
0.0
220
0.0
230
1.0
 70
     8
 71
     3
 72
    26
 73
    22
 74
     0
 42
0.00000001
 43
0.00000001
 40
0.0
 40
0.0
 40
0.0
 40
0.0
 40
0.0526543393530241
 40
0.1068426278961182
 40
0.1594949930259921
 40
0.2136609142553612
 40
0.2665581303956704
 40
0.3209789987155661
 40
0.3740355131421469
 40
0.428645429812557
 40
0.4814313093174795
 40
0.5357650047597938
 40
0.5882722264324906
 40
0.642294910092092
 40
0.6949500007165791
 40
0.7491122487192353
 40
0.8021101979865306
 40
0.8566433765508047
 40
0.9096466210780886
 40
0.9642062922071036
 40
0.9999999999999999
 40
0.9999999999999999
 40
0.9999999999999999
 40
0.9999999999999999
 10
161.415589290715
 20
87.65568797399787
 30
0.0
 10
161.4102918364629
 20
87.6563422984378
 30
0.0
 10
161.3995426002099
 20
87.65767000938277
 30
0.0
 10
161.3130947173949
 20
87.6680714831811
 30
0.0
 10
161.1764233525224
 20
87.683560205457
 30
0.0
 10
160.990553719842
 20
87.70281131195333
 30
0.0
 10
160.7584632530246
 20
87.72385154361318
 30
0.0
 10
160.4898923512415
 20
87.74406055342554
 30
0.0
 10
160.187774223598
 20
87.76144148879335
 30
0.0
 10
159.8664486844525
 20
87.77369682060444
 30
0.0
 10
159.5297018809796
 20
87.77962637781349
 30
0.0
 10
159.1939106856214
 20
87.77849251839017
 30
0.0
 10
158.8620625331782
 20
87.77046186489785
 30
0.0
 10
158.5491383416287
 20
87.75660860238236
 30
0.0
 10
158.2576844775083
 20
87.7382412913445
 30
0.0
 10
158.0004260970497
 20
87.717651336633
 30
0.0
 10
157.7805422576068
 20
87.69682802024577
 30
0.0
 10
157.6077321826954
 20
87.67835861102883
 30
0.0
 10
157.4870366925012
 20
87.66439217083408
 30
0.0
 10
157.4219051143674
 20
87.656465683906
 30
0.0
 10
157.4216543918304
 20
87.65643171365329
 30
0.0
 10
157.421555067496
 20
87.6564182562562
 30
0.0
  0
LINE
  5
108
330
1F
100
AcDbEntity
  8
0
  6
HIDDEN
 62
     7
370
     0
100
AcDbLine
 10
156.9155892907
 20
88.055687974
 30
0.0
 11
156.9155892907
 21
119.8556879516
 31
0.0
  0
LINE
  5
109
330
1F
100
AcDbEntity
  8
0
  6
HIDDEN
 62
     7
370
     0
100
AcDbLine
 10
167.4155892907
 20
87.955687974
 30
0.0
 11
167.4155892907
 21
119.955687974
 31
0.0
  0
LINE
  5
10A
330
1F
100
AcDbEntity
  8
0
  6
HIDDEN
 62
     7
370
     0
100
AcDbLine
 10
67.6655892907
 20
85.965687974
 30
0.0
 11
67.6655892907
 21
83.0857502086
 31
0.0
  0
LINE
  5
10B
330
1F
100
AcDbEntity
  8
0
  6
HIDDEN
 62
     7
370
     0
100
AcDbLine
 10
76.6155892907
 20
85.965687974
 30
0.0
 11
76.6155892907
 21
81.9919504428
 31
0.0
  0
LINE
  5
10C
330
1F
100
AcDbEntity
  8
0
  6
HIDDEN
 62
     7
370
     0
100
AcDbLine
 10
67.6655892907
 20
121.945687974
 30
0.0
 11
67.6655892907
 21
124.8256257394
 31
0.0
  0
LINE
  5
10D
330
1F
100
AcDbEntity
  8
0
  6
HIDDEN
 62
     7
370
     0
100
AcDbLine
 10
72.6155892907
 20
121.945687974
 30
0.0
 11
72.6155892907
 21
125.7997956464
 31
0.0
  0
LINE
  5
10E
330
1F
100
AcDbEntity
  8
0
  6
HIDDEN
 62
     7
370
     0
100
AcDbLine
 10
120.2155892907
 20
94.455687974
 30
0.0
 11
120.2155892907
 21
113.455687974
 31
0.0
  0
LINE
  5
10F
330
1F
100
AcDbEntity
  8
0
  6
HIDDEN
 62
     7
370
     0
100
AcDbLine
 10
117.7155892907
 20
94.455687974
 30
0.0
 11
117.7155892907
 21
113.455687974
 31
0.0
  0
LINE
  5
110
330
1F
100
AcDbEntity
  8
0
  6
HIDDEN
 62
     7
370
     0
100
AcDbLine
 10
108.8655892907
 20
95.455687974
 30
0.0
 11
108.8655892907
 21
112.455687974
 31
0.0
  0
LINE
  5
111
330
1F
100
AcDbEntity
  8
0
  6
HIDDEN
 62
     7
370
     0
100
AcDbLine
 10
103.3655892907
 20
72.4715649911
 30
0.0
 11
103.3655892907
 21
77.555687974
 31
0.0
  0
LINE
  5
112
330
1F
100
AcDbEntity
  8
0
  6
HIDDEN
 62
     7
370
     0
100
AcDbLine
 10
111.3655892907
 20
77.555687974
 30
0.0
 11
103.3655892907
 21
77.555687974
 31
0.0
  0
LINE
  5
113
330
1F
100
AcDbEntity
  8
0
  6
HIDDEN
 62
     7
370
     0
100
AcDbLine
 10
124.3655892907
 20
77.555687974
 30
0.0
 11
118.2279144884
 21
77.555687974
 31
0.0
  0
LINE
  5
114
330
1F
100
AcDbEntity
  8
0
  6
HIDDEN
 62
     7
370
     0
100
AcDbLine
 10
114.603264093
 20
77.555687974
 30
0.0
 11
111.3655892907
 21
77.555687974
 31
0.0
  0
LINE
  5
115
330
1F
100
AcDbEntity
  8
0
  6
HIDDEN
 62
     7
370
     0
100
AcDbLine
 10
124.3655892907
 20
130.355687974
 30
0.0
 11
117.931291759
 21
130.355687974
 31
0.0
  0
LINE
  5
116
330
1F
100
AcDbEntity
  8
0
  6
HIDDEN
 62
     7
370
     0
100
AcDbLine
 10
111.3655892907
 20
130.355687974
 30
0.0
 11
103.3655892907
 21
130.355687974
 31
0.0
  0
LINE
  5
117
330
1F
100
AcDbEntity
  8
0
  6
HIDDEN
 62
     7
370
     0
100
AcDbLine
 10
114.8998868224
 20
130.355687974
 30
0.0
 11
111.3655892907
 21
130.355687974
 31
0.0
  0
ELLIPSE
  5
118
330
1F
100
AcDbEntity
  8
0
  6
HIDDEN
 62
     7
370
     0
100
AcDbEllipse
 10
62.3481574264
 20
103.955687974
 30
0.0
 11
20.07002071827083
 21
-1.421085471520200E-14
 31
0.0
210
0.0
220
0.0
230
1.0
 40
0.8164965809
 41
4.921555463185717
 42
4.980534842098416
  0
ELLIPSE
  5
119
330
1F
100
AcDbEntity
  8
0
  6
HIDDEN
 62
     7
370
     0
100
AcDbEllipse
 10
62.3481574264
 20
103.955687974
 30
0.0
 11
20.07002071827081
 21
-1.421085471520200E-14
 31
0.0
210
0.0
220
0.0
230
1.0
 40
0.8164965809
 41
1.302650465081183
 42
1.361629843993883
  0
LINE
  5
11A
330
1F
100
AcDbEntity
  8
0
  6
HIDDEN
 62
     7
370
     0
100
AcDbLine
 10
76.6155892907
 20
85.965687974
 30
0.0
 11
76.6155892907
 21
87.6681743516
 31
0.0
  0
LINE
  5
11B
330
1F
100
AcDbEntity
  8
0
  6
HIDDEN
 62
     7
370
     0
100
AcDbLine
 10
67.6655892907
 20
85.965687974
 30
0.0
 11
67.6655892907
 21
88.154197538
 31
0.0
  0
LINE
  5
11C
330
1F
100
AcDbEntity
  8
0
  6
HIDDEN
 62
     7
370
     0
100
AcDbLine
 10
72.6155892907
 20
121.945687974
 30
0.0
 11
72.6155892907
 21
120.2432015964
 31
0.0
  0
LINE
  5
11D
330
1F
100
AcDbEntity
  8
0
  6
HIDDEN
 62
     7
370
     0
100
AcDbLine
 10
67.6655892907
 20
121.945687974
 30
0.0
 11
67.6655892907
 21
119.75717841
 31
0.0
  0
LINE
  5
11E
330
1F
100
AcDbEntity
  8
0
  6
HIDDEN
 62
     7
370
     0
100
AcDbLine
 10
128.4155892907
 20
98.455687974
 30
0.0
 11
128.4155892907
 21
109.455687974
 31
0.0
  0
LINE
  5
11F
330
1F
100
AcDbEntity
  8
0
  6
HIDDEN
 62
     7
370
     0
100
AcDbLine
 10
127.634470486
 20
99.755687974
 30
0.0
 11
127.634470486
 21
108.155687974
 31
0.0
  0
SPLINE
  5
120
330
1F
100
AcDbEntity
  8
0
  6
HIDDEN
 62
     7
370
     0
100
AcDbSpline
210
0.0
220
0.0
230
1.0
 70
     8
 71
     3
 72
    20
 73
    16
 74
     0
 42
0.00000001
 43
0.00000001
 40
0.0
 40
0.0
 40
0.0
 40
0.0
 40
0.1119579707658057
 40
0.1774756722590712
 40
0.2490954771800521
 40
0.329841312117001
 40
0.3986116748369805
 40
0.4998890770594001
 40
0.6138508289699008
 40
0.6790149964273022
 40
0.749539688772483
 40
0.8296830162110177
 40
0.8981246495842209
 40
0.9995327747141911
 40
1.0
 40
1.0
 40
1.0
 40
1.0
 10
93.16442427768636
 20
80.35569531078596
 30
0.0
 10
93.12110058217448
 20
80.36912480088588
 30
0.0
 10
93.05242389990586
 20
80.39041321623745
 30
0.0
 10
92.60724296432876
 20
80.49372381836353
 30
0.0
 10
92.08068152797667
 20
80.60702726743678
 30
0.0
 10
91.39525511725483
 20
80.72996002675478
 30
0.0
 10
90.50193639711962
 20
80.85199416719323
 30
0.0
 10
89.38857529107882
 20
80.96972947077217
 30
0.0
 10
88.27780087778918
 20
80.98170396583126
 30
0.0
 10
87.3930543652221
 20
80.95464508986949
 30
0.0
 10
86.72586074611668
 20
80.90671282597181
 30
0.0
 10
86.18459202671619
 20
80.85041939842556
 30
0.0
 10
85.79701504425849
 20
80.80533672778832
 30
0.0
 10
85.60308068828704
 20
80.76646399413971
 30
0.0
 10
85.66618409240972
 20
80.77717019624113
 30
0.0
 10
85.66647350006237
 20
80.77721929750376
 30
0.0
  0
LINE
  5
121
330
1F
100
AcDbEntity
  8
0
  6
HIDDEN
 62
     7
370
     0
100
AcDbLine
 10
86.5756383124
 20
80.8880292801
 30
0.0
 11
86.7594589135
 21
80.9062160576
 31
0.0
  0
LINE
  5
122
330
1F
100
AcDbEntity
  8
0
  6
HIDDEN
 62
     7
370
     0
100
AcDbLine
 10
86.7594562135
 20
127.0050904594
 30
0.0
 11
86.5854243599
 21
127.0222957757
 31
0.0
  0
SPLINE
  5
123
330
1F
100
AcDbEntity
  8
0
  6
HIDDEN
 62
     7
370
     0
100
AcDbSpline
210
0.0
220
0.0
230
1.0
 70
     8
 71
     3
 72
    20
 73
    16
 74
     0
 42
0.00000001
 43
0.00000001
 40
0.0
 40
0.0
 40
0.0
 40
0.0
 40
0.0004927709025376
 40
0.1018357961976768
 40
0.1702508639113002
 40
0.2503716835742971
 40
0.3209590792702254
 40
0.3861835838241404
 40
0.5002566455570818
 40
0.6012254588029268
 40
0.6697686809979442
 40
0.7502400265011954
 40
0.8220487650073491
 40
0.8877201325508729
 40
1.0
 40
1.0
 40
1.0
 40
1.0
 10
85.66651535728333
 20
127.1340886660449
 30
0.0
 10
85.66620933533333
 20
127.134140657897
 30
0.0
 10
85.60296698727548
 20
127.1448852688896
 30
0.0
 10
85.79616710709406
 20
127.1060299942947
 30
0.0
 10
86.1831132305497
 20
127.0610063554353
 30
0.0
 10
86.72411582673547
 20
127.0047435811596
 30
0.0
 10
87.39161324303849
 20
126.9568121640057
 30
0.0
 10
88.27743927033946
 20
126.9297381285568
 30
0.0
 10
89.38824618503533
 20
126.9415631221587
 30
0.0
 10
90.50031824944018
 20
127.059011191519
 30
0.0
 10
91.39141989205655
 20
127.1807152634807
 30
0.0
 10
92.07690567386132
 20
127.3035361876747
 30
0.0
 10
92.60489694158632
 20
127.4169747032096
 30
0.0
 10
93.05228665446573
 20
127.5207159830052
 30
0.0
 10
93.1210982068797
 20
127.5421394510561
 30
0.0
 10
93.16451544972335
 20
127.5556567731087
 30
0.0
  0
LINE
  5
124
330
1F
100
AcDbEntity
  8
0
  6
HIDDEN
 62
     7
370
     0
100
AcDbLine
 10
150.8655892907
 20
78.5330382432
 30
0.0
 11
145.8655892907
 21
78.5330382432
 31
0.0
  0
LINE
  5
125
330
1F
100
AcDbEntity
  8
0
  6
HIDDEN
 62
     7
370
     0
100
AcDbLine
 10
148.3655892907
 20
129.3783377048
 30
0.0
 11
150.8655892907
 21
129.3783377048
 31
0.0
  0
LINE
  5
126
330
1F
100
AcDbEntity
  8
0
  6
HIDDEN
 62
     7
370
     0
100
AcDbLine
 10
145.8655892907
 20
129.3783377048
 30
0.0
 11
148.3655892907
 21
129.3783377048
 31
0.0
  0
LINE
  5
127
330
1F
100
AcDbEntity
  8
0
  6
HIDDEN
 62
     7
370
     0
100
AcDbLine
 10
148.3655892907
 20
115.955687974
 30
0.0
 11
150.8655892907
 21
115.955687974
 31
0.0
  0
LINE
  5
128
330
1F
100
AcDbEntity
  8
0
  6
HIDDEN
 62
     7
370
     0
100
AcDbLine
 10
145.8655892907
 20
115.955687974
 30
0.0
 11
148.3655892907
 21
115.955687974
 31
0.0
  0
LINE
  5
129
330
1F
100
AcDbEntity
  8
0
  6
HIDDEN
 62
     7
370
     0
100
AcDbLine
 10
150.8655892907
 20
91.955687974
 30
0.0
 11
145.8655892907
 21
91.955687974
 31
0.0
  0
SPLINE
  5
12A
330
1F
100
AcDbEntity
  8
0
  6
HIDDEN
 62
     7
370
     0
100
AcDbSpline
210
0.0
220
0.0
230
1.0
 70
     8
 71
     3
 72
    29
 73
    25
 74
     0
 42
0.00000001
 43
0.00000001
 40
0.0
 40
0.0
 40
0.0
 40
0.0
 40
0.0424788490652461
 40
0.0863703874596699
 40
0.1288144707763533
 40
0.1723062560001981
 40
0.22912673283834
 40
0.2875856695109186
 40
0.3452554015789443
 40
0.4046237297969274
 40
0.4361232463389395
 40
0.4683463133480351
 40
0.4999082316482755
 40
0.532604422678667
 40
0.5698373972224493
 40
0.6081154188238198
 40
0.6673497330728484
 40
0.7282029480557127
 40
0.7895823055770024
 40
0.8529565728006216
 40
0.8950480000302165
 40
0.9382453367910182
 40
0.9803895576288141
 40
1.0
 40
1.0
 40
1.0
 40
1.0
 10
161.415589290715
 20
126.8464971451304
 30
0.0
 10
161.4129091845238
 20
126.843356488106
 30
0.0
 10
161.4074598417271
 20
126.8369707274264
 30
0.0
 10
161.3644872251659
 20
126.7862849433289
 30
0.0
 10
161.2992970105593
 20
126.7082310938275
 30
0.0
 10
161.2058330340092
 20
126.5937407781792
 30
0.0
 10
161.0815233666475
 20
126.4354562860225
 30
0.0
 10
160.9319097513461
 20
126.2304271959876
 30
0.0
 10
160.77846937181
 20
125.9921135886731
 30
0.0
 10
160.6611130235707
 20
125.7628960727494
 30
0.0
 10
160.58836387997
 20
125.5545313361294
 30
0.0
 10
160.5519364797782
 20
125.383942474761
 30
0.0
 10
160.5413837418012
 20
125.2057434749317
 30
0.0
 10
160.5600673995422
 20
125.0191835316025
 30
0.0
 10
160.6094542367181
 20
124.8282990770346
 30
0.0
 10
160.6977971723425
 20
124.6059755453321
 30
0.0
 10
160.8253176691352
 20
124.367561502712
 30
0.0
 10
160.9808976033991
 20
124.1246472195192
 30
0.0
 10
161.1344567093941
 20
123.9082332689262
 30
0.0
 10
161.2549881906166
 20
123.7485923230973
 30
0.0
 10
161.3396131315744
 20
123.6397575530456
 30
0.0
 10
161.3898078672106
 20
123.5762575378675
 30
0.0
 10
161.4153621223542
 20
123.5442344827257
 30
0.0
 10
161.4128038816693
 20
123.5474405154884
 30
0.0
 10
161.4119915020219
 20
123.5484586041228
 30
0.0
  0
SPLINE
  5
12B
330
1F
100
AcDbEntity
  8
0
  6
HIDDEN
 62
     7
370
     0
100
AcDbSpline
210
0.0
220
0.0
230
1.0
 70
     8
 71
     3
 72
    28
 73
    24
 74
     0
 42
0.00000001
 43
0.00000001
 40
0.0
 40
0.0
 40
0.0
 40
0.0
 40
0.0074053351570034
 40
0.0561361815219003
 40
0.100890240984915
 40
0.1467558829648805
 40
0.1955157319610895
 40
0.2452741857191348
 40
0.3037243211090599
 40
0.3633801096487208
 40
0.4164044954872389
 40
0.4705905684156501
 40
0.5059609193791342
 40
0.5422023516444319
 40
0.5776347594952655
 40
0.6142874477544618
 40
0.6586393168613514
 40
0.7042162686854387
 40
0.7740068362902774
 40
0.8457390021388835
 40
0.9070776696087353
 40
0.9699862527499533
 40
1.0
 40
1.0
 40
1.0
 40
1.0
 10
157.4173187253985
 20
123.7031433342064
 30
0.0
 10
157.4167676709048
 20
123.7024958834359
 30
0.0
 10
157.4125903994607
 20
123.6975878795156
 30
0.0
 10
157.430513194405
 20
123.7186149953164
 30
0.0
 10
157.4704038033587
 20
123.7657678058312
 30
0.0
 10
157.5332349447254
 20
123.8410338405663
 30
0.0
 10
157.6158846702277
 20
123.9422741070644
 30
0.0
 10
157.7213105115144
 20
124.0758864631768
 30
0.0
 10
157.8459157646143
 20
124.2425363347608
 30
0.0
 10
157.9779410865673
 20
124.4361981973299
 30
0.0
 10
158.1018366748026
 20
124.6467509441782
 30
0.0
 10
158.1942043982487
 20
124.8459432709761
 30
0.0
 10
158.2541935570201
 20
125.0359588679657
 30
0.0
 10
158.2842174296544
 20
125.206053221773
 30
0.0
 10
158.2880424442323
 20
125.3821326479685
 30
0.0
 10
158.263104510708
 20
125.5689437565387
 30
0.0
 10
158.206927260751
 20
125.7626877652533
 30
0.0
 10
158.1098448347772
 20
125.9901057949528
 30
0.0
 10
157.974510588212
 20
126.2321639186891
 30
0.0
 10
157.8215615831637
 20
126.4643618482676
 30
0.0
 10
157.6821233664888
 20
126.6586861103219
 30
0.0
 10
157.5844102064632
 20
126.7880559405544
 30
0.0
 10
157.5374273695925
 20
126.8487252079972
 30
0.0
 10
157.5222519969454
 20
126.8683212733478
 30
0.0
  0
SPLINE
  5
12C
330
1F
100
AcDbEntity
  8
0
  6
HIDDEN
 62
     7
370
     0
100
AcDbSpline
210
0.0
220
0.0
230
1.0
 70
     8
 71
     3
 72
    10
 73
     6
 74
     0
 42
0.00000001
 43
0.00000001
 40
0.0
 40
0.0
 40
0.0
 40
0.0
 40
0.4265842571613643
 40
0.8644413037060982
 40
1.0
 40
1.0
 40
1.0
 40
1.0
 10
157.5222519969454
 20
126.8683212733478
 30
0.0
 10
157.4964112713972
 20
126.8571987644199
 30
0.0
 10
157.444046960932
 20
126.8346598264337
 30
0.0
 10
157.4133923575197
 20
126.828225361839
 30
0.0
 10
157.4188874753628
 20
126.8296037991091
 30
0.0
 10
157.4201865520276
 20
126.8299296694075
 30
0.0
  0
LINE
  5
12D
330
1F
100
AcDbEntity
  8
0
  6
HIDDEN
 62
     7
370
     0
100
AcDbLine
 10
159.4155892907
 20
128.455687974
 30
0.0
 11
157.4155892907
 21
128.455687974
 31
0.0
  0
LINE
  5
12E
330
1F
100
AcDbEntity
  8
0
  6
HIDDEN
 62
     7
370
     0
100
AcDbLine
 10
161.4155892907
 20
128.455687974
 30
0.0
 11
159.4155892907
 21
128.455687974
 31
0.0
  0
LINE
  5
12F
330
1F
100
AcDbEntity
  8
0
  6
HIDDEN
 62
     7
370
     0
100
AcDbLine
 10
159.4155892907
 20
79.955687974
 30
0.0
 11
161.4155892907
 21
79.955687974
 31
0.0
  0
LINE
  5
130
330
1F
100
AcDbEntity
  8
0
  6
HIDDEN
 62
     7
370
     0
100
AcDbLine
 10
157.4155892907
 20
79.955687974
 30
0.0
 11
159.4155892907
 21
79.955687974
 31
0.0
  0
SPLINE
  5
131
330
1F
100
AcDbEntity
  8
0
  6
HIDDEN
 62
     7
370
     0
100
AcDbSpline
210
0.0
220
0.0
230
1.0
 70
     8
 71
     3
 72
    17
 73
    13
 74
     0
 42
0.00000001
 43
0.00000001
 40
0.0
 40
0.0
 40
0.0
 40
0.0
 40
0.1268615981022102
 40
0.2528550143243557
 40
0.353912069692419
 40
0.4252042758082428
 40
0.496861099717113
 40
0.587932388745246
 40
0.7252620515356072
 40
0.864572433889621
 40
0.9601910086436041
 40
1.0
 40
1.0
 40
1.0
 40
1.0
 10
157.5222519969454
 20
81.04305467464789
 30
0.0
 10
157.5957694118788
 20
81.13870273032617
 30
0.0
 10
157.7423011226892
 20
81.32934427079567
 30
0.0
 10
158.0218725900377
 20
81.74351831851077
 30
0.0
 10
158.2228526111511
 20
82.15429124900382
 30
0.0
 10
158.3029854922989
 20
82.54340105258757
 30
0.0
 10
158.2574220321209
 20
82.92559429149793
 30
0.0
 10
158.0669258038901
 20
83.3547184780949
 30
0.0
 10
157.7691506370784
 20
83.78101746263746
 30
0.0
 10
157.5257748748344
 20
84.08072364545296
 30
0.0
 10
157.4148222431676
 20
84.21117729253679
 30
0.0
 10
157.4255134105014
 20
84.19859750765428
 30
0.0
 10
157.4286560837415
 20
84.19489967447278
 30
0.0
  0
SPLINE
  5
132
330
1F
100
AcDbEntity
  8
0
  6
HIDDEN
 62
     7
370
     0
100
AcDbSpline
210
0.0
220
0.0
230
1.0
 70
     8
 71
     3
 72
     9
 73
     5
 74
     0
 42
0.00000001
 43
0.00000001
 40
0.0
 40
0.0
 40
0.0
 40
0.0
 40
0.7736190411989919
 40
1.0
 40
1.0
 40
1.0
 40
1.0
 10
157.4268426796354
 20
81.0791113162144
 30
0.0
 10
157.4327512618291
 20
81.07931940068336
 30
0.0
 10
157.4403888481334
 20
81.07958837605479
 30
0.0
 10
157.5071406581844
 20
81.04979852882609
 30
0.0
 10
157.5222519969454
 20
81.0430546746479
 30
0.0
  0
SPLINE
  5
133
330
1F
100
AcDbEntity
  8
0
  6
HIDDEN
 62
     7
370
     0
100
AcDbSpline
210
0.0
220
0.0
230
1.0
 70
     8
 71
     3
 72
    23
 73
    19
 74
     0
 42
0.00000001
 43
0.00000001
 40
0.0
 40
0.0
 40
0.0
 40
0.0
 40
0.0240524462865428
 40
0.1010685105252736
 40
0.1814349098471874
 40
0.2408293312867047
 40
0.3019282804491187
 40
0.3624140699806493
 40
0.4247465756215448
 40
0.4877183824062787
 40
0.5510969197512697
 40
0.6273903693682575
 40
0.6853741378172464
 40
0.7449714244635579
 40
0.8043351378616559
 40
0.8656930847325128
 40
0.9512905095582528
 40
0.9999999999999999
 40
0.9999999999999999
 40
0.9999999999999999
 40
0.9999999999999999
 10
161.4043620578881
 20
84.3533290027411
 30
0.0
 10
161.4076886524948
 20
84.35750727255797
 30
0.0
 10
161.4216670211819
 20
84.37506438512493
 30
0.0
 10
161.346499108492
 20
84.28089725721094
 30
0.0
 10
161.2156849274128
 20
84.11219746825071
 30
0.0
 10
161.057040185178
 20
83.89601903497235
 30
0.0
 10
160.9034435419073
 20
83.66979476702389
 30
0.0
 10
160.7485224703218
 20
83.40883393239817
 30
0.0
 10
160.6123603003794
 20
83.11292540133586
 30
0.0
 10
160.5309437279224
 20
82.77389937265625
 30
0.0
 10
160.5617413334067
 20
82.39396095843327
 30
0.0
 10
160.6971354854741
 20
82.06422382194773
 30
0.0
 10
160.8612370670876
 20
81.7857794312183
 30
0.0
 10
161.0166919422857
 20
81.56227366360793
 30
0.0
 10
161.1657276276646
 20
81.36739803064313
 30
0.0
 10
161.3092861495048
 20
81.19026133761434
 30
0.0
 10
161.401977370961
 20
81.08084208061595
 30
0.0
 10
161.4119665025143
 20
81.06912740080931
 30
0.0
 10
161.415589290715
 20
81.06487880286531
 30
0.0
  0
LINE
  5
134
330
1F
100
AcDbEntity
  8
0
  6
HIDDEN
 62
     7
370
     0
100
AcDbLine
 10
157.5222519969
 20
81.0430546746
 30
0.0
 11
157.397839384
 21
84.2095671225
 31
0.0
  0
LINE
  5
135
330
1F
100
AcDbEntity
  8
0
  6
HIDDEN
 62
     7
370
     0
100
AcDbLine
 10
157.5222519969
 20
126.8683212733
 30
0.0
 11
157.397839384
 21
123.7018088255
 31
0.0
  0
LINE
  5
136
330
1F
100
AcDbEntity
  8
0
  6
HIDDEN
 62
     7
370
     0
100
AcDbLine
 10
114.5055892907
 20
124.0915546055
 30
0.0
 11
114.5055892907
 21
123.805687974
 31
0.0
  0
LINE
  5
137
330
1F
100
AcDbEntity
  8
0
  6
HIDDEN
 62
     7
370
     0
100
AcDbLine
 10
118.3255892907
 20
124.1138405084
 30
0.0
 11
118.3255892907
 21
123.805687974
 31
0.0
  0
LINE
  5
138
330
1F
100
AcDbEntity
  8
0
  6
HIDDEN
 62
     7
370
     0
100
AcDbLine
 10
119.8075221222
 20
128.4143776364
 30
0.0
 11
119.8075221222
 21
123.805687974
 31
0.0
  0
SPLINE
  5
139
330
1F
100
AcDbEntity
  8
0
  6
HIDDEN
 62
     7
370
     0
100
AcDbSpline
210
0.0
220
0.0
230
1.0
 70
     8
 71
     3
 72
    24
 73
    20
 74
     0
 42
0.00000001
 43
0.00000001
 40
0.0
 40
0.0
 40
0.0
 40
0.0
 40
0.24999999999998
 40
0.24999999999998
 40
0.3749999999999705
 40
0.3749999999999705
 40
0.4374999999999656
 40
0.4374999999999656
 40
0.4687499999999649
 40
0.4687499999999649
 40
0.4999999999999643
 40
0.4999999999999643
 40
0.5624999999999676
 40
0.5624999999999676
 40
0.6249999999999709
 40
0.6249999999999709
 40
0.7499999999999798
 40
0.7499999999999798
 40
1.0
 40
1.0
 40
1.0
 40
1.0
 10
66.5782526654385
 20
84.28113542921712
 30
0.0
 10
66.59200578410871
 20
84.35178548720738
 30
0.0
 10
66.60977835151458
 20
84.4183835999723
 30
0.0
 10
66.66202944306995
 20
84.49248162020551
 30
0.0
 10
66.68306451865149
 20
84.51373942736706
 30
0.0
 10
66.73596492627992
 20
84.52188535351331
 30
0.0
 10
66.75707059915784
 20
84.52094555011755
 30
0.0
 10
66.80312276783579
 20
84.49992955854022
 30
0.0
 10
66.82149323981918
 20
84.48902075243261
 30
0.0
 10
66.86304487488486
 20
84.45638584148526
 30
0.0
 10
66.88561154764177
 20
84.4348938611139
 30
0.0
 10
66.94839256410182
 20
84.36642791752759
 30
0.0
 10
66.9815223250697
 20
84.32035345932249
 30
0.0
 10
67.03844001155474
 20
84.2353455709878
 30
0.0
 10
67.06262603705848
 20
84.1950652698064
 30
0.0
 10
67.12783398743827
 20
84.08012904334048
 30
0.0
 10
67.16255004762951
 20
84.00954605819346
 30
0.0
 10
67.2557653179604
 20
83.80534029911485
 30
0.0
 10
67.30143785332109
 20
83.6824419167875
 30
0.0
 10
67.33974293681963
 20
83.5655686403999
 30
0.0
  0
CIRCLE
  5
13A
330
1F
100
AcDbEntity
  8
0
  6
HIDDEN
 62
     7
370
     0
100
AcDbCircle
 10
105.4155892907
 20
103.955687974
 30
0.0
 40
5.0
  0
LINE
  5
13B
330
1F
100
AcDbEntity
  8
0
  6
HIDDEN
 62
     7
370
     0
100
AcDbLine
 10
211.1319189622
 20
86.6710549046
 30
0.0
 11
210.4119420468
 21
85.8921882656
 31
0.0
  0
LINE
  5
13C
330
1F
100
AcDbEntity
  8
0
  6
HIDDEN
 62
     7
370
     0
100
AcDbLine
 10
210.5100915862
 20
83.394115675
 30
0.0
 11
211.2889582252
 21
82.6741387596
 31
0.0
  0
LINE
  5
13D
330
1F
100
AcDbEntity
  8
0
  6
HIDDEN
 62
     7
370
     0
100
AcDbLine
 10
218.1513364653
 20
86.9468485694
 30
0.0
 11
211.1319189622
 21
86.6710549046
 31
0.0
  0
LINE
  5
13E
330
1F
100
AcDbEntity
  8
0
  6
HIDDEN
 62
     7
370
     0
100
AcDbLine
 10
211.2889582252
 20
82.6741387596
 30
0.0
 11
218.0340115852
 21
82.9391526279
 31
0.0
  0
LINE
  5
13F
330
1F
100
AcDbEntity
  8
0
  6
HIDDEN
 62
     7
370
     0
100
AcDbLine
 10
218.3916408031
 20
86.5659892447
 30
0.0
 11
218.1513364653
 21
86.9468485694
 31
0.0
  0
LINE
  5
140
330
1F
100
AcDbEntity
  8
0
  6
HIDDEN
 62
     7
370
     0
100
AcDbLine
 10
218.0340115852
 20
124.9722233201
 30
0.0
 11
211.2104385937
 21
125.2403222331
 31
0.0
  0
LINE
  5
141
330
1F
100
AcDbEntity
  8
0
  6
HIDDEN
 62
     7
370
     0
100
AcDbLine
 10
211.0533993307
 20
121.2434060881
 30
0.0
 11
218.0728168337
 21
120.9676124233
 31
0.0
  0
LINE
  5
142
330
1F
100
AcDbEntity
  8
0
  6
HIDDEN
 62
     7
370
     0
100
AcDbLine
 10
211.2104385937
 20
125.2403222331
 30
0.0
 11
210.4315719547
 21
124.5203453177
 31
0.0
  0
LINE
  5
143
330
1F
100
AcDbEntity
  8
0
  6
HIDDEN
 62
     7
370
     0
100
AcDbLine
 10
210.3334224153
 20
122.0222727271
 30
0.0
 11
211.0533993307
 21
121.2434060881
 31
0.0
  0
LINE
  5
144
330
1F
100
AcDbEntity
  8
0
  6
HIDDEN
 62
     7
370
     0
100
AcDbLine
 10
218.0728168337
 20
120.9676124233
 30
0.0
 11
218.3131211716
 21
121.348471748
 31
0.0
  0
LINE
  5
145
330
1F
100
AcDbEntity
  8
0
  6
HIDDEN
 62
     7
370
     0
100
AcDbLine
 10
156.4155892907
 20
97.955687974
 30
0.0
 11
156.9155892907
 21
98.455687974
 31
0.0
  0
LINE
  5
146
330
1F
100
AcDbEntity
  8
0
  6
HIDDEN
 62
     7
370
     0
100
AcDbLine
 10
156.9155892907
 20
109.455687974
 30
0.0
 11
156.4155892907
 21
109.955687974
 31
0.0
  0
LINE
  5
147
330
1F
100
AcDbEntity
  8
0
  6
HIDDEN
 62
     7
370
     0
100
AcDbLine
 10
141.4155892907
 20
97.955687974
 30
0.0
 11
156.4155892907
 21
97.955687974
 31
0.0
  0
LINE
  5
148
330
1F
100
AcDbEntity
  8
0
  6
HIDDEN
 62
     7
370
     0
100
AcDbLine
 10
156.4155892907
 20
109.955687974
 30
0.0
 11
141.4155892907
 21
109.955687974
 31
0.0
  0
LINE
  5
149
330
1F
100
AcDbEntity
  8
0
  6
HIDDEN
 62
     7
370
     0
100
AcDbLine
 10
141.4155892907
 20
109.955687974
 30
0.0
 11
140.9155892907
 21
109.455687974
 31
0.0
  0
LINE
  5
14A
330
1F
100
AcDbEntity
  8
0
  6
HIDDEN
 62
     7
370
     0
100
AcDbLine
 10
140.9155892907
 20
98.455687974
 30
0.0
 11
141.4155892907
 21
97.955687974
 31
0.0
  0
LINE
  5
14B
330
1F
100
AcDbEntity
  8
0
  6
HIDDEN
 62
     7
370
     0
100
AcDbLine
 10
156.9155892907
 20
98.455687974
 30
0.0
 11
160.9155892907
 21
98.455687974
 31
0.0
  0
LINE
  5
14C
330
1F
100
AcDbEntity
  8
0
  6
HIDDEN
 62
     7
370
     0
100
AcDbLine
 10
160.9155892907
 20
109.455687974
 30
0.0
 11
156.9155892907
 21
109.455687974
 31
0.0
  0
LINE
  5
14D
330
1F
100
AcDbEntity
  8
0
  6
HIDDEN
 62
     7
370
     0
100
AcDbLine
 10
147.9155892906
 20
100.955687974
 30
0.0
 11
153.9155892907
 21
100.955687974
 31
0.0
  0
LINE
  5
14E
330
1F
100
AcDbEntity
  8
0
  6
HIDDEN
 62
     7
370
     0
100
AcDbLine
 10
153.9155892907
 20
106.955687974
 30
0.0
 11
147.9155892906
 21
106.955687974
 31
0.0
  0
LINE
  5
14F
330
1F
100
AcDbEntity
  8
0
  6
HIDDEN
 62
     7
370
     0
100
AcDbLine
 10
102.4155892907
 20
118.2563184797
 30
0.0
 11
102.4155892907
 21
116.3496286169
 31
0.0
  0
LINE
  5
150
330
1F
100
AcDbEntity
  8
0
  6
HIDDEN
 62
     7
370
     0
100
AcDbLine
 10
110.4155892907
 20
116.3496286169
 30
0.0
 11
110.4155892907
 21
118.2535231237
 31
0.0
  0
LINE
  5
151
330
1F
100
AcDbEntity
  8
0
  6
HIDDEN
 62
     7
370
     0
100
AcDbLine
 10
98.4155892907
 20
78.636766848
 30
0.0
 11
98.5097500662
 21
79.3067555793
 31
0.0
  0
LINE
  5
152
330
1F
100
AcDbEntity
  8
0
  6
HIDDEN
 62
     7
370
     0
100
AcDbLine
 10
98.5097500662
 20
128.6046203687
 30
0.0
 11
98.4155892907
 21
129.2746090999
 31
0.0
  0
ARC
  5
153
330
1F
100
AcDbEntity
  8
0
  6
HIDDEN
 62
     7
370
     0
100
AcDbCircle
 10
97.915582538
 20
79.3902603796
 30
0.0
 40
0.60000675266771
100
AcDbArc
 50
352.0
 51
0.0
  0
ARC
  5
154
330
1F
100
AcDbEntity
  8
0
  6
HIDDEN
 62
     7
370
     0
100
AcDbCircle
 10
97.915582538
 20
79.3902603796
 30
0.0
 40
0.60000675266771
100
AcDbArc
 50
0.0
 51
33.5571153394
  0
ARC
  5
155
330
1F
100
AcDbEntity
  8
0
  6
HIDDEN
 62
     7
370
     0
100
AcDbCircle
 10
97.915582538
 20
128.5211155683
 30
0.0
 40
0.600006752667698
100
AcDbArc
 50
348.75
 51
8.0
  0
LWPOLYLINE
  5
156
330
1F
100
AcDbEntity
  8
0
  6
HIDDEN
 62
     7
370
     0
100
AcDbPolyline
 90
        3
 70
   128
 43
0.0
 10
98.5040603292
 20
128.4040600578
 10
98.4699164962
 20
128.2915029248
 10
98.4155892907
 20
128.1894510533
  0
LINE
  5
157
330
1F
100
AcDbEntity
  8
0
  6
HIDDEN
 62
     7
370
     0
100
AcDbLine
 10
98.5155892907
 20
79.3902603796
 30
0.0
 11
98.5155892907
 21
128.5211155683
 31
0.0
  0
LWPOLYLINE
  5
158
330
1F
100
AcDbEntity
  8
0
  6
HIDDEN
 62
     7
370
     0
100
AcDbPolyline
 90
        3
 70
   128
 43
0.0
 10
218.0340115852
 20
82.9391526279
 10
218.0769483266
 20
83.0102697118
 10
218.2291927933
 20
83.3194372859
  0
LWPOLYLINE
  5
159
330
1F
100
AcDbEntity
  8
0
  6
HIDDEN
 62
     7
370
     0
100
AcDbPolyline
 90
        3
 70
   128
 43
0.0
 10
218.2276840743
 20
124.5956153739
 10
218.0751986192
 20
124.9041114226
 10
218.0340115852
 20
124.9722233201
  0
LINE
  5
15A
330
1F
100
AcDbEntity
  8
0
  6
HIDDEN
 62
     7
370
     0
100
AcDbLine
 10
81.498024856
 20
83.955687974
 30
0.0
 11
85.6687066719
 21
83.955687974
 31
0.0
  0
LINE
  5
15B
330
1F
100
AcDbEntity
  8
0
  6
HIDDEN
 62
     7
370
     0
100
AcDbLine
 10
85.6755614324
 20
123.955687974
 30
0.0
 11
81.498024856
 21
123.955687974
 31
0.0
  0
ARC
  5
15C
330
1F
100
AcDbEntity
  8
0
  6
HIDDEN
 62
     7
370
     0
100
AcDbCircle
 10
81.498024856
 20
84.555687974
 30
0.0
 40
0.6000000000000085
100
AcDbArc
 50
210.0
 51
270.0
  0
ARC
  5
15D
330
1F
100
AcDbEntity
  8
0
  6
HIDDEN
 62
     7
370
     0
100
AcDbCircle
 10
81.498024856
 20
123.355687974
 30
0.0
 40
0.6000000000000085
100
AcDbArc
 50
90.0
 51
150.0
  0
ARC
  5
15E
330
1F
100
AcDbEntity
  8
0
  6
HIDDEN
 62
     7
370
     0
100
AcDbCircle
 10
92.1705912923
 20
91.955687974
 30
0.0
 40
8.000000000000005
100
AcDbArc
 50
277.1500136899
 51
321.3178125465
  0
ARC
  5
15F
330
1F
100
AcDbEntity
  8
0
  6
HIDDEN
 62
     7
370
     0
100
AcDbCircle
 10
92.1705912923
 20
115.955687974
 30
0.0
 40
8.000000000000002
100
AcDbArc
 50
38.6821874535
 51
82.9542462873
  0
LINE
  5
160
330
1F
100
AcDbEntity
  8
0
  6
HIDDEN
 62
     7
370
     0
100
AcDbLine
 10
80.9784096137
 20
123.655687974
 30
0.0
 11
79.4195638869
 21
120.955687974
 31
0.0
  0
LINE
  5
161
330
1F
100
AcDbEntity
  8
0
  6
HIDDEN
 62
     7
370
     0
100
AcDbLine
 10
79.4195638869
 20
86.955687974
 30
0.0
 11
80.9784096137
 21
84.255687974
 31
0.0
  0
LINE
  5
162
330
1F
100
AcDbEntity
  8
0
  6
HIDDEN
 62
     7
370
     0
100
AcDbLine
 10
102.4155892907
 20
131.2354202111
 30
0.0
 11
102.4155892907
 21
127.9012903886
 31
0.0
  0
LINE
  5
163
330
1F
100
AcDbEntity
  8
0
  6
HIDDEN
 62
     7
370
     0
100
AcDbLine
 10
110.4155892907
 20
127.9012903886
 30
0.0
 11
110.4155892907
 21
131.2340455218
 31
0.0
  0
ARC
  5
164
330
1F
100
AcDbEntity
  8
0
  6
HIDDEN
 62
     7
370
     0
100
AcDbCircle
 10
106.8655892907
 20
88.230687974
 30
0.0
 40
1.500000000000009
100
AcDbArc
 50
238.2116693829
 51
0.0
  0
ARC
  5
165
330
1F
100
AcDbEntity
  8
0
  6
HIDDEN
 62
     7
370
     0
100
AcDbCircle
 10
106.8655892907
 20
119.680687974
 30
0.0
 40
1.5
100
AcDbArc
 50
0.0
 51
121.7883306171
  0
ARC
  5
166
330
1F
100
AcDbEntity
  8
0
  6
HIDDEN
 62
     7
370
     0
100
AcDbCircle
 10
217.9155892907
 20
86.9189937259
 30
0.0
 40
0.4999999999999826
100
AcDbArc
 50
0.0
 51
80.0
  0
ARC
  5
167
330
1F
100
AcDbEntity
  8
0
  6
HIDDEN
 62
     7
370
     0
100
AcDbCircle
 10
217.9155892907
 20
120.9923822221
 30
0.0
 40
0.4999999999999826
100
AcDbArc
 50
280.0
 51
0.0
  0
LINE
  5
168
330
1F
100
AcDbEntity
  8
0
  6
HIDDEN
 62
     7
370
     0
100
AcDbLine
 10
76.6155892907
 20
86.955687974
 30
0.0
 11
79.4195638869
 21
86.955687974
 31
0.0
  0
LINE
  5
169
330
1F
100
AcDbEntity
  8
0
  6
HIDDEN
 62
     7
370
     0
100
AcDbLine
 10
79.4195638869
 20
120.955687974
 30
0.0
 11
72.6155892907
 21
120.955687974
 31
0.0
  0
LINE
  5
16A
330
1F
100
AcDbEntity
  8
0
  6
HIDDEN
 62
     7
370
     0
100
AcDbLine
 10
98.4155892907
 20
86.955687974
 30
0.0
 11
106.0754152593
 21
86.955687974
 31
0.0
  0
LINE
  5
16B
330
1F
100
AcDbEntity
  8
0
  6
HIDDEN
 62
     7
370
     0
100
AcDbLine
 10
106.0754152593
 20
120.955687974
 30
0.0
 11
98.4155892907
 21
120.955687974
 31
0.0
  0
LINE
  5
16C
330
1F
100
AcDbEntity
  8
0
  6
HIDDEN
 62
     7
370
     0
100
AcDbLine
 10
218.0024133795
 20
120.4999783456
 30
0.0
 11
214.9155892907
 21
119.955687974
 31
0.0
  0
LINE
  5
16D
330
1F
100
AcDbEntity
  8
0
  6
HIDDEN
 62
     7
370
     0
100
AcDbLine
 10
214.9155892907
 20
87.955687974
 30
0.0
 11
218.0024133795
 21
87.4113976024
 31
0.0
  0
LINE
  5
16E
330
1F
100
AcDbEntity
  8
0
  6
HIDDEN
 62
     7
370
     0
100
AcDbLine
 10
161.4155892907
 20
87.655687974
 30
0.0
 11
166.5208152726
 21
87.655687974
 31
0.0
  0
LINE
  5
16F
330
1F
100
AcDbEntity
  8
0
  6
HIDDEN
 62
     7
370
     0
100
AcDbLine
 10
157.3155892907
 20
87.655687974
 30
0.0
 11
157.4215550675
 21
87.655687974
 31
0.0
  0
LINE
  5
170
330
1F
100
AcDbEntity
  8
0
  6
HIDDEN
 62
     7
370
     0
100
AcDbLine
 10
157.4157661193
 20
120.255687974
 30
0.0
 11
157.3155892907
 21
120.255687974
 31
0.0
  0
LINE
  5
171
330
1F
100
AcDbEntity
  8
0
  6
HIDDEN
 62
     7
370
     0
100
AcDbLine
 10
166.5208152726
 20
120.255687974
 30
0.0
 11
161.4090220153
 21
120.255687974
 31
0.0
  0
ARC
  5
172
330
1F
100
AcDbEntity
  8
0
  6
HIDDEN
 62
     7
370
     0
100
AcDbCircle
 10
166.5208152726
 20
88.055687974
 30
0.0
 40
0.4000000000000171
100
AcDbArc
 50
270.0
 51
290.0
  0
ARC
  5
173
330
1F
100
AcDbEntity
  8
0
  6
HIDDEN
 62
     7
370
     0
100
AcDbCircle
 10
166.5208152726
 20
119.855687974
 30
0.0
 40
0.4000000000000171
100
AcDbArc
 50
70.0
 51
90.0
  0
ARC
  5
174
330
1F
100
AcDbEntity
  8
0
  6
HIDDEN
 62
     7
370
     0
100
AcDbCircle
 10
157.3155892907
 20
88.055687974
 30
0.0
 40
0.4000000000000341
100
AcDbArc
 50
180.0
 51
270.0
  0
ARC
  5
175
330
1F
100
AcDbEntity
  8
0
  6
HIDDEN
 62
     7
370
     0
100
AcDbCircle
 10
157.3155892907
 20
119.855687974
 30
0.0
 40
0.4000000000000341
100
AcDbArc
 50
90.0
 51
180.0
  0
LINE
  5
176
330
1F
100
AcDbEntity
  8
0
  6
HIDDEN
 62
     7
370
     0
100
AcDbLine
 10
166.6576233299
 20
87.6798109257
 30
0.0
 11
167.4155892907
 21
87.955687974
 31
0.0
  0
LINE
  5
177
330
1F
100
AcDbEntity
  8
0
  6
HIDDEN
 62
     7
370
     0
100
AcDbLine
 10
167.4155892907
 20
119.955687974
 30
0.0
 11
166.6576233299
 21
120.2315650223
 31
0.0
  0
LINE
  5
178
330
1F
100
AcDbEntity
  8
0
  6
HIDDEN
 62
     7
370
     0
100
AcDbLine
 10
167.4155892907
 20
87.955687974
 30
0.0
 11
214.9155892907
 21
87.955687974
 31
0.0
  0
LINE
  5
179
330
1F
100
AcDbEntity
  8
0
  6
HIDDEN
 62
     7
370
     0
100
AcDbLine
 10
214.9155892907
 20
119.955687974
 30
0.0
 11
167.4155892907
 21
119.955687974
 31
0.0
  0
LINE
  5
17A
330
1F
100
AcDbEntity
  8
0
  6
HIDDEN
 62
     7
370
     0
100
AcDbLine
 10
117.7155892907
 20
94.455687974
 30
0.0
 11
120.2155892907
 21
94.455687974
 31
0.0
  0
LINE
  5
17B
330
1F
100
AcDbEntity
  8
0
  6
HIDDEN
 62
     7
370
     0
100
AcDbLine
 10
120.2155892907
 20
113.455687974
 30
0.0
 11
117.7155892907
 21
113.455687974
 31
0.0
  0
LINE
  5
17C
330
1F
100
AcDbEntity
  8
0
  6
HIDDEN
 62
     7
370
     0
100
AcDbLine
 10
108.3655892907
 20
94.955687974
 30
0.0
 11
108.8655892907
 21
95.455687974
 31
0.0
  0
LINE
  5
17D
330
1F
100
AcDbEntity
  8
0
  6
HIDDEN
 62
     7
370
     0
100
AcDbLine
 10
108.8655892907
 20
112.455687974
 30
0.0
 11
108.3655892907
 21
112.955687974
 31
0.0
  0
LINE
  5
17E
330
1F
100
AcDbEntity
  8
0
  6
HIDDEN
 62
     7
370
     0
100
AcDbLine
 10
108.8655892907
 20
95.455687974
 30
0.0
 11
117.7155892907
 21
95.455687974
 31
0.0
  0
LINE
  5
17F
330
1F
100
AcDbEntity
  8
0
  6
HIDDEN
 62
     7
370
     0
100
AcDbLine
 10
117.7155892907
 20
112.455687974
 30
0.0
 11
108.8655892907
 21
112.455687974
 31
0.0
  0
LINE
  5
180
330
1F
100
AcDbEntity
  8
0
  6
HIDDEN
 62
     7
370
     0
100
AcDbLine
 10
103.3655892907
 20
135.455687974
 30
0.0
 11
103.3655892907
 21
130.355687974
 31
0.0
  0
LINE
  5
181
330
1F
100
AcDbEntity
  8
0
  6
HIDDEN
 62
     7
370
     0
100
AcDbLine
 10
156.9155892907
 20
109.955687974
 30
0.0
 11
156.4155892907
 21
109.455687974
 31
0.0
  0
LINE
  5
182
330
1F
100
AcDbEntity
  8
0
  6
HIDDEN
 62
     7
370
     0
100
AcDbLine
 10
156.4155892907
 20
98.455687974
 30
0.0
 11
156.9155892907
 21
97.955687974
 31
0.0
  0
LINE
  5
183
330
1F
100
AcDbEntity
  8
0
  6
HIDDEN
 62
     7
370
     0
100
AcDbLine
 10
128.4155892907
 20
98.455687974
 30
0.0
 11
156.4155892907
 21
98.455687974
 31
0.0
  0
LINE
  5
184
330
1F
100
AcDbEntity
  8
0
  6
HIDDEN
 62
     7
370
     0
100
AcDbLine
 10
156.4155892907
 20
109.455687974
 30
0.0
 11
128.4155892907
 21
109.455687974
 31
0.0
  0
LINE
  5
185
330
1F
100
AcDbEntity
  8
0
  6
HIDDEN
 62
     7
370
     0
100
AcDbLine
 10
128.4155892907
 20
109.455687974
 30
0.0
 11
127.634470486
 21
108.155687974
 31
0.0
  0
LINE
  5
186
330
1F
100
AcDbEntity
  8
0
  6
HIDDEN
 62
     7
370
     0
100
AcDbLine
 10
127.634470486
 20
99.755687974
 30
0.0
 11
128.4155892907
 21
98.455687974
 31
0.0
  0
LINE
  5
187
330
1F
100
AcDbEntity
  8
0
  6
HIDDEN
 62
     7
370
     0
100
AcDbLine
 10
93.6000263102
 20
79.8763166822
 30
0.0
 11
93.1655949615
 21
80.3553823103
 31
0.0
  0
LINE
  5
188
330
1F
100
AcDbEntity
  8
0
  6
HIDDEN
 62
     7
370
     0
100
AcDbLine
 10
85.6655916399
 20
80.7770701847
 30
0.0
 11
85.1831587343
 21
80.2980046001
 31
0.0
  0
LINE
  5
189
330
1F
100
AcDbEntity
  8
0
  6
HIDDEN
 62
     7
370
     0
100
AcDbLine
 10
85.183036822
 20
127.6133660559
 30
0.0
 11
85.6655867332
 21
127.1342461891
 31
0.0
  0
LINE
  5
18A
330
1F
100
AcDbEntity
  8
0
  6
HIDDEN
 62
     7
370
     0
100
AcDbLine
 10
93.1655891741
 20
127.5559438857
 30
0.0
 11
93.6001307648
 21
128.0350637452
 31
0.0
  0
LINE
  5
18B
330
1F
100
AcDbEntity
  8
0
  6
HIDDEN
 62
     7
370
     0
100
AcDbLine
 10
120.2155892907
 20
99.755687974
 30
0.0
 11
127.634470486
 21
99.755687974
 31
0.0
  0
LINE
  5
18C
330
1F
100
AcDbEntity
  8
0
  6
HIDDEN
 62
     7
370
     0
100
AcDbLine
 10
127.634470486
 20
108.155687974
 30
0.0
 11
120.2155892907
 21
108.155687974
 31
0.0
  0
LINE
  5
18D
330
1F
100
AcDbEntity
  8
0
  6
HIDDEN
 62
     7
370
     0
100
AcDbLine
 10
93.1655892907
 20
123.8927608
 30
0.0
 11
93.1655892907
 21
127.5553904803
 31
0.0
  0
LINE
  5
18E
330
1F
100
AcDbEntity
  8
0
  6
HIDDEN
 62
     7
370
     0
100
AcDbLine
 10
85.6655892907
 20
127.1339914632
 30
0.0
 11
85.6655892907
 21
123.9538257284
 31
0.0
  0
LINE
  5
18F
330
1F
100
AcDbEntity
  8
0
  6
HIDDEN
 62
     7
370
     0
100
AcDbLine
 10
93.1655892907
 20
80.3558662007
 30
0.0
 11
93.1655892907
 21
84.0178517834
 31
0.0
  0
LINE
  5
190
330
1F
100
AcDbEntity
  8
0
  6
HIDDEN
 62
     7
370
     0
100
AcDbLine
 10
85.6655892907
 20
83.9562722352
 30
0.0
 11
85.6655892907
 21
80.7773929597
 31
0.0
  0
LINE
  5
191
330
1F
100
AcDbEntity
  8
0
  6
HIDDEN
 62
     7
370
     0
100
AcDbLine
 10
151.8655892907
 20
77.955687974
 30
0.0
 11
150.8655892907
 21
78.5330382432
 31
0.0
  0
LINE
  5
192
330
1F
100
AcDbEntity
  8
0
  6
HIDDEN
 62
     7
370
     0
100
AcDbLine
 10
145.8655892907
 20
78.5330382432
 30
0.0
 11
144.8655892907
 21
77.955687974
 31
0.0
  0
LINE
  5
193
330
1F
100
AcDbEntity
  8
0
  6
HIDDEN
 62
     7
370
     0
100
AcDbLine
 10
144.8655892907
 20
129.955687974
 30
0.0
 11
145.8655892907
 21
129.3783377048
 31
0.0
  0
LINE
  5
194
330
1F
100
AcDbEntity
  8
0
  6
HIDDEN
 62
     7
370
     0
100
AcDbLine
 10
150.8655892907
 20
129.3783377048
 30
0.0
 11
151.8655892907
 21
129.955687974
 31
0.0
  0
LINE
  5
195
330
1F
100
AcDbEntity
  8
0
  6
HIDDEN
 62
     7
370
     0
100
AcDbLine
 10
145.8655892907
 20
129.3783377048
 30
0.0
 11
145.8655892907
 21
115.955687974
 31
0.0
  0
LINE
  5
196
330
1F
100
AcDbEntity
  8
0
  6
HIDDEN
 62
     7
370
     0
100
AcDbLine
 10
150.8655892907
 20
115.955687974
 30
0.0
 11
150.8655892907
 21
129.3783377048
 31
0.0
  0
LINE
  5
197
330
1F
100
AcDbEntity
  8
0
  6
HIDDEN
 62
     7
370
     0
100
AcDbLine
 10
150.8655892907
 20
78.5330382432
 30
0.0
 11
150.8655892907
 21
91.955687974
 31
0.0
  0
LINE
  5
198
330
1F
100
AcDbEntity
  8
0
  6
HIDDEN
 62
     7
370
     0
100
AcDbLine
 10
145.8655892907
 20
91.955687974
 30
0.0
 11
145.8655892907
 21
78.5330382432
 31
0.0
  0
LINE
  5
199
330
1F
100
AcDbEntity
  8
0
  6
HIDDEN
 62
     7
370
     0
100
AcDbLine
 10
150.8655892907
 20
91.955687974
 30
0.0
 11
148.3655892907
 21
93.4578395216
 31
0.0
  0
LINE
  5
19A
330
1F
100
AcDbEntity
  8
0
  6
HIDDEN
 62
     7
370
     0
100
AcDbLine
 10
148.3655892907
 20
93.4578395216
 30
0.0
 11
145.8655892907
 21
91.955687974
 31
0.0
  0
LINE
  5
19B
330
1F
100
AcDbEntity
  8
0
  6
HIDDEN
 62
     7
370
     0
100
AcDbLine
 10
145.8655892907
 20
115.955687974
 30
0.0
 11
148.3655892907
 21
114.4535364264
 31
0.0
  0
LINE
  5
19C
330
1F
100
AcDbEntity
  8
0
  6
HIDDEN
 62
     7
370
     0
100
AcDbLine
 10
148.3655892907
 20
114.4535364264
 30
0.0
 11
150.8655892907
 21
115.955687974
 31
0.0
  0
LINE
  5
19D
330
1F
100
AcDbEntity
  8
0
  6
HIDDEN
 62
     7
370
     0
100
AcDbLine
 10
157.4155892907
 20
123.7031433342
 30
0.0
 11
157.4155892907
 21
120.255666561
 31
0.0
  0
LINE
  5
19E
330
1F
100
AcDbEntity
  8
0
  6
HIDDEN
 62
     7
370
     0
100
AcDbLine
 10
157.4155892907
 20
128.455687974
 30
0.0
 11
157.4155892907
 21
126.8299296694
 31
0.0
  0
LINE
  5
19F
330
1F
100
AcDbEntity
  8
0
  6
HIDDEN
 62
     7
370
     0
100
AcDbLine
 10
161.4155892907
 20
126.8464971451
 30
0.0
 11
161.4155892907
 21
128.455687974
 31
0.0
  0
LINE
  5
1A0
330
1F
100
AcDbEntity
  8
0
  6
HIDDEN
 62
     7
370
     0
100
AcDbLine
 10
161.4155892907
 20
120.2548846292
 30
0.0
 11
161.4155892907
 21
123.5484586041
 31
0.0
  0
LINE
  5
1A1
330
1F
100
AcDbEntity
  8
0
  6
HIDDEN
 62
     7
370
     0
100
AcDbLine
 10
157.4155892907
 20
81.0791113162
 30
0.0
 11
157.4155892907
 21
79.955687974
 31
0.0
  0
LINE
  5
1A2
330
1F
100
AcDbEntity
  8
0
  6
HIDDEN
 62
     7
370
     0
100
AcDbLine
 10
157.4155892907
 20
87.6564176182
 30
0.0
 11
157.4155892907
 21
84.1948996745
 31
0.0
  0
LINE
  5
1A3
330
1F
100
AcDbEntity
  8
0
  6
HIDDEN
 62
     7
370
     0
100
AcDbLine
 10
161.4155892907
 20
84.3533290027
 30
0.0
 11
161.4155892907
 21
87.655687974
 31
0.0
  0
LINE
  5
1A4
330
1F
100
AcDbEntity
  8
0
  6
HIDDEN
 62
     7
370
     0
100
AcDbLine
 10
161.4155892907
 20
79.955687974
 30
0.0
 11
161.4155892907
 21
81.0648788029
 31
0.0
  0
LINE
  5
1A5
330
1F
100
AcDbEntity
  8
0
  6
HIDDEN
 62
     7
370
     0
100
AcDbLine
 10
157.4155892907
 20
79.955687974
 30
0.0
 11
159.4155892907
 21
78.7539667359
 31
0.0
  0
LINE
  5
1A6
330
1F
100
AcDbEntity
  8
0
  6
HIDDEN
 62
     7
370
     0
100
AcDbLine
 10
159.4155892907
 20
78.7539667359
 30
0.0
 11
161.4155892907
 21
79.955687974
 31
0.0
  0
LINE
  5
1A7
330
1F
100
AcDbEntity
  8
0
  6
HIDDEN
 62
     7
370
     0
100
AcDbLine
 10
218.4155892907
 20
86.6069610457
 30
0.0
 11
161.4038413117
 21
84.3669633669
 31
0.0
  0
LINE
  5
1A8
330
1F
100
AcDbEntity
  8
0
  6
HIDDEN
 62
     7
370
     0
100
AcDbLine
 10
161.4155892907
 20
81.0648788029
 30
0.0
 11
218.2290359368
 21
83.2970852011
 31
0.0
  0
LINE
  5
1A9
330
1F
100
AcDbEntity
  8
0
  6
HIDDEN
 62
     7
370
     0
100
AcDbLine
 10
218.2279194773
 20
124.6143346127
 30
0.0
 11
161.4155892907
 21
126.8464971451
 31
0.0
  0
LINE
  5
1AA
330
1F
100
AcDbEntity
  8
0
  6
HIDDEN
 62
     7
370
     0
100
AcDbLine
 10
161.4118202828
 20
123.5440990865
 30
0.0
 11
218.4155892907
 21
121.3044149023
 31
0.0
  0
LINE
  5
1AB
330
1F
100
AcDbEntity
  8
0
  6
HIDDEN
 62
     7
370
     0
100
AcDbLine
 10
157.397839384
 20
84.2095671225
 30
0.0
 11
156.4719624075
 21
82.5219162453
 31
0.0
  0
LINE
  5
1AC
330
1F
100
AcDbEntity
  8
0
  6
HIDDEN
 62
     7
370
     0
100
AcDbLine
 10
156.4719624075
 20
82.5219162453
 30
0.0
 11
157.4206246553
 21
81.0749658515
 31
0.0
  0
LINE
  5
1AD
330
1F
100
AcDbEntity
  8
0
  6
HIDDEN
 62
     7
370
     0
100
AcDbLine
 10
157.4175223485
 20
126.8316782923
 30
0.0
 11
156.4719624075
 21
125.3894597027
 31
0.0
  0
LINE
  5
1AE
330
1F
100
AcDbEntity
  8
0
  6
HIDDEN
 62
     7
370
     0
100
AcDbLine
 10
156.4719624075
 20
125.3894597027
 30
0.0
 11
157.397839384
 21
123.7018088255
 31
0.0
  0
DIMENSION
  5
1AF
330
1F
100
AcDbEntity
  8
VERMASSUNG
100
AcDbDimension
  2
*D1
 10
61.241928494
 20
72.455687974
 30
0.0
 11
61.241928494
 21
103.955687974
 31
0.0
 70
   160
  1
HSK A %%c<>
 71
     2
 42
-1.0
  3
SLDDIMSTYLE0
100
AcDbAlignedDimension
 13
98.7155892907
 23
135.455687974
 33
0.0
 14
98.7155892907
 24
72.455687974
 34
0.0
 50
90.0
100
AcDbRotatedDimension
  0
DIMENSION
  5
1BC
330
1F
100
AcDbEntity
  8
VERMASSUNG
100
AcDbDimension
  2
*D2
 10
218.4155892907
 20
136.6774647887
 30
0.0
 11
187.6655892907
 21
136.6774647887
 31
0.0
 70
   160
 71
     2
 42
-1.0
  3
SLDDIMSTYLE1
100
AcDbAlignedDimension
 13
156.9155892907
 23
119.855687974
 33
0.0
 14
218.4155892907
 24
123.6447117449
 34
0.0
100
AcDbRotatedDimension
  0
DIMENSION
  5
1C7
330
1F
100
AcDbEntity
  8
VERMASSUNG
100
AcDbDimension
  2
*D3
 10
226.0111592633
 20
119.955687974
 30
0.0
 11
226.0111592633
 21
103.955687974
 31
0.0
 70
   160
  1
%%c<>
 71
     2
 42
-1.0
  3
SLDDIMSTYLE2
100
AcDbAlignedDimension
 13
214.9155892907
 23
87.955687974
 33
0.0
 14
214.9155892907
 24
119.955687974
 34
0.0
 50
90.0
100
AcDbRotatedDimension
  0
DIMENSION
  5
1D3
330
1F
100
AcDbEntity
  8
VERMASSUNG
100
AcDbDimension
  2
*D4
 10
232.0111592633
 20
125.955687974
 30
0.0
 11
232.0111592633
 21
103.955687974
 31
0.0
 70
   160
  1
%%c<>
 71
     2
 42
-1.0
  3
SLDDIMSTYLE3
100
AcDbAlignedDimension
 13
218.4155892907
 23
81.955687974
 33
0.0
 14
218.4155892907
 24
125.955687974
 34
0.0
 50
90.0
100
AcDbRotatedDimension
  0
DIMENSION
  5
1DF
330
1F
100
AcDbEntity
  8
VERMASSUNG
100
AcDbDimension
  2
*D5
 10
238.0111592633
 20
129.955687974
 30
0.0
 11
238.0111592633
 21
103.955687974
 31
0.0
 70
   160
  1
%%c<>
 71
     2
 42
-1.0
  3
SLDDIMSTYLE3
100
AcDbAlignedDimension
 13
152.0427136352
 23
77.955687974
 33
0.0
 14
152.0427136352
 24
129.955687974
 34
0.0
 50
90.0
100
AcDbRotatedDimension
  0
DIMENSION
  5
1EA
330
1F
100
AcDbEntity
  8
VERMASSUNG
100
AcDbDimension
  2
*D6
 10
218.4155892907
 20
148.6774647887
 30
0.0
 11
158.4155892907
 21
148.6774647887
 31
0.0
 70
   160
 71
     2
 42
-1.0
  3
SLDDIMSTYLE0
100
AcDbAlignedDimension
 13
98.4155892907
 23
135.155687974
 33
0.0
 14
218.4155892907
 24
123.6447117449
 34
0.0
100
AcDbRotatedDimension
  0
DIMENSION
  5
1F4
330
1F
100
AcDbEntity
  8
VERMASSUNG
100
AcDbDimension
  2
*D7
 10
218.4155892907
 20
142.6774647887
 30
0.0
 11
171.3905892907
 21
142.6774647887
 31
0.0
 70
   160
 71
     2
 42
-1.0
  3
SLDDIMSTYLE0
100
AcDbAlignedDimension
 13
124.3655892907
 23
133.8021282978
 33
0.0
 14
218.4155892907
 24
123.5855444364
 34
0.0
100
AcDbRotatedDimension
  0
DIMENSION
  5
1FE
330
1F
100
AcDbEntity
  8
VERMASSUNG
100
AcDbDimension
  2
*D8
 10
218.4155892907
 20
154.6774647887
 30
0.0
 11
142.4655892907
 21
154.6774647887
 31
0.0
 70
   160
 71
     2
 42
-1.0
  3
SLDDIMSTYLE0
100
AcDbAlignedDimension
 13
66.5155892907
 23
123.6463657205
 33
0.0
 14
218.4155892907
 24
123.5855444364
 34
0.0
100
AcDbRotatedDimension
  0
LINE
  5
208
330
1F
100
AcDbEntity
  8
VERMASSUNG
  6
CENTERX2
370
     0
100
AcDbLine
 10
63.7946912243
 20
103.955687974
 30
0.0
 11
220.5207660891
 21
103.955687974
 31
0.0
  0
OLE2FRAME
  5
209
330
1F
100
AcDbEntity
  8
0
100
AcDbOle2Frame
 70
     2
  3
Bitmap Image
 10
13.8511154363
 20
38.264191557
 30
0.0
 11
51.6290888628
 21
31.9806341108
 31
0.0
 71
     2
 72
     0
 73
     1
 90
    12928
310
80552BED0767C5B32B40DDAF6807D121434000000000000000006FFBDDFB85D0
310
4940DDAF6807D121434000000000000000006FFBDDFB85D04940416F4BD60AFB
310
3F4000000000000000002BED0767C5B32B40416F4BD60AFB3F40000000000000
310
0000000000000100000000010000010000000100000000000100000000320000
310
D0CF11E0A1B11AE1000000000000000000000000000000003E000300FEFF0900
310
0600000000000000000000000100000001000000000000000010000002000000
310
01000000FEFFFFFF0000000000000000FFFFFFFFFFFFFFFFFFFFFFFFFFFFFFFF
310
FFFFFFFFFFFFFFFFFFFFFFFFFFFFFFFFFFFFFFFFFFFFFFFFFFFFFFFFFFFFFFFF
310
FFFFFFFFFFFFFFFFFFFFFFFFFFFFFFFFFFFFFFFFFFFFFFFFFFFFFFFFFFFFFFFF
310
FFFFFFFFFFFFFFFFFFFFFFFFFFFFFFFFFFFFFFFFFFFFFFFFFFFFFFFFFFFFFFFF
310
FFFFFFFFFFFFFFFFFFFFFFFFFFFFFFFFFFFFFFFFFFFFFFFFFFFFFFFFFFFFFFFF
310
FFFFFFFFFFFFFFFFFFFFFFFFFFFFFFFFFFFFFFFFFFFFFFFFFFFFFFFFFFFFFFFF
310
FFFFFFFFFFFFFFFFFFFFFFFFFFFFFFFFFFFFFFFFFFFFFFFFFFFFFFFFFFFFFFFF
310
FFFFFFFFFFFFFFFFFFFFFFFFFFFFFFFFFFFFFFFFFFFFFFFFFFFFFFFFFFFFFFFF
310
FFFFFFFFFFFFFFFFFFFFFFFFFFFFFFFFFFFFFFFFFFFFFFFFFFFFFFFFFFFFFFFF
310
FFFFFFFFFFFFFFFFFFFFFFFFFFFFFFFFFFFFFFFFFFFFFFFFFFFFFFFFFFFFFFFF
310
FFFFFFFFFFFFFFFFFFFFFFFFFFFFFFFFFFFFFFFFFFFFFFFFFFFFFFFFFFFFFFFF
310
FFFFFFFFFFFFFFFFFFFFFFFFFFFFFFFFFFFFFFFFFFFFFFFFFFFFFFFFFFFFFFFF
310
FFFFFFFFFFFFFFFFFFFFFFFFFFFFFFFFFFFFFFFFFFFFFFFFFFFFFFFFFFFFFFFF
310
FFFFFFFFFFFFFFFFFFFFFFFFFFFFFFFFFFFFFFFFFFFFFFFFFFFFFFFFFFFFFFFF
310
FDFFFFFFFEFFFFFFFEFFFFFFFEFFFFFF05000000060000000700000008000000
310
090000000A0000000B0000000C0000000D0000000E0000000F00000010000000
310
11000000120000001300000014000000150000001600000017000000FEFFFFFF
310
FFFFFFFFFFFFFFFFFFFFFFFFFFFFFFFFFFFFFFFFFFFFFFFFFFFFFFFFFFFFFFFF
310
FFFFFFFFFFFFFFFFFFFFFFFFFFFFFFFFFFFFFFFFFFFFFFFFFFFFFFFFFFFFFFFF
310
FFFFFFFFFFFFFFFFFFFFFFFFFFFFFFFFFFFFFFFFFFFFFFFFFFFFFFFFFFFFFFFF
310
FFFFFFFFFFFFFFFFFFFFFFFFFFFFFFFFFFFFFFFFFFFFFFFFFFFFFFFFFFFFFFFF
310
FFFFFFFFFFFFFFFFFFFFFFFFFFFFFFFFFFFFFFFFFFFFFFFFFFFFFFFFFFFFFFFF
310
FFFFFFFFFFFFFFFFFFFFFFFFFFFFFFFFFFFFFFFFFFFFFFFFFFFFFFFFFFFFFFFF
310
FFFFFFFFFFFFFFFFFFFFFFFFFFFFFFFFFFFFFFFFFFFFFFFFFFFFFFFFFFFFFFFF
310
FFFFFFFFFFFFFFFFFFFFFFFFFFFFFFFFFFFFFFFFFFFFFFFFFFFFFFFFFFFFFFFF
310
FFFFFFFFFFFFFFFFFFFFFFFFFFFFFFFFFFFFFFFFFFFFFFFFFFFFFFFFFFFFFFFF
310
FFFFFFFFFFFFFFFFFFFFFFFFFFFFFFFFFFFFFFFFFFFFFFFFFFFFFFFFFFFFFFFF
310
FFFFFFFFFFFFFFFFFFFFFFFFFFFFFFFFFFFFFFFFFFFFFFFFFFFFFFFFFFFFFFFF
310
FFFFFFFFFFFFFFFFFFFFFFFFFFFFFFFFFFFFFFFFFFFFFFFFFFFFFFFFFFFFFFFF
310
FFFFFFFFFFFFFFFFFFFFFFFFFFFFFFFFFFFFFFFFFFFFFFFFFFFFFFFFFFFFFFFF
310
52006F006F007400200045006E00740072007900000000000000000000000000
310
0000000000000000000000000000000000000000000000000000000000000000
310
16000500FFFFFFFFFFFFFFFF020000000A00030000000000C000000000000046
310
00000000000000000000000010B7A4BF7405CC0103000000C000000000000000
310
01004F006C006500000000000000000000000000000000000000000000000000
310
0000000000000000000000000000000000000000000000000000000000000000
310
0A000200FFFFFFFFFFFFFFFFFFFFFFFF00000000000000000000000000000000
310
0000000000000000000000000000000000000000000000001400000000000000
310
010043006F006D0070004F0062006A0000000000000000000000000000000000
310
0000000000000000000000000000000000000000000000000000000000000000
310
120002010100000003000000FFFFFFFF00000000000000000000000000000000
310
0000000000000000000000000000000000000000010000004D00000000000000
310
01004F006C006500310030004E00610074006900760065000000000000000000
310
0000000000000000000000000000000000000000000000000000000000000000
310
1A000200FFFFFFFFFFFFFFFFFFFFFFFF00000000000000000000000000000000
310
0000000000000000000000000000000000000000040000002426000000000000
310
FEFFFFFF02000000FEFFFFFFFFFFFFFFFFFFFFFFFFFFFFFFFFFFFFFFFFFFFFFF
310
FFFFFFFFFFFFFFFFFFFFFFFFFFFFFFFFFFFFFFFFFFFFFFFFFFFFFFFFFFFFFFFF
310
FFFFFFFFFFFFFFFFFFFFFFFFFFFFFFFFFFFFFFFFFFFFFFFFFFFFFFFFFFFFFFFF
310
FFFFFFFFFFFFFFFFFFFFFFFFFFFFFFFFFFFFFFFFFFFFFFFFFFFFFFFFFFFFFFFF
310
FFFFFFFFFFFFFFFFFFFFFFFFFFFFFFFFFFFFFFFFFFFFFFFFFFFFFFFFFFFFFFFF
310
FFFFFFFFFFFFFFFFFFFFFFFFFFFFFFFFFFFFFFFFFFFFFFFFFFFFFFFFFFFFFFFF
310
FFFFFFFFFFFFFFFFFFFFFFFFFFFFFFFFFFFFFFFFFFFFFFFFFFFFFFFFFFFFFFFF
310
FFFFFFFFFFFFFFFFFFFFFFFFFFFFFFFFFFFFFFFFFFFFFFFFFFFFFFFFFFFFFFFF
310
FFFFFFFFFFFFFFFFFFFFFFFFFFFFFFFFFFFFFFFFFFFFFFFFFFFFFFFFFFFFFFFF
310
FFFFFFFFFFFFFFFFFFFFFFFFFFFFFFFFFFFFFFFFFFFFFFFFFFFFFFFFFFFFFFFF
310
FFFFFFFFFFFFFFFFFFFFFFFFFFFFFFFFFFFFFFFFFFFFFFFFFFFFFFFFFFFFFFFF
310
FFFFFFFFFFFFFFFFFFFFFFFFFFFFFFFFFFFFFFFFFFFFFFFFFFFFFFFFFFFFFFFF
310
FFFFFFFFFFFFFFFFFFFFFFFFFFFFFFFFFFFFFFFFFFFFFFFFFFFFFFFFFFFFFFFF
310
FFFFFFFFFFFFFFFFFFFFFFFFFFFFFFFFFFFFFFFFFFFFFFFFFFFFFFFFFFFFFFFF
310
FFFFFFFFFFFFFFFFFFFFFFFFFFFFFFFFFFFFFFFFFFFFFFFFFFFFFFFFFFFFFFFF
310
FFFFFFFFFFFFFFFFFFFFFFFFFFFFFFFFFFFFFFFFFFFFFFFFFFFFFFFFFFFFFFFF
310
0100000200000000000000000000000000000000000000000000000000000000
310
0000000000000000000000000000000000000000000000000000000000000000
310
0100FEFF030A0000FFFFFFFF0A00030000000000C00000000000004607000000
310
5042727573680007000000504272757368000700000050427275736800F439B2
310
7100000000000000000000000000000000000000000000000000000000000000
310
0000000000000000000000000000000000000000000000000000000000000000
310
0000000000000000000000000000000000000000000000000000000000000000
310
0000000000000000000000000000000000000000000000000000000000000000
310
0000000000000000000000000000000000000000000000000000000000000000
310
0000000000000000000000000000000000000000000000000000000000000000
310
0000000000000000000000000000000000000000000000000000000000000000
310
0000000000000000000000000000000000000000000000000000000000000000
310
0000000000000000000000000000000000000000000000000000000000000000
310
0000000000000000000000000000000000000000000000000000000000000000
310
0000000000000000000000000000000000000000000000000000000000000000
310
0000000000000000000000000000000000000000000000000000000000000000
310
20260000424D0E260000000000003E00000028000000B40200006E0000000100
310
01000000000000000000130B0000130B00000200000002000000000000FFFFFF
310
FFFFFFFFFFFFFFFFFFFFFFFFFFFFFFFFFFFFFFFFFFFFFFFFFFFFFFFFFFFFFFFF
310
FFFFFFFFFFFFFFFFFFFFFFFFFFFFFFFFFFFFFFFFFFFFFFFFFFFFFFFFFFFFFFFF
310
FFFFFFFFFFFFFFFFFFFFFFFFFFFFFFFFFFFFFFFFFFFFFFFFF000FFFFFFFFFFFF
310
FFFFFFFFFFFFFFFFFFFFFFFFFFFFFFFFFFFFFFFFFFFFFFFFFFFFFFFFFFFFFFFF
310
FFFFFFFFFFFFFFFFFFFFFFFFFFFFFFFFFFFFFFFFFFFFFFFFFFFFFFFFFFFFFFFF
310
FFFFFFFFFFFFFFFFFFFFFFFFFFFFFFFFF000FFFFFFFFFFFFFFFFFFFFFFFFFFFF
310
FFFFFFFFFFFFFFFFFFFFFFFFFFFFFFFFFFFFFFFFFFFFFFFFFFFFFFFFFFFFFFFF
310
FFFFFFFFFFFFFFFFFFFFFFFFFFFFFFFFFFFFFFFFFFFFFFFFFFFFFFFFFFFFFFFF
310
FFFFFFFFFFFFFFFFF000FFFFFFFFFFFFFFFFFFFFFFFFFFFFFFFFFFFFFFFFFFFF
310
FFFFFFFFFFFFFFFFFFFFFFFFFFFFFFFFFFFFFFFFFFFFFFFFFFFFFFFFFFFFFFFF
310
FFFFFFFFFFFFFFFFFFFFFFFFFFFFFFFFFFFFFFFFFFFFFFFFFFFFFFFFFFFFFFFF
310
F000FFFFFFFFFFFFFFFFFFFFFFFFFFFFFFFFFFFFFFFFFFFFFFFFFFFFFFFFFFFF
310
FFFFFFFFFFFFFFFFFFFFFFFFFFFFFFFFFFFFFFFFFFFFFFFFFFFFFFFFFFFFFFFF
310
FFFFFFFFFFFFFFFFFFFFFFFFFFFFFFFFFFFFFFFFFFFFFFFFF000FFFFFFFFFFFF
310
FFFFFFFFFFFFFFFFFFFFFFFFFFFFFFFFFFFFFFFFFFFFFFFFFFFFFFFFFFFFFFFF
310
FFFFFFFFFFFFFFFFFFFFFFFFFFFFFFFFFFFFFFFFFFFFFFFFFFFFFFFFFFFFFFFF
310
FFFFFFFFFFFFFFFFFFFFFFFFFFFFFFFFF000FFFFFFFFFFFFFFFFFFFFFFFFFFFF
310
FFFFFFFFFFFFFFFFFFFFFFFFFFFFFFFFFFFFFFFFFFFFFFFFFFFFFFFFFFFFFFFF
310
FFFFFFFFFFFFFFFFFFFFFFFFFFFFFFFFFFFFFFFFFFFFFFFFFFFFFFFFFFFFFFFF
310
FFFFFFFFFFFFFFFFF000FFFFFFFFFFFFFFFFFFFFFFFFFFFFFFFFFFFFFFFFFFFF
310
FFFFFFFFFFFFFFFFFFFFFFFFFFFFFFFFFFFFFFFFFFFFFFFFFFFFFFFFFFFFFFFF
310
FFFFFFFFFFFFFFFFFFFFFFFFFFFFFFFFFFFFFFFFFFFFFFFFFFFFFFFFFFFFFFFF
310
F000FFFFFFFFFFFFFFFFFFFFFFFFFFFFFFFFFFFFFFFFFFFFFFFFFFFFFFFFFFFF
310
FFFFFFFFFFFFFFFFFFFFFFFFFFFFFFFFFFFFFFFFFFFFFFFFFFFFFFFFFFFFFFFF
310
FFFFFFFFFFFFFFFFFFFFFFFFFFFFFFFFFFFFFFFFFFFFFFFFF000FFFFFFFFFFFF
310
FFFFFFFFFFFFFFFFFFFFFFFFFFFFFFFFFFFFFFFFFFFFFFFFFFFFFFFFFFFFFFFF
310
FFFFFFFFFFFFFFFFFFFFFFFFFFFFFFFFFFFFFFFFFFFFFFFFFFFFFFFFFFFFFFFF
310
FFFFFFFFFFFFFFFFFFFFFFFFFFFFFFFFF000FFFFFFFFFFFFFFFFFFFFFFFFFFFF
310
FFFFFFFFFFFFFFFFFFFFFFFFFFFFFFFFFFFFFFFFFFFFFFFFFFFFFFFFFFFFFFFF
310
FFFFFFFFFFFFFFFFFFFFFFFFFFFFFFFFFFFFFFFFFFFFFFFFFFFFFFFFFFFFFFFF
310
FFFFFFFFFFFFFFFFF000FFFFFFFFFFFFFFFFFFFFFFFFFFFFFFFFFFFFFFFFFFFF
310
FFFFFFFFFFFFFFFFFFFFFFFFFFFFFFFFFFFFFFFFFFFFFFFFFFFFFFFFFFFFFFFF
310
FFFFFFFFFFFFFFFFFFFFFFFFFFFFFFFFFFFFFFFFFFFFFFFFFFFFFFFFFFFFFFFF
310
F000FFFFFFFFFFFFFFFFFFFFFFFFFFFFFFFFFFFFFFFFFFFFFFFFFFFFFFFFFFFF
310
FFFFFFFFFFFFFFFFFFFFFFFFFFFFFFFFFFFFFFFFFFFFFFFFFFFFFFFFFFFFFFFF
310
FFFFFFFFFFFFFFFFFFFFFFFFFFFFFFFFFFFFFFFFFFFFFFFFF000FFFFFFFFFFFF
310
FFFFFFFFFFFFFFFFFFFFFFFFFFFFFFFFFFFFFFFFFFFFFFFFFFFFFFFFFFFFFFFF
310
FFFFFFFFFFFFFFFFFFFFFFFFFFFFFFFFFFFFFFFFFFFFFFFFFFFFFFFFFFFFFFFF
310
FFFFFFFFFFFFFFFFFFFFFFFFFFFFFFFFF000FFFFFFFFFFFFFFFFFFFFFFFFFFFF
310
FFFFFFFFFFFFFFFFFFFFFFFFFFFFFFFFFFFFFFFFFFFFFFFFFFFFFFFFFFFFFFFF
310
FFFFFFFFFFFFFFFFFFFFFFFFFFFFFFFFFFFFFFFFFFFFFFFFFFFFFFFFFFFFFFFF
310
FFFFFFFFFFFFFFFFF000FFFFFFFFFFFFFFFFFFFFFFFFFFFFFFFFFFFFFFFFFFFF
310
FFFFFFFFFFFFFFFFFFFFFFFFFFFFFFFFFFFFFFFFFFFFFFFFFFFFFFFFFFFFFFFF
310
FFFFFFFFFFFFFFFFFFFFFFFFFFFFFFFFFFFFFFFFFFFFFFFFFFFFFFFFFFFFFFFF
310
F000FFFFFFFFFFFFFFFFFFFFFFFFFFFFFFFFFFFFFFFFFFFFFFFFFFFFFFFFFFFF
310
FFFFFFFFFFFFFFFFFFFFFFFFFFFFFFFFFFFFFFFFFFFFFFFFFFFFFFFFFFFFFFFF
310
FFFFFFFFFFFFFFFFFFFFFFFFFFFFFFFFFFFFFFFFFFFFFFFFF000FFFFFFFFFFFF
310
FFFFFFFFFFFFFFFFFFFFFFFFFFFFFFFFFFFFFFFFFFFFFFFFFFFFFFFFFFFFFFFF
310
FFFFFFFFFFFFFFFFFFFFFFFFFFFFFFFFFFFFFFFFFFFFFFFFFFFFFFFFFFFFFFFF
310
FFFFFFFFFFFFFFFFFFFFFFFFFFFFFFFFF000FFFFFFFFFFFFFFFFFFFFFFFFFFFF
310
FFFFFFFFFFFFFFFFFFFFFFFFFFFFFFFFFFFFFFFFFFFFFFFFFFFFFFFFFFFFFFFF
310
FFFFFFFFFFFFFFFFFFFFFFFFFFFFFFFFFFFFFFFFFFFFFFFFFFFFFFFFFFFFFFFF
310
FFFFFFFFFFFFFFFFF000FFFFF80003FFFFFFFFFFFFFFFFFFFFFFFFFFFFFFFFFF
310
FFFFF00007FFFFFFFFFF00007FFFFFF800000000000000007FFFFFFFFFFFFFFF
310
FFFFFFFC001FFFFFFFFFFFFFFC001FFFFFFFFFFFFFFFFFFFFFFFFFFE0007FFFF
310
F000FFFF8000007FFFFFFFF8000FFFFFC0007FFFFF80007FFFFF0000007FFFFF
310
FFF8000007FFFFF800000000000000007FFFFFF0001FFFFFFFFFFFC00001FFFF
310
FFFFFFFFC00001FFFFFFFF000000000003FFFFE000007FFFF000FFFE0000000F
310
FFFFFFF0000FFFFF80007FFFFF80007FFFFC0000001FFFFFFFC0000001FFFFF8
310
00000000000000007FFFFFF0001FFFFFFFFFFE0000003FFFFFFFFFFE0000003F
310
FFFFFF000000000003FFFF0000000FFFF000FFF800000003FFFFFFF00007FFFF
310
80007FFFFF80007FFFF000000007FFFFFF000000003FFFF80000000000000000
310
7FFFFFF0001FFFFFFFFFF80000000FFFFFFFFFF80000000FFFFFFF0000000000
310
03FFFC00000003FFF000FFE000000000FFFFFFF00007FFFF80003FFFFF80007F
310
FFC000000001FFFFFC000000001FFFF800000000000000007FFFFFF0001FFFFF
310
FFFFE000000003FFFFFFFFE000000003FFFFFF000000000003FFF000000000FF
310
F000FF80000000007FFFFFF00007FFFF80003FFFFF80007FFF8000000000FFFF
310
F80000000007FFF800000000000000007FFFFFF0001FFFFFFFFFC000000001FF
310
FFFFFFC000000001FFFFFF000000000003FFC0000000007FF000FF0000000000
310
3FFFFFE00007FFFF00003FFFFF80007FFE00000000003FFFF00000000003FFF8
310
00000000000000007FFFFFF0001FFFFFFFFF8000000000FFFFFFFF8000000000
310
FFFFFF000000000003FF80000000003FF000FE00000000001FFFFFE00003FFFF
310
00003FFFFF80007FFC00000000001FFFE00000000001FFF8000001FFFE000000
310
7FFFFFF0001FFFFFFFFE00000000003FFFFFFE00000000003FFFFF0000000000
310
03FF00000000001FF000FC00000000000FFFFFE00003FFFF00001FFFFF80007F
310
F800000000001FFFC00000000000FFF8000001FFFE0000007FFFFFF0001FFFFF
310
FFFC00000000001FFFFFFC00000000001FFFFF000000000003FE00000000000F
310
F000F8000000000007FFFFE00003FFFF00001FFFFF80007FF800000000000FFF
310
800000000000FFF8000001FFFE0000007FFFFFF0001FFFFFFFF800000000000F
310
FFFFF800000000000FFFFF000000000003FC000000000007F000F80000000000
310
03FFFFC00003FFFE00001FFFFF80007FF0000000000007FF0000000000007FF8
310
000001FFFE0000007FFFFFF0001FFFFFFFF0000000000007FFFFF00000000000
310
07FFFF000000000003F8000000000003F000F0000000000003FFFFC00001FFFE
310
00001FFFFF80007FE0000000000007FE0000000000003FF8000001FFFE000000
310
7FFFFFF0001FFFFFFFF0000000000007FFFFF0000000000007FFFF0000000000
310
03F800001F800003F000E00001FFF00001FFFFC00001FFFE00000FFFFF80007F
310
E00001FFE00003FE00001FFF00003FF8000001FFFE0000007FFFFFF0001FFFFF
310
FFE000003E000003FFFFE000003E000003FFFF000000000003F00001FFF80001
310
F000E00007FFFC0001FFFFC00001FFFE00000FFFFF80007FC0000FFFFC0003FC
310
0000FFFFC0001FF8000001FFFE0000007FFFFFF0001FFFFFFFC00003FFE00001
310
FFFFC00003FFE00001FFFF0001FFFFFFFFF00007FFFE0001F000E0000FFFFF00
310
00FFFF800001FFFC00000FFFFF80007FC0001FFFFE0001FC0001FFFFE0001FF8
310
000001FFFE0000007FFFFFF0001FFFFFFF80000FFFF80000FFFF80000FFFF800
310
00FFFF0003FFFFFFFFE0000FFFFF8000F000C0003FFFFF8000FFFF800000FFFC
310
000007FFFF80007F80003FFFFF0001FC0003FFFFF0001FF8000001FFFE000000
310
7FFFFFF0001FFFFFFF80003FFFFE0000FFFF80003FFFFE0000FFFF0003FFFFFF
310
FFE0003FFFFF8000F000C0003FFFFF8000FFFF800000FFFC000007FFFF80007F
310
80007FFFFF8001F80007FFFFF8000FF8000001FFFE0000007FFFFFF0001FFFFF
310
FF00007FFFFF00007FFF00007FFFFF00007FFF0003FFFFFFFFE0003FFFFFC000
310
F000C0007FFFFFC000FFFF000000FFFC000007FFFF80007F8000FFFFFF8000F8
310
000FFFFFF8000FF8000001FFFE0000007FFFFFF0001FFFFFFF0000FFFFFF8000
310
7FFF0000FFFFFF80007FFF0003FFFFFFFFC0007FFFFFC00070008000FFFFFFC0
310
00FFFF000000FFF8000007FFFF80007F8000FFFFFF8000F8000FFFFFF8000FF8
310
000001FFFE0000007FFFFFF0001FFFFFFE0001FFFFFFC0003FFE0001FFFFFFC0
310
003FFF0003FFFFFFFFC0007FFFFFE00070008000FFFFFFC0007FFF0000007FF8
310
000003FFFF80007F0001FFFFFF8000F8000FFFFFF8000FF8000001FFFE000000
310
7FFFFFF0001FFFFFFE0001FFFFFFC0003FFE0001FFFFFFC0003FFF0003FFFFFF
310
FFC000FFFFFFE00070008000FFFFFFC0007FFF0000007FF8000003FFFF80007F
310
0001FFFFFF8000F8001FFFFFF8000FF8000001FFFE0000007FFFFFF0001FFFFF
310
FE0003FFFFFFE0003FFE0003FFFFFFE0003FFF0003FFFFFFFFC000FFFFFFE000
310
70008000FFFFFFC0007FFE0000007FF8000003FFFF80007F0001FFFFFF8000F0
310
001FFFFFF8000FF8000001FFFE0000007FFFFFF0001FFFFFFC0003FFFFFFE000
310
1FFC0003FFFFFFE0001FFF0003FFFFFFFFC000FFFFFFC00070008000FFFFFF80
310
007FFE0000007FF0000003FFFF80007F0001FFFFFF0000F0001FFFFFF8000FF8
310
000001FFFE0000007FFFFFF0001FFFFFFC0007FFFFFFF0001FFC0007FFFFFFF0
310
001FFF0003FFFFFFFFC000FFFFFFC00070008001FFFFFF0000FFFE0000003FF0
310
000001FFFF80007F0001FFFFFF0000F8001FFFFFF0000FF8000001FFFE000000
310
7FFFFFF0001FFFFFFC0007FFFFFFF0001FFC0007FFFFFFF0001FFF0003FFFFFF
310
FFC001FFFFFF80007000FFFFFFFFFE0000FFFE0008003FF0008001FFFF80007F
310
FFFFFFFFFC0000FFFFFFFFFFE0000FF8000001FFFE0000007FFFFFF0001FFFFF
310
F8000FFFFFFFF8000FF8000FFFFFFFF8000FFF0003FFFFFFFFFFFFFFFFFF0000
310
7000FFFFFFFFFC0000FFFC0008003FF0008001FFFF80007FFFFFFFFFF80001FF
310
FFFFFFFF80000FF8000001FFFE0000007FFFFFF0001FFFFFF8000FFFFFFFF800
310
0FF8000FFFFFFFF8000FFF0003FFFFFFFFFFFFFFFFFE0000F000FFFFFFFFE000
310
00FFFC000C003FE000C001FFFF80007FFFFFFFFFC00001FFFFFFFFFE00001FF8
310
000001FFFE0000007FFFFFF0001FFFFFF8000FFFFFFFF8000FF8000FFFFFFFF8
310
000FFF0003FFFFFFFFFFFFFFFFF00000F000FFFFFFFE000001FFFC000C001FE0
310
00C000FFFF80007FFFFFFFFE000001FFFFFFFFE000001FF80FFFFFFFFFFFFFC0
310
7FFFFFF0001FFFFFF8000FFFFFFFF8000FF8000FFFFFFFF8000FFF0003FFFFFF
310
FFFFFFFFFF800000F000FFFFFFC0000001FFFC001C001FE001C000FFFF80007F
310
FFFFFF80000003FFFFFFF80000001FF80FFFFFFFFFFFFFC07FFFFFF0001FFFFF
310
F8001FFFFFFFFC000FF8001FFFFFFFFC000FFF0003FFFFFFFFFFFFFFF0000001
310
F000FFFFF800000001FFF8001C001FE001C000FFFF80007FFFFFF800000003FF
310
FFFF800000003FF80FFFFFFFFFFFFFC07FFFFFF0001FFFFFF8001FFFFFFFFC00
310
0FF8001FFFFFFFFC000FFF0003FFFFFFFFFFFFFE00000001F000FFFFC0000000
310
03FFF8001E001FC001E000FFFF80007FFFFF8000000007FFFFFC000000003FF8
310
0FFFFFFFFFFFFFC07FFFFFF0001FFFFFF8001FFFFFFFFC000FF8001FFFFFFFFC
310
000FFF0003FFFFFFFFFFFFE000000003F000FFFE0000000007FFF8001E000FC0
310
01E0007FFF80007FFFFE0000000007FFFFE0000000007FF80FFFFFFFFFFFFFC0
310
7FFFFFF0001FFFFFF0001FFFFFFFFC0007F0001FFFFFFFFC0007FF0003FFFFFF
310
FFFFFF0000000003F000FFF80000000007FFF8001E000FC003E0007FFF80007F
310
FFF0000000000FFFFF8000000000FFF80FFFFFFFFFFFFFC07FFFFFF0001FFFFF
310
F0001FFFFFFFFC0007F0001FFFFFFFFC0007FF0003FFFFFFFFFFFC0000000007
310
F000FFE0000000000FFFF0003E000FC003E0007FFF80007FFFC0000000001FFF
310
FE0000000001FFF80FFFFFFFFFFFFFC07FFFFFF0001FFFFFF0001FFFFFFFFC00
310
07F0001FFFFFFFFC0007FF0003FFFFFFFFFFF0000000000FF000FFC000000000
310
1FFFF0003F000F8003F0003FFF80007FFF80000000003FFFF80000000003FFF8
310
0FFFFFFFFFFFFFC07FFFFFF0001FFFFFF0001FFFFFFFFC0007F0001FFFFFFFFC
310
0007FF0003FFFFFFFFFFE0000000001FF000FF00000000007FFFF0003F000780
310
03F0003FFF80007FFF00000000007FFFF00000000007FFF80FFFFFFFFFFFFFC0
310
7FFFFFF0001FFFFFF0001FFFFFFFFC0007F0001FFFFFFFFC0007FF0003FFFFFF
310
FFFF80000000007FF000FE0000000000FFFFE0003F00078007F0003FFF80007F
310
FE0000000001FFFFE0000000001FFFF80FFFFFFFFFFFFFC07FFFFFF0001FFFFF
310
F0001FFFFFFFFC0007F0001FFFFFFFFC0007FF0003FFFFFFFFFF0000000000FF
310
F000FC0000000003FFFFE0007F00078007F0003FFF80007FFC0000000007FFFF
310
C0000000007FFFF80FFFFFFFFFFFFFC07FFFFFF0001FFFFFF8001FFFFFFFFC00
310
0FF8001FFFFFFFFC000FFF0003FFFFFFFFFE0000000003FFF000FC000000000F
310
FFFFE0007F80070007F8001FFF80007FF8000000001FFFFF8000000001FFFFF8
310
0FFFFFFFFFFFFFC07FFFFFF0001FFFFFF8001FFFFFFFFC000FF8001FFFFFFFFC
310
000FFF0003FFFFFFFFFC000000000FFFF000F8000000007FFFFFE0007F800700
310
07F8001FFF80007FF000000000FFFFFF800000000FFFFFF80FFFFFFFFFFFFFC0
310
7FFFFFF0001FFFFFF8000FFFFFFFF8000FF8000FFFFFFFF8000FFF0003FFFFFF
310
FFFC000000007FFFF000F800000007FFFFFFC0007F8003000FF8001FFF80007F
310
F000000007FFFFFF000000007FFFFFF80FFFFFFFFFFFFFC07FFFFFF0001FFFFF
310
F8000FFFFFFFF8000FF8000FFFFFFFF8000FFF0003FFFFFFFFF80000000FFFFF
310
F000F0000000FFFFFFFFC000FF8003000FF8001FFF80007FE0000000FFFFFFFF
310
0000000FFFFFFFF8000001FFFE0000007FFFFFF0001FFFFFF8000FFFFFFFF800
310
0FF8000FFFFFFFF8000FFF0003FFFFFFFFF8000000FFFFFFF000F000000FFFFF
310
FFFFC000FFC002000FF8000FFF80007FE000001FFFFFFFFE000001FFFFFFFFF8
310
000001FFFE0000007FFFFFF0001FFFFFF8000FFFFFFFF8000FF8000FFFFFFFF8
310
000FFF0003FFFFFFFFF000001FFFFFFFF000E00000FFFFFFFFFFC000FFC00200
310
0FFC000FFF80007FE00001FFFFFFFFFE00001FFFFFFFFFF8000001FFFE000000
310
7FFFFFF0001FFFFFFC000FFFFFFFF8001FFC000FFFFFFFF8001FFF0003FFFFFF
310
FFF00001FFFFFFFFF000E00007FFFFFFFFFF8000FFC000001FFC000FFF80007F
310
C0000FFFFFFFFFFE0000FFFFFFFFFFF8000001FFFE0000007FFFFFF0001FFFFF
310
FC0007FFFFFFF0001FFC0007FFFFFFF0001FFF0003FFFFFFFFF00007FFFFFFFF
310
F000E0001FFFFFFFFFFF8000FFC000001FFC000FFF80007FC0003FFFFFFFFFFE
310
0001FFFFFFFFFFF8000001FFFE0000007FFFFFF0001FFFFFFC0007FFFFFFF000
310
1FFC0007FFFFFFF0001FFF0003FFFFFFFFF0001FFFFFFFFFF000E0003FFFFF00
310
03FF8001FFE000001FFC0007FF80007FC0007FFFFF0007FC0003FFFFF0003FF8
310
000001FFFE0000007FFFFFF0001FFFFFFC0003FFFFFFE0001FFC0003FFFFFFE0
310
001FFF0003FFFFFFFFF0003FFFFFFFFFF000E0003FFFFF0001FF8001FFE00000
310
1FFE0007FF80007FC0007FFFFE0003FC0007FFFFE0003FF8000001FFFE000000
310
7FFFFFF0001FFFFFFE0003FFFFFFE0003FFE0003FFFFFFE0003FFF0003FFFFFF
310
FFF0003FFFFF8001F000E0003FFFFF0001FF0001FFE000001FFE0007FF80007F
310
C0007FFFFE0003FC0007FFFFE0003FF8000001FFFE0000007FFFFFF0001FFFFF
310
FE0001FFFFFFC0003FFE0001FFFFFFC0003FFF0003FFFFFFFFF0003FFFFF0001
310
F000E0003FFFFF0003FF0001FFE000003FFE0007FF80007FC0007FFFFE0003FC
310
0007FFFFE0003FF8000001FFFE0000007FFFFFF0001FFFFFFF0001FFFFFFC000
310
7FFF0001FFFFFFC0007FFF0003FFFFFFFFF0003FFFFF0001F000E0003FFFFE00
310
03FF0003FFF000003FFE0003FF80007FC0007FFFFC0003FE0007FFFFE0003FF8
310
000001FFFE0000007FFFFFF0001FFFFFFF0000FFFFFF80007FFF0000FFFFFF80
310
007FFF0003FFFFFFFFF0003FFFFF0001F000E0003FFFFE0003FF0003FFF00000
310
3FFF0003FF80007FC0007FFFFC0007FE0007FFFFC0003FF8000001FFFE000000
310
7FFFFFF0001FFFFFFF80007FFFFF0000FFFF80007FFFFF0000FFFF0003FFFFFF
310
FFF0003FFFFF0003F000E0003FFFFC0003FE0003FFF000003FFF0003FF80007F
310
E0003FFFF80007FE0003FFFFC0007FF8000001FFFE0000007FFFFFF0001FFFFF
310
FF80003FFFFE0000FFFF80003FFFFE0000FFFF0003FFFFFFFFF0001FFFFE0003
310
F000F0001FFFF80003FE0003FFF000007FFF0001FF80007FE0003FFFF00007FE
310
0001FFFF80007FF8000001FFFE0000007FFFFFF0001FFFFFFFC0000FFFF80001
310
FFFFC0000FFFF80001FFFF0003FFFFFFFFF0001FFFFC0003F000F0000FFFF000
310
07FE0007FFF800007FFF0001FF80007FE0001FFFE00007FF0000FFFE00007FF8
310
000001FFFE0000007FFFFFF0001FFFFFFFC00003FFE00001FFFFC00003FFE000
310
01FFFF0003FFFFFFFFF8000FFFF80003F000F00003FFC00007FC0007FFF80000
310
7FFF8001FF80007FF00007FF80000FFF00007FF80000FFF8000001FFFE000000
310
7F80000000000001FFE000003E000003FFFFE000003E000003FFFF0003FFFFFF
310
FFF80003FFE00007F000F800000000000FFC0007FFF800007FFF8001FF80007F
310
F000000000000FFF000000000000FFF8000001FFFE0000007F80000000000001
310
FFF0000000000007FFFFF0000000000007FFFF0003FFFFFFFFFC00007E000007
310
F000F800000000000FFC0007FFF80000FFFF8000FF80007FF800000000001FFF
310
800000000001FFF8000001FFFE0000007F80000000000001FFF800000000000F
310
FFFFF800000000000FFFFF0003FFFFFFFFFC00000000000FF000FC0000000000
310
1FFC0007FFFC0000FFFF8000FF80007FF800000000003FFFC00000000001FFF8
310
000001FFFE0000007F80000000000001FFF800000000000FFFFFF80000000000
310
0FFFFF0003FFFFFFFFFE00000000001FF000FE00000000003FF8000FFFFC0000
310
FFFF8000FF80007FFC00000000003FFFC00000000003FFF8000001FFFE000000
310
7F80000000000001FFFC00000000001FFFFFFC00000000001FFFFF0003FFFFFF
310
FFFF00000000001FF000FF00000000003FF8000FFFFC0000FFFFC000FF80007F
310
FE00000000007FFFE00000000007FFF8000001FFFE0000007F80000000000001
310
FFFE00000000003FFFFFFE00000000003FFFFF0003FFFFFFFFFF80000000003F
310
F000FF80000000007FF8000FFFFC0001FFFFC0007F80007FFF0000000000FFFF
310
F0000000000FFFF800000000000000007F80000000000001FFFF8000000000FF
310
FFFFFF8000000000FFFFFF0003FFFFFFFFFFC0000000007FF000FFC000000000
310
FFF8000FFFFE0001FFFFC0007F80007FFF8000000001FFFFF8000000001FFFF8
310
00000000000000007F80000000000001FFFFC000000001FFFFFFFFC000000001
310
FFFFFF0003FFFFFFFFFFE000000000FFF000FFE000000003FFF0001FFFFE0001
310
FFFFC0007F80007FFFC000000007FFFFFE000000003FFFF80000000000000000
310
7F80000000000001FFFFE000000003FFFFFFFFE000000003FFFFFF0003FFFFFF
310
FFFFF000000003FFF000FFF80000000FFFF0001FFFFE0001FFFFE0007F80007F
310
FFF00000000FFFFFFF00000000FFFFF800000000000000007F80000000000001
310
FFFFF80000000FFFFFFFFFF80000000FFFFFFF0003FFFFFFFFFFFC0000000FFF
310
F000FFFE0000003FFFF0001FFFFE0003FFFFE0003F80007FFFFC0000003FFFFF
310
FFC0000003FFFFF800000000000000007F80000000000001FFFFFE0000003FFF
310
FFFFFFFE0000003FFFFFFF0003FFFFFFFFFFFF0000003FFFF000FFFF800000FF
310
FFF0001FFFFF0003FFFFE0003F80007FFFFF000001FFFFFFFFF800001FFFFFF8
310
00000000000000007F80000000000001FFFFFFC00001FFFFFFFFFFFFC00001FF
310
FFFFFF0003FFFFFFFFFFFFC00000FFFFF000FFFFF8000FFFFFFFFFFFFFFFFFFF
310
FFFFFFFFFFFFFFFFFFFFF0001FFFFFFFFFFF0000FFFFFFF80000000000000000
310
7FFFFFFFFFFFFFFFFFFFFFFC001FFFFFFFFFFFFFFC001FFFFFFFFFFFFFFFFFFF
310
FFFFFFFC001FFFFFF000FFFFFFFFFFFFFFFFFFFFFFFFFFFFFFFFFFFFFFFFFFFF
310
FFFFFFFFFFFFFFFFFFFFFFFFFFFFFFFFFFFFFFFFFFFFFFFFFFFFFFFFFFFFFFFF
310
FFFFFFFFFFFFFFFFFFFFFFFFFFFFFFFFFFFFFFFFFFFFFFFFFFFFFFFFFFFFFFFF
310
F000FFFFFFFFFFFFFFFFFFFFFFFFFFFFFFFFFFFFFFFFFFFFFFFFFFFFFFFFFFFF
310
FFFFFFFFFFFFFFFFFFFFFFFFFFFFFFFFFFFFFFFFFFFFFFFFFFFFFFFFFFFFFFFF
310
FFFFFFFFFFFFFFFFFFFFFFFFFFFFFFFFFFFFFFFFFFFFFFFFF000FFFFFFFFFFFF
310
FFFFFFFFFFFFFFFFFFFFFFFFFFFFFFFFFFFFFFFFFFFFFFFFFFFFFFFFFFFFFFFF
310
FFFFFFFFFFFFFFFFFFFFFFFFFFFFFFFFFFFFFFFFFFFFFFFFFFFFFFFFFFFFFFFF
310
FFFFFFFFFFFFFFFFFFFFFFFFFFFFFFFFF000FFFFFFFFFFFFFFFFFFFFFFFFFFFF
310
FFFFFFFFFFFFFFFFFFFFFFFFFFFFFFFFFFFFFFFFFFFFFFFFFFFFFFFFFFFFFFFF
310
FFFFFFFFFFFFFFFFFFFFFFFFFFFFFFFFFFFFFFFFFFFFFFFFFFFFFFFFFFFFFFFF
310
FFFFFFFFFFFFFFFFF000FFFFFFFFFFFFFFFFFFFFFFFFFFFFFFFFFFFFFFFFFFFF
310
FFFFFFFFFFFFFFFFFFFFFFFFFFFFFFFFFFFFFFFFFFFFFFFFFFFFFFFFFFFFFFFF
310
FFFFFFFFFFFFFFFFFFFFFFFFFFFFFFFFFFFFFFFFFFFFFFFFFFFFFFFFFFFFFFFF
310
F000FFFFFFFFFFFFFFFFFFFFFFFFFFFFFFFFFFFFFFFFFFFFFFFFFFFFFFFFFFFF
310
FFFFFFFFFFFFFFFFFFFFFFFFFFFFFFFFFFFFFFFFFFFFFFFFFFFFFFFFFFFFFFFF
310
FFFFFFFFFFFFFFFFFFFFFFFFFFFFFFFFFFFFFFFFFFFFFFFFF000FFFFFFFFFFFF
310
FFFFFFFFFFFFFFFFFFFFFFFFFFFFFFFFFFFFFFFFFFFFFFFFFFFFFFFFFFFFFFFF
310
FFFFFFFFFFFFFFFFFFFFFFFFFFFFFFFFFFFFFFFFFFFFFFFFFFFFFFFFFFFFFFFF
310
FFFFFFFFFFFFFFFFFFFFFFFFFFFFFFFFF000FFFFFFFFFFFFFFFFFFFFFFFFFFFF
310
FFFFFFFFFFFFFFFFFFFFFFFFFFFFFFFFFFFFFFFFFFFFFFFFFFFFFFFFFFFFFFFF
310
FFFFFFFFFFFFFFFFFFFFFFFFFFFFFFFFFFFFFFFFFFFFFFFFFFFFFFFFFFFFFFFF
310
FFFFFFFFFFFFFFFFF000FFFFFFFFFFFFFFFFFFFFFFFFFFFFFFFFFFFFFFFFFFFF
310
FFFFFFFFFFFFFFFFFFFFFFFFFFFFFFFFFFFFFFFFFFFFFFFFFFFFFFFFFFFFFFFF
310
FFFFFFFFFFFFFFFFFFFFFFFFFFFFFFFFFFFFFFFFFFFFFFFFFFFFFFFFFFFFFFFF
310
F000FFFFFFFFFFFFFFFFFFFFFFFFFFFFFFFFFFFFFFFFFFFFFFFFFFFFFFFFFFFF
310
FFFFFFFFFFFFFFFFFFFFFFFFFFFFFFFFFFFFFFFFFFFFFFFFFFFFFFFFFFFFFFFF
310
FFFFFFFFFFFFFFFFFFFFFFFFFFFFFFFFFFFFFFFFFFFFFFFFF000FFFFFFFFFFFF
310
FFFFFFFFFFFFFFFFFFFFFFFFFFFFFFFFFFFFFFFFFFFFFFFFFFFFFFFFFFFFFFFF
310
FFFFFFFFFFFFFFFFFFFFFFFFFFFFFFFFFFFFFFFFFFFFFFFFFFFFFFFFFFFFFFFF
310
FFFFFFFFFFFFFFFFFFFFFFFFFFFFFFFFF000FFFFFFFFFFFFFFFFFFFFFFFFFFFF
310
FFFFFFFFFFFFFFFFFFFFFFFFFFFFFFFFFFFFFFFFFFFFFFFFFFFFFFFFFFFFFFFF
310
FFFFFFFFFFFFFFFFFFFFFFFFFFFFFFFFFFFFFFFFFFFFFFFFFFFFFFFFFFFFFFFF
310
FFFFFFFFFFFFFFFFF000FFFFFFFFFFFFFFFFFFFFFFFFFFFFFFFFFFFFFFFFFFFF
310
FFFFFFFFFFFFFFFFFFFFFFFFFFFFFFFFFFFFFFFFFFFFFFFFFFFFFFFFFFFFFFFF
310
FFFFFFFFFFFFFFFFFFFFFFFFFFFFFFFFFFFFFFFFFFFFFFFFFFFFFFFFFFFFFFFF
310
F000FFFFFFFFFFFFFFFFFFFFFFFFFFFFFFFFFFFFFFFFFFFFFFFFFFFFFFFFFFFF
310
FFFFFFFFFFFFFFFFFFFFFFFFFFFFFFFFFFFFFFFFFFFFFFFFFFFFFFFFFFFFFFFF
310
FFFFFFFFFFFFFFFFFFFFFFFFFFFFFFFFFFFFFFFFFFFFFFFFF000FFFFFFFFFFFF
310
FFFFFFFFFFFFFFFFFFFFFFFFFFFFFFFFFFFFFFFFFFFFFFFFFFFFFFFFFFFFFFFF
310
FFFFFFFFFFFFFFFFFFFFFFFFFFFFFFFFFFFFFFFFFFFFFFFFFFFFFFFFFFFFFFFF
310
FFFFFFFFFFFFFFFFFFFFFFFFFFFFFFFFF000FFFFFFFFFFFFFFFFFFFFFFFFFFFF
310
FFFFFFFFFFFFFFFFFFFFFFFFFFFFFFFFFFFFFFFFFFFFFFFFFFFFFFFFFFFFFFFF
310
FFFFFFFFFFFFFFFFFFFFFFFFFFFFFFFFFFFFFFFFFFFFFFFFFFFFFFFFFFFFFFFF
310
FFFFFFFFFFFFFFFFF000FFFFFFFFFFFFFFFFFFFFFFFFFFFFFFFFFFFFFFFFFFFF
310
FFFFFFFFFFFFFFFFFFFFFFFFFFFFFFFFFFFFFFFFFFFFFFFFFFFFFFFFFFFFFFFF
310
FFFFFFFFFFFFFFFFFFFFFFFFFFFFFFFFFFFFFFFFFFFFFFFFFFFFFFFFFFFFFFFF
310
F000FFFFFFFFFFFFFFFFFFFFFFFFFFFFFFFFFFFFFFFFFFFFFFFFFFFFFFFFFFFF
310
FFFFFFFFFFFFFFFFFFFFFFFFFFFFFFFFFFFFFFFFFFFFFFFFFFFFFFFFFFFFFFFF
310
FFFFFFFFFFFFFFFFFFFFFFFFFFFFFFFFFFFFFFFFFFFFFFFFF000FFFFFFFFFFFF
310
FFFFFFFFFFFFFFFFFFFFFFFFFFFFFFFFFFFFFFFFFFFFFFFFFFFFFFFFFFFFFFFF
310
FFFFFFFFFFFFFFFFFFFFFFFFFFFFFFFFFFFFFFFFFFFFFFFFFFFFFFFFFFFFFFFF
310
FFFFFFFFFFFFFFFFFFFFFFFFFFFFFFFFF000FFFFFFFFFFFFFFFFFFFFFFFFFFFF
310
FFFFFFFFFFFFFFFFFFFFFFFFFFFFFFFFFFFFFFFFFFFFFFFFFFFFFFFFFFFFFFFF
310
FFFFFFFFFFFFFFFFFFFFFFFFFFFFFFFFFFFFFFFFFFFFFFFFFFFFFFFFFFFFFFFF
310
FFFFFFFFFFFFFFFFF000FFFFFFFFFFFFFFFFFFFFFFFFFFFFFFFFFFFFFFFFFFFF
310
FFFFFFFFFFFFFFFFFFFFFFFFFFFFFFFFFFFFFFFFFFFFFFFFFFFFFFFFFFFFFFFF
310
FFFFFFFFFFFFFFFFFFFFFFFFFFFFFFFFFFFFFFFFFFFFFFFFFFFFFFFFFFFFFFFF
310
F000FFFFFFFFFFFFFFFFFFFFFFFFFFFFFFFFFFFFFFFFFFFFFFFFFFFFFFFFFFFF
310
FFFFFFFFFFFFFFFFFFFFFFFFFFFFFFFFFFFFFFFFFFFFFFFFFFFFFFFFFFFFFFFF
310
FFFFFFFFFFFFFFFFFFFFFFFFFFFFFFFFFFFFFFFFFFFFFFFFF000FFFFFFFFFFFF
310
FFFFFFFFFFFFFFFFFFFFFFFFFFFFFFFFFFFFFFFFFFFFFFFFFFFFFFFFFFFFFFFF
310
FFFFFFFFFFFFFFFFFFFFFFFFFFFFFFFFFFFFFFFFFFFFFFFFFFFFFFFFFFFFFFFF
310
FFFFFFFFFFFFFFFFFFFFFFFFFFFFFFFFF0000000000000000000000000000000
310
0000000000000000000000000000000000000000000000000000000000000000
310
0000000000000000000000000000000000000000000000000000000000000000
310
0000000000000000000000000000000000000000000000000000000000000000
310
0000000000000000000000000000000000000000000000000000000000000000
310
0000000000000000000000000000000000000000000000000000000000000000
310
000000000000000000000000000000000000000000000000D811395E00000000
310
0000000000000000000000000000000000000000000000000000000000000000
310
0000000000000000000000000000000000000000000000000000000000000000
310
0000000000000000000000000000000000000000000000000000000000000000
310
0000000000000000000000000000000000000000000000000000000000000000
310
0000000000000000000000000000000000000000000000000000000000000000
310
0000000000000000000000000000000000000000000000000000000000000000
310
A012395E00000000000000000000000000000000000000000000000000000000
310
0000000000000000000000000000000000000000000000000000000000000000
310
0000000000000000000000000000000000000000000000000000000000000000
  1
OLE
  0
ENDSEC
  0
SECTION
  2
OBJECTS
  0
DICTIONARY
  5
C
330
0
100
AcDbDictionary
281
     1
  3
ACAD_GROUP
350
D
  3
ACAD_LAYOUT
350
1A
  3
ACAD_MLEADERSTYLE
350
20B
  3
ACAD_MLINESTYLE
350
17
  3
ACAD_PLOTSETTINGS
350
19
  3
ACAD_PLOTSTYLENAME
350
E
  3
ACAD_TABLESTYLE
350
20A
  3
ACAD_VISUALSTYLE
350
2A
  3
AcDbVariableDictionary
350
20C
  0
DICTIONARY
  5
D
102
{ACAD_REACTORS
330
C
102
}
330
C
100
AcDbDictionary
281
     1
  0
DICTIONARY
  5
1A
102
{ACAD_REACTORS
330
C
102
}
330
C
100
AcDbDictionary
281
     1
  3
Layout1
350
1E
  3
Layout2
350
26
  3
Model
350
22
  0
DICTIONARY
  5
20B
102
{ACAD_REACTORS
330
C
102
}
330
C
100
AcDbDictionary
281
     1
  0
DICTIONARY
  5
17
102
{ACAD_REACTORS
330
C
102
}
330
C
100
AcDbDictionary
281
     1
  3
Standard
350
18
  0
DICTIONARY
  5
19
102
{ACAD_REACTORS
330
C
102
}
330
C
100
AcDbDictionary
281
     1
  0
ACDBDICTIONARYWDFLT
  5
E
102
{ACAD_REACTORS
330
C
102
}
330
C
100
AcDbDictionary
281
     1
  3
Normal
350
F
100
AcDbDictionaryWithDefault
340
F
  0
DICTIONARY
  5
20A
102
{ACAD_REACTORS
330
C
102
}
330
C
100
AcDbDictionary
281
     1
  0
DICTIONARY
  5
2A
102
{ACAD_REACTORS
330
C
102
}
330
C
100
AcDbDictionary
281
     1
  3
2dWireframe
350
2F
  3
3D Hidden
350
31
  3
3dWireframe
350
30
  3
Basic
350
32
  3
Brighten
350
36
  3
ColorChange
350
3A
  3
Conceptual
350
34
  3
Dim
350
35
  3
Facepattern
350
39
  3
Flat
350
2B
  3
FlatWithEdges
350
2C
  3
Gouraud
350
2D
  3
GouraudWithEdges
350
2E
  3
Linepattern
350
38
  3
Realistic
350
33
  3
Thicken
350
37
  0
DICTIONARY
  5
20C
102
{ACAD_REACTORS
330
C
102
}
330
C
100
AcDbDictionary
281
     1
  3
PSOLHEIGHT
350
20E
  3
PSOLWIDTH
350
20D
  0
LAYOUT
  5
1E
102
{ACAD_REACTORS
330
1A
102
}
330
1A
100
AcDbPlotSettings
  1

  2
none_device
  4

  6

 40
0.0
 41
0.0
 42
0.0
 43
0.0
 44
0.0
 45
0.0
 46
0.0
 47
0.0
 48
0.0
 49
0.0
140
0.0
141
0.0
142
1.0
143
1.0
 70
   688
 72
     0
 73
     0
 74
     5
  7

 75
    16
147
1.0
148
0.0
149
0.0
100
AcDbLayout
  1
Layout1
 70
     1
 71
     1
 10
0.0
 20
0.0
 11
420.0
 21
297.0
 12
0.0
 22
0.0
 32
0.0
 14
1.0000000000E+20
 24
1.0000000000E+20
 34
1.0000000000E+20
 15
-1.0000000000E+20
 25
-1.0000000000E+20
 35
-1.0000000000E+20
146
0.0
 13
0.0
 23
0.0
 33
0.0
 16
1.0
 26
0.0
 36
0.0
 17
0.0
 27
1.0
 37
0.0
 76
     0
330
1B
  0
LAYOUT
  5
26
102
{ACAD_REACTORS
330
1A
102
}
330
1A
100
AcDbPlotSettings
  1

  2
none_device
  4

  6

 40
0.0
 41
0.0
 42
0.0
 43
0.0
 44
0.0
 45
0.0
 46
0.0
 47
0.0
 48
0.0
 49
0.0
140
0.0
141
0.0
142
1.0
143
1.0
 70
   688
 72
     0
 73
     0
 74
     5
  7

 75
    16
147
1.0
148
0.0
149
0.0
100
AcDbLayout
  1
Layout2
 70
     1
 71
     2
 10
0.0
 20
0.0
 11
0.0
 21
0.0
 12
0.0
 22
0.0
 32
0.0
 14
0.0
 24
0.0
 34
0.0
 15
0.0
 25
0.0
 35
0.0
146
0.0
 13
0.0
 23
0.0
 33
0.0
 16
1.0
 26
0.0
 36
0.0
 17
0.0
 27
1.0
 37
0.0
 76
     0
330
23
  0
LAYOUT
  5
22
102
{ACAD_REACTORS
330
1A
102
}
330
1A
100
AcDbPlotSettings
  1

  2
none_device
  4

  6

 40
0.0
 41
0.0
 42
0.0
 43
0.0
 44
0.0
 45
0.0
 46
0.0
 47
0.0
 48
0.0
 49
0.0
140
0.0
141
0.0
142
1.0
143
1.0
 70
  1712
 72
     0
 73
     0
 74
     0
  7

 75
     0
147
1.0
148
0.0
149
0.0
100
AcDbLayout
  1
Model
 70
     1
 71
     0
 10
0.0
 20
0.0
 11
297.0
 21
210.0
 12
0.0
 22
0.0
 32
0.0
 14
0.0
 24
0.0
 34
0.0
 15
297.0
 25
210.0
 35
0.0
146
0.0
 13
0.0
 23
0.0
 33
0.0
 16
1.0
 26
0.0
 36
0.0
 17
0.0
 27
1.0
 37
0.0
 76
     0
330
1F
331
29
  0
MLINESTYLE
  5
18
102
{ACAD_REACTORS
330
17
102
}
330
17
100
AcDbMlineStyle
  2
Standard
 70
     0
  3

 62
   256
 51
90.0
 52
90.0
 71
     2
 49
0.5
 62
   256
  6
BYLAYER
 49
-0.5
 62
   256
  6
BYLAYER
  0
ACDBPLACEHOLDER
  5
F
102
{ACAD_REACTORS
330
E
102
}
330
E
  0
VISUALSTYLE
  5
2F
102
{ACAD_REACTORS
330
2A
102
}
330
2A
100
AcDbVisualStyle
  2
2dWireframe
 70
     4
 71
     0
 72
     2
 73
     0
 90
        0
 40
-0.6
 41
-30.0
 62
     5
 63
     7
 74
     1
 91
        4
 64
     7
 65
   257
 75
     1
175
     1
 42
1.0
 92
        0
 66
   257
 43
1.0
 76
     1
 77
     6
 78
     2
 67
     7
 79
     5
170
     0
171
     0
290
     0
174
     0
 93
        1
 44
0.0
173
     0
291
     0
 45
0.0
1001
ACAD
1000
AcDbSavedByObjectVersion
1070
     0
  0
VISUALSTYLE
  5
31
102
{ACAD_REACTORS
330
2A
102
}
330
2A
100
AcDbVisualStyle
  2
3D Hidden
 70
     6
 71
     1
 72
     2
 73
     2
 90
        0
 40
-0.6
 41
-30.0
 62
     5
 63
     7
 74
     2
 91
        2
 64
     7
 65
   257
 75
     2
175
     1
 42
40.0
 92
        0
 66
   257
 43
1.0
 76
     1
 77
     6
 78
     2
 67
     7
 79
     3
170
     0
171
     0
290
     0
174
     0
 93
        1
 44
0.0
173
     0
291
     0
 45
0.0
1001
ACAD
1000
AcDbSavedByObjectVersion
1070
     0
  0
VISUALSTYLE
  5
30
102
{ACAD_REACTORS
330
2A
102
}
330
2A
100
AcDbVisualStyle
  2
3dWireframe
 70
     5
 71
     0
 72
     2
 73
     0
 90
        0
 40
-0.6
 41
-30.0
 62
     5
 63
     7
 74
     1
 91
        4
 64
     7
 65
   257
 75
     1
175
     1
 42
1.0
 92
        0
 66
   257
 43
1.0
 76
     1
 77
     6
 78
     2
 67
     7
 79
     5
170
     0
171
     0
290
     0
174
     0
 93
        1
 44
0.0
173
     0
291
     0
 45
0.0
1001
ACAD
1000
AcDbSavedByObjectVersion
1070
     0
  0
VISUALSTYLE
  5
32
102
{ACAD_REACTORS
330
2A
102
}
330
2A
100
AcDbVisualStyle
  2
Basic
 70
     7
 71
     1
 72
     0
 73
     1
 90
        0
 40
-0.6
 41
-30.0
 62
     5
 63
     7
 74
     0
 91
        4
 64
     7
 65
   257
 75
     1
175
     1
 42
1.0
 92
        8
 66
     7
 43
1.0
 76
     1
 77
     6
 78
     2
 67
     7
 79
     5
170
     0
171
     0
290
     0
174
     0
 93
        1
 44
0.0
173
     0
291
     1
 45
0.0
1001
ACAD
1000
AcDbSavedByObjectVersion
1070
     0
  0
VISUALSTYLE
  5
36
102
{ACAD_REACTORS
330
2A
102
}
330
2A
100
AcDbVisualStyle
  2
Brighten
 70
    12
 71
     2
 72
     2
 73
     0
 90
        0
 40
-0.6
 41
-30.0
 62
     5
 63
     7
 74
     1
 91
        4
 64
     7
 65
   257
 75
     1
175
     1
 42
1.0
 92
        8
 66
     7
 43
1.0
 76
     1
 77
     6
 78
     2
 67
     7
 79
     5
170
     0
171
     0
290
     0
174
     0
 93
        1
 44
50.0
173
     0
291
     1
 45
0.0
1001
ACAD
1000
AcDbSavedByObjectVersion
1070
     0
  0
VISUALSTYLE
  5
3A
102
{ACAD_REACTORS
330
2A
102
}
330
2A
100
AcDbVisualStyle
  2
ColorChange
 70
    16
 71
     2
 72
     2
 73
     3
 90
        0
 40
-0.6
 41
-30.0
 62
     5
 63
     8
 74
     1
 91
        4
 64
     7
 65
   257
 75
     1
175
     1
 42
1.0
 92
        8
 66
     8
 43
1.0
 76
     1
 77
     6
 78
     2
 67
     7
 79
     5
170
     0
171
     0
290
     0
174
     0
 93
        1
 44
0.0
173
     0
291
     1
 45
0.0
1001
ACAD
1000
AcDbSavedByObjectVersion
1070
     0
  0
VISUALSTYLE
  5
34
102
{ACAD_REACTORS
330
2A
102
}
330
2A
100
AcDbVisualStyle
  2
Conceptual
 70
     9
 71
     3
 72
     2
 73
     0
 90
        0
 40
-0.6
 41
-30.0
 62
     5
 63
     7
 74
     2
 91
        2
 64
     7
 65
   257
 75
     1
175
     1
 42
40.0
 92
        8
 66
     7
 43
1.0
 76
     1
 77
     6
 78
     2
 67
     7
 79
     3
170
     0
171
     0
290
     0
174
     0
 93
        1
 44
0.0
173
     0
291
     0
 45
0.0
1001
ACAD
1000
AcDbSavedByObjectVersion
1070
     0
  0
VISUALSTYLE
  5
35
102
{ACAD_REACTORS
330
2A
102
}
330
2A
100
AcDbVisualStyle
  2
Dim
 70
    11
 71
     2
 72
     2
 73
     0
 90
        0
 40
-0.6
 41
-30.0
 62
     5
 63
     7
 74
     1
 91
        4
 64
     7
 65
   257
 75
     1
175
     1
 42
1.0
 92
        8
 66
     7
 43
1.0
 76
     1
 77
     6
 78
     2
 67
     7
 79
     5
170
     0
171
     0
290
     0
174
     0
 93
        1
 44
-50.0
173
     0
291
     1
 45
0.0
1001
ACAD
1000
AcDbSavedByObjectVersion
1070
     0
  0
VISUALSTYLE
  5
39
102
{ACAD_REACTORS
330
2A
102
}
330
2A
100
AcDbVisualStyle
  2
Facepattern
 70
    15
 71
     2
 72
     2
 73
     0
 90
        0
 40
-0.6
 41
-30.0
 62
     5
 63
     7
 74
     1
 91
        4
 64
     7
 65
   257
 75
     1
175
     1
 42
1.0
 92
        8
 66
     7
 43
1.0
 76
     1
 77
     6
 78
     2
 67
     7
 79
     5
170
     0
171
     0
290
     0
174
     0
 93
        1
 44
0.0
173
     0
291
     1
 45
0.0
1001
ACAD
1000
AcDbSavedByObjectVersion
1070
     0
  0
VISUALSTYLE
  5
2B
102
{ACAD_REACTORS
330
2A
102
}
330
2A
100
AcDbVisualStyle
  2
Flat
 70
     0
 71
     2
 72
     1
 73
     1
 90
        2
 40
-0.6
 41
30.0
 62
     5
 63
     7
 74
     0
 91
        4
 64
     7
 65
   257
 75
     1
175
     1
 42
1.0
 92
        8
 66
     7
 43
1.0
 76
     1
 77
     6
 78
     2
 67
     7
 79
     5
170
     0
171
     0
290
     0
174
     0
 93
       13
 44
0.0
173
     0
291
     1
 45
0.0
1001
ACAD
1000
AcDbSavedByObjectVersion
1070
     0
  0
VISUALSTYLE
  5
2C
102
{ACAD_REACTORS
330
2A
102
}
330
2A
100
AcDbVisualStyle
  2
FlatWithEdges
 70
     1
 71
     2
 72
     1
 73
     1
 90
        2
 40
-0.6
 41
30.0
 62
     5
 63
     7
 74
     1
 91
        4
 64
     7
 65
   257
 75
     1
175
     1
 42
1.0
 92
        0
 66
   257
 43
1.0
 76
     1
 77
     6
 78
     2
 67
     7
 79
     5
170
     0
171
     0
290
     0
174
     0
 93
       13
 44
0.0
173
     0
291
     1
 45
0.0
1001
ACAD
1000
AcDbSavedByObjectVersion
1070
     0
  0
VISUALSTYLE
  5
2D
102
{ACAD_REACTORS
330
2A
102
}
330
2A
100
AcDbVisualStyle
  2
Gouraud
 70
     2
 71
     2
 72
     2
 73
     1
 90
        2
 40
-0.6
 41
30.0
 62
     5
 63
     7
 74
     0
 91
        4
 64
     7
 65
   257
 75
     1
175
     1
 42
1.0
 92
        0
 66
     7
 43
1.0
 76
     1
 77
     6
 78
     2
 67
     7
 79
     5
170
     0
171
     0
290
     0
174
     0
 93
       13
 44
0.0
173
     0
291
     1
 45
0.0
1001
ACAD
1000
AcDbSavedByObjectVersion
1070
     0
  0
VISUALSTYLE
  5
2E
102
{ACAD_REACTORS
330
2A
102
}
330
2A
100
AcDbVisualStyle
  2
GouraudWithEdges
 70
     3
 71
     2
 72
     2
 73
     1
 90
        2
 40
-0.6
 41
30.0
 62
     5
 63
     7
 74
     1
 91
        4
 64
     7
 65
   257
 75
     1
175
     1
 42
1.0
 92
        0
 66
   257
 43
1.0
 76
     1
 77
     6
 78
     2
 67
     7
 79
     5
170
     0
171
     0
290
     0
174
     0
 93
       13
 44
0.0
173
     0
291
     1
 45
0.0
1001
ACAD
1000
AcDbSavedByObjectVersion
1070
     0
  0
VISUALSTYLE
  5
38
102
{ACAD_REACTORS
330
2A
102
}
330
2A
100
AcDbVisualStyle
  2
Linepattern
 70
    14
 71
     2
 72
     2
 73
     0
 90
        0
 40
-0.6
 41
-30.0
 62
     5
 63
     7
 74
     1
 91
        4
 64
     7
 65
   257
 75
     7
175
     7
 42
1.0
 92
        8
 66
     7
 43
1.0
 76
     1
 77
     6
 78
     2
 67
     7
 79
     5
170
     0
171
     0
290
     0
174
     0
 93
        1
 44
0.0
173
     0
291
     1
 45
0.0
1001
ACAD
1000
AcDbSavedByObjectVersion
1070
     0
  0
VISUALSTYLE
  5
33
102
{ACAD_REACTORS
330
2A
102
}
330
2A
100
AcDbVisualStyle
  2
Realistic
 70
     8
 71
     2
 72
     2
 73
     0
 90
        0
 40
-0.6
 41
-30.0
 62
     5
 63
     7
 74
     1
 91
        0
 64
     7
 65
   257
 75
     1
175
     1
 42
1.0
 92
        8
 66
     8
 43
1.0
 76
     1
 77
     6
 78
     2
 67
     7
 79
     5
170
     0
171
     0
290
     0
174
     0
 93
       13
 44
0.0
173
     0
291
     0
 45
0.0
1001
ACAD
1000
AcDbSavedByObjectVersion
1070
     0
  0
VISUALSTYLE
  5
37
102
{ACAD_REACTORS
330
2A
102
}
330
2A
100
AcDbVisualStyle
  2
Thicken
 70
    13
 71
     2
 72
     2
 73
     0
 90
        0
 40
-0.6
 41
-30.0
 62
     5
 63
     7
 74
     1
 91
        4
 64
     7
 65
   257
 75
     1
175
     1
 42
1.0
 92
       12
 66
     7
 43
1.0
 76
     1
 77
     6
 78
     2
 67
     7
 79
     5
170
     0
171
     0
290
     0
174
     0
 93
        1
 44
0.0
173
     0
291
     1
 45
0.0
1001
ACAD
1000
AcDbSavedByObjectVersion
1070
     0
  0
DICTIONARYVAR
  5
20E
102
{ACAD_REACTORS
330
20C
102
}
330
20C
100
DictionaryVariables
280
     0
  1
80.000000
  0
DICTIONARYVAR
  5
20D
102
{ACAD_REACTORS
330
20C
102
}
330
20C
100
DictionaryVariables
280
     0
  1
5.000000
  0
ENDSEC
  0
EOF
