  0
SECTION
  2
HEADER
  9
$ACADVER
  1
AC1015
  9
$ACADMAINTVER
 70
     6
  9
$DWGCODEPAGE
  3
ANSI_1252
  9
$INSBASE
 10
0.0
 20
0.0
 30
0.0
  9
$EXTMIN
 10
0.0
 20
0.0
 30
0.0
  9
$EXTMAX
 10
297.0
 20
210.0
 30
0.0
  9
$LIMMIN
 10
0.0
 20
0.0
  9
$LIMMAX
 10
297.0
 20
210.0
  9
$ORTHOMODE
 70
     0
  9
$REGENMODE
 70
     1
  9
$FILLMODE
 70
     1
  9
$QTEXTMODE
 70
     0
  9
$MIRRTEXT
 70
     1
  9
$LTSCALE
 40
1.0
  9
$ATTMODE
 70
     1
  9
$TEXTSIZE
 40
2.0
  9
$TRACEWID
 40
1.0
  9
$TEXTSTYLE
  7
Standard
  9
$CLAYER
  8
0
  9
$CELTYPE
  6
ByLayer
  9
$CECOLOR
 62
   256
  9
$CELTSCALE
 40
1.0
  9
$DISPSILH
 70
     0
  9
$DIMSCALE
 40
1.0
  9
$DIMASZ
 40
3.0
  9
$DIMEXO
 40
0.0
  9
$DIMDLI
 40
3.75
  9
$DIMRND
 40
0.0
  9
$DIMDLE
 40
0.0
  9
$DIMEXE
 40
1.0
  9
$DIMTP
 40
0.0
  9
$DIMTM
 40
0.0
  9
$DIMTXT
 40
2.0
  9
$DIMCEN
 40
2.5
  9
$DIMTSZ
 40
0.0
  9
$DIMTOL
 70
     0
  9
$DIMLIM
 70
     0
  9
$DIMTIH
 70
     1
  9
$DIMTOH
 70
     1
  9
$DIMSE1
 70
     0
  9
$DIMSE2
 70
     0
  9
$DIMTAD
 70
     1
  9
$DIMZIN
 70
     0
  9
$DIMBLK
  1

  9
$DIMASO
 70
     1
  9
$DIMSHO
 70
     1
  9
$DIMPOST
  1

  9
$DIMAPOST
  1

  9
$DIMALT
 70
     0
  9
$DIMALTD
 70
     3
  9
$DIMALTF
 40
0.0393700787
  9
$DIMLFAC
 40
1.0
  9
$DIMTOFL
 70
     1
  9
$DIMTVP
 40
0.0
  9
$DIMTIX
 70
     0
  9
$DIMSOXD
 70
     0
  9
$DIMSAH
 70
     0
  9
$DIMBLK1
  1

  9
$DIMBLK2
  1

  9
$DIMSTYLE
  2
ISO-25
  9
$DIMCLRD
 70
     0
  9
$DIMCLRE
 70
     0
  9
$DIMCLRT
 70
     0
  9
$DIMTFAC
 40
1.0
  9
$DIMGAP
 40
1.524
  9
$DIMJUST
 70
     0
  9
$DIMSD1
 70
     0
  9
$DIMSD2
 70
     0
  9
$DIMTOLJ
 70
     0
  9
$DIMTZIN
 70
     0
  9
$DIMALTZ
 70
     0
  9
$DIMALTTZ
 70
     0
  9
$DIMUPT
 70
     0
  9
$DIMDEC
 70
     2
  9
$DIMTDEC
 70
     3
  9
$DIMALTU
 70
     2
  9
$DIMALTTD
 70
     3
  9
$DIMTXSTY
  7
Standard
  9
$DIMAUNIT
 70
     0
  9
$DIMADEC
 70
     2
  9
$DIMALTRND
 40
0.0
  9
$DIMAZIN
 70
     0
  9
$DIMDSEP
 70
    44
  9
$DIMATFIT
 70
     3
  9
$DIMFRAC
 70
     0
  9
$DIMLDRBLK
  1

  9
$DIMLUNIT
 70
     2
  9
$DIMLWD
 70
    -2
  9
$DIMLWE
 70
    -2
  9
$DIMTMOVE
 70
     0
  9
$LUNITS
 70
     2
  9
$LUPREC
 70
     2
  9
$SKETCHINC
 40
1.0
  9
$FILLETRAD
 40
10.0
  9
$AUNITS
 70
     0
  9
$AUPREC
 70
     2
  9
$MENU
  1
.
  9
$ELEVATION
 40
0.0
  9
$PELEVATION
 40
0.0
  9
$THICKNESS
 40
0.0
  9
$LIMCHECK
 70
     0
  9
$CHAMFERA
 40
10.0
  9
$CHAMFERB
 40
10.0
  9
$CHAMFERC
 40
20.0
  9
$CHAMFERD
 40
0.0
  9
$SKPOLY
 70
     0
  9
$TDCREATE
 40
2455685.585822222
  9
$TDUCREATE
 40
2455685.502488889
  9
$TDUPDATE
 40
2455685.585822234
  9
$TDUUPDATE
 40
2455685.5024889
  9
$TDINDWG
 40
0.0000000116
  9
$TDUSRTIMER
 40
0.0000000116
  9
$USRTIMER
 70
     1
  9
$ANGBASE
 50
0.0
  9
$ANGDIR
 70
     0
  9
$PDMODE
 70
     0
  9
$PDSIZE
 40
-1.0
  9
$PLINEWID
 40
0.0
  9
$SPLFRAME
 70
     0
  9
$SPLINETYPE
 70
     6
  9
$SPLINESEGS
 70
     8
  9
$HANDSEED
  5
2F3
  9
$SURFTAB1
 70
     6
  9
$SURFTAB2
 70
     6
  9
$SURFTYPE
 70
     6
  9
$SURFU
 70
     6
  9
$SURFV
 70
     6
  9
$UCSBASE
  2

  9
$UCSNAME
  2

  9
$UCSORG
 10
0.0
 20
0.0
 30
0.0
  9
$UCSXDIR
 10
1.0
 20
0.0
 30
0.0
  9
$UCSYDIR
 10
0.0
 20
1.0
 30
0.0
  9
$UCSORTHOREF
  2

  9
$UCSORTHOVIEW
 70
     0
  9
$UCSORGTOP
 10
0.0
 20
0.0
 30
0.0
  9
$UCSORGBOTTOM
 10
0.0
 20
0.0
 30
0.0
  9
$UCSORGLEFT
 10
0.0
 20
0.0
 30
0.0
  9
$UCSORGRIGHT
 10
0.0
 20
0.0
 30
0.0
  9
$UCSORGFRONT
 10
0.0
 20
0.0
 30
0.0
  9
$UCSORGBACK
 10
0.0
 20
0.0
 30
0.0
  9
$PUCSBASE
  2

  9
$PUCSNAME
  2

  9
$PUCSORG
 10
0.0
 20
0.0
 30
0.0
  9
$PUCSXDIR
 10
1.0
 20
0.0
 30
0.0
  9
$PUCSYDIR
 10
0.0
 20
1.0
 30
0.0
  9
$PUCSORTHOREF
  2

  9
$PUCSORTHOVIEW
 70
     0
  9
$PUCSORGTOP
 10
0.0
 20
0.0
 30
0.0
  9
$PUCSORGBOTTOM
 10
0.0
 20
0.0
 30
0.0
  9
$PUCSORGLEFT
 10
0.0
 20
0.0
 30
0.0
  9
$PUCSORGRIGHT
 10
0.0
 20
0.0
 30
0.0
  9
$PUCSORGFRONT
 10
0.0
 20
0.0
 30
0.0
  9
$PUCSORGBACK
 10
0.0
 20
0.0
 30
0.0
  9
$USERI1
 70
     0
  9
$USERI2
 70
     0
  9
$USERI3
 70
     0
  9
$USERI4
 70
     0
  9
$USERI5
 70
     0
  9
$USERR1
 40
0.0
  9
$USERR2
 40
0.0
  9
$USERR3
 40
0.0
  9
$USERR4
 40
0.0
  9
$USERR5
 40
0.0
  9
$WORLDVIEW
 70
     1
  9
$SHADEDGE
 70
     3
  9
$SHADEDIF
 70
    70
  9
$TILEMODE
 70
     1
  9
$MAXACTVP
 70
    64
  9
$PINSBASE
 10
0.0
 20
0.0
 30
0.0
  9
$PLIMCHECK
 70
     0
  9
$PEXTMIN
 10
1.0000000000E+20
 20
1.0000000000E+20
 30
1.0000000000E+20
  9
$PEXTMAX
 10
-1.0000000000E+20
 20
-1.0000000000E+20
 30
-1.0000000000E+20
  9
$PLIMMIN
 10
0.0
 20
0.0
  9
$PLIMMAX
 10
420.0
 20
297.0
  9
$UNITMODE
 70
     0
  9
$VISRETAIN
 70
     1
  9
$PLINEGEN
 70
     0
  9
$PSLTSCALE
 70
     1
  9
$TREEDEPTH
 70
  3020
  9
$CMLSTYLE
  2
Standard
  9
$CMLJUST
 70
     0
  9
$CMLSCALE
 40
20.0
  9
$PROXYGRAPHICS
 70
     1
  9
$MEASUREMENT
 70
     1
  9
$CELWEIGHT
370
    -1
  9
$ENDCAPS
280
     0
  9
$JOINSTYLE
280
     0
  9
$LWDISPLAY
290
     1
  9
$INSUNITS
 70
     4
  9
$HYPERLINKBASE
  1

  9
$STYLESHEET
  1

  9
$XEDIT
290
     1
  9
$CEPSNTYPE
380
     0
  9
$PSTYLEMODE
290
     1
  9
$FINGERPRINTGUID
  2
{D72F0C5E-3D2F-4636-8A19-360CC1C942FB}
  9
$VERSIONGUID
  2
{FAEB1C32-E019-11D5-929B-00C0DF256EC4}
  9
$EXTNAMES
290
     1
  9
$PSVPSCALE
 40
0.0
  9
$OLESTARTUP
290
     0
  0
ENDSEC
  0
SECTION
  2
CLASSES
  0
CLASS
  1
ACDBDICTIONARYWDFLT
  2
AcDbDictionaryWithDefault
  3
ObjectDBX Classes
 90
        0
280
     0
281
     0
  0
CLASS
  1
VISUALSTYLE
  2
AcDbVisualStyle
  3
ObjectDBX Classes
 90
     4095
280
     0
281
     0
  0
CLASS
  1
DICTIONARYVAR
  2
AcDbDictionaryVar
  3
ObjectDBX Classes
 90
        0
280
     0
281
     0
  0
CLASS
  1
ACDBPLACEHOLDER
  2
AcDbPlaceHolder
  3
ObjectDBX Classes
 90
        0
280
     0
281
     0
  0
CLASS
  1
LAYOUT
  2
AcDbLayout
  3
ObjectDBX Classes
 90
        0
280
     0
281
     0
  0
ENDSEC
  0
SECTION
  2
TABLES
  0
TABLE
  2
VPORT
  5
8
330
0
100
AcDbSymbolTable
 70
     1
  0
VPORT
  5
29
330
8
100
AcDbSymbolTableRecord
100
AcDbViewportTableRecord
  2
*Active
 70
     0
 10
0.0
 20
0.0
 11
1.0
 21
1.0
 12
148.5
 22
105.0
 13
0.0
 23
0.0
 14
10.0
 24
10.0
 15
10.0
 25
10.0
 16
0.0
 26
0.0
 36
1.0
 17
0.0
 27
0.0
 37
0.0
 40
210.0
 41
1.4142857143
 42
50.0
 43
0.0
 44
0.0
 50
0.0
 51
0.0
 71
     0
 72
  2000
 73
     1
 74
     3
 75
     0
 76
     0
 77
     0
 78
     0
281
     0
 65
     1
110
0.0
120
0.0
130
0.0
111
1.0
121
0.0
131
0.0
112
0.0
122
1.0
132
0.0
 79
     0
146
0.0
  0
ENDTAB
  0
TABLE
  2
LTYPE
  5
5
330
0
100
AcDbSymbolTable
 70
     6
  0
LTYPE
  5
14
330
5
100
AcDbSymbolTableRecord
100
AcDbLinetypeTableRecord
  2
ByBlock
 70
     0
  3

 72
    65
 73
     0
 40
0.0
  0
LTYPE
  5
15
330
5
100
AcDbSymbolTableRecord
100
AcDbLinetypeTableRecord
  2
ByLayer
 70
     0
  3

 72
    65
 73
     0
 40
0.0
  0
LTYPE
  5
16
330
5
100
AcDbSymbolTableRecord
100
AcDbLinetypeTableRecord
  2
Continuous
 70
     0
  3
Solid line
 72
    65
 73
     0
 40
0.0
  0
LTYPE
  5
3B
330
5
100
AcDbSymbolTableRecord
100
AcDbLinetypeTableRecord
  2
HIDDEN
 70
     0
  3
Hidden __ __ __ __ __ __ __ __ __ __ __ __ __ __
 72
    65
 73
     2
 40
1.905
 49
1.27
 74
     0
 49
-0.635
 74
     0
  0
LTYPE
  5
3C
330
5
100
AcDbSymbolTableRecord
100
AcDbLinetypeTableRecord
  2
PHANTOM
 70
     0
  3
Phantom ______  __  __  ______  __  __  ______
 72
    65
 73
     6
 40
12.7
 49
6.35
 74
     0
 49
-1.27
 74
     0
 49
1.27
 74
     0
 49
-1.27
 74
     0
 49
1.27
 74
     0
 49
-1.27
 74
     0
  0
LTYPE
  5
3D
330
5
100
AcDbSymbolTableRecord
100
AcDbLinetypeTableRecord
  2
CENTER
 70
     0
  3
Center ____ _ ____ _ ____ _ ____ _ ____ _ ____
 72
    65
 73
     4
 40
10.16
 49
6.35
 74
     0
 49
-1.27
 74
     0
 49
1.27
 74
     0
 49
-1.27
 74
     0
  0
LTYPE
  5
3E
330
5
100
AcDbSymbolTableRecord
100
AcDbLinetypeTableRecord
  2
CENTERX2
 70
     0
  3
Center (2x) ________  __  ________  __  _____
 72
    65
 73
     4
 40
20.32
 49
12.7
 74
     0
 49
-2.54
 74
     0
 49
2.54
 74
     0
 49
-2.54
 74
     0
  0
LTYPE
  5
3F
330
5
100
AcDbSymbolTableRecord
100
AcDbLinetypeTableRecord
  2
DOT2
 70
     0
  3
Dot (.5x) ........................................
 72
    65
 73
     2
 40
0.635
 49
0.0
 74
     0
 49
-0.635
 74
     0
  0
ENDTAB
  0
TABLE
  2
LAYER
  5
2
330
0
100
AcDbSymbolTable
 70
     5
  0
LAYER
  5
10
330
2
100
AcDbSymbolTableRecord
100
AcDbLayerTableRecord
  2
0
 70
     0
 62
     7
  6
Continuous
370
    -3
390
F
  0
LAYER
  5
40
330
2
100
AcDbSymbolTableRecord
100
AcDbLayerTableRecord
  2
FORMAT
 70
     0
 62
     7
  6
Continuous
370
    -3
390
F
  0
LAYER
  5
41
330
2
100
AcDbSymbolTableRecord
100
AcDbLayerTableRecord
  2
VERMASSUNG
 70
     0
 62
     7
  6
Continuous
370
    -3
390
F
  0
LAYER
  5
42
330
2
100
AcDbSymbolTableRecord
100
AcDbLayerTableRecord
  2
KOPF_DÜNN
 70
     0
 62
     7
  6
Continuous
370
    -3
390
F
  0
LAYER
  5
43
330
2
100
AcDbSymbolTableRecord
100
AcDbLayerTableRecord
  2
KOPF_DICK
 70
     0
 62
     7
  6
Continuous
370
    15
390
F
  0
ENDTAB
  0
TABLE
  2
STYLE
  5
3
330
0
100
AcDbSymbolTable
 70
     2
  0
STYLE
  5
11
330
3
100
AcDbSymbolTableRecord
100
AcDbTextStyleTableRecord
  2
Standard
 70
     0
 40
0.0
 41
1.0
 50
0.0
 71
     0
 42
2.5
  3
txt
  4

  0
STYLE
  5
44
330
3
100
AcDbSymbolTableRecord
100
AcDbTextStyleTableRecord
  2
SLDTEXTSTYLE0
 70
     0
 40
0.0
 41
0.7
 50
0.0
 71
     0
 42
0.2
  3
TXT
  4

  0
ENDTAB
  0
TABLE
  2
VIEW
  5
6
330
0
100
AcDbSymbolTable
 70
     0
  0
ENDTAB
  0
TABLE
  2
UCS
  5
7
330
0
100
AcDbSymbolTable
 70
     0
  0
ENDTAB
  0
TABLE
  2
APPID
  5
9
330
0
100
AcDbSymbolTable
 70
     1
  0
APPID
  5
12
330
9
100
AcDbSymbolTableRecord
100
AcDbRegAppTableRecord
  2
ACAD
 70
     0
  0
ENDTAB
  0
TABLE
  2
DIMSTYLE
  5
A
330
0
100
AcDbSymbolTable
 70
     2
100
AcDbDimStyleTable
  0
DIMSTYLE
105
27
330
A
100
AcDbSymbolTableRecord
100
AcDbDimStyleTableRecord
  2
ISO-25
 70
     0
 41
2.5
 42
0.625
 43
3.75
 44
1.25
 73
     0
 74
     0
 77
     1
 78
     8
140
2.5
141
2.5
143
0.0393700787
147
0.625
171
     3
172
     1
271
     2
272
     2
274
     3
278
    44
283
     0
284
     8
340
11
  0
DIMSTYLE
105
16C
102
{ACAD_REACTORS
330
16B
330
176
330
180
330
18A
330
2C2
330
2CC
330
2D6
330
2E0
102
}
330
A
100
AcDbSymbolTableRecord
100
AcDbDimStyleTableRecord
  2
SLDDIMSTYLE0
 70
     0
 41
3.0
 44
0.0
 45
0.000000001
 73
     0
 74
     0
 77
     1
 78
    12
140
2.0
147
0.5
173
     1
271
     2
272
     3
284
    12
340
44
  0
ENDTAB
  0
TABLE
  2
BLOCK_RECORD
  5
1
330
0
100
AcDbSymbolTable
 70
     9
  0
BLOCK_RECORD
  5
1F
330
1
100
AcDbSymbolTableRecord
100
AcDbBlockTableRecord
  2
*Model_Space
340
22
  0
BLOCK_RECORD
  5
1B
330
1
100
AcDbSymbolTableRecord
100
AcDbBlockTableRecord
  2
*Paper_Space
340
1E
  0
BLOCK_RECORD
  5
23
330
1
100
AcDbSymbolTableRecord
100
AcDbBlockTableRecord
  2
*Paper_Space0
340
26
  0
BLOCK_RECORD
  5
16D
330
1
100
AcDbSymbolTableRecord
100
AcDbBlockTableRecord
  2
*D1
340
0
  0
BLOCK_RECORD
  5
177
330
1
100
AcDbSymbolTableRecord
100
AcDbBlockTableRecord
  2
*D2
340
0
  0
BLOCK_RECORD
  5
181
330
1
100
AcDbSymbolTableRecord
100
AcDbBlockTableRecord
  2
*D3
340
0
  0
BLOCK_RECORD
  5
18B
330
1
100
AcDbSymbolTableRecord
100
AcDbBlockTableRecord
  2
*D4
340
0
  0
BLOCK_RECORD
  5
2C3
330
1
100
AcDbSymbolTableRecord
100
AcDbBlockTableRecord
  2
*D5
340
0
  0
BLOCK_RECORD
  5
2CD
330
1
100
AcDbSymbolTableRecord
100
AcDbBlockTableRecord
  2
*D6
340
0
  0
BLOCK_RECORD
  5
2D7
330
1
100
AcDbSymbolTableRecord
100
AcDbBlockTableRecord
  2
*D7
340
0
  0
BLOCK_RECORD
  5
2E1
330
1
100
AcDbSymbolTableRecord
100
AcDbBlockTableRecord
  2
*D8
340
0
  0
ENDTAB
  0
ENDSEC
  0
SECTION
  2
BLOCKS
  0
BLOCK
  5
20
330
1F
100
AcDbEntity
  8
0
100
AcDbBlockBegin
  2
*Model_Space
 70
     0
 10
0.0
 20
0.0
 30
0.0
  3
*Model_Space
  1

  0
ENDBLK
  5
21
330
1F
100
AcDbEntity
  8
0
100
AcDbBlockEnd
  0
BLOCK
  5
1C
330
1B
100
AcDbEntity
 67
     1
  8
0
100
AcDbBlockBegin
  2
*Paper_Space
 70
     0
 10
0.0
 20
0.0
 30
0.0
  3
*Paper_Space
  1

  0
ENDBLK
  5
1D
330
1B
100
AcDbEntity
 67
     1
  8
0
100
AcDbBlockEnd
  0
BLOCK
  5
24
330
23
100
AcDbEntity
  8
0
100
AcDbBlockBegin
  2
*Paper_Space0
 70
     0
 10
0.0
 20
0.0
 30
0.0
  3
*Paper_Space0
  1

  0
ENDBLK
  5
25
330
23
100
AcDbEntity
  8
0
100
AcDbBlockEnd
  0
BLOCK
  5
16E
330
16D
100
AcDbEntity
  8
0
100
AcDbBlockBegin
  2
*D1
 70
     1
 10
0.0
 20
0.0
 30
0.0
  3
*D1
  1

  0
SOLID
  5
170
330
16D
100
AcDbEntity
  8
VERMASSUNG
100
AcDbTrace
 10
214.6103981552
 20
166.7475144231
 30
0.0
 11
214.1603981552
 21
163.7475144231
 31
0.0
 12
215.0603981552
 22
163.7475144231
 32
0.0
 13
215.0603981552
 23
163.7475144231
 33
0.0
  0
SOLID
  5
171
330
16D
100
AcDbEntity
  8
VERMASSUNG
100
AcDbTrace
 10
214.6103981552
 20
146.7475144231
 30
0.0
 11
215.0603981552
 21
149.7475144231
 31
0.0
 12
214.1603981552
 22
149.7475144231
 32
0.0
 13
214.1603981552
 23
149.7475144231
 33
0.0
  0
LINE
  5
172
330
16D
100
AcDbEntity
  8
VERMASSUNG
100
AcDbLine
 10
206.33050133
 20
166.7475144231
 30
0.0
 11
215.6103981552
 21
166.7475144231
 31
0.0
  0
LINE
  5
173
330
16D
100
AcDbEntity
  8
VERMASSUNG
100
AcDbLine
 10
206.8566033312
 20
146.7475144231
 30
0.0
 11
215.6103981552
 21
146.7475144231
 31
0.0
  0
LINE
  5
174
330
16D
100
AcDbEntity
  8
VERMASSUNG
100
AcDbLine
 10
214.6103981552
 20
166.7475144231
 30
0.0
 11
214.6103981552
 21
146.7475144231
 31
0.0
  0
MTEXT
  5
175
330
16D
100
AcDbEntity
  8
VERMASSUNG
100
AcDbMText
 10
212.0322627921
 20
155.3481363083
 30
0.0
 40
2.0
 41
0.0
 71
     1
 72
     1
  1
20
  7
SLDTEXTSTYLE0
 11
-7.044195017643634E-15
 21
1.0
 31
0.0
 73
     1
 44
1.0
  0
ENDBLK
  5
16F
330
16D
100
AcDbEntity
  8
0
100
AcDbBlockEnd
  0
BLOCK
  5
178
330
177
100
AcDbEntity
  8
0
100
AcDbBlockBegin
  2
*D2
 70
     1
 10
0.0
 20
0.0
 30
0.0
  3
*D2
  1

  0
SOLID
  5
17A
330
177
100
AcDbEntity
  8
VERMASSUNG
100
AcDbTrace
 10
220.6103981552
 20
166.7475144231
 30
0.0
 11
220.1603981552
 21
163.7475144231
 31
0.0
 12
221.0603981552
 22
163.7475144231
 32
0.0
 13
221.0603981552
 23
163.7475144231
 33
0.0
  0
SOLID
  5
17B
330
177
100
AcDbEntity
  8
VERMASSUNG
100
AcDbTrace
 10
220.6103981552
 20
131.7475144231
 30
0.0
 11
221.0603981552
 21
134.7475144231
 31
0.0
 12
220.1603981552
 22
134.7475144231
 32
0.0
 13
220.1603981552
 23
134.7475144231
 33
0.0
  0
LINE
  5
17C
330
177
100
AcDbEntity
  8
VERMASSUNG
100
AcDbLine
 10
206.33050133
 20
166.7475144231
 30
0.0
 11
221.6103981552
 21
166.7475144231
 31
0.0
  0
LINE
  5
17D
330
177
100
AcDbEntity
  8
VERMASSUNG
100
AcDbLine
 10
206.8566033312
 20
131.7475144231
 30
0.0
 11
221.6103981552
 21
131.7475144231
 31
0.0
  0
LINE
  5
17E
330
177
100
AcDbEntity
  8
VERMASSUNG
100
AcDbLine
 10
220.6103981552
 20
166.7475144231
 30
0.0
 11
220.6103981552
 21
131.7475144231
 31
0.0
  0
MTEXT
  5
17F
330
177
100
AcDbEntity
  8
VERMASSUNG
100
AcDbMText
 10
218.0322627921
 20
147.8481363083
 30
0.0
 40
2.0
 41
0.0
 71
     1
 72
     1
  1
35
  7
SLDTEXTSTYLE0
 11
-7.044195017643634E-15
 21
1.0
 31
0.0
 73
     1
 44
1.0
  0
ENDBLK
  5
179
330
177
100
AcDbEntity
  8
0
100
AcDbBlockEnd
  0
BLOCK
  5
182
330
181
100
AcDbEntity
  8
0
100
AcDbBlockBegin
  2
*D3
 70
     1
 10
0.0
 20
0.0
 30
0.0
  3
*D3
  1

  0
SOLID
  5
184
330
181
100
AcDbEntity
  8
VERMASSUNG
100
AcDbTrace
 10
226.6103981552
 20
192.7475144231
 30
0.0
 11
226.1603981552
 21
189.7475144231
 31
0.0
 12
227.0603981552
 22
189.7475144231
 32
0.0
 13
227.0603981552
 23
189.7475144231
 33
0.0
  0
SOLID
  5
185
330
181
100
AcDbEntity
  8
VERMASSUNG
100
AcDbTrace
 10
226.6103981552
 20
131.7475144231
 30
0.0
 11
227.0603981552
 21
134.7475144231
 31
0.0
 12
226.1603981552
 22
134.7475144231
 32
0.0
 13
226.1603981552
 23
134.7475144231
 33
0.0
  0
LINE
  5
186
330
181
100
AcDbEntity
  8
VERMASSUNG
100
AcDbLine
 10
206.8566033312
 20
192.7475144231
 30
0.0
 11
227.6103981552
 21
192.7475144231
 31
0.0
  0
LINE
  5
187
330
181
100
AcDbEntity
  8
VERMASSUNG
100
AcDbLine
 10
206.8566033312
 20
131.7475144231
 30
0.0
 11
227.6103981552
 21
131.7475144231
 31
0.0
  0
LINE
  5
188
330
181
100
AcDbEntity
  8
VERMASSUNG
100
AcDbLine
 10
226.6103981552
 20
192.7475144231
 30
0.0
 11
226.6103981552
 21
131.7475144231
 31
0.0
  0
MTEXT
  5
189
330
181
100
AcDbEntity
  8
VERMASSUNG
100
AcDbMText
 10
224.0322627921
 20
161.0477159399
 30
0.0
 40
2.0
 41
0.0
 71
     1
 72
     1
  1
61
  7
SLDTEXTSTYLE0
 11
-7.044195017643634E-15
 21
1.0
 31
0.0
 73
     1
 44
1.0
  0
ENDBLK
  5
183
330
181
100
AcDbEntity
  8
0
100
AcDbBlockEnd
  0
BLOCK
  5
18C
330
18B
100
AcDbEntity
  8
0
100
AcDbBlockBegin
  2
*D4
 70
     1
 10
0.0
 20
0.0
 30
0.0
  3
*D4
  1

  0
SOLID
  5
18E
330
18B
100
AcDbEntity
  8
VERMASSUNG
100
AcDbTrace
 10
186.8566033312
 20
126.3609917941
 30
0.0
 11
189.8566033312
 21
125.9109917941
 31
0.0
 12
189.8566033312
 22
126.8109917941
 32
0.0
 13
189.8566033312
 23
126.8109917941
 33
0.0
  0
SOLID
  5
18F
330
18B
100
AcDbEntity
  8
VERMASSUNG
100
AcDbTrace
 10
206.8566033312
 20
126.3609917941
 30
0.0
 11
203.8566033312
 21
126.8109917941
 31
0.0
 12
203.8566033312
 22
125.9109917941
 32
0.0
 13
203.8566033312
 23
125.9109917941
 33
0.0
  0
LINE
  5
190
330
18B
100
AcDbEntity
  8
VERMASSUNG
100
AcDbLine
 10
186.8566033312
 20
146.7475144231
 30
0.0
 11
186.8566033312
 21
125.3609917941
 31
0.0
  0
LINE
  5
191
330
18B
100
AcDbEntity
  8
VERMASSUNG
100
AcDbLine
 10
206.8566033312
 20
131.7475144231
 30
0.0
 11
206.8566033312
 21
125.3609917941
 31
0.0
  0
LINE
  5
192
330
18B
100
AcDbEntity
  8
VERMASSUNG
100
AcDbLine
 10
186.8566033312
 20
126.3609917941
 30
0.0
 11
206.8566033312
 21
126.3609917941
 31
0.0
  0
MTEXT
  5
193
330
18B
100
AcDbEntity
  8
VERMASSUNG
100
AcDbMText
 10
195.4572252163
 20
128.9391271573
 30
0.0
 40
2.0
 41
0.0
 71
     1
 72
     1
  1
20
  7
SLDTEXTSTYLE0
 73
     1
 44
1.0
  0
ENDBLK
  5
18D
330
18B
100
AcDbEntity
  8
0
100
AcDbBlockEnd
  0
BLOCK
  5
2C4
330
2C3
100
AcDbEntity
  8
0
100
AcDbBlockBegin
  2
*D5
 70
     1
 10
0.0
 20
0.0
 30
0.0
  3
*D5
  1

  0
SOLID
  5
2C6
330
2C3
100
AcDbEntity
  8
VERMASSUNG
100
AcDbTrace
 10
216.8566033312
 20
100.4301280185
 30
0.0
 11
216.4066033312
 21
97.4301280185
 31
0.0
 12
217.3066033312
 22
97.4301280185
 32
0.0
 13
217.3066033312
 23
97.4301280185
 33
0.0
  0
SOLID
  5
2C7
330
2C3
100
AcDbEntity
  8
VERMASSUNG
100
AcDbTrace
 10
216.8566033312
 20
40.4301280185
 30
0.0
 11
217.3066033312
 21
43.4301280185
 31
0.0
 12
216.4066033312
 22
43.4301280185
 32
0.0
 13
216.4066033312
 23
43.4301280185
 33
0.0
  0
LINE
  5
2C8
330
2C3
100
AcDbEntity
  8
VERMASSUNG
100
AcDbLine
 10
206.8566033312
 20
100.4301280185
 30
0.0
 11
217.8566033312
 21
100.4301280185
 31
0.0
  0
LINE
  5
2C9
330
2C3
100
AcDbEntity
  8
VERMASSUNG
100
AcDbLine
 10
206.8566033312
 20
40.4301280185
 30
0.0
 11
217.8566033312
 21
40.4301280185
 31
0.0
  0
LINE
  5
2CA
330
2C3
100
AcDbEntity
  8
VERMASSUNG
100
AcDbLine
 10
216.8566033312
 20
100.4301280185
 30
0.0
 11
216.8566033312
 21
40.4301280185
 31
0.0
  0
MTEXT
  5
2CB
330
2C3
100
AcDbEntity
  8
VERMASSUNG
100
AcDbMText
 10
214.2784679681
 20
69.0307499036
 30
0.0
 40
2.0
 41
0.0
 71
     1
 72
     1
  1
60
  7
SLDTEXTSTYLE0
 11
-7.044195017643634E-15
 21
1.0
 31
0.0
 73
     1
 44
1.0
  0
ENDBLK
  5
2C5
330
2C3
100
AcDbEntity
  8
0
100
AcDbBlockEnd
  0
BLOCK
  5
2CE
330
2CD
100
AcDbEntity
  8
0
100
AcDbBlockBegin
  2
*D6
 70
     1
 10
0.0
 20
0.0
 30
0.0
  3
*D6
  1

  0
SOLID
  5
2D0
330
2CD
100
AcDbEntity
  8
VERMASSUNG
100
AcDbTrace
 10
116.8566033312
 20
107.4367280607
 30
0.0
 11
119.8566033312
 21
106.9867280607
 31
0.0
 12
119.8566033312
 22
107.8867280607
 32
0.0
 13
119.8566033312
 23
107.8867280607
 33
0.0
  0
SOLID
  5
2D1
330
2CD
100
AcDbEntity
  8
VERMASSUNG
100
AcDbTrace
 10
206.8566033312
 20
107.4367280607
 30
0.0
 11
203.8566033312
 21
107.8867280607
 31
0.0
 12
203.8566033312
 22
106.9867280607
 32
0.0
 13
203.8566033312
 23
106.9867280607
 33
0.0
  0
LINE
  5
2D2
330
2CD
100
AcDbEntity
  8
VERMASSUNG
100
AcDbLine
 10
116.8566033312
 20
101.6301280185
 30
0.0
 11
116.8566033312
 21
108.4367280607
 31
0.0
  0
LINE
  5
2D3
330
2CD
100
AcDbEntity
  8
VERMASSUNG
100
AcDbLine
 10
206.8566033312
 20
100.4301280185
 30
0.0
 11
206.8566033312
 21
108.4367280607
 31
0.0
  0
LINE
  5
2D4
330
2CD
100
AcDbEntity
  8
VERMASSUNG
100
AcDbLine
 10
116.8566033312
 20
107.4367280607
 30
0.0
 11
206.8566033312
 21
107.4367280607
 31
0.0
  0
MTEXT
  5
2D5
330
2CD
100
AcDbEntity
  8
VERMASSUNG
100
AcDbMText
 10
160.4572252163
 20
110.0148634238
 30
0.0
 40
2.0
 41
0.0
 71
     1
 72
     1
  1
90
  7
SLDTEXTSTYLE0
 73
     1
 44
1.0
  0
ENDBLK
  5
2CF
330
2CD
100
AcDbEntity
  8
0
100
AcDbBlockEnd
  0
BLOCK
  5
2D8
330
2D7
100
AcDbEntity
  8
0
100
AcDbBlockBegin
  2
*D7
 70
     1
 10
0.0
 20
0.0
 30
0.0
  3
*D7
  1

  0
SOLID
  5
2DA
330
2D7
100
AcDbEntity
  8
VERMASSUNG
100
AcDbTrace
 10
84.9566033312
 20
113.4367280607
 30
0.0
 11
87.9566033312
 21
112.9867280607
 31
0.0
 12
87.9566033312
 22
113.8867280607
 32
0.0
 13
87.9566033312
 23
113.8867280607
 33
0.0
  0
SOLID
  5
2DB
330
2D7
100
AcDbEntity
  8
VERMASSUNG
100
AcDbTrace
 10
206.8566033312
 20
113.4367280607
 30
0.0
 11
203.8566033312
 21
113.8867280607
 31
0.0
 12
203.8566033312
 22
112.9867280607
 32
0.0
 13
203.8566033312
 23
112.9867280607
 33
0.0
  0
LINE
  5
2DC
330
2D7
100
AcDbEntity
  8
VERMASSUNG
100
AcDbLine
 10
84.9566033312
 20
90.4061885231
 30
0.0
 11
84.9566033312
 21
114.4367280607
 31
0.0
  0
LINE
  5
2DD
330
2D7
100
AcDbEntity
  8
VERMASSUNG
100
AcDbLine
 10
206.8566033312
 20
100.4301280185
 30
0.0
 11
206.8566033312
 21
114.4367280607
 31
0.0
  0
LINE
  5
2DE
330
2D7
100
AcDbEntity
  8
VERMASSUNG
100
AcDbLine
 10
84.9566033312
 20
113.4367280607
 30
0.0
 11
206.8566033312
 21
113.4367280607
 31
0.0
  0
MTEXT
  5
2DF
330
2D7
100
AcDbEntity
  8
VERMASSUNG
100
AcDbMText
 10
143.2076369173
 20
116.0148634238
 30
0.0
 40
2.0
 41
0.0
 71
     1
 72
     1
  1
121.9
  7
SLDTEXTSTYLE0
 73
     1
 44
1.0
  0
ENDBLK
  5
2D9
330
2D7
100
AcDbEntity
  8
0
100
AcDbBlockEnd
  0
BLOCK
  5
2E2
330
2E1
100
AcDbEntity
  8
0
100
AcDbBlockBegin
  2
*D8
 70
     1
 10
0.0
 20
0.0
 30
0.0
  3
*D8
  1

  0
SOLID
  5
2E4
330
2E1
100
AcDbEntity
  8
VERMASSUNG
100
AcDbTrace
 10
75.0939452522
 20
101.9301280185
 30
0.0
 11
74.6439452522
 21
98.9301280185
 31
0.0
 12
75.5439452522
 22
98.9301280185
 32
0.0
 13
75.5439452522
 23
98.9301280185
 33
0.0
  0
SOLID
  5
2E5
330
2E1
100
AcDbEntity
  8
VERMASSUNG
100
AcDbTrace
 10
75.0939452522
 20
38.9301280185
 30
0.0
 11
75.5439452522
 21
41.9301280185
 31
0.0
 12
74.6439452522
 22
41.9301280185
 32
0.0
 13
74.6439452522
 23
41.9301280185
 33
0.0
  0
LINE
  5
2E6
330
2E1
100
AcDbEntity
  8
VERMASSUNG
100
AcDbLine
 10
117.1566033312
 20
101.9301280185
 30
0.0
 11
74.0939452522
 21
101.9301280185
 31
0.0
  0
LINE
  5
2E7
330
2E1
100
AcDbEntity
  8
VERMASSUNG
100
AcDbLine
 10
117.1566033312
 20
38.9301280185
 30
0.0
 11
74.0939452522
 21
38.9301280185
 31
0.0
  0
LINE
  5
2E8
330
2E1
100
AcDbEntity
  8
VERMASSUNG
100
AcDbLine
 10
75.0939452522
 20
101.9301280185
 30
0.0
 11
75.0939452522
 21
38.9301280185
 31
0.0
  0
MTEXT
  5
2E9
330
2E1
100
AcDbEntity
  8
VERMASSUNG
100
AcDbMText
 10
72.3158097632
 20
62.8263761225
 30
0.0
 40
2.0
 41
0.0
 71
     1
 72
     1
  1
HSK T 
  7
SLDTEXTSTYLE0
 11
-7.044195017643634E-15
 21
1.0
 31
0.0
 73
     1
 44
1.0
  0
MTEXT
  5
2EA
330
2E1
100
AcDbEntity
  8
VERMASSUNG
100
AcDbMText
 10
72.5158097727
 20
71.6263760748
 30
0.0
 40
2.0
 41
0.0
 71
     1
 72
     1
  1
%%c
  7
SLDTEXTSTYLE0
 11
-7.044195017643634E-15
 21
1.0
 31
0.0
 73
     1
 44
1.0
  0
MTEXT
  5
2EB
330
2E1
100
AcDbEntity
  8
VERMASSUNG
100
AcDbMText
 10
72.5158098891
 20
75.2351236848
 30
0.0
 40
2.0
 41
0.0
 71
     1
 72
     1
  1
63
  7
SLDTEXTSTYLE0
 11
-7.044195017643634E-15
 21
1.0
 31
0.0
 73
     1
 44
1.0
  0
ENDBLK
  5
2E3
330
2E1
100
AcDbEntity
  8
0
100
AcDbBlockEnd
  0
ENDSEC
  0
SECTION
  2
ENTITIES
  0
MTEXT
  5
45
330
1F
100
AcDbEntity
  8
KOPF_DÜNN
100
AcDbMText
 10
13.8892156294
 20
23.8442973028
 30
0.0
 40
3.0
 41
0.0
 71
     1
 72
     1
  1
HA6.V20.N11.090
  7
SLDTEXTSTYLE0
 73
     1
 44
1.0
  0
MTEXT
  5
46
330
1F
100
AcDbEntity
  8
VERMASSUNG
100
AcDbMText
 10
13.9329988022
 20
28.8834360957
 30
0.0
 40
3.0
 41
0.0
 71
     1
 72
     1
  1
Werkzeughalter radial_Tool holder radial
  7
SLDTEXTSTYLE0
 73
     1
 44
1.0
  0
MTEXT
  5
47
330
1F
100
AcDbEntity
  8
VERMASSUNG
100
AcDbMText
 10
98.8601118557
 20
13.8365368179
 30
0.0
 40
2.0
 41
0.0
 71
     1
 72
     1
  1
Datum: 22.03.2010
  7
SLDTEXTSTYLE0
 73
     1
 44
1.0
  0
MTEXT
  5
48
330
1F
100
AcDbEntity
  8
VERMASSUNG
100
AcDbMText
 10
13.933048693
 20
18.0482802738
 30
0.0
 40
2.0
 41
0.0
 71
     1
 72
     1
  1
DIN 69893 HAK 63 A ICTM / 20x20
  7
SLDTEXTSTYLE0
 73
     1
 44
1.0
  0
MTEXT
  5
49
330
1F
100
AcDbEntity
  8
VERMASSUNG
100
AcDbMText
 10
13.9808475933
 20
13.9090973692
 30
0.0
 40
2.0
 41
0.0
 71
     1
 72
     1
  1
Gewicht: 2024g
  7
SLDTEXTSTYLE0
 73
     1
 44
1.0
  0
LINE
  5
4A
330
1F
100
AcDbEntity
  8
0
  6
Continuous
 62
     7
370
    15
100
AcDbLine
 10
192.3565998741
 20
167.7475144706
 30
0.0
 11
193.3566019007
 21
166.7475144231
 31
0.0
  0
LINE
  5
4B
330
1F
100
AcDbEntity
  8
0
  6
Continuous
 62
     7
370
    15
100
AcDbLine
 10
200.3566011854
 20
166.7475144231
 30
0.0
 11
201.356603212
 21
167.7475144706
 31
0.0
  0
LINE
  5
4C
330
1F
100
AcDbEntity
  8
0
  6
Continuous
 62
     7
370
    15
100
AcDbLine
 10
128.7927389213
 20
135.2475139165
 30
0.0
 11
131.4646707915
 21
135.2475139165
 31
0.0
  0
LINE
  5
4D
330
1F
100
AcDbEntity
  8
0
  6
Continuous
 62
     7
370
    15
100
AcDbLine
 10
117.1566033454
 20
135.2475139165
 30
0.0
 11
118.8566034262
 21
135.2475139165
 31
0.0
  0
LINE
  5
4E
330
1F
100
AcDbEntity
  8
0
  6
Continuous
 62
     7
370
    15
100
AcDbLine
 10
131.4646707915
 20
198.2475149298
 30
0.0
 11
117.1566033454
 21
198.2475149298
 31
0.0
  0
ARC
  5
4F
330
1F
100
AcDbEntity
  8
0
  6
Continuous
 62
     7
370
    15
100
AcDbCircle
 10
117.1566033312
 20
135.5475144231
 30
0.0
 40
0.2999999999999972
100
AcDbArc
 50
180.0
 51
270.0
  0
ARC
  5
50
330
1F
100
AcDbEntity
  8
0
  6
Continuous
 62
     7
370
    15
100
AcDbCircle
 10
117.1566033312
 20
197.9475144231
 30
0.0
 40
0.2999999999999972
100
AcDbArc
 50
90.0
 51
180.0
  0
ARC
  5
51
330
1F
100
AcDbEntity
  8
0
  6
Continuous
 62
     7
370
    15
100
AcDbCircle
 10
142.2066033312
 20
197.6475144231
 30
0.0
 40
0.6000000000000227
100
AcDbArc
 50
0.0
 51
90.0
  0
ARC
  5
52
330
1F
100
AcDbEntity
  8
0
  6
Continuous
 62
     7
370
    15
100
AcDbCircle
 10
142.2066033312
 20
135.8475144231
 30
0.0
 40
0.6000000000000227
100
AcDbArc
 50
270.0
 51
0.0
  0
LINE
  5
53
330
1F
100
AcDbEntity
  8
0
  6
Continuous
 62
     7
370
    15
100
AcDbLine
 10
142.2066040405
 20
198.2475149298
 30
0.0
 11
138.2485352524
 21
198.2475149298
 31
0.0
  0
LINE
  5
54
330
1F
100
AcDbEntity
  8
0
  6
Continuous
 62
     7
370
    15
100
AcDbLine
 10
138.2485352524
 20
135.2475139165
 30
0.0
 11
142.2066040405
 21
135.2475139165
 31
0.0
  0
LINE
  5
55
330
1F
100
AcDbEntity
  8
0
  6
Continuous
 62
     7
370
    15
100
AcDbLine
 10
138.2485352524
 20
198.2475149298
 30
0.0
 11
136.7666035958
 21
195.6807321721
 31
0.0
  0
LINE
  5
56
330
1F
100
AcDbEntity
  8
0
  6
Continuous
 62
     7
370
    15
100
AcDbLine
 10
136.7666035958
 20
137.8142966741
 30
0.0
 11
138.2485352524
 21
135.2475139165
 31
0.0
  0
LINE
  5
57
330
1F
100
AcDbEntity
  8
0
  6
Continuous
 62
     7
370
    15
100
AcDbLine
 10
132.9466033795
 20
195.6807321721
 30
0.0
 11
131.4646707915
 21
198.2475149298
 31
0.0
  0
LINE
  5
58
330
1F
100
AcDbEntity
  8
0
  6
Continuous
 62
     7
370
    15
100
AcDbLine
 10
131.4646707915
 20
135.2475139165
 30
0.0
 11
132.9466033795
 21
137.8142966741
 31
0.0
  0
LINE
  5
59
330
1F
100
AcDbEntity
  8
0
  6
Continuous
 62
     7
370
    15
100
AcDbLine
 10
159.055201716
 20
140.0063338542
 30
0.0
 11
161.2681470879
 21
131.7475142741
 31
0.0
  0
ARC
  5
5A
330
1F
100
AcDbEntity
  8
0
  6
Continuous
 62
     7
370
    15
100
AcDbCircle
 10
135.9666033312
 20
138.4725144231
 30
0.0
 40
0.8000000000000114
100
AcDbArc
 50
0.0
 51
90.0
  0
ARC
  5
5B
330
1F
100
AcDbEntity
  8
0
  6
Continuous
 62
     7
370
    15
100
AcDbCircle
 10
133.7466033312
 20
195.0225144231
 30
0.0
 40
0.8000000000000398
100
AcDbArc
 50
180.0
 51
270.0
  0
ARC
  5
5C
330
1F
100
AcDbEntity
  8
0
  6
Continuous
 62
     7
370
    15
100
AcDbCircle
 10
135.9666033312
 20
195.0225144231
 30
0.0
 40
0.8000000000000398
100
AcDbArc
 50
270.0
 51
0.0
  0
ARC
  5
5D
330
1F
100
AcDbEntity
  8
0
  6
Continuous
 62
     7
370
    15
100
AcDbCircle
 10
133.7466033312
 20
138.4725144231
 30
0.0
 40
0.8000000000000114
100
AcDbArc
 50
90.0
 51
180.0
  0
ARC
  5
5E
330
1F
100
AcDbEntity
  8
0
  6
Continuous
 62
     7
370
    15
100
AcDbCircle
 10
158.0892763432
 20
139.7475144231
 30
0.0
 40
1.000000000000003
100
AcDbArc
 50
15.0
 51
90.0
  0
ARC
  5
5F
330
1F
100
AcDbEntity
  8
0
  6
Continuous
 62
     7
370
    15
100
AcDbCircle
 10
143.8066033312
 20
139.7475144231
 30
0.0
 40
1.0
100
AcDbArc
 50
90.0
 51
180.0
  0
ARC
  5
60
330
1F
100
AcDbEntity
  8
0
  6
Continuous
 62
     7
370
    15
100
AcDbCircle
 10
143.8066033312
 20
193.7475144231
 30
0.0
 40
1.0
100
AcDbArc
 50
180.0
 51
270.0
  0
LINE
  5
61
330
1F
100
AcDbEntity
  8
0
  6
Continuous
 62
     7
370
    15
100
AcDbLine
 10
133.7466038831
 20
139.2725149953
 30
0.0
 11
135.9666030922
 21
139.2725149953
 31
0.0
  0
LINE
  5
62
330
1F
100
AcDbEntity
  8
0
  6
Continuous
 62
     7
370
    15
100
AcDbLine
 10
135.9666030922
 20
194.2225138509
 30
0.0
 11
133.7466038831
 21
194.2225138509
 31
0.0
  0
LINE
  5
63
330
1F
100
AcDbEntity
  8
0
  6
Continuous
 62
     7
370
    15
100
AcDbLine
 10
143.8066031852
 20
140.7475138867
 30
0.0
 11
158.0892749198
 21
140.7475138867
 31
0.0
  0
LINE
  5
64
330
1F
100
AcDbEntity
  8
0
  6
Continuous
 62
     7
370
    15
100
AcDbLine
 10
158.0892749198
 20
192.7475149596
 30
0.0
 11
143.8066031852
 21
192.7475149596
 31
0.0
  0
ARC
  5
65
330
1F
100
AcDbEntity
  8
0
  6
Continuous
 62
     7
370
    15
100
AcDbCircle
 10
116.3566033312
 20
142.1770835614
 30
0.0
 40
0.6000000000000227
100
AcDbArc
 50
33.5573097619
 51
90.0
  0
ARC
  5
66
330
1F
100
AcDbEntity
  8
0
  6
Continuous
 62
     7
370
    15
100
AcDbCircle
 10
116.3566033312
 20
191.3179452848
 30
0.0
 40
0.599999999999998
100
AcDbArc
 50
270.0
 51
326.4426902381
  0
LINE
  5
67
330
1F
100
AcDbEntity
  8
0
  6
Continuous
 62
     7
370
    15
100
AcDbLine
 10
114.8566032362
 20
190.9679456466
 30
0.0
 11
86.0965590992
 21
189.5270611012
 31
0.0
  0
LINE
  5
68
330
1F
100
AcDbEntity
  8
0
  6
Continuous
 62
     7
370
    15
100
AcDbLine
 10
86.0965590992
 20
143.9679677451
 30
0.0
 11
114.8566032362
 21
142.5270831996
 31
0.0
  0
LINE
  5
69
330
1F
100
AcDbEntity
  8
0
  6
Continuous
 62
     7
370
    15
100
AcDbLine
 10
114.8566032362
 20
142.5270831996
 30
0.0
 11
115.7133161624
 21
142.7566393131
 31
0.0
  0
LINE
  5
6A
330
1F
100
AcDbEntity
  8
0
  6
Continuous
 62
     7
370
    15
100
AcDbLine
 10
115.7133161624
 20
190.7383895332
 30
0.0
 11
114.8566032362
 21
190.9679456466
 31
0.0
  0
ARC
  5
6B
330
1F
100
AcDbEntity
  8
0
  6
Continuous
 62
     7
370
    15
100
AcDbCircle
 10
115.8686075316
 20
142.1770835614
 30
0.0
 40
0.6000000000000282
100
AcDbArc
 50
90.0
 51
105.0
  0
ARC
  5
6C
330
1F
100
AcDbEntity
  8
0
  6
Continuous
 62
     7
370
    15
100
AcDbCircle
 10
115.8686075316
 20
191.3179452848
 30
0.0
 40
0.6000000000000008
100
AcDbArc
 50
255.0
 51
270.0
  0
LINE
  5
6D
330
1F
100
AcDbEntity
  8
0
  6
Continuous
 62
     7
370
    15
100
AcDbLine
 10
115.868607566
 20
142.7770837063
 30
0.0
 11
116.3566033074
 21
142.7770837063
 31
0.0
  0
LINE
  5
6E
330
1F
100
AcDbEntity
  8
0
  6
Continuous
 62
     7
370
    15
100
AcDbLine
 10
116.3566033074
 20
190.71794514
 30
0.0
 11
115.868607566
 21
190.71794514
 31
0.0
  0
ARC
  5
6F
330
1F
100
AcDbEntity
  8
0
  6
Continuous
 62
     7
370
    15
100
AcDbCircle
 10
86.1566033312
 20
145.1664643871
 30
0.0
 40
1.20000000000002
100
AcDbArc
 50
180.0
 51
267.1318680593
  0
ARC
  5
70
330
1F
100
AcDbEntity
  8
0
  6
Continuous
 62
     7
370
    15
100
AcDbCircle
 10
86.1566033312
 20
188.3285644591
 30
0.0
 40
1.20000000000002
100
AcDbArc
 50
92.8681319407
 51
180.0
  0
LINE
  5
71
330
1F
100
AcDbEntity
  8
0
  6
Continuous
 62
     7
370
    15
100
AcDbLine
 10
200.3391072222
 20
166.7475144231
 30
0.0
 11
200.3566011854
 21
166.7475144231
 31
0.0
  0
LINE
  5
72
330
1F
100
AcDbEntity
  8
0
  6
Continuous
 62
     7
370
    15
100
AcDbLine
 10
193.3566019007
 20
166.7475144231
 30
0.0
 11
200.3391072222
 21
166.7475144231
 31
0.0
  0
CIRCLE
  5
73
330
1F
100
AcDbEntity
  8
0
  6
Continuous
 62
     7
370
    15
100
AcDbCircle
 10
181.9568953207
 20
177.9153317401
 30
0.0
 40
3.248311139569199
  0
CIRCLE
  5
74
330
1F
100
AcDbEntity
  8
0
  6
Continuous
 62
     7
370
    15
100
AcDbCircle
 10
181.9571946021
 20
177.9144814417
 30
0.0
 40
2.498893727955751
  0
CIRCLE
  5
75
330
1F
100
AcDbEntity
  8
0
  6
Continuous
 62
     7
370
    15
100
AcDbCircle
 10
181.9466432436
 20
177.8967093948
 30
0.0
 40
2.099082516138771
  0
ARC
  5
76
330
1F
100
AcDbEntity
  8
0
  6
Continuous
 62
     7
370
    15
100
AcDbCircle
 10
181.7977967355
 20
177.6519595771
 30
0.0
 40
2.100143476725415
100
AcDbArc
 50
332.3030277721
 51
144.4773978914
  0
CIRCLE
  5
77
330
1F
100
AcDbEntity
  8
0
  6
Continuous
 62
     7
370
    15
100
AcDbCircle
 10
181.8566033312
 20
177.7475144231
 30
0.0
 40
4.582575694955835
  0
CIRCLE
  5
78
330
1F
100
AcDbEntity
  8
0
  6
Continuous
 62
     7
370
    15
100
AcDbCircle
 10
181.8566033312
 20
177.7475144231
 30
0.0
 40
6.0
  0
LINE
  5
79
330
1F
100
AcDbEntity
  8
0
  6
Continuous
 62
     7
370
    15
100
AcDbLine
 10
131.4646707915
 20
175.7475140357
 30
0.0
 11
131.4646707915
 21
198.2475149298
 31
0.0
  0
LINE
  5
7A
330
1F
100
AcDbEntity
  8
0
  6
Continuous
 62
     7
370
    15
100
AcDbLine
 10
131.4646707915
 20
175.7475140357
 30
0.0
 11
129.8066036843
 21
175.7475140357
 31
0.0
  0
LINE
  5
7B
330
1F
100
AcDbEntity
  8
0
  6
Continuous
 62
     7
370
    15
100
AcDbLine
 10
129.8066036843
 20
157.7475148106
 30
0.0
 11
131.4646707915
 21
157.7475148106
 31
0.0
  0
LINE
  5
7C
330
1F
100
AcDbEntity
  8
0
  6
Continuous
 62
     7
370
    15
100
AcDbLine
 10
131.4646707915
 20
135.2475139165
 30
0.0
 11
131.4646707915
 21
157.7475148106
 31
0.0
  0
SPLINE
  5
7D
330
1F
100
AcDbEntity
  8
0
  6
Continuous
 62
     7
370
    15
100
AcDbSpline
210
0.0
220
0.0
230
1.0
 70
     8
 71
     3
 72
    17
 73
    13
 74
     0
 42
0.00000001
 43
0.00000001
 40
0.0
 40
0.0
 40
0.0
 40
0.0
 40
0.1064584947925926
 40
0.2128853820649122
 40
0.3201358678267675
 40
0.4279706072970569
 40
0.5348959099635372
 40
0.640833893296311
 40
0.7472465223320981
 40
0.8548490544915606
 40
0.9625155229041981
 40
1.0
 40
1.0
 40
1.0
 40
1.0
 10
118.8566034261794
 20
135.2475139164847
 30
0.0
 10
118.9111792024548
 20
135.256415858066
 30
0.0
 10
119.0203145514612
 20
135.274217098243
 30
0.0
 10
119.8702093118859
 20
135.3983486961232
 30
0.0
 10
121.1273331708406
 20
135.5382728466805
 30
0.0
 10
122.7076896656172
 20
135.6407920556518
 30
0.0
 10
124.4116106689194
 20
135.6572499318181
 30
0.0
 10
126.0416613643516
 20
135.5828251703763
 30
0.0
 10
127.4395345171331
 20
135.4485654400143
 30
0.0
 10
128.4078393494072
 20
135.3186448853598
 30
0.0
 10
128.8768421600934
 20
135.2443453446431
 30
0.0
 10
128.8100004463514
 20
135.2548515712948
 30
0.0
 10
128.7927389212609
 20
135.2575647497099
 30
0.0
  0
LINE
  5
7E
330
1F
100
AcDbEntity
  8
0
  6
Continuous
 62
     7
370
    15
100
AcDbLine
 10
121.8066033044
 20
167.7475144706
 30
0.0
 11
121.8066033044
 21
165.7475143756
 31
0.0
  0
SPLINE
  5
7F
330
1F
100
AcDbEntity
  8
0
  6
Continuous
 62
     7
370
    15
100
AcDbSpline
210
0.0
220
0.0
230
1.0
 70
     8
 71
     3
 72
    28
 73
    24
 74
     0
 42
0.00000001
 43
0.00000001
 40
0.0
 40
0.0
 40
0.0
 40
0.0
 40
0.1249999999999998
 40
0.1249999999999998
 40
0.1874999999999998
 40
0.1874999999999998
 40
0.2499999999999998
 40
0.2499999999999998
 40
0.3749999999999997
 40
0.3749999999999997
 40
0.4374999999999998
 40
0.4374999999999998
 40
0.4999999999999998
 40
0.4999999999999998
 40
0.6250000000000001
 40
0.6250000000000001
 40
0.7500000000000003
 40
0.7500000000000003
 40
0.8125000000000003
 40
0.8125000000000003
 40
0.8750000000000002
 40
0.8750000000000002
 40
1.0
 40
1.0
 40
1.0
 40
1.0
 10
121.8066033311845
 20
165.7475144231242
 30
0.0
 10
121.8066033311845
 20
165.2161321876362
 30
0.0
 10
121.8590166464011
 20
164.6940418483417
 30
0.0
 10
122.0127689787772
 20
163.9241574279837
 30
0.0
 10
122.0766370534968
 20
163.6697531848021
 30
0.0
 10
122.230161917172
 20
163.1654598308083
 30
0.0
 10
122.3197803228121
 20
162.9162711555605
 30
0.0
 10
122.6212734336123
 20
162.1915528009568
 30
0.0
 10
122.8669995091523
 20
161.7332152244207
 30
0.0
 10
123.302552058973
 20
161.0821642900352
 30
0.0
 10
123.4598997863481
 20
160.870250705722
 30
0.0
 10
123.7918704024948
 20
160.4662896549798
 30
0.0
 10
123.9666588603498
 20
160.2737280849287
 30
0.0
 10
124.5169626020975
 20
159.7234913362016
 30
0.0
 10
124.9181396318949
 20
159.3929783437191
 30
0.0
 10
125.793118702988
 20
158.8071147759163
 30
0.0
 10
126.2536397177678
 20
158.560850405757
 30
0.0
 10
126.9755687022393
 20
158.2606482253142
 30
0.0
 10
127.221594538047
 20
158.1720992315311
 30
0.0
 10
127.7247834915058
 20
158.0186586254827
 30
0.0
 10
127.9833039812037
 20
157.9535975375464
 30
0.0
 10
128.7592555681643
 20
157.7988474645055
 30
0.0
 10
129.2808125471132
 20
157.7475144231242
 30
0.0
 10
129.8066033311844
 20
157.7475144231242
 30
0.0
  0
SPLINE
  5
80
330
1F
100
AcDbEntity
  8
0
  6
Continuous
 62
     7
370
    15
100
AcDbSpline
210
0.0
220
0.0
230
1.0
 70
     8
 71
     3
 72
    28
 73
    24
 74
     0
 42
0.00000001
 43
0.00000001
 40
0.0
 40
0.0
 40
0.0
 40
0.0
 40
0.125
 40
0.125
 40
0.2499999999999999
 40
0.2499999999999999
 40
0.3749999999999999
 40
0.3749999999999999
 40
0.4374999999999999
 40
0.4374999999999999
 40
0.4999999999999999
 40
0.4999999999999999
 40
0.5624999999999999
 40
0.5624999999999999
 40
0.6249999999999999
 40
0.6249999999999999
 40
0.7499999999999998
 40
0.7499999999999998
 40
0.8124999999999998
 40
0.8124999999999998
 40
0.8749999999999998
 40
0.8749999999999998
 40
1.0
 40
1.0
 40
1.0
 40
1.0
 10
129.8066033311844
 20
175.7475144231242
 30
0.0
 10
129.276537170487
 20
175.7475144231242
 30
0.0
 10
128.7543767843755
 20
175.6953516265941
 30
0.0
 10
127.7253230032237
 20
175.4898376607005
 30
0.0
 10
127.2140114097975
 20
175.3338396044119
 30
0.0
 10
126.2478170366795
 20
174.9314480765709
 30
0.0
 10
125.7886216700121
 20
174.6851421285316
 30
0.0
 10
125.1353428215203
 20
174.2473635715999
 30
0.0
 10
124.9235663959327
 20
174.0897534223297
 30
0.0
 10
124.5207771063221
 20
173.7581788085839
 30
0.0
 10
124.3285549692124
 20
173.583459861553
 30
0.0
 10
123.9620387210825
 20
173.2163659967881
 30
0.0
 10
123.7877450093953
 20
173.0239910408352
 30
0.0
 10
123.4572269694827
 20
172.6212481881635
 30
0.0
 10
123.3002630657349
 20
172.4097304742026
 30
0.0
 10
122.8633679793507
 20
171.7558022715732
 30
0.0
 10
122.6183154980795
 20
171.2971691635498
 30
0.0
 10
122.3185194927805
 20
170.5753197763938
 30
0.0
 10
122.2299695886211
 20
170.329013582184
 30
0.0
 10
122.0764360910934
 20
169.8245390299597
 30
0.0
 10
122.0119011697185
 20
169.5672677386371
 30
0.0
 10
121.8581323145671
 20
168.7950563836788
 30
0.0
 10
121.8066033311844
 20
168.2743068442737
 30
0.0
 10
121.8066033311844
 20
167.7475144231242
 30
0.0
  0
LINE
  5
81
330
1F
100
AcDbEntity
  8
0
  6
Continuous
 62
     7
370
    15
100
AcDbLine
 10
116.8566033312
 20
166.7475144231
 30
0.0
 11
116.8566033312
 21
197.9475135767
 31
0.0
  0
LINE
  5
82
330
1F
100
AcDbEntity
  8
0
  6
Continuous
 62
     7
370
    15
100
AcDbLine
 10
116.8566033312
 20
135.5475152695
 30
0.0
 11
116.8566033312
 21
166.7475144231
 31
0.0
  0
LINE
  5
83
330
1F
100
AcDbEntity
  8
0
  6
Continuous
 62
     7
370
    15
100
AcDbLine
 10
142.8066030212
 20
175.7475140357
 30
0.0
 11
142.8066030212
 21
197.6475140864
 31
0.0
  0
SPLINE
  5
84
330
1F
100
AcDbEntity
  8
0
  6
Continuous
 62
     7
370
    15
100
AcDbSpline
210
0.0
220
0.0
230
1.0
 70
    24
 71
     3
 72
    10
 73
     6
 74
     0
 42
0.00000001
 43
0.00000001
 40
0.0
 40
0.0
 40
0.0
 40
0.0
 40
0.5
 40
0.5
 40
1.0
 40
1.0
 40
1.0
 40
1.0
 10
142.8066033311845
 20
175.7475144231242
 30
0.0
 10
142.8066033311845
 20
175.7475144231242
 30
0.0
 10
142.7452936799486
 20
175.7475144231242
 30
0.0
 10
142.5261940424136
 20
175.7475144231242
 30
0.0
 10
142.3681458361001
 20
175.7475144231242
 30
0.0
 10
142.2066033311845
 20
175.7475144231242
 30
0.0
  0
LINE
  5
85
330
1F
100
AcDbEntity
  8
0
  6
Continuous
 62
     7
370
    15
100
AcDbLine
 10
142.8066030212
 20
135.8475147599
 30
0.0
 11
142.8066030212
 21
157.7475148106
 31
0.0
  0
SPLINE
  5
86
330
1F
100
AcDbEntity
  8
0
  6
Continuous
 62
     7
370
    15
100
AcDbSpline
210
0.0
220
0.0
230
1.0
 70
    24
 71
     3
 72
    12
 73
     8
 74
     0
 42
0.00000001
 43
0.00000001
 40
0.0
 40
0.0
 40
0.0
 40
0.0
 40
0.2499999999999999
 40
0.2499999999999999
 40
0.4999999999999998
 40
0.4999999999999998
 40
1.0
 40
1.0
 40
1.0
 40
1.0
 10
142.2066033311845
 20
157.7475144231242
 30
0.0
 10
142.2864843359316
 20
157.7475144231242
 30
0.0
 10
142.3670784662022
 20
157.7475144231242
 30
0.0
 10
142.5136939120471
 20
157.7475144231242
 30
0.0
 10
142.580195104791
 20
157.7475144231242
 30
0.0
 10
142.7459300059283
 20
157.7475144231242
 30
0.0
 10
142.8066033311845
 20
157.7475144231242
 30
0.0
 10
142.8066033311845
 20
157.7475144231242
 30
0.0
  0
LINE
  5
87
330
1F
100
AcDbEntity
  8
0
  6
Continuous
 62
     7
370
    15
100
AcDbLine
 10
138.2485352524
 20
175.7475140357
 30
0.0
 11
138.2485352524
 21
198.2475149298
 31
0.0
  0
LINE
  5
88
330
1F
100
AcDbEntity
  8
0
  6
Continuous
 62
     7
370
    15
100
AcDbLine
 10
142.2066040405
 20
175.7475140357
 30
0.0
 11
138.2485352524
 21
175.7475140357
 31
0.0
  0
LINE
  5
89
330
1F
100
AcDbEntity
  8
0
  6
Continuous
 62
     7
370
    15
100
AcDbLine
 10
138.2485352524
 20
135.2475139165
 30
0.0
 11
138.2485352524
 21
157.7475148106
 31
0.0
  0
LINE
  5
8A
330
1F
100
AcDbEntity
  8
0
  6
Continuous
 62
     7
370
    15
100
AcDbLine
 10
138.2485352524
 20
157.7475148106
 30
0.0
 11
142.2066040405
 21
157.7475148106
 31
0.0
  0
LINE
  5
8B
330
1F
100
AcDbEntity
  8
0
  6
Continuous
 62
     7
370
    15
100
AcDbLine
 10
136.7666035958
 20
175.7475140357
 30
0.0
 11
136.7666035958
 21
195.6807321721
 31
0.0
  0
SPLINE
  5
8C
330
1F
100
AcDbEntity
  8
0
  6
Continuous
 62
     7
370
    15
100
AcDbSpline
210
0.0
220
0.0
230
1.0
 70
    24
 71
     3
 72
     8
 73
     4
 74
     0
 42
0.00000001
 43
0.00000001
 40
0.0
 40
0.0
 40
0.0
 40
0.0
 40
1.0
 40
1.0
 40
1.0
 40
1.0
 10
138.2485361626735
 20
175.7475144231242
 30
0.0
 10
137.7530565020078
 20
175.7475144231242
 30
0.0
 10
137.2589424539656
 20
175.7475144231242
 30
0.0
 10
136.7666033311845
 20
175.7475144231242
 30
0.0
  0
LINE
  5
8D
330
1F
100
AcDbEntity
  8
0
  6
Continuous
 62
     7
370
    15
100
AcDbLine
 10
136.7666035958
 20
137.8142966741
 30
0.0
 11
136.7666035958
 21
157.7475148106
 31
0.0
  0
SPLINE
  5
8E
330
1F
100
AcDbEntity
  8
0
  6
Continuous
 62
     7
370
    15
100
AcDbSpline
210
0.0
220
0.0
230
1.0
 70
    24
 71
     3
 72
     8
 73
     4
 74
     0
 42
0.00000001
 43
0.00000001
 40
0.0
 40
0.0
 40
0.0
 40
0.0
 40
1.0
 40
1.0
 40
1.0
 40
1.0
 10
136.7666033311845
 20
157.7475144231242
 30
0.0
 10
137.2589424539656
 20
157.7475144231242
 30
0.0
 10
137.7530565020078
 20
157.7475144231242
 30
0.0
 10
138.2485361626735
 20
157.7475144231242
 30
0.0
  0
LINE
  5
8F
330
1F
100
AcDbEntity
  8
0
  6
Continuous
 62
     7
370
    15
100
AcDbLine
 10
132.9466033795
 20
175.7475140357
 30
0.0
 11
132.9466033795
 21
195.6807321721
 31
0.0
  0
SPLINE
  5
90
330
1F
100
AcDbEntity
  8
0
  6
Continuous
 62
     7
370
    15
100
AcDbSpline
210
0.0
220
0.0
230
1.0
 70
    24
 71
     3
 72
     8
 73
     4
 74
     0
 42
0.00000001
 43
0.00000001
 40
0.0
 40
0.0
 40
0.0
 40
0.0
 40
1.0
 40
1.0
 40
1.0
 40
1.0
 10
132.9466033311845
 20
175.7475144231242
 30
0.0
 10
132.4542642084033
 20
175.7475144231242
 30
0.0
 10
131.9601501603612
 20
175.7475144231242
 30
0.0
 10
131.4646704996954
 20
175.7475144231242
 30
0.0
  0
LINE
  5
91
330
1F
100
AcDbEntity
  8
0
  6
Continuous
 62
     7
370
    15
100
AcDbLine
 10
132.9466033795
 20
137.8142966741
 30
0.0
 11
132.9466033795
 21
157.7475148106
 31
0.0
  0
SPLINE
  5
92
330
1F
100
AcDbEntity
  8
0
  6
Continuous
 62
     7
370
    15
100
AcDbSpline
210
0.0
220
0.0
230
1.0
 70
    24
 71
     3
 72
     8
 73
     4
 74
     0
 42
0.00000001
 43
0.00000001
 40
0.0
 40
0.0
 40
0.0
 40
0.0
 40
1.0
 40
1.0
 40
1.0
 40
1.0
 10
131.4646704996954
 20
157.7475144231242
 30
0.0
 10
131.9601501603612
 20
157.7475144231242
 30
0.0
 10
132.4542642084033
 20
157.7475144231242
 30
0.0
 10
132.9466033311845
 20
157.7475144231242
 30
0.0
  0
SPLINE
  5
93
330
1F
100
AcDbEntity
  8
0
  6
Continuous
 62
     7
370
    15
100
AcDbSpline
210
0.0
220
0.0
230
1.0
 70
     8
 71
     3
 72
    14
 73
    10
 74
     0
 42
0.00000001
 43
0.00000001
 40
0.0
 40
0.0
 40
0.0
 40
0.0
 40
0.25
 40
0.25
 40
0.5
 40
0.5
 40
0.75
 40
0.75
 40
1.0
 40
1.0
 40
1.0
 40
1.0
 10
163.3752190131998
 20
140.2900013124782
 30
0.0
 10
163.2406067994491
 20
140.290001312478
 30
0.0
 10
163.1063212473601
 20
140.3338897847884
 30
0.0
 10
162.8796210433641
 20
140.476015801551
 30
0.0
 10
162.7827293209974
 20
140.5741540392212
 30
0.0
 10
162.6254030068789
 20
140.7913271207678
 30
0.0
 10
162.5629644065869
 20
140.9125595198479
 30
0.0
 10
162.4669330816845
 20
141.161566171215
 30
0.0
 10
162.4321245252865
 20
141.2924042960794
 30
0.0
 10
162.40929318691
 20
141.424503685534
 30
0.0
  0
SPLINE
  5
94
330
1F
100
AcDbEntity
  8
0
  6
Continuous
 62
     7
370
    15
100
AcDbSpline
210
0.0
220
0.0
230
1.0
 70
    24
 71
     3
 72
    18
 73
    14
 74
     0
 42
0.00000001
 43
0.00000001
 40
0.0
 40
0.0
 40
0.0
 40
0.0
 40
0.2500000000000024
 40
0.2500000000000024
 40
0.5000000000000049
 40
0.5000000000000049
 40
0.6250000000000037
 40
0.6250000000000037
 40
0.7500000000000024
 40
0.7500000000000024
 40
0.8750000000000012
 40
0.8750000000000012
 40
1.0
 40
1.0
 40
1.0
 40
1.0
 10
162.4092931869098
 20
131.7475144231242
 30
0.0
 10
162.4290282434724
 20
131.7475144231242
 30
0.0
 10
162.4576556265629
 20
131.7475144231242
 30
0.0
 10
162.5389803406759
 20
131.7475144231242
 30
0.0
 10
162.5918513343456
 20
131.7475144231242
 30
0.0
 10
162.6956381475139
 20
131.7475144231242
 30
0.0
 10
162.7344377939567
 20
131.7475144231242
 30
0.0
 10
162.8239413451838
 20
131.7475144231242
 30
0.0
 10
162.8752853643611
 20
131.7475144231242
 30
0.0
 10
162.9923116216038
 20
131.7475144231242
 30
0.0
 10
163.0591921790581
 20
131.7475144231242
 30
0.0
 10
163.2069803752791
 20
131.7475144231242
 30
0.0
 10
163.2908859421685
 20
131.7475144231242
 30
0.0
 10
163.3752190131992
 20
131.7475144231242
 30
0.0
  0
SPLINE
  5
95
330
1F
100
AcDbEntity
  8
0
  6
Continuous
 62
     7
370
    15
100
AcDbSpline
210
0.0
220
0.0
230
1.0
 70
     8
 71
     3
 72
    22
 73
    18
 74
     0
 42
0.00000001
 43
0.00000001
 40
0.0
 40
0.0
 40
0.0
 40
0.0
 40
0.2499999999999999
 40
0.2499999999999999
 40
0.3749999999999999
 40
0.3749999999999999
 40
0.4999999999999999
 40
0.4999999999999999
 40
0.6249999999999999
 40
0.6249999999999999
 40
0.7499999999999998
 40
0.7499999999999998
 40
0.8124999999999998
 40
0.8124999999999998
 40
0.8749999999999998
 40
0.8749999999999998
 40
1.0
 40
1.0
 40
1.0
 40
1.0
 10
162.4092931869101
 20
141.424503685534
 30
0.0
 10
161.684300960468
 20
145.6192218791531
 30
0.0
 10
161.061381032726
 20
149.818638597708
 30
0.0
 10
160.4011465424002
 20
156.1303829563876
 30
0.0
 10
160.2273476906296
 20
158.2364280414579
 30
0.0
 10
159.9914982818122
 20
162.453662135621
 30
0.0
 10
159.92971764667
 20
164.5648635695813
 30
0.0
 10
159.9271246670328
 20
168.7928347703142
 30
0.0
 10
159.9863353788056
 20
170.9096055983977
 30
0.0
 10
160.2191018063561
 20
175.1484107086011
 30
0.0
 10
160.3924062016366
 20
177.2704334221012
 30
0.0
 10
160.7240665188738
 20
180.4567681110403
 30
0.0
 10
160.8466195060849
 20
181.5202365376254
 30
0.0
 10
161.1118779535039
 20
183.6411722264265
 30
0.0
 10
161.2546282478078
 20
184.6993112788187
 30
0.0
 10
161.7090075930163
 20
187.8677164480709
 30
0.0
 10
162.0465971322553
 20
189.972009226715
 30
0.0
 10
162.4092931869101
 20
192.0705251607143
 30
0.0
  0
SPLINE
  5
96
330
1F
100
AcDbEntity
  8
0
  6
Continuous
 62
     7
370
    15
100
AcDbSpline
210
0.0
220
0.0
230
1.0
 70
    24
 71
     3
 72
    10
 73
     6
 74
     0
 42
0.00000001
 43
0.00000001
 40
0.0
 40
0.0
 40
0.0
 40
0.0
 40
0.3280779951851587
 40
0.6640895475727487
 40
1.0
 40
1.0
 40
1.0
 40
1.0
 10
161.2712837823392
 20
131.7475142741125
 30
0.0
 10
161.2972682250485
 20
131.7475142741125
 30
0.0
 10
161.3498654642904
 20
131.7475142741125
 30
0.0
 10
161.7481264371589
 20
131.7475142741125
 30
0.0
 10
162.188926196056
 20
131.7475142741126
 30
0.0
 10
162.4092929132939
 20
131.7475142741125
 30
0.0
  0
SPLINE
  5
97
330
1F
100
AcDbEntity
  8
0
  6
Continuous
 62
     7
370
    15
100
AcDbSpline
210
0.0
220
0.0
230
1.0
 70
    24
 71
     3
 72
    10
 73
     6
 74
     0
 42
0.00000001
 43
0.00000001
 40
0.0
 40
0.0
 40
0.0
 40
0.0
 40
0.5
 40
0.5
 40
1.0
 40
1.0
 40
1.0
 40
1.0
 10
162.4092931869101
 20
192.7475144231242
 30
0.0
 10
161.6416795179085
 20
192.7475144231242
 30
0.0
 10
160.9341899717066
 20
192.7475144231242
 30
0.0
 10
159.7623903955645
 20
192.7475144231242
 30
0.0
 10
159.3005448080978
 20
192.7475144231242
 30
0.0
 10
159.0552021694946
 20
192.7475144231242
 30
0.0
  0
LINE
  5
98
330
1F
100
AcDbEntity
  8
0
  6
Continuous
 62
     7
370
    15
100
AcDbLine
 10
186.8566036292
 20
167.7475144706
 30
0.0
 11
186.8566036292
 21
146.7475148702
 31
0.0
  0
LINE
  5
99
330
1F
100
AcDbEntity
  8
0
  6
Continuous
 62
     7
370
    15
100
AcDbLine
 10
186.8566036292
 20
146.7475148702
 30
0.0
 11
206.8566069075
 21
146.7475148702
 31
0.0
  0
LINE
  5
9A
330
1F
100
AcDbEntity
  8
0
  6
Continuous
 62
     7
370
    15
100
AcDbLine
 10
206.8566069075
 20
146.7475148702
 30
0.0
 11
206.8566069075
 21
140.2900016719
 31
0.0
  0
LINE
  5
9B
330
1F
100
AcDbEntity
  8
0
  6
Continuous
 62
     7
370
    15
100
AcDbLine
 10
206.8566069075
 20
140.2900016719
 30
0.0
 11
163.3752197095
 21
140.2900016719
 31
0.0
  0
SPLINE
  5
9C
330
1F
100
AcDbEntity
  8
0
  6
Continuous
 62
     7
370
    15
100
AcDbSpline
210
0.0
220
0.0
230
1.0
 70
     8
 71
     3
 72
    10
 73
     6
 74
     0
 42
0.00000001
 43
0.00000001
 40
0.0
 40
0.0
 40
0.0
 40
0.0
 40
0.5
 40
0.5
 40
1.0
 40
1.0
 40
1.0
 40
1.0
 10
162.4092931869101
 20
192.0705251607143
 30
0.0
 10
162.4297508230143
 20
192.1888905931078
 30
0.0
 10
162.4595068981913
 20
192.3056546150849
 30
0.0
 10
162.5423566205251
 20
192.5351633789674
 30
0.0
 10
162.5944629959264
 20
192.6451529203901
 30
0.0
 10
162.6599668621668
 20
192.7475144231242
 30
0.0
  0
LINE
  5
9D
330
1F
100
AcDbEntity
  8
0
  6
Continuous
 62
     7
370
    15
100
AcDbLine
 10
206.8566069075
 20
167.7475144706
 30
0.0
 11
186.8566036292
 21
167.7475144706
 31
0.0
  0
CIRCLE
  5
9E
330
1F
100
AcDbEntity
  8
0
  6
Continuous
 62
     7
370
    15
100
AcDbCircle
 10
181.8566033312
 20
177.7475144231
 30
0.0
 40
6.0
  0
LINE
  5
9F
330
1F
100
AcDbEntity
  8
0
  6
Continuous
 62
     7
370
    15
100
AcDbLine
 10
206.8566069075
 20
192.7475149596
 30
0.0
 11
206.8566069075
 21
167.7475144706
 31
0.0
  0
LINE
  5
A0
330
1F
100
AcDbEntity
  8
0
  6
Continuous
 62
     7
370
    15
100
AcDbLine
 10
162.6599676975
 20
192.7475149596
 30
0.0
 11
206.8566069075
 21
192.7475149596
 31
0.0
  0
SPLINE
  5
A1
330
1F
100
AcDbEntity
  8
0
  6
Continuous
 62
     7
370
    15
100
AcDbSpline
210
0.0
220
0.0
230
1.0
 70
    24
 71
     3
 72
    10
 73
     6
 74
     0
 42
0.00000001
 43
0.00000001
 40
0.0
 40
0.0
 40
0.0
 40
0.0
 40
0.5
 40
0.5
 40
1.0
 40
1.0
 40
1.0
 40
1.0
 10
162.6599668621668
 20
192.7475144231242
 30
0.0
 10
162.5961964963031
 20
192.7475144231242
 30
0.0
 10
162.5441932548313
 20
192.7475144231242
 30
0.0
 10
162.4615386730136
 20
192.7475144231242
 30
0.0
 10
162.4303068453428
 20
192.7475144231242
 30
0.0
 10
162.4092931869101
 20
192.7475144231242
 30
0.0
  0
LINE
  5
A2
330
1F
100
AcDbEntity
  8
0
  6
Continuous
 62
     7
370
    15
100
AcDbLine
 10
206.8566069075
 20
140.2900016719
 30
0.0
 11
206.8566069075
 21
131.7475142741
 31
0.0
  0
LINE
  5
A3
330
1F
100
AcDbEntity
  8
0
  6
Continuous
 62
     7
370
    15
100
AcDbLine
 10
163.3752197095
 20
131.7475142741
 30
0.0
 11
206.8566069075
 21
131.7475142741
 31
0.0
  0
SPLINE
  5
A4
330
1F
100
AcDbEntity
  8
0
  6
Continuous
 62
     7
370
    15
100
AcDbSpline
210
0.0
220
0.0
230
1.0
 70
     8
 71
     3
 72
    14
 73
    10
 74
     0
 42
0.00000001
 43
0.00000001
 40
0.0
 40
0.0
 40
0.0
 40
0.0
 40
0.1249999999999997
 40
0.1249999999999997
 40
0.2499999999999993
 40
0.2499999999999993
 40
0.4999999999999996
 40
0.4999999999999996
 40
1.0
 40
1.0
 40
1.0
 40
1.0
 10
135.9666033311845
 20
159.1372828234946
 30
0.0
 10
136.0356999635284
 20
159.1372828234946
 30
0.0
 10
136.1006931291364
 20
159.1029504478146
 30
0.0
 10
136.2050143277815
 20
159.0136438638117
 30
0.0
 10
136.24779470189
 20
158.958739025665
 30
0.0
 10
136.3601323615362
 20
158.7875075173588
 30
0.0
 10
136.4151795436786
 20
158.6632878149997
 30
0.0
 10
136.5590563174487
 20
158.2798430148953
 30
0.0
 10
136.6220856307237
 20
158.013675708298
 30
0.0
 10
136.6689285288522
 20
157.7475144231242
 30
0.0
  0
SPLINE
  5
A5
330
1F
100
AcDbEntity
  8
0
  6
Continuous
 62
     7
370
    15
100
AcDbSpline
210
0.0
220
0.0
230
1.0
 70
     8
 71
     3
 72
    14
 73
    10
 74
     0
 42
0.00000001
 43
0.00000001
 40
0.0
 40
0.0
 40
0.0
 40
0.0
 40
0.1250000000000007
 40
0.1250000000000007
 40
0.2500000000000014
 40
0.2500000000000014
 40
0.5000000000000002
 40
0.5000000000000002
 40
1.0
 40
1.0
 40
1.0
 40
1.0
 10
133.7466033311845
 20
174.3577460227537
 30
0.0
 10
133.6772566094533
 20
174.3577460227537
 30
0.0
 10
133.6120585560694
 20
174.3923479018157
 30
0.0
 10
133.5076793634424
 20
174.4819452315184
 30
0.0
 10
133.4647769924334
 20
174.5371308063586
 30
0.0
 10
133.3524513348287
 20
174.7087278611201
 30
0.0
 10
133.2972276404748
 20
174.8335463294447
 30
0.0
 10
133.1531702617074
 20
175.2184574248941
 30
0.0
 10
133.0910895648758
 20
175.481531932092
 30
0.0
 10
133.0442781335167
 20
175.7475144231241
 30
0.0
  0
SPLINE
  5
A6
330
1F
100
AcDbEntity
  8
0
  6
Continuous
 62
     7
370
    15
100
AcDbSpline
210
0.0
220
0.0
230
1.0
 70
     8
 71
     3
 72
    14
 73
    10
 74
     0
 42
0.00000001
 43
0.00000001
 40
0.0
 40
0.0
 40
0.0
 40
0.0
 40
0.5000000000000027
 40
0.5000000000000027
 40
0.7500000000000013
 40
0.7500000000000013
 40
0.8750000000000007
 40
0.8750000000000007
 40
1.0
 40
1.0
 40
1.0
 40
1.0
 10
136.6689285288522
 20
175.7475144231242
 30
0.0
 10
136.622143823804
 20
175.4816837909552
 30
0.0
 10
136.5600926270244
 20
175.2189896943962
 30
0.0
 10
136.416700988474
 20
174.8352858490991
 30
0.0
 10
136.3605573349227
 20
174.708175647315
 30
0.0
 10
136.2476063127864
 20
174.5359993933477
 30
0.0
 10
136.2046055507482
 20
174.4809658270384
 30
0.0
 10
136.1005428404418
 20
174.3920193254843
 30
0.0
 10
136.0352106020848
 20
174.3577460227538
 30
0.0
 10
135.9666033311845
 20
174.3577460227538
 30
0.0
  0
SPLINE
  5
A7
330
1F
100
AcDbEntity
  8
0
  6
Continuous
 62
     7
370
    15
100
AcDbSpline
210
0.0
220
0.0
230
1.0
 70
     8
 71
     3
 72
    14
 73
    10
 74
     0
 42
0.00000001
 43
0.00000001
 40
0.0
 40
0.0
 40
0.0
 40
0.0
 40
0.5000000000000022
 40
0.5000000000000022
 40
0.7500000000000029
 40
0.7500000000000029
 40
0.8750000000000014
 40
0.8750000000000014
 40
1.0
 40
1.0
 40
1.0
 40
1.0
 10
133.0442781335167
 20
157.7475144231236
 30
0.0
 10
133.0914846213565
 20
158.0157416245565
 30
0.0
 10
133.1548246247858
 20
158.2817398043616
 30
0.0
 10
133.2978877310416
 20
158.6628663447308
 30
0.0
 10
133.3539683813126
 20
158.7889877239343
 30
0.0
 10
133.465403731222
 20
158.9586674358386
 30
0.0
 10
133.507348521895
 20
159.012794057463
 30
0.0
 10
133.6123449649152
 20
159.1029323590657
 30
0.0
 10
133.6779089019959
 20
159.1372828234943
 30
0.0
 10
133.7466033311843
 20
159.1372828234944
 30
0.0
  0
SPLINE
  5
A8
330
1F
100
AcDbEntity
  8
0
  6
Continuous
 62
     7
370
    15
100
AcDbSpline
210
0.0
220
0.0
230
1.0
 70
    24
 71
     3
 72
    12
 73
     8
 74
     0
 42
0.00000001
 43
0.00000001
 40
0.0
 40
0.0
 40
0.0
 40
0.0
 40
0.4999999999999998
 40
0.4999999999999998
 40
0.7499999999999999
 40
0.7499999999999999
 40
1.0
 40
1.0
 40
1.0
 40
1.0
 10
158.0892763432055
 20
192.7475144231242
 30
0.0
 10
158.2923926824324
 20
192.7475144231242
 30
0.0
 10
158.4960375059134
 20
192.7475144231242
 30
0.0
 10
158.756385266444
 20
192.7475144231242
 30
0.0
 10
158.8355942315995
 20
192.7475144231242
 30
0.0
 10
158.9684384346761
 20
192.7475144231242
 30
0.0
 10
159.0222896830212
 20
192.7475144231242
 30
0.0
 10
159.0552021694946
 20
192.7475144231242
 30
0.0
  0
LINE
  5
A9
330
1F
100
AcDbEntity
  8
0
  6
Continuous
 62
     7
370
    15
100
AcDbLine
 10
133.7466038831
 20
159.1372827852
 30
0.0
 11
135.9666030922
 21
159.1372827852
 31
0.0
  0
LINE
  5
AA
330
1F
100
AcDbEntity
  8
0
  6
Continuous
 62
     7
370
    15
100
AcDbLine
 10
135.9666030922
 20
174.3577460611
 30
0.0
 11
133.7466038831
 21
174.3577460611
 31
0.0
  0
SPLINE
  5
AB
330
1F
100
AcDbEntity
  8
0
  6
Continuous
 62
     7
370
    15
100
AcDbSpline
210
0.0
220
0.0
230
1.0
 70
     8
 71
     3
 72
    20
 73
    16
 74
     0
 42
0.00000001
 43
0.00000001
 40
0.0
 40
0.0
 40
0.0
 40
0.0
 40
0.2500000000000001
 40
0.2500000000000001
 40
0.375
 40
0.375
 40
0.4375000000000001
 40
0.4375000000000001
 40
0.4687500000000001
 40
0.4687500000000001
 40
0.5
 40
0.5
 40
0.75
 40
0.75
 40
1.0
 40
1.0
 40
1.0
 40
1.0
 10
142.8066033311845
 20
161.0871257438902
 30
0.0
 10
142.8066033311845
 20
162.0482097970299
 30
0.0
 10
142.8644327279715
 20
163.0083081189263
 30
0.0
 10
142.9412912066128
 20
164.4486241070921
 30
0.0
 10
142.9655601855626
 20
164.928752456672
 30
0.0
 10
142.9906098046001
 20
165.6491385131327
 30
0.0
 10
142.9970920134644
 20
165.8892990338973
 30
0.0
 10
143.0032982435442
 20
166.2495997655019
 30
0.0
 10
143.0047852659927
 20
166.3697099250965
 30
0.0
 10
143.0065381342016
 20
166.6099510598585
 30
0.0
 10
143.006790169822
 20
166.7306957753071
 30
0.0
 10
143.0038525486745
 20
167.7742764787998
 30
0.0
 10
142.9599744790965
 20
168.7008700743492
 30
0.0
 10
142.8605906806174
 20
170.5535584320547
 30
0.0
 10
142.8066033311845
 20
171.4797458892162
 30
0.0
 10
142.8066033311845
 20
172.4079031023581
 30
0.0
  0
LINE
  5
AC
330
1F
100
AcDbEntity
  8
0
  6
Continuous
 62
     7
370
    15
100
AcDbLine
 10
142.8066030212
 20
172.4079030418
 30
0.0
 11
142.8066030212
 21
175.7475140357
 31
0.0
  0
LINE
  5
AD
330
1F
100
AcDbEntity
  8
0
  6
Continuous
 62
     7
370
    15
100
AcDbLine
 10
142.8066030212
 20
157.7475148106
 30
0.0
 11
142.8066030212
 21
161.0871258044
 31
0.0
  0
SPLINE
  5
AE
330
1F
100
AcDbEntity
  8
0
  6
Continuous
 62
     7
370
    15
100
AcDbSpline
210
0.0
220
0.0
230
1.0
 70
     8
 71
     3
 72
    14
 73
    10
 74
     0
 42
0.00000001
 43
0.00000001
 40
0.0
 40
0.0
 40
0.0
 40
0.0
 40
0.4999999999999989
 40
0.4999999999999989
 40
0.7499999999999994
 40
0.7499999999999994
 40
0.8749999999999997
 40
0.8749999999999997
 40
1.0
 40
1.0
 40
1.0
 40
1.0
 10
86.20619625261969
 20
157.6030799449299
 30
0.0
 10
86.99738375082383
 20
157.5000730510143
 30
0.0
 10
87.78645008853616
 20
157.3873450827278
 30
0.0
 10
88.96190262959426
 20
157.1809696598954
 30
0.0
 10
89.35240054257912
 20
157.106138725621
 30
0.0
 10
89.93349468054221
 20
156.9726105842882
 30
0.0
 10
90.12642012517524
 20
156.9245672965458
 30
0.0
 10
90.5091308148761
 20
156.8141201977582
 30
0.0
 10
90.69938934124914
 20
156.7538803533847
 30
0.0
 10
90.88447695446953
 20
156.6699964103462
 30
0.0
  0
SPLINE
  5
AF
330
1F
100
AcDbEntity
  8
0
  6
Continuous
 62
     7
370
    15
100
AcDbSpline
210
0.0
220
0.0
230
1.0
 70
     8
 71
     3
 72
    10
 73
     6
 74
     0
 42
0.00000001
 43
0.00000001
 40
0.0
 40
0.0
 40
0.0
 40
0.0
 40
0.5
 40
0.5
 40
1.0
 40
1.0
 40
1.0
 40
1.0
 10
90.8844769544694
 20
156.669996410346
 30
0.0
 10
91.33074673219298
 20
156.4677415540484
 30
0.0
 10
91.78808133750442
 20
156.2865285341822
 30
0.0
 10
92.71542383555193
 20
155.9482031177012
 30
0.0
 10
93.18502938248749
 20
155.7916717623169
 30
0.0
 10
93.65660333118417
 20
155.6440572341269
 30
0.0
  0
SPLINE
  5
B0
330
1F
100
AcDbEntity
  8
0
  6
Continuous
 62
     7
370
    15
100
AcDbSpline
210
0.0
220
0.0
230
1.0
 70
     8
 71
     3
 72
    14
 73
    10
 74
     0
 42
0.00000001
 43
0.00000001
 40
0.0
 40
0.0
 40
0.0
 40
0.0
 40
0.1250000000000011
 40
0.1250000000000011
 40
0.2500000000000022
 40
0.2500000000000022
 40
0.5000000000000016
 40
0.5000000000000016
 40
1.0
 40
1.0
 40
1.0
 40
1.0
 10
93.6566033311843
 20
155.6440572341269
 30
0.0
 10
93.71337808640484
 20
155.6262853051894
 30
0.0
 10
93.776061187334
 20
155.6304315971903
 30
0.0
 10
93.88194896187207
 20
155.6741538480896
 30
0.0
 10
93.92585321947327
 20
155.7097739268257
 30
0.0
 10
94.03828646763093
 20
155.8265541099205
 30
0.0
 10
94.09141467149328
 20
155.9195481965583
 30
0.0
 10
94.22640213323349
 20
156.2022013646293
 30
0.0
 10
94.28466284471334
 20
156.4051219268503
 30
0.0
 10
94.33193067833184
 20
156.6106044244407
 30
0.0
  0
SPLINE
  5
B1
330
1F
100
AcDbEntity
  8
0
  6
Continuous
 62
     7
370
    15
100
AcDbSpline
210
0.0
220
0.0
230
1.0
 70
     8
 71
     3
 72
    12
 73
     8
 74
     0
 42
0.00000001
 43
0.00000001
 40
0.0
 40
0.0
 40
0.0
 40
0.0
 40
0.25
 40
0.25
 40
0.5
 40
0.5
 40
1.0
 40
1.0
 40
1.0
 40
1.0
 10
94.33193067831746
 20
156.6106044244441
 30
0.0
 10
94.38077124865255
 20
156.8229239154741
 30
0.0
 10
94.46581816385246
 20
157.0311681626514
 30
0.0
 10
94.63546957241601
 20
157.4478648572428
 30
0.0
 10
94.72193157114228
 20
157.6571181049953
 30
0.0
 10
94.94732477605919
 20
158.2976381515546
 30
0.0
 10
95.05660333118448
 20
158.7411649456562
 30
0.0
 10
95.05660333118448
 20
159.2182253294746
 30
0.0
  0
LINE
  5
B2
330
1F
100
AcDbEntity
  8
0
  6
Continuous
 62
     7
370
    15
100
AcDbLine
 10
95.0566031106
 20
159.2182254271
 30
0.0
 11
95.0566031106
 21
174.2768034191
 31
0.0
  0
SPLINE
  5
B3
330
1F
100
AcDbEntity
  8
0
  6
Continuous
 62
     7
370
    15
100
AcDbSpline
210
0.0
220
0.0
230
1.0
 70
     8
 71
     3
 72
    12
 73
     8
 74
     0
 42
0.00000001
 43
0.00000001
 40
0.0
 40
0.0
 40
0.0
 40
0.0
 40
0.25
 40
0.25
 40
0.5
 40
0.5
 40
1.0
 40
1.0
 40
1.0
 40
1.0
 10
94.33193067831746
 20
176.8844244218042
 30
0.0
 10
94.38077124865255
 20
176.6721049307743
 30
0.0
 10
94.46581816385246
 20
176.4638606835969
 30
0.0
 10
94.63546957241601
 20
176.0471639890056
 30
0.0
 10
94.72193157114228
 20
175.837910741253
 30
0.0
 10
94.94732477605919
 20
175.1973906946938
 30
0.0
 10
95.05660333118448
 20
174.7538639005921
 30
0.0
 10
95.05660333118448
 20
174.2768035167738
 30
0.0
  0
SPLINE
  5
B4
330
1F
100
AcDbEntity
  8
0
  6
Continuous
 62
     7
370
    15
100
AcDbSpline
210
0.0
220
0.0
230
1.0
 70
     8
 71
     3
 72
    14
 73
    10
 74
     0
 42
0.00000001
 43
0.00000001
 40
0.0
 40
0.0
 40
0.0
 40
0.0
 40
0.1250000000000007
 40
0.1250000000000007
 40
0.2500000000000013
 40
0.2500000000000013
 40
0.5000000000000009
 40
0.5000000000000009
 40
1.0
 40
1.0
 40
1.0
 40
1.0
 10
93.65660333118447
 20
177.8509716121215
 30
0.0
 10
93.71337808640502
 20
177.8687435410589
 30
0.0
 10
93.77606118733415
 20
177.864597249058
 30
0.0
 10
93.88194896187218
 20
177.8208749981587
 30
0.0
 10
93.92585321947337
 20
177.7852549194226
 30
0.0
 10
94.038286467631
 20
177.6684747363277
 30
0.0
 10
94.09141467149333
 20
177.57548064969
 30
0.0
 10
94.2264021332335
 20
177.292827481619
 30
0.0
 10
94.28466284471335
 20
177.0899069193981
 30
0.0
 10
94.33193067833184
 20
176.8844244218076
 30
0.0
  0
SPLINE
  5
B5
330
1F
100
AcDbEntity
  8
0
  6
Continuous
 62
     7
370
    15
100
AcDbSpline
210
0.0
220
0.0
230
1.0
 70
     8
 71
     3
 72
    10
 73
     6
 74
     0
 42
0.00000001
 43
0.00000001
 40
0.0
 40
0.0
 40
0.0
 40
0.0
 40
0.5
 40
0.5
 40
1.0
 40
1.0
 40
1.0
 40
1.0
 10
90.8844769544694
 20
176.8250324359023
 30
0.0
 10
91.33074673219302
 20
177.0272872922
 30
0.0
 10
91.78808133750451
 20
177.2085003120662
 30
0.0
 10
92.71542383555212
 20
177.5468257285472
 30
0.0
 10
93.18502938248773
 20
177.7033570839315
 30
0.0
 10
93.65660333118447
 20
177.8509716121215
 30
0.0
  0
SPLINE
  5
B6
330
1F
100
AcDbEntity
  8
0
  6
Continuous
 62
     7
370
    15
100
AcDbSpline
210
0.0
220
0.0
230
1.0
 70
     8
 71
     3
 72
    14
 73
    10
 74
     0
 42
0.00000001
 43
0.00000001
 40
0.0
 40
0.0
 40
0.0
 40
0.0
 40
0.5000000000000002
 40
0.5000000000000002
 40
0.7500000000000002
 40
0.7500000000000002
 40
0.8750000000000001
 40
0.8750000000000001
 40
1.0
 40
1.0
 40
1.0
 40
1.0
 10
86.2061962526201
 20
175.8919489013185
 30
0.0
 10
86.99738375082417
 20
175.9949557952341
 30
0.0
 10
87.78645008853644
 20
176.1076837635206
 30
0.0
 10
88.96190262959443
 20
176.3140591863529
 30
0.0
 10
89.35240054257925
 20
176.3888901206274
 30
0.0
 10
89.9334946805423
 20
176.5224182619601
 30
0.0
 10
90.12642012517531
 20
176.5704615497025
 30
0.0
 10
90.50913081487614
 20
176.6809086484901
 30
0.0
 10
90.69938934124916
 20
176.7411484928636
 30
0.0
 10
90.88447695446953
 20
176.8250324359021
 30
0.0
  0
SPLINE
  5
B7
330
1F
100
AcDbEntity
  8
0
  6
Continuous
 62
     7
370
    15
100
AcDbSpline
210
0.0
220
0.0
230
1.0
 70
     8
 71
     3
 72
     8
 73
     4
 74
     0
 42
0.00000001
 43
0.00000001
 40
0.0000003680674985
 40
0.0000003680674985
 40
0.0000003680674985
 40
0.0000003680674985
 40
0.000194190298469
 40
0.000194190298469
 40
0.000194190298469
 40
0.000194190298469
 10
86.0965584007663
 20
176.0358107653263
 30
0.0
 10
86.13165479922037
 20
175.9870242648037
 30
0.0
 10
86.16830950002468
 20
175.9390887331404
 30
0.0
 10
86.20619625261874
 20
175.8919489013196
 30
0.0
  0
SPLINE
  5
B8
330
1F
100
AcDbEntity
  8
0
  6
Continuous
 62
     7
370
    15
100
AcDbSpline
210
0.0
220
0.0
230
1.0
 70
     8
 71
     3
 72
     8
 73
     4
 74
     0
 42
0.00000001
 43
0.00000001
 40
0.0000003680674985
 40
0.0000003680674985
 40
0.0000003680674985
 40
0.0000003680674985
 40
0.0001941902984706
 40
0.0001941902984706
 40
0.0001941902984706
 40
0.0001941902984706
 10
86.0965584007663
 20
157.459218080922
 30
0.0
 10
86.13165479922067
 20
157.508004581445
 30
0.0
 10
86.16830950002529
 20
157.5559401131088
 30
0.0
 10
86.20619625261969
 20
157.6030799449299
 30
0.0
  0
LINE
  5
B9
330
1F
100
AcDbEntity
  8
0
  6
Continuous
 62
     7
370
    15
100
AcDbLine
 10
114.8566032362
 20
166.7475144231
 30
0.0
 11
114.8566032362
 21
190.9679456466
 31
0.0
  0
LINE
  5
BA
330
1F
100
AcDbEntity
  8
0
  6
Continuous
 62
     7
370
    15
100
AcDbLine
 10
114.8566032362
 20
142.5270831996
 30
0.0
 11
114.8566032362
 21
166.7475144231
 31
0.0
  0
SPLINE
  5
BB
330
1F
100
AcDbEntity
  8
0
  6
Continuous
 62
     7
370
    15
100
AcDbSpline
210
0.0
220
0.0
230
1.0
 70
     8
 71
     3
 72
    39
 73
    35
 74
     0
 42
0.00000001
 43
0.00000001
 40
-0.0933919699426577
 40
-0.0622352926917016
 40
-0.0309992083946916
 40
0.0
 40
0.0311599498646861
 40
0.0627535808924605
 40
0.0944596508311171
 40
0.125851510434028
 40
0.1572194424823788
 40
0.1889385825925368
 40
0.2205172649824829
 40
0.2516655135093528
 40
0.2826460492016979
 40
0.3138732040680685
 40
0.3450058810716981
 40
0.3757357868197831
 40
0.4064216380987866
 40
0.4377515690199542
 40
0.4690451480846503
 40
0.5001673303346339
 40
0.5313228550772731
 40
0.5628787254951483
 40
0.5945515920531655
 40
0.6258696768224031
 40
0.6571952644261635
 40
0.6889349863133587
 40
0.7205339476652071
 40
0.7517180686390385
 40
0.782780019109924
 40
0.8139994945516362
 40
0.8452042880911399
 40
0.8758947171426922
 40
0.9066080300573423
 40
0.9377647073082984
 40
0.9690007916053084
 40
1.0
 40
1.031159949864686
 40
1.06275358089246
 40
1.094459650831117
 10
105.4709914602813
 20
163.1583424245834
 30
0.0
 10
104.8311334088389
 20
163.6975683022135
 30
0.0
 10
104.3071961155285
 20
164.3533516475379
 30
0.0
 10
103.9204234358159
 20
165.1053025348215
 30
0.0
 10
103.6762021921816
 20
165.9177978122249
 30
0.0
 10
103.5970856493632
 20
166.7613428299115
 30
0.0
 10
103.6811670485015
 20
167.6045242509417
 30
0.0
 10
103.9303997300602
 20
168.4152443501565
 30
0.0
 10
104.321768843273
 20
169.1646635393348
 30
0.0
 10
104.8499128020103
 20
169.8165867391876
 30
0.0
 10
105.4931498697294
 20
170.3512086580204
 30
0.0
 10
106.2319028105976
 20
170.7440744898508
 30
0.0
 10
107.0293959549407
 20
170.9915621394896
 30
0.0
 10
107.8559813406295
 20
171.0697746833334
 30
0.0
 10
108.6814993992001
 20
170.9808239289958
 30
0.0
 10
109.473639548556
 20
170.7248257487884
 30
0.0
 10
110.2061624058406
 20
170.3254046098966
 30
0.0
 10
110.8419857005724
 20
169.7882360472364
 30
0.0
 10
111.3632108806428
 20
169.135286876928
 30
0.0
 10
111.7474353260826
 20
168.3858938732342
 30
0.0
 10
111.9899752035498
 20
167.5753457465291
 30
0.0
 10
112.0680415261556
 20
166.7329971375275
 30
0.0
 10
111.983235865772
 20
165.8907580221887
 30
0.0
 10
111.7345454253552
 20
165.0811017017472
 30
0.0
 10
111.3449415014717
 20
164.3332258742938
 30
0.0
 10
110.819379019458
 20
163.6836888738149
 30
0.0
 10
110.1807117344496
 20
163.1514113520255
 30
0.0
 10
109.4474582885958
 20
162.7579902643301
 30
0.0
 10
108.654950527787
 20
162.5085951352215
 30
0.0
 10
107.830070015211
 20
162.4253139297759
 30
0.0
 10
107.0038260142151
 20
162.5082836778914
 30
0.0
 10
106.2077308969199
 20
162.7607668145604
 30
0.0
 10
105.4709914602813
 20
163.1583424245834
 30
0.0
 10
104.8311334088389
 20
163.6975683022135
 30
0.0
 10
104.3071961155285
 20
164.3533516475379
 30
0.0
  0
SPLINE
  5
BC
330
1F
100
AcDbEntity
  8
0
  6
Continuous
 62
     7
370
    15
100
AcDbSpline
210
0.0
220
0.0
230
1.0
 70
     8
 71
     3
 72
    42
 73
    38
 74
     0
 42
0.00000001
 43
0.00000001
 40
-0.0859316076417099
 40
-0.0609210129164024
 40
-0.032276621489006
 40
0.0
 40
0.0284830186126943
 40
0.0552061382827513
 40
0.0801799850298142
 40
0.103417815852785
 40
0.1249363295284943
 40
0.1563046583289859
 40
0.197944235984845
 40
0.2498399451110505
 40
0.2789581882689109
 40
0.3060722233739813
 40
0.3311961508891147
 40
0.3543480223637211
 40
0.3755512451170889
 40
0.4116849508060994
 40
0.4530713443513679
 40
0.4997879465807339
 40
0.5273607821057333
 40
0.5522672815896564
 40
0.5745075514542536
 40
0.5940825939304012
 40
0.6109947617058109
 40
0.6252486355470234
 40
0.6621224546740642
 40
0.70366283702268
 40
0.7499274679880161
 40
0.782426472339801
 40
0.8111789305167617
 40
0.8361828742185502
 40
0.8574379105447573
 40
0.8749461318774902
 40
0.8926915954039033
 40
0.91406839235829
 40
0.9390789870835975
 40
0.9677233785109939
 40
0.9999999999999999
 40
1.028483018612694
 40
1.055206138282751
 40
1.080179985029814
 10
104.7176522228695
 20
164.6539613233483
 30
0.0
 10
105.163280362262
 20
164.1053655974138
 30
0.0
 10
105.6925564795529
 20
163.6618100203326
 30
0.0
 10
106.2409325087394
 20
163.3450226091357
 30
0.0
 10
106.7946008778302
 20
163.1359762575325
 30
0.0
 10
107.3330936214742
 20
163.0216819379521
 30
0.0
 10
107.9318650525499
 20
162.9807431760742
 30
0.0
 10
108.6740231997657
 20
163.0537949268048
 30
0.0
 10
109.6082658364055
 20
163.3704092926593
 30
0.0
 10
110.4007476769658
 20
163.9366704785789
 30
0.0
 10
110.9443505541654
 20
164.5856865869737
 30
0.0
 10
111.2631079308787
 20
165.139811877592
 30
0.0
 10
111.4710120981732
 20
165.6954436820013
 30
0.0
 10
111.5832390460031
 20
166.2315168692978
 30
0.0
 10
111.6256849742616
 20
166.8648567966353
 30
0.0
 10
111.5366298741306
 20
167.6434496052061
 30
0.0
 10
111.1914913203882
 20
168.5654934197579
 30
0.0
 10
110.647812709161
 20
169.3031822708845
 30
0.0
 10
110.0564460097336
 20
169.8051645416951
 30
0.0
 10
109.5547196069057
 20
170.1062594396984
 30
0.0
 10
109.07202724248
 20
170.3064024007796
 30
0.0
 10
108.6275225869493
 20
170.4257829294355
 30
0.0
 10
108.23379423799
 20
170.4845041574054
 30
0.0
 10
107.7001827443561
 20
170.511469522348
 30
0.0
 10
106.9684295479278
 20
170.4304801613697
 30
0.0
 10
106.0395592722374
 20
170.0830781348111
 30
0.0
 10
105.2672707927437
 20
169.5137456244478
 30
0.0
 10
104.7282745128252
 20
168.8572591316145
 30
0.0
 10
104.4045683336719
 20
168.2578077615026
 30
0.0
 10
104.2150912379543
 20
167.6971195805972
 30
0.0
 10
104.1248887767043
 20
167.2024552066052
 30
0.0
 10
104.0989137325358
 20
166.7578649411158
 30
0.0
 10
104.1223826679413
 20
166.31213633707
 30
0.0
 10
104.2108038465335
 20
165.8141947665488
 30
0.0
 10
104.3980026950737
 20
165.2525319640362
 30
0.0
 10
104.7176522228695
 20
164.6539613233483
 30
0.0
 10
105.163280362262
 20
164.1053655974138
 30
0.0
 10
105.6925564795529
 20
163.6618100203326
 30
0.0
  0
ARC
  5
BD
330
1F
100
AcDbEntity
  8
0
  6
Continuous
 62
     7
370
    15
100
AcDbCircle
 10
93.6566033312
 20
171.5600144231
 30
0.0
 40
1.400000000000006
100
AcDbArc
 50
0.0
 51
90.0
  0
ARC
  5
BE
330
1F
100
AcDbEntity
  8
0
  6
Continuous
 62
     7
370
    15
100
AcDbCircle
 10
93.6566033312
 20
161.9350144231
 30
0.0
 40
1.400000000000006
100
AcDbArc
 50
270.0
 51
0.0
  0
ELLIPSE
  5
BF
330
1F
100
AcDbEntity
  8
0
  6
Continuous
 62
     7
370
    15
100
AcDbEllipse
 10
180.8566033312
 20
177.0062829025
 30
0.0
 11
1.420168978306208
 21
1.963130890646255
 31
0.0
210
0.0
220
0.0
230
1.0
 40
0.8667064471
 41
0.0
 42
0.9293019434195687
  0
ELLIPSE
  5
C0
330
1F
100
AcDbEntity
  8
0
  6
Continuous
 62
     7
370
    15
100
AcDbEllipse
 10
180.8566033312
 20
177.0062829025
 30
0.0
 11
1.420168978306208
 21
1.963130890646255
 31
0.0
210
0.0
220
0.0
230
1.0
 40
0.8667064471
 41
4.783563271536197
 42
6.283185307179586
  0
SPLINE
  5
C1
330
1F
100
AcDbEntity
  8
0
  6
Continuous
 62
     7
370
    15
100
AcDbSpline
210
0.0
220
0.0
230
1.0
 70
     8
 71
     3
 72
    22
 73
    18
 74
     0
 42
0.00000001
 43
0.00000001
 40
0.0
 40
0.0
 40
0.0
 40
0.0
 40
0.2500000000000044
 40
0.2500000000000044
 40
0.5000000000000088
 40
0.5000000000000088
 40
0.5625000000000103
 40
0.5625000000000103
 40
0.6250000000000119
 40
0.6250000000000119
 40
0.6875000000000134
 40
0.6875000000000134
 40
0.7500000000000115
 40
0.7500000000000115
 40
0.8750000000000058
 40
0.8750000000000058
 40
1.0
 40
1.0
 40
1.0
 40
1.0
 10
84.95660333118433
 20
158.539266204406
 30
0.0
 10
84.95660333118431
 20
158.3389067657302
 30
0.0
 10
84.98810154953001
 20
158.1326134183593
 30
0.0
 10
85.09462897870655
 20
157.7215779427704
 30
0.0
 10
85.16778919784349
 20
157.5160704919891
 30
0.0
 10
85.2887176741678
 20
157.2736590103706
 30
0.0
 10
85.31456816197172
 20
157.2258680151344
 30
0.0
 10
85.37216271974599
 20
157.1332572382798
 30
0.0
 10
85.40410846026958
 20
157.0874269876245
 30
0.0
 10
85.47996550084181
 20
157.0097886906272
 30
0.0
 10
85.52717655148793
 20
156.9785293950201
 30
0.0
 10
85.62340254508689
 20
156.9716001524055
 30
0.0
 10
85.66782347501092
 20
156.992461548398
 30
0.0
 10
85.78404448489671
 20
157.0701494745774
 30
0.0
 10
85.84919672430858
 20
157.1439555029973
 30
0.0
 10
85.97575116467445
 20
157.2950636494411
 30
0.0
 10
86.03642524164412
 20
157.375628694882
 30
0.0
 10
86.09655840076657
 20
157.459218080921
 30
0.0
  0
LINE
  5
C2
330
1F
100
AcDbEntity
  8
0
  6
Continuous
 62
     7
370
    15
100
AcDbLine
 10
84.956603504
 20
159.8135617414
 30
0.0
 11
84.956603504
 21
158.5392665902
 31
0.0
  0
LINE
  5
C3
330
1F
100
AcDbEntity
  8
0
  6
Continuous
 62
     7
370
    15
100
AcDbLine
 10
86.2061962553
 20
160.5350144991
 30
0.0
 11
84.956603504
 21
159.8135617414
 31
0.0
  0
LINE
  5
C4
330
1F
100
AcDbEntity
  8
0
  6
Continuous
 62
     7
370
    15
100
AcDbLine
 10
86.2061962553
 20
160.5350144991
 30
0.0
 11
86.2061962553
 21
157.6030797177
 31
0.0
  0
LINE
  5
C5
330
1F
100
AcDbEntity
  8
0
  6
Continuous
 62
     7
370
    15
100
AcDbLine
 10
84.956603504
 20
145.1664644146
 30
0.0
 11
84.956603504
 21
158.5392665902
 31
0.0
  0
SPLINE
  5
C6
330
1F
100
AcDbEntity
  8
0
  6
Continuous
 62
     7
370
    15
100
AcDbSpline
210
0.0
220
0.0
230
1.0
 70
     8
 71
     3
 72
    22
 73
    18
 74
     0
 42
0.00000001
 43
0.00000001
 40
0.0
 40
0.0
 40
0.0
 40
0.0
 40
0.2500000000000044
 40
0.2500000000000044
 40
0.5000000000000088
 40
0.5000000000000088
 40
0.5625000000000103
 40
0.5625000000000103
 40
0.6250000000000119
 40
0.6250000000000119
 40
0.6875000000000134
 40
0.6875000000000134
 40
0.7500000000000115
 40
0.7500000000000115
 40
0.8750000000000058
 40
0.8750000000000058
 40
1.0
 40
1.0
 40
1.0
 40
1.0
 10
84.95660333118433
 20
174.9557626418423
 30
0.0
 10
84.95660333118431
 20
175.1561220805181
 30
0.0
 10
84.98810154953001
 20
175.362415427889
 30
0.0
 10
85.09462897870655
 20
175.773450903478
 30
0.0
 10
85.16778919784349
 20
175.9789583542592
 30
0.0
 10
85.2887176741678
 20
176.2213698358778
 30
0.0
 10
85.31456816197172
 20
176.269160831114
 30
0.0
 10
85.37216271974599
 20
176.3617716079685
 30
0.0
 10
85.40410846026958
 20
176.4076018586239
 30
0.0
 10
85.47996550084181
 20
176.4852401556211
 30
0.0
 10
85.52717655148793
 20
176.5164994512283
 30
0.0
 10
85.62340254508689
 20
176.5234286938428
 30
0.0
 10
85.66782347501092
 20
176.5025672978504
 30
0.0
 10
85.78404448489671
 20
176.4248793716709
 30
0.0
 10
85.84919672430858
 20
176.351073343251
 30
0.0
 10
85.97575116467445
 20
176.1999651968073
 30
0.0
 10
86.03642524164412
 20
176.1194001513664
 30
0.0
 10
86.09655840076657
 20
176.0358107653274
 30
0.0
  0
LINE
  5
C7
330
1F
100
AcDbEntity
  8
0
  6
Continuous
 62
     7
370
    15
100
AcDbLine
 10
84.956603504
 20
174.9557622561
 30
0.0
 11
84.956603504
 21
188.3285644317
 31
0.0
  0
LINE
  5
C8
330
1F
100
AcDbEntity
  8
0
  6
Continuous
 62
     7
370
    15
100
AcDbLine
 10
86.2061962553
 20
172.9600143471
 30
0.0
 11
86.2061962553
 21
175.8919491285
 31
0.0
  0
LINE
  5
C9
330
1F
100
AcDbEntity
  8
0
  6
Continuous
 62
     7
370
    15
100
AcDbLine
 10
86.2061962553
 20
172.9600143471
 30
0.0
 11
84.956603504
 21
173.6814671048
 31
0.0
  0
LINE
  5
CA
330
1F
100
AcDbEntity
  8
0
  6
Continuous
 62
     7
370
    15
100
AcDbLine
 10
84.956603504
 20
173.6814671048
 30
0.0
 11
84.956603504
 21
174.9557622561
 31
0.0
  0
LINE
  5
CB
330
1F
100
AcDbEntity
  8
0
  6
Continuous
 62
     7
370
    15
100
AcDbLine
 10
93.6566036262
 20
160.5350144991
 30
0.0
 11
86.2061962553
 21
160.5350144991
 31
0.0
  0
LINE
  5
CC
330
1F
100
AcDbEntity
  8
0
  6
Continuous
 62
     7
370
    15
100
AcDbLine
 10
93.6566036262
 20
172.9600143471
 30
0.0
 11
86.2061962553
 21
172.9600143471
 31
0.0
  0
LINE
  5
CD
330
1F
100
AcDbEntity
  8
0
  6
Continuous
 62
     7
370
    15
100
AcDbLine
 10
105.2282596075
 20
164.0780696498
 30
0.0
 11
104.5546731048
 21
165.0013253411
 31
0.0
  0
SPLINE
  5
CE
330
1F
100
AcDbEntity
  8
0
  6
Continuous
 62
     7
370
    15
100
AcDbSpline
210
0.0
220
0.0
230
1.0
 70
     8
 71
     3
 72
    11
 73
     7
 74
     0
 42
0.00000001
 43
0.00000001
 40
0.0
 40
0.0
 40
0.0
 40
0.0
 40
0.2421192593000462
 40
0.5140715885526184
 40
0.7847429977670201
 40
1.0
 40
1.0
 40
1.0
 40
1.0
 10
91.0566024549962
 20
161.8775145934444
 30
0.0
 10
91.0432176639219
 20
161.7310946458535
 30
0.0
 10
91.01479885564578
 20
161.4202134079401
 30
0.0
 10
90.77859102123193
 20
160.9986524708523
 30
0.0
 10
90.43302013510987
 20
160.6701170901661
 30
0.0
 10
90.14065740325647
 20
160.5764896612884
 30
0.0
 10
90.01114629886159
 20
160.5350144991201
 30
0.0
  0
LINE
  5
CF
330
1F
100
AcDbEntity
  8
0
  6
Continuous
 62
     7
370
    15
100
AcDbLine
 10
91.056602455
 20
161.8775145934
 30
0.0
 11
91.056602455
 21
171.6175142528
 31
0.0
  0
SPLINE
  5
D0
330
1F
100
AcDbEntity
  8
0
  6
Continuous
 62
     7
370
    15
100
AcDbSpline
210
0.0
220
0.0
230
1.0
 70
     8
 71
     3
 72
    12
 73
     8
 74
     0
 42
0.00000001
 43
0.00000001
 40
0.0
 40
0.0
 40
0.0
 40
0.0
 40
0.0657500118357335
 40
0.3288326121915277
 40
0.5968095114063616
 40
0.8595360497636577
 40
1.0
 40
1.0
 40
1.0
 40
1.0
 10
91.0566024549962
 20
171.6175142528039
 30
0.0
 10
91.05550680213747
 20
171.6578471306104
 30
0.0
 10
91.05002716218722
 20
171.8595621599471
 30
0.0
 10
90.95194598618266
 20
172.2210197463915
 30
0.0
 10
90.66659495274328
 20
172.6230056048684
 30
0.0
 10
90.31960256208832
 20
172.8882429218438
 30
0.0
 10
90.0656551658235
 20
172.9414707701987
 30
0.0
 10
89.97718468985566
 20
172.9600143471282
 30
0.0
  0
LINE
  5
D1
330
1F
100
AcDbEntity
  8
0
  6
HIDDEN
 62
     7
370
     0
100
AcDbLine
 10
201.0077521273
 20
191.7475147957
 30
0.0
 11
201.0286063024
 21
191.7475147957
 31
0.0
  0
LINE
  5
D2
330
1F
100
AcDbEntity
  8
0
  6
HIDDEN
 62
     7
370
     0
100
AcDbLine
 10
192.6846042343
 20
191.7475147957
 30
0.0
 11
201.0077521273
 21
191.7475147957
 31
0.0
  0
LINE
  5
D3
330
1F
100
AcDbEntity
  8
0
  6
HIDDEN
 62
     7
370
     0
100
AcDbLine
 10
201.8316075274
 20
191.2694687807
 30
0.0
 11
201.8566042253
 21
191.2694687807
 31
0.0
  0
LINE
  5
D4
330
1F
100
AcDbEntity
  8
0
  6
HIDDEN
 62
     7
370
     0
100
AcDbLine
 10
191.8566063114
 20
191.2694687807
 30
0.0
 11
201.8316075274
 21
191.2694687807
 31
0.0
  0
LINE
  5
D5
330
1F
100
AcDbEntity
  8
0
  6
HIDDEN
 62
     7
370
     0
100
AcDbLine
 10
201.8316075274
 20
168.2475144362
 30
0.0
 11
201.8566042253
 21
168.2475144362
 31
0.0
  0
LINE
  5
D6
330
1F
100
AcDbEntity
  8
0
  6
HIDDEN
 62
     7
370
     0
100
AcDbLine
 10
191.8566063114
 20
168.2475144362
 30
0.0
 11
201.8316075274
 21
168.2475144362
 31
0.0
  0
LINE
  5
D7
330
1F
100
AcDbEntity
  8
0
  6
HIDDEN
 62
     7
370
     0
100
AcDbLine
 10
198.0431139537
 20
185.7475138122
 30
0.0
 11
199.728927023
 21
185.7475138122
 31
0.0
  0
LINE
  5
D8
330
1F
100
AcDbEntity
  8
0
  6
HIDDEN
 62
     7
370
     0
100
AcDbLine
 10
198.0431139537
 20
185.7475138122
 30
0.0
 11
195.1707959243
 21
185.7475138122
 31
0.0
  0
LINE
  5
D9
330
1F
100
AcDbEntity
  8
0
  6
HIDDEN
 62
     7
370
     0
100
AcDbLine
 10
198.0431139537
 20
185.7475138122
 30
0.0
 11
198.0431139537
 21
191.7475147957
 31
0.0
  0
LINE
  5
DA
330
1F
100
AcDbEntity
  8
0
  6
HIDDEN
 62
     7
370
     0
100
AcDbLine
 10
195.1707959243
 20
185.7475138122
 30
0.0
 11
195.1707959243
 21
191.7475147957
 31
0.0
  0
LINE
  5
DB
330
1F
100
AcDbEntity
  8
0
  6
HIDDEN
 62
     7
370
     0
100
AcDbLine
 10
195.1707959243
 20
185.7475138122
 30
0.0
 11
193.9842835136
 21
185.7475138122
 31
0.0
  0
LINE
  5
DC
330
1F
100
AcDbEntity
  8
0
  6
HIDDEN
 62
     7
370
     0
100
AcDbLine
 10
198.5424146124
 20
185.7475138122
 30
0.0
 11
198.5424146124
 21
191.7475147957
 31
0.0
  0
LINE
  5
DD
330
1F
100
AcDbEntity
  8
0
  6
HIDDEN
 62
     7
370
     0
100
AcDbLine
 10
199.728927023
 20
185.7475138122
 30
0.0
 11
199.728927023
 21
191.7475147957
 31
0.0
  0
LINE
  5
DE
330
1F
100
AcDbEntity
  8
0
  6
HIDDEN
 62
     7
370
     0
100
AcDbLine
 10
195.6700891324
 20
185.7475138122
 30
0.0
 11
195.6700891324
 21
191.7475147957
 31
0.0
  0
LINE
  5
DF
330
1F
100
AcDbEntity
  8
0
  6
HIDDEN
 62
     7
370
     0
100
AcDbLine
 10
193.9842835136
 20
185.7475138122
 30
0.0
 11
193.9842835136
 21
191.7475147957
 31
0.0
  0
LINE
  5
E0
330
1F
100
AcDbEntity
  8
0
  6
HIDDEN
 62
     7
370
     0
100
AcDbLine
 10
195.5997258492
 20
185.7475138122
 30
0.0
 11
195.5997258492
 21
191.7475147957
 31
0.0
  0
LINE
  5
E1
330
1F
100
AcDbEntity
  8
0
  6
HIDDEN
 62
     7
370
     0
100
AcDbLine
 10
193.9842835136
 20
185.7475138122
 30
0.0
 11
193.9775630899
 21
185.7475138122
 31
0.0
  0
LINE
  5
E2
330
1F
100
AcDbEntity
  8
0
  6
HIDDEN
 62
     7
370
     0
100
AcDbLine
 10
198.4787643023
 20
185.7475138122
 30
0.0
 11
198.4787643023
 21
191.7475147957
 31
0.0
  0
LINE
  5
E3
330
1F
100
AcDbEntity
  8
0
  6
HIDDEN
 62
     7
370
     0
100
AcDbLine
 10
199.7356399961
 20
185.7475138122
 30
0.0
 11
199.728927023
 21
185.7475138122
 31
0.0
  0
LINE
  5
E4
330
1F
100
AcDbEntity
  8
0
  6
HIDDEN
 62
     7
370
     0
100
AcDbLine
 10
195.2344387837
 20
185.7475138122
 30
0.0
 11
195.2344387837
 21
191.7475147957
 31
0.0
  0
LINE
  5
E5
330
1F
100
AcDbEntity
  8
0
  6
HIDDEN
 62
     7
370
     0
100
AcDbLine
 10
193.9775630899
 20
185.7475138122
 30
0.0
 11
193.9775630899
 21
191.7475147957
 31
0.0
  0
LINE
  5
E6
330
1F
100
AcDbEntity
  8
0
  6
HIDDEN
 62
     7
370
     0
100
AcDbLine
 10
198.1134772368
 20
185.7475138122
 30
0.0
 11
198.1134772368
 21
191.7475147957
 31
0.0
  0
LINE
  5
E7
330
1F
100
AcDbEntity
  8
0
  6
HIDDEN
 62
     7
370
     0
100
AcDbLine
 10
199.7356399961
 20
185.7475138122
 30
0.0
 11
199.7356399961
 21
191.7475147957
 31
0.0
  0
LINE
  5
E8
330
1F
100
AcDbEntity
  8
0
  6
HIDDEN
 62
     7
370
     0
100
AcDbLine
 10
195.8541110226
 20
185.7475138122
 30
0.0
 11
195.8541110226
 21
191.7475147957
 31
0.0
  0
LINE
  5
E9
330
1F
100
AcDbEntity
  8
0
  6
HIDDEN
 62
     7
370
     0
100
AcDbLine
 10
198.699763424
 20
185.7475138122
 30
0.0
 11
198.699763424
 21
191.7475147957
 31
0.0
  0
LINE
  5
EA
330
1F
100
AcDbEntity
  8
0
  6
HIDDEN
 62
     7
370
     0
100
AcDbLine
 10
195.0134396621
 20
185.7475138122
 30
0.0
 11
195.0134396621
 21
191.7475147957
 31
0.0
  0
LINE
  5
EB
330
1F
100
AcDbEntity
  8
0
  6
HIDDEN
 62
     7
370
     0
100
AcDbLine
 10
194.0109491416
 20
185.7475138122
 30
0.0
 11
194.0109491416
 21
191.7475147957
 31
0.0
  0
LINE
  5
EC
330
1F
100
AcDbEntity
  8
0
  6
HIDDEN
 62
     7
370
     0
100
AcDbLine
 10
197.8590995141
 20
185.7475138122
 30
0.0
 11
197.8590995141
 21
191.7475147957
 31
0.0
  0
LINE
  5
ED
330
1F
100
AcDbEntity
  8
0
  6
HIDDEN
 62
     7
370
     0
100
AcDbLine
 10
199.7022613951
 20
185.7475138122
 30
0.0
 11
199.7022613951
 21
191.7475147957
 31
0.0
  0
CIRCLE
  5
EE
330
1F
100
AcDbEntity
  8
0
  6
HIDDEN
 62
     7
370
     0
100
AcDbCircle
 10
181.6996754094
 20
177.8641276612
 30
0.0
 40
3.248311891182387
  0
CIRCLE
  5
EF
330
1F
100
AcDbEntity
  8
0
  6
HIDDEN
 62
     7
370
     0
100
AcDbCircle
 10
182.0017940321
 20
177.6458171819
 30
0.0
 40
3.498368798422562
  0
CIRCLE
  5
F0
330
1F
100
AcDbEntity
  8
0
  6
HIDDEN
 62
     7
370
     0
100
AcDbCircle
 10
181.9448200161
 20
177.6855994441
 30
0.0
 40
2.099081055314079
  0
CIRCLE
  5
F1
330
1F
100
AcDbEntity
  8
0
  6
HIDDEN
 62
     7
370
     0
100
AcDbCircle
 10
181.7162789727
 20
177.8508607918
 30
0.0
 40
2.099087792306704
  0
CIRCLE
  5
F2
330
1F
100
AcDbEntity
  8
0
  6
HIDDEN
 62
     7
370
     0
100
AcDbCircle
 10
181.6997260811
 20
177.8632236728
 30
0.0
 40
2.498894672617468
  0
CIRCLE
  5
F3
330
1F
100
AcDbEntity
  8
0
  6
HIDDEN
 62
     7
370
     0
100
AcDbCircle
 10
181.7614442582
 20
177.5979590227
 30
0.0
 40
3.498368482395576
  0
ARC
  5
F4
330
1F
100
AcDbEntity
  8
0
  6
HIDDEN
 62
     7
370
     0
100
AcDbCircle
 10
181.7955844542
 20
177.6561993666
 30
0.0
 40
2.095880629878448
100
AcDbArc
 50
144.5365919214
 51
197.1899689296
  0
ARC
  5
F5
330
1F
100
AcDbEntity
  8
0
  6
HIDDEN
 62
     7
370
     0
100
AcDbCircle
 10
181.8000057236
 20
177.6558568726
 30
0.0
 40
2.100003816274725
100
AcDbArc
 50
197.1453912435
 51
332.1808661104
  0
CIRCLE
  5
F6
330
1F
100
AcDbEntity
  8
0
  6
HIDDEN
 62
     7
370
     0
100
AcDbCircle
 10
181.8566033312
 20
177.7475144231
 30
0.0
 40
3.500000000000028
  0
LINE
  5
F7
330
1F
100
AcDbEntity
  8
0
  6
HIDDEN
 62
     7
370
     0
100
AcDbLine
 10
121.8066033044
 20
191.2062040383
 30
0.0
 11
131.4646707915
 21
191.2062040383
 31
0.0
  0
LINE
  5
F8
330
1F
100
AcDbEntity
  8
0
  6
HIDDEN
 62
     7
370
     0
100
AcDbLine
 10
131.4646707915
 20
158.7475140431
 30
0.0
 11
131.4646707915
 21
157.7475148106
 31
0.0
  0
LINE
  5
F9
330
1F
100
AcDbEntity
  8
0
  6
HIDDEN
 62
     7
370
     0
100
AcDbLine
 10
131.4646707915
 20
175.7475140357
 30
0.0
 11
131.4646707915
 21
174.7475148031
 31
0.0
  0
SPLINE
  5
FA
330
1F
100
AcDbEntity
  8
0
  6
HIDDEN
 62
     7
370
     0
100
AcDbSpline
210
0.0
220
0.0
230
1.0
 70
     8
 71
     3
 72
    12
 73
     8
 74
     0
 42
0.00000001
 43
0.00000001
 40
0.0
 40
0.0
 40
0.0
 40
0.0
 40
0.2500000000000006
 40
0.2500000000000006
 40
0.5000000000000012
 40
0.5000000000000012
 40
1.0
 40
1.0
 40
1.0
 40
1.0
 10
142.2066033311845
 20
191.2062040854918
 30
0.0
 10
142.2968423988715
 20
191.2062040854918
 30
0.0
 10
142.387740512978
 20
191.1783743651883
 30
0.0
 10
142.5423375494665
 20
191.0832319039316
 30
0.0
 10
142.6073159655747
 20
191.0168090876313
 30
0.0
 10
142.7591509935109
 20
190.7926096561112
 30
0.0
 10
142.8066033311845
 20
190.6086232535655
 30
0.0
 10
142.8066033311845
 20
190.4284666843825
 30
0.0
  0
LINE
  5
FB
330
1F
100
AcDbEntity
  8
0
  6
HIDDEN
 62
     7
370
     0
100
AcDbLine
 10
138.2485352524
 20
191.2062040383
 30
0.0
 11
142.2066040405
 21
191.2062040383
 31
0.0
  0
LINE
  5
FC
330
1F
100
AcDbEntity
  8
0
  6
HIDDEN
 62
     7
370
     0
100
AcDbLine
 10
138.2485352524
 20
158.7475140431
 30
0.0
 11
138.2485352524
 21
157.7475148106
 31
0.0
  0
SPLINE
  5
FD
330
1F
100
AcDbEntity
  8
0
  6
HIDDEN
 62
     7
370
     0
100
AcDbSpline
210
0.0
220
0.0
230
1.0
 70
     8
 71
     3
 72
     8
 73
     4
 74
     0
 42
0.00000001
 43
0.00000001
 40
0.0
 40
0.0
 40
0.0
 40
0.0
 40
1.0
 40
1.0
 40
1.0
 40
1.0
 10
136.7666033311845
 20
187.7976580907075
 30
0.0
 10
137.2465553255494
 20
188.9402735316295
 30
0.0
 10
137.741856054523
 20
190.0759610253606
 30
0.0
 10
138.2485361626735
 20
191.2062040854917
 30
0.0
  0
SPLINE
  5
FE
330
1F
100
AcDbEntity
  8
0
  6
HIDDEN
 62
     7
370
     0
100
AcDbSpline
210
0.0
220
0.0
230
1.0
 70
     8
 71
     3
 72
     8
 73
     4
 74
     0
 42
0.00000001
 43
0.00000001
 40
0.0
 40
0.0
 40
0.0
 40
0.0
 40
1.0
 40
1.0
 40
1.0
 40
1.0
 10
131.4646704996954
 20
191.2062040854916
 30
0.0
 10
131.9713506078459
 20
190.0759610253606
 30
0.0
 10
132.4666513368196
 20
188.9402735316295
 30
0.0
 10
132.9466033311845
 20
187.7976580907075
 30
0.0
  0
LINE
  5
FF
330
1F
100
AcDbEntity
  8
0
  6
HIDDEN
 62
     7
370
     0
100
AcDbLine
 10
136.7666035958
 20
158.7475140431
 30
0.0
 11
136.7666035958
 21
157.7475148106
 31
0.0
  0
LINE
  5
100
330
1F
100
AcDbEntity
  8
0
  6
HIDDEN
 62
     7
370
     0
100
AcDbLine
 10
132.9466033795
 20
175.7475140357
 30
0.0
 11
132.9466033795
 21
174.7475148031
 31
0.0
  0
LINE
  5
101
330
1F
100
AcDbEntity
  8
0
  6
HIDDEN
 62
     7
370
     0
100
AcDbLine
 10
136.7666035958
 20
175.7475140357
 30
0.0
 11
136.7666035958
 21
174.7475148031
 31
0.0
  0
LINE
  5
102
330
1F
100
AcDbEntity
  8
0
  6
HIDDEN
 62
     7
370
     0
100
AcDbLine
 10
132.9466033795
 20
158.7475140431
 30
0.0
 11
132.9466033795
 21
157.7475148106
 31
0.0
  0
LINE
  5
103
330
1F
100
AcDbEntity
  8
0
  6
HIDDEN
 62
     7
370
     0
100
AcDbLine
 10
196.856601543
 20
191.9725148791
 30
0.0
 11
201.1066064306
 21
191.9725148791
 31
0.0
  0
LINE
  5
104
330
1F
100
AcDbEntity
  8
0
  6
HIDDEN
 62
     7
370
     0
100
AcDbLine
 10
192.606604106
 20
191.9725148791
 30
0.0
 11
196.856601543
 21
191.9725148791
 31
0.0
  0
LINE
  5
105
330
1F
100
AcDbEntity
  8
0
  6
HIDDEN
 62
     7
370
     0
100
AcDbLine
 10
196.856601543
 20
168.5225144347
 30
0.0
 11
201.1066064306
 21
168.5225144347
 31
0.0
  0
LINE
  5
106
330
1F
100
AcDbEntity
  8
0
  6
HIDDEN
 62
     7
370
     0
100
AcDbLine
 10
192.606604106
 20
168.5225144347
 30
0.0
 11
196.856601543
 21
168.5225144347
 31
0.0
  0
SPLINE
  5
107
330
1F
100
AcDbEntity
  8
0
  6
HIDDEN
 62
     7
370
     0
100
AcDbSpline
210
0.0
220
0.0
230
1.0
 70
     8
 71
     3
 72
    18
 73
    14
 74
     0
 42
0.00000001
 43
0.00000001
 40
0.0
 40
0.0
 40
0.0
 40
0.0
 40
0.2500000000000003
 40
0.2500000000000003
 40
0.4999999999999999
 40
0.4999999999999999
 40
0.7499999999999996
 40
0.7499999999999996
 40
0.8749999999999993
 40
0.8749999999999993
 40
0.9374999999999997
 40
0.9374999999999997
 40
1.0
 40
1.0
 40
1.0
 40
1.0
 10
91.05660333118448
 20
174.0362637549355
 30
0.0
 10
91.05660333118448
 20
174.2856317319941
 30
0.0
 10
91.02075423124622
 20
174.5314402863729
 30
0.0
 10
90.8958824952123
 20
175.0035641101511
 30
0.0
 10
90.80548207756442
 20
175.2342926891026
 30
0.0
 10
90.58323942282223
 20
175.6678426181678
 30
0.0
 10
90.45347463637647
 20
175.8732404486126
 30
0.0
 10
90.21283717906496
 20
176.1555339704793
 30
0.0
 10
90.12506988092753
 20
176.2459135627439
 30
0.0
 10
89.9705457937207
 20
176.3535349676136
 30
0.0
 10
89.91393490766595
 20
176.3851095435878
 30
0.0
 10
89.78989087675936
 20
176.4232839856852
 30
0.0
 10
89.72217620174106
 20
176.4280817354657
 30
0.0
 10
89.65660333118447
 20
176.4152168765341
 30
0.0
  0
SPLINE
  5
108
330
1F
100
AcDbEntity
  8
0
  6
HIDDEN
 62
     7
370
     0
100
AcDbSpline
210
0.0
220
0.0
230
1.0
 70
     8
 71
     3
 72
    18
 73
    14
 74
     0
 42
0.00000001
 43
0.00000001
 40
0.0
 40
0.0
 40
0.0
 40
0.0
 40
0.2499999999999996
 40
0.2499999999999996
 40
0.5
 40
0.5
 40
0.7500000000000003
 40
0.7500000000000003
 40
0.8750000000000007
 40
0.8750000000000007
 40
0.9375000000000003
 40
0.9375000000000003
 40
1.0
 40
1.0
 40
1.0
 40
1.0
 10
91.05660333118448
 20
159.4587650913128
 30
0.0
 10
91.05660333118448
 20
159.2093971142542
 30
0.0
 10
91.02075423124622
 20
158.9635885598754
 30
0.0
 10
90.8958824952123
 20
158.4914647360972
 30
0.0
 10
90.80548207756442
 20
158.2607361571457
 30
0.0
 10
90.58323942282225
 20
157.8271862280805
 30
0.0
 10
90.45347463637647
 20
157.6217883976357
 30
0.0
 10
90.21283717906496
 20
157.339494875769
 30
0.0
 10
90.12506988092753
 20
157.2491152835044
 30
0.0
 10
89.97054579372069
 20
157.1414938786348
 30
0.0
 10
89.91393490766595
 20
157.1099193026605
 30
0.0
 10
89.78989087675936
 20
157.0717448605631
 30
0.0
 10
89.72217620174106
 20
157.0669471107826
 30
0.0
 10
89.65660333118447
 20
157.0798119697142
 30
0.0
  0
SPLINE
  5
109
330
1F
100
AcDbEntity
  8
0
  6
HIDDEN
 62
     7
370
     0
100
AcDbSpline
210
0.0
220
0.0
230
1.0
 70
     8
 71
     3
 72
    10
 73
     6
 74
     0
 42
0.00000001
 43
0.00000001
 40
0.0
 40
0.0
 40
0.0
 40
0.0
 40
0.5
 40
0.5
 40
1.0
 40
1.0
 40
1.0
 40
1.0
 10
89.65660333118447
 20
157.0798119697142
 30
0.0
 10
89.06901778409387
 20
157.1950914307076
 30
0.0
 10
88.4782713906335
 20
157.2903609845479
 30
0.0
 10
87.29425222533462
 20
157.4648992154919
 30
0.0
 10
86.70083823712916
 20
157.5432741913355
 30
0.0
 10
86.10660333118446
 20
157.6164476598058
 30
0.0
  0
ELLIPSE
  5
10A
330
1F
100
AcDbEntity
  8
0
  6
HIDDEN
 62
     7
370
     0
100
AcDbEllipse
 10
180.8566033312
 20
177.0062829025
 30
0.0
 11
1.420168978306208
 21
1.963130890646255
 31
0.0
210
0.0
220
0.0
230
1.0
 40
0.8667064471
 41
0.9293019434195687
 42
4.783563271536197
  0
SPLINE
  5
10B
330
1F
100
AcDbEntity
  8
0
  6
HIDDEN
 62
     7
370
     0
100
AcDbSpline
210
0.0
220
0.0
230
1.0
 70
     8
 71
     3
 72
    32
 73
    28
 74
     0
 42
0.00000001
 43
0.00000001
 40
0.0
 40
0.0
 40
0.0
 40
0.0
 40
0.1250000000000018
 40
0.1250000000000018
 40
0.1875000000000019
 40
0.1875000000000019
 40
0.250000000000002
 40
0.250000000000002
 40
0.3125000000000021
 40
0.3125000000000021
 40
0.3750000000000022
 40
0.3750000000000022
 40
0.4375000000000022
 40
0.4375000000000022
 40
0.5000000000000023
 40
0.5000000000000023
 40
0.6250000000000024
 40
0.6250000000000024
 40
0.6875000000000021
 40
0.6875000000000021
 40
0.7500000000000017
 40
0.7500000000000017
 40
0.8125000000000012
 40
0.8125000000000012
 40
0.8750000000000008
 40
0.8750000000000008
 40
1.0
 40
1.0
 40
1.0
 40
1.0
 10
174.9566033311845
 20
166.4224175137374
 30
0.0
 10
175.0895322466086
 20
166.3568297899351
 30
0.0
 10
175.223568225077
 20
166.320416247511
 30
0.0
 10
175.4300162400134
 20
166.3243075229705
 30
0.0
 10
175.5005038166968
 20
166.3358701142643
 30
0.0
 10
175.6394019782277
 20
166.3835406824693
 30
0.0
 10
175.7078449529679
 20
166.4193755098668
 30
0.0
 10
175.841356031209
 20
166.5195815907842
 30
0.0
 10
175.9058857122243
 20
166.5841037668507
 30
0.0
 10
176.0218151604867
 20
166.7370483683664
 30
0.0
 10
176.074424409851
 20
166.826851056314
 30
0.0
 10
176.1618739134061
 20
167.027013920261
 30
0.0
 10
176.1959694910658
 20
167.135171759285
 30
0.0
 10
176.2424893883864
 20
167.3643449715139
 30
0.0
 10
176.25459092981
 20
167.485488074495
 30
0.0
 10
176.2549609808072
 20
167.8516591714046
 30
0.0
 10
176.2060077747531
 20
168.1077380089094
 30
0.0
 10
176.0772203418532
 20
168.4823181580554
 30
0.0
 10
176.0243868149213
 20
168.6086230182525
 30
0.0
 10
175.9079691620688
 20
168.8526071510751
 30
0.0
 10
175.8447648075457
 20
168.9701732553821
 30
0.0
 10
175.7115827390446
 20
169.198187262169
 30
0.0
 10
175.6419262432907
 20
169.3078299583882
 30
0.0
 10
175.5037520231544
 20
169.5117124654009
 30
0.0
 10
175.4343721716368
 20
169.6073706304267
 30
0.0
 10
175.2254385631365
 20
169.878439653066
 30
0.0
 10
175.0898442904738
 20
170.0321829524092
 30
0.0
 10
174.9566033311845
 20
170.1642165711582
 30
0.0
  0
SPLINE
  5
10C
330
1F
100
AcDbEntity
  8
0
  6
HIDDEN
 62
     7
370
     0
100
AcDbSpline
210
0.0
220
0.0
230
1.0
 70
     8
 71
     3
 72
    38
 73
    34
 74
     0
 42
0.00000001
 43
0.00000001
 40
0.0
 40
0.0
 40
0.0
 40
0.0
 40
0.0625
 40
0.0625
 40
0.125
 40
0.125
 40
0.1875
 40
0.1875
 40
0.25
 40
0.25
 40
0.3125
 40
0.3125
 40
0.375
 40
0.375
 40
0.4375
 40
0.4375
 40
0.5
 40
0.5
 40
0.5625
 40
0.5625
 40
0.625
 40
0.625
 40
0.6875
 40
0.6875
 40
0.75
 40
0.75
 40
0.8125
 40
0.8125
 40
0.875
 40
0.875
 40
0.9375
 40
0.9375
 40
1.0
 40
1.0
 40
1.0
 40
1.0
 10
174.9566033311845
 20
166.4224175137374
 30
0.0
 10
174.8028307589403
 20
166.3919169935522
 30
0.0
 10
174.6484293023183
 20
166.3779763390667
 30
0.0
 10
174.3382441804175
 20
166.3864058393856
 30
0.0
 10
174.1814487429102
 20
166.4096050620659
 30
0.0
 10
173.883706720577
 20
166.4929633858919
 30
0.0
 10
173.7393030860364
 20
166.5536884876194
 30
0.0
 10
173.4685150505869
 20
166.7093160913712
 30
0.0
 10
173.344538726807
 20
166.8022972617018
 30
0.0
 10
173.1173507419202
 20
167.0157880667124
 30
0.0
 10
173.0157131134402
 20
167.1353003897187
 30
0.0
 10
172.8405605927595
 20
167.3890271812088
 30
0.0
 10
172.765263971221
 20
167.5261002746931
 30
0.0
 10
172.6453359343708
 20
167.8054844493325
 30
0.0
 10
172.6000520618241
 20
167.9480461388772
 30
0.0
 10
172.5385969994452
 20
168.2380162926059
 30
0.0
 10
172.5232925570678
 20
168.3827094789188
 30
0.0
 10
172.5233412555125
 20
168.6629840992737
 30
0.0
 10
172.5389295545751
 20
168.8015322167062
 30
0.0
 10
172.6002687683005
 20
169.0616987734525
 30
0.0
 10
172.6455133262339
 20
169.1836211103489
 30
0.0
 10
172.7663284291162
 20
169.4123371562539
 30
0.0
 10
172.8411035732392
 20
169.5169684027355
 30
0.0
 10
173.0161117032321
 20
169.7037269059938
 30
0.0
 10
173.1184543660124
 20
169.7876962681298
 30
0.0
 10
173.3446635175284
 20
169.9304642552592
 30
0.0
 10
173.4682191787932
 20
169.9897270103819
 30
0.0
 10
173.7385047431875
 20
170.0863711559651
 30
0.0
 10
173.8833151455538
 20
170.1226792206206
 30
0.0
 10
174.1809493509353
 20
170.1717770132955
 30
0.0
 10
174.3375918627453
 20
170.1850755883528
 30
0.0
 10
174.648241134045
 20
170.189975600576
 30
0.0
 10
174.8027789414482
 20
170.1820139545923
 30
0.0
 10
174.9566033311845
 20
170.1642165711582
 30
0.0
  0
SPLINE
  5
10D
330
1F
100
AcDbEntity
  8
0
  6
HIDDEN
 62
     7
370
     0
100
AcDbSpline
210
0.0
220
0.0
230
1.0
 70
     8
 71
     3
 72
    22
 73
    18
 74
     0
 42
0.00000001
 43
0.00000001
 40
0.0
 40
0.0
 40
0.0
 40
0.0
 40
0.1249999999999943
 40
0.1249999999999943
 40
0.2499999999999885
 40
0.2499999999999885
 40
0.3124999999999866
 40
0.3124999999999866
 40
0.3749999999999846
 40
0.3749999999999846
 40
0.4999999999999888
 40
0.4999999999999888
 40
0.624999999999993
 40
0.624999999999993
 40
0.7499999999999972
 40
0.7499999999999972
 40
1.0
 40
1.0
 40
1.0
 40
1.0
 10
86.09655840075357
 20
157.6045798792768
 30
0.0
 10
86.03593867987719
 20
157.5326824247418
 30
0.0
 10
85.97374933991065
 20
157.4645820409247
 30
0.0
 10
85.84001987368119
 20
157.3430514767415
 30
0.0
 10
85.76776533196892
 20
157.2874702857714
 30
0.0
 10
85.64586739113322
 20
157.2457464549234
 30
0.0
 10
85.60206083798114
 20
157.2397167827017
 30
0.0
 10
85.51566566880625
 20
157.253067373579
 30
0.0
 10
85.47332569251456
 20
157.2725580490203
 30
0.0
 10
85.35935494614553
 20
157.3549509552344
 30
0.0
 10
85.30093622015531
 20
157.4344482593846
 30
0.0
 10
85.20102864896782
 20
157.5978341127218
 30
0.0
 10
85.15961465817249
 20
157.6841633151038
 30
0.0
 10
85.08758969029518
 20
157.8608038137066
 30
0.0
 10
85.05724114898221
 20
157.9515018279538
 30
0.0
 10
84.98374941895014
 20
158.2216502206878
 30
0.0
 10
84.95660333118445
 20
158.4015370348144
 30
0.0
 10
84.95660333118445
 20
158.5805855406265
 30
0.0
  0
SPLINE
  5
10E
330
1F
100
AcDbEntity
  8
0
  6
HIDDEN
 62
     7
370
     0
100
AcDbSpline
210
0.0
220
0.0
230
1.0
 70
     8
 71
     3
 72
    22
 73
    18
 74
     0
 42
0.00000001
 43
0.00000001
 40
0.0
 40
0.0
 40
0.0
 40
0.0
 40
0.1249999999999972
 40
0.1249999999999972
 40
0.2499999999999943
 40
0.2499999999999943
 40
0.3124999999999916
 40
0.3124999999999916
 40
0.3749999999999887
 40
0.3749999999999887
 40
0.4999999999999911
 40
0.4999999999999911
 40
0.6249999999999934
 40
0.6249999999999934
 40
0.7499999999999959
 40
0.7499999999999959
 40
1.0
 40
1.0
 40
1.0
 40
1.0
 10
86.09655840075357
 20
175.8904489669716
 30
0.0
 10
86.0359386798772
 20
175.9623464215065
 30
0.0
 10
85.97374933991067
 20
176.0304468053236
 30
0.0
 10
85.8400198736812
 20
176.1519773695069
 30
0.0
 10
85.7677653319689
 20
176.207558560477
 30
0.0
 10
85.64586739113322
 20
176.2492823913249
 30
0.0
 10
85.60206083798116
 20
176.2553120635467
 30
0.0
 10
85.51566566880628
 20
176.2419614726694
 30
0.0
 10
85.47332569251456
 20
176.2224707972281
 30
0.0
 10
85.35935494614552
 20
176.140077891014
 30
0.0
 10
85.30093622015531
 20
176.0605805868637
 30
0.0
 10
85.20102864896784
 20
175.8971947335265
 30
0.0
 10
85.15961465817249
 20
175.8108655311445
 30
0.0
 10
85.08758969029519
 20
175.6342250325417
 30
0.0
 10
85.05724114898223
 20
175.5435270182946
 30
0.0
 10
84.98374941895014
 20
175.2733786255606
 30
0.0
 10
84.95660333118445
 20
175.0934918114339
 30
0.0
 10
84.95660333118445
 20
174.9144433056219
 30
0.0
  0
LINE
  5
10F
330
1F
100
AcDbEntity
  8
0
  6
HIDDEN
 62
     7
370
     0
100
AcDbLine
 10
97.8605788269
 20
166.7475144231
 30
0.0
 11
97.8605788269
 21
183.747515347
 31
0.0
  0
LINE
  5
110
330
1F
100
AcDbEntity
  8
0
  6
HIDDEN
 62
     7
370
     0
100
AcDbLine
 10
97.8605788269
 20
149.7475134993
 30
0.0
 11
97.8605788269
 21
166.7475144231
 31
0.0
  0
LINE
  5
111
330
1F
100
AcDbEntity
  8
0
  6
HIDDEN
 62
     7
370
     0
100
AcDbLine
 10
124.5164292932
 20
166.7475144231
 30
0.0
 11
124.5164292932
 21
183.747515347
 31
0.0
  0
LINE
  5
112
330
1F
100
AcDbEntity
  8
0
  6
HIDDEN
 62
     7
370
     0
100
AcDbLine
 10
124.5164292932
 20
149.7475134993
 30
0.0
 11
124.5164292932
 21
166.7475144231
 31
0.0
  0
LINE
  5
113
330
1F
100
AcDbEntity
  8
0
  6
HIDDEN
 62
     7
370
     0
100
AcDbLine
 10
126.8066031926
 20
166.7475144231
 30
0.0
 11
126.8066031926
 21
182.4725142533
 31
0.0
  0
LINE
  5
114
330
1F
100
AcDbEntity
  8
0
  6
HIDDEN
 62
     7
370
     0
100
AcDbLine
 10
126.8066031926
 20
151.022514593
 30
0.0
 11
126.8066031926
 21
166.7475144231
 31
0.0
  0
LINE
  5
115
330
1F
100
AcDbEntity
  8
0
  6
HIDDEN
 62
     7
370
     0
100
AcDbLine
 10
86.1066024818
 20
149.7475134993
 30
0.0
 11
86.1066024818
 21
160.4775146434
 31
0.0
  0
LINE
  5
116
330
1F
100
AcDbEntity
  8
0
  6
HIDDEN
 62
     7
370
     0
100
AcDbLine
 10
89.6566029706
 20
160.4775146434
 30
0.0
 11
86.1066024818
 21
160.4775146434
 31
0.0
  0
SPLINE
  5
117
330
1F
100
AcDbEntity
  8
0
  6
HIDDEN
 62
     7
370
     0
100
AcDbSpline
210
0.0
220
0.0
230
1.0
 70
     8
 71
     3
 72
     9
 73
     5
 74
     0
 42
0.00000001
 43
0.00000001
 40
0.0
 40
0.0
 40
0.0
 40
0.0
 40
0.221419894006448
 40
1.0
 40
1.0
 40
1.0
 40
1.0
 10
90.01114629886159
 20
160.5350144991201
 30
0.0
 10
89.9867111103931
 20
160.5245411086152
 30
0.0
 10
89.87635432164056
 20
160.47724007204
 30
0.0
 10
89.75279994794457
 20
160.4773944487376
 30
0.0
 10
89.65660297057637
 20
160.4775146433633
 30
0.0
  0
SPLINE
  5
118
330
1F
100
AcDbEntity
  8
0
  6
HIDDEN
 62
     7
370
     0
100
AcDbSpline
210
0.0
220
0.0
230
1.0
 70
     8
 71
     3
 72
     9
 73
     5
 74
     0
 42
0.00000001
 43
0.00000001
 40
0.0
 40
0.0
 40
0.0
 40
0.0
 40
0.6251715161159089
 40
1.0
 40
1.0
 40
1.0
 40
1.0
 10
89.97718468985566
 20
172.9600143471282
 30
0.0
 10
89.91210573377286
 20
172.9818635107367
 30
0.0
 10
89.80800797115069
 20
173.0168125815841
 30
0.0
 10
89.6978815063959
 20
173.0173229152796
 30
0.0
 10
89.65660297057637
 20
173.017514202885
 30
0.0
  0
LINE
  5
119
330
1F
100
AcDbEntity
  8
0
  6
HIDDEN
 62
     7
370
     0
100
AcDbLine
 10
89.6566029706
 20
173.0175142029
 30
0.0
 11
86.1066024818
 21
173.0175142029
 31
0.0
  0
LINE
  5
11A
330
1F
100
AcDbEntity
  8
0
  6
HIDDEN
 62
     7
370
     0
100
AcDbLine
 10
86.1066024818
 20
173.0175142029
 30
0.0
 11
86.1066024818
 21
183.747515347
 31
0.0
  0
LINE
  5
11B
330
1F
100
AcDbEntity
  8
0
  6
HIDDEN
 62
     7
370
     0
100
AcDbLine
 10
136.1566040733
 20
166.7475144231
 30
0.0
 11
136.1566040733
 21
176.2475141177
 31
0.0
  0
LINE
  5
11C
330
1F
100
AcDbEntity
  8
0
  6
HIDDEN
 62
     7
370
     0
100
AcDbLine
 10
136.1566040733
 20
157.2475147286
 30
0.0
 11
136.1566040733
 21
166.7475144231
 31
0.0
  0
LINE
  5
11D
330
1F
100
AcDbEntity
  8
0
  6
HIDDEN
 62
     7
370
     0
100
AcDbLine
 10
138.6566035517
 20
166.7475144231
 30
0.0
 11
138.6566035517
 21
176.2475141177
 31
0.0
  0
LINE
  5
11E
330
1F
100
AcDbEntity
  8
0
  6
HIDDEN
 62
     7
370
     0
100
AcDbLine
 10
138.6566035517
 20
157.2475147286
 30
0.0
 11
138.6566035517
 21
166.7475144231
 31
0.0
  0
LINE
  5
11F
330
1F
100
AcDbEntity
  8
0
  6
HIDDEN
 62
     7
370
     0
100
AcDbLine
 10
127.3066032746
 20
166.7475144231
 30
0.0
 11
127.3066032746
 21
175.2475148851
 31
0.0
  0
LINE
  5
120
330
1F
100
AcDbEntity
  8
0
  6
HIDDEN
 62
     7
370
     0
100
AcDbLine
 10
127.3066032746
 20
158.2475139612
 30
0.0
 11
127.3066032746
 21
166.7475144231
 31
0.0
  0
LINE
  5
121
330
1F
100
AcDbEntity
  8
0
  6
HIDDEN
 62
     7
370
     0
100
AcDbLine
 10
123.8566035473
 20
140.3475145662
 30
0.0
 11
119.1566033822
 21
140.3475145662
 31
0.0
  0
LINE
  5
122
330
1F
100
AcDbEntity
  8
0
  6
HIDDEN
 62
     7
370
     0
100
AcDbLine
 10
128.5566030138
 20
140.3475145662
 30
0.0
 11
123.8566035473
 21
140.3475145662
 31
0.0
  0
LINE
  5
123
330
1F
100
AcDbEntity
  8
0
  6
HIDDEN
 62
     7
370
     0
100
AcDbLine
 10
174.956603355
 20
166.4224175065
 30
0.0
 11
174.956603355
 21
162.5475145729
 31
0.0
  0
LINE
  5
124
330
1F
100
AcDbEntity
  8
0
  6
HIDDEN
 62
     7
370
     0
100
AcDbLine
 10
174.956603355
 20
170.9475142734
 30
0.0
 11
174.956603355
 21
170.1642165744
 31
0.0
  0
LINE
  5
125
330
1F
100
AcDbEntity
  8
0
  6
HIDDEN
 62
     7
370
     0
100
AcDbLine
 10
91.056602455
 20
161.8775145934
 30
0.0
 11
91.056602455
 21
159.4587650934
 31
0.0
  0
LINE
  5
126
330
1F
100
AcDbEntity
  8
0
  6
HIDDEN
 62
     7
370
     0
100
AcDbLine
 10
91.056602455
 20
171.6175142528
 30
0.0
 11
91.056602455
 21
174.0362637529
 31
0.0
  0
ARC
  5
127
330
1F
100
AcDbEntity
  8
0
  6
HIDDEN
 62
     7
370
     0
100
AcDbCircle
 10
129.0522236769
 20
194.5975144231
 30
0.0
 40
8.000000000000028
100
AcDbArc
 50
205.0819293509
 51
270.0
  0
LINE
  5
128
330
1F
100
AcDbEntity
  8
0
  6
HIDDEN
 62
     7
370
     0
100
AcDbLine
 10
136.7404557832
 20
186.5975151622
 30
0.0
 11
142.8066030212
 21
186.5975151622
 31
0.0
  0
LINE
  5
129
330
1F
100
AcDbEntity
  8
0
  6
HIDDEN
 62
     7
370
     0
100
AcDbLine
 10
129.052224017
 20
186.5975151622
 30
0.0
 11
132.9727511921
 21
186.5975151622
 31
0.0
  0
LINE
  5
12A
330
1F
100
AcDbEntity
  8
0
  6
HIDDEN
 62
     7
370
     0
100
AcDbLine
 10
138.2485352524
 20
175.7475140357
 30
0.0
 11
138.2485352524
 21
174.7475148031
 31
0.0
  0
LINE
  5
12B
330
1F
100
AcDbEntity
  8
0
  6
HIDDEN
 62
     7
370
     0
100
AcDbLine
 10
136.3723058321
 20
158.7475140431
 30
0.0
 11
142.8066030212
 21
158.7475140431
 31
0.0
  0
ARC
  5
12C
330
1F
100
AcDbEntity
  8
0
  6
HIDDEN
 62
     7
370
     0
100
AcDbCircle
 10
129.8066033312
 20
166.7475144231
 30
0.0
 40
8.0
100
AcDbArc
 50
90.0
 51
270.0
  0
LINE
  5
12D
330
1F
100
AcDbEntity
  8
0
  6
HIDDEN
 62
     7
370
     0
100
AcDbLine
 10
133.3409011432
 20
174.7475148031
 30
0.0
 11
129.8066036843
 21
174.7475148031
 31
0.0
  0
LINE
  5
12E
330
1F
100
AcDbEntity
  8
0
  6
HIDDEN
 62
     7
370
     0
100
AcDbLine
 10
142.8066030212
 20
174.7475148031
 30
0.0
 11
136.3723058321
 21
174.7475148031
 31
0.0
  0
LINE
  5
12F
330
1F
100
AcDbEntity
  8
0
  6
HIDDEN
 62
     7
370
     0
100
AcDbLine
 10
129.8066036843
 20
158.7475140431
 30
0.0
 11
133.3409011432
 21
158.7475140431
 31
0.0
  0
LINE
  5
130
330
1F
100
AcDbEntity
  8
0
  6
HIDDEN
 62
     7
370
     0
100
AcDbLine
 10
201.8566042253
 20
191.2694687807
 30
0.0
 11
201.0286063024
 21
191.7475147957
 31
0.0
  0
LINE
  5
131
330
1F
100
AcDbEntity
  8
0
  6
HIDDEN
 62
     7
370
     0
100
AcDbLine
 10
192.6846042343
 20
191.7475147957
 30
0.0
 11
191.8566063114
 21
191.2694687807
 31
0.0
  0
LINE
  5
132
330
1F
100
AcDbEntity
  8
0
  6
HIDDEN
 62
     7
370
     0
100
AcDbLine
 10
191.8566063114
 20
191.2694687807
 30
0.0
 11
191.8566063114
 21
168.2475144362
 31
0.0
  0
LINE
  5
133
330
1F
100
AcDbEntity
  8
0
  6
HIDDEN
 62
     7
370
     0
100
AcDbLine
 10
201.8566042253
 20
168.2475144362
 30
0.0
 11
201.8566042253
 21
191.2694687807
 31
0.0
  0
LINE
  5
134
330
1F
100
AcDbEntity
  8
0
  6
HIDDEN
 62
     7
370
     0
100
AcDbLine
 10
191.8566063114
 20
168.2475144362
 30
0.0
 11
192.3565998741
 21
167.7475144706
 31
0.0
  0
LINE
  5
135
330
1F
100
AcDbEntity
  8
0
  6
HIDDEN
 62
     7
370
     0
100
AcDbLine
 10
201.356603212
 20
167.7475144706
 30
0.0
 11
201.8566042253
 21
168.2475144362
 31
0.0
  0
LINE
  5
136
330
1F
100
AcDbEntity
  8
0
  6
HIDDEN
 62
     7
370
     0
100
AcDbLine
 10
183.176076419
 20
179.3849089035
 30
0.0
 11
182.9475447603
 21
179.5501432234
 31
0.0
  0
LINE
  5
137
330
1F
100
AcDbEntity
  8
0
  6
HIDDEN
 62
     7
370
     0
100
AcDbLine
 10
180.4867073961
 20
176.146574583
 30
0.0
 11
180.7152390548
 21
175.9813402632
 31
0.0
  0
CIRCLE
  5
138
330
1F
100
AcDbEntity
  8
0
  6
HIDDEN
 62
     7
370
     0
100
AcDbCircle
 10
181.8566033312
 20
177.7475144231
 30
0.0
 40
4.999999999999975
  0
LINE
  5
139
330
1F
100
AcDbEntity
  8
0
  6
HIDDEN
 62
     7
370
     0
100
AcDbLine
 10
183.5874453255
 20
176.5532468298
 30
0.0
 11
183.7352499434
 21
176.793418158
 31
0.0
  0
LINE
  5
13A
330
1F
100
AcDbEntity
  8
0
  6
HIDDEN
 62
     7
370
     0
100
AcDbLine
 10
180.1583752104
 20
178.9947685638
 30
0.0
 11
180.0105631419
 21
178.7545981669
 31
0.0
  0
CIRCLE
  5
13B
330
1F
100
AcDbEntity
  8
0
  6
HIDDEN
 62
     7
370
     0
100
AcDbCircle
 10
181.8566033312
 20
177.7475144231
 30
0.0
 40
5.0
  0
LINE
  5
13C
330
1F
100
AcDbEntity
  8
0
  6
HIDDEN
 62
     7
370
     0
100
AcDbLine
 10
116.8566033312
 20
141.4235907459
 30
0.0
 11
116.9507641689
 21
142.0935804808
 31
0.0
  0
LINE
  5
13D
330
1F
100
AcDbEntity
  8
0
  6
HIDDEN
 62
     7
370
     0
100
AcDbLine
 10
116.9507641689
 20
191.4014483654
 30
0.0
 11
116.8566033312
 21
192.0714381003
 31
0.0
  0
LINE
  5
13E
330
1F
100
AcDbEntity
  8
0
  6
HIDDEN
 62
     7
370
     0
100
AcDbLine
 10
191.8316021629
 20
192.7475149596
 30
0.0
 11
192.606604106
 21
191.9725148791
 31
0.0
  0
LINE
  5
13F
330
1F
100
AcDbEntity
  8
0
  6
HIDDEN
 62
     7
370
     0
100
AcDbLine
 10
201.1066064306
 20
191.9725148791
 30
0.0
 11
201.8816009232
 21
192.7475149596
 31
0.0
  0
LINE
  5
140
330
1F
100
AcDbEntity
  8
0
  6
HIDDEN
 62
     7
370
     0
100
AcDbLine
 10
201.8816009232
 20
167.7475144706
 30
0.0
 11
201.1066064306
 21
168.5225144347
 31
0.0
  0
LINE
  5
141
330
1F
100
AcDbEntity
  8
0
  6
HIDDEN
 62
     7
370
     0
100
AcDbLine
 10
192.606604106
 20
168.5225144347
 30
0.0
 11
191.8316021629
 21
167.7475144706
 31
0.0
  0
ARC
  5
142
330
1F
100
AcDbEntity
  8
0
  6
HIDDEN
 62
     7
370
     0
100
AcDbCircle
 10
116.3566033312
 20
142.1770835614
 30
0.0
 40
0.6000000000000085
100
AcDbArc
 50
352.0
 51
0.0
  0
ARC
  5
143
330
1F
100
AcDbEntity
  8
0
  6
HIDDEN
 62
     7
370
     0
100
AcDbCircle
 10
116.3566033312
 20
142.1770835614
 30
0.0
 40
0.6000000000000136
100
AcDbArc
 50
0.0
 51
33.5573097619
  0
ARC
  5
144
330
1F
100
AcDbEntity
  8
0
  6
HIDDEN
 62
     7
370
     0
100
AcDbCircle
 10
116.3566033312
 20
191.3179452848
 30
0.0
 40
0.6000000000000031
100
AcDbArc
 50
348.75
 51
8.0
  0
LWPOLYLINE
  5
145
330
1F
100
AcDbEntity
  8
0
  6
HIDDEN
 62
     7
370
     0
100
AcDbPolyline
 90
        3
 70
   128
 43
0.0
 10
116.9450745011
 20
191.2008917743
 10
116.9109310513
 20
191.0883358532
 10
116.8566033312
 20
190.9862833881
  0
LINE
  5
146
330
1F
100
AcDbEntity
  8
0
  6
HIDDEN
 62
     7
370
     0
100
AcDbLine
 10
116.9566033287
 20
142.1770828628
 30
0.0
 11
116.9566033287
 21
191.3179459834
 31
0.0
  0
LINE
  5
147
330
1F
100
AcDbEntity
  8
0
  6
HIDDEN
 62
     7
370
     0
100
AcDbLine
 10
192.606604106
 20
191.9725148791
 30
0.0
 11
192.606604106
 21
168.5225144347
 31
0.0
  0
LINE
  5
148
330
1F
100
AcDbEntity
  8
0
  6
HIDDEN
 62
     7
370
     0
100
AcDbLine
 10
201.1066064306
 20
168.5225144347
 30
0.0
 11
201.1066064306
 21
191.9725148791
 31
0.0
  0
LINE
  5
149
330
1F
100
AcDbEntity
  8
0
  6
HIDDEN
 62
     7
370
     0
100
AcDbLine
 10
179.1551433571
 20
178.2371525505
 30
0.0
 11
172.8128999539
 21
169.4701295664
 31
0.0
  0
LINE
  5
14A
330
1F
100
AcDbEntity
  8
0
  6
HIDDEN
 62
     7
370
     0
100
AcDbLine
 10
175.9846642681
 20
166.6888589561
 30
0.0
 11
182.558058209
 21
175.7754136661
 31
0.0
  0
ARC
  5
14B
330
1F
100
AcDbEntity
  8
0
  6
HIDDEN
 62
     7
370
     0
100
AcDbCircle
 10
110.6116053328
 20
154.7475144231
 30
0.0
 40
8.000000000000028
100
AcDbArc
 50
270.0
 51
321.3178125465
  0
ARC
  5
14C
330
1F
100
AcDbEntity
  8
0
  6
HIDDEN
 62
     7
370
     0
100
AcDbCircle
 10
110.6116053328
 20
178.7475144231
 30
0.0
 40
8.000000000000028
100
AcDbArc
 50
38.6821874535
 51
90.0
  0
ARC
  5
14D
330
1F
100
AcDbEntity
  8
0
  6
HIDDEN
 62
     7
370
     0
100
AcDbCircle
 10
99.9390388965
 20
147.3475144231
 30
0.0
 40
0.6000000000000013
100
AcDbArc
 50
210.0
 51
270.0
  0
ARC
  5
14E
330
1F
100
AcDbEntity
  8
0
  6
HIDDEN
 62
     7
370
     0
100
AcDbCircle
 10
99.9390388965
 20
186.1475144231
 30
0.0
 40
0.6000000000000227
100
AcDbArc
 50
90.0
 51
150.0
  0
LINE
  5
14F
330
1F
100
AcDbEntity
  8
0
  6
HIDDEN
 62
     7
370
     0
100
AcDbLine
 10
99.9390393563
 20
146.7475148702
 30
0.0
 11
110.6116053716
 21
146.7475148702
 31
0.0
  0
LINE
  5
150
330
1F
100
AcDbEntity
  8
0
  6
HIDDEN
 62
     7
370
     0
100
AcDbLine
 10
110.6116053716
 20
186.7475139761
 30
0.0
 11
99.9390393563
 21
186.7475139761
 31
0.0
  0
LINE
  5
151
330
1F
100
AcDbEntity
  8
0
  6
HIDDEN
 62
     7
370
     0
100
AcDbLine
 10
99.419422827
 20
186.4475144857
 30
0.0
 11
97.8605788269
 21
183.747515347
 31
0.0
  0
LINE
  5
152
330
1F
100
AcDbEntity
  8
0
  6
HIDDEN
 62
     7
370
     0
100
AcDbLine
 10
97.8605788269
 20
149.7475134993
 30
0.0
 11
99.419422827
 21
147.0475143605
 31
0.0
  0
ARC
  5
153
330
1F
100
AcDbEntity
  8
0
  6
HIDDEN
 62
     7
370
     0
100
AcDbCircle
 10
125.3066033312
 20
151.0225144231
 30
0.0
 40
1.5
100
AcDbArc
 50
238.2116693829
 51
0.0
  0
ARC
  5
154
330
1F
100
AcDbEntity
  8
0
  6
HIDDEN
 62
     7
370
     0
100
AcDbCircle
 10
125.3066033312
 20
182.4725144231
 30
0.0
 40
1.500000000000001
100
AcDbArc
 50
0.0
 51
121.7883306171
  0
LINE
  5
155
330
1F
100
AcDbEntity
  8
0
  6
HIDDEN
 62
     7
370
     0
100
AcDbLine
 10
116.8566033312
 20
149.7475134993
 30
0.0
 11
124.5164292932
 21
149.7475134993
 31
0.0
  0
LINE
  5
156
330
1F
100
AcDbEntity
  8
0
  6
HIDDEN
 62
     7
370
     0
100
AcDbLine
 10
124.5164292932
 20
183.747515347
 30
0.0
 11
116.8566033312
 21
183.747515347
 31
0.0
  0
LINE
  5
157
330
1F
100
AcDbEntity
  8
0
  6
HIDDEN
 62
     7
370
     0
100
AcDbLine
 10
86.1066024818
 20
149.7475134993
 30
0.0
 11
97.8605788269
 21
149.7475134993
 31
0.0
  0
LINE
  5
158
330
1F
100
AcDbEntity
  8
0
  6
HIDDEN
 62
     7
370
     0
100
AcDbLine
 10
97.8605788269
 20
183.747515347
 30
0.0
 11
86.1066024818
 21
183.747515347
 31
0.0
  0
LINE
  5
159
330
1F
100
AcDbEntity
  8
0
  6
HIDDEN
 62
     7
370
     0
100
AcDbLine
 10
86.1066024818
 20
183.747515347
 30
0.0
 11
84.956603504
 21
184.4114663863
 31
0.0
  0
LINE
  5
15A
330
1F
100
AcDbEntity
  8
0
  6
HIDDEN
 62
     7
370
     0
100
AcDbLine
 10
84.956603504
 20
149.0835624599
 30
0.0
 11
86.1066024818
 21
149.7475134993
 31
0.0
  0
LINE
  5
15B
330
1F
100
AcDbEntity
  8
0
  6
HIDDEN
 62
     7
370
     0
100
AcDbLine
 10
136.1566040733
 20
157.2475147286
 30
0.0
 11
138.6566035517
 21
157.2475147286
 31
0.0
  0
LINE
  5
15C
330
1F
100
AcDbEntity
  8
0
  6
HIDDEN
 62
     7
370
     0
100
AcDbLine
 10
138.6566035517
 20
176.2475141177
 30
0.0
 11
136.1566040733
 21
176.2475141177
 31
0.0
  0
LINE
  5
15D
330
1F
100
AcDbEntity
  8
0
  6
HIDDEN
 62
     7
370
     0
100
AcDbLine
 10
126.8066031926
 20
157.7475148106
 30
0.0
 11
127.3066032746
 21
158.2475139612
 31
0.0
  0
LINE
  5
15E
330
1F
100
AcDbEntity
  8
0
  6
HIDDEN
 62
     7
370
     0
100
AcDbLine
 10
127.3066032746
 20
175.2475148851
 30
0.0
 11
126.8066031926
 21
175.7475140357
 31
0.0
  0
LINE
  5
15F
330
1F
100
AcDbEntity
  8
0
  6
HIDDEN
 62
     7
370
     0
100
AcDbLine
 10
127.3066032746
 20
158.2475139612
 30
0.0
 11
136.1566040733
 21
158.2475139612
 31
0.0
  0
LINE
  5
160
330
1F
100
AcDbEntity
  8
0
  6
HIDDEN
 62
     7
370
     0
100
AcDbLine
 10
136.1566040733
 20
175.2475148851
 30
0.0
 11
127.3066032746
 21
175.2475148851
 31
0.0
  0
LINE
  5
161
330
1F
100
AcDbEntity
  8
0
  6
HIDDEN
 62
     7
370
     0
100
AcDbLine
 10
118.8566034262
 20
140.0475150758
 30
0.0
 11
118.8566034262
 21
135.2475139165
 31
0.0
  0
LINE
  5
162
330
1F
100
AcDbEntity
  8
0
  6
HIDDEN
 62
     7
370
     0
100
AcDbLine
 10
128.8566034355
 20
135.2475139165
 30
0.0
 11
128.8566034355
 21
140.0475150758
 31
0.0
  0
ARC
  5
163
330
1F
100
AcDbEntity
  8
0
  6
HIDDEN
 62
     7
370
     0
100
AcDbCircle
 10
119.1566033312
 20
140.0475144231
 30
0.0
 40
0.2999999999999972
100
AcDbArc
 50
90.0
 51
180.0
  0
ARC
  5
164
330
1F
100
AcDbEntity
  8
0
  6
HIDDEN
 62
     7
370
     0
100
AcDbCircle
 10
128.5566033312
 20
140.0475144231
 30
0.0
 40
0.3000000000000398
100
AcDbArc
 50
0.0
 51
90.0
  0
LINE
  5
165
330
1F
100
AcDbEntity
  8
0
  6
HIDDEN
 62
     7
370
     0
100
AcDbLine
 10
174.956603355
 20
162.5475145729
 30
0.0
 11
177.4802193113
 21
166.7475144231
 31
0.0
  0
LINE
  5
166
330
1F
100
AcDbEntity
  8
0
  6
HIDDEN
 62
     7
370
     0
100
AcDbLine
 10
177.4802193113
 20
166.7475144231
 30
0.0
 11
174.956603355
 21
170.9475142734
 31
0.0
  0
LINE
  5
167
330
1F
100
AcDbEntity
  8
0
  6
HIDDEN
 62
     7
370
     0
100
AcDbLine
 10
138.6566035517
 20
162.5475145729
 30
0.0
 11
174.956603355
 21
162.5475145729
 31
0.0
  0
LINE
  5
168
330
1F
100
AcDbEntity
  8
0
  6
HIDDEN
 62
     7
370
     0
100
AcDbLine
 10
174.956603355
 20
170.9475142734
 30
0.0
 11
138.6566035517
 21
170.9475142734
 31
0.0
  0
LINE
  5
169
330
1F
100
AcDbEntity
  8
0
  6
HIDDEN
 62
     7
370
     0
100
AcDbLine
 10
172.8128999539
 20
169.4701295664
 30
0.0
 11
172.8124752708
 21
169.4695391079
 31
0.0
  0
LINE
  5
16A
330
1F
100
AcDbEntity
  8
0
  6
HIDDEN
 62
     7
370
     0
100
AcDbLine
 10
175.982045389
 20
166.6852405205
 30
0.0
 11
175.9846642681
 21
166.6888589561
 31
0.0
  0
DIMENSION
  5
16B
330
1F
100
AcDbEntity
  8
VERMASSUNG
100
AcDbDimension
  2
*D1
 10
214.6103981552
 20
146.7475144231
 30
0.0
 11
214.6103981552
 21
156.7475144231
 31
0.0
 70
   160
 71
     2
 42
-1.0
  3
SLDDIMSTYLE0
100
AcDbAlignedDimension
 13
206.33050133
 23
166.7475144231
 33
0.0
 14
206.8566033312
 24
146.7475144231
 34
0.0
 50
90.0
100
AcDbRotatedDimension
  0
DIMENSION
  5
176
330
1F
100
AcDbEntity
  8
VERMASSUNG
100
AcDbDimension
  2
*D2
 10
220.6103981552
 20
131.7475144231
 30
0.0
 11
220.6103981552
 21
149.2475144231
 31
0.0
 70
   160
 71
     2
 42
-1.0
  3
SLDDIMSTYLE0
100
AcDbAlignedDimension
 13
206.33050133
 23
166.7475144231
 33
0.0
 14
206.8566033312
 24
131.7475144231
 34
0.0
 50
90.0
100
AcDbRotatedDimension
  0
DIMENSION
  5
180
330
1F
100
AcDbEntity
  8
VERMASSUNG
100
AcDbDimension
  2
*D3
 10
226.6103981552
 20
131.7475144231
 30
0.0
 11
226.6103981552
 21
162.2475144231
 31
0.0
 70
   160
 71
     2
 42
-1.0
  3
SLDDIMSTYLE0
100
AcDbAlignedDimension
 13
206.8566033312
 23
192.7475144231
 33
0.0
 14
206.8566033312
 24
131.7475144231
 34
0.0
 50
90.0
100
AcDbRotatedDimension
  0
DIMENSION
  5
18A
330
1F
100
AcDbEntity
  8
VERMASSUNG
100
AcDbDimension
  2
*D4
 10
206.8566033312
 20
126.3609917941
 30
0.0
 11
196.8566033312
 21
126.3609917941
 31
0.0
 70
   160
 71
     2
 42
-1.0
  3
SLDDIMSTYLE0
100
AcDbAlignedDimension
 13
186.8566033312
 23
146.7475144231
 33
0.0
 14
206.8566033312
 24
131.7475144231
 34
0.0
100
AcDbRotatedDimension
  0
LINE
  5
194
330
1F
100
AcDbEntity
  8
VERMASSUNG
  6
CENTERX2
370
     0
100
AcDbLine
 10
180.079968609
 20
179.032051004
 30
0.0
 11
183.7390591145
 21
176.3864674475
 31
0.0
  0
LINE
  5
195
330
1F
100
AcDbEntity
  8
VERMASSUNG
  6
CENTERX2
370
     0
100
AcDbLine
 10
183.0056901446
 20
179.6146150253
 30
0.0
 11
180.6390738692
 21
175.7692043728
 31
0.0
  0
LINE
  5
196
330
1F
100
AcDbEntity
  8
VERMASSUNG
  6
CENTERX2
370
     0
100
AcDbLine
 10
83.0672987349
 20
166.7475144231
 30
0.0
 11
206.33050133
 21
166.7475144231
 31
0.0
  0
ARC
  5
197
330
1F
100
AcDbEntity
  8
0
  6
Continuous
 62
     7
370
    15
100
AcDbCircle
 10
181.8566033312
 20
98.4301280185
 30
0.0
 40
5.000000000000028
100
AcDbArc
 50
132.8644511973
 51
156.4218215218
  0
ARC
  5
198
330
1F
100
AcDbEntity
  8
0
  6
Continuous
 62
     7
370
    15
100
AcDbCircle
 10
181.8566033312
 20
98.4301280185
 30
0.0
 40
4.999999999999996
100
AcDbArc
 50
23.5781784782
 51
51.8402445817
  0
ARC
  5
199
330
1F
100
AcDbEntity
  8
0
  6
Continuous
 62
     7
370
    15
100
AcDbCircle
 10
181.8566033312
 20
42.4301280185
 30
0.0
 40
4.999999999999996
100
AcDbArc
 50
312.0011551314
 51
336.4218215218
  0
ARC
  5
19A
330
1F
100
AcDbEntity
  8
0
  6
Continuous
 62
     7
370
    15
100
AcDbCircle
 10
181.8566033312
 20
42.4301280185
 30
0.0
 40
5.000000000000028
100
AcDbArc
 50
203.5781784782
 51
231.0427295384
  0
LINE
  5
19B
330
1F
100
AcDbEntity
  8
0
  6
Continuous
 62
     7
370
    15
100
AcDbLine
 10
117.1566033454
 20
38.9301275118
 30
0.0
 11
121.8066033044
 21
38.9301275118
 31
0.0
  0
LINE
  5
19C
330
1F
100
AcDbEntity
  8
0
  6
Continuous
 62
     7
370
    15
100
AcDbLine
 10
121.834591876
 20
101.9301285251
 30
0.0
 11
117.1566033454
 21
101.9301285251
 31
0.0
  0
ARC
  5
19D
330
1F
100
AcDbEntity
  8
0
  6
Continuous
 62
     7
370
    15
100
AcDbCircle
 10
117.1566033312
 20
39.2301280185
 30
0.0
 40
0.2999999999999972
100
AcDbArc
 50
180.0
 51
270.0
  0
ARC
  5
19E
330
1F
100
AcDbEntity
  8
0
  6
Continuous
 62
     7
370
    15
100
AcDbCircle
 10
117.1566033312
 20
101.6301280185
 30
0.0
 40
0.2999999999999972
100
AcDbArc
 50
90.0
 51
180.0
  0
ARC
  5
19F
330
1F
100
AcDbEntity
  8
0
  6
Continuous
 62
     7
370
    15
100
AcDbCircle
 10
143.8066033312
 20
43.4301280185
 30
0.0
 40
1.0
100
AcDbArc
 50
90.0
 51
143.1139143113
  0
ARC
  5
1A0
330
1F
100
AcDbEntity
  8
0
  6
Continuous
 62
     7
370
    15
100
AcDbCircle
 10
143.8066033312
 20
97.4301280185
 30
0.0
 40
1.00000000000003
100
AcDbArc
 50
216.9011112232
 51
270.0
  0
LINE
  5
1A1
330
1F
100
AcDbEntity
  8
0
  6
Continuous
 62
     7
370
    15
100
AcDbLine
 10
159.9283985861
 20
100.4301273479
 30
0.0
 11
159.055201716
 21
97.1713085874
 31
0.0
  0
LINE
  5
1A2
330
1F
100
AcDbEntity
  8
0
  6
Continuous
 62
     7
370
    15
100
AcDbLine
 10
159.055201716
 20
43.6889474495
 30
0.0
 11
159.9283985861
 21
40.430128689
 31
0.0
  0
ARC
  5
1A3
330
1F
100
AcDbEntity
  8
0
  6
Continuous
 62
     7
370
    15
100
AcDbCircle
 10
158.0892763432
 20
97.4301280185
 30
0.0
 40
1.0
100
AcDbArc
 50
270.0
 51
345.0
  0
ARC
  5
1A4
330
1F
100
AcDbEntity
  8
0
  6
Continuous
 62
     7
370
    15
100
AcDbCircle
 10
158.0892763432
 20
43.4301280185
 30
0.0
 40
1.0
100
AcDbArc
 50
15.0
 51
90.0
  0
LINE
  5
1A5
330
1F
100
AcDbEntity
  8
0
  6
Continuous
 62
     7
370
    15
100
AcDbLine
 10
143.8066031852
 20
44.430127482
 30
0.0
 11
158.0892749198
 21
44.430127482
 31
0.0
  0
LINE
  5
1A6
330
1F
100
AcDbEntity
  8
0
  6
Continuous
 62
     7
370
    15
100
AcDbLine
 10
158.0892749198
 20
96.4301285549
 30
0.0
 11
143.8066031852
 21
96.4301285549
 31
0.0
  0
ARC
  5
1A7
330
1F
100
AcDbEntity
  8
0
  6
Continuous
 62
     7
370
    15
100
AcDbCircle
 10
116.3566033312
 20
45.8596971567
 30
0.0
 40
0.6000000000000136
100
AcDbArc
 50
33.5573097619
 51
90.0
  0
ARC
  5
1A8
330
1F
100
AcDbEntity
  8
0
  6
Continuous
 62
     7
370
    15
100
AcDbCircle
 10
116.3566033312
 20
95.0005588802
 30
0.0
 40
0.6000000000000136
100
AcDbArc
 50
270.0
 51
326.4426902381
  0
LINE
  5
1A9
330
1F
100
AcDbEntity
  8
0
  6
Continuous
 62
     7
370
    15
100
AcDbLine
 10
114.8566032362
 20
46.209696795
 30
0.0
 11
115.7133161624
 21
46.4392529084
 31
0.0
  0
LINE
  5
1AA
330
1F
100
AcDbEntity
  8
0
  6
Continuous
 62
     7
370
    15
100
AcDbLine
 10
115.7133161624
 20
94.4210031285
 30
0.0
 11
114.8566032362
 21
94.650559242
 31
0.0
  0
LINE
  5
1AB
330
1F
100
AcDbEntity
  8
0
  6
Continuous
 62
     7
370
    15
100
AcDbLine
 10
103.6250948974
 20
94.0878578677
 30
0.0
 11
91.056602455
 21
93.4581739112
 31
0.0
  0
LINE
  5
1AC
330
1F
100
AcDbEntity
  8
0
  6
Continuous
 62
     7
370
    15
100
AcDbLine
 10
114.8566032362
 20
94.650559242
 30
0.0
 11
112.0396018096
 21
94.509426619
 31
0.0
  0
LINE
  5
1AD
330
1F
100
AcDbEntity
  8
0
  6
Continuous
 62
     7
370
    15
100
AcDbLine
 10
112.039657689
 20
46.3508275553
 30
0.0
 11
114.8566032362
 21
46.209696795
 31
0.0
  0
LINE
  5
1AE
330
1F
100
AcDbEntity
  8
0
  6
Continuous
 62
     7
370
    15
100
AcDbLine
 10
95.0566031106
 20
47.2016819968
 30
0.0
 11
103.6254972287
 21
46.7723776802
 31
0.0
  0
ARC
  5
1AF
330
1F
100
AcDbEntity
  8
0
  6
Continuous
 62
     7
370
    15
100
AcDbCircle
 10
115.8686075316
 20
45.8596971567
 30
0.0
 40
0.6000000000000145
100
AcDbArc
 50
90.0
 51
105.0
  0
ARC
  5
1B0
330
1F
100
AcDbEntity
  8
0
  6
Continuous
 62
     7
370
    15
100
AcDbCircle
 10
115.8686075316
 20
95.0005588802
 30
0.0
 40
0.6000000000000145
100
AcDbArc
 50
255.0
 51
270.0
  0
LINE
  5
1B1
330
1F
100
AcDbEntity
  8
0
  6
Continuous
 62
     7
370
    15
100
AcDbLine
 10
115.868607566
 20
46.4596973016
 30
0.0
 11
116.3566033074
 21
46.4596973016
 31
0.0
  0
LINE
  5
1B2
330
1F
100
AcDbEntity
  8
0
  6
Continuous
 62
     7
370
    15
100
AcDbLine
 10
116.3566033074
 20
94.4005587353
 30
0.0
 11
115.868607566
 21
94.4005587353
 31
0.0
  0
LINE
  5
1B3
330
1F
100
AcDbEntity
  8
0
  6
Continuous
 62
     7
370
    15
100
AcDbLine
 10
86.2061962553
 20
49.5601278945
 30
0.0
 11
93.6566036262
 21
49.5601278945
 31
0.0
  0
ARC
  5
1B4
330
1F
100
AcDbEntity
  8
0
  6
Continuous
 62
     7
370
    15
100
AcDbCircle
 10
93.6566033312
 20
48.1601280185
 30
0.0
 40
1.400000000000012
100
AcDbArc
 50
41.1788388679
 51
90.0
  0
LINE
  5
1B5
330
1F
100
AcDbEntity
  8
0
  6
Continuous
 62
     7
370
    15
100
AcDbLine
 10
85.1366281577
 20
50.1776431902
 30
0.0
 11
86.2061962553
 21
49.5601278945
 31
0.0
  0
ARC
  5
1B6
330
1F
100
AcDbEntity
  8
0
  6
Continuous
 62
     7
370
    15
100
AcDbCircle
 10
89.6566033312
 20
92.7001280185
 30
0.0
 40
1.40000000000002
100
AcDbArc
 50
270.0
 51
301.7485287426
  0
LINE
  5
1B7
330
1F
100
AcDbEntity
  8
0
  6
Continuous
 62
     7
370
    15
100
AcDbLine
 10
89.6566029706
 20
91.3001281424
 30
0.0
 11
86.2308688529
 21
91.3001281424
 31
0.0
  0
LINE
  5
1B8
330
1F
100
AcDbEntity
  8
0
  6
Continuous
 62
     7
370
    15
100
AcDbLine
 10
86.0894717344
 20
91.2902374967
 30
0.0
 11
85.2218888768
 21
90.7893386885
 31
0.0
  0
CIRCLE
  5
1B9
330
1F
100
AcDbEntity
  8
0
  6
Continuous
 62
     7
370
    15
100
AcDbCircle
 10
196.8566033312
 20
50.4301280185
 30
0.0
 40
4.172000000000011
  0
LINE
  5
1BA
330
1F
100
AcDbEntity
  8
0
  6
Continuous
 62
     7
370
    15
100
AcDbLine
 10
195.6700891324
 20
53.0617666646
 30
0.0
 11
193.9842835136
 21
50.7183988794
 31
0.0
  0
LINE
  5
1BB
330
1F
100
AcDbEntity
  8
0
  6
Continuous
 62
     7
370
    15
100
AcDbLine
 10
195.1707959243
 20
48.0867588176
 30
0.0
 11
193.9842835136
 21
50.7183988794
 31
0.0
  0
LINE
  5
1BC
330
1F
100
AcDbEntity
  8
0
  6
Continuous
 62
     7
370
    15
100
AcDbLine
 10
198.0431139537
 20
47.7984884038
 30
0.0
 11
195.1707959243
 21
48.0867588176
 31
0.0
  0
LINE
  5
1BD
330
1F
100
AcDbEntity
  8
0
  6
Continuous
 62
     7
370
    15
100
AcDbLine
 10
198.0431139537
 20
47.7984884038
 30
0.0
 11
199.728927023
 21
50.1418580516
 31
0.0
  0
LINE
  5
1BE
330
1F
100
AcDbEntity
  8
0
  6
Continuous
 62
     7
370
    15
100
AcDbLine
 10
198.5424146124
 20
52.7734962507
 30
0.0
 11
199.728927023
 21
50.1418580516
 31
0.0
  0
LINE
  5
1BF
330
1F
100
AcDbEntity
  8
0
  6
Continuous
 62
     7
370
    15
100
AcDbLine
 10
198.5424146124
 20
52.7734962507
 30
0.0
 11
195.6700891324
 21
53.0617666646
 31
0.0
  0
CIRCLE
  5
1C0
330
1F
100
AcDbEntity
  8
0
  6
Continuous
 62
     7
370
    15
100
AcDbCircle
 10
196.8566033312
 20
70.4301280185
 30
0.0
 40
4.172
  0
LINE
  5
1C1
330
1F
100
AcDbEntity
  8
0
  6
Continuous
 62
     7
370
    15
100
AcDbLine
 10
198.1134772368
 20
73.0288963514
 30
0.0
 11
195.2344387837
 21
72.8179985872
 31
0.0
  0
LINE
  5
1C2
330
1F
100
AcDbEntity
  8
0
  6
Continuous
 62
     7
370
    15
100
AcDbLine
 10
193.9775630899
 20
70.2192302106
 30
0.0
 11
195.2344387837
 21
72.8179985872
 31
0.0
  0
LINE
  5
1C3
330
1F
100
AcDbEntity
  8
0
  6
Continuous
 62
     7
370
    15
100
AcDbLine
 10
195.5997258492
 20
67.8313596855
 30
0.0
 11
193.9775630899
 21
70.2192302106
 31
0.0
  0
LINE
  5
1C4
330
1F
100
AcDbEntity
  8
0
  6
Continuous
 62
     7
370
    15
100
AcDbLine
 10
195.5997258492
 20
67.8313596855
 30
0.0
 11
198.4787643023
 21
68.0422574497
 31
0.0
  0
LINE
  5
1C5
330
1F
100
AcDbEntity
  8
0
  6
Continuous
 62
     7
370
    15
100
AcDbLine
 10
199.7356399961
 20
70.6410258263
 30
0.0
 11
198.4787643023
 21
68.0422574497
 31
0.0
  0
LINE
  5
1C6
330
1F
100
AcDbEntity
  8
0
  6
Continuous
 62
     7
370
    15
100
AcDbLine
 10
199.7356399961
 20
70.6410258263
 30
0.0
 11
198.1134772368
 21
73.0288963514
 31
0.0
  0
CIRCLE
  5
1C7
330
1F
100
AcDbEntity
  8
0
  6
Continuous
 62
     7
370
    15
100
AcDbCircle
 10
196.8566033312
 20
90.4301280185
 30
0.0
 40
4.172000000000001
  0
LINE
  5
1C8
330
1F
100
AcDbEntity
  8
0
  6
Continuous
 62
     7
370
    15
100
AcDbLine
 10
199.7022613951
 20
90.9154881938
 30
0.0
 11
197.8590995141
 21
93.1372178002
 31
0.0
  0
LINE
  5
1C9
330
1F
100
AcDbEntity
  8
0
  6
Continuous
 62
     7
370
    15
100
AcDbLine
 10
195.0134396621
 20
92.6518590405
 30
0.0
 11
197.8590995141
 21
93.1372178002
 31
0.0
  0
LINE
  5
1CA
330
1F
100
AcDbEntity
  8
0
  6
Continuous
 62
     7
370
    15
100
AcDbLine
 10
194.0109491416
 20
89.9447688117
 30
0.0
 11
195.0134396621
 21
92.6518590405
 31
0.0
  0
LINE
  5
1CB
330
1F
100
AcDbEntity
  8
0
  6
Continuous
 62
     7
370
    15
100
AcDbLine
 10
194.0109491416
 20
89.9447688117
 30
0.0
 11
195.8541110226
 21
87.7230373426
 31
0.0
  0
LINE
  5
1CC
330
1F
100
AcDbEntity
  8
0
  6
Continuous
 62
     7
370
    15
100
AcDbLine
 10
198.699763424
 20
88.2083961024
 30
0.0
 11
195.8541110226
 21
87.7230373426
 31
0.0
  0
LINE
  5
1CD
330
1F
100
AcDbEntity
  8
0
  6
Continuous
 62
     7
370
    15
100
AcDbLine
 10
198.699763424
 20
88.2083961024
 30
0.0
 11
199.7022613951
 21
90.9154881938
 31
0.0
  0
LWPOLYLINE
  5
1CE
330
1F
100
AcDbEntity
  8
0
  6
Continuous
 62
     7
370
    15
100
AcDbPolyline
 90
       29
 70
   128
 43
0.0
 10
184.9338397451
 20
102.3486313625
 10
184.7854316302
 20
102.3213883146
 10
184.482334561
 20
102.2893098398
 10
184.0397551723
 20
102.2540015384
 10
183.4798961946
 20
102.2172366484
 10
182.8308090635
 20
102.1808554634
 10
182.1250602671
 20
102.1466833754
 10
181.3980326124
 20
102.1164377435
 10
180.686189241
 20
102.0916310354
 10
180.0252109834
 20
102.0735074981
 10
179.4482529231
 20
102.0629798277
 10
178.9842382141
 20
102.0605695649
 10
178.6564424702
 20
102.0664033695
 10
178.4812979468
 20
102.0801832183
 10
178.4675888785
 20
102.1012236579
 10
178.616004444
 20
102.1284667059
 10
178.919097788
 20
102.1605451806
 10
179.361669726
 20
102.1958534821
 10
179.9215361544
 20
102.2326183721
 10
180.5706158348
 20
102.2689995571
 10
181.2763646313
 20
102.3031679197
 10
182.0033922859
 20
102.3334135517
 10
182.7152431079
 20
102.3582202598
 10
183.3762213655
 20
102.3763437971
 10
183.9531794258
 20
102.3868751927
 10
184.4171941348
 20
102.3892854556
 10
184.7449898787
 20
102.3834516509
 10
184.9201306768
 20
102.3696718021
 10
184.9338397451
 20
102.3486313625
  0
LWPOLYLINE
  5
1CF
330
1F
100
AcDbEntity
  8
0
  6
Continuous
 62
     7
370
    15
100
AcDbPolyline
 90
       26
 70
   128
 43
0.0
 10
184.1877386042
 20
102.320084463
 10
184.051698453
 20
102.2963394626
 10
183.767943091
 20
102.2681092127
 10
183.3542943069
 20
102.2371669515
 10
182.8367397257
 20
102.2054535552
 10
182.247816033
 20
102.1749620541
 10
181.6245079108
 20
102.147614698
 10
181.005990512
 20
102.1251213952
 10
180.4311260649
 20
102.1089014812
 10
179.9360275336
 20
102.0999682351
 10
179.551823444
 20
102.0988916262
 10
179.3026313253
 20
102.1057312592
 10
179.204123474
 20
102.1200587257
 10
179.2624875971
 20
102.140979956
 10
179.4740542837
 20
102.1671724721
 10
179.8255279728
 20
102.1969934209
 10
180.2948251434
 20
102.2285727068
 10
180.8524638482
 20
102.2599210246
 10
181.4634040066
 20
102.2890714212
 10
182.0892453261
 20
102.3141910537
 10
182.6906785437
 20
102.333700399
 10
183.2299143144
 20
102.3463738366
 10
183.6730599471
 20
102.351421605
 10
183.9922726222
 20
102.3485158785
 10
184.1675028273
 20
102.3378466471
 10
184.1877386042
 20
102.320084463
  0
LWPOLYLINE
  5
1D0
330
1F
100
AcDbEntity
  8
0
  6
Continuous
 62
     7
370
    15
100
AcDbPolyline
 90
       29
 70
   128
 43
0.0
 10
178.8534022935
 20
38.5116246744
 10
178.7177831002
 20
38.5388677224
 10
178.744612641
 20
38.5709461971
 10
178.9325460859
 20
38.6062544986
 10
179.2721584507
 20
38.6430193885
 10
179.7464251586
 20
38.6794005736
 10
180.3315565058
 20
38.7135726615
 10
180.9982195564
 20
38.7438182934
 10
181.7129835554
 20
38.7686250015
 10
182.4399963089
 20
38.7867485388
 10
183.1428170272
 20
38.7972762092
 10
183.7861970135
 20
38.799686472
 10
184.3378752538
 20
38.7938526674
 10
184.7701877423
 20
38.7800728186
 10
185.0614532896
 20
38.759032379
 10
185.1970762082
 20
38.731789331
 10
185.1702466675
 20
38.6997108563
 10
184.9823132225
 20
38.6644025548
 10
184.6426934072
 20
38.6276376649
 10
184.1684341498
 20
38.5912564798
 10
183.5832953521
 20
38.5570881172
 10
182.916639752
 20
38.5268424853
 10
182.201875753
 20
38.5020357772
 10
181.474855549
 20
38.4839122399
 10
180.7720348307
 20
38.4733808442
 10
180.128662295
 20
38.4709705814
 10
179.5769840547
 20
38.476804386
 10
179.1446678408
 20
38.4905842348
 10
178.8534022935
 20
38.5116246744
  0
LWPOLYLINE
  5
1D1
330
1F
100
AcDbEntity
  8
0
  6
Continuous
 62
     7
370
    15
100
AcDbPolyline
 90
       26
 70
   128
 43
0.0
 10
179.569712288
 20
38.540171574
 10
179.4612318345
 20
38.5639165743
 10
179.5095935532
 20
38.5921468242
 10
179.7117650577
 20
38.6230890854
 10
180.0550356575
 20
38.6548024817
 10
180.5178433724
 20
38.6852939828
 10
181.0711085864
 20
38.7126413389
 10
181.6800594398
 20
38.7351346417
 10
182.3064372011
 20
38.7513545557
 10
182.9108879038
 20
38.7602878018
 10
183.4554284879
 20
38.7613644107
 10
183.9058458873
 20
38.7545247777
 10
184.2338353463
 20
38.7401973113
 10
184.4187885591
 20
38.7192760809
 10
184.4490900703
 20
38.6930835648
 10
184.322825081
 20
38.663262616
 10
184.0479359098
 20
38.6316833301
 10
183.6416930028
 20
38.6003350123
 10
183.129622049
 20
38.5711846157
 10
182.5439021059
 20
38.5460649832
 10
181.9213241406
 20
38.5265556379
 10
181.3010186025
 20
38.5138822003
 10
180.7219520279
 20
38.508834432
 10
180.2205205031
 20
38.5117401584
 10
179.828225083
 20
38.5224093898
 10
179.569712288
 20
38.540171574
  0
LINE
  5
1D2
330
1F
100
AcDbEntity
  8
0
  6
Continuous
 62
     7
370
    15
100
AcDbLine
 10
121.8066033044
 20
90.2801287576
 30
0.0
 11
131.4646707915
 21
90.2801287576
 31
0.0
  0
LINE
  5
1D3
330
1F
100
AcDbEntity
  8
0
  6
Continuous
 62
     7
370
    15
100
AcDbLine
 10
131.4646707915
 20
40.2432103856
 30
0.0
 11
131.4646707915
 21
90.2801287576
 31
0.0
  0
LINE
  5
1D4
330
1F
100
AcDbEntity
  8
0
  6
Continuous
 62
     7
370
    15
100
AcDbLine
 10
131.4646707915
 20
40.2432103856
 30
0.0
 11
129.8066036843
 21
40.2432103856
 31
0.0
  0
SPLINE
  5
1D5
330
1F
100
AcDbEntity
  8
0
  6
Continuous
 62
     7
370
    15
100
AcDbSpline
210
0.0
220
0.0
230
1.0
 70
     8
 71
     3
 72
    28
 73
    24
 74
     0
 42
0.00000001
 43
0.00000001
 40
0.0
 40
0.0
 40
0.0
 40
0.0
 40
0.125
 40
0.125
 40
0.2499999999999999
 40
0.2499999999999999
 40
0.3749999999999999
 40
0.3749999999999999
 40
0.4374999999999999
 40
0.4374999999999999
 40
0.4999999999999999
 40
0.4999999999999999
 40
0.5624999999999999
 40
0.5624999999999999
 40
0.6249999999999999
 40
0.6249999999999999
 40
0.7499999999999998
 40
0.7499999999999998
 40
0.8124999999999998
 40
0.8124999999999998
 40
0.8749999999999998
 40
0.8749999999999998
 40
1.0
 40
1.0
 40
1.0
 40
1.0
 10
129.8066033311844
 20
40.2432103222194
 30
0.0
 10
129.276537170487
 20
40.2432103222194
 30
0.0
 10
128.7543767843755
 20
40.22751766473402
 30
0.0
 10
127.7253230032237
 20
40.16739107666095
 30
0.0
 10
127.2140114097975
 20
40.12223157636273
 30
0.0
 10
126.2478170366795
 20
40.01110770518086
 30
0.0
 10
125.7886216700121
 20
39.94513865361448
 30
0.0
 10
125.1353428215203
 20
39.835604157303
 30
0.0
 10
124.9235663959327
 20
39.79729405546452
 30
0.0
 10
124.5207771063221
 20
39.71971325407838
 30
0.0
 10
124.3285549692124
 20
39.68024814660311
 30
0.0
 10
123.9620387210825
 20
39.60093371356923
 30
0.0
 10
123.7877450093953
 20
39.56108270981689
 30
0.0
 10
123.4572269694827
 20
39.48192340725243
 30
0.0
 10
123.3002630657349
 20
39.44241616444339
 30
0.0
 10
122.8633679793507
 20
39.32766896688484
 30
0.0
 10
122.6183154980795
 20
39.2566432027461
 30
0.0
 10
122.3185194927805
 20
39.16262436642013
 30
0.0
 10
122.2299695886211
 20
39.1333677043806
 30
0.0
 10
122.0764360910934
 20
39.0797490422465
 30
0.0
 10
122.0119011697185
 20
39.05552540291864
 30
0.0
 10
121.8581323145671
 20
38.99250145259266
 30
0.0
 10
121.8066033311844
 20
38.96273703799911
 30
0.0
 10
121.8066033311844
 20
38.94600503560425
 30
0.0
  0
LINE
  5
1D6
330
1F
100
AcDbEntity
  8
0
  6
Continuous
 62
     7
370
    15
100
AcDbLine
 10
121.8066033044
 20
38.9460046991
 30
0.0
 11
121.8066033044
 21
38.9301275118
 31
0.0
  0
SPLINE
  5
1D7
330
1F
100
AcDbEntity
  8
0
  6
Continuous
 62
     7
370
    15
100
AcDbSpline
210
0.0
220
0.0
230
1.0
 70
     8
 71
     3
 72
    17
 73
    13
 74
     0
 42
0.00000001
 43
0.00000001
 40
0.0
 40
0.0
 40
0.0
 40
0.0
 40
0.1034797280380778
 40
0.2100239090909901
 40
0.3134862262879433
 40
0.4198361712144981
 40
0.5254127947779869
 40
0.6339610881168427
 40
0.7409508662120068
 40
0.8511696072047016
 40
0.9558996557845765
 40
1.0
 40
1.0
 40
1.0
 40
1.0
 10
129.806603684342
 20
100.897323454825
 30
0.0
 10
129.3713551926161
 20
100.9027714464627
 30
0.0
 10
128.4879687420391
 20
100.9138287667913
 30
0.0
 10
127.2071408798163
 20
101.0001875271663
 30
0.0
 10
125.9897246843744
 20
101.1280586702993
 30
0.0
 10
124.8819180680486
 20
101.2870030776178
 30
0.0
 10
123.8936795887197
 20
101.4614976506024
 30
0.0
 10
123.0689564889039
 20
101.6306640837893
 30
0.0
 10
122.4200028314053
 20
101.778544892257
 30
0.0
 10
122.0029675279256
 20
101.8803356437796
 30
0.0
 10
121.8043707850477
 20
101.9306925434141
 30
0.0
 10
121.8276839020356
 20
101.9247829384385
 30
0.0
 10
121.834591876036
 20
101.9230318470875
 30
0.0
  0
LINE
  5
1D8
330
1F
100
AcDbEntity
  8
0
  6
Continuous
 62
     7
370
    15
100
AcDbLine
 10
131.4646707915
 20
100.8973234548
 30
0.0
 11
129.8066036843
 21
100.8973234548
 31
0.0
  0
LINE
  5
1D9
330
1F
100
AcDbEntity
  8
0
  6
Continuous
 62
     7
370
    15
100
AcDbLine
 10
131.4646707915
 20
94.8888176336
 30
0.0
 11
131.4646707915
 21
100.8973234548
 31
0.0
  0
LINE
  5
1DA
330
1F
100
AcDbEntity
  8
0
  6
Continuous
 62
     7
370
    15
100
AcDbLine
 10
129.052224017
 20
94.8888176336
 30
0.0
 11
131.4646707915
 21
94.8888176336
 31
0.0
  0
SPLINE
  5
1DB
330
1F
100
AcDbEntity
  8
0
  6
Continuous
 62
     7
370
    15
100
AcDbSpline
210
0.0
220
0.0
230
1.0
 70
     8
 71
     3
 72
    20
 73
    16
 74
     0
 42
0.00000001
 43
0.00000001
 40
0.0
 40
0.0
 40
0.0
 40
0.0
 40
0.2500000000000005
 40
0.2500000000000005
 40
0.3750000000000004
 40
0.3750000000000004
 40
0.5000000000000003
 40
0.5000000000000003
 40
0.6250000000000002
 40
0.6250000000000002
 40
0.7500000000000001
 40
0.7500000000000001
 40
0.8750000000000001
 40
0.8750000000000001
 40
1.0
 40
1.0
 40
1.0
 40
1.0
 10
121.8066033311845
 20
90.2801280184665
 30
0.0
 10
122.0549770654725
 20
90.9339904467639
 30
0.0
 10
122.3745471578178
 20
91.53777622876105
 30
0.0
 10
122.9968533910225
 20
92.36461496492963
 30
0.0
 10
123.2282776514532
 20
92.62704360288255
 30
0.0
 10
123.7494919911029
 20
93.12370625698752
 30
0.0
 10
124.036112473738
 20
93.35429313600906
 30
0.0
 10
124.6555972150456
 20
93.77084736059169
 30
0.0
 10
124.9898975945326
 20
93.9583451625592
 30
0.0
 10
125.7151580671574
 20
94.2897421401956
 30
0.0
 10
126.0970731245479
 20
94.42924612769087
 30
0.0
 10
126.8918613007196
 20
94.65469963516182
 30
0.0
 10
127.3060194949259
 20
94.74132574670546
 30
0.0
 10
128.1715658355073
 20
94.8593065355596
 30
0.0
 10
128.6094534505191
 20
94.88881768083394
 30
0.0
 10
129.0522236768738
 20
94.88881768083394
 30
0.0
  0
LINE
  5
1DC
330
1F
100
AcDbEntity
  8
0
  6
Continuous
 62
     7
370
    15
100
AcDbLine
 10
116.8566033312
 20
39.2301288649
 30
0.0
 11
116.8566033312
 21
101.6301271721
 31
0.0
  0
LINE
  5
1DD
330
1F
100
AcDbEntity
  8
0
  6
Continuous
 62
     7
370
    15
100
AcDbLine
 10
142.8066030212
 20
40.86985078
 30
0.0
 11
142.8066030212
 21
90.2801287576
 31
0.0
  0
SPLINE
  5
1DE
330
1F
100
AcDbEntity
  8
0
  6
Continuous
 62
     7
370
    15
100
AcDbSpline
210
0.0
220
0.0
230
1.0
 70
     8
 71
     3
 72
    10
 73
     6
 74
     0
 42
0.00000001
 43
0.00000001
 40
0.0
 40
0.0
 40
0.0
 40
0.0
 40
0.5
 40
0.5
 40
1.0
 40
1.0
 40
1.0
 40
1.0
 10
142.8066033311845
 20
40.86985061787372
 30
0.0
 10
142.8066033311845
 20
40.70996334968007
 30
0.0
 10
142.7452936799486
 20
40.54883609416547
 30
0.0
 10
142.5261940424136
 20
40.31473709581063
 30
0.0
 10
142.3681458361001
 20
40.2432103222194
 30
0.0
 10
142.2066033311845
 20
40.2432103222194
 30
0.0
  0
SPLINE
  5
1DF
330
1F
100
AcDbEntity
  8
0
  6
Continuous
 62
     7
370
    15
100
AcDbSpline
210
0.0
220
0.0
230
1.0
 70
    24
 71
     3
 72
    12
 73
     8
 74
     0
 42
0.00000001
 43
0.00000001
 40
0.0
 40
0.0
 40
0.0
 40
0.0
 40
0.2500000000000006
 40
0.2500000000000006
 40
0.5000000000000012
 40
0.5000000000000012
 40
1.0
 40
1.0
 40
1.0
 40
1.0
 10
142.2066033311845
 20
90.2801280184665
 30
0.0
 10
142.2968423988715
 20
90.2801280184665
 30
0.0
 10
142.387740512978
 20
90.2801280184665
 30
0.0
 10
142.5423375494665
 20
90.2801280184665
 30
0.0
 10
142.6073159655747
 20
90.2801280184665
 30
0.0
 10
142.7591509935109
 20
90.2801280184665
 30
0.0
 10
142.8066033311845
 20
90.2801280184665
 30
0.0
 10
142.8066033311845
 20
90.2801280184665
 30
0.0
  0
LINE
  5
1E0
330
1F
100
AcDbEntity
  8
0
  6
Continuous
 62
     7
370
    15
100
AcDbLine
 10
132.9466033795
 20
42.9322906985
 30
0.0
 11
132.9466033795
 21
90.2801287576
 31
0.0
  0
SPLINE
  5
1E1
330
1F
100
AcDbEntity
  8
0
  6
Continuous
 62
     7
370
    15
100
AcDbSpline
210
0.0
220
0.0
230
1.0
 70
     8
 71
     3
 72
     8
 73
     4
 74
     0
 42
0.00000001
 43
0.00000001
 40
0.0
 40
0.0
 40
0.0
 40
0.0
 40
1.0
 40
1.0
 40
1.0
 40
1.0
 10
132.9466033311845
 20
42.93229085941169
 30
0.0
 10
132.4542642084033
 20
42.035020825205
 30
0.0
 10
131.9601501603612
 20
41.13873641015275
 30
0.0
 10
131.4646704996954
 20
40.2432103222194
 30
0.0
  0
SPLINE
  5
1E2
330
1F
100
AcDbEntity
  8
0
  6
Continuous
 62
     7
370
    15
100
AcDbSpline
210
0.0
220
0.0
230
1.0
 70
    24
 71
     3
 72
     8
 73
     4
 74
     0
 42
0.00000001
 43
0.00000001
 40
0.0
 40
0.0
 40
0.0
 40
0.0
 40
1.0
 40
1.0
 40
1.0
 40
1.0
 10
131.4646704996954
 20
90.2801280184665
 30
0.0
 10
131.9713506078459
 20
90.2801280184665
 30
0.0
 10
132.4666513368196
 20
90.28012801846651
 30
0.0
 10
132.9466033311845
 20
90.28012801846651
 30
0.0
  0
LINE
  5
1E3
330
1F
100
AcDbEntity
  8
0
  6
Continuous
 62
     7
370
    15
100
AcDbLine
 10
138.2485352524
 20
40.2432103856
 30
0.0
 11
138.2485352524
 21
90.2801287576
 31
0.0
  0
SPLINE
  5
1E4
330
1F
100
AcDbEntity
  8
0
  6
Continuous
 62
     7
370
    15
100
AcDbSpline
210
0.0
220
0.0
230
1.0
 70
     8
 71
     3
 72
     8
 73
     4
 74
     0
 42
0.00000001
 43
0.00000001
 40
0.0
 40
0.0
 40
0.0
 40
0.0
 40
1.0
 40
1.0
 40
1.0
 40
1.0
 10
138.2485361626735
 20
40.2432103222194
 30
0.0
 10
137.7530565020078
 20
41.13873641015275
 30
0.0
 10
137.2589424539656
 20
42.03502082520499
 30
0.0
 10
136.7666033311845
 20
42.93229085941168
 30
0.0
  0
LINE
  5
1E5
330
1F
100
AcDbEntity
  8
0
  6
Continuous
 62
     7
370
    15
100
AcDbLine
 10
136.7666035958
 20
42.9322906985
 30
0.0
 11
136.7666035958
 21
90.2801287576
 31
0.0
  0
SPLINE
  5
1E6
330
1F
100
AcDbEntity
  8
0
  6
Continuous
 62
     7
370
    15
100
AcDbSpline
210
0.0
220
0.0
230
1.0
 70
    24
 71
     3
 72
     8
 73
     4
 74
     0
 42
0.00000001
 43
0.00000001
 40
0.0
 40
0.0
 40
0.0
 40
0.0
 40
1.0
 40
1.0
 40
1.0
 40
1.0
 10
136.7666033311845
 20
90.28012801846651
 30
0.0
 10
137.2465553255494
 20
90.28012801846651
 30
0.0
 10
137.741856054523
 20
90.2801280184665
 30
0.0
 10
138.2485361626735
 20
90.2801280184665
 30
0.0
  0
LINE
  5
1E7
330
1F
100
AcDbEntity
  8
0
  6
Continuous
 62
     7
370
    15
100
AcDbLine
 10
142.2066040405
 20
40.2432103856
 30
0.0
 11
138.2485352524
 21
40.2432103856
 31
0.0
  0
LINE
  5
1E8
330
1F
100
AcDbEntity
  8
0
  6
Continuous
 62
     7
370
    15
100
AcDbLine
 10
138.2485352524
 20
90.2801287576
 30
0.0
 11
142.2066040405
 21
90.2801287576
 31
0.0
  0
SPLINE
  5
1E9
330
1F
100
AcDbEntity
  8
0
  6
Continuous
 62
     7
370
    15
100
AcDbSpline
210
0.0
220
0.0
230
1.0
 70
    24
 71
     3
 72
    14
 73
    10
 74
     0
 42
0.00000001
 43
0.00000001
 40
0.0
 40
0.0
 40
0.0
 40
0.0
 40
0.5000000000000027
 40
0.5000000000000027
 40
0.7500000000000013
 40
0.7500000000000013
 40
0.8750000000000007
 40
0.8750000000000007
 40
1.0
 40
1.0
 40
1.0
 40
1.0
 10
136.6689285288522
 20
44.03012801846655
 30
0.0
 10
136.622143823804
 20
44.03012801846655
 30
0.0
 10
136.5600926270244
 20
44.03012801846655
 30
0.0
 10
136.416700988474
 20
44.03012801846655
 30
0.0
 10
136.3605573349227
 20
44.03012801846655
 30
0.0
 10
136.2476063127864
 20
44.03012801846655
 30
0.0
 10
136.2046055507482
 20
44.03012801846655
 30
0.0
 10
136.1005428404418
 20
44.03012801846655
 30
0.0
 10
136.0352106020848
 20
44.03012801846655
 30
0.0
 10
135.9666033311845
 20
44.03012801846655
 30
0.0
  0
SPLINE
  5
1EA
330
1F
100
AcDbEntity
  8
0
  6
Continuous
 62
     7
370
    15
100
AcDbSpline
210
0.0
220
0.0
230
1.0
 70
    24
 71
     3
 72
    12
 73
     8
 74
     0
 42
0.00000001
 43
0.00000001
 40
0.0
 40
0.0
 40
0.0
 40
0.0
 40
0.5000000000000024
 40
0.5000000000000024
 40
0.7500000000000012
 40
0.7500000000000012
 40
1.0
 40
1.0
 40
1.0
 40
1.0
 10
136.3723057994935
 20
96.83012801846655
 30
0.0
 10
136.3292202498827
 20
96.83012801846655
 30
0.0
 10
136.2800680481355
 20
96.83012801846655
 30
0.0
 10
136.183595453846
 20
96.83012801846655
 30
0.0
 10
136.1474938687118
 20
96.83012801846655
 30
0.0
 10
136.0643881108493
 20
96.83012801846655
 30
0.0
 10
136.0163915138852
 20
96.83012801846655
 30
0.0
 10
135.9666033311845
 20
96.83012801846655
 30
0.0
  0
SPLINE
  5
1EB
330
1F
100
AcDbEntity
  8
0
  6
Continuous
 62
     7
370
    15
100
AcDbSpline
210
0.0
220
0.0
230
1.0
 70
     8
 71
     3
 72
    10
 73
     6
 74
     0
 42
0.00000001
 43
0.00000001
 40
0.0
 40
0.0
 40
0.0
 40
0.0
 40
0.5
 40
0.5
 40
1.0
 40
1.0
 40
1.0
 40
1.0
 10
136.7666033311845
 20
97.54978186950234
 30
0.0
 10
136.7666033311845
 20
97.40601181168434
 30
0.0
 10
136.7305542724656
 20
97.26359244918916
 30
0.0
 10
136.5950454116916
 20
97.01369815583195
 30
0.0
 10
136.4951694185954
 20
96.90566781958374
 30
0.0
 10
136.3723057994935
 20
96.83012801846652
 30
0.0
  0
SPLINE
  5
1EC
330
1F
100
AcDbEntity
  8
0
  6
Continuous
 62
     7
370
    15
100
AcDbSpline
210
0.0
220
0.0
230
1.0
 70
     8
 71
     3
 72
    10
 73
     6
 74
     0
 42
0.00000001
 43
0.00000001
 40
0.0
 40
0.0
 40
0.0
 40
0.0
 40
0.5
 40
0.5
 40
1.0
 40
1.0
 40
1.0
 40
1.0
 10
136.7404557080243
 20
90.28012801846651
 30
0.0
 10
136.749145350936
 20
90.32700686778465
 30
0.0
 10
136.7556844156865
 20
90.37442933318593
 30
0.0
 10
136.7644430500795
 20
90.47036613177268
 30
0.0
 10
136.7666033311845
 20
90.51828141978316
 30
0.0
 10
136.7666033311845
 20
90.56599464992769
 30
0.0
  0
SPLINE
  5
1ED
330
1F
100
AcDbEntity
  8
0
  6
Continuous
 62
     7
370
    15
100
AcDbSpline
210
0.0
220
0.0
230
1.0
 70
     8
 71
     3
 72
    10
 73
     6
 74
     0
 42
0.00000001
 43
0.00000001
 40
0.0
 40
0.0
 40
0.0
 40
0.0
 40
0.5
 40
0.5
 40
1.0
 40
1.0
 40
1.0
 40
1.0
 10
133.3409008628754
 20
96.83012801846655
 30
0.0
 10
133.2193605992069
 20
96.90485418567832
 30
0.0
 10
133.118026238858
 20
97.0137992015951
 30
0.0
 10
132.9823872959695
 20
97.2642296823567
 30
0.0
 10
132.9466033311845
 20
97.40664904445565
 30
0.0
 10
132.9466033311845
 20
97.54978186950234
 30
0.0
  0
SPLINE
  5
1EE
330
1F
100
AcDbEntity
  8
0
  6
Continuous
 62
     7
370
    15
100
AcDbSpline
210
0.0
220
0.0
230
1.0
 70
    24
 71
     3
 72
    12
 73
     8
 74
     0
 42
0.00000001
 43
0.00000001
 40
0.0
 40
0.0
 40
0.0
 40
0.0
 40
0.2500000000000012
 40
0.2500000000000012
 40
0.5000000000000024
 40
0.5000000000000024
 40
1.0
 40
1.0
 40
1.0
 40
1.0
 10
133.7466033311845
 20
96.83012801846655
 30
0.0
 10
133.6972599693748
 20
96.83012801846655
 30
0.0
 10
133.6485692710732
 20
96.83012801846655
 30
0.0
 10
133.5657181735028
 20
96.83012801846655
 30
0.0
 10
133.5295182058822
 20
96.83012801846655
 30
0.0
 10
133.4337682893328
 20
96.83012801846655
 30
0.0
 10
133.3838863195207
 20
96.83012801846655
 30
0.0
 10
133.3409008628754
 20
96.83012801846655
 30
0.0
  0
SPLINE
  5
1EF
330
1F
100
AcDbEntity
  8
0
  6
Continuous
 62
     7
370
    15
100
AcDbSpline
210
0.0
220
0.0
230
1.0
 70
    24
 71
     3
 72
    14
 73
    10
 74
     0
 42
0.00000001
 43
0.00000001
 40
0.0
 40
0.0
 40
0.0
 40
0.0
 40
0.1250000000000007
 40
0.1250000000000007
 40
0.2500000000000014
 40
0.2500000000000014
 40
0.5000000000000002
 40
0.5000000000000002
 40
1.0
 40
1.0
 40
1.0
 40
1.0
 10
133.7466033311845
 20
44.03012801846655
 30
0.0
 10
133.6772566094533
 20
44.03012801846655
 30
0.0
 10
133.6120585560694
 20
44.03012801846655
 30
0.0
 10
133.5076793634424
 20
44.03012801846655
 30
0.0
 10
133.4647769924334
 20
44.03012801846655
 30
0.0
 10
133.3524513348287
 20
44.03012801846654
 30
0.0
 10
133.2972276404748
 20
44.03012801846655
 30
0.0
 10
133.1531702617074
 20
44.03012801846655
 30
0.0
 10
133.0910895648758
 20
44.03012801846655
 30
0.0
 10
133.0442781335167
 20
44.03012801846655
 30
0.0
  0
SPLINE
  5
1F0
330
1F
100
AcDbEntity
  8
0
  6
Continuous
 62
     7
370
    15
100
AcDbSpline
210
0.0
220
0.0
230
1.0
 70
     8
 71
     3
 72
     9
 73
     5
 74
     0
 42
0.00000001
 43
0.00000001
 40
0.0
 40
0.0
 40
0.0
 40
0.0
 40
0.5
 40
1.0
 40
1.0
 40
1.0
 40
1.0
 10
132.9466033311845
 20
90.5659946499279
 30
0.0
 10
132.9466033311845
 20
90.51776259780516
 30
0.0
 10
132.9510093058896
 20
90.42189258436561
 30
0.0
 10
132.9640284859834
 20
90.32718395438226
 30
0.0
 10
132.9727509543445
 20
90.28012801846651
 30
0.0
  0
LINE
  5
1F1
330
1F
100
AcDbEntity
  8
0
  6
Continuous
 62
     7
370
    15
100
AcDbLine
 10
135.9666030922
 20
96.8301278754
 30
0.0
 11
133.7466038831
 21
96.8301278754
 31
0.0
  0
LINE
  5
1F2
330
1F
100
AcDbEntity
  8
0
  6
Continuous
 62
     7
370
    15
100
AcDbLine
 10
135.9666030922
 20
44.0301281615
 30
0.0
 11
133.7466038831
 21
44.0301281615
 31
0.0
  0
LINE
  5
1F3
330
1F
100
AcDbEntity
  8
0
  6
Continuous
 62
     7
370
    15
100
AcDbLine
 10
143.0066026815
 20
96.8301278754
 30
0.0
 11
142.9726783254
 21
96.8301278754
 31
0.0
  0
LINE
  5
1F4
330
1F
100
AcDbEntity
  8
0
  6
Continuous
 62
     7
370
    15
100
AcDbLine
 10
143.0066026815
 20
44.0301281615
 30
0.0
 11
142.9743956842
 21
44.0301281615
 31
0.0
  0
SPLINE
  5
1F5
330
1F
100
AcDbEntity
  8
0
  6
Continuous
 62
     7
370
    15
100
AcDbSpline
210
0.0
220
0.0
230
1.0
 70
     8
 71
     3
 72
    10
 73
     6
 74
     0
 42
0.00000001
 43
0.00000001
 40
0.0
 40
0.0
 40
0.0
 40
0.0
 40
0.5
 40
0.5
 40
1.0
 40
1.0
 40
1.0
 40
1.0
 10
159.0552021694946
 20
76.68238831875563
 30
0.0
 10
159.3007315294965
 20
80.60156201317243
 30
0.0
 10
159.7628965216705
 20
84.48018379576177
 30
0.0
 10
160.9347746605075
 20
92.19108895006492
 30
0.0
 10
161.6420675328666
 20
96.02382537167261
 30
0.0
 10
162.4092931869101
 20
99.84534300690581
 30
0.0
  0
SPLINE
  5
1F6
330
1F
100
AcDbEntity
  8
0
  6
Continuous
 62
     7
370
    15
100
AcDbSpline
210
0.0
220
0.0
230
1.0
 70
     8
 71
     3
 72
    10
 73
     6
 74
     0
 42
0.00000001
 43
0.00000001
 40
0.0
 40
0.0
 40
0.0
 40
0.0
 40
0.5
 40
0.5
 40
1.0
 40
1.0
 40
1.0
 40
1.0
 10
162.4092931869101
 20
41.01491303002716
 30
0.0
 10
161.6416795179085
 20
44.83836335090137
 30
0.0
 10
160.9341899717066
 20
48.67249028453947
 30
0.0
 10
159.7623903955645
 20
56.38392704424479
 30
0.0
 10
159.3005448080978
 20
60.2616744966214
 30
0.0
 10
159.0552021694946
 20
64.17786771817734
 30
0.0
  0
SPLINE
  5
1F7
330
1F
100
AcDbEntity
  8
0
  6
Continuous
 62
     7
370
    15
100
AcDbSpline
210
0.0
220
0.0
230
1.0
 70
    24
 71
     3
 72
    12
 73
     8
 74
     0
 42
0.00000001
 43
0.00000001
 40
0.0
 40
0.0
 40
0.0
 40
0.0
 40
0.0379903382889056
 40
0.301723992151986
 40
0.5652974620697859
 40
0.7825566973936593
 40
1.0
 40
1.0
 40
1.0
 40
1.0
 10
159.9609240957261
 20
40.43012868901883
 30
0.0
 10
159.9534934218246
 20
40.43012868901882
 30
0.0
 10
159.8944780854277
 20
40.43012868901879
 30
0.0
 10
160.1603106655117
 20
40.43012868901881
 30
0.0
 10
160.7124043923223
 20
40.43012868901878
 30
0.0
 10
161.5009860945549
 20
40.43012868901877
 30
0.0
 10
162.1064385175901
 20
40.43012868901874
 30
0.0
 10
162.4092929132939
 20
40.43012868901874
 30
0.0
  0
SPLINE
  5
1F8
330
1F
100
AcDbEntity
  8
0
  6
Continuous
 62
     7
370
    15
100
AcDbSpline
210
0.0
220
0.0
230
1.0
 70
    24
 71
     3
 72
    12
 73
     8
 74
     0
 42
0.00000001
 43
0.00000001
 40
0.0
 40
0.0
 40
0.0
 40
0.0
 40
0.2172720629099504
 40
0.4346987409332949
 40
0.6924529875049134
 40
0.9503556633904213
 40
0.9999999999999999
 40
0.9999999999999999
 40
0.9999999999999999
 40
0.9999999999999999
 10
162.4092929132939
 20
100.4301273479142
 30
0.0
 10
162.1066212474131
 20
100.4301273479142
 30
0.0
 10
161.5010625284852
 20
100.4301273479143
 30
0.0
 10
160.7197079522499
 20
100.4301273479143
 30
0.0
 10
160.1693241949319
 20
100.4301273479143
 30
0.0
 10
159.9021174815383
 20
100.4301273479143
 30
0.0
 10
159.9561572391547
 20
100.4301273479143
 30
0.0
 10
159.9648803540231
 20
100.4301273479143
 30
0.0
  0
SPLINE
  5
1F9
330
1F
100
AcDbEntity
  8
0
  6
Continuous
 62
     7
370
    15
100
AcDbSpline
210
0.0
220
0.0
230
1.0
 70
     8
 71
     3
 72
    10
 73
     6
 74
     0
 42
0.00000001
 43
0.00000001
 40
0.0
 40
0.0
 40
0.0
 40
0.0
 40
0.5
 40
0.5
 40
1.0
 40
1.0
 40
1.0
 40
1.0
 10
162.4092931869101
 20
99.8453430069058
 30
0.0
 10
162.4301688522233
 20
99.94932378846764
 30
0.0
 10
162.4605892795488
 20
100.0512816854397
 30
0.0
 10
162.5443959072778
 20
100.2503301910859
 30
0.0
 10
162.596442325874
 20
100.3440953654411
 30
0.0
 10
162.6599668621638
 20
100.4301280184625
 30
0.0
  0
LINE
  5
1FA
330
1F
100
AcDbEntity
  8
0
  6
Continuous
 62
     7
370
    15
100
AcDbLine
 10
206.8566069075
 20
100.4301273479
 30
0.0
 11
206.8566069075
 21
40.430128689
 31
0.0
  0
LINE
  5
1FB
330
1F
100
AcDbEntity
  8
0
  6
Continuous
 62
     7
370
    15
100
AcDbLine
 10
162.6599676975
 20
40.430128689
 30
0.0
 11
206.8566069075
 21
40.430128689
 31
0.0
  0
SPLINE
  5
1FC
330
1F
100
AcDbEntity
  8
0
  6
Continuous
 62
     7
370
    15
100
AcDbSpline
210
0.0
220
0.0
230
1.0
 70
     8
 71
     3
 72
    10
 73
     6
 74
     0
 42
0.00000001
 43
0.00000001
 40
0.0
 40
0.0
 40
0.0
 40
0.0
 40
0.5
 40
0.5
 40
1.0
 40
1.0
 40
1.0
 40
1.0
 10
162.6599668621668
 20
40.43012801846649
 30
0.0
 10
162.5961964963031
 20
40.51649360379424
 30
0.0
 10
162.5441932548313
 20
40.61058505459721
 30
0.0
 10
162.4615386730136
 20
40.80654316464761
 30
0.0
 10
162.4303068453428
 20
40.91024491073517
 30
0.0
 10
162.4092931869101
 20
41.01491303002716
 30
0.0
  0
SPLINE
  5
1FD
330
1F
100
AcDbEntity
  8
0
  6
Continuous
 62
     7
370
    15
100
AcDbSpline
210
0.0
220
0.0
230
1.0
 70
     8
 71
     3
 72
    12
 73
     8
 74
     0
 42
0.00000001
 43
0.00000001
 40
0.0
 40
0.0
 40
0.0
 40
0.0
 40
0.4999999999999998
 40
0.4999999999999998
 40
0.7499999999999999
 40
0.7499999999999999
 40
1.0
 40
1.0
 40
1.0
 40
1.0
 10
158.0892763432055
 20
70.43012801846649
 30
0.0
 10
158.2923926824324
 20
69.39442866270349
 30
0.0
 10
158.4960375059134
 20
68.35841998048967
 30
0.0
 10
158.756385266444
 20
66.79751454235422
 30
0.0
 10
158.8355942315995
 20
66.27609172328957
 30
0.0
 10
158.9684384346761
 20
65.22946080093614
 30
0.0
 10
159.0222896830212
 20
64.70322139157678
 30
0.0
 10
159.0552021694946
 20
64.17786771817734
 30
0.0
  0
SPLINE
  5
1FE
330
1F
100
AcDbEntity
  8
0
  6
Continuous
 62
     7
370
    15
100
AcDbSpline
210
0.0
220
0.0
230
1.0
 70
     8
 71
     3
 72
    14
 73
    10
 74
     0
 42
0.00000001
 43
0.00000001
 40
0.0
 40
0.0
 40
0.0
 40
0.0
 40
0.4999999999999996
 40
0.4999999999999996
 40
0.7499999999999998
 40
0.7499999999999998
 40
0.8749999999999999
 40
0.8749999999999999
 40
1.0
 40
1.0
 40
1.0
 40
1.0
 10
159.0552021694946
 20
76.68238831875564
 30
0.0
 10
158.9894547443339
 20
75.63291880047257
 30
0.0
 10
158.8433841252333
 20
74.58443277751043
 30
0.0
 10
158.5829031420559
 20
73.02258942939389
 30
0.0
 10
158.4884591135786
 20
72.50331273449231
 30
0.0
 10
158.3414476232307
 20
71.72533649540475
 30
0.0
 10
158.2915408879621
 20
71.46616965661731
 30
0.0
 10
158.1908383618596
 20
70.94799212092705
 30
0.0
 10
158.1398213885565
 20
70.68785946328055
 30
0.0
 10
158.0892763432055
 20
70.43012801846649
 30
0.0
  0
CIRCLE
  5
1FF
330
1F
100
AcDbEntity
  8
0
  6
Continuous
 62
     7
370
    15
100
AcDbCircle
 10
196.8566033312
 20
50.4301280185
 30
0.0
 40
5.024999999999999
  0
CIRCLE
  5
200
330
1F
100
AcDbEntity
  8
0
  6
Continuous
 62
     7
370
    15
100
AcDbCircle
 10
196.8566033312
 20
70.4301280185
 30
0.0
 40
5.025000000000006
  0
CIRCLE
  5
201
330
1F
100
AcDbEntity
  8
0
  6
Continuous
 62
     7
370
    15
100
AcDbCircle
 10
196.8566033312
 20
90.4301280185
 30
0.0
 40
5.025000000000006
  0
LINE
  5
202
330
1F
100
AcDbEntity
  8
0
  6
Continuous
 62
     7
370
    15
100
AcDbLine
 10
162.6599676975
 20
100.4301273479
 30
0.0
 11
206.8566069075
 21
100.4301273479
 31
0.0
  0
SPLINE
  5
203
330
1F
100
AcDbEntity
  8
0
  6
Continuous
 62
     7
370
    15
100
AcDbSpline
210
0.0
220
0.0
230
1.0
 70
    24
 71
     3
 72
    10
 73
     6
 74
     0
 42
0.00000001
 43
0.00000001
 40
0.0
 40
0.0
 40
0.0
 40
0.0
 40
0.5
 40
0.5
 40
1.0
 40
1.0
 40
1.0
 40
1.0
 10
162.6599668621641
 20
100.4301280184665
 30
0.0
 10
162.5947607252816
 20
100.4301280184665
 30
0.0
 10
162.5421329091567
 20
100.4301280184665
 30
0.0
 10
162.4597399780532
 20
100.4301280184665
 30
0.0
 10
162.4298584665462
 20
100.4301280184665
 30
0.0
 10
162.4092931869101
 20
100.4301280184665
 30
0.0
  0
CIRCLE
  5
204
330
1F
100
AcDbEntity
  8
0
  6
Continuous
 62
     7
370
    15
100
AcDbCircle
 10
196.8566033312
 20
90.4301280185
 30
0.0
 40
4.25
  0
CIRCLE
  5
205
330
1F
100
AcDbEntity
  8
0
  6
Continuous
 62
     7
370
    15
100
AcDbCircle
 10
196.8566033312
 20
70.4301280185
 30
0.0
 40
4.250000000000014
  0
CIRCLE
  5
206
330
1F
100
AcDbEntity
  8
0
  6
Continuous
 62
     7
370
    15
100
AcDbCircle
 10
196.8566033312
 20
50.4301280185
 30
0.0
 40
4.250000000000007
  0
SPLINE
  5
207
330
1F
100
AcDbEntity
  8
0
  6
Continuous
 62
     7
370
    15
100
AcDbSpline
210
0.0
220
0.0
230
1.0
 70
    24
 71
     3
 72
    10
 73
     6
 74
     0
 42
0.00000001
 43
0.00000001
 40
0.0
 40
0.0
 40
0.0
 40
0.0
 40
0.5
 40
0.5
 40
1.0
 40
1.0
 40
1.0
 40
1.0
 10
162.4092931869101
 20
40.43012801846649
 30
0.0
 10
162.4297508230143
 20
40.43012801846649
 30
0.0
 10
162.4595068981913
 20
40.43012801846648
 30
0.0
 10
162.5423566205251
 20
40.43012801846648
 30
0.0
 10
162.5944629959264
 20
40.43012801846648
 30
0.0
 10
162.6599668621668
 20
40.43012801846648
 30
0.0
  0
LINE
  5
208
330
1F
100
AcDbEntity
  8
0
  6
Continuous
 62
     7
370
    15
100
AcDbLine
 10
114.8566032362
 20
46.209696795
 30
0.0
 11
114.8566032362
 21
94.650559242
 31
0.0
  0
LINE
  5
209
330
1F
100
AcDbEntity
  8
0
  6
Continuous
 62
     7
370
    15
100
AcDbLine
 10
95.0566031106
 20
47.2016819968
 30
0.0
 11
95.0566031106
 21
48.4558121516
 31
0.0
  0
SPLINE
  5
20A
330
1F
100
AcDbEntity
  8
0
  6
Continuous
 62
     7
370
    15
100
AcDbSpline
210
0.0
220
0.0
230
1.0
 70
     8
 71
     3
 72
    12
 73
     8
 74
     0
 42
0.00000001
 43
0.00000001
 40
0.0
 40
0.0
 40
0.0
 40
0.0
 40
0.25
 40
0.25
 40
0.5
 40
0.5
 40
1.0
 40
1.0
 40
1.0
 40
1.0
 10
94.33193067831746
 20
49.57063513044051
 30
0.0
 10
94.38077124865255
 20
49.46473548316924
 30
0.0
 10
94.46581816385246
 20
49.36280192176174
 30
0.0
 10
94.63546957241601
 20
49.16629571652351
 30
0.0
 10
94.72193157114228
 20
49.07126835492459
 30
0.0
 10
94.94732477605919
 20
48.79398986056557
 30
0.0
 10
95.05660333118448
 20
48.61927248775484
 30
0.0
 10
95.05660333118448
 20
48.45581231030948
 30
0.0
  0
SPLINE
  5
20B
330
1F
100
AcDbEntity
  8
0
  6
Continuous
 62
     7
370
    15
100
AcDbSpline
210
0.0
220
0.0
230
1.0
 70
     8
 71
     3
 72
    14
 73
    10
 74
     0
 42
0.00000001
 43
0.00000001
 40
0.0
 40
0.0
 40
0.0
 40
0.0
 40
0.1250000000000007
 40
0.1250000000000007
 40
0.2500000000000013
 40
0.2500000000000013
 40
0.5000000000000009
 40
0.5000000000000009
 40
1.0
 40
1.0
 40
1.0
 40
1.0
 10
93.65660333118447
 20
50.10722459291458
 30
0.0
 10
93.71337808640502
 20
50.1136930460533
 30
0.0
 10
93.77606118733415
 20
50.10783574284447
 30
0.0
 10
93.88194896187218
 20
50.07793942150666
 30
0.0
 10
93.92585321947337
 20
50.05606447955173
 30
0.0
 10
94.038286467631
 20
49.98669319288493
 30
0.0
 10
94.09141467149333
 20
49.93419413868359
 30
0.0
 10
94.2264021332335
 20
49.77891113036528
 30
0.0
 10
94.28466284471335
 20
49.67312465653097
 30
0.0
 10
94.33193067833184
 20
49.57063513044135
 30
0.0
  0
SPLINE
  5
20C
330
1F
100
AcDbEntity
  8
0
  6
Continuous
 62
     7
370
    15
100
AcDbSpline
210
0.0
220
0.0
230
1.0
 70
     8
 71
     3
 72
    10
 73
     6
 74
     0
 42
0.00000001
 43
0.00000001
 40
0.0
 40
0.0
 40
0.0
 40
0.0
 40
0.5
 40
0.5
 40
1.0
 40
1.0
 40
1.0
 40
1.0
 10
90.8844769544694
 20
49.73381327060321
 30
0.0
 10
91.33074673219302
 20
49.80742801803134
 30
0.0
 10
91.78808133750451
 20
49.87338416332414
 30
0.0
 10
92.71542383555212
 20
49.99652454441894
 30
0.0
 10
93.18502938248773
 20
50.05349729850818
 30
0.0
 10
93.65660333118447
 20
50.10722459291457
 30
0.0
  0
SPLINE
  5
20D
330
1F
100
AcDbEntity
  8
0
  6
Continuous
 62
     7
370
    15
100
AcDbSpline
210
0.0
220
0.0
230
1.0
 70
     8
 71
     3
 72
    14
 73
    10
 74
     0
 42
0.00000001
 43
0.00000001
 40
0.0
 40
0.0
 40
0.0
 40
0.0
 40
0.5000000000000002
 40
0.5000000000000002
 40
0.7500000000000002
 40
0.7500000000000002
 40
0.8750000000000001
 40
0.8750000000000001
 40
1.0
 40
1.0
 40
1.0
 40
1.0
 10
86.2061962526201
 20
49.56059631869753
 30
0.0
 10
86.99738375082417
 20
49.56245412400884
 30
0.0
 10
87.78645008853644
 20
49.56922837767777
 30
0.0
 10
88.96190262959443
 20
49.59855988303978
 30
0.0
 10
89.35240054257925
 20
49.61144128804945
 30
0.0
 10
89.9334946805423
 20
49.64176987693448
 30
0.0
 10
90.12642012517531
 20
49.65370704492369
 30
0.0
 10
90.50913081487614
 20
49.68502516226095
 30
0.0
 10
90.69938934124916
 20
49.70328201220424
 30
0.0
 10
90.88447695446953
 20
49.73381327060312
 30
0.0
  0
SPLINE
  5
20E
330
1F
100
AcDbEntity
  8
0
  6
Continuous
 62
     7
370
    15
100
AcDbSpline
210
0.0
220
0.0
230
1.0
 70
     8
 71
     3
 72
     8
 73
     4
 74
     0
 42
0.00000001
 43
0.00000001
 40
0.0000003680674985
 40
0.0000003680674985
 40
0.0000003680674985
 40
0.0000003680674985
 40
0.000194190298469
 40
0.000194190298469
 40
0.000194190298469
 40
0.000194190298469
 10
86.0965584007663
 20
49.63024086439757
 30
0.0
 10
86.13165479922037
 20
49.60652931338969
 30
0.0
 10
86.16830950002468
 20
49.58332400451684
 30
0.0
 10
86.20619625261874
 20
49.56059631869809
 30
0.0
  0
SPLINE
  5
20F
330
1F
100
AcDbEntity
  8
0
  6
Continuous
 62
     7
370
    15
100
AcDbSpline
210
0.0
220
0.0
230
1.0
 70
     8
 71
     3
 72
     8
 73
     4
 74
     0
 42
0.00000001
 43
0.00000001
 40
0.0000003292049707
 40
0.0000003292049707
 40
0.0000003292049707
 40
0.0000003292049707
 40
0.0000169050949325
 40
0.0000169050949325
 40
0.0000169050949325
 40
0.0000169050949325
 10
86.10660333118444
 20
91.30006578386163
 30
0.0
 10
86.10324674904764
 20
91.29815378976475
 30
0.0
 10
86.0998983849221
 20
91.29623849950966
 30
0.0
 10
86.09655840075305
 20
91.29431989089431
 30
0.0
  0
SPLINE
  5
210
330
1F
100
AcDbEntity
  8
0
  6
Continuous
 62
     7
370
    15
100
AcDbSpline
210
0.0
220
0.0
230
1.0
 70
     8
 71
     3
 72
    10
 73
     6
 74
     0
 42
0.00000001
 43
0.00000001
 40
0.0
 40
0.0
 40
0.0
 40
0.0
 40
0.5
 40
0.5
 40
1.0
 40
1.0
 40
1.0
 40
1.0
 10
89.65660333118447
 20
91.25321541029429
 30
0.0
 10
89.06901778409387
 20
91.2742809305307
 30
0.0
 10
88.4782713906335
 20
91.28503941640291
 30
0.0
 10
87.29425222533462
 20
91.29840419693859
 30
0.0
 10
86.70083823712916
 20
91.30054683960317
 30
0.0
 10
86.10660333118446
 20
91.30006578386161
 30
0.0
  0
SPLINE
  5
211
330
1F
100
AcDbEntity
  8
0
  6
Continuous
 62
     7
370
    15
100
AcDbSpline
210
0.0
220
0.0
230
1.0
 70
     8
 71
     3
 72
    18
 73
    14
 74
     0
 42
0.00000001
 43
0.00000001
 40
0.0
 40
0.0
 40
0.0
 40
0.0
 40
0.2500000000000003
 40
0.2500000000000003
 40
0.4999999999999999
 40
0.4999999999999999
 40
0.7499999999999996
 40
0.7499999999999996
 40
0.8749999999999993
 40
0.8749999999999993
 40
0.9374999999999997
 40
0.9374999999999997
 40
1.0
 40
1.0
 40
1.0
 40
1.0
 10
91.05660333118448
 20
92.27423569082954
 30
0.0
 10
91.05660333118448
 20
92.19102878197235
 30
0.0
 10
91.02075423124622
 20
92.10229212665878
 30
0.0
 10
90.8958824952123
 20
91.92016693609854
 30
0.0
 10
90.80548207756442
 20
91.82503688747192
 30
0.0
 10
90.58323942282223
 20
91.63585537834759
 30
0.0
 10
90.45347463637647
 20
91.54091021025287
 30
0.0
 10
90.21283717906496
 20
91.40263150267295
 30
0.0
 10
90.12506988092753
 20
91.35692106937054
 30
0.0
 10
89.9705457937207
 20
91.29909776414908
 30
0.0
 10
89.91393490766595
 20
91.28138300011123
 30
0.0
 10
89.78989087675936
 20
91.25684369687829
 30
0.0
 10
89.72217620174106
 20
91.25086455834003
 30
0.0
 10
89.65660333118447
 20
91.25321541029429
 30
0.0
  0
LINE
  5
212
330
1F
100
AcDbEntity
  8
0
  6
Continuous
 62
     7
370
    15
100
AcDbLine
 10
91.056602455
 20
92.2742356761
 30
0.0
 11
91.056602455
 21
93.4581739112
 31
0.0
  0
SPLINE
  5
213
330
1F
100
AcDbEntity
  8
0
  6
Continuous
 62
     7
370
    15
100
AcDbSpline
210
0.0
220
0.0
230
1.0
 70
     8
 71
     3
 72
    24
 73
    20
 74
     0
 42
0.00000001
 43
0.00000001
 40
0.0
 40
0.0
 40
0.0
 40
0.0
 40
0.0010489815523775
 40
0.0637843212772741
 40
0.1272220630088516
 40
0.1903789073370505
 40
0.2526748662763491
 40
0.3146354150030102
 40
0.3770891884518245
 40
0.4393540587943444
 40
0.5008133488401828
 40
0.5621845177353679
 40
0.6248438462901906
 40
0.6874304788646655
 40
0.7496743245911356
 40
0.811984857412469
 40
0.8750960476811308
 40
0.9384412548145236
 40
1.0
 40
1.0
 40
1.0
 40
1.0
 10
103.6255093359114
 20
46.77261982402001
 30
0.0
 10
103.6250626701606
 20
46.77256117905353
 30
0.0
 10
103.597902734237
 20
46.76899521607285
 30
0.0
 10
103.6935326573689
 20
46.78185982554805
 30
0.0
 10
103.9270858333894
 20
46.8110943078881
 30
0.0
 10
104.3226417856238
 20
46.85771351862952
 30
0.0
 10
104.8496817859938
 20
46.90789431805469
 30
0.0
 10
105.49321222783
 20
46.95227299149774
 30
0.0
 10
106.2318860620997
 20
46.97921618800851
 30
0.0
 10
107.0294007322186
 20
46.98268793631065
 30
0.0
 10
107.8559797819832
 20
46.95506249001723
 30
0.0
 10
108.6815026034019
 20
46.8965813470386
 30
0.0
 10
109.4736290743175
 20
46.81113828364001
 30
0.0
 10
110.2062014531548
 20
46.7094031151475
 30
0.0
 10
110.8418416349756
 20
46.60155946409957
 30
0.0
 10
111.3637525655218
 20
46.49992806882474
 30
0.0
 10
111.7453814031607
 20
46.41744610453225
 30
0.0
 10
111.9961960790941
 20
46.36129399702534
 30
0.0
 10
112.0253173948014
 20
46.35444514611247
 30
0.0
 10
112.039669796145
 20
46.35106969913636
 30
0.0
  0
SPLINE
  5
214
330
1F
100
AcDbEntity
  8
0
  6
Continuous
 62
     7
370
    15
100
AcDbSpline
210
0.0
220
0.0
230
1.0
 70
     8
 71
     3
 72
    24
 73
    20
 74
     0
 42
0.00000001
 43
0.00000001
 40
0.0
 40
0.0
 40
0.0
 40
0.0
 40
0.061438429114025
 40
0.1250736777967275
 40
0.1884253375120604
 40
0.2508623992448726
 40
0.3129665476325462
 40
0.375345144232796
 40
0.4377328732174414
 40
0.4990927172519097
 40
0.5605807294548177
 40
0.6229469854741747
 40
0.6854686070210344
 40
0.7475477863222079
 40
0.8098225081553552
 40
0.8730684199475965
 40
0.9364041856905114
 40
0.9991757203144387
 40
1.0
 40
1.0
 40
1.0
 40
1.0
 10
112.0396153137744
 20
94.5091565354744
 30
0.0
 10
112.0250145053222
 20
94.50578837760143
 30
0.0
 10
111.9952908154712
 20
94.49893162851706
 30
0.0
 10
111.7425528154853
 20
94.44259380862096
 30
0.0
 10
111.3595575164642
 20
94.35973599573569
 30
0.0
 10
110.8372015595812
 20
94.25782924751465
 30
0.0
 10
110.2024172148796
 20
94.14999067762561
 30
0.0
 10
109.4721934782654
 20
94.04852442439662
 30
0.0
 10
108.6817253833543
 20
93.96346234582941
 30
0.0
 10
107.8572416558966
 20
93.90526098887278
 30
0.0
 10
107.0302052754165
 20
93.87767654118824
 30
0.0
 10
106.2318808164261
 20
93.88117046972242
 30
0.0
 10
105.4920570654264
 20
93.90812412839608
 30
0.0
 10
104.8478021939668
 20
93.95247962900946
 30
0.0
 10
104.3203953368692
 20
94.00268481273224
 30
0.0
 10
103.9257300965562
 20
94.04929227277744
 30
0.0
 10
103.6932014109678
 20
94.0784954496158
 30
0.0
 10
103.5978221823022
 20
94.091253588333
 30
0.0
 10
103.6247551266285
 20
94.08771375841424
 30
0.0
 10
103.6251042105914
 20
94.08766787788068
 30
0.0
  0
SPLINE
  5
215
330
1F
100
AcDbEntity
  8
0
  6
Continuous
 62
     7
370
    15
100
AcDbSpline
210
0.0
220
0.0
230
1.0
 70
     8
 71
     3
 72
    22
 73
    18
 74
     0
 42
0.00000001
 43
0.00000001
 40
0.0
 40
0.0
 40
0.0
 40
0.0
 40
0.1249999999999972
 40
0.1249999999999972
 40
0.2499999999999943
 40
0.2499999999999943
 40
0.3124999999999916
 40
0.3124999999999916
 40
0.3749999999999887
 40
0.3749999999999887
 40
0.4999999999999911
 40
0.4999999999999911
 40
0.6249999999999934
 40
0.6249999999999934
 40
0.7499999999999959
 40
0.7499999999999959
 40
1.0
 40
1.0
 40
1.0
 40
1.0
 10
86.09655840075357
 20
91.29431989089524
 30
0.0
 10
86.0359386798772
 20
91.25949771424798
 30
0.0
 10
85.97374933991067
 20
91.2209939105473
 30
0.0
 10
85.8400198736812
 20
91.13505942274861
 30
0.0
 10
85.7677653319689
 20
91.08675282154643
 30
0.0
 10
85.64586739113322
 20
91.01040110337658
 30
0.0
 10
85.60206083798116
 20
90.98398664276955
 30
0.0
 10
85.51566566880628
 20
90.93547771823894
 30
0.0
 10
85.47332569251456
 20
90.91354359551256
 30
0.0
 10
85.35935494614552
 20
90.85717380556792
 30
0.0
 10
85.30093622015531
 20
90.83081698103426
 30
0.0
 10
85.20102864896784
 20
90.77867715653014
 30
0.0
 10
85.15961465817249
 20
90.75351656681757
 30
0.0
 10
85.08758969029519
 20
90.69840972349053
 30
0.0
 10
85.05724114898223
 20
90.6685533199956
 30
0.0
 10
84.98374941895014
 20
90.57114661800293
 30
0.0
 10
84.95660333118445
 20
90.49481493419258
 30
0.0
 10
84.95660333118445
 20
90.40618852312245
 30
0.0
  0
SPLINE
  5
216
330
1F
100
AcDbEntity
  8
0
  6
Continuous
 62
     7
370
    15
100
AcDbSpline
210
0.0
220
0.0
230
1.0
 70
     8
 71
     3
 72
    22
 73
    18
 74
     0
 42
0.00000001
 43
0.00000001
 40
0.0
 40
0.0
 40
0.0
 40
0.0
 40
0.2500000000000044
 40
0.2500000000000044
 40
0.5000000000000088
 40
0.5000000000000088
 40
0.5625000000000103
 40
0.5625000000000103
 40
0.6250000000000119
 40
0.6250000000000119
 40
0.6875000000000134
 40
0.6875000000000134
 40
0.7500000000000115
 40
0.7500000000000115
 40
0.8750000000000058
 40
0.8750000000000058
 40
1.0
 40
1.0
 40
1.0
 40
1.0
 10
84.95660333118433
 20
50.47101025646723
 30
0.0
 10
84.95660333118431
 20
50.38103687144947
 30
0.0
 10
84.98810154953001
 20
50.30598882893435
 30
0.0
 10
85.09462897870655
 20
50.19296161522287
 30
0.0
 10
85.16778919784349
 20
50.1561480324301
 30
0.0
 10
85.2887176741678
 20
50.1205043561763
 30
0.0
 10
85.31456816197172
 20
50.11375414239015
 30
0.0
 10
85.37216271974599
 20
50.09868513367573
 30
0.0
 10
85.40410846026958
 20
50.09055211024906
 30
0.0
 10
85.47996550084181
 20
50.06526653566469
 30
0.0
 10
85.52717655148793
 20
50.04589131754756
 30
0.0
 10
85.62340254508689
 20
49.99013283889779
 30
0.0
 10
85.66782347501092
 20
49.95764769578685
 30
0.0
 10
85.78404448489671
 20
49.86873731416528
 30
0.0
 10
85.84919672430858
 20
49.81423923083709
 30
0.0
 10
85.97575116467445
 20
49.71561175178078
 30
0.0
 10
86.03642524164412
 20
49.67086755353262
 30
0.0
 10
86.09655840076657
 20
49.63024086439627
 30
0.0
  0
LINE
  5
217
330
1F
100
AcDbEntity
  8
0
  6
Continuous
 62
     7
370
    15
100
AcDbLine
 10
84.956603504
 20
50.4710098012
 30
0.0
 11
84.956603504
 21
90.406188856
 31
0.0
  0
SPLINE
  5
218
330
1F
100
AcDbEntity
  8
0
  6
Continuous
 62
     7
370
    15
100
AcDbSpline
210
0.0
220
0.0
230
1.0
 70
     8
 71
     3
 72
     8
 73
     4
 74
     0
 42
0.00000001
 43
0.00000001
 40
0.0
 40
0.0
 40
0.0
 40
0.0
 40
1.0
 40
1.0
 40
1.0
 40
1.0
 10
132.9466033311845
 20
98.23536220963815
 30
0.0
 10
132.4538932343387
 20
99.12338120776454
 30
0.0
 10
131.9598105290597
 20
100.0106438434505
 30
0.0
 10
131.4646704996954
 20
100.8973234916308
 30
0.0
  0
LINE
  5
219
330
1F
100
AcDbEntity
  8
0
  6
Continuous
 62
     7
370
    15
100
AcDbLine
 10
132.9466033795
 20
91.4802720054
 30
0.0
 11
132.9466033795
 21
98.2353613927
 31
0.0
  0
SPLINE
  5
21A
330
1F
100
AcDbEntity
  8
0
  6
Continuous
 62
     7
370
    15
100
AcDbSpline
210
0.0
220
0.0
230
1.0
 70
     8
 71
     3
 72
     8
 73
     4
 74
     0
 42
0.00000001
 43
0.00000001
 40
0.0
 40
0.0
 40
0.0
 40
0.0
 40
1.0
 40
1.0
 40
1.0
 40
1.0
 10
131.4646704996954
 20
94.88881768083392
 30
0.0
 10
131.9717573414547
 20
93.75766732667026
 30
0.0
 10
132.4673251805946
 20
92.62128291590244
 30
0.0
 10
132.9466033311845
 20
91.48027168604985
 30
0.0
  0
LINE
  5
21B
330
1F
100
AcDbEntity
  8
0
  6
Continuous
 62
     7
370
    15
100
AcDbLine
 10
142.2066040405
 20
100.8973234548
 30
0.0
 11
138.2485352524
 21
100.8973234548
 31
0.0
  0
LINE
  5
21C
330
1F
100
AcDbEntity
  8
0
  6
Continuous
 62
     7
370
    15
100
AcDbLine
 10
138.2485352524
 20
94.8888176336
 30
0.0
 11
142.2066040405
 21
94.8888176336
 31
0.0
  0
LINE
  5
21D
330
1F
100
AcDbEntity
  8
0
  6
Continuous
 62
     7
370
    15
100
AcDbLine
 10
138.2485352524
 20
94.8888176336
 30
0.0
 11
138.2485352524
 21
100.8973234548
 31
0.0
  0
SPLINE
  5
21E
330
1F
100
AcDbEntity
  8
0
  6
Continuous
 62
     7
370
    15
100
AcDbSpline
210
0.0
220
0.0
230
1.0
 70
     8
 71
     3
 72
    10
 73
     6
 74
     0
 42
0.00000001
 43
0.00000001
 40
0.0
 40
0.0
 40
0.0
 40
0.0
 40
0.5
 40
0.5
 40
1.0
 40
1.0
 40
1.0
 40
1.0
 10
142.8066033311845
 20
100.2765683422304
 30
0.0
 10
142.8066033311845
 20
100.4369736085812
 30
0.0
 10
142.7443655000776
 20
100.5960354215698
 30
0.0
 10
142.525230576335
 20
100.8269478872002
 30
0.0
 10
142.3676418813432
 20
100.8973234916308
 30
0.0
 10
142.2066033311845
 20
100.8973234916308
 30
0.0
  0
SPLINE
  5
21F
330
1F
100
AcDbEntity
  8
0
  6
Continuous
 62
     7
370
    15
100
AcDbSpline
210
0.0
220
0.0
230
1.0
 70
     8
 71
     3
 72
    12
 73
     8
 74
     0
 42
0.00000001
 43
0.00000001
 40
0.0
 40
0.0
 40
0.0
 40
0.0
 40
0.249999999999998
 40
0.249999999999998
 40
0.499999999999996
 40
0.499999999999996
 40
1.0
 40
1.0
 40
1.0
 40
1.0
 10
142.2066033311845
 20
94.88881768083394
 30
0.0
 10
142.2978030530101
 20
94.88881768083394
 30
0.0
 10
142.3883980621461
 20
94.86059798224605
 30
0.0
 10
142.5418107885928
 20
94.76615497499795
 30
0.0
 10
142.6070196559165
 20
94.69986799829262
 30
0.0
 10
142.7598041852564
 20
94.47424317500432
 30
0.0
 10
142.8066033311845
 20
94.29181691197176
 30
0.0
 10
142.8066033311845
 20
94.11108027972489
 30
0.0
  0
LINE
  5
220
330
1F
100
AcDbEntity
  8
0
  6
Continuous
 62
     7
370
    15
100
AcDbLine
 10
142.8066030212
 20
94.1110794648
 30
0.0
 11
142.8066030212
 21
100.2765690192
 31
0.0
  0
SPLINE
  5
221
330
1F
100
AcDbEntity
  8
0
  6
Continuous
 62
     7
370
    15
100
AcDbSpline
210
0.0
220
0.0
230
1.0
 70
     8
 71
     3
 72
     8
 73
     4
 74
     0
 42
0.00000001
 43
0.00000001
 40
0.0
 40
0.0
 40
0.0
 40
0.0
 40
1.0
 40
1.0
 40
1.0
 40
1.0
 10
138.2485361626735
 20
100.8973234916308
 30
0.0
 10
137.7533961333092
 20
100.0106438434505
 30
0.0
 10
137.2593134280302
 20
99.12338120776454
 30
0.0
 10
136.7666033311845
 20
98.23536220963815
 30
0.0
  0
SPLINE
  5
222
330
1F
100
AcDbEntity
  8
0
  6
Continuous
 62
     7
370
    15
100
AcDbSpline
210
0.0
220
0.0
230
1.0
 70
     8
 71
     3
 72
     8
 73
     4
 74
     0
 42
0.00000001
 43
0.00000001
 40
0.0
 40
0.0
 40
0.0
 40
0.0
 40
1.0
 40
1.0
 40
1.0
 40
1.0
 10
136.7666033311845
 20
91.48027168604983
 30
0.0
 10
137.2458814817743
 20
92.62128291590243
 30
0.0
 10
137.7414493209142
 20
93.75766732667026
 30
0.0
 10
138.2485361626735
 20
94.88881768083394
 30
0.0
  0
LINE
  5
223
330
1F
100
AcDbEntity
  8
0
  6
Continuous
 62
     7
370
    15
100
AcDbLine
 10
136.7666035958
 20
91.4802720054
 30
0.0
 11
136.7666035958
 21
98.2353613927
 31
0.0
  0
LINE
  5
224
330
1F
100
AcDbEntity
  8
0
  6
Continuous
 62
     7
370
    15
100
AcDbLine
 10
136.7666035958
 20
90.5659944966
 30
0.0
 11
136.7666035958
 21
91.4802720054
 31
0.0
  0
LINE
  5
225
330
1F
100
AcDbEntity
  8
0
  6
Continuous
 62
     7
370
    15
100
AcDbLine
 10
142.8066030212
 20
94.1110794648
 30
0.0
 11
142.8066030212
 21
90.2801287576
 31
0.0
  0
LINE
  5
226
330
1F
100
AcDbEntity
  8
0
  6
Continuous
 62
     7
370
    15
100
AcDbLine
 10
132.9466033795
 20
91.4802720054
 30
0.0
 11
132.9466033795
 21
90.5659944966
 31
0.0
  0
CIRCLE
  5
227
330
1F
100
AcDbEntity
  8
0
  6
HIDDEN
 62
     7
370
     0
100
AcDbCircle
 10
196.8566033312
 20
50.4301280185
 30
0.0
 40
4.999999999999996
  0
CIRCLE
  5
228
330
1F
100
AcDbEntity
  8
0
  6
HIDDEN
 62
     7
370
     0
100
AcDbCircle
 10
196.8566033312
 20
50.4301280185
 30
0.0
 40
3.499999999999992
  0
CIRCLE
  5
229
330
1F
100
AcDbEntity
  8
0
  6
HIDDEN
 62
     7
370
     0
100
AcDbCircle
 10
196.8566033312
 20
70.4301280185
 30
0.0
 40
5.000000000000017
  0
CIRCLE
  5
22A
330
1F
100
AcDbEntity
  8
0
  6
HIDDEN
 62
     7
370
     0
100
AcDbCircle
 10
196.8566033312
 20
70.4301280185
 30
0.0
 40
3.500000000000006
  0
CIRCLE
  5
22B
330
1F
100
AcDbEntity
  8
0
  6
HIDDEN
 62
     7
370
     0
100
AcDbCircle
 10
196.8566033312
 20
90.4301280185
 30
0.0
 40
4.999999999999996
  0
CIRCLE
  5
22C
330
1F
100
AcDbEntity
  8
0
  6
HIDDEN
 62
     7
370
     0
100
AcDbCircle
 10
196.8566033312
 20
90.4301280185
 30
0.0
 40
3.500000000000006
  0
LWPOLYLINE
  5
22D
330
1F
100
AcDbEntity
  8
0
  6
HIDDEN
 62
     7
370
     0
100
AcDbPolyline
 90
       30
 70
   128
 43
0.0
 10
185.4849293896
 20
94.9972124054
 10
185.3334516355
 20
94.9689821555
 10
185.0262492963
 20
94.935841973
 10
184.577694542
 20
94.8993434413
 10
184.0087458559
 20
94.8611908807
 10
183.3460241624
 20
94.823170568
 10
182.620501525
 20
94.7870576038
 10
181.8661153384
 20
94.7545432701
 10
181.1181292006
 20
94.7271456226
 10
180.4115310379
 20
94.7061461612
 10
179.7793418237
 20
94.6925302251
 10
179.2511403628
 20
94.6869292512
 10
178.8516178795
 20
94.6896077349
 10
178.5994529792
 20
94.7004408791
 10
178.5064362057
 20
94.7189220442
 10
178.5769224235
 20
94.7441851004
 10
178.8076110252
 20
94.7750509932
 10
179.1877172955
 20
94.8100761726
 10
179.6994715997
 20
94.8476215108
 10
180.3189352222
 20
94.8859342589
 10
181.0171514817
 20
94.9232188269
 10
181.7614719339
 20
94.9577355041
 10
182.5170874663
 20
94.9878675147
 10
183.2486674257
 20
95.0122085615
 10
183.9220061966
 20
95.0296187057
 10
184.5056250759
 20
95.0392839714
 10
184.9722176858
 20
95.0407535984
 10
185.299991078
 20
95.0339568063
 10
185.4735970565
 20
95.0192139699
 10
185.4849293896
 20
94.9972124054
  0
LWPOLYLINE
  5
22E
330
1F
100
AcDbEntity
  8
0
  6
HIDDEN
 62
     7
370
     0
100
AcDbPolyline
 90
       24
 70
   128
 43
0.0
 10
184.0347558328
 20
96.3421297475
 10
183.9045196839
 20
96.3202529802
 10
183.629004664
 20
96.2940697773
 10
183.2286477157
 20
96.2655228778
 10
182.7331319519
 20
96.2367301091
 10
182.1792110868
 20
96.2098260625
 10
181.6079750725
 20
96.1868056311
 10
181.0617804595
 20
96.1693768605
 10
180.5811360546
 20
96.1588324263
 10
180.2017003366
 20
96.1559546395
 10
179.9515992471
 20
96.1609558417
 10
179.8493921824
 20
96.1734653666
 10
179.9026489326
 20
96.1925556167
 10
180.1074355908
 20
96.2168109818
 10
180.4485529729
 20
96.2444321468
 10
180.900698907
 20
96.2733720644
 10
181.4303457805
 20
96.301483105
 10
181.9982141324
 20
96.326679106
 10
182.5621858307
 20
96.3470936968
 10
183.0804333158
 20
96.361212547
 10
183.514511592
 20
96.3679869874
 10
183.8322416016
 20
96.3669159665
 10
184.0100571581
 20
96.3580777152
 10
184.0347558328
 20
96.3421297475
  0
LWPOLYLINE
  5
22F
330
1F
100
AcDbEntity
  8
0
  6
HIDDEN
 62
     7
370
     0
100
AcDbPolyline
 90
       24
 70
   128
 43
0.0
 10
183.8062241741
 20
101.9053702458
 10
183.6759880253
 20
101.8834953411
 10
183.4004730054
 20
101.8573102756
 10
183.0001086064
 20
101.8287671014
 10
182.5045928427
 20
101.7999706074
 10
181.9506794282
 20
101.7730665608
 10
181.3794434138
 20
101.7500479921
 10
180.8332488008
 20
101.7326173588
 10
180.352604396
 20
101.7220747872
 10
179.9731612273
 20
101.7191951378
 10
179.7230675884
 20
101.7241982027
 10
179.6208530732
 20
101.7367077275
 10
179.6741172739
 20
101.755796115
 10
179.8789039322
 20
101.7800514801
 10
180.2200138637
 20
101.8076745077
 10
180.6721672483
 20
101.8366125627
 10
181.2018141218
 20
101.8647236033
 10
181.7696824738
 20
101.8899214669
 10
182.333654172
 20
101.9103360578
 10
182.8518942066
 20
101.924454908
 10
183.2859799334
 20
101.9312274857
 10
183.6037099429
 20
101.9301583274
 10
183.7815180489
 20
101.9213182136
 10
183.8062241741
 20
101.9053702458
  0
LWPOLYLINE
  5
230
330
1F
100
AcDbEntity
  8
0
  6
HIDDEN
 62
     7
370
     0
100
AcDbPolyline
 90
       30
 70
   128
 43
0.0
 10
178.4190557965
 20
45.8630436315
 10
178.275144107
 20
45.8912738814
 10
178.2942697474
 20
45.9244140639
 10
178.4755349227
 20
45.9609125956
 10
178.8104645976
 20
45.9990651562
 10
179.2833976515
 20
46.037085469
 10
179.8722207614
 20
46.0731984331
 10
180.5493965813
 20
46.1057127669
 10
181.2832713195
 20
46.1331104144
 10
182.0395276018
 20
46.1541098758
 10
182.7827900716
 20
46.1677258118
 10
183.478324122
 20
46.1733267858
 10
184.0935930677
 20
46.170648302
 10
184.599830217
 20
46.1598151579
 10
184.9733725258
 20
46.1413339927
 10
185.1967409321
 20
46.1160709365
 10
185.259504623
 20
46.0852050438
 10
185.1587206193
 20
46.0501798644
 10
184.8990976878
 20
46.0126345261
 10
184.4927877255
 20
45.974321778
 10
183.9587748118
 20
45.9370372101
 10
183.3220407434
 20
45.9025205328
 10
182.6123580404
 20
45.8723885222
 10
181.8629041382
 20
45.8480474754
 10
181.1087191173
 20
45.8306373312
 10
180.3850814768
 20
45.8209720655
 10
179.7258168527
 20
45.8195024385
 10
179.1617557474
 20
45.8262992307
 10
178.7192732163
 20
45.841042067
 10
178.4190557965
 20
45.8630436315
  0
LWPOLYLINE
  5
231
330
1F
100
AcDbEntity
  8
0
  6
HIDDEN
 62
     7
370
     0
100
AcDbPolyline
 90
       24
 70
   128
 43
0.0
 10
179.7933265635
 20
44.5181262895
 10
179.7004848786
 20
44.5400030567
 10
179.7632783719
 20
44.5661862596
 10
179.9770504304
 20
44.5947331592
 10
180.3259536692
 20
44.6235259279
 10
180.7841047712
 20
44.6504299744
 10
181.3175216385
 20
44.6734504058
 10
181.8866565891
 20
44.6908791765
 10
182.4492871829
 20
44.7014236107
 10
182.9636827179
 20
44.7043013974
 10
183.391703672
 20
44.6993001952
 10
183.7016031214
 20
44.6867906704
 10
183.8703960248
 20
44.6677004202
 10
183.8855654069
 20
44.6434450551
 10
183.7459787794
 20
44.6158238902
 10
183.4619924494
 20
44.5868839725
 10
183.0546766587
 20
44.5587729319
 10
182.5542286106
 20
44.533576931
 10
181.9977670976
 20
44.5131623401
 10
181.4265683361
 20
44.4990434899
 10
180.8829888769
 20
44.4922690495
 10
180.4073512622
 20
44.4933400705
 10
180.0349190899
 20
44.5021783217
 10
179.7933265635
 20
44.5181262895
  0
LWPOLYLINE
  5
232
330
1F
100
AcDbEntity
  8
0
  6
HIDDEN
 62
     7
370
     0
100
AcDbPolyline
 90
       24
 70
   128
 43
0.0
 10
179.9411386319
 20
38.9548857912
 10
179.8482894965
 20
38.9767606958
 10
179.9110904404
 20
39.0029457613
 10
180.1248624989
 20
39.0314889356
 10
180.4737657376
 20
39.0602854296
 10
180.9319168397
 20
39.0871894761
 10
181.465333707
 20
39.1102080449
 10
182.0344686576
 20
39.1276386782
 10
182.5970918008
 20
39.1381812497
 10
183.1114947864
 20
39.1410608991
 10
183.5395157405
 20
39.1360578342
 10
183.8494151898
 20
39.1235483094
 10
184.0182080933
 20
39.1044599219
 10
184.0333700248
 20
39.0802045568
 10
183.8937908479
 20
39.0525815292
 10
183.6098045178
 20
39.0236434742
 10
183.2024812766
 20
38.9955324336
 10
182.7020406791
 20
38.97033457
 10
182.145579166
 20
38.9499199792
 10
181.5743804046
 20
38.935801129
 10
181.0308009454
 20
38.9290285512
 10
180.5551558801
 20
38.9300977095
 10
180.1827311584
 20
38.9389378234
 10
179.9411386319
 20
38.9548857912
  0
LINE
  5
233
330
1F
100
AcDbEntity
  8
0
  6
HIDDEN
 62
     7
370
     0
100
AcDbLine
 10
187.3989686438
 20
92.4301278993
 30
0.0
 11
175.8566036888
 21
92.4301278993
 31
0.0
  0
LINE
  5
234
330
1F
100
AcDbEntity
  8
0
  6
HIDDEN
 62
     7
370
     0
100
AcDbLine
 10
187.8566056558
 20
92.4301278993
 30
0.0
 11
187.3989686438
 21
92.4301278993
 31
0.0
  0
LINE
  5
235
330
1F
100
AcDbEntity
  8
0
  6
HIDDEN
 62
     7
370
     0
100
AcDbLine
 10
185.0896537372
 20
94.8594139173
 30
0.0
 11
178.3566050299
 21
94.8594139173
 31
0.0
  0
LINE
  5
236
330
1F
100
AcDbEntity
  8
0
  6
HIDDEN
 62
     7
370
     0
100
AcDbLine
 10
185.3566005894
 20
94.8594139173
 30
0.0
 11
185.0896537372
 21
94.8594139173
 31
0.0
  0
LINE
  5
237
330
1F
100
AcDbEntity
  8
0
  6
HIDDEN
 62
     7
370
     0
100
AcDbLine
 10
175.8566036888
 20
48.4301281377
 30
0.0
 11
187.8566056558
 21
48.4301281377
 31
0.0
  0
LINE
  5
238
330
1F
100
AcDbEntity
  8
0
  6
HIDDEN
 62
     7
370
     0
100
AcDbLine
 10
178.3566050299
 20
46.0008421197
 30
0.0
 11
185.3566005894
 21
46.0008421197
 31
0.0
  0
LINE
  5
239
330
1F
100
AcDbEntity
  8
0
  6
HIDDEN
 62
     7
370
     0
100
AcDbLine
 10
131.4646707915
 20
94.8888176336
 30
0.0
 11
131.4646707915
 21
90.2801287576
 31
0.0
  0
SPLINE
  5
23A
330
1F
100
AcDbEntity
  8
0
  6
HIDDEN
 62
     7
370
     0
100
AcDbSpline
210
0.0
220
0.0
230
1.0
 70
     8
 71
     3
 72
    14
 73
    10
 74
     0
 42
0.00000001
 43
0.00000001
 40
0.0
 40
0.0
 40
0.0
 40
0.0
 40
0.25
 40
0.25
 40
0.5
 40
0.5
 40
0.75
 40
0.75
 40
1.0
 40
1.0
 40
1.0
 40
1.0
 10
162.4092931869101
 20
88.21368426619469
 30
0.0
 10
162.0497996871862
 20
85.25187417857825
 30
0.0
 10
161.7619624416684
 20
82.28964232724621
 30
0.0
 10
161.3708083545604
 20
76.3640925503514
 30
0.0
 10
161.2682986439493
 20
73.40076987407195
 30
0.0
 10
161.2679938275604
 20
67.47291958562397
 30
0.0
 10
161.3702066303192
 20
64.50839192690633
 30
0.0
 10
161.7612543344206
 20
58.57823816481211
 30
0.0
 10
162.0492856667799
 20
55.61261679118654
 30
0.0
 10
162.4092931869101
 20
52.64657177073871
 30
0.0
  0
LINE
  5
23B
330
1F
100
AcDbEntity
  8
0
  6
HIDDEN
 62
     7
370
     0
100
AcDbLine
 10
104.8517538302
 20
46.9055288686
 30
0.0
 11
104.6028886058
 21
46.8822662934
 31
0.0
  0
LINE
  5
23C
330
1F
100
AcDbEntity
  8
0
  6
HIDDEN
 62
     7
370
     0
100
AcDbLine
 10
104.4703278758
 20
93.9902142837
 30
0.0
 11
104.851660698
 21
93.9547104045
 31
0.0
  0
SPLINE
  5
23D
330
1F
100
AcDbEntity
  8
0
  6
HIDDEN
 62
     7
370
     0
100
AcDbSpline
210
0.0
220
0.0
230
1.0
 70
     8
 71
     3
 72
    10
 73
     6
 74
     0
 42
0.00000001
 43
0.00000001
 40
0.0
 40
0.0
 40
0.0
 40
0.0
 40
0.4476465074414259
 40
0.8952763541935643
 40
1.0
 40
1.0
 40
1.0
 40
1.0
 10
110.6116053716005
 20
90.26765648564492
 30
0.0
 10
110.8583071432263
 20
90.29716813205197
 30
0.0
 10
111.3517015046312
 20
90.35619032648961
 30
0.0
 10
111.640712915037
 20
90.37013170856855
 30
0.0
 10
111.5803780612552
 20
90.36624236249794
 30
0.0
 10
111.5689388544024
 20
90.36550496062432
 30
0.0
  0
SPLINE
  5
23E
330
1F
100
AcDbEntity
  8
0
  6
HIDDEN
 62
     7
370
     0
100
AcDbSpline
210
0.0
220
0.0
230
1.0
 70
     8
 71
     3
 72
    10
 73
     6
 74
     0
 42
0.00000001
 43
0.00000001
 40
0.0
 40
0.0
 40
0.0
 40
0.0
 40
0.3456084994778008
 40
0.7967385949994998
 40
1.0
 40
1.0
 40
1.0
 40
1.0
 10
111.5689323351444
 20
50.49475293895398
 30
0.0
 10
111.5593726017049
 20
50.49530771564792
 30
0.0
 10
111.5373343456995
 20
50.49658665411248
 30
0.0
 10
111.1203353543237
 20
50.52655029925148
 30
0.0
 10
110.7321729932902
 20
50.57694605827051
 30
0.0
 10
110.6116053716005
 20
50.59259955128822
 30
0.0
  0
SPLINE
  5
23F
330
1F
100
AcDbEntity
  8
0
  6
HIDDEN
 62
     7
370
     0
100
AcDbSpline
210
0.0
220
0.0
230
1.0
 70
     8
 71
     3
 72
    15
 73
    11
 74
     0
 42
0.00000001
 43
0.00000001
 40
0.0
 40
0.0
 40
0.0
 40
0.0
 40
0.0881329304077777
 40
0.2263166923928014
 40
0.3660237800421621
 40
0.5075711250672827
 40
0.6484052445049335
 40
0.7870090685820476
 40
0.9253753385331434
 40
1.0
 40
1.0
 40
1.0
 40
1.0
 10
104.1551785611273
 20
90.42109560510312
 30
0.0
 10
104.15239725503
 20
90.42156543183994
 30
0.0
 10
104.1452551346719
 20
90.42277190066588
 30
0.0
 10
104.6001069484093
 20
90.33994684656453
 30
0.0
 10
105.4148987781894
 20
90.21880848857545
 30
0.0
 10
106.5269161969837
 20
90.10787952660908
 30
0.0
 10
107.7868691652391
 20
90.06163040749216
 30
0.0
 10
109.0411264444124
 20
90.09892573763942
 30
0.0
 10
109.9971977807592
 20
90.18618979225049
 30
0.0
 10
110.4521913495396
 20
90.24651916011118
 30
0.0
 10
110.6116053716005
 20
90.26765648564492
 30
0.0
  0
SPLINE
  5
240
330
1F
100
AcDbEntity
  8
0
  6
HIDDEN
 62
     7
370
     0
100
AcDbSpline
210
0.0
220
0.0
230
1.0
 70
     8
 71
     3
 72
    15
 73
    11
 74
     0
 42
0.00000001
 43
0.00000001
 40
0.0
 40
0.0
 40
0.0
 40
0.0
 40
0.1077821373729256
 40
0.2493851279036714
 40
0.3893360772663201
 40
0.5274603381657968
 40
0.6664321818759075
 40
0.8075872121308214
 40
0.9488945828243944
 40
1.0
 40
1.0
 40
1.0
 40
1.0
 10
110.6116053716005
 20
50.59259955128822
 30
0.0
 10
110.3756613936004
 20
50.62330378830014
 30
0.0
 10
109.8297368038138
 20
50.69434691530654
 30
0.0
 10
108.7243110752159
 20
50.77904754287486
 30
0.0
 10
107.4514925731515
 20
50.79422220448154
 30
0.0
 10
106.2309198337151
 20
50.72883830080015
 30
0.0
 10
105.1833057637966
 20
50.61035672043835
 30
0.0
 10
104.4516671288002
 20
50.49466997871148
 30
0.0
 10
104.0940495988462
 20
50.4278106966435
 30
0.0
 10
104.1423498647335
 20
50.43677854440016
 30
0.0
 10
104.1551785611273
 20
50.43916043183003
 30
0.0
  0
LINE
  5
241
330
1F
100
AcDbEntity
  8
0
  6
HIDDEN
 62
     7
370
     0
100
AcDbLine
 10
97.8605788269
 20
53.4301270946
 30
0.0
 11
97.8605788269
 21
87.4301289423
 31
0.0
  0
LINE
  5
242
330
1F
100
AcDbEntity
  8
0
  6
HIDDEN
 62
     7
370
     0
100
AcDbLine
 10
124.5164292932
 20
53.4301270946
 30
0.0
 11
124.5164292932
 21
87.4301289423
 31
0.0
  0
LINE
  5
243
330
1F
100
AcDbEntity
  8
0
  6
HIDDEN
 62
     7
370
     0
100
AcDbLine
 10
126.8066031926
 20
54.7051281883
 30
0.0
 11
126.8066031926
 21
86.1551278486
 31
0.0
  0
LINE
  5
244
330
1F
100
AcDbEntity
  8
0
  6
HIDDEN
 62
     7
370
     0
100
AcDbLine
 10
175.8566036888
 20
92.4301278993
 30
0.0
 11
187.8566056558
 21
92.4301278993
 31
0.0
  0
SPLINE
  5
245
330
1F
100
AcDbEntity
  8
0
  6
HIDDEN
 62
     7
370
     0
100
AcDbSpline
210
0.0
220
0.0
230
1.0
 70
     8
 71
     3
 72
    18
 73
    14
 74
     0
 42
0.00000001
 43
0.00000001
 40
0.0
 40
0.0
 40
0.0
 40
0.0
 40
0.1249999999999995
 40
0.1249999999999995
 40
0.249999999999999
 40
0.249999999999999
 40
0.4999999999999996
 40
0.4999999999999996
 40
0.7500000000000001
 40
0.7500000000000001
 40
0.875
 40
0.875
 40
1.0
 40
1.0
 40
1.0
 40
1.0
 10
91.05660333118446
 20
86.71764164087068
 30
0.0
 10
91.05660333118446
 20
86.69067025877473
 30
0.0
 10
91.04770579972352
 20
86.66257720289622
 30
0.0
 10
91.01316619710825
 20
86.60671619476814
 30
0.0
 10
90.98762324211154
 20
86.57870187458099
 30
0.0
 10
90.8857274646261
 20
86.49473039613059
 30
0.0
 10
90.78652659960022
 20
86.44069757553453
 30
0.0
 10
90.52996549837513
 20
86.34444114135052
 30
0.0
 10
90.3772761207808
 20
86.30404595447352
 30
0.0
 10
90.11855819808522
 20
86.26125756352715
 30
0.0
 10
90.0296079263105
 20
86.25034336415182
 30
0.0
 10
89.8462811125633
 20
86.23549909731848
 30
0.0
 10
89.7507450451606
 20
86.23161845449822
 30
0.0
 10
89.65660333118447
 20
86.23161845449822
 30
0.0
  0
LINE
  5
246
330
1F
100
AcDbEntity
  8
0
  6
HIDDEN
 62
     7
370
     0
100
AcDbLine
 10
89.6566029706
 20
86.2316192343
 30
0.0
 11
86.1066024818
 21
86.2316192343
 31
0.0
  0
ELLIPSE
  5
247
330
1F
100
AcDbEntity
  8
0
  6
HIDDEN
 62
     7
370
     0
100
AcDbEllipse
 10
96.9665618946
 20
70.4301280185
 30
0.0
 11
29.44486372867088
 21
5.684341886080801E-14
 31
0.0
210
0.0
220
0.0
230
1.0
 40
0.5773502692
 41
4.33464598141226
 42
4.338282263332681
  0
LINE
  5
248
330
1F
100
AcDbEntity
  8
0
  6
HIDDEN
 62
     7
370
     0
100
AcDbLine
 10
86.2061962553
 20
54.6059423341
 30
0.0
 11
93.6566036262
 21
54.6059423341
 31
0.0
  0
SPLINE
  5
249
330
1F
100
AcDbEntity
  8
0
  6
HIDDEN
 62
     7
370
     0
100
AcDbSpline
210
0.0
220
0.0
230
1.0
 70
     8
 71
     3
 72
    18
 73
    14
 74
     0
 42
0.00000001
 43
0.00000001
 40
0.0
 40
0.0
 40
0.0
 40
0.0
 40
0.1250000000000004
 40
0.1250000000000004
 40
0.2500000000000008
 40
0.2500000000000008
 40
0.5000000000000011
 40
0.5000000000000011
 40
0.7500000000000014
 40
0.7500000000000014
 40
0.8750000000000007
 40
0.8750000000000007
 40
1.0
 40
1.0
 40
1.0
 40
1.0
 10
93.65660333118447
 20
54.60594261289197
 30
0.0
 10
93.75174543406627
 20
54.60594261289197
 30
0.0
 10
93.84509833550597
 20
54.60216552126393
 30
0.0
 10
94.028409709837
 20
54.58754428784896
 30
0.0
 10
94.11931612610364
 20
54.57649892201501
 30
0.0
 10
94.37622579982701
 20
54.53445174976868
 30
0.0
 10
94.53138237444699
 20
54.49381103112749
 30
0.0
 10
94.78525424920866
 20
54.39961108322427
 30
0.0
 10
94.88616188126286
 20
54.34539375407269
 30
0.0
 10
94.98751766716222
 20
54.26282486063682
 30
0.0
 10
95.0135852323172
 20
54.23457327151712
 30
0.0
 10
95.04795700045426
 20
54.17932239036659
 30
0.0
 10
95.05660333118448
 20
54.1521717911471
 30
0.0
 10
95.05660333118448
 20
54.1255322323086
 30
0.0
  0
LINE
  5
24A
330
1F
100
AcDbEntity
  8
0
  6
HIDDEN
 62
     7
370
     0
100
AcDbLine
 10
86.1066024818
 20
54.6286368026
 30
0.0
 11
86.1066024818
 21
86.2316192343
 31
0.0
  0
LINE
  5
24B
330
1F
100
AcDbEntity
  8
0
  6
HIDDEN
 62
     7
370
     0
100
AcDbLine
 10
187.8566056558
 20
48.4301281377
 30
0.0
 11
175.8566036888
 21
48.4301281377
 31
0.0
  0
SPLINE
  5
24C
330
1F
100
AcDbEntity
  8
0
  6
HIDDEN
 62
     7
370
     0
100
AcDbSpline
210
0.0
220
0.0
230
1.0
 70
     8
 71
     3
 72
    32
 73
    28
 74
     0
 42
0.00000001
 43
0.00000001
 40
0.0
 40
0.0
 40
0.0
 40
0.0
 40
0.1250000000000012
 40
0.1250000000000012
 40
0.1875000000000009
 40
0.1875000000000009
 40
0.2500000000000007
 40
0.2500000000000007
 40
0.3125000000000002
 40
0.3125000000000002
 40
0.3749999999999999
 40
0.3749999999999999
 40
0.4374999999999996
 40
0.4374999999999996
 40
0.4999999999999993
 40
0.4999999999999993
 40
0.6249999999999987
 40
0.6249999999999987
 40
0.687499999999999
 40
0.687499999999999
 40
0.7499999999999992
 40
0.7499999999999992
 40
0.8124999999999994
 40
0.8124999999999994
 40
0.8749999999999997
 40
0.8749999999999997
 40
1.0
 40
1.0
 40
1.0
 40
1.0
 10
174.9566033311845
 20
72.8726976554717
 30
0.0
 10
175.0895322466086
 20
72.67654906524454
 30
0.0
 10
175.223568225077
 20
72.50146030692014
 30
0.0
 10
175.4300162400134
 20
72.28227330291449
 30
0.0
 10
175.5005038166967
 20
72.2160604499705
 30
0.0
 10
175.6394019782277
 20
72.10663592972477
 30
0.0
 10
175.7078449529679
 20
72.06320682619852
 30
0.0
 10
175.841356031209
 20
72.00279119791142
 30
0.0
 10
175.9058857122243
 20
71.98651412874014
 30
0.0
 10
176.0218151604866
 20
71.98297279046048
 30
0.0
 10
176.0744244098509
 20
71.9954744686993
 30
0.0
 10
176.1618739134061
 20
72.0447467099749
 30
0.0
 10
176.1959694910658
 20
72.08065108534176
 30
0.0
 10
176.2424893883864
 20
72.16864341542288
 30
0.0
 10
176.25459092981
 20
72.22084304322853
 30
0.0
 10
176.2549609808072
 20
72.39145432650493
 30
0.0
 10
176.2060077747531
 20
72.52662361049127
 30
0.0
 10
176.0772203418532
 20
72.7659425931811
 30
0.0
 10
176.0243868149213
 20
72.85416366506455
 30
0.0
 10
175.9079691620688
 20
73.04287212595885
 30
0.0
 10
175.8447648075457
 20
73.14297436111313
 30
0.0
 10
175.7115827390446
 20
73.35580929000483
 30
0.0
 10
175.6419262432907
 20
73.46799390956514
 30
0.0
 10
175.5037520231544
 20
73.69377456954884
 30
0.0
 10
175.4343721716368
 20
73.80866132494455
 30
0.0
 10
175.2254385631365
 20
74.1583344615078
 30
0.0
 10
175.0898442904738
 20
74.39000573701503
 30
0.0
 10
174.9566033311845
 20
74.6175272112242
 30
0.0
  0
SPLINE
  5
24D
330
1F
100
AcDbEntity
  8
0
  6
HIDDEN
 62
     7
370
     0
100
AcDbSpline
210
0.0
220
0.0
230
1.0
 70
     8
 71
     3
 72
    38
 73
    34
 74
     0
 42
0.00000001
 43
0.00000001
 40
0.0
 40
0.0
 40
0.0
 40
0.0
 40
0.0625
 40
0.0625
 40
0.125
 40
0.125
 40
0.1875
 40
0.1875
 40
0.25
 40
0.25
 40
0.3125
 40
0.3125
 40
0.375
 40
0.375
 40
0.4375
 40
0.4375
 40
0.5
 40
0.5
 40
0.5625
 40
0.5625
 40
0.625
 40
0.625
 40
0.6875
 40
0.6875
 40
0.75
 40
0.75
 40
0.8125
 40
0.8125
 40
0.875
 40
0.875
 40
0.9375
 40
0.9375
 40
1.0
 40
1.0
 40
1.0
 40
1.0
 10
174.9566033311845
 20
72.8726976554717
 30
0.0
 10
174.8045074047974
 20
72.84808215300401
 30
0.0
 10
174.6503658454878
 20
72.83627407347599
 30
0.0
 10
174.337306167954
 20
72.84320356235486
 30
0.0
 10
174.1834579263451
 20
72.86206508063631
 30
0.0
 10
173.8860907553953
 20
72.92931330519033
 30
0.0
 10
173.7399282334148
 20
72.97876947986448
 30
0.0
 10
173.4706256617962
 20
73.09987008528374
 30
0.0
 10
173.345862600913
 20
73.17158899146355
 30
0.0
 10
173.1175032112152
 20
73.33053595159609
 30
0.0
 10
173.0171428175243
 20
73.41531832489582
 30
0.0
 10
172.8411952956897
 20
73.5901007363705
 30
0.0
 10
172.7659296098902
 20
73.68025493524875
 30
0.0
 10
172.6461172587763
 20
73.85357272556432
 30
0.0
 10
172.6001497995546
 20
73.93852367515072
 30
0.0
 10
172.5386346107479
 20
74.09767573510787
 30
0.0
 10
172.5234044288378
 20
74.1704365967231
 30
0.0
 10
172.5232300678041
 20
74.30168756362052
 30
0.0
 10
172.5388449532483
 20
74.36012254770493
 30
0.0
 10
172.5997750455676
 20
74.45736919839959
 30
0.0
 10
172.6454085145554
 20
74.49735029025138
 30
0.0
 10
172.7662952099973
 20
74.56025247322695
 30
0.0
 10
172.8401211260656
 20
74.58271628912371
 30
0.0
 10
173.0156127727396
 20
74.61414177793108
 30
0.0
 10
173.1180127700664
 20
74.62292705715365
 30
0.0
 10
173.3432401927753
 20
74.63109140259996
 30
0.0
 10
173.4680842276336
 20
74.63068064519632
 30
0.0
 10
173.739250814008
 20
74.62637796918524
 30
0.0
 10
173.8816583254732
 20
74.6226615313151
 30
0.0
 10
174.1803066465219
 20
74.61673826305514
 30
0.0
 10
174.3370246214788
 20
74.61457787915302
 30
0.0
 10
174.6504124296189
 20
74.61383955870559
 30
0.0
 10
174.8053362864722
 20
74.61519782681064
 30
0.0
 10
174.9566033311845
 20
74.6175272112242
 30
0.0
  0
SPLINE
  5
24E
330
1F
100
AcDbEntity
  8
0
  6
HIDDEN
 62
     7
370
     0
100
AcDbSpline
210
0.0
220
0.0
230
1.0
 70
     8
 71
     3
 72
    32
 73
    28
 74
     0
 42
0.00000001
 43
0.00000001
 40
0.0
 40
0.0
 40
0.0
 40
0.0
 40
0.1250000000000018
 40
0.1250000000000018
 40
0.1875000000000019
 40
0.1875000000000019
 40
0.250000000000002
 40
0.250000000000002
 40
0.3125000000000021
 40
0.3125000000000021
 40
0.3750000000000022
 40
0.3750000000000022
 40
0.4375000000000022
 40
0.4375000000000022
 40
0.5000000000000023
 40
0.5000000000000023
 40
0.6250000000000024
 40
0.6250000000000024
 40
0.6875000000000021
 40
0.6875000000000021
 40
0.7500000000000017
 40
0.7500000000000017
 40
0.8125000000000012
 40
0.8125000000000012
 40
0.8750000000000008
 40
0.8750000000000008
 40
1.0
 40
1.0
 40
1.0
 40
1.0
 10
174.9566033311845
 20
66.24272882570897
 30
0.0
 10
175.0895322466086
 20
66.46971745565895
 30
0.0
 10
175.223568225077
 20
66.6987112387966
 30
0.0
 10
175.4300162400134
 20
67.04434312497499
 30
0.0
 10
175.5005038166968
 20
67.16113179765847
 30
0.0
 10
175.6394019782277
 20
67.38817770196691
 30
0.0
 10
175.7078449529679
 20
67.49844767739273
 30
0.0
 10
175.841356031209
 20
67.71185866676693
 30
0.0
 10
175.9058857122243
 20
67.81407582623733
 30
0.0
 10
176.0218151604867
 20
68.00185744890213
 30
0.0
 10
176.074424409851
 20
68.08943096617645
 30
0.0
 10
176.1618739134061
 20
68.25132177863397
 30
0.0
 10
176.1959694910658
 20
68.32436197961134
 30
0.0
 10
176.2424893883864
 20
68.46058821412323
 30
0.0
 10
176.25459092981
 20
68.52375273758848
 30
0.0
 10
176.2549609808072
 20
68.69471441931042
 30
0.0
 10
176.2060077747531
 20
68.78961121813691
 30
0.0
 10
176.0772203418532
 20
68.86370421300556
 30
0.0
 10
176.0243868149213
 20
68.87698086034732
 30
0.0
 10
175.9079691620688
 20
68.87417157823111
 30
0.0
 10
175.8447648075457
 20
68.85854997305483
 30
0.0
 10
175.7115827390446
 20
68.79917411473996
 30
0.0
 10
175.6419262432907
 20
68.75531290620364
 30
0.0
 10
175.5037520231544
 20
68.64703826402227
 30
0.0
 10
175.4343721716368
 20
68.58230716309289
 30
0.0
 10
175.2254385631365
 20
68.36135981449983
 30
0.0
 10
175.0898442904738
 20
68.18416742052374
 30
0.0
 10
174.9566033311845
 20
67.98755838146144
 30
0.0
  0
SPLINE
  5
24F
330
1F
100
AcDbEntity
  8
0
  6
HIDDEN
 62
     7
370
     0
100
AcDbSpline
210
0.0
220
0.0
230
1.0
 70
     8
 71
     3
 72
    38
 73
    34
 74
     0
 42
0.00000001
 43
0.00000001
 40
0.0
 40
0.0
 40
0.0
 40
0.0
 40
0.0625
 40
0.0625
 40
0.125
 40
0.125
 40
0.1875
 40
0.1875
 40
0.25
 40
0.25
 40
0.3125
 40
0.3125
 40
0.375
 40
0.375
 40
0.4375
 40
0.4375
 40
0.5
 40
0.5
 40
0.5625
 40
0.5625
 40
0.625
 40
0.625
 40
0.6875
 40
0.6875
 40
0.75
 40
0.75
 40
0.8125
 40
0.8125
 40
0.875
 40
0.875
 40
0.9375
 40
0.9375
 40
1.0
 40
1.0
 40
1.0
 40
1.0
 10
174.9566033311845
 20
66.24272882570897
 30
0.0
 10
174.8028307589403
 20
66.24509679312513
 30
0.0
 10
174.6484293023183
 20
66.24641441641697
 30
0.0
 10
174.3382441804175
 20
66.24567841424215
 30
0.0
 10
174.1814487429102
 20
66.24353476127905
 30
0.0
 10
173.883706720577
 20
66.23764073680873
 30
0.0
 10
173.7393030860364
 20
66.23388075242065
 30
0.0
 10
173.4685150505869
 20
66.2295803757748
 30
0.0
 10
173.344538726807
 20
66.22912691155469
 30
0.0
 10
173.1173507419202
 20
66.23734365579857
 30
0.0
 10
173.0157131134402
 20
66.24611538646975
 30
0.0
 10
172.8405605927595
 20
66.27744201518975
 30
0.0
 10
172.765263971221
 20
66.30044309217777
 30
0.0
 10
172.6453359343708
 20
66.36304147619519
 30
0.0
 10
172.6000520618241
 20
66.40245519318478
 30
0.0
 10
172.5385969994452
 20
66.50051875479751
 30
0.0
 10
172.5232925570678
 20
66.55842970823885
 30
0.0
 10
172.5233412555125
 20
66.68915400149356
 30
0.0
 10
172.5389295545751
 20
66.76349403577453
 30
0.0
 10
172.6002687683005
 20
66.92188848102346
 30
0.0
 10
172.6455133262339
 20
67.00578842204331
 30
0.0
 10
172.7663284291162
 20
67.18059924275643
 30
0.0
 10
172.8411035732392
 20
67.26999963185091
 30
0.0
 10
173.0161117032321
 20
67.44397756659626
 30
0.0
 10
173.1184543660124
 20
67.53037123772089
 30
0.0
 10
173.3446635175284
 20
67.68784331328105
 30
0.0
 10
173.4682191787932
 20
67.75915369186737
 30
0.0
 10
173.7385047431875
 20
67.88099443391533
 30
0.0
 10
173.8833151455538
 20
67.93012591784247
 30
0.0
 10
174.1809493509353
 20
67.99780944826708
 30
0.0
 10
174.3375918627453
 20
68.01699903902893
 30
0.0
 10
174.648241134045
 20
68.02399434017137
 30
0.0
 10
174.8027789414482
 20
68.01245362182118
 30
0.0
 10
174.9566033311845
 20
67.98755838146144
 30
0.0
  0
LINE
  5
250
330
1F
100
AcDbEntity
  8
0
  6
HIDDEN
 62
     7
370
     0
100
AcDbLine
 10
86.2061962553
 20
52.4401274725
 30
0.0
 11
86.2061962553
 21
49.5605954184
 31
0.0
  0
LINE
  5
251
330
1F
100
AcDbEntity
  8
0
  6
HIDDEN
 62
     7
370
     0
100
AcDbLine
 10
95.0566031106
 20
52.4401274725
 30
0.0
 11
95.0566031106
 21
48.4558121516
 31
0.0
  0
LINE
  5
252
330
1F
100
AcDbEntity
  8
0
  6
HIDDEN
 62
     7
370
     0
100
AcDbLine
 10
91.056602455
 20
88.4201285644
 30
0.0
 11
91.056602455
 21
92.2742356761
 31
0.0
  0
LINE
  5
253
330
1F
100
AcDbEntity
  8
0
  6
HIDDEN
 62
     7
370
     0
100
AcDbLine
 10
86.1066024818
 20
88.4201285644
 30
0.0
 11
86.1066024818
 21
91.3000666752
 31
0.0
  0
LINE
  5
254
330
1F
100
AcDbEntity
  8
0
  6
HIDDEN
 62
     7
370
     0
100
AcDbLine
 10
136.1566040733
 20
60.9301283239
 30
0.0
 11
136.1566040733
 21
79.930127713
 31
0.0
  0
LINE
  5
255
330
1F
100
AcDbEntity
  8
0
  6
HIDDEN
 62
     7
370
     0
100
AcDbLine
 10
138.6566035517
 20
60.9301283239
 30
0.0
 11
138.6566035517
 21
79.930127713
 31
0.0
  0
LINE
  5
256
330
1F
100
AcDbEntity
  8
0
  6
HIDDEN
 62
     7
370
     0
100
AcDbLine
 10
127.3066032746
 20
61.9301275565
 30
0.0
 11
127.3066032746
 21
78.9301284804
 31
0.0
  0
LINE
  5
257
330
1F
100
AcDbEntity
  8
0
  6
HIDDEN
 62
     7
370
     0
100
AcDbLine
 10
142.8066030212
 20
44.0301281615
 30
0.0
 11
136.6689283468
 21
44.0301281615
 31
0.0
  0
LINE
  5
258
330
1F
100
AcDbEntity
  8
0
  6
HIDDEN
 62
     7
370
     0
100
AcDbLine
 10
121.8066033044
 20
38.9460046991
 30
0.0
 11
121.8066033044
 21
44.0301281615
 31
0.0
  0
LINE
  5
259
330
1F
100
AcDbEntity
  8
0
  6
HIDDEN
 62
     7
370
     0
100
AcDbLine
 10
129.8066036843
 20
44.0301281615
 30
0.0
 11
121.8066033044
 21
44.0301281615
 31
0.0
  0
LINE
  5
25A
330
1F
100
AcDbEntity
  8
0
  6
HIDDEN
 62
     7
370
     0
100
AcDbLine
 10
133.0442786284
 20
44.0301281615
 30
0.0
 11
129.8066036843
 21
44.0301281615
 31
0.0
  0
LINE
  5
25B
330
1F
100
AcDbEntity
  8
0
  6
HIDDEN
 62
     7
370
     0
100
AcDbLine
 10
133.3409011432
 20
96.8301278754
 30
0.0
 11
129.8066036843
 21
96.8301278754
 31
0.0
  0
LINE
  5
25C
330
1F
100
AcDbEntity
  8
0
  6
HIDDEN
 62
     7
370
     0
100
AcDbLine
 10
142.8066030212
 20
96.8301278754
 30
0.0
 11
136.3723058321
 21
96.8301278754
 31
0.0
  0
LINE
  5
25D
330
1F
100
AcDbEntity
  8
0
  6
HIDDEN
 62
     7
370
     0
100
AcDbLine
 10
129.8066036843
 20
96.8301278754
 30
0.0
 11
121.8066033044
 21
96.8301278754
 31
0.0
  0
SPLINE
  5
25E
330
1F
100
AcDbEntity
  8
0
  6
HIDDEN
 62
     7
370
     0
100
AcDbSpline
210
0.0
220
0.0
230
1.0
 70
     8
 71
     3
 72
     8
 73
     4
 74
     0
 42
0.00000001
 43
0.00000001
 40
0.0000002438860713
 40
0.0000002438860713
 40
0.0000002438860713
 40
0.0000002438860713
 40
0.0014006025853533
 40
0.0014006025853533
 40
0.0014006025853533
 40
0.0014006025853533
 10
86.10660333118446
 20
86.23161845449823
 30
0.0
 10
85.72381625861952
 20
86.38168998247397
 30
0.0
 10
85.3404628586634
 20
86.5298471843914
 30
0.0
 10
84.95660333118445
 20
86.67622069619465
 30
0.0
  0
SPLINE
  5
25F
330
1F
100
AcDbEntity
  8
0
  6
HIDDEN
 62
     7
370
     0
100
AcDbSpline
210
0.0
220
0.0
230
1.0
 70
     8
 71
     3
 72
     8
 73
     4
 74
     0
 42
0.00000001
 43
0.00000001
 40
0.0000002432046719
 40
0.0000002432046719
 40
0.0000002432046719
 40
0.0000002432046719
 40
0.0014006019039539
 40
0.0014006019039539
 40
0.0014006019039539
 40
0.0014006019039539
 10
84.95660333118445
 20
54.18403534073847
 30
0.0
 10
85.34046285866341
 20
54.33040885254171
 30
0.0
 10
85.72381625861954
 20
54.47856605445914
 30
0.0
 10
86.10660333118447
 20
54.6286375824349
 30
0.0
  0
LINE
  5
260
330
1F
100
AcDbEntity
  8
0
  6
HIDDEN
 62
     7
370
     0
100
AcDbLine
 10
86.1066024818
 20
88.4201285644
 30
0.0
 11
86.1066024818
 21
86.2316192343
 31
0.0
  0
LINE
  5
261
330
1F
100
AcDbEntity
  8
0
  6
HIDDEN
 62
     7
370
     0
100
AcDbLine
 10
91.056602455
 20
88.4201285644
 30
0.0
 11
91.056602455
 21
86.7176410957
 31
0.0
  0
LINE
  5
262
330
1F
100
AcDbEntity
  8
0
  6
HIDDEN
 62
     7
370
     0
100
AcDbLine
 10
95.0566031106
 20
52.4401274725
 30
0.0
 11
95.0566031106
 21
54.1255326225
 31
0.0
  0
LINE
  5
263
330
1F
100
AcDbEntity
  8
0
  6
HIDDEN
 62
     7
370
     0
100
AcDbLine
 10
86.2061962553
 20
52.4401274725
 30
0.0
 11
86.2061962553
 21
54.6059423341
 31
0.0
  0
SPLINE
  5
264
330
1F
100
AcDbEntity
  8
0
  6
HIDDEN
 62
     7
370
     0
100
AcDbSpline
210
0.0
220
0.0
230
1.0
 70
     8
 71
     3
 72
    20
 73
    16
 74
     0
 42
0.00000001
 43
0.00000001
 40
0.0
 40
0.0
 40
0.0
 40
0.0
 40
0.1118851970192692
 40
0.1774044347226778
 40
0.2490260320203622
 40
0.3297745385670669
 40
0.3985469649987955
 40
0.4998267683769816
 40
0.6137919775805225
 40
0.6789579234362286
 40
0.7494844737943176
 40
0.8296304953969975
 40
0.8980742132468661
 40
0.9994846753259629
 40
1.0
 40
1.0
 40
1.0
 40
1.0
 10
111.6052851148606
 20
46.8301774217764
 30
0.0
 10
111.5619835025658
 20
46.84359790975287
 30
0.0
 10
111.4933247500552
 20
46.86487734748543
 30
0.0
 10
111.0482603854768
 20
46.96816531723889
 30
0.0
 10
110.5217077299042
 20
47.08146426634377
 30
0.0
 10
109.8362809328313
 20
47.20439930522734
 30
0.0
 10
108.9429642171507
 20
47.32643389071787
 30
0.0
 10
107.8296044328377
 20
47.44416957258635
 30
0.0
 10
106.7188301927675
 20
47.4561434073665
 30
0.0
 10
105.8340822993277
 20
47.42908793224895
 30
0.0
 10
105.1668846045602
 20
47.38115464152892
 30
0.0
 10
104.6256159580275
 20
47.32485845008294
 30
0.0
 10
104.2380213280903
 20
47.27978326712191
 30
0.0
 10
104.0440797945125
 20
47.2408798239754
 30
0.0
 10
104.107257383307
 20
47.25162108605036
 30
0.0
 10
104.1075768016935
 20
47.25167539259587
 30
0.0
  0
LINE
  5
265
330
1F
100
AcDbEntity
  8
0
  6
HIDDEN
 62
     7
370
     0
100
AcDbLine
 10
105.0166156211
 20
47.3624655261
 30
0.0
 11
105.2004605599
 21
47.3806561186
 31
0.0
  0
SPLINE
  5
266
330
1F
100
AcDbEntity
  8
0
  6
HIDDEN
 62
     7
370
     0
100
AcDbSpline
210
0.0
220
0.0
230
1.0
 70
     8
 71
     3
 72
    27
 73
    23
 74
     0
 42
0.00000001
 43
0.00000001
 40
0.0
 40
0.0
 40
0.0
 40
0.0
 40
0.0007961154933526
 40
0.0456784988163764
 40
0.1022600021480849
 40
0.1705378959666165
 40
0.2091294428266397
 40
0.2506565632994865
 40
0.3211021204586733
 40
0.3861956860212307
 40
0.4266747420471059
 40
0.4648058948672465
 40
0.500610056279555
 40
0.5452017586660373
 40
0.601695848602317
 40
0.6701015876849795
 40
0.7088388446876698
 40
0.7505674609417894
 40
0.8222318494179127
 40
0.8877710726457024
 40
0.9472446620840245
 40
1.0
 40
1.0
 40
1.0
 40
1.0
 10
104.1072620146633
 20
93.60854525407944
 30
0.0
 10
104.1070430766401
 20
93.60859200447892
 30
0.0
 10
104.0944811301406
 20
93.6112743892395
 30
0.0
 10
104.1435680815339
 20
93.59947757926568
 30
0.0
 10
104.2886647831258
 20
93.57601984426933
 30
0.0
 10
104.5617192120133
 20
93.54211750009704
 30
0.0
 10
104.890244707229
 20
93.50854881045125
 30
0.0
 10
105.2829727590463
 20
93.47036606845793
 30
0.0
 10
105.8327005372767
 20
93.43139785814155
 30
0.0
 10
106.4587231740049
 20
93.41193626306824
 30
0.0
 10
107.0019150136537
 20
93.40975110162547
 30
0.0
 10
107.4469837631237
 20
93.41826582399672
 30
0.0
 10
107.9134316175977
 20
93.4380493738888
 30
0.0
 10
108.4506725431398
 20
93.4822092557235
 30
0.0
 10
109.0988855130765
 20
93.55462909085128
 30
0.0
 10
109.6844246566202
 20
93.63552675030651
 30
0.0
 10
110.1653938039669
 20
93.71369610866945
 30
0.0
 10
110.610808872749
 20
93.79846667963047
 30
0.0
 10
111.0493085043141
 20
93.89225136418108
 30
0.0
 10
111.388334936769
 20
93.9701539163515
 30
0.0
 10
111.5756870133889
 20
94.0203482186028
 30
0.0
 10
111.5961775049225
 20
94.02701537311923
 30
0.0
 10
111.6058094494701
 20
94.03014939567242
 30
0.0
  0
LINE
  5
267
330
1F
100
AcDbEntity
  8
0
  6
HIDDEN
 62
     7
370
     0
100
AcDbLine
 10
174.956603355
 20
66.2427289627
 30
0.0
 11
174.956603355
 21
67.9875583137
 31
0.0
  0
LINE
  5
268
330
1F
100
AcDbEntity
  8
0
  6
HIDDEN
 62
     7
370
     0
100
AcDbLine
 10
174.956603355
 20
72.8726977232
 30
0.0
 11
174.956603355
 21
74.6175270743
 31
0.0
  0
LINE
  5
269
330
1F
100
AcDbEntity
  8
0
  6
HIDDEN
 62
     7
370
     0
100
AcDbLine
 10
174.956603355
 20
72.8726977232
 30
0.0
 11
174.956603355
 21
67.9875583137
 31
0.0
  0
LINE
  5
26A
330
1F
100
AcDbEntity
  8
0
  6
HIDDEN
 62
     7
370
     0
100
AcDbLine
 10
186.8566036292
 20
100.4301273479
 30
0.0
 11
186.8566036292
 21
40.430128689
 31
0.0
  0
LINE
  5
26B
330
1F
100
AcDbEntity
  8
0
  6
HIDDEN
 62
     7
370
     0
100
AcDbLine
 10
132.9466033795
 20
90.6128605112
 30
0.0
 11
132.9466033795
 21
90.2801287576
 31
0.0
  0
LINE
  5
26C
330
1F
100
AcDbEntity
  8
0
  6
HIDDEN
 62
     7
370
     0
100
AcDbLine
 10
136.7666035958
 20
90.6128605112
 30
0.0
 11
136.7666035958
 21
90.2801287576
 31
0.0
  0
LINE
  5
26D
330
1F
100
AcDbEntity
  8
0
  6
HIDDEN
 62
     7
370
     0
100
AcDbLine
 10
138.2485352524
 20
94.8888176336
 30
0.0
 11
138.2485352524
 21
90.2801287576
 31
0.0
  0
CIRCLE
  5
26E
330
1F
100
AcDbEntity
  8
0
  6
HIDDEN
 62
     7
370
     0
100
AcDbCircle
 10
123.8566033312
 20
70.4301280185
 30
0.0
 40
4.999999999999986
  0
LINE
  5
26F
330
1F
100
AcDbEntity
  8
0
  6
HIDDEN
 62
     7
370
     0
100
AcDbLine
 10
163.3752197095
 20
51.0652103676
 30
0.0
 11
206.8566069075
 21
51.0652103676
 31
0.0
  0
LINE
  5
270
330
1F
100
AcDbEntity
  8
0
  6
HIDDEN
 62
     7
370
     0
100
AcDbLine
 10
206.8566069075
 20
89.7950456693
 30
0.0
 11
163.3752197095
 21
89.7950456693
 31
0.0
  0
SPLINE
  5
271
330
1F
100
AcDbEntity
  8
0
  6
HIDDEN
 62
     7
370
     0
100
AcDbSpline
210
0.0
220
0.0
230
1.0
 70
     8
 71
     3
 72
    16
 73
    12
 74
     0
 42
0.00000001
 43
0.00000001
 40
0.0
 40
0.0
 40
0.0
 40
0.0
 40
0.1249999999999986
 40
0.1249999999999986
 40
0.2499999999999972
 40
0.2499999999999972
 40
0.4999999999999981
 40
0.4999999999999981
 40
0.749999999999999
 40
0.749999999999999
 40
1.0
 40
1.0
 40
1.0
 40
1.0
 10
163.3752190131991
 20
89.79504474950379
 30
0.0
 10
163.2905513587112
 20
89.79504474950379
 30
0.0
 10
163.2080640850342
 20
89.77211317328378
 30
0.0
 10
163.059705040275
 20
89.69571901077737
 30
0.0
 10
162.9932981465874
 20
89.64276479930852
 30
0.0
 10
162.8186591414044
 20
89.46444827178985
 30
0.0
 10
162.731305574221
 20
89.31902128210986
 30
0.0
 10
162.5922321906878
 20
89.01901791268423
 30
0.0
 10
162.5397399047563
 20
88.86114220361199
 30
0.0
 10
162.457857583893
 20
88.53909486446946
 30
0.0
 10
162.4290966262869
 20
88.37684167115799
 30
0.0
 10
162.40929318691
 20
88.21368426619469
 30
0.0
  0
SPLINE
  5
272
330
1F
100
AcDbEntity
  8
0
  6
HIDDEN
 62
     7
370
     0
100
AcDbSpline
210
0.0
220
0.0
230
1.0
 70
     8
 71
     3
 72
    18
 73
    14
 74
     0
 42
0.00000001
 43
0.00000001
 40
0.0
 40
0.0
 40
0.0
 40
0.0
 40
0.2500000000000024
 40
0.2500000000000024
 40
0.5000000000000049
 40
0.5000000000000049
 40
0.6250000000000037
 40
0.6250000000000037
 40
0.7500000000000024
 40
0.7500000000000024
 40
0.8750000000000012
 40
0.8750000000000012
 40
1.0
 40
1.0
 40
1.0
 40
1.0
 10
162.4092931869098
 20
52.6465717707387
 30
0.0
 10
162.4290282434724
 20
52.4839777609679
 30
0.0
 10
162.4576556265629
 20
52.32235021051495
 30
0.0
 10
162.5389803406759
 20
52.00171114326301
 30
0.0
 10
162.5918513343456
 20
51.84238107431221
 30
0.0
 10
162.6956381475139
 20
51.61801688175878
 30
0.0
 10
162.7344377939567
 20
51.54531162171796
 30
0.0
 10
162.8239413451838
 20
51.40579881585654
 30
0.0
 10
162.8752853643611
 20
51.338211550655
 30
0.0
 10
162.9923116216038
 20
51.21828093778402
 30
0.0
 10
163.0591921790581
 20
51.16493614947602
 30
0.0
 10
163.2069803752791
 20
51.08856730956112
 30
0.0
 10
163.2908859421685
 20
51.06521128742961
 30
0.0
 10
163.3752190131992
 20
51.06521128742962
 30
0.0
  0
ARC
  5
273
330
1F
100
AcDbEntity
  8
0
  6
HIDDEN
 62
     7
370
     0
100
AcDbCircle
 10
181.8566033312
 20
98.4301280185
 30
0.0
 40
4.999999999999995
100
AcDbArc
 50
316.7536127456
 51
2.3523478895
  0
ARC
  5
274
330
1F
100
AcDbEntity
  8
0
  6
HIDDEN
 62
     7
370
     0
100
AcDbCircle
 10
181.8566033312
 20
98.4301280185
 30
0.0
 40
5.000000000000025
100
AcDbArc
 50
156.4218215218
 51
227.9510830334
  0
ARC
  5
275
330
1F
100
AcDbEntity
  8
0
  6
HIDDEN
 62
     7
370
     0
100
AcDbCircle
 10
181.8566033312
 20
98.4301280185
 30
0.0
 40
4.999999999999995
100
AcDbArc
 50
2.3523478895
 51
23.5781784782
  0
LINE
  5
276
330
1F
100
AcDbEntity
  8
0
  6
HIDDEN
 62
     7
370
     0
100
AcDbLine
 10
185.4984819957
 20
95.0106644287
 30
0.0
 11
184.0428918668
 21
96.3502005889
 31
0.0
  0
LINE
  5
277
330
1F
100
AcDbEntity
  8
0
  6
HIDDEN
 62
     7
370
     0
100
AcDbLine
 10
179.8482745954
 20
96.1778891488
 30
0.0
 11
178.5074606606
 21
94.7234780743
 31
0.0
  0
LINE
  5
278
330
1F
100
AcDbEntity
  8
0
  6
HIDDEN
 62
     7
370
     0
100
AcDbLine
 10
179.2040117153
 20
102.1201593085
 30
0.0
 11
179.6198993989
 21
101.7374378844
 31
0.0
  0
LINE
  5
279
330
1F
100
AcDbEntity
  8
0
  6
HIDDEN
 62
     7
370
     0
100
AcDbLine
 10
183.8145092197
 20
101.9097474619
 30
0.0
 11
184.1975957223
 21
102.3252924188
 31
0.0
  0
LINE
  5
27A
330
1F
100
AcDbEntity
  8
0
  6
HIDDEN
 62
     7
370
     0
100
AcDbLine
 10
184.0438902446
 20
96.3483919605
 30
0.0
 11
183.8153585859
 21
101.9116324588
 31
0.0
  0
LINE
  5
27B
330
1F
100
AcDbEntity
  8
0
  6
HIDDEN
 62
     7
370
     0
100
AcDbLine
 10
179.6188935705
 20
101.7392446502
 30
0.0
 11
179.8474326797
 21
96.1760041519
 31
0.0
  0
ARC
  5
27C
330
1F
100
AcDbEntity
  8
0
  6
HIDDEN
 62
     7
370
     0
100
AcDbCircle
 10
181.8566033312
 20
42.4301280185
 30
0.0
 40
5.000000000000021
100
AcDbArc
 50
135.8945127504
 51
181.5219423349
  0
ARC
  5
27D
330
1F
100
AcDbEntity
  8
0
  6
HIDDEN
 62
     7
370
     0
100
AcDbCircle
 10
181.8566033312
 20
42.4301280185
 30
0.0
 40
4.999999999999999
100
AcDbArc
 50
336.4218215218
 51
47.1493719193
  0
ARC
  5
27E
330
1F
100
AcDbEntity
  8
0
  6
HIDDEN
 62
     7
370
     0
100
AcDbCircle
 10
181.8566033312
 20
42.4301280185
 30
0.0
 40
5.000000000000021
100
AcDbArc
 50
181.5219423349
 51
203.5781784782
  0
LINE
  5
27F
330
1F
100
AcDbEntity
  8
0
  6
HIDDEN
 62
     7
370
     0
100
AcDbLine
 10
178.2665200599
 20
45.8968804433
 30
0.0
 11
179.7018036314
 21
44.5384291216
 31
0.0
  0
LINE
  5
280
330
1F
100
AcDbEntity
  8
0
  6
HIDDEN
 62
     7
370
     0
100
AcDbLine
 10
183.8964134522
 20
44.6498767688
 30
0.0
 11
185.2575302192
 21
46.0826252802
 31
0.0
  0
LINE
  5
281
330
1F
100
AcDbEntity
  8
0
  6
HIDDEN
 62
     7
370
     0
100
AcDbLine
 10
184.4540968605
 20
38.706315796
 30
0.0
 11
184.0440169044
 21
39.0944463416
 31
0.0
  0
LINE
  5
282
330
1F
100
AcDbEntity
  8
0
  6
HIDDEN
 62
     7
370
     0
100
AcDbLine
 10
179.8494070836
 20
38.983000557
 30
0.0
 11
179.4605165788
 21
38.5736433073
 31
0.0
  0
LINE
  5
283
330
1F
100
AcDbEntity
  8
0
  6
HIDDEN
 62
     7
370
     0
100
AcDbLine
 10
179.6997472712
 20
44.5422829344
 30
0.0
 11
179.847551889
 21
38.9790405734
 31
0.0
  0
LINE
  5
284
330
1F
100
AcDbEntity
  8
0
  6
HIDDEN
 62
     7
370
     0
100
AcDbLine
 10
184.0460732647
 20
39.0905906661
 30
0.0
 11
183.8982611962
 21
44.6538348897
 31
0.0
  0
LINE
  5
285
330
1F
100
AcDbEntity
  8
0
  6
HIDDEN
 62
     7
370
     0
100
AcDbLine
 10
187.8566056558
 20
92.4301278993
 30
0.0
 11
187.8566056558
 21
100.4301273479
 31
0.0
  0
LINE
  5
286
330
1F
100
AcDbEntity
  8
0
  6
HIDDEN
 62
     7
370
     0
100
AcDbLine
 10
175.8566036888
 20
100.4301273479
 30
0.0
 11
175.8566036888
 21
92.4301278993
 31
0.0
  0
ARC
  5
287
330
1F
100
AcDbEntity
  8
0
  6
HIDDEN
 62
     7
370
     0
100
AcDbCircle
 10
181.8566033312
 20
98.4301280185
 30
0.0
 40
5.0
100
AcDbArc
 50
314.4270040008
 51
0.0
  0
ARC
  5
288
330
1F
100
AcDbEntity
  8
0
  6
HIDDEN
 62
     7
370
     0
100
AcDbCircle
 10
181.8566033312
 20
98.4301280185
 30
0.0
 40
5.000000000000016
100
AcDbArc
 50
156.4218215218
 51
225.5729959992
  0
ARC
  5
289
330
1F
100
AcDbEntity
  8
0
  6
HIDDEN
 62
     7
370
     0
100
AcDbCircle
 10
181.8566033312
 20
98.4301280185
 30
0.0
 40
5.000000000000002
100
AcDbArc
 50
0.0
 51
23.5781784782
  0
LINE
  5
28A
330
1F
100
AcDbEntity
  8
0
  6
HIDDEN
 62
     7
370
     0
100
AcDbLine
 10
185.3566005894
 20
92.4301278993
 30
0.0
 11
185.3566005894
 21
94.8594139173
 31
0.0
  0
LINE
  5
28B
330
1F
100
AcDbEntity
  8
0
  6
HIDDEN
 62
     7
370
     0
100
AcDbLine
 10
178.3566050299
 20
94.8594139173
 30
0.0
 11
178.3566050299
 21
92.4301278993
 31
0.0
  0
LINE
  5
28C
330
1F
100
AcDbEntity
  8
0
  6
HIDDEN
 62
     7
370
     0
100
AcDbLine
 10
175.8566036888
 20
48.4301281377
 30
0.0
 11
175.8566036888
 21
40.430128689
 31
0.0
  0
LINE
  5
28D
330
1F
100
AcDbEntity
  8
0
  6
HIDDEN
 62
     7
370
     0
100
AcDbLine
 10
187.8566056558
 20
40.430128689
 30
0.0
 11
187.8566056558
 21
48.4301281377
 31
0.0
  0
ARC
  5
28E
330
1F
100
AcDbEntity
  8
0
  6
HIDDEN
 62
     7
370
     0
100
AcDbCircle
 10
181.8566033312
 20
42.4301280185
 30
0.0
 40
4.999999999999996
100
AcDbArc
 50
336.4218215218
 51
45.5729959992
  0
ARC
  5
28F
330
1F
100
AcDbEntity
  8
0
  6
HIDDEN
 62
     7
370
     0
100
AcDbCircle
 10
181.8566033312
 20
42.4301280185
 30
0.0
 40
5.000000000000016
100
AcDbArc
 50
134.4270040008
 51
203.5781784782
  0
LINE
  5
290
330
1F
100
AcDbEntity
  8
0
  6
HIDDEN
 62
     7
370
     0
100
AcDbLine
 10
178.3566050299
 20
48.4301281377
 30
0.0
 11
178.3566050299
 21
46.0008421197
 31
0.0
  0
LINE
  5
291
330
1F
100
AcDbEntity
  8
0
  6
HIDDEN
 62
     7
370
     0
100
AcDbLine
 10
185.3566005894
 20
46.0008421197
 30
0.0
 11
185.3566005894
 21
48.4301281377
 31
0.0
  0
LINE
  5
292
330
1F
100
AcDbEntity
  8
0
  6
HIDDEN
 62
     7
370
     0
100
AcDbLine
 10
116.8566033312
 20
45.1062043413
 30
0.0
 11
116.9507641689
 21
45.7761940761
 31
0.0
  0
LINE
  5
293
330
1F
100
AcDbEntity
  8
0
  6
HIDDEN
 62
     7
370
     0
100
AcDbLine
 10
116.9507641689
 20
95.0840619608
 30
0.0
 11
116.8566033312
 21
95.7540516957
 31
0.0
  0
ARC
  5
294
330
1F
100
AcDbEntity
  8
0
  6
HIDDEN
 62
     7
370
     0
100
AcDbCircle
 10
116.3566033312
 20
45.8596971567
 30
0.0
 40
0.6000000000000085
100
AcDbArc
 50
352.0
 51
0.0
  0
ARC
  5
295
330
1F
100
AcDbEntity
  8
0
  6
HIDDEN
 62
     7
370
     0
100
AcDbCircle
 10
116.3566033312
 20
45.8596971567
 30
0.0
 40
0.6000000000000136
100
AcDbArc
 50
0.0
 51
33.5573097619
  0
ARC
  5
296
330
1F
100
AcDbEntity
  8
0
  6
HIDDEN
 62
     7
370
     0
100
AcDbCircle
 10
116.3566033312
 20
95.0005588802
 30
0.0
 40
0.6000000000000012
100
AcDbArc
 50
348.75
 51
8.0
  0
LWPOLYLINE
  5
297
330
1F
100
AcDbEntity
  8
0
  6
HIDDEN
 62
     7
370
     0
100
AcDbPolyline
 90
        3
 70
   128
 43
0.0
 10
116.9450745011
 20
94.8835053696
 10
116.9109310513
 20
94.7709494486
 10
116.8566033312
 20
94.6688969835
  0
LINE
  5
298
330
1F
100
AcDbEntity
  8
0
  6
HIDDEN
 62
     7
370
     0
100
AcDbLine
 10
116.9566033287
 20
45.8596964582
 30
0.0
 11
116.9566033287
 21
95.0005595787
 31
0.0
  0
ARC
  5
299
330
1F
100
AcDbEntity
  8
0
  6
HIDDEN
 62
     7
370
     0
100
AcDbCircle
 10
99.9390388965
 20
51.0301280185
 30
0.0
 40
0.600000000000012
100
AcDbArc
 50
210.0
 51
270.0
  0
ARC
  5
29A
330
1F
100
AcDbEntity
  8
0
  6
HIDDEN
 62
     7
370
     0
100
AcDbCircle
 10
99.9390388965
 20
89.8301280185
 30
0.0
 40
0.6000000000000085
100
AcDbArc
 50
90.0
 51
150.0
  0
ARC
  5
29B
330
1F
100
AcDbEntity
  8
0
  6
HIDDEN
 62
     7
370
     0
100
AcDbCircle
 10
110.6116053328
 20
58.4301280185
 30
0.0
 40
8.000000000000002
100
AcDbArc
 50
276.8769549424
 51
321.3178125465
  0
ARC
  5
29C
330
1F
100
AcDbEntity
  8
0
  6
HIDDEN
 62
     7
370
     0
100
AcDbCircle
 10
110.6116053328
 20
82.4301280185
 30
0.0
 40
8.00000000000001
100
AcDbArc
 50
38.6821874535
 51
83.1150432862
  0
LINE
  5
29D
330
1F
100
AcDbEntity
  8
0
  6
HIDDEN
 62
     7
370
     0
100
AcDbLine
 10
99.9390393563
 20
50.4301284655
 30
0.0
 11
104.1551785611
 21
50.4301284655
 31
0.0
  0
LINE
  5
29E
330
1F
100
AcDbEntity
  8
0
  6
HIDDEN
 62
     7
370
     0
100
AcDbLine
 10
104.1551785611
 20
90.4301275714
 30
0.0
 11
99.9390393563
 21
90.4301275714
 31
0.0
  0
LINE
  5
29F
330
1F
100
AcDbEntity
  8
0
  6
HIDDEN
 62
     7
370
     0
100
AcDbLine
 10
99.419422827
 20
90.1301280811
 30
0.0
 11
97.8605788269
 21
87.4301289423
 31
0.0
  0
LINE
  5
2A0
330
1F
100
AcDbEntity
  8
0
  6
HIDDEN
 62
     7
370
     0
100
AcDbLine
 10
97.8605788269
 20
53.4301270946
 30
0.0
 11
99.419422827
 21
50.7301279559
 31
0.0
  0
ARC
  5
2A1
330
1F
100
AcDbEntity
  8
0
  6
HIDDEN
 62
     7
370
     0
100
AcDbCircle
 10
125.3066033312
 20
54.7051280185
 30
0.0
 40
1.5
100
AcDbArc
 50
238.2116693829
 51
0.0
  0
ARC
  5
2A2
330
1F
100
AcDbEntity
  8
0
  6
HIDDEN
 62
     7
370
     0
100
AcDbCircle
 10
125.3066033312
 20
86.1551280185
 30
0.0
 40
1.500000000000001
100
AcDbArc
 50
0.0
 51
121.7883306171
  0
LINE
  5
2A3
330
1F
100
AcDbEntity
  8
0
  6
HIDDEN
 62
     7
370
     0
100
AcDbLine
 10
175.8566036888
 20
100.4301273479
 30
0.0
 11
175.8566036888
 21
92.4301278993
 31
0.0
  0
LINE
  5
2A4
330
1F
100
AcDbEntity
  8
0
  6
HIDDEN
 62
     7
370
     0
100
AcDbLine
 10
187.8566056558
 20
92.4301278993
 30
0.0
 11
187.8566056558
 21
100.4301273479
 31
0.0
  0
LINE
  5
2A5
330
1F
100
AcDbEntity
  8
0
  6
HIDDEN
 62
     7
370
     0
100
AcDbLine
 10
116.8566033312
 20
53.4301270946
 30
0.0
 11
124.5164292932
 21
53.4301270946
 31
0.0
  0
LINE
  5
2A6
330
1F
100
AcDbEntity
  8
0
  6
HIDDEN
 62
     7
370
     0
100
AcDbLine
 10
124.5164292932
 20
87.4301289423
 30
0.0
 11
116.8566033312
 21
87.4301289423
 31
0.0
  0
LINE
  5
2A7
330
1F
100
AcDbEntity
  8
0
  6
HIDDEN
 62
     7
370
     0
100
AcDbLine
 10
95.0566031106
 20
53.4301270946
 30
0.0
 11
97.8605788269
 21
53.4301270946
 31
0.0
  0
LINE
  5
2A8
330
1F
100
AcDbEntity
  8
0
  6
HIDDEN
 62
     7
370
     0
100
AcDbLine
 10
97.8605788269
 20
87.4301289423
 30
0.0
 11
91.056602455
 21
87.4301289423
 31
0.0
  0
LINE
  5
2A9
330
1F
100
AcDbEntity
  8
0
  6
HIDDEN
 62
     7
370
     0
100
AcDbLine
 10
187.8566056558
 20
40.430128689
 30
0.0
 11
187.8566056558
 21
48.4301281377
 31
0.0
  0
LINE
  5
2AA
330
1F
100
AcDbEntity
  8
0
  6
HIDDEN
 62
     7
370
     0
100
AcDbLine
 10
175.8566036888
 20
48.4301281377
 30
0.0
 11
175.8566036888
 21
40.430128689
 31
0.0
  0
LINE
  5
2AB
330
1F
100
AcDbEntity
  8
0
  6
HIDDEN
 62
     7
370
     0
100
AcDbLine
 10
178.6403380402
 20
92.4301278993
 30
0.0
 11
172.5397206911
 21
74.3454728491
 31
0.0
  0
LINE
  5
2AC
330
1F
100
AcDbEntity
  8
0
  6
HIDDEN
 62
     7
370
     0
100
AcDbLine
 10
176.23761893
 20
72.1677101665
 30
0.0
 11
183.0728709765
 21
92.4301278993
 31
0.0
  0
LINE
  5
2AD
330
1F
100
AcDbEntity
  8
0
  6
HIDDEN
 62
     7
370
     0
100
AcDbLine
 10
183.0728709765
 20
48.4301281377
 30
0.0
 11
176.2382857569
 21
68.6905618041
 31
0.0
  0
LINE
  5
2AE
330
1F
100
AcDbEntity
  8
0
  6
HIDDEN
 62
     7
370
     0
100
AcDbLine
 10
172.539526976
 20
66.5153671271
 30
0.0
 11
178.6403380402
 21
48.4301281377
 31
0.0
  0
LINE
  5
2AF
330
1F
100
AcDbEntity
  8
0
  6
HIDDEN
 62
     7
370
     0
100
AcDbLine
 10
136.1566040733
 20
60.9301283239
 30
0.0
 11
138.6566035517
 21
60.9301283239
 31
0.0
  0
LINE
  5
2B0
330
1F
100
AcDbEntity
  8
0
  6
HIDDEN
 62
     7
370
     0
100
AcDbLine
 10
138.6566035517
 20
79.930127713
 30
0.0
 11
136.1566040733
 21
79.930127713
 31
0.0
  0
LINE
  5
2B1
330
1F
100
AcDbEntity
  8
0
  6
HIDDEN
 62
     7
370
     0
100
AcDbLine
 10
126.8066031926
 20
61.4301284059
 30
0.0
 11
127.3066032746
 21
61.9301275565
 31
0.0
  0
LINE
  5
2B2
330
1F
100
AcDbEntity
  8
0
  6
HIDDEN
 62
     7
370
     0
100
AcDbLine
 10
127.3066032746
 20
78.9301284804
 30
0.0
 11
126.8066031926
 21
79.430127631
 31
0.0
  0
LINE
  5
2B3
330
1F
100
AcDbEntity
  8
0
  6
HIDDEN
 62
     7
370
     0
100
AcDbLine
 10
127.3066032746
 20
61.9301275565
 30
0.0
 11
136.1566040733
 21
61.9301275565
 31
0.0
  0
LINE
  5
2B4
330
1F
100
AcDbEntity
  8
0
  6
HIDDEN
 62
     7
370
     0
100
AcDbLine
 10
136.1566040733
 20
78.9301284804
 30
0.0
 11
127.3066032746
 21
78.9301284804
 31
0.0
  0
LINE
  5
2B5
330
1F
100
AcDbEntity
  8
0
  6
HIDDEN
 62
     7
370
     0
100
AcDbLine
 10
121.8066033044
 20
101.9301285251
 30
0.0
 11
121.8066033044
 21
96.8301278754
 31
0.0
  0
LINE
  5
2B6
330
1F
100
AcDbEntity
  8
0
  6
HIDDEN
 62
     7
370
     0
100
AcDbLine
 10
112.0410411686
 20
46.3507567748
 30
0.0
 11
111.6066089899
 21
46.8298235192
 31
0.0
  0
LINE
  5
2B7
330
1F
100
AcDbEntity
  8
0
  6
HIDDEN
 62
     7
370
     0
100
AcDbLine
 10
104.1066054322
 20
47.2515114798
 30
0.0
 11
103.6241719567
 21
46.7724447354
 31
0.0
  0
LINE
  5
2B8
330
1F
100
AcDbEntity
  8
0
  6
HIDDEN
 62
     7
370
     0
100
AcDbLine
 10
103.6240499534
 20
94.0878057136
 30
0.0
 11
104.1066007756
 21
93.6086849525
 31
0.0
  0
LINE
  5
2B9
330
1F
100
AcDbEntity
  8
0
  6
HIDDEN
 62
     7
370
     0
100
AcDbLine
 10
111.606603402
 20
94.030384089
 30
0.0
 11
112.0411454768
 21
94.5095029875
 31
0.0
  0
LINE
  5
2BA
330
1F
100
AcDbEntity
  8
0
  6
HIDDEN
 62
     7
370
     0
100
AcDbLine
 10
176.0009773143
 20
67.9682564206
 30
0.0
 11
177.4802193113
 21
70.4301280185
 31
0.0
  0
LINE
  5
2BB
330
1F
100
AcDbEntity
  8
0
  6
HIDDEN
 62
     7
370
     0
100
AcDbLine
 10
177.4802193113
 20
70.4301280185
 30
0.0
 11
176.0226026245
 21
72.8560049302
 31
0.0
  0
LINE
  5
2BC
330
1F
100
AcDbEntity
  8
0
  6
HIDDEN
 62
     7
370
     0
100
AcDbLine
 10
138.6566035517
 20
66.2301281682
 30
0.0
 11
173.4662562676
 21
66.2301281682
 31
0.0
  0
LINE
  5
2BD
330
1F
100
AcDbEntity
  8
0
  6
HIDDEN
 62
     7
370
     0
100
AcDbLine
 10
173.459099985
 20
74.6301278687
 30
0.0
 11
138.6566035517
 21
74.6301278687
 31
0.0
  0
LINE
  5
2BE
330
1F
100
AcDbEntity
  8
0
  6
HIDDEN
 62
     7
370
     0
100
AcDbLine
 10
111.606603402
 20
90.365529175
 30
0.0
 11
111.606603402
 21
94.0300916537
 31
0.0
  0
LINE
  5
2BF
330
1F
100
AcDbEntity
  8
0
  6
HIDDEN
 62
     7
370
     0
100
AcDbLine
 10
104.1066035696
 20
93.6085415288
 30
0.0
 11
104.1066035696
 21
90.4211123689
 31
0.0
  0
LINE
  5
2C0
330
1F
100
AcDbEntity
  8
0
  6
HIDDEN
 62
     7
370
     0
100
AcDbLine
 10
111.606603402
 20
46.8303059443
 30
0.0
 11
111.606603402
 21
50.4947268619
 31
0.0
  0
LINE
  5
2C1
330
1F
100
AcDbEntity
  8
0
  6
HIDDEN
 62
     7
370
     0
100
AcDbLine
 10
104.1066035696
 20
50.439143668
 30
0.0
 11
104.1066035696
 21
47.2518337174
 31
0.0
  0
DIMENSION
  5
2C2
330
1F
100
AcDbEntity
  8
VERMASSUNG
100
AcDbDimension
  2
*D5
 10
216.8566033312
 20
40.4301280185
 30
0.0
 11
216.8566033312
 21
70.4301280185
 31
0.0
 70
   160
 71
     2
 42
-1.0
  3
SLDDIMSTYLE0
100
AcDbAlignedDimension
 13
206.8566033312
 23
100.4301280185
 33
0.0
 14
206.8566033312
 24
40.4301280185
 34
0.0
 50
90.0
100
AcDbRotatedDimension
  0
DIMENSION
  5
2CC
330
1F
100
AcDbEntity
  8
VERMASSUNG
100
AcDbDimension
  2
*D6
 10
206.8566033312
 20
107.4367280607
 30
0.0
 11
161.8566033312
 21
107.4367280607
 31
0.0
 70
   160
 71
     2
 42
-1.0
  3
SLDDIMSTYLE0
100
AcDbAlignedDimension
 13
116.8566033312
 23
101.6301280185
 33
0.0
 14
206.8566033312
 24
100.4301280185
 34
0.0
100
AcDbRotatedDimension
  0
DIMENSION
  5
2D6
330
1F
100
AcDbEntity
  8
VERMASSUNG
100
AcDbDimension
  2
*D7
 10
206.8566033312
 20
113.4367280607
 30
0.0
 11
145.9066033312
 21
113.4367280607
 31
0.0
 70
   160
 71
     2
 42
-1.0
  3
SLDDIMSTYLE0
100
AcDbAlignedDimension
 13
84.9566033312
 23
90.4061885231
 33
0.0
 14
206.8566033312
 24
100.4301280185
 34
0.0
100
AcDbRotatedDimension
  0
DIMENSION
  5
2E0
330
1F
100
AcDbEntity
  8
VERMASSUNG
100
AcDbDimension
  2
*D8
 10
75.0939452522
 20
38.9301280185
 30
0.0
 11
75.0939452522
 21
70.4301280185
 31
0.0
 70
   160
  1
HSK T %%c<>
 71
     2
 42
-1.0
  3
SLDDIMSTYLE0
100
AcDbAlignedDimension
 13
117.1566033312
 23
101.9301280185
 33
0.0
 14
117.1566033312
 24
38.9301280185
 34
0.0
 50
90.0
100
AcDbRotatedDimension
  0
LINE
  5
2EC
330
1F
100
AcDbEntity
  8
VERMASSUNG
  6
CENTERX2
370
     0
100
AcDbLine
 10
80.1252666172
 20
70.4301280185
 30
0.0
 11
210.9718975364
 21
70.4301280185
 31
0.0
  0
OLE2FRAME
  5
2ED
330
1F
100
AcDbEntity
  8
0
100
AcDbOle2Frame
 70
     2
  3
Bitmap Image
 10
13.8511154363
 20
38.264191557
 30
0.0
 11
51.6290888628
 21
31.9806341108
 31
0.0
 71
     2
 72
     0
 73
     1
 90
    12928
310
80552BED0767C5B32B40DDAF6807D121434000000000000000006FFBDDFB85D0
310
4940DDAF6807D121434000000000000000006FFBDDFB85D04940416F4BD60AFB
310
3F4000000000000000002BED0767C5B32B40416F4BD60AFB3F40000000000000
310
0000000000000100000000010000010000000100000000000100000000320000
310
D0CF11E0A1B11AE1000000000000000000000000000000003E000300FEFF0900
310
0600000000000000000000000100000001000000000000000010000002000000
310
01000000FEFFFFFF0000000000000000FFFFFFFFFFFFFFFFFFFFFFFFFFFFFFFF
310
FFFFFFFFFFFFFFFFFFFFFFFFFFFFFFFFFFFFFFFFFFFFFFFFFFFFFFFFFFFFFFFF
310
FFFFFFFFFFFFFFFFFFFFFFFFFFFFFFFFFFFFFFFFFFFFFFFFFFFFFFFFFFFFFFFF
310
FFFFFFFFFFFFFFFFFFFFFFFFFFFFFFFFFFFFFFFFFFFFFFFFFFFFFFFFFFFFFFFF
310
FFFFFFFFFFFFFFFFFFFFFFFFFFFFFFFFFFFFFFFFFFFFFFFFFFFFFFFFFFFFFFFF
310
FFFFFFFFFFFFFFFFFFFFFFFFFFFFFFFFFFFFFFFFFFFFFFFFFFFFFFFFFFFFFFFF
310
FFFFFFFFFFFFFFFFFFFFFFFFFFFFFFFFFFFFFFFFFFFFFFFFFFFFFFFFFFFFFFFF
310
FFFFFFFFFFFFFFFFFFFFFFFFFFFFFFFFFFFFFFFFFFFFFFFFFFFFFFFFFFFFFFFF
310
FFFFFFFFFFFFFFFFFFFFFFFFFFFFFFFFFFFFFFFFFFFFFFFFFFFFFFFFFFFFFFFF
310
FFFFFFFFFFFFFFFFFFFFFFFFFFFFFFFFFFFFFFFFFFFFFFFFFFFFFFFFFFFFFFFF
310
FFFFFFFFFFFFFFFFFFFFFFFFFFFFFFFFFFFFFFFFFFFFFFFFFFFFFFFFFFFFFFFF
310
FFFFFFFFFFFFFFFFFFFFFFFFFFFFFFFFFFFFFFFFFFFFFFFFFFFFFFFFFFFFFFFF
310
FFFFFFFFFFFFFFFFFFFFFFFFFFFFFFFFFFFFFFFFFFFFFFFFFFFFFFFFFFFFFFFF
310
FFFFFFFFFFFFFFFFFFFFFFFFFFFFFFFFFFFFFFFFFFFFFFFFFFFFFFFFFFFFFFFF
310
FDFFFFFFFEFFFFFFFEFFFFFFFEFFFFFF05000000060000000700000008000000
310
090000000A0000000B0000000C0000000D0000000E0000000F00000010000000
310
11000000120000001300000014000000150000001600000017000000FEFFFFFF
310
FFFFFFFFFFFFFFFFFFFFFFFFFFFFFFFFFFFFFFFFFFFFFFFFFFFFFFFFFFFFFFFF
310
FFFFFFFFFFFFFFFFFFFFFFFFFFFFFFFFFFFFFFFFFFFFFFFFFFFFFFFFFFFFFFFF
310
FFFFFFFFFFFFFFFFFFFFFFFFFFFFFFFFFFFFFFFFFFFFFFFFFFFFFFFFFFFFFFFF
310
FFFFFFFFFFFFFFFFFFFFFFFFFFFFFFFFFFFFFFFFFFFFFFFFFFFFFFFFFFFFFFFF
310
FFFFFFFFFFFFFFFFFFFFFFFFFFFFFFFFFFFFFFFFFFFFFFFFFFFFFFFFFFFFFFFF
310
FFFFFFFFFFFFFFFFFFFFFFFFFFFFFFFFFFFFFFFFFFFFFFFFFFFFFFFFFFFFFFFF
310
FFFFFFFFFFFFFFFFFFFFFFFFFFFFFFFFFFFFFFFFFFFFFFFFFFFFFFFFFFFFFFFF
310
FFFFFFFFFFFFFFFFFFFFFFFFFFFFFFFFFFFFFFFFFFFFFFFFFFFFFFFFFFFFFFFF
310
FFFFFFFFFFFFFFFFFFFFFFFFFFFFFFFFFFFFFFFFFFFFFFFFFFFFFFFFFFFFFFFF
310
FFFFFFFFFFFFFFFFFFFFFFFFFFFFFFFFFFFFFFFFFFFFFFFFFFFFFFFFFFFFFFFF
310
FFFFFFFFFFFFFFFFFFFFFFFFFFFFFFFFFFFFFFFFFFFFFFFFFFFFFFFFFFFFFFFF
310
FFFFFFFFFFFFFFFFFFFFFFFFFFFFFFFFFFFFFFFFFFFFFFFFFFFFFFFFFFFFFFFF
310
FFFFFFFFFFFFFFFFFFFFFFFFFFFFFFFFFFFFFFFFFFFFFFFFFFFFFFFFFFFFFFFF
310
52006F006F007400200045006E00740072007900000000000000000000000000
310
0000000000000000000000000000000000000000000000000000000000000000
310
16000500FFFFFFFFFFFFFFFF020000000A00030000000000C000000000000046
310
000000000000000000000000C06D13218A09CC0103000000C000000000000000
310
01004F006C006500000000000000000000000000000000000000000000000000
310
0000000000000000000000000000000000000000000000000000000000000000
310
0A000200FFFFFFFFFFFFFFFFFFFFFFFF00000000000000000000000000000000
310
0000000000000000000000000000000000000000000000001400000000000000
310
010043006F006D0070004F0062006A0000000000000000000000000000000000
310
0000000000000000000000000000000000000000000000000000000000000000
310
120002010100000003000000FFFFFFFF00000000000000000000000000000000
310
0000000000000000000000000000000000000000010000004D00000000000000
310
01004F006C006500310030004E00610074006900760065000000000000000000
310
0000000000000000000000000000000000000000000000000000000000000000
310
1A000200FFFFFFFFFFFFFFFFFFFFFFFF00000000000000000000000000000000
310
0000000000000000000000000000000000000000040000002426000000000000
310
FEFFFFFF02000000FEFFFFFFFFFFFFFFFFFFFFFFFFFFFFFFFFFFFFFFFFFFFFFF
310
FFFFFFFFFFFFFFFFFFFFFFFFFFFFFFFFFFFFFFFFFFFFFFFFFFFFFFFFFFFFFFFF
310
FFFFFFFFFFFFFFFFFFFFFFFFFFFFFFFFFFFFFFFFFFFFFFFFFFFFFFFFFFFFFFFF
310
FFFFFFFFFFFFFFFFFFFFFFFFFFFFFFFFFFFFFFFFFFFFFFFFFFFFFFFFFFFFFFFF
310
FFFFFFFFFFFFFFFFFFFFFFFFFFFFFFFFFFFFFFFFFFFFFFFFFFFFFFFFFFFFFFFF
310
FFFFFFFFFFFFFFFFFFFFFFFFFFFFFFFFFFFFFFFFFFFFFFFFFFFFFFFFFFFFFFFF
310
FFFFFFFFFFFFFFFFFFFFFFFFFFFFFFFFFFFFFFFFFFFFFFFFFFFFFFFFFFFFFFFF
310
FFFFFFFFFFFFFFFFFFFFFFFFFFFFFFFFFFFFFFFFFFFFFFFFFFFFFFFFFFFFFFFF
310
FFFFFFFFFFFFFFFFFFFFFFFFFFFFFFFFFFFFFFFFFFFFFFFFFFFFFFFFFFFFFFFF
310
FFFFFFFFFFFFFFFFFFFFFFFFFFFFFFFFFFFFFFFFFFFFFFFFFFFFFFFFFFFFFFFF
310
FFFFFFFFFFFFFFFFFFFFFFFFFFFFFFFFFFFFFFFFFFFFFFFFFFFFFFFFFFFFFFFF
310
FFFFFFFFFFFFFFFFFFFFFFFFFFFFFFFFFFFFFFFFFFFFFFFFFFFFFFFFFFFFFFFF
310
FFFFFFFFFFFFFFFFFFFFFFFFFFFFFFFFFFFFFFFFFFFFFFFFFFFFFFFFFFFFFFFF
310
FFFFFFFFFFFFFFFFFFFFFFFFFFFFFFFFFFFFFFFFFFFFFFFFFFFFFFFFFFFFFFFF
310
FFFFFFFFFFFFFFFFFFFFFFFFFFFFFFFFFFFFFFFFFFFFFFFFFFFFFFFFFFFFFFFF
310
FFFFFFFFFFFFFFFFFFFFFFFFFFFFFFFFFFFFFFFFFFFFFFFFFFFFFFFFFFFFFFFF
310
010000020000000000000000000000000000000061007200610082005C003105
310
D80825000000000020DA316500000000680061007200650064005C003B004300
310
0100FEFF030A0000FFFFFFFF0A00030000000000C00000000000004607000000
310
5042727573680007000000504272757368000700000050427275736800F439B2
310
71000000000000000000000000004100540049002E004100430045005C004300
310
6F00720065002D005300740061007400690063003B0043003A005C0050007200
310
6F006700720061006D002000460069006C006500730020002800780038003600
310
29005C0043006F006D006D006F006E002000460069006C00650073005C004100
310
750074006F006400650073006B0020005300680061007200650064005C003B00
310
43003A005C00500072006F006700720061006D002000460069006C0065007300
310
5C004E006F0072006D0061006E005C004E0070006D005C00420069006E000000
310
43003A005C00500072006F006700720061006D002000460069006C0065007300
310
5C0053006F006C006900640057006F0072006B007300200043006F0072007000
310
5C0053006F006C006900640057006F0072006B00730020002800320029005C00
310
730065007400750070005C0069003300380036005C0073007700610063007400
310
770069007A002E006500780065000000220043003A005C00500072006F006700
310
20260000424D0E260000000000003E00000028000000B40200006E0000000100
310
01000000000000000000130B0000130B00000200000002000000000000FFFFFF
310
FFFFFFFFFFFFFFFFFFFFFFFFFFFFFFFFFFFFFFFFFFFFFFFFFFFFFFFFFFFFFFFF
310
FFFFFFFFFFFFFFFFFFFFFFFFFFFFFFFFFFFFFFFFFFFFFFFFFFFFFFFFFFFFFFFF
310
FFFFFFFFFFFFFFFFFFFFFFFFFFFFFFFFFFFFFFFFFFFFFFFFF000FFFFFFFFFFFF
310
FFFFFFFFFFFFFFFFFFFFFFFFFFFFFFFFFFFFFFFFFFFFFFFFFFFFFFFFFFFFFFFF
310
FFFFFFFFFFFFFFFFFFFFFFFFFFFFFFFFFFFFFFFFFFFFFFFFFFFFFFFFFFFFFFFF
310
FFFFFFFFFFFFFFFFFFFFFFFFFFFFFFFFF000FFFFFFFFFFFFFFFFFFFFFFFFFFFF
310
FFFFFFFFFFFFFFFFFFFFFFFFFFFFFFFFFFFFFFFFFFFFFFFFFFFFFFFFFFFFFFFF
310
FFFFFFFFFFFFFFFFFFFFFFFFFFFFFFFFFFFFFFFFFFFFFFFFFFFFFFFFFFFFFFFF
310
FFFFFFFFFFFFFFFFF000FFFFFFFFFFFFFFFFFFFFFFFFFFFFFFFFFFFFFFFFFFFF
310
FFFFFFFFFFFFFFFFFFFFFFFFFFFFFFFFFFFFFFFFFFFFFFFFFFFFFFFFFFFFFFFF
310
FFFFFFFFFFFFFFFFFFFFFFFFFFFFFFFFFFFFFFFFFFFFFFFFFFFFFFFFFFFFFFFF
310
F000FFFFFFFFFFFFFFFFFFFFFFFFFFFFFFFFFFFFFFFFFFFFFFFFFFFFFFFFFFFF
310
FFFFFFFFFFFFFFFFFFFFFFFFFFFFFFFFFFFFFFFFFFFFFFFFFFFFFFFFFFFFFFFF
310
FFFFFFFFFFFFFFFFFFFFFFFFFFFFFFFFFFFFFFFFFFFFFFFFF000FFFFFFFFFFFF
310
FFFFFFFFFFFFFFFFFFFFFFFFFFFFFFFFFFFFFFFFFFFFFFFFFFFFFFFFFFFFFFFF
310
FFFFFFFFFFFFFFFFFFFFFFFFFFFFFFFFFFFFFFFFFFFFFFFFFFFFFFFFFFFFFFFF
310
FFFFFFFFFFFFFFFFFFFFFFFFFFFFFFFFF000FFFFFFFFFFFFFFFFFFFFFFFFFFFF
310
FFFFFFFFFFFFFFFFFFFFFFFFFFFFFFFFFFFFFFFFFFFFFFFFFFFFFFFFFFFFFFFF
310
FFFFFFFFFFFFFFFFFFFFFFFFFFFFFFFFFFFFFFFFFFFFFFFFFFFFFFFFFFFFFFFF
310
FFFFFFFFFFFFFFFFF000FFFFFFFFFFFFFFFFFFFFFFFFFFFFFFFFFFFFFFFFFFFF
310
FFFFFFFFFFFFFFFFFFFFFFFFFFFFFFFFFFFFFFFFFFFFFFFFFFFFFFFFFFFFFFFF
310
FFFFFFFFFFFFFFFFFFFFFFFFFFFFFFFFFFFFFFFFFFFFFFFFFFFFFFFFFFFFFFFF
310
F000FFFFFFFFFFFFFFFFFFFFFFFFFFFFFFFFFFFFFFFFFFFFFFFFFFFFFFFFFFFF
310
FFFFFFFFFFFFFFFFFFFFFFFFFFFFFFFFFFFFFFFFFFFFFFFFFFFFFFFFFFFFFFFF
310
FFFFFFFFFFFFFFFFFFFFFFFFFFFFFFFFFFFFFFFFFFFFFFFFF000FFFFFFFFFFFF
310
FFFFFFFFFFFFFFFFFFFFFFFFFFFFFFFFFFFFFFFFFFFFFFFFFFFFFFFFFFFFFFFF
310
FFFFFFFFFFFFFFFFFFFFFFFFFFFFFFFFFFFFFFFFFFFFFFFFFFFFFFFFFFFFFFFF
310
FFFFFFFFFFFFFFFFFFFFFFFFFFFFFFFFF000FFFFFFFFFFFFFFFFFFFFFFFFFFFF
310
FFFFFFFFFFFFFFFFFFFFFFFFFFFFFFFFFFFFFFFFFFFFFFFFFFFFFFFFFFFFFFFF
310
FFFFFFFFFFFFFFFFFFFFFFFFFFFFFFFFFFFFFFFFFFFFFFFFFFFFFFFFFFFFFFFF
310
FFFFFFFFFFFFFFFFF000FFFFFFFFFFFFFFFFFFFFFFFFFFFFFFFFFFFFFFFFFFFF
310
FFFFFFFFFFFFFFFFFFFFFFFFFFFFFFFFFFFFFFFFFFFFFFFFFFFFFFFFFFFFFFFF
310
FFFFFFFFFFFFFFFFFFFFFFFFFFFFFFFFFFFFFFFFFFFFFFFFFFFFFFFFFFFFFFFF
310
F000FFFFFFFFFFFFFFFFFFFFFFFFFFFFFFFFFFFFFFFFFFFFFFFFFFFFFFFFFFFF
310
FFFFFFFFFFFFFFFFFFFFFFFFFFFFFFFFFFFFFFFFFFFFFFFFFFFFFFFFFFFFFFFF
310
FFFFFFFFFFFFFFFFFFFFFFFFFFFFFFFFFFFFFFFFFFFFFFFFF000FFFFFFFFFFFF
310
FFFFFFFFFFFFFFFFFFFFFFFFFFFFFFFFFFFFFFFFFFFFFFFFFFFFFFFFFFFFFFFF
310
FFFFFFFFFFFFFFFFFFFFFFFFFFFFFFFFFFFFFFFFFFFFFFFFFFFFFFFFFFFFFFFF
310
FFFFFFFFFFFFFFFFFFFFFFFFFFFFFFFFF000FFFFFFFFFFFFFFFFFFFFFFFFFFFF
310
FFFFFFFFFFFFFFFFFFFFFFFFFFFFFFFFFFFFFFFFFFFFFFFFFFFFFFFFFFFFFFFF
310
FFFFFFFFFFFFFFFFFFFFFFFFFFFFFFFFFFFFFFFFFFFFFFFFFFFFFFFFFFFFFFFF
310
FFFFFFFFFFFFFFFFF000FFFFFFFFFFFFFFFFFFFFFFFFFFFFFFFFFFFFFFFFFFFF
310
FFFFFFFFFFFFFFFFFFFFFFFFFFFFFFFFFFFFFFFFFFFFFFFFFFFFFFFFFFFFFFFF
310
FFFFFFFFFFFFFFFFFFFFFFFFFFFFFFFFFFFFFFFFFFFFFFFFFFFFFFFFFFFFFFFF
310
F000FFFFFFFFFFFFFFFFFFFFFFFFFFFFFFFFFFFFFFFFFFFFFFFFFFFFFFFFFFFF
310
FFFFFFFFFFFFFFFFFFFFFFFFFFFFFFFFFFFFFFFFFFFFFFFFFFFFFFFFFFFFFFFF
310
FFFFFFFFFFFFFFFFFFFFFFFFFFFFFFFFFFFFFFFFFFFFFFFFF000FFFFFFFFFFFF
310
FFFFFFFFFFFFFFFFFFFFFFFFFFFFFFFFFFFFFFFFFFFFFFFFFFFFFFFFFFFFFFFF
310
FFFFFFFFFFFFFFFFFFFFFFFFFFFFFFFFFFFFFFFFFFFFFFFFFFFFFFFFFFFFFFFF
310
FFFFFFFFFFFFFFFFFFFFFFFFFFFFFFFFF000FFFFFFFFFFFFFFFFFFFFFFFFFFFF
310
FFFFFFFFFFFFFFFFFFFFFFFFFFFFFFFFFFFFFFFFFFFFFFFFFFFFFFFFFFFFFFFF
310
FFFFFFFFFFFFFFFFFFFFFFFFFFFFFFFFFFFFFFFFFFFFFFFFFFFFFFFFFFFFFFFF
310
FFFFFFFFFFFFFFFFF000FFFFF80003FFFFFFFFFFFFFFFFFFFFFFFFFFFFFFFFFF
310
FFFFF00007FFFFFFFFFF00007FFFFFF800000000000000007FFFFFFFFFFFFFFF
310
FFFFFFFC001FFFFFFFFFFFFFFC001FFFFFFFFFFFFFFFFFFFFFFFFFFE0007FFFF
310
F000FFFF8000007FFFFFFFF8000FFFFFC0007FFFFF80007FFFFF0000007FFFFF
310
FFF8000007FFFFF800000000000000007FFFFFF0001FFFFFFFFFFFC00001FFFF
310
FFFFFFFFC00001FFFFFFFF000000000003FFFFE000007FFFF000FFFE0000000F
310
FFFFFFF0000FFFFF80007FFFFF80007FFFFC0000001FFFFFFFC0000001FFFFF8
310
00000000000000007FFFFFF0001FFFFFFFFFFE0000003FFFFFFFFFFE0000003F
310
FFFFFF000000000003FFFF0000000FFFF000FFF800000003FFFFFFF00007FFFF
310
80007FFFFF80007FFFF000000007FFFFFF000000003FFFF80000000000000000
310
7FFFFFF0001FFFFFFFFFF80000000FFFFFFFFFF80000000FFFFFFF0000000000
310
03FFFC00000003FFF000FFE000000000FFFFFFF00007FFFF80003FFFFF80007F
310
FFC000000001FFFFFC000000001FFFF800000000000000007FFFFFF0001FFFFF
310
FFFFE000000003FFFFFFFFE000000003FFFFFF000000000003FFF000000000FF
310
F000FF80000000007FFFFFF00007FFFF80003FFFFF80007FFF8000000000FFFF
310
F80000000007FFF800000000000000007FFFFFF0001FFFFFFFFFC000000001FF
310
FFFFFFC000000001FFFFFF000000000003FFC0000000007FF000FF0000000000
310
3FFFFFE00007FFFF00003FFFFF80007FFE00000000003FFFF00000000003FFF8
310
00000000000000007FFFFFF0001FFFFFFFFF8000000000FFFFFFFF8000000000
310
FFFFFF000000000003FF80000000003FF000FE00000000001FFFFFE00003FFFF
310
00003FFFFF80007FFC00000000001FFFE00000000001FFF8000001FFFE000000
310
7FFFFFF0001FFFFFFFFE00000000003FFFFFFE00000000003FFFFF0000000000
310
03FF00000000001FF000FC00000000000FFFFFE00003FFFF00001FFFFF80007F
310
F800000000001FFFC00000000000FFF8000001FFFE0000007FFFFFF0001FFFFF
310
FFFC00000000001FFFFFFC00000000001FFFFF000000000003FE00000000000F
310
F000F8000000000007FFFFE00003FFFF00001FFFFF80007FF800000000000FFF
310
800000000000FFF8000001FFFE0000007FFFFFF0001FFFFFFFF800000000000F
310
FFFFF800000000000FFFFF000000000003FC000000000007F000F80000000000
310
03FFFFC00003FFFE00001FFFFF80007FF0000000000007FF0000000000007FF8
310
000001FFFE0000007FFFFFF0001FFFFFFFF0000000000007FFFFF00000000000
310
07FFFF000000000003F8000000000003F000F0000000000003FFFFC00001FFFE
310
00001FFFFF80007FE0000000000007FE0000000000003FF8000001FFFE000000
310
7FFFFFF0001FFFFFFFF0000000000007FFFFF0000000000007FFFF0000000000
310
03F800001F800003F000E00001FFF00001FFFFC00001FFFE00000FFFFF80007F
310
E00001FFE00003FE00001FFF00003FF8000001FFFE0000007FFFFFF0001FFFFF
310
FFE000003E000003FFFFE000003E000003FFFF000000000003F00001FFF80001
310
F000E00007FFFC0001FFFFC00001FFFE00000FFFFF80007FC0000FFFFC0003FC
310
0000FFFFC0001FF8000001FFFE0000007FFFFFF0001FFFFFFFC00003FFE00001
310
FFFFC00003FFE00001FFFF0001FFFFFFFFF00007FFFE0001F000E0000FFFFF00
310
00FFFF800001FFFC00000FFFFF80007FC0001FFFFE0001FC0001FFFFE0001FF8
310
000001FFFE0000007FFFFFF0001FFFFFFF80000FFFF80000FFFF80000FFFF800
310
00FFFF0003FFFFFFFFE0000FFFFF8000F000C0003FFFFF8000FFFF800000FFFC
310
000007FFFF80007F80003FFFFF0001FC0003FFFFF0001FF8000001FFFE000000
310
7FFFFFF0001FFFFFFF80003FFFFE0000FFFF80003FFFFE0000FFFF0003FFFFFF
310
FFE0003FFFFF8000F000C0003FFFFF8000FFFF800000FFFC000007FFFF80007F
310
80007FFFFF8001F80007FFFFF8000FF8000001FFFE0000007FFFFFF0001FFFFF
310
FF00007FFFFF00007FFF00007FFFFF00007FFF0003FFFFFFFFE0003FFFFFC000
310
F000C0007FFFFFC000FFFF000000FFFC000007FFFF80007F8000FFFFFF8000F8
310
000FFFFFF8000FF8000001FFFE0000007FFFFFF0001FFFFFFF0000FFFFFF8000
310
7FFF0000FFFFFF80007FFF0003FFFFFFFFC0007FFFFFC00070008000FFFFFFC0
310
00FFFF000000FFF8000007FFFF80007F8000FFFFFF8000F8000FFFFFF8000FF8
310
000001FFFE0000007FFFFFF0001FFFFFFE0001FFFFFFC0003FFE0001FFFFFFC0
310
003FFF0003FFFFFFFFC0007FFFFFE00070008000FFFFFFC0007FFF0000007FF8
310
000003FFFF80007F0001FFFFFF8000F8000FFFFFF8000FF8000001FFFE000000
310
7FFFFFF0001FFFFFFE0001FFFFFFC0003FFE0001FFFFFFC0003FFF0003FFFFFF
310
FFC000FFFFFFE00070008000FFFFFFC0007FFF0000007FF8000003FFFF80007F
310
0001FFFFFF8000F8001FFFFFF8000FF8000001FFFE0000007FFFFFF0001FFFFF
310
FE0003FFFFFFE0003FFE0003FFFFFFE0003FFF0003FFFFFFFFC000FFFFFFE000
310
70008000FFFFFFC0007FFE0000007FF8000003FFFF80007F0001FFFFFF8000F0
310
001FFFFFF8000FF8000001FFFE0000007FFFFFF0001FFFFFFC0003FFFFFFE000
310
1FFC0003FFFFFFE0001FFF0003FFFFFFFFC000FFFFFFC00070008000FFFFFF80
310
007FFE0000007FF0000003FFFF80007F0001FFFFFF0000F0001FFFFFF8000FF8
310
000001FFFE0000007FFFFFF0001FFFFFFC0007FFFFFFF0001FFC0007FFFFFFF0
310
001FFF0003FFFFFFFFC000FFFFFFC00070008001FFFFFF0000FFFE0000003FF0
310
000001FFFF80007F0001FFFFFF0000F8001FFFFFF0000FF8000001FFFE000000
310
7FFFFFF0001FFFFFFC0007FFFFFFF0001FFC0007FFFFFFF0001FFF0003FFFFFF
310
FFC001FFFFFF80007000FFFFFFFFFE0000FFFE0008003FF0008001FFFF80007F
310
FFFFFFFFFC0000FFFFFFFFFFE0000FF8000001FFFE0000007FFFFFF0001FFFFF
310
F8000FFFFFFFF8000FF8000FFFFFFFF8000FFF0003FFFFFFFFFFFFFFFFFF0000
310
7000FFFFFFFFFC0000FFFC0008003FF0008001FFFF80007FFFFFFFFFF80001FF
310
FFFFFFFF80000FF8000001FFFE0000007FFFFFF0001FFFFFF8000FFFFFFFF800
310
0FF8000FFFFFFFF8000FFF0003FFFFFFFFFFFFFFFFFE0000F000FFFFFFFFE000
310
00FFFC000C003FE000C001FFFF80007FFFFFFFFFC00001FFFFFFFFFE00001FF8
310
000001FFFE0000007FFFFFF0001FFFFFF8000FFFFFFFF8000FF8000FFFFFFFF8
310
000FFF0003FFFFFFFFFFFFFFFFF00000F000FFFFFFFE000001FFFC000C001FE0
310
00C000FFFF80007FFFFFFFFE000001FFFFFFFFE000001FF80FFFFFFFFFFFFFC0
310
7FFFFFF0001FFFFFF8000FFFFFFFF8000FF8000FFFFFFFF8000FFF0003FFFFFF
310
FFFFFFFFFF800000F000FFFFFFC0000001FFFC001C001FE001C000FFFF80007F
310
FFFFFF80000003FFFFFFF80000001FF80FFFFFFFFFFFFFC07FFFFFF0001FFFFF
310
F8001FFFFFFFFC000FF8001FFFFFFFFC000FFF0003FFFFFFFFFFFFFFF0000001
310
F000FFFFF800000001FFF8001C001FE001C000FFFF80007FFFFFF800000003FF
310
FFFF800000003FF80FFFFFFFFFFFFFC07FFFFFF0001FFFFFF8001FFFFFFFFC00
310
0FF8001FFFFFFFFC000FFF0003FFFFFFFFFFFFFE00000001F000FFFFC0000000
310
03FFF8001E001FC001E000FFFF80007FFFFF8000000007FFFFFC000000003FF8
310
0FFFFFFFFFFFFFC07FFFFFF0001FFFFFF8001FFFFFFFFC000FF8001FFFFFFFFC
310
000FFF0003FFFFFFFFFFFFE000000003F000FFFE0000000007FFF8001E000FC0
310
01E0007FFF80007FFFFE0000000007FFFFE0000000007FF80FFFFFFFFFFFFFC0
310
7FFFFFF0001FFFFFF0001FFFFFFFFC0007F0001FFFFFFFFC0007FF0003FFFFFF
310
FFFFFF0000000003F000FFF80000000007FFF8001E000FC003E0007FFF80007F
310
FFF0000000000FFFFF8000000000FFF80FFFFFFFFFFFFFC07FFFFFF0001FFFFF
310
F0001FFFFFFFFC0007F0001FFFFFFFFC0007FF0003FFFFFFFFFFFC0000000007
310
F000FFE0000000000FFFF0003E000FC003E0007FFF80007FFFC0000000001FFF
310
FE0000000001FFF80FFFFFFFFFFFFFC07FFFFFF0001FFFFFF0001FFFFFFFFC00
310
07F0001FFFFFFFFC0007FF0003FFFFFFFFFFF0000000000FF000FFC000000000
310
1FFFF0003F000F8003F0003FFF80007FFF80000000003FFFF80000000003FFF8
310
0FFFFFFFFFFFFFC07FFFFFF0001FFFFFF0001FFFFFFFFC0007F0001FFFFFFFFC
310
0007FF0003FFFFFFFFFFE0000000001FF000FF00000000007FFFF0003F000780
310
03F0003FFF80007FFF00000000007FFFF00000000007FFF80FFFFFFFFFFFFFC0
310
7FFFFFF0001FFFFFF0001FFFFFFFFC0007F0001FFFFFFFFC0007FF0003FFFFFF
310
FFFF80000000007FF000FE0000000000FFFFE0003F00078007F0003FFF80007F
310
FE0000000001FFFFE0000000001FFFF80FFFFFFFFFFFFFC07FFFFFF0001FFFFF
310
F0001FFFFFFFFC0007F0001FFFFFFFFC0007FF0003FFFFFFFFFF0000000000FF
310
F000FC0000000003FFFFE0007F00078007F0003FFF80007FFC0000000007FFFF
310
C0000000007FFFF80FFFFFFFFFFFFFC07FFFFFF0001FFFFFF8001FFFFFFFFC00
310
0FF8001FFFFFFFFC000FFF0003FFFFFFFFFE0000000003FFF000FC000000000F
310
FFFFE0007F80070007F8001FFF80007FF8000000001FFFFF8000000001FFFFF8
310
0FFFFFFFFFFFFFC07FFFFFF0001FFFFFF8001FFFFFFFFC000FF8001FFFFFFFFC
310
000FFF0003FFFFFFFFFC000000000FFFF000F8000000007FFFFFE0007F800700
310
07F8001FFF80007FF000000000FFFFFF800000000FFFFFF80FFFFFFFFFFFFFC0
310
7FFFFFF0001FFFFFF8000FFFFFFFF8000FF8000FFFFFFFF8000FFF0003FFFFFF
310
FFFC000000007FFFF000F800000007FFFFFFC0007F8003000FF8001FFF80007F
310
F000000007FFFFFF000000007FFFFFF80FFFFFFFFFFFFFC07FFFFFF0001FFFFF
310
F8000FFFFFFFF8000FF8000FFFFFFFF8000FFF0003FFFFFFFFF80000000FFFFF
310
F000F0000000FFFFFFFFC000FF8003000FF8001FFF80007FE0000000FFFFFFFF
310
0000000FFFFFFFF8000001FFFE0000007FFFFFF0001FFFFFF8000FFFFFFFF800
310
0FF8000FFFFFFFF8000FFF0003FFFFFFFFF8000000FFFFFFF000F000000FFFFF
310
FFFFC000FFC002000FF8000FFF80007FE000001FFFFFFFFE000001FFFFFFFFF8
310
000001FFFE0000007FFFFFF0001FFFFFF8000FFFFFFFF8000FF8000FFFFFFFF8
310
000FFF0003FFFFFFFFF000001FFFFFFFF000E00000FFFFFFFFFFC000FFC00200
310
0FFC000FFF80007FE00001FFFFFFFFFE00001FFFFFFFFFF8000001FFFE000000
310
7FFFFFF0001FFFFFFC000FFFFFFFF8001FFC000FFFFFFFF8001FFF0003FFFFFF
310
FFF00001FFFFFFFFF000E00007FFFFFFFFFF8000FFC000001FFC000FFF80007F
310
C0000FFFFFFFFFFE0000FFFFFFFFFFF8000001FFFE0000007FFFFFF0001FFFFF
310
FC0007FFFFFFF0001FFC0007FFFFFFF0001FFF0003FFFFFFFFF00007FFFFFFFF
310
F000E0001FFFFFFFFFFF8000FFC000001FFC000FFF80007FC0003FFFFFFFFFFE
310
0001FFFFFFFFFFF8000001FFFE0000007FFFFFF0001FFFFFFC0007FFFFFFF000
310
1FFC0007FFFFFFF0001FFF0003FFFFFFFFF0001FFFFFFFFFF000E0003FFFFF00
310
03FF8001FFE000001FFC0007FF80007FC0007FFFFF0007FC0003FFFFF0003FF8
310
000001FFFE0000007FFFFFF0001FFFFFFC0003FFFFFFE0001FFC0003FFFFFFE0
310
001FFF0003FFFFFFFFF0003FFFFFFFFFF000E0003FFFFF0001FF8001FFE00000
310
1FFE0007FF80007FC0007FFFFE0003FC0007FFFFE0003FF8000001FFFE000000
310
7FFFFFF0001FFFFFFE0003FFFFFFE0003FFE0003FFFFFFE0003FFF0003FFFFFF
310
FFF0003FFFFF8001F000E0003FFFFF0001FF0001FFE000001FFE0007FF80007F
310
C0007FFFFE0003FC0007FFFFE0003FF8000001FFFE0000007FFFFFF0001FFFFF
310
FE0001FFFFFFC0003FFE0001FFFFFFC0003FFF0003FFFFFFFFF0003FFFFF0001
310
F000E0003FFFFF0003FF0001FFE000003FFE0007FF80007FC0007FFFFE0003FC
310
0007FFFFE0003FF8000001FFFE0000007FFFFFF0001FFFFFFF0001FFFFFFC000
310
7FFF0001FFFFFFC0007FFF0003FFFFFFFFF0003FFFFF0001F000E0003FFFFE00
310
03FF0003FFF000003FFE0003FF80007FC0007FFFFC0003FE0007FFFFE0003FF8
310
000001FFFE0000007FFFFFF0001FFFFFFF0000FFFFFF80007FFF0000FFFFFF80
310
007FFF0003FFFFFFFFF0003FFFFF0001F000E0003FFFFE0003FF0003FFF00000
310
3FFF0003FF80007FC0007FFFFC0007FE0007FFFFC0003FF8000001FFFE000000
310
7FFFFFF0001FFFFFFF80007FFFFF0000FFFF80007FFFFF0000FFFF0003FFFFFF
310
FFF0003FFFFF0003F000E0003FFFFC0003FE0003FFF000003FFF0003FF80007F
310
E0003FFFF80007FE0003FFFFC0007FF8000001FFFE0000007FFFFFF0001FFFFF
310
FF80003FFFFE0000FFFF80003FFFFE0000FFFF0003FFFFFFFFF0001FFFFE0003
310
F000F0001FFFF80003FE0003FFF000007FFF0001FF80007FE0003FFFF00007FE
310
0001FFFF80007FF8000001FFFE0000007FFFFFF0001FFFFFFFC0000FFFF80001
310
FFFFC0000FFFF80001FFFF0003FFFFFFFFF0001FFFFC0003F000F0000FFFF000
310
07FE0007FFF800007FFF0001FF80007FE0001FFFE00007FF0000FFFE00007FF8
310
000001FFFE0000007FFFFFF0001FFFFFFFC00003FFE00001FFFFC00003FFE000
310
01FFFF0003FFFFFFFFF8000FFFF80003F000F00003FFC00007FC0007FFF80000
310
7FFF8001FF80007FF00007FF80000FFF00007FF80000FFF8000001FFFE000000
310
7F80000000000001FFE000003E000003FFFFE000003E000003FFFF0003FFFFFF
310
FFF80003FFE00007F000F800000000000FFC0007FFF800007FFF8001FF80007F
310
F000000000000FFF000000000000FFF8000001FFFE0000007F80000000000001
310
FFF0000000000007FFFFF0000000000007FFFF0003FFFFFFFFFC00007E000007
310
F000F800000000000FFC0007FFF80000FFFF8000FF80007FF800000000001FFF
310
800000000001FFF8000001FFFE0000007F80000000000001FFF800000000000F
310
FFFFF800000000000FFFFF0003FFFFFFFFFC00000000000FF000FC0000000000
310
1FFC0007FFFC0000FFFF8000FF80007FF800000000003FFFC00000000001FFF8
310
000001FFFE0000007F80000000000001FFF800000000000FFFFFF80000000000
310
0FFFFF0003FFFFFFFFFE00000000001FF000FE00000000003FF8000FFFFC0000
310
FFFF8000FF80007FFC00000000003FFFC00000000003FFF8000001FFFE000000
310
7F80000000000001FFFC00000000001FFFFFFC00000000001FFFFF0003FFFFFF
310
FFFF00000000001FF000FF00000000003FF8000FFFFC0000FFFFC000FF80007F
310
FE00000000007FFFE00000000007FFF8000001FFFE0000007F80000000000001
310
FFFE00000000003FFFFFFE00000000003FFFFF0003FFFFFFFFFF80000000003F
310
F000FF80000000007FF8000FFFFC0001FFFFC0007F80007FFF0000000000FFFF
310
F0000000000FFFF800000000000000007F80000000000001FFFF8000000000FF
310
FFFFFF8000000000FFFFFF0003FFFFFFFFFFC0000000007FF000FFC000000000
310
FFF8000FFFFE0001FFFFC0007F80007FFF8000000001FFFFF8000000001FFFF8
310
00000000000000007F80000000000001FFFFC000000001FFFFFFFFC000000001
310
FFFFFF0003FFFFFFFFFFE000000000FFF000FFE000000003FFF0001FFFFE0001
310
FFFFC0007F80007FFFC000000007FFFFFE000000003FFFF80000000000000000
310
7F80000000000001FFFFE000000003FFFFFFFFE000000003FFFFFF0003FFFFFF
310
FFFFF000000003FFF000FFF80000000FFFF0001FFFFE0001FFFFE0007F80007F
310
FFF00000000FFFFFFF00000000FFFFF800000000000000007F80000000000001
310
FFFFF80000000FFFFFFFFFF80000000FFFFFFF0003FFFFFFFFFFFC0000000FFF
310
F000FFFE0000003FFFF0001FFFFE0003FFFFE0003F80007FFFFC0000003FFFFF
310
FFC0000003FFFFF800000000000000007F80000000000001FFFFFE0000003FFF
310
FFFFFFFE0000003FFFFFFF0003FFFFFFFFFFFF0000003FFFF000FFFF800000FF
310
FFF0001FFFFF0003FFFFE0003F80007FFFFF000001FFFFFFFFF800001FFFFFF8
310
00000000000000007F80000000000001FFFFFFC00001FFFFFFFFFFFFC00001FF
310
FFFFFF0003FFFFFFFFFFFFC00000FFFFF000FFFFF8000FFFFFFFFFFFFFFFFFFF
310
FFFFFFFFFFFFFFFFFFFFF0001FFFFFFFFFFF0000FFFFFFF80000000000000000
310
7FFFFFFFFFFFFFFFFFFFFFFC001FFFFFFFFFFFFFFC001FFFFFFFFFFFFFFFFFFF
310
FFFFFFFC001FFFFFF000FFFFFFFFFFFFFFFFFFFFFFFFFFFFFFFFFFFFFFFFFFFF
310
FFFFFFFFFFFFFFFFFFFFFFFFFFFFFFFFFFFFFFFFFFFFFFFFFFFFFFFFFFFFFFFF
310
FFFFFFFFFFFFFFFFFFFFFFFFFFFFFFFFFFFFFFFFFFFFFFFFFFFFFFFFFFFFFFFF
310
F000FFFFFFFFFFFFFFFFFFFFFFFFFFFFFFFFFFFFFFFFFFFFFFFFFFFFFFFFFFFF
310
FFFFFFFFFFFFFFFFFFFFFFFFFFFFFFFFFFFFFFFFFFFFFFFFFFFFFFFFFFFFFFFF
310
FFFFFFFFFFFFFFFFFFFFFFFFFFFFFFFFFFFFFFFFFFFFFFFFF000FFFFFFFFFFFF
310
FFFFFFFFFFFFFFFFFFFFFFFFFFFFFFFFFFFFFFFFFFFFFFFFFFFFFFFFFFFFFFFF
310
FFFFFFFFFFFFFFFFFFFFFFFFFFFFFFFFFFFFFFFFFFFFFFFFFFFFFFFFFFFFFFFF
310
FFFFFFFFFFFFFFFFFFFFFFFFFFFFFFFFF000FFFFFFFFFFFFFFFFFFFFFFFFFFFF
310
FFFFFFFFFFFFFFFFFFFFFFFFFFFFFFFFFFFFFFFFFFFFFFFFFFFFFFFFFFFFFFFF
310
FFFFFFFFFFFFFFFFFFFFFFFFFFFFFFFFFFFFFFFFFFFFFFFFFFFFFFFFFFFFFFFF
310
FFFFFFFFFFFFFFFFF000FFFFFFFFFFFFFFFFFFFFFFFFFFFFFFFFFFFFFFFFFFFF
310
FFFFFFFFFFFFFFFFFFFFFFFFFFFFFFFFFFFFFFFFFFFFFFFFFFFFFFFFFFFFFFFF
310
FFFFFFFFFFFFFFFFFFFFFFFFFFFFFFFFFFFFFFFFFFFFFFFFFFFFFFFFFFFFFFFF
310
F000FFFFFFFFFFFFFFFFFFFFFFFFFFFFFFFFFFFFFFFFFFFFFFFFFFFFFFFFFFFF
310
FFFFFFFFFFFFFFFFFFFFFFFFFFFFFFFFFFFFFFFFFFFFFFFFFFFFFFFFFFFFFFFF
310
FFFFFFFFFFFFFFFFFFFFFFFFFFFFFFFFFFFFFFFFFFFFFFFFF000FFFFFFFFFFFF
310
FFFFFFFFFFFFFFFFFFFFFFFFFFFFFFFFFFFFFFFFFFFFFFFFFFFFFFFFFFFFFFFF
310
FFFFFFFFFFFFFFFFFFFFFFFFFFFFFFFFFFFFFFFFFFFFFFFFFFFFFFFFFFFFFFFF
310
FFFFFFFFFFFFFFFFFFFFFFFFFFFFFFFFF000FFFFFFFFFFFFFFFFFFFFFFFFFFFF
310
FFFFFFFFFFFFFFFFFFFFFFFFFFFFFFFFFFFFFFFFFFFFFFFFFFFFFFFFFFFFFFFF
310
FFFFFFFFFFFFFFFFFFFFFFFFFFFFFFFFFFFFFFFFFFFFFFFFFFFFFFFFFFFFFFFF
310
FFFFFFFFFFFFFFFFF000FFFFFFFFFFFFFFFFFFFFFFFFFFFFFFFFFFFFFFFFFFFF
310
FFFFFFFFFFFFFFFFFFFFFFFFFFFFFFFFFFFFFFFFFFFFFFFFFFFFFFFFFFFFFFFF
310
FFFFFFFFFFFFFFFFFFFFFFFFFFFFFFFFFFFFFFFFFFFFFFFFFFFFFFFFFFFFFFFF
310
F000FFFFFFFFFFFFFFFFFFFFFFFFFFFFFFFFFFFFFFFFFFFFFFFFFFFFFFFFFFFF
310
FFFFFFFFFFFFFFFFFFFFFFFFFFFFFFFFFFFFFFFFFFFFFFFFFFFFFFFFFFFFFFFF
310
FFFFFFFFFFFFFFFFFFFFFFFFFFFFFFFFFFFFFFFFFFFFFFFFF000FFFFFFFFFFFF
310
FFFFFFFFFFFFFFFFFFFFFFFFFFFFFFFFFFFFFFFFFFFFFFFFFFFFFFFFFFFFFFFF
310
FFFFFFFFFFFFFFFFFFFFFFFFFFFFFFFFFFFFFFFFFFFFFFFFFFFFFFFFFFFFFFFF
310
FFFFFFFFFFFFFFFFFFFFFFFFFFFFFFFFF000FFFFFFFFFFFFFFFFFFFFFFFFFFFF
310
FFFFFFFFFFFFFFFFFFFFFFFFFFFFFFFFFFFFFFFFFFFFFFFFFFFFFFFFFFFFFFFF
310
FFFFFFFFFFFFFFFFFFFFFFFFFFFFFFFFFFFFFFFFFFFFFFFFFFFFFFFFFFFFFFFF
310
FFFFFFFFFFFFFFFFF000FFFFFFFFFFFFFFFFFFFFFFFFFFFFFFFFFFFFFFFFFFFF
310
FFFFFFFFFFFFFFFFFFFFFFFFFFFFFFFFFFFFFFFFFFFFFFFFFFFFFFFFFFFFFFFF
310
FFFFFFFFFFFFFFFFFFFFFFFFFFFFFFFFFFFFFFFFFFFFFFFFFFFFFFFFFFFFFFFF
310
F000FFFFFFFFFFFFFFFFFFFFFFFFFFFFFFFFFFFFFFFFFFFFFFFFFFFFFFFFFFFF
310
FFFFFFFFFFFFFFFFFFFFFFFFFFFFFFFFFFFFFFFFFFFFFFFFFFFFFFFFFFFFFFFF
310
FFFFFFFFFFFFFFFFFFFFFFFFFFFFFFFFFFFFFFFFFFFFFFFFF000FFFFFFFFFFFF
310
FFFFFFFFFFFFFFFFFFFFFFFFFFFFFFFFFFFFFFFFFFFFFFFFFFFFFFFFFFFFFFFF
310
FFFFFFFFFFFFFFFFFFFFFFFFFFFFFFFFFFFFFFFFFFFFFFFFFFFFFFFFFFFFFFFF
310
FFFFFFFFFFFFFFFFFFFFFFFFFFFFFFFFF000FFFFFFFFFFFFFFFFFFFFFFFFFFFF
310
FFFFFFFFFFFFFFFFFFFFFFFFFFFFFFFFFFFFFFFFFFFFFFFFFFFFFFFFFFFFFFFF
310
FFFFFFFFFFFFFFFFFFFFFFFFFFFFFFFFFFFFFFFFFFFFFFFFFFFFFFFFFFFFFFFF
310
FFFFFFFFFFFFFFFFF000FFFFFFFFFFFFFFFFFFFFFFFFFFFFFFFFFFFFFFFFFFFF
310
FFFFFFFFFFFFFFFFFFFFFFFFFFFFFFFFFFFFFFFFFFFFFFFFFFFFFFFFFFFFFFFF
310
FFFFFFFFFFFFFFFFFFFFFFFFFFFFFFFFFFFFFFFFFFFFFFFFFFFFFFFFFFFFFFFF
310
F000FFFFFFFFFFFFFFFFFFFFFFFFFFFFFFFFFFFFFFFFFFFFFFFFFFFFFFFFFFFF
310
FFFFFFFFFFFFFFFFFFFFFFFFFFFFFFFFFFFFFFFFFFFFFFFFFFFFFFFFFFFFFFFF
310
FFFFFFFFFFFFFFFFFFFFFFFFFFFFFFFFFFFFFFFFFFFFFFFFF000FFFFFFFFFFFF
310
FFFFFFFFFFFFFFFFFFFFFFFFFFFFFFFFFFFFFFFFFFFFFFFFFFFFFFFFFFFFFFFF
310
FFFFFFFFFFFFFFFFFFFFFFFFFFFFFFFFFFFFFFFFFFFFFFFFFFFFFFFFFFFFFFFF
310
FFFFFFFFFFFFFFFFFFFFFFFFFFFFFFFFF000FFFFFFFFFFFFFFFFFFFFFFFFFFFF
310
FFFFFFFFFFFFFFFFFFFFFFFFFFFFFFFFFFFFFFFFFFFFFFFFFFFFFFFFFFFFFFFF
310
FFFFFFFFFFFFFFFFFFFFFFFFFFFFFFFFFFFFFFFFFFFFFFFFFFFFFFFFFFFFFFFF
310
FFFFFFFFFFFFFFFFF000FFFFFFFFFFFFFFFFFFFFFFFFFFFFFFFFFFFFFFFFFFFF
310
FFFFFFFFFFFFFFFFFFFFFFFFFFFFFFFFFFFFFFFFFFFFFFFFFFFFFFFFFFFFFFFF
310
FFFFFFFFFFFFFFFFFFFFFFFFFFFFFFFFFFFFFFFFFFFFFFFFFFFFFFFFFFFFFFFF
310
F000FFFFFFFFFFFFFFFFFFFFFFFFFFFFFFFFFFFFFFFFFFFFFFFFFFFFFFFFFFFF
310
FFFFFFFFFFFFFFFFFFFFFFFFFFFFFFFFFFFFFFFFFFFFFFFFFFFFFFFFFFFFFFFF
310
FFFFFFFFFFFFFFFFFFFFFFFFFFFFFFFFFFFFFFFFFFFFFFFFF000FFFFFFFFFFFF
310
FFFFFFFFFFFFFFFFFFFFFFFFFFFFFFFFFFFFFFFFFFFFFFFFFFFFFFFFFFFFFFFF
310
FFFFFFFFFFFFFFFFFFFFFFFFFFFFFFFFFFFFFFFFFFFFFFFFFFFFFFFFFFFFFFFF
310
FFFFFFFFFFFFFFFFFFFFFFFFFFFFFFFFF0000000000000000000000000000000
310
0000000001000000010000000100000001000000010000000100000000000000
310
0100000001000000010000000100000000000000010000000100000001000000
310
0100000001000000010000000000000001000000000000000100000000000000
310
0100000001000000010000000000000001000000010000000100000000000000
310
0100000001000000010000000100000001000000010000000100000001000000
310
0000000001000000010000000100000001000000010000000100000001000000
310
0100000000000000010000000100000001000000010000000100000001000000
310
0100000001000000010000000100000001000000010000000100000001000000
310
0100000001000000010000000100000001000000010000000100000001000000
310
0100000001000000010000000100000001000000010000000100000001000000
310
0100000001000000010000000100000000000000010000000100000001000000
310
0100000001000000010000000100000001000000010000000100000001000000
310
0100000001000000010000000100000001000000010000000100000001000000
310
0100000001000000010000000100000001000000010000000100000001000000
310
0100000001000000010000000100000001000000010000000100000000000000
  1
OLE
  0
ENDSEC
  0
SECTION
  2
OBJECTS
  0
DICTIONARY
  5
C
330
0
100
AcDbDictionary
281
     1
  3
ACAD_GROUP
350
D
  3
ACAD_LAYOUT
350
1A
  3
ACAD_MLEADERSTYLE
350
2EF
  3
ACAD_MLINESTYLE
350
17
  3
ACAD_PLOTSETTINGS
350
19
  3
ACAD_PLOTSTYLENAME
350
E
  3
ACAD_TABLESTYLE
350
2EE
  3
ACAD_VISUALSTYLE
350
2A
  3
AcDbVariableDictionary
350
2F0
  0
DICTIONARY
  5
D
102
{ACAD_REACTORS
330
C
102
}
330
C
100
AcDbDictionary
281
     1
  0
DICTIONARY
  5
1A
102
{ACAD_REACTORS
330
C
102
}
330
C
100
AcDbDictionary
281
     1
  3
Layout1
350
1E
  3
Layout2
350
26
  3
Model
350
22
  0
DICTIONARY
  5
2EF
102
{ACAD_REACTORS
330
C
102
}
330
C
100
AcDbDictionary
281
     1
  0
DICTIONARY
  5
17
102
{ACAD_REACTORS
330
C
102
}
330
C
100
AcDbDictionary
281
     1
  3
Standard
350
18
  0
DICTIONARY
  5
19
102
{ACAD_REACTORS
330
C
102
}
330
C
100
AcDbDictionary
281
     1
  0
ACDBDICTIONARYWDFLT
  5
E
102
{ACAD_REACTORS
330
C
102
}
330
C
100
AcDbDictionary
281
     1
  3
Normal
350
F
100
AcDbDictionaryWithDefault
340
F
  0
DICTIONARY
  5
2EE
102
{ACAD_REACTORS
330
C
102
}
330
C
100
AcDbDictionary
281
     1
  0
DICTIONARY
  5
2A
102
{ACAD_REACTORS
330
C
102
}
330
C
100
AcDbDictionary
281
     1
  3
2dWireframe
350
2F
  3
3D Hidden
350
31
  3
3dWireframe
350
30
  3
Basic
350
32
  3
Brighten
350
36
  3
ColorChange
350
3A
  3
Conceptual
350
34
  3
Dim
350
35
  3
Facepattern
350
39
  3
Flat
350
2B
  3
FlatWithEdges
350
2C
  3
Gouraud
350
2D
  3
GouraudWithEdges
350
2E
  3
Linepattern
350
38
  3
Realistic
350
33
  3
Thicken
350
37
  0
DICTIONARY
  5
2F0
102
{ACAD_REACTORS
330
C
102
}
330
C
100
AcDbDictionary
281
     1
  3
PSOLHEIGHT
350
2F2
  3
PSOLWIDTH
350
2F1
  0
LAYOUT
  5
1E
102
{ACAD_REACTORS
330
1A
102
}
330
1A
100
AcDbPlotSettings
  1

  2
none_device
  4

  6

 40
0.0
 41
0.0
 42
0.0
 43
0.0
 44
0.0
 45
0.0
 46
0.0
 47
0.0
 48
0.0
 49
0.0
140
0.0
141
0.0
142
1.0
143
1.0
 70
   688
 72
     0
 73
     0
 74
     5
  7

 75
    16
147
1.0
148
0.0
149
0.0
100
AcDbLayout
  1
Layout1
 70
     1
 71
     1
 10
0.0
 20
0.0
 11
420.0
 21
297.0
 12
0.0
 22
0.0
 32
0.0
 14
1.0000000000E+20
 24
1.0000000000E+20
 34
1.0000000000E+20
 15
-1.0000000000E+20
 25
-1.0000000000E+20
 35
-1.0000000000E+20
146
0.0
 13
0.0
 23
0.0
 33
0.0
 16
1.0
 26
0.0
 36
0.0
 17
0.0
 27
1.0
 37
0.0
 76
     0
330
1B
  0
LAYOUT
  5
26
102
{ACAD_REACTORS
330
1A
102
}
330
1A
100
AcDbPlotSettings
  1

  2
none_device
  4

  6

 40
0.0
 41
0.0
 42
0.0
 43
0.0
 44
0.0
 45
0.0
 46
0.0
 47
0.0
 48
0.0
 49
0.0
140
0.0
141
0.0
142
1.0
143
1.0
 70
   688
 72
     0
 73
     0
 74
     5
  7

 75
    16
147
1.0
148
0.0
149
0.0
100
AcDbLayout
  1
Layout2
 70
     1
 71
     2
 10
0.0
 20
0.0
 11
0.0
 21
0.0
 12
0.0
 22
0.0
 32
0.0
 14
0.0
 24
0.0
 34
0.0
 15
0.0
 25
0.0
 35
0.0
146
0.0
 13
0.0
 23
0.0
 33
0.0
 16
1.0
 26
0.0
 36
0.0
 17
0.0
 27
1.0
 37
0.0
 76
     0
330
23
  0
LAYOUT
  5
22
102
{ACAD_REACTORS
330
1A
102
}
330
1A
100
AcDbPlotSettings
  1

  2
none_device
  4

  6

 40
0.0
 41
0.0
 42
0.0
 43
0.0
 44
0.0
 45
0.0
 46
0.0
 47
0.0
 48
0.0
 49
0.0
140
0.0
141
0.0
142
1.0
143
1.0
 70
  1712
 72
     0
 73
     0
 74
     0
  7

 75
     0
147
1.0
148
0.0
149
0.0
100
AcDbLayout
  1
Model
 70
     1
 71
     0
 10
0.0
 20
0.0
 11
297.0
 21
210.0
 12
0.0
 22
0.0
 32
0.0
 14
0.0
 24
0.0
 34
0.0
 15
297.0
 25
210.0
 35
0.0
146
0.0
 13
0.0
 23
0.0
 33
0.0
 16
1.0
 26
0.0
 36
0.0
 17
0.0
 27
1.0
 37
0.0
 76
     0
330
1F
331
29
  0
MLINESTYLE
  5
18
102
{ACAD_REACTORS
330
17
102
}
330
17
100
AcDbMlineStyle
  2
Standard
 70
     0
  3

 62
   256
 51
90.0
 52
90.0
 71
     2
 49
0.5
 62
   256
  6
BYLAYER
 49
-0.5
 62
   256
  6
BYLAYER
  0
ACDBPLACEHOLDER
  5
F
102
{ACAD_REACTORS
330
E
102
}
330
E
  0
VISUALSTYLE
  5
2F
102
{ACAD_REACTORS
330
2A
102
}
330
2A
100
AcDbVisualStyle
  2
2dWireframe
 70
     4
 71
     0
 72
     2
 73
     0
 90
        0
 40
-0.6
 41
-30.0
 62
     5
 63
     7
 74
     1
 91
        4
 64
     7
 65
   257
 75
     1
175
     1
 42
1.0
 92
        0
 66
   257
 43
1.0
 76
     1
 77
     6
 78
     2
 67
     7
 79
     5
170
     0
171
     0
290
     0
174
     0
 93
        1
 44
0.0
173
     0
291
     0
 45
0.0
1001
ACAD
1000
AcDbSavedByObjectVersion
1070
     0
  0
VISUALSTYLE
  5
31
102
{ACAD_REACTORS
330
2A
102
}
330
2A
100
AcDbVisualStyle
  2
3D Hidden
 70
     6
 71
     1
 72
     2
 73
     2
 90
        0
 40
-0.6
 41
-30.0
 62
     5
 63
     7
 74
     2
 91
        2
 64
     7
 65
   257
 75
     2
175
     1
 42
40.0
 92
        0
 66
   257
 43
1.0
 76
     1
 77
     6
 78
     2
 67
     7
 79
     3
170
     0
171
     0
290
     0
174
     0
 93
        1
 44
0.0
173
     0
291
     0
 45
0.0
1001
ACAD
1000
AcDbSavedByObjectVersion
1070
     0
  0
VISUALSTYLE
  5
30
102
{ACAD_REACTORS
330
2A
102
}
330
2A
100
AcDbVisualStyle
  2
3dWireframe
 70
     5
 71
     0
 72
     2
 73
     0
 90
        0
 40
-0.6
 41
-30.0
 62
     5
 63
     7
 74
     1
 91
        4
 64
     7
 65
   257
 75
     1
175
     1
 42
1.0
 92
        0
 66
   257
 43
1.0
 76
     1
 77
     6
 78
     2
 67
     7
 79
     5
170
     0
171
     0
290
     0
174
     0
 93
        1
 44
0.0
173
     0
291
     0
 45
0.0
1001
ACAD
1000
AcDbSavedByObjectVersion
1070
     0
  0
VISUALSTYLE
  5
32
102
{ACAD_REACTORS
330
2A
102
}
330
2A
100
AcDbVisualStyle
  2
Basic
 70
     7
 71
     1
 72
     0
 73
     1
 90
        0
 40
-0.6
 41
-30.0
 62
     5
 63
     7
 74
     0
 91
        4
 64
     7
 65
   257
 75
     1
175
     1
 42
1.0
 92
        8
 66
     7
 43
1.0
 76
     1
 77
     6
 78
     2
 67
     7
 79
     5
170
     0
171
     0
290
     0
174
     0
 93
        1
 44
0.0
173
     0
291
     1
 45
0.0
1001
ACAD
1000
AcDbSavedByObjectVersion
1070
     0
  0
VISUALSTYLE
  5
36
102
{ACAD_REACTORS
330
2A
102
}
330
2A
100
AcDbVisualStyle
  2
Brighten
 70
    12
 71
     2
 72
     2
 73
     0
 90
        0
 40
-0.6
 41
-30.0
 62
     5
 63
     7
 74
     1
 91
        4
 64
     7
 65
   257
 75
     1
175
     1
 42
1.0
 92
        8
 66
     7
 43
1.0
 76
     1
 77
     6
 78
     2
 67
     7
 79
     5
170
     0
171
     0
290
     0
174
     0
 93
        1
 44
50.0
173
     0
291
     1
 45
0.0
1001
ACAD
1000
AcDbSavedByObjectVersion
1070
     0
  0
VISUALSTYLE
  5
3A
102
{ACAD_REACTORS
330
2A
102
}
330
2A
100
AcDbVisualStyle
  2
ColorChange
 70
    16
 71
     2
 72
     2
 73
     3
 90
        0
 40
-0.6
 41
-30.0
 62
     5
 63
     8
 74
     1
 91
        4
 64
     7
 65
   257
 75
     1
175
     1
 42
1.0
 92
        8
 66
     8
 43
1.0
 76
     1
 77
     6
 78
     2
 67
     7
 79
     5
170
     0
171
     0
290
     0
174
     0
 93
        1
 44
0.0
173
     0
291
     1
 45
0.0
1001
ACAD
1000
AcDbSavedByObjectVersion
1070
     0
  0
VISUALSTYLE
  5
34
102
{ACAD_REACTORS
330
2A
102
}
330
2A
100
AcDbVisualStyle
  2
Conceptual
 70
     9
 71
     3
 72
     2
 73
     0
 90
        0
 40
-0.6
 41
-30.0
 62
     5
 63
     7
 74
     2
 91
        2
 64
     7
 65
   257
 75
     1
175
     1
 42
40.0
 92
        8
 66
     7
 43
1.0
 76
     1
 77
     6
 78
     2
 67
     7
 79
     3
170
     0
171
     0
290
     0
174
     0
 93
        1
 44
0.0
173
     0
291
     0
 45
0.0
1001
ACAD
1000
AcDbSavedByObjectVersion
1070
     0
  0
VISUALSTYLE
  5
35
102
{ACAD_REACTORS
330
2A
102
}
330
2A
100
AcDbVisualStyle
  2
Dim
 70
    11
 71
     2
 72
     2
 73
     0
 90
        0
 40
-0.6
 41
-30.0
 62
     5
 63
     7
 74
     1
 91
        4
 64
     7
 65
   257
 75
     1
175
     1
 42
1.0
 92
        8
 66
     7
 43
1.0
 76
     1
 77
     6
 78
     2
 67
     7
 79
     5
170
     0
171
     0
290
     0
174
     0
 93
        1
 44
-50.0
173
     0
291
     1
 45
0.0
1001
ACAD
1000
AcDbSavedByObjectVersion
1070
     0
  0
VISUALSTYLE
  5
39
102
{ACAD_REACTORS
330
2A
102
}
330
2A
100
AcDbVisualStyle
  2
Facepattern
 70
    15
 71
     2
 72
     2
 73
     0
 90
        0
 40
-0.6
 41
-30.0
 62
     5
 63
     7
 74
     1
 91
        4
 64
     7
 65
   257
 75
     1
175
     1
 42
1.0
 92
        8
 66
     7
 43
1.0
 76
     1
 77
     6
 78
     2
 67
     7
 79
     5
170
     0
171
     0
290
     0
174
     0
 93
        1
 44
0.0
173
     0
291
     1
 45
0.0
1001
ACAD
1000
AcDbSavedByObjectVersion
1070
     0
  0
VISUALSTYLE
  5
2B
102
{ACAD_REACTORS
330
2A
102
}
330
2A
100
AcDbVisualStyle
  2
Flat
 70
     0
 71
     2
 72
     1
 73
     1
 90
        2
 40
-0.6
 41
30.0
 62
     5
 63
     7
 74
     0
 91
        4
 64
     7
 65
   257
 75
     1
175
     1
 42
1.0
 92
        8
 66
     7
 43
1.0
 76
     1
 77
     6
 78
     2
 67
     7
 79
     5
170
     0
171
     0
290
     0
174
     0
 93
       13
 44
0.0
173
     0
291
     1
 45
0.0
1001
ACAD
1000
AcDbSavedByObjectVersion
1070
     0
  0
VISUALSTYLE
  5
2C
102
{ACAD_REACTORS
330
2A
102
}
330
2A
100
AcDbVisualStyle
  2
FlatWithEdges
 70
     1
 71
     2
 72
     1
 73
     1
 90
        2
 40
-0.6
 41
30.0
 62
     5
 63
     7
 74
     1
 91
        4
 64
     7
 65
   257
 75
     1
175
     1
 42
1.0
 92
        0
 66
   257
 43
1.0
 76
     1
 77
     6
 78
     2
 67
     7
 79
     5
170
     0
171
     0
290
     0
174
     0
 93
       13
 44
0.0
173
     0
291
     1
 45
0.0
1001
ACAD
1000
AcDbSavedByObjectVersion
1070
     0
  0
VISUALSTYLE
  5
2D
102
{ACAD_REACTORS
330
2A
102
}
330
2A
100
AcDbVisualStyle
  2
Gouraud
 70
     2
 71
     2
 72
     2
 73
     1
 90
        2
 40
-0.6
 41
30.0
 62
     5
 63
     7
 74
     0
 91
        4
 64
     7
 65
   257
 75
     1
175
     1
 42
1.0
 92
        0
 66
     7
 43
1.0
 76
     1
 77
     6
 78
     2
 67
     7
 79
     5
170
     0
171
     0
290
     0
174
     0
 93
       13
 44
0.0
173
     0
291
     1
 45
0.0
1001
ACAD
1000
AcDbSavedByObjectVersion
1070
     0
  0
VISUALSTYLE
  5
2E
102
{ACAD_REACTORS
330
2A
102
}
330
2A
100
AcDbVisualStyle
  2
GouraudWithEdges
 70
     3
 71
     2
 72
     2
 73
     1
 90
        2
 40
-0.6
 41
30.0
 62
     5
 63
     7
 74
     1
 91
        4
 64
     7
 65
   257
 75
     1
175
     1
 42
1.0
 92
        0
 66
   257
 43
1.0
 76
     1
 77
     6
 78
     2
 67
     7
 79
     5
170
     0
171
     0
290
     0
174
     0
 93
       13
 44
0.0
173
     0
291
     1
 45
0.0
1001
ACAD
1000
AcDbSavedByObjectVersion
1070
     0
  0
VISUALSTYLE
  5
38
102
{ACAD_REACTORS
330
2A
102
}
330
2A
100
AcDbVisualStyle
  2
Linepattern
 70
    14
 71
     2
 72
     2
 73
     0
 90
        0
 40
-0.6
 41
-30.0
 62
     5
 63
     7
 74
     1
 91
        4
 64
     7
 65
   257
 75
     7
175
     7
 42
1.0
 92
        8
 66
     7
 43
1.0
 76
     1
 77
     6
 78
     2
 67
     7
 79
     5
170
     0
171
     0
290
     0
174
     0
 93
        1
 44
0.0
173
     0
291
     1
 45
0.0
1001
ACAD
1000
AcDbSavedByObjectVersion
1070
     0
  0
VISUALSTYLE
  5
33
102
{ACAD_REACTORS
330
2A
102
}
330
2A
100
AcDbVisualStyle
  2
Realistic
 70
     8
 71
     2
 72
     2
 73
     0
 90
        0
 40
-0.6
 41
-30.0
 62
     5
 63
     7
 74
     1
 91
        0
 64
     7
 65
   257
 75
     1
175
     1
 42
1.0
 92
        8
 66
     8
 43
1.0
 76
     1
 77
     6
 78
     2
 67
     7
 79
     5
170
     0
171
     0
290
     0
174
     0
 93
       13
 44
0.0
173
     0
291
     0
 45
0.0
1001
ACAD
1000
AcDbSavedByObjectVersion
1070
     0
  0
VISUALSTYLE
  5
37
102
{ACAD_REACTORS
330
2A
102
}
330
2A
100
AcDbVisualStyle
  2
Thicken
 70
    13
 71
     2
 72
     2
 73
     0
 90
        0
 40
-0.6
 41
-30.0
 62
     5
 63
     7
 74
     1
 91
        4
 64
     7
 65
   257
 75
     1
175
     1
 42
1.0
 92
       12
 66
     7
 43
1.0
 76
     1
 77
     6
 78
     2
 67
     7
 79
     5
170
     0
171
     0
290
     0
174
     0
 93
        1
 44
0.0
173
     0
291
     1
 45
0.0
1001
ACAD
1000
AcDbSavedByObjectVersion
1070
     0
  0
DICTIONARYVAR
  5
2F2
102
{ACAD_REACTORS
330
2F0
102
}
330
2F0
100
DictionaryVariables
280
     0
  1
80.000000
  0
DICTIONARYVAR
  5
2F1
102
{ACAD_REACTORS
330
2F0
102
}
330
2F0
100
DictionaryVariables
280
     0
  1
5.000000
  0
ENDSEC
  0
EOF
