  0
SECTION
  2
HEADER
  9
$ACADVER
  1
AC1015
  9
$ACADMAINTVER
 70
     6
  9
$DWGCODEPAGE
  3
ANSI_1252
  9
$INSBASE
 10
0.0
 20
0.0
 30
0.0
  9
$EXTMIN
 10
0.0
 20
0.0
 30
0.0
  9
$EXTMAX
 10
297.0
 20
210.0
 30
0.0
  9
$LIMMIN
 10
0.0
 20
0.0
  9
$LIMMAX
 10
297.0
 20
210.0
  9
$ORTHOMODE
 70
     0
  9
$REGENMODE
 70
     1
  9
$FILLMODE
 70
     1
  9
$QTEXTMODE
 70
     0
  9
$MIRRTEXT
 70
     1
  9
$LTSCALE
 40
1.0
  9
$ATTMODE
 70
     1
  9
$TEXTSIZE
 40
2.0
  9
$TRACEWID
 40
1.0
  9
$TEXTSTYLE
  7
Standard
  9
$CLAYER
  8
0
  9
$CELTYPE
  6
ByLayer
  9
$CECOLOR
 62
   256
  9
$CELTSCALE
 40
1.0
  9
$DISPSILH
 70
     0
  9
$DIMSCALE
 40
1.0
  9
$DIMASZ
 40
3.0
  9
$DIMEXO
 40
0.0
  9
$DIMDLI
 40
3.75
  9
$DIMRND
 40
0.0
  9
$DIMDLE
 40
0.0
  9
$DIMEXE
 40
1.0
  9
$DIMTP
 40
0.0
  9
$DIMTM
 40
0.0
  9
$DIMTXT
 40
2.0
  9
$DIMCEN
 40
2.5
  9
$DIMTSZ
 40
0.0
  9
$DIMTOL
 70
     0
  9
$DIMLIM
 70
     0
  9
$DIMTIH
 70
     1
  9
$DIMTOH
 70
     1
  9
$DIMSE1
 70
     0
  9
$DIMSE2
 70
     0
  9
$DIMTAD
 70
     1
  9
$DIMZIN
 70
     0
  9
$DIMBLK
  1

  9
$DIMASO
 70
     1
  9
$DIMSHO
 70
     1
  9
$DIMPOST
  1

  9
$DIMAPOST
  1

  9
$DIMALT
 70
     0
  9
$DIMALTD
 70
     3
  9
$DIMALTF
 40
0.0393700787
  9
$DIMLFAC
 40
1.0
  9
$DIMTOFL
 70
     1
  9
$DIMTVP
 40
0.0
  9
$DIMTIX
 70
     0
  9
$DIMSOXD
 70
     0
  9
$DIMSAH
 70
     0
  9
$DIMBLK1
  1

  9
$DIMBLK2
  1

  9
$DIMSTYLE
  2
ISO-25
  9
$DIMCLRD
 70
     0
  9
$DIMCLRE
 70
     0
  9
$DIMCLRT
 70
     0
  9
$DIMTFAC
 40
1.0
  9
$DIMGAP
 40
1.524
  9
$DIMJUST
 70
     0
  9
$DIMSD1
 70
     0
  9
$DIMSD2
 70
     0
  9
$DIMTOLJ
 70
     0
  9
$DIMTZIN
 70
     0
  9
$DIMALTZ
 70
     0
  9
$DIMALTTZ
 70
     0
  9
$DIMUPT
 70
     0
  9
$DIMDEC
 70
     2
  9
$DIMTDEC
 70
     3
  9
$DIMALTU
 70
     2
  9
$DIMALTTD
 70
     3
  9
$DIMTXSTY
  7
Standard
  9
$DIMAUNIT
 70
     0
  9
$DIMADEC
 70
     2
  9
$DIMALTRND
 40
0.0
  9
$DIMAZIN
 70
     0
  9
$DIMDSEP
 70
    44
  9
$DIMATFIT
 70
     3
  9
$DIMFRAC
 70
     0
  9
$DIMLDRBLK
  1

  9
$DIMLUNIT
 70
     2
  9
$DIMLWD
 70
    -2
  9
$DIMLWE
 70
    -2
  9
$DIMTMOVE
 70
     0
  9
$LUNITS
 70
     2
  9
$LUPREC
 70
     2
  9
$SKETCHINC
 40
1.0
  9
$FILLETRAD
 40
10.0
  9
$AUNITS
 70
     0
  9
$AUPREC
 70
     2
  9
$MENU
  1
.
  9
$ELEVATION
 40
0.0
  9
$PELEVATION
 40
0.0
  9
$THICKNESS
 40
0.0
  9
$LIMCHECK
 70
     0
  9
$CHAMFERA
 40
10.0
  9
$CHAMFERB
 40
10.0
  9
$CHAMFERC
 40
20.0
  9
$CHAMFERD
 40
0.0
  9
$SKPOLY
 70
     0
  9
$TDCREATE
 40
2456518.352851354
  9
$TDUCREATE
 40
2456518.269518021
  9
$TDUPDATE
 40
2456518.352852986
  9
$TDUUPDATE
 40
2456518.269519653
  9
$TDINDWG
 40
0.0000000116
  9
$TDUSRTIMER
 40
0.0000000116
  9
$USRTIMER
 70
     1
  9
$ANGBASE
 50
0.0
  9
$ANGDIR
 70
     0
  9
$PDMODE
 70
     0
  9
$PDSIZE
 40
-1.0
  9
$PLINEWID
 40
0.0
  9
$SPLFRAME
 70
     0
  9
$SPLINETYPE
 70
     6
  9
$SPLINESEGS
 70
     8
  9
$HANDSEED
  5
2EB
  9
$SURFTAB1
 70
     6
  9
$SURFTAB2
 70
     6
  9
$SURFTYPE
 70
     6
  9
$SURFU
 70
     6
  9
$SURFV
 70
     6
  9
$UCSBASE
  2

  9
$UCSNAME
  2

  9
$UCSORG
 10
0.0
 20
0.0
 30
0.0
  9
$UCSXDIR
 10
1.0
 20
0.0
 30
0.0
  9
$UCSYDIR
 10
0.0
 20
1.0
 30
0.0
  9
$UCSORTHOREF
  2

  9
$UCSORTHOVIEW
 70
     0
  9
$UCSORGTOP
 10
0.0
 20
0.0
 30
0.0
  9
$UCSORGBOTTOM
 10
0.0
 20
0.0
 30
0.0
  9
$UCSORGLEFT
 10
0.0
 20
0.0
 30
0.0
  9
$UCSORGRIGHT
 10
0.0
 20
0.0
 30
0.0
  9
$UCSORGFRONT
 10
0.0
 20
0.0
 30
0.0
  9
$UCSORGBACK
 10
0.0
 20
0.0
 30
0.0
  9
$PUCSBASE
  2

  9
$PUCSNAME
  2

  9
$PUCSORG
 10
0.0
 20
0.0
 30
0.0
  9
$PUCSXDIR
 10
1.0
 20
0.0
 30
0.0
  9
$PUCSYDIR
 10
0.0
 20
1.0
 30
0.0
  9
$PUCSORTHOREF
  2

  9
$PUCSORTHOVIEW
 70
     0
  9
$PUCSORGTOP
 10
0.0
 20
0.0
 30
0.0
  9
$PUCSORGBOTTOM
 10
0.0
 20
0.0
 30
0.0
  9
$PUCSORGLEFT
 10
0.0
 20
0.0
 30
0.0
  9
$PUCSORGRIGHT
 10
0.0
 20
0.0
 30
0.0
  9
$PUCSORGFRONT
 10
0.0
 20
0.0
 30
0.0
  9
$PUCSORGBACK
 10
0.0
 20
0.0
 30
0.0
  9
$USERI1
 70
     0
  9
$USERI2
 70
     0
  9
$USERI3
 70
     0
  9
$USERI4
 70
     0
  9
$USERI5
 70
     0
  9
$USERR1
 40
0.0
  9
$USERR2
 40
0.0
  9
$USERR3
 40
0.0
  9
$USERR4
 40
0.0
  9
$USERR5
 40
0.0
  9
$WORLDVIEW
 70
     1
  9
$SHADEDGE
 70
     3
  9
$SHADEDIF
 70
    70
  9
$TILEMODE
 70
     1
  9
$MAXACTVP
 70
    64
  9
$PINSBASE
 10
0.0
 20
0.0
 30
0.0
  9
$PLIMCHECK
 70
     0
  9
$PEXTMIN
 10
1.0000000000E+20
 20
1.0000000000E+20
 30
1.0000000000E+20
  9
$PEXTMAX
 10
-1.0000000000E+20
 20
-1.0000000000E+20
 30
-1.0000000000E+20
  9
$PLIMMIN
 10
0.0
 20
0.0
  9
$PLIMMAX
 10
420.0
 20
297.0
  9
$UNITMODE
 70
     0
  9
$VISRETAIN
 70
     1
  9
$PLINEGEN
 70
     0
  9
$PSLTSCALE
 70
     1
  9
$TREEDEPTH
 70
  3020
  9
$CMLSTYLE
  2
Standard
  9
$CMLJUST
 70
     0
  9
$CMLSCALE
 40
20.0
  9
$PROXYGRAPHICS
 70
     1
  9
$MEASUREMENT
 70
     1
  9
$CELWEIGHT
370
    -1
  9
$ENDCAPS
280
     0
  9
$JOINSTYLE
280
     0
  9
$LWDISPLAY
290
     1
  9
$INSUNITS
 70
     4
  9
$HYPERLINKBASE
  1

  9
$STYLESHEET
  1

  9
$XEDIT
290
     1
  9
$CEPSNTYPE
380
     0
  9
$PSTYLEMODE
290
     1
  9
$FINGERPRINTGUID
  2
{AB4FB45B-14CF-4C33-9F3A-5D73724ABD06}
  9
$VERSIONGUID
  2
{FAEB1C32-E019-11D5-929B-00C0DF256EC4}
  9
$EXTNAMES
290
     1
  9
$PSVPSCALE
 40
0.0
  9
$OLESTARTUP
290
     0
  0
ENDSEC
  0
SECTION
  2
CLASSES
  0
CLASS
  1
ACDBDICTIONARYWDFLT
  2
AcDbDictionaryWithDefault
  3
ObjectDBX Classes
 90
        0
280
     0
281
     0
  0
CLASS
  1
VISUALSTYLE
  2
AcDbVisualStyle
  3
ObjectDBX Classes
 90
     4095
280
     0
281
     0
  0
CLASS
  1
MATERIAL
  2
AcDbMaterial
  3
ObjectDBX Classes
 90
     1153
280
     0
281
     0
  0
CLASS
  1
ACDBPLACEHOLDER
  2
AcDbPlaceHolder
  3
ObjectDBX Classes
 90
        0
280
     0
281
     0
  0
CLASS
  1
LAYOUT
  2
AcDbLayout
  3
ObjectDBX Classes
 90
        0
280
     0
281
     0
  0
ENDSEC
  0
SECTION
  2
TABLES
  0
TABLE
  2
VPORT
  5
8
330
0
100
AcDbSymbolTable
 70
     1
  0
VPORT
  5
29
330
8
100
AcDbSymbolTableRecord
100
AcDbViewportTableRecord
  2
*Active
 70
     0
 10
0.0
 20
0.0
 11
1.0
 21
1.0
 12
148.5
 22
105.0
 13
0.0
 23
0.0
 14
10.0
 24
10.0
 15
10.0
 25
10.0
 16
0.0
 26
0.0
 36
1.0
 17
0.0
 27
0.0
 37
0.0
 40
210.0
 41
1.4142857143
 42
50.0
 43
0.0
 44
0.0
 50
0.0
 51
0.0
 71
     0
 72
  2000
 73
     1
 74
     3
 75
     0
 76
     0
 77
     0
 78
     0
281
     0
 65
     1
110
0.0
120
0.0
130
0.0
111
1.0
121
0.0
131
0.0
112
0.0
122
1.0
132
0.0
 79
     0
146
0.0
  0
ENDTAB
  0
TABLE
  2
LTYPE
  5
5
330
0
100
AcDbSymbolTable
 70
     6
  0
LTYPE
  5
14
330
5
100
AcDbSymbolTableRecord
100
AcDbLinetypeTableRecord
  2
ByBlock
 70
     0
  3

 72
    65
 73
     0
 40
0.0
  0
LTYPE
  5
15
330
5
100
AcDbSymbolTableRecord
100
AcDbLinetypeTableRecord
  2
ByLayer
 70
     0
  3

 72
    65
 73
     0
 40
0.0
  0
LTYPE
  5
16
330
5
100
AcDbSymbolTableRecord
100
AcDbLinetypeTableRecord
  2
Continuous
 70
     0
  3
Solid line
 72
    65
 73
     0
 40
0.0
  0
LTYPE
  5
3F
330
5
100
AcDbSymbolTableRecord
100
AcDbLinetypeTableRecord
  2
HIDDEN
 70
     0
  3
Hidden __ __ __ __ __ __ __ __ __ __ __ __ __ __
 72
    65
 73
     2
 40
1.905
 49
1.27
 74
     0
 49
-0.635
 74
     0
  0
LTYPE
  5
40
330
5
100
AcDbSymbolTableRecord
100
AcDbLinetypeTableRecord
  2
PHANTOM
 70
     0
  3
Phantom ______  __  __  ______  __  __  ______
 72
    65
 73
     6
 40
12.7
 49
6.35
 74
     0
 49
-1.27
 74
     0
 49
1.27
 74
     0
 49
-1.27
 74
     0
 49
1.27
 74
     0
 49
-1.27
 74
     0
  0
LTYPE
  5
41
330
5
100
AcDbSymbolTableRecord
100
AcDbLinetypeTableRecord
  2
CENTER
 70
     0
  3
Center ____ _ ____ _ ____ _ ____ _ ____ _ ____
 72
    65
 73
     4
 40
10.16
 49
6.35
 74
     0
 49
-1.27
 74
     0
 49
1.27
 74
     0
 49
-1.27
 74
     0
  0
LTYPE
  5
42
330
5
100
AcDbSymbolTableRecord
100
AcDbLinetypeTableRecord
  2
CENTERX2
 70
     0
  3
Center (2x) ________  __  ________  __  _____
 72
    65
 73
     4
 40
20.32
 49
12.7
 74
     0
 49
-2.54
 74
     0
 49
2.54
 74
     0
 49
-2.54
 74
     0
  0
LTYPE
  5
43
330
5
100
AcDbSymbolTableRecord
100
AcDbLinetypeTableRecord
  2
DOT2
 70
     0
  3
Dot (.5x) ........................................
 72
    65
 73
     2
 40
0.635
 49
0.0
 74
     0
 49
-0.635
 74
     0
  0
ENDTAB
  0
TABLE
  2
LAYER
  5
2
330
0
100
AcDbSymbolTable
 70
     5
  0
LAYER
  5
10
330
2
100
AcDbSymbolTableRecord
100
AcDbLayerTableRecord
  2
0
 70
     0
 62
     7
  6
Continuous
370
    -3
390
F
  0
LAYER
  5
44
330
2
100
AcDbSymbolTableRecord
100
AcDbLayerTableRecord
  2
FORMAT
 70
     0
 62
     7
  6
Continuous
370
    -3
390
F
  0
LAYER
  5
45
330
2
100
AcDbSymbolTableRecord
100
AcDbLayerTableRecord
  2
VERMASSUNG
 70
     0
 62
     7
  6
Continuous
370
    -3
390
F
  0
LAYER
  5
46
330
2
100
AcDbSymbolTableRecord
100
AcDbLayerTableRecord
  2
KOPF_DÜNN
 70
     0
 62
     7
  6
Continuous
370
    -3
390
F
  0
LAYER
  5
47
330
2
100
AcDbSymbolTableRecord
100
AcDbLayerTableRecord
  2
KOPF_DICK
 70
     0
 62
     7
  6
Continuous
370
    15
390
F
  0
ENDTAB
  0
TABLE
  2
STYLE
  5
3
330
0
100
AcDbSymbolTable
 70
     3
  0
STYLE
  5
11
330
3
100
AcDbSymbolTableRecord
100
AcDbTextStyleTableRecord
  2
Standard
 70
     0
 40
0.0
 41
1.0
 50
0.0
 71
     0
 42
2.0
  3
txt
  4

  0
STYLE
  5
48
330
3
100
AcDbSymbolTableRecord
100
AcDbTextStyleTableRecord
  2
SLDTEXTSTYLE0
 70
     0
 40
0.0
 41
0.7
 50
0.0
 71
     0
 42
0.2
  3
TXT
  4

  0
STYLE
  5
4C
330
3
100
AcDbSymbolTableRecord
100
AcDbTextStyleTableRecord
  2
SLDTEXTSTYLE1
 70
     0
 40
0.0
 41
0.6481481481
 50
0.0
 71
     0
 42
0.2
  3
TXT
  4

  0
ENDTAB
  0
TABLE
  2
VIEW
  5
6
330
0
100
AcDbSymbolTable
 70
     0
  0
ENDTAB
  0
TABLE
  2
UCS
  5
7
330
0
100
AcDbSymbolTable
 70
     0
  0
ENDTAB
  0
TABLE
  2
APPID
  5
9
330
0
100
AcDbSymbolTable
 70
     1
  0
APPID
  5
12
330
9
100
AcDbSymbolTableRecord
100
AcDbRegAppTableRecord
  2
ACAD
 70
     0
  0
ENDTAB
  0
TABLE
  2
DIMSTYLE
  5
A
330
0
100
AcDbSymbolTable
 70
     2
100
AcDbDimStyleTable
  0
DIMSTYLE
105
27
330
A
100
AcDbSymbolTableRecord
100
AcDbDimStyleTableRecord
  2
ISO-25
 70
     0
 41
2.5
 42
0.625
 43
3.75
 44
1.25
 73
     0
 74
     0
 77
     1
 78
     8
140
2.5
141
2.5
143
0.0393700787
147
0.625
171
     3
172
     1
178
     0
271
     2
272
     2
274
     3
278
    44
283
     0
284
     8
340
11
  0
DIMSTYLE
105
177
102
{ACAD_REACTORS
330
176
330
181
330
18D
330
197
330
2BE
330
2C8
330
2D2
330
2DC
102
}
330
A
100
AcDbSymbolTableRecord
100
AcDbDimStyleTableRecord
  2
SLDDIMSTYLE0
 70
     0
 41
3.0
 44
0.0
 45
0.000000001
 73
     0
 74
     0
 77
     1
 78
    12
 79
     3
140
2.0
147
0.5
173
     1
178
     0
271
     2
272
     3
276
     2
284
    12
340
48
  0
ENDTAB
  0
TABLE
  2
BLOCK_RECORD
  5
1
330
0
100
AcDbSymbolTable
 70
     9
  0
BLOCK_RECORD
  5
1F
330
1
100
AcDbSymbolTableRecord
100
AcDbBlockTableRecord
  2
*Model_Space
340
22
  0
BLOCK_RECORD
  5
1B
330
1
100
AcDbSymbolTableRecord
100
AcDbBlockTableRecord
  2
*Paper_Space
340
1E
  0
BLOCK_RECORD
  5
23
330
1
100
AcDbSymbolTableRecord
100
AcDbBlockTableRecord
  2
*Paper_Space0
340
26
  0
BLOCK_RECORD
  5
178
330
1
100
AcDbSymbolTableRecord
100
AcDbBlockTableRecord
  2
_D
340
0
  0
BLOCK_RECORD
  5
182
330
1
100
AcDbSymbolTableRecord
100
AcDbBlockTableRecord
  2
_D_1
340
0
  0
BLOCK_RECORD
  5
18E
330
1
100
AcDbSymbolTableRecord
100
AcDbBlockTableRecord
  2
_D_2
340
0
  0
BLOCK_RECORD
  5
198
330
1
100
AcDbSymbolTableRecord
100
AcDbBlockTableRecord
  2
_D_3
340
0
  0
BLOCK_RECORD
  5
2BF
330
1
100
AcDbSymbolTableRecord
100
AcDbBlockTableRecord
  2
_D_4
340
0
  0
BLOCK_RECORD
  5
2C9
330
1
100
AcDbSymbolTableRecord
100
AcDbBlockTableRecord
  2
_D_5
340
0
  0
BLOCK_RECORD
  5
2D3
330
1
100
AcDbSymbolTableRecord
100
AcDbBlockTableRecord
  2
_D_6
340
0
  0
BLOCK_RECORD
  5
2DD
330
1
100
AcDbSymbolTableRecord
100
AcDbBlockTableRecord
  2
_D_7
340
0
  0
ENDTAB
  0
ENDSEC
  0
SECTION
  2
BLOCKS
  0
BLOCK
  5
20
330
1F
100
AcDbEntity
  8
0
100
AcDbBlockBegin
  2
*Model_Space
 70
     0
 10
0.0
 20
0.0
 30
0.0
  3
*Model_Space
  1

  0
ENDBLK
  5
21
330
1F
100
AcDbEntity
  8
0
100
AcDbBlockEnd
  0
BLOCK
  5
1C
330
1B
100
AcDbEntity
 67
     1
  8
0
100
AcDbBlockBegin
  2
*Paper_Space
 70
     0
 10
0.0
 20
0.0
 30
0.0
  3
*Paper_Space
  1

  0
ENDBLK
  5
1D
330
1B
100
AcDbEntity
 67
     1
  8
0
100
AcDbBlockEnd
  0
BLOCK
  5
24
330
23
100
AcDbEntity
  8
0
100
AcDbBlockBegin
  2
*Paper_Space0
 70
     0
 10
0.0
 20
0.0
 30
0.0
  3
*Paper_Space0
  1

  0
ENDBLK
  5
25
330
23
100
AcDbEntity
  8
0
100
AcDbBlockEnd
  0
BLOCK
  5
179
330
178
100
AcDbEntity
  8
0
100
AcDbBlockBegin
  2
_D
 70
     0
 10
0.0
 20
0.0
 30
0.0
  3
_D
  1

  0
SOLID
  5
17B
330
178
100
AcDbEntity
  8
VERMASSUNG
100
AcDbTrace
 10
145.7347490618
 20
102.1448244067
 30
0.0
 11
148.7347490618
 21
101.6948244067
 31
0.0
 12
148.7347490618
 22
102.5948244067
 32
0.0
 13
148.7347490618
 23
102.5948244067
 33
0.0
  0
SOLID
  5
17C
330
178
100
AcDbEntity
  8
VERMASSUNG
100
AcDbTrace
 10
235.7347490618
 20
102.1448244067
 30
0.0
 11
232.7347490618
 21
102.5948244067
 31
0.0
 12
232.7347490618
 22
101.6948244067
 32
0.0
 13
232.7347490618
 23
101.6948244067
 33
0.0
  0
LINE
  5
17D
330
178
100
AcDbEntity
  8
VERMASSUNG
100
AcDbLine
 10
145.7347490618
 20
89.4944561112
 30
0.0
 11
145.7347490618
 21
103.1448244067
 31
0.0
  0
LINE
  5
17E
330
178
100
AcDbEntity
  8
VERMASSUNG
100
AcDbLine
 10
235.7347490618
 20
98.2944561112
 30
0.0
 11
235.7347490618
 21
103.1448244067
 31
0.0
  0
LINE
  5
17F
330
178
100
AcDbEntity
  8
VERMASSUNG
100
AcDbLine
 10
145.7347490618
 20
102.1448244067
 30
0.0
 11
235.7347490618
 21
102.1448244067
 31
0.0
  0
MTEXT
  5
180
330
178
100
AcDbEntity
  8
VERMASSUNG
100
AcDbMText
 10
186.9263560753
 20
104.7229597698
 30
0.0
 40
2.0
 41
0.0
 71
     1
 72
     1
  1
90
  7
SLDTEXTSTYLE0
 73
     1
 44
1.0
  0
ENDBLK
  5
17A
330
178
100
AcDbEntity
  8
0
100
AcDbBlockEnd
  0
BLOCK
  5
183
330
182
100
AcDbEntity
  8
0
100
AcDbBlockBegin
  2
_D_1
 70
     0
 10
0.0
 20
0.0
 30
0.0
  3
_D_1
  1

  0
SOLID
  5
185
330
182
100
AcDbEntity
  8
VERMASSUNG
100
AcDbTrace
 10
108.717252127
 20
89.7944561112
 30
0.0
 11
108.267252127
 21
86.7944561112
 31
0.0
 12
109.167252127
 22
86.7944561112
 32
0.0
 13
109.167252127
 23
86.7944561112
 33
0.0
  0
SOLID
  5
186
330
182
100
AcDbEntity
  8
VERMASSUNG
100
AcDbTrace
 10
108.717252127
 20
26.7944561112
 30
0.0
 11
109.167252127
 21
29.7944561112
 31
0.0
 12
108.267252127
 22
29.7944561112
 32
0.0
 13
108.267252127
 23
29.7944561112
 33
0.0
  0
LINE
  5
187
330
182
100
AcDbEntity
  8
VERMASSUNG
100
AcDbLine
 10
146.0347490618
 20
89.7944561112
 30
0.0
 11
107.717252127
 21
89.7944561112
 31
0.0
  0
LINE
  5
188
330
182
100
AcDbEntity
  8
VERMASSUNG
100
AcDbLine
 10
146.0347490618
 20
26.7944561112
 30
0.0
 11
107.717252127
 21
26.7944561112
 31
0.0
  0
LINE
  5
189
330
182
100
AcDbEntity
  8
VERMASSUNG
100
AcDbLine
 10
108.717252127
 20
89.7944561112
 30
0.0
 11
108.717252127
 21
26.7944561112
 31
0.0
  0
MTEXT
  5
18A
330
182
100
AcDbEntity
  8
VERMASSUNG
100
AcDbMText
 10
105.939116638
 20
49.9858254821
 30
0.0
 40
2.0
 41
0.0
 71
     1
 72
     1
  1
HSK T
  7
SLDTEXTSTYLE0
 11
-7.044195017643634E-15
 21
1.0
 31
0.0
 73
     1
 44
1.0
  0
MTEXT
  5
18B
330
182
100
AcDbEntity
  8
VERMASSUNG
100
AcDbMText
 10
106.1391166475
 20
58.7858254344
 30
0.0
 40
2.0
 41
0.0
 71
     1
 72
     1
  1
%%c
  7
SLDTEXTSTYLE0
 11
-7.044195017643634E-15
 21
1.0
 31
0.0
 73
     1
 44
1.0
  0
MTEXT
  5
18C
330
182
100
AcDbEntity
  8
VERMASSUNG
100
AcDbMText
 10
106.1391167639
 20
62.3941532585
 30
0.0
 40
2.0
 41
0.0
 71
     1
 72
     1
  1
63
  7
SLDTEXTSTYLE0
 11
-7.044195017643634E-15
 21
1.0
 31
0.0
 73
     1
 44
1.0
  0
ENDBLK
  5
184
330
182
100
AcDbEntity
  8
0
100
AcDbBlockEnd
  0
BLOCK
  5
18F
330
18E
100
AcDbEntity
  8
0
100
AcDbBlockBegin
  2
_D_2
 70
     0
 10
0.0
 20
0.0
 30
0.0
  3
_D_2
  1

  0
SOLID
  5
191
330
18E
100
AcDbEntity
  8
VERMASSUNG
100
AcDbTrace
 10
113.8347490618
 20
107.4360699669
 30
0.0
 11
116.8347490618
 21
106.9860699669
 31
0.0
 12
116.8347490618
 22
107.8860699669
 32
0.0
 13
116.8347490618
 23
107.8860699669
 33
0.0
  0
SOLID
  5
192
330
18E
100
AcDbEntity
  8
VERMASSUNG
100
AcDbTrace
 10
235.7347490618
 20
107.4360699669
 30
0.0
 11
232.7347490618
 21
107.8860699669
 31
0.0
 12
232.7347490618
 22
106.9860699669
 32
0.0
 13
232.7347490618
 23
106.9860699669
 33
0.0
  0
LINE
  5
193
330
18E
100
AcDbEntity
  8
VERMASSUNG
100
AcDbLine
 10
113.8347490618
 20
78.2705166158
 30
0.0
 11
113.8347490618
 21
108.4360699669
 31
0.0
  0
LINE
  5
194
330
18E
100
AcDbEntity
  8
VERMASSUNG
100
AcDbLine
 10
235.7347490618
 20
98.2944561112
 30
0.0
 11
235.7347490618
 21
108.4360699669
 31
0.0
  0
LINE
  5
195
330
18E
100
AcDbEntity
  8
VERMASSUNG
100
AcDbLine
 10
113.8347490618
 20
107.4360699669
 30
0.0
 11
235.7347490618
 21
107.4360699669
 31
0.0
  0
MTEXT
  5
196
330
18E
100
AcDbEntity
  8
VERMASSUNG
100
AcDbMText
 10
172.9240591614
 20
110.0142053301
 30
0.0
 40
2.0
 41
0.0
 71
     1
 72
     1
  1
121.9
  7
SLDTEXTSTYLE0
 73
     1
 44
1.0
  0
ENDBLK
  5
190
330
18E
100
AcDbEntity
  8
0
100
AcDbBlockEnd
  0
BLOCK
  5
199
330
198
100
AcDbEntity
  8
0
100
AcDbBlockBegin
  2
_D_3
 70
     0
 10
0.0
 20
0.0
 30
0.0
  3
_D_3
  1

  0
SOLID
  5
19B
330
198
100
AcDbEntity
  8
VERMASSUNG
100
AcDbTrace
 10
243.9504593763
 20
98.2944561112
 30
0.0
 11
243.5004593763
 21
95.2944561112
 31
0.0
 12
244.4004593763
 22
95.2944561112
 32
0.0
 13
244.4004593763
 23
95.2944561112
 33
0.0
  0
SOLID
  5
19C
330
198
100
AcDbEntity
  8
VERMASSUNG
100
AcDbTrace
 10
243.9504593763
 20
18.2944561112
 30
0.0
 11
244.4004593763
 21
21.2944561112
 31
0.0
 12
243.5004593763
 22
21.2944561112
 32
0.0
 13
243.5004593763
 23
21.2944561112
 33
0.0
  0
LINE
  5
19D
330
198
100
AcDbEntity
  8
VERMASSUNG
100
AcDbLine
 10
235.7347490618
 20
98.2944561112
 30
0.0
 11
244.9504593763
 21
98.2944561112
 31
0.0
  0
LINE
  5
19E
330
198
100
AcDbEntity
  8
VERMASSUNG
100
AcDbLine
 10
235.7347490618
 20
18.2944561112
 30
0.0
 11
244.9504593763
 21
18.2944561112
 31
0.0
  0
LINE
  5
19F
330
198
100
AcDbEntity
  8
VERMASSUNG
100
AcDbLine
 10
243.9504593763
 20
98.2944561112
 30
0.0
 11
243.9504593763
 21
18.2944561112
 31
0.0
  0
MTEXT
  5
1A0
330
198
100
AcDbEntity
  8
VERMASSUNG
100
AcDbMText
 10
241.3723240131
 20
56.1899893703
 30
0.0
 40
2.0
 41
0.0
 71
     1
 72
     1
  1
80
  7
SLDTEXTSTYLE0
 11
-7.044195017643634E-15
 21
1.0
 31
0.0
 73
     1
 44
1.0
  0
ENDBLK
  5
19A
330
198
100
AcDbEntity
  8
0
100
AcDbBlockEnd
  0
BLOCK
  5
2C0
330
2BF
100
AcDbEntity
  8
0
100
AcDbBlockBegin
  2
_D_4
 70
     0
 10
0.0
 20
0.0
 30
0.0
  3
_D_4
  1

  0
SOLID
  5
2C2
330
2BF
100
AcDbEntity
  8
VERMASSUNG
100
AcDbTrace
 10
245.7347490618
 20
174.8415246281
 30
0.0
 11
245.2847490618
 21
171.8415246281
 31
0.0
 12
246.1847490618
 22
171.8415246281
 32
0.0
 13
246.1847490618
 23
171.8415246281
 33
0.0
  0
SOLID
  5
2C3
330
2BF
100
AcDbEntity
  8
VERMASSUNG
100
AcDbTrace
 10
245.7347490618
 20
149.8415246281
 30
0.0
 11
246.1847490618
 21
152.8415246281
 31
0.0
 12
245.2847490618
 22
152.8415246281
 32
0.0
 13
245.2847490618
 23
152.8415246281
 33
0.0
  0
LINE
  5
2C4
330
2BF
100
AcDbEntity
  8
VERMASSUNG
100
AcDbLine
 10
243.4165876537
 20
174.8415246281
 30
0.0
 11
246.7347490618
 21
174.8415246281
 31
0.0
  0
LINE
  5
2C5
330
2BF
100
AcDbEntity
  8
VERMASSUNG
100
AcDbLine
 10
235.7347490618
 20
149.8415246281
 30
0.0
 11
246.7347490618
 21
149.8415246281
 31
0.0
  0
LINE
  5
2C6
330
2BF
100
AcDbEntity
  8
VERMASSUNG
100
AcDbLine
 10
245.7347490618
 20
174.8415246281
 30
0.0
 11
245.7347490618
 21
149.8415246281
 31
0.0
  0
MTEXT
  5
2C7
330
2BF
100
AcDbEntity
  8
VERMASSUNG
100
AcDbMText
 10
243.1566136986
 20
160.7201756765
 30
0.0
 40
2.0
 41
0.0
 71
     1
 72
     1
  1
25
  7
SLDTEXTSTYLE0
 11
-7.044195017643634E-15
 21
1.0
 31
0.0
 73
     1
 44
1.0
  0
ENDBLK
  5
2C1
330
2BF
100
AcDbEntity
  8
0
100
AcDbBlockEnd
  0
BLOCK
  5
2CA
330
2C9
100
AcDbEntity
  8
0
100
AcDbBlockBegin
  2
_D_5
 70
     0
 10
0.0
 20
0.0
 30
0.0
  3
_D_5
  1

  0
SOLID
  5
2CC
330
2C9
100
AcDbEntity
  8
VERMASSUNG
100
AcDbTrace
 10
235.7347490618
 20
120.6328948379
 30
0.0
 11
232.7347490618
 21
121.0828948379
 31
0.0
 12
232.7347490618
 22
120.1828948379
 32
0.0
 13
232.7347490618
 23
120.1828948379
 33
0.0
  0
SOLID
  5
2CD
330
2C9
100
AcDbEntity
  8
VERMASSUNG
100
AcDbTrace
 10
210.7347490618
 20
120.6328948379
 30
0.0
 11
213.7347490618
 21
120.1828948379
 31
0.0
 12
213.7347490618
 22
121.0828948379
 32
0.0
 13
213.7347490618
 23
121.0828948379
 33
0.0
  0
LINE
  5
2CE
330
2C9
100
AcDbEntity
  8
VERMASSUNG
100
AcDbLine
 10
235.7347490618
 20
126.8415246281
 30
0.0
 11
235.7347490618
 21
119.6328948379
 31
0.0
  0
LINE
  5
2CF
330
2C9
100
AcDbEntity
  8
VERMASSUNG
100
AcDbLine
 10
210.7347490618
 20
149.8415246281
 30
0.0
 11
210.7347490618
 21
119.6328948379
 31
0.0
  0
LINE
  5
2D0
330
2C9
100
AcDbEntity
  8
VERMASSUNG
100
AcDbLine
 10
235.7347490618
 20
120.6328948379
 30
0.0
 11
210.7347490618
 21
120.6328948379
 31
0.0
  0
MTEXT
  5
2D1
330
2C9
100
AcDbEntity
  8
VERMASSUNG
100
AcDbMText
 10
222.9364962105
 20
123.2110302011
 30
0.0
 40
2.0
 41
0.0
 71
     1
 72
     1
  1
25
  7
SLDTEXTSTYLE0
 73
     1
 44
1.0
  0
ENDBLK
  5
2CB
330
2C9
100
AcDbEntity
  8
0
100
AcDbBlockEnd
  0
BLOCK
  5
2D4
330
2D3
100
AcDbEntity
  8
0
100
AcDbBlockBegin
  2
_D_6
 70
     0
 10
0.0
 20
0.0
 30
0.0
  3
_D_6
  1

  0
SOLID
  5
2D6
330
2D3
100
AcDbEntity
  8
VERMASSUNG
100
AcDbTrace
 10
253.8820190064
 20
174.8415246281
 30
0.0
 11
253.4320190064
 21
171.8415246281
 31
0.0
 12
254.3320190064
 22
171.8415246281
 32
0.0
 13
254.3320190064
 23
171.8415246281
 33
0.0
  0
SOLID
  5
2D7
330
2D3
100
AcDbEntity
  8
VERMASSUNG
100
AcDbTrace
 10
253.8820190064
 20
126.8415246281
 30
0.0
 11
254.3320190064
 21
129.8415246281
 31
0.0
 12
253.4320190064
 22
129.8415246281
 32
0.0
 13
253.4320190064
 23
129.8415246281
 33
0.0
  0
LINE
  5
2D8
330
2D3
100
AcDbEntity
  8
VERMASSUNG
100
AcDbLine
 10
243.4165876537
 20
174.8415246281
 30
0.0
 11
254.8820190064
 21
174.8415246281
 31
0.0
  0
LINE
  5
2D9
330
2D3
100
AcDbEntity
  8
VERMASSUNG
100
AcDbLine
 10
235.7347490618
 20
126.8415246281
 30
0.0
 11
254.8820190064
 21
126.8415246281
 31
0.0
  0
LINE
  5
2DA
330
2D3
100
AcDbEntity
  8
VERMASSUNG
100
AcDbLine
 10
253.8820190064
 20
174.8415246281
 30
0.0
 11
253.8820190064
 21
126.8415246281
 31
0.0
  0
MTEXT
  5
2DB
330
2D3
100
AcDbEntity
  8
VERMASSUNG
100
AcDbMText
 10
251.3038836432
 20
148.549509011
 30
4.35
 40
2.0
 41
0.0
 71
     1
 72
     1
  1
48
  7
SLDTEXTSTYLE0
 11
-7.044195017643634E-15
 21
1.0
 31
0.0
 73
     1
 44
1.0
  0
ENDBLK
  5
2D5
330
2D3
100
AcDbEntity
  8
0
100
AcDbBlockEnd
  0
BLOCK
  5
2DE
330
2DD
100
AcDbEntity
  8
0
100
AcDbBlockBegin
  2
_D_7
 70
     0
 10
0.0
 20
0.0
 30
0.0
  3
_D_7
  1

  0
SOLID
  5
2E0
330
2DD
100
AcDbEntity
  8
VERMASSUNG
100
AcDbTrace
 10
253.8820190064
 20
200.8415246281
 30
0.0
 11
253.4320190064
 21
197.8415246281
 31
0.0
 12
254.3320190064
 22
197.8415246281
 32
0.0
 13
254.3320190064
 23
197.8415246281
 33
0.0
  0
SOLID
  5
2E1
330
2DD
100
AcDbEntity
  8
VERMASSUNG
100
AcDbTrace
 10
253.8820190064
 20
174.8415246281
 30
0.0
 11
254.3320190064
 21
177.8415246281
 31
0.0
 12
253.4320190064
 22
177.8415246281
 32
0.0
 13
253.4320190064
 23
177.8415246281
 33
0.0
  0
LINE
  5
2E2
330
2DD
100
AcDbEntity
  8
VERMASSUNG
100
AcDbLine
 10
235.7347490618
 20
200.8415246281
 30
0.0
 11
254.8820190064
 21
200.8415246281
 31
0.0
  0
LINE
  5
2E3
330
2DD
100
AcDbEntity
  8
VERMASSUNG
100
AcDbLine
 10
243.4165876537
 20
174.8415246281
 30
0.0
 11
254.8820190064
 21
174.8415246281
 31
0.0
  0
LINE
  5
2E4
330
2DD
100
AcDbEntity
  8
VERMASSUNG
100
AcDbLine
 10
253.8820190064
 20
200.8415246281
 30
0.0
 11
253.8820190064
 21
174.8415246281
 31
0.0
  0
MTEXT
  5
2E5
330
2DD
100
AcDbEntity
  8
VERMASSUNG
100
AcDbMText
 10
251.3038836432
 20
181.8295913387
 30
4.35
 40
2.0
 41
0.0
 71
     1
 72
     1
  1
26
  7
SLDTEXTSTYLE0
 11
-7.044195017643634E-15
 21
1.0
 31
0.0
 73
     1
 44
1.0
  0
ENDBLK
  5
2DF
330
2DD
100
AcDbEntity
  8
0
100
AcDbBlockEnd
  0
ENDSEC
  0
SECTION
  2
ENTITIES
  0
MTEXT
  5
49
330
1F
100
AcDbEntity
  8
KOPF_DÜNN
100
AcDbMText
 10
13.8892156294
 20
23.8442973028
 30
0.0
 40
3.0
 41
0.0
 71
     1
 72
     1
  1
HA6.V25.N11.090
  7
SLDTEXTSTYLE0
 73
     1
 44
1.0
  0
MTEXT
  5
4A
330
1F
100
AcDbEntity
  8
VERMASSUNG
100
AcDbMText
 10
13.9329988022
 20
28.8834360957
 30
0.0
 40
3.0
 41
0.0
 71
     1
 72
     1
  1
Werkzeughalter radial_Tool holder radial
  7
SLDTEXTSTYLE0
 73
     1
 44
1.0
  0
MTEXT
  5
4B
330
1F
100
AcDbEntity
  8
VERMASSUNG
100
AcDbMText
 10
98.8601118557
 20
13.8365368179
 30
0.0
 40
2.0
 41
0.0
 71
     1
 72
     1
  1
Datum: 07.07.2006
  7
SLDTEXTSTYLE0
 73
     1
 44
1.0
  0
MTEXT
  5
4D
330
1F
100
AcDbEntity
  8
VERMASSUNG
100
AcDbMText
 10
13.933048693
 20
18.0482802738
 30
0.0
 40
2.0
 41
0.0
 71
     1
 72
     1
  1
DIN 69893 HSK T 63  / 25x25
  7
SLDTEXTSTYLE1
 73
     1
 44
1.0
  0
MTEXT
  5
4E
330
1F
100
AcDbEntity
  8
VERMASSUNG
100
AcDbMText
 10
13.9808475933
 20
13.9090973692
 30
0.0
 40
2.0
 41
0.0
 71
     1
 72
     1
  1
Gewicht: 2483g
  7
SLDTEXTSTYLE0
 73
     1
 44
1.0
  0
LINE
  5
4F
330
1F
100
AcDbEntity
  8
0
  6
Continuous
 62
     7
370
    15
100
AcDbLine
 10
146.034749076
 20
26.7944556045
 30
0.0
 11
150.6847490349
 21
26.7944556045
 31
0.0
  0
LINE
  5
50
330
1F
100
AcDbEntity
  8
0
  6
Continuous
 62
     7
370
    15
100
AcDbLine
 10
150.7127376066
 20
89.7944566178
 30
0.0
 11
146.034749076
 21
89.7944566178
 31
0.0
  0
ARC
  5
51
330
1F
100
AcDbEntity
  8
0
  6
Continuous
 62
     7
370
    15
100
AcDbCircle
 10
146.0347490618
 20
27.0944561112
 30
0.0
 40
0.3000000000000114
100
AcDbArc
 50
180.0
 51
270.0
  0
ARC
  5
52
330
1F
100
AcDbEntity
  8
0
  6
Continuous
 62
     7
370
    15
100
AcDbCircle
 10
146.0347490618
 20
89.4944561112
 30
0.0
 40
0.3000000000000114
100
AcDbArc
 50
90.0
 51
180.0
  0
ARC
  5
53
330
1F
100
AcDbEntity
  8
0
  6
Continuous
 62
     7
370
    15
100
AcDbCircle
 10
172.6847490618
 20
31.2944561112
 30
0.0
 40
1.000000000000004
100
AcDbArc
 50
90.0
 51
143.1139143113
  0
ARC
  5
54
330
1F
100
AcDbEntity
  8
0
  6
Continuous
 62
     7
370
    15
100
AcDbCircle
 10
172.6847490618
 20
85.2944561112
 30
0.0
 40
1.0
100
AcDbArc
 50
216.9049698195
 51
270.0
  0
LINE
  5
55
330
1F
100
AcDbEntity
  8
0
  6
Continuous
 62
     7
370
    15
100
AcDbLine
 10
192.2533654401
 20
98.2944552171
 30
0.0
 11
188.7006752917
 21
85.0356366801
 31
0.0
  0
LINE
  5
56
330
1F
100
AcDbEntity
  8
0
  6
Continuous
 62
     7
370
    15
100
AcDbLine
 10
188.7006752917
 20
31.5532755422
 30
0.0
 11
192.2533654401
 21
18.2944570052
 31
0.0
  0
ARC
  5
57
330
1F
100
AcDbEntity
  8
0
  6
Continuous
 62
     7
370
    15
100
AcDbCircle
 10
187.7347490618
 20
85.2944561112
 30
0.0
 40
1.0
100
AcDbArc
 50
270.0
 51
345.0
  0
ARC
  5
58
330
1F
100
AcDbEntity
  8
0
  6
Continuous
 62
     7
370
    15
100
AcDbCircle
 10
187.7347490618
 20
31.2944561112
 30
0.0
 40
1.000000000000004
100
AcDbArc
 50
15.0
 51
90.0
  0
LINE
  5
59
330
1F
100
AcDbEntity
  8
0
  6
Continuous
 62
     7
370
    15
100
AcDbLine
 10
172.6847489157
 20
32.2944555747
 30
0.0
 11
187.7347484955
 21
32.2944555747
 31
0.0
  0
LINE
  5
5A
330
1F
100
AcDbEntity
  8
0
  6
Continuous
 62
     7
370
    15
100
AcDbLine
 10
187.7347484955
 20
84.2944566476
 30
0.0
 11
172.6847489157
 21
84.2944566476
 31
0.0
  0
ARC
  5
5B
330
1F
100
AcDbEntity
  8
0
  6
Continuous
 62
     7
370
    15
100
AcDbCircle
 10
145.2347490618
 20
33.7240252494
 30
0.0
 40
0.6000000000000019
100
AcDbArc
 50
33.5573097619
 51
90.0
  0
ARC
  5
5C
330
1F
100
AcDbEntity
  8
0
  6
Continuous
 62
     7
370
    15
100
AcDbCircle
 10
145.2347490618
 20
82.8648869729
 30
0.0
 40
0.6000000000000019
100
AcDbArc
 50
270.0
 51
326.4426902381
  0
LINE
  5
5D
330
1F
100
AcDbEntity
  8
0
  6
Continuous
 62
     7
370
    15
100
AcDbLine
 10
132.5043265501
 20
81.9522399771
 30
0.0
 11
119.9347481856
 21
81.3225020039
 31
0.0
  0
LINE
  5
5E
330
1F
100
AcDbEntity
  8
0
  6
Continuous
 62
     7
370
    15
100
AcDbLine
 10
143.7347489668
 20
82.5148873347
 30
0.0
 11
140.9161396118
 21
82.373674618
 31
0.0
  0
LINE
  5
5F
330
1F
100
AcDbEntity
  8
0
  6
Continuous
 62
     7
370
    15
100
AcDbLine
 10
140.9163612665
 20
34.2152264285
 30
0.0
 11
143.7347489668
 21
34.0740248876
 31
0.0
  0
LINE
  5
60
330
1F
100
AcDbEntity
  8
0
  6
Continuous
 62
     7
370
    15
100
AcDbLine
 10
123.9347488412
 20
35.0660100895
 30
0.0
 11
132.5050259733
 21
34.636636855
 31
0.0
  0
LINE
  5
61
330
1F
100
AcDbEntity
  8
0
  6
Continuous
 62
     7
370
    15
100
AcDbLine
 10
143.7347489668
 20
34.0740248876
 30
0.0
 11
144.591461893
 21
34.3035810011
 31
0.0
  0
LINE
  5
62
330
1F
100
AcDbEntity
  8
0
  6
Continuous
 62
     7
370
    15
100
AcDbLine
 10
144.591461893
 20
82.2853312212
 30
0.0
 11
143.7347489668
 21
82.5148873347
 31
0.0
  0
ARC
  5
63
330
1F
100
AcDbEntity
  8
0
  6
Continuous
 62
     7
370
    15
100
AcDbCircle
 10
144.7467532622
 20
33.7240252494
 30
0.0
 40
0.6000000000000156
100
AcDbArc
 50
90.0
 51
105.0
  0
ARC
  5
64
330
1F
100
AcDbEntity
  8
0
  6
Continuous
 62
     7
370
    15
100
AcDbCircle
 10
144.7467532622
 20
82.8648869729
 30
0.0
 40
0.6000000000000208
100
AcDbArc
 50
255.0
 51
270.0
  0
LINE
  5
65
330
1F
100
AcDbEntity
  8
0
  6
Continuous
 62
     7
370
    15
100
AcDbLine
 10
144.7467532966
 20
34.3240253943
 30
0.0
 11
145.234749038
 21
34.3240253943
 31
0.0
  0
LINE
  5
66
330
1F
100
AcDbEntity
  8
0
  6
Continuous
 62
     7
370
    15
100
AcDbLine
 10
145.234749038
 20
82.264886828
 30
0.0
 11
144.7467532966
 21
82.264886828
 31
0.0
  0
LINE
  5
67
330
1F
100
AcDbEntity
  8
0
  6
Continuous
 62
     7
370
    15
100
AcDbLine
 10
115.0843419859
 20
37.4244559872
 30
0.0
 11
122.5347493568
 21
37.4244559872
 31
0.0
  0
ARC
  5
68
330
1F
100
AcDbEntity
  8
0
  6
Continuous
 62
     7
370
    15
100
AcDbCircle
 10
122.5347490618
 20
36.0244561112
 30
0.0
 40
1.400000000000009
100
AcDbArc
 50
41.1788388679
 51
90.0
  0
LINE
  5
69
330
1F
100
AcDbEntity
  8
0
  6
Continuous
 62
     7
370
    15
100
AcDbLine
 10
114.0147738883
 20
38.0419712829
 30
0.0
 11
115.0843419859
 21
37.4244559872
 31
0.0
  0
ARC
  5
6A
330
1F
100
AcDbEntity
  8
0
  6
Continuous
 62
     7
370
    15
100
AcDbCircle
 10
118.5347490618
 20
80.5644561112
 30
0.0
 40
1.400000000000008
100
AcDbArc
 50
270.0
 51
301.7485287426
  0
LINE
  5
6B
330
1F
100
AcDbEntity
  8
0
  6
Continuous
 62
     7
370
    15
100
AcDbLine
 10
118.5347487012
 20
79.1644562351
 30
0.0
 11
115.1090145835
 21
79.1644562351
 31
0.0
  0
LINE
  5
6C
330
1F
100
AcDbEntity
  8
0
  6
Continuous
 62
     7
370
    15
100
AcDbLine
 10
114.967617465
 20
79.1545655894
 30
0.0
 11
114.1000346074
 21
78.6536667812
 31
0.0
  0
ARC
  5
6D
330
1F
100
AcDbEntity
  8
0
  6
Continuous
 62
     7
370
    15
100
AcDbCircle
 10
207.7347490618
 20
96.1944561112
 30
0.0
 40
5.60000000000001
100
AcDbArc
 50
126.530597895
 51
157.975687163
  0
ARC
  5
6E
330
1F
100
AcDbEntity
  8
0
  6
Continuous
 62
     7
370
    15
100
AcDbCircle
 10
207.7347490618
 20
96.1944561112
 30
0.0
 40
5.60000000000001
100
AcDbArc
 50
22.024312837
 51
49.1663478003
  0
ARC
  5
6F
330
1F
100
AcDbEntity
  8
0
  6
Continuous
 62
     7
370
    15
100
AcDbCircle
 10
207.7347490618
 20
20.3944561112
 30
0.0
 40
5.600000000000012
100
AcDbArc
 50
306.6594564875
 51
337.975687163
  0
ARC
  5
70
330
1F
100
AcDbEntity
  8
0
  6
Continuous
 62
     7
370
    15
100
AcDbCircle
 10
207.7347490618
 20
20.3944561112
 30
0.0
 40
5.600000000000018
100
AcDbArc
 50
202.024312837
 51
229.3074788376
  0
LINE
  5
71
330
1F
100
AcDbEntity
  8
0
  6
Continuous
 62
     7
370
    15
100
AcDbLine
 10
161.82474911
 20
30.7966187912
 30
0.0
 11
161.82474911
 21
78.1444568503
 31
0.0
  0
SPLINE
  5
72
330
1F
100
AcDbEntity
  8
0
  6
Continuous
 62
     7
370
    15
100
AcDbSpline
210
0.0
220
0.0
230
1.0
 70
     8
 71
     3
 72
     8
 73
     4
 74
     0
 42
0.00000001
 43
0.00000001
 12
1.0
 22
0.0
 32
0.0
 13
1.0
 23
0.0
 33
0.0
 40
0.0
 40
0.0
 40
0.0
 40
0.0
 40
1.0
 40
1.0
 40
1.0
 40
1.0
 10
161.8247490617664
 20
30.79661895210324
 30
0.0
 10
161.3324099389852
 20
29.89934891789654
 30
0.0
 10
160.8382958909431
 20
29.0030645028443
 30
0.0
 10
160.3428162302773
 20
28.10753841491096
 30
0.0
  0
LINE
  5
73
330
1F
100
AcDbEntity
  8
0
  6
Continuous
 62
     7
370
    15
100
AcDbLine
 10
160.3428165221
 20
28.1075384783
 30
0.0
 11
160.3428165221
 21
78.1444568503
 31
0.0
  0
SPLINE
  5
74
330
1F
100
AcDbEntity
  8
0
  6
Continuous
 62
     7
370
    15
100
AcDbSpline
210
0.0
220
0.0
230
1.0
 70
    24
 71
     3
 72
     8
 73
     4
 74
     0
 42
0.00000001
 43
0.00000001
 12
1.0
 22
0.0
 32
0.0
 13
1.0
 23
0.0
 33
0.0
 40
0.0
 40
0.0
 40
0.0
 40
0.0
 40
1.0
 40
1.0
 40
1.0
 40
1.0
 10
160.3428162302773
 20
78.14445611115809
 30
0.0
 10
160.8494963384279
 20
78.14445611115809
 30
0.0
 10
161.3447970674015
 20
78.14445611115809
 30
0.0
 10
161.8247490617664
 20
78.14445611115809
 30
0.0
  0
LINE
  5
75
330
1F
100
AcDbEntity
  8
0
  6
Continuous
 62
     7
370
    15
100
AcDbLine
 10
171.6847487518
 20
28.7341788727
 30
0.0
 11
171.6847487518
 21
78.1444568503
 31
0.0
  0
SPLINE
  5
76
330
1F
100
AcDbEntity
  8
0
  6
Continuous
 62
     7
370
    15
100
AcDbSpline
210
0.0
220
0.0
230
1.0
 70
     8
 71
     3
 72
    10
 73
     6
 74
     0
 42
0.00000001
 43
0.00000001
 12
1.0
 22
0.0
 32
0.0
 13
1.0
 23
0.0
 33
0.0
 40
0.0
 40
0.0
 40
0.0
 40
0.0
 40
0.5
 40
0.5
 40
1.0
 40
1.0
 40
1.0
 40
1.0
 10
171.6847490617664
 20
28.73417871056527
 30
0.0
 10
171.6847490617664
 20
28.57429144237161
 30
0.0
 10
171.6234394105306
 20
28.41316418685702
 30
0.0
 10
171.4043397729955
 20
28.17906518850218
 30
0.0
 10
171.246291566682
 20
28.10753841491096
 30
0.0
 10
171.0847490617664
 20
28.10753841491096
 30
0.0
  0
SPLINE
  5
77
330
1F
100
AcDbEntity
  8
0
  6
Continuous
 62
     7
370
    15
100
AcDbSpline
210
0.0
220
0.0
230
1.0
 70
    24
 71
     3
 72
    12
 73
     8
 74
     0
 42
0.00000001
 43
0.00000001
 12
1.0
 22
0.0
 32
0.0
 13
1.0
 23
0.0
 33
0.0
 40
0.0
 40
0.0
 40
0.0
 40
0.0
 40
0.2500000000000006
 40
0.2500000000000006
 40
0.5000000000000012
 40
0.5000000000000012
 40
1.0
 40
1.0
 40
1.0
 40
1.0
 10
171.0847490617664
 20
78.14445611115809
 30
0.0
 10
171.1749881294535
 20
78.1444561111581
 30
0.0
 10
171.2658862435599
 20
78.14445611115809
 30
0.0
 10
171.4204832800484
 20
78.14445611115809
 30
0.0
 10
171.4854616961566
 20
78.1444561111581
 30
0.0
 10
171.6372967240928
 20
78.14445611115809
 30
0.0
 10
171.6847490617664
 20
78.14445611115809
 30
0.0
 10
171.6847490617664
 20
78.14445611115809
 30
0.0
  0
LINE
  5
78
330
1F
100
AcDbEntity
  8
0
  6
Continuous
 62
     7
370
    15
100
AcDbLine
 10
171.0847497711
 20
28.1075384783
 30
0.0
 11
167.126680983
 21
28.1075384783
 31
0.0
  0
LINE
  5
79
330
1F
100
AcDbEntity
  8
0
  6
Continuous
 62
     7
370
    15
100
AcDbLine
 10
167.126680983
 20
28.1075384783
 30
0.0
 11
167.126680983
 21
78.1444568503
 31
0.0
  0
LINE
  5
7A
330
1F
100
AcDbEntity
  8
0
  6
Continuous
 62
     7
370
    15
100
AcDbLine
 10
167.126680983
 20
78.1444568503
 30
0.0
 11
171.0847497711
 21
78.1444568503
 31
0.0
  0
SPLINE
  5
7B
330
1F
100
AcDbEntity
  8
0
  6
Continuous
 62
     7
370
    15
100
AcDbSpline
210
0.0
220
0.0
230
1.0
 70
     8
 71
     3
 72
     8
 73
     4
 74
     0
 42
0.00000001
 43
0.00000001
 12
1.0
 22
0.0
 32
0.0
 13
1.0
 23
0.0
 33
0.0
 40
0.0
 40
0.0
 40
0.0
 40
0.0
 40
1.0
 40
1.0
 40
1.0
 40
1.0
 10
167.1266818932554
 20
28.10753841491096
 30
0.0
 10
166.6312022325897
 20
29.0030645028443
 30
0.0
 10
166.1370881845476
 20
29.89934891789654
 30
0.0
 10
165.6447490617664
 20
30.79661895210323
 30
0.0
  0
LINE
  5
7C
330
1F
100
AcDbEntity
  8
0
  6
Continuous
 62
     7
370
    15
100
AcDbLine
 10
165.6447493264
 20
30.7966187912
 30
0.0
 11
165.6447493264
 21
78.1444568503
 31
0.0
  0
SPLINE
  5
7D
330
1F
100
AcDbEntity
  8
0
  6
Continuous
 62
     7
370
    15
100
AcDbSpline
210
0.0
220
0.0
230
1.0
 70
    24
 71
     3
 72
     8
 73
     4
 74
     0
 42
0.00000001
 43
0.00000001
 12
1.0
 22
0.0
 32
0.0
 13
1.0
 23
0.0
 33
0.0
 40
0.0
 40
0.0
 40
0.0
 40
0.0
 40
1.0
 40
1.0
 40
1.0
 40
1.0
 10
165.6447490617664
 20
78.14445611115809
 30
0.0
 10
166.1247010561313
 20
78.14445611115809
 30
0.0
 10
166.6200017851049
 20
78.14445611115809
 30
0.0
 10
167.1266818932554
 20
78.14445611115809
 30
0.0
  0
LINE
  5
7E
330
1F
100
AcDbEntity
  8
0
  6
Continuous
 62
     7
370
    15
100
AcDbLine
 10
150.6847490349
 20
78.1444568503
 30
0.0
 11
160.3428165221
 21
78.1444568503
 31
0.0
  0
LINE
  5
7F
330
1F
100
AcDbEntity
  8
0
  6
Continuous
 62
     7
370
    15
100
AcDbLine
 10
160.3428165221
 20
28.1075384783
 30
0.0
 11
158.6847494149
 21
28.1075384783
 31
0.0
  0
SPLINE
  5
80
330
1F
100
AcDbEntity
  8
0
  6
Continuous
 62
     7
370
    15
100
AcDbSpline
210
0.0
220
0.0
230
1.0
 70
     8
 71
     3
 72
    28
 73
    24
 74
     0
 42
0.00000001
 43
0.00000001
 12
1.0
 22
0.0
 32
0.0
 13
1.0
 23
0.0
 33
0.0
 40
0.0
 40
0.0
 40
0.0
 40
0.0
 40
0.1250000000000001
 40
0.1250000000000001
 40
0.1875000000000001
 40
0.1875000000000001
 40
0.2500000000000001
 40
0.2500000000000001
 40
0.375
 40
0.375
 40
0.4375000000000001
 40
0.4375000000000001
 40
0.5
 40
0.5
 40
0.625
 40
0.625
 40
0.7499999999999999
 40
0.7499999999999999
 40
0.8124999999999999
 40
0.8124999999999999
 40
0.875
 40
0.875
 40
1.0
 40
1.0
 40
1.0
 40
1.0
 10
158.6847490617664
 20
28.10753841491096
 30
0.0
 10
158.1530413042735
 20
28.10753841491096
 30
0.0
 10
157.6308027389631
 20
28.09175370096074
 30
0.0
 10
156.8609322526881
 20
28.04675828688454
 30
0.0
 10
156.6065726804968
 20
28.0282032918088
 30
0.0
 10
156.1024510997983
 20
27.98435056936231
 30
0.0
 10
155.8527282823704
 20
27.95900596241011
 30
0.0
 10
155.1271383309239
 20
27.87560388466
 30
0.0
 10
154.6687780693424
 20
27.80973832550891
 30
0.0
 10
154.0182801259485
 20
27.70076798501712
 30
0.0
 10
153.8065980751561
 20
27.66252834925048
 30
0.0
 10
153.402526586018
 20
27.58476961183113
 30
0.0
 10
153.2100200721972
 20
27.54526864965578
 30
0.0
 10
152.6601851011759
 20
27.42636090728978
 30
0.0
 10
152.3302563228671
 20
27.34654322586516
 30
0.0
 10
151.7457850542984
 20
27.19320006406909
 30
0.0
 10
151.499507916285
 20
27.12186631079984
 30
0.0
 10
151.1996651235869
 20
27.02792280372522
 30
0.0
 10
151.1112082665147
 20
26.9987290103653
 30
0.0
 10
150.9578469132096
 20
26.94526243610187
 30
0.0
 10
150.8927586989834
 20
26.9209031018267
 30
0.0
 10
150.7371646830426
 20
26.85731295638198
 30
0.0
 10
150.6847490617664
 20
26.82721002129272
 30
0.0
 10
150.6847490617664
 20
26.81033312829579
 30
0.0
  0
LINE
  5
81
330
1F
100
AcDbEntity
  8
0
  6
Continuous
 62
     7
370
    15
100
AcDbLine
 10
150.6847490349
 20
26.8103327918
 30
0.0
 11
150.6847490349
 21
26.7944556045
 31
0.0
  0
SPLINE
  5
82
330
1F
100
AcDbEntity
  8
0
  6
Continuous
 62
     7
370
    15
100
AcDbSpline
210
0.0
220
0.0
230
1.0
 70
     8
 71
     3
 72
    17
 73
    13
 74
     0
 42
0.00000001
 43
0.00000001
 12
1.0
 22
0.0
 32
0.0
 13
1.0
 23
0.0
 33
0.0
 40
0.0
 40
0.0
 40
0.0
 40
0.0
 40
0.1034797280380778
 40
0.2100239090909901
 40
0.3134862262879433
 40
0.4198361712144981
 40
0.5254127947779869
 40
0.6339610881168427
 40
0.7409508662120068
 40
0.8511696072047016
 40
0.9558996557845765
 40
1.0
 40
1.0
 40
1.0
 40
1.0
 10
158.6847494149239
 20
88.76165154751655
 30
0.0
 10
158.249500923198
 20
88.76709953915422
 30
0.0
 10
157.366114472621
 20
88.77815685948283
 30
0.0
 10
156.0852866103982
 20
88.86451561985785
 30
0.0
 10
154.8678704149563
 20
88.99238676299089
 30
0.0
 10
153.7600637986305
 20
89.15133117030935
 30
0.0
 10
152.7718253193017
 20
89.32582574329392
 30
0.0
 10
151.9471022194858
 20
89.49499217648082
 30
0.0
 10
151.2981485619872
 20
89.64287298494851
 30
0.0
 10
150.8811132585076
 20
89.7446637364711
 30
0.0
 10
150.6825165156296
 20
89.79502063610558
 30
0.0
 10
150.7058296326175
 20
89.78911103113006
 30
0.0
 10
150.7127376066179
 20
89.78735993977901
 30
0.0
  0
LINE
  5
83
330
1F
100
AcDbEntity
  8
0
  6
Continuous
 62
     7
370
    15
100
AcDbLine
 10
160.3428165221
 20
88.7616515475
 30
0.0
 11
158.6847494149
 21
88.7616515475
 31
0.0
  0
LINE
  5
84
330
1F
100
AcDbEntity
  8
0
  6
Continuous
 62
     7
370
    15
100
AcDbLine
 10
160.3428165221
 20
82.7531457263
 30
0.0
 11
160.3428165221
 21
88.7616515475
 31
0.0
  0
LINE
  5
85
330
1F
100
AcDbEntity
  8
0
  6
Continuous
 62
     7
370
    15
100
AcDbLine
 10
157.9303697476
 20
82.7531457263
 30
0.0
 11
160.3428165221
 21
82.7531457263
 31
0.0
  0
SPLINE
  5
86
330
1F
100
AcDbEntity
  8
0
  6
Continuous
 62
     7
370
    15
100
AcDbSpline
210
0.0
220
0.0
230
1.0
 70
     8
 71
     3
 72
    20
 73
    16
 74
     0
 42
0.00000001
 43
0.00000001
 12
1.0
 22
0.0
 32
0.0
 13
1.0
 23
0.0
 33
0.0
 40
0.0
 40
0.0
 40
0.0
 40
0.0
 40
0.2500000000000005
 40
0.2500000000000005
 40
0.3750000000000004
 40
0.3750000000000004
 40
0.5000000000000003
 40
0.5000000000000003
 40
0.6250000000000002
 40
0.6250000000000002
 40
0.7500000000000001
 40
0.7500000000000001
 40
0.8750000000000001
 40
0.8750000000000001
 40
1.0
 40
1.0
 40
1.0
 40
1.0
 10
150.6847490617664
 20
78.14445611115809
 30
0.0
 10
150.9331227960544
 20
78.7983185394555
 30
0.0
 10
151.2526928883997
 20
79.40210432145264
 30
0.0
 10
151.8749991216044
 20
80.22894305762124
 30
0.0
 10
152.1064233820351
 20
80.49137169557416
 30
0.0
 10
152.6276377216849
 20
80.98803434967911
 30
0.0
 10
152.9142582043199
 20
81.21862122870066
 30
0.0
 10
153.5337429456276
 20
81.63517545328328
 30
0.0
 10
153.8680433251145
 20
81.82267325525079
 30
0.0
 10
154.5933037977393
 20
82.15407023288721
 30
0.0
 10
154.9752188551298
 20
82.29357422038247
 30
0.0
 10
155.7700070313014
 20
82.51902772785341
 30
0.0
 10
156.1841652255078
 20
82.60565383939705
 30
0.0
 10
157.0497115660892
 20
82.72363462825119
 30
0.0
 10
157.487599181101
 20
82.75314577352552
 30
0.0
 10
157.9303694074556
 20
82.75314577352552
 30
0.0
  0
LINE
  5
87
330
1F
100
AcDbEntity
  8
0
  6
Continuous
 62
     7
370
    15
100
AcDbLine
 10
145.7347490618
 20
27.0944569575
 30
0.0
 11
145.7347490618
 21
89.4944552648
 31
0.0
  0
SPLINE
  5
88
330
1F
100
AcDbEntity
  8
0
  6
Continuous
 62
     7
370
    15
100
AcDbSpline
210
0.0
220
0.0
230
1.0
 70
     8
 71
     3
 72
    10
 73
     6
 74
     0
 42
0.00000001
 43
0.00000001
 12
1.0
 22
0.0
 32
0.0
 13
1.0
 23
0.0
 33
0.0
 40
0.0
 40
0.0
 40
0.0
 40
0.0
 40
0.5
 40
0.5
 40
1.0
 40
1.0
 40
1.0
 40
1.0
 10
162.2190465934573
 20
84.6944561111581
 30
0.0
 10
162.0975063297888
 20
84.76918227836987
 30
0.0
 10
161.9961719694399
 20
84.87812729428664
 30
0.0
 10
161.8605330265515
 20
85.12855777504825
 30
0.0
 10
161.8247490617664
 20
85.27097713714718
 30
0.0
 10
161.8247490617664
 20
85.41410996219389
 30
0.0
  0
SPLINE
  5
89
330
1F
100
AcDbEntity
  8
0
  6
Continuous
 62
     7
370
    15
100
AcDbSpline
210
0.0
220
0.0
230
1.0
 70
    24
 71
     3
 72
    12
 73
     8
 74
     0
 42
0.00000001
 43
0.00000001
 12
1.0
 22
0.0
 32
0.0
 13
1.0
 23
0.0
 33
0.0
 40
0.0
 40
0.0
 40
0.0
 40
0.0
 40
0.2500000000000012
 40
0.2500000000000012
 40
0.5000000000000024
 40
0.5000000000000024
 40
1.0
 40
1.0
 40
1.0
 40
1.0
 10
162.6247490617664
 20
84.6944561111581
 30
0.0
 10
162.5754056999568
 20
84.6944561111581
 30
0.0
 10
162.5267150016552
 20
84.6944561111581
 30
0.0
 10
162.4438639040847
 20
84.6944561111581
 30
0.0
 10
162.4076639364641
 20
84.6944561111581
 30
0.0
 10
162.3119140199148
 20
84.6944561111581
 30
0.0
 10
162.2620320501026
 20
84.6944561111581
 30
0.0
 10
162.2190465934573
 20
84.6944561111581
 30
0.0
  0
SPLINE
  5
8A
330
1F
100
AcDbEntity
  8
0
  6
Continuous
 62
     7
370
    15
100
AcDbSpline
210
0.0
220
0.0
230
1.0
 70
    24
 71
     3
 72
    14
 73
    10
 74
     0
 42
0.00000001
 43
0.00000001
 12
1.0
 22
0.0
 32
0.0
 13
1.0
 23
0.0
 33
0.0
 40
0.0
 40
0.0
 40
0.0
 40
0.0
 40
0.1250000000000007
 40
0.1250000000000007
 40
0.2500000000000014
 40
0.2500000000000014
 40
0.5000000000000002
 40
0.5000000000000002
 40
1.0
 40
1.0
 40
1.0
 40
1.0
 10
162.6247490617664
 20
31.8944561111581
 30
0.0
 10
162.5554023400353
 20
31.8944561111581
 30
0.0
 10
162.4902042866513
 20
31.8944561111581
 30
0.0
 10
162.3858250940243
 20
31.8944561111581
 30
0.0
 10
162.3429227230153
 20
31.8944561111581
 30
0.0
 10
162.2305970654106
 20
31.89445611115809
 30
0.0
 10
162.1753733710568
 20
31.8944561111581
 30
0.0
 10
162.0313159922893
 20
31.8944561111581
 30
0.0
 10
161.9692352954578
 20
31.8944561111581
 30
0.0
 10
161.9224238640987
 20
31.8944561111581
 30
0.0
  0
SPLINE
  5
8B
330
1F
100
AcDbEntity
  8
0
  6
Continuous
 62
     7
370
    15
100
AcDbSpline
210
0.0
220
0.0
230
1.0
 70
     8
 71
     3
 72
     9
 73
     5
 74
     0
 42
0.00000001
 43
0.00000001
 12
1.0
 22
0.0
 32
0.0
 13
1.0
 23
0.0
 33
0.0
 40
0.0
 40
0.0
 40
0.0
 40
0.0
 40
0.5
 40
1.0
 40
1.0
 40
1.0
 40
1.0
 10
161.8247490617664
 20
78.4303227426195
 30
0.0
 10
161.8247490617664
 20
78.38209069049674
 30
0.0
 10
161.8291550364715
 20
78.28622067705719
 30
0.0
 10
161.8421742165654
 20
78.19151204707384
 30
0.0
 10
161.8508966849265
 20
78.14445611115809
 30
0.0
  0
SPLINE
  5
8C
330
1F
100
AcDbEntity
  8
0
  6
Continuous
 62
     7
370
    15
100
AcDbSpline
210
0.0
220
0.0
230
1.0
 70
    24
 71
     3
 72
    14
 73
    10
 74
     0
 42
0.00000001
 43
0.00000001
 12
1.0
 22
0.0
 32
0.0
 13
1.0
 23
0.0
 33
0.0
 40
0.0
 40
0.0
 40
0.0
 40
0.0
 40
0.5000000000000027
 40
0.5000000000000027
 40
0.7500000000000013
 40
0.7500000000000013
 40
0.8750000000000007
 40
0.8750000000000007
 40
1.0
 40
1.0
 40
1.0
 40
1.0
 10
165.5470742594341
 20
31.8944561111581
 30
0.0
 10
165.5002895543859
 20
31.8944561111581
 30
0.0
 10
165.4382383576063
 20
31.89445611115811
 30
0.0
 10
165.2948467190559
 20
31.8944561111581
 30
0.0
 10
165.2387030655046
 20
31.8944561111581
 30
0.0
 10
165.1257520433683
 20
31.8944561111581
 30
0.0
 10
165.0827512813302
 20
31.8944561111581
 30
0.0
 10
164.9786885710237
 20
31.8944561111581
 30
0.0
 10
164.9133563326668
 20
31.8944561111581
 30
0.0
 10
164.8447490617664
 20
31.8944561111581
 30
0.0
  0
SPLINE
  5
8D
330
1F
100
AcDbEntity
  8
0
  6
Continuous
 62
     7
370
    15
100
AcDbSpline
210
0.0
220
0.0
230
1.0
 70
    24
 71
     3
 72
    12
 73
     8
 74
     0
 42
0.00000001
 43
0.00000001
 12
1.0
 22
0.0
 32
0.0
 13
1.0
 23
0.0
 33
0.0
 40
0.0
 40
0.0
 40
0.0
 40
0.0
 40
0.5000000000000024
 40
0.5000000000000024
 40
0.7500000000000012
 40
0.7500000000000012
 40
1.0
 40
1.0
 40
1.0
 40
1.0
 10
165.2504515300754
 20
84.6944561111581
 30
0.0
 10
165.2073659804646
 20
84.6944561111581
 30
0.0
 10
165.1582137787175
 20
84.6944561111581
 30
0.0
 10
165.0617411844279
 20
84.6944561111581
 30
0.0
 10
165.0256395992938
 20
84.69445611115812
 30
0.0
 10
164.9425338414312
 20
84.69445611115812
 30
0.0
 10
164.8945372444671
 20
84.6944561111581
 30
0.0
 10
164.8447490617664
 20
84.6944561111581
 30
0.0
  0
SPLINE
  5
8E
330
1F
100
AcDbEntity
  8
0
  6
Continuous
 62
     7
370
    15
100
AcDbSpline
210
0.0
220
0.0
230
1.0
 70
     8
 71
     3
 72
    10
 73
     6
 74
     0
 42
0.00000001
 43
0.00000001
 12
1.0
 22
0.0
 32
0.0
 13
1.0
 23
0.0
 33
0.0
 40
0.0
 40
0.0
 40
0.0
 40
0.0
 40
0.5
 40
0.5
 40
1.0
 40
1.0
 40
1.0
 40
1.0
 10
165.6447490617664
 20
85.41410996219389
 30
0.0
 10
165.6447490617664
 20
85.27033990437587
 30
0.0
 10
165.6087000030475
 20
85.1279205418807
 30
0.0
 10
165.4731911422735
 20
84.87802624852348
 30
0.0
 10
165.3733151491773
 20
84.76999591227528
 30
0.0
 10
165.2504515300754
 20
84.69445611115808
 30
0.0
  0
SPLINE
  5
8F
330
1F
100
AcDbEntity
  8
0
  6
Continuous
 62
     7
370
    15
100
AcDbSpline
210
0.0
220
0.0
230
1.0
 70
     8
 71
     3
 72
    10
 73
     6
 74
     0
 42
0.00000001
 43
0.00000001
 12
1.0
 22
0.0
 32
0.0
 13
1.0
 23
0.0
 33
0.0
 40
0.0
 40
0.0
 40
0.0
 40
0.0
 40
0.5
 40
0.5
 40
1.0
 40
1.0
 40
1.0
 40
1.0
 10
165.6186014386062
 20
78.14445611115809
 30
0.0
 10
165.6272910815179
 20
78.19133496047624
 30
0.0
 10
165.6338301462684
 20
78.23875742587752
 30
0.0
 10
165.6425887806615
 20
78.33469422446426
 30
0.0
 10
165.6447490617664
 20
78.38260951247474
 30
0.0
 10
165.6447490617664
 20
78.43032274261928
 30
0.0
  0
LINE
  5
90
330
1F
100
AcDbEntity
  8
0
  6
Continuous
 62
     7
370
    15
100
AcDbLine
 10
164.8447488228
 20
84.6944559681
 30
0.0
 11
162.6247496137
 21
84.6944559681
 31
0.0
  0
LINE
  5
91
330
1F
100
AcDbEntity
  8
0
  6
Continuous
 62
     7
370
    15
100
AcDbLine
 10
164.8447488228
 20
31.8944562542
 30
0.0
 11
162.6247496137
 21
31.8944562542
 31
0.0
  0
LINE
  5
92
330
1F
100
AcDbEntity
  8
0
  6
Continuous
 62
     7
370
    15
100
AcDbLine
 10
171.8847484121
 20
84.6944559681
 30
0.0
 11
171.8660735318
 21
84.6944559681
 31
0.0
  0
LINE
  5
93
330
1F
100
AcDbEntity
  8
0
  6
Continuous
 62
     7
370
    15
100
AcDbLine
 10
171.8847484121
 20
31.8944562542
 30
0.0
 11
171.8688134828
 21
31.8944562542
 31
0.0
  0
SPLINE
  5
94
330
1F
100
AcDbEntity
  8
0
  6
Continuous
 62
     7
370
    15
100
AcDbSpline
210
0.0
220
0.0
230
1.0
 70
     8
 71
     3
 72
    14
 73
    10
 74
     0
 42
0.00000001
 43
0.00000001
 12
1.0
 22
0.0
 32
0.0
 13
1.0
 23
0.0
 33
0.0
 40
0.0
 40
0.0
 40
0.0
 40
0.0
 40
0.2500000000000001
 40
0.2500000000000001
 40
0.5
 40
0.5
 40
0.7499999999999999
 40
0.7499999999999999
 40
1.0
 40
1.0
 40
1.0
 40
1.0
 10
188.7006748880565
 20
64.54671641146331
 30
0.0
 10
188.8805510111838
 20
67.41792403407504
 30
0.0
 10
189.1766451576564
 20
70.26538829415571
 30
0.0
 10
189.9273233847678
 20
75.9279372929992
 30
0.0
 10
190.3808839523042
 20
78.74323113566817
 30
0.0
 10
191.3831992335909
 20
84.35437064025642
 30
0.0
 10
191.9320897636525
 20
87.1501885548795
 30
0.0
 10
193.0873200294925
 20
92.73008750133258
 30
0.0
 10
193.6939347084726
 20
95.51411236221824
 30
0.0
 10
194.3185675410944
 20
98.29445611115811
 30
0.0
  0
SPLINE
  5
95
330
1F
100
AcDbEntity
  8
0
  6
Continuous
 62
     7
370
    15
100
AcDbSpline
210
0.0
220
0.0
230
1.0
 70
     8
 71
     3
 72
    14
 73
    10
 74
     0
 42
0.00000001
 43
0.00000001
 12
1.0
 22
0.0
 32
0.0
 13
1.0
 23
0.0
 33
0.0
 40
0.0
 40
0.0
 40
0.0
 40
0.0
 40
0.25
 40
0.25
 40
0.5
 40
0.5
 40
0.75
 40
0.75
 40
1.0
 40
1.0
 40
1.0
 40
1.0
 10
194.3185675410944
 20
18.29445611115808
 30
0.0
 10
193.6936601923451
 20
21.07602177665299
 30
0.0
 10
193.0868192264405
 20
23.86113110974249
 30
0.0
 10
191.9312786676261
 20
29.44275403438102
 30
0.0
 10
191.3823054574826
 20
32.23921395671836
 30
0.0
 10
190.3800117084743
 20
37.85089579013556
 30
0.0
 10
189.9265608994894
 20
40.6660921491164
 30
0.0
 10
189.1762422996119
 20
46.32719816325096
 30
0.0
 10
188.8804055503539
 20
49.17331005417376
 30
0.0
 10
188.7006748880555
 20
52.04219581086895
 30
0.0
  0
SPLINE
  5
96
330
1F
100
AcDbEntity
  8
0
  6
Continuous
 62
     7
370
    15
100
AcDbSpline
210
0.0
220
0.0
230
1.0
 70
    24
 71
     3
 72
    11
 73
     7
 74
     0
 42
0.00000001
 43
0.00000001
 12
1.0
 22
0.0
 32
0.0
 13
1.0
 23
0.0
 33
0.0
 40
0.0
 40
0.0
 40
0.0
 40
0.0
 40
0.0781872354690063
 40
0.3953232515741351
 40
0.7122939205364994
 40
0.9999999999999999
 40
0.9999999999999999
 40
0.9999999999999999
 40
0.9999999999999999
 10
192.3024610409171
 20
18.29445700522777
 30
0.0
 10
192.2904625952603
 20
18.29445700522777
 30
0.0
 10
192.2297971359629
 20
18.29445700522778
 30
0.0
 10
192.5701370219905
 20
18.29445700522777
 30
0.0
 10
193.2532287800582
 20
18.29445700522776
 30
0.0
 10
193.9750989284736
 20
18.29445700522777
 30
0.0
 10
194.3185657987029
 20
18.29445700522777
 30
0.0
  0
SPLINE
  5
97
330
1F
100
AcDbEntity
  8
0
  6
Continuous
 62
     7
370
    15
100
AcDbSpline
210
0.0
220
0.0
230
1.0
 70
    24
 71
     3
 72
    11
 73
     7
 74
     0
 42
0.00000001
 43
0.00000001
 12
1.0
 22
0.0
 32
0.0
 13
1.0
 23
0.0
 33
0.0
 40
0.0
 40
0.0
 40
0.0
 40
0.0
 40
0.2877036535494301
 40
0.5983457791095838
 40
0.9091424432514881
 40
1.0
 40
1.0
 40
1.0
 40
1.0
 10
194.318565798703
 20
98.29445521708843
 30
0.0
 10
193.9752496196396
 20
98.29445521708843
 30
0.0
 10
193.26124482996
 20
98.29445521708843
 30
0.0
 10
192.5807351779373
 20
98.29445521708841
 30
0.0
 10
192.2379541935392
 20
98.29445521708845
 30
0.0
 10
192.2922197295927
 20
98.29445521708843
 30
0.0
 10
192.3044950494201
 20
98.29445521708843
 30
0.0
  0
SPLINE
  5
98
330
1F
100
AcDbEntity
  8
0
  6
Continuous
 62
     7
370
    15
100
AcDbSpline
210
0.0
220
0.0
230
1.0
 70
     8
 71
     3
 72
    14
 73
    10
 74
     0
 42
0.00000001
 43
0.00000001
 12
1.0
 22
0.0
 32
0.0
 13
1.0
 23
0.0
 33
0.0
 40
0.0
 40
0.0
 40
0.0
 40
0.0
 40
0.4999999999999998
 40
0.4999999999999998
 40
0.7500000000000001
 40
0.7500000000000001
 40
0.875
 40
0.875
 40
1.0
 40
1.0
 40
1.0
 40
1.0
 10
188.7006748880555
 20
52.04219581086899
 30
0.0
 10
188.6349274628947
 20
53.09166532915205
 30
0.0
 10
188.4888568437942
 20
54.14015135211417
 30
0.0
 10
188.2283758606168
 20
55.70199470023071
 30
0.0
 10
188.1339318321395
 20
56.2212713951323
 30
0.0
 10
187.9869203417916
 20
56.99924763421987
 30
0.0
 10
187.937013606523
 20
57.25841447300731
 30
0.0
 10
187.8363110804205
 20
57.77659200869758
 30
0.0
 10
187.7852941071194
 20
58.03672466634443
 30
0.0
 10
187.7347490617664
 20
58.29445611115809
 30
0.0
  0
SPLINE
  5
99
330
1F
100
AcDbEntity
  8
0
  6
Continuous
 62
     7
370
    15
100
AcDbSpline
210
0.0
220
0.0
230
1.0
 70
     8
 71
     3
 72
    12
 73
     8
 74
     0
 42
0.00000001
 43
0.00000001
 12
1.0
 22
0.0
 32
0.0
 13
1.0
 23
0.0
 33
0.0
 40
0.0
 40
0.0
 40
0.0
 40
0.0
 40
0.5000000000000004
 40
0.5000000000000004
 40
0.7500000000000002
 40
0.7500000000000002
 40
1.0
 40
1.0
 40
1.0
 40
1.0
 10
187.7347490617664
 20
58.29445611115809
 30
0.0
 10
187.9378654010188
 20
59.33015546691887
 30
0.0
 10
188.1415102244753
 20
60.36616414914027
 30
0.0
 10
188.4018579850064
 20
61.92706958727979
 30
0.0
 10
188.481066950162
 20
62.44849240634581
 30
0.0
 10
188.6139111532385
 20
63.49512332870199
 30
0.0
 10
188.6677624015834
 20
64.02136273806275
 30
0.0
 10
188.7006748880565
 20
64.54671641146354
 30
0.0
  0
LINE
  5
9A
330
1F
100
AcDbEntity
  8
0
  6
Continuous
 62
     7
370
    15
100
AcDbLine
 10
235.734752638
 20
98.2944552171
 30
0.0
 11
235.734752638
 21
18.2944570052
 31
0.0
  0
LINE
  5
9B
330
1F
100
AcDbEntity
  8
0
  6
Continuous
 62
     7
370
    15
100
AcDbLine
 10
194.3185657987
 20
18.2944570052
 30
0.0
 11
235.734752638
 21
18.2944570052
 31
0.0
  0
CIRCLE
  5
9C
330
1F
100
AcDbEntity
  8
0
  6
Continuous
 62
     7
370
    15
100
AcDbCircle
 10
223.2347490618
 20
28.2944561112
 30
0.0
 40
6.300000000000001
  0
CIRCLE
  5
9D
330
1F
100
AcDbEntity
  8
0
  6
Continuous
 62
     7
370
    15
100
AcDbCircle
 10
223.2347490618
 20
58.2944561112
 30
0.0
 40
6.299999999999997
  0
CIRCLE
  5
9E
330
1F
100
AcDbEntity
  8
0
  6
Continuous
 62
     7
370
    15
100
AcDbCircle
 10
223.2347490618
 20
88.2944561112
 30
0.0
 40
6.299999999999997
  0
LINE
  5
9F
330
1F
100
AcDbEntity
  8
0
  6
Continuous
 62
     7
370
    15
100
AcDbLine
 10
194.3185657987
 20
98.2944552171
 30
0.0
 11
235.734752638
 21
98.2944552171
 31
0.0
  0
CIRCLE
  5
A0
330
1F
100
AcDbEntity
  8
0
  6
Continuous
 62
     7
370
    15
100
AcDbCircle
 10
223.2347490618
 20
88.2944561112
 30
0.0
 40
5.099999999999994
  0
CIRCLE
  5
A1
330
1F
100
AcDbEntity
  8
0
  6
Continuous
 62
     7
370
    15
100
AcDbCircle
 10
223.2347490618
 20
58.2944561112
 30
0.0
 40
5.099999999999994
  0
CIRCLE
  5
A2
330
1F
100
AcDbEntity
  8
0
  6
Continuous
 62
     7
370
    15
100
AcDbCircle
 10
223.2347490618
 20
28.2944561112
 30
0.0
 40
5.099999999999991
  0
LINE
  5
A3
330
1F
100
AcDbEntity
  8
0
  6
Continuous
 62
     7
370
    15
100
AcDbLine
 10
123.9347488412
 20
35.0660100895
 30
0.0
 11
123.9347488412
 21
36.3201402443
 31
0.0
  0
SPLINE
  5
A4
330
1F
100
AcDbEntity
  8
0
  6
Continuous
 62
     7
370
    15
100
AcDbSpline
210
0.0
220
0.0
230
1.0
 70
     8
 71
     3
 72
    12
 73
     8
 74
     0
 42
0.00000001
 43
0.00000001
 12
1.0
 22
0.0
 32
0.0
 13
1.0
 23
0.0
 33
0.0
 40
0.0
 40
0.0
 40
0.0
 40
0.0
 40
0.25
 40
0.25
 40
0.5
 40
0.5
 40
1.0
 40
1.0
 40
1.0
 40
1.0
 10
123.2100764088994
 20
37.43496322313207
 30
0.0
 10
123.2589169792345
 20
37.3290635758608
 30
0.0
 10
123.3439638944344
 20
37.22713001445329
 30
0.0
 10
123.5136153029979
 20
37.03062380921507
 30
0.0
 10
123.6000773017242
 20
36.93559644761615
 30
0.0
 10
123.8254705066411
 20
36.65831795325713
 30
0.0
 10
123.9347490617664
 20
36.48360058044639
 30
0.0
 10
123.9347490617664
 20
36.32014040300102
 30
0.0
  0
SPLINE
  5
A5
330
1F
100
AcDbEntity
  8
0
  6
Continuous
 62
     7
370
    15
100
AcDbSpline
210
0.0
220
0.0
230
1.0
 70
     8
 71
     3
 72
    14
 73
    10
 74
     0
 42
0.00000001
 43
0.00000001
 12
1.0
 22
0.0
 32
0.0
 13
1.0
 23
0.0
 33
0.0
 40
0.0
 40
0.0
 40
0.0
 40
0.0
 40
0.1250000000000007
 40
0.1250000000000007
 40
0.2500000000000013
 40
0.2500000000000013
 40
0.5000000000000009
 40
0.5000000000000009
 40
1.0
 40
1.0
 40
1.0
 40
1.0
 10
122.5347490617664
 20
37.97155268560613
 30
0.0
 10
122.5915238169869
 20
37.97802113874486
 30
0.0
 10
122.6542069179161
 20
37.97216383553602
 30
0.0
 10
122.7600946924541
 20
37.94226751419823
 30
0.0
 10
122.8039989500553
 20
37.92039257224329
 30
0.0
 10
122.9164321982129
 20
37.85102128557649
 30
0.0
 10
122.9695604020752
 20
37.79852223137516
 30
0.0
 10
123.1045478638154
 20
37.64323922305685
 30
0.0
 10
123.1628085752953
 20
37.53745274922252
 30
0.0
 10
123.2100764089138
 20
37.4349632231329
 30
0.0
  0
SPLINE
  5
A6
330
1F
100
AcDbEntity
  8
0
  6
Continuous
 62
     7
370
    15
100
AcDbSpline
210
0.0
220
0.0
230
1.0
 70
     8
 71
     3
 72
    10
 73
     6
 74
     0
 42
0.00000001
 43
0.00000001
 12
1.0
 22
0.0
 32
0.0
 13
1.0
 23
0.0
 33
0.0
 40
0.0
 40
0.0
 40
0.0
 40
0.0
 40
0.5
 40
0.5
 40
1.0
 40
1.0
 40
1.0
 40
1.0
 10
119.7626226850513
 20
37.59814136329477
 30
0.0
 10
120.2088924627749
 20
37.6717561107229
 30
0.0
 10
120.6662270680864
 20
37.7377122560157
 30
0.0
 10
121.593569566134
 20
37.8608526371105
 30
0.0
 10
122.0631751130696
 20
37.91782539119974
 30
0.0
 10
122.5347490617664
 20
37.97155268560613
 30
0.0
  0
SPLINE
  5
A7
330
1F
100
AcDbEntity
  8
0
  6
Continuous
 62
     7
370
    15
100
AcDbSpline
210
0.0
220
0.0
230
1.0
 70
     8
 71
     3
 72
    14
 73
    10
 74
     0
 42
0.00000001
 43
0.00000001
 12
1.0
 22
0.0
 32
0.0
 13
1.0
 23
0.0
 33
0.0
 40
0.0
 40
0.0
 40
0.0
 40
0.0
 40
0.5000000000000002
 40
0.5000000000000002
 40
0.7500000000000002
 40
0.7500000000000002
 40
0.8750000000000001
 40
0.8750000000000001
 40
1.0
 40
1.0
 40
1.0
 40
1.0
 10
115.084341983202
 20
37.42492441138907
 30
0.0
 10
115.8755294814061
 20
37.42678221670039
 30
0.0
 10
116.6645958191184
 20
37.43355647036932
 30
0.0
 10
117.8400483601763
 20
37.46288797573134
 30
0.0
 10
118.2305462731612
 20
37.475769380741
 30
0.0
 10
118.8116404111242
 20
37.50609796962603
 30
0.0
 10
119.0045658557572
 20
37.51803513761525
 30
0.0
 10
119.3872765454581
 20
37.54935325495251
 30
0.0
 10
119.5775350718311
 20
37.56761010489578
 30
0.0
 10
119.7626226850514
 20
37.59814136329469
 30
0.0
  0
SPLINE
  5
A8
330
1F
100
AcDbEntity
  8
0
  6
Continuous
 62
     7
370
    15
100
AcDbSpline
210
0.0
220
0.0
230
1.0
 70
     8
 71
     3
 72
     8
 73
     4
 74
     0
 42
0.00000001
 43
0.00000001
 12
1.0
 22
0.0
 32
0.0
 13
1.0
 23
0.0
 33
0.0
 40
0.0000003680674985
 40
0.0000003680674985
 40
0.0000003680674985
 40
0.0000003680674985
 40
0.000194190298469
 40
0.000194190298469
 40
0.000194190298469
 40
0.000194190298469
 10
114.9747041313482
 20
37.49456895708913
 30
0.0
 10
115.0098005298023
 20
37.47085740608124
 30
0.0
 10
115.0464552306066
 20
37.44765209720839
 30
0.0
 10
115.0843419832007
 20
37.42492441138964
 30
0.0
  0
SPLINE
  5
A9
330
1F
100
AcDbEntity
  8
0
  6
Continuous
 62
     7
370
    15
100
AcDbSpline
210
0.0
220
0.0
230
1.0
 70
     8
 71
     3
 72
     8
 73
     4
 74
     0
 42
0.00000001
 43
0.00000001
 12
1.0
 22
0.0
 32
0.0
 13
1.0
 23
0.0
 33
0.0
 40
0.0000003292049707
 40
0.0000003292049707
 40
0.0000003292049707
 40
0.0000003292049707
 40
0.0000169050949325
 40
0.0000169050949325
 40
0.0000169050949325
 40
0.0000169050949325
 10
114.9847490617664
 20
79.16439387655318
 30
0.0
 10
114.9813924796296
 20
79.1624818824563
 30
0.0
 10
114.978044115504
 20
79.1605665922012
 30
0.0
 10
114.974704131335
 20
79.15864798358587
 30
0.0
  0
SPLINE
  5
AA
330
1F
100
AcDbEntity
  8
0
  6
Continuous
 62
     7
370
    15
100
AcDbSpline
210
0.0
220
0.0
230
1.0
 70
     8
 71
     3
 72
    10
 73
     6
 74
     0
 42
0.00000001
 43
0.00000001
 12
1.0
 22
0.0
 32
0.0
 13
1.0
 23
0.0
 33
0.0
 40
0.0
 40
0.0
 40
0.0
 40
0.0
 40
0.5
 40
0.5
 40
1.0
 40
1.0
 40
1.0
 40
1.0
 10
118.5347490617664
 20
79.11754350298582
 30
0.0
 10
117.9471635146758
 20
79.13860902322226
 30
0.0
 10
117.3564171212154
 20
79.14936750909447
 30
0.0
 10
116.1723979559165
 20
79.16273228963014
 30
0.0
 10
115.5789839677111
 20
79.16487493229472
 30
0.0
 10
114.9847490617664
 20
79.16439387655316
 30
0.0
  0
SPLINE
  5
AB
330
1F
100
AcDbEntity
  8
0
  6
Continuous
 62
     7
370
    15
100
AcDbSpline
210
0.0
220
0.0
230
1.0
 70
     8
 71
     3
 72
    18
 73
    14
 74
     0
 42
0.00000001
 43
0.00000001
 12
1.0
 22
0.0
 32
0.0
 13
1.0
 23
0.0
 33
0.0
 40
0.0
 40
0.0
 40
0.0
 40
0.0
 40
0.2500000000000003
 40
0.2500000000000003
 40
0.4999999999999999
 40
0.4999999999999999
 40
0.7499999999999996
 40
0.7499999999999996
 40
0.8749999999999993
 40
0.8749999999999993
 40
0.9374999999999997
 40
0.9374999999999997
 40
1.0
 40
1.0
 40
1.0
 40
1.0
 10
119.9347490617664
 20
80.13856378352109
 30
0.0
 10
119.9347490617664
 20
80.05535687466389
 30
0.0
 10
119.8988999618281
 20
79.96662021935033
 30
0.0
 10
119.7740282257942
 20
79.78449502879009
 30
0.0
 10
119.6836278081463
 20
79.68936498016348
 30
0.0
 10
119.4613851534042
 20
79.50018347103914
 30
0.0
 10
119.3316203669584
 20
79.40523830294444
 30
0.0
 10
119.0909829096469
 20
79.2669595953645
 30
0.0
 10
119.0032156115094
 20
79.22124916206211
 30
0.0
 10
118.8486915243026
 20
79.16342585684065
 30
0.0
 10
118.7920806382479
 20
79.14571109280278
 30
0.0
 10
118.6680366073413
 20
79.12117178956986
 30
0.0
 10
118.600321932323
 20
79.11519265103159
 30
0.0
 10
118.5347490617664
 20
79.11754350298582
 30
0.0
  0
LINE
  5
AC
330
1F
100
AcDbEntity
  8
0
  6
Continuous
 62
     7
370
    15
100
AcDbLine
 10
119.9347481856
 20
80.1385637688
 30
0.0
 11
119.9347481856
 21
81.3225020039
 31
0.0
  0
LINE
  5
AD
330
1F
100
AcDbEntity
  8
0
  6
Continuous
 62
     7
370
    15
100
AcDbLine
 10
143.7347489668
 20
34.0740248876
 30
0.0
 11
143.7347489668
 21
82.5148873347
 31
0.0
  0
SPLINE
  5
AE
330
1F
100
AcDbEntity
  8
0
  6
Continuous
 62
     7
370
    15
100
AcDbSpline
210
0.0
220
0.0
230
1.0
 70
     8
 71
     3
 72
    18
 73
    14
 74
     0
 42
0.00000001
 43
0.00000001
 12
1.0
 22
0.0
 32
0.0
 13
1.0
 23
0.0
 33
0.0
 40
0.0
 40
0.0
 40
0.0
 40
0.0
 40
0.001067142096085
 40
0.1270947925777493
 40
0.2524053537361832
 40
0.3766468838452861
 40
0.4391416358858051
 40
0.5008278334298175
 40
0.5624255844801763
 40
0.6253162510714301
 40
0.7499985254815132
 40
0.8752758926324193
 40
1.0
 40
1.0
 40
1.0
 40
1.0
 10
132.50505018771
 20
34.63711741742011
 30
0.0
 10
132.5041381124273
 20
34.63700224952808
 30
0.0
 10
132.3955115112468
 20
34.62328595119833
 30
0.0
 10
132.7831929832895
 20
34.67427221257997
 30
0.0
 10
133.6491414433991
 20
34.77382924845447
 30
0.0
 10
134.8495492371219
 20
34.84295987807356
 30
0.0
 10
135.9071247869796
 20
34.8469105783403
 30
0.0
 10
136.7342591511029
 20
34.81942371041603
 30
0.0
 10
137.5595307871507
 20
34.76088122160373
 30
0.0
 10
138.6138959942595
 20
34.64736261964402
 30
0.0
 10
139.7757322005129
 20
34.46420846381049
 30
0.0
 10
140.7279669211861
 20
34.25960831514435
 30
0.0
 10
140.8536720238947
 20
34.23032164513525
 30
0.0
 10
140.9163854809136
 20
34.21571071621295
 30
0.0
  0
SPLINE
  5
AF
330
1F
100
AcDbEntity
  8
0
  6
Continuous
 62
     7
370
    15
100
AcDbSpline
210
0.0
220
0.0
230
1.0
 70
     8
 71
     3
 72
    18
 73
    14
 74
     0
 42
0.00000001
 43
0.00000001
 12
1.0
 22
0.0
 32
0.0
 13
1.0
 23
0.0
 33
0.0
 40
0.0
 40
0.0
 40
0.0
 40
0.0
 40
0.1248907819469273
 40
0.2505384063477967
 40
0.3748721756041158
 40
0.4374907331267689
 40
0.4990776026247599
 40
0.5607931145009658
 40
0.6233901196104445
 40
0.7478191009174896
 40
0.8731941046696081
 40
0.9991614615322162
 40
0.9999999999999999
 40
0.9999999999999999
 40
0.9999999999999999
 40
0.9999999999999999
 10
140.9161666201086
 20
82.37313631352302
 30
0.0
 10
140.8524257881409
 20
82.358474847296
 30
0.0
 10
140.7245578525613
 20
82.32906306584998
 30
0.0
 10
139.7725590159728
 20
82.12410910649241
 30
0.0
 10
138.6120149451202
 20
81.94084784462875
 30
0.0
 10
137.5597511734568
 20
81.82781729025373
 30
0.0
 10
136.7355238744385
 20
81.76955648278101
 30
0.0
 10
135.9079201291138
 20
81.7421093466589
 30
0.0
 10
134.8491027994196
 20
81.74609414053356
 30
0.0
 10
133.6468830597938
 20
81.81518692502947
 30
0.0
 10
132.7817022887949
 20
81.91479566221663
 30
0.0
 10
132.3955535411572
 20
81.9656532678599
 30
0.0
 10
132.5036314135208
 20
81.95195246043649
 30
0.0
 10
132.5043461078436
 20
81.95186186012145
 30
0.0
  0
SPLINE
  5
B0
330
1F
100
AcDbEntity
  8
0
  6
Continuous
 62
     7
370
    15
100
AcDbSpline
210
0.0
220
0.0
230
1.0
 70
     8
 71
     3
 72
    22
 73
    18
 74
     0
 42
0.00000001
 43
0.00000001
 12
1.0
 22
0.0
 32
0.0
 13
1.0
 23
0.0
 33
0.0
 40
0.0
 40
0.0
 40
0.0
 40
0.0
 40
0.1249999999999972
 40
0.1249999999999972
 40
0.2499999999999943
 40
0.2499999999999943
 40
0.3124999999999916
 40
0.3124999999999916
 40
0.3749999999999887
 40
0.3749999999999887
 40
0.4999999999999911
 40
0.4999999999999911
 40
0.6249999999999934
 40
0.6249999999999934
 40
0.7499999999999959
 40
0.7499999999999959
 40
1.0
 40
1.0
 40
1.0
 40
1.0
 10
114.9747041313355
 20
79.15864798358679
 30
0.0
 10
114.9140844104591
 20
79.12382580693955
 30
0.0
 10
114.8518950704926
 20
79.08532200323886
 30
0.0
 10
114.7181656042631
 20
78.99938751544016
 30
0.0
 10
114.6459110625508
 20
78.95108091423798
 30
0.0
 10
114.5240131217151
 20
78.87472919606815
 30
0.0
 10
114.4802065685631
 20
78.84831473546112
 30
0.0
 10
114.3938113993882
 20
78.79980581093051
 30
0.0
 10
114.3514714230965
 20
78.77787168820413
 30
0.0
 10
114.2375006767274
 20
78.72150189825948
 30
0.0
 10
114.1790819507372
 20
78.69514507372581
 30
0.0
 10
114.0791743795497
 20
78.64300524922169
 30
0.0
 10
114.0377603887544
 20
78.61784465950912
 30
0.0
 10
113.9657354208771
 20
78.56273781618208
 30
0.0
 10
113.9353868795641
 20
78.53288141268715
 30
0.0
 10
113.861895149532
 20
78.43547471069448
 30
0.0
 10
113.8347490617664
 20
78.35914302688413
 30
0.0
 10
113.8347490617664
 20
78.27051661581399
 30
0.0
  0
SPLINE
  5
B1
330
1F
100
AcDbEntity
  8
0
  6
Continuous
 62
     7
370
    15
100
AcDbSpline
210
0.0
220
0.0
230
1.0
 70
     8
 71
     3
 72
    22
 73
    18
 74
     0
 42
0.00000001
 43
0.00000001
 12
1.0
 22
0.0
 32
0.0
 13
1.0
 23
0.0
 33
0.0
 40
0.0
 40
0.0
 40
0.0
 40
0.0
 40
0.2500000000000044
 40
0.2500000000000044
 40
0.5000000000000088
 40
0.5000000000000088
 40
0.5625000000000103
 40
0.5625000000000103
 40
0.6250000000000119
 40
0.6250000000000119
 40
0.6875000000000134
 40
0.6875000000000134
 40
0.7500000000000115
 40
0.7500000000000115
 40
0.8750000000000058
 40
0.8750000000000058
 40
1.0
 40
1.0
 40
1.0
 40
1.0
 10
113.8347490617662
 20
38.33533834915878
 30
0.0
 10
113.8347490617662
 20
38.24536496414102
 30
0.0
 10
113.8662472801119
 20
38.17031692162591
 30
0.0
 10
113.9727747092885
 20
38.05728970791441
 30
0.0
 10
114.0459349284254
 20
38.02047612512165
 30
0.0
 10
114.1668634047497
 20
37.98483244886786
 30
0.0
 10
114.1927138925536
 20
37.97808223508171
 30
0.0
 10
114.2503084503279
 20
37.96301322636729
 30
0.0
 10
114.2822541908515
 20
37.95488020294061
 30
0.0
 10
114.3581112314237
 20
37.92959462835624
 30
0.0
 10
114.4053222820698
 20
37.91021941023912
 30
0.0
 10
114.5015482756688
 20
37.85446093158934
 30
0.0
 10
114.5459692055928
 20
37.82197578847842
 30
0.0
 10
114.6621902154786
 20
37.73306540685684
 30
0.0
 10
114.7273424548905
 20
37.67856732352865
 30
0.0
 10
114.8538968952564
 20
37.57993984447234
 30
0.0
 10
114.914570972226
 20
37.53519564622417
 30
0.0
 10
114.9747041313485
 20
37.49456895708782
 30
0.0
  0
LINE
  5
B2
330
1F
100
AcDbEntity
  8
0
  6
Continuous
 62
     7
370
    15
100
AcDbLine
 10
113.8347492346
 20
38.3353378939
 30
0.0
 11
113.8347492346
 21
78.2705169487
 31
0.0
  0
SPLINE
  5
B3
330
1F
100
AcDbEntity
  8
0
  6
Continuous
 62
     7
370
    15
100
AcDbSpline
210
0.0
220
0.0
230
1.0
 70
     8
 71
     3
 72
     8
 73
     4
 74
     0
 42
0.00000001
 43
0.00000001
 12
1.0
 22
0.0
 32
0.0
 13
1.0
 23
0.0
 33
0.0
 40
0.0
 40
0.0
 40
0.0
 40
0.0
 40
1.0
 40
1.0
 40
1.0
 40
1.0
 10
167.1266818932554
 20
88.76165158432234
 30
0.0
 10
166.6315418638911
 20
87.87497193614207
 30
0.0
 10
166.1374591586121
 20
86.9877093004561
 30
0.0
 10
165.6447490617664
 20
86.0996903023297
 30
0.0
  0
LINE
  5
B4
330
1F
100
AcDbEntity
  8
0
  6
Continuous
 62
     7
370
    15
100
AcDbLine
 10
167.126680983
 20
82.7531457263
 30
0.0
 11
167.126680983
 21
88.7616515475
 31
0.0
  0
SPLINE
  5
B5
330
1F
100
AcDbEntity
  8
0
  6
Continuous
 62
     7
370
    15
100
AcDbSpline
210
0.0
220
0.0
230
1.0
 70
     8
 71
     3
 72
     8
 73
     4
 74
     0
 42
0.00000001
 43
0.00000001
 12
1.0
 22
0.0
 32
0.0
 13
1.0
 23
0.0
 33
0.0
 40
0.0
 40
0.0
 40
0.0
 40
0.0
 40
1.0
 40
1.0
 40
1.0
 40
1.0
 10
165.6447490617664
 20
79.34459977874143
 30
0.0
 10
166.1240272123562
 20
80.485611008594
 30
0.0
 10
166.6195950514962
 20
81.62199541936185
 30
0.0
 10
167.1266818932554
 20
82.75314577352552
 30
0.0
  0
LINE
  5
B6
330
1F
100
AcDbEntity
  8
0
  6
Continuous
 62
     7
370
    15
100
AcDbLine
 10
165.6447493264
 20
79.3446000981
 30
0.0
 11
165.6447493264
 21
86.0996894854
 31
0.0
  0
LINE
  5
B7
330
1F
100
AcDbEntity
  8
0
  6
Continuous
 62
     7
370
    15
100
AcDbLine
 10
171.0847497711
 20
88.7616515475
 30
0.0
 11
167.126680983
 21
88.7616515475
 31
0.0
  0
LINE
  5
B8
330
1F
100
AcDbEntity
  8
0
  6
Continuous
 62
     7
370
    15
100
AcDbLine
 10
167.126680983
 20
82.7531457263
 30
0.0
 11
171.0847497711
 21
82.7531457263
 31
0.0
  0
SPLINE
  5
B9
330
1F
100
AcDbEntity
  8
0
  6
Continuous
 62
     7
370
    15
100
AcDbSpline
210
0.0
220
0.0
230
1.0
 70
     8
 71
     3
 72
     8
 73
     4
 74
     0
 42
0.00000001
 43
0.00000001
 12
1.0
 22
0.0
 32
0.0
 13
1.0
 23
0.0
 33
0.0
 40
0.0
 40
0.0
 40
0.0
 40
0.0
 40
1.0
 40
1.0
 40
1.0
 40
1.0
 10
161.8247490617664
 20
86.09969030232969
 30
0.0
 10
161.3320389649206
 20
86.98770930045609
 30
0.0
 10
160.8379562596417
 20
87.87497193614207
 30
0.0
 10
160.3428162302773
 20
88.76165158432234
 30
0.0
  0
LINE
  5
BA
330
1F
100
AcDbEntity
  8
0
  6
Continuous
 62
     7
370
    15
100
AcDbLine
 10
161.82474911
 20
79.3446000981
 30
0.0
 11
161.82474911
 21
86.0996894854
 31
0.0
  0
SPLINE
  5
BB
330
1F
100
AcDbEntity
  8
0
  6
Continuous
 62
     7
370
    15
100
AcDbSpline
210
0.0
220
0.0
230
1.0
 70
     8
 71
     3
 72
     8
 73
     4
 74
     0
 42
0.00000001
 43
0.00000001
 12
1.0
 22
0.0
 32
0.0
 13
1.0
 23
0.0
 33
0.0
 40
0.0
 40
0.0
 40
0.0
 40
0.0
 40
1.0
 40
1.0
 40
1.0
 40
1.0
 10
160.3428162302773
 20
82.7531457735255
 30
0.0
 10
160.8499030720366
 20
81.62199541936185
 30
0.0
 10
161.3454709111765
 20
80.48561100859402
 30
0.0
 10
161.8247490617664
 20
79.34459977874144
 30
0.0
  0
SPLINE
  5
BC
330
1F
100
AcDbEntity
  8
0
  6
Continuous
 62
     7
370
    15
100
AcDbSpline
210
0.0
220
0.0
230
1.0
 70
     8
 71
     3
 72
    10
 73
     6
 74
     0
 42
0.00000001
 43
0.00000001
 12
1.0
 22
0.0
 32
0.0
 13
1.0
 23
0.0
 33
0.0
 40
0.0
 40
0.0
 40
0.0
 40
0.0
 40
0.5
 40
0.5
 40
1.0
 40
1.0
 40
1.0
 40
1.0
 10
171.6847490617664
 20
88.14089643492198
 30
0.0
 10
171.6847490617664
 20
88.30130170127278
 30
0.0
 10
171.6225112306595
 20
88.46036351426137
 30
0.0
 10
171.403376306917
 20
88.69127597989171
 30
0.0
 10
171.2457876119251
 20
88.76165158432234
 30
0.0
 10
171.0847490617664
 20
88.76165158432234
 30
0.0
  0
SPLINE
  5
BD
330
1F
100
AcDbEntity
  8
0
  6
Continuous
 62
     7
370
    15
100
AcDbSpline
210
0.0
220
0.0
230
1.0
 70
     8
 71
     3
 72
    12
 73
     8
 74
     0
 42
0.00000001
 43
0.00000001
 12
1.0
 22
0.0
 32
0.0
 13
1.0
 23
0.0
 33
0.0
 40
0.0
 40
0.0
 40
0.0
 40
0.0
 40
0.249999999999998
 40
0.249999999999998
 40
0.499999999999996
 40
0.499999999999996
 40
1.0
 40
1.0
 40
1.0
 40
1.0
 10
171.0847490617664
 20
82.75314577352552
 30
0.0
 10
171.175948783592
 20
82.75314577352552
 30
0.0
 10
171.2665437927281
 20
82.72492607493764
 30
0.0
 10
171.4199565191747
 20
82.63048306768954
 30
0.0
 10
171.4851653864984
 20
82.56419609098421
 30
0.0
 10
171.6379499158383
 20
82.33857126769591
 30
0.0
 10
171.6847490617664
 20
82.15614500466336
 30
0.0
 10
171.6847490617664
 20
81.97540837241647
 30
0.0
  0
LINE
  5
BE
330
1F
100
AcDbEntity
  8
0
  6
Continuous
 62
     7
370
    15
100
AcDbLine
 10
171.6847487518
 20
81.9754075575
 30
0.0
 11
171.6847487518
 21
88.1408971119
 31
0.0
  0
LINE
  5
BF
330
1F
100
AcDbEntity
  8
0
  6
Continuous
 62
     7
370
    15
100
AcDbLine
 10
161.82474911
 20
79.3446000981
 30
0.0
 11
161.82474911
 21
78.4303225892
 31
0.0
  0
LINE
  5
C0
330
1F
100
AcDbEntity
  8
0
  6
Continuous
 62
     7
370
    15
100
AcDbLine
 10
165.6447493264
 20
78.4303225892
 30
0.0
 11
165.6447493264
 21
79.3446000981
 31
0.0
  0
LINE
  5
C1
330
1F
100
AcDbEntity
  8
0
  6
Continuous
 62
     7
370
    15
100
AcDbLine
 10
171.6847487518
 20
81.9754075575
 30
0.0
 11
171.6847487518
 21
78.1444568503
 31
0.0
  0
CIRCLE
  5
C2
330
1F
100
AcDbEntity
  8
0
  6
Continuous
 62
     7
370
    15
100
AcDbCircle
 10
223.2347490618
 20
28.2944561112
 30
0.0
 40
5.036000000000005
  0
LINE
  5
C3
330
1F
100
AcDbEntity
  8
0
  6
Continuous
 62
     7
370
    15
100
AcDbLine
 10
225.2577238509
 20
31.1064977514
 30
0.0
 11
226.6815372536
 21
27.9485319125
 31
0.0
  0
LINE
  5
C4
330
1F
100
AcDbEntity
  8
0
  6
Continuous
 62
     7
370
    15
100
AcDbLine
 10
224.6585630605
 20
25.1364890802
 30
0.0
 11
226.6815372536
 21
27.9485319125
 31
0.0
  0
LINE
  5
C5
330
1F
100
AcDbEntity
  8
0
  6
Continuous
 62
     7
370
    15
100
AcDbLine
 10
221.2117754647
 20
25.482415812
 30
0.0
 11
219.7879620621
 21
28.6403816509
 31
0.0
  0
LINE
  5
C6
330
1F
100
AcDbEntity
  8
0
  6
Continuous
 62
     7
370
    15
100
AcDbLine
 10
224.6585630605
 20
25.1364890802
 30
0.0
 11
221.2117754647
 21
25.482415812
 31
0.0
  0
LINE
  5
C7
330
1F
100
AcDbEntity
  8
0
  6
Continuous
 62
     7
370
    15
100
AcDbLine
 10
221.8109362552
 20
31.4524226206
 30
0.0
 11
219.7879620621
 21
28.6403816509
 31
0.0
  0
LINE
  5
C8
330
1F
100
AcDbEntity
  8
0
  6
Continuous
 62
     7
370
    15
100
AcDbLine
 10
225.2577238509
 20
31.1064977514
 30
0.0
 11
221.8109362552
 21
31.4524226206
 31
0.0
  0
LINE
  5
C9
330
1F
100
AcDbEntity
  8
0
  6
Continuous
 62
     7
370
    15
100
AcDbLine
 10
221.7264988253
 20
55.1759341116
 30
0.0
 11
219.7799079844
 21
58.0413787476
 31
0.0
  0
LINE
  5
CA
330
1F
100
AcDbEntity
  8
0
  6
Continuous
 62
     7
370
    15
100
AcDbLine
 10
221.7264988253
 20
55.1759341116
 30
0.0
 11
225.1813404986
 21
55.4290114752
 31
0.0
  0
CIRCLE
  5
CB
330
1F
100
AcDbEntity
  8
0
  6
Continuous
 62
     7
370
    15
100
AcDbCircle
 10
223.2347490618
 20
58.2944561112
 30
0.0
 40
5.035999999999984
  0
LINE
  5
CC
330
1F
100
AcDbEntity
  8
0
  6
Continuous
 62
     7
370
    15
100
AcDbLine
 10
219.7799079844
 20
58.0413787476
 30
0.0
 11
221.288158817
 21
61.1599007471
 31
0.0
  0
LINE
  5
CD
330
1F
100
AcDbEntity
  8
0
  6
Continuous
 62
     7
370
    15
100
AcDbLine
 10
226.6895913312
 20
58.5475334748
 30
0.0
 11
225.1813404986
 21
55.4290114752
 31
0.0
  0
LINE
  5
CE
330
1F
100
AcDbEntity
  8
0
  6
Continuous
 62
     7
370
    15
100
AcDbLine
 10
226.6895913312
 20
58.5475334748
 30
0.0
 11
224.7430004904
 21
61.4129781107
 31
0.0
  0
LINE
  5
CF
330
1F
100
AcDbEntity
  8
0
  6
Continuous
 62
     7
370
    15
100
AcDbLine
 10
224.7430004904
 20
61.4129781107
 30
0.0
 11
221.288158817
 21
61.1599007471
 31
0.0
  0
LINE
  5
D0
330
1F
100
AcDbEntity
  8
0
  6
Continuous
 62
     7
370
    15
100
AcDbLine
 10
226.6495370099
 20
88.876887815
 30
0.0
 11
224.4377427527
 21
91.5429625976
 31
0.0
  0
LINE
  5
D1
330
1F
100
AcDbEntity
  8
0
  6
Continuous
 62
     7
370
    15
100
AcDbLine
 10
221.0229554006
 20
90.9605320859
 30
0.0
 11
224.4377427527
 21
91.5429625976
 31
0.0
  0
LINE
  5
D2
330
1F
100
AcDbEntity
  8
0
  6
Continuous
 62
     7
370
    15
100
AcDbLine
 10
219.8199623057
 20
87.7120249289
 30
0.0
 11
221.0229554006
 21
90.9605320859
 31
0.0
  0
LINE
  5
D3
330
1F
100
AcDbEntity
  8
0
  6
Continuous
 62
     7
370
    15
100
AcDbLine
 10
219.8199623057
 20
87.7120249289
 30
0.0
 11
222.0317565629
 21
85.0459482836
 31
0.0
  0
LINE
  5
D4
330
1F
100
AcDbEntity
  8
0
  6
Continuous
 62
     7
370
    15
100
AcDbLine
 10
225.446543915
 20
85.6283787954
 30
0.0
 11
222.0317565629
 21
85.0459482836
 31
0.0
  0
LINE
  5
D5
330
1F
100
AcDbEntity
  8
0
  6
Continuous
 62
     7
370
    15
100
AcDbLine
 10
225.446543915
 20
85.6283787954
 30
0.0
 11
226.6495370099
 21
88.876887815
 31
0.0
  0
CIRCLE
  5
D6
330
1F
100
AcDbEntity
  8
0
  6
Continuous
 62
     7
370
    15
100
AcDbCircle
 10
223.2347490618
 20
88.2944561112
 30
0.0
 40
5.035999999999994
  0
LWPOLYLINE
  5
D7
330
1F
100
AcDbEntity
  8
0
  6
Continuous
 62
     7
370
    15
100
AcDbPolyline
 90
       29
 70
   128
 43
0.0
 10
211.0683985779
 20
100.441839205
 10
210.6598683426
 20
100.4563007819
 10
210.1128914186
 20
100.4761118757
 10
209.4548933932
 20
100.500266658
 10
208.7188728878
 20
100.5275655853
 10
207.9417289028
 20
100.5566340255
 10
207.1624391505
 20
100.5860153901
 10
206.4200744757
 20
100.6142344641
 10
205.7518654296
 20
100.6398793625
 10
205.1913135478
 20
100.6616611349
 10
204.7665335962
 20
100.6784882712
 10
204.4988193342
 20
100.6895188558
 10
204.401596708
 20
100.6942015457
 10
204.4797421226
 20
100.692294197
 10
204.7293365726
 20
100.683901118
 10
205.1378630826
 20
100.6694358158
 10
205.6848400065
 20
100.6496284473
 10
206.342838032
 20
100.6254699397
 10
207.0788585374
 20
100.5981710124
 10
207.8560025224
 20
100.5691062975
 10
208.6352922747
 20
100.5397249329
 10
209.3776532242
 20
100.5115058589
 10
210.0458659956
 20
100.4858609604
 10
210.6064178774
 20
100.4640791881
 10
211.031197829
 20
100.4472483265
 10
211.298912091
 20
100.4362177419
 10
211.3961347172
 20
100.4315387773
 10
211.3179930279
 20
100.4334424007
 10
211.0683985779
 20
100.441839205
  0
LWPOLYLINE
  5
D8
330
1F
100
AcDbEntity
  8
0
  6
Continuous
 62
     7
370
    15
100
AcDbPolyline
 90
       27
 70
   128
 43
0.0
 10
210.6156044433
 20
100.4591282773
 10
210.2333226034
 20
100.4726771581
 10
209.7153656909
 20
100.4914712476
 10
209.0918415019
 20
100.5144115853
 10
208.3989896604
 20
100.5401719677
 10
207.6770693788
 20
100.5672473776
 10
206.9680386016
 20
100.5940694677
 10
206.3131064901
 20
100.6190810668
 10
205.75033061
 20
100.640821861
 10
205.3124227354
 20
100.6580327022
 10
205.0248265991
 20
100.6697152125
 10
204.9042613038
 20
100.675187664
 10
204.9577303955
 20
100.6741334068
 10
205.1821269819
 20
100.6666120457
 10
205.5644088218
 20
100.6530594396
 10
206.0823657343
 20
100.6342653501
 10
206.705886198
 20
100.6113250124
 10
207.3987417647
 20
100.5855683553
 10
208.1206620464
 20
100.5584892201
 10
208.8296928236
 20
100.53166713
 10
209.4846212098
 20
100.5066592562
 10
210.0474008152
 20
100.4849147367
 10
210.4853086898
 20
100.4677038955
 10
210.7729011008
 20
100.4560213852
 10
210.8934738466
 20
100.4505489337
 10
210.8400010297
 20
100.4516069162
 10
210.6156044433
 20
100.4591282773
  0
ARC
  5
D9
330
1F
100
AcDbEntity
  8
0
  6
Continuous
 62
     7
370
    15
100
AcDbCircle
 10
211.1584104203
 20
117.6304367641
 30
0.0
 40
101.7283219744595
100
AcDbArc
 50
266.0120554368
 51
269.9548633652
  0
LINE
  5
DA
330
1F
100
AcDbEntity
  8
0
  6
HIDDEN
 62
     7
370
     0
100
AcDbLine
 10
160.3428165221
 20
82.7531457263
 30
0.0
 11
160.3428165221
 21
78.1444568503
 31
0.0
  0
SPLINE
  5
DB
330
1F
100
AcDbEntity
  8
0
  6
HIDDEN
 62
     7
370
     0
100
AcDbSpline
210
0.0
220
0.0
230
1.0
 70
     8
 71
     3
 72
    12
 73
     8
 74
     0
 42
0.00000001
 43
0.00000001
 12
1.0
 22
0.0
 32
0.0
 13
1.0
 23
0.0
 33
0.0
 40
0.0
 40
0.0
 40
0.0
 40
0.0
 40
0.2500000000000001
 40
0.2500000000000001
 40
0.5000000000000001
 40
0.5000000000000001
 40
1.0
 40
1.0
 40
1.0
 40
1.0
 10
195.0022070222134
 20
73.19240535957344
 30
0.0
 10
194.804858564266
 20
70.70774475643697
 30
0.0
 10
194.6520797976327
 20
68.21281336655818
 30
0.0
 10
194.4479124113671
 20
63.22953203098437
 30
0.0
 10
194.3964487670669
 20
60.74158735749236
 30
0.0
 10
194.3979887901338
 20
53.28913854775683
 30
0.0
 10
194.6098606596993
 20
48.33623408362954
 30
0.0
 10
195.0022070222134
 20
43.39650686274275
 30
0.0
  0
LINE
  5
DC
330
1F
100
AcDbEntity
  8
0
  6
HIDDEN
 62
     7
370
     0
100
AcDbLine
 10
133.7298995608
 20
34.7698569613
 30
0.0
 11
133.195753468
 21
34.7152423429
 31
0.0
  0
LINE
  5
DD
330
1F
100
AcDbEntity
  8
0
  6
HIDDEN
 62
     7
370
     0
100
AcDbLine
 10
132.958100436
 20
81.8977892714
 30
0.0
 11
133.7298064286
 21
81.8190384972
 31
0.0
  0
LINE
  5
DE
330
1F
100
AcDbEntity
  8
0
  6
HIDDEN
 62
     7
370
     0
100
AcDbLine
 10
200.7347487637
 20
88.2944554406
 30
0.0
 11
214.7347473332
 21
88.2944554406
 31
0.0
  0
LINE
  5
DF
330
1F
100
AcDbEntity
  8
0
  6
HIDDEN
 62
     7
370
     0
100
AcDbLine
 10
214.7347473332
 20
28.2944567817
 30
0.0
 11
200.7347487637
 21
28.2944567817
 31
0.0
  0
SPLINE
  5
E0
330
1F
100
AcDbEntity
  8
0
  6
HIDDEN
 62
     7
370
     0
100
AcDbSpline
210
0.0
220
0.0
230
1.0
 70
     8
 71
     3
 72
    15
 73
    11
 74
     0
 42
0.00000001
 43
0.00000001
 12
1.0
 22
0.0
 32
0.0
 13
1.0
 23
0.0
 33
0.0
 40
0.0
 40
0.0
 40
0.0
 40
0.0
 40
0.1409172263352446
 40
0.281889861653346
 40
0.4212989542022905
 40
0.5593768841673977
 40
0.6988856533029646
 40
0.840367202775075
 40
0.9813164473602943
 40
1.0
 40
1.0
 40
1.0
 40
1.0
 10
139.4897511021824
 20
38.45692764397975
 30
0.0
 10
139.1737093825697
 20
38.49728096575443
 30
0.0
 10
138.5415016750013
 20
38.57800347632426
 30
0.0
 10
137.3073385026871
 20
38.65456142270703
 30
0.0
 10
136.0366163788714
 20
38.64988335469209
 30
0.0
 10
134.848056912335
 20
38.56908688946886
 30
0.0
 10
133.8549342330446
 20
38.44469234261464
 30
0.0
 10
133.2155257017308
 20
38.33828539585341
 30
0.0
 10
132.9345057133774
 20
38.28520833654386
 30
0.0
 10
133.0010662818662
 20
38.29746282850577
 30
0.0
 10
133.0088565850289
 20
38.2988971042287
 30
0.0
  0
SPLINE
  5
E1
330
1F
100
AcDbEntity
  8
0
  6
HIDDEN
 62
     7
370
     0
100
AcDbSpline
210
0.0
220
0.0
230
1.0
 70
     8
 71
     3
 72
    15
 73
    11
 74
     0
 42
0.00000001
 43
0.00000001
 12
1.0
 22
0.0
 32
0.0
 13
1.0
 23
0.0
 33
0.0
 40
0.0
 40
0.0
 40
0.0
 40
0.0
 40
0.1201202497733958
 40
0.2584739452442804
 40
0.3987302041697883
 40
0.5404022600041716
 40
0.680739511736143
 40
0.8190355942651634
 40
0.9577823154231621
 40
1.0
 40
1.0
 40
1.0
 40
1.0
 10
133.0088565850289
 20
78.2900151180875
 30
0.0
 10
133.0295658338324
 20
78.2859906140132
 30
0.0
 10
133.0741278560674
 20
78.27733071322463
 30
0.0
 10
133.6365673257958
 20
78.17803779451346
 30
0.0
 10
134.530029581243
 20
78.05412178280213
 30
0.0
 10
135.6890084050952
 20
77.95441040726847
 30
0.0
 10
136.962045273915
 20
77.92727334957043
 30
0.0
 10
138.1963306206421
 20
77.98261071170054
 30
0.0
 10
139.0242936983379
 20
78.06909044749189
 30
0.0
 10
139.4017040109842
 20
78.12008736662908
 30
0.0
 10
139.4897511021824
 20
78.13198457833644
 30
0.0
  0
SPLINE
  5
E2
330
1F
100
AcDbEntity
  8
0
  6
HIDDEN
 62
     7
370
     0
100
AcDbSpline
210
0.0
220
0.0
230
1.0
 70
     8
 71
     3
 72
    10
 73
     6
 74
     0
 42
0.00000001
 43
0.00000001
 12
1.0
 22
0.0
 32
0.0
 13
1.0
 23
0.0
 33
0.0
 40
0.0
 40
0.0
 40
0.0
 40
0.0
 40
0.4477467301233289
 40
0.8954767958272422
 40
1.0
 40
1.0
 40
1.0
 40
1.0
 10
139.4897511021824
 20
78.13198457833644
 30
0.0
 10
139.7364474255132
 20
78.16149592043686
 30
0.0
 10
140.229830890531
 20
78.22051750627261
 30
0.0
 10
140.5188384491341
 20
78.23445916586648
 30
0.0
 10
140.4585512875985
 20
78.23057241203163
 30
0.0
 10
140.44714093
 20
78.22983677860614
 30
0.0
  0
SPLINE
  5
E3
330
1F
100
AcDbEntity
  8
0
  6
HIDDEN
 62
     7
370
     0
100
AcDbSpline
210
0.0
220
0.0
230
1.0
 70
     8
 71
     3
 72
    10
 73
     6
 74
     0
 42
0.00000001
 43
0.00000001
 12
1.0
 22
0.0
 32
0.0
 13
1.0
 23
0.0
 33
0.0
 40
0.0
 40
0.0
 40
0.0
 40
0.0
 40
0.3456558691823793
 40
0.7967533085657662
 40
1.0
 40
1.0
 40
1.0
 40
1.0
 10
140.4470962265165
 20
38.35907916900035
 30
0.0
 10
140.4375366373188
 20
38.35963416552226
 30
0.0
 10
140.4155013270556
 20
38.36091345904654
 30
0.0
 10
139.9984820673959
 20
38.39087829504603
 30
0.0
 10
139.6103189567197
 20
38.44127412799772
 30
0.0
 10
139.4897511021824
 20
38.45692764397975
 30
0.0
  0
LINE
  5
E4
330
1F
100
AcDbEntity
  8
0
  6
HIDDEN
 62
     7
370
     0
100
AcDbLine
 10
126.7387245575
 20
41.2944551873
 30
0.0
 11
126.7387245575
 21
75.294457035
 31
0.0
  0
LINE
  5
E5
330
1F
100
AcDbEntity
  8
0
  6
HIDDEN
 62
     7
370
     0
100
AcDbLine
 10
153.3945750238
 20
41.2944551873
 30
0.0
 11
153.3945750238
 21
75.294457035
 31
0.0
  0
LINE
  5
E6
330
1F
100
AcDbEntity
  8
0
  6
HIDDEN
 62
     7
370
     0
100
AcDbLine
 10
155.6847489232
 20
42.569456281
 30
0.0
 11
155.6847489232
 21
74.0194559413
 31
0.0
  0
SPLINE
  5
E7
330
1F
100
AcDbEntity
  8
0
  6
HIDDEN
 62
     7
370
     0
100
AcDbSpline
210
0.0
220
0.0
230
1.0
 70
     8
 71
     3
 72
    18
 73
    14
 74
     0
 42
0.00000001
 43
0.00000001
 12
1.0
 22
0.0
 32
0.0
 13
1.0
 23
0.0
 33
0.0
 40
0.0
 40
0.0
 40
0.0
 40
0.0
 40
0.2500000000000009
 40
0.2500000000000009
 40
0.3750000000000007
 40
0.3750000000000007
 40
0.5000000000000006
 40
0.5000000000000006
 40
0.6250000000000003
 40
0.6250000000000003
 40
0.7500000000000001
 40
0.7500000000000001
 40
1.0
 40
1.0
 40
1.0
 40
1.0
 10
119.9347490617664
 20
74.58196973356222
 30
0.0
 10
119.9347490617664
 20
74.52749521301003
 30
0.0
 10
119.8998383703742
 20
74.47111415365754
 30
0.0
 10
119.7978290690412
 20
74.38703731280405
 30
0.0
 10
119.7561927143631
 20
74.35970360881313
 30
0.0
 10
119.6577869188743
 20
74.30674969321417
 30
0.0
 10
119.60024370717
 20
74.28086233949699
 30
0.0
 10
119.4729455335971
 20
74.23308479466371
 30
0.0
 10
119.4033582288396
 20
74.21113687648584
 30
0.0
 10
119.2519239836847
 20
74.17170431157312
 30
0.0
 10
119.1692400805907
 20
74.15414806234728
 30
0.0
 10
118.9131286185526
 20
74.11170929692676
 30
0.0
 10
118.7252136146647
 20
74.09594654718975
 30
0.0
 10
118.5347490617664
 20
74.09594654718975
 30
0.0
  0
LINE
  5
E8
330
1F
100
AcDbEntity
  8
0
  6
HIDDEN
 62
     7
370
     0
100
AcDbLine
 10
118.5347487012
 20
74.095947327
 30
0.0
 11
114.9847482124
 21
74.095947327
 31
0.0
  0
ELLIPSE
  5
E9
330
1F
100
AcDbEntity
  8
0
  6
HIDDEN
 62
     7
370
     0
100
AcDbEllipse
 10
125.8447076252
 20
58.2944561112
 30
0.0
 11
29.44486372867087
 21
-1.421085471520200E-14
 31
0.0
210
0.0
220
0.0
230
1.0
 40
0.5773502692
 41
4.33464598141226
 42
4.338282263332681
  0
LINE
  5
EA
330
1F
100
AcDbEntity
  8
0
  6
HIDDEN
 62
     7
370
     0
100
AcDbLine
 10
115.0843419859
 20
42.4702704268
 30
0.0
 11
122.5347493568
 21
42.4702704268
 31
0.0
  0
SPLINE
  5
EB
330
1F
100
AcDbEntity
  8
0
  6
HIDDEN
 62
     7
370
     0
100
AcDbSpline
210
0.0
220
0.0
230
1.0
 70
     8
 71
     3
 72
    16
 73
    12
 74
     0
 42
0.00000001
 43
0.00000001
 12
1.0
 22
0.0
 32
0.0
 13
1.0
 23
0.0
 33
0.0
 40
0.0
 40
0.0
 40
0.0
 40
0.0
 40
0.1249999999999998
 40
0.1249999999999998
 40
0.2499999999999997
 40
0.2499999999999997
 40
0.4999999999999998
 40
0.4999999999999998
 40
0.7499999999999999
 40
0.7499999999999999
 40
1.0
 40
1.0
 40
1.0
 40
1.0
 10
122.5347490617664
 20
42.47027070558351
 30
0.0
 10
122.6298096515295
 20
42.47027070558351
 30
0.0
 10
122.7230840744604
 20
42.4665000340276
 30
0.0
 10
122.9062442677294
 20
42.45190352506086
 30
0.0
 10
122.9970786608612
 20
42.44087691050233
 30
0.0
 10
123.2538171500529
 20
42.39889611659911
 30
0.0
 10
123.4088933382184
 20
42.35831783482411
 30
0.0
 10
123.6627292492769
 20
42.2642445821737
 30
0.0
 10
123.7636822645886
 20
42.21008934201784
 30
0.0
 10
123.899030719462
 20
42.10011131041481
 30
0.0
 10
123.9347490617664
 20
42.04360632380066
 30
0.0
 10
123.9347490617664
 20
41.98986032500014
 30
0.0
  0
LINE
  5
EC
330
1F
100
AcDbEntity
  8
0
  6
HIDDEN
 62
     7
370
     0
100
AcDbLine
 10
114.9847482124
 20
42.4929648953
 30
0.0
 11
114.9847482124
 21
74.095947327
 31
0.0
  0
SPLINE
  5
ED
330
1F
100
AcDbEntity
  8
0
  6
HIDDEN
 62
     7
370
     0
100
AcDbSpline
210
0.0
220
0.0
230
1.0
 70
     8
 71
     3
 72
    62
 73
    58
 74
     0
 42
0.00000001
 43
0.00000001
 12
1.0
 22
0.0
 32
0.0
 13
1.0
 23
0.0
 33
0.0
 40
-0.0312500000000003
 40
-0.0312500000000003
 40
0.0
 40
0.0
 40
0.0312499999999993
 40
0.0312499999999993
 40
0.0624999999999986
 40
0.0624999999999986
 40
0.124999999999998
 40
0.124999999999998
 40
0.1874999999999974
 40
0.1874999999999974
 40
0.218749999999997
 40
0.218749999999997
 40
0.2499999999999967
 40
0.2499999999999967
 40
0.2812499999999964
 40
0.2812499999999964
 40
0.3124999999999961
 40
0.3124999999999961
 40
0.3437499999999957
 40
0.3437499999999957
 40
0.3749999999999954
 40
0.3749999999999954
 40
0.4374999999999955
 40
0.4374999999999955
 40
0.4687499999999957
 40
0.4687499999999957
 40
0.499999999999996
 40
0.499999999999996
 40
0.5624999999999966
 40
0.5624999999999966
 40
0.5937499999999968
 40
0.5937499999999968
 40
0.624999999999997
 40
0.624999999999997
 40
0.6562499999999972
 40
0.6562499999999972
 40
0.6874999999999974
 40
0.6874999999999974
 40
0.7187499999999977
 40
0.7187499999999977
 40
0.7499999999999979
 40
0.7499999999999979
 40
0.7812499999999981
 40
0.7812499999999981
 40
0.8124999999999983
 40
0.8124999999999983
 40
0.8437499999999986
 40
0.8437499999999986
 40
0.8749999999999987
 40
0.8749999999999987
 40
0.906249999999999
 40
0.906249999999999
 40
0.9374999999999993
 40
0.9374999999999993
 40
0.9687499999999997
 40
0.9687499999999997
 40
1.0
 40
1.0
 40
1.031249999999999
 40
1.031249999999999
 10
198.307003348474
 20
62.195909680829
 30
0.0
 10
198.2519605587354
 20
62.05380107282951
 30
0.0
 10
198.2028135349216
 20
61.97651877872549
 30
0.0
 10
198.0683698986923
 20
61.81278364821863
 30
0.0
 10
197.982050800104
 20
61.72572966480265
 30
0.0
 10
197.6871796726767
 20
61.4672641656735
 30
0.0
 10
197.4383659172211
 20
61.29341600041032
 30
0.0
 10
196.8906304299765
 20
60.98692786513771
 30
0.0
 10
196.5828466831373
 20
60.84932714427604
 30
0.0
 10
196.0996932037687
 20
60.70494217661401
 30
0.0
 10
195.9342395758472
 20
60.66674282278369
 30
0.0
 10
195.5924140638289
 20
60.61705556810114
 30
0.0
 10
195.416983717977
 20
60.60623792516504
 30
0.0
 10
195.0715961424245
 20
60.61894931551742
 30
0.0
 10
194.8971741492358
 20
60.64291959099861
 30
0.0
 10
194.5649230325446
 20
60.72459330550098
 30
0.0
 10
194.4069713394324
 20
60.78159445752919
 30
0.0
 10
194.1067573261666
 20
60.92314556202209
 30
0.0
 10
193.9684397961681
 20
61.00588968016795
 30
0.0
 10
193.7171981501403
 20
61.18410068662465
 30
0.0
 10
193.6029183939568
 20
61.28072648650388
 30
0.0
 10
193.3052267866235
 20
61.56980883642601
 30
0.0
 10
193.1597268490009
 20
61.76696233704846
 30
0.0
 10
193.0318001969727
 20
62.01758955033777
 30
0.0
 10
193.0034879540204
 20
62.0954774295277
 30
0.0
 10
192.9783240795259
 20
62.23002186495426
 30
0.0
 10
192.9808699204427
 20
62.28733815492955
 30
0.0
 10
193.0346093789851
 20
62.42922196558444
 30
0.0
 10
193.1315784052742
 20
62.47888137801928
 30
0.0
 10
193.3622836875903
 20
62.49733978178118
 30
0.0
 10
193.4521760620797
 20
62.49449244522991
 30
0.0
 10
193.6601770545541
 20
62.47624742678475
 30
0.0
 10
193.7790318439977
 20
62.46064272412522
 30
0.0
 10
194.0373398412553
 20
62.4248887938013
 30
0.0
 10
194.1779349619476
 20
62.40463852968521
 30
0.0
 10
194.486320595121
 20
62.36686929244817
 30
0.0
 10
194.6472558113712
 20
62.35035127318775
 30
0.0
 10
194.9820126857358
 20
62.32743917619299
 30
0.0
 10
195.1578933951831
 20
62.32114955525571
 30
0.0
 10
195.5047879692417
 20
62.32063229370496
 30
0.0
 10
195.6787391757559
 20
62.32617818400184
 30
0.0
 10
196.0201223203111
 20
62.34563610646742
 30
0.0
 10
196.1850492631011
 20
62.35925657911864
 30
0.0
 10
196.5055390217086
 20
62.38976784755034
 30
0.0
 10
196.6620140945847
 20
62.40678079524127
 30
0.0
 10
196.961722609595
 20
62.43927546715175
 30
0.0
 10
197.1039013790591
 20
62.45463277669631
 30
0.0
 10
197.3734352656748
 20
62.47933919361931
 30
0.0
 10
197.5016530695625
 20
62.48875917234307
 30
0.0
 10
197.7372284335177
 20
62.49641081809867
 30
0.0
 10
197.8436910331619
 20
62.49469180200139
 30
0.0
 10
198.0305725009824
 20
62.47488347411463
 30
0.0
 10
198.1110925356445
 20
62.45641035188724
 30
0.0
 10
198.2322183517379
 20
62.39874514626826
 30
0.0
 10
198.2742914401379
 20
62.35859334945444
 30
0.0
 10
198.311285396534
 20
62.25693338934814
 30
0.0
 10
198.307003348474
 20
62.195909680829
 30
0.0
 10
198.2519605587354
 20
62.05380107282951
 30
0.0
  0
SPLINE
  5
EE
330
1F
100
AcDbEntity
  8
0
  6
HIDDEN
 62
     7
370
     0
100
AcDbSpline
210
0.0
220
0.0
230
1.0
 70
     8
 71
     3
 72
    64
 73
    60
 74
     0
 42
0.00000001
 43
0.00000001
 12
1.0
 22
0.0
 32
0.0
 13
1.0
 23
0.0
 33
0.0
 40
-0.0312500000000001
 40
-0.0312500000000001
 40
0.0
 40
0.0
 40
0.0625
 40
0.0625
 40
0.0937499999999999
 40
0.0937499999999999
 40
0.1249999999999999
 40
0.1249999999999999
 40
0.1562499999999999
 40
0.1562499999999999
 40
0.1874999999999999
 40
0.1874999999999999
 40
0.2187499999999999
 40
0.2187499999999999
 40
0.2499999999999998
 40
0.2499999999999998
 40
0.2812499999999998
 40
0.2812499999999998
 40
0.3124999999999998
 40
0.3124999999999998
 40
0.3437499999999998
 40
0.3437499999999998
 40
0.3749999999999998
 40
0.3749999999999998
 40
0.4062499999999997
 40
0.4062499999999997
 40
0.4374999999999998
 40
0.4374999999999998
 40
0.4687499999999998
 40
0.4687499999999998
 40
0.4999999999999998
 40
0.4999999999999998
 40
0.5312499999999998
 40
0.5312499999999998
 40
0.5624999999999998
 40
0.5624999999999998
 40
0.5937499999999997
 40
0.5937499999999997
 40
0.6249999999999997
 40
0.6249999999999997
 40
0.6562499999999997
 40
0.6562499999999997
 40
0.6874999999999997
 40
0.6874999999999997
 40
0.7499999999999997
 40
0.7499999999999997
 40
0.8124999999999998
 40
0.8124999999999998
 40
0.8437499999999999
 40
0.8437499999999999
 40
0.8749999999999999
 40
0.8749999999999999
 40
0.9062499999999999
 40
0.9062499999999999
 40
0.9374999999999998
 40
0.9374999999999998
 40
0.9687499999999999
 40
0.9687499999999999
 40
1.0
 40
1.0
 40
1.0625
 40
1.0625
 10
197.840186984529
 20
54.0944561111581
 30
0.0
 10
197.505946144607
 20
54.0944561111581
 30
0.0
 10
197.2477378661229
 20
54.11927839247548
 30
0.0
 10
196.8152355030066
 20
54.16534121246808
 30
0.0
 10
196.6620942118752
 20
54.18244773842629
 30
0.0
 10
196.349017313669
 20
54.21457607280644
 30
0.0
 10
196.188119233357
 20
54.22971733140683
 30
0.0
 10
195.8561326670646
 20
54.25383709818941
 30
0.0
 10
195.6828275910204
 20
54.26281775135178
 30
0.0
 10
195.3369101771491
 20
54.26983118550736
 30
0.0
 10
195.1641398155126
 20
54.26794447721272
 30
0.0
 10
194.8190381736256
 20
54.25225973568179
 30
0.0
 10
194.6523043734794
 20
54.23865139740525
 30
0.0
 10
194.3357144849273
 20
54.20486109230367
 30
0.0
 10
194.1835999236646
 20
54.18444000704735
 30
0.0
 10
193.9075557662087
 20
54.14610929964572
 30
0.0
 10
193.7810077812761
 20
54.12796591402265
 30
0.0
 10
193.5536713200067
 20
54.10188167099841
 30
0.0
 10
193.4545617030871
 20
54.09411890289904
 30
0.0
 10
193.2821686939676
 20
54.09481580076763
 30
0.0
 10
193.2091557531702
 20
54.10353531761034
 30
0.0
 10
193.0940727520522
 20
54.1409145291573
 30
0.0
 10
193.0509065381383
 20
54.1694876320078
 30
0.0
 10
192.9939443669803
 20
54.24985018351551
 30
0.0
 10
192.9811572867184
 20
54.30019662683809
 30
0.0
 10
192.9855337285319
 20
54.42118116911534
 30
0.0
 10
193.0032566338697
 20
54.49287562254163
 30
0.0
 10
193.0685003718798
 20
54.65045927812496
 30
0.0
 10
193.1156297989141
 20
54.73640047169436
 30
0.0
 10
193.2401838380603
 20
54.9200805606501
 30
0.0
 10
193.3170256687494
 20
55.01663111724397
 30
0.0
 10
193.4965635447484
 20
55.20928184268972
 30
0.0
 10
193.6011146856339
 20
55.30728807973119
 30
0.0
 10
193.8353248198579
 20
55.49336312480327
 30
0.0
 10
193.9636598372279
 20
55.58067646738682
 30
0.0
 10
194.2457717903079
 20
55.73667589461708
 30
0.0
 10
194.4010225261598
 20
55.80530276345795
 30
0.0
 10
194.7216974683686
 20
55.90869966151418
 30
0.0
 10
194.8899686021691
 20
55.94485271808024
 30
0.0
 10
195.2370550996336
 20
55.98193067581246
 30
0.0
 10
195.4103186338416
 20
55.98252565932268
 30
0.0
 10
195.7563691926507
 20
55.95306929656966
 30
0.0
 10
195.9283526290673
 20
55.92281309249173
 30
0.0
 10
196.4239692342952
 20
55.79936864354756
 30
0.0
 10
196.7394520730196
 20
55.67156946592208
 30
0.0
 10
197.3090511722966
 20
55.37689469191334
 30
0.0
 10
197.5697149033986
 20
55.2064169855317
 30
0.0
 10
197.8886787362466
 20
54.9486917495901
 30
0.0
 10
197.9841986374361
 20
54.86133070258434
 30
0.0
 10
198.142504183492
 20
54.69170326305867
 30
0.0
 10
198.2044127522191
 20
54.61066368536269
 30
0.0
 10
198.2876316530824
 20
54.45932114823454
 30
0.0
 10
198.3072026689313
 20
54.39143163004815
 30
0.0
 10
198.299928515118
 20
54.27635343549078
 30
0.0
 10
198.272394983707
 20
54.22852998540554
 30
0.0
 10
198.1764420733146
 20
54.15686026126187
 30
0.0
 10
198.1070922150806
 20
54.1318421065882
 30
0.0
 10
197.9390258720746
 20
54.10087747128285
 30
0.0
 10
197.840186984529
 20
54.0944561111581
 30
0.0
 10
197.505946144607
 20
54.0944561111581
 30
0.0
  0
LINE
  5
EF
330
1F
100
AcDbEntity
  8
0
  6
HIDDEN
 62
     7
370
     0
100
AcDbLine
 10
115.0843419859
 20
40.3044555652
 30
0.0
 11
115.0843419859
 21
37.4249235111
 31
0.0
  0
LINE
  5
F0
330
1F
100
AcDbEntity
  8
0
  6
HIDDEN
 62
     7
370
     0
100
AcDbLine
 10
123.9347488412
 20
40.3044555652
 30
0.0
 11
123.9347488412
 21
36.3201402443
 31
0.0
  0
LINE
  5
F1
330
1F
100
AcDbEntity
  8
0
  6
HIDDEN
 62
     7
370
     0
100
AcDbLine
 10
119.9347481856
 20
76.2844566571
 30
0.0
 11
119.9347481856
 21
80.1385637688
 31
0.0
  0
LINE
  5
F2
330
1F
100
AcDbEntity
  8
0
  6
HIDDEN
 62
     7
370
     0
100
AcDbLine
 10
114.9847482124
 20
76.2844566571
 30
0.0
 11
114.9847482124
 21
79.1643947678
 31
0.0
  0
LINE
  5
F3
330
1F
100
AcDbEntity
  8
0
  6
HIDDEN
 62
     7
370
     0
100
AcDbLine
 10
165.0347498038
 20
48.7944564166
 30
0.0
 11
165.0347498038
 21
67.7944558057
 31
0.0
  0
LINE
  5
F4
330
1F
100
AcDbEntity
  8
0
  6
HIDDEN
 62
     7
370
     0
100
AcDbLine
 10
167.5347492823
 20
48.7944564166
 30
0.0
 11
167.5347492823
 21
67.7944558057
 31
0.0
  0
LINE
  5
F5
330
1F
100
AcDbEntity
  8
0
  6
HIDDEN
 62
     7
370
     0
100
AcDbLine
 10
156.1847490051
 20
49.7944556492
 30
0.0
 11
156.1847490051
 21
66.7944565731
 31
0.0
  0
LINE
  5
F6
330
1F
100
AcDbEntity
  8
0
  6
HIDDEN
 62
     7
370
     0
100
AcDbLine
 10
171.6847487518
 20
31.8944562542
 30
0.0
 11
165.5470740774
 21
31.8944562542
 31
0.0
  0
LINE
  5
F7
330
1F
100
AcDbEntity
  8
0
  6
HIDDEN
 62
     7
370
     0
100
AcDbLine
 10
161.922424359
 20
31.8944562542
 30
0.0
 11
158.6847494149
 21
31.8944562542
 31
0.0
  0
LINE
  5
F8
330
1F
100
AcDbEntity
  8
0
  6
HIDDEN
 62
     7
370
     0
100
AcDbLine
 10
150.6847490349
 20
26.8103327918
 30
0.0
 11
150.6847490349
 21
31.8944562542
 31
0.0
  0
LINE
  5
F9
330
1F
100
AcDbEntity
  8
0
  6
HIDDEN
 62
     7
370
     0
100
AcDbLine
 10
158.6847494149
 20
31.8944562542
 30
0.0
 11
150.6847490349
 21
31.8944562542
 31
0.0
  0
LINE
  5
FA
330
1F
100
AcDbEntity
  8
0
  6
HIDDEN
 62
     7
370
     0
100
AcDbLine
 10
171.6847487518
 20
84.6944559681
 30
0.0
 11
165.2504515627
 21
84.6944559681
 31
0.0
  0
LINE
  5
FB
330
1F
100
AcDbEntity
  8
0
  6
HIDDEN
 62
     7
370
     0
100
AcDbLine
 10
162.2190468738
 20
84.6944559681
 30
0.0
 11
158.6847494149
 21
84.6944559681
 31
0.0
  0
LINE
  5
FC
330
1F
100
AcDbEntity
  8
0
  6
HIDDEN
 62
     7
370
     0
100
AcDbLine
 10
158.6847494149
 20
84.6944559681
 30
0.0
 11
150.6847490349
 21
84.6944559681
 31
0.0
  0
SPLINE
  5
FD
330
1F
100
AcDbEntity
  8
0
  6
HIDDEN
 62
     7
370
     0
100
AcDbSpline
210
0.0
220
0.0
230
1.0
 70
     8
 71
     3
 72
     8
 73
     4
 74
     0
 42
0.00000001
 43
0.00000001
 12
1.0
 22
0.0
 32
0.0
 13
1.0
 23
0.0
 33
0.0
 40
0.0000002432046719
 40
0.0000002432046719
 40
0.0000002432046719
 40
0.0000002432046719
 40
0.0014006019039539
 40
0.0014006019039539
 40
0.0014006019039539
 40
0.0014006019039539
 10
113.8347490617664
 20
42.04836343343002
 30
0.0
 10
114.2186085892453
 20
42.19473694523325
 30
0.0
 10
114.6019619892014
 20
42.34289414715068
 30
0.0
 10
114.9847490617664
 20
42.49296567512644
 30
0.0
  0
SPLINE
  5
FE
330
1F
100
AcDbEntity
  8
0
  6
HIDDEN
 62
     7
370
     0
100
AcDbSpline
210
0.0
220
0.0
230
1.0
 70
     8
 71
     3
 72
     8
 73
     4
 74
     0
 42
0.00000001
 43
0.00000001
 12
1.0
 22
0.0
 32
0.0
 13
1.0
 23
0.0
 33
0.0
 40
0.0000002438860713
 40
0.0000002438860713
 40
0.0000002438860713
 40
0.0000002438860713
 40
0.0014006025853533
 40
0.0014006025853533
 40
0.0014006025853533
 40
0.0014006025853533
 10
114.9847490617664
 20
74.09594654718975
 30
0.0
 10
114.6019619892014
 20
74.24601807516552
 30
0.0
 10
114.2186085892453
 20
74.39417527708295
 30
0.0
 10
113.8347490617664
 20
74.54054878888618
 30
0.0
  0
LINE
  5
FF
330
1F
100
AcDbEntity
  8
0
  6
HIDDEN
 62
     7
370
     0
100
AcDbLine
 10
119.9347481856
 20
76.2844566571
 30
0.0
 11
119.9347481856
 21
74.5819691884
 31
0.0
  0
LINE
  5
100
330
1F
100
AcDbEntity
  8
0
  6
HIDDEN
 62
     7
370
     0
100
AcDbLine
 10
114.9847482124
 20
76.2844566571
 30
0.0
 11
114.9847482124
 21
74.095947327
 31
0.0
  0
LINE
  5
101
330
1F
100
AcDbEntity
  8
0
  6
HIDDEN
 62
     7
370
     0
100
AcDbLine
 10
123.9347488412
 20
40.3044555652
 30
0.0
 11
123.9347488412
 21
41.9898607152
 31
0.0
  0
LINE
  5
102
330
1F
100
AcDbEntity
  8
0
  6
HIDDEN
 62
     7
370
     0
100
AcDbLine
 10
115.0843419859
 20
40.3044555652
 30
0.0
 11
115.0843419859
 21
42.4702704268
 31
0.0
  0
SPLINE
  5
103
330
1F
100
AcDbEntity
  8
0
  6
HIDDEN
 62
     7
370
     0
100
AcDbSpline
210
0.0
220
0.0
230
1.0
 70
     8
 71
     3
 72
    20
 73
    16
 74
     0
 42
0.00000001
 43
0.00000001
 12
1.0
 22
0.0
 32
0.0
 13
1.0
 23
0.0
 33
0.0
 40
0.0
 40
0.0
 40
0.0
 40
0.0
 40
0.1119347249088424
 40
0.1774535198112377
 40
0.2490746330661134
 40
0.3298225938872912
 40
0.3985945555318646
 40
0.4998736744271243
 40
0.6138381134155059
 40
0.6790036188578638
 40
0.7495296925738387
 40
0.8296751725227874
 40
0.8981184278070239
 40
0.9995282045201589
 40
1.0
 40
1.0
 40
1.0
 40
1.0
 10
140.4835332909257
 20
34.69447757479068
 30
0.0
 10
140.4402173740074
 20
34.70790326036764
 30
0.0
 10
140.3715473350426
 20
34.7291874075655
 30
0.0
 10
139.9264090756959
 20
34.83249276790828
 30
0.0
 10
139.3998525170473
 20
34.94579256320214
 30
0.0
 10
138.7144268819191
 20
35.06872735261383
 30
0.0
 10
137.8211098654343
 20
35.1907619934361
 30
0.0
 10
136.7077501827452
 20
35.30849770881113
 30
0.0
 10
135.5969759560022
 20
35.32047132932286
 30
0.0
 10
134.7122279540096
 20
35.29341637971897
 30
0.0
 10
134.0450306727809
 20
35.24548117433392
 30
0.0
 10
133.5037603273269
 20
35.18919282647651
 30
0.0
 10
133.1161721562541
 20
35.14408783040947
 30
0.0
 10
132.9222583498543
 20
35.10529504722702
 30
0.0
 10
132.9853493440143
 20
35.11593929251531
 30
0.0
 10
132.9856415072114
 20
35.1159885841262
 30
0.0
  0
LINE
  5
104
330
1F
100
AcDbEntity
  8
0
  6
HIDDEN
 62
     7
370
     0
100
AcDbLine
 10
133.8947613516
 20
35.2267936188
 30
0.0
 11
134.0786062905
 21
35.2449842113
 31
0.0
  0
SPLINE
  5
105
330
1F
100
AcDbEntity
  8
0
  6
HIDDEN
 62
     7
370
     0
100
AcDbSpline
210
0.0
220
0.0
230
1.0
 70
     8
 71
     3
 72
    27
 73
    23
 74
     0
 42
0.00000001
 43
0.00000001
 12
1.0
 22
0.0
 32
0.0
 13
1.0
 23
0.0
 33
0.0
 40
0.0
 40
0.0
 40
0.0
 40
0.0
 40
0.0007766380968552
 40
0.0456588218222884
 40
0.1022400735289516
 40
0.1705176637071217
 40
0.2091090389456934
 40
0.2506359747422246
 40
0.3210812186211789
 40
0.3861744947044821
 40
0.4266533707149158
 40
0.4647843539610351
 40
0.5005883561477449
 40
0.5451798602293312
 40
0.6016736989293039
 40
0.670079133803061
 40
0.7088162185363084
 40
0.7505446492180354
 40
0.8222087189936307
 40
0.8877476507602706
 40
0.9472209757120774
 40
1.0
 40
1.0
 40
1.0
 40
1.0
 10
132.9853919127614
 20
81.47287520941612
 30
0.0
 10
132.9851784194503
 20
81.47292130523945
 30
0.0
 10
132.9726270739851
 20
81.47563129460627
 30
0.0
 10
133.0217191162689
 20
81.46378763700446
 30
0.0
 10
133.1668085664544
 20
81.44035455792762
 30
0.0
 10
133.4398652405744
 20
81.40644457961237
 30
0.0
 10
133.768390373316
 20
81.37287712243543
 30
0.0
 10
134.1611185216777
 20
81.33469405217699
 30
0.0
 10
134.7108462581626
 20
81.29572598379751
 30
0.0
 10
135.3368689060716
 20
81.2762643507213
 30
0.0
 10
135.8800607439341
 20
81.2740791953207
 30
0.0
 10
136.3251294937972
 20
81.28259391645142
 30
0.0
 10
136.7915773480781
 20
81.3023774666379
 30
0.0
 10
137.3288182741458
 20
81.34653734850586
 30
0.0
 10
137.9770312414728
 20
81.4189571829172
 30
0.0
 10
138.5625703953186
 20
81.49985484536467
 30
0.0
 10
139.0435395180041
 20
81.57802419653345
 30
0.0
 10
139.4889546925103
 20
81.6627947983452
 30
0.0
 10
139.9274536517055
 20
81.75657928669195
 30
0.0
 10
140.266482530288
 20
81.83448255266643
 30
0.0
 10
140.4538519988514
 20
81.88468132763401
 30
0.0
 10
140.4743433396442
 20
81.89134962577101
 30
0.0
 10
140.4839779974551
 20
81.89448493894454
 30
0.0
  0
LINE
  5
106
330
1F
100
AcDbEntity
  8
0
  6
HIDDEN
 62
     7
370
     0
100
AcDbLine
 10
203.8347490856
 20
58.2944561112
 30
0.0
 11
203.8347490856
 21
54.0944562609
 31
0.0
  0
LINE
  5
107
330
1F
100
AcDbEntity
  8
0
  6
HIDDEN
 62
     7
370
     0
100
AcDbLine
 10
203.8347490856
 20
62.4944559614
 30
0.0
 11
203.8347490856
 21
58.2944561112
 31
0.0
  0
LINE
  5
108
330
1F
100
AcDbEntity
  8
0
  6
HIDDEN
 62
     7
370
     0
100
AcDbLine
 10
210.7347466776
 20
98.2944552171
 30
0.0
 11
210.7347466776
 21
18.2944570052
 31
0.0
  0
LINE
  5
109
330
1F
100
AcDbEntity
  8
0
  6
HIDDEN
 62
     7
370
     0
100
AcDbLine
 10
161.82474911
 20
78.4303225892
 30
0.0
 11
161.82474911
 21
78.1444568503
 31
0.0
  0
LINE
  5
10A
330
1F
100
AcDbEntity
  8
0
  6
HIDDEN
 62
     7
370
     0
100
AcDbLine
 10
165.6447493264
 20
78.4303225892
 30
0.0
 11
165.6447493264
 21
78.1444568503
 31
0.0
  0
LINE
  5
10B
330
1F
100
AcDbEntity
  8
0
  6
HIDDEN
 62
     7
370
     0
100
AcDbLine
 10
167.126680983
 20
82.7531457263
 30
0.0
 11
167.126680983
 21
78.1444568503
 31
0.0
  0
CIRCLE
  5
10C
330
1F
100
AcDbEntity
  8
0
  6
HIDDEN
 62
     7
370
     0
100
AcDbCircle
 10
152.7347490618
 20
58.2944561112
 30
0.0
 40
5.0
  0
LINE
  5
10D
330
1F
100
AcDbEntity
  8
0
  6
HIDDEN
 62
     7
370
     0
100
AcDbLine
 10
195.9681317934
 20
41.0607677269
 30
0.0
 11
235.734752638
 21
41.0607677269
 31
0.0
  0
LINE
  5
10E
330
1F
100
AcDbEntity
  8
0
  6
HIDDEN
 62
     7
370
     0
100
AcDbLine
 10
235.734752638
 20
75.5281444955
 30
0.0
 11
195.9681317934
 21
75.5281444955
 31
0.0
  0
SPLINE
  5
10F
330
1F
100
AcDbEntity
  8
0
  6
HIDDEN
 62
     7
370
     0
100
AcDbSpline
210
0.0
220
0.0
230
1.0
 70
     8
 71
     3
 72
    16
 73
    12
 74
     0
 42
0.00000001
 43
0.00000001
 12
1.0
 22
0.0
 32
0.0
 13
1.0
 23
0.0
 33
0.0
 40
0.0
 40
0.0
 40
0.0
 40
0.0
 40
0.125
 40
0.125
 40
0.25
 40
0.25
 40
0.5
 40
0.5
 40
0.75
 40
0.75
 40
1.0
 40
1.0
 40
1.0
 40
1.0
 10
195.9681328485023
 20
75.52814405077216
 30
0.0
 10
195.8548957965044
 20
75.52814405077211
 30
0.0
 10
195.7495138115123
 20
75.46771492254206
 30
0.0
 10
195.5861486709862
 20
75.31442755004609
 30
0.0
 10
195.5210794804866
 20
75.22050318509669
 30
0.0
 10
195.3553895885487
 20
74.92960980648418
 30
0.0
 10
195.2796614440896
 20
74.71611577597629
 30
0.0
 10
195.1589517905651
 20
74.28982267358009
 30
0.0
 10
195.1145465134219
 20
74.07312424795708
 30
0.0
 10
195.0448268304901
 20
73.63547596771575
 30
0.0
 10
195.019789669743
 20
73.41377476914428
 30
0.0
 10
195.0022070222134
 20
73.19240535957344
 30
0.0
  0
SPLINE
  5
110
330
1F
100
AcDbEntity
  8
0
  6
HIDDEN
 62
     7
370
     0
100
AcDbSpline
210
0.0
220
0.0
230
1.0
 70
     8
 71
     3
 72
    18
 73
    14
 74
     0
 42
0.00000001
 43
0.00000001
 12
1.0
 22
0.0
 32
0.0
 13
1.0
 23
0.0
 33
0.0
 40
0.0
 40
0.0
 40
0.0
 40
0.0
 40
0.2500000000000023
 40
0.2500000000000023
 40
0.5000000000000046
 40
0.5000000000000046
 40
0.7500000000000069
 40
0.7500000000000069
 40
0.8750000000000063
 40
0.8750000000000063
 40
0.9375000000000032
 40
0.9375000000000032
 40
1.0
 40
1.0
 40
1.0
 40
1.0
 10
195.0022070222134
 20
43.39650686274275
 30
0.0
 10
195.0196302593882
 20
43.17714446469055
 30
0.0
 10
195.0442190785667
 20
42.95850059318275
 30
0.0
 10
195.1131729918493
 20
42.52319591008823
 30
0.0
 10
195.1571649661719
 20
42.30649768402954
 30
0.0
 10
195.2783300157877
 20
41.87642845666612
 30
0.0
 10
195.3545802171101
 20
41.6609855698341
 30
0.0
 10
195.5207523777791
 20
41.36885308810247
 30
0.0
 10
195.5852750514341
 20
41.27542507024926
 30
0.0
 10
195.7084778344349
 20
41.1596419518334
 30
0.0
 10
195.7543477888007
 20
41.1252937618866
 30
0.0
 10
195.8555666796392
 20
41.07565093124829
 30
0.0
 10
195.9117336763187
 20
41.06076817154401
 30
0.0
 10
195.9681328485022
 20
41.06076817154397
 30
0.0
  0
CIRCLE
  5
111
330
1F
100
AcDbEntity
  8
0
  6
HIDDEN
 62
     7
370
     0
100
AcDbCircle
 10
223.2347490618
 20
28.2944561112
 30
0.0
 40
6.000000000000018
  0
CIRCLE
  5
112
330
1F
100
AcDbEntity
  8
0
  6
HIDDEN
 62
     7
370
     0
100
AcDbCircle
 10
223.2347490618
 20
28.2944561112
 30
0.0
 40
4.250000000000008
  0
CIRCLE
  5
113
330
1F
100
AcDbEntity
  8
0
  6
HIDDEN
 62
     7
370
     0
100
AcDbCircle
 10
223.2347490618
 20
58.2944561112
 30
0.0
 40
6.000000000000006
  0
CIRCLE
  5
114
330
1F
100
AcDbEntity
  8
0
  6
HIDDEN
 62
     7
370
     0
100
AcDbCircle
 10
223.2347490618
 20
58.2944561112
 30
0.0
 40
4.249999999999997
  0
CIRCLE
  5
115
330
1F
100
AcDbEntity
  8
0
  6
HIDDEN
 62
     7
370
     0
100
AcDbCircle
 10
223.2347490618
 20
88.2944561112
 30
0.0
 40
6.000000000000005
  0
CIRCLE
  5
116
330
1F
100
AcDbEntity
  8
0
  6
HIDDEN
 62
     7
370
     0
100
AcDbCircle
 10
223.2347490618
 20
88.2944561112
 30
0.0
 40
4.250000000000028
  0
LWPOLYLINE
  5
117
330
1F
100
AcDbEntity
  8
0
  6
HIDDEN
 62
     7
370
     0
100
AcDbPolyline
 90
       35
 70
   128
 43
0.0
 10
212.1679701635
 20
93.5014296639
 10
211.7026963064
 20
93.5178581941
 10
211.0990651676
 20
93.5396138894
 10
210.3776478002
 20
93.5659554171
 10
209.5630087683
 20
93.5959924328
 10
208.6828865835
 20
93.628693031
 10
207.7672474811
 20
93.6629470753
 10
206.8472795913
 20
93.6975922751
 10
205.9543088803
 20
93.7314439881
 10
205.1187448928
 20
93.7633510995
 10
204.3690413961
 20
93.7922258246
 10
203.7307315299
 20
93.8170846867
 10
203.2255449125
 20
93.8370857703
 10
202.8706923851
 20
93.851543622
 10
202.6782550642
 20
93.8599665033
 10
202.6547857353
 20
93.8620638418
 10
202.8010853359
 20
93.8577723074
 10
203.1121731529
 20
93.8472334611
 10
203.57744701
 20
93.8308049309
 10
204.1810744235
 20
93.8090492355
 10
204.902491791
 20
93.7827077078
 10
205.7171345481
 20
93.7526744175
 10
206.5972567329
 20
93.7199700939
 10
207.5128958353
 20
93.6857160496
 10
208.4328599998
 20
93.6510708499
 10
209.3258344361
 20
93.6172191369
 10
210.1613946983
 20
93.5853120255
 10
210.9111019203
 20
93.5564373004
 10
211.5494155118
 20
93.5315784382
 10
212.0545946786
 20
93.5115773546
 10
212.4094509313
 20
93.4971232283
 10
212.6018845269
 20
93.4887003469
 10
212.6253538558
 20
93.4865992832
 10
212.4790542552
 20
93.4908908176
 10
212.1679701635
 20
93.5014296639
  0
LWPOLYLINE
  5
118
330
1F
100
AcDbEntity
  8
0
  6
HIDDEN
 62
     7
370
     0
100
AcDbPolyline
 90
       25
 70
   128
 43
0.0
 10
209.997876806
 20
96.0861180293
 10
209.6473493406
 20
96.0985567736
 10
209.1664292643
 20
96.1160432863
 10
208.5878767797
 20
96.1373817491
 10
207.9511389861
 20
96.1611155736
 10
207.2995931634
 20
96.1856317091
 10
206.6776484975
 20
96.2092575001
 10
206.1276876161
 20
96.2303798961
 10
205.6871869394
 20
96.2475683856
 10
205.3861723074
 20
96.2596420514
 10
205.2451514432
 20
96.2657813298
 10
205.2737355956
 20
96.2655689883
 10
205.469976438
 20
96.2590199279
 10
205.8205039033
 20
96.2465774583
 10
206.301427705
 20
96.2290909457
 10
206.8799727389
 20
96.2077562081
 10
207.5167142579
 20
96.1840186584
 10
208.1682600805
 20
96.1595025229
 10
208.7902047464
 20
96.1358767318
 10
209.3401693532
 20
96.1147543358
 10
209.7806625792
 20
96.0975695717
 10
210.0816809365
 20
96.0854959058
 10
210.2227055261
 20
96.0793529021
 10
210.1941176483
 20
96.0795652437
 10
209.997876806
 20
96.0861180293
  0
LWPOLYLINE
  5
119
330
1F
100
AcDbEntity
  8
0
  6
HIDDEN
 62
     7
370
     0
100
AcDbPolyline
 90
       24
 70
   128
 43
0.0
 10
210.1440422961
 20
99.9767702388
 10
209.7935148308
 20
99.9892127084
 10
209.3125947544
 20
100.0066992211
 10
208.7340497205
 20
100.0280339586
 10
208.0973044762
 20
100.0517715084
 10
207.4457623789
 20
100.0762876439
 10
206.823817713
 20
100.0999097097
 10
206.2738531062
 20
100.1210358309
 10
205.8333561549
 20
100.1382205951
 10
205.5323377976
 20
100.1502942609
 10
205.3913169333
 20
100.1564335394
 10
205.4199010858
 20
100.1562211978
 10
205.6161456534
 20
100.1496721375
 10
205.9666731188
 20
100.1372296679
 10
206.4475969204
 20
100.1197468805
 10
207.0261419544
 20
100.0984084177
 10
207.6628834733
 20
100.0746745932
 10
208.3144255707
 20
100.0501584577
 10
208.9363702366
 20
100.0265326666
 10
209.4863348433
 20
100.0054065454
 10
209.92683552
 20
99.9882217812
 10
210.2278464267
 20
99.9761481154
 10
210.3688710162
 20
99.970008837
 10
210.3783332536
 20
99.9693606364
  0
ARC
  5
11A
330
1F
100
AcDbEntity
  8
0
  6
HIDDEN
 62
     7
370
     0
100
AcDbCircle
 10
204.1570502216
 20
-81.2164109622
 30
0.0
 40
97.36486772481433
100
AcDbArc
 50
85.9236687391
 51
90.0432500629
  0
LWPOLYLINE
  5
11B
330
1F
100
AcDbEntity
  8
0
  6
HIDDEN
 62
     7
370
     0
100
AcDbPolyline
 90
       35
 70
   128
 43
0.0
 10
202.8312378356
 20
23.0874825585
 10
202.955886049
 20
23.0710540282
 10
203.2462947795
 20
23.0492983329
 10
203.6925733814
 20
23.0229568052
 10
204.2795226702
 20
22.9929197895
 10
204.9871601889
 20
22.9602191913
 10
205.7913870344
 20
22.925965147
 10
206.6648111472
 20
22.8913199472
 10
207.5776935348
 20
22.8574682343
 10
208.4989466497
 20
22.8255611229
 10
209.3971960971
 20
22.7966863978
 10
210.2418535182
 20
22.7718275356
 10
211.004159672
 20
22.751826452
 10
211.658149285
 20
22.7373686003
 10
212.181552572
 20
22.728945719
 10
212.556547744
 20
22.7268483805
 10
212.7703719565
 20
22.731139915
 10
212.8157236406
 20
22.7416787612
 10
212.6910754272
 20
22.7581072914
 10
212.4006666967
 20
22.7798629868
 10
211.9543918201
 20
22.8062045145
 10
211.3674425313
 20
22.8362378049
 10
210.6598012874
 20
22.8689421284
 10
209.8555781671
 20
22.9031961727
 10
208.9821540543
 20
22.9378413725
 10
208.0692716667
 20
22.9716930854
 10
207.1480185518
 20
23.0036001968
 10
206.2497691044
 20
23.0324749219
 10
205.405107958
 20
23.0573337841
 10
204.6428055295
 20
23.0773348677
 10
203.9888121912
 20
23.091788994
 10
203.4654089043
 20
23.1002118754
 10
203.0904137322
 20
23.1023129391
 10
202.876593245
 20
23.0980214047
 10
202.8312378356
 20
23.0874825585
  0
LWPOLYLINE
  5
11C
330
1F
100
AcDbEntity
  8
0
  6
HIDDEN
 62
     7
370
     0
100
AcDbPolyline
 90
       25
 70
   128
 43
0.0
 10
205.239399595
 20
20.502794193
 10
205.3523727486
 20
20.4903554487
 10
205.627753658
 20
20.472868936
 10
206.0467780361
 20
20.4515304732
 10
206.580884082
 20
20.4277966487
 10
207.193679435
 20
20.4032805133
 10
207.8433998653
 20
20.3796547222
 10
208.4857665727
 20
20.3585323262
 10
209.0770073959
 20
20.3413438367
 10
209.5768295953
 20
20.3292701709
 10
209.9511616656
 20
20.3231308925
 10
210.1745077202
 20
20.323343234
 10
210.2316387722
 20
20.3298922944
 10
210.1186656186
 20
20.342334764
 10
209.8432847092
 20
20.3598212766
 10
209.4242640564
 20
20.3811560142
 10
208.8901542851
 20
20.404893564
 10
208.2773589322
 20
20.4294096994
 10
207.6276422271
 20
20.4530354905
 10
206.9852717945
 20
20.4741578865
 10
206.3940346965
 20
20.4913426506
 10
205.8942124972
 20
20.5034163165
 10
205.5198767015
 20
20.5095593202
 10
205.296530647
 20
20.5093469786
 10
205.2372687289
 20
20.5038745272
  0
LWPOLYLINE
  5
11D
330
1F
100
AcDbEntity
  8
0
  6
HIDDEN
 62
     7
370
     0
100
AcDbPolyline
 90
       25
 70
   128
 43
0.0
 10
205.1024094948
 20
16.6121419835
 10
205.2153826484
 20
16.5996995139
 10
205.4907672831
 20
16.5822130012
 10
205.9097879359
 20
16.5608782637
 10
206.4438977072
 20
16.5371407139
 10
207.0566893348
 20
16.5126245784
 10
207.7064097652
 20
16.4890025127
 10
208.3487801978
 20
16.4678763914
 10
208.9400210211
 20
16.4506916272
 10
209.4398357698
 20
16.4386179614
 10
209.8141752908
 20
16.432478683
 10
210.0375213453
 20
16.4326910245
 10
210.0946523973
 20
16.4392400849
 10
209.9816792437
 20
16.4516825544
 10
209.7062983343
 20
16.4691653418
 10
209.2872776815
 20
16.4905038046
 10
208.7531679103
 20
16.5142376291
 10
208.1403725573
 20
16.5387537646
 10
207.490652127
 20
16.5623795557
 10
206.8482854196
 20
16.583505677
 10
206.2570445964
 20
16.6006904411
 10
205.7572261223
 20
16.612764107
 10
205.3828866014
 20
16.6189033854
 10
205.1595405468
 20
16.6186910438
 10
205.1003121564
 20
16.614086585
  0
LWPOLYLINE
  5
11E
330
1F
100
AcDbEntity
  8
0
  6
HIDDEN
 62
     7
370
     0
100
AcDbPolyline
 90
       27
 70
   128
 43
0.0
 10
204.5855925211
 20
16.129783945
 10
204.7036134431
 20
16.1162350642
 10
204.9888514707
 20
16.0974409747
 10
205.4247327873
 20
16.074500637
 10
205.985925419
 20
16.0487402546
 10
206.6398181745
 20
16.0216648447
 10
207.3484019169
 20
15.9948427546
 10
208.0704972872
 20
15.9698311555
 10
208.7641426155
 20
15.9480903613
 10
209.3890302607
 20
15.9308795201
 10
209.9088349173
 20
15.9191970098
 10
210.2933444807
 20
15.9137245583
 10
210.520229561
 20
15.9147788155
 10
210.5762877294
 20
15.9223001766
 10
210.4582630822
 20
15.9358527827
 10
210.1730250546
 20
15.9546468722
 10
209.737143738
 20
15.9775872099
 10
209.1759511063
 20
16.003343867
 10
208.5220583507
 20
16.0304230022
 10
207.8134783337
 20
16.0572450924
 10
207.0913792381
 20
16.0822529661
 10
206.3977301845
 20
16.1039974856
 10
205.7728499898
 20
16.1212083268
 10
205.2530453333
 20
16.1328908372
 10
204.8685320446
 20
16.1383632886
 10
204.6416506895
 20
16.1373053062
 10
204.5855925211
 20
16.129783945
  0
LINE
  5
11F
330
1F
100
AcDbEntity
  8
0
  6
HIDDEN
 62
     7
370
     0
100
AcDbLine
 10
202.7347490916
 20
22.9163613486
 30
0.0
 11
212.7347507307
 21
22.9163613486
 31
0.0
  0
LINE
  5
120
330
1F
100
AcDbEntity
  8
0
  6
HIDDEN
 62
     7
370
     0
100
AcDbLine
 10
214.2008461782
 20
88.2944554406
 30
0.0
 11
200.7347487637
 21
88.2944554406
 31
0.0
  0
LINE
  5
121
330
1F
100
AcDbEntity
  8
0
  6
HIDDEN
 62
     7
370
     0
100
AcDbLine
 10
214.7347473332
 20
88.2944554406
 30
0.0
 11
214.2008461782
 21
88.2944554406
 31
0.0
  0
LINE
  5
122
330
1F
100
AcDbEntity
  8
0
  6
HIDDEN
 62
     7
370
     0
100
AcDbLine
 10
212.3533927628
 20
93.6725508737
 30
0.0
 11
202.7347490916
 21
93.6725508737
 31
0.0
  0
LINE
  5
123
330
1F
100
AcDbEntity
  8
0
  6
HIDDEN
 62
     7
370
     0
100
AcDbLine
 10
212.7347507307
 20
93.6725508737
 30
0.0
 11
212.3533927628
 21
93.6725508737
 31
0.0
  0
LINE
  5
124
330
1F
100
AcDbEntity
  8
0
  6
HIDDEN
 62
     7
370
     0
100
AcDbLine
 10
145.7347490618
 20
32.970532434
 30
0.0
 11
145.8289098995
 21
33.6405221688
 31
0.0
  0
LINE
  5
125
330
1F
100
AcDbEntity
  8
0
  6
HIDDEN
 62
     7
370
     0
100
AcDbLine
 10
145.8289098995
 20
82.9483900535
 30
0.0
 11
145.7347490618
 21
83.6183797884
 31
0.0
  0
ARC
  5
126
330
1F
100
AcDbEntity
  8
0
  6
HIDDEN
 62
     7
370
     0
100
AcDbCircle
 10
145.2347490618
 20
33.7240252494
 30
0.0
 40
0.6000000000000227
100
AcDbArc
 50
352.0
 51
0.0
  0
ARC
  5
127
330
1F
100
AcDbEntity
  8
0
  6
HIDDEN
 62
     7
370
     0
100
AcDbCircle
 10
145.2347490618
 20
33.7240252494
 30
0.0
 40
0.6000000000000227
100
AcDbArc
 50
0.0
 51
33.5573097619
  0
ARC
  5
128
330
1F
100
AcDbEntity
  8
0
  6
HIDDEN
 62
     7
370
     0
100
AcDbCircle
 10
145.2347490618
 20
82.8648869729
 30
0.0
 40
0.6000000000000258
100
AcDbArc
 50
348.75
 51
8.0
  0
LWPOLYLINE
  5
129
330
1F
100
AcDbEntity
  8
0
  6
HIDDEN
 62
     7
370
     0
100
AcDbPolyline
 90
        3
 70
   128
 43
0.0
 10
145.8232202316
 20
82.7478334623
 10
145.7890767819
 20
82.6352775412
 10
145.7347490618
 20
82.5332250762
  0
LINE
  5
12A
330
1F
100
AcDbEntity
  8
0
  6
HIDDEN
 62
     7
370
     0
100
AcDbLine
 10
145.8347490592
 20
33.7240245509
 30
0.0
 11
145.8347490592
 21
82.8648876714
 31
0.0
  0
LINE
  5
12B
330
1F
100
AcDbEntity
  8
0
  6
HIDDEN
 62
     7
370
     0
100
AcDbLine
 10
200.7347487637
 20
98.2944552171
 30
0.0
 11
200.7347487637
 21
88.2944554406
 31
0.0
  0
LINE
  5
12C
330
1F
100
AcDbEntity
  8
0
  6
HIDDEN
 62
     7
370
     0
100
AcDbLine
 10
214.7347473332
 20
88.2944554406
 30
0.0
 11
214.7347473332
 21
98.2944552171
 31
0.0
  0
LINE
  5
12D
330
1F
100
AcDbEntity
  8
0
  6
HIDDEN
 62
     7
370
     0
100
AcDbLine
 10
214.7347473332
 20
18.2944570052
 30
0.0
 11
214.7347473332
 21
28.2944567817
 31
0.0
  0
LINE
  5
12E
330
1F
100
AcDbEntity
  8
0
  6
HIDDEN
 62
     7
370
     0
100
AcDbLine
 10
200.7347487637
 20
28.2944567817
 30
0.0
 11
200.7347487637
 21
18.2944570052
 31
0.0
  0
LINE
  5
12F
330
1F
100
AcDbEntity
  8
0
  6
HIDDEN
 62
     7
370
     0
100
AcDbLine
 10
128.8171850869
 20
38.2944565582
 30
0.0
 11
133.008856585
 21
38.2944565582
 31
0.0
  0
LINE
  5
130
330
1F
100
AcDbEntity
  8
0
  6
HIDDEN
 62
     7
370
     0
100
AcDbLine
 10
133.008856585
 20
78.2944556641
 30
0.0
 11
128.8171850869
 21
78.2944556641
 31
0.0
  0
ARC
  5
131
330
1F
100
AcDbEntity
  8
0
  6
HIDDEN
 62
     7
370
     0
100
AcDbCircle
 10
128.8171846271
 20
38.8944561112
 30
0.0
 40
0.6000000000000155
100
AcDbArc
 50
210.0
 51
270.0
  0
ARC
  5
132
330
1F
100
AcDbEntity
  8
0
  6
HIDDEN
 62
     7
370
     0
100
AcDbCircle
 10
128.8171846271
 20
77.6944561112
 30
0.0
 40
0.6000000000000155
100
AcDbArc
 50
90.0
 51
150.0
  0
ARC
  5
133
330
1F
100
AcDbEntity
  8
0
  6
HIDDEN
 62
     7
370
     0
100
AcDbCircle
 10
139.4897510634
 20
46.2944561112
 30
0.0
 40
7.999999999999996
100
AcDbArc
 50
276.8855386585
 51
321.3178125465
  0
ARC
  5
134
330
1F
100
AcDbEntity
  8
0
  6
HIDDEN
 62
     7
370
     0
100
AcDbCircle
 10
139.4897510634
 20
70.2944561112
 30
0.0
 40
8.000000000000002
100
AcDbArc
 50
38.6821874535
 51
83.1144677536
  0
LINE
  5
135
330
1F
100
AcDbEntity
  8
0
  6
HIDDEN
 62
     7
370
     0
100
AcDbLine
 10
128.2975685576
 20
77.9944561737
 30
0.0
 11
126.7387245575
 21
75.294457035
 31
0.0
  0
LINE
  5
136
330
1F
100
AcDbEntity
  8
0
  6
HIDDEN
 62
     7
370
     0
100
AcDbLine
 10
126.7387245575
 20
41.2944551873
 30
0.0
 11
128.2975685576
 21
38.5944560486
 31
0.0
  0
ARC
  5
137
330
1F
100
AcDbEntity
  8
0
  6
HIDDEN
 62
     7
370
     0
100
AcDbCircle
 10
154.1847490618
 20
42.5694561112
 30
0.0
 40
1.5
100
AcDbArc
 50
238.2116693829
 51
0.0
  0
ARC
  5
138
330
1F
100
AcDbEntity
  8
0
  6
HIDDEN
 62
     7
370
     0
100
AcDbCircle
 10
154.1847490618
 20
74.0194561112
 30
0.0
 40
1.500000000000001
100
AcDbArc
 50
0.0
 51
121.7883306171
  0
LINE
  5
139
330
1F
100
AcDbEntity
  8
0
  6
HIDDEN
 62
     7
370
     0
100
AcDbLine
 10
123.9347488412
 20
41.2944551873
 30
0.0
 11
126.7387245575
 21
41.2944551873
 31
0.0
  0
LINE
  5
13A
330
1F
100
AcDbEntity
  8
0
  6
HIDDEN
 62
     7
370
     0
100
AcDbLine
 10
126.7387245575
 20
75.294457035
 30
0.0
 11
119.9347481856
 21
75.294457035
 31
0.0
  0
LINE
  5
13B
330
1F
100
AcDbEntity
  8
0
  6
HIDDEN
 62
     7
370
     0
100
AcDbLine
 10
145.7347490618
 20
41.2944551873
 30
0.0
 11
153.3945750238
 21
41.2944551873
 31
0.0
  0
LINE
  5
13C
330
1F
100
AcDbEntity
  8
0
  6
HIDDEN
 62
     7
370
     0
100
AcDbLine
 10
153.3945750238
 20
75.294457035
 30
0.0
 11
145.7347490618
 21
75.294457035
 31
0.0
  0
LINE
  5
13D
330
1F
100
AcDbEntity
  8
0
  6
HIDDEN
 62
     7
370
     0
100
AcDbLine
 10
203.0537717769
 20
88.2944554406
 30
0.0
 11
192.9980323443
 21
62.3327108416
 31
0.0
  0
LINE
  5
13E
330
1F
100
AcDbEntity
  8
0
  6
HIDDEN
 62
     7
370
     0
100
AcDbLine
 10
198.2794807085
 20
62.1248554754
 30
0.0
 11
208.415731115
 21
88.2944554406
 31
0.0
  0
LINE
  5
13F
330
1F
100
AcDbEntity
  8
0
  6
HIDDEN
 62
     7
370
     0
100
AcDbLine
 10
208.415731115
 20
28.2944567817
 30
0.0
 11
198.2753083834
 21
54.4748279582
 31
0.0
  0
LINE
  5
140
330
1F
100
AcDbEntity
  8
0
  6
HIDDEN
 62
     7
370
     0
100
AcDbLine
 10
192.9972425827
 20
54.2582442368
 30
0.0
 11
203.0537717769
 21
28.2944567817
 31
0.0
  0
LINE
  5
141
330
1F
100
AcDbEntity
  8
0
  6
HIDDEN
 62
     7
370
     0
100
AcDbLine
 10
165.0347498038
 20
48.7944564166
 30
0.0
 11
167.5347492823
 21
48.7944564166
 31
0.0
  0
LINE
  5
142
330
1F
100
AcDbEntity
  8
0
  6
HIDDEN
 62
     7
370
     0
100
AcDbLine
 10
167.5347492823
 20
67.7944558057
 30
0.0
 11
165.0347498038
 21
67.7944558057
 31
0.0
  0
LINE
  5
143
330
1F
100
AcDbEntity
  8
0
  6
HIDDEN
 62
     7
370
     0
100
AcDbLine
 10
155.6847489232
 20
49.2944564986
 30
0.0
 11
156.1847490051
 21
49.7944556492
 31
0.0
  0
LINE
  5
144
330
1F
100
AcDbEntity
  8
0
  6
HIDDEN
 62
     7
370
     0
100
AcDbLine
 10
156.1847490051
 20
66.7944565731
 30
0.0
 11
155.6847489232
 21
67.2944557237
 31
0.0
  0
LINE
  5
145
330
1F
100
AcDbEntity
  8
0
  6
HIDDEN
 62
     7
370
     0
100
AcDbLine
 10
156.1847490051
 20
49.7944556492
 30
0.0
 11
165.0347498038
 21
49.7944556492
 31
0.0
  0
LINE
  5
146
330
1F
100
AcDbEntity
  8
0
  6
HIDDEN
 62
     7
370
     0
100
AcDbLine
 10
165.0347498038
 20
66.7944565731
 30
0.0
 11
156.1847490051
 21
66.7944565731
 31
0.0
  0
LINE
  5
147
330
1F
100
AcDbEntity
  8
0
  6
HIDDEN
 62
     7
370
     0
100
AcDbLine
 10
150.6847490349
 20
89.7944566178
 30
0.0
 11
150.6847490349
 21
84.6944559681
 31
0.0
  0
LINE
  5
148
330
1F
100
AcDbEntity
  8
0
  6
HIDDEN
 62
     7
370
     0
100
AcDbLine
 10
140.9191868992
 20
34.2150848674
 30
0.0
 11
140.4847547205
 21
34.6941516119
 31
0.0
  0
LINE
  5
149
330
1F
100
AcDbEntity
  8
0
  6
HIDDEN
 62
     7
370
     0
100
AcDbLine
 10
132.9847511628
 20
35.1158395725
 30
0.0
 11
132.5023176873
 21
34.6367728281
 31
0.0
  0
LINE
  5
14A
330
1F
100
AcDbEntity
  8
0
  6
HIDDEN
 62
     7
370
     0
100
AcDbLine
 10
132.502195684
 20
81.9521338063
 30
0.0
 11
132.9847465062
 21
81.4730130452
 31
0.0
  0
LINE
  5
14B
330
1F
100
AcDbEntity
  8
0
  6
HIDDEN
 62
     7
370
     0
100
AcDbLine
 10
140.4847491325
 20
81.8947121817
 30
0.0
 11
140.9192912073
 21
82.3738310802
 31
0.0
  0
LINE
  5
14C
330
1F
100
AcDbEntity
  8
0
  6
HIDDEN
 62
     7
370
     0
100
AcDbLine
 10
203.8347490856
 20
54.0944562609
 30
0.0
 11
206.3583650419
 21
58.2944561112
 31
0.0
  0
LINE
  5
14D
330
1F
100
AcDbEntity
  8
0
  6
HIDDEN
 62
     7
370
     0
100
AcDbLine
 10
206.3583650419
 20
58.2944561112
 30
0.0
 11
203.8347490856
 21
62.4944559614
 31
0.0
  0
LINE
  5
14E
330
1F
100
AcDbEntity
  8
0
  6
HIDDEN
 62
     7
370
     0
100
AcDbLine
 10
197.728774769
 20
54.0944562609
 30
0.0
 11
203.8347490856
 21
54.0944562609
 31
0.0
  0
LINE
  5
14F
330
1F
100
AcDbEntity
  8
0
  6
HIDDEN
 62
     7
370
     0
100
AcDbLine
 10
167.5347492823
 20
54.0944562609
 30
0.0
 11
193.3989108333
 21
54.0944562609
 31
0.0
  0
LINE
  5
150
330
1F
100
AcDbEntity
  8
0
  6
HIDDEN
 62
     7
370
     0
100
AcDbLine
 10
193.4080899486
 20
62.4944559614
 30
0.0
 11
167.5347492823
 21
62.4944559614
 31
0.0
  0
LINE
  5
151
330
1F
100
AcDbEntity
  8
0
  6
HIDDEN
 62
     7
370
     0
100
AcDbLine
 10
203.8347490856
 20
62.4944559614
 30
0.0
 11
197.6966515908
 21
62.4944559614
 31
0.0
  0
LINE
  5
152
330
1F
100
AcDbEntity
  8
0
  6
HIDDEN
 62
     7
370
     0
100
AcDbLine
 10
140.4847491325
 20
34.694634037
 30
0.0
 11
140.4847491325
 21
38.3590549546
 31
0.0
  0
LINE
  5
153
330
1F
100
AcDbEntity
  8
0
  6
HIDDEN
 62
     7
370
     0
100
AcDbLine
 10
132.9847493002
 20
38.2988337743
 30
0.0
 11
132.9847493002
 21
35.1161618101
 31
0.0
  0
LINE
  5
154
330
1F
100
AcDbEntity
  8
0
  6
HIDDEN
 62
     7
370
     0
100
AcDbLine
 10
140.4847491325
 20
78.2298572677
 30
0.0
 11
140.4847491325
 21
81.8944197464
 31
0.0
  0
LINE
  5
155
330
1F
100
AcDbEntity
  8
0
  6
HIDDEN
 62
     7
370
     0
100
AcDbLine
 10
132.9847493002
 20
81.4728696215
 30
0.0
 11
132.9847493002
 21
78.290078448
 31
0.0
  0
ARC
  5
156
330
1F
100
AcDbEntity
  8
0
  6
HIDDEN
 62
     7
370
     0
100
AcDbCircle
 10
207.7347490618
 20
96.1944561112
 30
0.0
 40
5.600000000000011
100
AcDbArc
 50
331.0829470696
 51
357.8484728477
  0
ARC
  5
157
330
1F
100
AcDbEntity
  8
0
  6
HIDDEN
 62
     7
370
     0
100
AcDbCircle
 10
207.7347490618
 20
96.1944561112
 30
0.0
 40
5.600000000000024
100
AcDbArc
 50
157.975687163
 51
204.6139986257
  0
ARC
  5
158
330
1F
100
AcDbEntity
  8
0
  6
HIDDEN
 62
     7
370
     0
100
AcDbCircle
 10
207.7347490618
 20
96.1944561112
 30
0.0
 40
5.60000000000001
100
AcDbArc
 50
357.8484728477
 51
22.024312837
  0
LINE
  5
159
330
1F
100
AcDbEntity
  8
0
  6
HIDDEN
 62
     7
370
     0
100
AcDbLine
 10
212.6365446278
 20
93.4866290855
 30
0.0
 11
210.2321603128
 21
96.0787158775
 31
0.0
  0
LINE
  5
15A
330
1F
100
AcDbEntity
  8
0
  6
HIDDEN
 62
     7
370
     0
100
AcDbLine
 10
205.2356929311
 20
96.2664295303
 30
0.0
 11
202.6435986885
 21
93.8620526659
 31
0.0
  0
LINE
  5
15B
330
1F
100
AcDbEntity
  8
0
  6
HIDDEN
 62
     7
370
     0
100
AcDbLine
 10
204.9009830484
 20
100.6754894125
 30
0.0
 11
205.3818584213
 21
100.1570742893
 31
0.0
  0
LINE
  5
15C
330
1F
100
AcDbEntity
  8
0
  6
HIDDEN
 62
     7
370
     0
100
AcDbLine
 10
210.3783332536
 20
99.9693606364
 30
0.0
 11
210.8967446515
 21
100.4502360093
 31
0.0
  0
LINE
  5
15D
330
1F
100
AcDbEntity
  8
0
  6
HIDDEN
 62
     7
370
     0
100
AcDbLine
 10
210.2321677634
 20
96.0787121522
 30
0.0
 11
210.3783332536
 21
99.9693643617
 31
0.0
  0
LINE
  5
15E
330
1F
100
AcDbEntity
  8
0
  6
HIDDEN
 62
     7
370
     0
100
AcDbLine
 10
205.3818584213
 20
100.1570780146
 30
0.0
 11
205.2356892058
 21
96.2664220798
 31
0.0
  0
ARC
  5
15F
330
1F
100
AcDbEntity
  8
0
  6
HIDDEN
 62
     7
370
     0
100
AcDbCircle
 10
207.7347490618
 20
20.3944561112
 30
0.0
 40
5.600000000000012
100
AcDbArc
 50
151.2154640486
 51
177.9834676625
  0
ARC
  5
160
330
1F
100
AcDbEntity
  8
0
  6
HIDDEN
 62
     7
370
     0
100
AcDbCircle
 10
207.7347490618
 20
20.3944561112
 30
0.0
 40
5.600000000000012
100
AcDbArc
 50
337.975687163
 51
24.7514712765
  0
ARC
  5
161
330
1F
100
AcDbEntity
  8
0
  6
HIDDEN
 62
     7
370
     0
100
AcDbCircle
 10
207.7347490618
 20
20.3944561112
 30
0.0
 40
5.600000000000012
100
AcDbArc
 50
177.9834676625
 51
202.024312837
  0
LINE
  5
162
330
1F
100
AcDbEntity
  8
0
  6
HIDDEN
 62
     7
370
     0
100
AcDbLine
 10
202.8269798288
 20
23.0896395015
 30
0.0
 11
205.2372687289
 21
20.5038745272
 31
0.0
  0
LINE
  5
163
330
1F
100
AcDbEntity
  8
0
  6
HIDDEN
 62
     7
370
     0
100
AcDbLine
 10
210.2337398359
 20
20.3279514181
 30
0.0
 11
212.8199257681
 21
22.7377895581
 31
0.0
  0
LINE
  5
164
330
1F
100
AcDbEntity
  8
0
  6
HIDDEN
 62
     7
370
     0
100
AcDbLine
 10
210.578835828
 20
15.9210075009
 30
0.0
 11
210.0967832634
 21
16.4381597507
 31
0.0
  0
LINE
  5
165
330
1F
100
AcDbEntity
  8
0
  6
HIDDEN
 62
     7
370
     0
100
AcDbLine
 10
205.1003121564
 20
16.614086585
 30
0.0
 11
204.5830742249
 21
16.1321159768
 31
0.0
  0
LINE
  5
166
330
1F
100
AcDbEntity
  8
0
  6
HIDDEN
 62
     7
370
     0
100
AcDbLine
 10
205.2370675632
 20
20.5043141114
 30
0.0
 11
205.1000774631
 21
16.6136581766
 31
0.0
  0
LINE
  5
167
330
1F
100
AcDbEntity
  8
0
  6
HIDDEN
 62
     7
370
     0
100
AcDbLine
 10
210.0969844291
 20
16.4377201664
 30
0.0
 11
210.2339708039
 21
20.3283761012
 31
0.0
  0
LINE
  5
168
330
1F
100
AcDbEntity
  8
0
  6
HIDDEN
 62
     7
370
     0
100
AcDbLine
 10
200.7347487637
 20
28.2944567817
 30
0.0
 11
200.7347487637
 21
18.2944570052
 31
0.0
  0
LINE
  5
169
330
1F
100
AcDbEntity
  8
0
  6
HIDDEN
 62
     7
370
     0
100
AcDbLine
 10
214.7347473332
 20
18.2944570052
 30
0.0
 11
214.7347473332
 21
28.2944567817
 31
0.0
  0
ARC
  5
16A
330
1F
100
AcDbEntity
  8
0
  6
HIDDEN
 62
     7
370
     0
100
AcDbCircle
 10
207.7347490618
 20
20.3944561112
 30
0.0
 40
5.599999999999994
100
AcDbArc
 50
153.2344994232
 51
180.0
  0
ARC
  5
16B
330
1F
100
AcDbEntity
  8
0
  6
HIDDEN
 62
     7
370
     0
100
AcDbCircle
 10
207.7347490618
 20
20.3944561112
 30
0.0
 40
5.600000000000006
100
AcDbArc
 50
337.975687163
 51
26.7655005768
  0
ARC
  5
16C
330
1F
100
AcDbEntity
  8
0
  6
HIDDEN
 62
     7
370
     0
100
AcDbCircle
 10
207.7347490618
 20
20.3944561112
 30
0.0
 40
5.600000000000006
100
AcDbArc
 50
180.0
 51
202.024312837
  0
LINE
  5
16D
330
1F
100
AcDbEntity
  8
0
  6
HIDDEN
 62
     7
370
     0
100
AcDbLine
 10
202.7347490916
 20
28.2944567817
 30
0.0
 11
202.7347490916
 21
22.9163613486
 31
0.0
  0
LINE
  5
16E
330
1F
100
AcDbEntity
  8
0
  6
HIDDEN
 62
     7
370
     0
100
AcDbLine
 10
212.7347507307
 20
22.9163613486
 30
0.0
 11
212.7347507307
 21
28.2944567817
 31
0.0
  0
LINE
  5
16F
330
1F
100
AcDbEntity
  8
0
  6
HIDDEN
 62
     7
370
     0
100
AcDbLine
 10
214.7347473332
 20
88.2944554406
 30
0.0
 11
214.7347473332
 21
98.2944552171
 31
0.0
  0
LINE
  5
170
330
1F
100
AcDbEntity
  8
0
  6
HIDDEN
 62
     7
370
     0
100
AcDbLine
 10
200.7347487637
 20
98.2944552171
 30
0.0
 11
200.7347487637
 21
88.2944554406
 31
0.0
  0
ARC
  5
171
330
1F
100
AcDbEntity
  8
0
  6
HIDDEN
 62
     7
370
     0
100
AcDbCircle
 10
207.7347490618
 20
96.1944561112
 30
0.0
 40
5.600000000000001
100
AcDbArc
 50
333.2344994232
 51
0.0
  0
ARC
  5
172
330
1F
100
AcDbEntity
  8
0
  6
HIDDEN
 62
     7
370
     0
100
AcDbCircle
 10
207.7347490618
 20
96.1944561112
 30
0.0
 40
5.600000000000005
100
AcDbArc
 50
157.975687163
 51
206.7655005768
  0
ARC
  5
173
330
1F
100
AcDbEntity
  8
0
  6
HIDDEN
 62
     7
370
     0
100
AcDbCircle
 10
207.7347490618
 20
96.1944561112
 30
0.0
 40
5.600000000000005
100
AcDbArc
 50
0.0
 51
22.024312837
  0
LINE
  5
174
330
1F
100
AcDbEntity
  8
0
  6
HIDDEN
 62
     7
370
     0
100
AcDbLine
 10
212.7347507307
 20
88.2944554406
 30
0.0
 11
212.7347507307
 21
93.6725508737
 31
0.0
  0
LINE
  5
175
330
1F
100
AcDbEntity
  8
0
  6
HIDDEN
 62
     7
370
     0
100
AcDbLine
 10
202.7347490916
 20
93.6725508737
 30
0.0
 11
202.7347490916
 21
88.2944554406
 31
0.0
  0
DIMENSION
  5
176
330
1F
100
AcDbEntity
  8
VERMASSUNG
100
AcDbDimension
  2
_D
 10
235.7347490618
 20
102.1448244067
 30
0.0
 11
188.325694759
 21
102.1448244067
 31
0.0
 70
   160
  1
<>
 71
     2
 42
-1.0
  3
SLDDIMSTYLE0
100
AcDbAlignedDimension
 13
145.7347490618
 23
89.4944561112
 33
0.0
 14
235.7347490618
 24
98.2944561112
 34
0.0
100
AcDbRotatedDimension
  0
DIMENSION
  5
181
330
1F
100
AcDbEntity
  8
VERMASSUNG
100
AcDbDimension
  2
_D_1
 10
108.717252127
 20
26.7944561112
 30
0.0
 11
108.717252127
 21
57.589328054
 31
0.0
 70
   160
  1
HSK T %%c<>
 71
     2
 42
-1.0
  3
SLDDIMSTYLE0
100
AcDbAlignedDimension
 13
146.0347490618
 23
89.7944561112
 33
0.0
 14
146.0347490618
 24
26.7944561112
 34
0.0
 50
90.0
100
AcDbRotatedDimension
  0
DIMENSION
  5
18D
330
1F
100
AcDbEntity
  8
VERMASSUNG
100
AcDbDimension
  2
_D_2
 10
235.7347490618
 20
107.4360699669
 30
0.0
 11
175.6234404856
 21
107.4360699669
 31
0.0
 70
   160
  1
<>
 71
     2
 42
-1.0
  3
SLDDIMSTYLE0
100
AcDbAlignedDimension
 13
113.8347490618
 23
78.2705166158
 33
0.0
 14
235.7347490618
 24
98.2944561112
 34
0.0
100
AcDbRotatedDimension
  0
DIMENSION
  5
197
330
1F
100
AcDbEntity
  8
VERMASSUNG
100
AcDbDimension
  2
_D_3
 10
243.9504593763
 20
18.2944561112
 30
0.0
 11
243.9504593763
 21
57.589328054
 31
0.0
 70
   160
  1
<>
 71
     2
 42
-1.0
  3
SLDDIMSTYLE0
100
AcDbAlignedDimension
 13
235.7347490618
 23
98.2944561112
 33
0.0
 14
235.7347490618
 24
18.2944561112
 34
0.0
 50
90.0
100
AcDbRotatedDimension
  0
LINE
  5
1A1
330
1F
100
AcDbEntity
  8
VERMASSUNG
  6
CENTERX2
 62
     7
370
     0
100
AcDbLine
 10
111.6560659605
 20
58.2944561112
 30
0.0
 11
237.7347490618
 21
58.2944561112
 31
0.0
  0
LINE
  5
1A2
330
1F
100
AcDbEntity
  8
0
  6
Continuous
 62
     7
370
    15
100
AcDbLine
 10
188.7006752917
 20
148.1003440592
 30
0.0
 11
194.3969570825
 21
126.8415242109
 31
0.0
  0
LINE
  5
1A3
330
1F
100
AcDbEntity
  8
0
  6
Continuous
 62
     7
370
    15
100
AcDbLine
 10
157.6708846518
 20
143.3415241214
 30
0.0
 11
160.3428165221
 21
143.3415241214
 31
0.0
  0
LINE
  5
1A4
330
1F
100
AcDbEntity
  8
0
  6
Continuous
 62
     7
370
    15
100
AcDbLine
 10
146.034749076
 20
143.3415241214
 30
0.0
 11
147.7347491568
 21
143.3415241214
 31
0.0
  0
LINE
  5
1A5
330
1F
100
AcDbEntity
  8
0
  6
Continuous
 62
     7
370
    15
100
AcDbLine
 10
160.3428165221
 20
206.3415251347
 30
0.0
 11
146.034749076
 21
206.3415251347
 31
0.0
  0
ARC
  5
1A6
330
1F
100
AcDbEntity
  8
0
  6
Continuous
 62
     7
370
    15
100
AcDbCircle
 10
146.0347490618
 20
143.6415246281
 30
0.0
 40
0.3000000000000114
100
AcDbArc
 50
180.0
 51
270.0
  0
ARC
  5
1A7
330
1F
100
AcDbEntity
  8
0
  6
Continuous
 62
     7
370
    15
100
AcDbCircle
 10
146.0347490618
 20
206.0415246281
 30
0.0
 40
0.3000000000000114
100
AcDbArc
 50
90.0
 51
180.0
  0
ARC
  5
1A8
330
1F
100
AcDbEntity
  8
0
  6
Continuous
 62
     7
370
    15
100
AcDbCircle
 10
171.0847490618
 20
205.7415246281
 30
0.0
 40
0.5999999999999943
100
AcDbArc
 50
0.0
 51
90.0
  0
ARC
  5
1A9
330
1F
100
AcDbEntity
  8
0
  6
Continuous
 62
     7
370
    15
100
AcDbCircle
 10
171.0847490618
 20
143.9415246281
 30
0.0
 40
0.5999999999999943
100
AcDbArc
 50
270.0
 51
0.0
  0
LINE
  5
1AA
330
1F
100
AcDbEntity
  8
0
  6
Continuous
 62
     7
370
    15
100
AcDbLine
 10
167.126680983
 20
143.3415241214
 30
0.0
 11
171.0847497711
 21
143.3415241214
 31
0.0
  0
LINE
  5
1AB
330
1F
100
AcDbEntity
  8
0
  6
Continuous
 62
     7
370
    15
100
AcDbLine
 10
171.0847497711
 20
206.3415251347
 30
0.0
 11
167.126680983
 21
206.3415251347
 31
0.0
  0
LINE
  5
1AC
330
1F
100
AcDbEntity
  8
0
  6
Continuous
 62
     7
370
    15
100
AcDbLine
 10
167.126680983
 20
206.3415251347
 30
0.0
 11
165.6447493264
 21
203.7747423771
 31
0.0
  0
LINE
  5
1AD
330
1F
100
AcDbEntity
  8
0
  6
Continuous
 62
     7
370
    15
100
AcDbLine
 10
165.6447493264
 20
145.9083068791
 30
0.0
 11
167.126680983
 21
143.3415241214
 31
0.0
  0
LINE
  5
1AE
330
1F
100
AcDbEntity
  8
0
  6
Continuous
 62
     7
370
    15
100
AcDbLine
 10
161.82474911
 20
203.7747423771
 30
0.0
 11
160.3428165221
 21
206.3415251347
 31
0.0
  0
LINE
  5
1AF
330
1F
100
AcDbEntity
  8
0
  6
Continuous
 62
     7
370
    15
100
AcDbLine
 10
160.3428165221
 20
143.3415241214
 30
0.0
 11
161.82474911
 21
145.9083068791
 31
0.0
  0
ARC
  5
1B0
330
1F
100
AcDbEntity
  8
0
  6
Continuous
 62
     7
370
    15
100
AcDbCircle
 10
164.8447490618
 20
146.5665246281
 30
0.0
 40
0.8000000000000114
100
AcDbArc
 50
0.0
 51
90.0
  0
ARC
  5
1B1
330
1F
100
AcDbEntity
  8
0
  6
Continuous
 62
     7
370
    15
100
AcDbCircle
 10
162.6247490618
 20
203.1165246281
 30
0.0
 40
0.8000000000000114
100
AcDbArc
 50
180.0
 51
270.0
  0
ARC
  5
1B2
330
1F
100
AcDbEntity
  8
0
  6
Continuous
 62
     7
370
    15
100
AcDbCircle
 10
164.8447490618
 20
203.1165246281
 30
0.0
 40
0.8000000000000114
100
AcDbArc
 50
270.0
 51
0.0
  0
ARC
  5
1B3
330
1F
100
AcDbEntity
  8
0
  6
Continuous
 62
     7
370
    15
100
AcDbCircle
 10
162.6247490618
 20
146.5665246281
 30
0.0
 40
0.799999999999983
100
AcDbArc
 50
90.0
 51
180.0
  0
ARC
  5
1B4
330
1F
100
AcDbEntity
  8
0
  6
Continuous
 62
     7
370
    15
100
AcDbCircle
 10
187.7347490618
 20
147.8415246281
 30
0.0
 40
1.000000000000003
100
AcDbArc
 50
15.0
 51
90.0
  0
LINE
  5
1B5
330
1F
100
AcDbEntity
  8
0
  6
Continuous
 62
     7
370
    15
100
AcDbLine
 10
164.8447488228
 20
202.3165240559
 30
0.0
 11
162.6247496137
 21
202.3165240559
 31
0.0
  0
LINE
  5
1B6
330
1F
100
AcDbEntity
  8
0
  6
Continuous
 62
     7
370
    15
100
AcDbLine
 10
162.6247496137
 20
147.3665252003
 30
0.0
 11
164.8447488228
 21
147.3665252003
 31
0.0
  0
ARC
  5
1B7
330
1F
100
AcDbEntity
  8
0
  6
Continuous
 62
     7
370
    15
100
AcDbCircle
 10
172.6847490618
 20
147.8415246281
 30
0.0
 40
1.0
100
AcDbArc
 50
90.0
 51
180.0
  0
ARC
  5
1B8
330
1F
100
AcDbEntity
  8
0
  6
Continuous
 62
     7
370
    15
100
AcDbCircle
 10
172.6847490618
 20
201.8415246281
 30
0.0
 40
1.0
100
AcDbArc
 50
180.0
 51
270.0
  0
LINE
  5
1B9
330
1F
100
AcDbEntity
  8
0
  6
Continuous
 62
     7
370
    15
100
AcDbLine
 10
172.6847489157
 20
148.8415240916
 30
0.0
 11
187.7347484955
 21
148.8415240916
 31
0.0
  0
LINE
  5
1BA
330
1F
100
AcDbEntity
  8
0
  6
Continuous
 62
     7
370
    15
100
AcDbLine
 10
187.7347484955
 20
200.8415251645
 30
0.0
 11
172.6847489157
 21
200.8415251645
 31
0.0
  0
ARC
  5
1BB
330
1F
100
AcDbEntity
  8
0
  6
Continuous
 62
     7
370
    15
100
AcDbCircle
 10
145.2347490618
 20
150.2710937664
 30
0.0
 40
0.6000000000000019
100
AcDbArc
 50
33.5573097619
 51
90.0
  0
ARC
  5
1BC
330
1F
100
AcDbEntity
  8
0
  6
Continuous
 62
     7
370
    15
100
AcDbCircle
 10
145.2347490618
 20
199.4119554898
 30
0.0
 40
0.6000000000000019
100
AcDbArc
 50
270.0
 51
326.4426902381
  0
LINE
  5
1BD
330
1F
100
AcDbEntity
  8
0
  6
Continuous
 62
     7
370
    15
100
AcDbLine
 10
143.7347489668
 20
199.0619558516
 30
0.0
 11
114.9747048298
 21
197.6210713062
 31
0.0
  0
LINE
  5
1BE
330
1F
100
AcDbEntity
  8
0
  6
Continuous
 62
     7
370
    15
100
AcDbLine
 10
114.9747048298
 20
152.06197795
 30
0.0
 11
143.7347489668
 21
150.6210934046
 31
0.0
  0
LINE
  5
1BF
330
1F
100
AcDbEntity
  8
0
  6
Continuous
 62
     7
370
    15
100
AcDbLine
 10
143.7347489668
 20
150.6210934046
 30
0.0
 11
144.591461893
 21
150.8506495181
 31
0.0
  0
LINE
  5
1C0
330
1F
100
AcDbEntity
  8
0
  6
Continuous
 62
     7
370
    15
100
AcDbLine
 10
144.591461893
 20
198.8323997381
 30
0.0
 11
143.7347489668
 21
199.0619558516
 31
0.0
  0
ARC
  5
1C1
330
1F
100
AcDbEntity
  8
0
  6
Continuous
 62
     7
370
    15
100
AcDbCircle
 10
144.7467532622
 20
150.2710937664
 30
0.0
 40
0.6000000000000227
100
AcDbArc
 50
90.0
 51
105.0
  0
ARC
  5
1C2
330
1F
100
AcDbEntity
  8
0
  6
Continuous
 62
     7
370
    15
100
AcDbCircle
 10
144.7467532622
 20
199.4119554898
 30
0.0
 40
0.6000000000000227
100
AcDbArc
 50
255.0
 51
270.0
  0
LINE
  5
1C3
330
1F
100
AcDbEntity
  8
0
  6
Continuous
 62
     7
370
    15
100
AcDbLine
 10
144.7467532966
 20
150.8710939112
 30
0.0
 11
145.234749038
 21
150.8710939112
 31
0.0
  0
LINE
  5
1C4
330
1F
100
AcDbEntity
  8
0
  6
Continuous
 62
     7
370
    15
100
AcDbLine
 10
145.234749038
 20
198.811955345
 30
0.0
 11
144.7467532966
 21
198.811955345
 31
0.0
  0
ARC
  5
1C5
330
1F
100
AcDbEntity
  8
0
  6
Continuous
 62
     7
370
    15
100
AcDbCircle
 10
115.0347490618
 20
196.4225746641
 30
0.0
 40
1.200000000000003
100
AcDbArc
 50
92.8681319407
 51
180.0
  0
ARC
  5
1C6
330
1F
100
AcDbEntity
  8
0
  6
Continuous
 62
     7
370
    15
100
AcDbCircle
 10
115.0347490618
 20
153.2604745921
 30
0.0
 40
1.200000000000003
100
AcDbArc
 50
180.0
 51
267.1318680593
  0
LINE
  5
1C7
330
1F
100
AcDbEntity
  8
0
  6
Continuous
 62
     7
370
    15
100
AcDbLine
 10
217.2347523996
 20
175.8415246756
 30
0.0
 11
217.2347523996
 21
174.5915246162
 31
0.0
  0
LINE
  5
1C8
330
1F
100
AcDbEntity
  8
0
  6
Continuous
 62
     7
370
    15
100
AcDbLine
 10
229.234746916
 20
174.5915246162
 30
0.0
 11
229.234746916
 21
175.8415246756
 31
0.0
  0
LINE
  5
1C9
330
1F
100
AcDbEntity
  8
0
  6
Continuous
 62
     7
370
    15
100
AcDbLine
 10
217.2347523996
 20
174.5915246162
 30
0.0
 11
218.9847522208
 21
172.8415245331
 31
0.0
  0
LINE
  5
1CA
330
1F
100
AcDbEntity
  8
0
  6
Continuous
 62
     7
370
    15
100
AcDbLine
 10
227.4847470948
 20
172.8415245331
 30
0.0
 11
229.234746916
 21
174.5915246162
 31
0.0
  0
SPLINE
  5
1CB
330
1F
100
AcDbEntity
  8
0
  6
Continuous
 62
     7
370
    15
100
AcDbSpline
210
0.0
220
0.0
230
1.0
 70
     8
 71
     3
 72
    16
 73
    12
 74
     0
 42
0.00000001
 43
0.00000001
 12
1.0
 22
0.0
 32
0.0
 13
1.0
 23
0.0
 33
0.0
 40
0.0
 40
0.0
 40
0.0
 40
0.0
 40
0.1249999999999972
 40
0.1249999999999972
 40
0.2499999999999944
 40
0.2499999999999944
 40
0.3749999999999917
 40
0.3749999999999917
 40
0.4999999999999889
 40
0.4999999999999889
 40
1.0
 40
1.0
 40
1.0
 40
1.0
 10
195.9681328485025
 20
143.2029405889726
 30
0.0
 10
195.8983990813097
 20
143.2029405889726
 30
0.0
 10
195.8279776111769
 20
143.2150455386354
 30
0.0
 10
195.6941727579676
 20
143.2607256195496
 30
0.0
 10
195.6327246277912
 20
143.2930619555963
 30
0.0
 10
195.5181109128842
 20
143.3721550943476
 30
0.0
 10
195.464862782913
 20
143.4193682084621
 30
0.0
 10
195.3698039802793
 20
143.5210199189254
 30
0.0
 10
195.3272062384706
 20
143.5759674020573
 30
0.0
 10
195.1338739146942
 20
143.8671326156629
 30
0.0
 10
195.0466073609962
 20
144.1384302770109
 30
0.0
 10
195.0022070222134
 20
144.4121162899602
 30
0.0
  0
SPLINE
  5
1CC
330
1F
100
AcDbEntity
  8
0
  6
Continuous
 62
     7
370
    15
100
AcDbSpline
210
0.0
220
0.0
230
1.0
 70
    24
 71
     3
 72
    18
 73
    14
 74
     0
 42
0.00000001
 43
0.00000001
 12
1.0
 22
0.0
 32
0.0
 13
1.0
 23
0.0
 33
0.0
 40
0.0
 40
0.0
 40
0.0
 40
0.0
 40
0.2500000000000023
 40
0.2500000000000023
 40
0.5000000000000046
 40
0.5000000000000046
 40
0.7500000000000069
 40
0.7500000000000069
 40
0.8750000000000063
 40
0.8750000000000063
 40
0.9375000000000032
 40
0.9375000000000032
 40
1.0
 40
1.0
 40
1.0
 40
1.0
 10
195.0022070222134
 20
126.8415246280853
 30
0.0
 10
195.0196302593882
 20
126.8415246280853
 30
0.0
 10
195.0442190785667
 20
126.8415246280853
 30
0.0
 10
195.1131729918493
 20
126.8415246280853
 30
0.0
 10
195.1571649661719
 20
126.8415246280853
 30
0.0
 10
195.2783300157877
 20
126.8415246280853
 30
0.0
 10
195.3545802171101
 20
126.8415246280853
 30
0.0
 10
195.5207523777791
 20
126.8415246280853
 30
0.0
 10
195.5852750514341
 20
126.8415246280853
 30
0.0
 10
195.7084778344349
 20
126.8415246280853
 30
0.0
 10
195.7543477888007
 20
126.8415246280853
 30
0.0
 10
195.8555666796392
 20
126.8415246280853
 30
0.0
 10
195.9117336763187
 20
126.8415246280853
 30
0.0
 10
195.9681328485022
 20
126.8415246280853
 30
0.0
  0
LINE
  5
1CD
330
1F
100
AcDbEntity
  8
0
  6
Continuous
 62
     7
370
    15
100
AcDbLine
 10
210.7347466776
 20
175.8415246756
 30
0.0
 11
210.7347466776
 21
149.8415242556
 31
0.0
  0
LINE
  5
1CE
330
1F
100
AcDbEntity
  8
0
  6
Continuous
 62
     7
370
    15
100
AcDbLine
 10
210.7347466776
 20
149.8415242556
 30
0.0
 11
235.734752638
 21
149.8415242556
 31
0.0
  0
LINE
  5
1CF
330
1F
100
AcDbEntity
  8
0
  6
Continuous
 62
     7
370
    15
100
AcDbLine
 10
235.734752638
 20
149.8415242556
 30
0.0
 11
235.734752638
 21
143.2029395971
 31
0.0
  0
LINE
  5
1D0
330
1F
100
AcDbEntity
  8
0
  6
Continuous
 62
     7
370
    15
100
AcDbLine
 10
235.734752638
 20
143.2029395971
 30
0.0
 11
195.9681317934
 21
143.2029395971
 31
0.0
  0
SPLINE
  5
1D1
330
1F
100
AcDbEntity
  8
0
  6
Continuous
 62
     7
370
    15
100
AcDbSpline
210
0.0
220
0.0
230
1.0
 70
     8
 71
     3
 72
    18
 73
    14
 74
     0
 42
0.00000001
 43
0.00000001
 12
1.0
 22
0.0
 32
0.0
 13
1.0
 23
0.0
 33
0.0
 40
0.0
 40
0.0
 40
0.0
 40
0.0
 40
0.2499999999999998
 40
0.2499999999999998
 40
0.4999999999999998
 40
0.4999999999999998
 40
0.6249999999999998
 40
0.6249999999999998
 40
0.7499999999999997
 40
0.7499999999999997
 40
0.8749999999999999
 40
0.8749999999999999
 40
1.0
 40
1.0
 40
1.0
 40
1.0
 10
195.0022070222134
 20
144.4121162899602
 30
0.0
 10
194.2447939816917
 20
149.0808499280089
 30
0.0
 10
193.5956528794539
 20
153.7552468632704
 30
0.0
 10
192.6433918028679
 20
163.1221397954725
 30
0.0
 10
192.3444682110255
 20
167.8148552893735
 30
0.0
 10
192.2348815569129
 20
174.8716498156695
 30
0.0
 10
192.2540556959363
 20
177.2268282730966
 30
0.0
 10
192.4028661569687
 20
181.9429630486127
 30
0.0
 10
192.532416550012
 20
184.3039148720812
 30
0.0
 10
192.8915289942454
 20
189.031049752095
 30
0.0
 10
193.1210596390635
 20
191.398326308412
 30
0.0
 10
193.6635674379946
 20
196.1326770511858
 30
0.0
 10
193.9752757524135
 20
198.4906809893575
 30
0.0
 10
194.3185675410944
 20
200.8415246280853
 30
0.0
  0
LINE
  5
1D2
330
1F
100
AcDbEntity
  8
0
  6
Continuous
 62
     7
370
    15
100
AcDbLine
 10
194.3185657987
 20
200.8415251645
 30
0.0
 11
235.734752638
 21
200.8415251645
 31
0.0
  0
LINE
  5
1D3
330
1F
100
AcDbEntity
  8
0
  6
Continuous
 62
     7
370
    15
100
AcDbLine
 10
235.734752638
 20
175.8415246756
 30
0.0
 11
210.7347466776
 21
175.8415246756
 31
0.0
  0
CIRCLE
  5
1D4
330
1F
100
AcDbEntity
  8
0
  6
Continuous
 62
     7
370
    15
100
AcDbCircle
 10
207.7347490618
 20
187.8415246281
 30
0.0
 40
7.0
  0
LINE
  5
1D5
330
1F
100
AcDbEntity
  8
0
  6
Continuous
 62
     7
370
    15
100
AcDbLine
 10
235.734752638
 20
200.8415251645
 30
0.0
 11
235.734752638
 21
175.8415246756
 31
0.0
  0
SPLINE
  5
1D6
330
1F
100
AcDbEntity
  8
0
  6
Continuous
 62
     7
370
    15
100
AcDbSpline
210
0.0
220
0.0
230
1.0
 70
    24
 71
     3
 72
    14
 73
    10
 74
     0
 42
0.00000001
 43
0.00000001
 12
1.0
 22
0.0
 32
0.0
 13
1.0
 23
0.0
 33
0.0
 40
0.0
 40
0.0
 40
0.0
 40
0.0
 40
0.25
 40
0.25
 40
0.5
 40
0.5
 40
0.75
 40
0.75
 40
1.0
 40
1.0
 40
1.0
 40
1.0
 10
194.3185675410944
 20
200.8415246280853
 30
0.0
 10
193.6936601923451
 20
200.8415246280853
 30
0.0
 10
193.0868192264405
 20
200.8415246280854
 30
0.0
 10
191.9312786676261
 20
200.8415246280853
 30
0.0
 10
191.3823054574826
 20
200.8415246280853
 30
0.0
 10
190.3800117084743
 20
200.8415246280854
 30
0.0
 10
189.9265608994894
 20
200.8415246280853
 30
0.0
 10
189.1762422996119
 20
200.8415246280854
 30
0.0
 10
188.8804055503539
 20
200.8415246280853
 30
0.0
 10
188.7006748880555
 20
200.8415246280854
 30
0.0
  0
SPLINE
  5
1D7
330
1F
100
AcDbEntity
  8
0
  6
Continuous
 62
     7
370
    15
100
AcDbSpline
210
0.0
220
0.0
230
1.0
 70
    24
 71
     3
 72
    10
 73
     6
 74
     0
 42
0.00000001
 43
0.00000001
 12
1.0
 22
0.0
 32
0.0
 13
1.0
 23
0.0
 33
0.0
 40
0.0
 40
0.0
 40
0.0
 40
0.0
 40
0.1678495641359515
 40
0.5839195071713753
 40
1.0
 40
1.0
 40
1.0
 40
1.0
 10
194.422788245383
 20
126.8415242108528
 30
0.0
 10
194.4165491526432
 20
126.8415242108528
 30
0.0
 10
194.3948444316533
 20
126.8415242108528
 30
0.0
 10
194.5725008994875
 20
126.8415242108528
 30
0.0
 10
194.8589715709181
 20
126.8415242108528
 30
0.0
 10
195.0022087225349
 20
126.8415242108528
 30
0.0
  0
LINE
  5
1D8
330
1F
100
AcDbEntity
  8
0
  6
Continuous
 62
     7
370
    15
100
AcDbLine
 10
195.9681317934
 20
126.8415242109
 30
0.0
 11
235.734752638
 21
126.8415242109
 31
0.0
  0
LINE
  5
1D9
330
1F
100
AcDbEntity
  8
0
  6
Continuous
 62
     7
370
    15
100
AcDbLine
 10
235.734752638
 20
143.2029395971
 30
0.0
 11
235.734752638
 21
126.8415242109
 31
0.0
  0
LINE
  5
1DA
330
1F
100
AcDbEntity
  8
0
  6
Continuous
 62
     7
370
    15
100
AcDbLine
 10
160.3428165221
 20
183.8415242407
 30
0.0
 11
160.3428165221
 21
206.3415251347
 31
0.0
  0
LINE
  5
1DB
330
1F
100
AcDbEntity
  8
0
  6
Continuous
 62
     7
370
    15
100
AcDbLine
 10
160.3428165221
 20
183.8415242407
 30
0.0
 11
158.6847494149
 21
183.8415242407
 31
0.0
  0
LINE
  5
1DC
330
1F
100
AcDbEntity
  8
0
  6
Continuous
 62
     7
370
    15
100
AcDbLine
 10
158.6847494149
 20
165.8415250155
 30
0.0
 11
160.3428165221
 21
165.8415250155
 31
0.0
  0
LINE
  5
1DD
330
1F
100
AcDbEntity
  8
0
  6
Continuous
 62
     7
370
    15
100
AcDbLine
 10
160.3428165221
 20
143.3415241214
 30
0.0
 11
160.3428165221
 21
165.8415250155
 31
0.0
  0
SPLINE
  5
1DE
330
1F
100
AcDbEntity
  8
0
  6
Continuous
 62
     7
370
    15
100
AcDbSpline
210
0.0
220
0.0
230
1.0
 70
     8
 71
     3
 72
    17
 73
    13
 74
     0
 42
0.00000001
 43
0.00000001
 12
1.0
 22
0.0
 32
0.0
 13
1.0
 23
0.0
 33
0.0
 40
0.0
 40
0.0
 40
0.0
 40
0.0
 40
0.1064584947925926
 40
0.2128853820649122
 40
0.3201358678267675
 40
0.4279706072970569
 40
0.5348959099635372
 40
0.640833893296311
 40
0.7472465223320981
 40
0.8548490544915606
 40
0.9625155229041981
 40
1.0
 40
1.0
 40
1.0
 40
1.0
 10
147.7347491567613
 20
143.3415241214458
 30
0.0
 10
147.7893249330367
 20
143.3504260630272
 30
0.0
 10
147.8984602820431
 20
143.3682273032041
 30
0.0
 10
148.7483550424678
 20
143.4923589010844
 30
0.0
 10
150.0054789014225
 20
143.6322830516417
 30
0.0
 10
151.5858353961991
 20
143.734802260613
 30
0.0
 10
153.2897563995013
 20
143.7512601367793
 30
0.0
 10
154.9198070949336
 20
143.6768353753375
 30
0.0
 10
156.317680247715
 20
143.5425756449754
 30
0.0
 10
157.2859850799891
 20
143.412655090321
 30
0.0
 10
157.7549878906753
 20
143.3383555496042
 30
0.0
 10
157.6881461769333
 20
143.348861776256
 30
0.0
 10
157.6708846518428
 20
143.3515749546711
 30
0.0
  0
LINE
  5
1DF
330
1F
100
AcDbEntity
  8
0
  6
Continuous
 62
     7
370
    15
100
AcDbLine
 10
150.6847490349
 20
175.8415246756
 30
0.0
 11
150.6847490349
 21
173.8415245806
 31
0.0
  0
SPLINE
  5
1E0
330
1F
100
AcDbEntity
  8
0
  6
Continuous
 62
     7
370
    15
100
AcDbSpline
210
0.0
220
0.0
230
1.0
 70
     8
 71
     3
 72
    30
 73
    26
 74
     0
 42
0.00000001
 43
0.00000001
 12
1.0
 22
0.0
 32
0.0
 13
1.0
 23
0.0
 33
0.0
 40
0.0
 40
0.0
 40
0.0
 40
0.0
 40
0.1250000000000002
 40
0.1250000000000002
 40
0.1875000000000002
 40
0.1875000000000002
 40
0.2500000000000003
 40
0.2500000000000003
 40
0.3750000000000004
 40
0.3750000000000004
 40
0.4375000000000004
 40
0.4375000000000004
 40
0.5000000000000004
 40
0.5000000000000004
 40
0.6250000000000004
 40
0.6250000000000004
 40
0.6875000000000003
 40
0.6875000000000003
 40
0.7500000000000002
 40
0.7500000000000002
 40
0.8125000000000001
 40
0.8125000000000001
 40
0.8749999999999999
 40
0.8749999999999999
 40
1.0
 40
1.0
 40
1.0
 40
1.0
 10
150.6847490617664
 20
173.8415246280853
 30
0.0
 10
150.6847490617664
 20
173.3101066976847
 30
0.0
 10
150.7371666277448
 20
172.7884475001106
 30
0.0
 10
150.8905461076471
 20
172.0198057129516
 30
0.0
 10
150.9542272283149
 20
171.7659159137865
 30
0.0
 10
151.1071820957665
 20
171.2628431378404
 30
0.0
 10
151.1967543945358
 20
171.0133792896238
 30
0.0
 10
151.4979784273889
 20
170.2884683920269
 30
0.0
 10
151.7432934234731
 20
169.8305910551348
 30
0.0
 10
152.1773904045433
 20
169.1808238296519
 30
0.0
 10
152.334060093647
 20
168.9694371262417
 30
0.0
 10
152.6660532574894
 20
168.5648033154716
 30
0.0
 10
152.8407587864818
 20
168.3720628439704
 30
0.0
 10
153.3904284690734
 20
167.8216319675934
 30
0.0
 10
153.7906794317846
 20
167.4914485903128
 30
0.0
 10
154.4442662984221
 20
167.0527727736624
 30
0.0
 10
154.6699424180993
 20
166.9169742151759
 30
0.0
 10
155.1296542392305
 20
166.6700971823297
 30
0.0
 10
155.3647075732736
 20
166.5583186450017
 30
0.0
 10
155.8452148555727
 20
166.3578884551281
 30
0.0
 10
156.0906683834868
 20
166.2692361119246
 30
0.0
 10
156.5922838082942
 20
166.1155685642435
 30
0.0
 10
156.8497761908947
 20
166.0503208599916
 30
0.0
 10
157.6278527073308
 20
165.8940158066273
 30
0.0
 10
158.1530149845757
 20
165.8415246280853
 30
0.0
 10
158.6847490617664
 20
165.8415246280853
 30
0.0
  0
SPLINE
  5
1E1
330
1F
100
AcDbEntity
  8
0
  6
Continuous
 62
     7
370
    15
100
AcDbSpline
210
0.0
220
0.0
230
1.0
 70
     8
 71
     3
 72
    28
 73
    24
 74
     0
 42
0.00000001
 43
0.00000001
 12
1.0
 22
0.0
 32
0.0
 13
1.0
 23
0.0
 33
0.0
 40
0.0
 40
0.0
 40
0.0
 40
0.0
 40
0.1250000000000001
 40
0.1250000000000001
 40
0.1875000000000001
 40
0.1875000000000001
 40
0.2500000000000001
 40
0.2500000000000001
 40
0.375
 40
0.375
 40
0.4375000000000001
 40
0.4375000000000001
 40
0.5
 40
0.5
 40
0.625
 40
0.625
 40
0.7499999999999999
 40
0.7499999999999999
 40
0.8124999999999999
 40
0.8124999999999999
 40
0.875
 40
0.875
 40
1.0
 40
1.0
 40
1.0
 40
1.0
 10
158.6847490617664
 20
183.8415246280854
 30
0.0
 10
158.1530413042735
 20
183.8415246280854
 30
0.0
 10
157.6308027389631
 20
183.7890482857671
 30
0.0
 10
156.8609322526881
 20
183.6352513382102
 30
0.0
 10
156.6065726804968
 20
183.5713763631762
 30
0.0
 10
156.1024510997983
 20
183.4178800945197
 30
0.0
 10
155.8527282823704
 20
183.328065119126
 30
0.0
 10
155.1271383309239
 20
183.0260863240751
 30
0.0
 10
154.6687780693424
 20
182.7801328900194
 30
0.0
 10
154.0182801259485
 20
182.344765710591
 30
0.0
 10
153.8065980751561
 20
182.1875505284187
 30
0.0
 10
153.402526586018
 20
181.8553859078762
 30
0.0
 10
153.2100200721972
 20
181.6805786422733
 30
0.0
 10
152.6601851011759
 20
181.1305194516875
 30
0.0
 10
152.3302563228671
 20
180.729896067292
 30
0.0
 10
151.7457850542984
 20
179.8573099559433
 30
0.0
 10
151.499507916285
 20
179.3971745083417
 30
0.0
 10
151.1996651235869
 20
178.6772084143756
 30
0.0
 10
151.1112082665147
 20
178.431934704341
 30
0.0
 10
150.9578469132096
 20
177.9304783679122
 30
0.0
 10
150.8927586989834
 20
177.6730469985397
 30
0.0
 10
150.7371646830426
 20
176.8971072026752
 30
0.0
 10
150.6847490617664
 20
176.3728788027692
 30
0.0
 10
150.6847490617664
 20
175.8415246280853
 30
0.0
  0
LINE
  5
1E2
330
1F
100
AcDbEntity
  8
0
  6
Continuous
 62
     7
370
    15
100
AcDbLine
 10
145.7347490618
 20
174.8415246281
 30
0.0
 11
145.7347490618
 21
206.0415237817
 31
0.0
  0
LINE
  5
1E3
330
1F
100
AcDbEntity
  8
0
  6
Continuous
 62
     7
370
    15
100
AcDbLine
 10
145.7347490618
 20
143.6415254745
 30
0.0
 11
145.7347490618
 21
174.8415246281
 31
0.0
  0
LINE
  5
1E4
330
1F
100
AcDbEntity
  8
0
  6
Continuous
 62
     7
370
    15
100
AcDbLine
 10
171.6847487518
 20
183.8415242407
 30
0.0
 11
171.6847487518
 21
205.7415242913
 31
0.0
  0
SPLINE
  5
1E5
330
1F
100
AcDbEntity
  8
0
  6
Continuous
 62
     7
370
    15
100
AcDbSpline
210
0.0
220
0.0
230
1.0
 70
    24
 71
     3
 72
    10
 73
     6
 74
     0
 42
0.00000001
 43
0.00000001
 12
1.0
 22
0.0
 32
0.0
 13
1.0
 23
0.0
 33
0.0
 40
0.0
 40
0.0
 40
0.0
 40
0.0
 40
0.5
 40
0.5
 40
1.0
 40
1.0
 40
1.0
 40
1.0
 10
171.6847490617664
 20
183.8415246280854
 30
0.0
 10
171.6847490617664
 20
183.8415246280854
 30
0.0
 10
171.6234394105306
 20
183.8415246280854
 30
0.0
 10
171.4043397729955
 20
183.8415246280854
 30
0.0
 10
171.246291566682
 20
183.8415246280854
 30
0.0
 10
171.0847490617664
 20
183.8415246280854
 30
0.0
  0
LINE
  5
1E6
330
1F
100
AcDbEntity
  8
0
  6
Continuous
 62
     7
370
    15
100
AcDbLine
 10
171.6847487518
 20
143.9415249649
 30
0.0
 11
171.6847487518
 21
165.8415250155
 31
0.0
  0
SPLINE
  5
1E7
330
1F
100
AcDbEntity
  8
0
  6
Continuous
 62
     7
370
    15
100
AcDbSpline
210
0.0
220
0.0
230
1.0
 70
    24
 71
     3
 72
    12
 73
     8
 74
     0
 42
0.00000001
 43
0.00000001
 12
1.0
 22
0.0
 32
0.0
 13
1.0
 23
0.0
 33
0.0
 40
0.0
 40
0.0
 40
0.0
 40
0.0
 40
0.2499999999999999
 40
0.2499999999999999
 40
0.4999999999999998
 40
0.4999999999999998
 40
1.0
 40
1.0
 40
1.0
 40
1.0
 10
171.0847490617664
 20
165.8415246280853
 30
0.0
 10
171.1646300665135
 20
165.8415246280853
 30
0.0
 10
171.2452241967841
 20
165.8415246280853
 30
0.0
 10
171.391839642629
 20
165.8415246280853
 30
0.0
 10
171.458340835373
 20
165.8415246280853
 30
0.0
 10
171.6240757365102
 20
165.8415246280853
 30
0.0
 10
171.6847490617664
 20
165.8415246280853
 30
0.0
 10
171.6847490617664
 20
165.8415246280853
 30
0.0
  0
LINE
  5
1E8
330
1F
100
AcDbEntity
  8
0
  6
Continuous
 62
     7
370
    15
100
AcDbLine
 10
167.126680983
 20
143.3415241214
 30
0.0
 11
167.126680983
 21
165.8415250155
 31
0.0
  0
LINE
  5
1E9
330
1F
100
AcDbEntity
  8
0
  6
Continuous
 62
     7
370
    15
100
AcDbLine
 10
167.126680983
 20
165.8415250155
 30
0.0
 11
171.0847497711
 21
165.8415250155
 31
0.0
  0
LINE
  5
1EA
330
1F
100
AcDbEntity
  8
0
  6
Continuous
 62
     7
370
    15
100
AcDbLine
 10
167.126680983
 20
183.8415242407
 30
0.0
 11
167.126680983
 21
206.3415251347
 31
0.0
  0
LINE
  5
1EB
330
1F
100
AcDbEntity
  8
0
  6
Continuous
 62
     7
370
    15
100
AcDbLine
 10
171.0847497711
 20
183.8415242407
 30
0.0
 11
167.126680983
 21
183.8415242407
 31
0.0
  0
LINE
  5
1EC
330
1F
100
AcDbEntity
  8
0
  6
Continuous
 62
     7
370
    15
100
AcDbLine
 10
165.6447493264
 20
183.8415242407
 30
0.0
 11
165.6447493264
 21
203.7747423771
 31
0.0
  0
SPLINE
  5
1ED
330
1F
100
AcDbEntity
  8
0
  6
Continuous
 62
     7
370
    15
100
AcDbSpline
210
0.0
220
0.0
230
1.0
 70
    24
 71
     3
 72
     8
 73
     4
 74
     0
 42
0.00000001
 43
0.00000001
 12
1.0
 22
0.0
 32
0.0
 13
1.0
 23
0.0
 33
0.0
 40
0.0
 40
0.0
 40
0.0
 40
0.0
 40
1.0
 40
1.0
 40
1.0
 40
1.0
 10
167.1266818932554
 20
183.8415246280854
 30
0.0
 10
166.6312022325897
 20
183.8415246280854
 30
0.0
 10
166.1370881845476
 20
183.8415246280854
 30
0.0
 10
165.6447490617664
 20
183.8415246280854
 30
0.0
  0
LINE
  5
1EE
330
1F
100
AcDbEntity
  8
0
  6
Continuous
 62
     7
370
    15
100
AcDbLine
 10
165.6447493264
 20
145.9083068791
 30
0.0
 11
165.6447493264
 21
165.8415250155
 31
0.0
  0
SPLINE
  5
1EF
330
1F
100
AcDbEntity
  8
0
  6
Continuous
 62
     7
370
    15
100
AcDbSpline
210
0.0
220
0.0
230
1.0
 70
    24
 71
     3
 72
     8
 73
     4
 74
     0
 42
0.00000001
 43
0.00000001
 12
1.0
 22
0.0
 32
0.0
 13
1.0
 23
0.0
 33
0.0
 40
0.0
 40
0.0
 40
0.0
 40
0.0
 40
1.0
 40
1.0
 40
1.0
 40
1.0
 10
165.6447490617664
 20
165.8415246280853
 30
0.0
 10
166.1370881845476
 20
165.8415246280853
 30
0.0
 10
166.6312022325897
 20
165.8415246280853
 30
0.0
 10
167.1266818932554
 20
165.8415246280853
 30
0.0
  0
LINE
  5
1F0
330
1F
100
AcDbEntity
  8
0
  6
Continuous
 62
     7
370
    15
100
AcDbLine
 10
161.82474911
 20
183.8415242407
 30
0.0
 11
161.82474911
 21
203.7747423771
 31
0.0
  0
SPLINE
  5
1F1
330
1F
100
AcDbEntity
  8
0
  6
Continuous
 62
     7
370
    15
100
AcDbSpline
210
0.0
220
0.0
230
1.0
 70
    24
 71
     3
 72
     8
 73
     4
 74
     0
 42
0.00000001
 43
0.00000001
 12
1.0
 22
0.0
 32
0.0
 13
1.0
 23
0.0
 33
0.0
 40
0.0
 40
0.0
 40
0.0
 40
0.0
 40
1.0
 40
1.0
 40
1.0
 40
1.0
 10
161.8247490617664
 20
183.8415246280854
 30
0.0
 10
161.3324099389852
 20
183.8415246280854
 30
0.0
 10
160.8382958909431
 20
183.8415246280854
 30
0.0
 10
160.3428162302773
 20
183.8415246280854
 30
0.0
  0
LINE
  5
1F2
330
1F
100
AcDbEntity
  8
0
  6
Continuous
 62
     7
370
    15
100
AcDbLine
 10
161.82474911
 20
145.9083068791
 30
0.0
 11
161.82474911
 21
165.8415250155
 31
0.0
  0
SPLINE
  5
1F3
330
1F
100
AcDbEntity
  8
0
  6
Continuous
 62
     7
370
    15
100
AcDbSpline
210
0.0
220
0.0
230
1.0
 70
    24
 71
     3
 72
     8
 73
     4
 74
     0
 42
0.00000001
 43
0.00000001
 12
1.0
 22
0.0
 32
0.0
 13
1.0
 23
0.0
 33
0.0
 40
0.0
 40
0.0
 40
0.0
 40
0.0
 40
1.0
 40
1.0
 40
1.0
 40
1.0
 10
160.3428162302773
 20
165.8415246280853
 30
0.0
 10
160.8382958909431
 20
165.8415246280853
 30
0.0
 10
161.3324099389852
 20
165.8415246280853
 30
0.0
 10
161.8247490617664
 20
165.8415246280853
 30
0.0
  0
ELLIPSE
  5
1F4
330
1F
100
AcDbEntity
  8
0
  6
Continuous
 62
     7
370
    15
100
AcDbEllipse
 10
205.7347490618
 20
185.7606316561
 30
0.0
 11
2.063196788897585
 21
1.938770797756178
 31
0.0
210
0.0
220
0.0
230
1.0
 40
0.8830222216
 41
0.0
 42
1.048434567197159
  0
ELLIPSE
  5
1F5
330
1F
100
AcDbEntity
  8
0
  6
Continuous
 62
     7
370
    15
100
AcDbEllipse
 10
205.7347490618
 20
185.7606316561
 30
0.0
 11
2.063196788897585
 21
1.938770797756178
 31
0.0
210
0.0
220
0.0
230
1.0
 40
0.8830222216
 41
5.335797935798498
 42
6.283185307179586
  0
SPLINE
  5
1F6
330
1F
100
AcDbEntity
  8
0
  6
Continuous
 62
     7
370
    15
100
AcDbSpline
210
0.0
220
0.0
230
1.0
 70
     8
 71
     3
 72
    14
 73
    10
 74
     0
 42
0.00000001
 43
0.00000001
 12
1.0
 22
0.0
 32
0.0
 13
1.0
 23
0.0
 33
0.0
 40
0.0
 40
0.0
 40
0.0
 40
0.0
 40
0.1249999999999997
 40
0.1249999999999997
 40
0.2499999999999993
 40
0.2499999999999993
 40
0.4999999999999996
 40
0.4999999999999996
 40
1.0
 40
1.0
 40
1.0
 40
1.0
 10
164.8447490617664
 20
167.2312930284558
 30
0.0
 10
164.9138456941104
 20
167.2312930284558
 30
0.0
 10
164.9788388597183
 20
167.1969606527758
 30
0.0
 10
165.0831600583634
 20
167.1076540687728
 30
0.0
 10
165.1259404324719
 20
167.0527492306262
 30
0.0
 10
165.2382780921181
 20
166.88151772232
 30
0.0
 10
165.2933252742605
 20
166.7572980199609
 30
0.0
 10
165.4372020480306
 20
166.3738532198565
 30
0.0
 10
165.5002313613057
 20
166.1076859132592
 30
0.0
 10
165.5470742594341
 20
165.8415246280853
 30
0.0
  0
SPLINE
  5
1F7
330
1F
100
AcDbEntity
  8
0
  6
Continuous
 62
     7
370
    15
100
AcDbSpline
210
0.0
220
0.0
230
1.0
 70
     8
 71
     3
 72
    14
 73
    10
 74
     0
 42
0.00000001
 43
0.00000001
 12
1.0
 22
0.0
 32
0.0
 13
1.0
 23
0.0
 33
0.0
 40
0.0
 40
0.0
 40
0.0
 40
0.0
 40
0.1250000000000007
 40
0.1250000000000007
 40
0.2500000000000014
 40
0.2500000000000014
 40
0.5000000000000002
 40
0.5000000000000002
 40
1.0
 40
1.0
 40
1.0
 40
1.0
 10
162.6247490617664
 20
182.4517562277149
 30
0.0
 10
162.5554023400353
 20
182.4517562277149
 30
0.0
 10
162.4902042866513
 20
182.4863581067769
 30
0.0
 10
162.3858250940243
 20
182.5759554364795
 30
0.0
 10
162.3429227230153
 20
182.6311410113198
 30
0.0
 10
162.2305970654106
 20
182.8027380660813
 30
0.0
 10
162.1753733710568
 20
182.9275565344059
 30
0.0
 10
162.0313159922893
 20
183.3124676298553
 30
0.0
 10
161.9692352954578
 20
183.5755421370532
 30
0.0
 10
161.9224238640987
 20
183.8415246280853
 30
0.0
  0
SPLINE
  5
1F8
330
1F
100
AcDbEntity
  8
0
  6
Continuous
 62
     7
370
    15
100
AcDbSpline
210
0.0
220
0.0
230
1.0
 70
     8
 71
     3
 72
    14
 73
    10
 74
     0
 42
0.00000001
 43
0.00000001
 12
1.0
 22
0.0
 32
0.0
 13
1.0
 23
0.0
 33
0.0
 40
0.0
 40
0.0
 40
0.0
 40
0.0
 40
0.5000000000000027
 40
0.5000000000000027
 40
0.7500000000000013
 40
0.7500000000000013
 40
0.8750000000000007
 40
0.8750000000000007
 40
1.0
 40
1.0
 40
1.0
 40
1.0
 10
165.5470742594341
 20
183.8415246280854
 30
0.0
 10
165.5002895543859
 20
183.5756939959163
 30
0.0
 10
165.4382383576063
 20
183.3129998993573
 30
0.0
 10
165.2948467190559
 20
182.9292960540602
 30
0.0
 10
165.2387030655046
 20
182.8021858522762
 30
0.0
 10
165.1257520433683
 20
182.6300095983088
 30
0.0
 10
165.0827512813302
 20
182.5749760319995
 30
0.0
 10
164.9786885710237
 20
182.4860295304455
 30
0.0
 10
164.9133563326668
 20
182.451756227715
 30
0.0
 10
164.8447490617664
 20
182.451756227715
 30
0.0
  0
SPLINE
  5
1F9
330
1F
100
AcDbEntity
  8
0
  6
Continuous
 62
     7
370
    15
100
AcDbSpline
210
0.0
220
0.0
230
1.0
 70
     8
 71
     3
 72
    14
 73
    10
 74
     0
 42
0.00000001
 43
0.00000001
 12
1.0
 22
0.0
 32
0.0
 13
1.0
 23
0.0
 33
0.0
 40
0.0
 40
0.0
 40
0.0
 40
0.0
 40
0.5000000000000022
 40
0.5000000000000022
 40
0.7500000000000029
 40
0.7500000000000029
 40
0.8750000000000014
 40
0.8750000000000014
 40
1.0
 40
1.0
 40
1.0
 40
1.0
 10
161.9224238640986
 20
165.8415246280848
 30
0.0
 10
161.9696303519384
 20
166.1097518295176
 30
0.0
 10
162.0329703553677
 20
166.3757500093227
 30
0.0
 10
162.1760334616235
 20
166.756876549692
 30
0.0
 10
162.2321141118946
 20
166.8829979288954
 30
0.0
 10
162.3435494618039
 20
167.0526776407998
 30
0.0
 10
162.3854942524769
 20
167.1068042624242
 30
0.0
 10
162.4904906954971
 20
167.1969425640268
 30
0.0
 10
162.5560546325778
 20
167.2312930284555
 30
0.0
 10
162.6247490617662
 20
167.2312930284556
 30
0.0
  0
SPLINE
  5
1FA
330
1F
100
AcDbEntity
  8
0
  6
Continuous
 62
     7
370
    15
100
AcDbSpline
210
0.0
220
0.0
230
1.0
 70
    24
 71
     3
 72
    14
 73
    10
 74
     0
 42
0.00000001
 43
0.00000001
 12
1.0
 22
0.0
 32
0.0
 13
1.0
 23
0.0
 33
0.0
 40
0.0
 40
0.0
 40
0.0
 40
0.0
 40
0.4999999999999998
 40
0.4999999999999998
 40
0.7500000000000001
 40
0.7500000000000001
 40
0.875
 40
0.875
 40
1.0
 40
1.0
 40
1.0
 40
1.0
 10
188.7006748880555
 20
200.8415246280854
 30
0.0
 10
188.6349274628947
 20
200.8415246280854
 30
0.0
 10
188.4888568437942
 20
200.8415246280854
 30
0.0
 10
188.2283758606168
 20
200.8415246280854
 30
0.0
 10
188.1339318321395
 20
200.8415246280854
 30
0.0
 10
187.9869203417916
 20
200.8415246280854
 30
0.0
 10
187.937013606523
 20
200.8415246280854
 30
0.0
 10
187.8363110804205
 20
200.8415246280854
 30
0.0
 10
187.7852941071194
 20
200.8415246280854
 30
0.0
 10
187.7347490617664
 20
200.8415246280853
 30
0.0
  0
LINE
  5
1FB
330
1F
100
AcDbEntity
  8
0
  6
Continuous
 62
     7
370
    15
100
AcDbLine
 10
162.6247496137
 20
167.2312929901
 30
0.0
 11
164.8447488228
 21
167.2312929901
 31
0.0
  0
LINE
  5
1FC
330
1F
100
AcDbEntity
  8
0
  6
Continuous
 62
     7
370
    15
100
AcDbLine
 10
164.8447488228
 20
182.451756266
 30
0.0
 11
162.6247496137
 21
182.451756266
 31
0.0
  0
SPLINE
  5
1FD
330
1F
100
AcDbEntity
  8
0
  6
Continuous
 62
     7
370
    15
100
AcDbSpline
210
0.0
220
0.0
230
1.0
 70
     8
 71
     3
 72
    20
 73
    16
 74
     0
 42
0.00000001
 43
0.00000001
 12
1.0
 22
0.0
 32
0.0
 13
1.0
 23
0.0
 33
0.0
 40
0.0
 40
0.0
 40
0.0
 40
0.0
 40
0.2500000000000001
 40
0.2500000000000001
 40
0.375
 40
0.375
 40
0.4375000000000001
 40
0.4375000000000001
 40
0.4687500000000001
 40
0.4687500000000001
 40
0.5
 40
0.5
 40
0.75
 40
0.75
 40
1.0
 40
1.0
 40
1.0
 40
1.0
 10
171.6847490617664
 20
169.1811359488514
 30
0.0
 10
171.6847490617664
 20
170.142220001991
 30
0.0
 10
171.7425784585534
 20
171.1023183238875
 30
0.0
 10
171.8194369371947
 20
172.5426343120533
 30
0.0
 10
171.8437059161445
 20
173.0227626616332
 30
0.0
 10
171.868755535182
 20
173.7431487180939
 30
0.0
 10
171.8752377440463
 20
173.9833092388585
 30
0.0
 10
171.8814439741262
 20
174.3436099704631
 30
0.0
 10
171.8829309965747
 20
174.4637201300577
 30
0.0
 10
171.8846838647835
 20
174.7039612648197
 30
0.0
 10
171.8849359004039
 20
174.8247059802682
 30
0.0
 10
171.8819982792564
 20
175.8682866837609
 30
0.0
 10
171.8381202096785
 20
176.7948802793104
 30
0.0
 10
171.7387364111994
 20
178.6475686370158
 30
0.0
 10
171.6847490617664
 20
179.5737560941774
 30
0.0
 10
171.6847490617664
 20
180.5019133073193
 30
0.0
  0
LINE
  5
1FE
330
1F
100
AcDbEntity
  8
0
  6
Continuous
 62
     7
370
    15
100
AcDbLine
 10
171.6847487518
 20
180.5019132468
 30
0.0
 11
171.6847487518
 21
183.8415242407
 31
0.0
  0
LINE
  5
1FF
330
1F
100
AcDbEntity
  8
0
  6
Continuous
 62
     7
370
    15
100
AcDbLine
 10
171.6847487518
 20
165.8415250155
 30
0.0
 11
171.6847487518
 21
169.1811360094
 31
0.0
  0
SPLINE
  5
200
330
1F
100
AcDbEntity
  8
0
  6
Continuous
 62
     7
370
    15
100
AcDbSpline
210
0.0
220
0.0
230
1.0
 70
     8
 71
     3
 72
    14
 73
    10
 74
     0
 42
0.00000001
 43
0.00000001
 12
1.0
 22
0.0
 32
0.0
 13
1.0
 23
0.0
 33
0.0
 40
0.0
 40
0.0
 40
0.0
 40
0.0
 40
0.4999999999999989
 40
0.4999999999999989
 40
0.7499999999999994
 40
0.7499999999999994
 40
0.8749999999999997
 40
0.8749999999999997
 40
1.0
 40
1.0
 40
1.0
 40
1.0
 10
115.0843419832016
 20
165.6970901498911
 30
0.0
 10
115.8755294814057
 20
165.5940832559755
 30
0.0
 10
116.6645958191181
 20
165.481355287689
 30
0.0
 10
117.8400483601762
 20
165.2749798648566
 30
0.0
 10
118.230546273161
 20
165.2001489305822
 30
0.0
 10
118.8116404111241
 20
165.0666207892494
 30
0.0
 10
119.0045658557571
 20
165.018577501507
 30
0.0
 10
119.387276545458
 20
164.9081304027194
 30
0.0
 10
119.5775350718311
 20
164.8478905583459
 30
0.0
 10
119.7626226850514
 20
164.7640066153074
 30
0.0
  0
SPLINE
  5
201
330
1F
100
AcDbEntity
  8
0
  6
Continuous
 62
     7
370
    15
100
AcDbSpline
210
0.0
220
0.0
230
1.0
 70
     8
 71
     3
 72
    10
 73
     6
 74
     0
 42
0.00000001
 43
0.00000001
 12
1.0
 22
0.0
 32
0.0
 13
1.0
 23
0.0
 33
0.0
 40
0.0
 40
0.0
 40
0.0
 40
0.0
 40
0.5
 40
0.5
 40
1.0
 40
1.0
 40
1.0
 40
1.0
 10
119.7626226850513
 20
164.7640066153072
 30
0.0
 10
120.2088924627749
 20
164.5617517590095
 30
0.0
 10
120.6662270680863
 20
164.3805387391434
 30
0.0
 10
121.5935695661339
 20
164.0422133226624
 30
0.0
 10
122.0631751130694
 20
163.885681967278
 30
0.0
 10
122.5347490617661
 20
163.7380674390881
 30
0.0
  0
SPLINE
  5
202
330
1F
100
AcDbEntity
  8
0
  6
Continuous
 62
     7
370
    15
100
AcDbSpline
210
0.0
220
0.0
230
1.0
 70
     8
 71
     3
 72
    14
 73
    10
 74
     0
 42
0.00000001
 43
0.00000001
 12
1.0
 22
0.0
 32
0.0
 13
1.0
 23
0.0
 33
0.0
 40
0.0
 40
0.0
 40
0.0
 40
0.0
 40
0.1250000000000011
 40
0.1250000000000011
 40
0.2500000000000022
 40
0.2500000000000022
 40
0.5000000000000016
 40
0.5000000000000016
 40
1.0
 40
1.0
 40
1.0
 40
1.0
 10
122.5347490617662
 20
163.738067439088
 30
0.0
 10
122.5915238169868
 20
163.7202955101506
 30
0.0
 10
122.6542069179159
 20
163.7244418021515
 30
0.0
 10
122.760094692454
 20
163.7681640530508
 30
0.0
 10
122.8039989500552
 20
163.8037841317868
 30
0.0
 10
122.9164321982128
 20
163.9205643148817
 30
0.0
 10
122.9695604020752
 20
164.0135584015194
 30
0.0
 10
123.1045478638154
 20
164.2962115695905
 30
0.0
 10
123.1628085752953
 20
164.4991321318114
 30
0.0
 10
123.2100764089138
 20
164.7046146294019
 30
0.0
  0
SPLINE
  5
203
330
1F
100
AcDbEntity
  8
0
  6
Continuous
 62
     7
370
    15
100
AcDbSpline
210
0.0
220
0.0
230
1.0
 70
     8
 71
     3
 72
    12
 73
     8
 74
     0
 42
0.00000001
 43
0.00000001
 12
1.0
 22
0.0
 32
0.0
 13
1.0
 23
0.0
 33
0.0
 40
0.0
 40
0.0
 40
0.0
 40
0.0
 40
0.25
 40
0.25
 40
0.5
 40
0.5
 40
1.0
 40
1.0
 40
1.0
 40
1.0
 10
123.2100764088994
 20
164.7046146294053
 30
0.0
 10
123.2589169792345
 20
164.9169341204352
 30
0.0
 10
123.3439638944344
 20
165.1251783676126
 30
0.0
 10
123.5136153029979
 20
165.5418750622039
 30
0.0
 10
123.6000773017242
 20
165.7511283099565
 30
0.0
 10
123.8254705066411
 20
166.3916483565158
 30
0.0
 10
123.9347490617664
 20
166.8351751506174
 30
0.0
 10
123.9347490617664
 20
167.3122355344357
 30
0.0
  0
LINE
  5
204
330
1F
100
AcDbEntity
  8
0
  6
Continuous
 62
     7
370
    15
100
AcDbLine
 10
123.9347488412
 20
167.3122356321
 30
0.0
 11
123.9347488412
 21
182.3708136241
 31
0.0
  0
SPLINE
  5
205
330
1F
100
AcDbEntity
  8
0
  6
Continuous
 62
     7
370
    15
100
AcDbSpline
210
0.0
220
0.0
230
1.0
 70
     8
 71
     3
 72
    12
 73
     8
 74
     0
 42
0.00000001
 43
0.00000001
 12
1.0
 22
0.0
 32
0.0
 13
1.0
 23
0.0
 33
0.0
 40
0.0
 40
0.0
 40
0.0
 40
0.0
 40
0.25
 40
0.25
 40
0.5
 40
0.5
 40
1.0
 40
1.0
 40
1.0
 40
1.0
 10
123.2100764088994
 20
184.9784346267653
 30
0.0
 10
123.2589169792345
 20
184.7661151357354
 30
0.0
 10
123.3439638944344
 20
184.5578708885581
 30
0.0
 10
123.5136153029979
 20
184.1411741939667
 30
0.0
 10
123.6000773017242
 20
183.9319209462141
 30
0.0
 10
123.8254705066411
 20
183.2914008996549
 30
0.0
 10
123.9347490617664
 20
182.8478741055533
 30
0.0
 10
123.9347490617664
 20
182.3708137217349
 30
0.0
  0
SPLINE
  5
206
330
1F
100
AcDbEntity
  8
0
  6
Continuous
 62
     7
370
    15
100
AcDbSpline
210
0.0
220
0.0
230
1.0
 70
     8
 71
     3
 72
    14
 73
    10
 74
     0
 42
0.00000001
 43
0.00000001
 12
1.0
 22
0.0
 32
0.0
 13
1.0
 23
0.0
 33
0.0
 40
0.0
 40
0.0
 40
0.0
 40
0.0
 40
0.1250000000000007
 40
0.1250000000000007
 40
0.2500000000000013
 40
0.2500000000000013
 40
0.5000000000000009
 40
0.5000000000000009
 40
1.0
 40
1.0
 40
1.0
 40
1.0
 10
122.5347490617664
 20
185.9449818170827
 30
0.0
 10
122.5915238169869
 20
185.9627537460201
 30
0.0
 10
122.6542069179161
 20
185.9586074540192
 30
0.0
 10
122.7600946924541
 20
185.9148852031198
 30
0.0
 10
122.8039989500553
 20
185.8792651243837
 30
0.0
 10
122.9164321982129
 20
185.7624849412889
 30
0.0
 10
122.9695604020752
 20
185.6694908546511
 30
0.0
 10
123.1045478638154
 20
185.3868376865802
 30
0.0
 10
123.1628085752953
 20
185.1839171243592
 30
0.0
 10
123.2100764089138
 20
184.9784346267688
 30
0.0
  0
SPLINE
  5
207
330
1F
100
AcDbEntity
  8
0
  6
Continuous
 62
     7
370
    15
100
AcDbSpline
210
0.0
220
0.0
230
1.0
 70
     8
 71
     3
 72
    10
 73
     6
 74
     0
 42
0.00000001
 43
0.00000001
 12
1.0
 22
0.0
 32
0.0
 13
1.0
 23
0.0
 33
0.0
 40
0.0
 40
0.0
 40
0.0
 40
0.0
 40
0.5
 40
0.5
 40
1.0
 40
1.0
 40
1.0
 40
1.0
 10
119.7626226850513
 20
184.9190426408635
 30
0.0
 10
120.2088924627749
 20
185.1212974971612
 30
0.0
 10
120.6662270680864
 20
185.3025105170274
 30
0.0
 10
121.593569566134
 20
185.6408359335084
 30
0.0
 10
122.0631751130696
 20
185.7973672888927
 30
0.0
 10
122.5347490617664
 20
185.9449818170827
 30
0.0
  0
SPLINE
  5
208
330
1F
100
AcDbEntity
  8
0
  6
Continuous
 62
     7
370
    15
100
AcDbSpline
210
0.0
220
0.0
230
1.0
 70
     8
 71
     3
 72
    14
 73
    10
 74
     0
 42
0.00000001
 43
0.00000001
 12
1.0
 22
0.0
 32
0.0
 13
1.0
 23
0.0
 33
0.0
 40
0.0
 40
0.0
 40
0.0
 40
0.0
 40
0.5000000000000002
 40
0.5000000000000002
 40
0.7500000000000002
 40
0.7500000000000002
 40
0.8750000000000001
 40
0.8750000000000001
 40
1.0
 40
1.0
 40
1.0
 40
1.0
 10
115.084341983202
 20
183.9859591062797
 30
0.0
 10
115.8755294814061
 20
184.0889660001952
 30
0.0
 10
116.6645958191184
 20
184.2016939684817
 30
0.0
 10
117.8400483601763
 20
184.4080693913141
 30
0.0
 10
118.2305462731612
 20
184.4829003255885
 30
0.0
 10
118.8116404111242
 20
184.6164284669213
 30
0.0
 10
119.0045658557572
 20
184.6644717546637
 30
0.0
 10
119.3872765454581
 20
184.7749188534513
 30
0.0
 10
119.5775350718311
 20
184.8351586978248
 30
0.0
 10
119.7626226850514
 20
184.9190426408633
 30
0.0
  0
SPLINE
  5
209
330
1F
100
AcDbEntity
  8
0
  6
Continuous
 62
     7
370
    15
100
AcDbSpline
210
0.0
220
0.0
230
1.0
 70
     8
 71
     3
 72
     8
 73
     4
 74
     0
 42
0.00000001
 43
0.00000001
 12
1.0
 22
0.0
 32
0.0
 13
1.0
 23
0.0
 33
0.0
 40
0.0000003680674985
 40
0.0000003680674985
 40
0.0000003680674985
 40
0.0000003680674985
 40
0.000194190298469
 40
0.000194190298469
 40
0.000194190298469
 40
0.000194190298469
 10
114.9747041313482
 20
184.1298209702875
 30
0.0
 10
115.0098005298023
 20
184.0810344697649
 30
0.0
 10
115.0464552306066
 20
184.0330989381015
 30
0.0
 10
115.0843419832007
 20
183.9859591062808
 30
0.0
  0
SPLINE
  5
20A
330
1F
100
AcDbEntity
  8
0
  6
Continuous
 62
     7
370
    15
100
AcDbSpline
210
0.0
220
0.0
230
1.0
 70
     8
 71
     3
 72
     8
 73
     4
 74
     0
 42
0.00000001
 43
0.00000001
 12
1.0
 22
0.0
 32
0.0
 13
1.0
 23
0.0
 33
0.0
 40
0.0000003680674985
 40
0.0000003680674985
 40
0.0000003680674985
 40
0.0000003680674985
 40
0.0001941902984706
 40
0.0001941902984706
 40
0.0001941902984706
 40
0.0001941902984706
 10
114.9747041313482
 20
165.5532282858832
 30
0.0
 10
115.0098005298026
 20
165.6020147864062
 30
0.0
 10
115.0464552306072
 20
165.64995031807
 30
0.0
 10
115.0843419832016
 20
165.6970901498911
 30
0.0
  0
LINE
  5
20B
330
1F
100
AcDbEntity
  8
0
  6
Continuous
 62
     7
370
    15
100
AcDbLine
 10
143.7347489668
 20
174.8415246281
 30
0.0
 11
143.7347489668
 21
199.0619558516
 31
0.0
  0
LINE
  5
20C
330
1F
100
AcDbEntity
  8
0
  6
Continuous
 62
     7
370
    15
100
AcDbLine
 10
143.7347489668
 20
150.6210934046
 30
0.0
 11
143.7347489668
 21
174.8415246281
 31
0.0
  0
SPLINE
  5
20D
330
1F
100
AcDbEntity
  8
0
  6
Continuous
 62
     7
370
    15
100
AcDbSpline
210
0.0
220
0.0
230
1.0
 70
     8
 71
     3
 72
    39
 73
    35
 74
     0
 42
0.00000001
 43
0.00000001
 12
1.0
 22
0.0
 32
0.0
 13
1.0
 23
0.0
 33
0.0
 40
-0.0933917898681681
 40
-0.062235112377337
 40
-0.0310035323363815
 40
0.0
 40
0.0311554731469189
 40
0.0627537544701209
 40
0.0944598246528823
 40
0.1258516844974789
 40
0.1572196167873313
 40
0.1889387571416946
 40
0.2205174397747647
 40
0.2516656885414448
 40
0.2826462244723088
 40
0.3138733795790971
 40
0.3450060568224169
 40
0.3757359628070913
 40
0.4064218143223449
 40
0.4377517454847213
 40
0.4690453247903464
 40
0.5001675072799395
 40
0.5313230322624448
 40
0.5628789029232684
 40
0.5945517697251348
 40
0.6258698547354901
 40
0.657195442580426
 40
0.6889351647119851
 40
0.7205341263071136
 40
0.7517182475210312
 40
0.7827801982310626
 40
0.8139996739131332
 40
0.8452044676928825
 40
0.8758948969807201
 40
0.9066082101318319
 40
0.937764887622663
 40
0.9689964676636185
 40
1.0
 40
1.031155473146919
 40
1.062753754470121
 40
1.094459824652882
 10
134.3491920066266
 20
171.2523616742135
 30
0.0
 10
133.7093356837228
 20
171.7915203430004
 30
0.0
 10
133.1853320896545
 20
172.4473066338362
 30
0.0
 10
132.7985900842027
 20
173.1992777778358
 30
0.0
 10
132.5543455543479
 20
174.011806706878
 30
0.0
 10
132.4752320111245
 20
174.8553533840679
 30
0.0
 10
132.5593126078744
 20
175.6985343611828
 30
0.0
 10
132.8085455065276
 20
176.5092545805035
 30
0.0
 10
133.1999145617672
 20
177.2586737376085
 30
0.0
 10
133.7280585357922
 20
177.9105969459192
 30
0.0
 10
134.3712955994481
 20
178.445218862504
 30
0.0
 10
135.1100485414109
 20
178.83808469494
 30
0.0
 10
135.9075416854616
 20
179.085572344417
 30
0.0
 10
136.7341270712276
 20
179.1637848883035
 30
0.0
 10
137.5596451297776
 20
179.0748341339545
 30
0.0
 10
138.3517852791391
 20
178.8188359537503
 30
0.0
 10
139.0843081364222
 20
178.4194148148576
 30
0.0
 10
139.7201314311544
 20
177.8822462521976
 30
0.0
 10
140.2413566112249
 20
177.2292970818895
 30
0.0
 10
140.6255810566637
 20
176.4799040781942
 30
0.0
 10
140.8681209341344
 20
175.6693559514947
 30
0.0
 10
140.9461872567276
 20
174.8270073424719
 30
0.0
 10
140.8613815963913
 20
173.9847682272126
 30
0.0
 10
140.6126911557959
 20
173.1751119064714
 30
0.0
 10
140.223087232575
 20
172.42723608013
 30
0.0
 10
139.6975247481254
 20
171.7776990755631
 30
0.0
 10
139.0588574721641
 20
171.2454215689562
 30
0.0
 10
138.3256039924092
 20
170.8520004243696
 30
0.0
 10
137.5330963575072
 20
170.6026055065512
 30
0.0
 10
136.7082153824711
 20
170.5193235250291
 30
0.0
 10
135.881973110895
 20
170.6022961753672
 30
0.0
 10
135.085909957096
 20
170.8547561019517
 30
0.0
 10
134.3491920066266
 20
171.2523616742135
 30
0.0
 10
133.7093356837228
 20
171.7915203430004
 30
0.0
 10
133.1853320896545
 20
172.4473066338362
 30
0.0
  0
SPLINE
  5
20E
330
1F
100
AcDbEntity
  8
0
  6
Continuous
 62
     7
370
    15
100
AcDbSpline
210
0.0
220
0.0
230
1.0
 70
     8
 71
     3
 72
    42
 73
    38
 74
     0
 42
0.00000001
 43
0.00000001
 12
1.0
 22
0.0
 32
0.0
 13
1.0
 23
0.0
 33
0.0
 40
-0.0859316076417099
 40
-0.0609210129164024
 40
-0.032276621489006
 40
0.0
 40
0.0284830186126943
 40
0.0552061382827513
 40
0.0801799850298142
 40
0.103417815852785
 40
0.1249363295284943
 40
0.1563046583289859
 40
0.197944235984845
 40
0.2498399451110505
 40
0.2789581882689109
 40
0.3060722233739813
 40
0.3311961508891147
 40
0.3543480223637211
 40
0.3755512451170889
 40
0.4116849508060994
 40
0.4530713443513679
 40
0.4997879465807339
 40
0.5273607821057333
 40
0.5522672815896564
 40
0.5745075514542536
 40
0.5940825939304012
 40
0.6109947617058109
 40
0.6252486355470234
 40
0.6621224546740642
 40
0.70366283702268
 40
0.7499274679880161
 40
0.782426472339801
 40
0.8111789305167617
 40
0.8361828742185502
 40
0.8574379105447573
 40
0.8749461318774902
 40
0.8926915954039033
 40
0.91406839235829
 40
0.9390789870835975
 40
0.9677233785109939
 40
0.9999999999999999
 40
1.028483018612694
 40
1.055206138282751
 40
1.080179985029814
 10
133.5957979534514
 20
172.7479715283095
 30
0.0
 10
134.0414260928439
 20
172.199375802375
 30
0.0
 10
134.5707022101348
 20
171.7558202252938
 30
0.0
 10
135.1190782393213
 20
171.4390328140968
 30
0.0
 10
135.6727466084121
 20
171.2299864624937
 30
0.0
 10
136.2112393520561
 20
171.1156921429132
 30
0.0
 10
136.8100107831318
 20
171.0747533810354
 30
0.0
 10
137.5521689303476
 20
171.1478051317659
 30
0.0
 10
138.4864115669874
 20
171.4644194976205
 30
0.0
 10
139.2788934075477
 20
172.0306806835401
 30
0.0
 10
139.8224962847473
 20
172.6796967919349
 30
0.0
 10
140.1412536614607
 20
173.2338220825531
 30
0.0
 10
140.3491578287551
 20
173.7894538869625
 30
0.0
 10
140.461384776585
 20
174.325527074259
 30
0.0
 10
140.5038307048435
 20
174.9588670015965
 30
0.0
 10
140.4147756047125
 20
175.7374598101673
 30
0.0
 10
140.0696370509701
 20
176.6595036247191
 30
0.0
 10
139.525958439743
 20
177.3971924758456
 30
0.0
 10
138.9345917403155
 20
177.8991747466562
 30
0.0
 10
138.4328653374877
 20
178.2002696446596
 30
0.0
 10
137.9501729730619
 20
178.4004126057407
 30
0.0
 10
137.5056683175312
 20
178.5197931343967
 30
0.0
 10
137.1119399685719
 20
178.5785143623665
 30
0.0
 10
136.578328474938
 20
178.6054797273092
 30
0.0
 10
135.8465752785096
 20
178.5244903663308
 30
0.0
 10
134.9177050028194
 20
178.1770883397723
 30
0.0
 10
134.1454165233256
 20
177.607755829409
 30
0.0
 10
133.6064202434071
 20
176.9512693365757
 30
0.0
 10
133.2827140642538
 20
176.3518179664637
 30
0.0
 10
133.0932369685362
 20
175.7911297855584
 30
0.0
 10
133.0030345072862
 20
175.2964654115663
 30
0.0
 10
132.9770594631177
 20
174.851875146077
 30
0.0
 10
133.0005283985232
 20
174.4061465420312
 30
0.0
 10
133.0889495771154
 20
173.9082049715099
 30
0.0
 10
133.2761484256557
 20
173.3465421689974
 30
0.0
 10
133.5957979534514
 20
172.7479715283095
 30
0.0
 10
134.0414260928439
 20
172.199375802375
 30
0.0
 10
134.5707022101348
 20
171.7558202252938
 30
0.0
  0
ARC
  5
20F
330
1F
100
AcDbEntity
  8
0
  6
Continuous
 62
     7
370
    15
100
AcDbCircle
 10
122.5347490618
 20
170.0290246281
 30
0.0
 40
1.400000000000006
100
AcDbArc
 50
270.0
 51
0.0
  0
ARC
  5
210
330
1F
100
AcDbEntity
  8
0
  6
Continuous
 62
     7
370
    15
100
AcDbCircle
 10
122.5347490618
 20
179.6540246281
 30
0.0
 40
1.400000000000006
100
AcDbArc
 50
0.0
 51
90.0
  0
SPLINE
  5
211
330
1F
100
AcDbEntity
  8
0
  6
Continuous
 62
     7
370
    15
100
AcDbSpline
210
0.0
220
0.0
230
1.0
 70
     8
 71
     3
 72
    22
 73
    18
 74
     0
 42
0.00000001
 43
0.00000001
 12
1.0
 22
0.0
 32
0.0
 13
1.0
 23
0.0
 33
0.0
 40
0.0
 40
0.0
 40
0.0
 40
0.0
 40
0.2500000000000044
 40
0.2500000000000044
 40
0.5000000000000088
 40
0.5000000000000088
 40
0.5625000000000103
 40
0.5625000000000103
 40
0.6250000000000119
 40
0.6250000000000119
 40
0.6875000000000134
 40
0.6875000000000134
 40
0.7500000000000115
 40
0.7500000000000115
 40
0.8750000000000058
 40
0.8750000000000058
 40
1.0
 40
1.0
 40
1.0
 40
1.0
 10
113.8347490617662
 20
183.0497728468035
 30
0.0
 10
113.8347490617662
 20
183.2501322854793
 30
0.0
 10
113.8662472801119
 20
183.4564256328502
 30
0.0
 10
113.9727747092885
 20
183.8674611084391
 30
0.0
 10
114.0459349284254
 20
184.0729685592204
 30
0.0
 10
114.1668634047497
 20
184.3153800408389
 30
0.0
 10
114.1927138925536
 20
184.3631710360751
 30
0.0
 10
114.2503084503279
 20
184.4557818129296
 30
0.0
 10
114.2822541908515
 20
184.5016120635851
 30
0.0
 10
114.3581112314237
 20
184.5792503605823
 30
0.0
 10
114.4053222820698
 20
184.6105096561894
 30
0.0
 10
114.5015482756688
 20
184.617438898804
 30
0.0
 10
114.5459692055928
 20
184.5965775028115
 30
0.0
 10
114.6621902154786
 20
184.518889576632
 30
0.0
 10
114.7273424548905
 20
184.4450835482122
 30
0.0
 10
114.8538968952564
 20
184.2939754017684
 30
0.0
 10
114.914570972226
 20
184.2134103563276
 30
0.0
 10
114.9747041313485
 20
184.1298209702885
 30
0.0
  0
LINE
  5
212
330
1F
100
AcDbEntity
  8
0
  6
Continuous
 62
     7
370
    15
100
AcDbLine
 10
113.8347492346
 20
183.049772461
 30
0.0
 11
113.8347492346
 21
196.4225746366
 31
0.0
  0
LINE
  5
213
330
1F
100
AcDbEntity
  8
0
  6
Continuous
 62
     7
370
    15
100
AcDbLine
 10
113.8347492346
 20
153.2604746195
 30
0.0
 11
113.8347492346
 21
166.6332767951
 31
0.0
  0
SPLINE
  5
214
330
1F
100
AcDbEntity
  8
0
  6
Continuous
 62
     7
370
    15
100
AcDbSpline
210
0.0
220
0.0
230
1.0
 70
     8
 71
     3
 72
    22
 73
    18
 74
     0
 42
0.00000001
 43
0.00000001
 12
1.0
 22
0.0
 32
0.0
 13
1.0
 23
0.0
 33
0.0
 40
0.0
 40
0.0
 40
0.0
 40
0.0
 40
0.2500000000000044
 40
0.2500000000000044
 40
0.5000000000000088
 40
0.5000000000000088
 40
0.5625000000000103
 40
0.5625000000000103
 40
0.6250000000000119
 40
0.6250000000000119
 40
0.6875000000000134
 40
0.6875000000000134
 40
0.7500000000000115
 40
0.7500000000000115
 40
0.8750000000000058
 40
0.8750000000000058
 40
1.0
 40
1.0
 40
1.0
 40
1.0
 10
113.8347490617662
 20
166.6332764093671
 30
0.0
 10
113.8347490617662
 20
166.4329169706914
 30
0.0
 10
113.8662472801119
 20
166.2266236233205
 30
0.0
 10
113.9727747092885
 20
165.8155881477315
 30
0.0
 10
114.0459349284254
 20
165.6100806969503
 30
0.0
 10
114.1668634047497
 20
165.3676692153317
 30
0.0
 10
114.1927138925536
 20
165.3198782200955
 30
0.0
 10
114.2503084503279
 20
165.227267443241
 30
0.0
 10
114.2822541908515
 20
165.1814371925856
 30
0.0
 10
114.3581112314237
 20
165.1037988955884
 30
0.0
 10
114.4053222820698
 20
165.0725395999812
 30
0.0
 10
114.5015482756688
 20
165.0656103573667
 30
0.0
 10
114.5459692055928
 20
165.0864717533591
 30
0.0
 10
114.6621902154786
 20
165.1641596795386
 30
0.0
 10
114.7273424548905
 20
165.2379657079585
 30
0.0
 10
114.8538968952564
 20
165.3890738544022
 30
0.0
 10
114.914570972226
 20
165.4696388998431
 30
0.0
 10
114.9747041313485
 20
165.5532282858821
 30
0.0
  0
LINE
  5
215
330
1F
100
AcDbEntity
  8
0
  6
Continuous
 62
     7
370
    15
100
AcDbLine
 10
113.8347492346
 20
167.9075719464
 30
0.0
 11
113.8347492346
 21
166.6332767951
 31
0.0
  0
LINE
  5
216
330
1F
100
AcDbEntity
  8
0
  6
Continuous
 62
     7
370
    15
100
AcDbLine
 10
115.0843419859
 20
168.6290247041
 30
0.0
 11
113.8347492346
 21
167.9075719464
 31
0.0
  0
LINE
  5
217
330
1F
100
AcDbEntity
  8
0
  6
Continuous
 62
     7
370
    15
100
AcDbLine
 10
115.0843419859
 20
168.6290247041
 30
0.0
 11
115.0843419859
 21
165.6970899227
 31
0.0
  0
LINE
  5
218
330
1F
100
AcDbEntity
  8
0
  6
Continuous
 62
     7
370
    15
100
AcDbLine
 10
115.0843419859
 20
181.0540245521
 30
0.0
 11
115.0843419859
 21
183.9859593335
 31
0.0
  0
LINE
  5
219
330
1F
100
AcDbEntity
  8
0
  6
Continuous
 62
     7
370
    15
100
AcDbLine
 10
115.0843419859
 20
181.0540245521
 30
0.0
 11
113.8347492346
 21
181.7754773098
 31
0.0
  0
LINE
  5
21A
330
1F
100
AcDbEntity
  8
0
  6
Continuous
 62
     7
370
    15
100
AcDbLine
 10
113.8347492346
 20
181.7754773098
 30
0.0
 11
113.8347492346
 21
183.049772461
 31
0.0
  0
LINE
  5
21B
330
1F
100
AcDbEntity
  8
0
  6
Continuous
 62
     7
370
    15
100
AcDbLine
 10
122.5347493568
 20
181.0540245521
 30
0.0
 11
115.0843419859
 21
181.0540245521
 31
0.0
  0
LINE
  5
21C
330
1F
100
AcDbEntity
  8
0
  6
Continuous
 62
     7
370
    15
100
AcDbLine
 10
122.5347493568
 20
168.6290247041
 30
0.0
 11
115.0843419859
 21
168.6290247041
 31
0.0
  0
SPLINE
  5
21D
330
1F
100
AcDbEntity
  8
0
  6
Continuous
 62
     7
370
    15
100
AcDbSpline
210
0.0
220
0.0
230
1.0
 70
     8
 71
     3
 72
     9
 73
     5
 74
     0
 42
0.00000001
 43
0.00000001
 12
1.0
 22
0.0
 32
0.0
 13
1.0
 23
0.0
 33
0.0
 40
0.0
 40
0.0
 40
0.0
 40
0.0
 40
0.5131028265951941
 40
1.0
 40
1.0
 40
1.0
 40
1.0
 10
134.8342562818558
 20
171.6207699525182
 30
0.0
 10
134.5037622500319
 20
171.846540678787
 30
0.0
 10
133.859653477494
 20
172.2865513639102
 30
0.0
 10
133.5042819250682
 20
172.9809604268764
 30
0.0
 10
133.3312525206835
 20
173.3190662368212
 30
0.0
  0
LINE
  5
21E
330
1F
100
AcDbEntity
  8
0
  6
Continuous
 62
     7
370
    15
100
AcDbLine
 10
139.4199787432
 20
177.4539545319
 30
0.0
 11
139.4897511022
 21
177.385628284
 31
0.0
  0
SPLINE
  5
21F
330
1F
100
AcDbEntity
  8
0
  6
Continuous
 62
     7
370
    15
100
AcDbSpline
210
0.0
220
0.0
230
1.0
 70
     8
 71
     3
 72
    11
 73
     7
 74
     0
 42
0.00000001
 43
0.00000001
 12
1.0
 22
0.0
 32
0.0
 13
1.0
 23
0.0
 33
0.0
 40
0.0
 40
0.0
 40
0.0
 40
0.0
 40
0.2701759094298112
 40
0.5403792549849127
 40
0.8081528522143989
 40
1.0
 40
1.0
 40
1.0
 40
1.0
 10
119.9347481855781
 20
169.9715247984056
 30
0.0
 10
119.9178992891992
 20
169.8067259051685
 30
0.0
 10
119.884199785451
 20
169.4771113835121
 30
0.0
 10
119.6209460835793
 20
169.0495761721374
 30
0.0
 10
119.2736551020051
 20
168.7417380317358
 30
0.0
 10
118.9918812342699
 20
168.6622170235599
 30
0.0
 10
118.8742679336698
 20
168.6290247040812
 30
0.0
  0
LINE
  5
220
330
1F
100
AcDbEntity
  8
0
  6
Continuous
 62
     7
370
    15
100
AcDbLine
 10
119.9347481856
 20
169.9715247984
 30
0.0
 11
119.9347481856
 21
179.7115244578
 31
0.0
  0
SPLINE
  5
221
330
1F
100
AcDbEntity
  8
0
  6
Continuous
 62
     7
370
    15
100
AcDbSpline
210
0.0
220
0.0
230
1.0
 70
     8
 71
     3
 72
    11
 73
     7
 74
     0
 42
0.00000001
 43
0.00000001
 12
1.0
 22
0.0
 32
0.0
 13
1.0
 23
0.0
 33
0.0
 40
0.0
 40
0.0
 40
0.0
 40
0.0
 40
0.2701759094298112
 40
0.5403792549849127
 40
0.8081528522143989
 40
1.0
 40
1.0
 40
1.0
 40
1.0
 10
119.9347481855781
 20
179.7115244577651
 30
0.0
 10
119.9178992891992
 20
179.8763233510022
 30
0.0
 10
119.884199785451
 20
180.2059378726586
 30
0.0
 10
119.6209460835793
 20
180.6334730840332
 30
0.0
 10
119.2736551020051
 20
180.9413112244349
 30
0.0
 10
118.9918812342699
 20
181.0208322326107
 30
0.0
 10
118.8742679336698
 20
181.0540245520894
 30
0.0
  0
LINE
  5
222
330
1F
100
AcDbEntity
  8
0
  6
Continuous
 62
     7
370
    15
100
AcDbLine
 10
229.2047583291
 20
174.5915246162
 30
0.0
 11
229.234746916
 21
174.5915246162
 31
0.0
  0
LINE
  5
223
330
1F
100
AcDbEntity
  8
0
  6
Continuous
 62
     7
370
    15
100
AcDbLine
 10
217.2347523996
 20
174.5915246162
 30
0.0
 11
229.2047583291
 21
174.5915246162
 31
0.0
  0
LINE
  5
224
330
1F
100
AcDbEntity
  8
0
  6
Continuous
 62
     7
370
    15
100
AcDbLine
 10
227.4635054895
 20
172.8415245331
 30
0.0
 11
227.4847470948
 21
172.8415245331
 31
0.0
  0
LINE
  5
225
330
1F
100
AcDbEntity
  8
0
  6
Continuous
 62
     7
370
    15
100
AcDbLine
 10
227.4635054895
 20
172.8415245331
 30
0.0
 11
218.9847522208
 21
172.8415245331
 31
0.0
  0
CIRCLE
  5
226
330
1F
100
AcDbEntity
  8
0
  6
Continuous
 62
     7
370
    15
100
AcDbCircle
 10
207.5822629028
 20
187.7854309357
 30
0.0
 40
3.499168772489491
  0
CIRCLE
  5
227
330
1F
100
AcDbEntity
  8
0
  6
Continuous
 62
     7
370
    15
100
AcDbCircle
 10
207.5822125587
 20
187.7852106405
 30
0.0
 40
2.999425353079529
  0
CIRCLE
  5
228
330
1F
100
AcDbEntity
  8
0
  6
Continuous
 62
     7
370
    15
100
AcDbCircle
 10
207.5994879914
 20
187.7915570018
 30
0.0
 40
2.499417665624765
  0
ARC
  5
229
330
1F
100
AcDbEntity
  8
0
  6
Continuous
 62
     7
370
    15
100
AcDbCircle
 10
207.7352114289
 20
187.8437239818
 30
0.0
 40
2.49811226372625
100
AcDbArc
 50
112.1942041416
 51
177.5409380241
  0
ARC
  5
22A
330
1F
100
AcDbEntity
  8
0
  6
Continuous
 62
     7
370
    15
100
AcDbCircle
 10
207.7368290162
 20
187.842049668
 30
0.0
 40
2.49980071298076
100
AcDbArc
 50
177.5041885924
 51
288.8016043433
  0
CIRCLE
  5
22B
330
1F
100
AcDbEntity
  8
0
  6
Continuous
 62
     7
370
    15
100
AcDbCircle
 10
207.7347490618
 20
187.8415246281
 30
0.0
 40
5.191338940966972
  0
LINE
  5
22C
330
1F
100
AcDbEntity
  8
0
  6
HIDDEN
 62
     7
370
     0
100
AcDbLine
 10
223.2347496578
 20
199.6415253404
 30
0.0
 11
228.3347465822
 21
199.6415253404
 31
0.0
  0
LINE
  5
22D
330
1F
100
AcDbEntity
  8
0
  6
HIDDEN
 62
     7
370
     0
100
AcDbLine
 10
218.1347527334
 20
199.6415253404
 30
0.0
 11
223.2347496578
 21
199.6415253404
 31
0.0
  0
LINE
  5
22E
330
1F
100
AcDbEntity
  8
0
  6
HIDDEN
 62
     7
370
     0
100
AcDbLine
 10
223.2347496578
 20
177.0415246162
 30
0.0
 11
228.3347465822
 21
177.0415246162
 31
0.0
  0
LINE
  5
22F
330
1F
100
AcDbEntity
  8
0
  6
HIDDEN
 62
     7
370
     0
100
AcDbLine
 10
218.1347527334
 20
177.0415246162
 30
0.0
 11
223.2347496578
 21
177.0415246162
 31
0.0
  0
LINE
  5
230
330
1F
100
AcDbEntity
  8
0
  6
HIDDEN
 62
     7
370
     0
100
AcDbLine
 10
150.6847490349
 20
199.3002142432
 30
0.0
 11
160.3428165221
 21
199.3002142432
 31
0.0
  0
LINE
  5
231
330
1F
100
AcDbEntity
  8
0
  6
HIDDEN
 62
     7
370
     0
100
AcDbLine
 10
160.3428165221
 20
166.8415242481
 30
0.0
 11
160.3428165221
 21
165.8415250155
 31
0.0
  0
LINE
  5
232
330
1F
100
AcDbEntity
  8
0
  6
HIDDEN
 62
     7
370
     0
100
AcDbLine
 10
160.3428165221
 20
183.8415242407
 30
0.0
 11
160.3428165221
 21
182.8415250081
 31
0.0
  0
SPLINE
  5
233
330
1F
100
AcDbEntity
  8
0
  6
HIDDEN
 62
     7
370
     0
100
AcDbSpline
210
0.0
220
0.0
230
1.0
 70
     8
 71
     3
 72
    12
 73
     8
 74
     0
 42
0.00000001
 43
0.00000001
 12
1.0
 22
0.0
 32
0.0
 13
1.0
 23
0.0
 33
0.0
 40
0.0
 40
0.0
 40
0.0
 40
0.0
 40
0.2500000000000006
 40
0.2500000000000006
 40
0.5000000000000012
 40
0.5000000000000012
 40
1.0
 40
1.0
 40
1.0
 40
1.0
 10
171.0847490617664
 20
199.3002142904529
 30
0.0
 10
171.1749881294535
 20
199.300214290453
 30
0.0
 10
171.2658862435599
 20
199.2723845701495
 30
0.0
 10
171.4204832800484
 20
199.1772421088928
 30
0.0
 10
171.4854616961566
 20
199.1108192925925
 30
0.0
 10
171.6372967240928
 20
198.8866198610723
 30
0.0
 10
171.6847490617664
 20
198.7026334585267
 30
0.0
 10
171.6847490617664
 20
198.5224768893437
 30
0.0
  0
LINE
  5
234
330
1F
100
AcDbEntity
  8
0
  6
HIDDEN
 62
     7
370
     0
100
AcDbLine
 10
167.126680983
 20
166.8415242481
 30
0.0
 11
167.126680983
 21
165.8415250155
 31
0.0
  0
LINE
  5
235
330
1F
100
AcDbEntity
  8
0
  6
HIDDEN
 62
     7
370
     0
100
AcDbLine
 10
167.126680983
 20
199.3002142432
 30
0.0
 11
171.0847497711
 21
199.3002142432
 31
0.0
  0
SPLINE
  5
236
330
1F
100
AcDbEntity
  8
0
  6
HIDDEN
 62
     7
370
     0
100
AcDbSpline
210
0.0
220
0.0
230
1.0
 70
     8
 71
     3
 72
     8
 73
     4
 74
     0
 42
0.00000001
 43
0.00000001
 12
1.0
 22
0.0
 32
0.0
 13
1.0
 23
0.0
 33
0.0
 40
0.0
 40
0.0
 40
0.0
 40
0.0
 40
1.0
 40
1.0
 40
1.0
 40
1.0
 10
165.6447490617664
 20
195.8916682956687
 30
0.0
 10
166.1247010561313
 20
197.0342837365907
 30
0.0
 10
166.6200017851049
 20
198.1699712303218
 30
0.0
 10
167.1266818932554
 20
199.3002142904528
 30
0.0
  0
SPLINE
  5
237
330
1F
100
AcDbEntity
  8
0
  6
HIDDEN
 62
     7
370
     0
100
AcDbSpline
210
0.0
220
0.0
230
1.0
 70
     8
 71
     3
 72
     8
 73
     4
 74
     0
 42
0.00000001
 43
0.00000001
 12
1.0
 22
0.0
 32
0.0
 13
1.0
 23
0.0
 33
0.0
 40
0.0
 40
0.0
 40
0.0
 40
0.0
 40
1.0
 40
1.0
 40
1.0
 40
1.0
 10
160.3428162302773
 20
199.3002142904527
 30
0.0
 10
160.8494963384279
 20
198.1699712303217
 30
0.0
 10
161.3447970674015
 20
197.0342837365907
 30
0.0
 10
161.8247490617664
 20
195.8916682956686
 30
0.0
  0
SPLINE
  5
238
330
1F
100
AcDbEntity
  8
0
  6
HIDDEN
 62
     7
370
     0
100
AcDbSpline
210
0.0
220
0.0
230
1.0
 70
     8
 71
     3
 72
    64
 73
    60
 74
     0
 42
0.00000001
 43
0.00000001
 12
1.0
 22
0.0
 32
0.0
 13
1.0
 23
0.0
 33
0.0
 40
-0.0312500000000001
 40
-0.0312500000000001
 40
0.0
 40
0.0
 40
0.0625
 40
0.0625
 40
0.0937499999999999
 40
0.0937499999999999
 40
0.1249999999999999
 40
0.1249999999999999
 40
0.1562499999999999
 40
0.1562499999999999
 40
0.1874999999999999
 40
0.1874999999999999
 40
0.2187499999999999
 40
0.2187499999999999
 40
0.2499999999999998
 40
0.2499999999999998
 40
0.2812499999999998
 40
0.2812499999999998
 40
0.3124999999999998
 40
0.3124999999999998
 40
0.3437499999999998
 40
0.3437499999999998
 40
0.3749999999999998
 40
0.3749999999999998
 40
0.4062499999999997
 40
0.4062499999999997
 40
0.4374999999999998
 40
0.4374999999999998
 40
0.4687499999999998
 40
0.4687499999999998
 40
0.4999999999999998
 40
0.4999999999999998
 40
0.5312499999999998
 40
0.5312499999999998
 40
0.5624999999999998
 40
0.5624999999999998
 40
0.5937499999999997
 40
0.5937499999999997
 40
0.6249999999999997
 40
0.6249999999999997
 40
0.6562499999999997
 40
0.6562499999999997
 40
0.6874999999999997
 40
0.6874999999999997
 40
0.7499999999999997
 40
0.7499999999999997
 40
0.8124999999999998
 40
0.8124999999999998
 40
0.8437499999999999
 40
0.8437499999999999
 40
0.8749999999999999
 40
0.8749999999999999
 40
0.9062499999999999
 40
0.9062499999999999
 40
0.9374999999999998
 40
0.9374999999999998
 40
0.9687499999999999
 40
0.9687499999999999
 40
1.0
 40
1.0
 40
1.0625
 40
1.0625
 10
197.840186984529
 20
174.9763188224828
 30
0.0
 10
197.505946144607
 20
174.5719362392905
 30
0.0
 10
197.2477378661229
 20
174.3477735026655
 30
0.0
 10
196.8152355030066
 20
174.0673250785341
 30
0.0
 10
196.6620942118752
 20
173.9832353715211
 30
0.0
 10
196.349017313669
 20
173.8415985418121
 30
0.0
 10
196.188119233357
 20
173.7832199183974
 30
0.0
 10
195.8561326670646
 20
173.6945685704277
 30
0.0
 10
195.6828275910204
 20
173.6642202800944
 30
0.0
 10
195.3369101771491
 20
173.6404635972085
 30
0.0
 10
195.1641398155126
 20
173.6465353157095
 30
0.0
 10
194.8190381736256
 20
173.7007162054849
 30
0.0
 10
194.6523043734794
 20
173.7482591381265
 30
0.0
 10
194.3357144849273
 20
173.8823615088007
 30
0.0
 10
194.1835999236646
 20
173.9704608008034
 30
0.0
 10
193.9075557662087
 20
174.1765409450797
 30
0.0
 10
193.7810077812761
 20
174.2957644767927
 30
0.0
 10
193.5536713200067
 20
174.5590104350181
 30
0.0
 10
193.4545617030871
 20
174.7006324287529
 30
0.0
 10
193.2821686939676
 20
175.0018509773287
 30
0.0
 10
193.2091557531702
 20
175.1619715444934
 30
0.0
 10
193.0940727520522
 20
175.4854156519525
 30
0.0
 10
193.0509065381383
 20
175.6505194674489
 30
0.0
 10
192.9939443669803
 20
175.9865139268034
 30
0.0
 10
192.9811572867184
 20
176.1513719521914
 30
0.0
 10
192.9855337285319
 20
176.4747882515986
 30
0.0
 10
193.0032566338697
 20
176.6351106152544
 30
0.0
 10
193.0685003718798
 20
176.936817444291
 30
0.0
 10
193.1156297989141
 20
177.0790878806889
 30
0.0
 10
193.2401838380603
 20
177.3475252041139
 30
0.0
 10
193.3170256687494
 20
177.4716641860793
 30
0.0
 10
193.4965635447484
 20
177.6952012948494
 30
0.0
 10
193.6011146856339
 20
177.7967419432039
 30
0.0
 10
193.8353248198579
 20
177.9736740991912
 30
0.0
 10
193.9636598372279
 20
178.0486162893319
 30
0.0
 10
194.2457717903079
 20
178.1743608440515
 30
0.0
 10
194.4010225261598
 20
178.2250354783988
 30
0.0
 10
194.7216974683686
 20
178.2987194773147
 30
0.0
 10
194.8899686021691
 20
178.3228836432769
 30
0.0
 10
195.2370550996336
 20
178.3476225742782
 30
0.0
 10
195.4103186338416
 20
178.3479887368424
 30
0.0
 10
195.7563691926507
 20
178.3283886553449
 30
0.0
 10
195.9283526290673
 20
178.3081997771267
 30
0.0
 10
196.4239692342952
 20
178.2215612132206
 30
0.0
 10
196.7394520730196
 20
178.1276911308081
 30
0.0
 10
197.3090511722966
 20
177.8691078230297
 30
0.0
 10
197.5697149033986
 20
177.701291373472
 30
0.0
 10
197.8886787362466
 20
177.3840477266463
 30
0.0
 10
197.9841986374361
 20
177.2659327792868
 30
0.0
 10
198.142504183492
 20
177.0058436595865
 30
0.0
 10
198.2044127522191
 20
176.8659949709222
 30
0.0
 10
198.2876316530824
 20
176.5621485328173
 30
0.0
 10
198.3072026689313
 20
176.4023862813609
 30
0.0
 10
198.299928515118
 20
176.076328292076
 30
0.0
 10
198.272394983707
 20
175.9073669491857
 30
0.0
 10
198.1764420733146
 20
175.5818459748311
 30
0.0
 10
198.1070922150806
 20
175.4209087928897
 30
0.0
 10
197.9390258720746
 20
175.1189044266459
 30
0.0
 10
197.840186984529
 20
174.9763188224828
 30
0.0
 10
197.505946144607
 20
174.5719362392905
 30
0.0
  0
ELLIPSE
  5
239
330
1F
100
AcDbEntity
  8
0
  6
HIDDEN
 62
     7
370
     0
100
AcDbEllipse
 10
205.7347490618
 20
185.7606316561
 30
0.0
 11
2.063196788897585
 21
1.938770797756178
 31
0.0
210
0.0
220
0.0
230
1.0
 40
0.8830222216
 41
1.048434567197159
 42
5.335797935798498
  0
LINE
  5
23A
330
1F
100
AcDbEntity
  8
0
  6
HIDDEN
 62
     7
370
     0
100
AcDbLine
 10
165.6447493264
 20
166.8415242481
 30
0.0
 11
165.6447493264
 21
165.8415250155
 31
0.0
  0
LINE
  5
23B
330
1F
100
AcDbEntity
  8
0
  6
HIDDEN
 62
     7
370
     0
100
AcDbLine
 10
161.82474911
 20
183.8415242407
 30
0.0
 11
161.82474911
 21
182.8415250081
 31
0.0
  0
LINE
  5
23C
330
1F
100
AcDbEntity
  8
0
  6
HIDDEN
 62
     7
370
     0
100
AcDbLine
 10
165.6447493264
 20
183.8415242407
 30
0.0
 11
165.6447493264
 21
182.8415250081
 31
0.0
  0
LINE
  5
23D
330
1F
100
AcDbEntity
  8
0
  6
HIDDEN
 62
     7
370
     0
100
AcDbLine
 10
161.82474911
 20
166.8415242481
 30
0.0
 11
161.82474911
 21
165.8415250155
 31
0.0
  0
SPLINE
  5
23E
330
1F
100
AcDbEntity
  8
0
  6
HIDDEN
 62
     7
370
     0
100
AcDbSpline
210
0.0
220
0.0
230
1.0
 70
     8
 71
     3
 72
    18
 73
    14
 74
     0
 42
0.00000001
 43
0.00000001
 12
1.0
 22
0.0
 32
0.0
 13
1.0
 23
0.0
 33
0.0
 40
0.0
 40
0.0
 40
0.0
 40
0.0
 40
0.2500000000000003
 40
0.2500000000000003
 40
0.4999999999999999
 40
0.4999999999999999
 40
0.7499999999999996
 40
0.7499999999999996
 40
0.8749999999999993
 40
0.8749999999999993
 40
0.9374999999999997
 40
0.9374999999999997
 40
1.0
 40
1.0
 40
1.0
 40
1.0
 10
119.9347490617664
 20
182.1302739598967
 30
0.0
 10
119.9347490617664
 20
182.3796419369553
 30
0.0
 10
119.8988999618281
 20
182.6254504913341
 30
0.0
 10
119.7740282257942
 20
183.0975743151123
 30
0.0
 10
119.6836278081463
 20
183.3283028940637
 30
0.0
 10
119.4613851534042
 20
183.761852823129
 30
0.0
 10
119.3316203669584
 20
183.9672506535738
 30
0.0
 10
119.0909829096469
 20
184.2495441754405
 30
0.0
 10
119.0032156115094
 20
184.3399237677051
 30
0.0
 10
118.8486915243026
 20
184.4475451725747
 30
0.0
 10
118.7920806382479
 20
184.479119748549
 30
0.0
 10
118.6680366073413
 20
184.5172941906464
 30
0.0
 10
118.600321932323
 20
184.5220919404269
 30
0.0
 10
118.5347490617664
 20
184.5092270814953
 30
0.0
  0
SPLINE
  5
23F
330
1F
100
AcDbEntity
  8
0
  6
HIDDEN
 62
     7
370
     0
100
AcDbSpline
210
0.0
220
0.0
230
1.0
 70
     8
 71
     3
 72
    18
 73
    14
 74
     0
 42
0.00000001
 43
0.00000001
 12
1.0
 22
0.0
 32
0.0
 13
1.0
 23
0.0
 33
0.0
 40
0.0
 40
0.0
 40
0.0
 40
0.0
 40
0.2499999999999996
 40
0.2499999999999996
 40
0.5
 40
0.5
 40
0.7500000000000003
 40
0.7500000000000003
 40
0.8750000000000007
 40
0.8750000000000007
 40
0.9375000000000003
 40
0.9375000000000003
 40
1.0
 40
1.0
 40
1.0
 40
1.0
 10
119.9347490617664
 20
167.552775296274
 30
0.0
 10
119.9347490617664
 20
167.3034073192154
 30
0.0
 10
119.8988999618281
 20
167.0575987648366
 30
0.0
 10
119.7740282257942
 20
166.5854749410584
 30
0.0
 10
119.6836278081463
 20
166.3547463621069
 30
0.0
 10
119.4613851534042
 20
165.9211964330417
 30
0.0
 10
119.3316203669584
 20
165.7157986025969
 30
0.0
 10
119.0909829096469
 20
165.4335050807302
 30
0.0
 10
119.0032156115094
 20
165.3431254884655
 30
0.0
 10
118.8486915243026
 20
165.2355040835959
 30
0.0
 10
118.7920806382479
 20
165.2039295076216
 30
0.0
 10
118.6680366073413
 20
165.1657550655243
 30
0.0
 10
118.600321932323
 20
165.1609573157438
 30
0.0
 10
118.5347490617664
 20
165.1738221746754
 30
0.0
  0
SPLINE
  5
240
330
1F
100
AcDbEntity
  8
0
  6
HIDDEN
 62
     7
370
     0
100
AcDbSpline
210
0.0
220
0.0
230
1.0
 70
     8
 71
     3
 72
    10
 73
     6
 74
     0
 42
0.00000001
 43
0.00000001
 12
1.0
 22
0.0
 32
0.0
 13
1.0
 23
0.0
 33
0.0
 40
0.0
 40
0.0
 40
0.0
 40
0.0
 40
0.5
 40
0.5
 40
1.0
 40
1.0
 40
1.0
 40
1.0
 10
118.5347490617664
 20
165.1738221746754
 30
0.0
 10
117.9471635146758
 20
165.2891016356688
 30
0.0
 10
117.3564171212154
 20
165.384371189509
 30
0.0
 10
116.1723979559165
 20
165.558909420453
 30
0.0
 10
115.5789839677111
 20
165.6372843962966
 30
0.0
 10
114.9847490617664
 20
165.710457864767
 30
0.0
  0
SPLINE
  5
241
330
1F
100
AcDbEntity
  8
0
  6
HIDDEN
 62
     7
370
     0
100
AcDbSpline
210
0.0
220
0.0
230
1.0
 70
     8
 71
     3
 72
    22
 73
    18
 74
     0
 42
0.00000001
 43
0.00000001
 12
1.0
 22
0.0
 32
0.0
 13
1.0
 23
0.0
 33
0.0
 40
0.0
 40
0.0
 40
0.0
 40
0.0
 40
0.1249999999999972
 40
0.1249999999999972
 40
0.2499999999999943
 40
0.2499999999999943
 40
0.3124999999999916
 40
0.3124999999999916
 40
0.3749999999999887
 40
0.3749999999999887
 40
0.4999999999999911
 40
0.4999999999999911
 40
0.6249999999999934
 40
0.6249999999999934
 40
0.7499999999999959
 40
0.7499999999999959
 40
1.0
 40
1.0
 40
1.0
 40
1.0
 10
114.9747041313355
 20
183.9844591719327
 30
0.0
 10
114.9140844104591
 20
184.0563566264677
 30
0.0
 10
114.8518950704926
 20
184.1244570102848
 30
0.0
 10
114.7181656042631
 20
184.245987574468
 30
0.0
 10
114.6459110625508
 20
184.3015687654382
 30
0.0
 10
114.5240131217151
 20
184.3432925962861
 30
0.0
 10
114.4802065685631
 20
184.3493222685078
 30
0.0
 10
114.3938113993882
 20
184.3359716776305
 30
0.0
 10
114.3514714230965
 20
184.3164810021892
 30
0.0
 10
114.2375006767274
 20
184.2340880959751
 30
0.0
 10
114.1790819507372
 20
184.1545907918249
 30
0.0
 10
114.0791743795497
 20
183.9912049384876
 30
0.0
 10
114.0377603887544
 20
183.9048757361057
 30
0.0
 10
113.9657354208771
 20
183.7282352375029
 30
0.0
 10
113.9353868795641
 20
183.6375372232557
 30
0.0
 10
113.861895149532
 20
183.3673888305217
 30
0.0
 10
113.8347490617664
 20
183.1875020163951
 30
0.0
 10
113.8347490617664
 20
183.008453510583
 30
0.0
  0
SPLINE
  5
242
330
1F
100
AcDbEntity
  8
0
  6
HIDDEN
 62
     7
370
     0
100
AcDbSpline
210
0.0
220
0.0
230
1.0
 70
     8
 71
     3
 72
    22
 73
    18
 74
     0
 42
0.00000001
 43
0.00000001
 12
1.0
 22
0.0
 32
0.0
 13
1.0
 23
0.0
 33
0.0
 40
0.0
 40
0.0
 40
0.0
 40
0.0
 40
0.1249999999999943
 40
0.1249999999999943
 40
0.2499999999999885
 40
0.2499999999999885
 40
0.3124999999999866
 40
0.3124999999999866
 40
0.3749999999999846
 40
0.3749999999999846
 40
0.4999999999999888
 40
0.4999999999999888
 40
0.624999999999993
 40
0.624999999999993
 40
0.7499999999999972
 40
0.7499999999999972
 40
1.0
 40
1.0
 40
1.0
 40
1.0
 10
114.9747041313355
 20
165.6985900842379
 30
0.0
 10
114.9140844104591
 20
165.626692629703
 30
0.0
 10
114.8518950704926
 20
165.5585922458859
 30
0.0
 10
114.7181656042631
 20
165.4370616817026
 30
0.0
 10
114.6459110625508
 20
165.3814804907325
 30
0.0
 10
114.5240131217151
 20
165.3397566598846
 30
0.0
 10
114.4802065685631
 20
165.3337269876628
 30
0.0
 10
114.3938113993882
 20
165.3470775785401
 30
0.0
 10
114.3514714230965
 20
165.3665682539814
 30
0.0
 10
114.2375006767274
 20
165.4489611601955
 30
0.0
 10
114.1790819507372
 20
165.5284584643458
 30
0.0
 10
114.0791743795497
 20
165.691844317683
 30
0.0
 10
114.0377603887544
 20
165.7781735200649
 30
0.0
 10
113.9657354208771
 20
165.9548140186678
 30
0.0
 10
113.9353868795641
 20
166.0455120329149
 30
0.0
 10
113.861895149532
 20
166.3156604256489
 30
0.0
 10
113.8347490617664
 20
166.4955472397756
 30
0.0
 10
113.8347490617664
 20
166.6745957455876
 30
0.0
  0
LINE
  5
243
330
1F
100
AcDbEntity
  8
0
  6
HIDDEN
 62
     7
370
     0
100
AcDbLine
 10
126.7387245575
 20
174.8415246281
 30
0.0
 11
126.7387245575
 21
191.841525552
 31
0.0
  0
LINE
  5
244
330
1F
100
AcDbEntity
  8
0
  6
HIDDEN
 62
     7
370
     0
100
AcDbLine
 10
126.7387245575
 20
157.8415237042
 30
0.0
 11
126.7387245575
 21
174.8415246281
 31
0.0
  0
LINE
  5
245
330
1F
100
AcDbEntity
  8
0
  6
HIDDEN
 62
     7
370
     0
100
AcDbLine
 10
153.3945750238
 20
174.8415246281
 30
0.0
 11
153.3945750238
 21
191.841525552
 31
0.0
  0
LINE
  5
246
330
1F
100
AcDbEntity
  8
0
  6
HIDDEN
 62
     7
370
     0
100
AcDbLine
 10
153.3945750238
 20
157.8415237042
 30
0.0
 11
153.3945750238
 21
174.8415246281
 31
0.0
  0
LINE
  5
247
330
1F
100
AcDbEntity
  8
0
  6
HIDDEN
 62
     7
370
     0
100
AcDbLine
 10
155.6847489232
 20
174.8415246281
 30
0.0
 11
155.6847489232
 21
190.5665244582
 31
0.0
  0
LINE
  5
248
330
1F
100
AcDbEntity
  8
0
  6
HIDDEN
 62
     7
370
     0
100
AcDbLine
 10
155.6847489232
 20
159.116524798
 30
0.0
 11
155.6847489232
 21
174.8415246281
 31
0.0
  0
LINE
  5
249
330
1F
100
AcDbEntity
  8
0
  6
HIDDEN
 62
     7
370
     0
100
AcDbLine
 10
114.9847482124
 20
157.8415237042
 30
0.0
 11
114.9847482124
 21
168.5715248483
 31
0.0
  0
LINE
  5
24A
330
1F
100
AcDbEntity
  8
0
  6
HIDDEN
 62
     7
370
     0
100
AcDbLine
 10
118.5347487012
 20
168.5715248483
 30
0.0
 11
114.9847482124
 21
168.5715248483
 31
0.0
  0
SPLINE
  5
24B
330
1F
100
AcDbEntity
  8
0
  6
HIDDEN
 62
     7
370
     0
100
AcDbSpline
210
0.0
220
0.0
230
1.0
 70
     8
 71
     3
 72
     9
 73
     5
 74
     0
 42
0.00000001
 43
0.00000001
 12
1.0
 22
0.0
 32
0.0
 13
1.0
 23
0.0
 33
0.0
 40
0.0
 40
0.0
 40
0.0
 40
0.0
 40
0.3394414155545932
 40
1.0
 40
1.0
 40
1.0
 40
1.0
 10
118.8742679336698
 20
168.6290247040812
 30
0.0
 10
118.8378077743018
 20
168.6145010868989
 30
0.0
 10
118.7303955443932
 20
168.5717142715108
 30
0.0
 10
118.6125756462772
 20
168.5716001995424
 30
0.0
 10
118.5347487011583
 20
168.5715248483245
 30
0.0
  0
SPLINE
  5
24C
330
1F
100
AcDbEntity
  8
0
  6
HIDDEN
 62
     7
370
     0
100
AcDbSpline
210
0.0
220
0.0
230
1.0
 70
     8
 71
     3
 72
     9
 73
     5
 74
     0
 42
0.00000001
 43
0.00000001
 12
1.0
 22
0.0
 32
0.0
 13
1.0
 23
0.0
 33
0.0
 40
0.0
 40
0.0
 40
0.0
 40
0.0
 40
0.3394414155545932
 40
1.0
 40
1.0
 40
1.0
 40
1.0
 10
118.8742679336698
 20
181.0540245520894
 30
0.0
 10
118.8378077743018
 20
181.0685481692718
 30
0.0
 10
118.7303955443932
 20
181.1113349846598
 30
0.0
 10
118.6125756462772
 20
181.1114490566282
 30
0.0
 10
118.5347487011583
 20
181.1115244078462
 30
0.0
  0
LINE
  5
24D
330
1F
100
AcDbEntity
  8
0
  6
HIDDEN
 62
     7
370
     0
100
AcDbLine
 10
118.5347487012
 20
181.1115244078
 30
0.0
 11
114.9847482124
 21
181.1115244078
 31
0.0
  0
LINE
  5
24E
330
1F
100
AcDbEntity
  8
0
  6
HIDDEN
 62
     7
370
     0
100
AcDbLine
 10
114.9847482124
 20
181.1115244078
 30
0.0
 11
114.9847482124
 21
191.841525552
 31
0.0
  0
LINE
  5
24F
330
1F
100
AcDbEntity
  8
0
  6
HIDDEN
 62
     7
370
     0
100
AcDbLine
 10
165.0347498038
 20
174.8415246281
 30
0.0
 11
165.0347498038
 21
184.3415243226
 31
0.0
  0
LINE
  5
250
330
1F
100
AcDbEntity
  8
0
  6
HIDDEN
 62
     7
370
     0
100
AcDbLine
 10
165.0347498038
 20
165.3415249336
 30
0.0
 11
165.0347498038
 21
174.8415246281
 31
0.0
  0
LINE
  5
251
330
1F
100
AcDbEntity
  8
0
  6
HIDDEN
 62
     7
370
     0
100
AcDbLine
 10
167.5347492823
 20
174.8415246281
 30
0.0
 11
167.5347492823
 21
184.3415243226
 31
0.0
  0
LINE
  5
252
330
1F
100
AcDbEntity
  8
0
  6
HIDDEN
 62
     7
370
     0
100
AcDbLine
 10
167.5347492823
 20
165.3415249336
 30
0.0
 11
167.5347492823
 21
174.8415246281
 31
0.0
  0
LINE
  5
253
330
1F
100
AcDbEntity
  8
0
  6
HIDDEN
 62
     7
370
     0
100
AcDbLine
 10
156.1847490051
 20
174.8415246281
 30
0.0
 11
156.1847490051
 21
183.34152509
 31
0.0
  0
LINE
  5
254
330
1F
100
AcDbEntity
  8
0
  6
HIDDEN
 62
     7
370
     0
100
AcDbLine
 10
156.1847490051
 20
166.3415241661
 30
0.0
 11
156.1847490051
 21
174.8415246281
 31
0.0
  0
LINE
  5
255
330
1F
100
AcDbEntity
  8
0
  6
HIDDEN
 62
     7
370
     0
100
AcDbLine
 10
152.7347492778
 20
148.4415247711
 30
0.0
 11
148.0347491128
 21
148.4415247711
 31
0.0
  0
LINE
  5
256
330
1F
100
AcDbEntity
  8
0
  6
HIDDEN
 62
     7
370
     0
100
AcDbLine
 10
157.4347487444
 20
148.4415247711
 30
0.0
 11
152.7347492778
 21
148.4415247711
 31
0.0
  0
LINE
  5
257
330
1F
100
AcDbEntity
  8
0
  6
HIDDEN
 62
     7
370
     0
100
AcDbLine
 10
203.8347490856
 20
179.0415244783
 30
0.0
 11
203.8347490856
 21
170.6415247778
 31
0.0
  0
SPLINE
  5
258
330
1F
100
AcDbEntity
  8
0
  6
HIDDEN
 62
     7
370
     0
100
AcDbSpline
210
0.0
220
0.0
230
1.0
 70
     8
 71
     3
 72
     9
 73
     5
 74
     0
 42
0.00000001
 43
0.00000001
 12
1.0
 22
0.0
 32
0.0
 13
1.0
 23
0.0
 33
0.0
 40
0.0
 40
0.0
 40
0.0
 40
0.0
 40
0.190287409380633
 40
1.0
 40
1.0
 40
1.0
 40
1.0
 10
197.4373155066402
 20
174.5578874858108
 30
0.0
 10
197.4755365508104
 20
174.585091042607
 30
0.0
 10
197.676396104759
 20
174.7280514039089
 30
0.0
 10
197.8028049668566
 20
174.9460889803007
 30
0.0
 10
197.9051598140628
 20
175.1226367511333
 30
0.0
  0
LINE
  5
259
330
1F
100
AcDbEntity
  8
0
  6
HIDDEN
 62
     7
370
     0
100
AcDbLine
 10
198.275226427
 20
176.3022624097
 30
0.0
 11
198.2794807085
 21
176.5643250571
 31
0.0
  0
LINE
  5
25A
330
1F
100
AcDbEntity
  8
0
  6
HIDDEN
 62
     7
370
     0
100
AcDbLine
 10
119.9347481856
 20
169.9715247984
 30
0.0
 11
119.9347481856
 21
167.5527752983
 31
0.0
  0
LINE
  5
25B
330
1F
100
AcDbEntity
  8
0
  6
HIDDEN
 62
     7
370
     0
100
AcDbLine
 10
119.9347481856
 20
179.7115244578
 30
0.0
 11
119.9347481856
 21
182.1302739578
 31
0.0
  0
ARC
  5
25C
330
1F
100
AcDbEntity
  8
0
  6
HIDDEN
 62
     7
370
     0
100
AcDbCircle
 10
157.9303694075
 20
202.6915246281
 30
0.0
 40
7.999999999999972
100
AcDbArc
 50
205.0819293509
 51
270.0
  0
LINE
  5
25D
330
1F
100
AcDbEntity
  8
0
  6
HIDDEN
 62
     7
370
     0
100
AcDbLine
 10
157.9303697476
 20
194.6915253672
 30
0.0
 11
161.8508969227
 21
194.6915253672
 31
0.0
  0
LINE
  5
25E
330
1F
100
AcDbEntity
  8
0
  6
HIDDEN
 62
     7
370
     0
100
AcDbLine
 10
165.6186015138
 20
194.6915253672
 30
0.0
 11
171.6847487518
 21
194.6915253672
 31
0.0
  0
LINE
  5
25F
330
1F
100
AcDbEntity
  8
0
  6
HIDDEN
 62
     7
370
     0
100
AcDbLine
 10
167.126680983
 20
183.8415242407
 30
0.0
 11
167.126680983
 21
182.8415250081
 31
0.0
  0
LINE
  5
260
330
1F
100
AcDbEntity
  8
0
  6
HIDDEN
 62
     7
370
     0
100
AcDbLine
 10
158.6847494149
 20
166.8415242481
 30
0.0
 11
162.2190468738
 21
166.8415242481
 31
0.0
  0
ARC
  5
261
330
1F
100
AcDbEntity
  8
0
  6
HIDDEN
 62
     7
370
     0
100
AcDbCircle
 10
158.6847490618
 20
174.8415246281
 30
0.0
 40
8.000000000000028
100
AcDbArc
 50
90.0
 51
270.0
  0
LINE
  5
262
330
1F
100
AcDbEntity
  8
0
  6
HIDDEN
 62
     7
370
     0
100
AcDbLine
 10
162.2190468738
 20
182.8415250081
 30
0.0
 11
158.6847494149
 21
182.8415250081
 31
0.0
  0
LINE
  5
263
330
1F
100
AcDbEntity
  8
0
  6
HIDDEN
 62
     7
370
     0
100
AcDbLine
 10
165.2504515627
 20
166.8415242481
 30
0.0
 11
171.6847487518
 21
166.8415242481
 31
0.0
  0
LINE
  5
264
330
1F
100
AcDbEntity
  8
0
  6
HIDDEN
 62
     7
370
     0
100
AcDbLine
 10
171.6847487518
 20
182.8415250081
 30
0.0
 11
165.2504515627
 21
182.8415250081
 31
0.0
  0
LINE
  5
265
330
1F
100
AcDbEntity
  8
0
  6
HIDDEN
 62
     7
370
     0
100
AcDbLine
 10
229.2047583291
 20
197.2849588516
 30
0.0
 11
229.234746916
 21
197.2849588516
 31
0.0
  0
LINE
  5
266
330
1F
100
AcDbEntity
  8
0
  6
HIDDEN
 62
     7
370
     0
100
AcDbLine
 10
217.2347523996
 20
197.2849588516
 30
0.0
 11
229.2047583291
 21
197.2849588516
 31
0.0
  0
LINE
  5
267
330
1F
100
AcDbEntity
  8
0
  6
HIDDEN
 62
     7
370
     0
100
AcDbLine
 10
228.2455780336
 20
197.8415246728
 30
0.0
 11
228.2707460949
 21
197.8415246728
 31
0.0
  0
LINE
  5
268
330
1F
100
AcDbEntity
  8
0
  6
HIDDEN
 62
     7
370
     0
100
AcDbLine
 10
218.1987457702
 20
197.8415246728
 30
0.0
 11
228.2455780336
 21
197.8415246728
 31
0.0
  0
LINE
  5
269
330
1F
100
AcDbEntity
  8
0
  6
HIDDEN
 62
     7
370
     0
100
AcDbLine
 10
224.6585630605
 20
189.8415242928
 30
0.0
 11
226.6815372536
 21
189.8415242928
 31
0.0
  0
LINE
  5
26A
330
1F
100
AcDbEntity
  8
0
  6
HIDDEN
 62
     7
370
     0
100
AcDbLine
 10
224.6585630605
 20
189.8415242928
 30
0.0
 11
221.2117754647
 21
189.8415242928
 31
0.0
  0
LINE
  5
26B
330
1F
100
AcDbEntity
  8
0
  6
HIDDEN
 62
     7
370
     0
100
AcDbLine
 10
224.6585630605
 20
189.8415242928
 30
0.0
 11
224.6585630605
 21
197.8415246728
 31
0.0
  0
LINE
  5
26C
330
1F
100
AcDbEntity
  8
0
  6
HIDDEN
 62
     7
370
     0
100
AcDbLine
 10
221.2117754647
 20
189.8415242928
 30
0.0
 11
221.2117754647
 21
197.8415246728
 31
0.0
  0
LINE
  5
26D
330
1F
100
AcDbEntity
  8
0
  6
HIDDEN
 62
     7
370
     0
100
AcDbLine
 10
221.2117754647
 20
189.8415242928
 30
0.0
 11
219.7879620621
 21
189.8415242928
 31
0.0
  0
LINE
  5
26E
330
1F
100
AcDbEntity
  8
0
  6
HIDDEN
 62
     7
370
     0
100
AcDbLine
 10
225.2577238509
 20
189.8415242928
 30
0.0
 11
225.2577238509
 21
197.8415246728
 31
0.0
  0
LINE
  5
26F
330
1F
100
AcDbEntity
  8
0
  6
HIDDEN
 62
     7
370
     0
100
AcDbLine
 10
226.6815372536
 20
189.8415242928
 30
0.0
 11
226.6815372536
 21
197.8415246728
 31
0.0
  0
LINE
  5
270
330
1F
100
AcDbEntity
  8
0
  6
HIDDEN
 62
     7
370
     0
100
AcDbLine
 10
221.8109362552
 20
189.8415242928
 30
0.0
 11
221.8109362552
 21
197.8415246728
 31
0.0
  0
LINE
  5
271
330
1F
100
AcDbEntity
  8
0
  6
HIDDEN
 62
     7
370
     0
100
AcDbLine
 10
219.7879620621
 20
189.8415242928
 30
0.0
 11
219.7879620621
 21
197.8415246728
 31
0.0
  0
LINE
  5
272
330
1F
100
AcDbEntity
  8
0
  6
HIDDEN
 62
     7
370
     0
100
AcDbLine
 10
219.7879620621
 20
189.8415242928
 30
0.0
 11
219.7799079844
 21
189.8415242928
 31
0.0
  0
LINE
  5
273
330
1F
100
AcDbEntity
  8
0
  6
HIDDEN
 62
     7
370
     0
100
AcDbLine
 10
221.7264988253
 20
189.8415242928
 30
0.0
 11
221.7264988253
 21
197.8415246728
 31
0.0
  0
LINE
  5
274
330
1F
100
AcDbEntity
  8
0
  6
HIDDEN
 62
     7
370
     0
100
AcDbLine
 10
226.6895913312
 20
189.8415242928
 30
0.0
 11
226.6815372536
 21
189.8415242928
 31
0.0
  0
LINE
  5
275
330
1F
100
AcDbEntity
  8
0
  6
HIDDEN
 62
     7
370
     0
100
AcDbLine
 10
225.1813404986
 20
189.8415242928
 30
0.0
 11
225.1813404986
 21
197.8415246728
 31
0.0
  0
LINE
  5
276
330
1F
100
AcDbEntity
  8
0
  6
HIDDEN
 62
     7
370
     0
100
AcDbLine
 10
221.288158817
 20
189.8415242928
 30
0.0
 11
221.288158817
 21
197.8415246728
 31
0.0
  0
LINE
  5
277
330
1F
100
AcDbEntity
  8
0
  6
HIDDEN
 62
     7
370
     0
100
AcDbLine
 10
219.7799079844
 20
189.8415242928
 30
0.0
 11
219.7799079844
 21
197.8415246728
 31
0.0
  0
LINE
  5
278
330
1F
100
AcDbEntity
  8
0
  6
HIDDEN
 62
     7
370
     0
100
AcDbLine
 10
224.7430004904
 20
189.8415242928
 30
0.0
 11
224.7430004904
 21
197.8415246728
 31
0.0
  0
LINE
  5
279
330
1F
100
AcDbEntity
  8
0
  6
HIDDEN
 62
     7
370
     0
100
AcDbLine
 10
226.6895913312
 20
189.8415242928
 30
0.0
 11
226.6895913312
 21
197.8415246728
 31
0.0
  0
LINE
  5
27A
330
1F
100
AcDbEntity
  8
0
  6
HIDDEN
 62
     7
370
     0
100
AcDbLine
 10
222.0317565629
 20
189.8415242928
 30
0.0
 11
222.0317565629
 21
197.8415246728
 31
0.0
  0
LINE
  5
27B
330
1F
100
AcDbEntity
  8
0
  6
HIDDEN
 62
     7
370
     0
100
AcDbLine
 10
225.446543915
 20
189.8415242928
 30
0.0
 11
225.446543915
 21
197.8415246728
 31
0.0
  0
LINE
  5
27C
330
1F
100
AcDbEntity
  8
0
  6
HIDDEN
 62
     7
370
     0
100
AcDbLine
 10
221.0229554006
 20
189.8415242928
 30
0.0
 11
221.0229554006
 21
197.8415246728
 31
0.0
  0
LINE
  5
27D
330
1F
100
AcDbEntity
  8
0
  6
HIDDEN
 62
     7
370
     0
100
AcDbLine
 10
219.8199623057
 20
189.8415242928
 30
0.0
 11
219.8199623057
 21
197.8415246728
 31
0.0
  0
LINE
  5
27E
330
1F
100
AcDbEntity
  8
0
  6
HIDDEN
 62
     7
370
     0
100
AcDbLine
 10
224.4377427527
 20
189.8415242928
 30
0.0
 11
224.4377427527
 21
197.8415246728
 31
0.0
  0
LINE
  5
27F
330
1F
100
AcDbEntity
  8
0
  6
HIDDEN
 62
     7
370
     0
100
AcDbLine
 10
226.6495370099
 20
189.8415242928
 30
0.0
 11
226.6495370099
 21
197.8415246728
 31
0.0
  0
CIRCLE
  5
280
330
1F
100
AcDbEntity
  8
0
  6
HIDDEN
 62
     7
370
     0
100
AcDbCircle
 10
207.8970931021
 20
187.8481177094
 30
0.0
 40
3.49916940903281
  0
CIRCLE
  5
281
330
1F
100
AcDbEntity
  8
0
  6
HIDDEN
 62
     7
370
     0
100
AcDbCircle
 10
207.6373698448
 20
187.8393931543
 30
0.0
 40
4.998950333201477
  0
CIRCLE
  5
282
330
1F
100
AcDbEntity
  8
0
  6
HIDDEN
 62
     7
370
     0
100
AcDbCircle
 10
207.7326609191
 20
187.842047641
 30
0.0
 40
2.499418957081962
  0
CIRCLE
  5
283
330
1F
100
AcDbEntity
  8
0
  6
HIDDEN
 62
     7
370
     0
100
AcDbCircle
 10
207.8788273964
 20
187.8471897842
 30
0.0
 40
2.499417930915406
  0
CIRCLE
  5
284
330
1F
100
AcDbEntity
  8
0
  6
HIDDEN
 62
     7
370
     0
100
AcDbCircle
 10
207.897219406
 20
187.8479402674
 30
0.0
 40
2.999425458819156
  0
CIRCLE
  5
285
330
1F
100
AcDbEntity
  8
0
  6
HIDDEN
 62
     7
370
     0
100
AcDbCircle
 10
207.8255158106
 20
187.8768432838
 30
0.0
 40
4.998949271274932
  0
ARC
  5
286
330
1F
100
AcDbEntity
  8
0
  6
HIDDEN
 62
     7
370
     0
100
AcDbCircle
 10
207.7343504394
 20
187.8413751881
 30
0.0
 40
2.499962363668966
100
AcDbArc
 50
288.8603609185
 51
112.1555988552
  0
CIRCLE
  5
287
330
1F
100
AcDbEntity
  8
0
  6
HIDDEN
 62
     7
370
     0
100
AcDbCircle
 10
207.7347490618
 20
187.8415246281
 30
0.0
 40
5.0
  0
LINE
  5
288
330
1F
100
AcDbEntity
  8
0
  6
HIDDEN
 62
     7
370
     0
100
AcDbLine
 10
216.9347473213
 20
200.8415251645
 30
0.0
 11
218.1347527334
 21
199.6415253404
 31
0.0
  0
LINE
  5
289
330
1F
100
AcDbEntity
  8
0
  6
HIDDEN
 62
     7
370
     0
100
AcDbLine
 10
228.3347465822
 20
199.6415253404
 30
0.0
 11
229.5347519943
 21
200.8415251645
 31
0.0
  0
LINE
  5
28A
330
1F
100
AcDbEntity
  8
0
  6
HIDDEN
 62
     7
370
     0
100
AcDbLine
 10
229.5347519943
 20
175.8415246756
 30
0.0
 11
228.3347465822
 21
177.0415246162
 31
0.0
  0
LINE
  5
28B
330
1F
100
AcDbEntity
  8
0
  6
HIDDEN
 62
     7
370
     0
100
AcDbLine
 10
218.1347527334
 20
177.0415246162
 30
0.0
 11
216.9347473213
 21
175.8415246756
 31
0.0
  0
LINE
  5
28C
330
1F
100
AcDbEntity
  8
0
  6
HIDDEN
 62
     7
370
     0
100
AcDbLine
 10
218.1347527334
 20
199.6415253404
 30
0.0
 11
218.1347527334
 21
177.0415246162
 31
0.0
  0
LINE
  5
28D
330
1F
100
AcDbEntity
  8
0
  6
HIDDEN
 62
     7
370
     0
100
AcDbLine
 10
228.3347465822
 20
177.0415246162
 30
0.0
 11
228.3347465822
 21
199.6415253404
 31
0.0
  0
LINE
  5
28E
330
1F
100
AcDbEntity
  8
0
  6
HIDDEN
 62
     7
370
     0
100
AcDbLine
 10
204.0227719376
 20
187.5824803161
 30
0.0
 11
193.5723640749
 21
177.7623100813
 31
0.0
  0
LINE
  5
28F
330
1F
100
AcDbEntity
  8
0
  6
HIDDEN
 62
     7
370
     0
100
AcDbLine
 10
197.4445425698
 20
174.5398032678
 30
0.0
 11
207.4467272291
 21
183.9387831884
 31
0.0
  0
LINE
  5
290
330
1F
100
AcDbEntity
  8
0
  6
HIDDEN
 62
     7
370
     0
100
AcDbLine
 10
145.7347490618
 20
149.5176009509
 30
0.0
 11
145.8289098995
 21
150.1875906858
 31
0.0
  0
LINE
  5
291
330
1F
100
AcDbEntity
  8
0
  6
HIDDEN
 62
     7
370
     0
100
AcDbLine
 10
145.8289098995
 20
199.4954585704
 30
0.0
 11
145.7347490618
 21
200.1654483053
 31
0.0
  0
ARC
  5
292
330
1F
100
AcDbEntity
  8
0
  6
HIDDEN
 62
     7
370
     0
100
AcDbCircle
 10
145.2347490618
 20
150.2710937664
 30
0.0
 40
0.6000000000000227
100
AcDbArc
 50
352.0
 51
0.0
  0
ARC
  5
293
330
1F
100
AcDbEntity
  8
0
  6
HIDDEN
 62
     7
370
     0
100
AcDbCircle
 10
145.2347490618
 20
150.2710937664
 30
0.0
 40
0.6000000000000227
100
AcDbArc
 50
0.0
 51
33.5573097619
  0
ARC
  5
294
330
1F
100
AcDbEntity
  8
0
  6
HIDDEN
 62
     7
370
     0
100
AcDbCircle
 10
145.2347490618
 20
199.4119554898
 30
0.0
 40
0.6000000000000258
100
AcDbArc
 50
348.75
 51
8.0
  0
LWPOLYLINE
  5
295
330
1F
100
AcDbEntity
  8
0
  6
HIDDEN
 62
     7
370
     0
100
AcDbPolyline
 90
        3
 70
   128
 43
0.0
 10
145.8232202316
 20
199.2949019793
 10
145.7890767819
 20
199.1823460582
 10
145.7347490618
 20
199.0802935931
  0
LINE
  5
296
330
1F
100
AcDbEntity
  8
0
  6
HIDDEN
 62
     7
370
     0
100
AcDbLine
 10
145.8347490592
 20
150.2710930678
 30
0.0
 11
145.8347490592
 21
199.4119561884
 31
0.0
  0
ARC
  5
297
330
1F
100
AcDbEntity
  8
0
  6
HIDDEN
 62
     7
370
     0
100
AcDbCircle
 10
139.4897510634
 20
162.8415246281
 30
0.0
 40
7.999999999999975
100
AcDbArc
 50
270.0
 51
321.3178125465
  0
ARC
  5
298
330
1F
100
AcDbEntity
  8
0
  6
HIDDEN
 62
     7
370
     0
100
AcDbCircle
 10
139.4897510634
 20
186.8415246281
 30
0.0
 40
7.999999999999975
100
AcDbArc
 50
38.6821874535
 51
90.0
  0
LINE
  5
299
330
1F
100
AcDbEntity
  8
0
  6
HIDDEN
 62
     7
370
     0
100
AcDbLine
 10
128.8171850869
 20
154.8415250751
 30
0.0
 11
139.4897511022
 21
154.8415250751
 31
0.0
  0
LINE
  5
29A
330
1F
100
AcDbEntity
  8
0
  6
HIDDEN
 62
     7
370
     0
100
AcDbLine
 10
139.4897511022
 20
194.8415241811
 30
0.0
 11
128.8171850869
 21
194.8415241811
 31
0.0
  0
ARC
  5
29B
330
1F
100
AcDbEntity
  8
0
  6
HIDDEN
 62
     7
370
     0
100
AcDbCircle
 10
128.8171846271
 20
155.4415246281
 30
0.0
 40
0.6000000000000013
100
AcDbArc
 50
210.0
 51
270.0
  0
ARC
  5
29C
330
1F
100
AcDbEntity
  8
0
  6
HIDDEN
 62
     7
370
     0
100
AcDbCircle
 10
128.8171846271
 20
194.2415246281
 30
0.0
 40
0.6000000000000155
100
AcDbArc
 50
90.0
 51
150.0
  0
LINE
  5
29D
330
1F
100
AcDbEntity
  8
0
  6
HIDDEN
 62
     7
370
     0
100
AcDbLine
 10
128.2975685576
 20
194.5415246907
 30
0.0
 11
126.7387245575
 21
191.841525552
 31
0.0
  0
LINE
  5
29E
330
1F
100
AcDbEntity
  8
0
  6
HIDDEN
 62
     7
370
     0
100
AcDbLine
 10
126.7387245575
 20
157.8415237042
 30
0.0
 11
128.2975685576
 21
155.1415245655
 31
0.0
  0
ARC
  5
29F
330
1F
100
AcDbEntity
  8
0
  6
HIDDEN
 62
     7
370
     0
100
AcDbCircle
 10
154.1847490618
 20
159.1165246281
 30
0.0
 40
1.5
100
AcDbArc
 50
238.2116693829
 51
0.0
  0
ARC
  5
2A0
330
1F
100
AcDbEntity
  8
0
  6
HIDDEN
 62
     7
370
     0
100
AcDbCircle
 10
154.1847490618
 20
190.5665246281
 30
0.0
 40
1.500000000000001
100
AcDbArc
 50
0.0
 51
121.7883306171
  0
LINE
  5
2A1
330
1F
100
AcDbEntity
  8
0
  6
HIDDEN
 62
     7
370
     0
100
AcDbLine
 10
145.7347490618
 20
157.8415237042
 30
0.0
 11
153.3945750238
 21
157.8415237042
 31
0.0
  0
LINE
  5
2A2
330
1F
100
AcDbEntity
  8
0
  6
HIDDEN
 62
     7
370
     0
100
AcDbLine
 10
153.3945750238
 20
191.841525552
 30
0.0
 11
145.7347490618
 21
191.841525552
 31
0.0
  0
LINE
  5
2A3
330
1F
100
AcDbEntity
  8
0
  6
HIDDEN
 62
     7
370
     0
100
AcDbLine
 10
114.9847482124
 20
157.8415237042
 30
0.0
 11
126.7387245575
 21
157.8415237042
 31
0.0
  0
LINE
  5
2A4
330
1F
100
AcDbEntity
  8
0
  6
HIDDEN
 62
     7
370
     0
100
AcDbLine
 10
126.7387245575
 20
191.841525552
 30
0.0
 11
114.9847482124
 21
191.841525552
 31
0.0
  0
LINE
  5
2A5
330
1F
100
AcDbEntity
  8
0
  6
HIDDEN
 62
     7
370
     0
100
AcDbLine
 10
113.8347492346
 20
157.1775726649
 30
0.0
 11
114.9847482124
 21
157.8415237042
 31
0.0
  0
LINE
  5
2A6
330
1F
100
AcDbEntity
  8
0
  6
HIDDEN
 62
     7
370
     0
100
AcDbLine
 10
114.9847482124
 20
191.841525552
 30
0.0
 11
113.8347492346
 21
192.5054765913
 31
0.0
  0
LINE
  5
2A7
330
1F
100
AcDbEntity
  8
0
  6
HIDDEN
 62
     7
370
     0
100
AcDbLine
 10
165.0347498038
 20
165.3415249336
 30
0.0
 11
167.5347492823
 21
165.3415249336
 31
0.0
  0
LINE
  5
2A8
330
1F
100
AcDbEntity
  8
0
  6
HIDDEN
 62
     7
370
     0
100
AcDbLine
 10
167.5347492823
 20
184.3415243226
 30
0.0
 11
165.0347498038
 21
184.3415243226
 31
0.0
  0
LINE
  5
2A9
330
1F
100
AcDbEntity
  8
0
  6
HIDDEN
 62
     7
370
     0
100
AcDbLine
 10
155.6847489232
 20
165.8415250155
 30
0.0
 11
156.1847490051
 21
166.3415241661
 31
0.0
  0
LINE
  5
2AA
330
1F
100
AcDbEntity
  8
0
  6
HIDDEN
 62
     7
370
     0
100
AcDbLine
 10
156.1847490051
 20
183.34152509
 30
0.0
 11
155.6847489232
 21
183.8415242407
 31
0.0
  0
LINE
  5
2AB
330
1F
100
AcDbEntity
  8
0
  6
HIDDEN
 62
     7
370
     0
100
AcDbLine
 10
156.1847490051
 20
166.3415241661
 30
0.0
 11
165.0347498038
 21
166.3415241661
 31
0.0
  0
LINE
  5
2AC
330
1F
100
AcDbEntity
  8
0
  6
HIDDEN
 62
     7
370
     0
100
AcDbLine
 10
165.0347498038
 20
183.34152509
 30
0.0
 11
156.1847490051
 21
183.34152509
 31
0.0
  0
LINE
  5
2AD
330
1F
100
AcDbEntity
  8
0
  6
HIDDEN
 62
     7
370
     0
100
AcDbLine
 10
147.7347491568
 20
148.1415252808
 30
0.0
 11
147.7347491568
 21
143.3415241214
 31
0.0
  0
LINE
  5
2AE
330
1F
100
AcDbEntity
  8
0
  6
HIDDEN
 62
     7
370
     0
100
AcDbLine
 10
157.7347491661
 20
143.3415241214
 30
0.0
 11
157.7347491661
 21
148.1415252808
 31
0.0
  0
ARC
  5
2AF
330
1F
100
AcDbEntity
  8
0
  6
HIDDEN
 62
     7
370
     0
100
AcDbCircle
 10
148.0347490618
 20
148.1415246281
 30
0.0
 40
0.3000000000000114
100
AcDbArc
 50
90.0
 51
180.0
  0
ARC
  5
2B0
330
1F
100
AcDbEntity
  8
0
  6
HIDDEN
 62
     7
370
     0
100
AcDbCircle
 10
157.4347490618
 20
148.1415246281
 30
0.0
 40
0.3000000000000114
100
AcDbArc
 50
0.0
 51
90.0
  0
LINE
  5
2B1
330
1F
100
AcDbEntity
  8
0
  6
HIDDEN
 62
     7
370
     0
100
AcDbLine
 10
203.8347490856
 20
170.6415247778
 30
0.0
 11
206.3583650419
 21
174.8415246281
 31
0.0
  0
LINE
  5
2B2
330
1F
100
AcDbEntity
  8
0
  6
HIDDEN
 62
     7
370
     0
100
AcDbLine
 10
206.3583650419
 20
174.8415246281
 30
0.0
 11
203.8347490856
 21
179.0415244783
 31
0.0
  0
LINE
  5
2B3
330
1F
100
AcDbEntity
  8
0
  6
HIDDEN
 62
     7
370
     0
100
AcDbLine
 10
167.5347492823
 20
170.6415247778
 30
0.0
 11
203.8347490856
 21
170.6415247778
 31
0.0
  0
LINE
  5
2B4
330
1F
100
AcDbEntity
  8
0
  6
HIDDEN
 62
     7
370
     0
100
AcDbLine
 10
203.8347490856
 20
179.0415244783
 30
0.0
 11
167.5347492823
 21
179.0415244783
 31
0.0
  0
LINE
  5
2B5
330
1F
100
AcDbEntity
  8
0
  6
HIDDEN
 62
     7
370
     0
100
AcDbLine
 10
217.2347523996
 20
197.2849588516
 30
0.0
 11
217.2347523996
 21
175.8415246756
 31
0.0
  0
LINE
  5
2B6
330
1F
100
AcDbEntity
  8
0
  6
HIDDEN
 62
     7
370
     0
100
AcDbLine
 10
229.234746916
 20
175.8415246756
 30
0.0
 11
229.234746916
 21
197.2849588516
 31
0.0
  0
LINE
  5
2B7
330
1F
100
AcDbEntity
  8
0
  6
HIDDEN
 62
     7
370
     0
100
AcDbLine
 10
229.234746916
 20
197.2849588516
 30
0.0
 11
228.2707460949
 21
197.8415246728
 31
0.0
  0
LINE
  5
2B8
330
1F
100
AcDbEntity
  8
0
  6
HIDDEN
 62
     7
370
     0
100
AcDbLine
 10
218.1987457702
 20
197.8415246728
 30
0.0
 11
217.2347523996
 21
197.2849588516
 31
0.0
  0
LINE
  5
2B9
330
1F
100
AcDbEntity
  8
0
  6
HIDDEN
 62
     7
370
     0
100
AcDbLine
 10
207.8218155333
 20
185.3430406797
 30
0.0
 11
207.9679847488
 21
185.3481825116
 31
0.0
  0
LINE
  5
2BA
330
1F
100
AcDbEntity
  8
0
  6
HIDDEN
 62
     7
370
     0
100
AcDbLine
 10
207.7922069261
 20
190.3450922715
 30
0.0
 11
207.6460377106
 21
190.3399504396
 31
0.0
  0
CIRCLE
  5
2BB
330
1F
100
AcDbEntity
  8
0
  6
HIDDEN
 62
     7
370
     0
100
AcDbCircle
 10
207.7347490618
 20
187.8415246281
 30
0.0
 40
5.600000000000002
  0
LINE
  5
2BC
330
1F
100
AcDbEntity
  8
0
  6
HIDDEN
 62
     7
370
     0
100
AcDbLine
 10
206.8596736321
 20
190.1833709004
 30
0.0
 11
206.7226872572
 21
190.132131395
 31
0.0
  0
LINE
  5
2BD
330
1F
100
AcDbEntity
  8
0
  6
HIDDEN
 62
     7
370
     0
100
AcDbLine
 10
208.4743746349
 20
185.4490149441
 30
0.0
 11
208.6113610098
 21
185.5002544495
 31
0.0
  0
DIMENSION
  5
2BE
330
1F
100
AcDbEntity
  8
VERMASSUNG
100
AcDbDimension
  2
_D_4
 10
245.7347490618
 20
149.8415246281
 30
0.0
 11
245.7347490618
 21
162.1195143603
 31
0.0
 70
   160
  1
<>
 71
     2
 42
-1.0
  3
SLDDIMSTYLE0
100
AcDbAlignedDimension
 13
243.4165876537
 23
174.8415246281
 33
0.0
 14
235.7347490618
 24
149.8415246281
 34
0.0
 50
90.0
100
AcDbRotatedDimension
  0
DIMENSION
  5
2C8
330
1F
100
AcDbEntity
  8
VERMASSUNG
100
AcDbDimension
  2
_D_5
 10
210.7347490618
 20
120.6328948379
 30
0.0
 11
224.3358348942
 21
120.6328948379
 31
0.0
 70
   160
  1
<>
 71
     2
 42
-1.0
  3
SLDDIMSTYLE0
100
AcDbAlignedDimension
 13
235.7347490618
 23
126.8415246281
 33
0.0
 14
210.7347490618
 24
149.8415246281
 34
0.0
100
AcDbRotatedDimension
  0
DIMENSION
  5
2D2
330
1F
100
AcDbEntity
  8
VERMASSUNG
100
AcDbDimension
  2
_D_6
 10
253.8820190064
 20
126.8415246281
 30
0.0
 11
253.8820190064
 21
150.949509125
 31
0.0
 70
   160
  1
<>
 71
     2
 42
-1.0
  3
SLDDIMSTYLE0
100
AcDbAlignedDimension
 13
243.4165876537
 23
174.8415246281
 33
0.0
 14
235.7347490618
 24
126.8415246281
 34
0.0
 50
90.0
100
AcDbRotatedDimension
  0
DIMENSION
  5
2DC
330
1F
100
AcDbEntity
  8
VERMASSUNG
100
AcDbDimension
  2
_D_7
 10
253.8820190064
 20
174.8415246281
 30
0.0
 11
253.8820190064
 21
184.1295913898
 31
0.0
 70
   160
  1
<>
 71
     2
 42
-1.0
  3
SLDDIMSTYLE0
100
AcDbAlignedDimension
 13
235.7347490618
 23
200.8415246281
 33
0.0
 14
243.4165876537
 24
174.8415246281
 34
0.0
 50
90.0
100
AcDbRotatedDimension
  0
LINE
  5
2E6
330
1F
100
AcDbEntity
  8
VERMASSUNG
  6
CENTERX2
 62
     7
370
     0
100
AcDbLine
 10
205.6413070976
 20
187.767882717
 30
0.0
 11
209.8976291993
 21
187.9176091958
 31
0.0
  0
LINE
  5
2E7
330
1F
100
AcDbEntity
  8
VERMASSUNG
  6
CENTERX2
 62
     7
370
     0
100
AcDbLine
 10
111.6560659605
 20
174.8415246281
 30
0.0
 11
243.4165876537
 21
174.8415246281
 31
0.0
  0
LINE
  5
2E8
330
1F
100
AcDbEntity
  8
VERMASSUNG
  6
CENTERX2
 62
     7
370
     0
100
AcDbLine
 10
207.7982873699
 20
187.6997233769
 30
0.0
 11
192.9693166103
 21
173.7650489803
 31
0.0
  0
LINE
  5
2E9
330
1F
100
AcDbEntity
  8
VERMASSUNG
  6
CENTERX2
 62
     7
370
     0
100
AcDbLine
 10
209.6967285261
 20
188.575390399
 30
0.0
 11
205.7076919537
 21
187.083316984
 31
0.0
  0
OLE2FRAME
  5
2EA
330
1F
100
AcDbEntity
  8
0
100
AcDbOle2Frame
 70
     2
  3
Paintbrush-Bild
 10
13.8511154363
 20
38.264191557
 30
0.0
 11
51.6290888628
 21
31.9806341108
 31
0.0
 71
     2
 72
     0
 73
     1
 90
    12928
310
80552BED0767C5B32B40DDAF6807D121434000000000000000006FFBDDFB85D0
310
4940DDAF6807D121434000000000000000006FFBDDFB85D04940416F4BD60AFB
310
3F4000000000000000002BED0767C5B32B40416F4BD60AFB3F40000000000000
310
0000000000000100000000010000010000000100000000000100000000320000
310
D0CF11E0A1B11AE1000000000000000000000000000000003E000300FEFF0900
310
0600000000000000000000000100000001000000000000000010000002000000
310
01000000FEFFFFFF0000000000000000FFFFFFFFFFFFFFFFFFFFFFFFFFFFFFFF
310
FFFFFFFFFFFFFFFFFFFFFFFFFFFFFFFFFFFFFFFFFFFFFFFFFFFFFFFFFFFFFFFF
310
FFFFFFFFFFFFFFFFFFFFFFFFFFFFFFFFFFFFFFFFFFFFFFFFFFFFFFFFFFFFFFFF
310
FFFFFFFFFFFFFFFFFFFFFFFFFFFFFFFFFFFFFFFFFFFFFFFFFFFFFFFFFFFFFFFF
310
FFFFFFFFFFFFFFFFFFFFFFFFFFFFFFFFFFFFFFFFFFFFFFFFFFFFFFFFFFFFFFFF
310
FFFFFFFFFFFFFFFFFFFFFFFFFFFFFFFFFFFFFFFFFFFFFFFFFFFFFFFFFFFFFFFF
310
FFFFFFFFFFFFFFFFFFFFFFFFFFFFFFFFFFFFFFFFFFFFFFFFFFFFFFFFFFFFFFFF
310
FFFFFFFFFFFFFFFFFFFFFFFFFFFFFFFFFFFFFFFFFFFFFFFFFFFFFFFFFFFFFFFF
310
FFFFFFFFFFFFFFFFFFFFFFFFFFFFFFFFFFFFFFFFFFFFFFFFFFFFFFFFFFFFFFFF
310
FFFFFFFFFFFFFFFFFFFFFFFFFFFFFFFFFFFFFFFFFFFFFFFFFFFFFFFFFFFFFFFF
310
FFFFFFFFFFFFFFFFFFFFFFFFFFFFFFFFFFFFFFFFFFFFFFFFFFFFFFFFFFFFFFFF
310
FFFFFFFFFFFFFFFFFFFFFFFFFFFFFFFFFFFFFFFFFFFFFFFFFFFFFFFFFFFFFFFF
310
FFFFFFFFFFFFFFFFFFFFFFFFFFFFFFFFFFFFFFFFFFFFFFFFFFFFFFFFFFFFFFFF
310
FFFFFFFFFFFFFFFFFFFFFFFFFFFFFFFFFFFFFFFFFFFFFFFFFFFFFFFFFFFFFFFF
310
FDFFFFFFFEFFFFFFFEFFFFFFFEFFFFFF05000000060000000700000008000000
310
090000000A0000000B0000000C0000000D0000000E0000000F00000010000000
310
11000000120000001300000014000000150000001600000017000000FEFFFFFF
310
FFFFFFFFFFFFFFFFFFFFFFFFFFFFFFFFFFFFFFFFFFFFFFFFFFFFFFFFFFFFFFFF
310
FFFFFFFFFFFFFFFFFFFFFFFFFFFFFFFFFFFFFFFFFFFFFFFFFFFFFFFFFFFFFFFF
310
FFFFFFFFFFFFFFFFFFFFFFFFFFFFFFFFFFFFFFFFFFFFFFFFFFFFFFFFFFFFFFFF
310
FFFFFFFFFFFFFFFFFFFFFFFFFFFFFFFFFFFFFFFFFFFFFFFFFFFFFFFFFFFFFFFF
310
FFFFFFFFFFFFFFFFFFFFFFFFFFFFFFFFFFFFFFFFFFFFFFFFFFFFFFFFFFFFFFFF
310
FFFFFFFFFFFFFFFFFFFFFFFFFFFFFFFFFFFFFFFFFFFFFFFFFFFFFFFFFFFFFFFF
310
FFFFFFFFFFFFFFFFFFFFFFFFFFFFFFFFFFFFFFFFFFFFFFFFFFFFFFFFFFFFFFFF
310
FFFFFFFFFFFFFFFFFFFFFFFFFFFFFFFFFFFFFFFFFFFFFFFFFFFFFFFFFFFFFFFF
310
FFFFFFFFFFFFFFFFFFFFFFFFFFFFFFFFFFFFFFFFFFFFFFFFFFFFFFFFFFFFFFFF
310
FFFFFFFFFFFFFFFFFFFFFFFFFFFFFFFFFFFFFFFFFFFFFFFFFFFFFFFFFFFFFFFF
310
FFFFFFFFFFFFFFFFFFFFFFFFFFFFFFFFFFFFFFFFFFFFFFFFFFFFFFFFFFFFFFFF
310
FFFFFFFFFFFFFFFFFFFFFFFFFFFFFFFFFFFFFFFFFFFFFFFFFFFFFFFFFFFFFFFF
310
FFFFFFFFFFFFFFFFFFFFFFFFFFFFFFFFFFFFFFFFFFFFFFFFFFFFFFFFFFFFFFFF
310
52006F006F007400200045006E00740072007900000000000000000000000000
310
0000000000000000000000000000000000000000000000000000000000000000
310
16000500FFFFFFFFFFFFFFFF020000000A00030000000000C000000000000046
310
000000000000000000000000209C8945EE97CE0103000000C000000000000000
310
01004F006C006500000000000000000000000000000000000000000000000000
310
0000000000000000000000000000000000000000000000000000000000000000
310
0A000200FFFFFFFFFFFFFFFFFFFFFFFF00000000000000000000000000000000
310
0000000000000000000000000000000000000000000000001400000000000000
310
010043006F006D0070004F0062006A0000000000000000000000000000000000
310
0000000000000000000000000000000000000000000000000000000000000000
310
120002010100000003000000FFFFFFFF00000000000000000000000000000000
310
0000000000000000000000000000000000000000010000004D00000000000000
310
01004F006C006500310030004E00610074006900760065000000000000000000
310
0000000000000000000000000000000000000000000000000000000000000000
310
1A000200FFFFFFFFFFFFFFFFFFFFFFFF00000000000000000000000000000000
310
0000000000000000000000000000000000000000040000002426000000000000
310
FEFFFFFF02000000FEFFFFFFFFFFFFFFFFFFFFFFFFFFFFFFFFFFFFFFFFFFFFFF
310
FFFFFFFFFFFFFFFFFFFFFFFFFFFFFFFFFFFFFFFFFFFFFFFFFFFFFFFFFFFFFFFF
310
FFFFFFFFFFFFFFFFFFFFFFFFFFFFFFFFFFFFFFFFFFFFFFFFFFFFFFFFFFFFFFFF
310
FFFFFFFFFFFFFFFFFFFFFFFFFFFFFFFFFFFFFFFFFFFFFFFFFFFFFFFFFFFFFFFF
310
FFFFFFFFFFFFFFFFFFFFFFFFFFFFFFFFFFFFFFFFFFFFFFFFFFFFFFFFFFFFFFFF
310
FFFFFFFFFFFFFFFFFFFFFFFFFFFFFFFFFFFFFFFFFFFFFFFFFFFFFFFFFFFFFFFF
310
FFFFFFFFFFFFFFFFFFFFFFFFFFFFFFFFFFFFFFFFFFFFFFFFFFFFFFFFFFFFFFFF
310
FFFFFFFFFFFFFFFFFFFFFFFFFFFFFFFFFFFFFFFFFFFFFFFFFFFFFFFFFFFFFFFF
310
FFFFFFFFFFFFFFFFFFFFFFFFFFFFFFFFFFFFFFFFFFFFFFFFFFFFFFFFFFFFFFFF
310
FFFFFFFFFFFFFFFFFFFFFFFFFFFFFFFFFFFFFFFFFFFFFFFFFFFFFFFFFFFFFFFF
310
FFFFFFFFFFFFFFFFFFFFFFFFFFFFFFFFFFFFFFFFFFFFFFFFFFFFFFFFFFFFFFFF
310
FFFFFFFFFFFFFFFFFFFFFFFFFFFFFFFFFFFFFFFFFFFFFFFFFFFFFFFFFFFFFFFF
310
FFFFFFFFFFFFFFFFFFFFFFFFFFFFFFFFFFFFFFFFFFFFFFFFFFFFFFFFFFFFFFFF
310
FFFFFFFFFFFFFFFFFFFFFFFFFFFFFFFFFFFFFFFFFFFFFFFFFFFFFFFFFFFFFFFF
310
FFFFFFFFFFFFFFFFFFFFFFFFFFFFFFFFFFFFFFFFFFFFFFFFFFFFFFFFFFFFFFFF
310
FFFFFFFFFFFFFFFFFFFFFFFFFFFFFFFFFFFFFFFFFFFFFFFFFFFFFFFFFFFFFFFF
310
0100000200000000000000000000000000000000000000000000000000000000
310
0000000000000000000000000000000000000000000000000000000000000000
310
0100FEFF030A0000FFFFFFFF0A00030000000000C00000000000004607000000
310
5042727573680007000000504272757368000700000050427275736800F439B2
310
7100000000000000000000000000000000000000000000000000000000000000
310
0000000000000000000000000000000000000000000000000000000000000000
310
0000000000000000000000000000000000000000000000000000000000000000
310
0000000000000000000000000000000000000000000000000000000000000000
310
0000000000000000000000000000000000000000000000000000000000000000
310
0000000000000000000000000000000000000000000000000000000000000000
310
0000000000000000000000000000000000000000000000000000000000000000
310
0000000000000000000000000000000000000000000000000000000000000000
310
0000000000000000000000000000000000000000000000000000000000000000
310
0000000000000000000000000000000000000000000000000000000000000000
310
0000000000000000000000000000000000000000000000000000000000000000
310
0000000000000000000000000000000000000000000000000000000000000000
310
20260000424D0E260000000000003E00000028000000B40200006E0000000100
310
01000000000000000000130B0000130B00000200000002000000000000FFFFFF
310
FFFFFFFFFFFFFFFFFFFFFFFFFFFFFFFFFFFFFFFFFFFFFFFFFFFFFFFFFFFFFFFF
310
FFFFFFFFFFFFFFFFFFFFFFFFFFFFFFFFFFFFFFFFFFFFFFFFFFFFFFFFFFFFFFFF
310
FFFFFFFFFFFFFFFFFFFFFFFFFFFFFFFFFFFFFFFFFFFFFFFFF000FFFFFFFFFFFF
310
FFFFFFFFFFFFFFFFFFFFFFFFFFFFFFFFFFFFFFFFFFFFFFFFFFFFFFFFFFFFFFFF
310
FFFFFFFFFFFFFFFFFFFFFFFFFFFFFFFFFFFFFFFFFFFFFFFFFFFFFFFFFFFFFFFF
310
FFFFFFFFFFFFFFFFFFFFFFFFFFFFFFFFF000FFFFFFFFFFFFFFFFFFFFFFFFFFFF
310
FFFFFFFFFFFFFFFFFFFFFFFFFFFFFFFFFFFFFFFFFFFFFFFFFFFFFFFFFFFFFFFF
310
FFFFFFFFFFFFFFFFFFFFFFFFFFFFFFFFFFFFFFFFFFFFFFFFFFFFFFFFFFFFFFFF
310
FFFFFFFFFFFFFFFFF000FFFFFFFFFFFFFFFFFFFFFFFFFFFFFFFFFFFFFFFFFFFF
310
FFFFFFFFFFFFFFFFFFFFFFFFFFFFFFFFFFFFFFFFFFFFFFFFFFFFFFFFFFFFFFFF
310
FFFFFFFFFFFFFFFFFFFFFFFFFFFFFFFFFFFFFFFFFFFFFFFFFFFFFFFFFFFFFFFF
310
F000FFFFFFFFFFFFFFFFFFFFFFFFFFFFFFFFFFFFFFFFFFFFFFFFFFFFFFFFFFFF
310
FFFFFFFFFFFFFFFFFFFFFFFFFFFFFFFFFFFFFFFFFFFFFFFFFFFFFFFFFFFFFFFF
310
FFFFFFFFFFFFFFFFFFFFFFFFFFFFFFFFFFFFFFFFFFFFFFFFF000FFFFFFFFFFFF
310
FFFFFFFFFFFFFFFFFFFFFFFFFFFFFFFFFFFFFFFFFFFFFFFFFFFFFFFFFFFFFFFF
310
FFFFFFFFFFFFFFFFFFFFFFFFFFFFFFFFFFFFFFFFFFFFFFFFFFFFFFFFFFFFFFFF
310
FFFFFFFFFFFFFFFFFFFFFFFFFFFFFFFFF000FFFFFFFFFFFFFFFFFFFFFFFFFFFF
310
FFFFFFFFFFFFFFFFFFFFFFFFFFFFFFFFFFFFFFFFFFFFFFFFFFFFFFFFFFFFFFFF
310
FFFFFFFFFFFFFFFFFFFFFFFFFFFFFFFFFFFFFFFFFFFFFFFFFFFFFFFFFFFFFFFF
310
FFFFFFFFFFFFFFFFF000FFFFFFFFFFFFFFFFFFFFFFFFFFFFFFFFFFFFFFFFFFFF
310
FFFFFFFFFFFFFFFFFFFFFFFFFFFFFFFFFFFFFFFFFFFFFFFFFFFFFFFFFFFFFFFF
310
FFFFFFFFFFFFFFFFFFFFFFFFFFFFFFFFFFFFFFFFFFFFFFFFFFFFFFFFFFFFFFFF
310
F000FFFFFFFFFFFFFFFFFFFFFFFFFFFFFFFFFFFFFFFFFFFFFFFFFFFFFFFFFFFF
310
FFFFFFFFFFFFFFFFFFFFFFFFFFFFFFFFFFFFFFFFFFFFFFFFFFFFFFFFFFFFFFFF
310
FFFFFFFFFFFFFFFFFFFFFFFFFFFFFFFFFFFFFFFFFFFFFFFFF000FFFFFFFFFFFF
310
FFFFFFFFFFFFFFFFFFFFFFFFFFFFFFFFFFFFFFFFFFFFFFFFFFFFFFFFFFFFFFFF
310
FFFFFFFFFFFFFFFFFFFFFFFFFFFFFFFFFFFFFFFFFFFFFFFFFFFFFFFFFFFFFFFF
310
FFFFFFFFFFFFFFFFFFFFFFFFFFFFFFFFF000FFFFFFFFFFFFFFFFFFFFFFFFFFFF
310
FFFFFFFFFFFFFFFFFFFFFFFFFFFFFFFFFFFFFFFFFFFFFFFFFFFFFFFFFFFFFFFF
310
FFFFFFFFFFFFFFFFFFFFFFFFFFFFFFFFFFFFFFFFFFFFFFFFFFFFFFFFFFFFFFFF
310
FFFFFFFFFFFFFFFFF000FFFFFFFFFFFFFFFFFFFFFFFFFFFFFFFFFFFFFFFFFFFF
310
FFFFFFFFFFFFFFFFFFFFFFFFFFFFFFFFFFFFFFFFFFFFFFFFFFFFFFFFFFFFFFFF
310
FFFFFFFFFFFFFFFFFFFFFFFFFFFFFFFFFFFFFFFFFFFFFFFFFFFFFFFFFFFFFFFF
310
F000FFFFFFFFFFFFFFFFFFFFFFFFFFFFFFFFFFFFFFFFFFFFFFFFFFFFFFFFFFFF
310
FFFFFFFFFFFFFFFFFFFFFFFFFFFFFFFFFFFFFFFFFFFFFFFFFFFFFFFFFFFFFFFF
310
FFFFFFFFFFFFFFFFFFFFFFFFFFFFFFFFFFFFFFFFFFFFFFFFF000FFFFFFFFFFFF
310
FFFFFFFFFFFFFFFFFFFFFFFFFFFFFFFFFFFFFFFFFFFFFFFFFFFFFFFFFFFFFFFF
310
FFFFFFFFFFFFFFFFFFFFFFFFFFFFFFFFFFFFFFFFFFFFFFFFFFFFFFFFFFFFFFFF
310
FFFFFFFFFFFFFFFFFFFFFFFFFFFFFFFFF000FFFFFFFFFFFFFFFFFFFFFFFFFFFF
310
FFFFFFFFFFFFFFFFFFFFFFFFFFFFFFFFFFFFFFFFFFFFFFFFFFFFFFFFFFFFFFFF
310
FFFFFFFFFFFFFFFFFFFFFFFFFFFFFFFFFFFFFFFFFFFFFFFFFFFFFFFFFFFFFFFF
310
FFFFFFFFFFFFFFFFF000FFFFFFFFFFFFFFFFFFFFFFFFFFFFFFFFFFFFFFFFFFFF
310
FFFFFFFFFFFFFFFFFFFFFFFFFFFFFFFFFFFFFFFFFFFFFFFFFFFFFFFFFFFFFFFF
310
FFFFFFFFFFFFFFFFFFFFFFFFFFFFFFFFFFFFFFFFFFFFFFFFFFFFFFFFFFFFFFFF
310
F000FFFFFFFFFFFFFFFFFFFFFFFFFFFFFFFFFFFFFFFFFFFFFFFFFFFFFFFFFFFF
310
FFFFFFFFFFFFFFFFFFFFFFFFFFFFFFFFFFFFFFFFFFFFFFFFFFFFFFFFFFFFFFFF
310
FFFFFFFFFFFFFFFFFFFFFFFFFFFFFFFFFFFFFFFFFFFFFFFFF000FFFFFFFFFFFF
310
FFFFFFFFFFFFFFFFFFFFFFFFFFFFFFFFFFFFFFFFFFFFFFFFFFFFFFFFFFFFFFFF
310
FFFFFFFFFFFFFFFFFFFFFFFFFFFFFFFFFFFFFFFFFFFFFFFFFFFFFFFFFFFFFFFF
310
FFFFFFFFFFFFFFFFFFFFFFFFFFFFFFFFF000FFFFFFFFFFFFFFFFFFFFFFFFFFFF
310
FFFFFFFFFFFFFFFFFFFFFFFFFFFFFFFFFFFFFFFFFFFFFFFFFFFFFFFFFFFFFFFF
310
FFFFFFFFFFFFFFFFFFFFFFFFFFFFFFFFFFFFFFFFFFFFFFFFFFFFFFFFFFFFFFFF
310
FFFFFFFFFFFFFFFFF000FFFFF80003FFFFFFFFFFFFFFFFFFFFFFFFFFFFFFFFFF
310
FFFFF00007FFFFFFFFFF00007FFFFFF800000000000000007FFFFFFFFFFFFFFF
310
FFFFFFFC001FFFFFFFFFFFFFFC001FFFFFFFFFFFFFFFFFFFFFFFFFFE0007FFFF
310
F000FFFF8000007FFFFFFFF8000FFFFFC0007FFFFF80007FFFFF0000007FFFFF
310
FFF8000007FFFFF800000000000000007FFFFFF0001FFFFFFFFFFFC00001FFFF
310
FFFFFFFFC00001FFFFFFFF000000000003FFFFE000007FFFF000FFFE0000000F
310
FFFFFFF0000FFFFF80007FFFFF80007FFFFC0000001FFFFFFFC0000001FFFFF8
310
00000000000000007FFFFFF0001FFFFFFFFFFE0000003FFFFFFFFFFE0000003F
310
FFFFFF000000000003FFFF0000000FFFF000FFF800000003FFFFFFF00007FFFF
310
80007FFFFF80007FFFF000000007FFFFFF000000003FFFF80000000000000000
310
7FFFFFF0001FFFFFFFFFF80000000FFFFFFFFFF80000000FFFFFFF0000000000
310
03FFFC00000003FFF000FFE000000000FFFFFFF00007FFFF80003FFFFF80007F
310
FFC000000001FFFFFC000000001FFFF800000000000000007FFFFFF0001FFFFF
310
FFFFE000000003FFFFFFFFE000000003FFFFFF000000000003FFF000000000FF
310
F000FF80000000007FFFFFF00007FFFF80003FFFFF80007FFF8000000000FFFF
310
F80000000007FFF800000000000000007FFFFFF0001FFFFFFFFFC000000001FF
310
FFFFFFC000000001FFFFFF000000000003FFC0000000007FF000FF0000000000
310
3FFFFFE00007FFFF00003FFFFF80007FFE00000000003FFFF00000000003FFF8
310
00000000000000007FFFFFF0001FFFFFFFFF8000000000FFFFFFFF8000000000
310
FFFFFF000000000003FF80000000003FF000FE00000000001FFFFFE00003FFFF
310
00003FFFFF80007FFC00000000001FFFE00000000001FFF8000001FFFE000000
310
7FFFFFF0001FFFFFFFFE00000000003FFFFFFE00000000003FFFFF0000000000
310
03FF00000000001FF000FC00000000000FFFFFE00003FFFF00001FFFFF80007F
310
F800000000001FFFC00000000000FFF8000001FFFE0000007FFFFFF0001FFFFF
310
FFFC00000000001FFFFFFC00000000001FFFFF000000000003FE00000000000F
310
F000F8000000000007FFFFE00003FFFF00001FFFFF80007FF800000000000FFF
310
800000000000FFF8000001FFFE0000007FFFFFF0001FFFFFFFF800000000000F
310
FFFFF800000000000FFFFF000000000003FC000000000007F000F80000000000
310
03FFFFC00003FFFE00001FFFFF80007FF0000000000007FF0000000000007FF8
310
000001FFFE0000007FFFFFF0001FFFFFFFF0000000000007FFFFF00000000000
310
07FFFF000000000003F8000000000003F000F0000000000003FFFFC00001FFFE
310
00001FFFFF80007FE0000000000007FE0000000000003FF8000001FFFE000000
310
7FFFFFF0001FFFFFFFF0000000000007FFFFF0000000000007FFFF0000000000
310
03F800001F800003F000E00001FFF00001FFFFC00001FFFE00000FFFFF80007F
310
E00001FFE00003FE00001FFF00003FF8000001FFFE0000007FFFFFF0001FFFFF
310
FFE000003E000003FFFFE000003E000003FFFF000000000003F00001FFF80001
310
F000E00007FFFC0001FFFFC00001FFFE00000FFFFF80007FC0000FFFFC0003FC
310
0000FFFFC0001FF8000001FFFE0000007FFFFFF0001FFFFFFFC00003FFE00001
310
FFFFC00003FFE00001FFFF0001FFFFFFFFF00007FFFE0001F000E0000FFFFF00
310
00FFFF800001FFFC00000FFFFF80007FC0001FFFFE0001FC0001FFFFE0001FF8
310
000001FFFE0000007FFFFFF0001FFFFFFF80000FFFF80000FFFF80000FFFF800
310
00FFFF0003FFFFFFFFE0000FFFFF8000F000C0003FFFFF8000FFFF800000FFFC
310
000007FFFF80007F80003FFFFF0001FC0003FFFFF0001FF8000001FFFE000000
310
7FFFFFF0001FFFFFFF80003FFFFE0000FFFF80003FFFFE0000FFFF0003FFFFFF
310
FFE0003FFFFF8000F000C0003FFFFF8000FFFF800000FFFC000007FFFF80007F
310
80007FFFFF8001F80007FFFFF8000FF8000001FFFE0000007FFFFFF0001FFFFF
310
FF00007FFFFF00007FFF00007FFFFF00007FFF0003FFFFFFFFE0003FFFFFC000
310
F000C0007FFFFFC000FFFF000000FFFC000007FFFF80007F8000FFFFFF8000F8
310
000FFFFFF8000FF8000001FFFE0000007FFFFFF0001FFFFFFF0000FFFFFF8000
310
7FFF0000FFFFFF80007FFF0003FFFFFFFFC0007FFFFFC00070008000FFFFFFC0
310
00FFFF000000FFF8000007FFFF80007F8000FFFFFF8000F8000FFFFFF8000FF8
310
000001FFFE0000007FFFFFF0001FFFFFFE0001FFFFFFC0003FFE0001FFFFFFC0
310
003FFF0003FFFFFFFFC0007FFFFFE00070008000FFFFFFC0007FFF0000007FF8
310
000003FFFF80007F0001FFFFFF8000F8000FFFFFF8000FF8000001FFFE000000
310
7FFFFFF0001FFFFFFE0001FFFFFFC0003FFE0001FFFFFFC0003FFF0003FFFFFF
310
FFC000FFFFFFE00070008000FFFFFFC0007FFF0000007FF8000003FFFF80007F
310
0001FFFFFF8000F8001FFFFFF8000FF8000001FFFE0000007FFFFFF0001FFFFF
310
FE0003FFFFFFE0003FFE0003FFFFFFE0003FFF0003FFFFFFFFC000FFFFFFE000
310
70008000FFFFFFC0007FFE0000007FF8000003FFFF80007F0001FFFFFF8000F0
310
001FFFFFF8000FF8000001FFFE0000007FFFFFF0001FFFFFFC0003FFFFFFE000
310
1FFC0003FFFFFFE0001FFF0003FFFFFFFFC000FFFFFFC00070008000FFFFFF80
310
007FFE0000007FF0000003FFFF80007F0001FFFFFF0000F0001FFFFFF8000FF8
310
000001FFFE0000007FFFFFF0001FFFFFFC0007FFFFFFF0001FFC0007FFFFFFF0
310
001FFF0003FFFFFFFFC000FFFFFFC00070008001FFFFFF0000FFFE0000003FF0
310
000001FFFF80007F0001FFFFFF0000F8001FFFFFF0000FF8000001FFFE000000
310
7FFFFFF0001FFFFFFC0007FFFFFFF0001FFC0007FFFFFFF0001FFF0003FFFFFF
310
FFC001FFFFFF80007000FFFFFFFFFE0000FFFE0008003FF0008001FFFF80007F
310
FFFFFFFFFC0000FFFFFFFFFFE0000FF8000001FFFE0000007FFFFFF0001FFFFF
310
F8000FFFFFFFF8000FF8000FFFFFFFF8000FFF0003FFFFFFFFFFFFFFFFFF0000
310
7000FFFFFFFFFC0000FFFC0008003FF0008001FFFF80007FFFFFFFFFF80001FF
310
FFFFFFFF80000FF8000001FFFE0000007FFFFFF0001FFFFFF8000FFFFFFFF800
310
0FF8000FFFFFFFF8000FFF0003FFFFFFFFFFFFFFFFFE0000F000FFFFFFFFE000
310
00FFFC000C003FE000C001FFFF80007FFFFFFFFFC00001FFFFFFFFFE00001FF8
310
000001FFFE0000007FFFFFF0001FFFFFF8000FFFFFFFF8000FF8000FFFFFFFF8
310
000FFF0003FFFFFFFFFFFFFFFFF00000F000FFFFFFFE000001FFFC000C001FE0
310
00C000FFFF80007FFFFFFFFE000001FFFFFFFFE000001FF80FFFFFFFFFFFFFC0
310
7FFFFFF0001FFFFFF8000FFFFFFFF8000FF8000FFFFFFFF8000FFF0003FFFFFF
310
FFFFFFFFFF800000F000FFFFFFC0000001FFFC001C001FE001C000FFFF80007F
310
FFFFFF80000003FFFFFFF80000001FF80FFFFFFFFFFFFFC07FFFFFF0001FFFFF
310
F8001FFFFFFFFC000FF8001FFFFFFFFC000FFF0003FFFFFFFFFFFFFFF0000001
310
F000FFFFF800000001FFF8001C001FE001C000FFFF80007FFFFFF800000003FF
310
FFFF800000003FF80FFFFFFFFFFFFFC07FFFFFF0001FFFFFF8001FFFFFFFFC00
310
0FF8001FFFFFFFFC000FFF0003FFFFFFFFFFFFFE00000001F000FFFFC0000000
310
03FFF8001E001FC001E000FFFF80007FFFFF8000000007FFFFFC000000003FF8
310
0FFFFFFFFFFFFFC07FFFFFF0001FFFFFF8001FFFFFFFFC000FF8001FFFFFFFFC
310
000FFF0003FFFFFFFFFFFFE000000003F000FFFE0000000007FFF8001E000FC0
310
01E0007FFF80007FFFFE0000000007FFFFE0000000007FF80FFFFFFFFFFFFFC0
310
7FFFFFF0001FFFFFF0001FFFFFFFFC0007F0001FFFFFFFFC0007FF0003FFFFFF
310
FFFFFF0000000003F000FFF80000000007FFF8001E000FC003E0007FFF80007F
310
FFF0000000000FFFFF8000000000FFF80FFFFFFFFFFFFFC07FFFFFF0001FFFFF
310
F0001FFFFFFFFC0007F0001FFFFFFFFC0007FF0003FFFFFFFFFFFC0000000007
310
F000FFE0000000000FFFF0003E000FC003E0007FFF80007FFFC0000000001FFF
310
FE0000000001FFF80FFFFFFFFFFFFFC07FFFFFF0001FFFFFF0001FFFFFFFFC00
310
07F0001FFFFFFFFC0007FF0003FFFFFFFFFFF0000000000FF000FFC000000000
310
1FFFF0003F000F8003F0003FFF80007FFF80000000003FFFF80000000003FFF8
310
0FFFFFFFFFFFFFC07FFFFFF0001FFFFFF0001FFFFFFFFC0007F0001FFFFFFFFC
310
0007FF0003FFFFFFFFFFE0000000001FF000FF00000000007FFFF0003F000780
310
03F0003FFF80007FFF00000000007FFFF00000000007FFF80FFFFFFFFFFFFFC0
310
7FFFFFF0001FFFFFF0001FFFFFFFFC0007F0001FFFFFFFFC0007FF0003FFFFFF
310
FFFF80000000007FF000FE0000000000FFFFE0003F00078007F0003FFF80007F
310
FE0000000001FFFFE0000000001FFFF80FFFFFFFFFFFFFC07FFFFFF0001FFFFF
310
F0001FFFFFFFFC0007F0001FFFFFFFFC0007FF0003FFFFFFFFFF0000000000FF
310
F000FC0000000003FFFFE0007F00078007F0003FFF80007FFC0000000007FFFF
310
C0000000007FFFF80FFFFFFFFFFFFFC07FFFFFF0001FFFFFF8001FFFFFFFFC00
310
0FF8001FFFFFFFFC000FFF0003FFFFFFFFFE0000000003FFF000FC000000000F
310
FFFFE0007F80070007F8001FFF80007FF8000000001FFFFF8000000001FFFFF8
310
0FFFFFFFFFFFFFC07FFFFFF0001FFFFFF8001FFFFFFFFC000FF8001FFFFFFFFC
310
000FFF0003FFFFFFFFFC000000000FFFF000F8000000007FFFFFE0007F800700
310
07F8001FFF80007FF000000000FFFFFF800000000FFFFFF80FFFFFFFFFFFFFC0
310
7FFFFFF0001FFFFFF8000FFFFFFFF8000FF8000FFFFFFFF8000FFF0003FFFFFF
310
FFFC000000007FFFF000F800000007FFFFFFC0007F8003000FF8001FFF80007F
310
F000000007FFFFFF000000007FFFFFF80FFFFFFFFFFFFFC07FFFFFF0001FFFFF
310
F8000FFFFFFFF8000FF8000FFFFFFFF8000FFF0003FFFFFFFFF80000000FFFFF
310
F000F0000000FFFFFFFFC000FF8003000FF8001FFF80007FE0000000FFFFFFFF
310
0000000FFFFFFFF8000001FFFE0000007FFFFFF0001FFFFFF8000FFFFFFFF800
310
0FF8000FFFFFFFF8000FFF0003FFFFFFFFF8000000FFFFFFF000F000000FFFFF
310
FFFFC000FFC002000FF8000FFF80007FE000001FFFFFFFFE000001FFFFFFFFF8
310
000001FFFE0000007FFFFFF0001FFFFFF8000FFFFFFFF8000FF8000FFFFFFFF8
310
000FFF0003FFFFFFFFF000001FFFFFFFF000E00000FFFFFFFFFFC000FFC00200
310
0FFC000FFF80007FE00001FFFFFFFFFE00001FFFFFFFFFF8000001FFFE000000
310
7FFFFFF0001FFFFFFC000FFFFFFFF8001FFC000FFFFFFFF8001FFF0003FFFFFF
310
FFF00001FFFFFFFFF000E00007FFFFFFFFFF8000FFC000001FFC000FFF80007F
310
C0000FFFFFFFFFFE0000FFFFFFFFFFF8000001FFFE0000007FFFFFF0001FFFFF
310
FC0007FFFFFFF0001FFC0007FFFFFFF0001FFF0003FFFFFFFFF00007FFFFFFFF
310
F000E0001FFFFFFFFFFF8000FFC000001FFC000FFF80007FC0003FFFFFFFFFFE
310
0001FFFFFFFFFFF8000001FFFE0000007FFFFFF0001FFFFFFC0007FFFFFFF000
310
1FFC0007FFFFFFF0001FFF0003FFFFFFFFF0001FFFFFFFFFF000E0003FFFFF00
310
03FF8001FFE000001FFC0007FF80007FC0007FFFFF0007FC0003FFFFF0003FF8
310
000001FFFE0000007FFFFFF0001FFFFFFC0003FFFFFFE0001FFC0003FFFFFFE0
310
001FFF0003FFFFFFFFF0003FFFFFFFFFF000E0003FFFFF0001FF8001FFE00000
310
1FFE0007FF80007FC0007FFFFE0003FC0007FFFFE0003FF8000001FFFE000000
310
7FFFFFF0001FFFFFFE0003FFFFFFE0003FFE0003FFFFFFE0003FFF0003FFFFFF
310
FFF0003FFFFF8001F000E0003FFFFF0001FF0001FFE000001FFE0007FF80007F
310
C0007FFFFE0003FC0007FFFFE0003FF8000001FFFE0000007FFFFFF0001FFFFF
310
FE0001FFFFFFC0003FFE0001FFFFFFC0003FFF0003FFFFFFFFF0003FFFFF0001
310
F000E0003FFFFF0003FF0001FFE000003FFE0007FF80007FC0007FFFFE0003FC
310
0007FFFFE0003FF8000001FFFE0000007FFFFFF0001FFFFFFF0001FFFFFFC000
310
7FFF0001FFFFFFC0007FFF0003FFFFFFFFF0003FFFFF0001F000E0003FFFFE00
310
03FF0003FFF000003FFE0003FF80007FC0007FFFFC0003FE0007FFFFE0003FF8
310
000001FFFE0000007FFFFFF0001FFFFFFF0000FFFFFF80007FFF0000FFFFFF80
310
007FFF0003FFFFFFFFF0003FFFFF0001F000E0003FFFFE0003FF0003FFF00000
310
3FFF0003FF80007FC0007FFFFC0007FE0007FFFFC0003FF8000001FFFE000000
310
7FFFFFF0001FFFFFFF80007FFFFF0000FFFF80007FFFFF0000FFFF0003FFFFFF
310
FFF0003FFFFF0003F000E0003FFFFC0003FE0003FFF000003FFF0003FF80007F
310
E0003FFFF80007FE0003FFFFC0007FF8000001FFFE0000007FFFFFF0001FFFFF
310
FF80003FFFFE0000FFFF80003FFFFE0000FFFF0003FFFFFFFFF0001FFFFE0003
310
F000F0001FFFF80003FE0003FFF000007FFF0001FF80007FE0003FFFF00007FE
310
0001FFFF80007FF8000001FFFE0000007FFFFFF0001FFFFFFFC0000FFFF80001
310
FFFFC0000FFFF80001FFFF0003FFFFFFFFF0001FFFFC0003F000F0000FFFF000
310
07FE0007FFF800007FFF0001FF80007FE0001FFFE00007FF0000FFFE00007FF8
310
000001FFFE0000007FFFFFF0001FFFFFFFC00003FFE00001FFFFC00003FFE000
310
01FFFF0003FFFFFFFFF8000FFFF80003F000F00003FFC00007FC0007FFF80000
310
7FFF8001FF80007FF00007FF80000FFF00007FF80000FFF8000001FFFE000000
310
7F80000000000001FFE000003E000003FFFFE000003E000003FFFF0003FFFFFF
310
FFF80003FFE00007F000F800000000000FFC0007FFF800007FFF8001FF80007F
310
F000000000000FFF000000000000FFF8000001FFFE0000007F80000000000001
310
FFF0000000000007FFFFF0000000000007FFFF0003FFFFFFFFFC00007E000007
310
F000F800000000000FFC0007FFF80000FFFF8000FF80007FF800000000001FFF
310
800000000001FFF8000001FFFE0000007F80000000000001FFF800000000000F
310
FFFFF800000000000FFFFF0003FFFFFFFFFC00000000000FF000FC0000000000
310
1FFC0007FFFC0000FFFF8000FF80007FF800000000003FFFC00000000001FFF8
310
000001FFFE0000007F80000000000001FFF800000000000FFFFFF80000000000
310
0FFFFF0003FFFFFFFFFE00000000001FF000FE00000000003FF8000FFFFC0000
310
FFFF8000FF80007FFC00000000003FFFC00000000003FFF8000001FFFE000000
310
7F80000000000001FFFC00000000001FFFFFFC00000000001FFFFF0003FFFFFF
310
FFFF00000000001FF000FF00000000003FF8000FFFFC0000FFFFC000FF80007F
310
FE00000000007FFFE00000000007FFF8000001FFFE0000007F80000000000001
310
FFFE00000000003FFFFFFE00000000003FFFFF0003FFFFFFFFFF80000000003F
310
F000FF80000000007FF8000FFFFC0001FFFFC0007F80007FFF0000000000FFFF
310
F0000000000FFFF800000000000000007F80000000000001FFFF8000000000FF
310
FFFFFF8000000000FFFFFF0003FFFFFFFFFFC0000000007FF000FFC000000000
310
FFF8000FFFFE0001FFFFC0007F80007FFF8000000001FFFFF8000000001FFFF8
310
00000000000000007F80000000000001FFFFC000000001FFFFFFFFC000000001
310
FFFFFF0003FFFFFFFFFFE000000000FFF000FFE000000003FFF0001FFFFE0001
310
FFFFC0007F80007FFFC000000007FFFFFE000000003FFFF80000000000000000
310
7F80000000000001FFFFE000000003FFFFFFFFE000000003FFFFFF0003FFFFFF
310
FFFFF000000003FFF000FFF80000000FFFF0001FFFFE0001FFFFE0007F80007F
310
FFF00000000FFFFFFF00000000FFFFF800000000000000007F80000000000001
310
FFFFF80000000FFFFFFFFFF80000000FFFFFFF0003FFFFFFFFFFFC0000000FFF
310
F000FFFE0000003FFFF0001FFFFE0003FFFFE0003F80007FFFFC0000003FFFFF
310
FFC0000003FFFFF800000000000000007F80000000000001FFFFFE0000003FFF
310
FFFFFFFE0000003FFFFFFF0003FFFFFFFFFFFF0000003FFFF000FFFF800000FF
310
FFF0001FFFFF0003FFFFE0003F80007FFFFF000001FFFFFFFFF800001FFFFFF8
310
00000000000000007F80000000000001FFFFFFC00001FFFFFFFFFFFFC00001FF
310
FFFFFF0003FFFFFFFFFFFFC00000FFFFF000FFFFF8000FFFFFFFFFFFFFFFFFFF
310
FFFFFFFFFFFFFFFFFFFFF0001FFFFFFFFFFF0000FFFFFFF80000000000000000
310
7FFFFFFFFFFFFFFFFFFFFFFC001FFFFFFFFFFFFFFC001FFFFFFFFFFFFFFFFFFF
310
FFFFFFFC001FFFFFF000FFFFFFFFFFFFFFFFFFFFFFFFFFFFFFFFFFFFFFFFFFFF
310
FFFFFFFFFFFFFFFFFFFFFFFFFFFFFFFFFFFFFFFFFFFFFFFFFFFFFFFFFFFFFFFF
310
FFFFFFFFFFFFFFFFFFFFFFFFFFFFFFFFFFFFFFFFFFFFFFFFFFFFFFFFFFFFFFFF
310
F000FFFFFFFFFFFFFFFFFFFFFFFFFFFFFFFFFFFFFFFFFFFFFFFFFFFFFFFFFFFF
310
FFFFFFFFFFFFFFFFFFFFFFFFFFFFFFFFFFFFFFFFFFFFFFFFFFFFFFFFFFFFFFFF
310
FFFFFFFFFFFFFFFFFFFFFFFFFFFFFFFFFFFFFFFFFFFFFFFFF000FFFFFFFFFFFF
310
FFFFFFFFFFFFFFFFFFFFFFFFFFFFFFFFFFFFFFFFFFFFFFFFFFFFFFFFFFFFFFFF
310
FFFFFFFFFFFFFFFFFFFFFFFFFFFFFFFFFFFFFFFFFFFFFFFFFFFFFFFFFFFFFFFF
310
FFFFFFFFFFFFFFFFFFFFFFFFFFFFFFFFF000FFFFFFFFFFFFFFFFFFFFFFFFFFFF
310
FFFFFFFFFFFFFFFFFFFFFFFFFFFFFFFFFFFFFFFFFFFFFFFFFFFFFFFFFFFFFFFF
310
FFFFFFFFFFFFFFFFFFFFFFFFFFFFFFFFFFFFFFFFFFFFFFFFFFFFFFFFFFFFFFFF
310
FFFFFFFFFFFFFFFFF000FFFFFFFFFFFFFFFFFFFFFFFFFFFFFFFFFFFFFFFFFFFF
310
FFFFFFFFFFFFFFFFFFFFFFFFFFFFFFFFFFFFFFFFFFFFFFFFFFFFFFFFFFFFFFFF
310
FFFFFFFFFFFFFFFFFFFFFFFFFFFFFFFFFFFFFFFFFFFFFFFFFFFFFFFFFFFFFFFF
310
F000FFFFFFFFFFFFFFFFFFFFFFFFFFFFFFFFFFFFFFFFFFFFFFFFFFFFFFFFFFFF
310
FFFFFFFFFFFFFFFFFFFFFFFFFFFFFFFFFFFFFFFFFFFFFFFFFFFFFFFFFFFFFFFF
310
FFFFFFFFFFFFFFFFFFFFFFFFFFFFFFFFFFFFFFFFFFFFFFFFF000FFFFFFFFFFFF
310
FFFFFFFFFFFFFFFFFFFFFFFFFFFFFFFFFFFFFFFFFFFFFFFFFFFFFFFFFFFFFFFF
310
FFFFFFFFFFFFFFFFFFFFFFFFFFFFFFFFFFFFFFFFFFFFFFFFFFFFFFFFFFFFFFFF
310
FFFFFFFFFFFFFFFFFFFFFFFFFFFFFFFFF000FFFFFFFFFFFFFFFFFFFFFFFFFFFF
310
FFFFFFFFFFFFFFFFFFFFFFFFFFFFFFFFFFFFFFFFFFFFFFFFFFFFFFFFFFFFFFFF
310
FFFFFFFFFFFFFFFFFFFFFFFFFFFFFFFFFFFFFFFFFFFFFFFFFFFFFFFFFFFFFFFF
310
FFFFFFFFFFFFFFFFF000FFFFFFFFFFFFFFFFFFFFFFFFFFFFFFFFFFFFFFFFFFFF
310
FFFFFFFFFFFFFFFFFFFFFFFFFFFFFFFFFFFFFFFFFFFFFFFFFFFFFFFFFFFFFFFF
310
FFFFFFFFFFFFFFFFFFFFFFFFFFFFFFFFFFFFFFFFFFFFFFFFFFFFFFFFFFFFFFFF
310
F000FFFFFFFFFFFFFFFFFFFFFFFFFFFFFFFFFFFFFFFFFFFFFFFFFFFFFFFFFFFF
310
FFFFFFFFFFFFFFFFFFFFFFFFFFFFFFFFFFFFFFFFFFFFFFFFFFFFFFFFFFFFFFFF
310
FFFFFFFFFFFFFFFFFFFFFFFFFFFFFFFFFFFFFFFFFFFFFFFFF000FFFFFFFFFFFF
310
FFFFFFFFFFFFFFFFFFFFFFFFFFFFFFFFFFFFFFFFFFFFFFFFFFFFFFFFFFFFFFFF
310
FFFFFFFFFFFFFFFFFFFFFFFFFFFFFFFFFFFFFFFFFFFFFFFFFFFFFFFFFFFFFFFF
310
FFFFFFFFFFFFFFFFFFFFFFFFFFFFFFFFF000FFFFFFFFFFFFFFFFFFFFFFFFFFFF
310
FFFFFFFFFFFFFFFFFFFFFFFFFFFFFFFFFFFFFFFFFFFFFFFFFFFFFFFFFFFFFFFF
310
FFFFFFFFFFFFFFFFFFFFFFFFFFFFFFFFFFFFFFFFFFFFFFFFFFFFFFFFFFFFFFFF
310
FFFFFFFFFFFFFFFFF000FFFFFFFFFFFFFFFFFFFFFFFFFFFFFFFFFFFFFFFFFFFF
310
FFFFFFFFFFFFFFFFFFFFFFFFFFFFFFFFFFFFFFFFFFFFFFFFFFFFFFFFFFFFFFFF
310
FFFFFFFFFFFFFFFFFFFFFFFFFFFFFFFFFFFFFFFFFFFFFFFFFFFFFFFFFFFFFFFF
310
F000FFFFFFFFFFFFFFFFFFFFFFFFFFFFFFFFFFFFFFFFFFFFFFFFFFFFFFFFFFFF
310
FFFFFFFFFFFFFFFFFFFFFFFFFFFFFFFFFFFFFFFFFFFFFFFFFFFFFFFFFFFFFFFF
310
FFFFFFFFFFFFFFFFFFFFFFFFFFFFFFFFFFFFFFFFFFFFFFFFF000FFFFFFFFFFFF
310
FFFFFFFFFFFFFFFFFFFFFFFFFFFFFFFFFFFFFFFFFFFFFFFFFFFFFFFFFFFFFFFF
310
FFFFFFFFFFFFFFFFFFFFFFFFFFFFFFFFFFFFFFFFFFFFFFFFFFFFFFFFFFFFFFFF
310
FFFFFFFFFFFFFFFFFFFFFFFFFFFFFFFFF000FFFFFFFFFFFFFFFFFFFFFFFFFFFF
310
FFFFFFFFFFFFFFFFFFFFFFFFFFFFFFFFFFFFFFFFFFFFFFFFFFFFFFFFFFFFFFFF
310
FFFFFFFFFFFFFFFFFFFFFFFFFFFFFFFFFFFFFFFFFFFFFFFFFFFFFFFFFFFFFFFF
310
FFFFFFFFFFFFFFFFF000FFFFFFFFFFFFFFFFFFFFFFFFFFFFFFFFFFFFFFFFFFFF
310
FFFFFFFFFFFFFFFFFFFFFFFFFFFFFFFFFFFFFFFFFFFFFFFFFFFFFFFFFFFFFFFF
310
FFFFFFFFFFFFFFFFFFFFFFFFFFFFFFFFFFFFFFFFFFFFFFFFFFFFFFFFFFFFFFFF
310
F000FFFFFFFFFFFFFFFFFFFFFFFFFFFFFFFFFFFFFFFFFFFFFFFFFFFFFFFFFFFF
310
FFFFFFFFFFFFFFFFFFFFFFFFFFFFFFFFFFFFFFFFFFFFFFFFFFFFFFFFFFFFFFFF
310
FFFFFFFFFFFFFFFFFFFFFFFFFFFFFFFFFFFFFFFFFFFFFFFFF000FFFFFFFFFFFF
310
FFFFFFFFFFFFFFFFFFFFFFFFFFFFFFFFFFFFFFFFFFFFFFFFFFFFFFFFFFFFFFFF
310
FFFFFFFFFFFFFFFFFFFFFFFFFFFFFFFFFFFFFFFFFFFFFFFFFFFFFFFFFFFFFFFF
310
FFFFFFFFFFFFFFFFFFFFFFFFFFFFFFFFF000FFFFFFFFFFFFFFFFFFFFFFFFFFFF
310
FFFFFFFFFFFFFFFFFFFFFFFFFFFFFFFFFFFFFFFFFFFFFFFFFFFFFFFFFFFFFFFF
310
FFFFFFFFFFFFFFFFFFFFFFFFFFFFFFFFFFFFFFFFFFFFFFFFFFFFFFFFFFFFFFFF
310
FFFFFFFFFFFFFFFFF000FFFFFFFFFFFFFFFFFFFFFFFFFFFFFFFFFFFFFFFFFFFF
310
FFFFFFFFFFFFFFFFFFFFFFFFFFFFFFFFFFFFFFFFFFFFFFFFFFFFFFFFFFFFFFFF
310
FFFFFFFFFFFFFFFFFFFFFFFFFFFFFFFFFFFFFFFFFFFFFFFFFFFFFFFFFFFFFFFF
310
F000FFFFFFFFFFFFFFFFFFFFFFFFFFFFFFFFFFFFFFFFFFFFFFFFFFFFFFFFFFFF
310
FFFFFFFFFFFFFFFFFFFFFFFFFFFFFFFFFFFFFFFFFFFFFFFFFFFFFFFFFFFFFFFF
310
FFFFFFFFFFFFFFFFFFFFFFFFFFFFFFFFFFFFFFFFFFFFFFFFF000FFFFFFFFFFFF
310
FFFFFFFFFFFFFFFFFFFFFFFFFFFFFFFFFFFFFFFFFFFFFFFFFFFFFFFFFFFFFFFF
310
FFFFFFFFFFFFFFFFFFFFFFFFFFFFFFFFFFFFFFFFFFFFFFFFFFFFFFFFFFFFFFFF
310
FFFFFFFFFFFFFFFFFFFFFFFFFFFFFFFFF0000000000000000000000000000000
310
0000000000000000000000000000000000000000000000000000000000000000
310
0000000000000000000000000000000000000000000000000000000000000000
310
0000000000000000000000000000000000000000000000000000000000000000
310
0000000000000000000000000000000000000000000000000000000000000000
310
0000000000000000000000000000000000000000000000000000000000000000
310
0000000000000000000000000000000000000000000000000000000000000000
310
0000000000000000000000000000000000000000000000000000000000000000
310
0000000000000000000000000000000000000000000000000000000000000000
310
0000000000000000000000000000000000000000000000000000000000000000
310
0000000000000000000000000000000000000000000000000000000000000000
310
0000000000000000000000000000000000000000000000000000000000000000
310
0000000000000000000000000000000000000000000000000000000000000000
310
0000000000000000000000000000000000000000000000000000000000000000
310
0000000000000000000000000000000000000000000000000000000000000000
310
0000000000000000000000000000000000000000000000000000000000000000
  1
OLE
  0
ENDSEC
  0
SECTION
  2
OBJECTS
  0
DICTIONARY
  5
C
330
0
100
AcDbDictionary
281
     1
  3
ACAD_GROUP
350
D
  3
ACAD_LAYOUT
350
1A
  3
ACAD_MLINESTYLE
350
17
  3
ACAD_PLOTSETTINGS
350
19
  3
ACAD_PLOTSTYLENAME
350
E
  0
DICTIONARY
  5
D
102
{ACAD_REACTORS
330
C
102
}
330
C
100
AcDbDictionary
281
     1
  0
DICTIONARY
  5
1A
102
{ACAD_REACTORS
330
C
102
}
330
C
100
AcDbDictionary
281
     1
  3
Layout1
350
1E
  3
Layout2
350
26
  3
Model
350
22
  0
DICTIONARY
  5
17
102
{ACAD_REACTORS
330
C
102
}
330
C
100
AcDbDictionary
281
     1
  3
Standard
350
18
  0
DICTIONARY
  5
19
102
{ACAD_REACTORS
330
C
102
}
330
C
100
AcDbDictionary
281
     1
  0
ACDBDICTIONARYWDFLT
  5
E
102
{ACAD_REACTORS
330
C
102
}
330
C
100
AcDbDictionary
281
     1
  3
Normal
350
F
100
AcDbDictionaryWithDefault
340
F
  0
LAYOUT
  5
1E
102
{ACAD_REACTORS
330
1A
102
}
330
1A
100
AcDbPlotSettings
  1

  2
none_device
  4

  6

 40
0.0
 41
0.0
 42
0.0
 43
0.0
 44
0.0
 45
0.0
 46
0.0
 47
0.0
 48
0.0
 49
0.0
140
0.0
141
0.0
142
1.0
143
1.0
 70
   688
 72
     0
 73
     0
 74
     5
  7

 75
    16
147
1.0
148
0.0
149
0.0
100
AcDbLayout
  1
Layout1
 70
     1
 71
     1
 10
0.0
 20
0.0
 11
420.0
 21
297.0
 12
0.0
 22
0.0
 32
0.0
 14
1.0000000000E+20
 24
1.0000000000E+20
 34
1.0000000000E+20
 15
-1.0000000000E+20
 25
-1.0000000000E+20
 35
-1.0000000000E+20
146
0.0
 13
0.0
 23
0.0
 33
0.0
 16
1.0
 26
0.0
 36
0.0
 17
0.0
 27
1.0
 37
0.0
 76
     0
330
1B
  0
LAYOUT
  5
26
102
{ACAD_REACTORS
330
1A
102
}
330
1A
100
AcDbPlotSettings
  1

  2
none_device
  4

  6

 40
0.0
 41
0.0
 42
0.0
 43
0.0
 44
0.0
 45
0.0
 46
0.0
 47
0.0
 48
0.0
 49
0.0
140
0.0
141
0.0
142
1.0
143
1.0
 70
   688
 72
     0
 73
     0
 74
     5
  7

 75
    16
147
1.0
148
0.0
149
0.0
100
AcDbLayout
  1
Layout2
 70
     1
 71
     2
 10
0.0
 20
0.0
 11
0.0
 21
0.0
 12
0.0
 22
0.0
 32
0.0
 14
0.0
 24
0.0
 34
0.0
 15
0.0
 25
0.0
 35
0.0
146
0.0
 13
0.0
 23
0.0
 33
0.0
 16
1.0
 26
0.0
 36
0.0
 17
0.0
 27
1.0
 37
0.0
 76
     0
330
23
  0
LAYOUT
  5
22
102
{ACAD_REACTORS
330
1A
102
}
330
1A
100
AcDbPlotSettings
  1

  2
none_device
  4

  6

 40
0.0
 41
0.0
 42
0.0
 43
0.0
 44
0.0
 45
0.0
 46
0.0
 47
0.0
 48
0.0
 49
0.0
140
0.0
141
0.0
142
1.0
143
1.0
 70
  1712
 72
     0
 73
     0
 74
     0
  7

 75
     0
147
1.0
148
0.0
149
0.0
100
AcDbLayout
  1
Model
 70
     1
 71
     0
 10
0.0
 20
0.0
 11
297.0
 21
210.0
 12
0.0
 22
0.0
 32
0.0
 14
0.0
 24
0.0
 34
0.0
 15
297.0
 25
210.0
 35
0.0
146
0.0
 13
0.0
 23
0.0
 33
0.0
 16
1.0
 26
0.0
 36
0.0
 17
0.0
 27
1.0
 37
0.0
 76
     0
330
1F
331
29
  0
MLINESTYLE
  5
18
102
{ACAD_REACTORS
330
17
102
}
330
17
100
AcDbMlineStyle
  2
Standard
 70
     0
  3

 62
   256
 51
90.0
 52
90.0
 71
     2
 49
0.5
 62
   256
  6
BYLAYER
 49
-0.5
 62
   256
  6
BYLAYER
  0
ACDBPLACEHOLDER
  5
F
102
{ACAD_REACTORS
330
E
102
}
330
E
  0
ENDSEC
  0
EOF
