  0
SECTION
  2
HEADER
  9
$ACADVER
  1
AC1015
  9
$ACADMAINTVER
 70
     6
  9
$DWGCODEPAGE
  3
ANSI_1252
  9
$INSBASE
 10
0.0
 20
0.0
 30
0.0
  9
$EXTMIN
 10
0.0
 20
0.0
 30
0.0
  9
$EXTMAX
 10
297.0
 20
210.0
 30
0.0
  9
$LIMMIN
 10
0.0
 20
0.0
  9
$LIMMAX
 10
297.0
 20
210.0
  9
$ORTHOMODE
 70
     0
  9
$REGENMODE
 70
     1
  9
$FILLMODE
 70
     1
  9
$QTEXTMODE
 70
     0
  9
$MIRRTEXT
 70
     1
  9
$LTSCALE
 40
1.0
  9
$ATTMODE
 70
     1
  9
$TEXTSIZE
 40
2.0
  9
$TRACEWID
 40
1.0
  9
$TEXTSTYLE
  7
Standard
  9
$CLAYER
  8
0
  9
$CELTYPE
  6
ByLayer
  9
$CECOLOR
 62
   256
  9
$CELTSCALE
 40
1.0
  9
$DISPSILH
 70
     0
  9
$DIMSCALE
 40
1.0
  9
$DIMASZ
 40
3.0
  9
$DIMEXO
 40
0.0
  9
$DIMDLI
 40
3.75
  9
$DIMRND
 40
0.0
  9
$DIMDLE
 40
0.0
  9
$DIMEXE
 40
1.0
  9
$DIMTP
 40
0.0
  9
$DIMTM
 40
0.0
  9
$DIMTXT
 40
2.0
  9
$DIMCEN
 40
2.5
  9
$DIMTSZ
 40
0.0
  9
$DIMTOL
 70
     0
  9
$DIMLIM
 70
     0
  9
$DIMTIH
 70
     1
  9
$DIMTOH
 70
     1
  9
$DIMSE1
 70
     0
  9
$DIMSE2
 70
     0
  9
$DIMTAD
 70
     1
  9
$DIMZIN
 70
     0
  9
$DIMBLK
  1

  9
$DIMASO
 70
     1
  9
$DIMSHO
 70
     1
  9
$DIMPOST
  1

  9
$DIMAPOST
  1

  9
$DIMALT
 70
     0
  9
$DIMALTD
 70
     3
  9
$DIMALTF
 40
0.0393700787
  9
$DIMLFAC
 40
2.0
  9
$DIMTOFL
 70
     1
  9
$DIMTVP
 40
0.0
  9
$DIMTIX
 70
     0
  9
$DIMSOXD
 70
     0
  9
$DIMSAH
 70
     0
  9
$DIMBLK1
  1

  9
$DIMBLK2
  1

  9
$DIMSTYLE
  2
ISO-25
  9
$DIMCLRD
 70
     0
  9
$DIMCLRE
 70
     0
  9
$DIMCLRT
 70
     0
  9
$DIMTFAC
 40
1.0
  9
$DIMGAP
 40
1.524
  9
$DIMJUST
 70
     0
  9
$DIMSD1
 70
     0
  9
$DIMSD2
 70
     0
  9
$DIMTOLJ
 70
     0
  9
$DIMTZIN
 70
     0
  9
$DIMALTZ
 70
     0
  9
$DIMALTTZ
 70
     0
  9
$DIMUPT
 70
     0
  9
$DIMDEC
 70
     2
  9
$DIMTDEC
 70
     3
  9
$DIMALTU
 70
     2
  9
$DIMALTTD
 70
     3
  9
$DIMTXSTY
  7
Standard
  9
$DIMAUNIT
 70
     0
  9
$DIMADEC
 70
     2
  9
$DIMALTRND
 40
0.0
  9
$DIMAZIN
 70
     0
  9
$DIMDSEP
 70
    44
  9
$DIMATFIT
 70
     3
  9
$DIMFRAC
 70
     0
  9
$DIMLDRBLK
  1

  9
$DIMLUNIT
 70
     2
  9
$DIMLWD
 70
    -2
  9
$DIMLWE
 70
    -2
  9
$DIMTMOVE
 70
     0
  9
$LUNITS
 70
     2
  9
$LUPREC
 70
     2
  9
$SKETCHINC
 40
1.0
  9
$FILLETRAD
 40
10.0
  9
$AUNITS
 70
     0
  9
$AUPREC
 70
     2
  9
$MENU
  1
.
  9
$ELEVATION
 40
0.0
  9
$PELEVATION
 40
0.0
  9
$THICKNESS
 40
0.0
  9
$LIMCHECK
 70
     0
  9
$CHAMFERA
 40
0.0
  9
$CHAMFERB
 40
0.0
  9
$CHAMFERC
 40
0.0
  9
$CHAMFERD
 40
0.0
  9
$SKPOLY
 70
     0
  9
$TDCREATE
 40
2458169.547200417
  9
$TDUCREATE
 40
2458169.50553375
  9
$TDUPDATE
 40
2458169.547202581
  9
$TDUUPDATE
 40
2458169.505535915
  9
$TDINDWG
 40
0.0000000116
  9
$TDUSRTIMER
 40
0.0000000116
  9
$USRTIMER
 70
     1
  9
$ANGBASE
 50
0.0
  9
$ANGDIR
 70
     0
  9
$PDMODE
 70
     0
  9
$PDSIZE
 40
-1.0
  9
$PLINEWID
 40
0.0
  9
$SPLFRAME
 70
     0
  9
$SPLINETYPE
 70
     6
  9
$SPLINESEGS
 70
     8
  9
$HANDSEED
  5
26B
  9
$SURFTAB1
 70
     6
  9
$SURFTAB2
 70
     6
  9
$SURFTYPE
 70
     6
  9
$SURFU
 70
     6
  9
$SURFV
 70
     6
  9
$UCSBASE
  2

  9
$UCSNAME
  2

  9
$UCSORG
 10
0.0
 20
0.0
 30
0.0
  9
$UCSXDIR
 10
1.0
 20
0.0
 30
0.0
  9
$UCSYDIR
 10
0.0
 20
1.0
 30
0.0
  9
$UCSORTHOREF
  2

  9
$UCSORTHOVIEW
 70
     0
  9
$UCSORGTOP
 10
0.0
 20
0.0
 30
0.0
  9
$UCSORGBOTTOM
 10
0.0
 20
0.0
 30
0.0
  9
$UCSORGLEFT
 10
0.0
 20
0.0
 30
0.0
  9
$UCSORGRIGHT
 10
0.0
 20
0.0
 30
0.0
  9
$UCSORGFRONT
 10
0.0
 20
0.0
 30
0.0
  9
$UCSORGBACK
 10
0.0
 20
0.0
 30
0.0
  9
$PUCSBASE
  2

  9
$PUCSNAME
  2

  9
$PUCSORG
 10
0.0
 20
0.0
 30
0.0
  9
$PUCSXDIR
 10
1.0
 20
0.0
 30
0.0
  9
$PUCSYDIR
 10
0.0
 20
1.0
 30
0.0
  9
$PUCSORTHOREF
  2

  9
$PUCSORTHOVIEW
 70
     0
  9
$PUCSORGTOP
 10
0.0
 20
0.0
 30
0.0
  9
$PUCSORGBOTTOM
 10
0.0
 20
0.0
 30
0.0
  9
$PUCSORGLEFT
 10
0.0
 20
0.0
 30
0.0
  9
$PUCSORGRIGHT
 10
0.0
 20
0.0
 30
0.0
  9
$PUCSORGFRONT
 10
0.0
 20
0.0
 30
0.0
  9
$PUCSORGBACK
 10
0.0
 20
0.0
 30
0.0
  9
$USERI1
 70
     0
  9
$USERI2
 70
     0
  9
$USERI3
 70
     0
  9
$USERI4
 70
     0
  9
$USERI5
 70
     0
  9
$USERR1
 40
0.0
  9
$USERR2
 40
0.0
  9
$USERR3
 40
0.0
  9
$USERR4
 40
0.0
  9
$USERR5
 40
0.0
  9
$WORLDVIEW
 70
     1
  9
$SHADEDGE
 70
     3
  9
$SHADEDIF
 70
    70
  9
$TILEMODE
 70
     1
  9
$MAXACTVP
 70
    64
  9
$PINSBASE
 10
0.0
 20
0.0
 30
0.0
  9
$PLIMCHECK
 70
     0
  9
$PEXTMIN
 10
1.0000000000E+20
 20
1.0000000000E+20
 30
1.0000000000E+20
  9
$PEXTMAX
 10
-1.0000000000E+20
 20
-1.0000000000E+20
 30
-1.0000000000E+20
  9
$PLIMMIN
 10
0.0
 20
0.0
  9
$PLIMMAX
 10
420.0
 20
297.0
  9
$UNITMODE
 70
     0
  9
$VISRETAIN
 70
     1
  9
$PLINEGEN
 70
     0
  9
$PSLTSCALE
 70
     1
  9
$TREEDEPTH
 70
  3020
  9
$CMLSTYLE
  2
Standard
  9
$CMLJUST
 70
     0
  9
$CMLSCALE
 40
20.0
  9
$PROXYGRAPHICS
 70
     1
  9
$MEASUREMENT
 70
     1
  9
$CELWEIGHT
370
    -1
  9
$ENDCAPS
280
     0
  9
$JOINSTYLE
280
     0
  9
$LWDISPLAY
290
     1
  9
$INSUNITS
 70
     4
  9
$HYPERLINKBASE
  1

  9
$STYLESHEET
  1

  9
$XEDIT
290
     1
  9
$CEPSNTYPE
380
     0
  9
$PSTYLEMODE
290
     1
  9
$FINGERPRINTGUID
  2
{4F86B515-0496-4900-831A-B17996DA1CAC}
  9
$VERSIONGUID
  2
{FAEB1C32-E019-11D5-929B-00C0DF256EC4}
  9
$EXTNAMES
290
     1
  9
$PSVPSCALE
 40
0.0
  9
$OLESTARTUP
290
     0
  0
ENDSEC
  0
SECTION
  2
CLASSES
  0
CLASS
  1
ACDBDICTIONARYWDFLT
  2
AcDbDictionaryWithDefault
  3
ObjectDBX Classes
 90
        0
280
     0
281
     0
  0
CLASS
  1
VISUALSTYLE
  2
AcDbVisualStyle
  3
ObjectDBX Classes
 90
     4095
280
     0
281
     0
  0
CLASS
  1
MATERIAL
  2
AcDbMaterial
  3
ObjectDBX Classes
 90
     1153
280
     0
281
     0
  0
CLASS
  1
SCALE
  2
AcDbScale
  3
ObjectDBX Classes
 90
     1153
280
     0
281
     0
  0
CLASS
  1
TABLESTYLE
  2
AcDbTableStyle
  3
ObjectDBX Classes
 90
     4095
280
     0
281
     0
  0
CLASS
  1
MLEADERSTYLE
  2
AcDbMLeaderStyle
  3
ACDB_MLEADERSTYLE_CLASS
 90
     4095
280
     0
281
     0
  0
CLASS
  1
SUN
  2
AcDbSun
  3
SCENEOE
 90
     1153
280
     0
281
     0
  0
CLASS
  1
ACDBPLACEHOLDER
  2
AcDbPlaceHolder
  3
ObjectDBX Classes
 90
        0
280
     0
281
     0
  0
CLASS
  1
LAYOUT
  2
AcDbLayout
  3
ObjectDBX Classes
 90
        0
280
     0
281
     0
  0
ENDSEC
  0
SECTION
  2
TABLES
  0
TABLE
  2
VPORT
  5
8
330
0
100
AcDbSymbolTable
 70
     1
  0
VPORT
  5
29
330
8
100
AcDbSymbolTableRecord
100
AcDbViewportTableRecord
  2
*Active
 70
     0
 10
0.0
 20
0.0
 11
1.0
 21
1.0
 12
148.5
 22
105.0
 13
0.0
 23
0.0
 14
10.0
 24
10.0
 15
10.0
 25
10.0
 16
0.0
 26
0.0
 36
1.0
 17
0.0
 27
0.0
 37
0.0
 40
210.0
 41
1.4142857143
 42
50.0
 43
0.0
 44
0.0
 50
0.0
 51
0.0
 71
     0
 72
  2000
 73
     1
 74
     3
 75
     0
 76
     0
 77
     0
 78
     0
281
     0
 65
     1
110
0.0
120
0.0
130
0.0
111
1.0
121
0.0
131
0.0
112
0.0
122
1.0
132
0.0
 79
     0
146
0.0
  0
ENDTAB
  0
TABLE
  2
LTYPE
  5
5
330
0
100
AcDbSymbolTable
 70
     6
  0
LTYPE
  5
14
330
5
100
AcDbSymbolTableRecord
100
AcDbLinetypeTableRecord
  2
ByBlock
 70
     0
  3

 72
    65
 73
     0
 40
0.0
  0
LTYPE
  5
15
330
5
100
AcDbSymbolTableRecord
100
AcDbLinetypeTableRecord
  2
ByLayer
 70
     0
  3

 72
    65
 73
     0
 40
0.0
  0
LTYPE
  5
16
330
5
100
AcDbSymbolTableRecord
100
AcDbLinetypeTableRecord
  2
Continuous
 70
     0
  3
Solid line
 72
    65
 73
     0
 40
0.0
  0
LTYPE
  5
6E
330
5
100
AcDbSymbolTableRecord
100
AcDbLinetypeTableRecord
  2
HIDDEN
 70
     0
  3
Hidden __ __ __ __ __ __ __ __ __ __ __ __ __ __
 72
    65
 73
     2
 40
1.905
 49
1.27
 74
     0
 49
-0.635
 74
     0
  0
LTYPE
  5
6F
330
5
100
AcDbSymbolTableRecord
100
AcDbLinetypeTableRecord
  2
PHANTOM
 70
     0
  3
Phantom ______  __  __  ______  __  __  ______
 72
    65
 73
     6
 40
12.7
 49
6.35
 74
     0
 49
-1.27
 74
     0
 49
1.27
 74
     0
 49
-1.27
 74
     0
 49
1.27
 74
     0
 49
-1.27
 74
     0
  0
LTYPE
  5
70
330
5
100
AcDbSymbolTableRecord
100
AcDbLinetypeTableRecord
  2
CENTER
 70
     0
  3
Center ____ _ ____ _ ____ _ ____ _ ____ _ ____
 72
    65
 73
     4
 40
10.16
 49
6.35
 74
     0
 49
-1.27
 74
     0
 49
1.27
 74
     0
 49
-1.27
 74
     0
  0
LTYPE
  5
71
330
5
100
AcDbSymbolTableRecord
100
AcDbLinetypeTableRecord
  2
CENTERX2
 70
     0
  3
Center (2x) ________  __  ________  __  _____
 72
    65
 73
     4
 40
20.32
 49
12.7
 74
     0
 49
-2.54
 74
     0
 49
2.54
 74
     0
 49
-2.54
 74
     0
  0
LTYPE
  5
72
330
5
100
AcDbSymbolTableRecord
100
AcDbLinetypeTableRecord
  2
DOT2
 70
     0
  3
Dot (.5x) ........................................
 72
    65
 73
     2
 40
0.635
 49
0.0
 74
     0
 49
-0.635
 74
     0
  0
ENDTAB
  0
TABLE
  2
LAYER
  5
2
330
0
100
AcDbSymbolTable
 70
     5
  0
LAYER
  5
10
330
2
100
AcDbSymbolTableRecord
100
AcDbLayerTableRecord
  2
0
 70
     0
 62
     7
  6
Continuous
370
    -3
390
F
  0
LAYER
  5
73
330
2
100
AcDbSymbolTableRecord
100
AcDbLayerTableRecord
  2
FORMAT
 70
     0
 62
     7
  6
Continuous
370
    -3
390
F
  0
LAYER
  5
74
330
2
100
AcDbSymbolTableRecord
100
AcDbLayerTableRecord
  2
VERMASSUNG
 70
     0
 62
     7
  6
Continuous
370
    -3
390
F
  0
LAYER
  5
75
330
2
100
AcDbSymbolTableRecord
100
AcDbLayerTableRecord
  2
KOPF_DÜNN
 70
     0
 62
     7
  6
Continuous
370
    -3
390
F
  0
LAYER
  5
76
330
2
100
AcDbSymbolTableRecord
100
AcDbLayerTableRecord
  2
KOPF_DICK
 70
     0
 62
     7
  6
Continuous
370
    25
390
F
  0
ENDTAB
  0
TABLE
  2
STYLE
  5
3
330
0
100
AcDbSymbolTable
 70
     2
  0
STYLE
  5
11
330
3
100
AcDbSymbolTableRecord
100
AcDbTextStyleTableRecord
  2
Standard
 70
     0
 40
0.0
 41
1.0
 50
0.0
 71
     0
 42
2.0
  3
txt
  4

  0
STYLE
  5
77
330
3
100
AcDbSymbolTableRecord
100
AcDbTextStyleTableRecord
  2
SLDTEXTSTYLE0
 70
     0
 40
0.0
 41
0.7
 50
0.0
 71
     0
 42
2.0
  3
TXT
  4

  0
ENDTAB
  0
TABLE
  2
VIEW
  5
6
330
0
100
AcDbSymbolTable
 70
     0
  0
ENDTAB
  0
TABLE
  2
UCS
  5
7
330
0
100
AcDbSymbolTable
 70
     0
  0
ENDTAB
  0
TABLE
  2
APPID
  5
9
330
0
100
AcDbSymbolTable
 70
     1
  0
APPID
  5
12
330
9
100
AcDbSymbolTableRecord
100
AcDbRegAppTableRecord
  2
ACAD
 70
     0
  0
ENDTAB
  0
TABLE
  2
DIMSTYLE
  5
A
330
0
100
AcDbSymbolTable
 70
     4
100
AcDbDimStyleTable
  0
DIMSTYLE
105
27
330
A
100
AcDbSymbolTableRecord
100
AcDbDimStyleTableRecord
  2
ISO-25
 70
     0
 41
2.5
 42
0.625
 43
3.75
 44
1.25
 73
     0
 74
     0
 77
     1
 78
     8
140
2.5
141
2.5
143
0.0393700787
147
0.625
171
     3
172
     1
178
     0
271
     2
272
     2
274
     3
278
    44
283
     0
284
     8
340
11
  0
DIMSTYLE
105
112
102
{ACAD_REACTORS
330
111
330
11D
330
136
330
140
330
14A
330
154
102
}
330
A
100
AcDbSymbolTableRecord
100
AcDbDimStyleTableRecord
  2
SLDDIMSTYLE0
 70
     0
 41
3.0
 44
0.0
 45
0.000000001
 73
     0
 74
     0
 77
     1
 78
    12
 79
     3
140
2.0
147
0.5
173
     1
178
     0
271
     2
272
     3
276
     2
284
    12
340
77
  0
DIMSTYLE
105
129
102
{ACAD_REACTORS
330
128
102
}
330
A
100
AcDbSymbolTableRecord
100
AcDbDimStyleTableRecord
  2
SLDDIMSTYLE1
 70
     0
 41
3.0
 44
0.0
 45
0.000000001
 73
     0
 74
     0
 77
     1
 78
    12
 79
     3
140
2.0
147
0.5
173
     1
178
     0
271
     0
272
     3
276
     2
284
    12
340
77
  0
DIMSTYLE
105
15F
102
{ACAD_REACTORS
330
15E
102
}
330
A
100
AcDbSymbolTableRecord
100
AcDbDimStyleTableRecord
  2
SLDDIMSTYLE2
 70
     0
 41
3.0
 44
0.0
 45
0.000000001
 73
     0
 74
     0
 77
     1
 78
    12
 79
     3
140
2.0
147
0.5
172
     1
173
     1
178
     0
271
     0
272
     3
276
     2
284
    12
289
     0
340
77
  0
ENDTAB
  0
TABLE
  2
BLOCK_RECORD
  5
1
330
0
100
AcDbSymbolTable
 70
     9
  0
BLOCK_RECORD
  5
1F
330
1
100
AcDbSymbolTableRecord
100
AcDbBlockTableRecord
  2
*Model_Space
340
22
  0
BLOCK_RECORD
  5
1B
330
1
100
AcDbSymbolTableRecord
100
AcDbBlockTableRecord
  2
*Paper_Space
340
1E
  0
BLOCK_RECORD
  5
23
330
1
100
AcDbSymbolTableRecord
100
AcDbBlockTableRecord
  2
*Paper_Space0
340
26
  0
BLOCK_RECORD
  5
113
330
1
100
AcDbSymbolTableRecord
100
AcDbBlockTableRecord
  2
_D
340
0
  0
BLOCK_RECORD
  5
11E
330
1
100
AcDbSymbolTableRecord
100
AcDbBlockTableRecord
  2
_D_1
340
0
  0
BLOCK_RECORD
  5
12A
330
1
100
AcDbSymbolTableRecord
100
AcDbBlockTableRecord
  2
_D_2
340
0
  0
BLOCK_RECORD
  5
137
330
1
100
AcDbSymbolTableRecord
100
AcDbBlockTableRecord
  2
_D_3
340
0
  0
BLOCK_RECORD
  5
141
330
1
100
AcDbSymbolTableRecord
100
AcDbBlockTableRecord
  2
_D_4
340
0
  0
BLOCK_RECORD
  5
14B
330
1
100
AcDbSymbolTableRecord
100
AcDbBlockTableRecord
  2
_D_5
340
0
  0
BLOCK_RECORD
  5
155
330
1
100
AcDbSymbolTableRecord
100
AcDbBlockTableRecord
  2
_D_6
340
0
  0
BLOCK_RECORD
  5
160
330
1
100
AcDbSymbolTableRecord
100
AcDbBlockTableRecord
  2
_D_7
340
0
  0
ENDTAB
  0
ENDSEC
  0
SECTION
  2
BLOCKS
  0
BLOCK
  5
20
330
1F
100
AcDbEntity
  8
0
100
AcDbBlockBegin
  2
*Model_Space
 70
     0
 10
0.0
 20
0.0
 30
0.0
  3
*Model_Space
  1

  0
ENDBLK
  5
21
330
1F
100
AcDbEntity
  8
0
100
AcDbBlockEnd
  0
BLOCK
  5
1C
330
1B
100
AcDbEntity
 67
     1
  8
0
100
AcDbBlockBegin
  2
*Paper_Space
 70
     0
 10
0.0
 20
0.0
 30
0.0
  3
*Paper_Space
  1

  0
ENDBLK
  5
1D
330
1B
100
AcDbEntity
 67
     1
  8
0
100
AcDbBlockEnd
  0
BLOCK
  5
24
330
23
100
AcDbEntity
  8
0
100
AcDbBlockBegin
  2
*Paper_Space0
 70
     0
 10
0.0
 20
0.0
 30
0.0
  3
*Paper_Space0
  1

  0
ENDBLK
  5
25
330
23
100
AcDbEntity
  8
0
100
AcDbBlockEnd
  0
BLOCK
  5
114
330
113
100
AcDbEntity
  8
0
100
AcDbBlockBegin
  2
_D
 70
     0
 10
0.0
 20
0.0
 30
0.0
  3
_D
  1

  0
SOLID
  5
116
330
113
100
AcDbEntity
  8
VERMASSUNG
100
AcDbTrace
 10
232.7116687765
 20
112.292494999
 30
0.0
 11
233.1616687765
 21
115.292494999
 31
0.0
 12
232.2616687765
 22
115.292494999
 32
0.0
 13
232.2616687765
 23
115.292494999
 33
0.0
  0
SOLID
  5
117
330
113
100
AcDbEntity
  8
VERMASSUNG
100
AcDbTrace
 10
232.7116687765
 20
128.292494999
 30
0.0
 11
232.2616687765
 21
125.292494999
 31
0.0
 12
233.1616687765
 22
125.292494999
 32
0.0
 13
233.1616687765
 23
125.292494999
 33
0.0
  0
LINE
  5
118
330
113
100
AcDbEntity
  8
VERMASSUNG
100
AcDbLine
 10
201.3916228332
 20
112.292494999
 30
0.0
 11
233.7116687765
 21
112.292494999
 31
0.0
  0
LINE
  5
119
330
113
100
AcDbEntity
  8
VERMASSUNG
100
AcDbLine
 10
201.3916228332
 20
128.292494999
 30
0.0
 11
233.7116687765
 21
128.292494999
 31
0.0
  0
LINE
  5
11A
330
113
100
AcDbEntity
  8
VERMASSUNG
100
AcDbLine
 10
232.7116687765
 20
112.292494999
 30
0.0
 11
232.7116687765
 21
128.292494999
 31
0.0
  0
MTEXT
  5
11B
330
113
100
AcDbEntity
  8
VERMASSUNG
100
AcDbMText
 10
230.1335334716
 20
117.2874949348
 30
0.0
 40
2.0
 41
0.0
 71
     1
 72
     1
  1
%%c
  7
SLDTEXTSTYLE0
 11
6.123233995736766E-17
 21
1.0
 31
0.0
 73
     1
 44
1.0
  0
MTEXT
  5
11C
330
113
100
AcDbEntity
  8
VERMASSUNG
100
AcDbMText
 10
229.9335335203
 20
120.8974949491
 30
0.0
 40
2.0
 41
0.0
 71
     1
 72
     1
  1
16
  7
SLDTEXTSTYLE0
 11
6.123233995736766E-17
 21
1.0
 31
0.0
 73
     1
 44
1.0
  0
ENDBLK
  5
115
330
113
100
AcDbEntity
  8
0
100
AcDbBlockEnd
  0
BLOCK
  5
11F
330
11E
100
AcDbEntity
  8
0
100
AcDbBlockBegin
  2
_D_1
 70
     0
 10
0.0
 20
0.0
 30
0.0
  3
_D_1
  1

  0
SOLID
  5
121
330
11E
100
AcDbEntity
  8
VERMASSUNG
100
AcDbTrace
 10
241.9742842129
 20
139.292494999
 30
0.0
 11
241.5242842129
 21
136.292494999
 31
0.0
 12
242.4242842129
 22
136.292494999
 32
0.0
 13
242.4242842129
 23
136.292494999
 33
0.0
  0
SOLID
  5
122
330
11E
100
AcDbEntity
  8
VERMASSUNG
100
AcDbTrace
 10
241.9742842129
 20
101.292494999
 30
0.0
 11
242.4242842129
 21
104.292494999
 31
0.0
 12
241.5242842129
 22
104.292494999
 32
0.0
 13
241.5242842129
 23
104.292494999
 33
0.0
  0
LINE
  5
123
330
11E
100
AcDbEntity
  8
VERMASSUNG
100
AcDbLine
 10
184.3916228332
 20
139.292494999
 30
0.0
 11
242.9742842129
 21
139.292494999
 31
0.0
  0
LINE
  5
124
330
11E
100
AcDbEntity
  8
VERMASSUNG
100
AcDbLine
 10
184.3916228332
 20
101.292494999
 30
0.0
 11
242.9742842129
 21
101.292494999
 31
0.0
  0
LINE
  5
125
330
11E
100
AcDbEntity
  8
VERMASSUNG
100
AcDbLine
 10
241.9742842129
 20
139.292494999
 30
0.0
 11
241.9742842129
 21
101.292494999
 31
0.0
  0
MTEXT
  5
126
330
11E
100
AcDbEntity
  8
VERMASSUNG
100
AcDbMText
 10
239.396148908
 20
117.0874950417
 30
0.0
 40
2.0
 41
0.0
 71
     1
 72
     1
  1
%%c
  7
SLDTEXTSTYLE0
 11
-7.044195017643634E-15
 21
1.0
 31
0.0
 73
     1
 44
1.0
  0
MTEXT
  5
127
330
11E
100
AcDbEntity
  8
VERMASSUNG
100
AcDbMText
 10
239.1961489567
 20
120.697495056
 30
0.0
 40
2.0
 41
0.0
 71
     1
 72
     1
  1
38
  7
SLDTEXTSTYLE0
 11
-7.044195017643634E-15
 21
1.0
 31
0.0
 73
     1
 44
1.0
  0
ENDBLK
  5
120
330
11E
100
AcDbEntity
  8
0
100
AcDbBlockEnd
  0
BLOCK
  5
12B
330
12A
100
AcDbEntity
  8
0
100
AcDbBlockBegin
  2
_D_2
 70
     0
 10
0.0
 20
0.0
 30
0.0
  3
_D_2
  1

  0
SOLID
  5
12D
330
12A
100
AcDbEntity
  8
VERMASSUNG
100
AcDbTrace
 10
72.0415978332
 20
151.767494999
 30
0.0
 11
71.5915978332
 21
148.767494999
 31
0.0
 12
72.4915978332
 22
148.767494999
 32
0.0
 13
72.4915978332
 23
148.767494999
 33
0.0
  0
SOLID
  5
12E
330
12A
100
AcDbEntity
  8
VERMASSUNG
100
AcDbTrace
 10
72.0415978332
 20
88.817494999
 30
0.0
 11
72.4915978332
 21
91.817494999
 31
0.0
 12
71.5915978332
 22
91.817494999
 32
0.0
 13
71.5915978332
 23
91.817494999
 33
0.0
  0
LINE
  5
12F
330
12A
100
AcDbEntity
  8
VERMASSUNG
100
AcDbLine
 10
122.1916228332
 20
151.767494999
 30
0.0
 11
71.0415978332
 21
151.767494999
 31
0.0
  0
LINE
  5
130
330
12A
100
AcDbEntity
  8
VERMASSUNG
100
AcDbLine
 10
122.1916228332
 20
88.817494999
 30
0.0
 11
71.0415978332
 21
88.817494999
 31
0.0
  0
LINE
  5
131
330
12A
100
AcDbEntity
  8
VERMASSUNG
100
AcDbLine
 10
72.0415978332
 20
151.767494999
 30
0.0
 11
72.0415978332
 21
88.817494999
 31
0.0
  0
MTEXT
  5
132
330
12A
100
AcDbEntity
  8
VERMASSUNG
100
AcDbMText
 10
69.263462577
 20
112.1874963806
 30
0.0
 40
2.0
 41
0.0
 71
     1
 72
     1
  1
KM
  7
SLDTEXTSTYLE0
 11
-7.044195017643634E-15
 21
1.0
 31
0.0
 73
     1
 44
1.0
  0
MTEXT
  5
133
330
12A
100
AcDbEntity
  8
VERMASSUNG
100
AcDbMText
 10
69.4634625283
 20
115.5874961928
 30
0.0
 40
2.0
 41
0.0
 71
     1
 72
     1
  1
%%c
  7
SLDTEXTSTYLE0
 11
-7.044195017643634E-15
 21
1.0
 31
0.0
 73
     1
 44
1.0
  0
MTEXT
  5
134
330
12A
100
AcDbEntity
  8
VERMASSUNG
100
AcDbMText
 10
69.263462577
 20
119.1974962072
 30
0.0
 40
2.0
 41
0.0
 71
     1
 72
     1
  1
63
  7
SLDTEXTSTYLE0
 11
-7.044195017643634E-15
 21
1.0
 31
0.0
 73
     1
 44
1.0
  0
MTEXT
  5
135
330
12A
100
AcDbEntity
  8
VERMASSUNG
100
AcDbMText
 10
69.263462577
 20
123.1849961073
 30
0.0
 40
2.0
 41
0.0
 71
     1
 72
     1
  1
XMZ
  7
SLDTEXTSTYLE0
 11
-7.044195017643634E-15
 21
1.0
 31
0.0
 73
     1
 44
1.0
  0
ENDBLK
  5
12C
330
12A
100
AcDbEntity
  8
0
100
AcDbBlockEnd
  0
BLOCK
  5
138
330
137
100
AcDbEntity
  8
0
100
AcDbBlockBegin
  2
_D_3
 70
     0
 10
0.0
 20
0.0
 30
0.0
  3
_D_3
  1

  0
SOLID
  5
13A
330
137
100
AcDbEntity
  8
VERMASSUNG
100
AcDbTrace
 10
139.9916228332
 20
157.9422697317
 30
0.0
 11
142.9916228332
 21
157.4922697317
 31
0.0
 12
142.9916228332
 22
158.3922697317
 32
0.0
 13
142.9916228332
 23
158.3922697317
 33
0.0
  0
SOLID
  5
13B
330
137
100
AcDbEntity
  8
VERMASSUNG
100
AcDbTrace
 10
184.9916228332
 20
157.9422697317
 30
0.0
 11
181.9916228332
 21
158.3922697317
 31
0.0
 12
181.9916228332
 22
157.4922697317
 32
0.0
 13
181.9916228332
 23
157.4922697317
 33
0.0
  0
LINE
  5
13C
330
137
100
AcDbEntity
  8
VERMASSUNG
100
AcDbLine
 10
139.9916228332
 20
151.767494999
 30
0.0
 11
139.9916228332
 21
158.9422697317
 31
0.0
  0
LINE
  5
13D
330
137
100
AcDbEntity
  8
VERMASSUNG
100
AcDbLine
 10
184.9916228332
 20
138.692494999
 30
0.0
 11
184.9916228332
 21
158.9422697317
 31
0.0
  0
LINE
  5
13E
330
137
100
AcDbEntity
  8
VERMASSUNG
100
AcDbLine
 10
139.9916228332
 20
157.9422697317
 30
0.0
 11
184.9916228332
 21
157.9422697317
 31
0.0
  0
MTEXT
  5
13F
330
137
100
AcDbEntity
  8
VERMASSUNG
100
AcDbMText
 10
160.9916228201
 20
160.5204053277
 30
0.0
 40
2.0
 41
0.0
 71
     1
 72
     1
  1
45
  7
SLDTEXTSTYLE0
 73
     1
 44
1.0
  0
ENDBLK
  5
139
330
137
100
AcDbEntity
  8
0
100
AcDbBlockEnd
  0
BLOCK
  5
142
330
141
100
AcDbEntity
  8
0
100
AcDbBlockBegin
  2
_D_4
 70
     0
 10
0.0
 20
0.0
 30
0.0
  3
_D_4
  1

  0
SOLID
  5
144
330
141
100
AcDbEntity
  8
VERMASSUNG
100
AcDbTrace
 10
121.9916228332
 20
164.4051424495
 30
0.0
 11
124.9916228332
 21
163.9551424495
 31
0.0
 12
124.9916228332
 22
164.8551424495
 32
0.0
 13
124.9916228332
 23
164.8551424495
 33
0.0
  0
SOLID
  5
145
330
141
100
AcDbEntity
  8
VERMASSUNG
100
AcDbTrace
 10
184.9916228332
 20
164.4051424495
 30
0.0
 11
181.9916228332
 21
164.8551424495
 31
0.0
 12
181.9916228332
 22
163.9551424495
 32
0.0
 13
181.9916228332
 23
163.9551424495
 33
0.0
  0
LINE
  5
146
330
141
100
AcDbEntity
  8
VERMASSUNG
100
AcDbLine
 10
121.9916228332
 20
151.567494999
 30
0.0
 11
121.9916228332
 21
165.4051424495
 31
0.0
  0
LINE
  5
147
330
141
100
AcDbEntity
  8
VERMASSUNG
100
AcDbLine
 10
184.9916228332
 20
138.692494999
 30
0.0
 11
184.9916228332
 21
165.4051424495
 31
0.0
  0
LINE
  5
148
330
141
100
AcDbEntity
  8
VERMASSUNG
100
AcDbLine
 10
121.9916228332
 20
164.4051424495
 30
0.0
 11
184.9916228332
 21
164.4051424495
 31
0.0
  0
MTEXT
  5
149
330
141
100
AcDbEntity
  8
VERMASSUNG
100
AcDbMText
 10
152.0916228831
 20
166.9832780455
 30
0.0
 40
2.0
 41
0.0
 71
     1
 72
     1
  1
63
  7
SLDTEXTSTYLE0
 73
     1
 44
1.0
  0
ENDBLK
  5
143
330
141
100
AcDbEntity
  8
0
100
AcDbBlockEnd
  0
BLOCK
  5
14C
330
14B
100
AcDbEntity
  8
0
100
AcDbBlockBegin
  2
_D_5
 70
     0
 10
0.0
 20
0.0
 30
0.0
  3
_D_5
  1

  0
SOLID
  5
14E
330
14B
100
AcDbEntity
  8
VERMASSUNG
100
AcDbTrace
 10
82.0416228332
 20
171.6617012906
 30
0.0
 11
85.0416228332
 21
171.2117012906
 31
0.0
 12
85.0416228332
 22
172.1117012906
 32
0.0
 13
85.0416228332
 23
172.1117012906
 33
0.0
  0
SOLID
  5
14F
330
14B
100
AcDbEntity
  8
VERMASSUNG
100
AcDbTrace
 10
201.9916228332
 20
171.6617012906
 30
0.0
 11
198.9916228332
 21
172.1117012906
 31
0.0
 12
198.9916228332
 22
171.2117012906
 32
0.0
 13
198.9916228332
 23
171.2117012906
 33
0.0
  0
LINE
  5
150
330
14B
100
AcDbEntity
  8
VERMASSUNG
100
AcDbLine
 10
82.0416228332
 20
140.5547207357
 30
0.0
 11
82.0416228332
 21
172.6617012906
 31
0.0
  0
LINE
  5
151
330
14B
100
AcDbEntity
  8
VERMASSUNG
100
AcDbLine
 10
201.9916228332
 20
127.692494999
 30
0.0
 11
201.9916228332
 21
172.6617012906
 31
0.0
  0
LINE
  5
152
330
14B
100
AcDbEntity
  8
VERMASSUNG
100
AcDbLine
 10
82.0416228332
 20
171.6617012906
 30
0.0
 11
201.9916228332
 21
171.6617012906
 31
0.0
  0
MTEXT
  5
153
330
14B
100
AcDbEntity
  8
VERMASSUNG
100
AcDbMText
 10
138.6166227881
 20
174.2398368866
 30
0.0
 40
2.0
 41
0.0
 71
     1
 72
     1
  1
119.95
  7
SLDTEXTSTYLE0
 73
     1
 44
1.0
  0
ENDBLK
  5
14D
330
14B
100
AcDbEntity
  8
0
100
AcDbBlockEnd
  0
BLOCK
  5
156
330
155
100
AcDbEntity
  8
0
100
AcDbBlockBegin
  2
_D_6
 70
     0
 10
0.0
 20
0.0
 30
0.0
  3
_D_6
  1

  0
SOLID
  5
158
330
155
100
AcDbEntity
  8
VERMASSUNG
100
AcDbTrace
 10
184.9916228332
 20
157.9422697317
 30
0.0
 11
187.9916228332
 21
157.4922697317
 31
0.0
 12
187.9916228332
 22
158.3922697317
 32
0.0
 13
187.9916228332
 23
158.3922697317
 33
0.0
  0
SOLID
  5
159
330
155
100
AcDbEntity
  8
VERMASSUNG
100
AcDbTrace
 10
201.9916228332
 20
157.9422697317
 30
0.0
 11
198.9916228332
 21
158.3922697317
 31
0.0
 12
198.9916228332
 22
157.4922697317
 32
0.0
 13
198.9916228332
 23
157.4922697317
 33
0.0
  0
LINE
  5
15A
330
155
100
AcDbEntity
  8
VERMASSUNG
100
AcDbLine
 10
184.9916228332
 20
138.692494999
 30
0.0
 11
184.9916228332
 21
158.9422697317
 31
0.0
  0
LINE
  5
15B
330
155
100
AcDbEntity
  8
VERMASSUNG
100
AcDbLine
 10
201.9916228332
 20
127.692494999
 30
0.0
 11
201.9916228332
 21
158.9422697317
 31
0.0
  0
LINE
  5
15C
330
155
100
AcDbEntity
  8
VERMASSUNG
100
AcDbLine
 10
184.9916228332
 20
157.9422697317
 30
0.0
 11
201.9916228332
 21
157.9422697317
 31
0.0
  0
MTEXT
  5
15D
330
155
100
AcDbEntity
  8
VERMASSUNG
100
AcDbMText
 10
192.2916227762
 20
160.5204053277
 30
0.0
 40
2.0
 41
0.0
 71
     1
 72
     1
  1
17
  7
SLDTEXTSTYLE0
 73
     1
 44
1.0
  0
ENDBLK
  5
157
330
155
100
AcDbEntity
  8
0
100
AcDbBlockEnd
  0
BLOCK
  5
161
330
160
100
AcDbEntity
  8
0
100
AcDbBlockBegin
  2
_D_7
 70
     0
 10
0.0
 20
0.0
 30
0.0
  3
_D_7
  1

  0
SOLID
  5
163
330
160
100
AcDbEntity
  8
VERMASSUNG
100
AcDbTrace
 10
222.9916228332
 20
123.339994999
 30
0.0
 11
223.4416228332
 21
126.339994999
 31
0.0
 12
222.5416228332
 22
126.339994999
 32
0.0
 13
222.5416228332
 23
126.339994999
 33
0.0
  0
SOLID
  5
164
330
160
100
AcDbEntity
  8
VERMASSUNG
100
AcDbTrace
 10
222.9916228332
 20
117.244994999
 30
0.0
 11
222.5416228332
 21
114.244994999
 31
0.0
 12
223.4416228332
 22
114.244994999
 32
0.0
 13
223.4416228332
 23
114.244994999
 33
0.0
  0
LINE
  5
165
330
160
100
AcDbEntity
  8
VERMASSUNG
100
AcDbLine
 10
212.9916228332
 20
123.339994999
 30
0.0
 11
223.9916228332
 21
123.339994999
 31
0.0
  0
LINE
  5
166
330
160
100
AcDbEntity
  8
VERMASSUNG
100
AcDbLine
 10
212.9916228332
 20
117.244994999
 30
0.0
 11
223.9916228332
 21
117.244994999
 31
0.0
  0
LINE
  5
167
330
160
100
AcDbEntity
  8
VERMASSUNG
100
AcDbLine
 10
222.9916228332
 20
123.339994999
 30
0.0
 11
222.9916228332
 21
129.339994999
 31
0.0
  0
LINE
  5
168
330
160
100
AcDbEntity
  8
VERMASSUNG
100
AcDbLine
 10
222.9916228332
 20
123.339994999
 30
0.0
 11
222.9916228332
 21
117.244994999
 31
0.0
  0
LINE
  5
169
330
160
100
AcDbEntity
  8
VERMASSUNG
100
AcDbLine
 10
222.9916228332
 20
117.244994999
 30
0.0
 11
222.9916228332
 21
111.244994999
 31
0.0
  0
MTEXT
  5
16A
330
160
100
AcDbEntity
  8
VERMASSUNG
100
AcDbMText
 10
220.4134872372
 20
117.6924949919
 30
0.0
 40
2.0
 41
0.0
 71
     1
 72
     1
  1
SW
  7
SLDTEXTSTYLE0
 11
-7.044195017643634E-15
 21
1.0
 31
0.0
 73
     1
 44
1.0
  0
MTEXT
  5
16B
330
160
100
AcDbEntity
  8
VERMASSUNG
100
AcDbMText
 10
220.4134872372
 20
121.492495056
 30
0.0
 40
2.0
 41
0.0
 71
     1
 72
     1
  1
6
  7
SLDTEXTSTYLE0
 11
-7.044195017643634E-15
 21
1.0
 31
0.0
 73
     1
 44
1.0
  0
ENDBLK
  5
162
330
160
100
AcDbEntity
  8
0
100
AcDbBlockEnd
  0
ENDSEC
  0
SECTION
  2
ENTITIES
  0
MTEXT
  5
78
330
1F
100
AcDbEntity
  8
KOPF_DÜNN
100
AcDbMText
 10
13.8892156294
 20
23.8442973028
 30
0.0
 40
3.0
 41
0.0
 71
     1
 72
     1
  1
KY6.D16.K21.063
  7
SLDTEXTSTYLE0
 73
     1
 44
1.0
  0
MTEXT
  5
79
330
1F
100
AcDbEntity
  8
VERMASSUNG
100
AcDbMText
 10
13.9329988022
 20
28.8834360957
 30
0.0
 40
3.0
 41
0.0
 71
     1
 72
     1
  1
Fräsdorn_Milling arbor
  7
SLDTEXTSTYLE0
 73
     1
 44
1.0
  0
MTEXT
  5
7A
330
1F
100
AcDbEntity
  8
VERMASSUNG
100
AcDbMText
 10
98.8601118557
 20
13.8365368761
 30
0.0
 40
2.0
 41
0.0
 71
     1
 72
     1
  1
Datum: 19.02.2018
  7
SLDTEXTSTYLE0
 73
     1
 44
1.0
  0
MTEXT
  5
7B
330
1F
100
AcDbEntity
  8
VERMASSUNG
100
AcDbMText
 10
13.933048693
 20
18.0482802738
 30
0.0
 40
2.0
 41
0.0
 71
     1
 72
     1
  1
KM63 XMZ / Ø16
  7
SLDTEXTSTYLE0
 73
     1
 44
1.0
  0
MTEXT
  5
7C
330
1F
100
AcDbEntity
  8
VERMASSUNG
100
AcDbMText
 10
13.9808475933
 20
13.9090974274
 30
0.0
 40
2.0
 41
0.0
 71
     1
 72
     1
  1
Gewicht: 1042g
  7
SLDTEXTSTYLE0
 73
     1
 44
1.0
  0
ARC
  5
7D
330
1F
100
AcDbEntity
  8
0
  6
Continuous
 62
     7
370
    25
100
AcDbCircle
 10
189.4916228332
 20
130.792494999
 30
0.0
 40
0.5
100
AcDbArc
 50
270.0
 51
0.0
  0
ARC
  5
7E
330
1F
100
AcDbEntity
  8
0
  6
Continuous
 62
     7
370
    25
100
AcDbCircle
 10
189.4916228332
 20
137.792494999
 30
0.0
 40
0.5
100
AcDbArc
 50
0.0
 51
90.0
  0
LINE
  5
7F
330
1F
100
AcDbEntity
  8
0
  6
Continuous
 62
     7
370
    25
100
AcDbLine
 10
184.9916238465
 20
130.2924947754
 30
0.0
 11
189.4916255154
 21
130.2924947754
 31
0.0
  0
LINE
  5
80
330
1F
100
AcDbEntity
  8
0
  6
Continuous
 62
     7
370
    25
100
AcDbLine
 10
189.4916255154
 20
138.2924942241
 30
0.0
 11
184.9916238465
 21
138.2924942241
 31
0.0
  0
ARC
  5
81
330
1F
100
AcDbEntity
  8
0
  6
Continuous
 62
     7
370
    25
100
AcDbCircle
 10
189.4916228332
 20
102.792494999
 30
0.0
 40
0.5
100
AcDbArc
 50
270.0
 51
0.0
  0
ARC
  5
82
330
1F
100
AcDbEntity
  8
0
  6
Continuous
 62
     7
370
    25
100
AcDbCircle
 10
189.4916228332
 20
109.792494999
 30
0.0
 40
0.5000000000000142
100
AcDbArc
 50
0.0
 51
90.0
  0
LINE
  5
83
330
1F
100
AcDbEntity
  8
0
  6
Continuous
 62
     7
370
    25
100
AcDbLine
 10
184.9916238465
 20
102.2924957738
 30
0.0
 11
189.4916255154
 21
102.2924957738
 31
0.0
  0
LINE
  5
84
330
1F
100
AcDbEntity
  8
0
  6
Continuous
 62
     7
370
    25
100
AcDbLine
 10
189.4916255154
 20
110.2924952225
 30
0.0
 11
184.9916238465
 21
110.2924952225
 31
0.0
  0
LINE
  5
85
330
1F
100
AcDbEntity
  8
0
  6
Continuous
 62
     7
370
    25
100
AcDbLine
 10
212.5916216649
 20
126.7924951331
 30
0.0
 11
204.9916196741
 21
126.7924951331
 31
0.0
  0
LINE
  5
86
330
1F
100
AcDbEntity
  8
0
  6
Continuous
 62
     7
370
    25
100
AcDbLine
 10
204.9916196741
 20
113.7924948649
 30
0.0
 11
212.5916216649
 21
113.7924948649
 31
0.0
  0
ARC
  5
87
330
1F
100
AcDbEntity
  8
0
  6
Continuous
 62
     7
370
    25
100
AcDbCircle
 10
212.5916228332
 20
126.392494999
 30
0.0
 40
0.4000000000000199
100
AcDbArc
 50
0.0
 51
90.0
  0
ARC
  5
88
330
1F
100
AcDbEntity
  8
0
  6
Continuous
 62
     7
370
    25
100
AcDbCircle
 10
212.5916228332
 20
114.192494999
 30
0.0
 40
0.4000000000000057
100
AcDbArc
 50
270.0
 51
0.0
  0
ARC
  5
89
330
1F
100
AcDbEntity
  8
0
  6
Continuous
 62
     7
370
    25
100
AcDbCircle
 10
204.5916228332
 20
115.892494999
 30
0.0
 40
0.4000000000000057
100
AcDbArc
 50
0.0
 51
90.0
  0
ARC
  5
8A
330
1F
100
AcDbEntity
  8
0
  6
Continuous
 62
     7
370
    25
100
AcDbCircle
 10
204.5916228332
 20
124.692494999
 30
0.0
 40
0.4000000000000057
100
AcDbArc
 50
270.0
 51
0.0
  0
LINE
  5
8B
330
1F
100
AcDbEntity
  8
0
  6
Continuous
 62
     7
370
    25
100
AcDbLine
 10
204.5916203536
 20
124.292495189
 30
0.0
 11
201.991621045
 21
124.292495189
 31
0.0
  0
LINE
  5
8C
330
1F
100
AcDbEntity
  8
0
  6
Continuous
 62
     7
370
    25
100
AcDbLine
 10
201.991621045
 20
116.292494809
 30
0.0
 11
204.5916203536
 21
116.292494809
 31
0.0
  0
ARC
  5
8D
330
1F
100
AcDbEntity
  8
0
  6
Continuous
 62
     7
370
    25
100
AcDbCircle
 10
122.1916228332
 20
89.017494999
 30
0.0
 40
0.2000000000000028
100
AcDbArc
 50
180.0
 51
270.0
  0
ARC
  5
8E
330
1F
100
AcDbEntity
  8
0
  6
Continuous
 62
     7
370
    25
100
AcDbCircle
 10
122.1916228332
 20
151.567494999
 30
0.0
 40
0.2000000000000171
100
AcDbArc
 50
90.0
 51
180.0
  0
LINE
  5
8F
330
1F
100
AcDbEntity
  8
0
  6
Continuous
 62
     7
370
    25
100
AcDbLine
 10
128.5574250981
 20
88.8174949155
 30
0.0
 11
130.016622705
 21
91.3448994921
 31
0.0
  0
LINE
  5
90
330
1F
100
AcDbEntity
  8
0
  6
Continuous
 62
     7
370
    25
100
AcDbLine
 10
122.1916228281
 20
88.8174949155
 30
0.0
 11
128.5574250981
 21
88.8174949155
 31
0.0
  0
LINE
  5
91
330
1F
100
AcDbEntity
  8
0
  6
Continuous
 62
     7
370
    25
100
AcDbLine
 10
127.3521204606
 20
151.7674950824
 30
0.0
 11
122.1916228281
 21
151.7674950824
 31
0.0
  0
LINE
  5
92
330
1F
100
AcDbEntity
  8
0
  6
Continuous
 62
     7
370
    25
100
AcDbLine
 10
135.2258209266
 20
88.8174949155
 30
0.0
 11
139.9916220583
 21
88.8174949155
 31
0.0
  0
LINE
  5
93
330
1F
100
AcDbEntity
  8
0
  6
Continuous
 62
     7
370
    25
100
AcDbLine
 10
139.9916220583
 20
151.7674950824
 30
0.0
 11
138.7064695485
 21
151.7674950824
 31
0.0
  0
ARC
  5
94
330
1F
100
AcDbEntity
  8
0
  6
Continuous
 62
     7
370
    25
100
AcDbCircle
 10
121.5626879586
 20
94.742494999
 30
0.0
 40
0.8000000000000038
100
AcDbArc
 50
57.576802718
 51
107.5
  0
ARC
  5
95
330
1F
100
AcDbEntity
  8
0
  6
Continuous
 62
     7
370
    25
100
AcDbCircle
 10
121.5626879586
 20
145.842494999
 30
0.0
 40
0.8000000000000038
100
AcDbArc
 50
252.5
 51
302.423197282
  0
LINE
  5
96
330
1F
100
AcDbEntity
  8
0
  6
Continuous
 62
     7
370
    25
100
AcDbLine
 10
133.766622854
 20
91.3448994921
 30
0.0
 11
135.2258209266
 21
88.8174949155
 31
0.0
  0
LINE
  5
97
330
1F
100
AcDbEntity
  8
0
  6
Continuous
 62
     7
370
    25
100
AcDbLine
 10
120.8314407744
 20
145.2342336939
 30
0.0
 11
104.8865649976
 21
144.4335142092
 31
0.0
  0
LINE
  5
98
330
1F
100
AcDbEntity
  8
0
  6
Continuous
 62
     7
370
    25
100
AcDbLine
 10
104.8865649976
 20
96.1514757887
 30
0.0
 11
120.8314407744
 21
95.3507563041
 31
0.0
  0
LINE
  5
99
330
1F
100
AcDbEntity
  8
0
  6
Continuous
 62
     7
370
    25
100
AcDbLine
 10
120.8314407744
 20
95.3507563041
 30
0.0
 11
121.3221233232
 21
95.5054694728
 31
0.0
  0
LINE
  5
9A
330
1F
100
AcDbEntity
  8
0
  6
Continuous
 62
     7
370
    25
100
AcDbLine
 10
121.3221233232
 20
145.0795205251
 30
0.0
 11
120.8314407744
 21
145.2342336939
 31
0.0
  0
ARC
  5
9B
330
1F
100
AcDbEntity
  8
0
  6
Continuous
 62
     7
370
    25
100
AcDbCircle
 10
131.0166228332
 20
91.442494999
 30
0.0
 40
1.0
100
AcDbArc
 50
90.0
 51
180.0
  0
ARC
  5
9C
330
1F
100
AcDbEntity
  8
0
  6
Continuous
 62
     7
370
    25
100
AcDbCircle
 10
132.7666228332
 20
91.442494999
 30
0.0
 40
1.0
100
AcDbArc
 50
0.0
 51
90.0
  0
LINE
  5
9D
330
1F
100
AcDbEntity
  8
0
  6
Continuous
 62
     7
370
    25
100
AcDbLine
 10
131.0166228689
 20
92.4424948112
 30
0.0
 11
132.7666226901
 21
92.4424948112
 31
0.0
  0
ARC
  5
9E
330
1F
100
AcDbEntity
  8
0
  6
Continuous
 62
     7
370
    25
100
AcDbCircle
 10
142.9916228332
 20
98.292494999
 30
0.0
 40
3.0
100
AcDbArc
 50
90.0
 51
180.0
  0
ARC
  5
9F
330
1F
100
AcDbEntity
  8
0
  6
Continuous
 62
     7
370
    25
100
AcDbCircle
 10
142.9916228332
 20
142.292494999
 30
0.0
 40
3.0
100
AcDbArc
 50
180.0
 51
270.0
  0
LINE
  5
A0
330
1F
100
AcDbEntity
  8
0
  6
Continuous
 62
     7
370
    25
100
AcDbLine
 10
142.9916225501
 20
101.2924956099
 30
0.0
 11
184.3916211404
 21
101.2924956099
 31
0.0
  0
LINE
  5
A1
330
1F
100
AcDbEntity
  8
0
  6
Continuous
 62
     7
370
    25
100
AcDbLine
 10
184.3916211404
 20
139.292494388
 30
0.0
 11
142.9916225501
 21
139.292494388
 31
0.0
  0
ARC
  5
A2
330
1F
100
AcDbEntity
  8
0
  6
Continuous
 62
     7
370
    25
100
AcDbCircle
 10
184.3916228332
 20
101.892494999
 30
0.0
 40
0.6000000000000085
100
AcDbArc
 50
270.0
 51
0.0
  0
ARC
  5
A3
330
1F
100
AcDbEntity
  8
0
  6
Continuous
 62
     7
370
    25
100
AcDbCircle
 10
184.3916228332
 20
138.692494999
 30
0.0
 40
0.6000000000000227
100
AcDbArc
 50
0.0
 51
90.0
  0
ARC
  5
A4
330
1F
100
AcDbEntity
  8
0
  6
Continuous
 62
     7
370
    25
100
AcDbCircle
 10
185.4916228332
 20
111.942494999
 30
0.0
 40
0.6000000000000085
100
AcDbArc
 50
90.0
 51
146.4426902381
  0
ARC
  5
A5
330
1F
100
AcDbEntity
  8
0
  6
Continuous
 62
     7
370
    25
100
AcDbCircle
 10
185.4916228332
 20
128.642494999
 30
0.0
 40
0.6000000000000019
100
AcDbArc
 50
213.5573097619
 51
270.0
  0
ARC
  5
A6
330
1F
100
AcDbEntity
  8
0
  6
Continuous
 62
     7
370
    25
100
AcDbCircle
 10
201.3916228332
 20
112.892494999
 30
0.0
 40
0.5999999999999943
100
AcDbArc
 50
270.0
 51
0.0
  0
ARC
  5
A7
330
1F
100
AcDbEntity
  8
0
  6
Continuous
 62
     7
370
    25
100
AcDbCircle
 10
201.3916228332
 20
127.692494999
 30
0.0
 40
0.6000000000000227
100
AcDbArc
 50
0.0
 51
90.0
  0
LINE
  5
A8
330
1F
100
AcDbEntity
  8
0
  6
Continuous
 62
     7
370
    25
100
AcDbLine
 10
186.991620449
 20
112.292494619
 30
0.0
 11
201.3916257896
 21
112.292494619
 31
0.0
  0
LINE
  5
A9
330
1F
100
AcDbEntity
  8
0
  6
Continuous
 62
     7
370
    25
100
AcDbLine
 10
201.3916257896
 20
128.2924953789
 30
0.0
 11
186.991620449
 21
128.2924953789
 31
0.0
  0
LINE
  5
AA
330
1F
100
AcDbEntity
  8
0
  6
Continuous
 62
     7
370
    25
100
AcDbLine
 10
186.991620449
 20
128.2924953789
 30
0.0
 11
186.1349079885
 21
128.0629397311
 31
0.0
  0
LINE
  5
AB
330
1F
100
AcDbEntity
  8
0
  6
Continuous
 62
     7
370
    25
100
AcDbLine
 10
186.1349079885
 20
112.5220502668
 30
0.0
 11
186.991620449
 21
112.292494619
 31
0.0
  0
ARC
  5
AC
330
1F
100
AcDbEntity
  8
0
  6
Continuous
 62
     7
370
    25
100
AcDbCircle
 10
185.9796186327
 20
111.942494999
 30
0.0
 40
0.6000000000000085
100
AcDbArc
 50
75.0
 51
90.0
  0
ARC
  5
AD
330
1F
100
AcDbEntity
  8
0
  6
Continuous
 62
     7
370
    25
100
AcDbCircle
 10
185.9796186327
 20
128.642494999
 30
0.0
 40
0.5999999999999943
100
AcDbArc
 50
270.0
 51
285.0
  0
LINE
  5
AE
330
1F
100
AcDbEntity
  8
0
  6
Continuous
 62
     7
370
    25
100
AcDbLine
 10
185.4916248597
 20
112.5424951256
 30
0.0
 11
185.9796155371
 21
112.5424951256
 31
0.0
  0
LINE
  5
AF
330
1F
100
AcDbEntity
  8
0
  6
Continuous
 62
     7
370
    25
100
AcDbLine
 10
185.9796155371
 20
128.0424948723
 30
0.0
 11
185.4916248597
 21
128.0424948723
 31
0.0
  0
LINE
  5
B0
330
1F
100
AcDbEntity
  8
0
  6
Continuous
 62
     7
370
    25
100
AcDbLine
 10
103.991623608
 20
97.0464171783
 30
0.0
 11
104.8865649976
 21
96.1514757887
 31
0.0
  0
LINE
  5
B1
330
1F
100
AcDbEntity
  8
0
  6
Continuous
 62
     7
370
    25
100
AcDbLine
 10
104.8865649976
 20
144.4335142092
 30
0.0
 11
103.991623608
 21
143.5385728196
 31
0.0
  0
LINE
  5
B2
330
1F
100
AcDbEntity
  8
0
  6
Continuous
 62
     7
370
    25
100
AcDbLine
 10
189.9916265287
 20
130.7924948574
 30
0.0
 11
189.9916265287
 21
137.7924950735
 31
0.0
  0
LINE
  5
B3
330
1F
100
AcDbEntity
  8
0
  6
Continuous
 62
     7
370
    25
100
AcDbLine
 10
189.9916265287
 20
102.7924949245
 30
0.0
 11
189.9916265287
 21
109.7924951405
 31
0.0
  0
LINE
  5
B4
330
1F
100
AcDbEntity
  8
0
  6
Continuous
 62
     7
370
    25
100
AcDbLine
 10
204.9916196741
 20
126.7924951331
 30
0.0
 11
204.9916196741
 21
113.7924948649
 31
0.0
  0
LINE
  5
B5
330
1F
100
AcDbEntity
  8
0
  6
Continuous
 62
     7
370
    25
100
AcDbLine
 10
212.9916209854
 20
126.3924948812
 30
0.0
 11
212.9916209854
 21
114.1924951167
 31
0.0
  0
LINE
  5
B6
330
1F
100
AcDbEntity
  8
0
  6
Continuous
 62
     7
370
    25
100
AcDbLine
 10
121.9916228332
 20
89.0174945758
 30
0.0
 11
121.9916228332
 21
151.5674954222
 31
0.0
  0
LINE
  5
B7
330
1F
100
AcDbEntity
  8
0
  6
Continuous
 62
     7
370
    25
100
AcDbLine
 10
128.5574250981
 20
88.8174949155
 30
0.0
 11
128.5574250981
 21
151.5945596562
 31
0.0
  0
SPLINE
  5
B8
330
1F
100
AcDbEntity
  8
0
  6
Continuous
 62
     7
370
    25
100
AcDbSpline
210
0.0
220
0.0
230
1.0
 70
     8
 71
     3
 72
    10
 73
     6
 74
     0
 42
0.000000001
 43
0.00000001
 40
0.0
 40
0.0
 40
0.0
 40
0.0
 40
0.5
 40
0.5
 40
1.0
 40
1.0
 40
1.0
 40
1.0
 10
129.6856410257191
 20
149.7674949989653
 30
0.0
 10
129.5087558792957
 20
150.0576885387079
 30
0.0
 10
129.3232065044183
 20
150.3601019246484
 30
0.0
 10
128.9452575643708
 20
150.9721360619487
 30
0.0
 10
128.7524710221916
 20
151.2824129015137
 30
0.0
 10
128.5574250286023
 20
151.5945599724788
 30
0.0
  0
SPLINE
  5
B9
330
1F
100
AcDbEntity
  8
0
  6
Continuous
 62
     7
370
    25
100
AcDbSpline
210
0.0
220
0.0
230
1.0
 70
     8
 71
     3
 72
     8
 73
     4
 74
     0
 42
0.000000001
 43
0.00000001
 40
0.0
 40
0.0
 40
0.0
 40
0.0
 40
1.0
 40
1.0
 40
1.0
 40
1.0
 10
130.0166228331724
 20
149.1567460775824
 30
0.0
 10
129.8983260737425
 20
149.3746313119132
 30
0.0
 10
129.7868975915711
 20
149.5803116029553
 30
0.0
 10
129.6856410257191
 20
149.7674949989653
 30
0.0
  0
LINE
  5
BA
330
1F
100
AcDbEntity
  8
0
  6
Continuous
 62
     7
370
    25
100
AcDbLine
 10
130.016622705
 20
107.7613457979
 30
0.0
 11
130.016622705
 21
149.1567464487
 31
0.0
  0
SPLINE
  5
BB
330
1F
100
AcDbEntity
  8
0
  6
Continuous
 62
     7
370
    25
100
AcDbSpline
210
0.0
220
0.0
230
1.0
 70
     8
 71
     3
 72
    26
 73
    22
 74
     0
 42
0.000000001
 43
0.00000001
 40
0.0
 40
0.0
 40
0.0
 40
0.0
 40
0.1250000000000014
 40
0.1250000000000014
 40
0.2500000000000027
 40
0.2500000000000027
 40
0.3125000000000025
 40
0.3125000000000025
 40
0.3750000000000023
 40
0.3750000000000023
 40
0.4375000000000021
 40
0.4375000000000021
 40
0.5000000000000018
 40
0.5000000000000018
 40
0.5625000000000016
 40
0.5625000000000016
 40
0.6250000000000013
 40
0.6250000000000013
 40
0.7500000000000006
 40
0.7500000000000006
 40
1.0
 40
1.0
 40
1.0
 40
1.0
 10
130.0166228331724
 20
103.9593931479947
 30
0.0
 10
129.9247179224896
 20
103.984440840331
 30
0.0
 10
129.8370211462646
 20
104.0224484342453
 30
0.0
 10
129.6728148754974
 20
104.1334446853381
 30
0.0
 10
129.5955444572306
 20
104.2073781966516
 30
0.0
 10
129.4957783509055
 20
104.352676331982
 30
0.0
 10
129.4651654220032
 20
104.4068181459736
 30
0.0
 10
129.4102965481002
 20
104.5288823852417
 30
0.0
 10
129.3859113271713
 20
104.5974543668259
 30
0.0
 10
129.3462319506728
 20
104.7470385368601
 30
0.0
 10
129.3307658714355
 20
104.8281975420328
 30
0.0
 10
129.3096695363531
 20
105.0048535491243
 30
0.0
 10
129.304156470193
 20
105.1010976558461
 30
0.0
 10
129.3040895125707
 20
105.3003275982071
 30
0.0
 10
129.3093578199202
 20
105.4041755464306
 30
0.0
 10
129.3302003470882
 20
105.6200957425835
 30
0.0
 10
129.3458744602985
 20
105.7320648966777
 30
0.0
 10
129.405193390476
 20
106.0666911128226
 30
0.0
 10
129.46221322599
 20
106.2947458211916
 30
0.0
 10
129.6610481146339
 20
106.9531287652607
 30
0.0
 10
129.832318319866
 20
107.3716537537195
 30
0.0
 10
130.0166228331724
 20
107.7613457713186
 30
0.0
  0
LINE
  5
BC
330
1F
100
AcDbEntity
  8
0
  6
Continuous
 62
     7
370
    25
100
AcDbLine
 10
130.016622705
 20
91.3448994921
 30
0.0
 11
130.016622705
 21
103.9593936817
 31
0.0
  0
SPLINE
  5
BD
330
1F
100
AcDbEntity
  8
0
  6
Continuous
 62
     7
370
    25
100
AcDbSpline
210
0.0
220
0.0
230
1.0
 70
     8
 71
     3
 72
    11
 73
     7
 74
     0
 42
0.000000001
 43
0.00000001
 40
0.0
 40
0.0
 40
0.0
 40
0.0
 40
0.4050049547784818
 40
0.6483458302039385
 40
0.8998394259968291
 40
0.9999999999999999
 40
0.9999999999999999
 40
0.9999999999999999
 40
0.9999999999999999
 10
128.557425098131
 20
151.5945596561766
 30
0.0
 10
128.2645840299999
 20
151.632459453416
 30
0.0
 10
127.79579399868
 20
151.6931307494478
 30
0.0
 10
127.454254810532
 20
151.7445835063062
 30
0.0
 10
127.2806409438709
 20
151.7710372297586
 30
0.0
 10
127.3362745203547
 20
151.7625858054259
 30
0.0
 10
127.3521204605797
 20
151.7601786122657
 30
0.0
  0
LINE
  5
BE
330
1F
100
AcDbEntity
  8
0
  6
Continuous
 62
     7
370
    25
100
AcDbLine
 10
139.9916220583
 20
88.8174949155
 30
0.0
 11
139.9916220583
 21
151.7674950824
 31
0.0
  0
SPLINE
  5
BF
330
1F
100
AcDbEntity
  8
0
  6
Continuous
 62
     7
370
    25
100
AcDbSpline
210
0.0
220
0.0
230
1.0
 70
     8
 71
     3
 72
    24
 73
    20
 74
     0
 42
0.000000001
 43
0.00000001
 40
0.0
 40
0.0
 40
0.0
 40
0.0
 40
0.1249999999999991
 40
0.1249999999999991
 40
0.2499999999999981
 40
0.2499999999999981
 40
0.3749999999999972
 40
0.3749999999999972
 40
0.4999999999999962
 40
0.4999999999999962
 40
0.6249999999999964
 40
0.6249999999999964
 40
0.7499999999999968
 40
0.7499999999999968
 40
0.8124999999999976
 40
0.8124999999999976
 40
0.8749999999999982
 40
0.8749999999999982
 40
1.0
 40
1.0
 40
1.0
 40
1.0
 10
135.2258206377423
 20
107.2547509936534
 30
0.0
 10
135.4651635379039
 20
107.0971308993281
 30
0.0
 10
135.6814579462207
 20
106.9165991181663
 30
0.0
 10
136.0675911444681
 20
106.5105943098082
 30
0.0
 10
136.2332102978585
 20
106.2886391337505
 30
0.0
 10
136.5012173731449
 20
105.8219294040867
 30
0.0
 10
136.6058791042947
 20
105.571923650893
 30
0.0
 10
136.7439376362632
 20
105.0683051820694
 30
0.0
 10
136.7791101970175
 20
104.8132711676637
 30
0.0
 10
136.779135462614
 20
104.2969931899606
 30
0.0
 10
136.7439941794166
 20
104.0461848630463
 30
0.0
 10
136.605930505273
 20
103.5583572284573
 30
0.0
 10
136.5013015556167
 20
103.3202954579098
 30
0.0
 10
136.3002889177794
 20
102.9914816654314
 30
0.0
 10
136.2257388929132
 20
102.8857929437895
 30
0.0
 10
136.0613927295294
 20
102.682152818186
 30
0.0
 10
135.9709129095624
 20
102.5835941052096
 30
0.0
 10
135.681525610935
 20
102.3054563330526
 30
0.0
 10
135.4652851810837
 20
102.1427036299308
 30
0.0
 10
135.2258206377423
 20
102.0016986808037
 30
0.0
  0
LINE
  5
C0
330
1F
100
AcDbEntity
  8
0
  6
Continuous
 62
     7
370
    25
100
AcDbLine
 10
135.2258209266
 20
107.2547510208
 30
0.0
 11
135.2258209266
 21
151.3853622542
 31
0.0
  0
SPLINE
  5
C1
330
1F
100
AcDbEntity
  8
0
  6
Continuous
 62
     7
370
    25
100
AcDbSpline
210
0.0
220
0.0
230
1.0
 70
     8
 71
     3
 72
    12
 73
     8
 74
     0
 42
0.000000001
 43
0.00000001
 40
0.0
 40
0.0
 40
0.0
 40
0.0
 40
0.1144634680262505
 40
0.3661160526449659
 40
0.6247763889426796
 40
0.9030266255086999
 40
1.0
 40
1.0
 40
1.0
 40
1.0
 10
138.7064695485035
 20
151.756363915
 30
0.0
 10
138.7234878611376
 20
151.7589645105319
 30
0.0
 10
138.7779216254793
 20
151.7672826209918
 30
0.0
 10
138.2730153881924
 20
151.6900155424123
 30
0.0
 10
137.2793625617953
 20
151.5593667674527
 30
0.0
 10
136.156079506906
 20
151.4456427572753
 30
0.0
 10
135.416864741867
 20
151.3977418414681
 30
0.0
 10
135.2258209265867
 20
151.3853622541762
 30
0.0
  0
LINE
  5
C2
330
1F
100
AcDbEntity
  8
0
  6
Continuous
 62
     7
370
    25
100
AcDbLine
 10
135.2258209266
 20
88.8174949155
 30
0.0
 11
135.2258209266
 21
102.0016977505
 31
0.0
  0
SPLINE
  5
C3
330
1F
100
AcDbEntity
  8
0
  6
Continuous
 62
     7
370
    25
100
AcDbSpline
210
0.0
220
0.0
230
1.0
 70
     8
 71
     3
 72
     8
 73
     4
 74
     0
 42
0.000000001
 43
0.00000001
 40
0.0
 40
0.0
 40
0.0
 40
0.0
 40
1.0
 40
1.0
 40
1.0
 40
1.0
 10
134.1944665485084
 20
149.7674949989653
 30
0.0
 10
134.0529284602265
 20
149.5150309989099
 30
0.0
 10
133.9103179914896
 20
149.2614873097674
 30
0.0
 10
133.7666228331726
 20
149.0069511200459
 30
0.0
  0
SPLINE
  5
C4
330
1F
100
AcDbEntity
  8
0
  6
Continuous
 62
     7
370
    25
100
AcDbSpline
210
0.0
220
0.0
230
1.0
 70
     8
 71
     3
 72
     8
 73
     4
 74
     0
 42
0.000000001
 43
0.00000001
 40
0.0
 40
0.0
 40
0.0
 40
0.0
 40
1.0
 40
1.0
 40
1.0
 40
1.0
 10
135.2258206377421
 20
151.3853621507568
 30
0.0
 10
134.8774192330618
 20
150.8433734051058
 30
0.0
 10
134.5328508478289
 20
150.3031542181124
 30
0.0
 10
134.194466548508
 20
149.7674949989649
 30
0.0
  0
SPLINE
  5
C5
330
1F
100
AcDbEntity
  8
0
  6
Continuous
 62
     7
370
    25
100
AcDbSpline
210
0.0
220
0.0
230
1.0
 70
     8
 71
     3
 72
    10
 73
     6
 74
     0
 42
0.000000001
 43
0.00000001
 40
0.0
 40
0.0
 40
0.0
 40
0.0
 40
0.5
 40
0.5
 40
1.0
 40
1.0
 40
1.0
 40
1.0
 10
133.7666228331724
 20
109.1105560492777
 30
0.0
 10
134.0178157230439
 20
108.8450639007222
 30
0.0
 10
134.2650850347457
 20
108.5593775776797
 30
0.0
 10
134.7517063860566
 20
107.9435048957894
 30
0.0
 10
134.9910896937733
 20
107.6135671685488
 30
0.0
 10
135.2258206377423
 20
107.2547509936535
 30
0.0
  0
LINE
  5
C6
330
1F
100
AcDbEntity
  8
0
  6
Continuous
 62
     7
370
    25
100
AcDbLine
 10
133.766622854
 20
109.1105556057
 30
0.0
 11
133.766622854
 21
149.0069506631
 31
0.0
  0
SPLINE
  5
C7
330
1F
100
AcDbEntity
  8
0
  6
Continuous
 62
     7
370
    25
100
AcDbSpline
210
0.0
220
0.0
230
1.0
 70
     8
 71
     3
 72
    10
 73
     6
 74
     0
 42
0.000000001
 43
0.00000001
 40
0.0
 40
0.0
 40
0.0
 40
0.0
 40
0.5
 40
0.5
 40
1.0
 40
1.0
 40
1.0
 40
1.0
 10
135.2258206377423
 20
102.0016986808039
 30
0.0
 10
134.9910896937733
 20
102.0677143378586
 30
0.0
 10
134.7517063860566
 20
102.169122278943
 30
0.0
 10
134.2650850347457
 20
102.4253680730215
 30
0.0
 10
134.0178157230439
 20
102.5805163547123
 30
0.0
 10
133.7666228331724
 20
102.7599778275723
 30
0.0
  0
LINE
  5
C8
330
1F
100
AcDbEntity
  8
0
  6
Continuous
 62
     7
370
    25
100
AcDbLine
 10
133.766622854
 20
102.7599787281
 30
0.0
 11
133.766622854
 21
102.8091730491
 31
0.0
  0
SPLINE
  5
C9
330
1F
100
AcDbEntity
  8
0
  6
Continuous
 62
     7
370
    25
100
AcDbSpline
210
0.0
220
0.0
230
1.0
 70
     8
 71
     3
 72
    14
 73
    10
 74
     0
 42
0.000000001
 43
0.00000001
 40
0.0
 40
0.0
 40
0.0
 40
0.0
 40
0.25
 40
0.25
 40
0.5
 40
0.5
 40
0.75
 40
0.75
 40
1.0
 40
1.0
 40
1.0
 40
1.0
 10
133.7666228331726
 20
102.8091730153683
 30
0.0
 10
133.7666228331726
 20
102.8750902950774
 30
0.0
 10
133.7406933949066
 20
102.9364797538717
 30
0.0
 10
133.6412511376302
 20
103.0439058161611
 30
0.0
 10
133.5689687519094
 20
103.0894469902596
 30
0.0
 10
133.3842314151448
 20
103.1660839141394
 30
0.0
 10
133.2746847788228
 20
103.1960094679646
 30
0.0
 10
133.0313235338195
 20
103.2416516553913
 30
0.0
 10
132.8998124263737
 20
103.2569309060127
 30
0.0
 10
132.7666228331723
 20
103.2647773897126
 30
0.0
  0
SPLINE
  5
CA
330
1F
100
AcDbEntity
  8
0
  6
Continuous
 62
     7
370
    25
100
AcDbSpline
210
0.0
220
0.0
230
1.0
 70
     8
 71
     3
 72
    10
 73
     6
 74
     0
 42
0.000000001
 43
0.00000001
 40
0.0
 40
0.0
 40
0.0
 40
0.0
 40
0.5
 40
0.5
 40
1.0
 40
1.0
 40
1.0
 40
1.0
 10
132.7666228331724
 20
103.2647773897125
 30
0.0
 10
132.4561450534304
 20
103.2830682995303
 30
0.0
 10
132.1522044890785
 20
103.3316070440466
 30
0.0
 10
131.5576411235039
 20
103.4912464064573
 30
0.0
 10
131.277307565784
 20
103.5998549862174
 30
0.0
 10
131.0166228331724
 20
103.7358461159861
 30
0.0
  0
SPLINE
  5
CB
330
1F
100
AcDbEntity
  8
0
  6
Continuous
 62
     7
370
    25
100
AcDbSpline
210
0.0
220
0.0
230
1.0
 70
     8
 71
     3
 72
    14
 73
    10
 74
     0
 42
0.000000001
 43
0.00000001
 40
0.0
 40
0.0
 40
0.0
 40
0.0
 40
0.25
 40
0.25
 40
0.5
 40
0.5
 40
0.75
 40
0.75
 40
1.0
 40
1.0
 40
1.0
 40
1.0
 10
131.0166228331724
 20
103.7358461159861
 30
0.0
 10
130.8822720846313
 20
103.8059327294075
 30
0.0
 10
130.7590931818378
 20
103.8671280367031
 30
0.0
 10
130.5303427609485
 20
103.9767704100296
 30
0.0
 10
130.4284196689553
 20
104.0234782094177
 30
0.0
 10
130.2489946046101
 20
104.0944437222667
 30
0.0
 10
130.1725533557056
 20
104.1189562006593
 30
0.0
 10
130.0552653812439
 20
104.1174404931335
 30
0.0
 10
130.0166228331724
 20
104.088833449925
 30
0.0
 10
130.0166228331724
 20
104.0083321597114
 30
0.0
  0
LINE
  5
CC
330
1F
100
AcDbEntity
  8
0
  6
Continuous
 62
     7
370
    25
100
AcDbLine
 10
130.016622705
 20
104.0083328203
 30
0.0
 11
130.016622705
 21
103.9593936817
 31
0.0
  0
SPLINE
  5
CD
330
1F
100
AcDbEntity
  8
0
  6
Continuous
 62
     7
370
    25
100
AcDbSpline
210
0.0
220
0.0
230
1.0
 70
     8
 71
     3
 72
    16
 73
    12
 74
     0
 42
0.000000001
 43
0.00000001
 40
0.0
 40
0.0
 40
0.0
 40
0.0
 40
0.1250000000000001
 40
0.1250000000000001
 40
0.2500000000000003
 40
0.2500000000000003
 40
0.5000000000000002
 40
0.5000000000000002
 40
0.7500000000000001
 40
0.7500000000000001
 40
1.0
 40
1.0
 40
1.0
 40
1.0
 10
130.0166228331724
 20
107.8102847830354
 30
0.0
 10
130.0166228331724
 20
107.8503138331892
 30
0.0
 10
130.026395396812
 20
107.9018004882417
 30
0.0
 10
130.0605914422124
 20
108.0158647351477
 30
0.0
 10
130.0847766339233
 20
108.0782092726158
 30
0.0
 10
130.1724932980197
 20
108.2707355689709
 30
0.0
 10
130.249203463869
 20
108.4029967765594
 30
0.0
 10
130.42828556411
 20
108.6569457162257
 30
0.0
 10
130.5291683337298
 20
108.7769177785072
 30
0.0
 10
130.7579798319928
 20
108.998798136076
 30
0.0
 10
130.8822774404277
 20
109.0969645088225
 30
0.0
 10
131.0166228331724
 20
109.1768794507489
 30
0.0
  0
SPLINE
  5
CE
330
1F
100
AcDbEntity
  8
0
  6
Continuous
 62
     7
370
    25
100
AcDbSpline
210
0.0
220
0.0
230
1.0
 70
     8
 71
     3
 72
    12
 73
     8
 74
     0
 42
0.000000001
 43
0.00000001
 40
0.0
 40
0.0
 40
0.0
 40
0.0
 40
0.5000000000000003
 40
0.5000000000000003
 40
0.7500000000000001
 40
0.7500000000000001
 40
1.0
 40
1.0
 40
1.0
 40
1.0
 10
131.0166228331724
 20
109.1768794507489
 30
0.0
 10
131.2764250601
 20
109.3314220029951
 30
0.0
 10
131.5617490688734
 20
109.4586854623175
 30
0.0
 10
132.0016461020855
 20
109.5956833912595
 30
0.0
 10
132.1509865193924
 20
109.6328800916718
 30
0.0
 10
132.4551453401788
 20
109.6900470624367
 30
0.0
 10
132.6111048468909
 20
109.7100587716555
 30
0.0
 10
132.7666228331724
 20
109.7207702451918
 30
0.0
  0
SPLINE
  5
CF
330
1F
100
AcDbEntity
  8
0
  6
Continuous
 62
     7
370
    25
100
AcDbSpline
210
0.0
220
0.0
230
1.0
 70
     8
 71
     3
 72
    14
 73
    10
 74
     0
 42
0.000000001
 43
0.00000001
 40
0.0
 40
0.0
 40
0.0
 40
0.0
 40
0.25
 40
0.25
 40
0.5
 40
0.5
 40
0.75
 40
0.75
 40
1.0
 40
1.0
 40
1.0
 40
1.0
 10
132.7666228331724
 20
109.7207702451918
 30
0.0
 10
132.8998522841958
 20
109.7299465711784
 30
0.0
 10
133.0315536468059
 20
109.718554439212
 30
0.0
 10
133.274631305023
 20
109.6603937795523
 30
0.0
 10
133.3855372455716
 20
109.6136176576528
 30
0.0
 10
133.5682343186493
 20
109.5006585309217
 30
0.0
 10
133.6416218481309
 20
109.4337048249809
 30
0.0
 10
133.7404561270492
 20
109.2966729761862
 30
0.0
 10
133.7666228331724
 20
109.2258890010629
 30
0.0
 10
133.7666228331724
 20
109.159751237075
 30
0.0
  0
ARC
  5
D0
330
1F
100
AcDbEntity
  8
0
  6
Continuous
 62
     7
370
    25
100
AcDbCircle
 10
133.0538527359
 20
111.9693928695
 30
0.0
 40
4.201185193262733
100
AcDbArc
 50
269.8332063334
 51
292.0877293833
  0
ARC
  5
D1
330
1F
100
AcDbEntity
  8
0
  6
Continuous
 62
     7
370
    25
100
AcDbCircle
 10
132.9993753151
 20
111.8123142195
 30
0.0
 40
4.0443094085523
100
AcDbArc
 50
230.971800757
 51
270.5985299293
  0
SPLINE
  5
D2
330
1F
100
AcDbEntity
  8
0
  6
Continuous
 62
     7
370
    25
100
AcDbSpline
210
0.0
220
0.0
230
1.0
 70
     8
 71
     3
 72
    14
 73
    10
 74
     0
 42
0.000000001
 43
0.00000001
 40
0.0
 40
0.0
 40
0.0
 40
0.0
 40
0.25
 40
0.25
 40
0.5
 40
0.5
 40
0.75
 40
0.75
 40
1.0
 40
1.0
 40
1.0
 40
1.0
 10
131.0166228331724
 20
147.9647594301607
 30
0.0
 10
130.8822747468159
 20
147.9745907497315
 30
0.0
 10
130.75909807296
 20
148.0106301631216
 30
0.0
 10
130.5303514680419
 20
148.1225018594409
 30
0.0
 10
130.4284295040747
 20
148.1968566485312
 30
0.0
 10
130.249006101646
 20
148.380333115383
 30
0.0
 10
130.1725648134632
 20
148.487598636243
 30
0.0
 10
130.0552748406131
 20
148.7466251260614
 30
0.0
 10
130.0166228331724
 20
148.8978698310376
 30
0.0
 10
130.0166228331724
 20
149.0588680541491
 30
0.0
  0
SPLINE
  5
D3
330
1F
100
AcDbEntity
  8
0
  6
Continuous
 62
     7
370
    25
100
AcDbSpline
210
0.0
220
0.0
230
1.0
 70
     8
 71
     3
 72
    14
 73
    10
 74
     0
 42
0.000000001
 43
0.00000001
 40
0.0
 40
0.0
 40
0.0
 40
0.0
 40
0.25
 40
0.25
 40
0.5
 40
0.5
 40
0.75
 40
0.75
 40
1.0
 40
1.0
 40
1.0
 40
1.0
 10
133.7666228331725
 20
148.9085607444528
 30
0.0
 10
133.7666228331727
 20
148.7767215674839
 30
0.0
 10
133.7407063106016
 20
148.6446726304953
 30
0.0
 10
133.641261464024
 20
148.3994063387821
 30
0.0
 10
133.5689630716117
 20
148.2877859221943
 30
0.0
 10
133.3842591770878
 20
148.0970466329987
 30
0.0
 10
133.2746819152119
 20
148.0210857661517
 30
0.0
 10
133.0313517369937
 20
147.9172434419822
 30
0.0
 10
132.8998154780735
 20
147.8906102345489
 30
0.0
 10
132.7666228331722
 20
147.8919373619911
 30
0.0
  0
SPLINE
  5
D4
330
1F
100
AcDbEntity
  8
0
  6
Continuous
 62
     7
370
    25
100
AcDbSpline
210
0.0
220
0.0
230
1.0
 70
     8
 71
     3
 72
    10
 73
     6
 74
     0
 42
0.000000001
 43
0.00000001
 40
0.0
 40
0.0
 40
0.0
 40
0.0
 40
0.5
 40
0.5
 40
1.0
 40
1.0
 40
1.0
 40
1.0
 10
132.7666228331723
 20
147.8919373619914
 30
0.0
 10
132.4562449686115
 20
147.8950299575458
 30
0.0
 10
132.1522552647737
 20
147.9032944594717
 30
0.0
 10
131.5573269949832
 20
147.9288552208152
 30
0.0
 10
131.2773979712295
 20
147.9456764362164
 30
0.0
 10
131.0166228331724
 20
147.9647594301607
 30
0.0
  0
LINE
  5
D5
330
1F
100
AcDbEntity
  8
0
  6
Continuous
 62
     7
370
    25
100
AcDbLine
 10
133.766622854
 20
91.3448994921
 30
0.0
 11
133.766622854
 21
102.7599787281
 31
0.0
  0
LINE
  5
D6
330
1F
100
AcDbEntity
  8
0
  6
Continuous
 62
     7
370
    25
100
AcDbLine
 10
120.8314407744
 20
95.3507563041
 30
0.0
 11
120.8314407744
 21
145.2342336939
 31
0.0
  0
LINE
  5
D7
330
1F
100
AcDbEntity
  8
0
  6
Continuous
 62
     7
370
    25
100
AcDbLine
 10
104.8865649976
 20
96.5511584596
 30
0.0
 11
104.8865649976
 21
96.1514757887
 31
0.0
  0
SPLINE
  5
D8
330
1F
100
AcDbEntity
  8
0
  6
Continuous
 62
     7
370
    25
100
AcDbSpline
210
0.0
220
0.0
230
1.0
 70
     8
 71
     3
 72
    26
 73
    22
 74
     0
 42
0.000000001
 43
0.00000001
 40
0.0
 40
0.0
 40
0.0
 40
0.0
 40
0.0241259796969038
 40
0.048215991228259
 40
0.0723203915136643
 40
0.0964895678725153
 40
0.1207736231978452
 40
0.1452220711257179
 40
0.1698835501670319
 40
0.1948055644482148
 40
0.2200342569523467
 40
0.2456142191612283
 40
0.369097148691835
 40
0.4940698769485373
 40
0.6192566784762581
 40
0.7454656653603327
 40
0.7971495824713788
 40
0.8481710308405456
 40
0.8988013269235281
 40
0.9493179290492212
 40
1.0
 40
1.0
 40
1.0
 40
1.0
 10
99.94668067997098
 20
98.37308208504523
 30
0.0
 10
100.011929738522
 20
98.36926145556431
 30
0.0
 10
100.1423305792037
 20
98.3616258925798
 30
0.0
 10
100.3373103975034
 20
98.34570564221781
 30
0.0
 10
100.5314395347695
 20
98.32654744106681
 30
0.0
 10
100.7247008748651
 20
98.30385302732935
 30
0.0
 10
100.91709605334
 20
98.27774066074151
 30
0.0
 10
101.1086216318404
 20
98.24822885428691
 30
0.0
 10
101.2992771642244
 20
98.21537449369225
 30
0.0
 10
101.4890571633204
 20
98.17923818425191
 30
0.0
 10
101.6779757839729
 20
98.13988389140614
 30
0.0
 10
102.1047201971432
 20
98.04348512854766
 30
0.0
 10
102.7391925243214
 20
97.86684904967697
 30
0.0
 10
103.4788683766692
 20
97.58872981614434
 30
0.0
 10
104.0856156195012
 20
97.297384456421
 30
0.0
 10
104.4464074357197
 20
97.06990726640218
 30
0.0
 10
104.648581491484
 20
96.9104960293091
 30
0.0
 10
104.7554049474692
 20
96.80919688460052
 30
0.0
 10
104.8310156637675
 20
96.71526354486979
 30
0.0
 10
104.8781783364588
 20
96.62814390086102
 30
0.0
 10
104.883766390747
 20
96.57684877059802
 30
0.0
 10
104.8865649863738
 20
96.55115926941795
 30
0.0
  0
LINE
  5
D9
330
1F
100
AcDbEntity
  8
0
  6
Continuous
 62
     7
370
    25
100
AcDbLine
 10
98.031807331
 20
98.478591995
 30
0.0
 11
99.9466810502
 21
98.3730824606
 31
0.0
  0
SPLINE
  5
DA
330
1F
100
AcDbEntity
  8
0
  6
Continuous
 62
     7
370
    25
100
AcDbSpline
210
0.0
220
0.0
230
1.0
 70
     8
 71
     3
 72
    14
 73
    10
 74
     0
 42
0.000000001
 43
0.00000001
 40
0.0
 40
0.0
 40
0.0
 40
0.0
 40
0.0789261963155847
 40
0.1582328720522156
 40
0.3308475394554963
 40
0.5000195457601538
 40
0.667035788356921
 40
0.8332395193656904
 40
1.0
 40
1.0
 40
1.0
 40
1.0
 10
95.83559517460914
 20
98.37259908982024
 30
0.0
 10
95.88899069765118
 20
98.3806281830121
 30
0.0
 10
95.99603914746992
 20
98.39672507523586
 30
0.0
 10
96.22510986203235
 20
98.42652648885462
 30
0.0
 10
96.52398260023077
 20
98.45832045204779
 30
0.0
 10
96.89612567503193
 20
98.48447744204361
 30
0.0
 10
97.27175547406355
 20
98.49694265627829
 30
0.0
 10
97.65094778609333
 20
98.4965634966046
 30
0.0
 10
97.90471275564111
 20
98.48458970834312
 30
0.0
 10
98.03180740068152
 20
98.47859280352368
 30
0.0
  0
SPLINE
  5
DB
330
1F
100
AcDbEntity
  8
0
  6
Continuous
 62
     7
370
    25
100
AcDbSpline
210
0.0
220
0.0
230
1.0
 70
     8
 71
     3
 72
     8
 73
     4
 74
     0
 42
0.000000001
 43
0.00000001
 40
0.0
 40
0.0
 40
0.0
 40
0.0
 40
1.0
 40
1.0
 40
1.0
 40
1.0
 10
90.44330145096477
 20
98.66720847226887
 30
0.0
 10
92.24063813633781
 20
98.56907264221147
 30
0.0
 10
94.03797482171083
 20
98.4708537671699
 30
0.0
 10
95.83531150708387
 20
98.37255507811932
 30
0.0
  0
SPLINE
  5
DC
330
1F
100
AcDbEntity
  8
0
  6
Continuous
 62
     7
370
    25
100
AcDbSpline
210
0.0
220
0.0
230
1.0
 70
     8
 71
     3
 72
    13
 73
     9
 74
     0
 42
0.000000001
 43
0.00000001
 40
0.0
 40
0.0
 40
0.0
 40
0.0
 40
0.1667030582308044
 40
0.3329480818053134
 40
0.4990671507274983
 40
0.6653938523718556
 40
0.8322612710550201
 40
1.0
 40
1.0
 40
1.0
 40
1.0
 10
89.35979728611937
 20
98.78387553661075
 30
0.0
 10
89.4209043288707
 20
98.78018890893702
 30
0.0
 10
89.54295051617389
 20
98.77282578299723
 30
0.0
 10
89.7252854614376
 20
98.75779127540824
 30
0.0
 10
89.9065896743113
 20
98.73988966717525
 30
0.0
 10
90.08678853434795
 20
98.71878909032931
 30
0.0
 10
90.26609251248628
 20
98.6948427192951
 30
0.0
 10
90.38412453805768
 20
98.67642990408243
 30
0.0
 10
90.4432942278093
 20
98.66719952310477
 30
0.0
  0
SPLINE
  5
DD
330
1F
100
AcDbEntity
  8
0
  6
Continuous
 62
     7
370
    25
100
AcDbSpline
210
0.0
220
0.0
230
1.0
 70
     8
 71
     3
 72
     8
 73
     4
 74
     0
 42
0.000000001
 43
0.00000001
 40
0.0
 40
0.0
 40
0.0
 40
0.0
 40
1.0
 40
1.0
 40
1.0
 40
1.0
 10
83.54162283318516
 20
99.1036427687044
 30
0.0
 10
85.48101431749656
 20
98.99715711882106
 30
0.0
 10
87.42040580180796
 20
98.8905665475897
 30
0.0
 10
89.35979728611937
 20
98.78387553661074
 30
0.0
  0
LINE
  5
DE
330
1F
100
AcDbEntity
  8
0
  6
Continuous
 62
     7
370
    25
100
AcDbLine
 10
83.5416238882
 20
99.1036435531
 30
0.0
 11
83.5416238882
 21
141.4814339892
 31
0.0
  0
SPLINE
  5
DF
330
1F
100
AcDbEntity
  8
0
  6
Continuous
 62
     7
370
    25
100
AcDbSpline
210
0.0
220
0.0
230
1.0
 70
     8
 71
     3
 72
     8
 73
     4
 74
     0
 42
0.000000001
 43
0.00000001
 40
0.0
 40
0.0
 40
0.0
 40
0.0
 40
1.0
 40
1.0
 40
1.0
 40
1.0
 10
89.35979728611937
 20
141.8011144613199
 30
0.0
 10
87.42040580180797
 20
141.6944234503409
 30
0.0
 10
85.48101431749657
 20
141.5878328791096
 30
0.0
 10
83.54162283318517
 20
141.4813472292263
 30
0.0
  0
SPLINE
  5
E0
330
1F
100
AcDbEntity
  8
0
  6
Continuous
 62
     7
370
    25
100
AcDbSpline
210
0.0
220
0.0
230
1.0
 70
     8
 71
     3
 72
    13
 73
     9
 74
     0
 42
0.000000001
 43
0.00000001
 40
0.0
 40
0.0
 40
0.0
 40
0.0
 40
0.1686319999748162
 40
0.3360343310905639
 40
0.5025367825908819
 40
0.6684737453788441
 40
0.8341822636915266
 40
1.0
 40
1.0
 40
1.0
 40
1.0
 10
90.44329233558636
 20
141.9177932370619
 30
0.0
 10
90.38380243952662
 20
141.9085187468656
 30
0.0
 10
90.26525644925155
 20
141.8900373962927
 30
0.0
 10
90.08537975366568
 20
141.8660066495586
 30
0.0
 10
89.90498946603763
 20
141.8448755420494
 30
0.0
 10
89.72387729400383
 20
141.8269968434634
 30
0.0
 10
89.54211645683637
 20
141.8120350822863
 30
0.0
 10
89.42058368894173
 20
141.8047554677073
 30
0.0
 10
89.35979728611937
 20
141.8011144613199
 30
0.0
  0
SPLINE
  5
E1
330
1F
100
AcDbEntity
  8
0
  6
Continuous
 62
     7
370
    25
100
AcDbSpline
210
0.0
220
0.0
230
1.0
 70
     8
 71
     3
 72
     8
 73
     4
 74
     0
 42
0.000000001
 43
0.00000001
 40
0.0
 40
0.0
 40
0.0
 40
0.0
 40
1.0
 40
1.0
 40
1.0
 40
1.0
 10
95.83548575207965
 20
142.2124444610069
 30
0.0
 10
94.03809108064168
 20
142.1141426017904
 30
0.0
 10
92.2406964092037
 20
142.0159205616317
 30
0.0
 10
90.44330173776571
 20
141.9177815718162
 30
0.0
  0
SPLINE
  5
E2
330
1F
100
AcDbEntity
  8
0
  6
Continuous
 62
     7
370
    25
100
AcDbSpline
210
0.0
220
0.0
230
1.0
 70
     8
 71
     3
 72
    18
 73
    14
 74
     0
 42
0.000000001
 43
0.00000001
 40
0.0
 40
0.0
 40
0.0
 40
0.0
 40
0.0923325137111259
 40
0.1843692047063178
 40
0.2763458873811051
 40
0.3684982175655905
 40
0.461059898830402
 40
0.5542609546533457
 40
0.6483261285442697
 40
0.7434734636505935
 40
0.8399130993120554
 40
0.9201660718299485
 40
1.0
 40
1.0
 40
1.0
 40
1.0
 10
98.03180740068152
 20
142.106397194407
 30
0.0
 10
97.96147709716845
 20
142.1027258871021
 30
0.0
 10
97.82104182031652
 20
142.095395034937
 30
0.0
 10
97.6106792938139
 20
142.0898043756924
 30
0.0
 10
97.40123563089753
 20
142.0881997855587
 30
0.0
 10
97.19268596052505
 20
142.0909320595572
 30
0.0
 10
96.98504234324977
 20
142.0978551571453
 30
0.0
 10
96.77830415571016
 20
142.1089377674381
 30
0.0
 10
96.57248206374533
 20
142.1241067082926
 30
0.0
 10
96.36755038495318
 20
142.1432606942535
 30
0.0
 10
96.17606963955755
 20
142.1649633883051
 30
0.0
 10
95.998346487503
 20
142.187992911569
 30
0.0
 10
95.8900124929391
 20
142.2042563292112
 30
0.0
 10
95.83598728348584
 20
142.2123667524268
 30
0.0
  0
LINE
  5
E3
330
1F
100
AcDbEntity
  8
0
  6
Continuous
 62
     7
370
    25
100
AcDbLine
 10
99.9466810502
 20
142.2119075374
 30
0.0
 11
98.031807331
 21
142.1063980029
 31
0.0
  0
SPLINE
  5
E4
330
1F
100
AcDbEntity
  8
0
  6
Continuous
 62
     7
370
    25
100
AcDbSpline
210
0.0
220
0.0
230
1.0
 70
     8
 71
     3
 72
    25
 73
    21
 74
     0
 42
0.000000001
 43
0.00000001
 40
0.0
 40
0.0
 40
0.0
 40
0.0
 40
0.0280105225426479
 40
0.0559601148860778
 40
0.0839014045043132
 40
0.1118870776786396
 40
0.1399695827588963
 40
0.1682008401739896
 40
0.1966319670424239
 40
0.2253130233141486
 40
0.2542927850735853
 40
0.3799486436570562
 40
0.5057850221666559
 40
0.6313085886326678
 40
0.753206823801271
 40
0.8039473267958359
 40
0.8535894438558028
 40
0.9025339722397656
 40
0.9511970353793487
 40
1.0
 40
1.0
 40
1.0
 40
1.0
 10
104.8865649863738
 20
144.0338307285127
 30
0.0
 10
104.8866022081077
 20
144.0198725886908
 30
0.0
 10
104.8866765706083
 20
143.9919866716452
 30
0.0
 10
104.8742605199618
 20
143.9469428767595
 30
0.0
 10
104.8526559596081
 20
143.8996756525643
 30
0.0
 10
104.8209704899481
 20
143.8499764715883
 30
0.0
 10
104.7794443516282
 20
143.7979392226158
 30
0.0
 10
104.7280135958983
 20
143.74357645998
 30
0.0
 10
104.666699721187
 20
143.686925177315
 30
0.0
 10
104.5954893856876
 20
143.6280076156498
 30
0.0
 10
104.424652778484
 20
143.4991910398268
 30
0.0
 10
104.0869205450471
 20
143.2889876556836
 30
0.0
 10
103.4753658808515
 20
142.9980621340918
 30
0.0
 10
102.7391310457029
 20
142.7195353178696
 30
0.0
 10
102.0526449740535
 20
142.5252386121354
 30
0.0
 10
101.5039408279018
 20
142.4046477996824
 30
0.0
 10
101.121904649396
 20
142.3348706339198
 30
0.0
 10
100.7347385506915
 20
142.279081630064
 30
0.0
 10
100.342511881906
 20
142.2363514453208
 30
0.0
 10
100.0787506137918
 20
142.2200635501755
 30
0.0
 10
99.94668067997098
 20
142.2119079128854
 30
0.0
  0
LINE
  5
E5
330
1F
100
AcDbEntity
  8
0
  6
Continuous
 62
     7
370
    25
100
AcDbLine
 10
104.8865649976
 20
144.4335142092
 30
0.0
 11
104.8865649976
 21
144.0338315384
 31
0.0
  0
SPLINE
  5
E6
330
1F
100
AcDbEntity
  8
0
  6
Continuous
 62
     7
370
    25
100
AcDbSpline
210
0.0
220
0.0
230
1.0
 70
    11
 71
     3
 72
    39
 73
    35
 74
     0
 42
0.000000001
 43
0.00000001
 40
0.0
 40
0.0
 40
0.0
 40
0.0
 40
0.0310664058347798
 40
0.0621048158425991
 40
0.0931361551792733
 40
0.1235538293503577
 40
0.1538561545807598
 40
0.1850588072749104
 40
0.2160250992947717
 40
0.247186722379756
 40
0.2784462884306427
 40
0.3100516090231226
 40
0.3419834369140484
 40
0.3734259894013217
 40
0.4048604886785525
 40
0.4368740651833295
 40
0.468512068592407
 40
0.4998055358633177
 40
0.5309508213228404
 40
0.561864978443814
 40
0.5930416446592908
 40
0.6233742450133256
 40
0.6540913579073041
 40
0.6849496782718417
 40
0.7158160645167227
 40
0.7471731804043494
 40
0.7784514311866261
 40
0.8101295911560916
 40
0.8419598919689909
 40
0.8735175891922292
 40
0.9050808037889628
 40
0.9370235169792575
 40
0.9687441590033682
 40
0.9999999999999999
 40
0.9999999999999999
 40
0.9999999999999999
 40
0.9999999999999999
 10
93.90403892789938
 20
126.10074812856
 30
0.0
 10
94.2681680888641
 20
126.4801717864678
 30
0.0
 10
95.07095242558097
 20
127.1676534873614
 30
0.0
 10
96.46599091096304
 20
127.93356746178
 30
0.0
 10
97.97723275068631
 20
128.4224483952108
 30
0.0
 10
99.54882915720879
 20
128.5844262688444
 30
0.0
 10
101.1163737742674
 20
128.422981377886
 30
0.0
 10
102.6120457683761
 20
127.943256990642
 30
0.0
 10
103.9924620304117
 20
127.1899575224484
 30
0.0
 10
105.1895080839963
 20
126.177471648788
 30
0.0
 10
106.1784158637377
 20
124.9429228614221
 30
0.0
 10
106.9179106580402
 20
123.5179712331401
 30
0.0
 10
107.3942145809297
 20
121.9670407535978
 30
0.0
 10
107.5618807533857
 20
120.3461118863717
 30
0.0
 10
107.4166031525981
 20
118.7211029404503
 30
0.0
 10
106.9576284419663
 20
117.1620769601787
 30
0.0
 10
106.233642556113
 20
115.725420361503
 30
0.0
 10
105.2578283007903
 20
114.4786761467025
 30
0.0
 10
104.0735037531412
 20
113.4524789575055
 30
0.0
 10
102.7052974974117
 20
112.6820747377847
 30
0.0
 10
101.2175596602794
 20
112.1832255273081
 30
0.0
 10
99.6479097998269
 20
112.0020214474122
 30
0.0
 10
98.07165528149775
 20
112.1384445893307
 30
0.0
 10
96.5523797730229
 20
112.6028763221373
 30
0.0
 10
95.15136173897497
 20
113.3573103965064
 30
0.0
 10
93.9332252420758
 20
114.380720132041
 30
0.0
 10
92.9256143389473
 20
115.6276623935342
 30
0.0
 10
92.18014042839724
 20
117.0607517998023
 30
0.0
 10
91.70430461577348
 20
118.6174140250238
 30
0.0
 10
91.54049350078567
 20
120.2410769987294
 30
0.0
 10
91.68630564405102
 20
121.8686260427209
 30
0.0
 10
92.14644995622807
 20
123.4333737310564
 30
0.0
 10
92.87591002104932
 20
124.8773998005189
 30
0.0
 10
93.53768939851132
 20
125.7190108402173
 30
0.0
 10
93.90403892789936
 20
126.10074812856
 30
0.0
  0
SPLINE
  5
E7
330
1F
100
AcDbEntity
  8
0
  6
Continuous
 62
     7
370
    25
100
AcDbSpline
210
0.0
220
0.0
230
1.0
 70
    11
 71
     3
 72
    47
 73
    43
 74
     0
 42
0.000000001
 43
0.00000001
 40
0.0
 40
0.0
 40
0.0
 40
0.0
 40
0.0185565231571564
 40
0.035175779134607
 40
0.0498587703163977
 40
0.0626072874024163
 40
0.0953681049684394
 40
0.1250235944851125
 40
0.1545621306648851
 40
0.187325415667866
 40
0.214037648789779
 40
0.2498478283714602
 40
0.2676842772503708
 40
0.2839032654384537
 40
0.2985082395935219
 40
0.311504112535417
 40
0.3429211892384783
 40
0.3729479206117491
 40
0.4028496296254227
 40
0.4364008870238722
 40
0.4619504140689453
 40
0.4999311490763327
 40
0.5173446591947486
 40
0.5335937024374298
 40
0.5486836298429361
 40
0.5626211828729782
 40
0.5950895091111661
 40
0.6250625446193601
 40
0.6549914305494098
 40
0.6874537010179621
 40
0.7162620319992257
 40
0.7500327075718594
 40
0.7698580256218077
 40
0.7869169820502812
 40
0.8012094712348541
 40
0.8127363282889571
 40
0.8457518306190162
 40
0.8751838152098743
 40
0.9050548231038161
 40
0.9375234850660229
 40
0.9660340097891252
 40
1.0
 40
1.0
 40
1.0
 40
1.0
 10
94.44785184827366
 20
125.4017141227566
 30
0.0
 10
94.24975322066274
 20
125.202328833644
 30
0.0
 10
93.8968072406717
 20
124.8029998055417
 30
0.0
 10
93.4609002447755
 20
124.1843455109667
 30
0.0
 10
93.13096350776792
 20
123.6019849402159
 30
0.0
 10
92.74974777577616
 20
122.769456635228
 30
0.0
 10
92.42334195723514
 20
121.6601705320626
 30
0.0
 10
92.29898889840551
 20
120.2489932034378
 30
0.0
 10
92.44035826631205
 20
118.8395032042676
 30
0.0
 10
92.84185602054099
 20
117.5314356055463
 30
0.0
 10
93.51880541103728
 20
116.2467723046339
 30
0.0
 10
94.29198776872502
 20
115.2932845227226
 30
0.0
 10
95.08724946968913
 20
114.5939805551916
 30
0.0
 10
95.69138958745164
 20
114.167481515273
 30
0.0
 10
96.27110478207598
 20
113.8373299871638
 30
0.0
 10
97.08890604951299
 20
113.461369345075
 30
0.0
 10
98.18856847887422
 20
113.1323675108507
 30
0.0
 10
99.59093620753436
 20
112.9987894943467
 30
0.0
 10
101.0184088909386
 20
113.1347893733543
 30
0.0
 10
102.3155858746941
 20
113.5292775231977
 30
0.0
 10
103.6099888978512
 20
114.2010713301472
 30
0.0
 10
104.5619855783121
 20
114.9636253201002
 30
0.0
 10
105.2714583069313
 20
115.7656644400284
 30
0.0
 10
105.6970630868707
 20
116.3614600450151
 30
0.0
 10
106.0377257147887
 20
116.9527296653146
 30
0.0
 10
106.4273911016587
 20
117.797292496359
 30
0.0
 10
106.7591030632156
 20
118.9209444012254
 30
0.0
 10
106.8853442247134
 20
120.3388365613781
 30
0.0
 10
106.7410161134433
 20
121.75466175295
 30
0.0
 10
106.3287377643748
 20
123.0898197283069
 30
0.0
 10
105.6494215833929
 20
124.3587880618899
 30
0.0
 10
104.8630712251572
 20
125.31911055413
 30
0.0
 10
104.0692235514363
 20
126.0145181609964
 30
0.0
 10
103.4394993293981
 20
126.4505920370213
 30
0.0
 10
102.8782634100325
 20
126.7634411854927
 30
0.0
 10
102.0746549504797
 20
127.1306431862697
 30
0.0
 10
100.9945065559881
 20
127.4533531241955
 30
0.0
 10
99.58497823591267
 20
127.5852973567085
 30
0.0
 10
98.17577330907876
 20
127.451487335688
 30
0.0
 10
96.83506045925677
 20
127.046733343583
 30
0.0
 10
95.55079199407552
 20
126.3684779950537
 30
0.0
 10
94.81045296644842
 20
125.7666703551733
 30
0.0
 10
94.44785184827367
 20
125.4017141227566
 30
0.0
  0
SPLINE
  5
E8
330
1F
100
AcDbEntity
  8
0
  6
Continuous
 62
     7
370
    25
100
AcDbSpline
210
0.0
220
0.0
230
1.0
 70
     8
 71
     3
 72
     8
 73
     4
 74
     0
 42
0.000000001
 43
0.00000001
 40
0.0
 40
0.0
 40
0.0
 40
0.0
 40
1.0
 40
1.0
 40
1.0
 40
1.0
 10
82.62796301159322
 20
99.51421477970482
 30
0.0
 10
82.93251628530263
 20
99.3765380393295
 30
0.0
 10
83.23706955901204
 20
99.23967531841555
 30
0.0
 10
83.54162283272146
 20
99.1036427690844
 30
0.0
  0
SPLINE
  5
E9
330
1F
100
AcDbEntity
  8
0
  6
Continuous
 62
     7
370
    25
100
AcDbSpline
210
0.0
220
0.0
230
1.0
 70
     8
 71
     3
 72
     8
 73
     4
 74
     0
 42
0.000000001
 43
0.00000001
 40
0.0
 40
0.0
 40
0.0
 40
0.0
 40
1.0
 40
1.0
 40
1.0
 40
1.0
 10
82.0416228331724
 20
100.030269262221
 30
0.0
 10
82.23616996570514
 20
99.85686239390117
 30
0.0
 10
82.43163098594418
 20
99.68486629893447
 30
0.0
 10
82.62796301160132
 20
99.51421477970263
 30
0.0
  0
LINE
  5
EA
330
1F
100
AcDbEntity
  8
0
  6
Continuous
 62
     7
370
    25
100
AcDbLine
 10
82.0416245736
 20
100.0302685366
 30
0.0
 11
82.0416245736
 21
140.5547214613
 31
0.0
  0
SPLINE
  5
EB
330
1F
100
AcDbEntity
  8
0
  6
Continuous
 62
     7
370
    25
100
AcDbSpline
210
0.0
220
0.0
230
1.0
 70
     8
 71
     3
 72
     8
 73
     4
 74
     0
 42
0.000000001
 43
0.00000001
 40
0.0
 40
0.0
 40
0.0
 40
0.0
 40
1.0
 40
1.0
 40
1.0
 40
1.0
 10
82.62796301160485
 20
141.0707752182311
 30
0.0
 10
82.43163098594653
 20
140.9001236989982
 30
0.0
 10
82.23616996570631
 20
140.7281276040305
 30
0.0
 10
82.0416228331724
 20
140.5547207357097
 30
0.0
  0
SPLINE
  5
EC
330
1F
100
AcDbEntity
  8
0
  6
Continuous
 62
     7
370
    25
100
AcDbSpline
210
0.0
220
0.0
230
1.0
 70
     8
 71
     3
 72
     8
 73
     4
 74
     0
 42
0.000000001
 43
0.00000001
 40
0.0
 40
0.0
 40
0.0
 40
0.0
 40
1.0
 40
1.0
 40
1.0
 40
1.0
 10
83.54162283272149
 20
141.4813472288463
 30
0.0
 10
83.23706955901594
 20
141.3453146795169
 30
0.0
 10
82.9325162853104
 20
141.2084519586046
 30
0.0
 10
82.62796301160485
 20
141.0707752182311
 30
0.0
  0
SPLINE
  5
ED
330
1F
100
AcDbEntity
  8
0
  6
Continuous
 62
     7
370
    25
100
AcDbSpline
210
0.0
220
0.0
230
1.0
 70
     8
 71
     3
 72
     9
 73
     5
 74
     0
 42
0.000000001
 43
0.00000001
 40
0.0
 40
0.0
 40
0.0
 40
0.0
 40
0.9928139386157887
 40
1.0
 40
1.0
 40
1.0
 40
1.0
 10
97.66636752859743
 20
113.3027961418963
 30
0.0
 10
97.79863813819073
 20
113.2682567468108
 30
0.0
 10
97.93186613232798
 20
113.2334673530058
 30
0.0
 10
97.84796923394536
 20
113.2553112199309
 30
0.0
 10
97.84736634568365
 20
113.2554681912995
 30
0.0
  0
LINE
  5
EE
330
1F
100
AcDbEntity
  8
0
  6
Continuous
 62
     7
370
    25
100
AcDbLine
 10
184.9916238465
 20
101.8924945907
 30
0.0
 11
184.9916238465
 21
138.6924954073
 31
0.0
  0
LINE
  5
EF
330
1F
100
AcDbEntity
  8
0
  6
Continuous
 62
     7
370
    25
100
AcDbLine
 10
104.8865649976
 20
144.0338315384
 30
0.0
 11
104.2407542594
 21
143.3987123833
 31
0.0
  0
LINE
  5
F0
330
1F
100
AcDbEntity
  8
0
  6
Continuous
 62
     7
370
    25
100
AcDbLine
 10
104.8865649976
 20
96.5511584596
 30
0.0
 11
104.2432539292
 21
97.1838207857
 31
0.0
  0
LINE
  5
F1
330
1F
100
AcDbEntity
  8
0
  6
Continuous
 62
     7
370
    25
100
AcDbLine
 10
201.991621045
 20
112.8924949967
 30
0.0
 11
201.991621045
 21
127.6924950012
 31
0.0
  0
LINE
  5
F2
330
1F
100
AcDbEntity
  8
0
  6
Continuous
 62
     7
370
    25
100
AcDbLine
 10
186.991620449
 20
112.292494619
 30
0.0
 11
186.991620449
 21
128.2924953789
 31
0.0
  0
LINE
  5
F3
330
1F
100
AcDbEntity
  8
0
  6
Continuous
 62
     7
370
    25
100
AcDbLine
 10
103.991623608
 20
97.0464171783
 30
0.0
 11
103.991623608
 21
97.4312843696
 31
0.0
  0
LINE
  5
F4
330
1F
100
AcDbEntity
  8
0
  6
Continuous
 62
     7
370
    25
100
AcDbLine
 10
103.991623608
 20
143.1537056283
 30
0.0
 11
103.991623608
 21
143.5385728196
 31
0.0
  0
SPLINE
  5
F5
330
1F
100
AcDbEntity
  8
0
  6
Continuous
 62
     7
370
    25
100
AcDbSpline
210
0.0
220
0.0
230
1.0
 70
     8
 71
     3
 72
     9
 73
     5
 74
     0
 42
0.000000001
 43
0.00000001
 40
0.0
 40
0.0
 40
0.0
 40
0.0
 40
0.3190808825916768
 40
1.0
 40
1.0
 40
1.0
 40
1.0
 10
94.58397292868288
 20
125.5122600064612
 30
0.0
 10
94.48265371329961
 20
125.4216755756446
 30
0.0
 10
94.16511912908912
 20
125.137783823557
 30
0.0
 10
93.90642108436786
 20
124.7844757491913
 30
0.0
 10
93.73026864008101
 20
124.543901527021
 30
0.0
  0
SPLINE
  5
F6
330
1F
100
AcDbEntity
  8
0
  6
Continuous
 62
     7
370
    25
100
AcDbSpline
210
0.0
220
0.0
230
1.0
 70
     8
 71
     3
 72
     9
 73
     5
 74
     0
 42
0.000000001
 43
0.00000001
 40
0.0
 40
0.0
 40
0.0
 40
0.0
 40
0.4215719596259527
 40
1.0
 40
1.0
 40
1.0
 40
1.0
 10
96.9604101158777
 20
113.5452110261655
 30
0.0
 10
97.09444550442197
 20
113.4927796917342
 30
0.0
 10
97.41238740137159
 20
113.3684086721867
 30
0.0
 10
97.58234195154634
 20
113.3246186331877
 30
0.0
 10
97.68064842895659
 20
113.2992892467416
 30
0.0
  0
LINE
  5
F7
330
1F
100
AcDbEntity
  8
0
  6
HIDDEN
 62
     7
370
    18
100
AcDbLine
 10
204.9916196741
 20
113.7924948649
 30
0.0
 11
204.9916196741
 21
126.7924951331
 31
0.0
  0
LINE
  5
F8
330
1F
100
AcDbEntity
  8
0
  6
HIDDEN
 62
     7
370
    18
100
AcDbLine
 10
212.9916209854
 20
114.1924951167
 30
0.0
 11
212.9916209854
 21
126.3924948812
 31
0.0
  0
LINE
  5
F9
330
1F
100
AcDbEntity
  8
0
  6
HIDDEN
 62
     7
370
    18
100
AcDbLine
 10
204.9916196741
 20
115.8924950228
 30
0.0
 11
204.9916196741
 21
124.6725716569
 31
0.0
  0
LINE
  5
FA
330
1F
100
AcDbEntity
  8
0
  6
HIDDEN
 62
     7
370
    18
100
AcDbLine
 10
180.6821223475
 20
116.292494809
 30
0.0
 11
180.6821223475
 21
124.292495189
 31
0.0
  0
LINE
  5
FB
330
1F
100
AcDbEntity
  8
0
  6
HIDDEN
 62
     7
370
    18
100
AcDbLine
 10
179.9916211642
 20
116.9829950609
 30
0.0
 11
179.9916211642
 21
123.601994937
 31
0.0
  0
LINE
  5
FC
330
1F
100
AcDbEntity
  8
0
  6
HIDDEN
 62
     7
370
    18
100
AcDbLine
 10
212.9916209854
 20
120.292494999
 30
0.0
 11
212.9916209854
 21
117.2449949604
 31
0.0
  0
LINE
  5
FD
330
1F
100
AcDbEntity
  8
0
  6
HIDDEN
 62
     7
370
    18
100
AcDbLine
 10
208.9916203298
 20
120.292494999
 30
0.0
 11
208.9916203298
 21
118.7687449797
 31
0.0
  0
LINE
  5
FE
330
1F
100
AcDbEntity
  8
0
  6
HIDDEN
 62
     7
370
    18
100
AcDbLine
 10
208.9916203298
 20
120.292494999
 30
0.0
 11
208.9916203298
 21
121.8162450182
 31
0.0
  0
LINE
  5
FF
330
1F
100
AcDbEntity
  8
0
  6
HIDDEN
 62
     7
370
    18
100
AcDbLine
 10
208.9916203298
 20
120.292494999
 30
0.0
 11
212.9916209854
 21
120.292494999
 31
0.0
  0
LINE
  5
100
330
1F
100
AcDbEntity
  8
0
  6
HIDDEN
 62
     7
370
    18
100
AcDbLine
 10
212.9916209854
 20
120.292494999
 30
0.0
 11
212.9916209854
 21
123.3399950375
 31
0.0
  0
LINE
  5
101
330
1F
100
AcDbEntity
  8
0
  6
HIDDEN
 62
     7
370
    18
100
AcDbLine
 10
208.9916203298
 20
121.8162450182
 30
0.0
 11
208.9916203298
 21
123.3399950375
 31
0.0
  0
LINE
  5
102
330
1F
100
AcDbEntity
  8
0
  6
HIDDEN
 62
     7
370
    18
100
AcDbLine
 10
208.9916203298
 20
118.7687449797
 30
0.0
 11
208.9916203298
 21
121.8162450182
 31
0.0
  0
LINE
  5
103
330
1F
100
AcDbEntity
  8
0
  6
HIDDEN
 62
     7
370
    18
100
AcDbLine
 10
208.9916203298
 20
117.2449949604
 30
0.0
 11
208.9916203298
 21
118.7687449797
 31
0.0
  0
LINE
  5
104
330
1F
100
AcDbEntity
  8
0
  6
HIDDEN
 62
     7
370
    18
100
AcDbLine
 10
208.9916203298
 20
118.7687449797
 30
0.0
 11
208.9916203298
 21
117.2449949604
 31
0.0
  0
LINE
  5
105
330
1F
100
AcDbEntity
  8
0
  6
HIDDEN
 62
     7
370
    18
100
AcDbLine
 10
208.9916203298
 20
123.3399950375
 30
0.0
 11
208.9916203298
 21
121.8162450182
 31
0.0
  0
LINE
  5
106
330
1F
100
AcDbEntity
  8
0
  6
HIDDEN
 62
     7
370
    18
100
AcDbLine
 10
208.9916203298
 20
121.8162450182
 30
0.0
 11
208.9916203298
 21
118.7687449797
 31
0.0
  0
LINE
  5
107
330
1F
100
AcDbEntity
  8
0
  6
HIDDEN
 62
     7
370
    18
100
AcDbLine
 10
208.9916203298
 20
118.7687449797
 30
0.0
 11
208.9916203298
 21
117.2449949604
 31
0.0
  0
LINE
  5
108
330
1F
100
AcDbEntity
  8
0
  6
HIDDEN
 62
     7
370
    18
100
AcDbLine
 10
208.9916203298
 20
121.8162450182
 30
0.0
 11
208.9916203298
 21
123.3399950375
 31
0.0
  0
LINE
  5
109
330
1F
100
AcDbEntity
  8
0
  6
HIDDEN
 62
     7
370
    18
100
AcDbLine
 10
208.9916203298
 20
123.3399950375
 30
0.0
 11
212.9916209854
 21
123.3399950375
 31
0.0
  0
LINE
  5
10A
330
1F
100
AcDbEntity
  8
0
  6
HIDDEN
 62
     7
370
    18
100
AcDbLine
 10
208.9916203298
 20
117.2449949604
 30
0.0
 11
212.9916209854
 21
117.2449949604
 31
0.0
  0
LINE
  5
10B
330
1F
100
AcDbEntity
  8
0
  6
HIDDEN
 62
     7
370
    18
100
AcDbLine
 10
201.991621045
 20
124.292495189
 30
0.0
 11
180.6821223475
 21
124.292495189
 31
0.0
  0
LINE
  5
10C
330
1F
100
AcDbEntity
  8
0
  6
HIDDEN
 62
     7
370
    18
100
AcDbLine
 10
180.6821223475
 20
116.292494809
 30
0.0
 11
201.991621045
 21
116.292494809
 31
0.0
  0
LINE
  5
10D
330
1F
100
AcDbEntity
  8
0
  6
HIDDEN
 62
     7
370
    18
100
AcDbLine
 10
180.6821223475
 20
124.292495189
 30
0.0
 11
179.9916211642
 21
123.601994937
 31
0.0
  0
LINE
  5
10E
330
1F
100
AcDbEntity
  8
0
  6
HIDDEN
 62
     7
370
    18
100
AcDbLine
 10
179.9916211642
 20
116.9829950609
 30
0.0
 11
180.6821223475
 21
116.292494809
 31
0.0
  0
LINE
  5
10F
330
1F
100
AcDbEntity
  8
0
  6
HIDDEN
 62
     7
370
    18
100
AcDbLine
 10
208.9916203298
 20
123.3399950375
 30
0.0
 11
207.2321508207
 21
120.292494999
 31
0.0
  0
LINE
  5
110
330
1F
100
AcDbEntity
  8
0
  6
HIDDEN
 62
     7
370
    18
100
AcDbLine
 10
207.2321508207
 20
120.292494999
 30
0.0
 11
208.9916203298
 21
117.2449949604
 31
0.0
  0
DIMENSION
  5
111
330
1F
100
AcDbEntity
  8
VERMASSUNG
100
AcDbDimension
  2
_D
 10
232.7116687765
 20
128.292494999
 30
0.0
 11
232.7116687765
 21
120.292494999
 31
0.0
 70
   160
  1
%%c<>
 71
     2
 42
-1.0
  3
SLDDIMSTYLE0
100
AcDbAlignedDimension
 13
201.3916228332
 23
112.292494999
 33
0.0
 14
201.3916228332
 24
128.292494999
 34
0.0
 50
90.0
100
AcDbRotatedDimension
  0
DIMENSION
  5
11D
330
1F
100
AcDbEntity
  8
VERMASSUNG
100
AcDbDimension
  2
_D_1
 10
241.9742842129
 20
101.292494999
 30
0.0
 11
241.9742842129
 21
120.292494999
 31
0.0
 70
   160
  1
%%c<>
 71
     2
 42
-1.0
  3
SLDDIMSTYLE0
100
AcDbAlignedDimension
 13
184.3916228332
 23
139.292494999
 33
0.0
 14
184.3916228332
 24
101.292494999
 34
0.0
 50
90.0
100
AcDbRotatedDimension
  0
DIMENSION
  5
128
330
1F
100
AcDbEntity
  8
VERMASSUNG
100
AcDbDimension
  2
_D_2
 10
72.0415978332
 20
88.817494999
 30
0.0
 11
72.0415978332
 21
120.292494999
 31
0.0
 70
   160
  1
KM%%c<> XMZ
 71
     2
 42
-1.0
  3
SLDDIMSTYLE1
100
AcDbAlignedDimension
 13
122.1916228332
 23
151.767494999
 33
0.0
 14
122.1916228332
 24
88.817494999
 34
0.0
 50
90.0
100
AcDbRotatedDimension
  0
DIMENSION
  5
136
330
1F
100
AcDbEntity
  8
VERMASSUNG
100
AcDbDimension
  2
_D_3
 10
184.9916228332
 20
157.9422697317
 30
0.0
 11
162.4916228332
 21
157.9422697317
 31
0.0
 70
   160
  1
<>
 71
     2
 42
-1.0
  3
SLDDIMSTYLE0
100
AcDbAlignedDimension
 13
139.9916228332
 23
151.767494999
 33
0.0
 14
184.9916228332
 24
138.692494999
 34
0.0
100
AcDbRotatedDimension
  0
DIMENSION
  5
140
330
1F
100
AcDbEntity
  8
VERMASSUNG
100
AcDbDimension
  2
_D_4
 10
184.9916228332
 20
164.4051424495
 30
0.0
 11
153.4916228332
 21
164.4051424495
 31
0.0
 70
   160
  1
<>
 71
     2
 42
-1.0
  3
SLDDIMSTYLE0
100
AcDbAlignedDimension
 13
121.9916228332
 23
151.567494999
 33
0.0
 14
184.9916228332
 24
138.692494999
 34
0.0
100
AcDbRotatedDimension
  0
DIMENSION
  5
14A
330
1F
100
AcDbEntity
  8
VERMASSUNG
100
AcDbDimension
  2
_D_5
 10
201.9916228332
 20
171.6617012906
 30
0.0
 11
142.0166228332
 21
171.6617012906
 31
0.0
 70
   160
  1
<>
 71
     2
 42
-1.0
  3
SLDDIMSTYLE0
100
AcDbAlignedDimension
 13
82.0416228332
 23
140.5547207357
 33
0.0
 14
201.9916228332
 24
127.692494999
 34
0.0
100
AcDbRotatedDimension
  0
DIMENSION
  5
154
330
1F
100
AcDbEntity
  8
VERMASSUNG
100
AcDbDimension
  2
_D_6
 10
201.9916228332
 20
157.9422697317
 30
0.0
 11
193.4916228332
 21
157.9422697317
 31
0.0
 70
   160
  1
<>
 71
     2
 42
-1.0
  3
SLDDIMSTYLE0
100
AcDbAlignedDimension
 13
184.9916228332
 23
138.692494999
 33
0.0
 14
201.9916228332
 24
127.692494999
 34
0.0
100
AcDbRotatedDimension
  0
DIMENSION
  5
15E
330
1F
100
AcDbEntity
  8
VERMASSUNG
100
AcDbDimension
  2
_D_7
 10
222.9916228332
 20
117.244994999
 30
0.0
 11
222.9916228332
 21
120.292494999
 31
0.0
 70
   160
  1
SW<>
 71
     2
 42
-1.0
  3
SLDDIMSTYLE2
100
AcDbAlignedDimension
 13
212.9916228332
 23
123.339994999
 33
0.0
 14
212.9916228332
 24
117.244994999
 34
0.0
 50
90.0
100
AcDbRotatedDimension
  0
LINE
  5
16C
330
1F
100
AcDbEntity
  8
VERMASSUNG
  6
CENTERX2
370
    18
100
AcDbLine
 10
214.5916228332
 20
120.292494999
 30
0.0
 11
80.0416228332
 21
120.292494999
 31
0.0
  0
SPLINE
  5
16D
330
1F
100
AcDbEntity
  8
0
  6
Continuous
 62
     7
370
    25
100
AcDbSpline
210
0.0
220
0.0
230
1.0
 70
     8
 71
     3
 72
    17
 73
    13
 74
     0
 42
0.000000001
 43
0.00000001
 40
0.0
 40
0.0
 40
0.0
 40
0.0
 40
0.0890717134688445
 40
0.204488393496815
 40
0.3197381536421061
 40
0.4352542294517264
 40
0.5514366891625975
 40
0.668833318104121
 40
0.7875885975980708
 40
0.8912580621211359
 40
0.9911944560482592
 40
1.0
 40
1.0
 40
1.0
 40
1.0
 10
262.1643414645091
 20
42.16172574242947
 30
0.0
 10
262.246913374338
 20
42.23711915997218
 30
0.0
 10
262.4364796971506
 20
42.41020529734546
 30
0.0
 10
262.6915750886016
 20
42.75729568605625
 30
0.0
 10
262.9185883343606
 20
43.1654569682707
 30
0.0
 10
263.0801720138045
 20
43.59567768214034
 30
0.0
 10
263.1681364886788
 20
44.02457552619301
 30
0.0
 10
263.1738939134624
 20
44.43187561964382
 30
0.0
 10
263.0959475661033
 20
44.7864055509329
 30
0.0
 10
262.9355999764317
 20
45.05850130022266
 30
0.0
 10
262.7937620747355
 20
45.21808702618577
 30
0.0
 10
262.6971587139194
 20
45.25616850367695
 30
0.0
 10
262.6893361097232
 20
45.25925220928617
 30
0.0
  0
LINE
  5
16E
330
1F
100
AcDbEntity
  8
0
  6
Continuous
 62
     7
370
    25
100
AcDbLine
 10
262.6801974876
 20
45.269446824
 30
0.0
 11
261.0892066399
 21
46.1879062904
 31
0.0
  0
SPLINE
  5
16F
330
1F
100
AcDbEntity
  8
0
  6
Continuous
 62
     7
370
    25
100
AcDbSpline
210
0.0
220
0.0
230
1.0
 70
     8
 71
     3
 72
    12
 73
     8
 74
     0
 42
0.000000001
 43
0.00000001
 40
0.0
 40
0.0
 40
0.0
 40
0.0
 40
0.0871080311375795
 40
0.3364893227632731
 40
0.5867664058521193
 40
0.8488621158219704
 40
1.0
 40
1.0
 40
1.0
 40
1.0
 10
250.7981684921067
 20
36.09540267322781
 30
0.0
 10
250.8267574607552
 20
36.07537622149514
 30
0.0
 10
250.9371936923331
 20
35.99801610793416
 30
0.0
 10
251.1810747088209
 20
35.96380666523587
 30
0.0
 10
251.4984735116542
 20
35.99380195272932
 30
0.0
 10
251.7809739362277
 20
36.09992095490096
 30
0.0
 10
251.9514366113654
 20
36.20552070337346
 30
0.0
 10
252.0137823848371
 20
36.24414322288759
 30
0.0
  0
SPLINE
  5
170
330
1F
100
AcDbEntity
  8
0
  6
Continuous
 62
     7
370
    25
100
AcDbSpline
210
0.0
220
0.0
230
1.0
 70
     8
 71
     3
 72
    18
 73
    14
 74
     0
 42
0.000000001
 43
0.00000001
 40
0.0
 40
0.0
 40
0.0
 40
0.0
 40
0.0566955778911946
 40
0.1630496906369784
 40
0.2690931013991608
 40
0.3749832368246112
 40
0.4811180599763196
 40
0.5878651793056552
 40
0.6957278391903621
 40
0.804838840869917
 40
0.9000890947894485
 40
0.9919094879384976
 40
1.0
 40
1.0
 40
1.0
 40
1.0
 10
252.0137823848371
 20
36.24414322288758
 30
0.0
 10
252.0736321082749
 20
36.28670765731114
 30
0.0
 10
252.2457527436792
 20
36.4091178720587
 30
0.0
 10
252.5135331676839
 20
36.67253936458676
 30
0.0
 10
252.7926577860913
 20
37.04079406182748
 30
0.0
 10
253.0189379965911
 20
37.45104149377634
 30
0.0
 10
253.1807185786315
 20
37.8807016368191
 30
0.0
 10
253.2686301297923
 20
38.30975101495851
 30
0.0
 10
253.2744027861977
 20
38.71701044517729
 30
0.0
 10
253.1964513409103
 20
39.07155041850032
 30
0.0
 10
253.0361052233482
 20
39.34364373403434
 30
0.0
 10
252.8942674367731
 20
39.50323135171266
 30
0.0
 10
252.7976635835741
 20
39.54131161451479
 30
0.0
 10
252.7898408675468
 20
39.5443952501285
 30
0.0
  0
LINE
  5
171
330
1F
100
AcDbEntity
  8
0
  6
Continuous
 62
     7
370
    25
100
AcDbLine
 10
249.1898737289
 20
37.0088537939
 30
0.0
 11
250.7808645766
 21
36.0903943274
 31
0.0
  0
LINE
  5
172
330
1F
100
AcDbEntity
  8
0
  6
Continuous
 62
     7
370
    25
100
AcDbLine
 10
252.7807022454
 20
39.5545898648
 30
0.0
 11
251.1897113977
 21
40.4730493312
 31
0.0
  0
SPLINE
  5
173
330
1F
100
AcDbEntity
  8
0
  6
Continuous
 62
     7
370
    25
100
AcDbSpline
210
0.0
220
0.0
230
1.0
 70
     8
 71
     3
 72
    13
 73
     9
 74
     0
 42
0.000000001
 43
0.00000001
 40
0.0
 40
0.0
 40
0.0
 40
0.0
 40
0.0497823157970377
 40
0.250070084156089
 40
0.4504447463106244
 40
0.6510836430903443
 40
0.8522500321419315
 40
1.0
 40
1.0
 40
1.0
 40
1.0
 10
266.343870163994
 20
34.59897722321437
 30
0.0
 10
266.3729919137101
 20
34.63760915774601
 30
0.0
 10
266.5192783667541
 20
34.83166785037142
 30
0.0
 10
266.7354118666341
 20
35.22529380258164
 30
0.0
 10
266.9779676887493
 20
35.76067404163368
 30
0.0
 10
267.1476611429578
 20
36.30623439411983
 30
0.0
 10
267.2400678937746
 20
36.7951324654226
 30
0.0
 10
267.2500591028639
 20
37.0867145509482
 30
0.0
 10
267.2542899186242
 20
37.21018610196968
 30
0.0
  0
SPLINE
  5
174
330
1F
100
AcDbEntity
  8
0
  6
Continuous
 62
     7
370
    25
100
AcDbSpline
210
0.0
220
0.0
230
1.0
 70
     8
 71
     3
 72
    15
 73
    11
 74
     0
 42
0.000000001
 43
0.00000001
 40
0.0
 40
0.0
 40
0.0
 40
0.0
 40
0.1128971830544749
 40
0.2391039426809879
 40
0.3676413522116792
 40
0.4991914971197214
 40
0.6325158841135798
 40
0.7662493899874712
 40
0.8997889826843488
 40
1.0
 40
1.0
 40
1.0
 40
1.0
 10
263.3448177271993
 20
33.11778758183885
 30
0.0
 10
263.4447965091265
 20
33.07543367370059
 30
0.0
 10
263.6565406846366
 20
32.98573270730077
 30
0.0
 10
264.0286052447545
 20
32.96932250774962
 30
0.0
 10
264.4344942449047
 20
33.0406176027839
 30
0.0
 10
264.8579321507448
 20
33.2107553293087
 30
0.0
 10
265.2851446517194
 20
33.4724851349483
 30
0.0
 10
265.6991612552474
 20
33.81966794321731
 30
0.0
 10
266.0599451672423
 20
34.19791592003666
 30
0.0
 10
266.2586735113322
 20
34.4786317765865
 30
0.0
 10
266.343870163994
 20
34.59897722321437
 30
0.0
  0
SPLINE
  5
175
330
1F
100
AcDbEntity
  8
0
  6
Continuous
 62
     7
370
    25
100
AcDbSpline
210
0.0
220
0.0
230
1.0
 70
     8
 71
     3
 72
    12
 73
     8
 74
     0
 42
0.000000001
 43
0.00000001
 40
0.0
 40
0.0
 40
0.0
 40
0.0
 40
0.1195549623133107
 40
0.346758489593629
 40
0.5737388033062492
 40
0.7970380141157298
 40
1.0
 40
1.0
 40
1.0
 40
1.0
 10
267.2542899186242
 20
37.21018610196968
 30
0.0
 10
267.2520302244305
 20
37.29657622680803
 30
0.0
 10
267.2454761832569
 20
37.5471430675741
 30
0.0
 10
267.1724004699969
 20
37.92738247424339
 30
0.0
 10
267.0064932522801
 20
38.31431680321791
 30
0.0
 10
266.7719249084586
 20
38.62213209908222
 30
0.0
 10
266.5642811608022
 20
38.7473324036311
 30
0.0
 10
266.4654127024305
 20
38.80694585810842
 30
0.0
  0
LINE
  5
176
330
1F
100
AcDbEntity
  8
0
  6
Continuous
 62
     7
370
    25
100
AcDbLine
 10
266.5224808524
 20
38.7798233306
 30
0.0
 11
263.83547438
 21
40.3309991493
 31
0.0
  0
LINE
  5
177
330
1F
100
AcDbEntity
  8
0
  6
Continuous
 62
     7
370
    25
100
AcDbLine
 10
260.5857386622
 20
34.7016815198
 30
0.0
 11
263.2727451345
 21
33.1505057011
 31
0.0
  0
LINE
  5
178
330
1F
100
AcDbEntity
  8
0
  6
Continuous
 62
     7
370
    25
100
AcDbLine
 10
261.9295534722
 20
39.987927336
 30
0.0
 11
261.6390115378
 21
40.1556536246
 31
0.0
  0
LINE
  5
179
330
1F
100
AcDbEntity
  8
0
  6
Continuous
 62
     7
370
    25
100
AcDbLine
 10
259.640614929
 20
36.690626371
 30
0.0
 11
259.9297159681
 21
36.5237318936
 31
0.0
  0
SPLINE
  5
17A
330
1F
100
AcDbEntity
  8
0
  6
Continuous
 62
     7
370
    25
100
AcDbSpline
210
0.0
220
0.0
230
1.0
 70
     8
 71
     3
 72
    16
 73
    12
 74
     0
 42
0.000000001
 43
0.00000001
 40
0.0
 40
0.0
 40
0.0
 40
0.0
 40
0.017709442882137
 40
0.1468918124497728
 40
0.2771137566219898
 40
0.4081312172385569
 40
0.5396225743691956
 40
0.6713206500766926
 40
0.803033035608658
 40
0.9346754827742748
 40
1.0
 40
1.0
 40
1.0
 40
1.0
 10
251.9616740628263
 20
33.0285019071861
 30
0.0
 10
251.9909626549762
 20
33.02621014630073
 30
0.0
 10
252.2338982692499
 20
33.0072010271323
 30
0.0
 10
252.7205172359183
 20
33.06645205163926
 30
0.0
 10
253.4156119451186
 20
33.21204162021482
 30
0.0
 10
254.1317004458488
 20
33.46497413219575
 30
0.0
 10
254.856237534551
 20
33.81041123453038
 30
0.0
 10
255.5819680824548
 20
34.24621724638823
 30
0.0
 10
256.2982154163491
 20
34.77059166409095
 30
0.0
 10
256.8853727418696
 20
35.26140484725147
 30
0.0
 10
257.2209695647105
 20
35.60117972878371
 30
0.0
 10
257.3322709725497
 20
35.71386679877084
 30
0.0
  0
SPLINE
  5
17B
330
1F
100
AcDbEntity
  8
0
  6
Continuous
 62
     7
370
    25
100
AcDbSpline
210
0.0
220
0.0
230
1.0
 70
     8
 71
     3
 72
    12
 73
     8
 74
     0
 42
0.000000001
 43
0.00000001
 40
0.0
 40
0.0
 40
0.0
 40
0.0
 40
0.1814041684207808
 40
0.4333055243874061
 40
0.6849678309400914
 40
0.9358646615620736
 40
1.0
 40
1.0
 40
1.0
 40
1.0
 10
261.7177360062582
 20
45.82506391703155
 30
0.0
 10
261.7088603527059
 20
46.02183000392096
 30
0.0
 10
261.6876597940295
 20
46.49182930549991
 30
0.0
 10
261.5637519852849
 20
47.1778663993
 30
0.0
 10
261.3533969868587
 20
47.87308803718811
 30
0.0
 10
261.151658240187
 20
48.36043703746143
 30
0.0
 10
260.9986836401174
 20
48.58875671323885
 30
0.0
 10
260.9675405420105
 20
48.63523882242065
 30
0.0
  0
LINE
  5
17C
330
1F
100
AcDbEntity
  8
0
  6
Continuous
 62
     7
370
    25
100
AcDbLine
 10
235.5406833516
 20
41.9432011508
 30
0.0
 11
250.1777932238
 21
33.4933774811
 31
0.0
  0
LINE
  5
17D
330
1F
100
AcDbEntity
  8
0
  6
Continuous
 62
     7
370
    25
100
AcDbLine
 10
259.6770211628
 20
49.9483061413
 30
0.0
 11
245.0399112906
 21
58.3981298109
 31
0.0
  0
SPLINE
  5
17E
330
1F
100
AcDbEntity
  8
0
  6
Continuous
 62
     7
370
    25
100
AcDbSpline
210
0.0
220
0.0
230
1.0
 70
     8
 71
     3
 72
    12
 73
     8
 74
     0
 42
0.000000001
 43
0.00000001
 40
0.0
 40
0.0
 40
0.0
 40
0.0
 40
0.2136344019927082
 40
0.45853639708885
 40
0.7059983422780434
 40
0.959616089613497
 40
1.0
 40
1.0
 40
1.0
 40
1.0
 10
258.9044656429285
 20
34.81428869969857
 30
0.0
 10
259.0079320290757
 20
34.757034143895
 30
0.0
 10
259.2300081716878
 20
34.63414523887686
 30
0.0
 10
259.6262474793328
 20
34.56236736101442
 30
0.0
 10
260.0642733297669
 20
34.58448831313459
 30
0.0
 10
260.3927298971586
 20
34.64867600213261
 30
0.0
 10
260.5721655599756
 20
34.7304743964154
 30
0.0
 10
260.5968127466055
 20
34.74171018008435
 30
0.0
  0
SPLINE
  5
17F
330
1F
100
AcDbEntity
  8
0
  6
Continuous
 62
     7
370
    25
100
AcDbSpline
210
0.0
220
0.0
230
1.0
 70
     8
 71
     3
 72
    12
 73
     8
 74
     0
 42
0.000000001
 43
0.00000001
 40
0.0
 40
0.0
 40
0.0
 40
0.0
 40
0.1355599258069833
 40
0.4253500368803606
 40
0.7106876551575264
 40
0.9880584732487355
 40
1.0
 40
1.0
 40
1.0
 40
1.0
 10
263.7956821574194
 20
40.32987053628396
 30
0.0
 10
263.7839708462602
 20
40.41039793782651
 30
0.0
 10
263.7472239492417
 20
40.66307093843563
 30
0.0
 10
263.597389910116
 20
41.02801772520879
 30
0.0
 10
263.3453677073485
 20
41.39399996380045
 30
0.0
 10
263.1360585913537
 20
41.60995700725693
 30
0.0
 10
263.0042160300883
 20
41.67276858921458
 30
0.0
 10
262.998774155587
 20
41.67536117193567
 30
0.0
  0
LINE
  5
180
330
1F
100
AcDbEntity
  8
0
  6
Continuous
 62
     7
370
    25
100
AcDbLine
 10
253.8468082602
 20
37.7259812373
 30
0.0
 11
258.9379789729
 21
34.7869109447
 31
0.0
  0
LINE
  5
181
330
1F
100
AcDbEntity
  8
0
  6
Continuous
 62
     7
370
    25
100
AcDbLine
 10
262.9376539813
 20
41.7153018294
 30
0.0
 11
257.8464832685
 21
44.654372122
 31
0.0
  0
SPLINE
  5
182
330
1F
100
AcDbEntity
  8
0
  6
Continuous
 62
     7
370
    25
100
AcDbSpline
210
0.0
220
0.0
230
1.0
 70
     8
 71
     3
 72
    11
 73
     7
 74
     0
 42
0.000000001
 43
0.00000001
 40
0.0
 40
0.0
 40
0.0
 40
0.0
 40
0.2533052854739152
 40
0.5346952599241759
 40
0.8360123198353806
 40
1.0
 40
1.0
 40
1.0
 40
1.0
 10
259.8500804032891
 20
36.4366669117347
 30
0.0
 10
259.8041002217088
 20
36.46944571995353
 30
0.0
 10
259.7070419029478
 20
36.53863761757927
 30
0.0
 10
259.5956103375675
 20
36.74938134635771
 30
0.0
 10
259.5313184587133
 20
37.00223698145007
 30
0.0
 10
259.5252272027794
 20
37.19372603839005
 30
0.0
 10
259.5230804571226
 20
37.26121266278888
 30
0.0
  0
SPLINE
  5
183
330
1F
100
AcDbEntity
  8
0
  6
Continuous
 62
     7
370
    25
100
AcDbSpline
210
0.0
220
0.0
230
1.0
 70
     8
 71
     3
 72
    19
 73
    15
 74
     0
 42
0.000000001
 43
0.00000001
 40
0.0
 40
0.0
 40
0.0
 40
0.0
 40
0.0467026928347323
 40
0.1368590197775823
 40
0.2276413003055681
 40
0.3189092355454207
 40
0.41040648681563
 40
0.5017785511187934
 40
0.5926219330347549
 40
0.6826404176367885
 40
0.7717516598160041
 40
0.8605763941367988
 40
0.9508656690911134
 40
1.0
 40
1.0
 40
1.0
 40
1.0
 10
259.5230804571226
 20
37.26121266278888
 30
0.0
 10
259.5249103569324
 20
37.32601491043377
 30
0.0
 10
259.5302727520979
 20
37.51591342706638
 30
0.0
 10
259.5919848373106
 20
37.8657976369477
 30
0.0
 10
259.731233156252
 20
38.29987114442451
 30
0.0
 10
259.9352529013061
 20
38.73288411071658
 30
0.0
 10
260.1930020033453
 20
39.14058897440868
 30
0.0
 10
260.4908554564338
 20
39.50131921240142
 30
0.0
 10
260.811445538976
 20
39.79616508897066
 30
0.0
 10
261.1348568602038
 20
40.01059173303315
 30
0.0
 10
261.4407983919759
 20
40.13816888839445
 30
0.0
 10
261.7064433902543
 20
40.17518597275208
 30
0.0
 10
261.8905009398133
 20
40.1540651185323
 30
0.0
 10
261.9726470415617
 20
40.09800976133519
 30
0.0
 10
262.0015961834319
 20
40.07825526959984
 30
0.0
  0
LINE
  5
184
330
1F
100
AcDbEntity
  8
0
  6
Continuous
 62
     7
370
    25
100
AcDbLine
 10
257.4312548219
 20
44.8104055975
 30
0.0
 11
257.0828916919
 21
44.8813818703
 31
0.0
  0
LINE
  5
185
330
1F
100
AcDbEntity
  8
0
  6
Continuous
 62
     7
370
    25
100
AcDbLine
 10
253.2683649903
 20
38.2737116698
 30
0.0
 11
253.5040388073
 21
38.007530679
 31
0.0
  0
LINE
  5
186
330
1F
100
AcDbEntity
  8
0
  6
Continuous
 62
     7
370
    25
100
AcDbLine
 10
229.6765611692
 20
38.126237144
 30
0.0
 11
231.3615263182
 21
37.1535274682
 31
0.0
  0
LINE
  5
187
330
1F
100
AcDbEntity
  8
0
  6
Continuous
 62
     7
370
    25
100
AcDbLine
 10
247.0977476327
 20
64.412415862
 30
0.0
 11
245.4127824837
 21
65.3851255378
 31
0.0
  0
LINE
  5
188
330
1F
100
AcDbEntity
  8
0
  6
Continuous
 62
     7
370
    25
100
AcDbLine
 10
253.3789746198
 20
38.1403894836
 30
0.0
 11
253.3941790954
 21
38.1316121267
 31
0.0
  0
LINE
  5
189
330
1F
100
AcDbEntity
  8
0
  6
Continuous
 62
     7
370
    25
100
AcDbLine
 10
257.2688643317
 20
44.8434908022
 30
0.0
 11
257.2536598561
 21
44.8522681591
 31
0.0
  0
LINE
  5
18A
330
1F
100
AcDbEntity
  8
0
  6
Continuous
 62
     7
370
    25
100
AcDbLine
 10
225.0682762378
 20
40.7865434087
 30
0.0
 11
227.3189272142
 21
39.4872702558
 31
0.0
  0
LINE
  5
18B
330
1F
100
AcDbEntity
  8
0
  6
Continuous
 62
     7
370
    25
100
AcDbLine
 10
243.0551485288
 20
66.7461586496
 30
0.0
 11
240.8044975524
 21
68.0454318025
 31
0.0
  0
LINE
  5
18C
330
1F
100
AcDbEntity
  8
0
  6
Continuous
 62
     7
370
    25
100
AcDbLine
 10
234.0271083621
 20
67.8253137101
 30
0.0
 11
224.8298961785
 21
72.40596632
 31
0.0
  0
LINE
  5
18D
330
1F
100
AcDbEntity
  8
0
  6
Continuous
 62
     7
370
    25
100
AcDbLine
 10
213.3035483889
 20
52.4395828643
 30
0.0
 11
221.8696483945
 21
46.7656932679
 31
0.0
  0
LINE
  5
18E
330
1F
100
AcDbEntity
  8
0
  6
Continuous
 62
     7
370
    25
100
AcDbLine
 10
218.2829858305
 20
53.38607273
 30
0.0
 11
218.2829858305
 21
53.020754025
 31
0.0
  0
LINE
  5
18F
330
1F
100
AcDbEntity
  8
0
  6
Continuous
 62
     7
370
    25
100
AcDbLine
 10
222.1809525909
 20
72.7829346967
 30
0.0
 11
221.5414024821
 21
72.6957229412
 31
0.0
  0
LWPOLYLINE
  5
190
330
1F
100
AcDbEntity
  8
0
  6
Continuous
 62
     7
370
    25
100
AcDbPolyline
 90
       10
 70
   128
 43
0.0
 10
258.7344197374
 20
44.1417774061
 10
258.7674361956
 20
44.2732210793
 10
258.9339814431
 20
44.7307346233
 10
259.1731187103
 20
45.1709734299
 10
259.4698223164
 20
45.5662758354
 10
259.8054491956
 20
45.8918035443
 10
260.1589107772
 20
46.1271024637
 10
260.5079976476
 20
46.2573876669
 10
260.8307753357
 20
46.274473118
 10
261.0892066399
 20
46.1879062904
  0
ARC
  5
191
330
1F
100
AcDbEntity
  8
0
  6
Continuous
 62
     7
370
    25
100
AcDbCircle
 10
262.3913520132
 20
43.3345967886
 30
0.0
 40
1.165479366148427
100
AcDbArc
 50
99.2772089685
 51
148.0260911004
  0
LINE
  5
192
330
1F
100
AcDbEntity
  8
0
  6
Continuous
 62
     7
370
    25
100
AcDbLine
 10
261.3960192334
 20
43.9473169855
 30
0.0
 11
261.4026883136
 21
43.9517566075
 31
0.0
  0
LINE
  5
193
330
1F
100
AcDbEntity
  8
0
  6
Continuous
 62
     7
370
    25
100
AcDbLine
 10
261.3960192334
 20
43.9473169855
 30
0.0
 11
261.3931265767
 21
43.938682581
 31
0.0
  0
ARC
  5
194
330
1F
100
AcDbEntity
  8
0
  6
Continuous
 62
     7
370
    25
100
AcDbCircle
 10
262.7355868531
 20
42.9124394971
 30
0.0
 40
1.689785329887502
100
AcDbArc
 50
142.6039138182
 51
180.3547412602
  0
LINE
  5
195
330
1F
100
AcDbEntity
  8
0
  6
Continuous
 62
     7
370
    25
100
AcDbLine
 10
261.0429415833
 20
42.8933432195
 30
0.0
 11
261.0458339107
 21
42.901977422
 31
0.0
  0
LINE
  5
196
330
1F
100
AcDbEntity
  8
0
  6
Continuous
 62
     7
370
    25
100
AcDbLine
 10
261.0429415833
 20
42.8933432195
 30
0.0
 11
261.046718336
 21
42.8891486389
 31
0.0
  0
LINE
  5
197
330
1F
100
AcDbEntity
  8
0
  6
Continuous
 62
     7
370
    25
100
AcDbLine
 10
261.0578786898
 20
42.8004729548
 30
0.0
 11
261.046718336
 21
42.8891486389
 31
0.0
  0
ARC
  5
198
330
1F
100
AcDbEntity
  8
0
  6
Continuous
 62
     7
370
    25
100
AcDbCircle
 10
261.2139127564
 20
43.6472324536
 30
0.0
 40
1.317226420069834
100
AcDbArc
 50
291.9816925642
 51
326.428633434
  0
LINE
  5
199
330
1F
100
AcDbEntity
  8
0
  6
Continuous
 62
     7
370
    25
100
AcDbLine
 10
262.3180921801
 20
42.9232786835
 30
0.0
 11
262.3114227706
 21
42.9188388714
 31
0.0
  0
LINE
  5
19A
330
1F
100
AcDbEntity
  8
0
  6
Continuous
 62
     7
370
    25
100
AcDbLine
 10
262.3180921801
 20
42.9232786835
 30
0.0
 11
262.3209845075
 21
42.9319128979
 31
0.0
  0
ARC
  5
19B
330
1F
100
AcDbEntity
  8
0
  6
Continuous
 62
     7
370
    25
100
AcDbCircle
 10
260.9785257676
 20
43.9581554671
 30
0.0
 40
1.689783796630286
100
AcDbArc
 50
322.6038960436
 51
0.3547590349
  0
LINE
  5
19C
330
1F
100
AcDbEntity
  8
0
  6
Continuous
 62
     7
370
    25
100
AcDbLine
 10
262.6711695009
 20
43.9772522594
 30
0.0
 11
262.6682771734
 21
43.9686180569
 31
0.0
  0
LINE
  5
19D
330
1F
100
AcDbEntity
  8
0
  6
Continuous
 62
     7
370
    25
100
AcDbLine
 10
262.6711695009
 20
43.9772522594
 30
0.0
 11
262.6673927482
 21
43.9814468399
 31
0.0
  0
ARC
  5
19E
330
1F
100
AcDbEntity
  8
0
  6
Continuous
 62
     7
370
    25
100
AcDbCircle
 10
262.1969396075
 20
44.0138168138
 30
0.0
 40
0.4715654490921288
100
AcDbArc
 50
356.0639132991
 51
87.9376579124
  0
LINE
  5
19F
330
1F
100
AcDbEntity
  8
0
  6
Continuous
 62
     7
370
    25
100
AcDbLine
 10
262.2101330276
 20
44.4892714045
 30
0.0
 11
262.2139097804
 21
44.4850768121
 31
0.0
  0
LINE
  5
1A0
330
1F
100
AcDbEntity
  8
0
  6
Continuous
 62
     7
370
    25
100
AcDbLine
 10
262.2101330276
 20
44.4892714045
 30
0.0
 11
262.2034636181
 21
44.4848315924
 31
0.0
  0
LINE
  5
1A1
330
1F
100
AcDbEntity
  8
0
  6
Continuous
 62
     7
370
    25
100
AcDbLine
 10
261.0458339107
 20
42.901977422
 30
0.0
 11
261.0541914991
 21
42.9920128284
 31
0.0
  0
SPLINE
  5
1A2
330
1F
100
AcDbEntity
  8
0
  6
Continuous
 62
     7
370
    25
100
AcDbSpline
210
0.0
220
0.0
230
1.0
 70
     8
 71
     3
 72
     9
 73
     5
 74
     0
 42
0.000000001
 43
0.00000001
 40
0.0
 40
0.0
 40
0.0
 40
0.0
 40
0.6300995453840911
 40
1.0
 40
1.0
 40
1.0
 40
1.0
 10
261.8422394431206
 20
44.34715684934971
 30
0.0
 10
261.9125049613144
 20
44.38265868474402
 30
0.0
 10
262.024019909561
 20
44.43900190170771
 30
0.0
 10
262.1550102365802
 20
44.47245666153543
 30
0.0
 10
262.2034636180948
 20
44.48483159240477
 30
0.0
  0
SPLINE
  5
1A3
330
1F
100
AcDbEntity
  8
0
  6
Continuous
 62
     7
370
    25
100
AcDbSpline
210
0.0
220
0.0
230
1.0
 70
     8
 71
     3
 72
     9
 73
     5
 74
     0
 42
0.000000001
 43
0.00000001
 40
0.0
 40
0.0
 40
0.0
 40
0.0
 40
0.2961946628166909
 40
0.9999999999999999
 40
0.9999999999999999
 40
0.9999999999999999
 40
0.9999999999999999
 10
261.1167384101055
 20
42.76649382951644
 30
0.0
 10
261.1027452304041
 20
42.78315767339821
 30
0.0
 10
261.0555020438853
 20
42.83941744433164
 30
0.0
 10
261.0503466968092
 20
42.86860575212862
 30
0.0
 10
261.046718336022
 20
42.88914863893947
 30
0.0
  0
LINE
  5
1A4
330
1F
100
AcDbEntity
  8
0
  6
Continuous
 62
     7
370
    25
100
AcDbLine
 10
261.323157869
 20
43.4976420356
 30
0.0
 11
261.4144828458
 21
43.9406889898
 31
0.0
  0
SPLINE
  5
1A5
330
1F
100
AcDbEntity
  8
0
  6
Continuous
 62
     7
370
    25
100
AcDbSpline
210
0.0
220
0.0
230
1.0
 70
     8
 71
     3
 72
     9
 73
     5
 74
     0
 42
0.000000001
 43
0.00000001
 40
0.0
 40
0.0
 40
0.0
 40
0.0
 40
0.4929547957714371
 40
1.0
 40
1.0
 40
1.0
 40
1.0
 10
261.1316106500016
 20
43.4073902424083
 30
0.0
 10
261.1601746229995
 20
43.42471189919392
 30
0.0
 10
261.2181190293484
 20
43.45985032757358
 30
0.0
 10
261.287817562213
 20
43.48492701929853
 30
0.0
 10
261.3231578690437
 20
43.49764203557559
 30
0.0
  0
SPLINE
  5
1A6
330
1F
100
AcDbEntity
  8
0
  6
Continuous
 62
     7
370
    25
100
AcDbSpline
210
0.0
220
0.0
230
1.0
 70
     8
 71
     3
 72
    10
 73
     6
 74
     0
 42
0.000000001
 43
0.00000001
 40
0.0
 40
0.0
 40
0.0
 40
0.0
 40
0.4395942917188702
 40
0.7571243719467823
 40
1.0
 40
1.0
 40
1.0
 40
1.0
 10
262.2139097803527
 20
44.48507681206986
 30
0.0
 10
262.2319613834327
 20
44.43997226202395
 30
0.0
 10
262.2630521161882
 20
44.36228755417228
 30
0.0
 10
262.4610330052039
 20
44.16200142995003
 30
0.0
 10
262.6049989766366
 20
44.03603831053114
 30
0.0
 10
262.6673927481727
 20
43.98144683994416
 30
0.0
  0
LINE
  5
1A7
330
1F
100
AcDbEntity
  8
0
  6
Continuous
 62
     7
370
    25
100
AcDbLine
 10
261.9484142692
 20
44.3944899735
 30
0.0
 11
262.6711695009
 21
43.9772522594
 31
0.0
  0
SPLINE
  5
1A8
330
1F
100
AcDbEntity
  8
0
  6
Continuous
 62
     7
370
    25
100
AcDbSpline
210
0.0
220
0.0
230
1.0
 70
     8
 71
     3
 72
    10
 73
     6
 74
     0
 42
0.000000001
 43
0.00000001
 40
0.0
 40
0.0
 40
0.0
 40
0.0
 40
0.439594409722516
 40
0.7571242175429957
 40
1.0
 40
1.0
 40
1.0
 40
1.0
 10
262.6682771734469
 20
43.96861805691922
 30
0.0
 10
262.5714850915767
 20
43.8470622940355
 30
0.0
 10
262.4047777185311
 20
43.63770382671724
 30
0.0
 10
262.3180142608007
 20
43.24786332751465
 30
0.0
 10
262.3200864399066
 20
43.02744194961672
 30
0.0
 10
262.3209845075391
 20
42.93191289787991
 30
0.0
  0
LINE
  5
1A9
330
1F
100
AcDbEntity
  8
0
  6
Continuous
 62
     7
370
    25
100
AcDbLine
 10
261.323157869
 20
43.4976420356
 30
0.0
 11
262.3180921801
 21
42.9232786835
 31
0.0
  0
SPLINE
  5
1AA
330
1F
100
AcDbEntity
  8
0
  6
Continuous
 62
     7
370
    25
100
AcDbSpline
210
0.0
220
0.0
230
1.0
 70
     8
 71
     3
 72
    11
 73
     7
 74
     0
 42
0.000000001
 43
0.00000001
 40
0.0
 40
0.0
 40
0.0
 40
0.0
 40
0.1546042143226565
 40
0.5762385090629113
 40
0.9792332191181867
 40
1.0
 40
1.0
 40
1.0
 40
1.0
 10
262.3114227705555
 20
42.91883887142542
 30
0.0
 10
262.2635040241306
 20
42.90597948433471
 30
0.0
 10
262.0849019910812
 20
42.85805016961926
 30
0.0
 10
261.8064296650711
 20
42.73697495106975
 30
0.0
 10
261.6355573295598
 20
42.58517639594089
 30
0.0
 10
261.5839854455183
 20
42.50227951569818
 30
0.0
 10
261.5814581228653
 20
42.49821708580636
 30
0.0
  0
LWPOLYLINE
  5
1AB
330
1F
100
AcDbEntity
  8
0
  6
Continuous
 62
     7
370
    25
100
AcDbPolyline
 90
       14
 70
   128
 43
0.0
 10
249.1898737289
 20
37.0088537939
 10
249.0570643994
 20
37.1092862361
 10
248.8820818797
 20
37.3642834862
 10
248.7892672752
 20
37.7057816925
 10
248.7844526564
 20
38.1123233246
 10
248.867941612
 20
38.5583645003
 10
249.034486201
 20
39.0158776642
 10
249.2736241267
 20
39.4561168509
 10
249.5703274035
 20
39.8514190663
 10
249.9059542827
 20
40.1769467752
 10
250.2594158643
 20
40.4122456947
 10
250.6085027347
 20
40.5425308979
 10
250.9312804228
 20
40.5596163489
 10
251.1897113977
 20
40.4730493312
  0
ARC
  5
1AC
330
1F
100
AcDbEntity
  8
0
  6
Continuous
 62
     7
370
    25
100
AcDbCircle
 10
252.4918568367
 20
37.6197404156
 30
0.0
 40
1.165478932728754
100
AcDbArc
 50
99.2771993145
 51
148.0261007543
  0
LINE
  5
1AD
330
1F
100
AcDbEntity
  8
0
  6
Continuous
 62
     7
370
    25
100
AcDbLine
 10
251.4965239912
 20
38.2324600263
 30
0.0
 11
251.5031934007
 21
38.2368998384
 31
0.0
  0
LINE
  5
1AE
330
1F
100
AcDbEntity
  8
0
  6
Continuous
 62
     7
370
    25
100
AcDbLine
 10
251.4965239912
 20
38.2324600263
 30
0.0
 11
251.4936316638
 21
38.2238258119
 31
0.0
  0
ARC
  5
1AF
330
1F
100
AcDbEntity
  8
0
  6
Continuous
 62
     7
370
    25
100
AcDbCircle
 10
252.8360904037
 20
37.1975832427
 30
0.0
 40
1.689783796630174
100
AcDbArc
 50
142.6038960436
 51
180.3547590349
  0
LINE
  5
1B0
330
1F
100
AcDbEntity
  8
0
  6
Continuous
 62
     7
370
    25
100
AcDbLine
 10
251.1434466704
 20
37.1784864504
 30
0.0
 11
251.1463389978
 21
37.1871206529
 31
0.0
  0
LINE
  5
1B1
330
1F
100
AcDbEntity
  8
0
  6
Continuous
 62
     7
370
    25
100
AcDbLine
 10
251.1434466704
 20
37.1784864504
 30
0.0
 11
251.1472234231
 21
37.1742918699
 31
0.0
  0
ARC
  5
1B2
330
1F
100
AcDbEntity
  8
0
  6
Continuous
 62
     7
370
    25
100
AcDbCircle
 10
251.6176765638
 20
37.1419218961
 30
0.0
 40
0.4715654490921623
100
AcDbArc
 50
176.0639132991
 51
267.9376579124
  0
LINE
  5
1B3
330
1F
100
AcDbEntity
  8
0
  6
Continuous
 62
     7
370
    25
100
AcDbLine
 10
251.6044831437
 20
36.6664673053
 30
0.0
 11
251.6007063909
 21
36.6706618977
 31
0.0
  0
LINE
  5
1B4
330
1F
100
AcDbEntity
  8
0
  6
Continuous
 62
     7
370
    25
100
AcDbLine
 10
251.6044831437
 20
36.6664673053
 30
0.0
 11
251.6111525532
 21
36.6709071174
 31
0.0
  0
ARC
  5
1B5
330
1F
100
AcDbEntity
  8
0
  6
Continuous
 62
     7
370
    25
100
AcDbCircle
 10
251.4232641581
 20
37.8211419212
 30
0.0
 40
1.165479366148317
100
AcDbArc
 50
279.2772089685
 51
328.0260911004
  0
LINE
  5
1B6
330
1F
100
AcDbEntity
  8
0
  6
Continuous
 62
     7
370
    25
100
AcDbLine
 10
252.4185969379
 20
37.2084217243
 30
0.0
 11
252.4119278577
 21
37.2039821024
 31
0.0
  0
LINE
  5
1B7
330
1F
100
AcDbEntity
  8
0
  6
Continuous
 62
     7
370
    25
100
AcDbLine
 10
252.4185969379
 20
37.2084217243
 30
0.0
 11
252.4214895946
 21
37.2170561288
 31
0.0
  0
ARC
  5
1B8
330
1F
100
AcDbEntity
  8
0
  6
Continuous
 62
     7
370
    25
100
AcDbCircle
 10
251.0790293182
 20
38.2432992128
 30
0.0
 40
1.689785329886391
100
AcDbArc
 50
322.6039138182
 51
0.3547412602
  0
LINE
  5
1B9
330
1F
100
AcDbEntity
  8
0
  6
Continuous
 62
     7
370
    25
100
AcDbLine
 10
252.771674588
 20
38.2623954904
 30
0.0
 11
252.7687822605
 21
38.2537612878
 31
0.0
  0
LINE
  5
1BA
330
1F
100
AcDbEntity
  8
0
  6
Continuous
 62
     7
370
    25
100
AcDbLine
 10
252.771674588
 20
38.2623954904
 30
0.0
 11
252.7678978353
 21
38.2665900709
 31
0.0
  0
ARC
  5
1BB
330
1F
100
AcDbEntity
  8
0
  6
Continuous
 62
     7
370
    25
100
AcDbCircle
 10
252.2974439701
 20
38.2989593923
 30
0.0
 40
0.4715661270916573
100
AcDbArc
 50
356.0639984157
 51
87.9375727958
  0
LINE
  5
1BC
330
1F
100
AcDbEntity
  8
0
  6
Continuous
 62
     7
370
    25
100
AcDbLine
 10
252.3106381147
 20
38.7744146354
 30
0.0
 11
252.3144148674
 21
38.770220043
 31
0.0
  0
LINE
  5
1BD
330
1F
100
AcDbEntity
  8
0
  6
Continuous
 62
     7
370
    25
100
AcDbLine
 10
252.3106381147
 20
38.7744146354
 30
0.0
 11
252.3039687052
 21
38.7699748233
 31
0.0
  0
LINE
  5
1BE
330
1F
100
AcDbEntity
  8
0
  6
Continuous
 62
     7
370
    25
100
AcDbLine
 10
251.1463389978
 20
37.1871206529
 30
0.0
 11
251.1546965862
 21
37.2771560593
 31
0.0
  0
SPLINE
  5
1BF
330
1F
100
AcDbEntity
  8
0
  6
Continuous
 62
     7
370
    25
100
AcDbSpline
210
0.0
220
0.0
230
1.0
 70
     8
 71
     3
 72
     9
 73
     5
 74
     0
 42
0.000000001
 43
0.00000001
 40
0.0
 40
0.0
 40
0.0
 40
0.0
 40
0.6300995453840911
 40
1.0
 40
1.0
 40
1.0
 40
1.0
 10
251.9427445302165
 20
38.63230008027686
 30
0.0
 10
252.0130100484103
 20
38.66780191567117
 30
0.0
 10
252.1245249966569
 20
38.72414513263487
 30
0.0
 10
252.2555153236761
 20
38.75759989246258
 30
0.0
 10
252.3039687051907
 20
38.76997482333192
 30
0.0
  0
SPLINE
  5
1C0
330
1F
100
AcDbEntity
  8
0
  6
Continuous
 62
     7
370
    25
100
AcDbSpline
210
0.0
220
0.0
230
1.0
 70
     8
 71
     3
 72
    10
 73
     6
 74
     0
 42
0.000000001
 43
0.00000001
 40
0.0
 40
0.0
 40
0.0
 40
0.0
 40
0.4395942917188702
 40
0.7571243719467823
 40
1.0
 40
1.0
 40
1.0
 40
1.0
 10
251.6007063909379
 20
36.67066189774093
 30
0.0
 10
251.4886851339195
 20
36.77001397431434
 30
0.0
 10
251.2957480884153
 20
36.94113056976222
 30
0.0
 10
251.171224168534
 20
37.09901088833615
 30
0.0
 10
251.1544801535472
 20
37.15153033559133
 30
0.0
 10
251.1472234231179
 20
37.17429186986663
 30
0.0
  0
LINE
  5
1C1
330
1F
100
AcDbEntity
  8
0
  6
Continuous
 62
     7
370
    25
100
AcDbLine
 10
251.4236626269
 20
37.7827850764
 30
0.0
 11
251.5211841781
 21
38.2558895618
 31
0.0
  0
SPLINE
  5
1C2
330
1F
100
AcDbEntity
  8
0
  6
Continuous
 62
     7
370
    25
100
AcDbSpline
210
0.0
220
0.0
230
1.0
 70
     8
 71
     3
 72
     9
 73
     5
 74
     0
 42
0.000000001
 43
0.00000001
 40
0.0
 40
0.0
 40
0.0
 40
0.0
 40
0.4929557385256966
 40
1.0
 40
1.0
 40
1.0
 40
1.0
 10
251.2321157370975
 20
37.69253347333545
 30
0.0
 10
251.2606797035446
 20
37.70985513459158
 30
0.0
 10
251.318623985789
 20
37.74499350483944
 30
0.0
 10
251.3883224304622
 20
37.77007012172759
 30
0.0
 10
251.4236626268673
 20
37.78278507641792
 30
0.0
  0
SPLINE
  5
1C3
330
1F
100
AcDbEntity
  8
0
  6
Continuous
 62
     7
370
    25
100
AcDbSpline
210
0.0
220
0.0
230
1.0
 70
     8
 71
     3
 72
    10
 73
     6
 74
     0
 42
0.000000001
 43
0.00000001
 40
0.0
 40
0.0
 40
0.0
 40
0.0
 40
0.4395942979903193
 40
0.7571241612678318
 40
0.9999999999999999
 40
0.9999999999999999
 40
0.9999999999999999
 40
0.9999999999999999
 10
252.3144148674486
 20
38.77022004299701
 30
0.0
 10
252.3324665126281
 20
38.72511557084506
 30
0.0
 10
252.3635573087975
 20
38.64743101987704
 30
0.0
 10
252.56153775002
 20
38.44714418871936
 30
0.0
 10
252.7055039219971
 20
38.32118143216214
 30
0.0
 10
252.7678978352686
 20
38.26659007087131
 30
0.0
  0
LINE
  5
1C4
330
1F
100
AcDbEntity
  8
0
  6
Continuous
 62
     7
370
    25
100
AcDbLine
 10
252.0489193563
 20
38.6796332045
 30
0.0
 11
252.771674588
 21
38.2623954904
 31
0.0
  0
SPLINE
  5
1C5
330
1F
100
AcDbEntity
  8
0
  6
Continuous
 62
     7
370
    25
100
AcDbSpline
210
0.0
220
0.0
230
1.0
 70
     8
 71
     3
 72
    10
 73
     6
 74
     0
 42
0.000000001
 43
0.00000001
 40
0.0
 40
0.0
 40
0.0
 40
0.0
 40
0.439594409722516
 40
0.7571242175429957
 40
1.0
 40
1.0
 40
1.0
 40
1.0
 10
252.7687822605428
 20
38.25376128784637
 30
0.0
 10
252.6719901786726
 20
38.13220552496266
 30
0.0
 10
252.5052828056271
 20
37.9228470576444
 30
0.0
 10
252.4185193478967
 20
37.53300655844181
 30
0.0
 10
252.4205915270025
 20
37.31258518054388
 30
0.0
 10
252.421489594635
 20
37.21705612880707
 30
0.0
  0
LINE
  5
1C6
330
1F
100
AcDbEntity
  8
0
  6
Continuous
 62
     7
370
    25
100
AcDbLine
 10
251.4236626269
 20
37.7827850764
 30
0.0
 11
252.4185969379
 21
37.2084217243
 31
0.0
  0
SPLINE
  5
1C7
330
1F
100
AcDbEntity
  8
0
  6
Continuous
 62
     7
370
    25
100
AcDbSpline
210
0.0
220
0.0
230
1.0
 70
     8
 71
     3
 72
    11
 73
     7
 74
     0
 42
0.000000001
 43
0.00000001
 40
0.0
 40
0.0
 40
0.0
 40
0.0
 40
0.1297150843446633
 40
0.4834721170649536
 40
0.8215902792010591
 40
1.0
 40
1.0
 40
1.0
 40
1.0
 10
252.4119278576514
 20
37.20398210235257
 30
0.0
 10
252.3640600859171
 20
37.19111253242394
 30
0.0
 10
252.1856480449699
 20
37.14314526438765
 30
0.0
 10
251.9038884630114
 20
37.02272671671137
 30
0.0
 10
251.7057102151126
 20
36.83418267552955
 30
0.0
 10
251.6354281226446
 20
36.71282447312485
 30
0.0
 10
251.6111525531958
 20
36.67090711740602
 30
0.0
  0
LINE
  5
1C8
330
1F
100
AcDbEntity
  8
0
  6
Continuous
 62
     7
370
    25
100
AcDbLine
 10
263.3346288912
 20
33.1174035987
 30
0.0
 11
263.2727451345
 21
33.1505057011
 31
0.0
  0
LINE
  5
1C9
330
1F
100
AcDbEntity
  8
0
  6
Continuous
 62
     7
370
    25
100
AcDbLine
 10
266.4725766789
 20
38.8069149409
 30
0.0
 11
266.5224808524
 21
38.7798233306
 31
0.0
  0
LWPOLYLINE
  5
1CA
330
1F
100
AcDbEntity
  8
0
  6
Continuous
 62
     7
370
    25
100
AcDbPolyline
 90
       18
 70
   128
 43
0.0
 10
263.83547438
 20
40.3309991493
 10
263.4873608384
 20
40.4599137339
 10
263.0900501531
 20
40.4757846602
 10
262.6589430047
 20
40.3779258526
 10
262.2106065211
 20
40.170098028
 10
261.7622700375
 20
39.8602875668
 10
261.3311628891
 20
39.4604006558
 10
260.9338522038
 20
38.9858045764
 10
260.5856064593
 20
38.45473786
 10
260.2998086796
 20
37.8876089815
 10
260.0874417406
 20
37.3062124424
 10
259.9566668197
 20
36.7328910646
 10
259.9125094348
 20
36.1896771255
 10
259.9566668197
 20
35.6974462178
 10
260.0874417406
 20
35.2751143498
 10
260.2998086796
 20
34.9389114593
 10
260.5856064593
 20
34.7017576736
 10
260.5857386622
 20
34.7016815198
  0
LINE
  5
1CB
330
1F
100
AcDbEntity
  8
0
  6
Continuous
 62
     7
370
    25
100
AcDbLine
 10
265.0390341095
 20
37.3202069725
 30
0.0
 11
263.961580138
 21
35.9798644698
 31
0.0
  0
LINE
  5
1CC
330
1F
100
AcDbEntity
  8
0
  6
Continuous
 62
     7
370
    25
100
AcDbLine
 10
263.961580138
 20
35.9798644698
 30
0.0
 11
263.961580138
 21
34.5431813407
 31
0.0
  0
LINE
  5
1CD
330
1F
100
AcDbEntity
  8
0
  6
Continuous
 62
     7
370
    25
100
AcDbLine
 10
265.0390341095
 20
34.4468407141
 30
0.0
 11
263.961580138
 21
34.5431813407
 31
0.0
  0
LINE
  5
1CE
330
1F
100
AcDbEntity
  8
0
  6
Continuous
 62
     7
370
    25
100
AcDbLine
 10
266.1164880809
 20
35.7871832168
 30
0.0
 11
265.0390341095
 21
34.4468407141
 31
0.0
  0
LINE
  5
1CF
330
1F
100
AcDbEntity
  8
0
  6
Continuous
 62
     7
370
    25
100
AcDbLine
 10
266.1164880809
 20
35.7871832168
 30
0.0
 11
266.1164880809
 21
37.223866346
 31
0.0
  0
LINE
  5
1D0
330
1F
100
AcDbEntity
  8
0
  6
Continuous
 62
     7
370
    25
100
AcDbLine
 10
265.0390341095
 20
37.3202069725
 30
0.0
 11
266.1164880809
 21
37.223866346
 31
0.0
  0
ARC
  5
1D1
330
1F
100
AcDbEntity
  8
0
  6
Continuous
 62
     7
370
    25
100
AcDbCircle
 10
262.1763721506
 20
37.5356550276
 30
0.0
 40
2.552649879974542
100
AcDbArc
 50
321.1211961458
 51
343.2437586151
  0
LWPOLYLINE
  5
1D2
330
1F
100
AcDbEntity
  8
0
  6
Continuous
 62
     7
370
    25
100
AcDbPolyline
 90
        3
 70
   128
 43
0.0
 10
263.9615799116
 20
35.7124687152
 10
264.0371440867
 20
35.788466837
 10
264.163547301
 20
35.9334202349
  0
LINE
  5
1D3
330
1F
100
AcDbEntity
  8
0
  6
Continuous
 62
     7
370
    25
100
AcDbLine
 10
263.9615815374
 20
35.0688408443
 30
0.0
 11
265.0390341095
 21
34.4468407141
 31
0.0
  0
LINE
  5
1D4
330
1F
100
AcDbEntity
  8
0
  6
Continuous
 62
     7
370
    25
100
AcDbLine
 10
264.7022742867
 20
36.6035914624
 30
0.0
 11
266.1164880809
 21
35.7871832168
 31
0.0
  0
LINE
  5
1D5
330
1F
100
AcDbEntity
  8
0
  6
Continuous
 62
     7
370
    25
100
AcDbLine
 10
264.7022742867
 20
36.6035914624
 30
0.0
 11
264.7022742867
 21
36.9012813152
 31
0.0
  0
LINE
  5
1D6
330
1F
100
AcDbEntity
  8
0
  6
Continuous
 62
     7
370
    25
100
AcDbLine
 10
264.163547301
 20
35.9334202349
 30
0.0
 11
263.9615799116
 21
35.6821747254
 31
0.0
  0
LINE
  5
1D7
330
1F
100
AcDbEntity
  8
0
  6
Continuous
 62
     7
370
    25
100
AcDbLine
 10
264.7022742867
 20
36.6035914624
 30
0.0
 11
264.163547301
 21
35.9334202349
 31
0.0
  0
ARC
  5
1D8
330
1F
100
AcDbEntity
  8
0
  6
Continuous
 62
     7
370
    25
100
AcDbCircle
 10
257.9908527494
 20
47.0274908301
 30
0.0
 40
3.365389447414164
100
AcDbArc
 50
30.0156745365
 51
90.0077399327
  0
ARC
  5
1D9
330
1F
100
AcDbEntity
  8
0
  6
Continuous
 62
     7
370
    25
100
AcDbCircle
 10
251.8640958035
 20
36.4144215323
 30
0.0
 40
3.365642661742366
100
AcDbArc
 50
209.9910850349
 51
270.0337684234
  0
LWPOLYLINE
  5
1DA
330
1F
100
AcDbEntity
  8
0
  6
Continuous
 62
     7
370
    25
100
AcDbPolyline
 90
       19
 70
   128
 43
0.0
 10
251.9313704787
 20
40.0448988989
 10
251.9648663573
 20
40.3774263825
 10
252.0953602443
 20
41.0478185932
 10
252.3088916547
 20
41.733228761
 10
252.5996355976
 20
42.414960549
 10
252.9596615508
 20
43.0744182469
 10
253.3791488048
 20
43.6936133611
 10
253.846654984
 20
44.2556558486
 10
254.3494277856
 20
44.7452150711
 10
254.8737527117
 20
45.1489365078
 10
255.4053276571
 20
45.4558081918
 10
255.9296525831
 20
45.657459429
 10
256.4324253848
 20
45.7483893272
 10
256.899931564
 20
45.7261179849
 10
257.3194188179
 20
45.5912525449
 10
257.6794447712
 20
45.3474719647
 10
257.9701887141
 20
45.0014259879
 10
258.1837201244
 20
44.5625539388
 10
258.2255594327
 20
44.4355360749
  0
ARC
  5
1DB
330
1F
100
AcDbEntity
  8
0
  6
Continuous
 62
     7
370
    25
100
AcDbCircle
 10
253.7284725869
 20
39.366255781
 30
0.0
 40
1.924502696803421
100
AcDbArc
 50
249.2216710101
 51
284.9788562352
  0
LINE
  5
1DC
330
1F
100
AcDbEntity
  8
0
  6
Continuous
 62
     7
370
    25
100
AcDbLine
 10
262.9376539813
 20
41.7153018294
 30
0.0
 11
262.9921814665
 21
41.6820587811
 31
0.0
  0
LINE
  5
1DD
330
1F
100
AcDbEntity
  8
0
  6
Continuous
 62
     7
370
    25
100
AcDbLine
 10
258.9379789729
 20
34.7869109447
 30
0.0
 11
258.906175883
 21
34.8058637136
 31
0.0
  0
ARC
  5
1DE
330
1F
100
AcDbEntity
  8
0
  6
Continuous
 62
     7
370
    25
100
AcDbCircle
 10
254.6452981002
 20
39.0396027048
 30
0.0
 40
1.537266204864479
100
AcDbArc
 50
202.9251926902
 51
238.7065136509
  0
LWPOLYLINE
  5
1DF
330
1F
100
AcDbEntity
  8
0
  6
Continuous
 62
     7
370
    25
100
AcDbPolyline
 90
       15
 70
   128
 43
0.0
 10
253.0336386542
 20
39.2256747715
 10
253.0248302921
 20
39.7843724749
 10
253.1027808885
 20
40.3988579127
 10
253.2662321293
 20
41.0380014169
 10
253.5100908313
 20
41.6818867997
 10
253.8267578849
 20
42.3104500083
 10
254.206366153
 20
42.9041050109
 10
254.6370866122
 20
43.4443526141
 10
255.1054976315
 20
43.9143588546
 10
255.5970033952
 20
44.2994777312
 10
256.0962881336
 20
44.5877086755
 10
256.5877938972
 20
44.7700702744
 10
257.0562049166
 20
44.8408798853
 10
257.4869253758
 20
44.797931539
 10
257.8464832685
 20
44.654372122
  0
LWPOLYLINE
  5
1E0
330
1F
100
AcDbEntity
  8
0
  6
Continuous
 62
     7
370
    25
100
AcDbPolyline
 90
       17
 70
   128
 43
0.0
 10
260.0606385675
 20
39.268032838
 10
260.0269977268
 20
39.4439102912
 10
259.93119687
 20
39.5541711429
 10
259.7878206177
 20
39.5820291828
 10
259.6186968391
 20
39.5232433998
 10
259.4495730606
 20
39.3867630244
 10
259.3061968906
 20
39.1933663348
 10
259.2103959515
 20
38.9724961206
 10
259.1767550285
 20
38.757777732
 10
259.2103959515
 20
38.5819003263
 10
259.3061968906
 20
38.471639427
 10
259.4495730606
 20
38.4437814347
 10
259.6186968391
 20
38.5025673127
 10
259.7878206177
 20
38.6390475931
 10
259.93119687
 20
38.8324442352
 10
260.0269977268
 20
39.0533144969
 10
260.0606385675
 20
39.268032838
  0
LINE
  5
1E1
330
1F
100
AcDbEntity
  8
0
  6
Continuous
 62
     7
370
    25
100
AcDbLine
 10
259.875402839
 20
36.4107525613
 30
0.0
 11
259.8351208239
 21
36.4358408749
 31
0.0
  0
LWPOLYLINE
  5
1E2
330
1F
100
AcDbEntity
  8
0
  6
Continuous
 62
     7
370
    25
100
AcDbPolyline
 90
       39
 70
   128
 43
0.0
 10
228.101543977
 20
44.3588603182
 10
228.143889706
 20
45.5032843642
 10
228.2706048646
 20
46.687890197
 10
228.4807246851
 20
47.903662049
 10
228.7726502215
 20
49.141346948
 10
229.1441595446
 20
50.3915256289
 10
229.5924255228
 20
51.6446834453
 10
230.1140368957
 20
52.8912829916
 10
230.7050232982
 20
54.1218378659
 10
231.3608868715
 20
55.3269811083
 10
232.0766365067
 20
56.4975416244
 10
232.8468253822
 20
57.6246114828
 10
233.6655904763
 20
58.6996120715
 10
234.5267016285
 20
59.7143619648
 10
235.4236050041
 20
60.6611385165
 10
236.3494744598
 20
61.5327364109
 10
237.2972638988
 20
62.3225222209
 10
238.2597597891
 20
63.0244852594
 10
239.2296369755
 20
63.6332827262
 10
240.1995141619
 20
64.1442816233
 10
241.1620100521
 20
64.5535926856
 10
242.1097994911
 20
64.858101269
 10
243.0356689469
 20
65.0554894942
 10
243.9325723224
 20
65.1442555378
 10
244.7936834747
 20
65.1237234184
 10
245.6124485687
 20
64.9940488855
 10
246.3826374443
 20
64.7562201747
 10
247.0983870795
 20
64.4120465973
 10
247.7542506528
 20
63.9641473182
 10
248.3452370553
 20
63.4159308203
 10
248.8668484281
 20
62.771570946
 10
249.3151144063
 20
62.0359700116
 10
249.6866237294
 20
61.214726865
 10
249.9785492658
 20
60.314092016
 10
250.1886690864
 20
59.3409193449
 10
250.3153842449
 20
58.3026157201
 10
250.3577299739
 20
57.207083012
 10
250.3153842449
 20
56.062658966
 10
250.2530951541
 20
55.3886224434
  0
LWPOLYLINE
  5
1E3
330
1F
100
AcDbEntity
  8
0
  6
Continuous
 62
     7
370
    25
100
AcDbPolyline
 90
       21
 70
   128
 43
0.0
 10
240.7538673798
 20
38.9336944487
 10
240.1995141619
 20
38.5414580707
 10
239.2296369755
 20
37.932660604
 10
238.2597597891
 20
37.4216617069
 10
237.2972638988
 20
37.0123506446
 10
236.3494744598
 20
36.7078420612
 10
235.4236050041
 20
36.5104538359
 10
234.5267016285
 20
36.4216877924
 10
233.6655904763
 20
36.4422199118
 10
232.8468253822
 20
36.5718944447
 10
232.0766365067
 20
36.8097231555
 10
231.3608868715
 20
37.1538967329
 10
230.7050232982
 20
37.601796012
 10
230.1140368957
 20
38.1500125098
 10
229.5924255228
 20
38.7943723842
 10
229.1441595446
 20
39.5299733186
 10
228.7726502215
 20
40.3512164652
 10
228.4807246851
 20
41.2518513142
 10
228.2706048646
 20
42.2250239853
 10
228.143889706
 20
43.2633276101
 10
228.101543977
 20
44.3588603182
  0
SPLINE
  5
1E4
330
1F
100
AcDbEntity
  8
0
  6
Continuous
 62
     7
370
    25
100
AcDbSpline
210
0.0
220
0.0
230
1.0
 70
     8
 71
     3
 72
    24
 73
    20
 74
     0
 42
0.000000001
 43
0.00000001
 40
0.0
 40
0.0
 40
0.0
 40
0.0
 40
0.1249999999999991
 40
0.1249999999999991
 40
0.2499999999999981
 40
0.2499999999999981
 40
0.3749999999999972
 40
0.3749999999999972
 40
0.4999999999999962
 40
0.4999999999999962
 40
0.6249999999999964
 40
0.6249999999999964
 40
0.7499999999999968
 40
0.7499999999999968
 40
0.8124999999999976
 40
0.8124999999999976
 40
0.8749999999999982
 40
0.8749999999999982
 40
1.0
 40
1.0
 40
1.0
 40
1.0
 10
232.935133125573
 20
60.79067477261144
 30
0.0
 10
232.9640265006653
 20
60.68036704164374
 30
0.0
 10
232.9766704987524
 20
60.5652039615622
 30
0.0
 10
232.9696448236212
 20
60.32425893228167
 30
0.0
 10
232.9497270317947
 20
60.20070888903181
 30
0.0
 10
232.8794750346196
 20
59.95411039712121
 30
0.0
 10
232.8280881628235
 20
59.82839969660593
 30
0.0
 10
232.6988432076833
 20
59.58623760792673
 30
0.0
 10
232.6211104452841
 20
59.46888553879266
 30
0.0
 10
232.4385875485159
 20
59.24181393579338
 30
0.0
 10
232.3374890943221
 20
59.13668325034118
 30
0.0
 10
232.1162030999768
 20
58.94279109133599
 30
0.0
 10
231.9950436339239
 20
58.85383629307808
 30
0.0
 10
231.8077217030598
 20
58.74021796707589
 30
0.0
 10
231.7439976831156
 20
58.70532965067596
 30
0.0
 10
231.6138948829523
 20
58.64165619760361
 30
0.0
 10
231.5470596686774
 20
58.61271486478014
 30
0.0
 10
231.3464092556549
 20
58.53713399584871
 30
0.0
 10
231.2124149484807
 20
58.5013045927494
 30
0.0
 10
231.0778986694012
 20
58.48029276553064
 30
0.0
  0
LWPOLYLINE
  5
1E5
330
1F
100
AcDbEntity
  8
0
  6
Continuous
 62
     7
370
    25
100
AcDbPolyline
 90
       15
 70
   128
 43
0.0
 10
232.9351332373
 20
60.7906748051
 10
233.8400820511
 20
61.7344045678
 10
234.7735122563
 20
62.6014173022
 10
235.7282470349
 20
63.385047464
 10
236.6969466614
 20
64.0792708322
 10
237.6721636354
 20
64.6787477429
 10
238.6464004893
 20
65.1788731919
 10
239.6121672056
 20
65.5758000943
 10
240.5620387976
 20
65.8664763278
 10
241.4887126655
 20
66.0486679574
 10
242.38506451
 20
66.1209747841
 10
243.2442033215
 20
66.082840035
 10
244.0595235692
 20
65.9345569181
 10
244.8247575558
 20
65.6772661455
 10
245.4127824837
 20
65.3851255378
  0
LWPOLYLINE
  5
1E6
330
1F
100
AcDbEntity
  8
0
  6
Continuous
 62
     7
370
    25
100
AcDbPolyline
 90
       21
 70
   128
 43
0.0
 10
229.6765611692
 20
38.126237144
 10
229.6729134912
 20
38.1283451092
 10
228.988177351
 20
38.6001746821
 10
228.3747984596
 20
39.1817156243
 10
227.8378923906
 20
39.8681183642
 10
227.3819372467
 20
40.6536580973
 10
227.0107341467
 20
41.5317834592
 10
226.7273795671
 20
42.4951718523
 10
226.5342363655
 20
43.5357885744
 10
226.4329146831
 20
44.6449553095
 10
226.4242614083
 20
45.8134230859
 10
226.5083470052
 20
47.0314463273
 10
226.6844707826
 20
48.2888677393
 10
226.9511635276
 20
49.5752004864
 10
227.3062019941
 20
50.8797180677
 10
227.7466240486
 20
52.1915402485
 10
228.2687583058
 20
53.4997277341
 10
228.8682491521
 20
54.7933713328
 10
229.5400975762
 20
56.0616805451
 10
230.2787006815
 20
57.2940808998
 10
231.0778984426
 20
58.4802922771
  0
LWPOLYLINE
  5
1E7
330
1F
100
AcDbEntity
  8
0
  6
Continuous
 62
     7
370
    25
100
AcDbPolyline
 90
       40
 70
   128
 43
0.0
 10
228.452926369
 20
38.9988668244
 10
227.7008224428
 20
39.2872372438
 10
227.0065821883
 20
39.6825012627
 10
226.3755734018
 20
40.1816054993
 10
225.8126726054
 20
40.7806920478
 10
225.3222308027
 20
41.4751296613
 10
224.9080385759
 20
42.2595502568
 10
224.5732984268
 20
43.127891884
 10
224.3205971184
 20
44.0734418845
 10
224.1518878937
 20
45.0888920264
 10
224.0684753292
 20
46.1663933549
 10
224.071002823
 20
47.2976167448
 10
224.1594519359
 20
48.4738188707
 10
224.3331390986
 20
49.6859085579
 10
224.5907215389
 20
50.9245166494
 10
224.9302078182
 20
52.1800691043
 10
225.3489742952
 20
53.4428617117
 10
225.8437842236
 20
54.7031330933
 10
226.4108121184
 20
55.9511416984
 10
227.045676683
 20
57.1772426068
 10
227.7434697851
 20
58.3719574895
 10
228.4987972867
 20
59.526051411
 10
229.3058225078
 20
60.6306050695
 10
230.1583057392
 20
61.6770794325
 10
231.0496589016
 20
62.6573868347
 10
231.9729919732
 20
63.56394972
 10
232.9211678132
 20
64.3897604271
 10
233.8868578089
 20
65.128436128
 10
234.8625975232
 20
65.774266922
 10
235.8408450161
 20
66.3222624327
 10
236.8140389207
 20
66.768184573
 10
237.7746568067
 20
67.1085880826
 10
238.7152737082
 20
67.3408413871
 10
239.6286192937
 20
67.4631497159
 10
240.507633637
 20
67.4745667649
 10
241.345522205
 20
67.3750051483
 10
242.1358092004
 20
67.1652337312
 10
242.8723853056
 20
66.846874774
 10
243.5495580621
 20
66.4223881479
 10
244.1451865449
 20
65.9118563332
  0
LWPOLYLINE
  5
1E8
330
1F
100
AcDbEntity
  8
0
  6
Continuous
 62
     7
370
    25
100
AcDbPolyline
 90
       12
 70
   128
 43
0.0
 10
231.2725118449
 20
60.9149512857
 10
232.1436710693
 20
61.8448979773
 10
233.0452652573
 20
62.6976637651
 10
233.9695851579
 20
63.4659563432
 10
234.9087269196
 20
64.1432060538
 10
235.854660076
 20
64.7236218642
 10
236.7992958379
 20
65.2022414376
 10
237.7345567145
 20
65.5749705641
 10
238.652445434
 20
65.8386237079
 10
239.5451130513
 20
65.9909450746
 10
240.4049262123
 20
66.0306329927
 10
241.0730624211
 20
65.9798379187
  0
SPLINE
  5
1E9
330
1F
100
AcDbEntity
  8
0
  6
Continuous
 62
     7
370
    25
100
AcDbSpline
210
0.0
220
0.0
230
1.0
 70
     8
 71
     3
 72
    26
 73
    22
 74
     0
 42
0.000000001
 43
0.00000001
 40
0.0
 40
0.0
 40
0.0
 40
0.0
 40
0.1250000000000014
 40
0.1250000000000014
 40
0.2500000000000027
 40
0.2500000000000027
 40
0.3125000000000025
 40
0.3125000000000025
 40
0.3750000000000023
 40
0.3750000000000023
 40
0.4375000000000021
 40
0.4375000000000021
 40
0.5000000000000018
 40
0.5000000000000018
 40
0.5625000000000016
 40
0.5625000000000016
 40
0.6250000000000013
 40
0.6250000000000013
 40
0.7500000000000006
 40
0.7500000000000006
 40
1.0
 40
1.0
 40
1.0
 40
1.0
 10
229.9283186399455
 20
59.24278799948619
 30
0.0
 10
229.9046810437135
 20
59.35236385905918
 30
0.0
 10
229.8871132648317
 20
59.46325311742371
 30
0.0
 10
229.8683006819622
 20
59.68858307728665
 30
0.0
 10
229.8671209071948
 20
59.80425999060502
 30
0.0
 10
229.8832189104302
 20
59.97561550046458
 30
0.0
 10
229.8915376275305
 20
60.03241401255875
 30
0.0
 10
229.9152947767874
 20
60.14524022495583
 30
0.0
 10
229.9309171558364
 20
60.20169307862199
 30
0.0
 10
229.9697743682335
 20
60.31027619503058
 30
0.0
 10
229.9930003249359
 20
60.36265615525613
 30
0.0
 10
230.0479989744143
 20
60.46311293052825
 30
0.0
 10
230.080077241437
 20
60.51139179829968
 30
0.0
 10
230.150491989972
 20
60.59908877388342
 30
0.0
 10
230.1890704120987
 20
60.63907790185938
 30
0.0
 10
230.2727786756949
 20
60.71155658597498
 30
0.0
 10
230.3179073856368
 20
60.74389321035159
 30
0.0
 10
230.4571880278268
 20
60.82709297770523
 30
0.0
 10
230.5579770993885
 20
60.86592170034132
 30
0.0
 10
230.8610493706212
 20
60.9413379877965
 30
0.0
 10
231.0695734611062
 20
60.94120784142574
 30
0.0
 10
231.2725118807967
 20
60.91495161209952
 30
0.0
  0
LWPOLYLINE
  5
1EA
330
1F
100
AcDbEntity
  8
0
  6
Continuous
 62
     7
370
    25
100
AcDbPolyline
 90
       18
 70
   128
 43
0.0
 10
226.991340011
 20
41.5869367094
 10
226.6648138876
 20
42.0563037519
 10
226.264940394
 20
42.7993443167
 10
225.943562113
 20
43.6257166443
 10
225.7033514183
 20
44.5285472303
 10
225.5463063338
 20
45.500327932
 10
225.473733412
 20
46.5329766411
 10
225.4862352209
 20
47.6179043243
 10
225.5837083692
 20
48.7460881229
 10
225.765342847
 20
49.9081452602
 10
226.0296266362
 20
51.0944104423
 10
226.3743621738
 20
52.2950178201
 10
226.7966834741
 20
53.4999825945
 10
227.2930765435
 20
54.6992829548
 10
227.8594136251
 20
55.882943156
 10
228.4909848086
 20
57.0411209687
 10
229.1825368844
 20
58.1641829618
 10
229.9283187833
 20
59.2427877684
  0
LINE
  5
1EB
330
1F
100
AcDbEntity
  8
0
  6
Continuous
 62
     7
370
    25
100
AcDbLine
 10
228.452926369
 20
38.9988668244
 30
0.0
 11
228.5724885818
 21
39.0553720166
 31
0.0
  0
LWPOLYLINE
  5
1EC
330
1F
100
AcDbEntity
  8
0
  6
Continuous
 62
     7
370
    25
100
AcDbPolyline
 90
       25
 70
   128
 43
0.0
 10
221.8082937783
 20
48.0735169995
 10
221.8515634452
 20
49.2269913227
 10
221.9810332955
 20
50.4213959367
 10
222.1956904877
 20
51.6473832313
 10
222.4938544162
 20
52.8953577486
 10
222.8731918579
 20
54.1555528924
 10
223.330734094
 20
55.4181057376
 10
223.8629006182
 20
56.6731355455
 10
224.4655254778
 20
57.9108190476
 10
225.1338934943
 20
59.1214706703
 10
225.8627725313
 20
60.2956143962
 10
226.6464595936
 20
61.4240620875
 10
227.4788196805
 20
62.4979815433
 10
228.3533397868
 20
63.5089672179
 10
229.2631746716
 20
64.449108468
 10
230.2012041516
 20
65.3110454415
 10
231.1600867728
 20
66.0880342818
 10
232.1323179266
 20
66.7739920851
 10
233.1102885838
 20
67.3635513389
 10
234.0863448522
 20
67.8520988667
 10
235.0528477388
 20
68.2358095679
 10
236.0022328311
 20
68.5116801098
 10
236.9270703476
 20
68.6775529485
 10
237.8201218964
 20
68.7321293221
 10
238.4796180012
 20
68.6982249397
  0
LINE
  5
1ED
330
1F
100
AcDbEntity
  8
0
  6
Continuous
 62
     7
370
    25
100
AcDbLine
 10
221.9665677068
 20
46.0122096863
 30
0.0
 11
221.8644261366
 21
46.8209646162
 31
0.0
  0
SPLINE
  5
1EE
330
1F
100
AcDbEntity
  8
0
  6
Continuous
 62
     7
370
    25
100
AcDbSpline
210
0.0
220
0.0
230
1.0
 70
     8
 71
     3
 72
    10
 73
     6
 74
     0
 42
0.000000001
 43
0.00000001
 40
0.0
 40
0.0
 40
0.0
 40
0.0
 40
0.5
 40
0.5
 40
1.0
 40
1.0
 40
1.0
 40
1.0
 10
230.6550067075768
 20
57.77973471866648
 30
0.0
 10
230.5517030490283
 20
57.85260692910113
 30
0.0
 10
230.4614048696617
 20
57.93988734311887
 30
0.0
 10
230.3076360136927
 20
58.14349243280144
 30
0.0
 10
230.2469220654854
 20
58.25641716096422
 30
0.0
 10
230.2028362194151
 20
58.37842784008331
 30
0.0
  0
SPLINE
  5
1EF
330
1F
100
AcDbEntity
  8
0
  6
Continuous
 62
     7
370
    25
100
AcDbSpline
210
0.0
220
0.0
230
1.0
 70
     8
 71
     3
 72
    14
 73
    10
 74
     0
 42
0.000000001
 43
0.00000001
 40
0.0
 40
0.0
 40
0.0
 40
0.0
 40
0.25
 40
0.25
 40
0.5
 40
0.5
 40
0.75
 40
0.75
 40
1.0
 40
1.0
 40
1.0
 40
1.0
 10
230.2028362194151
 20
58.37842784008331
 30
0.0
 10
230.1801154165499
 20
58.44130925974085
 30
0.0
 10
230.1582009062005
 20
58.51035568921427
 30
0.0
 10
230.1160898521377
 20
58.65800820583304
 30
0.0
 10
230.0965682982246
 20
58.73440799269135
 30
0.0
 10
230.0582220560509
 20
58.88874028408695
 30
0.0
 10
230.0398624631671
 20
58.96569288041861
 30
0.0
 10
229.9978590185854
 20
59.11108304793459
 30
0.0
 10
229.9740826975724
 20
59.17767395412761
 30
0.0
 10
229.9456211934702
 20
59.21816956935895
 30
0.0
  0
LINE
  5
1F0
330
1F
100
AcDbEntity
  8
0
  6
Continuous
 62
     7
370
    25
100
AcDbLine
 10
229.9456213817
 20
59.2181699611
 30
0.0
 11
229.9283187833
 21
59.2427877684
 31
0.0
  0
LINE
  5
1F1
330
1F
100
AcDbEntity
  8
0
  6
Continuous
 62
     7
370
    25
100
AcDbLine
 10
231.2725118449
 20
60.9149512857
 30
0.0
 11
231.2898144433
 21
60.8903334784
 31
0.0
  0
SPLINE
  5
1F2
330
1F
100
AcDbEntity
  8
0
  6
Continuous
 62
     7
370
    25
100
AcDbSpline
210
0.0
220
0.0
230
1.0
 70
     8
 71
     3
 72
    16
 73
    12
 74
     0
 42
0.000000001
 43
0.00000001
 40
0.0
 40
0.0
 40
0.0
 40
0.0
 40
0.1250000000000001
 40
0.1250000000000001
 40
0.2500000000000003
 40
0.2500000000000003
 40
0.5000000000000002
 40
0.5000000000000002
 40
0.7500000000000001
 40
0.7500000000000001
 40
1.0
 40
1.0
 40
1.0
 40
1.0
 10
231.2898144343214
 20
60.89033318197223
 30
0.0
 10
231.3039668407255
 20
60.87019684615945
 30
0.0
 10
231.3256252451992
 20
60.85339942548202
 30
0.0
 10
231.3780431742345
 20
60.82655390415054
 30
0.0
 10
231.4086360533728
 20
60.81632841958955
 30
0.0
 10
231.5077169022304
 20
60.79182797915686
 30
0.0
 10
231.5815994398462
 20
60.78356805675537
 30
0.0
 10
231.7346990322376
 20
60.77238209005045
 30
0.0
 10
231.8127830068852
 20
60.76978541829926
 30
0.0
 10
231.9721266406273
 20
60.76775641746556
 30
0.0
 10
232.0507795354588
 20
60.76839400612779
 30
0.0
 10
232.1265320032515
 20
60.77148710694281
 30
0.0
  0
SPLINE
  5
1F3
330
1F
100
AcDbEntity
  8
0
  6
Continuous
 62
     7
370
    25
100
AcDbSpline
210
0.0
220
0.0
230
1.0
 70
     8
 71
     3
 72
    12
 73
     8
 74
     0
 42
0.000000001
 43
0.00000001
 40
0.0
 40
0.0
 40
0.0
 40
0.0
 40
0.5000000000000003
 40
0.5000000000000003
 40
0.7500000000000001
 40
0.7500000000000001
 40
1.0
 40
1.0
 40
1.0
 40
1.0
 10
232.1265320032515
 20
60.77148710694281
 30
0.0
 10
232.273025004803
 20
60.777468662867
 30
0.0
 10
232.4188967030645
 20
60.76715182417673
 30
0.0
 10
232.6228598729503
 20
60.72871364633225
 30
0.0
 10
232.6888107033914
 20
60.71211757178462
 30
0.0
 10
232.8165586621032
 20
60.67134524700487
 30
0.0
 10
232.8787738821424
 20
60.64695145916645
 30
0.0
 10
232.9375448712775
 20
60.61919049462654
 30
0.0
  0
LINE
  5
1F4
330
1F
100
AcDbEntity
  8
0
  6
Continuous
 62
     7
370
    25
100
AcDbLine
 10
233.0927479627
 20
60.6476091021
 30
0.0
 11
233.0753548145
 21
60.6723563868
 31
0.0
  0
ARC
  5
1F5
330
1F
100
AcDbEntity
  8
0
  6
Continuous
 62
     7
370
    25
100
AcDbCircle
 10
215.62016586
 20
55.8952613292
 30
0.0
 40
4.160340149630005
100
AcDbArc
 50
211.7954354499
 51
236.1628935314
  0
SPLINE
  5
1F6
330
1F
100
AcDbEntity
  8
0
  6
Continuous
 62
     7
370
    25
100
AcDbSpline
210
0.0
220
0.0
230
1.0
 70
     8
 71
     3
 72
     8
 73
     4
 74
     0
 42
0.000000001
 43
0.00000001
 40
0.0
 40
0.0
 40
0.0
 40
0.0
 40
1.0
 40
1.0
 40
1.0
 40
1.0
 10
213.5145912021407
 20
52.77848607538787
 30
0.0
 10
213.0378179103165
 20
53.08657888332051
 30
0.0
 10
212.5610155334716
 20
53.39480832889326
 30
0.0
 10
212.084183088946
 20
53.70317348511318
 30
0.0
  0
SPLINE
  5
1F7
330
1F
100
AcDbEntity
  8
0
  6
Continuous
 62
     7
370
    25
100
AcDbSpline
210
0.0
220
0.0
230
1.0
 70
     8
 71
     3
 72
    23
 73
    19
 74
     0
 42
0.000000001
 43
0.00000001
 40
0.0
 40
0.0
 40
0.0
 40
0.0
 40
0.0521036415684141
 40
0.1035646240942128
 40
0.1544751946758079
 40
0.2049306267497427
 40
0.2550287880868969
 40
0.3048696389164994
 40
0.3545546704630395
 40
0.4041862979540088
 40
0.4538672252136959
 40
0.5036997999425104
 40
0.590187023076665
 40
0.6742716378260809
 40
0.7565997087257926
 40
0.8378563983752378
 40
0.9187511781386904
 40
1.0
 40
1.0
 40
1.0
 40
1.0
 10
214.3951560056823
 20
52.60375537726777
 30
0.0
 10
214.3898870667422
 20
52.59383391503263
 30
0.0
 10
214.379414177242
 20
52.57411336430111
 30
0.0
 10
214.3601678814795
 20
52.54954553534817
 30
0.0
 10
214.3383721411469
 20
52.52885695308845
 30
0.0
 10
214.313720849942
 20
52.5123260177912
 30
0.0
 10
214.2862243354031
 20
52.49980851821496
 30
0.0
 10
214.2558132813958
 20
52.4912738943927
 30
0.0
 10
214.2224429096232
 20
52.48666402174491
 30
0.0
 10
214.1860670213512
 20
52.48592927860893
 30
0.0
 10
214.146638649762
 20
52.48902436116087
 30
0.0
 10
214.0937902582108
 20
52.49756013664128
 30
0.0
 10
214.0252512644389
 20
52.51515657548983
 30
0.0
 10
213.9375300324829
 20
52.54679318357672
 30
0.0
 10
213.8427991129884
 20
52.58897284090976
 30
0.0
 10
213.7407648656591
 20
52.64170927663633
 30
0.0
 10
213.6318509524718
 20
52.70402583254597
 30
0.0
 10
213.5537346414873
 20
52.75362989079608
 30
0.0
 10
213.5145912021407
 20
52.77848607538785
 30
0.0
  0
SPLINE
  5
1F8
330
1F
100
AcDbEntity
  8
0
  6
Continuous
 62
     7
370
    25
100
AcDbSpline
210
0.0
220
0.0
230
1.0
 70
     8
 71
     3
 72
     8
 73
     4
 74
     0
 42
0.000000001
 43
0.00000001
 40
0.0
 40
0.0
 40
0.0
 40
0.0
 40
1.0
 40
1.0
 40
1.0
 40
1.0
 10
215.8686590321345
 20
51.65643524071262
 30
0.0
 10
215.3772917200937
 20
51.97230986067975
 30
0.0
 10
214.885905520168
 20
52.28829588196888
 30
0.0
 10
214.3944998100245
 20
52.60439276281121
 30
0.0
  0
SPLINE
  5
1F9
330
1F
100
AcDbEntity
  8
0
  6
Continuous
 62
     7
370
    25
100
AcDbSpline
210
0.0
220
0.0
230
1.0
 70
     8
 71
     3
 72
    18
 73
    14
 74
     0
 42
0.000000001
 43
0.00000001
 40
0.0
 40
0.0
 40
0.0
 40
0.0
 40
0.0923824559397059
 40
0.1844689291547896
 40
0.2764953615916986
 40
0.3686975365456813
 40
0.4613092839965452
 40
0.5545607518407201
 40
0.648676805150765
 40
0.7438756050126222
 40
0.840367404429405
 40
0.9203921078117897
 40
1.0
 40
1.0
 40
1.0
 40
1.0
 10
216.6822231513358
 20
51.01212751616722
 30
0.0
 10
216.658655637213
 20
51.02740149043254
 30
0.0
 10
216.6115961165623
 20
51.05790050291279
 30
0.0
 10
216.5391983286002
 20
51.10753307552319
 30
0.0
 10
216.4657161197052
 20
51.1598626181914
 30
0.0
 10
216.3910166719605
 20
51.2151803038991
 30
0.0
 10
216.3151558821924
 20
51.27341861901267
 30
0.0
 10
216.2381446014054
 20
51.33461153065043
 30
0.0
 10
216.1600124693238
 20
51.39877524723232
 30
0.0
 10
216.0807862346792
 20
51.46592420709994
 30
0.0
 10
216.0054897502685
 20
51.53177511684655
 30
0.0
 10
215.9346624421459
 20
51.59530670365518
 30
0.0
 10
215.8907580713384
 20
51.63596744866881
 30
0.0
 10
215.868863204533
 20
51.6562447372374
 30
0.0
  0
LINE
  5
1FA
330
1F
100
AcDbEntity
  8
0
  6
Continuous
 62
     7
370
    25
100
AcDbLine
 10
217.3219296832
 20
50.6003737097
 30
0.0
 11
216.6822228409
 21
51.0121273773
 31
0.0
  0
SPLINE
  5
1FB
330
1F
100
AcDbEntity
  8
0
  6
Continuous
 62
     7
370
    25
100
AcDbSpline
210
0.0
220
0.0
230
1.0
 70
     8
 71
     3
 72
    25
 73
    21
 74
     0
 42
0.000000001
 43
0.00000001
 40
0.0
 40
0.0
 40
0.0
 40
0.0
 40
0.0280105225426455
 40
0.0559601148860777
 40
0.0839014045043132
 40
0.1118870776786386
 40
0.1399695827588948
 40
0.1682008401739887
 40
0.196631967042423
 40
0.2253130233141507
 40
0.2542927850735879
 40
0.3799486436587393
 40
0.5057850221667148
 40
0.6313085886345164
 40
0.7532068238012837
 40
0.8039473267959832
 40
0.8535894438560202
 40
0.9025339722399832
 40
0.9511970353794942
 40
1.0
 40
1.0
 40
1.0
 40
1.0
 10
218.424295276326
 20
51.31627970004429
 30
0.0
 10
218.4292433838566
 20
51.28865583893681
 30
0.0
 10
218.4391288354921
 20
51.23346820583149
 30
0.0
 10
218.4506644850953
 20
51.15430749846158
 30
0.0
 10
218.4597376069081
 20
51.07800415936319
 30
0.0
 10
218.466106415621
 20
51.00480839839357
 30
0.0
 10
218.4698226544312
 20
50.93466093018019
 30
0.0
 10
218.470859275414
 20
50.86758464366741
 30
0.0
 10
218.4692108001871
 20
50.80358073444098
 30
0.0
 10
218.4648646483182
 20
50.74265188117414
 30
0.0
 10
218.4500083237506
 20
50.62076375967698
 30
0.0
 10
218.4049200666855
 20
50.46586288802177
 30
0.0
 10
218.2915605461926
 20
50.33491976967968
 30
0.0
 10
218.1297363241987
 20
50.27904336886918
 30
0.0
 10
217.9557211050664
 20
50.2989174212524
 30
0.0
 10
217.8043601843797
 20
50.34623522360872
 30
0.0
 10
217.6939599516809
 20
50.39115064734435
 30
0.0
 10
217.5768004562322
 20
50.44852637863551
 30
0.0
 10
217.4532347892988
 20
50.51720344308794
 30
0.0
 10
217.3657397392043
 20
50.57262368904078
 30
0.0
 10
217.321929419523
 20
50.60037358677084
 30
0.0
  0
ARC
  5
1FC
330
1F
100
AcDbEntity
  8
0
  6
Continuous
 62
     7
370
    25
100
AcDbCircle
 10
229.6173164407
 20
53.1023300686
 30
0.0
 40
11.33462419218054
100
AcDbArc
 50
170.9338462887
 51
189.0661537113
  0
SPLINE
  5
1FD
330
1F
100
AcDbEntity
  8
0
  6
Continuous
 62
     7
370
    25
100
AcDbSpline
210
0.0
220
0.0
230
1.0
 70
     8
 71
     3
 72
    26
 73
    22
 74
     0
 42
0.000000001
 43
0.00000001
 40
0.0
 40
0.0
 40
0.0
 40
0.0
 40
0.0241259796969038
 40
0.048215991228259
 40
0.0723203915136643
 40
0.0964895678725153
 40
0.1207736231978452
 40
0.1452220711257179
 40
0.1698835501670319
 40
0.1948055644482148
 40
0.2200342569523467
 40
0.2456142191612283
 40
0.369097148691835
 40
0.4940698769485373
 40
0.6192566784762581
 40
0.7454656653603327
 40
0.7971495824713788
 40
0.8481710308405456
 40
0.8988013269235281
 40
0.9493179290492212
 40
1.0
 40
1.0
 40
1.0
 40
1.0
 10
217.321929419523
 20
58.36448397813542
 30
0.0
 10
217.3436476488996
 20
58.35015245474003
 30
0.0
 10
217.3870517290765
 20
58.32151077407043
 30
0.0
 10
217.4503588464391
 20
58.27351847614089
 30
0.0
 10
217.5122204141579
 20
58.22191927825471
 30
0.0
 10
217.5725249292949
 20
58.16634448538116
 30
0.0
 10
217.6313147812349
 20
58.10688924475391
 30
0.0
 10
217.6885952996645
 20
58.04352493591662
 30
0.0
 10
217.7443864389902
 20
57.976256157953
 30
0.0
 10
217.7987076864112
 20
57.9050820439934
 30
0.0
 10
217.8515866616191
 20
57.82999290424587
 30
0.0
 10
217.9683814863546
 20
57.65073845554176
 30
0.0
 10
218.1302510442802
 20
57.34043298369873
 30
0.0
 10
218.2934359518131
 20
56.87051919556774
 30
0.0
 10
218.4049473569857
 20
56.37155616165966
 30
0.0
 10
218.4520811950943
 20
55.96267248860272
 30
0.0
 10
218.4672001346268
 20
55.658400532012
 30
0.0
 10
218.4691532736093
 20
55.45715129031668
 30
0.0
 10
218.4626752479702
 20
55.26149137059409
 30
0.0
 10
218.4485483252831
 20
55.07085508269662
 30
0.0
 10
218.4323884335981
 20
54.94927180895781
 30
0.0
 10
218.424295276326
 20
54.88838077235893
 30
0.0
  0
LINE
  5
1FE
330
1F
100
AcDbEntity
  8
0
  6
Continuous
 62
     7
370
    25
100
AcDbLine
 10
216.6822228409
 20
58.7774588284
 30
0.0
 11
217.3219296832
 21
58.3644838574
 31
0.0
  0
SPLINE
  5
1FF
330
1F
100
AcDbEntity
  8
0
  6
Continuous
 62
     7
370
    25
100
AcDbSpline
210
0.0
220
0.0
230
1.0
 70
     8
 71
     3
 72
    14
 73
    10
 74
     0
 42
0.000000001
 43
0.00000001
 40
0.0
 40
0.0
 40
0.0
 40
0.0
 40
0.0789261963155847
 40
0.1582328720522156
 40
0.3308475394554963
 40
0.5000195457601538
 40
0.667035788356921
 40
0.8332395193656904
 40
1.0
 40
1.0
 40
1.0
 40
1.0
 10
215.8682704354841
 20
58.98604126142057
 30
0.0
 10
215.8899873168194
 20
58.98764442527899
 30
0.0
 10
215.9335257700343
 20
58.99085848136594
 30
0.0
 10
216.0250508886829
 20
58.99167952143371
 30
0.0
 10
216.1419592221162
 20
58.98374353965045
 30
0.0
 10
216.2827795604987
 20
58.95746787077263
 30
0.0
 10
216.4199918683113
 20
58.91451027224039
 30
0.0
 10
216.5539225427281
 20
58.85615314743078
 30
0.0
 10
216.6394086346875
 20
58.80371960128075
 30
0.0
 10
216.6822231513358
 20
58.7774589911263
 30
0.0
  0
SPLINE
  5
200
330
1F
100
AcDbEntity
  8
0
  6
Continuous
 62
     7
370
    25
100
AcDbSpline
210
0.0
220
0.0
230
1.0
 70
     8
 71
     3
 72
     8
 73
     4
 74
     0
 42
0.000000001
 43
0.00000001
 40
0.0
 40
0.0
 40
0.0
 40
0.0
 40
1.0
 40
1.0
 40
1.0
 40
1.0
 10
214.0659668524801
 20
60.1484326728327
 30
0.0
 10
214.6667250761759
 20
59.76116518967399
 30
0.0
 10
215.267453939036
 20
59.37369783975085
 30
0.0
 10
215.8681545833826
 20
58.98603094716141
 30
0.0
  0
SPLINE
  5
201
330
1F
100
AcDbEntity
  8
0
  6
Continuous
 62
     7
370
    25
100
AcDbSpline
210
0.0
220
0.0
230
1.0
 70
     8
 71
     3
 72
    13
 73
     9
 74
     0
 42
0.000000001
 43
0.00000001
 40
0.0
 40
0.0
 40
0.0
 40
0.0
 40
0.1667030582308044
 40
0.3329480818053134
 40
0.4990671507274983
 40
0.6653938523718556
 40
0.8322612710550201
 40
1.0
 40
1.0
 40
1.0
 40
1.0
 10
213.7241383174457
 20
60.4494974519185
 30
0.0
 10
213.7444394998856
 20
60.43593234523927
 30
0.0
 10
213.7849860850743
 20
60.40883940347641
 30
0.0
 10
213.8441357220619
 20
60.3636448304687
 30
0.0
 10
213.9019072669644
 20
60.31523368198574
 30
0.0
 10
213.9581570044241
 20
60.26319856721528
 30
0.0
 10
214.0130842131702
 20
60.20790060000627
 30
0.0
 10
214.0483049227607
 20
60.1682833448459
 30
0.0
 10
214.0659611347017
 20
60.14842313584496
 30
0.0
  0
SPLINE
  5
202
330
1F
100
AcDbEntity
  8
0
  6
Continuous
 62
     7
370
    25
100
AcDbSpline
210
0.0
220
0.0
230
1.0
 70
     8
 71
     3
 72
     8
 73
     4
 74
     0
 42
0.000000001
 43
0.00000001
 40
0.0
 40
0.0
 40
0.0
 40
0.0
 40
1.0
 40
1.0
 40
1.0
 40
1.0
 10
211.780157801655
 20
61.70421930429796
 30
0.0
 10
212.4281878740552
 20
61.28622398841321
 30
0.0
 10
213.0761808511571
 20
60.86798322599558
 30
0.0
 10
213.7241383174457
 20
60.44949745191849
 30
0.0
  0
LWPOLYLINE
  5
203
330
1F
100
AcDbEntity
  8
0
  6
Continuous
 62
     7
370
    25
100
AcDbPolyline
 90
       20
 70
   128
 43
0.0
 10
211.780158452
 20
61.7042193548
 10
212.1628070554
 20
62.8181821169
 10
212.6250177136
 20
63.9263962989
 10
213.1616169009
 20
65.0164588562
 10
213.7665980327
 20
66.0761687253
 10
214.4331909424
 20
67.0936669326
 10
215.1539353085
 20
68.0575645353
 10
215.9207639606
 20
68.9570743638
 10
216.7250945822
 20
69.7821278392
 10
217.5579253638
 20
70.5234925508
 10
218.4099350194
 20
71.1728695389
 10
219.2715879237
 20
71.7229927719
 10
220.1332403827
 20
72.1677034237
 10
220.9852488035
 20
72.5020252464
 10
221.8180774448
 20
72.7222161265
 10
222.6224052676
 20
72.8258122785
 10
223.3892299685
 20
72.8116533202
 10
224.1099693955
 20
72.6798982333
 10
224.7765573661
 20
72.432022122
 10
224.8298961785
 20
72.40596632
  0
SPLINE
  5
204
330
1F
100
AcDbEntity
  8
0
  6
Continuous
 62
     7
370
    25
100
AcDbSpline
210
0.0
220
0.0
230
1.0
 70
    11
 71
     3
 72
    39
 73
    35
 74
     0
 42
0.000000001
 43
0.00000001
 40
0.0
 40
0.0
 40
0.0
 40
0.0
 40
0.0310664058347798
 40
0.0621048158425991
 40
0.0931361551792733
 40
0.1235538293503577
 40
0.1538561545807598
 40
0.1850588072749104
 40
0.2160250992947717
 40
0.247186722379756
 40
0.2784462884306427
 40
0.3100516090231226
 40
0.3419834369140484
 40
0.3734259894013217
 40
0.4048604886785525
 40
0.4368740651833295
 40
0.468512068592407
 40
0.4998055358633177
 40
0.5309508213228404
 40
0.561864978443814
 40
0.5930416446592908
 40
0.6233742450133256
 40
0.6540913579073041
 40
0.6849496782718417
 40
0.7158160645167227
 40
0.7471731804043494
 40
0.7784514311866261
 40
0.8101295911560916
 40
0.8419598919689909
 40
0.8735175891922292
 40
0.9050808037889628
 40
0.9370235169792575
 40
0.9687441590033682
 40
0.9999999999999999
 40
0.9999999999999999
 40
0.9999999999999999
 40
0.9999999999999999
 10
224.9887432828603
 20
70.70940967963938
 30
0.0
 10
225.2516289030579
 20
70.68087519234916
 30
0.0
 10
225.778517513541
 20
70.5949327040267
 30
0.0
 10
226.5425295826145
 20
70.3945575839565
 30
0.0
 10
227.2496797706659
 20
70.14755547773684
 30
0.0
 10
227.8625908352604
 20
69.86957359958453
 30
0.0
 10
228.3597221609354
 20
69.57543990225464
 30
0.0
 10
228.7189138820075
 20
69.273933374062
 30
0.0
 10
228.9406331507683
 20
68.96693586915879
 30
0.0
 10
229.005885028149
 20
68.65643060775653
 30
0.0
 10
228.9190378170346
 20
68.3372861230081
 30
0.0
 10
228.6766922292759
 20
68.00796615743526
 30
0.0
 10
228.2967543665496
 20
67.66902543587838
 30
0.0
 10
227.782948413391
 20
67.33118697146797
 30
0.0
 10
227.1570576024804
 20
67.00528907015898
 30
0.0
 10
226.4435866159919
 20
66.708642176919
 30
0.0
 10
225.6796841397268
 20
66.45253886848036
 30
0.0
 10
224.8938910568229
 20
66.26351130049062
 30
0.0
 10
224.1123536017809
 20
66.15533537843545
 30
0.0
 10
223.3562406170271
 20
66.14767149506743
 30
0.0
 10
222.6538760306363
 20
66.24559353045504
 30
0.0
 10
222.0348556835926
 20
66.46724196395648
 30
0.0
 10
221.5257984185799
 20
66.80311005086763
 30
0.0
 10
221.1528548251463
 20
67.24292061704892
 30
0.0
 10
220.9242528738986
 20
67.7539952575715
 30
0.0
 10
220.8554065671789
 20
68.30518034533475
 30
0.0
 10
220.940022980404
 20
68.86285227364623
 30
0.0
 10
221.1831317703396
 20
69.39293241456598
 30
0.0
 10
221.5652616131563
 20
69.86545676367899
 30
0.0
 10
222.0813971875699
 20
70.25157827457271
 30
0.0
 10
222.708375048071
 20
70.53520246190502
 30
0.0
 10
223.4242824804375
 20
70.70493968063144
 30
0.0
 10
224.192725872621
 20
70.76647851534197
 30
0.0
 10
224.7242546519934
 20
70.73811816308633
 30
0.0
 10
224.9887432828603
 20
70.70940967963938
 30
0.0
  0
LINE
  5
205
330
1F
100
AcDbEntity
  8
0
  6
Continuous
 62
     7
370
    25
100
AcDbLine
 10
215.7640886489
 20
54.270400945
 30
0.0
 11
216.0787049949
 21
54.1019527858
 31
0.0
  0
LINE
  5
206
330
1F
100
AcDbEntity
  8
0
  6
Continuous
 62
     7
370
    25
100
AcDbLine
 10
214.7772465328
 20
54.8400927724
 30
0.0
 11
215.7640886489
 21
54.270400945
 31
0.0
  0
ARC
  5
207
330
1F
100
AcDbEntity
  8
0
  6
Continuous
 62
     7
370
    25
100
AcDbCircle
 10
217.0092328474
 20
58.3479552468
 30
0.0
 40
4.399246259573384
100
AcDbArc
 50
267.4956853267
 51
287.1750110524
  0
SPLINE
  5
208
330
1F
100
AcDbEntity
  8
0
  6
Continuous
 62
     7
370
    25
100
AcDbSpline
210
0.0
220
0.0
230
1.0
 70
     8
 71
     3
 72
    14
 73
    10
 74
     0
 42
0.000000001
 43
0.00000001
 40
0.0
 40
0.0
 40
0.0
 40
0.0
 40
0.1259749647163301
 40
0.2518224605244968
 40
0.3788151386161487
 40
0.5057174256655027
 40
0.7244132886126112
 40
0.9321266548948761
 40
1.0
 40
1.0
 40
1.0
 40
1.0
 10
226.3272492411597
 20
67.70691396430365
 30
0.0
 10
226.1579874273204
 20
67.80046003503124
 30
0.0
 10
225.8196350687402
 20
67.9874575210481
 30
0.0
 10
225.2331261363198
 20
68.25371167113614
 30
0.0
 10
224.5969788326111
 20
68.49098253007216
 30
0.0
 10
223.7610802225767
 20
68.7248760308285
 30
0.0
 10
222.7610720080021
 20
68.84097743531665
 30
0.0
 10
221.9160026508264
 20
68.7483107674547
 30
0.0
 10
221.5353061909344
 20
68.57037608193181
 30
0.0
 10
221.4415457114378
 20
68.5265531332277
 30
0.0
  0
SPLINE
  5
209
330
1F
100
AcDbEntity
  8
0
  6
Continuous
 62
     7
370
    25
100
AcDbSpline
210
0.0
220
0.0
230
1.0
 70
     8
 71
     3
 72
    10
 73
     6
 74
     0
 42
0.000000001
 43
0.00000001
 40
0.0
 40
0.0
 40
0.0
 40
0.0
 40
0.3798174073072795
 40
0.9603711649033085
 40
1.0
 40
1.0
 40
1.0
 40
1.0
 10
227.4671293630192
 20
67.17868703678518
 30
0.0
 10
227.3374767457708
 20
67.24901559862253
 30
0.0
 10
227.0096491300163
 20
67.42684189504367
 30
0.0
 10
226.6017205850061
 20
67.59989474544606
 30
0.0
 10
226.3450878035743
 20
67.69910017769438
 30
0.0
 10
226.3286893133625
 20
67.70543927163475
 30
0.0
  0
SPLINE
  5
20A
330
1F
100
AcDbEntity
  8
0
  6
Continuous
 62
     7
370
    25
100
AcDbSpline
210
0.0
220
0.0
230
1.0
 70
     8
 71
     3
 72
    24
 73
    20
 74
     0
 42
0.000000001
 43
0.00000001
 40
0.0
 40
0.0
 40
0.0
 40
0.0
 40
0.0618858212107145
 40
0.1150115607194259
 40
0.1593831488268445
 40
0.2428114970815824
 40
0.318331853291959
 40
0.3935543804326023
 40
0.4204843226990471
 40
0.4483397435477174
 40
0.4771286702554668
 40
0.5451537905345539
 40
0.6363475754294583
 40
0.6968782859867285
 40
0.7498596693403015
 40
0.7959701295389731
 40
0.8771179302751783
 40
0.9543004207779655
 40
1.0
 40
1.0
 40
1.0
 40
1.0
 10
224.933864715858
 20
70.13555177968261
 30
0.0
 10
224.7499079265218
 20
70.15444634464856
 30
0.0
 10
224.4080338585596
 20
70.18956090503308
 30
0.0
 10
223.9438158855828
 20
70.18307035664581
 30
0.0
 10
223.4343542733099
 20
70.13534616384851
 30
0.0
 10
222.8952591739353
 20
70.01072956568157
 30
0.0
 10
222.3524211892117
 20
69.76823928173859
 30
0.0
 10
222.0120281737166
 20
69.51086653111268
 30
0.0
 10
221.8054014651656
 20
69.29605943061385
 30
0.0
 10
221.6874174089545
 20
69.14955607931489
 30
0.0
 10
221.5352470047634
 20
68.91980525509442
 30
0.0
 10
221.3685663661838
 20
68.5468625596674
 30
0.0
 10
221.3002047853466
 20
68.08430350697454
 30
0.0
 10
221.350560248966
 20
67.6559708087727
 30
0.0
 10
221.4559893924813
 20
67.33604391512831
 30
0.0
 10
221.6381887191673
 20
66.99557839993511
 30
0.0
 10
221.9390671442377
 20
66.65963014308005
 30
0.0
 10
222.3287520388362
 20
66.38657084236502
 30
0.0
 10
222.6216709950306
 20
66.29261577143772
 30
0.0
 10
222.7306069290869
 20
66.25767408127275
 30
0.0
  0
SPLINE
  5
20B
330
1F
100
AcDbEntity
  8
0
  6
Continuous
 62
     7
370
    25
100
AcDbSpline
210
0.0
220
0.0
230
1.0
 70
     8
 71
     3
 72
    22
 73
    18
 74
     0
 42
0.000000001
 43
0.00000001
 40
0.0
 40
0.0
 40
0.0
 40
0.0
 40
0.0213646117058326
 40
0.0798040396815378
 40
0.1451425268808023
 40
0.2174197131785604
 40
0.2794756008717968
 40
0.3328725270377293
 40
0.3776099444771933
 40
0.4136905505915721
 40
0.5170336006474356
 40
0.609159775564188
 40
0.7026601566429537
 40
0.7524990386274549
 40
0.8044400402757782
 40
0.8936818365468029
 40
0.9999999999999999
 40
0.9999999999999999
 40
0.9999999999999999
 40
0.9999999999999999
 10
228.2405894760545
 20
67.66004290156557
 30
0.0
 10
228.2631017809371
 20
67.68129035037279
 30
0.0
 10
228.347192842217
 20
67.76065674706136
 30
0.0
 10
228.4532575454198
 20
67.90221699466326
 30
0.0
 10
228.5505586438635
 20
68.0909990514876
 30
0.0
 10
228.5815708424881
 20
68.2769622627556
 30
0.0
 10
228.5522269242441
 20
68.44877747051622
 30
0.0
 10
228.4837188805652
 20
68.59558328784155
 30
0.0
 10
228.3959088832355
 20
68.71679436719974
 30
0.0
 10
228.2416169849222
 20
68.88237747006269
 30
0.0
 10
227.9737911022071
 20
69.09254173826383
 30
0.0
 10
227.522220827155
 20
69.34798554067449
 30
0.0
 10
227.0746582225495
 20
69.55462223925271
 30
0.0
 10
226.6657644491196
 20
69.71312645562647
 30
0.0
 10
226.2436848504507
 20
69.85564320362886
 30
0.0
 10
225.6653722325566
 20
70.01889977245374
 30
0.0
 10
225.191493638779
 20
70.09446822238087
 30
0.0
 10
224.933864715858
 20
70.13555177968261
 30
0.0
  0
LINE
  5
20C
330
1F
100
AcDbEntity
  8
0
  6
Continuous
 62
     7
370
    25
100
AcDbLine
 10
218.424294994
 20
54.8883805916
 30
0.0
 11
218.419056931
 21
55.1844640145
 31
0.0
  0
LINE
  5
20D
330
1F
100
AcDbEntity
  8
0
  6
Continuous
 62
     7
370
    25
100
AcDbLine
 10
218.419056931
 20
55.1844640145
 30
0.0
 11
218.4621553763
 21
55.8360979552
 31
0.0
  0
LINE
  5
20E
330
1F
100
AcDbEntity
  8
0
  6
Continuous
 62
     7
370
    25
100
AcDbLine
 10
217.939508113
 20
57.665152232
 30
0.0
 11
217.6280936104
 21
57.9937488015
 31
0.0
  0
SPLINE
  5
20F
330
1F
100
AcDbEntity
  8
0
  6
Continuous
 62
     7
370
    25
100
AcDbSpline
210
0.0
220
0.0
230
1.0
 70
     8
 71
     3
 72
    18
 73
    14
 74
     0
 42
0.000000001
 43
0.00000001
 40
0.0
 40
0.0
 40
0.0
 40
0.0
 40
0.0707943140208255
 40
0.1980684859852275
 40
0.3219456980797736
 40
0.4427972789066824
 40
0.5640588087926915
 40
0.6887793780430184
 40
0.7629730969043459
 40
0.811666558538083
 40
0.8526846007253863
 40
0.9053445042636868
 40
1.0
 40
1.0
 40
1.0
 40
1.0
 10
221.3539789041548
 20
67.87690299198721
 30
0.0
 10
221.3521021935865
 20
68.05459314993792
 30
0.0
 10
221.3468515286706
 20
68.5517350609312
 30
0.0
 10
221.7241824017031
 20
69.23472787449236
 30
0.0
 10
222.4581808936072
 20
69.8209014923445
 30
0.0
 10
223.4461830521685
 20
70.11791735714496
 30
0.0
 10
224.5653088275319
 20
70.11037946073145
 30
0.0
 10
225.5487648786423
 20
69.8283293753113
 30
0.0
 10
226.2257850769103
 20
69.42358121737266
 30
0.0
 10
226.5904846416661
 20
69.04819606257327
 30
0.0
 10
226.7843658597704
 20
68.65630315381514
 30
0.0
 10
226.8463004510153
 20
68.14225255304653
 30
0.0
 10
226.7795324742083
 20
67.78875881235622
 30
0.0
 10
226.7366316235498
 20
67.56162624217357
 30
0.0
  0
SPLINE
  5
210
330
1F
100
AcDbEntity
  8
0
  6
Continuous
 62
     7
370
    25
100
AcDbSpline
210
0.0
220
0.0
230
1.0
 70
     8
 71
     3
 72
    10
 73
     6
 74
     0
 42
0.000000001
 43
0.00000001
 40
0.0
 40
0.0
 40
0.0
 40
0.0
 40
0.295076546403558
 40
0.9802393528284674
 40
1.0
 40
1.0
 40
1.0
 40
1.0
 10
226.7393594795379
 20
67.56038768875118
 30
0.0
 10
226.8221837883102
 20
67.52162245776313
 30
0.0
 10
227.0973247570484
 20
67.39284500866017
 30
0.0
 10
227.3723613981066
 20
67.25159686549884
 30
0.0
 10
227.5209124380736
 20
67.1575502294914
 30
0.0
 10
227.5250766699101
 20
67.15491388311602
 30
0.0
  0
ARC
  5
211
330
1F
100
AcDbEntity
  8
0
  6
Continuous
 62
     7
370
    25
100
AcDbCircle
 10
230.7494680449
 20
53.3471686964
 30
0.0
 40
12.46654291792345
100
AcDbArc
 50
171.5249863735
 51
179.8211981812
  0
SPLINE
  5
212
330
1F
100
AcDbEntity
  8
0
  6
Continuous
 62
     7
370
    25
100
AcDbSpline
210
0.0
220
0.0
230
1.0
 70
     8
 71
     3
 72
    14
 73
    10
 74
     0
 42
0.000000001
 43
0.00000001
 40
0.0
 40
0.0
 40
0.0
 40
0.0
 40
0.0003951393068452
 40
0.0003951393068452
 40
0.0003951393068452
 40
0.0008163352168296
 40
0.0008163352168296
 40
0.0008163352168296
 40
0.0012378579336484
 40
0.0012378579336484
 40
0.0012378579336484
 40
0.0012378579336484
 10
226.3312818166997
 20
67.70563501091922
 30
0.0
 10
226.3767436309295
 20
67.69119814829487
 30
0.0
 10
226.4216312355493
 20
67.67633228772996
 30
0.0
 10
226.465914928223
 20
67.66104850012518
 30
0.0
 10
226.5131182204569
 20
67.64475706078966
 30
0.0
 10
226.5596440335106
 20
67.62798758270797
 30
0.0
 10
226.605454942747
 20
67.61075877191503
 30
0.0
 10
226.6513013307309
 20
67.59351661808573
 30
0.0
 10
226.6964405662982
 20
67.57581091188365
 30
0.0
 10
226.7408341243356
 20
67.55766805519536
 30
0.0
  0
LINE
  5
213
330
1F
100
AcDbEntity
  8
0
  6
Continuous
 62
     7
370
    25
100
AcDbLine
 10
217.6280936104
 20
57.9937488015
 30
0.0
 11
216.988156936
 21
58.4059804416
 31
0.0
  0
LINE
  5
214
330
1F
100
AcDbEntity
  8
0
  6
Continuous
 62
     7
370
    25
100
AcDbLine
 10
216.6822228409
 20
58.7774588284
 30
0.0
 11
216.988156936
 21
58.4059804416
 31
0.0
  0
SPLINE
  5
215
330
1F
100
AcDbEntity
  8
0
  6
Continuous
 62
     7
370
    25
100
AcDbSpline
210
0.0
220
0.0
230
1.0
 70
     8
 71
     3
 72
    13
 73
     9
 74
     0
 42
0.000000001
 43
0.00000001
 40
0.0
 40
0.0
 40
0.0
 40
0.0
 40
0.1618542299052077
 40
0.3254858841874489
 40
0.4910085196967187
 40
0.6585318473110602
 40
0.828161695440384
 40
1.0
 40
1.0
 40
1.0
 40
1.0
 10
216.9881573476778
 20
58.40598044548942
 30
0.0
 10
216.9685799556579
 20
58.41854342252412
 30
0.0
 10
216.9292101798084
 20
58.44380733864518
 30
0.0
 10
216.8676742400338
 20
58.47650103556202
 30
0.0
 10
216.8041175807831
 20
58.50544710926896
 30
0.0
 10
216.7384994781279
 20
58.52995947673317
 30
0.0
 10
216.6710722090775
 20
58.55039454008434
 30
0.0
 10
216.6251876088825
 20
58.55999119507266
 30
0.0
 10
216.6020969287098
 20
58.5648205559066
 30
0.0
  0
SPLINE
  5
216
330
1F
100
AcDbEntity
  8
0
  6
Continuous
 62
     7
370
    25
100
AcDbSpline
210
0.0
220
0.0
230
1.0
 70
     8
 71
     3
 72
     9
 73
     5
 74
     0
 42
0.000000001
 43
0.00000001
 40
0.0
 40
0.0
 40
0.0
 40
0.0
 40
0.4907282259505859
 40
1.0
 40
1.0
 40
1.0
 40
1.0
 10
216.6020911014179
 20
58.56479255887559
 30
0.0
 10
216.5779975789401
 20
58.57288809109372
 30
0.0
 10
216.5289000923808
 20
58.58938506801501
 30
0.0
 10
216.4781993985607
 20
58.60417873703123
 30
0.0
 10
216.4523789662733
 20
58.61171273509583
 30
0.0
  0
SPLINE
  5
217
330
1F
100
AcDbEntity
  8
0
  6
Continuous
 62
     7
370
    25
100
AcDbSpline
210
0.0
220
0.0
230
1.0
 70
     8
 71
     3
 72
    14
 73
    10
 74
     0
 42
0.000000001
 43
0.00000001
 40
0.0
 40
0.0
 40
0.0
 40
0.0
 40
0.0310276388063898
 40
0.0622853718665477
 40
0.1248003166898006
 40
0.2498289731748368
 40
0.4998892603607338
 40
0.7606803622944698
 40
1.0
 40
1.0
 40
1.0
 40
1.0
 10
215.8684382769849
 20
58.98582047774167
 30
0.0
 10
215.8744305163893
 20
58.98198943408815
 30
0.0
 10
215.8864594323485
 20
58.97429893659056
 30
0.0
 10
215.9105192403974
 20
58.95886104708395
 30
0.0
 10
215.9527529130438
 20
58.9317905941531
 30
0.0
 10
216.0373154875561
 20
58.87757856935772
 30
0.0
 10
216.1606024570496
 20
58.79857538747545
 30
0.0
 10
216.3067341635095
 20
58.70496921279988
 30
0.0
 10
216.4051007800475
 20
58.64198613640618
 30
0.0
 10
216.4521724807055
 20
58.6118466376324
 30
0.0
  0
LINE
  5
218
330
1F
100
AcDbEntity
  8
0
  6
Continuous
 62
     7
370
    25
100
AcDbLine
 10
214.0659381218
 20
60.1484511548
 30
0.0
 11
214.3569054759
 21
59.9603726156
 31
0.0
  0
SPLINE
  5
219
330
1F
100
AcDbEntity
  8
0
  6
Continuous
 62
     7
370
    25
100
AcDbSpline
210
0.0
220
0.0
230
1.0
 70
     8
 71
     3
 72
     8
 73
     4
 74
     0
 42
0.000000001
 43
0.00000001
 40
0.0
 40
0.0
 40
0.0
 40
0.0
 40
1.0
 40
1.0
 40
1.0
 40
1.0
 10
214.3882937792803
 20
59.94015008543052
 30
0.0
 10
214.3778512734285
 20
59.94697551032792
 30
0.0
 10
214.3673853405387
 20
59.95371847711444
 30
0.0
 10
214.3568975757221
 20
59.96037756476741
 30
0.0
  0
SPLINE
  5
21A
330
1F
100
AcDbEntity
  8
0
  6
Continuous
 62
     7
370
    25
100
AcDbSpline
210
0.0
220
0.0
230
1.0
 70
     8
 71
     3
 72
     8
 73
     4
 74
     0
 42
0.000000001
 43
0.00000001
 40
0.0
 40
0.0
 40
0.0
 40
0.0
 40
1.0
 40
1.0
 40
1.0
 40
1.0
 10
211.6022894004542
 20
61.81840573724105
 30
0.0
 10
211.6612891646249
 20
61.77966507032158
 30
0.0
 10
211.7205767281362
 20
61.74160309302181
 30
0.0
 10
211.7801578016254
 20
61.70421930456105
 30
0.0
  0
SPLINE
  5
21B
330
1F
100
AcDbEntity
  8
0
  6
Continuous
 62
     7
370
    25
100
AcDbSpline
210
0.0
220
0.0
230
1.0
 70
     8
 71
     3
 72
     8
 73
     4
 74
     0
 42
0.000000001
 43
0.00000001
 40
0.0
 40
0.0
 40
0.0
 40
0.0
 40
1.0
 40
1.0
 40
1.0
 40
1.0
 10
211.5774396543569
 20
62.18161591517791
 30
0.0
 10
211.5849138664474
 20
62.0606580744668
 30
0.0
 10
211.5932099703375
 20
61.93958623205687
 30
0.0
 10
211.6022894004563
 20
61.81840573724177
 30
0.0
  0
LWPOLYLINE
  5
21C
330
1F
100
AcDbEntity
  8
0
  6
Continuous
 62
     7
370
    25
100
AcDbPolyline
 90
       16
 70
   128
 43
0.0
 10
211.5774400132
 20
62.1816152498
 10
211.9513503895
 20
63.2401954602
 10
212.3993489987
 20
64.291907062
 10
212.9165468062
 20
65.325273608
 10
213.4973004149
 20
66.3290196741
 10
214.1352733095
 20
67.292193288
 10
214.8235040161
 20
68.2042836048
 10
215.5544831516
 20
69.0553402919
 10
216.320234425
 20
69.8360758039
 10
217.1124022234
 20
70.5379706986
 10
217.9223429857
 20
71.1533674505
 10
218.7412188799
 20
71.6755503856
 10
219.5600947741
 20
72.0988214334
 10
220.3700355363
 20
72.4185623806
 10
221.1622033348
 20
72.6312849578
 10
221.5414024821
 20
72.6957229412
  0
SPLINE
  5
21D
330
1F
100
AcDbEntity
  8
0
  6
Continuous
 62
     7
370
    25
100
AcDbSpline
210
0.0
220
0.0
230
1.0
 70
     8
 71
     3
 72
    10
 73
     6
 74
     0
 42
0.000000001
 43
0.00000001
 40
0.0
 40
0.0
 40
0.0
 40
0.0
 40
0.2409818396634726
 40
0.5031433556203718
 40
1.0
 40
1.0
 40
1.0
 40
1.0
 10
217.6280936103956
 20
51.2879071782241
 30
0.0
 10
217.7103394813986
 20
51.23623065630354
 30
0.0
 10
217.8820597387431
 20
51.12833580961216
 30
0.0
 10
218.15978109777
 20
50.99861309914792
 30
0.0
 10
218.280758344814
 20
51.0213910402529
 30
0.0
 10
218.3599505857295
 20
51.03630158123164
 30
0.0
  0
LINE
  5
21E
330
1F
100
AcDbEntity
  8
0
  6
Continuous
 62
     7
370
    25
100
AcDbLine
 10
212.8449195542
 20
61.0169799112
 30
0.0
 11
212.0830408519
 21
61.5076143189
 31
0.0
  0
LINE
  5
21F
330
1F
100
AcDbEntity
  8
0
  6
Continuous
 62
     7
370
    25
100
AcDbLine
 10
212.0830408519
 20
61.5076143189
 30
0.0
 11
211.6022895316
 21
61.8184056949
 31
0.0
  0
LINE
  5
220
330
1F
100
AcDbEntity
  8
0
  6
Continuous
 62
     7
370
    25
100
AcDbLine
 10
216.6822228409
 20
51.0121273773
 30
0.0
 11
216.988156936
 21
51.7001388183
 31
0.0
  0
LINE
  5
221
330
1F
100
AcDbEntity
  8
0
  6
Continuous
 62
     7
370
    25
100
AcDbLine
 10
216.988156936
 20
51.7001388183
 30
0.0
 11
217.6280936104
 21
51.2879071782
 31
0.0
  0
SPLINE
  5
222
330
1F
100
AcDbEntity
  8
0
  6
Continuous
 62
     7
370
    25
100
AcDbSpline
210
0.0
220
0.0
230
1.0
 70
     8
 71
     3
 72
    13
 73
     9
 74
     0
 42
0.000000001
 43
0.00000001
 40
0.0
 40
0.0
 40
0.0
 40
0.0
 40
0.1722587823584898
 40
0.3421398271275632
 40
0.5097456257942847
 40
0.675182899330312
 40
0.838562619015417
 40
1.0
 40
1.0
 40
1.0
 40
1.0
 10
216.6020854169045
 20
51.98144852374271
 30
0.0
 10
216.6252369408574
 20
51.96332893280757
 30
0.0
 10
216.6712204216095
 20
51.92733986087005
 30
0.0
 10
216.7387614343244
 20
51.87633987745176
 30
0.0
 10
216.8044210490111
 20
51.82801519726058
 30
0.0
 10
216.8679451202602
 20
51.78258419135292
 30
0.0
 10
216.9293754989782
 20
51.73975862359621
 30
0.0
 10
216.9686416659483
 20
51.71329280642325
 30
0.0
 10
216.9881573476778
 20
51.7001390278777
 30
0.0
  0
SPLINE
  5
223
330
1F
100
AcDbEntity
  8
0
  6
Continuous
 62
     7
370
    25
100
AcDbSpline
210
0.0
220
0.0
230
1.0
 70
     8
 71
     3
 72
    11
 73
     7
 74
     0
 42
0.000000001
 43
0.00000001
 40
0.0
 40
0.0
 40
0.0
 40
0.0
 40
0.2392845095215635
 40
0.5001120454085677
 40
0.751501091501476
 40
1.0
 40
1.0
 40
1.0
 40
1.0
 10
216.4527050054284
 20
52.02876251595559
 30
0.0
 10
216.4056357734087
 20
52.0004479932353
 30
0.0
 10
216.3072596188125
 20
51.94126976268151
 30
0.0
 10
216.1609623972307
 20
51.84808186221881
 30
0.0
 10
216.0131216536069
 20
51.75270994624616
 30
0.0
 10
215.9168351908846
 20
51.68817469098911
 30
0.0
 10
215.8689703030234
 20
51.65609362093382
 30
0.0
  0
SPLINE
  5
224
330
1F
100
AcDbEntity
  8
0
  6
Continuous
 62
     7
370
    25
100
AcDbSpline
210
0.0
220
0.0
230
1.0
 70
     8
 71
     3
 72
     9
 73
     5
 74
     0
 42
0.000000001
 43
0.00000001
 40
0.0
 40
0.0
 40
0.0
 40
0.0
 40
0.5090669353869889
 40
1.0
 40
1.0
 40
1.0
 40
1.0
 10
216.4532760090126
 20
52.02806356174383
 30
0.0
 10
216.4789245836366
 20
52.02057085358393
 30
0.0
 10
216.529308084982
 20
52.00585234087168
 30
0.0
 10
216.5781155964773
 20
51.98945998301951
 30
0.0
 10
216.6020768176718
 20
51.98141243254291
 30
0.0
  0
LINE
  5
225
330
1F
100
AcDbEntity
  8
0
  6
Continuous
 62
     7
370
    25
100
AcDbLine
 10
218.2831945891
 20
52.951942129
 30
0.0
 11
216.6020786328
 21
51.9814545448
 31
0.0
  0
LINE
  5
226
330
1F
100
AcDbEntity
  8
0
  6
Continuous
 62
     7
370
    25
100
AcDbLine
 10
214.5955909815
 20
53.1052758434
 30
0.0
 11
214.395295328
 21
52.6041184292
 31
0.0
  0
SPLINE
  5
227
330
1F
100
AcDbEntity
  8
0
  6
Continuous
 62
     7
370
    25
100
AcDbSpline
210
0.0
220
0.0
230
1.0
 70
     8
 71
     3
 72
     8
 73
     4
 74
     0
 42
0.000000001
 43
0.00000001
 40
0.0
 40
0.0
 40
0.0
 40
0.0
 40
1.0
 40
1.0
 40
1.0
 40
1.0
 10
214.5951478108724
 20
53.10605959560515
 30
0.0
 10
214.6213231454416
 20
53.12822697258343
 30
0.0
 10
214.6471441854071
 20
53.15085911367505
 30
0.0
 10
214.6726017391155
 20
53.17394383376633
 30
0.0
  0
LINE
  5
228
330
1F
100
AcDbEntity
  8
0
  6
Continuous
 62
     7
370
    25
100
AcDbLine
 10
214.6726018349
 20
53.1739437181
 30
0.0
 11
216.4528945941
 21
52.028172833
 31
0.0
  0
LINE
  5
229
330
1F
100
AcDbEntity
  8
0
  6
Continuous
 62
     7
370
    25
100
AcDbLine
 10
218.2829858305
 20
53.0499920642
 30
0.0
 11
218.1949865036
 21
53.1574831325
 31
0.0
  0
LINE
  5
22A
330
1F
100
AcDbEntity
  8
0
  6
Continuous
 62
     7
370
    25
100
AcDbLine
 10
216.3667148256
 20
54.1519343306
 30
0.0
 11
214.6726018349
 21
53.1739437181
 31
0.0
  0
LINE
  5
22B
330
1F
100
AcDbEntity
  8
0
  6
Continuous
 62
     7
370
    25
100
AcDbLine
 10
216.5090256353
 20
54.1307060374
 30
0.0
 11
216.367134977
 21
54.1514469531
 31
0.0
  0
LINE
  5
22C
330
1F
100
AcDbEntity
  8
0
  6
Continuous
 62
     7
370
    25
100
AcDbLine
 10
218.1950602606
 20
53.157378966
 30
0.0
 11
216.5090256353
 21
54.1307060374
 31
0.0
  0
LINE
  5
22D
330
1F
100
AcDbEntity
  8
0
  6
Continuous
 62
     7
370
    25
100
AcDbLine
 10
218.2829858305
 20
53.1066148832
 30
0.0
 11
218.1950135039
 21
53.1574059394
 31
0.0
  0
SPLINE
  5
22E
330
1F
100
AcDbEntity
  8
0
  6
Continuous
 62
     7
370
    25
100
AcDbSpline
210
0.0
220
0.0
230
1.0
 70
     8
 71
     3
 72
    19
 73
    15
 74
     0
 42
0.000000001
 43
0.00000001
 40
0.0
 40
0.0
 40
0.0
 40
0.0
 40
0.0637853009096226
 40
0.1289628367612685
 40
0.1955871994238738
 40
0.2637095015333396
 40
0.333377557928126
 40
0.4046360709483682
 40
0.4775268158796784
 40
0.5520888236292854
 40
0.6283585584260098
 40
0.7063700889343436
 40
0.837704180588121
 40
1.0
 40
1.0
 40
1.0
 40
1.0
 10
213.8110787049111
 20
53.27454768295703
 30
0.0
 10
213.8317680739151
 20
53.26118854294735
 30
0.0
 10
213.8735983965681
 20
53.23417867440758
 30
0.0
 10
213.9340893701604
 20
53.19665670888213
 30
0.0
 10
213.993573568338
 20
53.16113696779192
 30
0.0
 10
214.0516547278087
 20
53.12815683887536
 30
0.0
 10
214.1081868448957
 20
53.09795040260457
 30
0.0
 10
214.1629318996499
 20
53.07083696264235
 30
0.0
 10
214.2156542772433
 20
53.04710534489156
 30
0.0
 10
214.266095910176
 20
53.02706509144613
 30
0.0
 10
214.3139788286438
 20
53.01094522990731
 30
0.0
 10
214.3689429830196
 20
52.99666726022475
 30
0.0
 10
214.4317742969826
 20
52.98652870297255
 30
0.0
 10
214.4702818126415
 20
52.99300295428694
 30
0.0
 10
214.4915657778366
 20
52.99658141779679
 30
0.0
  0
LINE
  5
22F
330
1F
100
AcDbEntity
  8
0
  6
Continuous
 62
     7
370
    25
100
AcDbLine
 10
214.5162014655
 20
53.0226518721
 30
0.0
 11
214.5950055355
 21
53.1060434758
 31
0.0
  0
SPLINE
  5
230
330
1F
100
AcDbEntity
  8
0
  6
Continuous
 62
     7
370
    25
100
AcDbSpline
210
0.0
220
0.0
230
1.0
 70
     8
 71
     3
 72
     9
 73
     5
 74
     0
 42
0.000000001
 43
0.00000001
 40
0.0
 40
0.0
 40
0.0
 40
0.0
 40
0.5231976711515671
 40
0.9999999999999999
 40
0.9999999999999999
 40
0.9999999999999999
 40
0.9999999999999999
 10
216.2004652645872
 20
54.05596067131584
 30
0.0
 10
216.1314304730624
 20
54.08099736623254
 30
0.0
 10
215.9994826542334
 20
54.1288505893969
 30
0.0
 10
215.7580436838635
 20
54.26644510678386
 30
0.0
 10
215.6429250205163
 20
54.33205049311074
 30
0.0
  0
LINE
  5
231
330
1F
100
AcDbEntity
  8
0
  6
Continuous
 62
     7
370
    25
100
AcDbLine
 10
211.9133945183
 20
54.0979231382
 30
0.0
 11
212.3648656326
 21
54.2101871111
 31
0.0
  0
LINE
  5
232
330
1F
100
AcDbEntity
  8
0
  6
Continuous
 62
     7
370
    25
100
AcDbLine
 10
212.3648656326
 20
54.2101871111
 30
0.0
 11
213.8110781044
 21
53.274547778
 31
0.0
  0
SPLINE
  5
233
330
1F
100
AcDbEntity
  8
0
  6
Continuous
 62
     7
370
    25
100
AcDbSpline
210
0.0
220
0.0
230
1.0
 70
     8
 71
     3
 72
     8
 73
     4
 74
     0
 42
0.000000001
 43
0.00000001
 40
0.0
 40
0.0
 40
0.0
 40
0.0
 40
1.0
 40
1.0
 40
1.0
 40
1.0
 10
212.0841830889278
 20
53.70317348517371
 30
0.0
 10
212.0270578200045
 20
53.83495966896764
 30
0.0
 10
211.9701293282877
 20
53.96654389062673
 30
0.0
 10
211.913395210339
 20
54.09792295752639
 30
0.0
  0
LINE
  5
234
330
1F
100
AcDbEntity
  8
0
  6
Continuous
 62
     7
370
    25
100
AcDbLine
 10
213.7025670917
 20
54.9824257258
 30
0.0
 11
212.3648656326
 21
54.2101871111
 31
0.0
  0
LINE
  5
235
330
1F
100
AcDbEntity
  8
0
  6
Continuous
 62
     7
370
    25
100
AcDbLine
 10
214.6856653823
 20
54.8846654799
 30
0.0
 11
213.7025670917
 21
54.9824257258
 31
0.0
  0
LINE
  5
236
330
1F
100
AcDbEntity
  8
0
  6
Continuous
 62
     7
370
    25
100
AcDbLine
 10
215.6429250205
 20
54.3320504931
 30
0.0
 11
214.6856647237
 21
54.8846650997
 31
0.0
  0
SPLINE
  5
237
330
1F
100
AcDbEntity
  8
0
  6
Continuous
 62
     7
370
    25
100
AcDbSpline
210
0.0
220
0.0
230
1.0
 70
     8
 71
     3
 72
     8
 73
     4
 74
     0
 42
0.000000001
 43
0.00000001
 40
0.0
 40
0.0
 40
0.0
 40
0.0
 40
1.0
 40
1.0
 40
1.0
 40
1.0
 10
211.913395210339
 20
54.09792295752639
 30
0.0
 10
211.9102578725888
 20
54.1331392643989
 30
0.0
 10
211.9082654686909
 20
54.1687835206266
 30
0.0
 10
211.9074840713188
 20
54.20488042262148
 30
0.0
  0
LINE
  5
238
330
1F
100
AcDbEntity
  8
0
  6
Continuous
 62
     7
370
    25
100
AcDbLine
 10
212.7185705464
 20
54.6731101373
 30
0.0
 11
211.9074847399
 21
54.2048802677
 31
0.0
  0
SPLINE
  5
239
330
1F
100
AcDbEntity
  8
0
  6
Continuous
 62
     7
370
    25
100
AcDbSpline
210
0.0
220
0.0
230
1.0
 70
     8
 71
     3
 72
     8
 73
     4
 74
     0
 42
0.000000001
 43
0.00000001
 40
0.0000004089325119
 40
0.0000004089325119
 40
0.0000004089325119
 40
0.0000004089325119
 40
0.0015399868451459
 40
0.0015399868451459
 40
0.0015399868451459
 40
0.0015399868451459
 10
212.7185696038076
 20
54.67311013397759
 30
0.0
 10
212.9570461718308
 20
54.76748651979396
 30
0.0
 10
213.1954931294995
 20
54.86191513172416
 30
0.0
 10
213.4339018683498
 20
54.95640851468662
 30
0.0
  0
LINE
  5
23A
330
1F
100
AcDbEntity
  8
0
  6
Continuous
 62
     7
370
    25
100
AcDbLine
 10
213.4339013473
 20
54.9564086618
 30
0.0
 11
213.4582977871
 21
54.9614026882
 31
0.0
  0
LINE
  5
23B
330
1F
100
AcDbEntity
  8
0
  6
Continuous
 62
     7
370
    25
100
AcDbLine
 10
213.7025670917
 20
54.9824257258
 30
0.0
 11
213.4582984457
 21
54.9614026882
 31
0.0
  0
SPLINE
  5
23C
330
1F
100
AcDbEntity
  8
0
  6
Continuous
 62
     7
370
    25
100
AcDbSpline
210
0.0
220
0.0
230
1.0
 70
     8
 71
     3
 72
     8
 73
     4
 74
     0
 42
0.000000001
 43
0.00000001
 40
0.0
 40
0.0
 40
0.0
 40
0.0
 40
1.0
 40
1.0
 40
1.0
 40
1.0
 10
214.6856633259856
 20
54.88466584465833
 30
0.0
 10
214.7162479924839
 20
54.86974504345056
 30
0.0
 10
214.7467762334829
 20
54.8548871780126
 30
0.0
 10
214.7772470216939
 20
54.84009259088435
 30
0.0
  0
LWPOLYLINE
  5
23D
330
1F
100
AcDbEntity
  8
0
  6
Continuous
 62
     7
370
    25
100
AcDbPolyline
 90
        3
 70
   128
 43
0.0
 10
218.3253669151
 20
54.3731224366
 10
217.8508372352
 20
54.1751601309
 10
217.1139825656
 20
53.9491177989
  0
LWPOLYLINE
  5
23E
330
1F
100
AcDbEntity
  8
0
  6
Continuous
 62
     7
370
    18
100
AcDbPolyline
 90
       18
 70
   128
 43
0.0
 10
260.6473031894
 20
43.0374930103
 10
260.6628356202
 20
43.1202326721
 10
260.7945814003
 20
43.554467102
 10
261.005125982
 20
43.9798633102
 10
261.2788542873
 20
44.3648714893
 10
261.5954653646
 20
44.6809376872
 10
261.931477163
 20
44.9046202722
 10
262.2619697
 20
45.0193299933
 10
262.5624312903
 20
45.0165591907
 10
262.8105787635
 20
44.8965136641
 10
262.9880077761
 20
44.6680965012
 10
263.0815586332
 20
44.3482478676
 10
263.0842942271
 20
43.9606902223
 10
262.9960110675
 20
43.5341665864
 10
262.8232564038
 20
43.1003100571
 10
262.5788435365
 20
42.6912983481
 10
262.2808989033
 20
42.3374656214
 10
262.1175396941
 20
42.188743724
  0
LWPOLYLINE
  5
23F
330
1F
100
AcDbEntity
  8
0
  6
Continuous
 62
     7
370
    18
100
AcDbPolyline
 90
       10
 70
   128
 43
0.0
 10
260.3254105852
 20
43.2233179397
 10
260.3584270433
 20
43.3547616129
 10
260.5249722909
 20
43.8122751569
 10
260.764109558
 20
44.2525139634
 10
261.0608131641
 20
44.647816369
 10
261.3964400433
 20
44.9733440779
 10
261.7499016249
 20
45.2086429973
 10
262.0989884954
 20
45.3389282005
 10
262.4217661834
 20
45.3560136516
 10
262.6894427939
 20
45.2640095974
  0
LWPOLYLINE
  5
240
330
1F
100
AcDbEntity
  8
0
  6
Continuous
 62
     7
370
    18
100
AcDbPolyline
 90
       24
 70
   128
 43
0.0
 10
252.052024723
 20
36.3501972742
 10
251.7156395297
 20
36.1794103366
 10
251.3971963816
 20
36.1229146302
 10
251.1203126603
 20
36.1848999905
 10
250.9055244178
 20
36.3607696788
 10
250.7687605286
 20
36.637479834
 10
250.7201645537
 20
36.994508284
 10
250.7633407073
 20
37.405375903
 10
250.8950864873
 20
37.8396103329
 10
251.1056310691
 20
38.2650065411
 10
251.3793597036
 20
38.6500149103
 10
251.6959704516
 20
38.9660809181
 10
252.0319822501
 20
39.1897635031
 10
252.3624747871
 20
39.3044732242
 10
252.6629363774
 20
39.3017024216
 10
252.9110838506
 20
39.181656895
 10
253.0885125339
 20
38.9532395421
 10
253.1820637203
 20
38.6333910985
 10
253.1847993142
 20
38.2458334532
 10
253.0965161546
 20
37.8193098173
 10
252.9237618201
 20
37.3854534781
 10
252.6793486236
 20
36.9764415791
 10
252.3814039904
 20
36.6226088523
 10
252.052024723
 20
36.3501972742
  0
LWPOLYLINE
  5
241
330
1F
100
AcDbEntity
  8
0
  6
Continuous
 62
     7
370
    18
100
AcDbPolyline
 90
       14
 70
   128
 43
0.0
 10
250.7890107722
 20
36.0857678574
 10
250.6480552471
 20
36.1908267696
 10
250.4730727274
 20
36.4458240198
 10
250.380258123
 20
36.7873222261
 10
250.3754435041
 20
37.1938638581
 10
250.4589324597
 20
37.6399050339
 10
250.6254770487
 20
38.0974181977
 10
250.8646149744
 20
38.5376573844
 10
251.1613182512
 20
38.9329595999
 10
251.4969451304
 20
39.2584873088
 10
251.850406712
 20
39.4937862282
 10
252.1994935824
 20
39.6240714314
 10
252.5222712705
 20
39.6411568825
 10
252.789947881
 20
39.5491528283
  0
LWPOLYLINE
  5
242
330
1F
100
AcDbEntity
  8
0
  6
Continuous
 62
     7
370
    18
100
AcDbPolyline
 90
       32
 70
   128
 43
0.0
 10
267.1957097505
 20
37.1285461898
 10
267.151562573
 20
37.6043843684
 10
267.0209280868
 20
38.0097702583
 10
266.809154661
 20
38.3281073482
 10
266.5249123634
 20
38.5463629148
 10
266.1798379223
 20
38.6556015202
 10
265.7880589285
 20
38.6513509823
 10
265.3656147068
 20
38.5337851662
 10
264.9298002824
 20
38.3077175097
 10
264.4984578896
 20
37.9824030496
 10
264.0892467288
 20
37.5711600165
 10
263.718919987
 20
37.0908252812
 10
263.4026389228
 20
36.5610633239
 10
263.153352003
 20
36.0035627573
 10
262.9812651035
 20
35.4411478224
 10
262.8934236626
 20
34.8968438901
 10
262.8934236626
 20
34.3929347047
 10
262.9812651035
 20
33.9500503413
 10
263.153352003
 20
33.5863227114
 10
263.4026389228
 20
33.316642696
 10
263.718919987
 20
33.1520510825
 10
264.0892467288
 20
33.0992865022
 10
264.4984578896
 20
33.1605086187
 10
264.9298002824
 20
33.3332114846
 10
265.3656147068
 20
33.6103244522
 10
265.7880589285
 20
33.9805023525
 10
266.1798379223
 20
34.4285902126
 10
266.5249123634
 20
34.9362432871
 10
266.809154661
 20
35.482678025
 10
267.0209280868
 20
36.0455235079
 10
267.151562573
 20
36.6017367651
 10
267.1957097505
 20
37.1285461898
  0
LWPOLYLINE
  5
243
330
1F
100
AcDbEntity
  8
0
  6
Continuous
 62
     7
370
    18
100
AcDbPolyline
 90
       18
 70
   128
 43
0.0
 10
263.2727451345
 20
33.1505057011
 10
263.2726129317
 20
33.1505818548
 10
262.986815152
 20
33.3877356405
 10
262.7744482129
 20
33.723938531
 10
262.6436732921
 20
34.146270399
 10
262.5995159072
 20
34.6385013067
 10
262.6436732921
 20
35.1817152458
 10
262.7744482129
 20
35.7550366236
 10
262.986815152
 20
36.3364331628
 10
263.2726129317
 20
36.9035620412
 10
263.6208586762
 20
37.4346287577
 10
264.0181693615
 20
37.909224837
 10
264.4492765098
 20
38.3091117481
 10
264.8976129935
 20
38.6189222092
 10
265.3459494771
 20
38.8267500338
 10
265.7770566254
 20
38.9246088414
 10
266.1743673108
 20
38.9087379151
 10
266.4725766789
 20
38.8069149409
  0
LWPOLYLINE
  5
244
330
1F
100
AcDbEntity
  8
0
  6
Continuous
 62
     7
370
    18
100
AcDbPolyline
 90
       28
 70
   128
 43
0.0
 10
248.6341576531
 20
37.8429026444
 10
248.676561334
 20
38.7237052846
 10
248.8032205163
 20
39.6419839951
 10
249.0124822533
 20
40.5857668689
 10
249.3016201708
 20
41.5427509176
 10
249.6668644307
 20
42.5004601509
 10
250.1034530978
 20
43.4464095456
 10
250.6056947009
 20
44.3682666387
 10
251.1670423201
 20
45.2540146396
 10
251.7801772208
 20
46.0921048949
 10
252.4371066484
 20
46.8716133449
 10
253.1292663961
 20
47.5823769213
 10
253.8476332519
 20
48.2151303256
 10
254.5828420129
 20
48.7616237707
 10
255.3253082226
 20
49.214733379
 10
256.0653525937
 20
49.568552783
 10
256.7933276961
 20
49.8184677813
 10
257.4997431215
 20
49.9612225108
 10
258.1753895364
 20
49.9949537985
 10
258.8114592374
 20
49.9192234937
 10
259.3996596674
 20
49.7350182195
 10
259.9323230634
 20
49.4447392866
 10
260.4025050736
 20
49.0521710298
 10
260.8040766242
 20
48.5624311791
 10
261.1318019572
 20
47.9819045017
 10
261.381408765
 20
47.3181583845
 10
261.5496438377
 20
46.5798467253
 10
261.6285822508
 20
45.8765308217
  0
LWPOLYLINE
  5
245
330
1F
100
AcDbEntity
  8
0
  6
Continuous
 62
     7
370
    18
100
AcDbPolyline
 90
       18
 70
   128
 43
0.0
 10
257.2825022945
 20
35.7425973985
 10
256.7933276961
 20
35.2877147208
 10
256.0653525937
 20
34.6971275565
 10
255.3253082226
 20
34.1965099168
 10
254.5828420129
 20
33.7923862862
 10
253.8476332519
 20
33.490025764
 10
253.1292663961
 20
33.2933704512
 10
252.4371066484
 20
33.2049833932
 10
251.7801772208
 20
33.2260172707
 10
251.1670423201
 20
33.356197038
 10
250.6056947009
 20
33.5938268734
 10
250.1034530978
 20
33.9358081545
 10
249.6668644307
 20
34.3776830038
 10
249.3016201708
 20
34.9136901907
 10
249.0124822533
 20
35.5368427057
 10
248.8032205163
 20
36.2390171206
 10
248.676561334
 20
37.0110582521
 10
248.6341576531
 20
37.8429026444
  0
LWPOLYLINE
  5
246
330
1F
100
AcDbEntity
  8
0
  6
Continuous
 62
     7
370
    18
100
AcDbPolyline
 90
       20
 70
   128
 43
0.0
 10
248.209892988
 20
37.8429034047
 10
248.2521313742
 20
38.7358110137
 10
248.3783150874
 20
39.6662568899
 10
248.5868570353
 20
40.6225403202
 10
248.8751355522
 20
41.5926355903
 10
249.2395253506
 20
42.5643436948
 10
249.6754429608
 20
43.5254434744
 10
250.1774073167
 20
44.4638497869
 10
250.7391056108
 20
45.367761221
 10
251.3534739654
 20
46.2258100894
 10
252.0127869948
 20
47.0272072895
 10
252.7087528006
 20
47.7618731882
 10
253.4326196554
 20
48.4205691729
 10
254.1752841693
 20
48.9950125656
 10
254.9274071933
 20
49.4779792747
 10
255.6795302173
 20
49.8633953251
 10
256.4221947312
 20
50.1464141285
 10
257.146061586
 20
50.3234770248
 10
257.8420273918
 20
50.3923561414
 10
257.990398128
 20
50.3928802468
  0
ARC
  5
247
330
1F
100
AcDbEntity
  8
0
  6
Continuous
 62
     7
370
    18
100
AcDbCircle
 10
254.2111337728
 20
37.6256840468
 30
0.0
 40
6.005170705868099
100
AcDbArc
 50
177.9270417632
 51
208.806720778
  0
LWPOLYLINE
  5
248
330
1F
100
AcDbEntity
  8
0
  6
Continuous
 62
     7
370
    18
100
AcDbPolyline
 90
        9
 70
   128
 43
0.0
 10
233.5727831158
 20
46.2927270744
 10
233.615021502
 20
45.4485868682
 10
233.7412052152
 20
44.663829606
 10
233.9497471631
 20
43.9483235837
 10
234.23802568
 20
43.3110676045
 10
234.6024154784
 20
42.7600750062
 10
235.0383330886
 20
42.3022749862
 10
235.5402974446
 20
41.9434243829
 10
235.5406833516
 20
41.9432011508
  0
LWPOLYLINE
  5
249
330
1F
100
AcDbEntity
  8
0
  6
Continuous
 62
     7
370
    18
100
AcDbPolyline
 90
       22
 70
   128
 43
0.0
 10
245.0399112906
 20
58.3981298109
 10
244.4785989036
 20
58.6532949667
 10
243.864230549
 20
58.8020092316
 10
243.2049175196
 20
58.8421798111
 10
242.5089517138
 20
58.7733006945
 10
241.785084859
 20
58.5962377982
 10
241.0424203451
 20
58.3132189947
 10
240.2902973211
 20
57.9278029443
 10
239.5381742971
 20
57.4448362352
 10
238.7955097832
 20
56.8703928426
 10
238.0716429284
 20
56.2116968579
 10
237.3756771226
 20
55.4770309591
 10
236.7163640932
 20
54.6756337591
 10
236.1019957386
 20
53.8175848906
 10
235.5402974446
 20
52.9136734566
 10
235.0383330886
 20
51.975267144
 10
234.6024154784
 20
51.0141673644
 10
234.23802568
 20
50.04245926
 10
233.9497471631
 20
49.0723639899
 10
233.7412052152
 20
48.1160805596
 10
233.615021502
 20
47.1856346833
 10
233.5727831158
 20
46.2927270744
  0
LWPOLYLINE
  5
24A
330
1F
100
AcDbEntity
  8
0
  6
Continuous
 62
     7
370
    18
100
AcDbPolyline
 90
       17
 70
   128
 43
0.0
 10
258.5336517428
 20
36.6182911313
 10
258.5781991507
 20
37.1991520344
 10
258.7103242524
 20
37.8116656417
 10
258.9255278719
 20
38.4349737814
 10
259.2164813966
 20
39.0478502928
 10
259.5732768598
 20
39.6294243461
 10
259.983763786
 20
40.1598912057
 10
260.4339636625
 20
40.6211864841
 10
260.9085455731
 20
40.9976012171
 10
261.3913480949
 20
41.2763171803
 10
261.8659300056
 20
41.4478430581
 10
262.3161298821
 20
41.506337493
 10
262.7266168082
 20
41.4498087504
 10
263.0834122714
 20
41.2801819703
 10
263.3743657961
 20
41.0032332481
 10
263.5895694156
 20
40.6283939187
 10
263.6657218561
 20
40.4103750851
  0
LWPOLYLINE
  5
24B
330
1F
100
AcDbEntity
  8
0
  6
Continuous
 62
     7
370
    18
100
AcDbPolyline
 90
        8
 70
   128
 43
0.0
 10
260.4321106005
 20
34.8089891704
 10
259.983763786
 20
34.7509547843
 10
259.5732768598
 20
34.8074835269
 10
259.2164813966
 20
34.977110307
 10
258.9255278719
 20
35.2540590293
 10
258.7103242524
 20
35.6288983586
 10
258.5781991507
 20
36.0888635706
 10
258.5336517428
 20
36.6182911313
  0
LWPOLYLINE
  5
24C
330
1F
100
AcDbEntity
  8
0
  6
Continuous
 62
     7
370
    18
100
AcDbPolyline
 90
       15
 70
   128
 43
0.0
 10
258.109389218
 20
36.6182900859
 10
258.1523595764
 20
37.2102596462
 10
258.2799644286
 20
37.8338547151
 10
258.4883267585
 20
38.470127773
 10
258.7711156484
 20
39.0997458806
 10
259.1197385742
 20
39.703578499
 10
259.5236028476
 20
40.2632785538
 10
259.970437397
 20
40.7618397765
 10
260.4466652573
 20
41.1841136419
 10
260.9378164771
 20
41.5172697897
 10
261.4289676969
 20
41.7511847698
 10
261.9051955572
 20
41.8787518882
 10
262.3520301066
 20
41.896094855
 10
262.75589438
 20
41.8026865649
 10
262.9376539813
 20
41.7153018294
  0
ARC
  5
24D
330
1F
100
AcDbEntity
  8
0
  6
Continuous
 62
     7
370
    18
100
AcDbCircle
 10
260.1241092818
 20
36.4226533984
 30
0.0
 40
2.024196297007522
100
AcDbArc
 50
174.4537586801
 51
233.0091556937
  0
LWPOLYLINE
  5
24E
330
1F
100
AcDbEntity
  8
0
  6
Continuous
 62
     7
370
    18
100
AcDbPolyline
 90
       12
 70
   128
 43
0.0
 10
259.4352128391
 20
37.1387512739
 10
259.4782049294
 20
37.6041863185
 10
259.6050249612
 20
38.0959199049
 10
259.8093138641
 20
38.5892944779
 10
260.0808277311
 20
39.0595702893
 10
260.4059516486
 20
39.4831656165
 10
260.7683826476
 20
39.8388396705
 10
261.149946834
 20
40.1087576659
 10
261.5315110205
 20
40.2793843029
 10
261.8939420194
 20
40.3421641732
 10
262.2190659369
 20
40.293948931
 10
262.3406334177
 20
40.2409092108
  0
ARC
  5
24F
330
1F
100
AcDbEntity
  8
0
  6
Continuous
 62
     7
370
    18
100
AcDbCircle
 10
260.6293253106
 20
37.0079244294
 30
0.0
 40
1.201257781683674
100
AcDbArc
 50
173.7476170365
 51
233.5843695502
  0
LINE
  5
250
330
1F
100
AcDbEntity
  8
0
  6
Continuous
 62
     7
370
    18
100
AcDbLine
 10
262.009030657
 20
40.0862948459
 30
0.0
 11
262.0418227162
 21
40.0654913978
 31
0.0
  0
LINE
  5
251
330
1F
100
AcDbEntity
  8
0
  6
Continuous
 62
     7
370
    18
100
AcDbLine
 10
259.9186909452
 20
36.3877207325
 30
0.0
 11
259.875402839
 21
36.4107525613
 31
0.0
  0
LWPOLYLINE
  5
252
330
1F
100
AcDbEntity
  8
0
  6
Continuous
 62
     7
370
    18
100
AcDbPolyline
 90
       17
 70
   128
 43
0.0
 10
252.124555498
 20
39.8963031031
 10
252.1674445262
 20
40.5029575897
 10
252.2948774983
 20
41.1416781866
 10
252.5031886263
 20
41.794090173
 10
252.7863849906
 20
42.4414248414
 10
253.1363197371
 20
43.0650596003
 10
253.5429256958
 20
43.6470534131
 10
253.9945055523
 20
44.170663553
 10
254.4780683637
 20
44.620826374
 10
254.9797027683
 20
44.984592344
 10
255.4849776892
 20
45.25149558
 10
255.9793573
 20
45.4138584226
 10
256.4486191589
 20
45.467009625
 10
256.8792634739
 20
45.4094204266
 10
257.2589015411
 20
45.2427474223
 10
257.5766115645
 20
44.97178531
 10
257.7758105768
 20
44.6923841494
  0
LWPOLYLINE
  5
253
330
1F
100
AcDbEntity
  8
0
  6
Continuous
 62
     7
370
    18
100
AcDbPolyline
 90
        3
 70
   128
 43
0.0
 10
253.7785486402
 20
37.7681731126
 10
253.5429256958
 20
37.7831681659
 10
253.162564876
 20
37.8844944716
  0
LWPOLYLINE
  5
254
330
1F
100
AcDbEntity
  8
0
  6
Continuous
 62
     7
370
    18
100
AcDbPolyline
 90
       15
 70
   128
 43
0.0
 10
252.8044040854
 20
39.5429400845
 10
252.7974939779
 20
39.6936903218
 10
252.8275166928
 20
40.2724613505
 10
252.9429355081
 20
40.8855819489
 10
253.1401220084
 20
41.5137761372
 10
253.412876491
 20
42.1372939926
 10
253.7526240479
 20
42.736532632
 10
254.148683087
 20
43.2926523043
 10
254.588601849
 20
43.7881694251
 10
255.0585498289
 20
44.207505071
 10
255.5437521692
 20
44.5374760554
 10
256.0289545095
 20
44.7677077688
 10
256.4989024894
 20
44.8909625112
 10
256.9388212513
 20
44.9033647816
 10
257.0828916919
 20
44.8813818703
  0
LWPOLYLINE
  5
255
330
1F
100
AcDbEntity
  8
0
  6
Continuous
 62
     7
370
    18
100
AcDbPolyline
 90
       29
 70
   128
 43
0.0
 10
231.4514624246
 20
46.2927270744
 10
231.4940722299
 20
47.256194483
 10
231.6214340792
 20
48.2583018039
 10
231.8321531752
 20
49.28807008
 10
232.1239206609
 20
50.3342166351
 10
232.4935399613
 20
51.3852800724
 10
232.9369616861
 20
52.4297445121
 10
233.449327094
 20
53.4561665842
 10
234.0250224224
 20
54.4533001396
 10
234.6577407904
 20
55.4102213405
 10
235.3405497
 20
56.3164455751
 10
236.065968415
 20
57.1620436109
 10
236.8260487969
 20
57.9377509991
 10
237.6124635506
 20
58.6350692075
 10
238.4165963619
 20
59.2463579611
 10
239.2296369755
 20
59.7649205472
 10
240.0426775891
 20
60.1850746724
 10
240.8468104004
 20
60.5022179005
 10
241.633225154
 20
60.7128748399
 10
242.393305536
 20
60.8147375811
 10
243.1187242509
 20
60.8066901658
 10
243.8015331606
 20
60.6888203177
 10
244.4342515286
 20
60.4624201949
 10
245.0099468569
 20
60.1299703174
 10
245.5223122648
 20
59.6951127535
 10
245.9657339897
 20
59.1626121398
 10
246.33535329
 20
58.538302063
 10
246.6271207757
 20
57.8290230765
 10
246.7521105477
 20
57.4096981938
  0
LWPOLYLINE
  5
256
330
1F
100
AcDbEntity
  8
0
  6
Continuous
 62
     7
370
    18
100
AcDbPolyline
 90
       14
 70
   128
 43
0.0
 10
237.2528824441
 20
40.9547696287
 10
236.8260487969
 20
40.8530684903
 10
236.065968415
 20
40.7512057491
 10
235.3405497
 20
40.7592531644
 10
234.6577407904
 20
40.8771230125
 10
234.0250224224
 20
41.1035231353
 10
233.449327094
 20
41.4359730128
 10
232.9369616861
 20
41.8708305767
 10
232.4935399613
 20
42.4033311903
 10
232.1239206609
 20
43.0276412672
 10
231.8321531752
 20
43.7369202537
 10
231.6214340792
 20
44.5233974401
 10
231.4940722299
 20
45.3784558998
 10
231.4514624246
 20
46.2927270744
  0
LWPOLYLINE
  5
257
330
1F
100
AcDbEntity
  8
0
  6
Continuous
 62
     7
370
    18
100
AcDbPolyline
 90
       15
 70
   128
 43
0.0
 10
252.5762785056
 20
39.9145381305
 10
252.6203120841
 20
40.5049292503
 10
252.7509974429
 20
41.12718476
 10
252.9641342205
 20
41.7613048797
 10
253.2528722368
 20
42.3869084208
 10
253.6079309535
 20
42.9838879992
 10
254.0178986996
 20
43.5330562585
 10
254.4695986582
 20
44.0167623801
 10
254.9485128862
 20
44.4194596825
 10
255.4392486159
 20
44.7282052303
 10
255.9260332225
 20
44.9330756133
 10
256.3932210778
 20
45.0274859721
 10
256.8257964099
 20
45.0084021556
 10
257.2098556157
 20
44.8764374036
 10
257.2601061836
 20
44.8485217992
  0
LWPOLYLINE
  5
258
330
1F
100
AcDbEntity
  8
0
  6
Continuous
 62
     7
370
    18
100
AcDbPolyline
 90
        3
 70
   128
 43
0.0
 10
253.3789746198
 20
38.1403894836
 10
253.2528722368
 20
38.2233463345
 10
253.2324874855
 20
38.2388330779
  0
LINE
  5
259
330
1F
100
AcDbEntity
  8
0
  6
Continuous
 62
     7
370
    18
100
AcDbLine
 10
252.5849815005
 20
39.6675772039
 30
0.0
 11
252.5762785056
 21
39.9145381305
 31
0.0
  0
LINE
  5
25A
330
1F
100
AcDbEntity
  8
0
  6
Continuous
 62
     7
370
    18
100
AcDbLine
 10
253.3390477248
 20
38.1938793053
 30
0.0
 11
253.2212466246
 21
38.3115126753
 31
0.0
  0
LWPOLYLINE
  5
25B
330
1F
100
AcDbEntity
  8
0
  6
Continuous
 62
     7
370
    18
100
AcDbPolyline
 90
       15
 70
   128
 43
0.0
 10
252.7575122591
 20
39.567977317
 10
252.7525530897
 20
39.6517499942
 10
252.7712460402
 20
40.2319786932
 10
252.8780848438
 20
40.8499861659
 10
253.0696042393
 20
41.4857274346
 10
253.3395923411
 20
42.1185820376
 10
253.6792918242
 20
42.7280230517
 10
254.0776847451
 20
43.2942834678
 10
254.5218489789
 20
43.7989961828
 10
254.9973780412
 20
44.2257910181
 10
255.4888479965
 20
44.5608245288
 10
255.9803179518
 20
44.7932301502
 10
256.4558470141
 20
44.9154694837
 10
256.9000112479
 20
44.9235778773
 10
257.187372083
 20
44.8600948479
  0
LWPOLYLINE
  5
25C
330
1F
100
AcDbEntity
  8
0
  6
Continuous
 62
     7
370
    18
100
AcDbPolyline
 90
       28
 70
   128
 43
0.0
 10
221.8082938967
 20
47.9918762587
 10
221.8506396256
 20
49.1363003047
 10
221.9773547842
 20
50.3209061375
 10
222.1874746047
 20
51.5366779895
 10
222.4794001411
 20
52.7743628885
 10
222.8509094642
 20
54.0245415694
 10
223.2991754425
 20
55.2776993858
 10
223.8207868153
 20
56.5242989321
 10
224.4117732178
 20
57.7548538064
 10
225.0676367911
 20
58.9599970488
 10
225.7833864263
 20
60.1305575649
 10
226.5535753018
 20
61.2576274233
 10
227.3723403959
 20
62.332628012
 10
228.2334515481
 20
63.3473779053
 10
229.1303549237
 20
64.294154457
 10
230.0562243794
 20
65.1657523513
 10
231.0040138184
 20
65.9555381614
 10
231.9665097087
 20
66.6575011999
 10
232.9363868951
 20
67.2662986667
 10
233.9062640815
 20
67.7772975638
 10
234.8687599718
 20
68.1866086261
 10
235.8165494107
 20
68.4911172095
 10
236.7424188665
 20
68.6885054347
 10
237.639322242
 20
68.7772714783
 10
238.5004333943
 20
68.7567393589
 10
239.3191984883
 20
68.627064826
 10
240.0893873639
 20
68.3892361152
 10
240.8044975524
 20
68.0454318025
  0
LWPOLYLINE
  5
25D
330
1F
100
AcDbEntity
  8
0
  6
Continuous
 62
     7
370
    18
100
AcDbPolyline
 90
       11
 70
   128
 43
0.0
 10
225.0682762378
 20
40.7865434087
 10
225.0676367911
 20
40.7869126734
 10
224.4117732178
 20
41.2348119525
 10
223.8207868153
 20
41.7830284503
 10
223.2991754425
 20
42.4273883247
 10
222.8509094642
 20
43.1629892591
 10
222.4794001411
 20
43.9842324057
 10
222.1874746047
 20
44.8848672547
 10
221.9773547842
 20
45.8580399258
 10
221.8506396256
 20
46.8963435506
 10
221.8082938967
 20
47.9918762587
  0
LWPOLYLINE
  5
25E
330
1F
100
AcDbEntity
  8
0
  6
Continuous
 62
     7
370
    18
100
AcDbPolyline
 90
       13
 70
   128
 43
0.0
 10
226.4323753351
 20
44.6562396309
 10
226.3000599141
 20
45.4484719631
 10
226.2171807706
 20
46.5015348635
 10
226.2272380624
 20
47.6123399262
 10
226.3301382759
 20
48.7703960515
 10
226.5249087411
 20
49.9647642145
 10
226.809710143
 20
51.1841633111
 10
227.1818523273
 20
52.4170756227
 10
227.6378199836
 20
53.6518553702
 10
228.1733062306
 20
54.8768389778
 10
228.7832534466
 20
56.0804572378
 10
229.4619000257
 20
57.2513394891
 10
230.2028363542
 20
58.3784280621
  0
LWPOLYLINE
  5
25F
330
1F
100
AcDbEntity
  8
0
  6
Continuous
 62
     7
370
    18
100
AcDbPolyline
 90
       18
 70
   128
 43
0.0
 10
226.9441711021
 20
41.7263119299
 10
226.6943074619
 20
42.0941507434
 10
226.2960678173
 20
42.8346314368
 10
225.9760151864
 20
43.6580982916
 10
225.736808772
 20
44.5577059416
 10
225.5804373786
 20
45.5259775191
 10
225.508200973
 20
46.5548655176
 10
225.5206994892
 20
47.6358177387
 10
225.6178288772
 20
48.7598496798
 10
225.79878242
 20
49.917619011
 10
226.0620553434
 20
51.0995025008
 10
226.4054599626
 20
52.295676885
 10
226.8261421455
 20
53.4961999495
 10
227.3206056795
 20
54.6910943689
 10
227.8847392712
 20
55.870426222
 10
228.5138554008
 20
57.0243958635
 10
229.2027245663
 20
58.1434101643
 10
229.9456213817
 20
59.2181699611
  0
LINE
  5
260
330
1F
100
AcDbEntity
  8
0
  6
Continuous
 62
     7
370
    18
100
AcDbLine
 10
232.9375448273
 20
60.6191905285
 30
0.0
 11
232.9799527887
 21
60.6636327535
 31
0.0
  0
ARC
  5
261
330
1F
100
AcDbEntity
  8
0
  6
Continuous
 62
     7
370
    18
100
AcDbCircle
 10
243.1047846188
 20
51.3254010959
 30
0.0
 40
14.48276781207104
100
AcDbArc
 50
110.0665409331
 51
139.2901057068
  0
LWPOLYLINE
  5
262
330
1F
100
AcDbEntity
  8
0
  6
Continuous
 62
     7
370
    18
100
AcDbPolyline
 90
       12
 70
   128
 43
0.0
 10
231.2898144433
 20
60.8903334784
 10
232.1578969477
 20
61.8167055226
 10
233.0562767801
 20
62.6661791879
 10
233.9772762992
 20
63.4314925839
 10
234.9130241695
 20
64.1061069913
 10
235.8555229236
 20
64.6842557503
 10
236.7967177184
 20
65.1609976419
 10
237.728564618
 20
65.5322585873
 10
238.6430996996
 20
65.7948654588
 10
239.5325068631
 20
65.9465745786
 10
240.3891846937
 20
65.9860882646
 10
240.9287779536
 20
65.9509865674
  0
LINE
  5
263
330
1F
100
AcDbEntity
  8
0
  6
Continuous
 62
     7
370
    18
100
AcDbLine
 10
217.3219296832
 20
58.3644838574
 30
0.0
 11
217.6280936104
 21
57.9937488015
 31
0.0
  0
LINE
  5
264
330
1F
100
AcDbEntity
  8
0
  6
Continuous
 62
     7
370
    18
100
AcDbLine
 10
217.3219296832
 20
50.6003737097
 30
0.0
 11
217.6280936104
 21
51.2879071782
 31
0.0
  0
LINE
  5
265
330
1F
100
AcDbEntity
  8
0
  6
Continuous
 62
     7
370
    18
100
AcDbLine
 10
218.3640039272
 20
51.7127391613
 30
0.0
 11
217.6281008544
 21
51.2879113601
 31
0.0
  0
LINE
  5
266
330
1F
100
AcDbEntity
  8
0
  6
Continuous
 62
     7
370
    18
100
AcDbLine
 10
218.2974283701
 20
52.455965129
 30
0.0
 11
216.988156936
 21
51.7001388183
 31
0.0
  0
LINE
  5
267
330
1F
100
AcDbEntity
  8
0
  6
Continuous
 62
     7
370
    18
100
AcDbLine
 10
213.8110781044
 20
53.274547778
 30
0.0
 11
213.5145908302
 21
52.7784861602
 31
0.0
  0
LINE
  5
268
330
1F
100
AcDbEntity
  8
0
  6
Continuous
 62
     7
370
    18
100
AcDbLine
 10
215.6429250205
 20
54.3320504931
 30
0.0
 11
213.8111386905
 21
53.2745827536
 31
0.0
  0
LINE
  5
269
330
1F
100
AcDbEntity
  8
0
  6
Continuous
 62
     7
370
    18
100
AcDbLine
 10
215.6429250205
 20
54.3320504931
 30
0.0
 11
215.7640886489
 21
54.270400945
 31
0.0
  0
OLE2FRAME
  5
26A
330
1F
100
AcDbEntity
  8
0
100
AcDbOle2Frame
 70
     2
  3
Paintbrush-Bild
 10
13.8511154363
 20
38.264191557
 30
0.0
 11
51.6290888628
 21
31.9806341108
 31
0.0
 71
     2
 72
     0
 73
     1
 90
    12928
310
80552BED0767C5B32B40DDAF6807D121434000000000000000006FFBDDFB85D0
310
4940DDAF6807D121434000000000000000006FFBDDFB85D04940416F4BD60AFB
310
3F4000000000000000002BED0767C5B32B40416F4BD60AFB3F40000000000000
310
0000000000000100000000010000010000000100000000000100000000320000
310
D0CF11E0A1B11AE1000000000000000000000000000000003E000300FEFF0900
310
0600000000000000000000000100000001000000000000000010000002000000
310
01000000FEFFFFFF0000000000000000FFFFFFFFFFFFFFFFFFFFFFFFFFFFFFFF
310
FFFFFFFFFFFFFFFFFFFFFFFFFFFFFFFFFFFFFFFFFFFFFFFFFFFFFFFFFFFFFFFF
310
FFFFFFFFFFFFFFFFFFFFFFFFFFFFFFFFFFFFFFFFFFFFFFFFFFFFFFFFFFFFFFFF
310
FFFFFFFFFFFFFFFFFFFFFFFFFFFFFFFFFFFFFFFFFFFFFFFFFFFFFFFFFFFFFFFF
310
FFFFFFFFFFFFFFFFFFFFFFFFFFFFFFFFFFFFFFFFFFFFFFFFFFFFFFFFFFFFFFFF
310
FFFFFFFFFFFFFFFFFFFFFFFFFFFFFFFFFFFFFFFFFFFFFFFFFFFFFFFFFFFFFFFF
310
FFFFFFFFFFFFFFFFFFFFFFFFFFFFFFFFFFFFFFFFFFFFFFFFFFFFFFFFFFFFFFFF
310
FFFFFFFFFFFFFFFFFFFFFFFFFFFFFFFFFFFFFFFFFFFFFFFFFFFFFFFFFFFFFFFF
310
FFFFFFFFFFFFFFFFFFFFFFFFFFFFFFFFFFFFFFFFFFFFFFFFFFFFFFFFFFFFFFFF
310
FFFFFFFFFFFFFFFFFFFFFFFFFFFFFFFFFFFFFFFFFFFFFFFFFFFFFFFFFFFFFFFF
310
FFFFFFFFFFFFFFFFFFFFFFFFFFFFFFFFFFFFFFFFFFFFFFFFFFFFFFFFFFFFFFFF
310
FFFFFFFFFFFFFFFFFFFFFFFFFFFFFFFFFFFFFFFFFFFFFFFFFFFFFFFFFFFFFFFF
310
FFFFFFFFFFFFFFFFFFFFFFFFFFFFFFFFFFFFFFFFFFFFFFFFFFFFFFFFFFFFFFFF
310
FFFFFFFFFFFFFFFFFFFFFFFFFFFFFFFFFFFFFFFFFFFFFFFFFFFFFFFFFFFFFFFF
310
FDFFFFFFFEFFFFFFFEFFFFFFFEFFFFFF05000000060000000700000008000000
310
090000000A0000000B0000000C0000000D0000000E0000000F00000010000000
310
11000000120000001300000014000000150000001600000017000000FEFFFFFF
310
FFFFFFFFFFFFFFFFFFFFFFFFFFFFFFFFFFFFFFFFFFFFFFFFFFFFFFFFFFFFFFFF
310
FFFFFFFFFFFFFFFFFFFFFFFFFFFFFFFFFFFFFFFFFFFFFFFFFFFFFFFFFFFFFFFF
310
FFFFFFFFFFFFFFFFFFFFFFFFFFFFFFFFFFFFFFFFFFFFFFFFFFFFFFFFFFFFFFFF
310
FFFFFFFFFFFFFFFFFFFFFFFFFFFFFFFFFFFFFFFFFFFFFFFFFFFFFFFFFFFFFFFF
310
FFFFFFFFFFFFFFFFFFFFFFFFFFFFFFFFFFFFFFFFFFFFFFFFFFFFFFFFFFFFFFFF
310
FFFFFFFFFFFFFFFFFFFFFFFFFFFFFFFFFFFFFFFFFFFFFFFFFFFFFFFFFFFFFFFF
310
FFFFFFFFFFFFFFFFFFFFFFFFFFFFFFFFFFFFFFFFFFFFFFFFFFFFFFFFFFFFFFFF
310
FFFFFFFFFFFFFFFFFFFFFFFFFFFFFFFFFFFFFFFFFFFFFFFFFFFFFFFFFFFFFFFF
310
FFFFFFFFFFFFFFFFFFFFFFFFFFFFFFFFFFFFFFFFFFFFFFFFFFFFFFFFFFFFFFFF
310
FFFFFFFFFFFFFFFFFFFFFFFFFFFFFFFFFFFFFFFFFFFFFFFFFFFFFFFFFFFFFFFF
310
FFFFFFFFFFFFFFFFFFFFFFFFFFFFFFFFFFFFFFFFFFFFFFFFFFFFFFFFFFFFFFFF
310
FFFFFFFFFFFFFFFFFFFFFFFFFFFFFFFFFFFFFFFFFFFFFFFFFFFFFFFFFFFFFFFF
310
FFFFFFFFFFFFFFFFFFFFFFFFFFFFFFFFFFFFFFFFFFFFFFFFFFFFFFFFFFFFFFFF
310
52006F006F007400200045006E00740072007900000000000000000000000000
310
0000000000000000000000000000000000000000000000000000000000000000
310
16000500FFFFFFFFFFFFFFFF020000000A00030000000000C000000000000046
310
000000000000000000000000D01001487AA9D30103000000C000000000000000
310
01004F006C006500000000000000000000000000000000000000000000000000
310
0000000000000000000000000000000000000000000000000000000000000000
310
0A000200FFFFFFFFFFFFFFFFFFFFFFFF00000000000000000000000000000000
310
0000000000000000000000000000000000000000000000001400000000000000
310
010043006F006D0070004F0062006A0000000000000000000000000000000000
310
0000000000000000000000000000000000000000000000000000000000000000
310
120002010100000003000000FFFFFFFF00000000000000000000000000000000
310
0000000000000000000000000000000000000000010000004D00000000000000
310
01004F006C006500310030004E00610074006900760065000000000000000000
310
0000000000000000000000000000000000000000000000000000000000000000
310
1A000200FFFFFFFFFFFFFFFFFFFFFFFF00000000000000000000000000000000
310
0000000000000000000000000000000000000000040000002426000000000000
310
FEFFFFFF02000000FEFFFFFFFFFFFFFFFFFFFFFFFFFFFFFFFFFFFFFFFFFFFFFF
310
FFFFFFFFFFFFFFFFFFFFFFFFFFFFFFFFFFFFFFFFFFFFFFFFFFFFFFFFFFFFFFFF
310
FFFFFFFFFFFFFFFFFFFFFFFFFFFFFFFFFFFFFFFFFFFFFFFFFFFFFFFFFFFFFFFF
310
FFFFFFFFFFFFFFFFFFFFFFFFFFFFFFFFFFFFFFFFFFFFFFFFFFFFFFFFFFFFFFFF
310
FFFFFFFFFFFFFFFFFFFFFFFFFFFFFFFFFFFFFFFFFFFFFFFFFFFFFFFFFFFFFFFF
310
FFFFFFFFFFFFFFFFFFFFFFFFFFFFFFFFFFFFFFFFFFFFFFFFFFFFFFFFFFFFFFFF
310
FFFFFFFFFFFFFFFFFFFFFFFFFFFFFFFFFFFFFFFFFFFFFFFFFFFFFFFFFFFFFFFF
310
FFFFFFFFFFFFFFFFFFFFFFFFFFFFFFFFFFFFFFFFFFFFFFFFFFFFFFFFFFFFFFFF
310
FFFFFFFFFFFFFFFFFFFFFFFFFFFFFFFFFFFFFFFFFFFFFFFFFFFFFFFFFFFFFFFF
310
FFFFFFFFFFFFFFFFFFFFFFFFFFFFFFFFFFFFFFFFFFFFFFFFFFFFFFFFFFFFFFFF
310
FFFFFFFFFFFFFFFFFFFFFFFFFFFFFFFFFFFFFFFFFFFFFFFFFFFFFFFFFFFFFFFF
310
FFFFFFFFFFFFFFFFFFFFFFFFFFFFFFFFFFFFFFFFFFFFFFFFFFFFFFFFFFFFFFFF
310
FFFFFFFFFFFFFFFFFFFFFFFFFFFFFFFFFFFFFFFFFFFFFFFFFFFFFFFFFFFFFFFF
310
FFFFFFFFFFFFFFFFFFFFFFFFFFFFFFFFFFFFFFFFFFFFFFFFFFFFFFFFFFFFFFFF
310
FFFFFFFFFFFFFFFFFFFFFFFFFFFFFFFFFFFFFFFFFFFFFFFFFFFFFFFFFFFFFFFF
310
FFFFFFFFFFFFFFFFFFFFFFFFFFFFFFFFFFFFFFFFFFFFFFFFFFFFFFFFFFFFFFFF
310
0100000200000000000000000000000000000000000000000000000000000000
310
0000000000000000000000000000000000000000000000000000000000000000
310
0100FEFF030A0000FFFFFFFF0A00030000000000C00000000000004607000000
310
5042727573680007000000504272757368000700000050427275736800F439B2
310
7100000000000000000000000000000000000000000000000000000000000000
310
0000000000000000000000000000000000000000000000000000000000000000
310
0000000000000000000000000000000000000000000000000000000000000000
310
0000000000000000000000000000000000000000000000000000000000000000
310
0000000000000000000000000000000000000000000000000000000000000000
310
0000000000000000000000000000000000000000000000000000000000000000
310
0000000000000000000000000000000000000000000000000000000000000000
310
0000000000000000000000000000000000000000000000000000000000000000
310
0000000000000000000000000000000000000000000000000000000000000000
310
0000000000000000000000000000000000000000000000000000000000000000
310
0000000000000000000000000000000000000000000000000000000000000000
310
0000000000000000000000000000000000000000000000000000000000000000
310
20260000424D0E260000000000003E00000028000000B40200006E0000000100
310
01000000000000000000130B0000130B00000200000002000000000000FFFFFF
310
FFFFFFFFFFFFFFFFFFFFFFFFFFFFFFFFFFFFFFFFFFFFFFFFFFFFFFFFFFFFFFFF
310
FFFFFFFFFFFFFFFFFFFFFFFFFFFFFFFFFFFFFFFFFFFFFFFFFFFFFFFFFFFFFFFF
310
FFFFFFFFFFFFFFFFFFFFFFFFFFFFFFFFFFFFFFFFFFFFFFFFF000FFFFFFFFFFFF
310
FFFFFFFFFFFFFFFFFFFFFFFFFFFFFFFFFFFFFFFFFFFFFFFFFFFFFFFFFFFFFFFF
310
FFFFFFFFFFFFFFFFFFFFFFFFFFFFFFFFFFFFFFFFFFFFFFFFFFFFFFFFFFFFFFFF
310
FFFFFFFFFFFFFFFFFFFFFFFFFFFFFFFFF000FFFFFFFFFFFFFFFFFFFFFFFFFFFF
310
FFFFFFFFFFFFFFFFFFFFFFFFFFFFFFFFFFFFFFFFFFFFFFFFFFFFFFFFFFFFFFFF
310
FFFFFFFFFFFFFFFFFFFFFFFFFFFFFFFFFFFFFFFFFFFFFFFFFFFFFFFFFFFFFFFF
310
FFFFFFFFFFFFFFFFF000FFFFFFFFFFFFFFFFFFFFFFFFFFFFFFFFFFFFFFFFFFFF
310
FFFFFFFFFFFFFFFFFFFFFFFFFFFFFFFFFFFFFFFFFFFFFFFFFFFFFFFFFFFFFFFF
310
FFFFFFFFFFFFFFFFFFFFFFFFFFFFFFFFFFFFFFFFFFFFFFFFFFFFFFFFFFFFFFFF
310
F000FFFFFFFFFFFFFFFFFFFFFFFFFFFFFFFFFFFFFFFFFFFFFFFFFFFFFFFFFFFF
310
FFFFFFFFFFFFFFFFFFFFFFFFFFFFFFFFFFFFFFFFFFFFFFFFFFFFFFFFFFFFFFFF
310
FFFFFFFFFFFFFFFFFFFFFFFFFFFFFFFFFFFFFFFFFFFFFFFFF000FFFFFFFFFFFF
310
FFFFFFFFFFFFFFFFFFFFFFFFFFFFFFFFFFFFFFFFFFFFFFFFFFFFFFFFFFFFFFFF
310
FFFFFFFFFFFFFFFFFFFFFFFFFFFFFFFFFFFFFFFFFFFFFFFFFFFFFFFFFFFFFFFF
310
FFFFFFFFFFFFFFFFFFFFFFFFFFFFFFFFF000FFFFFFFFFFFFFFFFFFFFFFFFFFFF
310
FFFFFFFFFFFFFFFFFFFFFFFFFFFFFFFFFFFFFFFFFFFFFFFFFFFFFFFFFFFFFFFF
310
FFFFFFFFFFFFFFFFFFFFFFFFFFFFFFFFFFFFFFFFFFFFFFFFFFFFFFFFFFFFFFFF
310
FFFFFFFFFFFFFFFFF000FFFFFFFFFFFFFFFFFFFFFFFFFFFFFFFFFFFFFFFFFFFF
310
FFFFFFFFFFFFFFFFFFFFFFFFFFFFFFFFFFFFFFFFFFFFFFFFFFFFFFFFFFFFFFFF
310
FFFFFFFFFFFFFFFFFFFFFFFFFFFFFFFFFFFFFFFFFFFFFFFFFFFFFFFFFFFFFFFF
310
F000FFFFFFFFFFFFFFFFFFFFFFFFFFFFFFFFFFFFFFFFFFFFFFFFFFFFFFFFFFFF
310
FFFFFFFFFFFFFFFFFFFFFFFFFFFFFFFFFFFFFFFFFFFFFFFFFFFFFFFFFFFFFFFF
310
FFFFFFFFFFFFFFFFFFFFFFFFFFFFFFFFFFFFFFFFFFFFFFFFF000FFFFFFFFFFFF
310
FFFFFFFFFFFFFFFFFFFFFFFFFFFFFFFFFFFFFFFFFFFFFFFFFFFFFFFFFFFFFFFF
310
FFFFFFFFFFFFFFFFFFFFFFFFFFFFFFFFFFFFFFFFFFFFFFFFFFFFFFFFFFFFFFFF
310
FFFFFFFFFFFFFFFFFFFFFFFFFFFFFFFFF000FFFFFFFFFFFFFFFFFFFFFFFFFFFF
310
FFFFFFFFFFFFFFFFFFFFFFFFFFFFFFFFFFFFFFFFFFFFFFFFFFFFFFFFFFFFFFFF
310
FFFFFFFFFFFFFFFFFFFFFFFFFFFFFFFFFFFFFFFFFFFFFFFFFFFFFFFFFFFFFFFF
310
FFFFFFFFFFFFFFFFF000FFFFFFFFFFFFFFFFFFFFFFFFFFFFFFFFFFFFFFFFFFFF
310
FFFFFFFFFFFFFFFFFFFFFFFFFFFFFFFFFFFFFFFFFFFFFFFFFFFFFFFFFFFFFFFF
310
FFFFFFFFFFFFFFFFFFFFFFFFFFFFFFFFFFFFFFFFFFFFFFFFFFFFFFFFFFFFFFFF
310
F000FFFFFFFFFFFFFFFFFFFFFFFFFFFFFFFFFFFFFFFFFFFFFFFFFFFFFFFFFFFF
310
FFFFFFFFFFFFFFFFFFFFFFFFFFFFFFFFFFFFFFFFFFFFFFFFFFFFFFFFFFFFFFFF
310
FFFFFFFFFFFFFFFFFFFFFFFFFFFFFFFFFFFFFFFFFFFFFFFFF000FFFFFFFFFFFF
310
FFFFFFFFFFFFFFFFFFFFFFFFFFFFFFFFFFFFFFFFFFFFFFFFFFFFFFFFFFFFFFFF
310
FFFFFFFFFFFFFFFFFFFFFFFFFFFFFFFFFFFFFFFFFFFFFFFFFFFFFFFFFFFFFFFF
310
FFFFFFFFFFFFFFFFFFFFFFFFFFFFFFFFF000FFFFFFFFFFFFFFFFFFFFFFFFFFFF
310
FFFFFFFFFFFFFFFFFFFFFFFFFFFFFFFFFFFFFFFFFFFFFFFFFFFFFFFFFFFFFFFF
310
FFFFFFFFFFFFFFFFFFFFFFFFFFFFFFFFFFFFFFFFFFFFFFFFFFFFFFFFFFFFFFFF
310
FFFFFFFFFFFFFFFFF000FFFFFFFFFFFFFFFFFFFFFFFFFFFFFFFFFFFFFFFFFFFF
310
FFFFFFFFFFFFFFFFFFFFFFFFFFFFFFFFFFFFFFFFFFFFFFFFFFFFFFFFFFFFFFFF
310
FFFFFFFFFFFFFFFFFFFFFFFFFFFFFFFFFFFFFFFFFFFFFFFFFFFFFFFFFFFFFFFF
310
F000FFFFFFFFFFFFFFFFFFFFFFFFFFFFFFFFFFFFFFFFFFFFFFFFFFFFFFFFFFFF
310
FFFFFFFFFFFFFFFFFFFFFFFFFFFFFFFFFFFFFFFFFFFFFFFFFFFFFFFFFFFFFFFF
310
FFFFFFFFFFFFFFFFFFFFFFFFFFFFFFFFFFFFFFFFFFFFFFFFF000FFFFFFFFFFFF
310
FFFFFFFFFFFFFFFFFFFFFFFFFFFFFFFFFFFFFFFFFFFFFFFFFFFFFFFFFFFFFFFF
310
FFFFFFFFFFFFFFFFFFFFFFFFFFFFFFFFFFFFFFFFFFFFFFFFFFFFFFFFFFFFFFFF
310
FFFFFFFFFFFFFFFFFFFFFFFFFFFFFFFFF000FFFFFFFFFFFFFFFFFFFFFFFFFFFF
310
FFFFFFFFFFFFFFFFFFFFFFFFFFFFFFFFFFFFFFFFFFFFFFFFFFFFFFFFFFFFFFFF
310
FFFFFFFFFFFFFFFFFFFFFFFFFFFFFFFFFFFFFFFFFFFFFFFFFFFFFFFFFFFFFFFF
310
FFFFFFFFFFFFFFFFF000FFFFF80003FFFFFFFFFFFFFFFFFFFFFFFFFFFFFFFFFF
310
FFFFF00007FFFFFFFFFF00007FFFFFF800000000000000007FFFFFFFFFFFFFFF
310
FFFFFFFC001FFFFFFFFFFFFFFC001FFFFFFFFFFFFFFFFFFFFFFFFFFE0007FFFF
310
F000FFFF8000007FFFFFFFF8000FFFFFC0007FFFFF80007FFFFF0000007FFFFF
310
FFF8000007FFFFF800000000000000007FFFFFF0001FFFFFFFFFFFC00001FFFF
310
FFFFFFFFC00001FFFFFFFF000000000003FFFFE000007FFFF000FFFE0000000F
310
FFFFFFF0000FFFFF80007FFFFF80007FFFFC0000001FFFFFFFC0000001FFFFF8
310
00000000000000007FFFFFF0001FFFFFFFFFFE0000003FFFFFFFFFFE0000003F
310
FFFFFF000000000003FFFF0000000FFFF000FFF800000003FFFFFFF00007FFFF
310
80007FFFFF80007FFFF000000007FFFFFF000000003FFFF80000000000000000
310
7FFFFFF0001FFFFFFFFFF80000000FFFFFFFFFF80000000FFFFFFF0000000000
310
03FFFC00000003FFF000FFE000000000FFFFFFF00007FFFF80003FFFFF80007F
310
FFC000000001FFFFFC000000001FFFF800000000000000007FFFFFF0001FFFFF
310
FFFFE000000003FFFFFFFFE000000003FFFFFF000000000003FFF000000000FF
310
F000FF80000000007FFFFFF00007FFFF80003FFFFF80007FFF8000000000FFFF
310
F80000000007FFF800000000000000007FFFFFF0001FFFFFFFFFC000000001FF
310
FFFFFFC000000001FFFFFF000000000003FFC0000000007FF000FF0000000000
310
3FFFFFE00007FFFF00003FFFFF80007FFE00000000003FFFF00000000003FFF8
310
00000000000000007FFFFFF0001FFFFFFFFF8000000000FFFFFFFF8000000000
310
FFFFFF000000000003FF80000000003FF000FE00000000001FFFFFE00003FFFF
310
00003FFFFF80007FFC00000000001FFFE00000000001FFF8000001FFFE000000
310
7FFFFFF0001FFFFFFFFE00000000003FFFFFFE00000000003FFFFF0000000000
310
03FF00000000001FF000FC00000000000FFFFFE00003FFFF00001FFFFF80007F
310
F800000000001FFFC00000000000FFF8000001FFFE0000007FFFFFF0001FFFFF
310
FFFC00000000001FFFFFFC00000000001FFFFF000000000003FE00000000000F
310
F000F8000000000007FFFFE00003FFFF00001FFFFF80007FF800000000000FFF
310
800000000000FFF8000001FFFE0000007FFFFFF0001FFFFFFFF800000000000F
310
FFFFF800000000000FFFFF000000000003FC000000000007F000F80000000000
310
03FFFFC00003FFFE00001FFFFF80007FF0000000000007FF0000000000007FF8
310
000001FFFE0000007FFFFFF0001FFFFFFFF0000000000007FFFFF00000000000
310
07FFFF000000000003F8000000000003F000F0000000000003FFFFC00001FFFE
310
00001FFFFF80007FE0000000000007FE0000000000003FF8000001FFFE000000
310
7FFFFFF0001FFFFFFFF0000000000007FFFFF0000000000007FFFF0000000000
310
03F800001F800003F000E00001FFF00001FFFFC00001FFFE00000FFFFF80007F
310
E00001FFE00003FE00001FFF00003FF8000001FFFE0000007FFFFFF0001FFFFF
310
FFE000003E000003FFFFE000003E000003FFFF000000000003F00001FFF80001
310
F000E00007FFFC0001FFFFC00001FFFE00000FFFFF80007FC0000FFFFC0003FC
310
0000FFFFC0001FF8000001FFFE0000007FFFFFF0001FFFFFFFC00003FFE00001
310
FFFFC00003FFE00001FFFF0001FFFFFFFFF00007FFFE0001F000E0000FFFFF00
310
00FFFF800001FFFC00000FFFFF80007FC0001FFFFE0001FC0001FFFFE0001FF8
310
000001FFFE0000007FFFFFF0001FFFFFFF80000FFFF80000FFFF80000FFFF800
310
00FFFF0003FFFFFFFFE0000FFFFF8000F000C0003FFFFF8000FFFF800000FFFC
310
000007FFFF80007F80003FFFFF0001FC0003FFFFF0001FF8000001FFFE000000
310
7FFFFFF0001FFFFFFF80003FFFFE0000FFFF80003FFFFE0000FFFF0003FFFFFF
310
FFE0003FFFFF8000F000C0003FFFFF8000FFFF800000FFFC000007FFFF80007F
310
80007FFFFF8001F80007FFFFF8000FF8000001FFFE0000007FFFFFF0001FFFFF
310
FF00007FFFFF00007FFF00007FFFFF00007FFF0003FFFFFFFFE0003FFFFFC000
310
F000C0007FFFFFC000FFFF000000FFFC000007FFFF80007F8000FFFFFF8000F8
310
000FFFFFF8000FF8000001FFFE0000007FFFFFF0001FFFFFFF0000FFFFFF8000
310
7FFF0000FFFFFF80007FFF0003FFFFFFFFC0007FFFFFC00070008000FFFFFFC0
310
00FFFF000000FFF8000007FFFF80007F8000FFFFFF8000F8000FFFFFF8000FF8
310
000001FFFE0000007FFFFFF0001FFFFFFE0001FFFFFFC0003FFE0001FFFFFFC0
310
003FFF0003FFFFFFFFC0007FFFFFE00070008000FFFFFFC0007FFF0000007FF8
310
000003FFFF80007F0001FFFFFF8000F8000FFFFFF8000FF8000001FFFE000000
310
7FFFFFF0001FFFFFFE0001FFFFFFC0003FFE0001FFFFFFC0003FFF0003FFFFFF
310
FFC000FFFFFFE00070008000FFFFFFC0007FFF0000007FF8000003FFFF80007F
310
0001FFFFFF8000F8001FFFFFF8000FF8000001FFFE0000007FFFFFF0001FFFFF
310
FE0003FFFFFFE0003FFE0003FFFFFFE0003FFF0003FFFFFFFFC000FFFFFFE000
310
70008000FFFFFFC0007FFE0000007FF8000003FFFF80007F0001FFFFFF8000F0
310
001FFFFFF8000FF8000001FFFE0000007FFFFFF0001FFFFFFC0003FFFFFFE000
310
1FFC0003FFFFFFE0001FFF0003FFFFFFFFC000FFFFFFC00070008000FFFFFF80
310
007FFE0000007FF0000003FFFF80007F0001FFFFFF0000F0001FFFFFF8000FF8
310
000001FFFE0000007FFFFFF0001FFFFFFC0007FFFFFFF0001FFC0007FFFFFFF0
310
001FFF0003FFFFFFFFC000FFFFFFC00070008001FFFFFF0000FFFE0000003FF0
310
000001FFFF80007F0001FFFFFF0000F8001FFFFFF0000FF8000001FFFE000000
310
7FFFFFF0001FFFFFFC0007FFFFFFF0001FFC0007FFFFFFF0001FFF0003FFFFFF
310
FFC001FFFFFF80007000FFFFFFFFFE0000FFFE0008003FF0008001FFFF80007F
310
FFFFFFFFFC0000FFFFFFFFFFE0000FF8000001FFFE0000007FFFFFF0001FFFFF
310
F8000FFFFFFFF8000FF8000FFFFFFFF8000FFF0003FFFFFFFFFFFFFFFFFF0000
310
7000FFFFFFFFFC0000FFFC0008003FF0008001FFFF80007FFFFFFFFFF80001FF
310
FFFFFFFF80000FF8000001FFFE0000007FFFFFF0001FFFFFF8000FFFFFFFF800
310
0FF8000FFFFFFFF8000FFF0003FFFFFFFFFFFFFFFFFE0000F000FFFFFFFFE000
310
00FFFC000C003FE000C001FFFF80007FFFFFFFFFC00001FFFFFFFFFE00001FF8
310
000001FFFE0000007FFFFFF0001FFFFFF8000FFFFFFFF8000FF8000FFFFFFFF8
310
000FFF0003FFFFFFFFFFFFFFFFF00000F000FFFFFFFE000001FFFC000C001FE0
310
00C000FFFF80007FFFFFFFFE000001FFFFFFFFE000001FF80FFFFFFFFFFFFFC0
310
7FFFFFF0001FFFFFF8000FFFFFFFF8000FF8000FFFFFFFF8000FFF0003FFFFFF
310
FFFFFFFFFF800000F000FFFFFFC0000001FFFC001C001FE001C000FFFF80007F
310
FFFFFF80000003FFFFFFF80000001FF80FFFFFFFFFFFFFC07FFFFFF0001FFFFF
310
F8001FFFFFFFFC000FF8001FFFFFFFFC000FFF0003FFFFFFFFFFFFFFF0000001
310
F000FFFFF800000001FFF8001C001FE001C000FFFF80007FFFFFF800000003FF
310
FFFF800000003FF80FFFFFFFFFFFFFC07FFFFFF0001FFFFFF8001FFFFFFFFC00
310
0FF8001FFFFFFFFC000FFF0003FFFFFFFFFFFFFE00000001F000FFFFC0000000
310
03FFF8001E001FC001E000FFFF80007FFFFF8000000007FFFFFC000000003FF8
310
0FFFFFFFFFFFFFC07FFFFFF0001FFFFFF8001FFFFFFFFC000FF8001FFFFFFFFC
310
000FFF0003FFFFFFFFFFFFE000000003F000FFFE0000000007FFF8001E000FC0
310
01E0007FFF80007FFFFE0000000007FFFFE0000000007FF80FFFFFFFFFFFFFC0
310
7FFFFFF0001FFFFFF0001FFFFFFFFC0007F0001FFFFFFFFC0007FF0003FFFFFF
310
FFFFFF0000000003F000FFF80000000007FFF8001E000FC003E0007FFF80007F
310
FFF0000000000FFFFF8000000000FFF80FFFFFFFFFFFFFC07FFFFFF0001FFFFF
310
F0001FFFFFFFFC0007F0001FFFFFFFFC0007FF0003FFFFFFFFFFFC0000000007
310
F000FFE0000000000FFFF0003E000FC003E0007FFF80007FFFC0000000001FFF
310
FE0000000001FFF80FFFFFFFFFFFFFC07FFFFFF0001FFFFFF0001FFFFFFFFC00
310
07F0001FFFFFFFFC0007FF0003FFFFFFFFFFF0000000000FF000FFC000000000
310
1FFFF0003F000F8003F0003FFF80007FFF80000000003FFFF80000000003FFF8
310
0FFFFFFFFFFFFFC07FFFFFF0001FFFFFF0001FFFFFFFFC0007F0001FFFFFFFFC
310
0007FF0003FFFFFFFFFFE0000000001FF000FF00000000007FFFF0003F000780
310
03F0003FFF80007FFF00000000007FFFF00000000007FFF80FFFFFFFFFFFFFC0
310
7FFFFFF0001FFFFFF0001FFFFFFFFC0007F0001FFFFFFFFC0007FF0003FFFFFF
310
FFFF80000000007FF000FE0000000000FFFFE0003F00078007F0003FFF80007F
310
FE0000000001FFFFE0000000001FFFF80FFFFFFFFFFFFFC07FFFFFF0001FFFFF
310
F0001FFFFFFFFC0007F0001FFFFFFFFC0007FF0003FFFFFFFFFF0000000000FF
310
F000FC0000000003FFFFE0007F00078007F0003FFF80007FFC0000000007FFFF
310
C0000000007FFFF80FFFFFFFFFFFFFC07FFFFFF0001FFFFFF8001FFFFFFFFC00
310
0FF8001FFFFFFFFC000FFF0003FFFFFFFFFE0000000003FFF000FC000000000F
310
FFFFE0007F80070007F8001FFF80007FF8000000001FFFFF8000000001FFFFF8
310
0FFFFFFFFFFFFFC07FFFFFF0001FFFFFF8001FFFFFFFFC000FF8001FFFFFFFFC
310
000FFF0003FFFFFFFFFC000000000FFFF000F8000000007FFFFFE0007F800700
310
07F8001FFF80007FF000000000FFFFFF800000000FFFFFF80FFFFFFFFFFFFFC0
310
7FFFFFF0001FFFFFF8000FFFFFFFF8000FF8000FFFFFFFF8000FFF0003FFFFFF
310
FFFC000000007FFFF000F800000007FFFFFFC0007F8003000FF8001FFF80007F
310
F000000007FFFFFF000000007FFFFFF80FFFFFFFFFFFFFC07FFFFFF0001FFFFF
310
F8000FFFFFFFF8000FF8000FFFFFFFF8000FFF0003FFFFFFFFF80000000FFFFF
310
F000F0000000FFFFFFFFC000FF8003000FF8001FFF80007FE0000000FFFFFFFF
310
0000000FFFFFFFF8000001FFFE0000007FFFFFF0001FFFFFF8000FFFFFFFF800
310
0FF8000FFFFFFFF8000FFF0003FFFFFFFFF8000000FFFFFFF000F000000FFFFF
310
FFFFC000FFC002000FF8000FFF80007FE000001FFFFFFFFE000001FFFFFFFFF8
310
000001FFFE0000007FFFFFF0001FFFFFF8000FFFFFFFF8000FF8000FFFFFFFF8
310
000FFF0003FFFFFFFFF000001FFFFFFFF000E00000FFFFFFFFFFC000FFC00200
310
0FFC000FFF80007FE00001FFFFFFFFFE00001FFFFFFFFFF8000001FFFE000000
310
7FFFFFF0001FFFFFFC000FFFFFFFF8001FFC000FFFFFFFF8001FFF0003FFFFFF
310
FFF00001FFFFFFFFF000E00007FFFFFFFFFF8000FFC000001FFC000FFF80007F
310
C0000FFFFFFFFFFE0000FFFFFFFFFFF8000001FFFE0000007FFFFFF0001FFFFF
310
FC0007FFFFFFF0001FFC0007FFFFFFF0001FFF0003FFFFFFFFF00007FFFFFFFF
310
F000E0001FFFFFFFFFFF8000FFC000001FFC000FFF80007FC0003FFFFFFFFFFE
310
0001FFFFFFFFFFF8000001FFFE0000007FFFFFF0001FFFFFFC0007FFFFFFF000
310
1FFC0007FFFFFFF0001FFF0003FFFFFFFFF0001FFFFFFFFFF000E0003FFFFF00
310
03FF8001FFE000001FFC0007FF80007FC0007FFFFF0007FC0003FFFFF0003FF8
310
000001FFFE0000007FFFFFF0001FFFFFFC0003FFFFFFE0001FFC0003FFFFFFE0
310
001FFF0003FFFFFFFFF0003FFFFFFFFFF000E0003FFFFF0001FF8001FFE00000
310
1FFE0007FF80007FC0007FFFFE0003FC0007FFFFE0003FF8000001FFFE000000
310
7FFFFFF0001FFFFFFE0003FFFFFFE0003FFE0003FFFFFFE0003FFF0003FFFFFF
310
FFF0003FFFFF8001F000E0003FFFFF0001FF0001FFE000001FFE0007FF80007F
310
C0007FFFFE0003FC0007FFFFE0003FF8000001FFFE0000007FFFFFF0001FFFFF
310
FE0001FFFFFFC0003FFE0001FFFFFFC0003FFF0003FFFFFFFFF0003FFFFF0001
310
F000E0003FFFFF0003FF0001FFE000003FFE0007FF80007FC0007FFFFE0003FC
310
0007FFFFE0003FF8000001FFFE0000007FFFFFF0001FFFFFFF0001FFFFFFC000
310
7FFF0001FFFFFFC0007FFF0003FFFFFFFFF0003FFFFF0001F000E0003FFFFE00
310
03FF0003FFF000003FFE0003FF80007FC0007FFFFC0003FE0007FFFFE0003FF8
310
000001FFFE0000007FFFFFF0001FFFFFFF0000FFFFFF80007FFF0000FFFFFF80
310
007FFF0003FFFFFFFFF0003FFFFF0001F000E0003FFFFE0003FF0003FFF00000
310
3FFF0003FF80007FC0007FFFFC0007FE0007FFFFC0003FF8000001FFFE000000
310
7FFFFFF0001FFFFFFF80007FFFFF0000FFFF80007FFFFF0000FFFF0003FFFFFF
310
FFF0003FFFFF0003F000E0003FFFFC0003FE0003FFF000003FFF0003FF80007F
310
E0003FFFF80007FE0003FFFFC0007FF8000001FFFE0000007FFFFFF0001FFFFF
310
FF80003FFFFE0000FFFF80003FFFFE0000FFFF0003FFFFFFFFF0001FFFFE0003
310
F000F0001FFFF80003FE0003FFF000007FFF0001FF80007FE0003FFFF00007FE
310
0001FFFF80007FF8000001FFFE0000007FFFFFF0001FFFFFFFC0000FFFF80001
310
FFFFC0000FFFF80001FFFF0003FFFFFFFFF0001FFFFC0003F000F0000FFFF000
310
07FE0007FFF800007FFF0001FF80007FE0001FFFE00007FF0000FFFE00007FF8
310
000001FFFE0000007FFFFFF0001FFFFFFFC00003FFE00001FFFFC00003FFE000
310
01FFFF0003FFFFFFFFF8000FFFF80003F000F00003FFC00007FC0007FFF80000
310
7FFF8001FF80007FF00007FF80000FFF00007FF80000FFF8000001FFFE000000
310
7F80000000000001FFE000003E000003FFFFE000003E000003FFFF0003FFFFFF
310
FFF80003FFE00007F000F800000000000FFC0007FFF800007FFF8001FF80007F
310
F000000000000FFF000000000000FFF8000001FFFE0000007F80000000000001
310
FFF0000000000007FFFFF0000000000007FFFF0003FFFFFFFFFC00007E000007
310
F000F800000000000FFC0007FFF80000FFFF8000FF80007FF800000000001FFF
310
800000000001FFF8000001FFFE0000007F80000000000001FFF800000000000F
310
FFFFF800000000000FFFFF0003FFFFFFFFFC00000000000FF000FC0000000000
310
1FFC0007FFFC0000FFFF8000FF80007FF800000000003FFFC00000000001FFF8
310
000001FFFE0000007F80000000000001FFF800000000000FFFFFF80000000000
310
0FFFFF0003FFFFFFFFFE00000000001FF000FE00000000003FF8000FFFFC0000
310
FFFF8000FF80007FFC00000000003FFFC00000000003FFF8000001FFFE000000
310
7F80000000000001FFFC00000000001FFFFFFC00000000001FFFFF0003FFFFFF
310
FFFF00000000001FF000FF00000000003FF8000FFFFC0000FFFFC000FF80007F
310
FE00000000007FFFE00000000007FFF8000001FFFE0000007F80000000000001
310
FFFE00000000003FFFFFFE00000000003FFFFF0003FFFFFFFFFF80000000003F
310
F000FF80000000007FF8000FFFFC0001FFFFC0007F80007FFF0000000000FFFF
310
F0000000000FFFF800000000000000007F80000000000001FFFF8000000000FF
310
FFFFFF8000000000FFFFFF0003FFFFFFFFFFC0000000007FF000FFC000000000
310
FFF8000FFFFE0001FFFFC0007F80007FFF8000000001FFFFF8000000001FFFF8
310
00000000000000007F80000000000001FFFFC000000001FFFFFFFFC000000001
310
FFFFFF0003FFFFFFFFFFE000000000FFF000FFE000000003FFF0001FFFFE0001
310
FFFFC0007F80007FFFC000000007FFFFFE000000003FFFF80000000000000000
310
7F80000000000001FFFFE000000003FFFFFFFFE000000003FFFFFF0003FFFFFF
310
FFFFF000000003FFF000FFF80000000FFFF0001FFFFE0001FFFFE0007F80007F
310
FFF00000000FFFFFFF00000000FFFFF800000000000000007F80000000000001
310
FFFFF80000000FFFFFFFFFF80000000FFFFFFF0003FFFFFFFFFFFC0000000FFF
310
F000FFFE0000003FFFF0001FFFFE0003FFFFE0003F80007FFFFC0000003FFFFF
310
FFC0000003FFFFF800000000000000007F80000000000001FFFFFE0000003FFF
310
FFFFFFFE0000003FFFFFFF0003FFFFFFFFFFFF0000003FFFF000FFFF800000FF
310
FFF0001FFFFF0003FFFFE0003F80007FFFFF000001FFFFFFFFF800001FFFFFF8
310
00000000000000007F80000000000001FFFFFFC00001FFFFFFFFFFFFC00001FF
310
FFFFFF0003FFFFFFFFFFFFC00000FFFFF000FFFFF8000FFFFFFFFFFFFFFFFFFF
310
FFFFFFFFFFFFFFFFFFFFF0001FFFFFFFFFFF0000FFFFFFF80000000000000000
310
7FFFFFFFFFFFFFFFFFFFFFFC001FFFFFFFFFFFFFFC001FFFFFFFFFFFFFFFFFFF
310
FFFFFFFC001FFFFFF000FFFFFFFFFFFFFFFFFFFFFFFFFFFFFFFFFFFFFFFFFFFF
310
FFFFFFFFFFFFFFFFFFFFFFFFFFFFFFFFFFFFFFFFFFFFFFFFFFFFFFFFFFFFFFFF
310
FFFFFFFFFFFFFFFFFFFFFFFFFFFFFFFFFFFFFFFFFFFFFFFFFFFFFFFFFFFFFFFF
310
F000FFFFFFFFFFFFFFFFFFFFFFFFFFFFFFFFFFFFFFFFFFFFFFFFFFFFFFFFFFFF
310
FFFFFFFFFFFFFFFFFFFFFFFFFFFFFFFFFFFFFFFFFFFFFFFFFFFFFFFFFFFFFFFF
310
FFFFFFFFFFFFFFFFFFFFFFFFFFFFFFFFFFFFFFFFFFFFFFFFF000FFFFFFFFFFFF
310
FFFFFFFFFFFFFFFFFFFFFFFFFFFFFFFFFFFFFFFFFFFFFFFFFFFFFFFFFFFFFFFF
310
FFFFFFFFFFFFFFFFFFFFFFFFFFFFFFFFFFFFFFFFFFFFFFFFFFFFFFFFFFFFFFFF
310
FFFFFFFFFFFFFFFFFFFFFFFFFFFFFFFFF000FFFFFFFFFFFFFFFFFFFFFFFFFFFF
310
FFFFFFFFFFFFFFFFFFFFFFFFFFFFFFFFFFFFFFFFFFFFFFFFFFFFFFFFFFFFFFFF
310
FFFFFFFFFFFFFFFFFFFFFFFFFFFFFFFFFFFFFFFFFFFFFFFFFFFFFFFFFFFFFFFF
310
FFFFFFFFFFFFFFFFF000FFFFFFFFFFFFFFFFFFFFFFFFFFFFFFFFFFFFFFFFFFFF
310
FFFFFFFFFFFFFFFFFFFFFFFFFFFFFFFFFFFFFFFFFFFFFFFFFFFFFFFFFFFFFFFF
310
FFFFFFFFFFFFFFFFFFFFFFFFFFFFFFFFFFFFFFFFFFFFFFFFFFFFFFFFFFFFFFFF
310
F000FFFFFFFFFFFFFFFFFFFFFFFFFFFFFFFFFFFFFFFFFFFFFFFFFFFFFFFFFFFF
310
FFFFFFFFFFFFFFFFFFFFFFFFFFFFFFFFFFFFFFFFFFFFFFFFFFFFFFFFFFFFFFFF
310
FFFFFFFFFFFFFFFFFFFFFFFFFFFFFFFFFFFFFFFFFFFFFFFFF000FFFFFFFFFFFF
310
FFFFFFFFFFFFFFFFFFFFFFFFFFFFFFFFFFFFFFFFFFFFFFFFFFFFFFFFFFFFFFFF
310
FFFFFFFFFFFFFFFFFFFFFFFFFFFFFFFFFFFFFFFFFFFFFFFFFFFFFFFFFFFFFFFF
310
FFFFFFFFFFFFFFFFFFFFFFFFFFFFFFFFF000FFFFFFFFFFFFFFFFFFFFFFFFFFFF
310
FFFFFFFFFFFFFFFFFFFFFFFFFFFFFFFFFFFFFFFFFFFFFFFFFFFFFFFFFFFFFFFF
310
FFFFFFFFFFFFFFFFFFFFFFFFFFFFFFFFFFFFFFFFFFFFFFFFFFFFFFFFFFFFFFFF
310
FFFFFFFFFFFFFFFFF000FFFFFFFFFFFFFFFFFFFFFFFFFFFFFFFFFFFFFFFFFFFF
310
FFFFFFFFFFFFFFFFFFFFFFFFFFFFFFFFFFFFFFFFFFFFFFFFFFFFFFFFFFFFFFFF
310
FFFFFFFFFFFFFFFFFFFFFFFFFFFFFFFFFFFFFFFFFFFFFFFFFFFFFFFFFFFFFFFF
310
F000FFFFFFFFFFFFFFFFFFFFFFFFFFFFFFFFFFFFFFFFFFFFFFFFFFFFFFFFFFFF
310
FFFFFFFFFFFFFFFFFFFFFFFFFFFFFFFFFFFFFFFFFFFFFFFFFFFFFFFFFFFFFFFF
310
FFFFFFFFFFFFFFFFFFFFFFFFFFFFFFFFFFFFFFFFFFFFFFFFF000FFFFFFFFFFFF
310
FFFFFFFFFFFFFFFFFFFFFFFFFFFFFFFFFFFFFFFFFFFFFFFFFFFFFFFFFFFFFFFF
310
FFFFFFFFFFFFFFFFFFFFFFFFFFFFFFFFFFFFFFFFFFFFFFFFFFFFFFFFFFFFFFFF
310
FFFFFFFFFFFFFFFFFFFFFFFFFFFFFFFFF000FFFFFFFFFFFFFFFFFFFFFFFFFFFF
310
FFFFFFFFFFFFFFFFFFFFFFFFFFFFFFFFFFFFFFFFFFFFFFFFFFFFFFFFFFFFFFFF
310
FFFFFFFFFFFFFFFFFFFFFFFFFFFFFFFFFFFFFFFFFFFFFFFFFFFFFFFFFFFFFFFF
310
FFFFFFFFFFFFFFFFF000FFFFFFFFFFFFFFFFFFFFFFFFFFFFFFFFFFFFFFFFFFFF
310
FFFFFFFFFFFFFFFFFFFFFFFFFFFFFFFFFFFFFFFFFFFFFFFFFFFFFFFFFFFFFFFF
310
FFFFFFFFFFFFFFFFFFFFFFFFFFFFFFFFFFFFFFFFFFFFFFFFFFFFFFFFFFFFFFFF
310
F000FFFFFFFFFFFFFFFFFFFFFFFFFFFFFFFFFFFFFFFFFFFFFFFFFFFFFFFFFFFF
310
FFFFFFFFFFFFFFFFFFFFFFFFFFFFFFFFFFFFFFFFFFFFFFFFFFFFFFFFFFFFFFFF
310
FFFFFFFFFFFFFFFFFFFFFFFFFFFFFFFFFFFFFFFFFFFFFFFFF000FFFFFFFFFFFF
310
FFFFFFFFFFFFFFFFFFFFFFFFFFFFFFFFFFFFFFFFFFFFFFFFFFFFFFFFFFFFFFFF
310
FFFFFFFFFFFFFFFFFFFFFFFFFFFFFFFFFFFFFFFFFFFFFFFFFFFFFFFFFFFFFFFF
310
FFFFFFFFFFFFFFFFFFFFFFFFFFFFFFFFF000FFFFFFFFFFFFFFFFFFFFFFFFFFFF
310
FFFFFFFFFFFFFFFFFFFFFFFFFFFFFFFFFFFFFFFFFFFFFFFFFFFFFFFFFFFFFFFF
310
FFFFFFFFFFFFFFFFFFFFFFFFFFFFFFFFFFFFFFFFFFFFFFFFFFFFFFFFFFFFFFFF
310
FFFFFFFFFFFFFFFFF000FFFFFFFFFFFFFFFFFFFFFFFFFFFFFFFFFFFFFFFFFFFF
310
FFFFFFFFFFFFFFFFFFFFFFFFFFFFFFFFFFFFFFFFFFFFFFFFFFFFFFFFFFFFFFFF
310
FFFFFFFFFFFFFFFFFFFFFFFFFFFFFFFFFFFFFFFFFFFFFFFFFFFFFFFFFFFFFFFF
310
F000FFFFFFFFFFFFFFFFFFFFFFFFFFFFFFFFFFFFFFFFFFFFFFFFFFFFFFFFFFFF
310
FFFFFFFFFFFFFFFFFFFFFFFFFFFFFFFFFFFFFFFFFFFFFFFFFFFFFFFFFFFFFFFF
310
FFFFFFFFFFFFFFFFFFFFFFFFFFFFFFFFFFFFFFFFFFFFFFFFF000FFFFFFFFFFFF
310
FFFFFFFFFFFFFFFFFFFFFFFFFFFFFFFFFFFFFFFFFFFFFFFFFFFFFFFFFFFFFFFF
310
FFFFFFFFFFFFFFFFFFFFFFFFFFFFFFFFFFFFFFFFFFFFFFFFFFFFFFFFFFFFFFFF
310
FFFFFFFFFFFFFFFFFFFFFFFFFFFFFFFFF000FFFFFFFFFFFFFFFFFFFFFFFFFFFF
310
FFFFFFFFFFFFFFFFFFFFFFFFFFFFFFFFFFFFFFFFFFFFFFFFFFFFFFFFFFFFFFFF
310
FFFFFFFFFFFFFFFFFFFFFFFFFFFFFFFFFFFFFFFFFFFFFFFFFFFFFFFFFFFFFFFF
310
FFFFFFFFFFFFFFFFF000FFFFFFFFFFFFFFFFFFFFFFFFFFFFFFFFFFFFFFFFFFFF
310
FFFFFFFFFFFFFFFFFFFFFFFFFFFFFFFFFFFFFFFFFFFFFFFFFFFFFFFFFFFFFFFF
310
FFFFFFFFFFFFFFFFFFFFFFFFFFFFFFFFFFFFFFFFFFFFFFFFFFFFFFFFFFFFFFFF
310
F000FFFFFFFFFFFFFFFFFFFFFFFFFFFFFFFFFFFFFFFFFFFFFFFFFFFFFFFFFFFF
310
FFFFFFFFFFFFFFFFFFFFFFFFFFFFFFFFFFFFFFFFFFFFFFFFFFFFFFFFFFFFFFFF
310
FFFFFFFFFFFFFFFFFFFFFFFFFFFFFFFFFFFFFFFFFFFFFFFFF000FFFFFFFFFFFF
310
FFFFFFFFFFFFFFFFFFFFFFFFFFFFFFFFFFFFFFFFFFFFFFFFFFFFFFFFFFFFFFFF
310
FFFFFFFFFFFFFFFFFFFFFFFFFFFFFFFFFFFFFFFFFFFFFFFFFFFFFFFFFFFFFFFF
310
FFFFFFFFFFFFFFFFFFFFFFFFFFFFFFFFF0000000000000000000000000000000
310
0000000000000000000000000000000000000000000000000000000000000000
310
0000000000000000000000000000000000000000000000000000000000000000
310
0000000000000000000000000000000000000000000000000000000000000000
310
0000000000000000000000000000000000000000000000000000000000000000
310
0000000000000000000000000000000000000000000000000000000000000000
310
0000000000000000000000000000000000000000000000000000000000000000
310
0000000000000000000000000000000000000000000000000000000000000000
310
0000000000000000000000000000000000000000000000000000000000000000
310
0000000000000000000000000000000000000000000000000000000000000000
310
0000000000000000000000000000000000000000000000000000000000000000
310
0000000000000000000000000000000000000000000000000000000000000000
310
0000000000000000000000000000000000000000000000000000000000000000
310
0000000000000000000000000000000000000000000000000000000000000000
310
0000000000000000000000000000000000000000000000000000000000000000
310
0000000000000000000000000000000000000000000000000000000000000000
  1
OLE
  0
ENDSEC
  0
SECTION
  2
OBJECTS
  0
DICTIONARY
  5
C
330
0
100
AcDbDictionary
281
     1
  3
ACAD_GROUP
350
D
  3
ACAD_LAYOUT
350
1A
  3
ACAD_MLINESTYLE
350
17
  3
ACAD_PLOTSETTINGS
350
19
  3
ACAD_PLOTSTYLENAME
350
E
  3
ACAD_SCALELIST
350
47
  0
DICTIONARY
  5
D
102
{ACAD_REACTORS
330
C
102
}
330
C
100
AcDbDictionary
281
     1
  0
DICTIONARY
  5
1A
102
{ACAD_REACTORS
330
C
102
}
330
C
100
AcDbDictionary
281
     1
  3
Layout1
350
1E
  3
Layout2
350
26
  3
Model
350
22
  0
DICTIONARY
  5
17
102
{ACAD_REACTORS
330
C
102
}
330
C
100
AcDbDictionary
281
     1
  3
Standard
350
18
  0
DICTIONARY
  5
19
102
{ACAD_REACTORS
330
C
102
}
330
C
100
AcDbDictionary
281
     1
  0
ACDBDICTIONARYWDFLT
  5
E
102
{ACAD_REACTORS
330
C
102
}
330
C
100
AcDbDictionary
281
     1
  3
Normal
350
F
100
AcDbDictionaryWithDefault
340
F
  0
DICTIONARY
  5
47
102
{ACAD_REACTORS
330
C
102
}
330
C
100
AcDbDictionary
281
     1
  3
A0
350
48
  3
A1
350
49
  3
A2
350
4A
  3
A3
350
4B
  3
A4
350
4C
  3
A5
350
4D
  3
A6
350
4E
  3
A7
350
4F
  3
A8
350
50
  3
A9
350
51
  3
B0
350
52
  3
B1
350
53
  3
B2
350
54
  3
B3
350
55
  3
B4
350
56
  3
B5
350
57
  3
B6
350
58
  3
B7
350
59
  3
B8
350
5A
  3
B9
350
5B
  3
C0
350
5C
  3
C1
350
5D
  3
C2
350
5E
  3
C3
350
5F
  3
C4
350
60
  3
C5
350
61
  3
C6
350
62
  3
C7
350
63
  3
C8
350
64
  3
C9
350
65
  3
D0
350
66
  3
D1
350
67
  3
D2
350
68
  0
LAYOUT
  5
1E
102
{ACAD_REACTORS
330
1A
102
}
330
1A
100
AcDbPlotSettings
  1

  2
none_device
  4

  6

 40
0.0
 41
0.0
 42
0.0
 43
0.0
 44
0.0
 45
0.0
 46
0.0
 47
0.0
 48
0.0
 49
0.0
140
0.0
141
0.0
142
1.0
143
1.0
 70
   688
 72
     1
 73
     0
 74
     5
  7

 75
    16
147
1.0
148
0.0
149
0.0
100
AcDbLayout
  1
Layout1
 70
     1
 71
     1
 10
0.0
 20
0.0
 11
420.0
 21
297.0
 12
0.0
 22
0.0
 32
0.0
 14
1.0000000000E+20
 24
1.0000000000E+20
 34
1.0000000000E+20
 15
-1.0000000000E+20
 25
-1.0000000000E+20
 35
-1.0000000000E+20
146
0.0
 13
0.0
 23
0.0
 33
0.0
 16
1.0
 26
0.0
 36
0.0
 17
0.0
 27
1.0
 37
0.0
 76
     0
330
1B
  0
LAYOUT
  5
26
102
{ACAD_REACTORS
330
1A
102
}
330
1A
100
AcDbPlotSettings
  1

  2
none_device
  4

  6

 40
0.0
 41
0.0
 42
0.0
 43
0.0
 44
0.0
 45
0.0
 46
0.0
 47
0.0
 48
0.0
 49
0.0
140
0.0
141
0.0
142
1.0
143
1.0
 70
   688
 72
     1
 73
     0
 74
     5
  7

 75
    16
147
1.0
148
0.0
149
0.0
100
AcDbLayout
  1
Layout2
 70
     1
 71
     2
 10
0.0
 20
0.0
 11
0.0
 21
0.0
 12
0.0
 22
0.0
 32
0.0
 14
0.0
 24
0.0
 34
0.0
 15
0.0
 25
0.0
 35
0.0
146
0.0
 13
0.0
 23
0.0
 33
0.0
 16
1.0
 26
0.0
 36
0.0
 17
0.0
 27
1.0
 37
0.0
 76
     0
330
23
  0
LAYOUT
  5
22
102
{ACAD_REACTORS
330
1A
102
}
330
1A
100
AcDbPlotSettings
  1

  2
none_device
  4
Letter_(8.50_x_11.00_Inches)
  6

 40
6.35
 41
6.35
 42
6.35000508
 43
6.35000508
 44
215.9
 45
279.4
 46
0.0
 47
0.0
 48
0.0
 49
0.0
140
0.0
141
0.0
142
1.0
143
1.0
 70
  1712
 72
     1
 73
     0
 74
     0
  7

 75
     0
147
1.0
148
0.0
149
0.0
100
AcDbLayout
  1
Model
 70
     1
 71
     0
 10
0.0
 20
0.0
 11
297.0
 21
210.0
 12
0.0
 22
0.0
 32
0.0
 14
0.0
 24
0.0
 34
0.0
 15
297.0
 25
210.0
 35
0.0
146
0.0
 13
0.0
 23
0.0
 33
0.0
 16
1.0
 26
0.0
 36
0.0
 17
0.0
 27
1.0
 37
0.0
 76
     0
330
1F
331
29
  0
MLINESTYLE
  5
18
102
{ACAD_REACTORS
330
17
102
}
330
17
100
AcDbMlineStyle
  2
Standard
 70
     0
  3

 62
   256
 51
90.0
 52
90.0
 71
     2
 49
0.5
 62
   256
  6
BYLAYER
 49
-0.5
 62
   256
  6
BYLAYER
  0
ACDBPLACEHOLDER
  5
F
102
{ACAD_REACTORS
330
E
102
}
330
E
  0
SCALE
  5
48
102
{ACAD_REACTORS
330
47
102
}
330
47
100
AcDbScale
 70
     0
300
1:1
140
1.0
141
1.0
290
     1
  0
SCALE
  5
49
102
{ACAD_REACTORS
330
47
102
}
330
47
100
AcDbScale
 70
     0
300
1:2
140
1.0
141
2.0
290
     0
  0
SCALE
  5
4A
102
{ACAD_REACTORS
330
47
102
}
330
47
100
AcDbScale
 70
     0
300
1:4
140
1.0
141
4.0
290
     0
  0
SCALE
  5
4B
102
{ACAD_REACTORS
330
47
102
}
330
47
100
AcDbScale
 70
     0
300
1:5
140
1.0
141
5.0
290
     0
  0
SCALE
  5
4C
102
{ACAD_REACTORS
330
47
102
}
330
47
100
AcDbScale
 70
     0
300
1:8
140
1.0
141
8.0
290
     0
  0
SCALE
  5
4D
102
{ACAD_REACTORS
330
47
102
}
330
47
100
AcDbScale
 70
     0
300
1:10
140
1.0
141
10.0
290
     0
  0
SCALE
  5
4E
102
{ACAD_REACTORS
330
47
102
}
330
47
100
AcDbScale
 70
     0
300
1:16
140
1.0
141
16.0
290
     0
  0
SCALE
  5
4F
102
{ACAD_REACTORS
330
47
102
}
330
47
100
AcDbScale
 70
     0
300
1:20
140
1.0
141
20.0
290
     0
  0
SCALE
  5
50
102
{ACAD_REACTORS
330
47
102
}
330
47
100
AcDbScale
 70
     0
300
1:30
140
1.0
141
30.0
290
     0
  0
SCALE
  5
51
102
{ACAD_REACTORS
330
47
102
}
330
47
100
AcDbScale
 70
     0
300
1:40
140
1.0
141
40.0
290
     0
  0
SCALE
  5
52
102
{ACAD_REACTORS
330
47
102
}
330
47
100
AcDbScale
 70
     0
300
1:50
140
1.0
141
50.0
290
     0
  0
SCALE
  5
53
102
{ACAD_REACTORS
330
47
102
}
330
47
100
AcDbScale
 70
     0
300
1:100
140
1.0
141
100.0
290
     0
  0
SCALE
  5
54
102
{ACAD_REACTORS
330
47
102
}
330
47
100
AcDbScale
 70
     0
300
2:1
140
2.0
141
1.0
290
     0
  0
SCALE
  5
55
102
{ACAD_REACTORS
330
47
102
}
330
47
100
AcDbScale
 70
     0
300
4:1
140
4.0
141
1.0
290
     0
  0
SCALE
  5
56
102
{ACAD_REACTORS
330
47
102
}
330
47
100
AcDbScale
 70
     0
300
8:1
140
8.0
141
1.0
290
     0
  0
SCALE
  5
57
102
{ACAD_REACTORS
330
47
102
}
330
47
100
AcDbScale
 70
     0
300
10:1
140
10.0
141
1.0
290
     0
  0
SCALE
  5
58
102
{ACAD_REACTORS
330
47
102
}
330
47
100
AcDbScale
 70
     0
300
100:1
140
100.0
141
1.0
290
     0
  0
SCALE
  5
59
102
{ACAD_REACTORS
330
47
102
}
330
47
100
AcDbScale
 70
     0
300
1/128" = 1'-0"
140
0.0078125
141
12.0
290
     0
  0
SCALE
  5
5A
102
{ACAD_REACTORS
330
47
102
}
330
47
100
AcDbScale
 70
     0
300
1/64" = 1'-0"
140
0.015625
141
12.0
290
     0
  0
SCALE
  5
5B
102
{ACAD_REACTORS
330
47
102
}
330
47
100
AcDbScale
 70
     0
300
1/32" = 1'-0"
140
0.03125
141
12.0
290
     0
  0
SCALE
  5
5C
102
{ACAD_REACTORS
330
47
102
}
330
47
100
AcDbScale
 70
     0
300
1/16" = 1'-0"
140
0.0625
141
12.0
290
     0
  0
SCALE
  5
5D
102
{ACAD_REACTORS
330
47
102
}
330
47
100
AcDbScale
 70
     0
300
3/32" = 1'-0"
140
0.09375
141
12.0
290
     0
  0
SCALE
  5
5E
102
{ACAD_REACTORS
330
47
102
}
330
47
100
AcDbScale
 70
     0
300
1/8" = 1'-0"
140
0.125
141
12.0
290
     0
  0
SCALE
  5
5F
102
{ACAD_REACTORS
330
47
102
}
330
47
100
AcDbScale
 70
     0
300
3/16" = 1'-0"
140
0.1875
141
12.0
290
     0
  0
SCALE
  5
60
102
{ACAD_REACTORS
330
47
102
}
330
47
100
AcDbScale
 70
     0
300
1/4" = 1'-0"
140
0.25
141
12.0
290
     0
  0
SCALE
  5
61
102
{ACAD_REACTORS
330
47
102
}
330
47
100
AcDbScale
 70
     0
300
3/8" = 1'-0"
140
0.375
141
12.0
290
     0
  0
SCALE
  5
62
102
{ACAD_REACTORS
330
47
102
}
330
47
100
AcDbScale
 70
     0
300
1/2" = 1'-0"
140
0.5
141
12.0
290
     0
  0
SCALE
  5
63
102
{ACAD_REACTORS
330
47
102
}
330
47
100
AcDbScale
 70
     0
300
3/4" = 1'-0"
140
0.75
141
12.0
290
     0
  0
SCALE
  5
64
102
{ACAD_REACTORS
330
47
102
}
330
47
100
AcDbScale
 70
     0
300
1" = 1'-0"
140
1.0
141
12.0
290
     0
  0
SCALE
  5
65
102
{ACAD_REACTORS
330
47
102
}
330
47
100
AcDbScale
 70
     0
300
1-1/2" = 1'-0"
140
1.5
141
12.0
290
     0
  0
SCALE
  5
66
102
{ACAD_REACTORS
330
47
102
}
330
47
100
AcDbScale
 70
     0
300
3" = 1'-0"
140
3.0
141
12.0
290
     0
  0
SCALE
  5
67
102
{ACAD_REACTORS
330
47
102
}
330
47
100
AcDbScale
 70
     0
300
6" = 1'-0"
140
6.0
141
12.0
290
     0
  0
SCALE
  5
68
102
{ACAD_REACTORS
330
47
102
}
330
47
100
AcDbScale
 70
     0
300
1'-0" = 1'-0"
140
12.0
141
12.0
290
     0
  0
ENDSEC
  0
EOF
