  0
SECTION
  2
HEADER
  9
$ACADVER
  1
AC1015
  9
$ACADMAINTVER
 70
     6
  9
$DWGCODEPAGE
  3
ANSI_1252
  9
$INSBASE
 10
0.0
 20
0.0
 30
0.0
  9
$EXTMIN
 10
0.0
 20
0.0
 30
0.0
  9
$EXTMAX
 10
297.0
 20
210.0
 30
0.0
  9
$LIMMIN
 10
0.0
 20
0.0
  9
$LIMMAX
 10
297.0
 20
210.0
  9
$ORTHOMODE
 70
     0
  9
$REGENMODE
 70
     1
  9
$FILLMODE
 70
     1
  9
$QTEXTMODE
 70
     0
  9
$MIRRTEXT
 70
     1
  9
$LTSCALE
 40
1.0
  9
$ATTMODE
 70
     1
  9
$TEXTSIZE
 40
2.0
  9
$TRACEWID
 40
1.0
  9
$TEXTSTYLE
  7
Standard
  9
$CLAYER
  8
0
  9
$CELTYPE
  6
ByLayer
  9
$CECOLOR
 62
   256
  9
$CELTSCALE
 40
1.0
  9
$DISPSILH
 70
     0
  9
$DIMSCALE
 40
1.0
  9
$DIMASZ
 40
3.0
  9
$DIMEXO
 40
0.0
  9
$DIMDLI
 40
3.75
  9
$DIMRND
 40
0.0
  9
$DIMDLE
 40
0.0
  9
$DIMEXE
 40
1.0
  9
$DIMTP
 40
0.0
  9
$DIMTM
 40
0.0
  9
$DIMTXT
 40
2.0
  9
$DIMCEN
 40
2.5
  9
$DIMTSZ
 40
0.0
  9
$DIMTOL
 70
     0
  9
$DIMLIM
 70
     0
  9
$DIMTIH
 70
     1
  9
$DIMTOH
 70
     1
  9
$DIMSE1
 70
     0
  9
$DIMSE2
 70
     0
  9
$DIMTAD
 70
     1
  9
$DIMZIN
 70
     0
  9
$DIMBLK
  1

  9
$DIMASO
 70
     1
  9
$DIMSHO
 70
     1
  9
$DIMPOST
  1

  9
$DIMAPOST
  1

  9
$DIMALT
 70
     0
  9
$DIMALTD
 70
     3
  9
$DIMALTF
 40
0.0393700787
  9
$DIMLFAC
 40
2.0
  9
$DIMTOFL
 70
     1
  9
$DIMTVP
 40
0.0
  9
$DIMTIX
 70
     0
  9
$DIMSOXD
 70
     0
  9
$DIMSAH
 70
     0
  9
$DIMBLK1
  1

  9
$DIMBLK2
  1

  9
$DIMSTYLE
  2
ISO-25
  9
$DIMCLRD
 70
     0
  9
$DIMCLRE
 70
     0
  9
$DIMCLRT
 70
     0
  9
$DIMTFAC
 40
1.0
  9
$DIMGAP
 40
1.524
  9
$DIMJUST
 70
     0
  9
$DIMSD1
 70
     0
  9
$DIMSD2
 70
     0
  9
$DIMTOLJ
 70
     0
  9
$DIMTZIN
 70
     0
  9
$DIMALTZ
 70
     0
  9
$DIMALTTZ
 70
     0
  9
$DIMUPT
 70
     0
  9
$DIMDEC
 70
     2
  9
$DIMTDEC
 70
     3
  9
$DIMALTU
 70
     2
  9
$DIMALTTD
 70
     3
  9
$DIMTXSTY
  7
Standard
  9
$DIMAUNIT
 70
     0
  9
$DIMADEC
 70
     2
  9
$DIMALTRND
 40
0.0
  9
$DIMAZIN
 70
     0
  9
$DIMDSEP
 70
    44
  9
$DIMATFIT
 70
     3
  9
$DIMFRAC
 70
     0
  9
$DIMLDRBLK
  1

  9
$DIMLUNIT
 70
     2
  9
$DIMLWD
 70
    -2
  9
$DIMLWE
 70
    -2
  9
$DIMTMOVE
 70
     0
  9
$LUNITS
 70
     2
  9
$LUPREC
 70
     2
  9
$SKETCHINC
 40
1.0
  9
$FILLETRAD
 40
10.0
  9
$AUNITS
 70
     0
  9
$AUPREC
 70
     2
  9
$MENU
  1
.
  9
$ELEVATION
 40
0.0
  9
$PELEVATION
 40
0.0
  9
$THICKNESS
 40
0.0
  9
$LIMCHECK
 70
     0
  9
$CHAMFERA
 40
0.0
  9
$CHAMFERB
 40
0.0
  9
$CHAMFERC
 40
0.0
  9
$CHAMFERD
 40
0.0
  9
$SKPOLY
 70
     0
  9
$TDCREATE
 40
2458164.678766817
  9
$TDUCREATE
 40
2458164.63710015
  9
$TDUPDATE
 40
2458164.678770706
  9
$TDUUPDATE
 40
2458164.63710404
  9
$TDINDWG
 40
0.0000000116
  9
$TDUSRTIMER
 40
0.0000000116
  9
$USRTIMER
 70
     1
  9
$ANGBASE
 50
0.0
  9
$ANGDIR
 70
     0
  9
$PDMODE
 70
     0
  9
$PDSIZE
 40
-1.0
  9
$PLINEWID
 40
0.0
  9
$SPLFRAME
 70
     0
  9
$SPLINETYPE
 70
     6
  9
$SPLINESEGS
 70
     8
  9
$HANDSEED
  5
2F7
  9
$SURFTAB1
 70
     6
  9
$SURFTAB2
 70
     6
  9
$SURFTYPE
 70
     6
  9
$SURFU
 70
     6
  9
$SURFV
 70
     6
  9
$UCSBASE
  2

  9
$UCSNAME
  2

  9
$UCSORG
 10
0.0
 20
0.0
 30
0.0
  9
$UCSXDIR
 10
1.0
 20
0.0
 30
0.0
  9
$UCSYDIR
 10
0.0
 20
1.0
 30
0.0
  9
$UCSORTHOREF
  2

  9
$UCSORTHOVIEW
 70
     0
  9
$UCSORGTOP
 10
0.0
 20
0.0
 30
0.0
  9
$UCSORGBOTTOM
 10
0.0
 20
0.0
 30
0.0
  9
$UCSORGLEFT
 10
0.0
 20
0.0
 30
0.0
  9
$UCSORGRIGHT
 10
0.0
 20
0.0
 30
0.0
  9
$UCSORGFRONT
 10
0.0
 20
0.0
 30
0.0
  9
$UCSORGBACK
 10
0.0
 20
0.0
 30
0.0
  9
$PUCSBASE
  2

  9
$PUCSNAME
  2

  9
$PUCSORG
 10
0.0
 20
0.0
 30
0.0
  9
$PUCSXDIR
 10
1.0
 20
0.0
 30
0.0
  9
$PUCSYDIR
 10
0.0
 20
1.0
 30
0.0
  9
$PUCSORTHOREF
  2

  9
$PUCSORTHOVIEW
 70
     0
  9
$PUCSORGTOP
 10
0.0
 20
0.0
 30
0.0
  9
$PUCSORGBOTTOM
 10
0.0
 20
0.0
 30
0.0
  9
$PUCSORGLEFT
 10
0.0
 20
0.0
 30
0.0
  9
$PUCSORGRIGHT
 10
0.0
 20
0.0
 30
0.0
  9
$PUCSORGFRONT
 10
0.0
 20
0.0
 30
0.0
  9
$PUCSORGBACK
 10
0.0
 20
0.0
 30
0.0
  9
$USERI1
 70
     0
  9
$USERI2
 70
     0
  9
$USERI3
 70
     0
  9
$USERI4
 70
     0
  9
$USERI5
 70
     0
  9
$USERR1
 40
0.0
  9
$USERR2
 40
0.0
  9
$USERR3
 40
0.0
  9
$USERR4
 40
0.0
  9
$USERR5
 40
0.0
  9
$WORLDVIEW
 70
     1
  9
$SHADEDGE
 70
     3
  9
$SHADEDIF
 70
    70
  9
$TILEMODE
 70
     1
  9
$MAXACTVP
 70
    64
  9
$PINSBASE
 10
0.0
 20
0.0
 30
0.0
  9
$PLIMCHECK
 70
     0
  9
$PEXTMIN
 10
1.0000000000E+20
 20
1.0000000000E+20
 30
1.0000000000E+20
  9
$PEXTMAX
 10
-1.0000000000E+20
 20
-1.0000000000E+20
 30
-1.0000000000E+20
  9
$PLIMMIN
 10
0.0
 20
0.0
  9
$PLIMMAX
 10
420.0
 20
297.0
  9
$UNITMODE
 70
     0
  9
$VISRETAIN
 70
     1
  9
$PLINEGEN
 70
     0
  9
$PSLTSCALE
 70
     1
  9
$TREEDEPTH
 70
  3020
  9
$CMLSTYLE
  2
Standard
  9
$CMLJUST
 70
     0
  9
$CMLSCALE
 40
20.0
  9
$PROXYGRAPHICS
 70
     1
  9
$MEASUREMENT
 70
     1
  9
$CELWEIGHT
370
    -1
  9
$ENDCAPS
280
     0
  9
$JOINSTYLE
280
     0
  9
$LWDISPLAY
290
     1
  9
$INSUNITS
 70
     4
  9
$HYPERLINKBASE
  1

  9
$STYLESHEET
  1

  9
$XEDIT
290
     1
  9
$CEPSNTYPE
380
     0
  9
$PSTYLEMODE
290
     1
  9
$FINGERPRINTGUID
  2
{517F8038-4882-48F5-A925-8C5A4A59AE2A}
  9
$VERSIONGUID
  2
{FAEB1C32-E019-11D5-929B-00C0DF256EC4}
  9
$EXTNAMES
290
     1
  9
$PSVPSCALE
 40
0.0
  9
$OLESTARTUP
290
     0
  0
ENDSEC
  0
SECTION
  2
CLASSES
  0
CLASS
  1
ACDBDICTIONARYWDFLT
  2
AcDbDictionaryWithDefault
  3
ObjectDBX Classes
 90
        0
280
     0
281
     0
  0
CLASS
  1
VISUALSTYLE
  2
AcDbVisualStyle
  3
ObjectDBX Classes
 90
     4095
280
     0
281
     0
  0
CLASS
  1
MATERIAL
  2
AcDbMaterial
  3
ObjectDBX Classes
 90
     1153
280
     0
281
     0
  0
CLASS
  1
SCALE
  2
AcDbScale
  3
ObjectDBX Classes
 90
     1153
280
     0
281
     0
  0
CLASS
  1
TABLESTYLE
  2
AcDbTableStyle
  3
ObjectDBX Classes
 90
     4095
280
     0
281
     0
  0
CLASS
  1
MLEADERSTYLE
  2
AcDbMLeaderStyle
  3
ACDB_MLEADERSTYLE_CLASS
 90
     4095
280
     0
281
     0
  0
CLASS
  1
SUN
  2
AcDbSun
  3
SCENEOE
 90
     1153
280
     0
281
     0
  0
CLASS
  1
ACDBPLACEHOLDER
  2
AcDbPlaceHolder
  3
ObjectDBX Classes
 90
        0
280
     0
281
     0
  0
CLASS
  1
LAYOUT
  2
AcDbLayout
  3
ObjectDBX Classes
 90
        0
280
     0
281
     0
  0
ENDSEC
  0
SECTION
  2
TABLES
  0
TABLE
  2
VPORT
  5
8
330
0
100
AcDbSymbolTable
 70
     1
  0
VPORT
  5
29
330
8
100
AcDbSymbolTableRecord
100
AcDbViewportTableRecord
  2
*Active
 70
     0
 10
0.0
 20
0.0
 11
1.0
 21
1.0
 12
148.5
 22
105.0
 13
0.0
 23
0.0
 14
10.0
 24
10.0
 15
10.0
 25
10.0
 16
0.0
 26
0.0
 36
1.0
 17
0.0
 27
0.0
 37
0.0
 40
210.0
 41
1.4142857143
 42
50.0
 43
0.0
 44
0.0
 50
0.0
 51
0.0
 71
     0
 72
  2000
 73
     1
 74
     3
 75
     0
 76
     0
 77
     0
 78
     0
281
     0
 65
     1
110
0.0
120
0.0
130
0.0
111
1.0
121
0.0
131
0.0
112
0.0
122
1.0
132
0.0
 79
     0
146
0.0
  0
ENDTAB
  0
TABLE
  2
LTYPE
  5
5
330
0
100
AcDbSymbolTable
 70
     6
  0
LTYPE
  5
14
330
5
100
AcDbSymbolTableRecord
100
AcDbLinetypeTableRecord
  2
ByBlock
 70
     0
  3

 72
    65
 73
     0
 40
0.0
  0
LTYPE
  5
15
330
5
100
AcDbSymbolTableRecord
100
AcDbLinetypeTableRecord
  2
ByLayer
 70
     0
  3

 72
    65
 73
     0
 40
0.0
  0
LTYPE
  5
16
330
5
100
AcDbSymbolTableRecord
100
AcDbLinetypeTableRecord
  2
Continuous
 70
     0
  3
Solid line
 72
    65
 73
     0
 40
0.0
  0
LTYPE
  5
6E
330
5
100
AcDbSymbolTableRecord
100
AcDbLinetypeTableRecord
  2
HIDDEN
 70
     0
  3
Hidden __ __ __ __ __ __ __ __ __ __ __ __ __ __
 72
    65
 73
     2
 40
1.905
 49
1.27
 74
     0
 49
-0.635
 74
     0
  0
LTYPE
  5
6F
330
5
100
AcDbSymbolTableRecord
100
AcDbLinetypeTableRecord
  2
PHANTOM
 70
     0
  3
Phantom ______  __  __  ______  __  __  ______
 72
    65
 73
     6
 40
12.7
 49
6.35
 74
     0
 49
-1.27
 74
     0
 49
1.27
 74
     0
 49
-1.27
 74
     0
 49
1.27
 74
     0
 49
-1.27
 74
     0
  0
LTYPE
  5
70
330
5
100
AcDbSymbolTableRecord
100
AcDbLinetypeTableRecord
  2
CENTER
 70
     0
  3
Center ____ _ ____ _ ____ _ ____ _ ____ _ ____
 72
    65
 73
     4
 40
10.16
 49
6.35
 74
     0
 49
-1.27
 74
     0
 49
1.27
 74
     0
 49
-1.27
 74
     0
  0
LTYPE
  5
71
330
5
100
AcDbSymbolTableRecord
100
AcDbLinetypeTableRecord
  2
CENTERX2
 70
     0
  3
Center (2x) ________  __  ________  __  _____
 72
    65
 73
     4
 40
20.32
 49
12.7
 74
     0
 49
-2.54
 74
     0
 49
2.54
 74
     0
 49
-2.54
 74
     0
  0
LTYPE
  5
72
330
5
100
AcDbSymbolTableRecord
100
AcDbLinetypeTableRecord
  2
DOT2
 70
     0
  3
Dot (.5x) ........................................
 72
    65
 73
     2
 40
0.635
 49
0.0
 74
     0
 49
-0.635
 74
     0
  0
ENDTAB
  0
TABLE
  2
LAYER
  5
2
330
0
100
AcDbSymbolTable
 70
     5
  0
LAYER
  5
10
330
2
100
AcDbSymbolTableRecord
100
AcDbLayerTableRecord
  2
0
 70
     0
 62
     7
  6
Continuous
370
    -3
390
F
  0
LAYER
  5
73
330
2
100
AcDbSymbolTableRecord
100
AcDbLayerTableRecord
  2
FORMAT
 70
     0
 62
     7
  6
Continuous
370
    -3
390
F
  0
LAYER
  5
74
330
2
100
AcDbSymbolTableRecord
100
AcDbLayerTableRecord
  2
VERMASSUNG
 70
     0
 62
     7
  6
Continuous
370
    -3
390
F
  0
LAYER
  5
75
330
2
100
AcDbSymbolTableRecord
100
AcDbLayerTableRecord
  2
KOPF_DÜNN
 70
     0
 62
     7
  6
Continuous
370
    -3
390
F
  0
LAYER
  5
76
330
2
100
AcDbSymbolTableRecord
100
AcDbLayerTableRecord
  2
KOPF_DICK
 70
     0
 62
     7
  6
Continuous
370
    25
390
F
  0
ENDTAB
  0
TABLE
  2
STYLE
  5
3
330
0
100
AcDbSymbolTable
 70
     2
  0
STYLE
  5
11
330
3
100
AcDbSymbolTableRecord
100
AcDbTextStyleTableRecord
  2
Standard
 70
     0
 40
0.0
 41
1.0
 50
0.0
 71
     0
 42
2.0
  3
txt
  4

  0
STYLE
  5
77
330
3
100
AcDbSymbolTableRecord
100
AcDbTextStyleTableRecord
  2
SLDTEXTSTYLE0
 70
     0
 40
0.0
 41
0.7
 50
0.0
 71
     0
 42
2.0
  3
TXT
  4

  0
ENDTAB
  0
TABLE
  2
VIEW
  5
6
330
0
100
AcDbSymbolTable
 70
     0
  0
ENDTAB
  0
TABLE
  2
UCS
  5
7
330
0
100
AcDbSymbolTable
 70
     0
  0
ENDTAB
  0
TABLE
  2
APPID
  5
9
330
0
100
AcDbSymbolTable
 70
     1
  0
APPID
  5
12
330
9
100
AcDbSymbolTableRecord
100
AcDbRegAppTableRecord
  2
ACAD
 70
     0
  0
ENDTAB
  0
TABLE
  2
DIMSTYLE
  5
A
330
0
100
AcDbSymbolTable
 70
     5
100
AcDbDimStyleTable
  0
DIMSTYLE
105
27
330
A
100
AcDbSymbolTableRecord
100
AcDbDimStyleTableRecord
  2
ISO-25
 70
     0
 41
2.5
 42
0.625
 43
3.75
 44
1.25
 73
     0
 74
     0
 77
     1
 78
     8
140
2.5
141
2.5
143
0.0393700787
147
0.625
171
     3
172
     1
178
     0
271
     2
272
     2
274
     3
278
    44
283
     0
284
     8
340
11
  0
DIMSTYLE
105
1FE
102
{ACAD_REACTORS
330
1FD
330
21D
330
227
330
231
330
23C
330
251
330
25B
330
265
102
}
330
A
100
AcDbSymbolTableRecord
100
AcDbDimStyleTableRecord
  2
SLDDIMSTYLE0
 70
     0
 41
3.0
 44
0.0
 45
0.000000001
 73
     0
 74
     0
 77
     1
 78
    12
 79
     3
140
2.0
147
0.5
173
     1
178
     0
271
     2
272
     3
276
     2
284
    12
340
77
  0
DIMSTYLE
105
20A
102
{ACAD_REACTORS
330
209
102
}
330
A
100
AcDbSymbolTableRecord
100
AcDbDimStyleTableRecord
  2
SLDDIMSTYLE1
 70
     0
 41
3.0
 44
0.0
 73
     0
 74
     0
 77
     1
 78
    12
 79
     3
140
2.0
147
0.5
173
     1
178
     0
179
     2
272
     3
276
     2
284
    12
340
77
  0
DIMSTYLE
105
214
102
{ACAD_REACTORS
330
213
102
}
330
A
100
AcDbSymbolTableRecord
100
AcDbDimStyleTableRecord
  2
SLDDIMSTYLE2
 70
     0
 41
3.0
 44
0.0
 45
0.000000001
 73
     0
 74
     0
 76
     1
 77
     1
 78
    12
 79
     3
140
2.0
147
0.5
173
     1
178
     0
271
     2
272
     3
276
     2
282
     1
284
    12
340
77
  0
DIMSTYLE
105
247
102
{ACAD_REACTORS
330
246
102
}
330
A
100
AcDbSymbolTableRecord
100
AcDbDimStyleTableRecord
  2
SLDDIMSTYLE3
 70
     0
 41
3.0
 44
0.0
 45
0.000000001
 73
     0
 74
     0
 77
     1
 78
    12
 79
     3
140
2.0
147
0.5
173
     1
178
     0
271
     1
272
     3
276
     2
284
    12
340
77
  0
ENDTAB
  0
TABLE
  2
BLOCK_RECORD
  5
1
330
0
100
AcDbSymbolTable
 70
    12
  0
BLOCK_RECORD
  5
1F
330
1
100
AcDbSymbolTableRecord
100
AcDbBlockTableRecord
  2
*Model_Space
340
22
  0
BLOCK_RECORD
  5
1B
330
1
100
AcDbSymbolTableRecord
100
AcDbBlockTableRecord
  2
*Paper_Space
340
1E
  0
BLOCK_RECORD
  5
23
330
1
100
AcDbSymbolTableRecord
100
AcDbBlockTableRecord
  2
*Paper_Space0
340
26
  0
BLOCK_RECORD
  5
1FF
330
1
100
AcDbSymbolTableRecord
100
AcDbBlockTableRecord
  2
_D
340
0
  0
BLOCK_RECORD
  5
20B
330
1
100
AcDbSymbolTableRecord
100
AcDbBlockTableRecord
  2
_D_1
340
0
  0
BLOCK_RECORD
  5
215
330
1
100
AcDbSymbolTableRecord
100
AcDbBlockTableRecord
  2
_D_2
340
0
  0
BLOCK_RECORD
  5
21E
330
1
100
AcDbSymbolTableRecord
100
AcDbBlockTableRecord
  2
_D_3
340
0
  0
BLOCK_RECORD
  5
228
330
1
100
AcDbSymbolTableRecord
100
AcDbBlockTableRecord
  2
_D_4
340
0
  0
BLOCK_RECORD
  5
232
330
1
100
AcDbSymbolTableRecord
100
AcDbBlockTableRecord
  2
_D_5
340
0
  0
BLOCK_RECORD
  5
23D
330
1
100
AcDbSymbolTableRecord
100
AcDbBlockTableRecord
  2
_D_6
340
0
  0
BLOCK_RECORD
  5
248
330
1
100
AcDbSymbolTableRecord
100
AcDbBlockTableRecord
  2
_D_7
340
0
  0
BLOCK_RECORD
  5
252
330
1
100
AcDbSymbolTableRecord
100
AcDbBlockTableRecord
  2
_D_8
340
0
  0
BLOCK_RECORD
  5
25C
330
1
100
AcDbSymbolTableRecord
100
AcDbBlockTableRecord
  2
_D_9
340
0
  0
BLOCK_RECORD
  5
266
330
1
100
AcDbSymbolTableRecord
100
AcDbBlockTableRecord
  2
_D_10
340
0
  0
ENDTAB
  0
ENDSEC
  0
SECTION
  2
BLOCKS
  0
BLOCK
  5
20
330
1F
100
AcDbEntity
  8
0
100
AcDbBlockBegin
  2
*Model_Space
 70
     0
 10
0.0
 20
0.0
 30
0.0
  3
*Model_Space
  1

  0
ENDBLK
  5
21
330
1F
100
AcDbEntity
  8
0
100
AcDbBlockEnd
  0
BLOCK
  5
1C
330
1B
100
AcDbEntity
 67
     1
  8
0
100
AcDbBlockBegin
  2
*Paper_Space
 70
     0
 10
0.0
 20
0.0
 30
0.0
  3
*Paper_Space
  1

  0
ENDBLK
  5
1D
330
1B
100
AcDbEntity
 67
     1
  8
0
100
AcDbBlockEnd
  0
BLOCK
  5
24
330
23
100
AcDbEntity
  8
0
100
AcDbBlockBegin
  2
*Paper_Space0
 70
     0
 10
0.0
 20
0.0
 30
0.0
  3
*Paper_Space0
  1

  0
ENDBLK
  5
25
330
23
100
AcDbEntity
  8
0
100
AcDbBlockEnd
  0
BLOCK
  5
200
330
1FF
100
AcDbEntity
  8
0
100
AcDbBlockBegin
  2
_D
 70
     0
 10
0.0
 20
0.0
 30
0.0
  3
_D
  1

  0
SOLID
  5
202
330
1FF
100
AcDbEntity
  8
VERMASSUNG
100
AcDbTrace
 10
263.7603741082
 20
104.2293394934
 30
0.0
 11
264.2103741082
 21
107.2293394934
 31
0.0
 12
263.3103741082
 22
107.2293394934
 32
0.0
 13
263.3103741082
 23
107.2293394934
 33
0.0
  0
SOLID
  5
203
330
1FF
100
AcDbEntity
  8
VERMASSUNG
100
AcDbTrace
 10
263.7603741082
 20
128.2293394934
 30
0.0
 11
263.3103741082
 21
125.2293394934
 31
0.0
 12
264.2103741082
 22
125.2293394934
 32
0.0
 13
264.2103741082
 23
125.2293394934
 33
0.0
  0
LINE
  5
204
330
1FF
100
AcDbEntity
  8
VERMASSUNG
100
AcDbLine
 10
232.2520663395
 20
104.2293394934
 30
0.0
 11
264.7603741082
 21
104.2293394934
 31
0.0
  0
LINE
  5
205
330
1FF
100
AcDbEntity
  8
VERMASSUNG
100
AcDbLine
 10
232.2520663395
 20
128.2293394934
 30
0.0
 11
264.7603741082
 21
128.2293394934
 31
0.0
  0
LINE
  5
206
330
1FF
100
AcDbEntity
  8
VERMASSUNG
100
AcDbLine
 10
263.7603741082
 20
104.2293394934
 30
0.0
 11
263.7603741082
 21
128.2293394934
 31
0.0
  0
MTEXT
  5
207
330
1FF
100
AcDbEntity
  8
VERMASSUNG
100
AcDbMText
 10
261.1822388032
 20
112.9243394732
 30
0.0
 40
2.0
 41
0.0
 71
     1
 72
     1
  1
%%c
  7
SLDTEXTSTYLE0
 11
6.123233995736766E-17
 21
1.0
 31
0.0
 73
     1
 44
1.0
  0
MTEXT
  5
208
330
1FF
100
AcDbEntity
  8
VERMASSUNG
100
AcDbMText
 10
260.982238852
 20
116.5343394875
 30
0.0
 40
2.0
 41
0.0
 71
     1
 72
     1
  1
24
  7
SLDTEXTSTYLE0
 11
6.123233995736766E-17
 21
1.0
 31
0.0
 73
     1
 44
1.0
  0
ENDBLK
  5
201
330
1FF
100
AcDbEntity
  8
0
100
AcDbBlockEnd
  0
BLOCK
  5
20C
330
20B
100
AcDbEntity
  8
0
100
AcDbBlockBegin
  2
_D_1
 70
     0
 10
0.0
 20
0.0
 30
0.0
  3
_D_1
  1

  0
ARC
  5
20E
330
20B
100
AcDbEntity
  8
VERMASSUNG
100
AcDbCircle
 10
384.7265231736
 20
116.2293394934
 30
0.0
 40
168.2896173385546
100
AcDbArc
 50
175.5
 51
180.0
  0
ARC
  5
20F
330
20B
100
AcDbEntity
  8
VERMASSUNG
100
AcDbCircle
 10
384.7265231736
 20
116.2293394934
 30
0.0
 40
168.2896173385546
100
AcDbArc
 50
171.5805013103
 51
175.5
  0
SOLID
  5
210
330
20B
100
AcDbEntity
  8
VERMASSUNG
100
AcDbTrace
 10
216.9556865614
 20
129.4331906902
 30
0.0
 11
216.2980629928
 21
126.4717668364
 31
0.0
 12
217.1958822756
 22
126.4091526582
 32
0.0
 13
217.1958822756
 23
126.4091526582
 33
0.0
  0
SOLID
  5
211
330
20B
100
AcDbEntity
  8
VERMASSUNG
100
AcDbTrace
 10
216.436905835
 20
116.2293394934
 30
0.0
 11
216.9136243954
 21
119.2252098868
 31
0.0
 12
216.013660138
 22
119.2332308163
 32
0.0
 13
216.013660138
 23
119.2332308163
 33
0.0
  0
MTEXT
  5
212
330
20B
100
AcDbEntity
  8
VERMASSUNG
100
AcDbMText
 10
214.8588569346
 20
134.9559905013
 30
0.0
 40
2.0
 41
0.0
 71
     1
 72
     1
  1
4°30'
  7
SLDTEXTSTYLE0
 11
0.1278812840632402
 21
0.9917894822926572
 31
0.0
 73
     1
 44
1.0
  0
ENDBLK
  5
20D
330
20B
100
AcDbEntity
  8
0
100
AcDbBlockEnd
  0
BLOCK
  5
216
330
215
100
AcDbEntity
  8
0
100
AcDbBlockBegin
  2
_D_2
 70
     0
 10
0.0
 20
0.0
 30
0.0
  3
_D_2
  1

  0
SOLID
  5
218
330
215
100
AcDbEntity
  8
VERMASSUNG
100
AcDbTrace
 10
255.8096310196
 20
121.2293394934
 30
0.0
 11
255.3596310196
 21
118.2293394934
 31
0.0
 12
256.2596310196
 22
118.2293394934
 32
0.0
 13
256.2596310196
 23
118.2293394934
 33
0.0
  0
LINE
  5
219
330
215
100
AcDbEntity
  8
VERMASSUNG
100
AcDbLine
 10
228.7520663395
 20
121.2293394934
 30
0.0
 11
256.8096310196
 21
121.2293394934
 31
0.0
  0
LINE
  5
21A
330
215
100
AcDbEntity
  8
VERMASSUNG
100
AcDbLine
 10
255.8096310196
 20
121.2293394934
 30
0.0
 11
255.8096310196
 21
113.2243394293
 31
0.0
  0
MTEXT
  5
21B
330
215
100
AcDbEntity
  8
VERMASSUNG
100
AcDbMText
 10
253.2314957147
 20
113.2243394293
 30
0.0
 40
2.0
 41
0.0
 71
     1
 72
     1
  1
%%c
  7
SLDTEXTSTYLE0
 11
-5.267838178243384E-15
 21
1.0
 31
0.0
 73
     1
 44
1.0
  0
MTEXT
  5
21C
330
215
100
AcDbEntity
  8
VERMASSUNG
100
AcDbMText
 10
253.0314957634
 20
116.8343394436
 30
0.0
 40
2.0
 41
0.0
 71
     1
 72
     1
  1
10
  7
SLDTEXTSTYLE0
 11
-5.267838178243384E-15
 21
1.0
 31
0.0
 73
     1
 44
1.0
  0
ENDBLK
  5
217
330
215
100
AcDbEntity
  8
0
100
AcDbBlockEnd
  0
BLOCK
  5
21F
330
21E
100
AcDbEntity
  8
0
100
AcDbBlockBegin
  2
_D_3
 70
     0
 10
0.0
 20
0.0
 30
0.0
  3
_D_3
  1

  0
SOLID
  5
221
330
21E
100
AcDbEntity
  8
VERMASSUNG
100
AcDbTrace
 10
201.2520663395
 20
147.1679345338
 30
0.0
 11
204.2520663395
 21
146.7179345338
 31
0.0
 12
204.2520663395
 22
147.6179345338
 32
0.0
 13
204.2520663395
 23
147.6179345338
 33
0.0
  0
SOLID
  5
222
330
21E
100
AcDbEntity
  8
VERMASSUNG
100
AcDbTrace
 10
232.2520663395
 20
147.1679345338
 30
0.0
 11
229.2520663395
 21
147.6179345338
 31
0.0
 12
229.2520663395
 22
146.7179345338
 32
0.0
 13
229.2520663395
 23
146.7179345338
 33
0.0
  0
LINE
  5
223
330
21E
100
AcDbEntity
  8
VERMASSUNG
100
AcDbLine
 10
201.2520663395
 20
121.2293394934
 30
0.0
 11
201.2520663395
 21
148.1679345338
 31
0.0
  0
LINE
  5
224
330
21E
100
AcDbEntity
  8
VERMASSUNG
100
AcDbLine
 10
232.2520663395
 20
126.3805585101
 30
0.0
 11
232.2520663395
 21
148.1679345338
 31
0.0
  0
LINE
  5
225
330
21E
100
AcDbEntity
  8
VERMASSUNG
100
AcDbLine
 10
201.2520663395
 20
147.1679345338
 30
0.0
 11
232.2520663395
 21
147.1679345338
 31
0.0
  0
MTEXT
  5
226
330
21E
100
AcDbEntity
  8
VERMASSUNG
100
AcDbMText
 10
215.5520662825
 20
149.7460701297
 30
0.0
 40
2.0
 41
0.0
 71
     1
 72
     1
  1
31
  7
SLDTEXTSTYLE0
 73
     1
 44
1.0
  0
ENDBLK
  5
220
330
21E
100
AcDbEntity
  8
0
100
AcDbBlockEnd
  0
BLOCK
  5
229
330
228
100
AcDbEntity
  8
0
100
AcDbBlockBegin
  2
_D_4
 70
     0
 10
0.0
 20
0.0
 30
0.0
  3
_D_4
  1

  0
SOLID
  5
22B
330
228
100
AcDbEntity
  8
VERMASSUNG
100
AcDbTrace
 10
232.2520663395
 20
154.0891911176
 30
0.0
 11
229.2520663395
 21
154.5391911176
 31
0.0
 12
229.2520663395
 22
153.6391911176
 32
0.0
 13
229.2520663395
 23
153.6391911176
 33
0.0
  0
SOLID
  5
22C
330
228
100
AcDbEntity
  8
VERMASSUNG
100
AcDbTrace
 10
190.7520663395
 20
154.0891911176
 30
0.0
 11
193.7520663395
 21
153.6391911176
 31
0.0
 12
193.7520663395
 22
154.5391911176
 32
0.0
 13
193.7520663395
 23
154.5391911176
 33
0.0
  0
LINE
  5
22D
330
228
100
AcDbEntity
  8
VERMASSUNG
100
AcDbLine
 10
232.2520663395
 20
122.2660337415
 30
0.0
 11
232.2520663395
 21
155.0891911176
 31
0.0
  0
LINE
  5
22E
330
228
100
AcDbEntity
  8
VERMASSUNG
100
AcDbLine
 10
190.7520663395
 20
121.1293394934
 30
0.0
 11
190.7520663395
 21
155.0891911176
 31
0.0
  0
LINE
  5
22F
330
228
100
AcDbEntity
  8
VERMASSUNG
100
AcDbLine
 10
232.2520663395
 20
154.0891911176
 30
0.0
 11
190.7520663395
 21
154.0891911176
 31
0.0
  0
MTEXT
  5
230
330
228
100
AcDbEntity
  8
VERMASSUNG
100
AcDbMText
 10
209.2020662884
 20
156.6673267136
 30
0.0
 40
2.0
 41
0.0
 71
     1
 72
     1
  1
41.5
  7
SLDTEXTSTYLE0
 73
     1
 44
1.0
  0
ENDBLK
  5
22A
330
228
100
AcDbEntity
  8
0
100
AcDbBlockEnd
  0
BLOCK
  5
233
330
232
100
AcDbEntity
  8
0
100
AcDbBlockBegin
  2
_D_5
 70
     0
 10
0.0
 20
0.0
 30
0.0
  3
_D_5
  1

  0
SOLID
  5
235
330
232
100
AcDbEntity
  8
VERMASSUNG
100
AcDbTrace
 10
273.3775790376
 20
132.2293394934
 30
0.0
 11
272.9275790376
 21
129.2293394934
 31
0.0
 12
273.8275790376
 22
129.2293394934
 32
0.0
 13
273.8275790376
 23
129.2293394934
 33
0.0
  0
SOLID
  5
236
330
232
100
AcDbEntity
  8
VERMASSUNG
100
AcDbTrace
 10
273.3775790376
 20
100.2293394934
 30
0.0
 11
273.8275790376
 21
103.2293394934
 31
0.0
 12
272.9275790376
 22
103.2293394934
 32
0.0
 13
272.9275790376
 23
103.2293394934
 33
0.0
  0
LINE
  5
237
330
232
100
AcDbEntity
  8
VERMASSUNG
100
AcDbLine
 10
181.4272473948
 20
132.2293394934
 30
0.0
 11
274.3775790376
 21
132.2293394934
 31
0.0
  0
LINE
  5
238
330
232
100
AcDbEntity
  8
VERMASSUNG
100
AcDbLine
 10
181.4272473948
 20
100.2293394934
 30
0.0
 11
274.3775790376
 21
100.2293394934
 31
0.0
  0
LINE
  5
239
330
232
100
AcDbEntity
  8
VERMASSUNG
100
AcDbLine
 10
273.3775790376
 20
132.2293394934
 30
0.0
 11
273.3775790376
 21
100.2293394934
 31
0.0
  0
MTEXT
  5
23A
330
232
100
AcDbEntity
  8
VERMASSUNG
100
AcDbMText
 10
270.7994437327
 20
113.0243395362
 30
0.0
 40
2.0
 41
0.0
 71
     1
 72
     1
  1
%%c
  7
SLDTEXTSTYLE0
 11
-5.267838178243384E-15
 21
1.0
 31
0.0
 73
     1
 44
1.0
  0
MTEXT
  5
23B
330
232
100
AcDbEntity
  8
VERMASSUNG
100
AcDbMText
 10
270.5994437814
 20
116.6343395505
 30
0.0
 40
2.0
 41
0.0
 71
     1
 72
     1
  1
32
  7
SLDTEXTSTYLE0
 11
-5.267838178243384E-15
 21
1.0
 31
0.0
 73
     1
 44
1.0
  0
ENDBLK
  5
234
330
232
100
AcDbEntity
  8
0
100
AcDbBlockEnd
  0
BLOCK
  5
23E
330
23D
100
AcDbEntity
  8
0
100
AcDbBlockBegin
  2
_D_6
 70
     0
 10
0.0
 20
0.0
 30
0.0
  3
_D_6
  1

  0
SOLID
  5
240
330
23D
100
AcDbEntity
  8
VERMASSUNG
100
AcDbTrace
 10
130.2520663395
 20
77.8842966875
 30
0.0
 11
133.2520663395
 21
77.4342966875
 31
0.0
 12
133.2520663395
 22
78.3342966875
 32
0.0
 13
133.2520663395
 23
78.3342966875
 33
0.0
  0
SOLID
  5
241
330
23D
100
AcDbEntity
  8
VERMASSUNG
100
AcDbTrace
 10
232.2520663395
 20
77.8842966875
 30
0.0
 11
229.2520663395
 21
78.3342966875
 31
0.0
 12
229.2520663395
 22
77.4342966875
 32
0.0
 13
229.2520663395
 23
77.4342966875
 33
0.0
  0
LINE
  5
242
330
23D
100
AcDbEntity
  8
VERMASSUNG
100
AcDbLine
 10
130.2520663395
 20
84.7543394934
 30
0.0
 11
130.2520663395
 21
76.8842966875
 31
0.0
  0
LINE
  5
243
330
23D
100
AcDbEntity
  8
VERMASSUNG
100
AcDbLine
 10
232.2520663395
 20
106.0781204767
 30
0.0
 11
232.2520663395
 21
76.8842966875
 31
0.0
  0
LINE
  5
244
330
23D
100
AcDbEntity
  8
VERMASSUNG
100
AcDbLine
 10
130.2520663395
 20
77.8842966875
 30
0.0
 11
232.2520663395
 21
77.8842966875
 31
0.0
  0
MTEXT
  5
245
330
23D
100
AcDbEntity
  8
VERMASSUNG
100
AcDbMText
 10
179.3520663074
 20
80.4624322834
 30
0.0
 40
2.0
 41
0.0
 71
     1
 72
     1
  1
102
  7
SLDTEXTSTYLE0
 73
     1
 44
1.0
  0
ENDBLK
  5
23F
330
23D
100
AcDbEntity
  8
0
100
AcDbBlockEnd
  0
BLOCK
  5
249
330
248
100
AcDbEntity
  8
0
100
AcDbBlockBegin
  2
_D_7
 70
     0
 10
0.0
 20
0.0
 30
0.0
  3
_D_7
  1

  0
SOLID
  5
24B
330
248
100
AcDbEntity
  8
VERMASSUNG
100
AcDbTrace
 10
181.4272473948
 20
85.1174916729
 30
0.0
 11
184.4272473948
 21
84.6674916729
 31
0.0
 12
184.4272473948
 22
85.5674916729
 32
0.0
 13
184.4272473948
 23
85.5674916729
 33
0.0
  0
SOLID
  5
24C
330
248
100
AcDbEntity
  8
VERMASSUNG
100
AcDbTrace
 10
232.2520663395
 20
85.1174916729
 30
0.0
 11
229.2520663395
 21
85.5674916729
 31
0.0
 12
229.2520663395
 22
84.6674916729
 32
0.0
 13
229.2520663395
 23
84.6674916729
 33
0.0
  0
LINE
  5
24D
330
248
100
AcDbEntity
  8
VERMASSUNG
100
AcDbLine
 10
181.4272473948
 20
100.2293394934
 30
0.0
 11
181.4272473948
 21
84.1174916729
 31
0.0
  0
LINE
  5
24E
330
248
100
AcDbEntity
  8
VERMASSUNG
100
AcDbLine
 10
232.2520663395
 20
106.0781204767
 30
0.0
 11
232.2520663395
 21
84.1174916729
 31
0.0
  0
LINE
  5
24F
330
248
100
AcDbEntity
  8
VERMASSUNG
100
AcDbLine
 10
181.4272473948
 20
85.1174916729
 30
0.0
 11
232.2520663395
 21
85.1174916729
 31
0.0
  0
MTEXT
  5
250
330
248
100
AcDbEntity
  8
VERMASSUNG
100
AcDbMText
 10
204.439656986
 20
87.6956272688
 30
0.0
 40
2.0
 41
0.0
 71
     1
 72
     1
  1
50.8
  7
SLDTEXTSTYLE0
 73
     1
 44
1.0
  0
ENDBLK
  5
24A
330
248
100
AcDbEntity
  8
0
100
AcDbBlockEnd
  0
BLOCK
  5
253
330
252
100
AcDbEntity
  8
0
100
AcDbBlockBegin
  2
_D_8
 70
     0
 10
0.0
 20
0.0
 30
0.0
  3
_D_8
  1

  0
SOLID
  5
255
330
252
100
AcDbEntity
  8
VERMASSUNG
100
AcDbTrace
 10
50.3020413395
 20
147.7043394934
 30
0.0
 11
49.8520413395
 21
144.7043394934
 31
0.0
 12
50.7520413395
 22
144.7043394934
 32
0.0
 13
50.7520413395
 23
144.7043394934
 33
0.0
  0
SOLID
  5
256
330
252
100
AcDbEntity
  8
VERMASSUNG
100
AcDbTrace
 10
50.3020413395
 20
84.7543394934
 30
0.0
 11
50.7520413395
 21
87.7543394934
 31
0.0
 12
49.8520413395
 22
87.7543394934
 32
0.0
 13
49.8520413395
 23
87.7543394934
 33
0.0
  0
LINE
  5
257
330
252
100
AcDbEntity
  8
VERMASSUNG
100
AcDbLine
 10
112.4520663395
 20
147.7043394934
 30
0.0
 11
49.3020413395
 21
147.7043394934
 31
0.0
  0
LINE
  5
258
330
252
100
AcDbEntity
  8
VERMASSUNG
100
AcDbLine
 10
112.4520663395
 20
84.7543394934
 30
0.0
 11
49.3020413395
 21
84.7543394934
 31
0.0
  0
LINE
  5
259
330
252
100
AcDbEntity
  8
VERMASSUNG
100
AcDbLine
 10
50.3020413395
 20
147.7043394934
 30
0.0
 11
50.3020413395
 21
84.7543394934
 31
0.0
  0
MTEXT
  5
25A
330
252
100
AcDbEntity
  8
VERMASSUNG
100
AcDbMText
 10
47.7239057435
 20
113.1293396372
 30
0.0
 40
2.0
 41
0.0
 71
     1
 72
     1
  1
62.95
  7
SLDTEXTSTYLE0
 11
-5.267838178243384E-15
 21
1.0
 31
0.0
 73
     1
 44
1.0
  0
ENDBLK
  5
254
330
252
100
AcDbEntity
  8
0
100
AcDbBlockEnd
  0
BLOCK
  5
25D
330
25C
100
AcDbEntity
  8
0
100
AcDbBlockBegin
  2
_D_9
 70
     0
 10
0.0
 20
0.0
 30
0.0
  3
_D_9
  1

  0
SOLID
  5
25F
330
25C
100
AcDbEntity
  8
VERMASSUNG
100
AcDbTrace
 10
112.2520663395
 20
161.5820897505
 30
0.0
 11
115.2520663395
 21
161.1320897505
 31
0.0
 12
115.2520663395
 22
162.0320897505
 32
0.0
 13
115.2520663395
 23
162.0320897505
 33
0.0
  0
SOLID
  5
260
330
25C
100
AcDbEntity
  8
VERMASSUNG
100
AcDbTrace
 10
232.2520663395
 20
161.5820897505
 30
0.0
 11
229.2520663395
 21
162.0320897505
 31
0.0
 12
229.2520663395
 22
161.1320897505
 32
0.0
 13
229.2520663395
 23
161.1320897505
 33
0.0
  0
LINE
  5
261
330
25C
100
AcDbEntity
  8
VERMASSUNG
100
AcDbLine
 10
112.2520663395
 20
147.5043394934
 30
0.0
 11
112.2520663395
 21
162.5820897505
 31
0.0
  0
LINE
  5
262
330
25C
100
AcDbEntity
  8
VERMASSUNG
100
AcDbLine
 10
232.2520663395
 20
126.3805585101
 30
0.0
 11
232.2520663395
 21
162.5820897505
 31
0.0
  0
LINE
  5
263
330
25C
100
AcDbEntity
  8
VERMASSUNG
100
AcDbLine
 10
112.2520663395
 20
161.5820897505
 30
0.0
 11
232.2520663395
 21
161.5820897505
 31
0.0
  0
MTEXT
  5
264
330
25C
100
AcDbEntity
  8
VERMASSUNG
100
AcDbMText
 10
170.3520663074
 20
164.1602253464
 30
0.0
 40
2.0
 41
0.0
 71
     1
 72
     1
  1
120
  7
SLDTEXTSTYLE0
 73
     1
 44
1.0
  0
ENDBLK
  5
25E
330
25C
100
AcDbEntity
  8
0
100
AcDbBlockEnd
  0
BLOCK
  5
267
330
266
100
AcDbEntity
  8
0
100
AcDbBlockBegin
  2
_D_10
 70
     0
 10
0.0
 20
0.0
 30
0.0
  3
_D_10
  1

  0
SOLID
  5
269
330
266
100
AcDbEntity
  8
VERMASSUNG
100
AcDbTrace
 10
72.3020663395
 20
168.5934699487
 30
0.0
 11
75.3020663395
 21
168.1434699487
 31
0.0
 12
75.3020663395
 22
169.0434699487
 32
0.0
 13
75.3020663395
 23
169.0434699487
 33
0.0
  0
SOLID
  5
26A
330
266
100
AcDbEntity
  8
VERMASSUNG
100
AcDbTrace
 10
232.2520663395
 20
168.5934699487
 30
0.0
 11
229.2520663395
 21
169.0434699487
 31
0.0
 12
229.2520663395
 22
168.1434699487
 32
0.0
 13
229.2520663395
 23
168.1434699487
 33
0.0
  0
LINE
  5
26B
330
266
100
AcDbEntity
  8
VERMASSUNG
100
AcDbLine
 10
72.3020663395
 20
138.4324342172
 30
0.0
 11
72.3020663395
 21
169.5934699487
 31
0.0
  0
LINE
  5
26C
330
266
100
AcDbEntity
  8
VERMASSUNG
100
AcDbLine
 10
232.2520663395
 20
126.3805585101
 30
0.0
 11
232.2520663395
 21
169.5934699487
 31
0.0
  0
LINE
  5
26D
330
266
100
AcDbEntity
  8
VERMASSUNG
100
AcDbLine
 10
72.3020663395
 20
168.5934699487
 30
0.0
 11
232.2520663395
 21
168.5934699487
 31
0.0
  0
MTEXT
  5
26E
330
266
100
AcDbEntity
  8
VERMASSUNG
100
AcDbMText
 10
148.6770664013
 20
171.1716055447
 30
0.0
 40
2.0
 41
0.0
 71
     1
 72
     1
  1
159.95
  7
SLDTEXTSTYLE0
 73
     1
 44
1.0
  0
ENDBLK
  5
268
330
266
100
AcDbEntity
  8
0
100
AcDbBlockEnd
  0
ENDSEC
  0
SECTION
  2
ENTITIES
  0
MTEXT
  5
78
330
1F
100
AcDbEntity
  8
KOPF_DÜNN
100
AcDbMText
 10
13.8892156294
 20
23.8442973028
 30
0.0
 40
3.0
 41
0.0
 71
     1
 72
     1
  1
KY6.S10.K01.120
  7
SLDTEXTSTYLE0
 73
     1
 44
1.0
  0
MTEXT
  5
79
330
1F
100
AcDbEntity
  8
VERMASSUNG
100
AcDbMText
 10
13.9329988022
 20
28.8834360957
 30
0.0
 40
3.0
 41
0.0
 71
     1
 72
     1
  1
Schrumpffutter_Heat shrink chuck
  7
SLDTEXTSTYLE0
 73
     1
 44
1.0
  0
MTEXT
  5
7A
330
1F
100
AcDbEntity
  8
VERMASSUNG
100
AcDbMText
 10
98.8601118557
 20
13.8365368761
 30
0.0
 40
2.0
 41
0.0
 71
     1
 72
     1
  1
Datum: 14.02.2018
  7
SLDTEXTSTYLE0
 73
     1
 44
1.0
  0
MTEXT
  5
7B
330
1F
100
AcDbEntity
  8
VERMASSUNG
100
AcDbMText
 10
13.933048693
 20
18.0482802738
 30
0.0
 40
2.0
 41
0.0
 71
     1
 72
     1
  1
KM63 XMZ / Ø10
  7
SLDTEXTSTYLE0
 73
     1
 44
1.0
  0
MTEXT
  5
7C
330
1F
100
AcDbEntity
  8
VERMASSUNG
100
AcDbMText
 10
13.9808475933
 20
13.9090974274
 30
0.0
 40
2.0
 41
0.0
 71
     1
 72
     1
  1
Gewicht: 1142g
  7
SLDTEXTSTYLE0
 73
     1
 44
1.0
  0
LINE
  5
7D
330
1F
100
AcDbEntity
  8
0
  6
Continuous
 62
     7
370
    25
100
AcDbLine
 10
340.1767112081
 20
115.8189902396
 30
0.0
 11
339.9924205149
 21
116.9588895188
 31
0.0
  0
LINE
  5
7E
330
1F
100
AcDbEntity
  8
0
  6
Continuous
 62
     7
370
    25
100
AcDbLine
 10
339.9924205149
 20
116.9588895188
 30
0.0
 11
338.9130934955
 21
117.3692387435
 31
0.0
  0
LINE
  5
7F
330
1F
100
AcDbEntity
  8
0
  6
Continuous
 62
     7
370
    25
100
AcDbLine
 10
338.9130934955
 20
117.3692387435
 30
0.0
 11
338.0180570529
 21
116.6396887472
 31
0.0
  0
LINE
  5
80
330
1F
100
AcDbEntity
  8
0
  6
Continuous
 62
     7
370
    25
100
AcDbLine
 10
338.0180570529
 20
116.6396887472
 30
0.0
 11
338.202347746
 21
115.499789468
 31
0.0
  0
LINE
  5
81
330
1F
100
AcDbEntity
  8
0
  6
Continuous
 62
     7
370
    25
100
AcDbLine
 10
338.202347746
 20
115.499789468
 30
0.0
 11
339.2816747654
 21
115.0894402433
 31
0.0
  0
LINE
  5
82
330
1F
100
AcDbEntity
  8
0
  6
Continuous
 62
     7
370
    25
100
AcDbLine
 10
339.2816747654
 20
115.0894402433
 30
0.0
 11
340.1767112081
 21
115.8189902396
 31
0.0
  0
ARC
  5
83
330
1F
100
AcDbEntity
  8
0
  6
Continuous
 62
     7
370
    25
100
AcDbCircle
 10
339.0973841305
 20
116.2293394934
 30
0.0
 40
1.000000000000004
100
AcDbArc
 50
129.18370128
 51
189.18370128
  0
ARC
  5
84
330
1F
100
AcDbEntity
  8
0
  6
Continuous
 62
     7
370
    25
100
AcDbCircle
 10
339.0973841305
 20
116.2293394934
 30
0.0
 40
1.000000000000004
100
AcDbArc
 50
309.18370128
 51
9.18370128
  0
ARC
  5
85
330
1F
100
AcDbEntity
  8
0
  6
Continuous
 62
     7
370
    25
100
AcDbCircle
 10
339.0973841305
 20
116.2293394934
 30
0.0
 40
1.000000000000002
100
AcDbArc
 50
249.18370128
 51
309.18370128
  0
ARC
  5
86
330
1F
100
AcDbEntity
  8
0
  6
Continuous
 62
     7
370
    25
100
AcDbCircle
 10
339.0973841305
 20
116.2293394934
 30
0.0
 40
1.000000000000004
100
AcDbArc
 50
189.18370128
 51
249.18370128
  0
ARC
  5
87
330
1F
100
AcDbEntity
  8
0
  6
Continuous
 62
     7
370
    25
100
AcDbCircle
 10
339.0973841305
 20
116.2293394934
 30
0.0
 40
1.000000000000004
100
AcDbArc
 50
9.18370128
 51
69.18370128
  0
ARC
  5
88
330
1F
100
AcDbEntity
  8
0
  6
Continuous
 62
     7
370
    25
100
AcDbCircle
 10
339.0973841305
 20
116.2293394934
 30
0.0
 40
1.0
100
AcDbArc
 50
69.18370128
 51
129.18370128
  0
SPLINE
  5
89
330
1F
100
AcDbEntity
  8
0
  6
Continuous
 62
     7
370
    25
100
AcDbSpline
210
0.0
220
0.0
230
1.0
 70
     8
 71
     3
 72
     8
 73
     4
 74
     0
 42
0.000000001
 43
0.00000001
 40
0.0
 40
0.0
 40
0.0
 40
0.0
 40
1.0
 40
1.0
 40
1.0
 40
1.0
 10
328.708244020834
 20
111.8593386214445
 30
0.0
 10
328.6394056506472
 20
111.7962439481256
 30
0.0
 10
328.5709742901911
 20
111.7325215699948
 30
0.0
 10
328.5029580155264
 20
111.6681761377214
 30
0.0
  0
SPLINE
  5
8A
330
1F
100
AcDbEntity
  8
0
  6
Continuous
 62
     7
370
    25
100
AcDbSpline
210
0.0
220
0.0
230
1.0
 70
     8
 71
     3
 72
     8
 73
     4
 74
     0
 42
0.000000001
 43
0.00000001
 40
0.0
 40
0.0
 40
0.0
 40
0.0
 40
1.0
 40
1.0
 40
1.0
 40
1.0
 10
328.9662712620947
 20
111.6900767915172
 30
0.0
 10
328.8795678279342
 20
111.7462377111864
 30
0.0
 10
328.7935697804504
 20
111.8026624475123
 30
0.0
 10
328.708244020834
 20
111.8593386214445
 30
0.0
  0
ARC
  5
8B
330
1F
100
AcDbEntity
  8
0
  6
Continuous
 62
     7
370
    25
100
AcDbCircle
 10
339.0973841305
 20
116.2293394934
 30
0.0
 40
11.10154736189901
100
AcDbArc
 50
204.1348482805
 51
335.8651517195
  0
SPLINE
  5
8C
330
1F
100
AcDbEntity
  8
0
  6
Continuous
 62
     7
370
    25
100
AcDbSpline
210
0.0
220
0.0
230
1.0
 70
     8
 71
     3
 72
     8
 73
     4
 74
     0
 42
0.000000001
 43
0.00000001
 40
0.0
 40
0.0
 40
0.0
 40
0.0
 40
1.0
 40
1.0
 40
1.0
 40
1.0
 10
349.4865242400998
 20
111.8593386214445
 30
0.0
 10
349.4011984804833
 20
111.8026624475123
 30
0.0
 10
349.3152004329995
 20
111.7462377111864
 30
0.0
 10
349.2284969988391
 20
111.6900767915172
 30
0.0
  0
SPLINE
  5
8D
330
1F
100
AcDbEntity
  8
0
  6
Continuous
 62
     7
370
    25
100
AcDbSpline
210
0.0
220
0.0
230
1.0
 70
     8
 71
     3
 72
     8
 73
     4
 74
     0
 42
0.000000001
 43
0.00000001
 40
0.0
 40
0.0
 40
0.0
 40
0.0
 40
1.0
 40
1.0
 40
1.0
 40
1.0
 10
349.6918102454073
 20
111.6681761377214
 30
0.0
 10
349.6237939707426
 20
111.7325215699948
 30
0.0
 10
349.5553626102865
 20
111.7962439481256
 30
0.0
 10
349.4865242400998
 20
111.8593386214445
 30
0.0
  0
ARC
  5
8E
330
1F
100
AcDbEntity
  8
0
  6
Continuous
 62
     7
370
    25
100
AcDbCircle
 10
339.0973841305
 20
116.2293394934
 30
0.0
 40
11.53456006379116
100
AcDbArc
 50
203.2930774359
 51
336.7074733161
  0
LINE
  5
8F
330
1F
100
AcDbEntity
  8
0
  6
Continuous
 62
     7
370
    25
100
AcDbLine
 10
329.1214506606
 20
121.5076385904
 30
0.0
 11
329.3298592324
 21
121.2593396101
 31
0.0
  0
SPLINE
  5
90
330
1F
100
AcDbEntity
  8
0
  6
Continuous
 62
     7
370
    25
100
AcDbSpline
210
0.0
220
0.0
230
1.0
 70
     8
 71
     3
 72
     8
 73
     4
 74
     0
 42
0.000000001
 43
0.00000001
 40
0.0
 40
0.0
 40
0.0
 40
0.0
 40
1.0
 40
1.0
 40
1.0
 40
1.0
 10
329.1214510811424
 20
121.5076387427986
 30
0.0
 10
329.2243469949664
 20
121.5696073518895
 30
0.0
 10
329.3281866645212
 20
121.6311860040301
 30
0.0
 10
329.4330245527478
 20
121.6923521953016
 30
0.0
  0
LINE
  5
91
330
1F
100
AcDbEntity
  8
0
  6
Continuous
 62
     7
370
    25
100
AcDbLine
 10
330.5800731758
 20
121.6923519876
 30
0.0
 11
329.433024628
 21
121.6923519876
 31
0.0
  0
SPLINE
  5
92
330
1F
100
AcDbEntity
  8
0
  6
Continuous
 62
     7
370
    25
100
AcDbSpline
210
0.0
220
0.0
230
1.0
 70
     8
 71
     3
 72
     8
 73
     4
 74
     0
 42
0.000000001
 43
0.00000001
 40
0.0000004089325119
 40
0.0000004089325119
 40
0.0000004089325119
 40
0.0000004089325119
 40
0.0015399868451459
 40
0.0015399868451459
 40
0.0015399868451459
 40
0.0015399868451459
 10
330.580072713038
 20
121.6923521953016
 30
0.0
 10
330.7918339718324
 20
121.6198973126482
 30
0.0
 10
331.0037542950226
 20
121.5475584426197
 30
0.0
 10
331.2158722782369
 20
121.4753648971938
 30
0.0
  0
LINE
  5
93
330
1F
100
AcDbEntity
  8
0
  6
Continuous
 62
     7
370
    25
100
AcDbLine
 10
331.2158721964
 20
121.4753650035
 30
0.0
 11
331.2240249942
 21
121.4601523149
 31
0.0
  0
LINE
  5
94
330
1F
100
AcDbEntity
  8
0
  6
Continuous
 62
     7
370
    25
100
AcDbLine
 10
331.2216547782
 20
121.2593396101
 30
0.0
 11
331.2240259255
 21
121.4601527806
 31
0.0
  0
LINE
  5
95
330
1F
100
AcDbEntity
  8
0
  6
Continuous
 62
     7
370
    25
100
AcDbLine
 10
331.2216547782
 20
121.2593396101
 30
0.0
 11
329.3298592324
 21
121.2593396101
 31
0.0
  0
ARC
  5
96
330
1F
100
AcDbEntity
  8
0
  6
Continuous
 62
     7
370
    25
100
AcDbCircle
 10
339.0973841305
 20
116.2293394934
 30
0.0
 40
11.10154736189899
100
AcDbArc
 50
29.4783538465
 51
150.5216461535
  0
SPLINE
  5
97
330
1F
100
AcDbEntity
  8
0
  6
Continuous
 62
     7
370
    25
100
AcDbSpline
210
0.0
220
0.0
230
1.0
 70
     8
 71
     3
 72
     8
 73
     4
 74
     0
 42
0.000000001
 43
0.00000001
 40
0.0
 40
0.0
 40
0.0
 40
0.0
 40
1.0
 40
1.0
 40
1.0
 40
1.0
 10
328.9329147000286
 20
121.6818285636682
 30
0.0
 10
328.9954830083981
 20
121.6233780945606
 30
0.0
 10
329.058329601762
 20
121.5653140840276
 30
0.0
 10
329.1214510811448
 20
121.5076387427964
 30
0.0
  0
ARC
  5
98
330
1F
100
AcDbEntity
  8
0
  6
Continuous
 62
     7
370
    25
100
AcDbCircle
 10
339.0973841305
 20
116.2293394934
 30
0.0
 40
11.53456006379122
100
AcDbArc
 50
28.2102805322
 51
151.7902347364
  0
SPLINE
  5
99
330
1F
100
AcDbEntity
  8
0
  6
Continuous
 62
     7
370
    25
100
AcDbSpline
210
0.0
220
0.0
230
1.0
 70
     8
 71
     3
 72
     8
 73
     4
 74
     0
 42
0.000000001
 43
0.00000001
 40
0.0
 40
0.0
 40
0.0
 40
0.0
 40
1.0
 40
1.0
 40
1.0
 40
1.0
 10
349.0733171797892
 20
121.5076387427967
 30
0.0
 10
349.136438659172
 20
121.5653140840278
 30
0.0
 10
349.1992852525357
 20
121.6233780945607
 30
0.0
 10
349.2618535609052
 20
121.6818285636682
 30
0.0
  0
SPLINE
  5
9A
330
1F
100
AcDbEntity
  8
0
  6
Continuous
 62
     7
370
    25
100
AcDbSpline
210
0.0
220
0.0
230
1.0
 70
     8
 71
     3
 72
     8
 73
     4
 74
     0
 42
0.000000001
 43
0.00000001
 40
0.0
 40
0.0
 40
0.0
 40
0.0
 40
1.0
 40
1.0
 40
1.0
 40
1.0
 10
348.761743708186
 20
121.6923521953016
 30
0.0
 10
348.8665815964122
 20
121.6311860040303
 30
0.0
 10
348.9704212659666
 20
121.56960735189
 30
0.0
 10
349.0733171797902
 20
121.5076387427993
 30
0.0
  0
SPLINE
  5
9B
330
1F
100
AcDbEntity
  8
0
  6
Continuous
 62
     7
370
    25
100
AcDbSpline
210
0.0
220
0.0
230
1.0
 70
     8
 71
     3
 72
     8
 73
     4
 74
     0
 42
0.000000001
 43
0.00000001
 40
0.0000004028655191
 40
0.0000004028655191
 40
0.0000004028655191
 40
0.0000004028655191
 40
0.0015137684369673
 40
0.0015137684369673
 40
0.0015137684369673
 40
0.0015137684369673
 10
330.6737894733248
 20
111.907064089625
 30
0.0
 10
330.4671179857735
 20
111.8347701479103
 30
0.0
 10
330.2604990172329
 20
111.7624386619535
 30
0.0
 10
330.0539226424242
 20
111.6900767915172
 30
0.0
  0
LINE
  5
9C
330
1F
100
AcDbEntity
  8
0
  6
Continuous
 62
     7
370
    25
100
AcDbLine
 10
330.0539224873
 20
111.69007699
 30
0.0
 11
328.9662708993
 21
111.69007699
 31
0.0
  0
LINE
  5
9D
330
1F
100
AcDbEntity
  8
0
  6
Continuous
 62
     7
370
    25
100
AcDbLine
 10
328.9312988053
 20
112.1230893675
 30
0.0
 11
328.7082442547
 21
111.8593388144
 31
0.0
  0
LINE
  5
9E
330
1F
100
AcDbEntity
  8
0
  6
Continuous
 62
     7
370
    25
100
AcDbLine
 10
330.698909005
 20
112.1230893675
 30
0.0
 11
328.9315139408
 21
112.1230893675
 31
0.0
  0
LINE
  5
9F
330
1F
100
AcDbEntity
  8
0
  6
Continuous
 62
     7
370
    25
100
AcDbLine
 10
330.7095661293
 20
111.9655086565
 30
0.0
 11
330.698909005
 21
112.1230893675
 31
0.0
  0
SPLINE
  5
A0
330
1F
100
AcDbEntity
  8
0
  6
Continuous
 62
     7
370
    25
100
AcDbSpline
210
0.0
220
0.0
230
1.0
 70
     8
 71
     3
 72
     8
 73
     4
 74
     0
 42
0.000000001
 43
0.00000001
 40
0.0006523765358268
 40
0.0006523765358268
 40
0.0006523765358268
 40
0.0006523765358268
 40
0.0009043636494504
 40
0.0009043636494504
 40
0.0009043636494504
 40
0.0009043636494504
 10
330.7106663483597
 20
111.9673021870736
 30
0.0
 10
330.6983493538422
 20
111.9472266060914
 30
0.0
 10
330.6860571564382
 20
111.927147217569
 30
0.0
 10
330.6737894733248
 20
111.907064089625
 30
0.0
  0
LINE
  5
A1
330
1F
100
AcDbEntity
  8
0
  6
Continuous
 62
     7
370
    25
100
AcDbLine
 10
349.4865240062
 20
111.8593388144
 30
0.0
 11
349.2634694556
 21
112.1230893675
 31
0.0
  0
LINE
  5
A2
330
1F
100
AcDbEntity
  8
0
  6
Continuous
 62
     7
370
    25
100
AcDbLine
 10
349.2284973616
 20
111.69007699
 30
0.0
 11
348.1408457736
 21
111.69007699
 31
0.0
  0
SPLINE
  5
A3
330
1F
100
AcDbEntity
  8
0
  6
Continuous
 62
     7
370
    25
100
AcDbSpline
210
0.0
220
0.0
230
1.0
 70
     8
 71
     3
 72
     8
 73
     4
 74
     0
 42
0.000000001
 43
0.00000001
 40
0.0000004024872366
 40
0.0000004024872366
 40
0.0000004024872366
 40
0.0000004024872366
 40
0.0015137680586847
 40
0.0015137680586847
 40
0.0015137680586847
 40
0.0015137680586847
 10
348.1408456185095
 20
111.6900767915172
 30
0.0
 10
347.9342692437008
 20
111.7624386619535
 30
0.0
 10
347.7276502751602
 20
111.8347701479103
 30
0.0
 10
347.520978787609
 20
111.907064089625
 30
0.0
  0
SPLINE
  5
A4
330
1F
100
AcDbEntity
  8
0
  6
Continuous
 62
     7
370
    25
100
AcDbSpline
210
0.0
220
0.0
230
1.0
 70
     8
 71
     3
 72
     8
 73
     4
 74
     0
 42
0.000000001
 43
0.00000001
 40
0.0000002414707367
 40
0.0000002414707367
 40
0.0000002414707367
 40
0.0000002414707367
 40
0.0002447240690309
 40
0.0002447240690309
 40
0.0002447240690309
 40
0.0002447240690309
 10
347.520978787609
 20
111.907064089625
 30
0.0
 10
347.5090764522538
 20
111.9265491155715
 30
0.0
 10
347.4971510410421
 20
111.9460306213959
 30
0.0
 10
347.4852022957472
 20
111.9655085449078
 30
0.0
  0
LINE
  5
A5
330
1F
100
AcDbEntity
  8
0
  6
Continuous
 62
     7
370
    25
100
AcDbLine
 10
347.4958592559
 20
112.1230893675
 30
0.0
 11
347.4852021317
 21
111.9655086565
 31
0.0
  0
LINE
  5
A6
330
1F
100
AcDbEntity
  8
0
  6
Continuous
 62
     7
370
    25
100
AcDbLine
 10
349.2634694556
 20
112.1230893675
 30
0.0
 11
347.4907509516
 21
112.1230893675
 31
0.0
  0
SPLINE
  5
A7
330
1F
100
AcDbEntity
  8
0
  6
Continuous
 62
     7
370
    25
100
AcDbSpline
210
0.0
220
0.0
230
1.0
 70
     8
 71
     3
 72
     8
 73
     4
 74
     0
 42
0.000000001
 43
0.00000001
 40
0.000000410413179
 40
0.000000410413179
 40
0.000000410413179
 40
0.000000410413179
 40
0.0015399883258131
 40
0.0015399883258131
 40
0.0015399883258131
 40
0.0015399883258131
 10
346.9788959826968
 20
121.4753648971938
 30
0.0
 10
347.1910139659111
 20
121.5475584426197
 30
0.0
 10
347.4029342891013
 20
121.6198973126482
 30
0.0
 10
347.6146955478957
 20
121.6923521953016
 30
0.0
  0
LINE
  5
A8
330
1F
100
AcDbEntity
  8
0
  6
Continuous
 62
     7
370
    25
100
AcDbLine
 10
348.761743633
 20
121.6923519876
 30
0.0
 11
347.6146950851
 21
121.6923519876
 31
0.0
  0
LINE
  5
A9
330
1F
100
AcDbEntity
  8
0
  6
Continuous
 62
     7
370
    25
100
AcDbLine
 10
348.8649090285
 20
121.2593396101
 30
0.0
 11
349.0733176003
 21
121.5076385904
 31
0.0
  0
LINE
  5
AA
330
1F
100
AcDbEntity
  8
0
  6
Continuous
 62
     7
370
    25
100
AcDbLine
 10
348.8647190387
 20
121.2593396101
 30
0.0
 11
346.9731134827
 21
121.2593396101
 31
0.0
  0
LINE
  5
AB
330
1F
100
AcDbEntity
  8
0
  6
Continuous
 62
     7
370
    25
100
AcDbLine
 10
346.9707423354
 20
121.4601523149
 30
0.0
 11
346.9731134827
 21
121.2593396101
 31
0.0
  0
LINE
  5
AC
330
1F
100
AcDbEntity
  8
0
  6
Continuous
 62
     7
370
    25
100
AcDbLine
 10
346.9707432668
 20
121.4601523149
 30
0.0
 11
346.9788960646
 21
121.4753650035
 31
0.0
  0
ARC
  5
AD
330
1F
100
AcDbEntity
  8
0
  6
Continuous
 62
     7
370
    25
100
AcDbCircle
 10
339.0973841305
 20
116.2293394934
 30
0.0
 40
10.11874999999998
100
AcDbArc
 50
32.6761561262
 51
147.3238438738
  0
ARC
  5
AE
330
1F
100
AcDbEntity
  8
0
  6
Continuous
 62
     7
370
    25
100
AcDbCircle
 10
339.0973841305
 20
116.2293394934
 30
0.0
 40
10.11875000000005
100
AcDbArc
 50
206.6538426687
 51
333.3461573313
  0
ARC
  5
AF
330
1F
100
AcDbEntity
  8
0
  6
Continuous
 62
     7
370
    25
100
AcDbCircle
 10
339.0973841305
 20
116.2293394934
 30
0.0
 40
9.467788105676684
100
AcDbArc
 50
33.6481949792
 51
146.3518050208
  0
ARC
  5
B0
330
1F
100
AcDbEntity
  8
0
  6
Continuous
 62
     7
370
    25
100
AcDbCircle
 10
339.0973841305
 20
116.2293394934
 30
0.0
 40
9.467788105676657
100
AcDbArc
 50
207.1630537883
 51
332.8369462117
  0
SPLINE
  5
B1
330
1F
100
AcDbEntity
  8
0
  6
Continuous
 62
     7
370
    25
100
AcDbSpline
210
0.0
220
0.0
230
1.0
 70
     8
 71
     3
 72
     8
 73
     4
 74
     0
 42
0.000000001
 43
0.00000001
 40
0.0
 40
0.0
 40
0.0
 40
0.0
 40
1.0
 40
1.0
 40
1.0
 40
1.0
 10
328.5029580153364
 20
111.6681761378327
 30
0.0
 10
328.4497151903947
 20
111.6686998640705
 30
0.0
 10
328.3964199047791
 20
111.6694979573329
 30
0.0
 10
328.3430743992896
 20
111.6705710052577
 30
0.0
  0
LINE
  5
B2
330
1F
100
AcDbEntity
  8
0
  6
Continuous
 62
     7
370
    25
100
AcDbLine
 10
328.7711616139
 20
112.1230893675
 30
0.0
 11
328.9312988053
 21
112.1230893675
 31
0.0
  0
LINE
  5
B3
330
1F
100
AcDbEntity
  8
0
  6
Continuous
 62
     7
370
    25
100
AcDbLine
 10
349.2634694556
 20
112.1230893675
 30
0.0
 11
349.4236066471
 21
112.1230893675
 31
0.0
  0
SPLINE
  5
B4
330
1F
100
AcDbEntity
  8
0
  6
Continuous
 62
     7
370
    25
100
AcDbSpline
210
0.0
220
0.0
230
1.0
 70
     8
 71
     3
 72
     8
 73
     4
 74
     0
 42
0.000000001
 43
0.00000001
 40
0.0
 40
0.0
 40
0.0
 40
0.0
 40
1.0
 40
1.0
 40
1.0
 40
1.0
 10
349.8516938616442
 20
111.6705710052577
 30
0.0
 10
349.7983483561547
 20
111.6694979573329
 30
0.0
 10
349.745053070539
 20
111.6686998640705
 30
0.0
 10
349.6918102455973
 20
111.6681761378327
 30
0.0
  0
LINE
  5
B5
330
1F
100
AcDbEntity
  8
0
  6
Continuous
 62
     7
370
    25
100
AcDbLine
 10
329.3298592324
 20
121.2593396101
 30
0.0
 11
329.2064422275
 21
121.2593396101
 31
0.0
  0
SPLINE
  5
B6
330
1F
100
AcDbEntity
  8
0
  6
Continuous
 62
     7
370
    25
100
AcDbSpline
210
0.0
220
0.0
230
1.0
 70
     8
 71
     3
 72
     8
 73
     4
 74
     0
 42
0.000000001
 43
0.00000001
 40
0.0
 40
0.0
 40
0.0
 40
0.0
 40
1.0
 40
1.0
 40
1.0
 40
1.0
 10
328.8096932057871
 20
121.6797850103458
 30
0.0
 10
328.8508086328289
 20
121.6806539479857
 30
0.0
 10
328.8918829274401
 20
121.6813349855686
 30
0.0
 10
328.9329146999291
 20
121.6818285636301
 30
0.0
  0
SPLINE
  5
B7
330
1F
100
AcDbEntity
  8
0
  6
Continuous
 62
     7
370
    25
100
AcDbSpline
210
0.0
220
0.0
230
1.0
 70
     8
 71
     3
 72
     8
 73
     4
 74
     0
 42
0.000000001
 43
0.00000001
 40
0.0
 40
0.0
 40
0.0
 40
0.0
 40
1.0
 40
1.0
 40
1.0
 40
1.0
 10
349.2618535610047
 20
121.6818285636301
 30
0.0
 10
349.3028853334937
 20
121.6813349855686
 30
0.0
 10
349.3439596281048
 20
121.6806539479858
 30
0.0
 10
349.3850750551466
 20
121.6797850103458
 30
0.0
  0
LINE
  5
B8
330
1F
100
AcDbEntity
  8
0
  6
Continuous
 62
     7
370
    25
100
AcDbLine
 10
348.9883260335
 20
121.2593396101
 30
0.0
 11
348.8649090285
 21
121.2593396101
 31
0.0
  0
SPLINE
  5
B9
330
1F
100
AcDbEntity
  8
0
  6
Continuous
 62
     7
370
    25
100
AcDbSpline
210
0.0
220
0.0
230
1.0
 70
     8
 71
     3
 72
     9
 73
     5
 74
     0
 42
0.000000001
 43
0.00000001
 40
0.0
 40
0.0
 40
0.0
 40
0.0
 40
0.4897878789203671
 40
1.0
 40
1.0
 40
1.0
 40
1.0
 10
346.2029736951182
 20
121.4524563596471
 30
0.0
 10
346.3293287773395
 20
121.4537750854004
 30
0.0
 10
346.5873079713116
 20
121.4564675280068
 30
0.0
 10
346.8412027196011
 20
121.4589076058427
 30
0.0
 10
346.9707428976569
 20
121.460152563131
 30
0.0
  0
ARC
  5
BA
330
1F
100
AcDbEntity
  8
0
  6
Continuous
 62
     7
370
    25
100
AcDbCircle
 10
339.0973841305
 20
116.2293394934
 30
0.0
 40
8.81875000000002
100
AcDbArc
 50
36.3185452201
 51
143.6814533294
  0
SPLINE
  5
BB
330
1F
100
AcDbEntity
  8
0
  6
Continuous
 62
     7
370
    25
100
AcDbSpline
210
0.0
220
0.0
230
1.0
 70
     8
 71
     3
 72
     9
 73
     5
 74
     0
 42
0.000000001
 43
0.00000001
 40
0.0
 40
0.0
 40
0.0
 40
0.0
 40
0.5102121239851032
 40
1.0
 40
1.0
 40
1.0
 40
1.0
 10
331.2240252621521
 20
121.4601527517353
 30
0.0
 10
331.3535654800029
 20
121.4589077930445
 30
0.0
 10
331.6074603048437
 20
121.4564677124734
 30
0.0
 10
331.8654395778534
 20
121.4537752667803
 30
0.0
 10
331.9917946980368
 20
121.4524565395229
 30
0.0
  0
SPLINE
  5
BC
330
1F
100
AcDbEntity
  8
0
  6
Continuous
 62
     7
370
    25
100
AcDbSpline
210
0.0
220
0.0
230
1.0
 70
     8
 71
     3
 72
     8
 73
     4
 74
     0
 42
0.000000001
 43
0.00000001
 40
0.0
 40
0.0
 40
0.0
 40
0.0
 40
1.0
 40
1.0
 40
1.0
 40
1.0
 10
331.9917944443621
 20
121.4524560702457
 30
0.0
 10
331.9840333864167
 20
121.4418978350466
 30
0.0
 10
331.9762958613208
 20
121.4313223015203
 30
0.0
 10
331.9685819459514
 20
121.4207295747409
 30
0.0
  0
SPLINE
  5
BD
330
1F
100
AcDbEntity
  8
0
  6
Continuous
 62
     7
370
    25
100
AcDbSpline
210
0.0
220
0.0
230
1.0
 70
     8
 71
     3
 72
     8
 73
     4
 74
     0
 42
0.000000001
 43
0.00000001
 40
0.0
 40
0.0
 40
0.0
 40
0.0
 40
1.0
 40
1.0
 40
1.0
 40
1.0
 10
331.7970241131883
 20
121.2593398322777
 30
0.0
 10
331.8542845202227
 20
121.3132480092654
 30
0.0
 10
331.9114709113325
 20
121.3670449343486
 30
0.0
 10
331.9685819459514
 20
121.4207295747409
 30
0.0
  0
LINE
  5
BE
330
1F
100
AcDbEntity
  8
0
  6
Continuous
 62
     7
370
    25
100
AcDbLine
 10
331.7970249335
 20
121.2593396101
 30
0.0
 11
331.2216547782
 21
121.2593396101
 31
0.0
  0
SPLINE
  5
BF
330
1F
100
AcDbEntity
  8
0
  6
Continuous
 62
     7
370
    25
100
AcDbSpline
210
0.0
220
0.0
230
1.0
 70
     8
 71
     3
 72
     8
 73
     4
 74
     0
 42
0.000000001
 43
0.00000001
 40
0.0
 40
0.0
 40
0.0
 40
0.0
 40
1.0
 40
1.0
 40
1.0
 40
1.0
 10
346.2263017467635
 20
121.420571060442
 30
0.0
 10
346.2185496340629
 20
121.4312167371146
 30
0.0
 10
346.2107736753956
 20
121.4418450493088
 30
0.0
 10
346.2029739487922
 20
121.4524558903712
 30
0.0
  0
LINE
  5
C0
330
1F
100
AcDbEntity
  8
0
  6
Continuous
 62
     7
370
    25
100
AcDbLine
 10
346.9731134827
 20
121.2593396101
 30
0.0
 11
346.3977149221
 21
121.2593396101
 31
0.0
  0
SPLINE
  5
C1
330
1F
100
AcDbEntity
  8
0
  6
Continuous
 62
     7
370
    25
100
AcDbSpline
210
0.0
220
0.0
230
1.0
 70
     8
 71
     3
 72
     8
 73
     4
 74
     0
 42
0.000000001
 43
0.00000001
 40
0.0
 40
0.0
 40
0.0
 40
0.0
 40
1.0
 40
1.0
 40
1.0
 40
1.0
 10
346.2263017467635
 20
121.420571060442
 30
0.0
 10
346.2833648744495
 20
121.3669391100263
 30
0.0
 10
346.3405032541799
 20
121.3131950236613
 30
0.0
 10
346.3977155476537
 20
121.2593398324111
 30
0.0
  0
ARC
  5
C2
330
1F
100
AcDbEntity
  8
0
  6
Continuous
 62
     7
370
    25
100
AcDbCircle
 10
339.0973841305
 20
116.2293394934
 30
0.0
 40
8.818750000000039
100
AcDbArc
 50
209.2047569376
 51
330.7952430624
  0
SPLINE
  5
C3
330
1F
100
AcDbEntity
  8
0
  6
Continuous
 62
     7
370
    25
100
AcDbSpline
210
0.0
220
0.0
230
1.0
 70
    24
 71
     3
 72
     8
 73
     4
 74
     0
 42
0.000000001
 43
0.00000001
 40
0.0
 40
0.0
 40
0.0
 40
0.0
 40
0.000136040218399
 40
0.000136040218399
 40
0.000136040218399
 40
0.000136040218399
 10
346.8385195273112
 20
111.9697990625582
 30
0.0
 10
346.8240805276271
 20
111.9553600628741
 30
0.0
 10
346.8096100752649
 20
111.9408896105119
 30
0.0
 10
346.7951084767134
 20
111.9263880119605
 30
0.0
  0
SPLINE
  5
C4
330
1F
100
AcDbEntity
  8
0
  6
Continuous
 62
     7
370
    25
100
AcDbSpline
210
0.0
220
0.0
230
1.0
 70
     8
 71
     3
 72
     9
 73
     5
 74
     0
 42
0.000000001
 43
0.00000001
 40
0.0
 40
0.0
 40
0.0
 40
0.0
 40
0.5086448740972567
 40
1.0
 40
1.0
 40
1.0
 40
1.0
 10
347.4852022560675
 20
111.9655084567731
 30
0.0
 10
347.3760362070697
 20
111.9662023056181
 30
0.0
 10
347.1614148581538
 20
111.967566418146
 30
0.0
 10
346.9449035454764
 20
111.9690632380838
 30
0.0
 10
346.8385196021765
 20
111.9697987082329
 30
0.0
  0
SPLINE
  5
C5
330
1F
100
AcDbEntity
  8
0
  6
Continuous
 62
     7
370
    25
100
AcDbSpline
210
0.0
220
0.0
230
1.0
 70
     8
 71
     3
 72
     9
 73
     5
 74
     0
 42
0.000000001
 43
0.00000001
 40
0.0
 40
0.0
 40
0.0
 40
0.0
 40
0.4913551252639729
 40
1.0
 40
1.0
 40
1.0
 40
1.0
 10
331.3562486892217
 20
111.9697986777683
 30
0.0
 10
331.2498647378297
 20
111.9690632074394
 30
0.0
 10
331.033353408402
 20
111.9675663871337
 30
0.0
 10
330.8187320430352
 20
111.9662022742794
 30
0.0
 10
330.7095659855325
 20
111.9655084252675
 30
0.0
  0
SPLINE
  5
C6
330
1F
100
AcDbEntity
  8
0
  6
Continuous
 62
     7
370
    25
100
AcDbSpline
210
0.0
220
0.0
230
1.0
 70
    24
 71
     3
 72
     8
 73
     4
 74
     0
 42
0.000000001
 43
0.00000001
 40
0.0
 40
0.0
 40
0.0
 40
0.0
 40
0.000136040122724
 40
0.000136040122724
 40
0.000136040122724
 40
0.000136040122724
 10
331.3996597842204
 20
111.9263880119605
 30
0.0
 10
331.3851581958677
 20
111.9408896003131
 30
0.0
 10
331.3706877536605
 20
111.9553600425204
 30
0.0
 10
331.3562487640871
 20
111.9697990320937
 30
0.0
  0
LINE
  5
C7
330
1F
100
AcDbEntity
  8
0
  6
Continuous
 62
     7
370
    25
100
AcDbLine
 10
330.698909005
 20
112.1230893675
 30
0.0
 11
331.2029584775
 21
112.1230893675
 31
0.0
  0
SPLINE
  5
C8
330
1F
100
AcDbEntity
  8
0
  6
Continuous
 62
     7
370
    25
100
AcDbSpline
210
0.0
220
0.0
230
1.0
 70
     8
 71
     3
 72
     8
 73
     4
 74
     0
 42
0.000000001
 43
0.00000001
 40
0.0
 40
0.0
 40
0.0
 40
0.0
 40
1.0
 40
1.0
 40
1.0
 40
1.0
 10
331.356248963919
 20
111.9697988325066
 30
0.0
 10
331.3051802013146
 20
112.0208413242507
 30
0.0
 10
331.2540832416786
 20
112.0719382962766
 30
0.0
 10
331.202958400163
 20
112.1230893960178
 30
0.0
  0
SPLINE
  5
C9
330
1F
100
AcDbEntity
  8
0
  6
Continuous
 62
     7
370
    25
100
AcDbSpline
210
0.0
220
0.0
230
1.0
 70
     8
 71
     3
 72
     8
 73
     4
 74
     0
 42
0.000000001
 43
0.00000001
 40
0.0
 40
0.0
 40
0.0
 40
0.0
 40
1.0
 40
1.0
 40
1.0
 40
1.0
 10
346.9918098607708
 20
112.1230893960179
 30
0.0
 10
346.9406850294256
 20
112.0719383064626
 30
0.0
 10
346.8895880799446
 20
112.0208413445916
 30
0.0
 10
346.8385193274793
 20
111.9697988629712
 30
0.0
  0
LINE
  5
CA
330
1F
100
AcDbEntity
  8
0
  6
Continuous
 62
     7
370
    25
100
AcDbLine
 10
346.9918097834
 20
112.1230893675
 30
0.0
 11
347.4958592559
 21
112.1230893675
 31
0.0
  0
CIRCLE
  5
CB
330
1F
100
AcDbEntity
  8
0
  6
Continuous
 62
     7
370
    25
100
AcDbCircle
 10
339.0973841305
 20
116.2293394934
 30
0.0
 40
12.47086902276419
  0
SPLINE
  5
CC
330
1F
100
AcDbEntity
  8
0
  6
Continuous
 62
     7
370
    25
100
AcDbSpline
210
0.0
220
0.0
230
1.0
 70
     8
 71
     3
 72
    23
 73
    19
 74
     0
 42
0.000000001
 43
0.00000001
 40
0.0
 40
0.0
 40
0.0
 40
0.0
 40
0.0521036415683759
 40
0.1035646240941235
 40
0.1544751946756683
 40
0.2049306267495642
 40
0.2550287880866983
 40
0.3048696389163111
 40
0.354554670462894
 40
0.4041862979539558
 40
0.453867225213789
 40
0.5036997999428097
 40
0.590187023078111
 40
0.6742716378282376
 40
0.7565997087281883
 40
0.8378563983773627
 40
0.9187511781400207
 40
0.9999999999999999
 40
0.9999999999999999
 40
0.9999999999999999
 40
0.9999999999999999
 10
328.2581319838094
 20
120.7197502061593
 30
0.0
 10
328.2714263387595
 20
120.7489180993216
 30
0.0
 10
328.2978510728382
 20
120.8068941217271
 30
0.0
 10
328.3370620790628
 20
120.8897934227409
 30
0.0
 10
328.3755040338691
 20
120.9689754037597
 30
0.0
 10
328.4130916153362
 20
121.0442302205624
 30
0.0
 10
328.4497475016439
 20
121.1156498748204
 30
0.0
 10
328.4853973657024
 20
121.1832464836017
 30
0.0
 10
328.5199711124633
 20
121.2470528050655
 30
0.0
 10
328.5534028064188
 20
121.3070963471334
 30
0.0
 10
328.5856296836429
 20
121.3634030438583
 30
0.0
 10
328.624131120532
 20
121.4288080256804
 30
0.0
 10
328.666792601245
 20
121.4983691035153
 30
0.0
 10
328.7102856433683
 20
121.5651286001799
 30
0.0
 10
328.7466981401964
 20
121.6168526482777
 30
0.0
 10
328.7755989466736
 20
121.6533009603297
 30
0.0
 10
328.7975164027716
 20
121.675898357213
 30
0.0
 10
328.8056283672647
 20
121.6784875747745
 30
0.0
 10
328.8096932057871
 20
121.6797850103458
 30
0.0
  0
SPLINE
  5
CD
330
1F
100
AcDbEntity
  8
0
  6
Continuous
 62
     7
370
    25
100
AcDbSpline
210
0.0
220
0.0
230
1.0
 70
     8
 71
     3
 72
     8
 73
     4
 74
     0
 42
0.000000001
 43
0.00000001
 40
0.0
 40
0.0
 40
0.0
 40
0.0
 40
1.0
 40
1.0
 40
1.0
 40
1.0
 10
328.1374940439463
 20
120.7175398487495
 30
0.0
 10
328.1776830575394
 20
120.718270158967
 30
0.0
 10
328.2178453596295
 20
120.7188506847965
 30
0.0
 10
328.2579800701051
 20
120.7192816497463
 30
0.0
  0
SPLINE
  5
CE
330
1F
100
AcDbEntity
  8
0
  6
Continuous
 62
     7
370
    25
100
AcDbSpline
210
0.0
220
0.0
230
1.0
 70
     8
 71
     3
 72
    18
 73
    14
 74
     0
 42
0.000000001
 43
0.00000001
 40
0.0
 40
0.0
 40
0.0
 40
0.0
 40
0.0923824559461122
 40
0.1844689291660427
 40
0.2764953616062392
 40
0.3686975365619641
 40
0.4613092840130473
 40
0.5545607518559533
 40
0.6486768051632873
 40
0.7438756050210469
 40
0.8403674044324065
 40
0.9203921078135461
 40
1.0
 40
1.0
 40
1.0
 40
1.0
 10
328.1904330327461
 20
120.9843568556313
 30
0.0
 10
328.1922686863988
 20
120.9841485434161
 30
0.0
 10
328.195934112482
 20
120.983732586394
 30
0.0
 10
328.1987294421014
 20
120.976928162928
 30
0.0
 10
328.1995317371801
 20
120.9655947842759
 30
0.0
 10
328.198165600137
 20
120.9492943892493
 30
0.0
 10
328.1947040515082
 20
120.9281431504135
 30
0.0
 10
328.1891627457387
 20
120.902107449297
 30
0.0
 10
328.1815782776696
 20
120.8711830696458
 30
0.0
 10
328.1720012757326
 20
120.8353840382011
 30
0.0
 10
328.1611607997132
 20
120.7971331306692
 30
0.0
 10
328.1496721587739
 20
120.7579149172742
 30
0.0
 10
328.1415721738957
 20
120.7310599404246
 30
0.0
 10
328.1375327562529
 20
120.7176675120543
 30
0.0
  0
LINE
  5
CF
330
1F
100
AcDbEntity
  8
0
  6
Continuous
 62
     7
370
    25
100
AcDbLine
 10
328.1376778613
 20
120.983608989
 30
0.0
 11
328.1904326285
 21
120.984356841
 31
0.0
  0
SPLINE
  5
D0
330
1F
100
AcDbEntity
  8
0
  6
Continuous
 62
     7
370
    25
100
AcDbSpline
210
0.0
220
0.0
230
1.0
 70
     8
 71
     3
 72
    25
 73
    21
 74
     0
 42
0.000000001
 43
0.00000001
 40
0.0
 40
0.0
 40
0.0
 40
0.0
 40
0.0280105225426455
 40
0.0559601148860774
 40
0.0839014045043129
 40
0.1118870776786379
 40
0.1399695827588941
 40
0.1682008401739877
 40
0.1966319670424218
 40
0.2253130233141493
 40
0.2542927850735863
 40
0.3799486436570518
 40
0.505785022166658
 40
0.6313085886329272
 40
0.7532068238012843
 40
0.8039473267959846
 40
0.8535894438560211
 40
0.902533972239985
 40
0.9511970353794947
 40
1.0
 40
1.0
 40
1.0
 40
1.0
 10
327.2267162656932
 20
118.4166772359438
 30
0.0
 10
327.2336953356041
 20
118.4539872494505
 30
0.0
 10
327.2476382941269
 20
118.5285261174441
 30
0.0
 10
327.2701601915699
 20
118.6398351629273
 30
0.0
 10
327.2937938036674
 20
118.7504973719417
 30
0.0
 10
327.3186433941554
 20
118.860481504886
 30
0.0
 10
327.3446620186417
 20
118.9697766485006
 30
0.0
 10
327.3718433999596
 20
119.0783676177027
 30
0.0
 10
327.400169041292
 20
119.1862383276451
 30
0.0
 10
327.4296278221246
 20
119.2933832733701
 30
0.0
 10
327.4940361100361
 20
119.51755815988
 30
0.0
 10
327.5991378021077
 20
119.8442235739152
 30
0.0
 10
327.7446005629037
 20
120.2301701792354
 30
0.0
 10
327.8838639710149
 20
120.5522499919294
 30
0.0
 10
327.9810123238821
 20
120.7480705759597
 30
0.0
 10
328.0413077301084
 20
120.8574180264429
 30
0.0
 10
328.0761963129897
 20
120.9153460508583
 30
0.0
 10
328.1040908149175
 20
120.9558000036233
 30
0.0
 10
328.1254559072892
 20
120.9804142190224
 30
0.0
 10
328.1335998548618
 20
120.98254314653
 30
0.0
 10
328.1376776735068
 20
120.9836091382015
 30
0.0
  0
ARC
  5
D1
330
1F
100
AcDbEntity
  8
0
  6
Continuous
 62
     7
370
    25
100
AcDbCircle
 10
339.0973841305
 20
116.2293394934
 30
0.0
 40
12.07050959801147
100
AcDbArc
 50
169.5595567507
 51
190.4404432494
  0
SPLINE
  5
D2
330
1F
100
AcDbEntity
  8
0
  6
Continuous
 62
     7
370
    25
100
AcDbSpline
210
0.0
220
0.0
230
1.0
 70
     8
 71
     3
 72
    26
 73
    22
 74
     0
 42
0.000000001
 43
0.00000001
 40
0.0
 40
0.0
 40
0.0
 40
0.0
 40
0.0241259796963637
 40
0.048215991227299
 40
0.0723203915124064
 40
0.0964895678710793
 40
0.120773623196351
 40
0.1452220711242841
 40
0.1698835501657706
 40
0.1948055644472381
 40
0.2200342569517629
 40
0.2456142191611394
 40
0.3690971486901671
 40
0.4940698769485191
 40
0.6192566784762444
 40
0.7454656653603234
 40
0.7971495824713715
 40
0.8481710308405401
 40
0.8988013269235245
 40
0.9493179290492194
 40
1.0
 40
1.0
 40
1.0
 40
1.0
 10
328.1376776735068
 20
111.4750698486173
 30
0.0
 10
328.1357673587664
 20
111.4753567418068
 30
0.0
 10
328.1319495772742
 20
111.4759301004715
 30
0.0
 10
328.1239894520933
 20
111.481988788718
 30
0.0
 10
328.1144103515178
 20
111.4918680494488
 30
0.0
 10
328.1030631446492
 20
111.5059491405592
 30
0.0
 10
328.0900069613552
 20
111.5241446885833
 30
0.0
 10
328.0752510581279
 20
111.5464952313221
 30
0.0
 10
328.0588238778306
 20
111.5730094670141
 30
0.0
 10
328.0407557231104
 20
111.6037049777274
 30
0.0
 10
328.0210785766873
 20
111.6386060809673
 30
0.0
 10
327.9728791952591
 20
111.727370616075
 30
0.0
 10
327.8845611558237
 20
111.9046509175238
 30
0.0
 10
327.7455015390569
 20
112.225736824369
 30
0.0
 10
327.5998288591948
 20
112.6123194762594
 30
0.0
 10
327.4860902641853
 20
112.9660271803894
 30
0.0
 10
327.4063846456388
 20
113.2482808800021
 30
0.0
 10
327.3557350732844
 20
113.4427243107765
 30
0.0
 10
327.3087684034191
 20
113.6399656877106
 30
0.0
 10
327.2652085814147
 20
113.8398687328057
 30
0.0
 10
327.2395610162832
 20
113.9745506725379
 30
0.0
 10
327.2267162656932
 20
114.0420017508751
 30
0.0
  0
LINE
  5
D3
330
1F
100
AcDbEntity
  8
0
  6
Continuous
 62
     7
370
    25
100
AcDbLine
 10
328.1904326285
 20
111.4743221458
 30
0.0
 11
328.1376778613
 21
111.4750699978
 31
0.0
  0
SPLINE
  5
D4
330
1F
100
AcDbEntity
  8
0
  6
Continuous
 62
     7
370
    25
100
AcDbSpline
210
0.0
220
0.0
230
1.0
 70
     8
 71
     3
 72
    14
 73
    10
 74
     0
 42
0.000000001
 43
0.00000001
 40
0.0
 40
0.0
 40
0.0
 40
0.0
 40
0.0789261963152472
 40
0.1582328720511064
 40
0.3308475394503796
 40
0.5000195457530386
 40
0.6670357883499396
 40
0.8332395193610692
 40
1.0
 40
1.0
 40
1.0
 40
1.0
 10
328.1374361758938
 20
111.7413456084928
 30
0.0
 10
328.1414507224898
 20
111.7280424838554
 30
0.0
 10
328.1494991686019
 20
111.7013721042233
 30
0.0
 10
328.1643998754116
 20
111.6505573649032
 30
0.0
 10
328.1802968570086
 20
111.5935175487157
 30
0.0
 10
328.1933753520066
 20
111.5392143319875
 30
0.0
 10
328.1996079591239
 20
111.5010471892645
 30
0.0
 10
328.1994183792868
 20
111.4776384605876
 30
0.0
 10
328.1934314851559
 20
111.4754288059091
 30
0.0
 10
328.1904330327461
 20
111.4743221311875
 30
0.0
  0
SPLINE
  5
D5
330
1F
100
AcDbEntity
  8
0
  6
Continuous
 62
     7
370
    25
100
AcDbSpline
210
0.0
220
0.0
230
1.0
 70
     8
 71
     3
 72
     8
 73
     4
 74
     0
 42
0.000000001
 43
0.00000001
 40
0.0
 40
0.0
 40
0.0
 40
0.0
 40
1.0
 40
1.0
 40
1.0
 40
1.0
 10
328.2847408671187
 20
111.7392845300417
 30
0.0
 10
328.2356729520899
 20
111.7397715832536
 30
0.0
 10
328.186563514569
 20
111.7404826511285
 30
0.0
 10
328.1374141700436
 20
111.7414181443628
 30
0.0
  0
SPLINE
  5
D6
330
1F
100
AcDbEntity
  8
0
  6
Continuous
 62
     7
370
    25
100
AcDbSpline
210
0.0
220
0.0
230
1.0
 70
     8
 71
     3
 72
    13
 73
     9
 74
     0
 42
0.000000001
 43
0.00000001
 40
0.0
 40
0.0
 40
0.0
 40
0.0
 40
0.1667030582307959
 40
0.3329480818053031
 40
0.4990671507274871
 40
0.6653938523718408
 40
0.8322612710550125
 40
1.0
 40
1.0
 40
1.0
 40
1.0
 10
328.3430743992896
 20
111.6705710052577
 30
0.0
 10
328.3412310854527
 20
111.6709881150235
 30
0.0
 10
328.3375495224828
 20
111.6718211885009
 30
0.0
 10
328.3300322686883
 20
111.6778356673273
 30
0.0
 10
328.3210814645718
 20
111.6873303996195
 30
0.0
 10
328.3105311761489
 20
111.7007400067292
 30
0.0
 10
328.2985579906318
 20
111.7176579103527
 30
0.0
 10
328.2893515830254
 20
111.7320706454922
 30
0.0
 10
328.2847363925366
 20
111.7392957783537
 30
0.0
  0
SPLINE
  5
D7
330
1F
100
AcDbEntity
  8
0
  6
Continuous
 62
     7
370
    25
100
AcDbSpline
210
0.0
220
0.0
230
1.0
 70
     8
 71
     3
 72
    13
 73
     9
 74
     0
 42
0.000000001
 43
0.00000001
 40
0.0
 40
0.0
 40
0.0
 40
0.0
 40
0.1686319999748108
 40
0.3360343310905541
 40
0.5025367825908723
 40
0.6684737453788424
 40
0.8341822636915195
 40
1.0
 40
1.0
 40
1.0
 40
1.0
 10
349.9100332495152
 20
111.7392992281666
 30
0.0
 10
349.905396004417
 20
111.7320420681471
 30
0.0
 10
349.8961553291305
 20
111.7175806675048
 30
0.0
 10
349.8841399557635
 20
111.7005999708007
 30
0.0
 10
349.8735744020089
 20
111.6871671896212
 30
0.0
 10
349.8646350527159
 20
111.6776877210673
 30
0.0
 10
349.8571541721274
 20
111.6717224953694
 30
0.0
 10
349.8535143648379
 20
111.670954919585
 30
0.0
 10
349.8516938616442
 20
111.6705710052577
 30
0.0
  0
SPLINE
  5
D8
330
1F
100
AcDbEntity
  8
0
  6
Continuous
 62
     7
370
    25
100
AcDbSpline
210
0.0
220
0.0
230
1.0
 70
     8
 71
     3
 72
     8
 73
     4
 74
     0
 42
0.000000001
 43
0.00000001
 40
0.0
 40
0.0
 40
0.0
 40
0.0
 40
1.0
 40
1.0
 40
1.0
 40
1.0
 10
350.0573588614878
 20
111.7414182491093
 30
0.0
 10
350.0082079318796
 20
111.7404827188473
 30
0.0
 10
349.9590969118001
 20
111.7397716283352
 30
0.0
 10
349.9100274168923
 20
111.7392845668372
 30
0.0
  0
SPLINE
  5
D9
330
1F
100
AcDbEntity
  8
0
  6
Continuous
 62
     7
370
    25
100
AcDbSpline
210
0.0
220
0.0
230
1.0
 70
     8
 71
     3
 72
    18
 73
    14
 74
     0
 42
0.000000001
 43
0.00000001
 40
0.0
 40
0.0
 40
0.0
 40
0.0
 40
0.0923325137151694
 40
0.1843692047134009
 40
0.2763458873902312
 40
0.368498217575762
 40
0.4610598988406411
 40
0.5542609546627003
 40
0.6483261285518087
 40
0.743473463655427
 40
0.8399130993133287
 40
0.9201660718313618
 40
1.0
 40
1.0
 40
1.0
 40
1.0
 10
350.0043352281877
 20
111.4743221311874
 30
0.0
 10
350.0024995745351
 20
111.4745304434033
 30
0.0
 10
349.9988341484524
 20
111.4749464004265
 30
0.0
 10
349.9960388188299
 20
111.4817508238838
 30
0.0
 10
349.995236523763
 20
111.4930842025695
 30
0.0
 10
349.9966026607621
 20
111.5093845974699
 30
0.0
 10
350.0000642095562
 20
111.53053583678
 30
0.0
 10
350.0056055147026
 20
111.5565715361076
 30
0.0
 10
350.0131899851301
 20
111.5874959225303
 30
0.0
 10
350.0227669781106
 20
111.6232949282583
 30
0.0
 10
350.0336183251369
 20
111.6615841733728
 30
0.0
 10
350.0451330867692
 20
111.7008897977898
 30
0.0
 10
350.0532647955903
 20
111.7278468756834
 30
0.0
 10
350.057320007198
 20
111.7412901331327
 30
0.0
  0
LINE
  5
DA
330
1F
100
AcDbEntity
  8
0
  6
Continuous
 62
     7
370
    25
100
AcDbLine
 10
350.0570903997
 20
111.4750699978
 30
0.0
 11
350.0043356324
 21
111.4743221458
 31
0.0
  0
SPLINE
  5
DB
330
1F
100
AcDbEntity
  8
0
  6
Continuous
 62
     7
370
    25
100
AcDbSpline
210
0.0
220
0.0
230
1.0
 70
     8
 71
     3
 72
    25
 73
    21
 74
     0
 42
0.000000001
 43
0.00000001
 40
0.0
 40
0.0
 40
0.0
 40
0.0
 40
0.0280105225425618
 40
0.0559601148859273
 40
0.0839014045041196
 40
0.1118870776784247
 40
0.1399695827586811
 40
0.1682008401737953
 40
0.1966319670422708
 40
0.2253130233140565
 40
0.2542927850735732
 40
0.3799486436574536
 40
0.5057850221666685
 40
0.6313085886327393
 40
0.7532068238012419
 40
0.803947326795536
 40
0.8535894438553622
 40
0.9025339722393254
 40
0.951197035379054
 40
1.0
 40
1.0
 40
1.0
 40
1.0
 10
350.9680519952406
 20
114.0420017508751
 30
0.0
 10
350.9610729253296
 20
114.0046917373685
 30
0.0
 10
350.9471299668069
 20
113.9301528693751
 30
0.0
 10
350.9246080693641
 20
113.8188438238921
 30
0.0
 10
350.9009744572666
 20
113.7081816148778
 30
0.0
 10
350.8761248667785
 20
113.5981974819336
 30
0.0
 10
350.8501062422923
 20
113.4889023383191
 30
0.0
 10
350.8229248609744
 20
113.3803113691168
 30
0.0
 10
350.7945992196418
 20
113.2724406591743
 30
0.0
 10
350.7651404388092
 20
113.1652957134491
 30
0.0
 10
350.7007321508975
 20
112.9411208269384
 30
0.0
 10
350.5956304588257
 20
112.6144554129027
 30
0.0
 10
350.4501676980299
 20
112.2285088075832
 30
0.0
 10
350.3109042899193
 20
111.9064289948907
 30
0.0
 10
350.213755937052
 20
111.7106084108598
 30
0.0
 10
350.1534605308254
 20
111.6012609603757
 30
0.0
 10
350.1185719479441
 20
111.5433329359604
 30
0.0
 10
350.0906774460163
 20
111.5028789831954
 30
0.0
 10
350.0693123536446
 20
111.4782647677964
 30
0.0
 10
350.061168406072
 20
111.4761358402887
 30
0.0
 10
350.0570905874269
 20
111.4750698486173
 30
0.0
  0
ARC
  5
DC
330
1F
100
AcDbEntity
  8
0
  6
Continuous
 62
     7
370
    25
100
AcDbCircle
 10
339.0973841305
 20
116.2293394934
 30
0.0
 40
12.07050959801141
100
AcDbArc
 50
349.5595567507
 51
10.4404432493
  0
SPLINE
  5
DD
330
1F
100
AcDbEntity
  8
0
  6
Continuous
 62
     7
370
    25
100
AcDbSpline
210
0.0
220
0.0
230
1.0
 70
     8
 71
     3
 72
    26
 73
    22
 74
     0
 42
0.000000001
 43
0.00000001
 40
0.0
 40
0.0
 40
0.0
 40
0.0
 40
0.0241259796962594
 40
0.0482159912271147
 40
0.0723203915121655
 40
0.0964895678708044
 40
0.1207736231960655
 40
0.1452220711240092
 40
0.1698835501655297
 40
0.1948055644470513
 40
0.2200342569516523
 40
0.2456142191611222
 40
0.3690971486898452
 40
0.4940698769485167
 40
0.6192566784763793
 40
0.7454656653603262
 40
0.7971495824714568
 40
0.8481710308406679
 40
0.8988013269236526
 40
0.9493179290493045
 40
1.0
 40
1.0
 40
1.0
 40
1.0
 10
350.0570905874269
 20
120.9836091382015
 30
0.0
 10
350.0590009021673
 20
120.983322245012
 30
0.0
 10
350.0628186836595
 20
120.9827488863473
 30
0.0
 10
350.0707788088404
 20
120.9766901981009
 30
0.0
 10
350.0803579094159
 20
120.96681093737
 30
0.0
 10
350.0917051162845
 20
120.9527298462596
 30
0.0
 10
350.1047612995784
 20
120.9345342982354
 30
0.0
 10
350.1195172028058
 20
120.9121837554967
 30
0.0
 10
350.1359443831032
 20
120.8856695198047
 30
0.0
 10
350.1540125378233
 20
120.8549740090914
 30
0.0
 10
350.1736896842464
 20
120.8200729058515
 30
0.0
 10
350.2218890656745
 20
120.7313083707442
 30
0.0
 10
350.3102071051098
 20
120.5540280692954
 30
0.0
 10
350.4492667218768
 20
120.23294216245
 30
0.0
 10
350.594939401739
 20
119.8463595105593
 30
0.0
 10
350.7086779967485
 20
119.4926518064292
 30
0.0
 10
350.7883836152951
 20
119.2103981068164
 30
0.0
 10
350.8390331876494
 20
119.0159546760419
 30
0.0
 10
350.8859998575147
 20
118.8187132991078
 30
0.0
 10
350.9295596795191
 20
118.6188102540128
 30
0.0
 10
350.9552072446506
 20
118.4841283142808
 30
0.0
 10
350.9680519952406
 20
118.4166772359437
 30
0.0
  0
LINE
  5
DE
330
1F
100
AcDbEntity
  8
0
  6
Continuous
 62
     7
370
    25
100
AcDbLine
 10
350.0043356324
 20
120.984356841
 30
0.0
 11
350.0570903997
 21
120.983608989
 31
0.0
  0
SPLINE
  5
DF
330
1F
100
AcDbEntity
  8
0
  6
Continuous
 62
     7
370
    25
100
AcDbSpline
210
0.0
220
0.0
230
1.0
 70
     8
 71
     3
 72
    14
 73
    10
 74
     0
 42
0.000000001
 43
0.00000001
 40
0.0
 40
0.0
 40
0.0
 40
0.0
 40
0.0786889129230217
 40
0.1577561817120102
 40
0.3304686003102582
 40
0.4997364082417218
 40
0.666847231663544
 40
0.833145083375537
 40
1.0
 40
1.0
 40
1.0
 40
1.0
 10
350.0572435149645
 20
120.7176253464136
 30
0.0
 10
350.0532455060099
 20
120.7308752509295
 30
0.0
 10
350.0452302646792
 20
120.7574387687978
 30
0.0
 10
350.0303575913897
 20
120.8081602965667
 30
0.0
 10
350.0144714266273
 20
120.8651613755907
 30
0.0
 10
350.0013929029831
 20
120.9194646711997
 30
0.0
 10
349.995160303378
 20
120.957631793237
 30
0.0
 10
349.9953498812544
 20
120.9810405273125
 30
0.0
 10
350.0013367756468
 20
120.9832501812705
 30
0.0
 10
350.0043352281877
 20
120.9843568556313
 30
0.0
  0
SPLINE
  5
E0
330
1F
100
AcDbEntity
  8
0
  6
Continuous
 62
     7
370
    25
100
AcDbSpline
210
0.0
220
0.0
230
1.0
 70
     8
 71
     3
 72
     8
 73
     4
 74
     0
 42
0.000000001
 43
0.00000001
 40
0.0
 40
0.0
 40
0.0
 40
0.0
 40
1.0
 40
1.0
 40
1.0
 40
1.0
 10
349.9367881742817
 20
120.7192816863791
 30
0.0
 10
349.9769212927884
 20
120.7188507324318
 30
0.0
 10
350.017082000717
 20
120.7182702294194
 30
0.0
 10
350.05726941806
 20
120.7175399538598
 30
0.0
  0
SPLINE
  5
E1
330
1F
100
AcDbEntity
  8
0
  6
Continuous
 62
     7
370
    25
100
AcDbSpline
210
0.0
220
0.0
230
1.0
 70
     8
 71
     3
 72
    23
 73
    19
 74
     0
 42
0.000000001
 43
0.00000001
 40
0.0
 40
0.0
 40
0.0
 40
0.0
 40
0.0441308420115403
 40
0.0880968635201137
 40
0.1320155028394797
 40
0.1760048571417636
 40
0.220182730577585
 40
0.2646656976919496
 40
0.3095682184552906
 40
0.3550018365579412
 40
0.4010744854732484
 40
0.4478899182331895
 40
0.4955472680210786
 40
0.5953670562466713
 40
0.6949121173423626
 40
0.7950007649006683
 40
0.896438625518418
 40
1.0
 40
1.0
 40
1.0
 40
1.0
 10
349.3850750551466
 20
121.6797850103458
 30
0.0
 10
349.3870594452534
 20
121.6795021531159
 30
0.0
 10
349.3910208141382
 20
121.6789374950753
 30
0.0
 10
349.3998811183687
 20
121.6725181418965
 30
0.0
 10
349.4108535964911
 20
121.6619968923899
 30
0.0
 10
349.4241329945114
 20
121.6469653560802
 30
0.0
 10
349.4396437181777
 20
121.6275131110178
 30
0.0
 10
349.4573751799308
 20
121.6035931330657
 30
0.0
 10
349.477291826634
 20
121.5751920423518
 30
0.0
 10
349.4993573606461
 20
121.5422843025512
 30
0.0
 10
349.5235282843403
 20
121.5048443198949
 30
0.0
 10
349.5497552943876
 20
121.4628442482651
 30
0.0
 10
349.5880918746188
 20
121.3995671397418
 30
0.0
 10
349.6404246539976
 20
121.3095082773784
 30
0.0
 10
349.7088252652061
 20
121.1851621578112
 30
0.0
 10
349.7815103400015
 20
121.0454490798307
 30
0.0
 10
349.8578705759011
 20
120.8911130646028
 30
0.0
 10
349.9101593905511
 20
120.7773904103752
 30
0.0
 10
349.9365746184545
 20
120.719940077081
 30
0.0
  0
SPLINE
  5
E2
330
1F
100
AcDbEntity
  8
0
  6
Continuous
 62
     7
370
    25
100
AcDbSpline
210
0.0
220
0.0
230
1.0
 70
    11
 71
     3
 72
    39
 73
    35
 74
     0
 42
0.000000001
 43
0.00000001
 40
0.0
 40
0.0
 40
0.0
 40
0.0
 40
0.0310664058350965
 40
0.0621048158425859
 40
0.093136155179263
 40
0.1235538293503448
 40
0.1538561545806855
 40
0.1850588072748946
 40
0.2160250992945718
 40
0.2471867223797388
 40
0.2784462884305076
 40
0.3100516090231096
 40
0.3419834369141944
 40
0.3734259894013148
 40
0.4048604886786042
 40
0.4368740651833136
 40
0.4685120685925458
 40
0.4998055358633138
 40
0.5309508213230685
 40
0.5618649784438015
 40
0.5930416446594986
 40
0.6233742450133227
 40
0.6540913579075065
 40
0.6849496782718291
 40
0.71581606451649
 40
0.7471731804043279
 40
0.7784514311862922
 40
0.8101295911560753
 40
0.8419598919688862
 40
0.8735175891922173
 40
0.9050808037887091
 40
0.9370235169792366
 40
0.968744159003463
 40
1.0
 40
1.0
 40
1.0
 40
1.0
 10
342.0015106952643
 20
104.797709309656
 30
0.0
 10
342.1912225242193
 20
104.8364778864034
 30
0.0
 10
342.5349633746644
 20
104.9129088321852
 30
0.0
 10
342.9179203618757
 20
105.0010483721799
 30
0.0
 10
343.1623608285894
 20
105.0479978588245
 30
0.0
 10
343.2433497654065
 20
105.0360889341112
 30
0.0
 10
343.1626273199267
 20
104.9641310273962
 30
0.0
 10
342.9227651263062
 20
104.8396107611985
 30
0.0
 10
342.5461153922089
 20
104.6822417713732
 30
0.0
 10
342.03987245538
 20
104.5102176866779
 30
0.0
 10
341.4225980616966
 20
104.3452932790922
 30
0.0
 10
340.7101222475539
 20
104.2075807030132
 30
0.0
 10
339.9346570077821
 20
104.1159478905049
 30
0.0
 10
339.1241925741681
 20
104.0826153124097
 30
0.0
 10
338.3116881012091
 20
104.111862757963
 30
0.0
 10
337.532175111072
 20
104.2001917149502
 30
0.0
 10
336.8138468117333
 20
104.3356972145855
 30
0.0
 10
336.1904747043332
 20
104.4994737360771
 30
0.0
 10
335.6773761097371
 20
104.6714798802228
 30
0.0
 10
335.292173999875
 20
104.8302918946944
 30
0.0
 10
335.0427493946363
 20
104.957550859859
 30
0.0
 10
334.9521473546903
 20
105.033157816814
 30
0.0
 10
335.0203589256518
 20
105.0499272134928
 30
0.0
 10
335.2525747920523
 20
105.0071468712783
 30
0.0
 10
335.629791829238
 20
104.9200201863678
 30
0.0
 10
336.1414966970014
 20
104.805291131062
 30
0.0
 10
336.7649678277485
 20
104.6858689860093
 30
0.0
 10
337.4815125308822
 20
104.5812435359595
 30
0.0
 10
338.2598436434952
 20
104.5105950430327
 30
0.0
 10
339.0716751303462
 20
104.4845162186026
 30
0.0
 10
339.8854496523424
 20
104.5075417902933
 30
0.0
 10
340.6678234965112
 20
104.5757742284312
 30
0.0
 10
341.3898365312468
 20
104.6790214081418
 30
0.0
 10
341.8106420510942
 20
104.7587043318381
 30
0.0
 10
342.0015106952643
 20
104.797709309656
 30
0.0
  0
SPLINE
  5
E3
330
1F
100
AcDbEntity
  8
0
  6
Continuous
 62
     7
370
    25
100
AcDbSpline
210
0.0
220
0.0
230
1.0
 70
    11
 71
     3
 72
    39
 73
    35
 74
     0
 42
0.000000001
 43
0.00000001
 40
0.0
 40
0.0
 40
0.0
 40
0.0
 40
0.0312651429932929
 40
0.0629601069329363
 40
0.0948697276489851
 40
0.1264264963751878
 40
0.1579651393672514
 40
0.1898765439017007
 40
0.221552335268766
 40
0.2527844076550835
 40
0.2838418966732524
 40
0.3148645781100705
 40
0.34591276392991
 40
0.3763475365526239
 40
0.406675132466265
 40
0.4379141187435676
 40
0.4688932367346729
 40
0.5000738678969627
 40
0.5313369410961
 40
0.5629183719104931
 40
0.5948445736346094
 40
0.6262809966135477
 40
0.6577486436588904
 40
0.6897584692806558
 40
0.7214430019612538
 40
0.752762334319555
 40
0.7839279690576615
 40
0.8148885765585969
 40
0.846037500498419
 40
0.8763409566916832
 40
0.9067589191462748
 40
0.9378312724751754
 40
0.9689189660503823
 40
0.9999999999999999
 40
0.9999999999999999
 40
0.9999999999999999
 40
0.9999999999999999
 10
342.0014064454774
 20
127.6610017295986
 30
0.0
 10
341.8103325091965
 20
127.7000656874791
 30
0.0
 10
341.3893979467575
 20
127.7797846820391
 30
0.0
 10
340.6680085415933
 20
127.8829000973897
 30
0.0
 10
339.8863524933021
 20
127.9511009698137
 30
0.0
 10
339.0732647735912
 20
127.9741578624556
 30
0.0
 10
338.2609845567392
 20
127.9481735888094
 30
0.0
 10
337.4823541316906
 20
127.8775834235713
 30
0.0
 10
336.7656783417796
 20
127.7729678613323
 30
0.0
 10
336.1438030721182
 20
127.6537955363159
 30
0.0
 10
335.6342921386318
 20
127.5398583685896
 30
0.0
 10
335.2591727923891
 20
127.4537440896432
 30
0.0
 10
335.0232122175436
 20
127.4096883683096
 30
0.0
 10
334.9518116743541
 20
127.4252181690174
 30
0.0
 10
335.0424081041434
 20
127.5007270511988
 30
0.0
 10
335.2913843845101
 20
127.6279005790457
 30
0.0
 10
335.6762992043535
 20
127.7867512576585
 30
0.0
 10
336.1890845111784
 20
127.9587755188692
 30
0.0
 10
336.8115436341027
 20
128.1224485984037
 30
0.0
 10
337.5280437789111
 20
128.257850171784
 30
0.0
 10
338.3061428130196
 20
128.3463678392665
 30
0.0
 10
339.1178655016681
 20
128.3760752477491
 30
0.0
 10
339.9293076893672
 20
128.3431888030989
 30
0.0
 10
340.7064335808511
 20
128.2517078950539
 30
0.0
 10
341.4208716700213
 20
128.1138237050923
 30
0.0
 10
342.0390946282576
 20
127.9486958802418
 30
0.0
 10
342.5454619889811
 20
127.7766453428898
 30
0.0
 10
342.9220145103955
 20
127.6193618211793
 30
0.0
 10
343.161710321824
 20
127.4949580236964
 30
0.0
 10
343.2431770300196
 20
127.4227698502597
 30
0.0
 10
343.1631177875266
 20
127.4104973418822
 30
0.0
 10
342.9187717815751
 20
127.4573927523875
 30
0.0
 10
342.5357983481259
 20
127.5455263005332
 30
0.0
 10
342.1913552169162
 20
127.6221678051431
 30
0.0
 10
342.0014064454775
 20
127.6610017295986
 30
0.0
  0
SPLINE
  5
E4
330
1F
100
AcDbEntity
  8
0
  6
Continuous
 62
     7
370
    25
100
AcDbSpline
210
0.0
220
0.0
230
1.0
 70
     8
 71
     3
 72
    23
 73
    19
 74
     0
 42
0.000000001
 43
0.00000001
 40
0.0
 40
0.0
 40
0.0
 40
0.0
 40
0.0449850911547964
 40
0.0909520670823883
 40
0.1379394291328525
 40
0.1859832248994781
 40
0.235117176177667
 40
0.2853728096486027
 40
0.3367795876649756
 40
0.3893650370847659
 40
0.4431548745955978
 40
0.4981731273942729
 40
0.5575107591414307
 40
0.6265492282208773
 40
0.7053073139958764
 40
0.7937970254642376
 40
0.8920262116484563
 40
1.0
 40
1.0
 40
1.0
 40
1.0
 10
329.2064424189096
 20
121.2593394934094
 30
0.0
 10
329.2042797295439
 20
121.2589105917498
 30
0.0
 10
329.1999071460231
 20
121.2580434268398
 30
0.0
 10
329.1896261868314
 20
121.250949859238
 30
0.0
 10
329.1765659088013
 20
121.2393371176579
 30
0.0
 10
329.160446747247
 20
121.2225477474841
 30
0.0
 10
329.141346319591
 20
121.2004757608683
 30
0.0
 10
329.1192439668352
 20
121.1728782871043
 30
0.0
 10
329.0941434882996
 20
121.1395698558948
 30
0.0
 10
329.0660523569218
 20
121.1003695174888
 30
0.0
 10
329.0349364560703
 20
121.0551274720172
 30
0.0
 10
329.0002975251753
 20
121.0027315396122
 30
0.0
 10
328.9595760168771
 20
120.9399490713601
 30
0.0
 10
328.9108550958304
 20
120.8621920720546
 30
0.0
 10
328.8530807575051
 20
120.7649075144503
 30
0.0
 10
328.7861701078676
 20
120.6451626807347
 30
0.0
 10
328.7102261435969
 20
120.5012424758717
 30
0.0
 10
328.6558649789307
 20
120.3905082710276
 30
0.0
 10
328.6273999148286
 20
120.3325246671343
 30
0.0
  0
LINE
  5
E5
330
1F
100
AcDbEntity
  8
0
  6
Continuous
 62
     7
370
    25
100
AcDbLine
 10
328.6273998673
 20
120.333050834
 30
0.0
 11
328.2580606173
 21
120.7191357296
 31
0.0
  0
LINE
  5
E6
330
1F
100
AcDbEntity
  8
0
  6
Continuous
 62
     7
370
    25
100
AcDbLine
 10
349.9366750474
 20
120.7190761249
 30
0.0
 11
349.5674084405
 21
120.3330680635
 31
0.0
  0
SPLINE
  5
E7
330
1F
100
AcDbEntity
  8
0
  6
Continuous
 62
     7
370
    25
100
AcDbSpline
210
0.0
220
0.0
230
1.0
 70
     8
 71
     3
 72
    26
 73
    22
 74
     0
 42
0.000000001
 43
0.00000001
 40
0.0
 40
0.0
 40
0.0
 40
0.0
 40
0.0509383868710681
 40
0.0998291548374484
 40
0.1466728126632442
 40
0.1914699456539526
 40
0.2342212299963317
 40
0.2749274506887306
 40
0.3135895241945819
 40
0.3502085273905902
 40
0.384785735024819
 40
0.4173226688625226
 40
0.4478211631676295
 40
0.476283453466084
 40
0.5027122992247393
 40
0.5939067005067384
 40
0.681601599325777
 40
0.7659159552126487
 40
0.8469836289730962
 40
0.9249552229482289
 40
1.0
 40
1.0
 40
1.0
 40
1.0
 10
349.5674088307735
 20
120.3323339368846
 30
0.0
 10
349.553950966574
 20
120.359954718052
 30
0.0
 10
349.5275762167737
 20
120.4140859815109
 30
0.0
 10
349.4892040369912
 20
120.490394018593
 30
0.0
 10
349.4527378544961
 20
120.5611461981898
 30
0.0
 10
349.4182016048703
 20
120.6263180248812
 30
0.0
 10
349.385589153016
 20
120.6861762701345
 30
0.0
 10
349.3549018692224
 20
120.740941429676
 30
0.0
 10
349.3261392529212
 20
120.7908658209869
 30
0.0
 10
349.2993010884495
 20
120.8362080515798
 30
0.0
 10
349.2743875080228
 20
120.8772339905174
 30
0.0
 10
349.2513968612361
 20
120.9142113754605
 30
0.0
 10
349.2303333557493
 20
120.9474074914392
 30
0.0
 10
349.2111809853736
 20
120.9770832237012
 30
0.0
 10
349.1795099084313
 20
121.0257535487488
 30
0.0
 10
349.1380399629962
 20
121.0876488666678
 30
0.0
 10
349.091050446852
 20
121.1529894740925
 30
0.0
 10
349.0524318771369
 20
121.2021078653835
 30
0.0
 10
349.0223834174157
 20
121.2355841538941
 30
0.0
 10
349.0000933064467
 20
121.2557015861305
 30
0.0
 10
348.9921979910135
 20
121.2581424199798
 30
0.0
 10
348.9883258420241
 20
121.2593394934094
 30
0.0
  0
SPLINE
  5
E8
330
1F
100
AcDbEntity
  8
0
  6
Continuous
 62
     7
370
    25
100
AcDbSpline
210
0.0
220
0.0
230
1.0
 70
     8
 71
     3
 72
     8
 73
     4
 74
     0
 42
0.000000001
 43
0.00000001
 40
0.0
 40
0.0
 40
0.0
 40
0.0
 40
1.0
 40
1.0
 40
1.0
 40
1.0
 10
346.8390645822673
 20
120.4523378198921
 30
0.0
 10
346.9026575626073
 20
120.3866690420453
 30
0.0
 10
346.9666139890426
 20
120.3223267443851
 30
0.0
 10
347.03081290875
 20
120.2605894934094
 30
0.0
  0
SPLINE
  5
E9
330
1F
100
AcDbEntity
  8
0
  6
Continuous
 62
     7
370
    25
100
AcDbSpline
210
0.0
220
0.0
230
1.0
 70
     8
 71
     3
 72
    25
 73
    21
 74
     0
 42
0.000000001
 43
0.00000001
 40
0.0
 40
0.0
 40
0.0
 40
0.0
 40
0.0367725003273524
 40
0.0742084010635883
 40
0.1123590542855501
 40
0.1512729822625089
 40
0.1909959100229794
 40
0.2315708273567468
 40
0.2730380740480022
 40
0.3154354426133704
 40
0.3587982934479269
 40
0.4031596779846243
 40
0.4485504661867954
 40
0.4949994753770925
 40
0.5532504315742431
 40
0.6218294885841514
 40
0.7007739996682805
 40
0.7901076726768732
 40
0.8898461547601584
 40
1.0
 40
1.0
 40
1.0
 40
1.0
 10
346.3971433949558
 20
121.259339493409
 30
0.0
 10
346.3973671690206
 20
121.2590148057753
 30
0.0
 10
346.3978187541834
 20
121.2583595729264
 30
0.0
 10
346.4025357940557
 20
121.2529972011382
 30
0.0
 10
346.4101884031383
 20
121.244241607437
 30
0.0
 10
346.4210813822753
 20
121.2316173893443
 30
0.0
 10
346.4351299686911
 20
121.2150610512131
 30
0.0
 10
346.4523568663002
 20
121.1944038738346
 30
0.0
 10
346.4727554190818
 20
121.1695161378663
 30
0.0
 10
346.4963262323739
 20
121.1402685916728
 30
0.0
 10
346.5230715809337
 20
121.1065456564765
 30
0.0
 10
346.552979434366
 20
121.0682398413518
 30
0.0
 10
346.5860955267104
 20
121.0252689460151
 30
0.0
 10
346.6250214482871
 20
120.9738476643435
 30
0.0
 10
346.6738495280076
 20
120.909631432651
 30
0.0
 10
346.7357701326125
 20
120.8267369035507
 30
0.0
 10
346.8101546909348
 20
120.7227911533331
 30
0.0
 10
346.897129118922
 20
120.5947049430763
 30
0.0
 10
346.9965539689004
 20
120.4406151631751
 30
0.0
 10
347.0679731446262
 20
120.3225509273105
 30
0.0
 10
347.1054547283048
 20
120.2605894934094
 30
0.0
  0
LINE
  5
EA
330
1F
100
AcDbEntity
  8
0
  6
Continuous
 62
     7
370
    25
100
AcDbLine
 10
347.1054544206
 20
120.2605892811
 30
0.0
 11
347.0308126415
 21
120.2605892811
 31
0.0
  0
SPLINE
  5
EB
330
1F
100
AcDbEntity
  8
0
  6
Continuous
 62
     7
370
    25
100
AcDbSpline
210
0.0
220
0.0
230
1.0
 70
     8
 71
     3
 72
    23
 73
    19
 74
     0
 42
0.000000001
 43
0.00000001
 40
0.0
 40
0.0
 40
0.0
 40
0.0
 40
0.0511129009857237
 40
0.1016896331838987
 40
0.1518293139104701
 40
0.2016336701894375
 40
0.2512064936754073
 40
0.3006530343006341
 40
0.3500793489716446
 40
0.3995916247932064
 40
0.4492954981442684
 40
0.4992953912354717
 40
0.5872572780521592
 40
0.6724255494349295
 40
0.7555067762540847
 40
0.83726167352717
 40
0.9184882400167593
 40
1.0
 40
1.0
 40
1.0
 40
1.0
 10
346.8391272583927
 20
120.4525805359872
 30
0.0
 10
346.8231116744922
 20
120.4817091382182
 30
0.0
 10
346.7912485084292
 20
120.539660786802
 30
0.0
 10
346.7442046700103
 20
120.6224186220202
 30
0.0
 10
346.6982261458353
 20
120.7015074805045
 30
0.0
 10
346.6534454790317
 20
120.7767244684386
 30
0.0
 10
346.6099617145959
 20
120.8481875234843
 30
0.0
 10
346.5678757510112
 20
120.9159289276726
 30
0.0
 10
346.5272812866139
 20
120.9800024394176
 30
0.0
 10
346.4882663802637
 20
121.0404560384888
 30
0.0
 10
346.4509165577762
 20
121.0973335434171
 30
0.0
 10
346.4063883011842
 20
121.1640480164776
 30
0.0
 10
346.3577480406429
 20
121.2353683003421
 30
0.0
 10
346.3099089408871
 20
121.3039485528011
 30
0.0
 10
346.2722574288062
 20
121.3569648808433
 30
0.0
 10
346.2454347274187
 20
121.3942375369709
 30
0.0
 10
346.2287058965952
 20
121.4172749365509
 30
0.0
 10
346.2268574866313
 20
121.4198096618161
 30
0.0
 10
346.2259316620109
 20
121.4210792454595
 30
0.0
  0
SPLINE
  5
EC
330
1F
100
AcDbEntity
  8
0
  6
Continuous
 62
     7
370
    25
100
AcDbSpline
210
0.0
220
0.0
230
1.0
 70
     8
 71
     3
 72
     8
 73
     4
 74
     0
 42
0.000000001
 43
0.00000001
 40
0.0
 40
0.0
 40
0.0
 40
0.0
 40
1.0
 40
1.0
 40
1.0
 40
1.0
 10
349.5012767775389
 20
120.2605894934093
 30
0.0
 10
349.523162149182
 20
120.2849105096069
 30
0.0
 10
349.5450475208252
 20
120.3089351079294
 30
0.0
 10
349.5669328924684
 20
120.3326419600179
 30
0.0
  0
LINE
  5
ED
330
1F
100
AcDbEntity
  8
0
  6
Continuous
 62
     7
370
    25
100
AcDbLine
 10
349.5011168997
 20
120.2605892811
 30
0.0
 11
347.1054544206
 21
120.2605892811
 31
0.0
  0
SPLINE
  5
EE
330
1F
100
AcDbEntity
  8
0
  6
Continuous
 62
     7
370
    25
100
AcDbSpline
210
0.0
220
0.0
230
1.0
 70
     8
 71
     3
 72
     8
 73
     4
 74
     0
 42
0.000000001
 43
0.00000001
 40
0.0
 40
0.0
 40
0.0
 40
0.0
 40
1.0
 40
1.0
 40
1.0
 40
1.0
 10
328.6277411426406
 20
120.332745527498
 30
0.0
 10
328.6496579151282
 20
120.3090050789389
 30
0.0
 10
328.6715746876157
 20
120.2849459271523
 30
0.0
 10
328.6934914601033
 20
120.2605894934094
 30
0.0
  0
SPLINE
  5
EF
330
1F
100
AcDbEntity
  8
0
  6
Continuous
 62
     7
370
    25
100
AcDbSpline
210
0.0
220
0.0
230
1.0
 70
     8
 71
     3
 72
    26
 73
    22
 74
     0
 42
0.000000001
 43
0.00000001
 40
0.0
 40
0.0
 40
0.0
 40
0.0
 40
0.0524616379916458
 40
0.1026498591861474
 40
0.1505655134537972
 40
0.1962095861908931
 40
0.2395832262515146
 40
0.2806877815543323
 40
0.3195248450324018
 40
0.3560963147377176
 40
0.3904044736499266
 40
0.4224520974393497
 40
0.4522426027388373
 40
0.4797802555350637
 40
0.5050704712281464
 40
0.5966394156800096
 40
0.6841917884819306
 40
0.7679874773571161
 40
0.8483228539139546
 40
0.9255341635201179
 40
1.0
 40
1.0
 40
1.0
 40
1.0
 10
331.0891359745507
 20
120.2606043854271
 30
0.0
 10
331.1069974588386
 20
120.2903778454672
 30
0.0
 10
331.1419464028136
 20
120.3486345373588
 30
0.0
 10
331.1927112362946
 20
120.4308335177213
 30
0.0
 10
331.2407811939355
 20
120.5069143866205
 30
0.0
 10
331.2861251666997
 20
120.5768657350857
 30
0.0
 10
331.3287511462046
 20
120.6409728970372
 30
0.0
 10
331.3686574447135
 20
120.6994807365074
 30
0.0
 10
331.4058447738288
 20
120.7526693141297
 30
0.0
 10
331.4403135964199
 20
120.8008273543675
 30
0.0
 10
331.4720636850526
 20
120.8442520276448
 30
0.0
 10
331.5010980896544
 20
120.8832421187429
 30
0.0
 10
331.5274093788564
 20
120.9180962172709
 30
0.0
 10
331.5510260084016
 20
120.9491012117231
 30
0.0
 10
331.5906716874082
 20
121.0013444303571
 30
0.0
 10
331.6422099842078
 20
121.0688737636149
 30
0.0
 10
331.6990361211889
 20
121.1410672098234
 30
0.0
 10
331.743193549152
 20
121.1955511659459
 30
0.0
 10
331.7743711720939
 20
121.2328159571143
 30
0.0
 10
331.7938307387331
 20
121.255280309389
 30
0.0
 10
331.7959723364135
 20
121.2580028588162
 30
0.0
 10
331.7970237529702
 20
121.2593394934094
 30
0.0
  0
LINE
  5
F0
330
1F
100
AcDbEntity
  8
0
  6
Continuous
 62
     7
370
    25
100
AcDbLine
 10
331.0891359578
 20
120.2605892811
 30
0.0
 11
328.6934911738
 21
120.2605892811
 31
0.0
  0
LINE
  5
F1
330
1F
100
AcDbEntity
  8
0
  6
Continuous
 62
     7
370
    25
100
AcDbLine
 10
331.1639556194
 20
120.2605892811
 30
0.0
 11
331.0888360719
 21
120.2605892811
 31
0.0
  0
SPLINE
  5
F2
330
1F
100
AcDbEntity
  8
0
  6
Continuous
 62
     7
370
    25
100
AcDbSpline
210
0.0
220
0.0
230
1.0
 70
     8
 71
     3
 72
     8
 73
     4
 74
     0
 42
0.000000001
 43
0.00000001
 40
0.0
 40
0.0
 40
0.0
 40
0.0
 40
1.0
 40
1.0
 40
1.0
 40
1.0
 10
331.1639553521837
 20
120.2605894934093
 30
0.0
 10
331.2278641548437
 20
120.3225583568405
 30
0.0
 10
331.2916390741956
 20
120.3865344219571
 30
0.0
 10
331.3549991400765
 20
120.4520690783029
 30
0.0
  0
SPLINE
  5
F3
330
1F
100
AcDbEntity
  8
0
  6
Continuous
 62
     7
370
    25
100
AcDbSpline
210
0.0
220
0.0
230
1.0
 70
     8
 71
     3
 72
    24
 73
    20
 74
     0
 42
0.000000001
 43
0.00000001
 40
0.0
 40
0.0
 40
0.0
 40
0.0
 40
0.0410257106277056
 40
0.0818520099058079
 40
0.1225800578328279
 40
0.1633117464027038
 40
0.2041489402772657
 40
0.2451927184714171
 40
0.2865426449201731
 40
0.3282960933615133
 40
0.3705476475467034
 40
0.4133885920081624
 40
0.4569065022338602
 40
0.5011849368583825
 40
0.6001856774930499
 40
0.6987388860423923
 40
0.7976800645430001
 40
0.8978349910013272
 40
1.0
 40
1.0
 40
1.0
 40
1.0
 10
331.9685819459514
 20
121.4207295747409
 30
0.0
 10
331.9683871825103
 20
121.4204622245833
 30
0.0
 10
331.9679986023039
 20
121.419928823762
 30
0.0
 10
331.9639438146295
 20
121.4143570777629
 30
0.0
 10
331.9573498556497
 20
121.405276328609
 30
0.0
 10
331.9479855947397
 20
121.3923388682483
 30
0.0
 10
331.9359374809696
 20
121.3756204253425
 30
0.0
 10
331.9212149115092
 20
121.3550784145707
 30
0.0
 10
331.903855918662
 20
121.3306970405239
 30
0.0
 10
331.8838987475086
 20
121.302448296452
 30
0.0
 10
331.8613896978131
 20
121.2703027490509
 30
0.0
 10
331.8363804620516
 20
121.2342259090847
 30
0.0
 10
331.8089310925268
 20
121.1941823165654
 30
0.0
 10
331.7670079794605
 20
121.1322618732254
 30
0.0
 10
331.7078018042506
 20
121.0429493821308
 30
0.0
 10
331.6280222111311
 20
120.9184047901036
 30
0.0
 10
331.5420414261445
 20
120.7786199976138
 30
0.0
 10
331.4507566389214
 20
120.624207178626
 30
0.0
 10
331.3875522848625
 20
120.5101611569734
 30
0.0
 10
331.3556361348962
 20
120.4525716129569
 30
0.0
  0
LINE
  5
F4
330
1F
100
AcDbEntity
  8
0
  6
Continuous
 62
     7
370
    25
100
AcDbLine
 10
328.284743009
 20
111.7392843496
 30
0.0
 11
328.7089809309
 21
112.1880775224
 31
0.0
  0
SPLINE
  5
F5
330
1F
100
AcDbEntity
  8
0
  6
Continuous
 62
     7
370
    25
100
AcDbSpline
210
0.0
220
0.0
230
1.0
 70
     8
 71
     3
 72
    13
 73
     9
 74
     0
 42
0.000000001
 43
0.00000001
 40
0.0
 40
0.0
 40
0.0
 40
0.0
 40
0.1706320847381217
 40
0.3395984166493647
 40
0.5069574113007884
 40
0.672769183166934
 40
0.8370955448651839
 40
1.0
 40
1.0
 40
1.0
 40
1.0
 10
328.7089806433446
 20
112.1880567518801
 30
0.0
 10
328.7139861137542
 20
112.1811053787953
 30
0.0
 10
328.7239481899272
 20
112.1672704936576
 30
0.0
 10
328.7368220178211
 20
112.1511427351982
 30
0.0
 10
328.7480883303177
 20
112.1384740050411
 30
0.0
 10
328.7575656937526
 20
112.1296175672063
 30
0.0
 10
328.7654479264459
 20
112.1241055387309
 30
0.0
 10
328.7692628326779
 20
112.1234271926507
 30
0.0
 10
328.7711619973933
 20
112.1230894934094
 30
0.0
  0
SPLINE
  5
F6
330
1F
100
AcDbEntity
  8
0
  6
Continuous
 62
     7
370
    25
100
AcDbSpline
210
0.0
220
0.0
230
1.0
 70
     8
 71
     3
 72
    13
 73
     9
 74
     0
 42
0.000000001
 43
0.00000001
 40
0.0
 40
0.0
 40
0.0
 40
0.0
 40
0.1621004456877203
 40
0.32594345520649
 40
0.4915935308810087
 40
0.6591130874452793
 40
0.8285624736348074
 40
1.0
 40
1.0
 40
1.0
 40
1.0
 10
349.4236062635405
 20
112.1230894934094
 30
0.0
 10
349.425483369883
 20
112.1234239765102
 30
0.0
 10
349.4292577612763
 20
112.124096538372
 30
0.0
 10
349.4371048384558
 20
112.1295698227692
 30
0.0
 10
349.446570898231
 20
112.138389287431
 30
0.0
 10
349.4578518130331
 20
112.1510420444256
 30
0.0
 10
349.4707664315302
 20
112.1671940458213
 30
0.0
 10
349.4807621457757
 20
112.1810798457624
 30
0.0
 10
349.485789151687
 20
112.1880632385118
 30
0.0
  0
LINE
  5
F7
330
1F
100
AcDbEntity
  8
0
  6
Continuous
 62
     7
370
    25
100
AcDbLine
 10
349.4858022312
 20
112.1880635526
 30
0.0
 11
349.9100243206
 21
111.7392843496
 31
0.0
  0
LINE
  5
F8
330
1F
100
AcDbEntity
  8
0
  6
Continuous
 62
     7
370
    25
100
AcDbLine
 10
347.0308126415
 20
112.1980897058
 30
0.0
 11
347.0395344774
 21
112.1980897058
 31
0.0
  0
SPLINE
  5
F9
330
1F
100
AcDbEntity
  8
0
  6
Continuous
 62
     7
370
    25
100
AcDbSpline
210
0.0
220
0.0
230
1.0
 70
     8
 71
     3
 72
     8
 73
     4
 74
     0
 42
0.000000001
 43
0.00000001
 40
0.0
 40
0.0
 40
0.0
 40
0.0
 40
1.0
 40
1.0
 40
1.0
 40
1.0
 10
349.4858021926799
 20
112.188063851579
 30
0.0
 10
349.4836187084388
 20
112.1909125170953
 30
0.0
 10
349.4814352241976
 20
112.1938533084928
 30
0.0
 10
349.4792517399565
 20
112.1968858057694
 30
0.0
  0
LINE
  5
FA
330
1F
100
AcDbEntity
  8
0
  6
Continuous
 62
     7
370
    25
100
AcDbLine
 10
349.4783488567
 20
112.1980897058
 30
0.0
 11
347.0395382027
 21
112.1980897058
 31
0.0
  0
SPLINE
  5
FB
330
1F
100
AcDbEntity
  8
0
  6
Continuous
 62
     7
370
    25
100
AcDbSpline
210
0.0
220
0.0
230
1.0
 70
     8
 71
     3
 72
     8
 73
     4
 74
     0
 42
0.000000001
 43
0.00000001
 40
0.0
 40
0.0
 40
0.0
 40
0.0
 40
1.0
 40
1.0
 40
1.0
 40
1.0
 10
328.7164192873867
 20
112.198089493417
 30
0.0
 10
328.7139333687002
 20
112.194627794105
 30
0.0
 10
328.7114474500136
 20
112.1912836421961
 30
0.0
 10
328.7089615313271
 20
112.1880576502557
 30
0.0
  0
LINE
  5
FC
330
1F
100
AcDbEntity
  8
0
  6
Continuous
 62
     7
370
    25
100
AcDbLine
 10
331.1537231783
 20
112.1980897058
 30
0.0
 11
328.7166354711
 21
112.1980897058
 31
0.0
  0
LINE
  5
FD
330
1F
100
AcDbEntity
  8
0
  6
Continuous
 62
     7
370
    25
100
AcDbLine
 10
331.1552328522
 20
112.1980897058
 30
0.0
 11
331.1639556194
 21
112.1980897058
 31
0.0
  0
SPLINE
  5
FE
330
1F
100
AcDbEntity
  8
0
  6
Continuous
 62
     7
370
    25
100
AcDbSpline
210
0.0
220
0.0
230
1.0
 70
     8
 71
     3
 72
    14
 73
    10
 74
     0
 42
0.000000001
 43
0.00000001
 40
0.0
 40
0.0
 40
0.0
 40
0.0
 40
0.0310276388093398
 40
0.0622853718693698
 40
0.1248003166924349
 40
0.2498289731770658
 40
0.4998892603621822
 40
0.7606803621577949
 40
1.0
 40
1.0
 40
1.0
 40
1.0
 10
328.1372901360078
 20
111.7413513187938
 30
0.0
 10
328.1416194294732
 20
111.7461352410724
 30
0.0
 10
328.1503101215071
 20
111.7557385621613
 30
0.0
 10
328.1677109001695
 20
111.7750328761593
 30
0.0
 10
328.1981870600146
 20
111.8087978226131
 30
0.0
 10
328.259008452834
 20
111.8762165814749
 30
0.0
 10
328.3468987952459
 20
111.9736832563402
 30
0.0
 10
328.4497364753296
 20
112.0878277682379
 30
0.0
 10
328.5169425867713
 20
112.1626125812442
 30
0.0
 10
328.5491029484197
 20
112.19839960389
 30
0.0
  0
LINE
  5
FF
330
1F
100
AcDbEntity
  8
0
  6
Continuous
 62
     7
370
    25
100
AcDbLine
 10
328.5487748216
 20
112.1980897058
 30
0.0
 11
328.7164194043
 21
112.1980897058
 31
0.0
  0
LINE
  5
100
330
1F
100
AcDbEntity
  8
0
  6
Continuous
 62
     7
370
    25
100
AcDbLine
 10
349.4783488567
 20
112.1980897058
 30
0.0
 11
349.6460008899
 21
112.1980897058
 31
0.0
  0
SPLINE
  5
101
330
1F
100
AcDbEntity
  8
0
  6
Continuous
 62
     7
370
    25
100
AcDbSpline
210
0.0
220
0.0
230
1.0
 70
     8
 71
     3
 72
    11
 73
     7
 74
     0
 42
0.000000001
 43
0.00000001
 40
0.0
 40
0.0
 40
0.0
 40
0.0
 40
0.2392913840897591
 40
0.5001130134987114
 40
0.7515028526612877
 40
1.0
 40
1.0
 40
1.0
 40
1.0
 10
349.6456973831372
 20
112.198376295921
 30
0.0
 10
349.6778539360712
 20
112.1625995773906
 30
0.0
 10
349.7450603281974
 20
112.0878271296263
 30
0.0
 10
349.848088417944
 20
111.9733684163117
 30
0.0
 10
349.9531790826071
 20
111.857209230173
 30
0.0
 10
350.0228539026879
 20
111.7798212888575
 30
0.0
 10
350.0574897193804
 20
111.7413512282745
 30
0.0
  0
LINE
  5
102
330
1F
100
AcDbEntity
  8
0
  6
Continuous
 62
     7
370
    25
100
AcDbLine
 10
328.6934911738
 20
120.2605892811
 30
0.0
 11
328.5489191766
 21
120.2605892811
 31
0.0
  0
SPLINE
  5
103
330
1F
100
AcDbEntity
  8
0
  6
Continuous
 62
     7
370
    25
100
AcDbSpline
210
0.0
220
0.0
230
1.0
 70
     8
 71
     3
 72
    11
 73
     7
 74
     0
 42
0.000000001
 43
0.00000001
 40
0.0
 40
0.0
 40
0.0
 40
0.0
 40
0.2392845096574327
 40
0.5001120454060707
 40
0.7515010914954734
 40
1.0
 40
1.0
 40
1.0
 40
1.0
 10
328.5492217862572
 20
120.2603037072128
 30
0.0
 10
328.5170606564594
 20
120.2961015563033
 30
0.0
 10
328.449842897864
 20
120.3709201709953
 30
0.0
 10
328.3467982493656
 20
120.4854484352552
 30
0.0
 10
328.2416900205068
 20
120.6016794289181
 30
0.0
 10
328.1720045038799
 20
120.6791139245978
 30
0.0
 10
328.1373631914392
 20
120.7176073259294
 30
0.0
  0
SPLINE
  5
104
330
1F
100
AcDbEntity
  8
0
  6
Continuous
 62
     7
370
    25
100
AcDbSpline
210
0.0
220
0.0
230
1.0
 70
     8
 71
     3
 72
    14
 73
    10
 74
     0
 42
0.000000001
 43
0.00000001
 40
0.0
 40
0.0
 40
0.0
 40
0.0
 40
0.0310294147488059
 40
0.0622870907567357
 40
0.1248019217230938
 40
0.2498303511435398
 40
0.4998901825558308
 40
0.7606872171869626
 40
1.0
 40
1.0
 40
1.0
 40
1.0
 10
350.0573934541694
 20
120.7176072176529
 30
0.0
 10
350.0530632578538
 20
120.7128200310828
 30
0.0
 10
350.0443710110586
 20
120.7032104420275
 30
0.0
 10
350.0269673827112
 20
120.6839044483216
 30
0.0
 10
349.9964866471762
 20
120.6501192326697
 30
0.0
 10
349.9356560254543
 20
120.5826601017227
 30
0.0
 10
349.8477511222696
 20
120.4851335959908
 30
0.0
 10
349.7448968776543
 20
120.3709195892248
 30
0.0
 10
349.6776794195079
 20
120.2960886291161
 30
0.0
 10
349.6455144901232
 20
120.2602804832259
 30
0.0
  0
LINE
  5
105
330
1F
100
AcDbEntity
  8
0
  6
Continuous
 62
     7
370
    25
100
AcDbLine
 10
349.6458416338
 20
120.2605892811
 30
0.0
 11
349.5012770871
 21
120.2605892811
 31
0.0
  0
LINE
  5
106
330
1F
100
AcDbEntity
  8
0
  6
Continuous
 62
     7
370
    25
100
AcDbLine
 10
327.2267158608
 20
114.0420017671
 30
0.0
 11
327.6667788158
 21
114.1230894625
 31
0.0
  0
SPLINE
  5
107
330
1F
100
AcDbEntity
  8
0
  6
Continuous
 62
     7
370
    25
100
AcDbSpline
210
0.0
220
0.0
230
1.0
 70
     8
 71
     3
 72
    25
 73
    21
 74
     0
 42
0.000000001
 43
0.00000001
 40
0.0
 40
0.0
 40
0.0
 40
0.0
 40
0.0274788704220519
 40
0.0560416006846
 40
0.0856947086346483
 40
0.1164440166532229
 40
0.1482947438675477
 40
0.1812515840465501
 40
0.2153187716746058
 40
0.2505001382254875
 40
0.3330514552513183
 40
0.5015081958163713
 40
0.5771663066143402
 40
0.6488981303024295
 40
0.7167477700061697
 40
0.7807674423486859
 40
0.8410194131339161
 40
0.897578484992366
 40
0.9505352047787778
 40
1.0
 40
1.0
 40
1.0
 40
1.0
 10
327.6667789230556
 20
114.1230894934094
 30
0.0
 10
327.673487090399
 20
114.0939072888922
 30
0.0
 10
327.6871680179557
 20
114.0343918347439
 30
0.0
 10
327.7099327466095
 20
113.9440013376859
 30
0.0
 10
327.7348103838497
 20
113.850869728565
 30
0.0
 10
327.7619496218672
 20
113.7552836842902
 30
0.0
 10
327.7913110288985
 20
113.6575302146769
 30
0.0
 10
327.8228961991866
 20
113.557949538619
 30
0.0
 10
327.8567430690516
 20
113.4569403990399
 30
0.0
 10
327.9084442989846
 20
113.3101735917879
 30
0.0
 10
328.0128033119983
 20
113.0459071788734
 30
0.0
 10
328.1336765396822
 20
112.775937549045
 30
0.0
 10
328.2471695861391
 20
112.5585278743291
 30
0.0
 10
328.3184425537549
 20
112.4288243035986
 30
0.0
 10
328.3805171258808
 20
112.3249492262738
 30
0.0
 10
328.4331011380481
 20
112.2450885924552
 30
0.0
 10
328.4763476839756
 20
112.1870699663046
 30
0.0
 10
328.5099544961957
 20
112.1489664076522
 30
0.0
 10
328.5349014790684
 20
112.1269638766574
 30
0.0
 10
328.5438610159304
 20
112.1243512633061
 30
0.0
 10
328.5481880526485
 20
112.1230894934094
 30
0.0
  0
LINE
  5
108
330
1F
100
AcDbEntity
  8
0
  6
Continuous
 62
     7
370
    25
100
AcDbLine
 10
350.9680524002
 20
118.4166772198
 30
0.0
 11
350.5279894451
 21
118.3355895243
 31
0.0
  0
SPLINE
  5
109
330
1F
100
AcDbEntity
  8
0
  6
Continuous
 62
     7
370
    25
100
AcDbSpline
210
0.0
220
0.0
230
1.0
 70
     8
 71
     3
 72
    25
 73
    21
 74
     0
 42
0.000000001
 43
0.00000001
 40
0.0
 40
0.0
 40
0.0
 40
0.0
 40
0.0274788704238406
 40
0.0560416006876649
 40
0.0856947086384779
 40
0.1164440166573039
 40
0.1482947438713698
 40
0.1812515840496028
 40
0.2153187716763797
 40
0.2505001382254737
 40
0.3330514552645295
 40
0.5015081958164058
 40
0.5771663066140428
 40
0.648898130301891
 40
0.716747770005482
 40
0.7807674423479443
 40
0.8410194131332148
 40
0.8975784849918017
 40
0.9505352047784471
 40
0.9999999999999999
 40
0.9999999999999999
 40
0.9999999999999999
 40
0.9999999999999999
 10
350.5279893378781
 20
118.3355894934094
 30
0.0
 10
350.5212811705343
 20
118.3647716979285
 30
0.0
 10
350.5076002429769
 20
118.42428715208
 30
0.0
 10
350.4848355143222
 20
118.5146776491422
 30
0.0
 10
350.4599578770815
 20
118.6078092582654
 30
0.0
 10
350.4328186390638
 20
118.7033953025409
 30
0.0
 10
350.4034572320326
 20
118.8011487721534
 30
0.0
 10
350.3718720617451
 20
118.9007294482087
 30
0.0
 10
350.3380251918811
 20
119.0017385877838
 30
0.0
 10
350.2863239619435
 20
119.1485053950452
 30
0.0
 10
350.1819649489315
 20
119.4127718079574
 30
0.0
 10
350.0610917212471
 20
119.6827414377825
 30
0.0
 10
349.9475986747947
 20
119.9001511124891
 30
0.0
 10
349.8763257071789
 20
120.0298546832192
 30
0.0
 10
349.814251135053
 20
120.133729760544
 30
0.0
 10
349.7616671228857
 20
120.2135903943627
 30
0.0
 10
349.7184205769582
 20
120.2716090205136
 30
0.0
 10
349.6848137647381
 20
120.3097125791663
 30
0.0
 10
349.6598667818654
 20
120.3317151101613
 30
0.0
 10
349.6509072450033
 20
120.3343277235126
 30
0.0
 10
349.6465802082853
 20
120.3355894934094
 30
0.0
  0
SPLINE
  5
10A
330
1F
100
AcDbEntity
  8
0
  6
Continuous
 62
     7
370
    25
100
AcDbSpline
210
0.0
220
0.0
230
1.0
 70
     8
 71
     3
 72
    25
 73
    21
 74
     0
 42
0.000000001
 43
0.00000001
 40
0.0
 40
0.0
 40
0.0
 40
0.0
 40
0.0288821753105771
 40
0.058363659400572
 40
0.088464720430548
 40
0.1192044006616737
 40
0.1506005800085666
 40
0.1826700399669859
 40
0.2154285269576224
 40
0.2488908143379852
 40
0.3610594471136693
 40
0.4984670131067402
 40
0.5822693905005265
 40
0.6661127642780991
 40
0.7499972937224167
 40
0.8007709755018199
 40
0.8511237700786715
 40
0.9010896024485537
 40
0.9507031914094952
 40
1.0
 40
1.0
 40
1.0
 40
1.0
 10
328.5481880526485
 20
120.3355894934094
 30
0.0
 10
328.5458977842708
 20
120.3351612514335
 30
0.0
 10
328.5412697241578
 20
120.3342958814067
 30
0.0
 10
328.5309594610706
 20
120.3272209487053
 30
0.0
 10
328.5181233918397
 20
120.315652407545
 30
0.0
 10
328.5025098330971
 20
120.2989468314328
 30
0.0
 10
328.4841883896844
 20
120.2770099204167
 30
0.0
 10
328.4631408038533
 20
120.249612284932
 30
0.0
 10
328.4393692318611
 20
120.2165778042497
 30
0.0
 10
328.3923127024278
 20
120.1475871381256
 30
0.0
 10
328.3046182845692
 20
120.0075611687064
 30
0.0
 10
328.1870666300375
 20
119.7882658675036
 30
0.0
 10
328.0755444656951
 20
119.5513358067238
 30
0.0
 10
327.984085148347
 20
119.3354939328139
 30
0.0
 10
327.9032034971687
 20
119.1339323119353
 30
0.0
 10
327.8370585953007
 20
118.9550642315481
 30
0.0
 10
327.7877080344747
 20
118.8036880304091
 30
0.0
 10
327.7427410176099
 20
118.6494438752864
 30
0.0
 10
327.7019833036897
 20
118.493288020206
 30
0.0
 10
327.6784886344715
 20
118.388043313253
 30
0.0
 10
327.6667789230556
 20
118.3355894934094
 30
0.0
  0
LINE
  5
10B
330
1F
100
AcDbEntity
  8
0
  6
Continuous
 62
     7
370
    25
100
AcDbLine
 10
327.2267158608
 20
118.4166772198
 30
0.0
 11
327.6667788158
 21
118.3355895243
 31
0.0
  0
SPLINE
  5
10C
330
1F
100
AcDbEntity
  8
0
  6
Continuous
 62
     7
370
    25
100
AcDbSpline
210
0.0
220
0.0
230
1.0
 70
     8
 71
     3
 72
    25
 73
    21
 74
     0
 42
0.000000001
 43
0.00000001
 40
0.0
 40
0.0
 40
0.0
 40
0.0
 40
0.0288821753094393
 40
0.0583636593986225
 40
0.0884647204281144
 40
0.1192044006590791
 40
0.1506005800061348
 40
0.1826700399650394
 40
0.2154285269564808
 40
0.2488908143379647
 40
0.361059447113401
 40
0.4984670131067465
 40
0.5822693905006262
 40
0.6661127642782027
 40
0.7499972937224338
 40
0.8007709755032364
 40
0.8511237700807901
 40
0.9010896024506709
 40
0.9507031914109064
 40
1.0
 40
1.0
 40
1.0
 40
1.0
 10
349.6465802082853
 20
112.1230894934094
 30
0.0
 10
349.6488704766629
 20
112.1235177353853
 30
0.0
 10
349.6534985367757
 20
112.124383105412
 30
0.0
 10
349.6638087998629
 20
112.131458038113
 30
0.0
 10
349.6766448690935
 20
112.1430265792727
 30
0.0
 10
349.6922584278362
 20
112.1597321553844
 30
0.0
 10
349.7105798712489
 20
112.1816690664002
 30
0.0
 10
349.7316274570802
 20
112.209066701885
 30
0.0
 10
349.7553990290725
 20
112.2421011825679
 30
0.0
 10
349.8024555585049
 20
112.3110918486926
 30
0.0
 10
349.8901499763629
 20
112.4511178181126
 30
0.0
 10
350.007701630896
 20
112.6704131193151
 30
0.0
 10
350.1192237952397
 20
112.9073431800949
 30
0.0
 10
350.2106831125878
 20
113.1231850540048
 30
0.0
 10
350.2915647637657
 20
113.3247466748849
 30
0.0
 10
350.3577096656337
 20
113.5036147552744
 30
0.0
 10
350.4070602264603
 20
113.6549909564156
 30
0.0
 10
350.4520272433251
 20
113.8092351115384
 30
0.0
 10
350.4927849572449
 20
113.9653909666166
 30
0.0
 10
350.5162796264626
 20
114.0706356735673
 30
0.0
 10
350.5279893378781
 20
114.1230894934094
 30
0.0
  0
LINE
  5
10D
330
1F
100
AcDbEntity
  8
0
  6
Continuous
 62
     7
370
    25
100
AcDbLine
 10
350.9680524002
 20
114.0420017671
 30
0.0
 11
350.5279894451
 21
114.1230894625
 31
0.0
  0
SPLINE
  5
10E
330
1F
100
AcDbEntity
  8
0
  6
Continuous
 62
     7
370
    25
100
AcDbSpline
210
0.0
220
0.0
230
1.0
 70
     8
 71
     3
 72
    12
 73
     8
 74
     0
 42
0.000000001
 43
0.00000001
 40
0.0
 40
0.0
 40
0.0
 40
0.0
 40
0.2971540265968837
 40
0.5953109213084592
 40
0.7630993176302537
 40
0.9170814912125203
 40
1.0
 40
1.0
 40
1.0
 40
1.0
 10
330.1995263899454
 20
118.3355895243293
 30
0.0
 10
330.2818552199573
 20
118.5969255358811
 30
0.0
 10
330.4467907323778
 20
119.1204795445201
 30
0.0
 10
330.7130808863108
 20
119.6767932442226
 30
0.0
 10
330.905891214443
 20
120.0149850764505
 30
0.0
 10
331.0073500343504
 20
120.1898621105877
 30
0.0
 10
331.0404640541354
 20
120.2422520715785
 30
0.0
 10
331.0520544181356
 20
120.2605892810679
 30
0.0
  0
SPLINE
  5
10F
330
1F
100
AcDbEntity
  8
0
  6
Continuous
 62
     7
370
    25
100
AcDbSpline
210
0.0
220
0.0
230
1.0
 70
     8
 71
     3
 72
    12
 73
     8
 74
     0
 42
0.000000001
 43
0.00000001
 40
0.0
 40
0.0
 40
0.0
 40
0.0
 40
0.2971540265968837
 40
0.5953109213084592
 40
0.7630993176302537
 40
0.9170814912125203
 40
1.0
 40
1.0
 40
1.0
 40
1.0
 10
347.9952418709883
 20
114.1230894624895
 30
0.0
 10
347.9129130409765
 20
113.8617534509377
 30
0.0
 10
347.747977528556
 20
113.3381994422987
 30
0.0
 10
347.4816873746229
 20
112.7818857425962
 30
0.0
 10
347.2888770464908
 20
112.4436939103683
 30
0.0
 10
347.1874182265834
 20
112.2688168762311
 30
0.0
 10
347.1543042067983
 20
112.2164269152403
 30
0.0
 10
347.1427138427982
 20
112.1980897057509
 30
0.0
  0
SPLINE
  5
110
330
1F
100
AcDbEntity
  8
0
  6
Continuous
 62
     7
370
    25
100
AcDbSpline
210
0.0
220
0.0
230
1.0
 70
     8
 71
     3
 72
    11
 73
     7
 74
     0
 42
0.000000001
 43
0.00000001
 40
0.0
 40
0.0
 40
0.0
 40
0.0
 40
0.1078686449390932
 40
0.4034673949314601
 40
0.7028907467952099
 40
1.0
 40
1.0
 40
1.0
 40
1.0
 10
331.0509852598199
 20
112.1980897057509
 30
0.0
 10
331.0345393755724
 20
112.2240542733542
 30
0.0
 10
330.9730258738646
 20
112.3211710625501
 30
0.0
 10
330.7575172714022
 20
112.6968479702433
 30
0.0
 10
330.4457492120163
 20
113.3361109898636
 30
0.0
 10
330.2813881314364
 20
113.8614426023683
 30
0.0
 10
330.1995263899454
 20
114.1230894624895
 30
0.0
  0
LINE
  5
111
330
1F
100
AcDbEntity
  8
0
  6
Continuous
 62
     7
370
    25
100
AcDbLine
 10
330.5157867725
 20
118.2607260905
 30
0.0
 11
330.1995263899
 21
118.3355895243
 31
0.0
  0
SPLINE
  5
112
330
1F
100
AcDbEntity
  8
0
  6
Continuous
 62
     7
370
    25
100
AcDbSpline
210
0.0
220
0.0
230
1.0
 70
     8
 71
     3
 72
    25
 73
    21
 74
     0
 42
0.000000001
 43
0.00000001
 40
0.0
 40
0.0
 40
0.0
 40
0.0
 40
0.0278144320063459
 40
0.0555680196245752
 40
0.0833316253677715
 40
0.1111760352167582
 40
0.1391714221532259
 40
0.1673868326284758
 40
0.1958897140434715
 40
0.2247454979318968
 40
0.2540172492221455
 40
0.3796724410010767
 40
0.5056484635002251
 40
0.6297527290687337
 40
0.7535891720571736
 40
0.8038564806093723
 40
0.8533396843434523
 40
0.9023264398358549
 40
0.9511131859219458
 40
1.0
 40
1.0
 40
1.0
 40
1.0
 10
331.3834080411784
 20
120.5030877845919
 30
0.0
 10
331.3832602898636
 20
120.5028212420384
 30
0.0
 10
331.3829651104419
 20
120.5022887399961
 30
0.0
 10
331.3793404114261
 20
120.4957412913
 30
0.0
 10
331.3733945157558
 20
120.4849720480138
 30
0.0
 10
331.3649197928407
 20
120.4695613120895
 30
0.0
 10
331.3540048060016
 20
120.4496049358357
 30
0.0
 10
331.3406687377632
 20
120.4250548393653
 30
0.0
 10
331.3249609730763
 20
120.3958982156093
 30
0.0
 10
331.3069293849184
 20
120.3621022441759
 30
0.0
 10
331.2645118401701
 20
120.2816954861184
 30
0.0
 10
331.1839908004164
 20
120.1247070364473
 30
0.0
 10
331.0505644535424
 20
119.8429212987011
 30
0.0
 10
330.9064874768592
 20
119.505049189074
 30
0.0
 10
330.7908097254077
 20
119.1963682753355
 30
0.0
 10
330.7082982501902
 20
118.9503375555798
 30
0.0
 10
330.6553766256651
 20
118.7815116643066
 30
0.0
 10
330.6055194912877
 20
118.6101960932949
 30
0.0
 10
330.5585014980571
 20
118.4365137430741
 30
0.0
 10
330.5300344873286
 20
118.3193620547707
 30
0.0
 10
330.5157863995298
 20
118.2607261988093
 30
0.0
  0
LINE
  5
113
330
1F
100
AcDbEntity
  8
0
  6
Continuous
 62
     7
370
    25
100
AcDbLine
 10
330.5157867725
 20
114.1979528963
 30
0.0
 11
330.1995263899
 21
114.1230894625
 31
0.0
  0
SPLINE
  5
114
330
1F
100
AcDbEntity
  8
0
  6
Continuous
 62
     7
370
    25
100
AcDbSpline
210
0.0
220
0.0
230
1.0
 70
     8
 71
     3
 72
    25
 73
    21
 74
     0
 42
0.000000001
 43
0.00000001
 40
0.0
 40
0.0
 40
0.0
 40
0.0
 40
0.0269872354798654
 40
0.0539362690261339
 40
0.0809037148831245
 40
0.107946071654785
 40
0.1351193706858311
 40
0.1624788388357973
 40
0.1900785854184274
 40
0.2179713214291598
 40
0.2462081170984737
 40
0.3700050494706795
 40
0.4947542611659102
 40
0.6210439034699656
 40
0.7446557472315446
 40
0.7967060293742283
 40
0.8478613449334612
 40
0.8985210411995624
 40
0.9490962115261248
 40
1.0
 40
1.0
 40
1.0
 40
1.0
 10
330.5157863995298
 20
114.1979527880095
 30
0.0
 10
330.5235671442539
 20
114.1655563829817
 30
0.0
 10
330.539117619625
 20
114.1008094318402
 30
0.0
 10
330.5638030255982
 20
114.0041628954113
 30
0.0
 10
330.5894229825973
 20
113.9080688069198
 30
0.0
 10
330.6160658462248
 20
113.812556536203
 30
0.0
 10
330.6436910315093
 20
113.7176318088103
 30
0.0
 10
330.6722928105685
 20
113.6233056526747
 30
0.0
 10
330.70185490021
 20
113.5295893082256
 30
0.0
 10
330.7323680472571
 20
113.4364852243356
 30
0.0
 10
330.7991022518463
 20
113.2402199822228
 30
0.0
 10
330.906285427942
 20
112.9541468666197
 30
0.0
 10
331.050065518251
 20
112.6168569706258
 30
0.0
 10
331.183313974463
 20
112.3353477938019
 30
0.0
 10
331.2709851506762
 20
112.1643568636237
 30
0.0
 10
331.3218601864681
 20
112.068444045242
 30
0.0
 10
331.3495293411195
 20
112.0172268417873
 30
0.0
 10
331.369228259237
 20
111.9812440477022
 30
0.0
 10
331.3814757679406
 20
111.9590741593802
 30
0.0
 10
331.3827625610966
 20
111.9567546916466
 30
0.0
 10
331.3834080411784
 20
111.9555912022269
 30
0.0
  0
LINE
  5
115
330
1F
100
AcDbEntity
  8
0
  6
Continuous
 62
     7
370
    25
100
AcDbLine
 10
347.6789814885
 20
114.1979528963
 30
0.0
 11
347.995241871
 21
114.1230894625
 31
0.0
  0
SPLINE
  5
116
330
1F
100
AcDbEntity
  8
0
  6
Continuous
 62
     7
370
    25
100
AcDbSpline
210
0.0
220
0.0
230
1.0
 70
     8
 71
     3
 72
    25
 73
    21
 74
     0
 42
0.000000001
 43
0.00000001
 40
0.0
 40
0.0
 40
0.0
 40
0.0
 40
0.0278144320057639
 40
0.0555680196235574
 40
0.0833316253664654
 40
0.1111760352153096
 40
0.1391714221517776
 40
0.1673868326271671
 40
0.1958897140424394
 40
0.2247454979312721
 40
0.2540172492220529
 40
0.3796724409982623
 40
0.5056484635001489
 40
0.62975272906517
 40
0.7535891720570678
 40
0.803856480607963
 40
0.8533396843413759
 40
0.902326439833779
 40
0.9511131859205574
 40
0.9999999999999999
 40
0.9999999999999999
 40
0.9999999999999999
 40
0.9999999999999999
 10
346.8113602197554
 20
111.9555912022269
 30
0.0
 10
346.8115079710701
 20
111.9558577447804
 30
0.0
 10
346.8118031504918
 20
111.9563902468227
 30
0.0
 10
346.8154278495076
 20
111.9629376955188
 30
0.0
 10
346.8213737451779
 20
111.9737069388051
 30
0.0
 10
346.8298484680931
 20
111.9891176747294
 30
0.0
 10
346.8407634549322
 20
112.0090740509831
 30
0.0
 10
346.8540995231706
 20
112.0336241474536
 30
0.0
 10
346.8698072878576
 20
112.0627807712095
 30
0.0
 10
346.8878388760154
 20
112.096576742643
 30
0.0
 10
346.9302564207623
 20
112.1769835006979
 30
0.0
 10
347.0107774605164
 20
112.3339719503697
 30
0.0
 10
347.144203807389
 20
112.6157576881125
 30
0.0
 10
347.2882807840733
 20
112.9536297977417
 30
0.0
 10
347.4039585355244
 20
113.2623107114786
 30
0.0
 10
347.4864700107421
 20
113.5083414312347
 30
0.0
 10
347.5393916352667
 20
113.6771673225056
 30
0.0
 10
347.5892487696442
 20
113.8484828935173
 30
0.0
 10
347.6362667628756
 20
114.0221652437406
 30
0.0
 10
347.6647337736047
 20
114.1393169320465
 30
0.0
 10
347.6789818614039
 20
114.1979527880095
 30
0.0
  0
SPLINE
  5
117
330
1F
100
AcDbEntity
  8
0
  6
Continuous
 62
     7
370
    25
100
AcDbSpline
210
0.0
220
0.0
230
1.0
 70
     8
 71
     3
 72
    11
 73
     7
 74
     0
 42
0.000000001
 43
0.00000001
 40
0.0
 40
0.0
 40
0.0
 40
0.0
 40
0.1078686449390932
 40
0.4034673949314601
 40
0.7028907467952099
 40
1.0
 40
1.0
 40
1.0
 40
1.0
 10
347.1437830011138
 20
120.2605892810679
 30
0.0
 10
347.1602288853613
 20
120.2346247134646
 30
0.0
 10
347.2217423870692
 20
120.1375079242686
 30
0.0
 10
347.4372509895316
 20
119.7618310165755
 30
0.0
 10
347.7490190489174
 20
119.1225679969552
 30
0.0
 10
347.9133801294973
 20
118.5972363844505
 30
0.0
 10
347.9952418709883
 20
118.3355895243293
 30
0.0
  0
LINE
  5
118
330
1F
100
AcDbEntity
  8
0
  6
Continuous
 62
     7
370
    25
100
AcDbLine
 10
347.6789814885
 20
118.2607260905
 30
0.0
 11
347.995241871
 21
118.3355895243
 31
0.0
  0
SPLINE
  5
119
330
1F
100
AcDbEntity
  8
0
  6
Continuous
 62
     7
370
    25
100
AcDbSpline
210
0.0
220
0.0
230
1.0
 70
     8
 71
     3
 72
    12
 73
     8
 74
     0
 42
0.000000001
 43
0.00000001
 40
0.0
 40
0.0
 40
0.0
 40
0.0
 40
0.1404141540052139
 40
0.2845308631549995
 40
0.5710083094680874
 40
0.8589424285223366
 40
0.9999999999999999
 40
0.9999999999999999
 40
0.9999999999999999
 40
0.9999999999999999
 10
347.6789814884552
 20
118.2607260904914
 30
0.0
 10
347.6422106151243
 20
118.4062721493168
 30
0.0
 10
347.5676992640293
 20
118.7012021443717
 30
0.0
 10
347.3873557800725
 20
119.259452714257
 30
0.0
 10
347.1411343992647
 20
119.8673090492883
 30
0.0
 10
346.9229593589037
 20
120.2980961888807
 30
0.0
 10
346.8600235147979
 20
120.4139716857727
 30
0.0
 10
346.8393294605204
 20
120.4520729276991
 30
0.0
  0
ARC
  5
11A
330
1F
100
AcDbEntity
  8
0
  6
Continuous
 62
     7
370
    25
100
AcDbCircle
 10
339.0973841305
 20
116.2293394934
 30
0.0
 40
11.62303852141071
100
AcDbArc
 50
169.5595567507
 51
190.4404432494
  0
ARC
  5
11B
330
1F
100
AcDbEntity
  8
0
  6
Continuous
 62
     7
370
    25
100
AcDbCircle
 10
339.0973841305
 20
116.2293394934
 30
0.0
 40
9.143750000000006
100
AcDbArc
 50
166.6824039243
 51
193.3175960757
  0
ARC
  5
11C
330
1F
100
AcDbEntity
  8
0
  6
Continuous
 62
     7
370
    25
100
AcDbCircle
 10
339.0973841305
 20
116.2293394934
 30
0.0
 40
8.818750000000026
100
AcDbArc
 50
166.6824039243
 51
193.3175960757
  0
ARC
  5
11D
330
1F
100
AcDbEntity
  8
0
  6
Continuous
 62
     7
370
    25
100
AcDbCircle
 10
339.0973841305
 20
116.2293394934
 30
0.0
 40
9.143750000000006
100
AcDbArc
 50
346.6824039243
 51
13.3175960757
  0
ARC
  5
11E
330
1F
100
AcDbEntity
  8
0
  6
Continuous
 62
     7
370
    25
100
AcDbCircle
 10
339.0973841305
 20
116.2293394934
 30
0.0
 40
8.818749999999966
100
AcDbArc
 50
346.6824039243
 51
13.3175960757
  0
ARC
  5
11F
330
1F
100
AcDbEntity
  8
0
  6
Continuous
 62
     7
370
    25
100
AcDbCircle
 10
339.0973841305
 20
116.2293394934
 30
0.0
 40
11.6230385214107
100
AcDbArc
 50
349.5595567507
 51
10.4404432493
  0
CIRCLE
  5
120
330
1F
100
AcDbEntity
  8
0
  6
Continuous
 62
     7
370
    25
100
AcDbCircle
 10
339.0973841305
 20
116.2293394934
 30
0.0
 40
7.774999999999977
  0
CIRCLE
  5
121
330
1F
100
AcDbEntity
  8
0
  6
Continuous
 62
     7
370
    25
100
AcDbCircle
 10
339.0973841305
 20
116.2293394934
 30
0.0
 40
2.615470053837896
  0
CIRCLE
  5
122
330
1F
100
AcDbEntity
  8
0
  6
Continuous
 62
     7
370
    25
100
AcDbCircle
 10
339.0973841305
 20
116.2293394934
 30
0.0
 40
2.5
  0
CIRCLE
  5
123
330
1F
100
AcDbEntity
  8
0
  6
Continuous
 62
     7
370
    25
100
AcDbCircle
 10
339.0973841305
 20
116.2293394934
 30
0.0
 40
15.73749999999995
  0
CIRCLE
  5
124
330
1F
100
AcDbEntity
  8
0
  6
Continuous
 62
     7
370
    25
100
AcDbCircle
 10
339.0973841305
 20
116.2293394934
 30
0.0
 40
13.42499999999995
  0
CIRCLE
  5
125
330
1F
100
AcDbEntity
  8
0
  6
Continuous
 62
     7
370
    25
100
AcDbCircle
 10
339.0973841305
 20
116.2293394934
 30
0.0
 40
2.0
  0
CIRCLE
  5
126
330
1F
100
AcDbEntity
  8
0
  6
Continuous
 62
     7
370
    25
100
AcDbCircle
 10
339.0973841305
 20
116.2293394934
 30
0.0
 40
1.75
  0
LINE
  5
127
330
1F
100
AcDbEntity
  8
0
  6
CENTER
 62
     7
370
    18
100
AcDbLine
 10
339.0973841305
 20
116.2293394934
 30
0.0
 11
339.0973841305
 21
135.7322910935
 31
0.0
  0
LINE
  5
128
330
1F
100
AcDbEntity
  8
0
  6
CENTER
 62
     7
370
    18
100
AcDbLine
 10
339.0973841305
 20
116.2293394934
 30
0.0
 11
358.6118841305
 21
116.2293394934
 31
0.0
  0
LINE
  5
129
330
1F
100
AcDbEntity
  8
0
  6
Continuous
 62
     7
370
    18
100
AcDbLine
 10
351.0973841305
 20
133.7322910935
 30
0.0
 11
339.0973841305
 21
133.7322910935
 31
0.0
  0
SOLID
  5
12A
330
1F
100
AcDbEntity
  8
0
  6
Continuous
 62
     7
370
    18
100
AcDbTrace
 10
339.0973841305
 20
133.7322910935
 30
0.0
 11
345.0973841305
 21
132.2322910935
 31
0.0
 12
345.0973841305
 22
135.2322910935
 32
0.0
 13
345.0973841305
 23
135.2322910935
 33
0.0
  0
LINE
  5
12B
330
1F
100
AcDbEntity
  8
0
  6
Continuous
 62
     7
370
    18
100
AcDbLine
 10
368.6118841305
 20
116.2293394934
 30
0.0
 11
356.6118841305
 21
116.2293394934
 31
0.0
  0
SOLID
  5
12C
330
1F
100
AcDbEntity
  8
0
  6
Continuous
 62
     7
370
    18
100
AcDbTrace
 10
356.6118841305
 20
116.2293394934
 30
0.0
 11
362.6118841305
 21
114.7293394934
 31
0.0
 12
362.6118841305
 22
117.7293394934
 32
0.0
 13
362.6118841305
 23
117.7293394934
 33
0.0
  0
MTEXT
  5
12D
330
1F
100
AcDbEntity
  8
0
  6
Continuous
 62
     7
100
AcDbMText
 10
347.9500033865
 20
140.3785843101
 30
0.0
 40
3.5
 41
0.0
 71
     1
 72
     1
  1
A
  7
SLDTEXTSTYLE0
 73
     1
 44
1.0
  0
MTEXT
  5
12E
330
1F
100
AcDbEntity
  8
0
  6
Continuous
 62
     7
100
AcDbMText
 10
365.4645033865
 20
114.0161238523
 30
0.0
 40
3.5
 41
0.0
 71
     1
 72
     1
  1
A
  7
SLDTEXTSTYLE0
 73
     1
 44
1.0
  0
LINE
  5
12F
330
1F
100
AcDbEntity
  8
0
  6
Continuous
 62
     7
370
    25
100
AcDbLine
 10
125.486264144
 20
84.7543394934
 30
0.0
 11
130.2520663395
 21
84.7543394934
 31
0.0
  0
ARC
  5
130
330
1F
100
AcDbEntity
  8
0
  6
Continuous
 62
     7
370
    25
100
AcDbCircle
 10
112.4520663395
 20
84.9543394934
 30
0.0
 40
0.2000000000000028
100
AcDbArc
 50
180.0
 51
270.0
  0
LINE
  5
131
330
1F
100
AcDbEntity
  8
0
  6
Continuous
 62
     7
370
    25
100
AcDbLine
 10
112.4520663395
 20
84.7543394934
 30
0.0
 11
118.8178685349
 21
84.7543394934
 31
0.0
  0
LINE
  5
132
330
1F
100
AcDbEntity
  8
0
  6
Continuous
 62
     7
370
    25
100
AcDbLine
 10
118.8178685349
 20
84.7543394934
 30
0.0
 11
120.2770663395
 21
87.2817442292
 31
0.0
  0
LINE
  5
133
330
1F
100
AcDbEntity
  8
0
  6
Continuous
 62
     7
370
    25
100
AcDbLine
 10
124.0270663395
 20
87.2817442292
 30
0.0
 11
125.486264144
 21
84.7543394934
 31
0.0
  0
ARC
  5
134
330
1F
100
AcDbEntity
  8
0
  6
Continuous
 62
     7
370
    25
100
AcDbCircle
 10
121.2770663395
 20
87.3793394934
 30
0.0
 40
1.000000000000014
100
AcDbArc
 50
90.0
 51
180.0
  0
ARC
  5
135
330
1F
100
AcDbEntity
  8
0
  6
Continuous
 62
     7
370
    25
100
AcDbCircle
 10
123.0270663395
 20
87.3793394934
 30
0.0
 40
1.0
100
AcDbArc
 50
0.0
 51
90.0
  0
LINE
  5
136
330
1F
100
AcDbEntity
  8
0
  6
Continuous
 62
     7
370
    25
100
AcDbLine
 10
121.2770663395
 20
88.3793394934
 30
0.0
 11
123.0270663395
 21
88.3793394934
 31
0.0
  0
ARC
  5
137
330
1F
100
AcDbEntity
  8
0
  6
Continuous
 62
     7
370
    25
100
AcDbCircle
 10
111.8231314649
 20
90.6793394934
 30
0.0
 40
0.8000000000000047
100
AcDbArc
 50
57.576802718
 51
107.5
  0
LINE
  5
138
330
1F
100
AcDbEntity
  8
0
  6
Continuous
 62
     7
370
    25
100
AcDbLine
 10
97.7656208714
 20
91.9568189727
 30
0.0
 11
111.0918842994
 21
91.2876014479
 31
0.0
  0
LINE
  5
139
330
1F
100
AcDbEntity
  8
0
  6
Continuous
 62
     7
370
    25
100
AcDbLine
 10
73.8020663395
 20
93.1602193658
 30
0.0
 11
81.856903203
 21
92.7557220349
 31
0.0
  0
LINE
  5
13A
330
1F
100
AcDbEntity
  8
0
  6
Continuous
 62
     7
370
    25
100
AcDbLine
 10
111.0918842994
 20
91.2876014479
 30
0.0
 11
111.5825668253
 21
91.442313054
 31
0.0
  0
LINE
  5
13B
330
1F
100
AcDbEntity
  8
0
  6
Continuous
 62
     7
370
    25
100
AcDbLine
 10
72.3020663395
 20
94.0262447696
 30
0.0
 11
73.8020663395
 21
93.1602193658
 31
0.0
  0
ARC
  5
13C
330
1F
100
AcDbEntity
  8
0
  6
Continuous
 62
     7
370
    25
100
AcDbCircle
 10
133.2520663395
 20
97.2293394934
 30
0.0
 40
3.000000000000014
100
AcDbArc
 50
90.0
 51
180.0
  0
LINE
  5
13D
330
1F
100
AcDbEntity
  8
0
  6
Continuous
 62
     7
370
    25
100
AcDbLine
 10
133.2520663395
 20
100.2293394934
 30
0.0
 11
181.4272473948
 21
100.2293394934
 31
0.0
  0
LINE
  5
13E
330
1F
100
AcDbEntity
  8
0
  6
Continuous
 62
     7
370
    25
100
AcDbLine
 10
181.4272473948
 20
100.2293394934
 30
0.0
 11
230.4089845309
 21
104.0842858093
 31
0.0
  0
ARC
  5
13F
330
1F
100
AcDbEntity
  8
0
  6
Continuous
 62
     7
370
    25
100
AcDbCircle
 10
230.2520663395
 20
106.0781204767
 30
0.0
 40
2.0
100
AcDbArc
 50
274.5
 51
0.0
  0
LINE
  5
140
330
1F
100
AcDbEntity
  8
0
  6
Continuous
 62
     7
370
    25
100
AcDbLine
 10
190.7520663395
 20
120.2293394934
 30
0.0
 11
175.2520663395
 21
120.2293394934
 31
0.0
  0
LINE
  5
141
330
1F
100
AcDbEntity
  8
0
  6
Continuous
 62
     7
370
    25
100
AcDbLine
 10
191.2520663395
 20
119.7293394934
 30
0.0
 11
190.7520663395
 21
120.2293394934
 31
0.0
  0
LINE
  5
142
330
1F
100
AcDbEntity
  8
0
  6
Continuous
 62
     7
370
    25
100
AcDbLine
 10
175.2520663395
 20
120.2293394934
 30
0.0
 11
174.7520663395
 21
119.7293394934
 31
0.0
  0
LINE
  5
143
330
1F
100
AcDbEntity
  8
0
  6
Continuous
 62
     7
370
    25
100
AcDbLine
 10
192.7520663395
 20
119.3808472202
 30
0.0
 11
194.7520663395
 21
119.3808472202
 31
0.0
  0
LINE
  5
144
330
1F
100
AcDbEntity
  8
0
  6
Continuous
 62
     7
370
    25
100
AcDbLine
 10
192.7520663395
 20
119.7293394934
 30
0.0
 11
191.2520663395
 21
119.7293394934
 31
0.0
  0
LINE
  5
145
330
1F
100
AcDbEntity
  8
0
  6
Continuous
 62
     7
370
    25
100
AcDbLine
 10
189.7520663395
 20
117.7795879902
 30
0.0
 11
189.7520663395
 21
118.2293394934
 31
0.0
  0
LINE
  5
146
330
1F
100
AcDbEntity
  8
0
  6
Continuous
 62
     7
370
    25
100
AcDbLine
 10
189.7520663395
 20
116.2293394934
 30
0.0
 11
189.7520663395
 21
117.7795879902
 31
0.0
  0
LINE
  5
147
330
1F
100
AcDbEntity
  8
0
  6
Continuous
 62
     7
370
    25
100
AcDbLine
 10
179.7520663394
 20
117.7795879902
 30
0.0
 11
179.7520663394
 21
116.2293394934
 31
0.0
  0
LINE
  5
148
330
1F
100
AcDbEntity
  8
0
  6
Continuous
 62
     7
370
    25
100
AcDbLine
 10
179.7520663394
 20
118.2293394934
 30
0.0
 11
179.7520663394
 21
117.7795879902
 31
0.0
  0
LINE
  5
149
330
1F
100
AcDbEntity
  8
0
  6
Continuous
 62
     7
370
    25
100
AcDbLine
 10
179.7520663394
 20
118.2293394934
 30
0.0
 11
189.7520663395
 21
118.2293394934
 31
0.0
  0
LINE
  5
14A
330
1F
100
AcDbEntity
  8
0
  6
Continuous
 62
     7
370
    25
100
AcDbLine
 10
192.7520663395
 20
118.3690071042
 30
0.0
 11
192.7520663395
 21
119.7293394934
 31
0.0
  0
LINE
  5
14B
330
1F
100
AcDbEntity
  8
0
  6
Continuous
 62
     7
370
    25
100
AcDbLine
 10
189.7520663395
 20
118.3690071042
 30
0.0
 11
192.7520663395
 21
118.3690071042
 31
0.0
  0
LINE
  5
14C
330
1F
100
AcDbEntity
  8
0
  6
Continuous
 62
     7
370
    25
100
AcDbLine
 10
189.7520663395
 20
118.2293394934
 30
0.0
 11
189.7520663395
 21
118.3690071042
 31
0.0
  0
LINE
  5
14D
330
1F
100
AcDbEntity
  8
0
  6
Continuous
 62
     7
370
    25
100
AcDbLine
 10
179.7520663394
 20
118.3690071042
 30
0.0
 11
179.7520663394
 21
118.2293394934
 31
0.0
  0
LINE
  5
14E
330
1F
100
AcDbEntity
  8
0
  6
Continuous
 62
     7
370
    25
100
AcDbLine
 10
174.7520663394
 20
118.3690071042
 30
0.0
 11
179.7520663394
 21
118.3690071042
 31
0.0
  0
LINE
  5
14F
330
1F
100
AcDbEntity
  8
0
  6
Continuous
 62
     7
370
    25
100
AcDbLine
 10
174.7520663395
 20
119.7293394934
 30
0.0
 11
174.7520663394
 21
118.3690071042
 31
0.0
  0
LINE
  5
150
330
1F
100
AcDbEntity
  8
0
  6
Continuous
 62
     7
370
    25
100
AcDbLine
 10
179.7520663394
 20
117.0500379923
 30
0.0
 11
174.7520663394
 21
117.0500379923
 31
0.0
  0
LINE
  5
151
330
1F
100
AcDbEntity
  8
0
  6
Continuous
 62
     7
370
    25
100
AcDbLine
 10
174.7520663394
 20
118.3690071042
 30
0.0
 11
174.7520663394
 21
117.0500379923
 31
0.0
  0
LINE
  5
152
330
1F
100
AcDbEntity
  8
0
  6
Continuous
 62
     7
370
    25
100
AcDbLine
 10
194.7520663395
 20
117.0500379923
 30
0.0
 11
194.7520663395
 21
117.7795879902
 31
0.0
  0
LINE
  5
153
330
1F
100
AcDbEntity
  8
0
  6
Continuous
 62
     7
370
    25
100
AcDbLine
 10
189.7520663395
 20
117.0500379923
 30
0.0
 11
194.7520663395
 21
117.0500379923
 31
0.0
  0
LINE
  5
154
330
1F
100
AcDbEntity
  8
0
  6
Continuous
 62
     7
370
    25
100
AcDbLine
 10
194.7520663395
 20
117.7795879902
 30
0.0
 11
192.7520663395
 21
117.7795879902
 31
0.0
  0
LINE
  5
155
330
1F
100
AcDbEntity
  8
0
  6
Continuous
 62
     7
370
    25
100
AcDbLine
 10
192.7520663395
 20
117.7795879902
 30
0.0
 11
192.7520663395
 21
118.3690071042
 31
0.0
  0
LINE
  5
156
330
1F
100
AcDbEntity
  8
0
  6
Continuous
 62
     7
370
    25
100
AcDbLine
 10
194.7520663395
 20
119.3808472202
 30
0.0
 11
194.7520663395
 21
117.7795879902
 31
0.0
  0
LINE
  5
157
330
1F
100
AcDbEntity
  8
0
  6
Continuous
 62
     7
370
    25
100
AcDbLine
 10
194.7520663395
 20
116.2293394934
 30
0.0
 11
194.7520663395
 21
117.0500379923
 31
0.0
  0
LINE
  5
158
330
1F
100
AcDbEntity
  8
0
  6
Continuous
 62
     7
370
    25
100
AcDbLine
 10
174.7520663394
 20
117.0500379923
 30
0.0
 11
174.7520663394
 21
116.2293394934
 31
0.0
  0
LINE
  5
159
330
1F
100
AcDbEntity
  8
0
  6
Continuous
 62
     7
370
    25
100
AcDbLine
 10
125.486264144
 20
84.7543394934
 30
0.0
 11
125.486264144
 21
111.3396322137
 31
0.0
  0
SPLINE
  5
15A
330
1F
100
AcDbEntity
  8
0
  6
Continuous
 62
     7
370
    25
100
AcDbSpline
210
0.0
220
0.0
230
1.0
 70
     8
 71
     3
 72
    20
 73
    16
 74
     0
 42
0.000000001
 43
0.00000001
 40
0.0
 40
0.0
 40
0.0
 40
0.0
 40
0.1249999999999999
 40
0.1249999999999999
 40
0.2499999999999997
 40
0.2499999999999997
 40
0.3749999999999996
 40
0.3749999999999996
 40
0.4999999999999994
 40
0.4999999999999994
 40
0.7499999999999998
 40
0.7499999999999998
 40
0.8749999999999999
 40
0.8749999999999999
 40
1.0
 40
1.0
 40
1.0
 40
1.0
 10
129.0395663394653
 20
116.2293394934097
 30
0.0
 10
129.0395663394653
 20
115.9626714059284
 30
0.0
 10
129.0175193104216
 20
115.6943592306544
 30
0.0
 10
128.9285132727167
 20
115.1615161954211
 30
0.0
 10
128.8626343045173
 20
114.9022259854352
 30
0.0
 10
128.6904593968101
 20
114.3970990194137
 30
0.0
 10
128.5837528259031
 20
114.1505188034924
 30
0.0
 10
128.3310759230269
 20
113.6741021527527
 30
0.0
 10
128.1876186588322
 20
113.4486820909878
 30
0.0
 10
127.7092964665517
 20
112.8080744093741
 30
0.0
 10
127.3212694835862
 20
112.425308694271
 30
0.0
 10
126.6794648351408
 20
111.9494064460994
 30
0.0
 10
126.4546602074936
 20
111.8058108099477
 30
0.0
 10
125.9833511498714
 20
111.5484794245571
 30
0.0
 10
125.7376545499825
 20
111.4354270460352
 30
0.0
 10
125.4862641440354
 20
111.3396322137245
 30
0.0
  0
LINE
  5
15B
330
1F
100
AcDbEntity
  8
0
  6
Continuous
 62
     7
370
    25
100
AcDbLine
 10
130.2520663395
 20
84.7543394934
 30
0.0
 11
130.2520663395
 21
116.2293394934
 31
0.0
  0
LINE
  5
15C
330
1F
100
AcDbEntity
  8
0
  6
Continuous
 62
     7
370
    25
100
AcDbLine
 10
130.2520663395
 20
147.7043394934
 30
0.0
 11
125.486264144
 21
147.7043394934
 31
0.0
  0
LINE
  5
15D
330
1F
100
AcDbEntity
  8
0
  6
Continuous
 62
     7
370
    25
100
AcDbLine
 10
112.2520663395
 20
84.9543394934
 30
0.0
 11
112.2520663395
 21
116.2293394934
 31
0.0
  0
LINE
  5
15E
330
1F
100
AcDbEntity
  8
0
  6
Continuous
 62
     7
370
    25
100
AcDbLine
 10
112.2520663395
 20
116.2293394934
 30
0.0
 11
112.4520663395
 21
116.2293394934
 31
0.0
  0
ARC
  5
15F
330
1F
100
AcDbEntity
  8
0
  6
Continuous
 62
     7
370
    25
100
AcDbCircle
 10
112.4520663395
 20
147.5043394934
 30
0.0
 40
0.2000000000000028
100
AcDbArc
 50
90.0
 51
180.0
  0
SPLINE
  5
160
330
1F
100
AcDbEntity
  8
0
  6
Continuous
 62
     7
370
    25
100
AcDbSpline
210
0.0
220
0.0
230
1.0
 70
     8
 71
     3
 72
    14
 73
    10
 74
     0
 42
0.000000001
 43
0.00000001
 40
0.0
 40
0.0
 40
0.0
 40
0.0
 40
0.25
 40
0.25
 40
0.5
 40
0.5
 40
0.75
 40
0.75
 40
1.0
 40
1.0
 40
1.0
 40
1.0
 10
118.8178685348952
 20
112.9344414078928
 30
0.0
 10
118.6209926493702
 20
113.161937975822
 30
0.0
 10
118.4448843279807
 20
113.4035247508931
 30
0.0
 10
118.1351479342075
 20
113.9156819852672
 30
0.0
 10
118.000589932714
 20
114.1892147883754
 30
0.0
 10
117.7853477800048
 20
114.7493199229128
 30
0.0
 10
117.7037045424859
 20
115.0362924183228
 30
0.0
 10
117.5931815202158
 20
115.6243314033671
 30
0.0
 10
117.5645663394653
 20
115.9287748591378
 30
0.0
 10
117.5645663394653
 20
116.2293394934096
 30
0.0
  0
LINE
  5
161
330
1F
100
AcDbEntity
  8
0
  6
Continuous
 62
     7
370
    25
100
AcDbLine
 10
118.8178685349
 20
84.7543394934
 30
0.0
 11
118.8178685349
 21
112.9344414079
 31
0.0
  0
LINE
  5
162
330
1F
100
AcDbEntity
  8
0
  6
Continuous
 62
     7
370
    25
100
AcDbLine
 10
118.8178685349
 20
147.7043394934
 30
0.0
 11
112.4520663395
 21
147.7043394934
 31
0.0
  0
ARC
  5
163
330
1F
100
AcDbEntity
  8
0
  6
Continuous
 62
     7
370
    25
100
AcDbCircle
 10
123.3020663395
 20
116.2293394934
 30
0.0
 40
3.73750000000002
100
AcDbArc
 50
180.0
 51
206.113804444
  0
SPLINE
  5
164
330
1F
100
AcDbEntity
  8
0
  6
Continuous
 62
     7
370
    25
100
AcDbSpline
210
0.0
220
0.0
230
1.0
 70
     8
 71
     3
 72
    10
 73
     6
 74
     0
 42
0.000000001
 43
0.00000001
 40
0.0
 40
0.0
 40
0.0
 40
0.0
 40
0.5
 40
0.5
 40
1.0
 40
1.0
 40
1.0
 40
1.0
 10
119.946084532012
 20
114.584258231574
 30
0.0
 10
119.7691993855886
 20
114.2858079162174
 30
0.0
 10
119.5836500107112
 20
114.00681521209
 30
0.0
 10
119.2057010706636
 20
113.4614959179642
 30
0.0
 10
119.0129145284844
 20
113.1961605321428
 30
0.0
 10
118.8178685348952
 20
112.9344414078928
 30
0.0
  0
SPLINE
  5
165
330
1F
100
AcDbEntity
  8
0
  6
Continuous
 62
     7
370
    25
100
AcDbSpline
210
0.0
220
0.0
230
1.0
 70
     8
 71
     3
 72
     8
 73
     4
 74
     0
 42
0.000000001
 43
0.00000001
 40
0.0
 40
0.0
 40
0.0
 40
0.0
 40
1.0
 40
1.0
 40
1.0
 40
1.0
 10
125.4862641440349
 20
111.3396322137234
 30
0.0
 10
125.1378627393546
 20
111.7776075401373
 30
0.0
 10
124.7932943541218
 20
112.2206906787221
 30
0.0
 10
124.4549100548009
 20
112.6740817505707
 30
0.0
  0
ARC
  5
166
330
1F
100
AcDbEntity
  8
0
  6
Continuous
 62
     7
370
    25
100
AcDbCircle
 10
123.3020663395
 20
116.2293394934
 30
0.0
 40
3.737499999999997
100
AcDbArc
 50
287.9660359156
 51
0.0
  0
SPLINE
  5
167
330
1F
100
AcDbEntity
  8
0
  6
Continuous
 62
     7
370
    25
100
AcDbSpline
210
0.0
220
0.0
230
1.0
 70
     8
 71
     3
 72
     8
 73
     4
 74
     0
 42
0.000000001
 43
0.00000001
 40
0.0
 40
0.0
 40
0.0
 40
0.0
 40
1.0
 40
1.0
 40
1.0
 40
1.0
 10
120.2770663394653
 20
114.0342811228872
 30
0.0
 10
120.1587695800354
 20
114.1973053513457
 30
0.0
 10
120.047341097864
 20
114.3776938503681
 30
0.0
 10
119.946084532012
 20
114.584258231574
 30
0.0
  0
LINE
  5
168
330
1F
100
AcDbEntity
  8
0
  6
Continuous
 62
     7
370
    25
100
AcDbLine
 10
120.2770663395
 20
87.2817442292
 30
0.0
 11
120.2770663395
 21
114.0342811229
 31
0.0
  0
SPLINE
  5
169
330
1F
100
AcDbEntity
  8
0
  6
Continuous
 62
     7
370
    25
100
AcDbSpline
210
0.0
220
0.0
230
1.0
 70
     8
 71
     3
 72
     8
 73
     4
 74
     0
 42
0.000000001
 43
0.00000001
 40
0.0
 40
0.0
 40
0.0
 40
0.0
 40
1.0
 40
1.0
 40
1.0
 40
1.0
 10
124.4549100548012
 20
112.6740817505715
 30
0.0
 10
124.3133719665194
 20
112.6281859794744
 30
0.0
 10
124.1707614977825
 20
112.5912451285371
 30
0.0
 10
124.0270663394655
 20
112.5628314475965
 30
0.0
  0
LINE
  5
16A
330
1F
100
AcDbEntity
  8
0
  6
Continuous
 62
     7
370
    25
100
AcDbLine
 10
124.0270663395
 20
87.2817442292
 30
0.0
 11
124.0270663395
 21
112.5628314476
 31
0.0
  0
SPLINE
  5
16B
330
1F
100
AcDbEntity
  8
0
  6
Continuous
 62
     7
370
    25
100
AcDbSpline
210
0.0
220
0.0
230
1.0
 70
     8
 71
     3
 72
    14
 73
    10
 74
     0
 42
0.000000001
 43
0.00000001
 40
0.0
 40
0.0
 40
0.0
 40
0.0
 40
0.25
 40
0.25
 40
0.5
 40
0.5
 40
0.75
 40
0.75
 40
1.0
 40
1.0
 40
1.0
 40
1.0
 10
121.2770663394653
 20
113.0879574329145
 30
0.0
 10
121.1427182531088
 20
113.1745609945421
 30
0.0
 10
121.0195415792528
 20
113.2660293918655
 30
0.0
 10
120.7907949743348
 20
113.4572207784964
 30
0.0
 10
120.6888730103676
 20
113.5540826306374
 30
0.0
 10
120.5094496079389
 20
113.7419572453727
 30
0.0
 10
120.4330083197561
 20
113.8321925967239
 30
0.0
 10
120.315718346906
 20
113.9799989607013
 30
0.0
 10
120.2770663394653
 20
114.0342811228873
 30
0.0
 10
120.2770663394653
 20
114.0342811228873
 30
0.0
  0
SPLINE
  5
16C
330
1F
100
AcDbEntity
  8
0
  6
Continuous
 62
     7
370
    25
100
AcDbSpline
210
0.0
220
0.0
230
1.0
 70
     8
 71
     3
 72
    14
 73
    10
 74
     0
 42
0.000000001
 43
0.00000001
 40
0.0
 40
0.0
 40
0.0
 40
0.0
 40
0.25
 40
0.25
 40
0.5
 40
0.5
 40
0.75
 40
0.75
 40
1.0
 40
1.0
 40
1.0
 40
1.0
 10
124.0270663394654
 20
112.5628314475971
 30
0.0
 10
124.0270663394656
 20
112.5628314475971
 30
0.0
 10
124.0011498168944
 20
112.5574547166087
 30
0.0
 10
123.9017049703169
 20
112.5399101290082
 30
0.0
 10
123.8294065779046
 20
112.528060725362
 30
0.0
 10
123.6447026833808
 20
112.5064169073617
 30
0.0
 10
123.5351254215048
 20
112.4971276466773
 30
0.0
 10
123.2917952432867
 20
112.4898721103197
 30
0.0
 10
123.1602589843665
 20
112.4921435164791
 30
0.0
 10
123.0270663394653
 20
112.5019702804122
 30
0.0
  0
SPLINE
  5
16D
330
1F
100
AcDbEntity
  8
0
  6
Continuous
 62
     7
370
    25
100
AcDbSpline
210
0.0
220
0.0
230
1.0
 70
     8
 71
     3
 72
    10
 73
     6
 74
     0
 42
0.000000001
 43
0.00000001
 40
0.0
 40
0.0
 40
0.0
 40
0.0
 40
0.5
 40
0.5
 40
1.0
 40
1.0
 40
1.0
 40
1.0
 10
123.0270663394653
 20
112.5019702804123
 30
0.0
 10
122.7146024371772
 20
112.5250234227814
 30
0.0
 10
122.4117134551794
 20
112.5862581251877
 30
0.0
 10
121.8243702703753
 20
112.7824300891117
 30
0.0
 10
121.5399026098034
 20
112.9185277242115
 30
0.0
 10
121.2770663394653
 20
113.0879574329145
 30
0.0
  0
LINE
  5
16E
330
1F
100
AcDbEntity
  8
0
  6
Continuous
 62
     7
370
    25
100
AcDbLine
 10
112.2520663395
 20
143.0793394934
 30
0.0
 11
112.5861050255
 21
142.019904133
 31
0.0
  0
LINE
  5
16F
330
1F
100
AcDbEntity
  8
0
  6
Continuous
 62
     7
370
    25
100
AcDbLine
 10
112.2520663395
 20
143.0793394934
 30
0.0
 11
112.2520663395
 21
141.1040507601
 31
0.0
  0
ARC
  5
170
330
1F
100
AcDbEntity
  8
0
  6
Continuous
 62
     7
370
    25
100
AcDbCircle
 10
111.8231314649
 20
141.7793394934
 30
0.0
 40
0.8000000000000181
100
AcDbArc
 50
252.5
 51
17.5
  0
SPLINE
  5
171
330
1F
100
AcDbEntity
  8
0
  6
Continuous
 62
     7
370
    25
100
AcDbSpline
210
0.0
220
0.0
230
1.0
 70
     8
 71
     3
 72
    22
 73
    18
 74
     0
 42
0.000000001
 43
0.00000001
 40
0.0
 40
0.0
 40
0.0
 40
0.0
 40
0.0016445471980141
 40
0.0768294870796084
 40
0.151459310002751
 40
0.2250437077752762
 40
0.2982167779917107
 40
0.3713078397240478
 40
0.444458991118127
 40
0.5161649089030528
 40
0.5876183127499087
 40
0.6612190000115881
 40
0.734207423984957
 40
0.8076706235403435
 40
0.8813280608509942
 40
0.9557355653715675
 40
1.0
 40
1.0
 40
1.0
 40
1.0
 10
82.01178345817455
 20
139.6536306414403
 30
0.0
 10
82.01296210037187
 20
139.6532670077222
 30
0.0
 10
82.06802557047483
 20
139.636278871364
 30
0.0
 10
82.46447075790948
 20
139.5190050207345
 30
0.0
 10
83.18054413743545
 20
139.3183904728534
 30
0.0
 10
84.19021979797579
 20
139.0777766581732
 30
0.0
 10
85.40619875591932
 20
138.8505039690559
 30
0.0
 10
86.8103995372547
 20
138.6781149608226
 30
0.0
 10
88.32745957978102
 20
138.5900450887394
 30
0.0
 10
89.90177258782597
 20
138.6210983935678
 30
0.0
 10
91.46753600379407
 20
138.7721005445046
 30
0.0
 10
92.95761057186662
 20
139.0265180625108
 30
0.0
 10
94.32847883496517
 20
139.3439535180761
 30
0.0
 10
95.5174477393919
 20
139.6890002977269
 30
0.0
 10
96.48359608983498
 20
140.0125932122803
 30
0.0
 10
97.14068503342773
 20
140.2580881562779
 30
0.0
 10
97.35651467030611
 20
140.3414439033448
 30
0.0
 10
97.43701876353143
 20
140.3725354574511
 30
0.0
  0
SPLINE
  5
172
330
1F
100
AcDbEntity
  8
0
  6
Continuous
 62
     7
370
    25
100
AcDbSpline
210
0.0
220
0.0
230
1.0
 70
     8
 71
     3
 72
     9
 73
     5
 74
     0
 42
0.000000001
 43
0.00000001
 40
0.0
 40
0.0
 40
0.0
 40
0.0
 40
0.0362226197622006
 40
1.0
 40
1.0
 40
1.0
 40
1.0
 10
97.60793356704943
 20
140.4380911241467
 30
0.0
 10
97.61347624116279
 20
140.4402166753058
 30
0.0
 10
97.76649317228895
 20
140.4988968915096
 30
0.0
 10
97.76848823276008
 20
140.5005282752063
 30
0.0
 10
97.77041102691435
 20
140.5021005659117
 30
0.0
  0
LINE
  5
173
330
1F
100
AcDbEntity
  8
0
  6
Continuous
 62
     7
370
    25
100
AcDbLine
 10
81.8525004542
 20
139.702735855
 30
0.0
 11
73.8020663395
 21
139.298459621
 31
0.0
  0
LINE
  5
174
330
1F
100
AcDbEntity
  8
0
  6
Continuous
 62
     7
370
    25
100
AcDbLine
 10
73.8020663395
 20
93.1602193658
 30
0.0
 11
73.8020663395
 21
107.1072164588
 31
0.0
  0
SPLINE
  5
175
330
1F
100
AcDbEntity
  8
0
  6
Continuous
 62
     7
370
    25
100
AcDbSpline
210
0.0
220
0.0
230
1.0
 70
     8
 71
     3
 72
     8
 73
     4
 74
     0
 42
0.000000001
 43
0.00000001
 40
0.0
 40
0.0
 40
0.0
 40
0.0
 40
1.0
 40
1.0
 40
1.0
 40
1.0
 10
79.62024079241225
 20
107.1118025171063
 30
0.0
 10
77.68084930810085
 20
107.1096564212567
 30
0.0
 10
75.74145782378943
 20
107.1080602347319
 30
0.0
 10
73.80206633947803
 20
107.1070127822562
 30
0.0
  0
SPLINE
  5
176
330
1F
100
AcDbEntity
  8
0
  6
Continuous
 62
     7
370
    25
100
AcDbSpline
210
0.0
220
0.0
230
1.0
 70
     8
 71
     3
 72
    13
 73
     9
 74
     0
 42
0.000000001
 43
0.00000001
 40
0.0
 40
0.0
 40
0.0
 40
0.0
 40
0.1686319999748108
 40
0.3360343310905541
 40
0.5025367825908723
 40
0.6684737453788424
 40
0.8341822636915195
 40
1.0
 40
1.0
 40
1.0
 40
1.0
 10
80.70373584187924
 20
107.2492589629239
 30
0.0
 10
80.64424594581949
 20
107.234744642885
 30
0.0
 10
80.52569995554443
 20
107.2058218416005
 30
0.0
 10
80.34582325995854
 20
107.1718604481922
 30
0.0
 10
80.16543297233052
 20
107.1449948858332
 30
0.0
 10
79.9843208002967
 20
107.1260359487253
 30
0.0
 10
79.80255996312927
 20
107.1141054973296
 30
0.0
 10
79.68102719523462
 20
107.1125703457608
 30
0.0
 10
79.62024079241225
 20
107.1118025171063
 30
0.0
  0
SPLINE
  5
177
330
1F
100
AcDbEntity
  8
0
  6
Continuous
 62
     7
370
    25
100
AcDbSpline
210
0.0
220
0.0
230
1.0
 70
     8
 71
     3
 72
     8
 73
     4
 74
     0
 42
0.000000001
 43
0.00000001
 40
0.0
 40
0.0
 40
0.0
 40
0.0
 40
1.0
 40
1.0
 40
1.0
 40
1.0
 10
86.09592925837947
 20
107.2534970048093
 30
0.0
 10
84.29853458693918
 20
107.2516259442854
 30
0.0
 10
82.5011399154989
 20
107.2502037632612
 30
0.0
 10
80.7037452440586
 20
107.2492296402652
 30
0.0
  0
SPLINE
  5
178
330
1F
100
AcDbEntity
  8
0
  6
Continuous
 62
     7
370
    25
100
AcDbSpline
210
0.0
220
0.0
230
1.0
 70
     8
 71
     3
 72
    18
 73
    14
 74
     0
 42
0.000000001
 43
0.00000001
 40
0.0
 40
0.0
 40
0.0
 40
0.0
 40
0.0923325137151694
 40
0.1843692047134009
 40
0.2763458873902312
 40
0.368498217575762
 40
0.4610598988406411
 40
0.5542609546627003
 40
0.6483261285518087
 40
0.743473463655427
 40
0.8399130993133287
 40
0.9201660718313618
 40
1.0
 40
1.0
 40
1.0
 40
1.0
 10
88.29225090697439
 20
106.7193047689657
 30
0.0
 10
88.2219206034583
 20
106.7197213933973
 30
0.0
 10
88.0814853266011
 20
106.7205533074439
 30
0.0
 10
87.87112280009165
 20
106.7341621543583
 30
0.0
 10
87.66167913717074
 20
106.7568289117299
 30
0.0
 10
87.45312946679594
 20
106.7894297015306
 30
0.0
 10
87.24548584952063
 20
106.8317321801508
 30
0.0
 10
87.03874766198327
 20
106.8838035788059
 30
0.0
 10
86.83292557002292
 20
106.9456523516513
 30
0.0
 10
86.6279938912375
 20
107.0172503631075
 30
0.0
 10
86.43651314584777
 20
107.0938288533363
 30
0.0
 10
86.25878999379808
 20
107.1724401021705
 30
0.0
 10
86.1504559992352
 20
107.2263542579576
 30
0.0
 10
86.09643078978297
 20
107.2532407728562
 30
0.0
  0
LINE
  5
179
330
1F
100
AcDbEntity
  8
0
  6
Continuous
 62
     7
370
    25
100
AcDbLine
 10
90.2071241863
 20
106.7208002038
 30
0.0
 11
88.292250907
 21
106.719304769
 31
0.0
  0
SPLINE
  5
17A
330
1F
100
AcDbEntity
  8
0
  6
Continuous
 62
     7
370
    25
100
AcDbSpline
210
0.0
220
0.0
230
1.0
 70
     8
 71
     3
 72
    25
 73
    21
 74
     0
 42
0.000000001
 43
0.00000001
 40
0.0
 40
0.0
 40
0.0
 40
0.0
 40
0.0280105225425618
 40
0.0559601148859273
 40
0.0839014045041196
 40
0.1118870776784247
 40
0.1399695827586811
 40
0.1682008401737953
 40
0.1966319670422708
 40
0.2253130233140565
 40
0.2542927850735732
 40
0.3799486436574536
 40
0.5057850221666685
 40
0.6313085886327393
 40
0.7532068238012419
 40
0.803947326795536
 40
0.8535894438553622
 40
0.9025339722393254
 40
0.951197035379054
 40
1.0
 40
1.0
 40
1.0
 40
1.0
 10
95.14700849266671
 20
111.854664008341
 30
0.0
 10
95.14704571440053
 20
111.7800439813278
 30
0.0
 10
95.14712007690119
 20
111.6309662453409
 30
0.0
 10
95.13470402625468
 20
111.4083481543751
 30
0.0
 10
95.11309946590092
 20
111.1870237363465
 30
0.0
 10
95.0814139962409
 20
110.967055470458
 30
0.0
 10
95.03988785792102
 20
110.748465183229
 30
0.0
 10
94.98845710219109
 20
110.5312832448245
 30
0.0
 10
94.92714322747986
 20
110.3155418249394
 30
0.0
 10
94.8559328919804
 20
110.1012519334889
 30
0.0
 10
94.68509628477689
 20
109.6529021604675
 30
0.0
 10
94.34736405134105
 20
108.9995713323962
 30
0.0
 10
93.73580938714353
 20
108.2276781217571
 30
0.0
 10
92.99957455199393
 20
107.5835184963722
 30
0.0
 10
92.3130884803466
 20
107.1918773283104
 30
0.0
 10
91.76438433419679
 20
106.9731824273422
 30
0.0
 10
91.38234815569207
 20
106.8573263785115
 30
0.0
 10
90.9951820569876
 20
106.7764184729816
 30
0.0
 10
90.6029553882009
 20
106.7271900421836
 30
0.0
 10
90.33919412008551
 20
106.7229321871683
 30
0.0
 10
90.20712418626385
 20
106.7208002038255
 30
0.0
  0
LINE
  5
17B
330
1F
100
AcDbEntity
  8
0
  6
Continuous
 62
     7
370
    25
100
AcDbLine
 10
95.1470084927
 20
116.2293394934
 30
0.0
 11
95.1470084927
 21
111.8546640083
 31
0.0
  0
LINE
  5
17C
330
1F
100
AcDbEntity
  8
0
  6
Continuous
 62
     7
370
    25
100
AcDbLine
 10
111.0918842994
 20
91.2876014479
 30
0.0
 11
111.0918842994
 21
116.2293394934
 31
0.0
  0
LINE
  5
17D
330
1F
100
AcDbEntity
  8
0
  6
Continuous
 62
     7
370
    25
100
AcDbLine
 10
111.0918842994
 20
141.1710775389
 30
0.0
 11
97.7704110269
 21
140.5021005659
 31
0.0
  0
SPLINE
  5
17E
330
1F
100
AcDbEntity
  8
0
  6
Continuous
 62
     7
370
    25
100
AcDbSpline
210
0.0
220
0.0
230
1.0
 70
     8
 71
     3
 72
    20
 73
    16
 74
     0
 42
0.000000001
 43
0.00000001
 40
0.0
 40
0.0
 40
0.0
 40
0.0
 40
0.0829621378691685
 40
0.1658495135105456
 40
0.2487180070845901
 40
0.3299477216397851
 40
0.4108693994437826
 40
0.4941953814850109
 40
0.5768901676624029
 40
0.6601065810557436
 40
0.7435845489352617
 40
0.8279858465401662
 40
0.9132590745401026
 40
0.9972257035811778
 40
1.0
 40
1.0
 40
1.0
 40
1.0
 10
84.16448243419225
 20
93.36607912590276
 30
0.0
 10
84.55022827026929
 20
93.44299755250654
 30
0.0
 10
85.32137232339129
 20
93.59676508984208
 30
0.0
 10
86.72912047454753
 20
93.77268031123037
 30
0.0
 10
88.23697184241857
 20
93.8666765985587
 30
0.0
 10
89.8094608174313
 20
93.842832216693
 30
0.0
 10
91.37675784865102
 20
93.69892717179336
 30
0.0
 10
92.87253387543103
 20
93.44986956899368
 30
0.0
 10
94.25278775110912
 20
93.13518887645475
 30
0.0
 10
95.45038193416468
 20
92.79092752447352
 30
0.0
 10
96.43724396398912
 20
92.46188029865375
 30
0.0
 10
97.18448221018713
 20
92.18341939044508
 30
0.0
 10
97.63168363955366
 20
92.01156359541412
 30
0.0
 10
97.81843825170186
 20
91.93771292381628
 30
0.0
 10
97.76734003780238
 20
91.95786421488921
 30
0.0
 10
97.76570572745722
 20
91.95850872789576
 30
0.0
  0
SPLINE
  5
17F
330
1F
100
AcDbEntity
  8
0
  6
Continuous
 62
     7
370
    25
100
AcDbSpline
210
0.0
220
0.0
230
1.0
 70
     8
 71
     3
 72
    11
 73
     7
 74
     0
 42
0.000000001
 43
0.00000001
 40
0.0
 40
0.0
 40
0.0
 40
0.0
 40
0.2435512231736163
 40
0.4981153923402337
 40
0.7509097881751986
 40
1.0
 40
1.0
 40
1.0
 40
1.0
 10
81.85698831644875
 20
92.75741691651963
 30
0.0
 10
81.88293923797518
 20
92.76565245305777
 30
0.0
 10
81.93601453478254
 20
92.78249592220718
 30
0.0
 10
82.41370951844537
 20
92.92339736434529
 30
0.0
 10
83.12504896670451
 20
93.1286879147954
 30
0.0
 10
83.81971361388479
 20
93.28733903299171
 30
0.0
 10
84.16448243419225
 20
93.36607912590276
 30
0.0
  0
LINE
  5
180
330
1F
100
AcDbEntity
  8
0
  6
Continuous
 62
     7
370
    25
100
AcDbLine
 10
111.5825668253
 20
141.0163659328
 30
0.0
 11
111.0918842994
 21
141.1710775389
 31
0.0
  0
LINE
  5
181
330
1F
100
AcDbEntity
  8
0
  6
Continuous
 62
     7
370
    25
100
AcDbLine
 10
95.1470084927
 20
111.8546640083
 30
0.0
 11
94.2520663395
 21
112.0168394934
 31
0.0
  0
LINE
  5
182
330
1F
100
AcDbEntity
  8
0
  6
Continuous
 62
     7
370
    25
100
AcDbLine
 10
94.2520663395
 20
112.0168394934
 30
0.0
 11
94.2520663395
 21
116.2293394934
 31
0.0
  0
SPLINE
  5
183
330
1F
100
AcDbEntity
  8
0
  6
Continuous
 62
     7
370
    25
100
AcDbSpline
210
0.0
220
0.0
230
1.0
 70
     8
 71
     3
 72
    25
 73
    21
 74
     0
 42
0.000000001
 43
0.00000001
 40
0.0
 40
0.0
 40
0.0
 40
0.0
 40
0.0288821753094393
 40
0.0583636593986225
 40
0.0884647204281144
 40
0.1192044006590791
 40
0.1506005800061348
 40
0.1826700399650394
 40
0.2154285269564808
 40
0.2488908143379647
 40
0.361059447113401
 40
0.4984670131067465
 40
0.5822693905006262
 40
0.6661127642782027
 40
0.7499972937224338
 40
0.8007709755032364
 40
0.8511237700807901
 40
0.9010896024506709
 40
0.9507031914109064
 40
1.0
 40
1.0
 40
1.0
 40
1.0
 10
90.25206633946529
 20
108.0168394934096
 30
0.0
 10
90.31486679269918
 20
108.0176959773613
 30
0.0
 10
90.4417708164908
 20
108.0194267174147
 30
0.0
 10
90.63312522419498
 20
108.0335765828168
 30
0.0
 10
90.82703003686758
 20
108.0567136651361
 30
0.0
 10
91.0229307575942
 20
108.0901248173596
 30
0.0
 10
91.2202684256007
 20
108.1339986393912
 30
0.0
 10
91.41842176739223
 20
108.1887939103608
 30
0.0
 10
91.6167375114105
 20
108.2548628717266
 30
0.0
 10
91.96805849890572
 20
108.392844203976
 30
0.0
 10
92.49317026923379
 20
108.6728961428159
 30
0.0
 10
93.03016209772221
 20
109.111486745221
 30
0.0
 10
93.4422218277719
 20
109.5853468667806
 30
0.0
 10
93.72914041582436
 20
110.0170306146004
 30
0.0
 10
93.92756710303158
 20
110.4201538563606
 30
0.0
 10
94.05965297707988
 20
110.7778900171395
 30
0.0
 10
94.14528685687768
 20
111.0806424194219
 30
0.0
 10
94.20636906823071
 20
111.3891307296676
 30
0.0
 10
94.24487001159622
 20
111.701442439824
 30
0.0
 10
94.24967269068969
 20
111.9119318537254
 30
0.0
 10
94.25206633946527
 20
112.0168394934096
 30
0.0
  0
SPLINE
  5
184
330
1F
100
AcDbEntity
  8
0
  6
Continuous
 62
     7
370
    25
100
AcDbSpline
210
0.0
220
0.0
230
1.0
 70
     8
 71
     3
 72
    13
 73
     9
 74
     0
 42
0.000000001
 43
0.00000001
 40
0.0
 40
0.0
 40
0.0
 40
0.0
 40
0.1722587823387897
 40
0.3421398270959865
 40
0.5097456257587107
 40
0.6751828992986529
 40
0.838562618995617
 40
1.0
 40
1.0
 40
1.0
 40
1.0
 10
87.2520847083755
 20
108.1668343161594
 30
0.0
 10
87.31294809803767
 20
108.1505705884625
 30
0.0
 10
87.43383476246638
 20
108.118267625986
 30
0.0
 10
87.61689592041955
 20
108.0808799712942
 30
0.0
 10
87.7989986033535
 20
108.0517470363826
 30
0.0
 10
87.97994005167628
 20
108.0315603207741
 30
0.0
 10
88.15927905539168
 20
108.0191135164701
 30
0.0
 10
88.27812528382218
 20
108.0175944732423
 30
0.0
 10
88.33719306017582
 20
108.0168394934096
 30
0.0
  0
LINE
  5
185
330
1F
100
AcDbEntity
  8
0
  6
Continuous
 62
     7
370
    25
100
AcDbLine
 10
88.292250907
 20
106.719304769
 30
0.0
 11
88.3371930602
 21
108.0168394934
 31
0.0
  0
SPLINE
  5
186
330
1F
100
AcDbEntity
  8
0
  6
Continuous
 62
     7
370
    25
100
AcDbSpline
210
0.0
220
0.0
230
1.0
 70
     8
 71
     3
 72
    11
 73
     7
 74
     0
 42
0.000000001
 43
0.00000001
 40
0.0
 40
0.0
 40
0.0
 40
0.0
 40
0.2392913840897591
 40
0.5001130134987114
 40
0.7515028526612877
 40
1.0
 40
1.0
 40
1.0
 40
1.0
 10
86.92459384731931
 20
108.1674130984327
 30
0.0
 10
86.85576891148074
 20
108.095859661372
 30
0.0
 10
86.71192651532834
 20
107.9463147658434
 30
0.0
 10
86.50417771693323
 20
107.7173973392141
 30
0.0
 10
86.29619151213936
 20
107.4850789669368
 30
0.0
 10
86.16319058841573
 20
107.3303030843057
 30
0.0
 10
86.09707494421771
 20
107.2533629631398
 30
0.0
  0
SPLINE
  5
187
330
1F
100
AcDbEntity
  8
0
  6
Continuous
 62
     7
370
    25
100
AcDbSpline
210
0.0
220
0.0
230
1.0
 70
    24
 71
     3
 72
     9
 73
     5
 74
     0
 42
0.000000001
 43
0.00000001
 40
0.0
 40
0.0
 40
0.0
 40
0.0
 40
0.5090839669866044
 40
1.0
 40
1.0
 40
1.0
 40
1.0
 10
86.92682411563875
 20
108.1668394934096
 30
0.0
 10
86.98155751575112
 20
108.1668394934096
 30
0.0
 10
87.08907101776994
 20
108.1668394934096
 30
0.0
 10
87.1984635781409
 20
108.1668394934096
 30
0.0
 10
87.25216613991938
 20
108.1668394934096
 30
0.0
  0
LINE
  5
188
330
1F
100
AcDbEntity
  8
0
  6
Continuous
 62
     7
370
    25
100
AcDbLine
 10
80.678216251
 20
108.1467877196
 30
0.0
 11
80.7036307426
 21
107.249229549
 31
0.0
  0
SPLINE
  5
189
330
1F
100
AcDbEntity
  8
0
  6
Continuous
 62
     7
370
    25
100
AcDbSpline
210
0.0
220
0.0
230
1.0
 70
     8
 71
     3
 72
     8
 73
     4
 74
     0
 42
0.000000001
 43
0.00000001
 40
0.0
 40
0.0
 40
0.0
 40
0.0
 40
1.0
 40
1.0
 40
1.0
 40
1.0
 10
80.67822744219349
 20
108.1467882097488
 30
0.0
 10
80.70003029867553
 20
108.1524855407815
 30
0.0
 10
80.72178500807303
 20
108.1583671235765
 30
0.0
 10
80.7434884633911
 20
108.1644321181295
 30
0.0
  0
LINE
  5
18A
330
1F
100
AcDbEntity
  8
0
  6
Continuous
 62
     7
370
    25
100
AcDbLine
 10
80.7520663395
 20
108.1668394934
 30
0.0
 11
86.9257393118
 21
108.1668394934
 31
0.0
  0
LINE
  5
18B
330
1F
100
AcDbEntity
  8
0
  6
Continuous
 62
     7
370
    25
100
AcDbLine
 10
88.3371930602
 20
108.0168394934
 30
0.0
 11
90.2520663395
 21
108.0168394934
 31
0.0
  0
SPLINE
  5
18C
330
1F
100
AcDbEntity
  8
0
  6
Continuous
 62
     7
370
    25
100
AcDbSpline
210
0.0
220
0.0
230
1.0
 70
     8
 71
     3
 72
    13
 73
     9
 74
     0
 42
0.000000001
 43
0.00000001
 40
0.0
 40
0.0
 40
0.0
 40
0.0
 40
0.1621004456877203
 40
0.32594345520649
 40
0.4915935308810087
 40
0.6591130874452793
 40
0.8285624736348074
 40
1.0
 40
1.0
 40
1.0
 40
1.0
 10
79.66693961875474
 20
108.0168394934096
 30
0.0
 10
79.72249457683078
 20
108.0175084596111
 30
0.0
 10
79.83420170331232
 20
108.0188535833349
 30
0.0
 10
80.00204939272487
 20
108.0298001521292
 30
0.0
 10
80.17083581159932
 20
108.0474390814528
 30
0.0
 10
80.3401601681246
 20
108.072744595442
 30
0.0
 10
80.5099068162831
 20
108.1050485982333
 30
0.0
 10
80.62189971492427
 20
108.1328201981155
 30
0.0
 10
80.67822274994377
 20
108.1467869836143
 30
0.0
  0
LINE
  5
18D
330
1F
100
AcDbEntity
  8
0
  6
Continuous
 62
     7
370
    25
100
AcDbLine
 10
72.8884065179
 20
107.4893377495
 30
0.0
 11
73.8020663395
 21
108.0168394934
 31
0.0
  0
LINE
  5
18E
330
1F
100
AcDbEntity
  8
0
  6
Continuous
 62
     7
370
    25
100
AcDbLine
 10
73.8020663395
 20
108.0168394934
 30
0.0
 11
79.6669396188
 21
108.0168394934
 31
0.0
  0
SPLINE
  5
18F
330
1F
100
AcDbEntity
  8
0
  6
Continuous
 62
     7
370
    25
100
AcDbSpline
210
0.0
220
0.0
230
1.0
 70
     8
 71
     3
 72
     8
 73
     4
 74
     0
 42
0.000000001
 43
0.00000001
 40
0.0
 40
0.0
 40
0.0
 40
0.0
 40
1.0
 40
1.0
 40
1.0
 40
1.0
 10
73.80206633901432
 20
107.1070127820336
 30
0.0
 10
73.49751306530878
 20
107.2357036465804
 30
0.0
 10
73.19295979160326
 20
107.3631484028421
 30
0.0
 10
72.88840651789772
 20
107.4893377494798
 30
0.0
  0
LINE
  5
190
330
1F
100
AcDbEntity
  8
0
  6
Continuous
 62
     7
370
    25
100
AcDbLine
 10
72.3020663395
 20
94.0262447696
 30
0.0
 11
72.3020663395
 21
107.1508140896
 31
0.0
  0
SPLINE
  5
191
330
1F
100
AcDbEntity
  8
0
  6
Continuous
 62
     7
370
    25
100
AcDbSpline
210
0.0
220
0.0
230
1.0
 70
    24
 71
     3
 72
     8
 73
     4
 74
     0
 42
0.000000001
 43
0.00000001
 40
0.0
 40
0.0
 40
0.0
 40
0.0
 40
1.0
 40
1.0
 40
1.0
 40
1.0
 10
72.88840651789772
 20
107.4893377494798
 30
0.0
 10
72.69207449223939
 20
107.3759854016154
 30
0.0
 10
72.49661347199918
 20
107.2631359289637
 30
0.0
 10
72.30206633946527
 20
107.1508140896252
 30
0.0
  0
ARC
  5
192
330
1F
100
AcDbEntity
  8
0
  6
Continuous
 62
     7
370
    25
100
AcDbCircle
 10
133.2520663395
 20
135.2293394934
 30
0.0
 40
3.0
100
AcDbArc
 50
180.0
 51
270.0
  0
LINE
  5
193
330
1F
100
AcDbEntity
  8
0
  6
Continuous
 62
     7
370
    25
100
AcDbLine
 10
104.027306813
 20
134.4793394934
 30
0.0
 11
105.4520663395
 21
134.4793394934
 31
0.0
  0
ARC
  5
194
330
1F
100
AcDbEntity
  8
0
  6
Continuous
 62
     7
370
    25
100
AcDbCircle
 10
105.4520663395
 20
133.6793394934
 30
0.0
 40
0.7999999999999972
100
AcDbArc
 50
0.0
 51
90.0
  0
ARC
  5
195
330
1F
100
AcDbEntity
  8
0
  6
Continuous
 62
     7
370
    25
100
AcDbCircle
 10
104.027306813
 20
133.6793394934
 30
0.0
 40
0.7999999999999678
100
AcDbArc
 50
90.0
 51
120.0
  0
LINE
  5
196
330
1F
100
AcDbEntity
  8
0
  6
Continuous
 62
     7
370
    25
100
AcDbLine
 10
102.7520663395
 20
133.8668394934
 30
0.0
 11
102.7520663395
 21
116.2293394934
 31
0.0
  0
LINE
  5
197
330
1F
100
AcDbEntity
  8
0
  6
Continuous
 62
     7
370
    25
100
AcDbLine
 10
102.7520663395
 20
133.8668394934
 30
0.0
 11
103.627306813
 21
134.3721598164
 31
0.0
  0
LINE
  5
198
330
1F
100
AcDbEntity
  8
0
  6
Continuous
 62
     7
370
    25
100
AcDbLine
 10
73.0537323893
 20
107.5847886858
 30
0.0
 11
72.9172636169
 21
107.5059984034
 31
0.0
  0
SPLINE
  5
199
330
1F
100
AcDbEntity
  8
0
  6
Continuous
 62
     7
370
    25
100
AcDbSpline
210
0.0
220
0.0
230
1.0
 70
     8
 71
     3
 72
    32
 73
    28
 74
     0
 42
0.000000001
 43
0.00000001
 40
0.0
 40
0.0
 40
0.0
 40
0.0
 40
0.1249999999999996
 40
0.1249999999999996
 40
0.1874999999999998
 40
0.1874999999999998
 40
0.25
 40
0.25
 40
0.3125000000000002
 40
0.3125000000000002
 40
0.3750000000000004
 40
0.3750000000000004
 40
0.5000000000000009
 40
0.5000000000000009
 40
0.5625000000000007
 40
0.5625000000000007
 40
0.6250000000000004
 40
0.6250000000000004
 40
0.7500000000000003
 40
0.7500000000000003
 40
0.8125000000000002
 40
0.8125000000000002
 40
0.8750000000000001
 40
0.8750000000000001
 40
0.9375000000000001
 40
0.9375000000000001
 40
1.0
 40
1.0
 40
1.0
 40
1.0
 10
86.71969667080592
 20
132.4020082476191
 30
0.0
 10
86.2356224268519
 20
132.4023676402388
 30
0.0
 10
85.75222485628501
 20
132.4173268464201
 30
0.0
 10
85.02831950654898
 20
132.4643108929287
 30
0.0
 10
84.78765707301216
 20
132.4840874480533
 30
0.0
 10
84.31631096393652
 20
132.5310515315524
 30
0.0
 10
84.08447514764626
 20
132.5583053807369
 30
0.0
 10
83.62877206108996
 20
132.6199333093494
 30
0.0
 10
83.40490373814862
 20
132.6543084101449
 30
0.0
 10
82.96557614614082
 20
132.729627853798
 30
0.0
 10
82.74885875347442
 20
132.7708458045462
 30
0.0
 10
82.12251677480158
 20
132.901082623727
 30
0.0
 10
81.73812414044818
 20
132.9961225356262
 30
0.0
 10
81.21058239482835
 20
133.1423894975786
 30
0.0
 10
81.04294824329725
 20
133.1917581327693
 30
0.0
 10
80.72454349605668
 20
133.2901618402695
 30
0.0
 10
80.57496262151756
 20
133.3388451049021
 30
0.0
 10
80.16194255196912
 20
133.4784679080704
 30
0.0
 10
79.93039078080996
 20
133.564054586651
 30
0.0
 10
79.6470812657203
 20
133.673017634567
 30
0.0
 10
79.5635135839485
 20
133.7060662871415
 30
0.0
 10
79.42158875162431
 20
133.7630696833818
 30
0.0
 10
79.36260064018175
 20
133.7872663889922
 30
0.0
 10
79.26788473647196
 20
133.8264686693713
 30
0.0
 10
79.23215676932519
 20
133.8414758358683
 30
0.0
 10
79.18419249160775
 20
133.8616848335953
 30
0.0
 10
79.17206618417427
 20
133.8668394934096
 30
0.0
 10
79.17206618417427
 20
133.8668394934096
 30
0.0
  0
SPLINE
  5
19A
330
1F
100
AcDbEntity
  8
0
  6
Continuous
 62
     7
370
    25
100
AcDbSpline
210
0.0
220
0.0
230
1.0
 70
     8
 71
     3
 72
    31
 73
    27
 74
     0
 42
0.000000001
 43
0.00000001
 40
0.0
 40
0.0
 40
0.0
 40
0.0
 40
0.0161756722759874
 40
0.0323169137827063
 40
0.0484425619880538
 40
0.0645715089957363
 40
0.0807226353336759
 40
0.0969147439446195
 40
0.1131664955251004
 40
0.1294963463046696
 40
0.1459224892609496
 40
0.1624627996343586
 40
0.1791347854480564
 40
0.1959555435639738
 40
0.294575514626473
 40
0.3932797312250161
 40
0.4928176221931075
 40
0.5924285912822761
 40
0.6939020917449321
 40
0.7927115381486451
 40
0.8267756331445579
 40
0.8608043324981154
 40
0.8949846314027674
 40
0.9295010594372525
 40
0.9645328322475428
 40
1.0
 40
1.0
 40
1.0
 40
1.0
 10
97.72801572954936
 20
133.8668394934096
 30
0.0
 10
97.72728262909816
 20
133.8664931019817
 30
0.0
 10
97.72581798863867
 20
133.8658010564382
 30
0.0
 10
97.71276160897355
 20
133.860218694392
 30
0.0
 10
97.69174704845075
 20
133.851351931398
 30
0.0
 10
97.66199984311005
 20
133.8389108306833
 30
0.0
 10
97.62372753045442
 20
133.8230201721284
 30
0.0
 10
97.57687484953327
 20
133.8036944283014
 30
0.0
 10
97.52145711949626
 20
133.7809783387821
 30
0.0
 10
97.4574711556658
 20
133.7549093344074
 30
0.0
 10
97.38491767151523
 20
133.7255268870392
 30
0.0
 10
97.30380097403558
 20
133.6928726397042
 30
0.0
 10
97.21410731928553
 20
133.6569801926693
 30
0.0
 10
96.95706147263493
 20
133.5547422850029
 30
0.0
 10
96.42902548704146
 20
133.3482180715363
 30
0.0
 10
95.45039083979486
 20
133.0111327581872
 30
0.0
 10
94.2645145368738
 20
132.6679878988568
 30
0.0
 10
92.89404827179774
 20
132.370875998197
 30
0.0
 10
91.4081909998324
 20
132.1608325704641
 30
0.0
 10
90.18803836606178
 20
132.1026071675954
 30
0.0
 10
89.32161433310901
 20
132.1162995088553
 30
0.0
 10
88.79336940462234
 20
132.1416675944662
 30
0.0
 10
88.26859617341354
 20
132.1836902101835
 30
0.0
 10
87.74760693382578
 20
132.2419741734114
 30
0.0
 10
87.23036598877692
 20
132.3145977186569
 30
0.0
 10
86.89472887645209
 20
132.3734780363475
 30
0.0
 10
86.7258738883948
 20
132.4031000148932
 30
0.0
  0
LINE
  5
19B
330
1F
100
AcDbEntity
  8
0
  6
Continuous
 62
     7
370
    25
100
AcDbLine
 10
97.7280157296
 20
133.8668394934
 30
0.0
 11
102.7520663395
 21
133.8668394934
 31
0.0
  0
LINE
  5
19C
330
1F
100
AcDbEntity
  8
0
  6
Continuous
 62
     7
370
    25
100
AcDbLine
 10
94.9020663395
 20
120.2921129042
 30
0.0
 11
94.9020663395
 21
116.2293394934
 31
0.0
  0
SPLINE
  5
19D
330
1F
100
AcDbEntity
  8
0
  6
Continuous
 62
     7
370
    25
100
AcDbSpline
210
0.0
220
0.0
230
1.0
 70
     8
 71
     3
 72
    25
 73
    21
 74
     0
 42
0.000000001
 43
0.00000001
 40
0.0
 40
0.0
 40
0.0
 40
0.0
 40
0.0278144320063459
 40
0.0555680196245752
 40
0.0833316253677715
 40
0.1111760352167582
 40
0.1391714221532259
 40
0.1673868326284758
 40
0.1958897140434715
 40
0.2247454979318968
 40
0.2540172492221455
 40
0.3796724410010767
 40
0.5056484635002251
 40
0.6297527290687337
 40
0.7535891720571736
 40
0.8038564806093723
 40
0.8533396843434523
 40
0.9023264398358549
 40
0.9511131859219458
 40
1.0
 40
1.0
 40
1.0
 40
1.0
 10
90.25206633946527
 20
124.7768360757746
 30
0.0
 10
90.32072169342759
 20
124.7763029906675
 30
0.0
 10
90.45788221698025
 20
124.7752379865831
 30
0.0
 10
90.66312479956602
 20
124.7621430891909
 30
0.0
 10
90.86744581606312
 20
124.7406046026183
 30
0.0
 10
91.07084686815212
 20
124.7097831307698
 30
0.0
 10
91.27332249899798
 20
124.6698703782622
 30
0.0
 10
91.47487136324564
 20
124.6207701853213
 30
0.0
 10
91.67548538404832
 20
124.5624569378095
 30
0.0
 10
91.87518314838061
 20
124.4948649949427
 30
0.0
 10
92.29074796905864
 20
124.3340514788276
 30
0.0
 10
92.89352438560046
 20
124.0200745794854
 30
0.0
 10
93.58758094110536
 20
123.4565031039929
 30
0.0
 10
94.15435457050481
 20
122.7807588847388
 30
0.0
 10
94.4919323761751
 20
122.1633970572617
 30
0.0
 10
94.68039478546461
 20
121.6713356177504
 30
0.0
 10
94.77965600298907
 20
121.333683835204
 30
0.0
 10
94.85000059169596
 20
120.9910526931805
 30
0.0
 10
94.89399919021454
 20
120.6436879927389
 30
0.0
 10
94.89937545369483
 20
120.4093846161321
 30
0.0
 10
94.90206633946526
 20
120.2921129042093
 30
0.0
  0
LINE
  5
19E
330
1F
100
AcDbEntity
  8
0
  6
Continuous
 62
     7
370
    25
100
AcDbLine
 10
88.3371930602
 20
124.7768360758
 30
0.0
 11
90.2520663395
 21
124.7768360758
 31
0.0
  0
SPLINE
  5
19F
330
1F
100
AcDbEntity
  8
0
  6
Continuous
 62
     7
370
    25
100
AcDbSpline
210
0.0
220
0.0
230
1.0
 70
     8
 71
     3
 72
    12
 73
     8
 74
     0
 42
0.000000001
 43
0.00000001
 40
0.0
 40
0.0
 40
0.0
 40
0.0
 40
0.1992838849048542
 40
0.3984605265906603
 40
0.5979968005081432
 40
0.79835706849064
 40
1.0
 40
1.0
 40
1.0
 40
1.0
 10
87.33615921788808
 20
124.6746417630505
 30
0.0
 10
87.4016124951876
 20
124.6876641158152
 30
0.0
 10
87.53248382656646
 20
124.7137018134572
 30
0.0
 10
87.73133327818361
 20
124.7421323724316
 30
0.0
 10
87.9317397940444
 20
124.7625635334132
 30
0.0
 10
88.13391071144771
 20
124.775002610484
 30
0.0
 10
88.26928829508826
 20
124.7762236220587
 30
0.0
 10
88.33719306017582
 20
124.7768360757746
 30
0.0
  0
LINE
  5
1A0
330
1F
100
AcDbEntity
  8
0
  6
Continuous
 62
     7
370
    25
100
AcDbLine
 10
81.9113962103
 20
124.674477839
 30
0.0
 11
87.3353862288
 21
124.674477839
 31
0.0
  0
SPLINE
  5
1A1
330
1F
100
AcDbEntity
  8
0
  6
Continuous
 62
     7
370
    25
100
AcDbSpline
210
0.0
220
0.0
230
1.0
 70
     8
 71
     3
 72
    24
 73
    20
 74
     0
 42
0.000000001
 43
0.00000001
 40
0.0
 40
0.0
 40
0.0
 40
0.0
 40
0.0410257106277056
 40
0.0818520099058079
 40
0.1225800578328279
 40
0.1633117464027038
 40
0.2041489402772657
 40
0.2451927184714171
 40
0.2865426449201731
 40
0.3282960933615133
 40
0.3705476475467034
 40
0.4133885920081624
 40
0.4569065022338602
 40
0.5011849368583825
 40
0.6001856774930499
 40
0.6987388860423923
 40
0.7976800645430001
 40
0.8978349910013272
 40
1.0
 40
1.0
 40
1.0
 40
1.0
 10
78.13940930331515
 20
126.6121196560726
 30
0.0
 10
78.20244839126799
 20
126.6115849557575
 30
0.0
 10
78.3282201566469
 20
126.6105181541148
 30
0.0
 10
78.51615831815364
 20
126.5993746621165
 30
0.0
 10
78.70274841097505
 20
126.5812131638089
 30
0.0
 10
78.88799019350792
 20
126.5553382430874
 30
0.0
 10
79.07187937673449
 20
126.5219013572757
 30
0.0
 10
79.25441304270679
 20
126.4808173357321
 30
0.0
 10
79.43558844964652
 20
126.4320545876386
 30
0.0
 10
79.61540323362404
 20
126.3755570994949
 30
0.0
 10
79.79385643270582
 20
126.3112660046926
 30
0.0
 10
79.97094447085864
 20
126.2391123247603
 30
0.0
 10
80.1466765951484
 20
126.1590251397215
 30
0.0
 10
80.39169122874726
 20
126.0351842530417
 30
0.0
 10
80.69587430793065
 20
125.8565592708523
 30
0.0
 10
81.04318178937471
 20
125.607470086798
 30
0.0
 10
81.36235605284712
 20
125.3279005018183
 30
0.0
 10
81.65626795511284
 20
125.0190748638428
 30
0.0
 10
81.82579204180519
 20
124.7909828205375
 30
0.0
 10
81.91139621028861
 20
124.6758037325046
 30
0.0
  0
LINE
  5
1A2
330
1F
100
AcDbEntity
  8
0
  6
Continuous
 62
     7
370
    25
100
AcDbLine
 10
75.3478675864
 20
126.6121196561
 30
0.0
 11
78.1394093033
 21
126.6121196561
 31
0.0
  0
SPLINE
  5
1A3
330
1F
100
AcDbEntity
  8
0
  6
Continuous
 62
     7
370
    25
100
AcDbSpline
210
0.0
220
0.0
230
1.0
 70
     8
 71
     3
 72
     8
 73
     4
 74
     0
 42
0.000000001
 43
0.00000001
 40
0.0
 40
0.0
 40
0.0
 40
0.0
 40
1.0
 40
1.0
 40
1.0
 40
1.0
 10
75.30206351470653
 20
126.6755726470822
 30
0.0
 10
75.31733153860421
 20
126.6544561766841
 30
0.0
 10
75.33259956250191
 20
126.6333051096314
 30
0.0
 10
75.34786758639959
 20
126.6121196560725
 30
0.0
  0
LINE
  5
1A4
330
1F
100
AcDbEntity
  8
0
  6
Continuous
 62
     7
370
    25
100
AcDbLine
 10
75.3020663395
 20
133.8668394934
 30
0.0
 11
75.3020663395
 21
126.6755726471
 31
0.0
  0
LINE
  5
1A5
330
1F
100
AcDbEntity
  8
0
  6
Continuous
 62
     7
370
    25
100
AcDbLine
 10
75.3020663395
 20
133.8668394934
 30
0.0
 11
79.1720661842
 21
133.8668394934
 31
0.0
  0
LINE
  5
1A6
330
1F
100
AcDbEntity
  8
0
  6
Continuous
 62
     7
370
    25
100
AcDbLine
 10
181.4272473948
 20
100.2293394934
 30
0.0
 11
181.4272473948
 21
116.2293394934
 31
0.0
  0
LINE
  5
1A7
330
1F
100
AcDbEntity
  8
0
  6
Continuous
 62
     7
370
    25
100
AcDbLine
 10
181.4272473948
 20
132.2293394934
 30
0.0
 11
133.2520663395
 21
132.2293394934
 31
0.0
  0
LINE
  5
1A8
330
1F
100
AcDbEntity
  8
0
  6
Continuous
 62
     7
370
    25
100
AcDbLine
 10
230.4089845309
 20
128.3743931776
 30
0.0
 11
181.4272473948
 21
132.2293394934
 31
0.0
  0
LINE
  5
1A9
330
1F
100
AcDbEntity
  8
0
  6
Continuous
 62
     7
370
    25
100
AcDbLine
 10
106.2520663395
 20
131.7793394934
 30
0.0
 11
109.9520663395
 21
131.7793394934
 31
0.0
  0
LINE
  5
1AA
330
1F
100
AcDbEntity
  8
0
  6
Continuous
 62
     7
370
    25
100
AcDbLine
 10
106.2520663395
 20
131.7793394934
 30
0.0
 11
106.2520663395
 21
116.2293394934
 31
0.0
  0
ARC
  5
1AB
330
1F
100
AcDbEntity
  8
0
  6
Continuous
 62
     7
370
    25
100
AcDbCircle
 10
109.9520663395
 20
130.5793394934
 30
0.0
 40
1.200000000000017
100
AcDbArc
 50
0.0
 51
90.0
  0
LINE
  5
1AC
330
1F
100
AcDbEntity
  8
0
  6
Continuous
 62
     7
370
    25
100
AcDbLine
 10
232.2520663395
 20
106.078120564
 30
0.0
 11
232.2520663395
 21
116.2293394934
 31
0.0
  0
ARC
  5
1AD
330
1F
100
AcDbEntity
  8
0
  6
Continuous
 62
     7
370
    25
100
AcDbCircle
 10
230.2520663395
 20
126.3805585101
 30
0.0
 40
2.000000000000002
100
AcDbArc
 50
0.0
 51
85.5
  0
ARC
  5
1AE
330
1F
100
AcDbEntity
  8
0
  6
Continuous
 62
     7
370
    25
100
AcDbCircle
 10
231.7520663395
 20
122.2660337415
 30
0.0
 40
0.5000000000000014
100
AcDbArc
 50
280.0
 51
0.0
  0
LINE
  5
1AF
330
1F
100
AcDbEntity
  8
0
  6
Continuous
 62
     7
370
    25
100
AcDbLine
 10
232.2520663395
 20
122.2660337415
 30
0.0
 11
232.2520663395
 21
116.2293394934
 31
0.0
  0
LINE
  5
1B0
330
1F
100
AcDbEntity
  8
0
  6
Continuous
 62
     7
370
    25
100
AcDbLine
 10
114.9770663395
 20
121.9793394934
 30
0.0
 11
115.8020663395
 21
121.9793394934
 31
0.0
  0
LINE
  5
1B1
330
1F
100
AcDbEntity
  8
0
  6
Continuous
 62
     7
370
    25
100
AcDbLine
 10
228.7520663395
 20
121.2293394934
 30
0.0
 11
228.7520663395
 21
116.2293394934
 31
0.0
  0
LINE
  5
1B2
330
1F
100
AcDbEntity
  8
0
  6
Continuous
 62
     7
370
    25
100
AcDbLine
 10
228.7520663395
 20
121.2293394934
 30
0.0
 11
231.8388904283
 21
121.773629865
 31
0.0
  0
LINE
  5
1B3
330
1F
100
AcDbEntity
  8
0
  6
Continuous
 62
     7
370
    25
100
AcDbLine
 10
191.1520663395
 20
121.5293394934
 30
0.0
 11
200.3572923213
 21
121.5293394934
 31
0.0
  0
ARC
  5
1B4
330
1F
100
AcDbEntity
  8
0
  6
Continuous
 62
     7
370
    25
100
AcDbCircle
 10
200.3572923213
 20
121.1293394934
 30
0.0
 40
0.4000000000000057
100
AcDbArc
 50
70.0
 51
90.0
  0
ARC
  5
1B5
330
1F
100
AcDbEntity
  8
0
  6
Continuous
 62
     7
370
    25
100
AcDbCircle
 10
191.1520663395
 20
121.1293394934
 30
0.0
 40
0.4000000000000057
100
AcDbArc
 50
90.0
 51
180.0
  0
LINE
  5
1B6
330
1F
100
AcDbEntity
  8
0
  6
Continuous
 62
     7
370
    25
100
AcDbLine
 10
201.2520663395
 20
121.2293394934
 30
0.0
 11
201.2520663395
 21
116.2293394934
 31
0.0
  0
LINE
  5
1B7
330
1F
100
AcDbEntity
  8
0
  6
Continuous
 62
     7
370
    25
100
AcDbLine
 10
200.4941003787
 20
121.5052165417
 30
0.0
 11
201.2520663395
 21
121.2293394934
 31
0.0
  0
LINE
  5
1B8
330
1F
100
AcDbEntity
  8
0
  6
Continuous
 62
     7
370
    25
100
AcDbLine
 10
111.5520663395
 20
121.2293394934
 30
0.0
 11
111.5520663395
 21
116.2293394934
 31
0.0
  0
LINE
  5
1B9
330
1F
100
AcDbEntity
  8
0
  6
Continuous
 62
     7
370
    25
100
AcDbLine
 10
111.1520663395
 20
121.4602796011
 30
0.0
 11
111.5520663395
 21
121.2293394934
 31
0.0
  0
LINE
  5
1BA
330
1F
100
AcDbEntity
  8
0
  6
Continuous
 62
     7
370
    25
100
AcDbLine
 10
111.1520663395
 20
121.4602796011
 30
0.0
 11
111.1520663395
 21
116.2293394934
 31
0.0
  0
LINE
  5
1BB
330
1F
100
AcDbEntity
  8
0
  6
Continuous
 62
     7
370
    25
100
AcDbLine
 10
201.2520663395
 20
121.2293394934
 30
0.0
 11
228.7520663395
 21
121.2293394934
 31
0.0
  0
LINE
  5
1BC
330
1F
100
AcDbEntity
  8
0
  6
Continuous
 62
     7
370
    25
100
AcDbLine
 10
111.5520663395
 20
121.2293394934
 30
0.0
 11
114.9770663395
 21
121.2293394934
 31
0.0
  0
LINE
  5
1BD
330
1F
100
AcDbEntity
  8
0
  6
Continuous
 62
     7
370
    25
100
AcDbLine
 10
114.9770663395
 20
121.2293394934
 30
0.0
 11
114.9770663395
 21
116.2293394934
 31
0.0
  0
LINE
  5
1BE
330
1F
100
AcDbEntity
  8
0
  6
Continuous
 62
     7
370
    25
100
AcDbLine
 10
190.2520663395
 20
119.7293394934
 30
0.0
 11
190.7520663395
 21
120.2293394934
 31
0.0
  0
LINE
  5
1BF
330
1F
100
AcDbEntity
  8
0
  6
Continuous
 62
     7
370
    25
100
AcDbLine
 10
172.2520663395
 20
120.2293394934
 30
0.0
 11
172.2520663395
 21
116.2293394934
 31
0.0
  0
LINE
  5
1C0
330
1F
100
AcDbEntity
  8
0
  6
Continuous
 62
     7
370
    25
100
AcDbLine
 10
115.8020663395
 20
120.2293394934
 30
0.0
 11
172.2520663395
 21
120.2293394934
 31
0.0
  0
LINE
  5
1C1
330
1F
100
AcDbEntity
  8
0
  6
Continuous
 62
     7
370
    25
100
AcDbLine
 10
115.8020663395
 20
120.2293394934
 30
0.0
 11
115.8020663395
 21
116.2293394934
 31
0.0
  0
LINE
  5
1C2
330
1F
100
AcDbEntity
  8
0
  6
Continuous
 62
     7
370
    25
100
AcDbLine
 10
172.552496649
 20
119.7293394934
 30
0.0
 11
172.552496649
 21
116.2293394934
 31
0.0
  0
LINE
  5
1C3
330
1F
100
AcDbEntity
  8
0
  6
Continuous
 62
     7
370
    25
100
AcDbLine
 10
172.2520663395
 20
120.2293394934
 30
0.0
 11
172.552496649
 21
119.7293394934
 31
0.0
  0
LINE
  5
1C4
330
1F
100
AcDbEntity
  8
0
  6
Continuous
 62
     7
370
    25
100
AcDbLine
 10
172.552496649
 20
119.7293394934
 30
0.0
 11
190.2520663395
 21
119.7293394934
 31
0.0
  0
SPLINE
  5
1C5
330
1F
100
AcDbEntity
  8
0
  6
Continuous
 62
     7
370
    25
100
AcDbSpline
210
0.0
220
0.0
230
1.0
 70
     8
 71
     3
 72
    37
 73
    33
 74
     0
 42
0.000000001
 43
0.00000001
 40
0.0
 40
0.0
 40
0.0
 40
0.0
 40
0.0114878548102397
 40
0.023155976562093
 40
0.0350076484353413
 40
0.0470460033794231
 40
0.0592740307998792
 40
0.071694583096471
 40
0.0843103820273714
 40
0.0971240248797285
 40
0.1101379904320115
 40
0.1233546446979396
 40
0.1811510010988646
 40
0.2483631736114431
 40
0.288837341575901
 40
0.3232297457524277
 40
0.3515392131431687
 40
0.3737664266256243
 40
0.4399300285917602
 40
0.4987424063270091
 40
0.5023253005651696
 40
0.561310007451455
 40
0.6252595444338146
 40
0.681865008384978
 40
0.7483890016987849
 40
0.78607814719501
 40
0.8194856599780345
 40
0.8486127715267109
 40
0.8734622727747314
 40
0.938992615660202
 40
0.9981523731393461
 40
1.0
 40
1.0
 40
1.0
 40
1.0
 10
97.10206633946528
 20
139.6929917967628
 30
0.0
 10
97.10113988818676
 20
139.6925482797544
 30
0.0
 10
97.09927244779469
 20
139.6916542860869
 30
0.0
 10
97.08399938745502
 20
139.6844623086286
 30
0.0
 10
97.05909768499127
 20
139.6730110650362
 30
0.0
 10
97.02324341305554
 20
139.6568613062617
 30
0.0
 10
96.97627590221802
 20
139.636133626708
 30
0.0
 10
96.91773299179721
 20
139.6107951077063
 30
0.0
 10
96.8472548522196
 20
139.5808546871518
 30
0.0
 10
96.76448028794202
 20
139.5463107131097
 30
0.0
 10
96.6690637428237
 20
139.5071609714952
 30
0.0
 10
96.43949490943082
 20
139.4144623003323
 30
0.0
 10
95.95507669545536
 20
139.22573940982
 30
0.0
 10
95.17607672393638
 20
138.9476496098567
 30
0.0
 10
94.38485827257739
 20
138.6970627425409
 30
0.0
 10
93.7538077793814
 20
138.5220459812206
 30
0.0
 10
93.20076982301225
 20
138.3822113406131
 30
0.0
 10
92.40781189408959
 20
138.2018004952569
 30
0.0
 10
91.33747755371627
 20
138.0127341736039
 30
0.0
 10
90.35648727428051
 20
137.9074473658938
 30
0.0
 10
89.42852004513249
 20
137.8504145939391
 30
0.0
 10
88.45606455137208
 20
137.8358199955697
 30
0.0
 10
87.12993434593878
 20
137.9140132120606
 30
0.0
 10
85.8598988614456
 20
138.0744929336548
 30
0.0
 10
84.9001228607846
 20
138.2596044718667
 30
0.0
 10
84.20147121344797
 20
138.4270940755943
 30
0.0
 10
83.757663075296
 20
138.5407172818007
 30
0.0
 10
83.42512601335743
 20
138.6339011167107
 30
0.0
 10
83.03796760310678
 20
138.7485659809733
 30
0.0
 10
82.70071964099132
 20
138.8559117900379
 30
0.0
 10
82.60299557466219
 20
138.8934773633222
 30
0.0
 10
82.60209365439015
 20
138.893608772137
 30
0.0
 10
82.60206633946527
 20
138.8936127518922
 30
0.0
  0
LINE
  5
1C6
330
1F
100
AcDbEntity
  8
0
  6
Continuous
 62
     7
370
    25
100
AcDbLine
 10
97.1020663395
 20
139.6929917968
 30
0.0
 11
97.1020663395
 21
134.3355655142
 31
0.0
  0
SPLINE
  5
1C7
330
1F
100
AcDbEntity
  8
0
  6
Continuous
 62
     7
370
    25
100
AcDbSpline
210
0.0
220
0.0
230
1.0
 70
     8
 71
     3
 72
    30
 73
    26
 74
     0
 42
0.000000001
 43
0.00000001
 40
0.0
 40
0.0
 40
0.0
 40
0.0
 40
0.0192411700742981
 40
0.0381353539378548
 40
0.0566868884863267
 40
0.074900355493348
 40
0.0927805967286099
 40
0.1103327298327982
 40
0.1275621649290826
 40
0.1444746219341823
 40
0.245586583052792
 40
0.3577720192516835
 40
0.4505017408947211
 40
0.5720127868619918
 40
0.616806984022426
 40
0.6590088499470569
 40
0.6986242498815209
 40
0.735660329937402
 40
0.770125893192874
 40
0.8073679165915972
 40
0.8483950324910894
 40
0.888136779884444
 40
0.9266264622133248
 40
0.963900744362977
 40
1.0
 40
1.0
 40
1.0
 40
1.0
 10
87.93124774885328
 20
132.6714742038182
 30
0.0
 10
88.01428022873331
 20
132.6603470984933
 30
0.0
 10
88.17884781980682
 20
132.6382935488271
 30
0.0
 10
88.42672933548825
 20
132.6102416595643
 30
0.0
 10
88.67200601093114
 20
132.5862901290383
 30
0.0
 10
88.9145638445426
 20
132.5667601768448
 30
0.0
 10
89.15399852165132
 20
132.5515678846681
 30
0.0
 10
89.39001171705786
 20
132.5407363234372
 30
0.0
 10
89.62232976236773
 20
132.5342557581841
 30
0.0
 10
90.23088053198919
 20
132.5286242665979
 30
0.0
 10
91.26919302920868
 20
132.5885976660834
 30
0.0
 10
92.5845445573064
 20
132.7880201392562
 30
0.0
 10
93.86408977020004
 20
133.0935014999401
 30
0.0
 10
94.75553031429922
 20
133.3734443028617
 30
0.0
 10
95.37319518317275
 20
133.6008933993823
 30
0.0
 10
95.71651826846458
 20
133.7311720598868
 30
0.0
 10
96.00820935335899
 20
133.8472629978457
 30
0.0
 10
96.25275470917674
 20
133.9486312272466
 30
0.0
 10
96.4651093896081
 20
134.0399692797602
 30
0.0
 10
96.65617236422986
 20
134.1240443637022
 30
0.0
 10
96.82141976840263
 20
134.1990373176663
 30
0.0
 10
96.95096031864624
 20
134.2600258172121
 30
0.0
 10
97.03932668786615
 20
134.3032634789776
 30
0.0
 10
97.09247253312682
 20
134.3304935648567
 30
0.0
 10
97.09890272906755
 20
134.3338930109867
 30
0.0
 10
97.10206633946528
 20
134.3355655141612
 30
0.0
  0
SPLINE
  5
1C8
330
1F
100
AcDbEntity
  8
0
  6
Continuous
 62
     7
370
    25
100
AcDbSpline
210
0.0
220
0.0
230
1.0
 70
     8
 71
     3
 72
    38
 73
    34
 74
     0
 42
0.000000001
 43
0.00000001
 40
0.0
 40
0.0
 40
0.0
 40
0.0
 40
0.1249999999999998
 40
0.1249999999999998
 40
0.2499999999999997
 40
0.2499999999999997
 40
0.3124999999999996
 40
0.3124999999999996
 40
0.3749999999999993
 40
0.3749999999999993
 40
0.4374999999999992
 40
0.4374999999999992
 40
0.4999999999999989
 40
0.4999999999999989
 40
0.5624999999999987
 40
0.5624999999999987
 40
0.6249999999999986
 40
0.6249999999999986
 40
0.6874999999999983
 40
0.6874999999999983
 40
0.7187499999999982
 40
0.7187499999999982
 40
0.7499999999999982
 40
0.7499999999999982
 40
0.7812499999999982
 40
0.7812499999999982
 40
0.8124999999999981
 40
0.8124999999999981
 40
0.8749999999999988
 40
0.8749999999999988
 40
0.9374999999999993
 40
0.9374999999999993
 40
1.0
 40
1.0
 40
1.0
 40
1.0
 10
82.60206633946527
 20
138.7653873783135
 30
0.0
 10
82.6020663394653
 20
138.7653873783135
 30
0.0
 10
82.66387209702869
 20
138.7427432956516
 30
0.0
 10
82.91349464246404
 20
138.6501589065956
 30
0.0
 10
83.09722227340214
 20
138.5817713266429
 30
0.0
 10
83.45361110998711
 20
138.4459292274411
 30
0.0
 10
83.58677157149262
 20
138.3947362423846
 30
0.0
 10
83.87785058218896
 20
138.2810476372722
 30
0.0
 10
84.03434053369826
 20
138.2191210297658
 30
0.0
 10
84.36772197498613
 20
138.0842359210754
 30
0.0
 10
84.54462573334925
 20
138.0112976667887
 30
0.0
 10
84.91786738082253
 20
137.8523217319928
 30
0.0
 10
85.11561137170365
 20
137.7656819621163
 30
0.0
 10
85.52163480495678
 20
137.5787642895639
 30
0.0
 10
85.72968819834377
 20
137.4787293757549
 30
0.0
 10
86.15198247107793
 20
137.2594658255759
 30
0.0
 10
86.366347774153
 20
137.1404626339113
 30
0.0
 10
86.79419008573244
 20
136.8701887835875
 30
0.0
 10
87.01059173683906
 20
136.7169399580758
 30
0.0
 10
87.30922417971925
 20
136.4508714344927
 30
0.0
 10
87.40441676918897
 20
136.35609918822
 30
0.0
 10
87.58204202104584
 20
136.1503423310301
 30
0.0
 10
87.66465633167424
 20
136.0384837892595
 30
0.0
 10
87.8067366066959
 20
135.8049682850372
 30
0.0
 10
87.86712215594089
 20
135.6824072190814
 30
0.0
 10
87.96657264809582
 20
135.4259364558563
 30
0.0
 10
88.00586408712066
 20
135.2906964423065
 30
0.0
 10
88.09256067327381
 20
134.8824144393421
 30
0.0
 10
88.11126900026858
 20
134.6061542615571
 30
0.0
 10
88.10777297963695
 20
134.0494064829214
 30
0.0
 10
88.08529335942836
 20
133.7711762389306
 30
0.0
 10
88.0196657116463
 20
133.2197904187458
 30
0.0
 10
87.97616816795683
 20
132.9455367496434
 30
0.0
 10
87.92668862084678
 20
132.6721072776818
 30
0.0
  0
LINE
  5
1C9
330
1F
100
AcDbEntity
  8
0
  6
Continuous
 62
     7
370
    25
100
AcDbLine
 10
82.6020663395
 20
138.7653873783
 30
0.0
 11
82.6020663395
 21
138.8936127518
 31
0.0
  0
SPLINE
  5
1CA
330
1F
100
AcDbEntity
  8
0
  6
Continuous
 62
     7
370
    25
100
AcDbSpline
210
0.0
220
0.0
230
1.0
 70
     8
 71
     3
 72
    14
 73
    10
 74
     0
 42
0.000000001
 43
0.00000001
 40
0.0
 40
0.0
 40
0.0
 40
0.0
 40
0.0003951392850831
 40
0.0003951392850831
 40
0.0003951392850831
 40
0.0008159035679249
 40
0.0008159035679249
 40
0.0008159035679249
 40
0.0012369936130996
 40
0.0012369936130996
 40
0.0012369936130996
 40
0.0012369936130996
 10
86.72995028919682
 20
132.4043124904098
 30
0.0
 10
86.85845952730354
 20
132.4331864581233
 30
0.0
 10
86.98702303503254
 20
132.4618746715996
 30
0.0
 10
87.11557341331593
 20
132.4903775156371
 30
0.0
 10
87.25245866097951
 20
132.5207284093278
 30
0.0
 10
87.38935430687933
 20
132.5508743743568
 30
0.0
 10
87.5261745682284
 20
132.5808261939253
 30
0.0
 10
87.6631005571733
 20
132.6108011587052
 30
0.0
 10
87.79997762913746
 20
132.6405872081504
 30
0.0
 10
87.9367144783246
 20
132.6702096813191
 30
0.0
  0
LINE
  5
1CB
330
1F
100
AcDbEntity
  8
0
  6
Continuous
 62
     7
370
    25
100
AcDbLine
 10
79.1720661842
 20
133.8668394934
 30
0.0
 11
82.6020663395
 21
138.7653873783
 31
0.0
  0
LINE
  5
1CC
330
1F
100
AcDbEntity
  8
0
  6
Continuous
 62
     7
370
    25
100
AcDbLine
 10
81.8525044911
 20
139.7027252031
 30
0.0
 11
82.6020944701
 21
138.8936138653
 31
0.0
  0
LINE
  5
1CD
330
1F
100
AcDbEntity
  8
0
  6
Continuous
 62
     7
370
    25
100
AcDbLine
 10
97.1020792876
 20
139.6929920526
 30
0.0
 11
97.7704094335
 21
140.502103875
 31
0.0
  0
LINE
  5
1CE
330
1F
100
AcDbEntity
  8
0
  6
Continuous
 62
     7
370
    25
100
AcDbLine
 10
73.0537323893
 20
135.1649157048
 30
0.0
 11
75.3020663395
 21
133.8668394934
 31
0.0
  0
LINE
  5
1CF
330
1F
100
AcDbEntity
  8
0
  6
Continuous
 62
     7
370
    25
100
AcDbLine
 10
72.3020663395
 20
136.4668394934
 30
0.0
 11
73.0537323893
 21
135.1649157048
 31
0.0
  0
LINE
  5
1D0
330
1F
100
AcDbEntity
  8
0
  6
Continuous
 62
     7
370
    25
100
AcDbLine
 10
72.3020663395
 20
138.4324342172
 30
0.0
 11
72.3020663395
 21
136.4668394934
 31
0.0
  0
LINE
  5
1D1
330
1F
100
AcDbEntity
  8
0
  6
Continuous
 62
     7
370
    25
100
AcDbLine
 10
73.8020663395
 20
139.298459621
 30
0.0
 11
72.3020663395
 21
138.4324342172
 31
0.0
  0
LINE
  5
1D2
330
1F
100
AcDbEntity
  8
0
  6
Continuous
 62
     7
370
    25
100
AcDbLine
 10
123.0270663395
 20
144.0793394934
 30
0.0
 11
121.2770663395
 21
144.0793394934
 31
0.0
  0
ARC
  5
1D3
330
1F
100
AcDbEntity
  8
0
  6
Continuous
 62
     7
370
    25
100
AcDbCircle
 10
123.0270663395
 20
145.0793394934
 30
0.0
 40
1.0
100
AcDbArc
 50
270.0
 51
0.0
  0
LINE
  5
1D4
330
1F
100
AcDbEntity
  8
0
  6
Continuous
 62
     7
370
    25
100
AcDbLine
 10
124.0270663395
 20
145.1769347576
 30
0.0
 11
124.0270663395
 21
145.0793394934
 31
0.0
  0
LINE
  5
1D5
330
1F
100
AcDbEntity
  8
0
  6
Continuous
 62
     7
370
    25
100
AcDbLine
 10
125.486264144
 20
147.7043394934
 30
0.0
 11
124.0270663395
 21
145.1769347576
 31
0.0
  0
LINE
  5
1D6
330
1F
100
AcDbEntity
  8
0
  6
Continuous
 62
     7
370
    25
100
AcDbLine
 10
97.7280154812
 20
133.8668407837
 30
0.0
 11
97.1020694677
 21
134.335565639
 31
0.0
  0
LINE
  5
1D7
330
1F
100
AcDbEntity
  8
0
  6
Continuous
 62
     7
370
    25
100
AcDbLine
 10
120.2770663395
 20
145.1769347576
 30
0.0
 11
118.8178685349
 21
147.7043394934
 31
0.0
  0
LINE
  5
1D8
330
1F
100
AcDbEntity
  8
0
  6
Continuous
 62
     7
370
    25
100
AcDbLine
 10
120.2770663395
 20
145.0793394934
 30
0.0
 11
120.2770663395
 21
145.1769347576
 31
0.0
  0
ARC
  5
1D9
330
1F
100
AcDbEntity
  8
0
  6
Continuous
 62
     7
370
    25
100
AcDbCircle
 10
121.2770663395
 20
145.0793394934
 30
0.0
 40
1.000000000000014
100
AcDbArc
 50
180.0
 51
270.0
  0
LINE
  5
1DA
330
1F
100
AcDbEntity
  8
0
  6
Continuous
 62
     7
370
    25
100
AcDbLine
 10
190.7520663395
 20
120.2293394934
 30
0.0
 11
190.7520663395
 21
121.1293394934
 31
0.0
  0
LINE
  5
1DB
330
1F
100
AcDbEntity
  8
0
  6
Continuous
 62
     7
370
    25
100
AcDbLine
 10
114.9770663395
 20
121.2293394934
 30
0.0
 11
114.9770663395
 21
121.9793394934
 31
0.0
  0
LINE
  5
1DC
330
1F
100
AcDbEntity
  8
0
  6
Continuous
 62
     7
370
    25
100
AcDbLine
 10
115.8020663395
 20
121.9793394934
 30
0.0
 11
115.8020663395
 21
120.2293394934
 31
0.0
  0
LINE
  5
1DD
330
1F
100
AcDbEntity
  8
0
  6
Continuous
 62
     7
370
    25
100
AcDbLine
 10
232.2520663395
 20
122.2660337415
 30
0.0
 11
232.2520663395
 21
126.3805585101
 31
0.0
  0
LINE
  5
1DE
330
1F
100
AcDbEntity
  8
0
  6
Continuous
 62
     7
370
    25
100
AcDbLine
 10
111.1520663395
 20
130.5793394934
 30
0.0
 11
111.1520663395
 21
121.4602796011
 31
0.0
  0
LINE
  5
1DF
330
1F
100
AcDbEntity
  8
0
  6
Continuous
 62
     7
370
    25
100
AcDbLine
 10
106.2520663395
 20
133.6793394934
 30
0.0
 11
106.2520663395
 21
131.7793394934
 31
0.0
  0
LINE
  5
1E0
330
1F
100
AcDbEntity
  8
0
  6
Continuous
 62
     7
370
    25
100
AcDbLine
 10
112.2520663395
 20
147.5043394934
 30
0.0
 11
112.2520663395
 21
143.0793394934
 31
0.0
  0
LINE
  5
1E1
330
1F
100
AcDbEntity
  8
0
  6
Continuous
 62
     7
370
    25
100
AcDbLine
 10
130.2520663395
 20
135.2293394934
 30
0.0
 11
130.2520663395
 21
147.7043394934
 31
0.0
  0
SPLINE
  5
1E2
330
1F
100
AcDbEntity
  8
0
  6
Continuous
 62
     7
370
    25
100
AcDbSpline
210
0.0
220
0.0
230
1.0
 70
     8
 71
     3
 72
     9
 73
     5
 74
     0
 42
0.000000001
 43
0.00000001
 40
0.0
 40
0.0
 40
0.0
 40
0.0
 40
0.5102121239851032
 40
1.0
 40
1.0
 40
1.0
 40
1.0
 10
73.10642973613638
 20
126.6909660100614
 30
0.0
 10
73.48129179311513
 20
126.6884760926797
 30
0.0
 10
74.21600984342491
 20
126.6835959315377
 30
0.0
 10
74.94501043388166
 20
126.6782110401513
 30
0.0
 10
75.30206608469508
 20
126.6755735856366
 30
0.0
  0
LINE
  5
1E3
330
1F
100
AcDbEntity
  8
0
  6
Continuous
 62
     7
370
    25
100
AcDbLine
 10
73.0537323893
 20
126.721390301
 30
0.0
 11
73.106429738
 21
126.6909654725
 31
0.0
  0
LINE
  5
1E4
330
1F
100
AcDbEntity
  8
0
  6
Continuous
 62
     7
370
    25
100
AcDbLine
 10
73.0537323893
 20
135.1649157048
 30
0.0
 11
73.0537323893
 21
126.721390301
 31
0.0
  0
SPLINE
  5
1E5
330
1F
100
AcDbEntity
  8
0
  6
Continuous
 62
     7
370
    25
100
AcDbSpline
210
0.0
220
0.0
230
1.0
 70
    24
 71
     3
 72
     8
 73
     4
 74
     0
 42
0.000000001
 43
0.00000001
 40
0.0000004089325119
 40
0.0000004089325119
 40
0.0000004089325119
 40
0.0000004089325119
 40
0.0015399868451459
 40
0.0015399868451459
 40
0.0015399868451459
 40
0.0015399868451459
 10
72.30206633946527
 20
127.155364897194
 30
0.0
 10
72.55305741548973
 20
127.0104551318871
 30
0.0
 10
72.80364661199268
 20
126.8657773918301
 30
0.0
 10
73.05373238930483
 20
126.7213903009785
 30
0.0
  0
LINE
  5
1E6
330
1F
100
AcDbEntity
  8
0
  6
Continuous
 62
     7
370
    25
100
AcDbLine
 10
72.3020663395
 20
136.4668394934
 30
0.0
 11
72.3020663395
 21
127.1553648972
 31
0.0
  0
SPLINE
  5
1E7
330
1F
100
AcDbEntity
  8
0
  6
Continuous
 62
     7
370
    25
100
AcDbSpline
210
0.0
220
0.0
230
1.0
 70
     8
 71
     3
 72
     8
 73
     4
 74
     0
 42
0.000000001
 43
0.00000001
 40
0.0
 40
0.0
 40
0.0
 40
0.0
 40
1.0
 40
1.0
 40
1.0
 40
1.0
 10
75.43174808222203
 20
126.2893401711461
 30
0.0
 10
75.40379986210249
 20
126.3971565251216
 30
0.0
 10
75.3758397739338
 20
126.5047503752879
 30
0.0
 10
75.34786758639959
 20
126.6121196560725
 30
0.0
  0
LINE
  5
1E8
330
1F
100
AcDbEntity
  8
0
  6
Continuous
 62
     7
370
    25
100
AcDbLine
 10
75.4317512208
 20
126.2893394934
 30
0.0
 11
73.8020655527
 21
126.2893394934
 31
0.0
  0
LINE
  5
1E9
330
1F
100
AcDbEntity
  8
0
  6
Continuous
 62
     7
370
    25
100
AcDbLine
 10
73.8020657526
 20
126.2893398322
 30
0.0
 11
73.1064292746
 21
126.6909657401
 31
0.0
  0
LINE
  5
1EA
330
1F
100
AcDbEntity
  8
0
  6
Continuous
 62
     7
370
    25
100
AcDbLine
 10
81.8560272367
 20
124.2918394934
 30
0.0
 11
81.6038556087
 21
124.2918394934
 31
0.0
  0
SPLINE
  5
1EB
330
1F
100
AcDbEntity
  8
0
  6
Continuous
 62
     7
370
    25
100
AcDbSpline
210
0.0
220
0.0
230
1.0
 70
     8
 71
     3
 72
    26
 73
    22
 74
     0
 42
0.000000001
 43
0.00000001
 40
0.0
 40
0.0
 40
0.0
 40
0.0
 40
0.0524616379916458
 40
0.1026498591861474
 40
0.1505655134537972
 40
0.1962095861908931
 40
0.2395832262515146
 40
0.2806877815543323
 40
0.3195248450324018
 40
0.3560963147377176
 40
0.3904044736499266
 40
0.4224520974393497
 40
0.4522426027388373
 40
0.4797802555350637
 40
0.5050704712281464
 40
0.5966394156800096
 40
0.6841917884819306
 40
0.7679874773571161
 40
0.8483228539139546
 40
0.9255341635201179
 40
1.0
 40
1.0
 40
1.0
 40
1.0
 10
81.60204911479588
 20
124.2918692774449
 30
0.0
 10
81.56641271576576
 20
124.3514161975253
 30
0.0
 10
81.4966842154295
 20
124.4679295813084
 30
0.0
 10
81.38320605467325
 20
124.6323275420333
 30
0.0
 10
81.26768050495149
 20
124.7844892798317
 30
0.0
 10
81.15055880894414
 20
124.9243919767622
 30
0.0
 10
81.03318710846696
 20
125.0526063006652
 30
0.0
 10
80.91656614243477
 20
125.1696219796055
 30
0.0
 10
80.80166322199037
 20
125.2759991348502
 30
0.0
 10
80.68933899630073
 20
125.3723152153259
 30
0.0
 10
80.58037002226459
 20
125.4591645618804
 30
0.0
 10
80.47545098142558
 20
125.5371447440767
 30
0.0
 10
80.3751936554734
 20
125.6068529411326
 30
0.0
 10
80.28015631288577
 20
125.668862930037
 30
0.0
 10
80.11004940845156
 20
125.7733493673051
 30
0.0
 10
79.85713037704453
 20
125.9084080338205
 30
0.0
 10
79.51114921998337
 20
126.0527949262376
 30
0.0
 10
79.16319067065903
 20
126.1617628384826
 30
0.0
 10
78.81705091028297
 20
126.2362924208194
 30
0.0
 10
78.47598612684887
 20
126.2812211253687
 30
0.0
 10
78.25023951533322
 20
126.2866662242232
 30
0.0
 10
78.13940930331515
 20
126.2893394934096
 30
0.0
  0
SPLINE
  5
1EC
330
1F
100
AcDbEntity
  8
0
  6
Continuous
 62
     7
370
    25
100
AcDbSpline
210
0.0
220
0.0
230
1.0
 70
     8
 71
     3
 72
     8
 73
     4
 74
     0
 42
0.000000001
 43
0.00000001
 40
0.0
 40
0.0
 40
0.0
 40
0.0
 40
1.0
 40
1.0
 40
1.0
 40
1.0
 10
81.85602723669776
 20
124.2918394934094
 30
0.0
 10
81.88503194312534
 20
124.4157772202717
 30
0.0
 10
81.90406446280677
 20
124.543729350505
 30
0.0
 10
81.91231605499844
 20
124.6747986631965
 30
0.0
  0
LINE
  5
1ED
330
1F
100
AcDbEntity
  8
0
  6
Continuous
 62
     7
370
    25
100
AcDbLine
 10
78.1394093033
 20
126.2893394934
 30
0.0
 11
75.4317512208
 21
126.2893394934
 31
0.0
  0
LINE
  5
1EE
330
1F
100
AcDbEntity
  8
0
  6
Continuous
 62
     7
370
    25
100
AcDbLine
 10
94.9020663395
 20
120.2921129042
 30
0.0
 11
94.2520663395
 21
120.4418394934
 31
0.0
  0
SPLINE
  5
1EF
330
1F
100
AcDbEntity
  8
0
  6
Continuous
 62
     7
370
    25
100
AcDbSpline
210
0.0
220
0.0
230
1.0
 70
     8
 71
     3
 72
    26
 73
    22
 74
     0
 42
0.000000001
 43
0.00000001
 40
0.0
 40
0.0
 40
0.0
 40
0.0
 40
0.0305951740619132
 40
0.0629166281945905
 40
0.0969720532990741
 40
0.1327680143378763
 40
0.1703101548900729
 40
0.2096033578568503
 40
0.2506518729757663
 40
0.3342141733901709
 40
0.4179517165478233
 40
0.5018670561022144
 40
0.5659795686765051
 40
0.6277136397901657
 40
0.6871358192149355
 40
0.7443207393909679
 40
0.7993521466062465
 40
0.8523240128016296
 40
0.9033417028108085
 40
0.9525231537651235
 40
1.0
 40
1.0
 40
1.0
 40
1.0
 10
94.25206633946527
 20
120.4418394934096
 30
0.0
 10
94.25115812762036
 20
120.5063746608066
 30
0.0
 10
94.24929045963938
 20
120.6390862814164
 30
0.0
 10
94.2336978705742
 20
120.8419003729595
 30
0.0
 10
94.20705400938299
 20
121.0536134138693
 30
0.0
 10
94.16689958030132
 20
121.2733254072417
 30
0.0
 10
94.11200146361739
 20
121.5000722781026
 30
0.0
 10
94.04075849500909
 20
121.7327032818662
 30
0.0
 10
93.92234610073125
 20
122.0481015963268
 30
0.0
 10
93.73421520432801
 20
122.4325834948523
 30
0.0
 10
93.45019844109356
 20
122.8626111093819
 30
0.0
 10
93.14078048454088
 20
123.2210978217263
 30
0.0
 10
92.82487087373336
 20
123.5128644780203
 30
0.0
 10
92.51812546560194
 20
123.7453235648616
 30
0.0
 10
92.19970635177357
 20
123.9421337994268
 30
0.0
 10
91.87373547561269
 20
124.1042345016841
 30
0.0
 10
91.54419664048652
 20
124.2327043851613
 30
0.0
 10
91.21463472564218
 20
124.329288204531
 30
0.0
 10
90.88821640234845
 20
124.3951404338141
 30
0.0
 10
90.56769821005336
 20
124.4347053816371
 30
0.0
 10
90.35603269652954
 20
124.4394895798521
 30
0.0
 10
90.25206633946529
 20
124.4418394934096
 30
0.0
  0
SPLINE
  5
1F0
330
1F
100
AcDbEntity
  8
0
  6
Continuous
 62
     7
370
    25
100
AcDbSpline
210
0.0
220
0.0
230
1.0
 70
     8
 71
     3
 72
    13
 73
     9
 74
     0
 42
0.000000001
 43
0.00000001
 40
0.0
 40
0.0
 40
0.0
 40
0.0
 40
0.160406168812509
 40
0.3231296685880656
 40
0.4883154214487667
 40
0.6561019687086515
 40
0.826621511861129
 40
1.0
 40
1.0
 40
1.0
 40
1.0
 10
88.33719306017582
 20
124.4418394934096
 30
0.0
 10
88.27814310863022
 20
124.4410839233708
 30
0.0
 10
88.15919013185682
 20
124.4395618678412
 30
0.0
 10
87.97993649819661
 20
124.4271168087045
 30
0.0
 10
87.79900351649145
 20
124.4069326275647
 30
0.0
 10
87.61687502211171
 20
124.3777972614199
 30
0.0
 10
87.43370801437197
 20
124.340381109606
 30
0.0
 10
87.31296869954538
 20
124.3081152372609
 30
0.0
 10
87.2520971679901
 20
124.2918481823299
 30
0.0
  0
SPLINE
  5
1F1
330
1F
100
AcDbEntity
  8
0
  6
Continuous
 62
     7
370
    25
100
AcDbSpline
210
0.0
220
0.0
230
1.0
 70
    24
 71
     3
 72
    10
 73
     6
 74
     0
 42
0.000000001
 43
0.00000001
 40
0.0
 40
0.0
 40
0.0
 40
0.0
 40
0.3216623556917169
 40
0.6548175346390043
 40
1.0
 40
1.0
 40
1.0
 40
1.0
 10
87.25224517437002
 20
124.2918394934096
 30
0.0
 10
87.18369926651276
 20
124.2918394934096
 30
0.0
 10
87.04415834231551
 20
124.2918394934096
 30
0.0
 10
86.83454992696498
 20
124.2918394934096
 30
0.0
 10
86.69487293181116
 20
124.2918394934096
 30
0.0
 10
86.62379616061034
 20
124.2918394934096
 30
0.0
  0
SPLINE
  5
1F2
330
1F
100
AcDbEntity
  8
0
  6
Continuous
 62
     7
370
    25
100
AcDbSpline
210
0.0
220
0.0
230
1.0
 70
     8
 71
     3
 72
     8
 73
     4
 74
     0
 42
0.000000001
 43
0.00000001
 40
0.0
 40
0.0
 40
0.0
 40
0.0
 40
1.0
 40
1.0
 40
1.0
 40
1.0
 10
87.33839645590683
 20
124.6702858426079
 30
0.0
 10
87.06910012583288
 20
124.5735964574131
 30
0.0
 10
86.83293944040511
 20
124.4455972880308
 30
0.0
 10
86.62374192420978
 20
124.2921206903778
 30
0.0
  0
LINE
  5
1F3
330
1F
100
AcDbEntity
  8
0
  6
Continuous
 62
     7
370
    25
100
AcDbLine
 10
86.6242876358
 20
108.1668394934
 30
0.0
 11
86.7437683441
 21
108.1668394934
 31
0.0
  0
LINE
  5
1F4
330
1F
100
AcDbEntity
  8
0
  6
Continuous
 62
     7
370
    25
100
AcDbLine
 10
90.2520663395
 20
124.4418394934
 30
0.0
 11
88.3371930602
 21
124.4418394934
 31
0.0
  0
LINE
  5
1F5
330
1F
100
AcDbEntity
  8
0
  6
Continuous
 62
     7
370
    25
100
AcDbLine
 10
86.6241545214
 20
124.2918394934
 30
0.0
 11
81.8560272367
 21
124.2918394934
 31
0.0
  0
LINE
  5
1F6
330
1F
100
AcDbEntity
  8
0
  6
Continuous
 62
     7
370
    25
100
AcDbLine
 10
94.2520663395
 20
116.2293394934
 30
0.0
 11
94.2520663395
 21
120.4418394934
 31
0.0
  0
LINE
  5
1F7
330
1F
100
AcDbEntity
  8
VERMASSUNG
  6
CENTERX2
100
AcDbLine
 10
248.2470663395
 20
116.2293394934
 30
0.0
 11
56.3070663395
 21
116.2293394934
 31
0.0
  0
HATCH
  5
1F8
330
1F
100
AcDbEntity
  8
0
  6
Continuous
 62
     7
370
    18
100
AcDbHatch
 10
0.0
 20
0.0
 30
0.0
210
0.0
220
0.0
230
1.0
  2
ANSI31
 70
     0
 71
     0
 91
        1
 92
        0
 93
       50
 72
     2
 10
121.2770663394653
 20
145.0793394934096
 40
1.000000000000003
 50
90.0
 51
180.0
 73
     0
 72
     1
 10
120.2770663394653
 20
145.0793394934096
 11
120.2770663394653
 21
145.1769347576012
 72
     1
 10
120.2770663394653
 20
145.1769347576012
 11
118.8178685348952
 21
147.7043394934095
 72
     1
 10
118.8178685348952
 20
147.7043394934095
 11
112.4520663394653
 21
147.7043394934096
 72
     2
 10
112.4520663394653
 20
147.5043394934096
 40
0.2000000000000028
 50
90.0
 51
180.0
 73
     1
 72
     1
 10
112.2520663394653
 20
147.5043394934096
 11
112.2520663394653
 21
143.0793394934096
 72
     1
 10
112.2520663394653
 20
143.0793394934096
 11
112.5861050254939
 21
142.019904133013
 72
     2
 10
111.8231314648953
 20
141.7793394934096
 40
0.8000000000000032
 50
342.4999999999998
 51
467.5000000000022
 73
     0
 72
     1
 10
111.5825668252919
 20
141.016365932811
 11
111.0918842994346
 21
141.1710775389379
 72
     1
 10
111.0918842994346
 20
141.1710775389379
 11
97.77041102691517
 21
140.5021005659117
 72
     1
 10
97.7704094335165
 20
140.5021038749802
 11
97.10207928758697
 21
139.692992052589
 72
     1
 10
97.10207928758697
 20
139.692992052589
 11
97.1020663394653
 21
134.3355655141611
 72
     1
 10
97.102069467699
 20
134.3355656390416
 11
97.72801548124116
 21
133.8668407837016
 72
     1
 10
97.72801572955008
 20
133.8668394934096
 11
102.7520663394653
 21
133.8668394934096
 72
     1
 10
102.7520663394653
 20
133.8668394934096
 11
103.6273068130461
 21
134.3721598164371
 72
     2
 10
104.0273068130461
 20
133.6793394934096
 40
0.7999999999999918
 50
240.0000000000002
 51
269.9999999999998
 73
     0
 72
     1
 10
104.0273068130461
 20
134.4793394934096
 11
105.4520663394653
 21
134.4793394934096
 72
     2
 10
105.4520663394653
 20
133.6793394934096
 40
0.7999999999999977
 50
270.0000000000008
 51
360.0000000000008
 73
     0
 72
     1
 10
106.2520663394653
 20
133.6793394934096
 11
106.2520663394653
 21
131.7793394934096
 72
     1
 10
106.2520663394653
 20
131.7793394934096
 11
109.9520663394653
 21
131.7793394934096
 72
     2
 10
109.9520663394653
 20
130.5793394934096
 40
1.2
 50
270.0000000000008
 51
360.0000000000008
 73
     0
 72
     1
 10
111.1520663394653
 20
130.5793394934096
 11
111.1520663394653
 21
121.4602796010854
 72
     1
 10
111.1520663394653
 20
121.4602796010854
 11
111.5520663394653
 21
121.2293394934096
 72
     1
 10
111.5520663394653
 20
121.2293394934096
 11
114.9770663394653
 21
121.2293394934096
 72
     1
 10
114.9770663394653
 20
121.2293394934096
 11
114.9770663394653
 21
121.9793394934096
 72
     1
 10
114.9770663394653
 20
121.9793394934096
 11
115.8020663394653
 21
121.9793394934096
 72
     1
 10
115.8020663394653
 20
121.9793394934096
 11
115.8020663394653
 21
120.2293394934096
 72
     1
 10
115.8020663394653
 20
120.2293394934096
 11
172.2520663394653
 21
120.2293394934095
 72
     1
 10
172.2520663394653
 20
120.2293394934095
 11
172.552496648979
 21
119.7293394934095
 72
     1
 10
172.552496648979
 20
119.7293394934095
 11
190.2520663394653
 21
119.7293394934095
 72
     1
 10
190.2520663394653
 20
119.7293394934095
 11
190.7520663394653
 21
120.2293394934095
 72
     1
 10
190.7520663394653
 20
120.2293394934095
 11
190.7520663394652
 21
121.1293394934095
 72
     2
 10
191.1520663394653
 20
121.1293394934095
 40
0.3999999999999919
 50
180.0
 51
270.0000000000008
 73
     0
 72
     1
 10
191.1520663394653
 20
121.5293394934095
 11
200.3572923213455
 21
121.5293394934095
 72
     2
 10
200.3572923213455
 20
121.1293394934095
 40
0.4000000000000004
 50
270.0000000000008
 51
289.9999999999999
 73
     0
 72
     1
 10
200.4941003786758
 20
121.5052165417238
 11
201.2520663394653
 21
121.2293394934095
 72
     1
 10
201.2520663394653
 20
121.2293394934095
 11
228.7520663394653
 21
121.2293394934094
 72
     1
 10
228.7520663394653
 20
121.2293394934094
 11
231.8388904282988
 21
121.7736298649716
 72
     2
 10
231.7520663394653
 20
122.2660337414777
 40
0.4999999999999933
 50
280.0000000000023
 51
360.0000000000008
 73
     1
 72
     1
 10
232.2520663394653
 20
122.2660337414777
 11
232.2520663394653
 21
126.380558510093
 72
     2
 10
230.2520663394653
 20
126.380558510093
 40
1.999999999999994
 50
0.0
 51
85.50000000000047
 73
     1
 72
     1
 10
230.4089845309209
 20
128.3743931775593
 11
181.4272473947664
 21
132.2293394934095
 72
     1
 10
181.4272473947664
 20
132.2293394934095
 11
133.2520663394653
 21
132.2293394934096
 72
     2
 10
133.2520663394653
 20
135.2293394934095
 40
3.0
 50
90.0
 51
180.0000000000014
 73
     0
 72
     1
 10
130.2520663394653
 20
135.2293394934096
 11
130.2520663394653
 21
147.7043394934095
 72
     1
 10
130.2520663394653
 20
147.7043394934095
 11
125.4862641440354
 21
147.7043394934095
 72
     1
 10
125.4862641440354
 20
147.7043394934095
 11
124.0270663394653
 21
145.1769347576012
 72
     1
 10
124.0270663394653
 20
145.1769347576012
 11
124.0270663394653
 21
145.0793394934096
 72
     2
 10
123.0270663394653
 20
145.0793394934096
 40
1.000000000000003
 50
0.0
 51
90.00000000000082
 73
     0
 72
     1
 10
123.0270663394653
 20
144.0793394934096
 11
121.2770663394653
 21
144.0793394934096
 97
        0
 75
     0
 76
     1
 52
0.0
 41
1.0
 77
     0
 78
     1
 53
45.0
 43
0.0
 44
0.0
 45
-2.245064030267288
 46
2.245064030267288
 79
     0
 98
        1
 10
0.0
 20
0.0
  0
HATCH
  5
1F9
330
1F
100
AcDbEntity
  8
0
  6
Continuous
 62
     7
370
    18
100
AcDbHatch
 10
0.0
 20
0.0
 30
0.0
210
0.0
220
0.0
230
1.0
  2
ANSI31
 70
     0
 71
     0
 91
        1
 92
        0
 93
        9
 72
     1
 10
82.60209447005346
 20
138.8936138652925
 11
81.85250449111777
 21
139.7027252030601
 72
     1
 10
81.85250449111777
 20
139.7027252030601
 11
73.80206633946531
 21
139.298459620992
 72
     1
 10
73.80206633946531
 20
139.298459620992
 11
72.3020663394653
 21
138.4324342172076
 72
     1
 10
72.3020663394653
 20
138.4324342172076
 11
72.30206633946528
 21
136.4668394934096
 72
     1
 10
72.30206633946528
 20
136.4668394934096
 11
73.05373238930484
 21
135.1649157047629
 72
     1
 10
73.05373238930484
 20
135.1649157047629
 11
75.30206633946528
 21
133.8668394934096
 72
     1
 10
75.30206633946528
 20
133.8668394934096
 11
79.17206618417424
 21
133.8668394934096
 72
     1
 10
79.17206618417424
 20
133.8668394934096
 11
82.60206633946531
 21
138.7653873783136
 72
     1
 10
82.6020663394653
 20
138.7653873783135
 11
82.6020663394653
 21
138.8936127517991
 97
        0
 75
     0
 76
     1
 52
0.0
 41
1.0
 77
     0
 78
     1
 53
45.0
 43
0.0
 44
0.0
 45
-2.245064030267288
 46
2.245064030267288
 79
     0
 98
        1
 10
0.0
 20
0.0
  0
HATCH
  5
1FA
330
1F
100
AcDbEntity
  8
0
  6
Continuous
 62
     7
370
    18
100
AcDbHatch
 10
0.0
 20
0.0
 30
0.0
210
0.0
220
0.0
230
1.0
  2
ANSI31
 70
     0
 71
     0
 91
        1
 92
        0
 93
       11
 72
     1
 10
174.7520663393984
 20
118.369007104215
 11
179.7520663393984
 21
118.369007104215
 72
     1
 10
179.7520663393984
 20
118.369007104215
 11
179.7520663393984
 21
118.2293394934095
 72
     1
 10
179.7520663393984
 20
118.2293394934095
 11
189.7520663394652
 21
118.2293394934095
 72
     1
 10
189.7520663394652
 20
118.2293394934095
 11
189.7520663394652
 21
118.3690071042149
 72
     1
 10
189.7520663394652
 20
118.3690071042149
 11
192.7520663394653
 21
118.3690071042149
 72
     1
 10
192.7520663394653
 20
118.3690071042149
 11
192.7520663394653
 21
119.7293394934095
 72
     1
 10
192.7520663394653
 20
119.7293394934095
 11
191.2520663394653
 21
119.7293394934095
 72
     1
 10
191.2520663394653
 20
119.7293394934095
 11
190.7520663394653
 21
120.2293394934095
 72
     1
 10
190.7520663394653
 20
120.2293394934095
 11
175.2520663394653
 21
120.2293394934095
 72
     1
 10
175.2520663394653
 20
120.2293394934095
 11
174.7520663394653
 21
119.7293394934095
 72
     1
 10
174.7520663394653
 20
119.7293394934095
 11
174.7520663393984
 21
118.369007104215
 97
        0
 75
     0
 76
     1
 52
0.0
 41
1.0
 77
     0
 78
     1
 53
45.0
 43
0.0
 44
0.0
 45
-2.245064030267288
 46
2.245064030267288
 79
     0
 98
        1
 10
0.0
 20
0.0
  0
POINT
  5
1FB
330
1F
100
AcDbEntity
  8
VERMASSUNG
100
AcDbPoint
 10
232.2520663395
 20
104.2293394934
 30
0.0
  0
POINT
  5
1FC
330
1F
100
AcDbEntity
  8
VERMASSUNG
100
AcDbPoint
 10
232.2520663395
 20
128.2293394934
 30
0.0
  0
DIMENSION
  5
1FD
330
1F
100
AcDbEntity
  8
VERMASSUNG
100
AcDbDimension
  2
_D
 10
263.7603741082
 20
128.2293394934
 30
0.0
 11
263.7603741082
 21
116.2293394934
 31
0.0
 70
   160
  1
%%c<>
 71
     2
 42
-1.0
  3
SLDDIMSTYLE0
100
AcDbAlignedDimension
 13
232.2520663395
 23
104.2293394934
 33
0.0
 14
232.2520663395
 24
128.2293394934
 34
0.0
 50
90.0
100
AcDbRotatedDimension
  0
DIMENSION
  5
209
330
1F
100
AcDbEntity
  8
VERMASSUNG
100
AcDbDimension
  2
_D_1
 10
56.3070663395
 20
116.2293394934
 30
0.0
 11
217.8186507181
 21
137.7504318532
 31
0.0
 70
   162
  1
<>
 71
     1
 42
-1.0
  3
SLDDIMSTYLE1
100
AcDb2LineAngularDimension
 13
230.4089845309
 23
128.3743931776
 33
0.0
 14
181.4272473948
 24
132.2293394934
 34
0.0
 15
248.2470663395
 25
116.2293394934
 35
0.0
 16
216.566651031
 26
122.8363588643
 36
0.0
  0
DIMENSION
  5
213
330
1F
100
AcDbEntity
  8
VERMASSUNG
100
AcDbDimension
  2
_D_2
 10
255.8096310196
 20
111.2293394934
 30
0.0
 11
255.8096310196
 21
116.2293394934
 31
0.0
 70
   160
  1
%%c<>
 71
     2
 42
-1.0
  3
SLDDIMSTYLE2
100
AcDbAlignedDimension
 13
228.7520663395
 23
121.2293394934
 33
0.0
 14
228.7520663395
 24
111.2293394934
 34
0.0
 50
90.0
100
AcDbRotatedDimension
  0
DIMENSION
  5
21D
330
1F
100
AcDbEntity
  8
VERMASSUNG
100
AcDbDimension
  2
_D_3
 10
232.2520663395
 20
147.1679345338
 30
0.0
 11
216.7520663395
 21
147.1679345338
 31
0.0
 70
   160
  1
<>
 71
     2
 42
-1.0
  3
SLDDIMSTYLE0
100
AcDbAlignedDimension
 13
201.2520663395
 23
121.2293394934
 33
0.0
 14
232.2520663395
 24
126.3805585101
 34
0.0
 50
0.0
100
AcDbRotatedDimension
  0
DIMENSION
  5
227
330
1F
100
AcDbEntity
  8
VERMASSUNG
100
AcDbDimension
  2
_D_4
 10
190.7520663395
 20
154.0891911176
 30
0.0
 11
211.5020663395
 21
154.0891911176
 31
0.0
 70
   160
  1
<>
 71
     2
 42
-1.0
  3
SLDDIMSTYLE0
100
AcDbAlignedDimension
 13
232.2520663395
 23
122.2660337415
 33
0.0
 14
190.7520663395
 24
121.1293394934
 34
0.0
100
AcDbRotatedDimension
  0
DIMENSION
  5
231
330
1F
100
AcDbEntity
  8
VERMASSUNG
100
AcDbDimension
  2
_D_5
 10
273.3775790376
 20
100.2293394934
 30
0.0
 11
273.3775790376
 21
116.2293394934
 31
0.0
 70
   160
  1
%%c<>
 71
     2
 42
-1.0
  3
SLDDIMSTYLE0
100
AcDbAlignedDimension
 13
181.4272473948
 23
132.2293394934
 33
0.0
 14
181.4272473948
 24
100.2293394934
 34
0.0
 50
90.0
100
AcDbRotatedDimension
  0
DIMENSION
  5
23C
330
1F
100
AcDbEntity
  8
VERMASSUNG
100
AcDbDimension
  2
_D_6
 10
232.2520663395
 20
77.8842966875
 30
0.0
 11
181.2520663395
 21
77.8842966875
 31
0.0
 70
   160
  1
<>
 71
     2
 42
-1.0
  3
SLDDIMSTYLE0
100
AcDbAlignedDimension
 13
130.2520663395
 23
84.7543394934
 33
0.0
 14
232.2520663395
 24
106.0781204767
 34
0.0
 50
0.0
100
AcDbRotatedDimension
  0
DIMENSION
  5
246
330
1F
100
AcDbEntity
  8
VERMASSUNG
100
AcDbDimension
  2
_D_7
 10
232.2520663395
 20
85.1174916729
 30
0.0
 11
206.8396568671
 21
85.1174916729
 31
0.0
 70
   160
  1
<>
 71
     2
 42
-1.0
  3
SLDDIMSTYLE3
100
AcDbAlignedDimension
 13
181.4272473948
 23
100.2293394934
 33
0.0
 14
232.2520663395
 24
106.0781204767
 34
0.0
 50
0.0
100
AcDbRotatedDimension
  0
DIMENSION
  5
251
330
1F
100
AcDbEntity
  8
VERMASSUNG
100
AcDbDimension
  2
_D_8
 10
50.3020413395
 20
84.7543394934
 30
0.0
 11
50.3020413395
 21
116.2293394934
 31
0.0
 70
   160
  1
<>
 71
     2
 42
-1.0
  3
SLDDIMSTYLE0
100
AcDbAlignedDimension
 13
112.4520663395
 23
147.7043394934
 33
0.0
 14
112.4520663395
 24
84.7543394934
 34
0.0
 50
90.0
100
AcDbRotatedDimension
  0
DIMENSION
  5
25B
330
1F
100
AcDbEntity
  8
VERMASSUNG
100
AcDbDimension
  2
_D_9
 10
232.2520663395
 20
161.5820897505
 30
0.0
 11
172.2520663395
 21
161.5820897505
 31
0.0
 70
   160
  1
<>
 71
     2
 42
-1.0
  3
SLDDIMSTYLE0
100
AcDbAlignedDimension
 13
112.2520663395
 23
147.5043394934
 33
0.0
 14
232.2520663395
 24
126.3805585101
 34
0.0
 50
0.0
100
AcDbRotatedDimension
  0
DIMENSION
  5
265
330
1F
100
AcDbEntity
  8
VERMASSUNG
100
AcDbDimension
  2
_D_10
 10
232.2520663395
 20
168.5934699487
 30
0.0
 11
152.2770663395
 21
168.5934699487
 31
0.0
 70
   160
  1
<>
 71
     2
 42
-1.0
  3
SLDDIMSTYLE0
100
AcDbAlignedDimension
 13
72.3020663395
 23
138.4324342172
 33
0.0
 14
232.2520663395
 24
126.3805585101
 34
0.0
 50
0.0
100
AcDbRotatedDimension
  0
LINE
  5
26F
330
1F
100
AcDbEntity
  8
0
  6
Continuous
 62
     7
370
    25
100
AcDbLine
 10
260.2604774653
 20
25.4475334637
 30
0.0
 11
278.4866588573
 21
17.1479271843
 31
0.0
  0
LINE
  5
270
330
1F
100
AcDbEntity
  8
0
  6
Continuous
 62
     7
370
    25
100
AcDbLine
 10
284.5492808424
 20
27.6498344915
 30
0.0
 11
268.2474287353
 21
39.2828376925
 31
0.0
  0
SPLINE
  5
271
330
1F
100
AcDbEntity
  8
0
  6
Continuous
 62
     7
370
    25
100
AcDbSpline
210
0.0
220
0.0
230
1.0
 70
     8
 71
     3
 72
    29
 73
    25
 74
     0
 42
0.000000001
 43
0.00000001
 40
0.0
 40
0.0
 40
0.0
 40
0.0
 40
0.014249252775265
 40
0.0572526113141314
 40
0.1006321404978276
 40
0.1452421415861411
 40
0.1914992327449861
 40
0.2392456352921261
 40
0.2879002626542535
 40
0.3368248545283166
 40
0.3856385519120107
 40
0.4342818443138546
 40
0.4827999076102951
 40
0.5312810452984918
 40
0.5798237670885429
 40
0.6285106451284389
 40
0.6774561039875185
 40
0.7267632766305064
 40
0.7764847106260334
 40
0.8265148559997305
 40
0.8762430887702057
 40
0.9197138471920933
 40
0.9664235234078136
 40
1.0
 40
1.0
 40
1.0
 40
1.0
 10
278.5267747545367
 20
17.14473809535742
 30
0.0
 10
278.5827259048297
 20
17.11609530788271
 30
0.0
 10
278.8075341464148
 20
17.00101036945777
 30
0.0
 10
279.251014278697
 20
16.91186223866383
 30
0.0
 10
279.8370705214794
 20
16.87915160000237
 30
0.0
 10
280.4495582035086
 20
16.96332430083308
 30
0.0
 10
281.0792305873801
 20
17.15509442636293
 30
0.0
 10
281.7185615630691
 20
17.45743108947275
 30
0.0
 10
282.3534833222352
 20
17.86518825073086
 30
0.0
 10
282.9684699093028
 20
18.36866533687834
 30
0.0
 10
283.5495232935935
 20
18.95463463320674
 30
0.0
 10
284.08539237112
 20
19.60937383287834
 30
0.0
 10
284.5668127832038
 20
20.3195222140109
 30
0.0
 10
284.9854213579616
 20
21.07165685944502
 30
0.0
 10
285.3334939179379
 20
21.8521209284619
 30
0.0
 10
285.603993044216
 20
22.64729873508633
 30
0.0
 10
285.7904590410666
 20
23.44388164635309
 30
0.0
 10
285.8867282889001
 20
24.22895398386366
 30
0.0
 10
285.886594661758
 20
24.98945889965291
 30
0.0
 10
285.7837199171006
 20
25.70920999002867
 30
0.0
 10
285.5824345214616
 20
26.34770770249321
 30
0.0
 10
285.2841923320967
 20
26.90632445675622
 30
0.0
 10
284.9428625919014
 20
27.34610991758064
 30
0.0
 10
284.6566961137312
 20
27.55588808880238
 30
0.0
 10
284.5370184144057
 20
27.64361942987724
 30
0.0
  0
SPLINE
  5
272
330
1F
100
AcDbEntity
  8
0
  6
Continuous
 62
     7
370
    25
100
AcDbSpline
210
0.0
220
0.0
230
1.0
 70
     8
 71
     3
 72
    12
 73
     8
 74
     0
 42
0.000000001
 43
0.00000001
 40
0.0
 40
0.0
 40
0.0
 40
0.0
 40
0.0136349375964872
 40
0.3171982312557377
 40
0.6408058021575174
 40
0.9302758395674918
 40
1.0
 40
1.0
 40
1.0
 40
1.0
 10
280.3144219742334
 20
19.91809430239568
 30
0.0
 10
280.3109950167844
 20
19.9201850875709
 30
0.0
 10
280.2312715245621
 20
19.96882435378116
 30
0.0
 10
280.1148592059373
 20
20.15209632053572
 30
0.0
 10
279.9836979411848
 20
20.47276000026537
 30
0.0
 10
279.9422278482216
 20
20.78018543135392
 30
0.0
 10
279.9399698291942
 20
20.95607107910861
 30
0.0
 10
279.9395315189935
 20
20.99021271946773
 30
0.0
  0
SPLINE
  5
273
330
1F
100
AcDbEntity
  8
0
  6
Continuous
 62
     7
370
    25
100
AcDbSpline
210
0.0
220
0.0
230
1.0
 70
     8
 71
     3
 72
    15
 73
    11
 74
     0
 42
0.000000001
 43
0.00000001
 40
0.0
 40
0.0
 40
0.0
 40
0.0
 40
0.0746829784739144
 40
0.2142539600979936
 40
0.3534039593218908
 40
0.4918481747203641
 40
0.6294134257042077
 40
0.7663786953236605
 40
0.9037461928136059
 40
1.0
 40
1.0
 40
1.0
 40
1.0
 10
280.5660663187128
 20
23.0118006722049
 30
0.0
 10
280.6177299690215
 20
23.10178368490558
 30
0.0
 10
280.765945022812
 20
23.35993108618262
 30
0.0
 10
281.0686656666385
 20
23.73864262014031
 30
0.0
 10
281.4500884973546
 20
24.12532729122287
 30
0.0
 10
281.8487086979154
 20
24.42489736998106
 30
0.0
 10
282.2412758768406
 20
24.62912620466076
 30
0.0
 10
282.6056249430537
 20
24.72824595329453
 30
0.0
 10
282.898210011709
 20
24.73896582640172
 30
0.0
 10
283.0418304938815
 20
24.68239698365968
 30
0.0
 10
283.101003257334
 20
24.65909017741787
 30
0.0
  0
SPLINE
  5
274
330
1F
100
AcDbEntity
  8
0
  6
Continuous
 62
     7
370
    25
100
AcDbSpline
210
0.0
220
0.0
230
1.0
 70
     8
 71
     3
 72
    12
 73
     8
 74
     0
 42
0.000000001
 43
0.00000001
 40
0.0
 40
0.0
 40
0.0
 40
0.0
 40
0.129859503267076
 40
0.3797716516003804
 40
0.6308034373407666
 40
0.8826598409163527
 40
1.0
 40
1.0
 40
1.0
 40
1.0
 10
279.9395315189935
 20
20.99021271946773
 30
0.0
 10
279.9417098808497
 20
21.0704820201268
 30
0.0
 10
279.9480804587363
 20
21.30522806579282
 30
0.0
 10
280.0194075791944
 20
21.73188669722941
 30
0.0
 10
280.1831096857322
 20
22.25691840274725
 30
0.0
 10
280.3693014976315
 20
22.6943045066395
 30
0.0
 10
280.5186116983811
 20
22.93522875294167
 30
0.0
 10
280.5660663187128
 20
23.0118006722049
 30
0.0
  0
LINE
  5
275
330
1F
100
AcDbEntity
  8
0
  6
Continuous
 62
     7
370
    25
100
AcDbLine
 10
242.9991401688
 20
35.397973743
 30
0.0
 11
260.0316398343
 21
25.56532098
 31
0.0
  0
LINE
  5
276
330
1F
100
AcDbEntity
  8
0
  6
Continuous
 62
     7
370
    25
100
AcDbLine
 10
268.0309898509
 20
39.4221027495
 30
0.0
 11
250.9984901854
 21
49.2547555125
 31
0.0
  0
LINE
  5
277
330
1F
100
AcDbEntity
  8
0
  6
Continuous
 62
     7
370
    25
100
AcDbLine
 10
236.3850790251
 20
30.2819362909
 30
0.0
 11
238.0700441742
 21
29.3092266151
 31
0.0
  0
LINE
  5
278
330
1F
100
AcDbEntity
  8
0
  6
Continuous
 62
     7
370
    25
100
AcDbLine
 10
253.8062654887
 20
56.5681150089
 30
0.0
 11
252.1213003397
 21
57.5408246847
 31
0.0
  0
LINE
  5
279
330
1F
100
AcDbEntity
  8
0
  6
Continuous
 62
     7
370
    25
100
AcDbLine
 10
231.7767940938
 20
32.9422425556
 30
0.0
 11
234.0274450702
 21
31.6429694027
 31
0.0
  0
LINE
  5
27A
330
1F
100
AcDbEntity
  8
0
  6
Continuous
 62
     7
370
    25
100
AcDbLine
 10
249.7636663847
 20
58.9018577965
 30
0.0
 11
247.5130154083
 21
60.2011309494
 31
0.0
  0
LINE
  5
27B
330
1F
100
AcDbEntity
  8
0
  6
Continuous
 62
     7
370
    25
100
AcDbLine
 10
240.735626218
 20
59.981012857
 30
0.0
 11
231.5384140344
 21
64.5616654669
 31
0.0
  0
LINE
  5
27C
330
1F
100
AcDbEntity
  8
0
  6
Continuous
 62
     7
370
    25
100
AcDbLine
 10
220.0120662448
 20
44.5952820112
 30
0.0
 11
228.5781662505
 21
38.9213924148
 31
0.0
  0
LINE
  5
27D
330
1F
100
AcDbEntity
  8
0
  6
Continuous
 62
     7
370
    25
100
AcDbLine
 10
224.9915036865
 20
45.5417718769
 30
0.0
 11
224.9915036865
 21
45.1764531719
 31
0.0
  0
LINE
  5
27E
330
1F
100
AcDbEntity
  8
0
  6
Continuous
 62
     7
370
    25
100
AcDbLine
 10
228.8894704468
 20
64.9386338436
 30
0.0
 11
228.2499203381
 21
64.8514220881
 31
0.0
  0
LWPOLYLINE
  5
27F
330
1F
100
AcDbEntity
  8
0
  6
Continuous
 62
     7
370
    25
100
AcDbPolyline
 90
       20
 70
   128
 43
0.0
 10
258.3744603244
 20
29.2280792624
 10
258.4228554432
 20
30.1086569087
 10
258.5672133384
 20
31.0300437765
 10
258.8050628218
 20
31.9764739908
 10
259.1323354054
 20
32.9317546366
 10
259.5434304974
 20
33.8795398995
 10
260.0313148425
 20
34.803613378
 10
260.587640072
 20
35.688163931
 10
261.2028875835
 20
36.5180561982
 10
261.8665303784
 20
37.279091329
 10
262.5672131738
 20
37.9582467013
 10
263.292947167
 20
38.543903187
 10
264.0313148426
 20
39.0260386701
 10
264.7696825182
 20
39.3964043593
 10
265.4954165113
 20
39.6486625065
 10
266.1960993067
 20
39.7784982699
 10
266.8597421017
 20
39.7836888006
 10
267.4749896132
 20
39.66414619
 10
268.0313148426
 20
39.4219150748
 10
268.2474287353
 20
39.2828376925
  0
LWPOLYLINE
  5
280
330
1F
100
AcDbEntity
  8
0
  6
Continuous
 62
     7
370
    25
100
AcDbPolyline
 90
        8
 70
   128
 43
0.0
 10
260.2604774653
 20
25.4475334637
 10
260.0313148425
 20
25.5655086548
 10
259.5434304974
 20
25.9262828586
 10
259.1323354054
 20
26.3994278312
 10
258.8050628218
 20
26.976847595
 10
258.5672133384
 20
27.6486626412
 10
258.4228554432
 20
28.4033774308
 10
258.3744603244
 20
29.2280792624
  0
LWPOLYLINE
  5
281
330
1F
100
AcDbEntity
  8
0
  6
Continuous
 62
     7
370
    25
100
AcDbPolyline
 90
        3
 70
   128
 43
0.0
 10
283.0568184605
 20
24.6864516041
 10
283.0766879831
 20
24.6798652242
 10
283.1175755299
 20
24.6647630623
  0
LWPOLYLINE
  5
282
330
1F
100
AcDbEntity
  8
0
  6
Continuous
 62
     7
370
    25
100
AcDbPolyline
 90
       13
 70
   128
 43
0.0
 10
282.3405714596
 20
24.6667257124
 10
282.4243208696
 20
24.4917707517
 10
282.5189772583
 20
24.085217719
 10
282.5189772583
 20
23.6112447257
 10
282.4243208696
 20
23.0954037528
 10
282.2401109888
 20
22.5655039265
 10
281.9762785495
 20
22.050112268
 10
281.6470467137
 20
21.577013711
 10
281.2701645317
 20
21.1717131572
 10
280.8659497687
 20
20.856060423
 10
280.4561937446
 20
20.6470722904
 10
280.062986553
 20
20.5560157248
 10
279.9800315946
 20
20.5524190572
  0
LWPOLYLINE
  5
283
330
1F
100
AcDbEntity
  8
0
  6
Continuous
 62
     7
370
    25
100
AcDbPolyline
 90
       38
 70
   128
 43
0.0
 10
234.810061833
 20
36.514559465
 10
234.8589587627
 20
37.7461093199
 10
235.0052201809
 20
39.0232916907
 10
235.2475606085
 20
40.3348824559
 10
235.5838503128
 20
41.6693556694
 10
236.0111344045
 20
43.0149835596
 10
236.5256572042
 20
44.3599405204
 10
237.1228971454
 20
45.6924074818
 10
237.7976062868
 20
47.0006749483
 10
238.5438544353
 20
48.2732448972
 10
239.3550844631
 20
49.4989341962
 10
240.2241663088
 20
50.6669719379
 10
241.1434631611
 20
51.76709316
 10
242.1048956666
 20
52.7896299054
 10
243.1000150287
 20
53.7255960065
 10
244.1200764347
 20
54.5667659765
 10
245.1561148713
 20
55.3057476742
 10
246.1990259607
 20
55.9360479808
 10
247.239644492
 20
56.452126501
 10
248.2688255047
 20
56.8494476941
 10
249.2775243838
 20
57.1245210286
 10
250.2568772024
 20
57.2749291117
 10
251.1982764548
 20
57.2993485951
 10
252.0934498339
 20
57.1975667551
 10
252.9345303672
 20
56.9704763527
 10
253.7141258924
 20
56.6200746771
 10
254.4253862297
 20
56.1494399641
 10
255.0620604746
 20
55.5627081977
 10
255.6185536329
 20
54.8650366017
 10
256.0899753531
 20
54.0625557262
 10
256.4721820732
 20
53.1623173523
 10
256.7618152162
 20
52.1722330807
 10
256.956330166
 20
51.1010041765
 10
257.0540173413
 20
49.9580448077
 10
257.0540173413
 20
48.7533984886
 10
256.956330166
 20
47.4976519081
 10
256.7618152162
 20
46.201840823
 10
256.7146054775
 20
45.9549124957
  0
LWPOLYLINE
  5
284
330
1F
100
AcDbEntity
  8
0
  6
Continuous
 62
     7
370
    25
100
AcDbPolyline
 90
       21
 70
   128
 43
0.0
 10
248.7152557901
 20
32.0981305362
 10
248.2688255047
 20
31.7188290111
 10
247.239644492
 20
30.9278830999
 10
246.1990259607
 20
30.2424890379
 10
245.1561148713
 20
29.6686698311
 10
244.1200764347
 20
29.2114670113
 10
243.1000150287
 20
28.8748991509
 10
242.1048956666
 20
28.6619248925
 10
241.1434631611
 20
28.574415295
 10
240.2241663088
 20
28.6131389639
 10
239.3550844631
 20
28.7777561649
 10
238.5438544353
 20
29.0668192105
 10
237.7976062868
 20
29.4777893868
 10
237.1228971454
 20
30.0070542601
 10
236.5256572042
 20
30.649962663
 10
236.0111344045
 20
31.4008642442
 10
235.5838503128
 20
32.253160423
 10
235.2475606085
 20
33.1993618085
 10
235.0052201809
 20
34.2311522716
 10
234.8589587627
 20
35.3394648035
 10
234.810061833
 20
36.514559465
  0
SPLINE
  5
285
330
1F
100
AcDbEntity
  8
0
  6
Continuous
 62
     7
370
    25
100
AcDbSpline
210
0.0
220
0.0
230
1.0
 70
     8
 71
     3
 72
    25
 73
    21
 74
     0
 42
0.000000001
 43
0.00000001
 40
0.0
 40
0.0
 40
0.0
 40
0.0
 40
0.1249999999999998
 40
0.1249999999999998
 40
0.2499999999999997
 40
0.2499999999999997
 40
0.3749999999999995
 40
0.3749999999999995
 40
0.4999999999999993
 40
0.4999999999999993
 40
0.5624999999999996
 40
0.5624999999999996
 40
0.6249999999999998
 40
0.6875000000000001
 40
0.6875000000000001
 40
0.7500000000000003
 40
0.7500000000000003
 40
0.8750000000000001
 40
0.8750000000000001
 40
1.0
 40
1.0
 40
1.0
 40
1.0
 10
239.6436509815297
 20
52.94637391950123
 30
0.0
 10
239.6727742797908
 20
52.83518839897204
 30
0.0
 10
239.68516332065
 20
52.71994618654401
 30
0.0
 10
239.6781858355497
 20
52.4808506187082
 30
0.0
 10
239.6581682476977
 20
52.35607664883295
 30
0.0
 10
239.5879460899845
 20
52.10970773962053
 30
0.0
 10
239.5372954353908
 20
51.9854965922594
 30
0.0
 10
239.4073806917356
 20
51.74186809694924
 30
0.0
 10
239.3296797437464
 20
51.62481100189108
 30
0.0
 10
239.1943061615202
 20
51.45615448404104
 30
0.0
 10
239.1456716642131
 20
51.40078746276888
 30
0.0
 10
239.0442323288311
 20
51.29506765137186
 30
0.0
 10
238.9383623460904
 20
51.19390669275142
 30
0.0
 10
238.8237705537629
 20
51.10173237107461
 30
0.0
 10
238.7046878845447
 20
51.0141955283345
 30
0.0
 10
238.6427298714872
 20
50.97269705882231
 30
0.0
 10
238.4548661679667
 20
50.85857673708421
 30
0.0
 10
238.3254887316127
 20
50.79496930596962
 30
0.0
 10
238.0578054785506
 20
50.69370100499539
 30
0.0
 10
237.9219337920856
 20
50.65716009677058
 30
0.0
 10
237.7864165253579
 20
50.63599191242052
 30
0.0
  0
LWPOLYLINE
  5
286
330
1F
100
AcDbEntity
  8
0
  6
Continuous
 62
     7
370
    25
100
AcDbPolyline
 90
       14
 70
   128
 43
0.0
 10
239.6436510932
 20
52.946373952
 10
240.6456374281
 20
53.9851013296
 10
241.6815002803
 20
54.9292321198
 10
242.7415126181
 20
55.7699008083
 10
243.815720171
 20
56.4992126093
 10
244.8940357656
 20
57.1103176968
 10
245.9663336217
 20
57.5974800888
 10
247.0225441821
 20
57.9561232665
 10
248.0527491491
 20
58.1828797139
 10
249.0472748332
 20
58.2756204722
 10
249.9967817563
 20
58.2334749274
 10
250.8923535548
 20
58.0568372655
 10
251.7255802863
 20
57.7473681761
 10
252.1213003397
 20
57.5408246847
  0
LWPOLYLINE
  5
287
330
1F
100
AcDbEntity
  8
0
  6
Continuous
 62
     7
370
    25
100
AcDbPolyline
 90
       20
 70
   128
 43
0.0
 10
236.3850790251
 20
30.2819362909
 10
236.3437039908
 20
30.306074984
 10
235.6286748033
 20
30.8119989508
 10
234.9933354281
 20
31.4389602196
 10
234.443554814
 20
32.1811635125
 10
233.9844136318
 20
33.0317520193
 10
233.6201542251
 20
33.9828663382
 10
233.3541417566
 20
35.0257182442
 10
233.1888345727
 20
36.1506720616
 10
233.1257604969
 20
37.3473336522
 10
233.1655010237
 20
38.60464532
 10
233.3076900026
 20
39.910990399
 10
233.5510136373
 20
41.2542984582
 10
233.8932229981
 20
42.6221573382
 10
234.3311570715
 20
44.0019286327
 10
234.860768443
 20
45.3808631807
 10
235.4771641269
 20
46.7462198856
 10
236.1746490302
 20
48.0853832024
 10
236.9467779778
 20
49.3859798641
 10
237.7864162986
 20
50.635991424
  0
LWPOLYLINE
  5
288
330
1F
100
AcDbEntity
  8
0
  6
Continuous
 62
     7
370
    25
100
AcDbPolyline
 90
       12
 70
   128
 43
0.0
 10
237.9810297008
 20
53.0706504326
 10
238.8966087401
 20
54.0451323171
 10
239.8453214585
 20
54.9341074968
 10
240.8182244922
 20
55.7291970802
 10
241.8061465802
 20
56.4229058313
 10
242.7997747505
 20
57.008694738
 10
243.7897424423
 20
57.4810402492
 10
244.7667172567
 20
57.8354910154
 10
245.721489737
 20
58.0687054525
 10
246.6450595554
 20
58.1784847661
 10
247.5287202594
 20
58.163794498
 10
247.781580277
 20
58.1355370656
  0
SPLINE
  5
289
330
1F
100
AcDbEntity
  8
0
  6
Continuous
 62
     7
370
    25
100
AcDbSpline
210
0.0
220
0.0
230
1.0
 70
     8
 71
     3
 72
    26
 73
    22
 74
     0
 42
0.000000001
 43
0.00000001
 40
0.0
 40
0.0
 40
0.0
 40
0.0
 40
0.1250000000000011
 40
0.1250000000000011
 40
0.2500000000000023
 40
0.2500000000000023
 40
0.3125000000000019
 40
0.3125000000000019
 40
0.3750000000000016
 40
0.3750000000000016
 40
0.4375000000000013
 40
0.4375000000000013
 40
0.500000000000001
 40
0.500000000000001
 40
0.5625000000000007
 40
0.5625000000000007
 40
0.6250000000000003
 40
0.6250000000000003
 40
0.7500000000000002
 40
0.7500000000000002
 40
1.0
 40
1.0
 40
1.0
 40
1.0
 10
236.6368364959022
 20
51.39848714637605
 30
0.0
 10
236.6131988996702
 20
51.50806300594904
 30
0.0
 10
236.5956311207884
 20
51.61895226431356
 30
0.0
 10
236.5768185379189
 20
51.84428222417652
 30
0.0
 10
236.5756387631515
 20
51.95995913749488
 30
0.0
 10
236.5917367663869
 20
52.13131464735444
 30
0.0
 10
236.6000554834872
 20
52.1881131594486
 30
0.0
 10
236.6238126327441
 20
52.3009393718457
 30
0.0
 10
236.6394350117931
 20
52.35739222551184
 30
0.0
 10
236.6782922241902
 20
52.46597534192045
 30
0.0
 10
236.7015181808926
 20
52.51835530214598
 30
0.0
 10
236.756516830371
 20
52.6188120774181
 30
0.0
 10
236.7885950973937
 20
52.66709094518954
 30
0.0
 10
236.8590098459287
 20
52.75478792077328
 30
0.0
 10
236.8975882680554
 20
52.79477704874924
 30
0.0
 10
236.9812965316516
 20
52.86725573286483
 30
0.0
 10
237.0264252415934
 20
52.89959235724145
 30
0.0
 10
237.1657058837835
 20
52.9827921245951
 30
0.0
 10
237.2664949553452
 20
53.02162084723118
 30
0.0
 10
237.5695672265779
 20
53.09703713468636
 30
0.0
 10
237.7780913170629
 20
53.0969069883156
 30
0.0
 10
237.9810297367533
 20
53.07065075898938
 30
0.0
  0
LWPOLYLINE
  5
28A
330
1F
100
AcDbEntity
  8
0
  6
Continuous
 62
     7
370
    25
100
AcDbPolyline
 90
       17
 70
   128
 43
0.0
 10
233.6998578669
 20
33.7426358563
 10
233.6394337742
 20
33.8223676951
 10
233.1532758035
 20
34.5922941567
 10
232.7611665496
 20
35.4676879964
 10
232.4670888898
 20
36.4396573183
 10
232.2740306404
 20
37.4983279918
 10
232.1839522884
 20
38.6329454619
 10
232.1977692107
 20
39.8319839719
 10
232.3153411374
 20
41.083263296
 10
232.5354734686
 20
42.3740721238
 10
232.8559304458
 20
43.6912981937
 10
233.2734562249
 20
45.0215607062
 10
233.7838097794
 20
46.3513456829
 10
234.3818063882
 20
47.6671451279
 10
235.0613716369
 20
48.9555921943
 10
235.8156026619
 20
50.2035992032
 10
236.6368366393
 20
51.3984869153
  0
LINE
  5
28B
330
1F
100
AcDbEntity
  8
0
  6
Continuous
 62
     7
370
    25
100
AcDbLine
 10
235.1614442249
 20
31.1545659713
 30
0.0
 11
235.2830795358
 21
31.2120505778
 31
0.0
  0
LWPOLYLINE
  5
28C
330
1F
100
AcDbEntity
  8
0
  6
Continuous
 62
     7
370
    25
100
AcDbPolyline
 90
       38
 70
   128
 43
0.0
 10
235.1614442249
 20
31.1545659713
 10
234.3577663856
 20
31.4676558937
 10
233.6209657166
 20
31.9032253977
 10
232.9575795894
 20
32.4574103379
 10
232.3734934162
 20
33.1252933893
 10
231.8738906009
 20
33.9009496794
 10
231.4632024894
 20
34.7774969835
 10
231.1450741255
 20
35.7471588462
 10
230.9223267141
 20
36.8013311257
 10
230.796936547
 20
37.9306611787
 10
230.7700178817
 20
39.1251301348
 10
230.8418071356
 20
40.3741389726
 10
231.0116694718
 20
41.6666072847
 10
231.2780968234
 20
42.9910675748
 10
231.6387256742
 20
44.3357682512
 10
232.0903554977
 20
45.6887790923
 10
232.6289803679
 20
47.0380958068
 10
233.2498212272
 20
48.3717468757
 10
233.9473700093
 20
49.6779003936
 10
234.7154370544
 20
50.9449663462
 10
235.5472077439
 20
52.1617042103
 10
236.4353037452
 20
53.3173176262
 10
237.3718442562
 20
54.4015543925
 10
238.34852075
 20
55.404795243
 10
239.3566676041
 20
56.3181379666
 10
240.3873401377
 20
57.1334797201
 10
241.4313940488
 20
57.84358646
 10
242.479566168
 20
58.4421585729
 10
243.5225567767
 20
58.9238837199
 10
244.5511120897
 20
59.2844897758
 10
245.5561066559
 20
59.5207756679
 10
246.5286234534
 20
59.6306462069
 10
247.4600342319
 20
59.6131265288
 10
248.342075575
 20
59.4683710223
 10
249.1669210105
 20
59.197665414
 10
249.9272534503
 20
58.8034100311
 10
250.6163254475
 20
58.2891043966
 10
250.8537044009
 20
58.0675554801
  0
LWPOLYLINE
  5
28D
330
1F
100
AcDbEntity
  8
0
  6
Continuous
 62
     7
370
    25
100
AcDbPolyline
 90
       16
 70
   128
 43
0.0
 10
228.9449973917
 20
43.9250962362
 10
228.9543105281
 20
43.9678983964
 10
229.2906002324
 20
45.3023716099
 10
229.7178843241
 20
46.6479995
 10
230.2324071238
 20
47.9929564609
 10
230.829647065
 20
49.3254234223
 10
231.5043562064
 20
50.6336908888
 10
232.2506043549
 20
51.9062608377
 10
233.0618343827
 20
53.1319501367
 10
233.9309162284
 20
54.2999878784
 10
234.8502130807
 20
55.4001091005
 10
235.8116455863
 20
56.4226458459
 10
236.8067649483
 20
57.358611947
 10
237.8268263543
 20
58.199781917
 10
238.8628647909
 20
58.9387636146
 10
239.5867214691
 20
59.3882328925
  0
LWPOLYLINE
  5
28E
330
1F
100
AcDbEntity
  8
0
  6
Continuous
 62
     7
370
    25
100
AcDbPolyline
 90
       24
 70
   128
 43
0.0
 10
228.5168116343
 20
40.2292161463
 10
228.5653983895
 20
41.4529407721
 10
228.7107299428
 20
42.722007285
 10
228.9515306934
 20
44.0252639016
 10
229.2856834208
 20
45.3512573939
 10
229.7102523334
 20
46.6883348941
 10
230.2215054597
 20
48.0247460798
 10
230.8149508674
 20
49.3487464034
 10
231.4853722256
 20
50.6486997512
 10
232.2268788536
 20
51.9131833826
 10
233.032953795
 20
53.1310852649
 10
233.896513745
 20
54.2917010267
 10
234.8099689782
 20
55.3848316714
 10
235.7652924956
 20
56.4008706445
 10
236.7540888426
 20
57.3308899488
 10
237.767668195
 20
58.1667148532
 10
238.7971234091
 20
58.9010010725
 10
239.8334075651
 20
59.5272962627
 10
240.8674138157
 20
60.0400952418
 10
241.8900550698
 20
60.4348920741
 10
242.8923446644
 20
60.7082175156
 10
243.8654739082
 20
60.8576685698
 10
244.8008916008
 20
60.8819338603
 10
245.5661423803
 20
60.8029486301
  0
LWPOLYLINE
  5
28F
330
1F
100
AcDbEntity
  8
0
  6
Continuous
 62
     7
370
    25
100
AcDbPolyline
 90
        3
 70
   128
 43
0.0
 10
228.6692034432
 20
38.2046119859
 10
228.5653983895
 20
39.0615885941
 10
228.5359785722
 20
39.4887917926
  0
SPLINE
  5
290
330
1F
100
AcDbEntity
  8
0
  6
Continuous
 62
     7
370
    25
100
AcDbSpline
210
0.0
220
0.0
230
1.0
 70
     8
 71
     3
 72
    10
 73
     6
 74
     0
 42
0.000000001
 43
0.00000001
 40
0.0
 40
0.0
 40
0.0
 40
0.0
 40
0.5
 40
0.5
 40
1.0
 40
1.0
 40
1.0
 40
1.0
 10
237.3635245635335
 20
49.93543386555632
 30
0.0
 10
237.2595600727492
 20
50.0087722386267
 30
0.0
 10
237.1697517963218
 20
50.09600799642011
 30
0.0
 10
237.0177093683232
 20
50.29693853761611
 30
0.0
 10
236.9558037799622
 20
50.41110930381308
 30
0.0
 10
236.9113540753717
 20
50.53412698697317
 30
0.0
  0
SPLINE
  5
291
330
1F
100
AcDbEntity
  8
0
  6
Continuous
 62
     7
370
    25
100
AcDbSpline
210
0.0
220
0.0
230
1.0
 70
     8
 71
     3
 72
    14
 73
    10
 74
     0
 42
0.000000001
 43
0.00000001
 40
0.0
 40
0.0
 40
0.0
 40
0.0
 40
0.25
 40
0.25
 40
0.5
 40
0.5
 40
0.75
 40
0.75
 40
1.0
 40
1.0
 40
1.0
 40
1.0
 10
236.9113540753717
 20
50.53412698697317
 30
0.0
 10
236.8886332725066
 20
50.59700840663071
 30
0.0
 10
236.8667187621572
 20
50.66605483610413
 30
0.0
 10
236.8246077080944
 20
50.81370735272291
 30
0.0
 10
236.8050861541813
 20
50.89010713958121
 30
0.0
 10
236.7667399120076
 20
51.04443943097681
 30
0.0
 10
236.7483803191238
 20
51.12139202730846
 30
0.0
 10
236.7063768745421
 20
51.26678219482444
 30
0.0
 10
236.6826005535291
 20
51.33337310101746
 30
0.0
 10
236.6541390494269
 20
51.37386871624881
 30
0.0
  0
LINE
  5
292
330
1F
100
AcDbEntity
  8
0
  6
Continuous
 62
     7
370
    25
100
AcDbLine
 10
236.6541392377
 20
51.373869108
 30
0.0
 11
236.6368366393
 21
51.3984869153
 31
0.0
  0
LINE
  5
293
330
1F
100
AcDbEntity
  8
0
  6
Continuous
 62
     7
370
    25
100
AcDbLine
 10
237.9810297008
 20
53.0706504326
 30
0.0
 11
237.9983322992
 21
53.0460326253
 31
0.0
  0
SPLINE
  5
294
330
1F
100
AcDbEntity
  8
0
  6
Continuous
 62
     7
370
    25
100
AcDbSpline
210
0.0
220
0.0
230
1.0
 70
     8
 71
     3
 72
    16
 73
    12
 74
     0
 42
0.000000001
 43
0.00000001
 40
0.0
 40
0.0
 40
0.0
 40
0.0
 40
0.1250000000000001
 40
0.1250000000000001
 40
0.2500000000000003
 40
0.2500000000000003
 40
0.5000000000000002
 40
0.5000000000000002
 40
0.7500000000000001
 40
0.7500000000000001
 40
1.0
 40
1.0
 40
1.0
 40
1.0
 10
237.9983322902781
 20
53.0460323288621
 30
0.0
 10
238.0124846966822
 20
53.0258959930493
 30
0.0
 10
238.0341431011559
 20
53.00909857237188
 30
0.0
 10
238.0865610301911
 20
52.98225305104039
 30
0.0
 10
238.1171539093295
 20
52.97202756647941
 30
0.0
 10
238.216234758187
 20
52.94752712604672
 30
0.0
 10
238.2901172958029
 20
52.93926720364522
 30
0.0
 10
238.4432168881943
 20
52.9280812369403
 30
0.0
 10
238.5213008628419
 20
52.92548456518912
 30
0.0
 10
238.680644496584
 20
52.92345556435541
 30
0.0
 10
238.7592973914155
 20
52.92409315301763
 30
0.0
 10
238.8350498592082
 20
52.92718625383267
 30
0.0
  0
SPLINE
  5
295
330
1F
100
AcDbEntity
  8
0
  6
Continuous
 62
     7
370
    25
100
AcDbSpline
210
0.0
220
0.0
230
1.0
 70
     8
 71
     3
 72
    10
 73
     6
 74
     0
 42
0.000000001
 43
0.00000001
 40
0.0
 40
0.0
 40
0.0
 40
0.0
 40
0.5
 40
0.5
 40
1.0
 40
1.0
 40
1.0
 40
1.0
 10
238.8350498592082
 20
52.92718625383267
 30
0.0
 10
238.9832441991089
 20
52.93323727826643
 30
0.0
 10
239.1254686648395
 20
52.92307504805331
 30
0.0
 10
239.3978600551803
 20
52.87202461211322
 30
0.0
 10
239.5279873850488
 20
52.83066350946868
 30
0.0
 10
239.6460627272342
 20
52.77488964151639
 30
0.0
  0
ARC
  5
296
330
1F
100
AcDbEntity
  8
0
  6
Continuous
 62
     7
370
    25
100
AcDbCircle
 10
222.3161026776
 20
48.0388199471
 30
0.0
 40
4.14325203190725
100
AcDbArc
 50
211.7444095219
 51
236.2139194594
  0
SPLINE
  5
297
330
1F
100
AcDbEntity
  8
0
  6
Continuous
 62
     7
370
    25
100
AcDbSpline
210
0.0
220
0.0
230
1.0
 70
     8
 71
     3
 72
     8
 73
     4
 74
     0
 42
0.000000001
 43
0.00000001
 40
0.0
 40
0.0
 40
0.0
 40
0.0
 40
1.0
 40
1.0
 40
1.0
 40
1.0
 10
220.2231090580974
 20
44.93418522227773
 30
0.0
 10
219.7463357662732
 20
45.24227803021036
 30
0.0
 10
219.2695333894283
 20
45.55050747578313
 30
0.0
 10
218.7927009449027
 20
45.85887263200303
 30
0.0
  0
SPLINE
  5
298
330
1F
100
AcDbEntity
  8
0
  6
Continuous
 62
     7
370
    25
100
AcDbSpline
210
0.0
220
0.0
230
1.0
 70
     8
 71
     3
 72
    23
 73
    19
 74
     0
 42
0.000000001
 43
0.00000001
 40
0.0
 40
0.0
 40
0.0
 40
0.0
 40
0.0521036415683759
 40
0.1035646240941235
 40
0.1544751946756683
 40
0.2049306267495642
 40
0.2550287880866983
 40
0.3048696389163111
 40
0.354554670462894
 40
0.4041862979539558
 40
0.453867225213789
 40
0.5036997999428097
 40
0.590187023078111
 40
0.6742716378282376
 40
0.7565997087281883
 40
0.8378563983773627
 40
0.9187511781400207
 40
0.9999999999999999
 40
0.9999999999999999
 40
0.9999999999999999
 40
0.9999999999999999
 10
221.103673861639
 20
44.75945452415763
 30
0.0
 10
221.0984049226992
 20
44.74953306192224
 30
0.0
 10
221.0879320331995
 20
44.72981251119023
 30
0.0
 10
221.0686857374375
 20
44.70524468223676
 30
0.0
 10
221.0468899971054
 20
44.68455609997665
 30
0.0
 10
221.0222387059008
 20
44.66802516467918
 30
0.0
 10
220.994742191362
 20
44.65550766510286
 30
0.0
 10
220.9643311373545
 20
44.64697304128067
 30
0.0
 10
220.9309607655817
 20
44.64236316863315
 30
0.0
 10
220.8945848773093
 20
44.64162842549754
 30
0.0
 10
220.8551565057195
 20
44.64472350805001
 30
0.0
 10
220.8023081141671
 20
44.65325928353137
 30
0.0
 10
220.7337691203937
 20
44.67085572238096
 30
0.0
 10
220.6460478884366
 20
44.70249233046857
 30
0.0
 10
220.5513169689418
 20
44.74467198780181
 30
0.0
 10
220.4492827216129
 20
44.79740842352809
 30
0.0
 10
220.3403688084268
 20
44.85972497943694
 30
0.0
 10
220.2622524974433
 20
44.90932903768637
 30
0.0
 10
220.2231090580974
 20
44.93418522227772
 30
0.0
  0
SPLINE
  5
299
330
1F
100
AcDbEntity
  8
0
  6
Continuous
 62
     7
370
    25
100
AcDbSpline
210
0.0
220
0.0
230
1.0
 70
     8
 71
     3
 72
     8
 73
     4
 74
     0
 42
0.000000001
 43
0.00000001
 40
0.0
 40
0.0
 40
0.0
 40
0.0
 40
1.0
 40
1.0
 40
1.0
 40
1.0
 10
222.5771768880968
 20
43.81213438759885
 30
0.0
 10
222.0858095760541
 20
44.12800900756719
 30
0.0
 10
221.5944233761265
 20
44.44399502885753
 30
0.0
 10
221.1030176659812
 20
44.76009190970107
 30
0.0
  0
SPLINE
  5
29A
330
1F
100
AcDbEntity
  8
0
  6
Continuous
 62
     7
370
    25
100
AcDbSpline
210
0.0
220
0.0
230
1.0
 70
     8
 71
     3
 72
    18
 73
    14
 74
     0
 42
0.000000001
 43
0.00000001
 40
0.0
 40
0.0
 40
0.0
 40
0.0
 40
0.0923824559461122
 40
0.1844689291660427
 40
0.2764953616062392
 40
0.3686975365619641
 40
0.4613092840130473
 40
0.5545607518559533
 40
0.6486768051632873
 40
0.7438756050210469
 40
0.8403674044324065
 40
0.9203921078135461
 40
1.0
 40
1.0
 40
1.0
 40
1.0
 10
223.3907410072925
 20
43.16782666305708
 30
0.0
 10
223.3671734931681
 20
43.1831006373234
 30
0.0
 10
223.3201139725147
 20
43.21359964980538
 30
0.0
 10
223.2477161845491
 20
43.26323222241801
 30
0.0
 10
223.1742339756517
 20
43.3155617650877
 30
0.0
 10
223.0995345279059
 20
43.37087945079613
 30
0.0
 10
223.0236737381377
 20
43.4291177659097
 30
0.0
 10
222.9466624573519
 20
43.4903106775467
 30
0.0
 10
222.8685303252727
 20
43.55447439412708
 30
0.0
 10
222.7893040906316
 20
43.62162335399244
 30
0.0
 10
222.714007606224
 20
43.68747426373741
 30
0.0
 10
222.6431802981039
 20
43.75100585054479
 30
0.0
 10
222.5992759272976
 20
43.79166659555786
 30
0.0
 10
222.5773810604927
 20
43.8119438841261
 30
0.0
  0
LINE
  5
29B
330
1F
100
AcDbEntity
  8
0
  6
Continuous
 62
     7
370
    25
100
AcDbLine
 10
224.0304475391
 20
42.7560728566
 30
0.0
 11
223.3907406968
 21
43.1678265242
 31
0.0
  0
SPLINE
  5
29C
330
1F
100
AcDbEntity
  8
0
  6
Continuous
 62
     7
370
    25
100
AcDbSpline
210
0.0
220
0.0
230
1.0
 70
     8
 71
     3
 72
    25
 73
    21
 74
     0
 42
0.000000001
 43
0.00000001
 40
0.0
 40
0.0
 40
0.0
 40
0.0
 40
0.0280105225426455
 40
0.0559601148860774
 40
0.0839014045043129
 40
0.1118870776786379
 40
0.1399695827588941
 40
0.1682008401739877
 40
0.1966319670424218
 40
0.2253130233141493
 40
0.2542927850735863
 40
0.3799486436570518
 40
0.505785022166658
 40
0.6313085886329272
 40
0.7532068238012843
 40
0.8039473267959846
 40
0.8535894438560211
 40
0.902533972239985
 40
0.9511970353794947
 40
1.0
 40
1.0
 40
1.0
 40
1.0
 10
225.1328131322827
 20
43.47197884693416
 30
0.0
 10
225.1377612398133
 20
43.44435498582667
 30
0.0
 10
225.1476466914488
 20
43.38916735272135
 30
0.0
 10
225.159182341052
 20
43.31000664535144
 30
0.0
 10
225.1682554628648
 20
43.23370330625306
 30
0.0
 10
225.1746242715777
 20
43.16050754528344
 30
0.0
 10
225.1783405103878
 20
43.09036007707005
 30
0.0
 10
225.1793771313707
 20
43.02328379055727
 30
0.0
 10
225.1777286561438
 20
42.95927988133083
 30
0.0
 10
225.1733825042749
 20
42.89835102806401
 30
0.0
 10
225.1585261797075
 20
42.77646290656788
 30
0.0
 10
225.1134379226412
 20
42.62156203491384
 30
0.0
 10
225.0000784021505
 20
42.49061891657034
 30
0.0
 10
224.8382541801575
 20
42.43474251575754
 30
0.0
 10
224.664238961024
 20
42.45461656814209
 30
0.0
 10
224.5128780403364
 20
42.50193437049855
 30
0.0
 10
224.4024778076376
 20
42.54684979423422
 30
0.0
 10
224.2853183121889
 20
42.60422552552536
 30
0.0
 10
224.1617526452555
 20
42.6729025899778
 30
0.0
 10
224.074257595161
 20
42.72832283593063
 30
0.0
 10
224.0304472754797
 20
42.7560727336607
 30
0.0
  0
ARC
  5
29D
330
1F
100
AcDbEntity
  8
0
  6
Continuous
 62
     7
370
    25
100
AcDbCircle
 10
236.3258342967
 20
45.2580292155
 30
0.0
 40
11.33462419218399
100
AcDbArc
 50
170.9338462887
 51
189.0661537113
  0
SPLINE
  5
29E
330
1F
100
AcDbEntity
  8
0
  6
Continuous
 62
     7
370
    25
100
AcDbSpline
210
0.0
220
0.0
230
1.0
 70
     8
 71
     3
 72
    26
 73
    22
 74
     0
 42
0.000000001
 43
0.00000001
 40
0.0
 40
0.0
 40
0.0
 40
0.0
 40
0.0241259796963637
 40
0.048215991227299
 40
0.0723203915124064
 40
0.0964895678710793
 40
0.120773623196351
 40
0.1452220711242841
 40
0.1698835501657706
 40
0.1948055644472381
 40
0.2200342569517629
 40
0.2456142191611394
 40
0.3690971486901671
 40
0.4940698769485191
 40
0.6192566784762444
 40
0.7454656653603234
 40
0.7971495824713715
 40
0.8481710308405401
 40
0.8988013269235245
 40
0.9493179290492194
 40
1.0
 40
1.0
 40
1.0
 40
1.0
 10
224.0304472754797
 20
50.52018312502527
 30
0.0
 10
224.0521655048558
 20
50.50585160163019
 30
0.0
 10
224.0955695850319
 20
50.47720992096114
 30
0.0
 10
224.1588767023933
 20
50.42921762303233
 30
0.0
 10
224.2207382701112
 20
50.37761842514665
 30
0.0
 10
224.2810427852477
 20
50.32204363227342
 30
0.0
 10
224.3398326371876
 20
50.26258839164627
 30
0.0
 10
224.3971131556174
 20
50.19922408280885
 30
0.0
 10
224.4529042949436
 20
50.13195530484494
 30
0.0
 10
224.5072255423654
 20
50.06078119088481
 30
0.0
 10
224.5601045175744
 20
49.98569205113653
 30
0.0
 10
224.6768993423107
 20
49.80643760243468
 30
0.0
 10
224.8387689002372
 20
49.4961321305913
 30
0.0
 10
225.001953807769
 20
49.02621834245961
 30
0.0
 10
225.1134652129425
 20
48.52725530854956
 30
0.0
 10
225.1605990510509
 20
48.11837163549257
 30
0.0
 10
225.1757179905835
 20
47.81409967890185
 30
0.0
 10
225.177671129566
 20
47.61285043720654
 30
0.0
 10
225.1711931039269
 20
47.41719051748395
 30
0.0
 10
225.1570661812398
 20
47.22655422958648
 30
0.0
 10
225.1409062895548
 20
47.10497095584768
 30
0.0
 10
225.1328131322827
 20
47.04407991924879
 30
0.0
  0
LINE
  5
29F
330
1F
100
AcDbEntity
  8
0
  6
Continuous
 62
     7
370
    25
100
AcDbLine
 10
223.3907406968
 20
50.9331579753
 30
0.0
 11
224.0304475391
 21
50.5201830043
 31
0.0
  0
SPLINE
  5
2A0
330
1F
100
AcDbEntity
  8
0
  6
Continuous
 62
     7
370
    25
100
AcDbSpline
210
0.0
220
0.0
230
1.0
 70
     8
 71
     3
 72
    14
 73
    10
 74
     0
 42
0.000000001
 43
0.00000001
 40
0.0
 40
0.0
 40
0.0
 40
0.0
 40
0.0789261963152472
 40
0.1582328720511064
 40
0.3308475394503796
 40
0.5000195457530386
 40
0.6670357883499396
 40
0.8332395193610692
 40
1.0
 40
1.0
 40
1.0
 40
1.0
 10
222.5767882914425
 20
51.14174040830824
 30
0.0
 10
222.5985051727777
 20
51.14334357216699
 30
0.0
 10
222.6420436259922
 20
51.14655762825458
 30
0.0
 10
222.7335687446391
 20
51.14737866832408
 30
0.0
 10
222.8504770780704
 20
51.13944268654259
 30
0.0
 10
222.9912974164511
 20
51.11316701766575
 30
0.0
 10
223.1285097242637
 20
51.07020941913339
 30
0.0
 10
223.2624403986821
 20
51.01185229432254
 30
0.0
 10
223.3479264906431
 20
50.95941874817135
 30
0.0
 10
223.3907410072925
 20
50.93315813801616
 30
0.0
  0
SPLINE
  5
2A1
330
1F
100
AcDbEntity
  8
0
  6
Continuous
 62
     7
370
    25
100
AcDbSpline
210
0.0
220
0.0
230
1.0
 70
     8
 71
     3
 72
     8
 73
     4
 74
     0
 42
0.000000001
 43
0.00000001
 40
0.0
 40
0.0
 40
0.0
 40
0.0
 40
1.0
 40
1.0
 40
1.0
 40
1.0
 10
220.7744847084367
 20
52.30413181972257
 30
0.0
 10
221.3752429321337
 20
51.91686433656316
 30
0.0
 10
221.9759717949948
 20
51.52939698663935
 30
0.0
 10
222.5766724393425
 20
51.14173009404922
 30
0.0
  0
SPLINE
  5
2A2
330
1F
100
AcDbEntity
  8
0
  6
Continuous
 62
     7
370
    25
100
AcDbSpline
210
0.0
220
0.0
230
1.0
 70
     8
 71
     3
 72
    13
 73
     9
 74
     0
 42
0.000000001
 43
0.00000001
 40
0.0
 40
0.0
 40
0.0
 40
0.0
 40
0.1667030582307959
 40
0.3329480818053031
 40
0.4990671507274871
 40
0.6653938523718408
 40
0.8322612710550125
 40
1.0
 40
1.0
 40
1.0
 40
1.0
 10
220.4326561734024
 20
52.60519659880836
 30
0.0
 10
220.4529573558423
 20
52.59163149212912
 30
0.0
 10
220.493503941031
 20
52.56453855036628
 30
0.0
 10
220.5526535780186
 20
52.51934397735857
 30
0.0
 10
220.6104251229211
 20
52.4709328288756
 30
0.0
 10
220.6666748603807
 20
52.41889771410515
 30
0.0
 10
220.7216020691269
 20
52.36359974689613
 30
0.0
 10
220.7568227787174
 20
52.32398249173576
 30
0.0
 10
220.7744789906583
 20
52.30412228273484
 30
0.0
  0
SPLINE
  5
2A3
330
1F
100
AcDbEntity
  8
0
  6
Continuous
 62
     7
370
    25
100
AcDbSpline
210
0.0
220
0.0
230
1.0
 70
     8
 71
     3
 72
     8
 73
     4
 74
     0
 42
0.000000001
 43
0.00000001
 40
0.0
 40
0.0
 40
0.0
 40
0.0
 40
1.0
 40
1.0
 40
1.0
 40
1.0
 10
218.4886756576117
 20
53.85991845118782
 30
0.0
 10
219.1367057300119
 20
53.44192313530306
 30
0.0
 10
219.7846987071138
 20
53.02368237288543
 30
0.0
 10
220.4326561734024
 20
52.60519659880835
 30
0.0
  0
LWPOLYLINE
  5
2A4
330
1F
100
AcDbEntity
  8
0
  6
Continuous
 62
     7
370
    25
100
AcDbPolyline
 90
       19
 70
   128
 43
0.0
 10
218.4886763079
 20
53.8599185017
 10
218.8915685695
 20
55.0268824871
 10
219.3815237078
 20
56.1868869119
 10
219.9525239431
 20
57.3256843079
 10
220.5975551178
 20
58.4292869987
 10
221.3086956
 20
59.4841416172
 10
222.0772107846
 20
60.4772912658
 10
222.8936617533
 20
61.3965378646
 10
223.7480206841
 20
62.2305920472
 10
224.6297939996
 20
62.9692081312
 10
225.5281516472
 20
63.6033157847
 10
226.4320597961
 20
64.1251255287
 10
227.3304164559
 20
64.5282290809
 10
228.212187878
 20
64.8076758177
 10
229.0665438454
 20
64.9600326237
 10
229.882991192
 20
64.9834290319
 10
230.6515017669
 20
64.8775771023
 10
231.3626369807
 20
64.6437771616
 10
231.5384140344
 20
64.5616654669
  0
SPLINE
  5
2A5
330
1F
100
AcDbEntity
  8
0
  6
Continuous
 62
     7
370
    25
100
AcDbSpline
210
0.0
220
0.0
230
1.0
 70
    11
 71
     3
 72
    39
 73
    35
 74
     0
 42
0.000000001
 43
0.00000001
 40
0.0
 40
0.0
 40
0.0
 40
0.0
 40
0.0310664058350965
 40
0.0621048158425859
 40
0.093136155179263
 40
0.1235538293503448
 40
0.1538561545806855
 40
0.1850588072748946
 40
0.2160250992945718
 40
0.2471867223797388
 40
0.2784462884305076
 40
0.3100516090231096
 40
0.3419834369141944
 40
0.3734259894013148
 40
0.4048604886786042
 40
0.4368740651833136
 40
0.4685120685925458
 40
0.4998055358633138
 40
0.5309508213230685
 40
0.5618649784438015
 40
0.5930416446594986
 40
0.6233742450133227
 40
0.6540913579075065
 40
0.6849496782718291
 40
0.71581606451649
 40
0.7471731804043279
 40
0.7784514311862922
 40
0.8101295911560753
 40
0.8419598919688862
 40
0.8735175891922173
 40
0.9050808037887091
 40
0.9370235169792366
 40
0.968744159003463
 40
1.0
 40
1.0
 40
1.0
 40
1.0
 10
231.6972611388171
 20
62.86510882652926
 30
0.0
 10
231.9601467590173
 20
62.83657433923824
 30
0.0
 10
232.4870353695001
 20
62.75063185091509
 30
0.0
 10
233.2510474385738
 20
62.55025673084569
 30
0.0
 10
233.9581976266225
 20
62.30325462462665
 30
0.0
 10
234.5711086912168
 20
62.02527274647458
 30
0.0
 10
235.0682400168913
 20
61.73113904914468
 30
0.0
 10
235.4274317379635
 20
61.42963252095264
 30
0.0
 10
235.6491510067243
 20
61.12263501604927
 30
0.0
 10
235.7144028841057
 20
60.81212975464742
 30
0.0
 10
235.6275556729925
 20
60.49298526989818
 30
0.0
 10
235.3852100852321
 20
60.16366530432513
 30
0.0
 10
235.0052722225066
 20
59.82472458276733
 30
0.0
 10
234.4914662693463
 20
59.48688611835701
 30
0.0
 10
233.8655754584355
 20
59.16098821704941
 30
0.0
 10
233.1521044719469
 20
58.86434132380835
 30
0.0
 10
232.3882019956828
 20
58.60823801536834
 30
0.0
 10
231.6024089127763
 20
58.41921044737991
 30
0.0
 10
230.8208714577358
 20
58.31103452532637
 30
0.0
 10
230.0647584729803
 20
58.30337064195752
 30
0.0
 10
229.3623938865906
 20
58.40129267734401
 30
0.0
 10
228.7433735395466
 20
58.62294111084761
 30
0.0
 10
228.2343162745372
 20
58.95880919775956
 30
0.0
 10
227.8613726811024
 20
59.39861976393845
 30
0.0
 10
227.6327707298576
 20
59.90969440446074
 30
0.0
 10
227.5639244231354
 20
60.46087949222137
 30
0.0
 10
227.6485408363592
 20
61.01855142053424
 30
0.0
 10
227.8916496262952
 20
61.54863156145371
 30
0.0
 10
228.273779469112
 20
62.02115591056859
 30
0.0
 10
228.7899150435246
 20
62.40727742146144
 30
0.0
 10
229.4168929040271
 20
62.6909016087936
 30
0.0
 10
230.1328003363933
 20
62.86063882752102
 30
0.0
 10
230.9012437285774
 20
62.92217766223385
 30
0.0
 10
231.4327725079508
 20
62.89381730997658
 30
0.0
 10
231.697261138817
 20
62.86510882652925
 30
0.0
  0
LINE
  5
2A6
330
1F
100
AcDbEntity
  8
0
  6
Continuous
 62
     7
370
    25
100
AcDbLine
 10
222.4727237258
 20
46.4259822091
 30
0.0
 11
222.7834754033
 21
46.2596015086
 31
0.0
  0
LINE
  5
2A7
330
1F
100
AcDbEntity
  8
0
  6
Continuous
 62
     7
370
    25
100
AcDbLine
 10
221.4857657059
 20
46.9957409464
 30
0.0
 11
222.4727237258
 21
46.4259822091
 31
0.0
  0
ARC
  5
2A8
330
1F
100
AcDbEntity
  8
0
  6
Continuous
 62
     7
370
    25
100
AcDbCircle
 10
223.7067356167
 20
50.5892217105
 30
0.0
 40
4.484274790565361
100
AcDbArc
 50
267.6840627222
 51
286.9866336569
  0
SPLINE
  5
2A9
330
1F
100
AcDbEntity
  8
0
  6
Continuous
 62
     7
370
    25
100
AcDbSpline
210
0.0
220
0.0
230
1.0
 70
     8
 71
     3
 72
    12
 73
     8
 74
     0
 42
0.000000001
 43
0.00000001
 40
0.0
 40
0.0
 40
0.0
 40
0.0
 40
0.1523598330305601
 40
0.3826801306822303
 40
0.6138741683107227
 40
0.8254372814239916
 40
1.0
 40
1.0
 40
1.0
 40
1.0
 10
233.0357670971164
 20
59.86261311119352
 30
0.0
 10
232.8307997587346
 20
59.97475951092627
 30
0.0
 10
232.3159860688179
 20
60.2564361054173
 30
0.0
 10
231.3029107415287
 20
60.6726020778844
 30
0.0
 10
230.0955319605696
 20
60.95584370583192
 30
0.0
 10
228.9932014752187
 20
60.98679054857269
 30
0.0
 10
228.4282624426877
 20
60.77906317125102
 30
0.0
 10
228.1728604849455
 20
60.68515219008383
 30
0.0
  0
SPLINE
  5
2AA
330
1F
100
AcDbEntity
  8
0
  6
Continuous
 62
     7
370
    25
100
AcDbSpline
210
0.0
220
0.0
230
1.0
 70
     8
 71
     3
 72
    10
 73
     6
 74
     0
 42
0.000000001
 43
0.00000001
 40
0.0
 40
0.0
 40
0.0
 40
0.0
 40
0.3798174073072795
 40
0.9603711649033085
 40
1.0
 40
1.0
 40
1.0
 40
1.0
 10
234.1756472189759
 20
59.33438618367503
 30
0.0
 10
234.0459946017275
 20
59.4047147455124
 30
0.0
 10
233.718166985973
 20
59.58254104193352
 30
0.0
 10
233.3102384409628
 20
59.75559389233592
 30
0.0
 10
233.0536056595309
 20
59.85479932458423
 30
0.0
 10
233.0372071693192
 20
59.86113841852461
 30
0.0
  0
SPLINE
  5
2AB
330
1F
100
AcDbEntity
  8
0
  6
Continuous
 62
     7
370
    25
100
AcDbSpline
210
0.0
220
0.0
230
1.0
 70
     8
 71
     3
 72
    24
 73
    20
 74
     0
 42
0.000000001
 43
0.00000001
 40
0.0
 40
0.0
 40
0.0
 40
0.0
 40
0.0618858212107145
 40
0.1150115607194259
 40
0.1593831488268445
 40
0.2428114970815824
 40
0.318331853291959
 40
0.3935543804326023
 40
0.4204843226990471
 40
0.4483397435477174
 40
0.4771286702554668
 40
0.5451537905345539
 40
0.6363475754294583
 40
0.6968782859867285
 40
0.7498596693403015
 40
0.7959701295389731
 40
0.8771179302751783
 40
0.9543004207779655
 40
1.0
 40
1.0
 40
1.0
 40
1.0
 10
231.6423825718147
 20
62.29125092657248
 30
0.0
 10
231.4584257824785
 20
62.31014549153843
 30
0.0
 10
231.1165517145163
 20
62.34526005192293
 30
0.0
 10
230.6523337415395
 20
62.33876950353566
 30
0.0
 10
230.1428721292666
 20
62.29104531073835
 30
0.0
 10
229.603777029892
 20
62.16642871257144
 30
0.0
 10
229.0609390451684
 20
61.92393842862845
 30
0.0
 10
228.7205460296732
 20
61.66656567800254
 30
0.0
 10
228.5139193211222
 20
61.45175857750371
 30
0.0
 10
228.3959352649112
 20
61.30525522620474
 30
0.0
 10
228.2437648607201
 20
61.07550440198428
 30
0.0
 10
228.0770842221405
 20
60.70256170655726
 30
0.0
 10
228.0087226413033
 20
60.24000265386438
 30
0.0
 10
228.0590781049227
 20
59.81166995566255
 30
0.0
 10
228.164507248438
 20
59.49174306201817
 30
0.0
 10
228.346706575124
 20
59.15127754682498
 30
0.0
 10
228.6475850001944
 20
58.8153292899699
 30
0.0
 10
229.0372698947929
 20
58.54226998925488
 30
0.0
 10
229.3301888509873
 20
58.44831491832758
 30
0.0
 10
229.4391247850436
 20
58.41337322816262
 30
0.0
  0
SPLINE
  5
2AC
330
1F
100
AcDbEntity
  8
0
  6
Continuous
 62
     7
370
    25
100
AcDbSpline
210
0.0
220
0.0
230
1.0
 70
     8
 71
     3
 72
    22
 73
    18
 74
     0
 42
0.000000001
 43
0.00000001
 40
0.0
 40
0.0
 40
0.0
 40
0.0
 40
0.0230829230551597
 40
0.0814197416897967
 40
0.1466435060153073
 40
0.2187937863059883
 40
0.2807407147919538
 40
0.334043885361729
 40
0.3787027517769348
 40
0.4147200067027929
 40
0.517881604567259
 40
0.6098460221494381
 40
0.7031822330296847
 40
0.7529336067168404
 40
0.8047834091159894
 40
0.8938685125132421
 40
1.0
 40
1.0
 40
1.0
 40
1.0
 10
234.9436993645117
 20
59.81050278598673
 30
0.0
 10
234.9681027675982
 20
59.8335019394141
 30
0.0
 10
235.0541802011585
 20
59.91462620286485
 30
0.0
 10
235.1618746183567
 20
60.0579218848499
 30
0.0
 10
235.2590452197372
 20
60.24669638769143
 30
0.0
 10
235.290096119926
 20
60.43266183924702
 30
0.0
 10
235.2607431982842
 20
60.6044765258349
 30
0.0
 10
235.1922370636795
 20
60.75128245366931
 30
0.0
 10
235.1044266778505
 20
60.87249351053877
 30
0.0
 10
234.9501348889691
 20
61.0380766197363
 30
0.0
 10
234.6823089424385
 20
61.24824088424341
 30
0.0
 10
234.2307386872661
 20
61.50368468780484
 30
0.0
 10
233.7831760779515
 20
61.71032138611046
 30
0.0
 10
233.3742823051881
 20
61.86882560252279
 30
0.0
 10
232.9522027063523
 20
62.01134235051553
 30
0.0
 10
232.3738900885337
 20
62.17459891934478
 30
0.0
 10
231.9000114947429
 20
62.25016736927115
 30
0.0
 10
231.6423825718147
 20
62.29125092657247
 30
0.0
  0
LINE
  5
2AD
330
1F
100
AcDbEntity
  8
0
  6
Continuous
 62
     7
370
    25
100
AcDbLine
 10
225.1328128499
 20
47.0440797385
 30
0.0
 11
225.1275747869
 21
47.3401631614
 31
0.0
  0
LINE
  5
2AE
330
1F
100
AcDbEntity
  8
0
  6
Continuous
 62
     7
370
    25
100
AcDbLine
 10
225.1275747869
 20
47.3401631614
 30
0.0
 11
225.1706745493
 21
47.9918248581
 31
0.0
  0
LINE
  5
2AF
330
1F
100
AcDbEntity
  8
0
  6
Continuous
 62
     7
370
    25
100
AcDbLine
 10
224.7404902277
 20
49.7232858649
 30
0.0
 11
224.3366114664
 21
50.1494479484
 31
0.0
  0
SPLINE
  5
2B0
330
1F
100
AcDbEntity
  8
0
  6
Continuous
 62
     7
370
    25
100
AcDbSpline
210
0.0
220
0.0
230
1.0
 70
     8
 71
     3
 72
    19
 73
    15
 74
     0
 42
0.000000001
 43
0.00000001
 40
0.0
 40
0.0
 40
0.0
 40
0.0
 40
0.0210492621018804
 40
0.1455865440207667
 40
0.2712169722633744
 40
0.3929514297049947
 40
0.5136082229787104
 40
0.6366369099308349
 40
0.699422462668311
 40
0.7643939711952468
 40
0.8122544601557282
 40
0.8606584764820763
 40
0.9188817427801165
 40
1.0
 40
1.0
 40
1.0
 40
1.0
 10
228.0531380194724
 20
60.03650097911467
 30
0.0
 10
228.0456694444865
 20
60.09126132602008
 30
0.0
 10
227.9940132859148
 20
60.47000950335521
 30
0.0
 10
228.2367841805745
 20
61.08016041216939
 30
0.0
 10
228.8211146479894
 20
61.76953411540895
 30
0.0
 10
229.7272410156297
 20
62.18683366564101
 30
0.0
 10
230.8015871440917
 20
62.30725962332966
 30
0.0
 10
231.7555210131874
 20
62.14656007974207
 30
0.0
 10
232.4901835557567
 20
61.84919398090026
 30
0.0
 10
232.962986795229
 20
61.55153590349556
 30
0.0
 10
233.3199569653485
 20
61.18062409871821
 30
0.0
 10
233.5148051068567
 20
60.74830280341062
 30
0.0
 10
233.5438341371009
 20
60.24536147218547
 30
0.0
 10
233.4814605354805
 20
59.91161645961029
 30
0.0
 10
233.4451494795065
 20
59.71732538906343
 30
0.0
  0
SPLINE
  5
2B1
330
1F
100
AcDbEntity
  8
0
  6
Continuous
 62
     7
370
    25
100
AcDbSpline
210
0.0
220
0.0
230
1.0
 70
     8
 71
     3
 72
    10
 73
     6
 74
     0
 42
0.000000001
 43
0.00000001
 40
0.0
 40
0.0
 40
0.0
 40
0.0
 40
0.2952118939789638
 40
0.9806889752106586
 40
1.0
 40
1.0
 40
1.0
 40
1.0
 10
233.4478773354946
 20
59.71608683564104
 30
0.0
 10
233.5307009603714
 20
59.67732165784758
 30
0.0
 10
233.8058396572203
 20
59.54854438545613
 30
0.0
 10
234.0807709713229
 20
59.40735938559674
 30
0.0
 10
234.2292360359972
 20
59.31337179119954
 30
0.0
 10
234.2333039431026
 20
59.31079655369228
 30
0.0
  0
ARC
  5
2B2
330
1F
100
AcDbEntity
  8
0
  6
Continuous
 62
     7
370
    25
100
AcDbCircle
 10
237.4579859008
 20
45.5028678433
 30
0.0
 40
12.46654291791691
100
AcDbArc
 50
171.5249863735
 51
179.8211981812
  0
SPLINE
  5
2B3
330
1F
100
AcDbEntity
  8
0
  6
Continuous
 62
     7
370
    25
100
AcDbSpline
210
0.0
220
0.0
230
1.0
 70
     8
 71
     3
 72
    14
 73
    10
 74
     0
 42
0.000000001
 43
0.00000001
 40
0.0
 40
0.0
 40
0.0
 40
0.0
 40
0.0003951393068452
 40
0.0003951393068452
 40
0.0003951393068452
 40
0.0008163352168664
 40
0.0008163352168664
 40
0.0008163352168664
 40
0.0012378579337219
 40
0.0012378579337219
 40
0.0012378579337219
 40
0.0012378579337219
 10
233.0397996726561
 20
59.86133415780918
 30
0.0
 10
233.0852614868873
 20
59.84689729518415
 30
0.0
 10
233.1301490915084
 20
59.83203143461854
 30
0.0
 10
233.1744327841835
 20
59.81674764701307
 30
0.0
 10
233.2216360764228
 20
59.80045620767538
 30
0.0
 10
233.268161889482
 20
59.78368672959147
 30
0.0
 10
233.3139727987236
 20
59.76645791879618
 30
0.0
 10
233.3598191867127
 20
59.74921576496453
 30
0.0
 10
233.4049584222851
 20
59.73151005876004
 30
0.0
 10
233.4493519803275
 20
59.71336720206925
 30
0.0
  0
LINE
  5
2B4
330
1F
100
AcDbEntity
  8
0
  6
Continuous
 62
     7
370
    25
100
AcDbLine
 10
224.3366114664
 20
50.1494479484
 30
0.0
 11
223.696674792
 21
50.5616795885
 31
0.0
  0
LINE
  5
2B5
330
1F
100
AcDbEntity
  8
0
  6
Continuous
 62
     7
370
    25
100
AcDbLine
 10
223.3907406968
 20
50.9331579753
 30
0.0
 11
223.696674792
 21
50.5616795885
 31
0.0
  0
SPLINE
  5
2B6
330
1F
100
AcDbEntity
  8
0
  6
Continuous
 62
     7
370
    25
100
AcDbSpline
210
0.0
220
0.0
230
1.0
 70
     8
 71
     3
 72
    13
 73
     9
 74
     0
 42
0.000000001
 43
0.00000001
 40
0.0
 40
0.0
 40
0.0
 40
0.0
 40
0.1618542298650875
 40
0.3254858841233149
 40
0.4910085196246548
 40
0.6585318472470939
 40
0.8281616954004768
 40
1.0
 40
1.0
 40
1.0
 40
1.0
 10
223.6966752036345
 20
50.56167959237928
 30
0.0
 10
223.6770978116194
 20
50.5742425694109
 30
0.0
 10
223.6377280357775
 20
50.59950648552705
 30
0.0
 10
223.5761920960115
 20
50.63220018243992
 30
0.0
 10
223.5126354367634
 20
50.66114625614674
 30
0.0
 10
223.4470173341051
 20
50.68565862361375
 30
0.0
 10
223.3795900650459
 20
50.70609368696959
 30
0.0
 10
223.3337054648438
 20
50.71569034196083
 30
0.0
 10
223.3106147846665
 20
50.72051970279647
 30
0.0
  0
SPLINE
  5
2B7
330
1F
100
AcDbEntity
  8
0
  6
Continuous
 62
     7
370
    25
100
AcDbSpline
210
0.0
220
0.0
230
1.0
 70
     8
 71
     3
 72
     9
 73
     5
 74
     0
 42
0.000000001
 43
0.00000001
 40
0.0
 40
0.0
 40
0.0
 40
0.0
 40
0.4907282259506041
 40
1.0
 40
1.0
 40
1.0
 40
1.0
 10
223.3106089573746
 20
50.72049170576545
 30
0.0
 10
223.2865154348968
 20
50.72858723798358
 30
0.0
 10
223.2374179483375
 20
50.74508421490485
 30
0.0
 10
223.1867172545174
 20
50.75987788392109
 30
0.0
 10
223.1608968222301
 20
50.76741188198568
 30
0.0
  0
SPLINE
  5
2B8
330
1F
100
AcDbEntity
  8
0
  6
Continuous
 62
     7
370
    25
100
AcDbSpline
210
0.0
220
0.0
230
1.0
 70
     8
 71
     3
 72
    14
 73
    10
 74
     0
 42
0.000000001
 43
0.00000001
 40
0.0
 40
0.0
 40
0.0
 40
0.0
 40
0.0310276388093398
 40
0.0622853718693698
 40
0.1248003166924349
 40
0.2498289731770658
 40
0.4998892603621822
 40
0.7606803621577949
 40
1.0
 40
1.0
 40
1.0
 40
1.0
 10
222.5769561329421
 20
51.14151962463157
 30
0.0
 10
222.5829483723469
 20
51.13768858097762
 30
0.0
 10
222.5949772883064
 20
51.12999808347954
 30
0.0
 10
222.6190370963561
 20
51.11456019397259
 30
0.0
 10
222.6612707690024
 20
51.0874897410417
 30
0.0
 10
222.7458333435147
 20
51.03327771624625
 30
0.0
 10
222.8691203129831
 20
50.9542745343815
 30
0.0
 10
223.0152520194368
 20
50.86066835970375
 30
0.0
 10
223.1136186359779
 20
50.7976852833113
 30
0.0
 10
223.1606903366645
 20
50.76754578452079
 30
0.0
  0
LINE
  5
2B9
330
1F
100
AcDbEntity
  8
0
  6
Continuous
 62
     7
370
    25
100
AcDbLine
 10
220.7744559777
 20
52.3041503016
 30
0.0
 11
221.0654233318
 21
52.1160717625
 31
0.0
  0
SPLINE
  5
2BA
330
1F
100
AcDbEntity
  8
0
  6
Continuous
 62
     7
370
    25
100
AcDbSpline
210
0.0
220
0.0
230
1.0
 70
     8
 71
     3
 72
     8
 73
     4
 74
     0
 42
0.000000001
 43
0.00000001
 40
0.0
 40
0.0
 40
0.0
 40
0.0
 40
1.0
 40
1.0
 40
1.0
 40
1.0
 10
221.096811635237
 20
52.09584923232037
 30
0.0
 10
221.0863691293851
 20
52.10267465721778
 30
0.0
 10
221.0759031964954
 20
52.1094176240043
 30
0.0
 10
221.0654154316788
 20
52.11607671165729
 30
0.0
  0
SPLINE
  5
2BB
330
1F
100
AcDbEntity
  8
0
  6
Continuous
 62
     7
370
    25
100
AcDbSpline
210
0.0
220
0.0
230
1.0
 70
     8
 71
     3
 72
     8
 73
     4
 74
     0
 42
0.000000001
 43
0.00000001
 40
0.0
 40
0.0
 40
0.0
 40
0.0
 40
1.0
 40
1.0
 40
1.0
 40
1.0
 10
218.3108072564131
 20
53.97410488412946
 30
0.0
 10
218.3698070205831
 20
53.9353642172105
 30
0.0
 10
218.4290945840937
 20
53.89730223991121
 30
0.0
 10
218.4886756575821
 20
53.85991845145091
 30
0.0
  0
SPLINE
  5
2BC
330
1F
100
AcDbEntity
  8
0
  6
Continuous
 62
     7
370
    25
100
AcDbSpline
210
0.0
220
0.0
230
1.0
 70
     8
 71
     3
 72
     8
 73
     4
 74
     0
 42
0.000000001
 43
0.00000001
 40
0.0
 40
0.0
 40
0.0
 40
0.0
 40
1.0
 40
1.0
 40
1.0
 40
1.0
 10
218.2859575103136
 20
54.33731506206778
 30
0.0
 10
218.2934317224041
 20
54.21635722135594
 30
0.0
 10
218.3017278262943
 20
54.09528537894528
 30
0.0
 10
218.3108072564131
 20
53.97410488412946
 30
0.0
  0
LWPOLYLINE
  5
2BD
330
1F
100
AcDbEntity
  8
0
  6
Continuous
 62
     7
370
    25
100
AcDbPolyline
 90
       15
 70
   128
 43
0.0
 10
218.2859578691
 20
54.3373143966
 10
218.7014092331
 20
55.5015657732
 10
219.2059405955
 20
56.6561113683
 10
219.7928927544
 20
57.7857121304
 10
220.4545179336
 20
58.8754564896
 10
221.1820818573
 20
59.9109592086
 10
221.9659806416
 20
60.8785512977
 10
222.7958665768
 20
61.7654606131
 10
223.6607847748
 20
62.5599789551
 10
224.5493178028
 20
63.2516185683
 10
225.4497367358
 20
63.8312495325
 10
226.3501556689
 20
64.2912201399
 10
227.2386886969
 20
64.6254589243
 10
228.1036068949
 20
64.8295538777
 10
228.2499203381
 20
64.8514220881
  0
SPLINE
  5
2BE
330
1F
100
AcDbEntity
  8
0
  6
Continuous
 62
     7
370
    25
100
AcDbSpline
210
0.0
220
0.0
230
1.0
 70
     8
 71
     3
 72
    10
 73
     6
 74
     0
 42
0.000000001
 43
0.00000001
 40
0.0
 40
0.0
 40
0.0
 40
0.0
 40
0.2409818396634726
 40
0.5031433556203718
 40
1.0
 40
1.0
 40
1.0
 40
1.0
 10
224.3366114663523
 20
43.44360632511395
 30
0.0
 10
224.4188573373553
 20
43.3919298031934
 30
0.0
 10
224.5905775946997
 20
43.28403495650201
 30
0.0
 10
224.8682989537266
 20
43.15431224603778
 30
0.0
 10
224.9892762007707
 20
43.17709018714276
 30
0.0
 10
225.0684684416862
 20
43.19200072812149
 30
0.0
  0
LINE
  5
2BF
330
1F
100
AcDbEntity
  8
0
  6
Continuous
 62
     7
370
    25
100
AcDbLine
 10
219.5534374102
 20
53.1726790581
 30
0.0
 11
218.7915587078
 21
53.6633134657
 31
0.0
  0
LINE
  5
2C0
330
1F
100
AcDbEntity
  8
0
  6
Continuous
 62
     7
370
    25
100
AcDbLine
 10
218.7915587078
 20
53.6633134657
 30
0.0
 11
218.3108073876
 21
53.9741048418
 31
0.0
  0
LINE
  5
2C1
330
1F
100
AcDbEntity
  8
0
  6
Continuous
 62
     7
370
    25
100
AcDbLine
 10
223.3907406968
 20
43.1678265242
 30
0.0
 11
223.696674792
 21
43.8558379652
 31
0.0
  0
LINE
  5
2C2
330
1F
100
AcDbEntity
  8
0
  6
Continuous
 62
     7
370
    25
100
AcDbLine
 10
223.696674792
 20
43.8558379652
 30
0.0
 11
224.3366114664
 21
43.4436063251
 31
0.0
  0
SPLINE
  5
2C3
330
1F
100
AcDbEntity
  8
0
  6
Continuous
 62
     7
370
    25
100
AcDbSpline
210
0.0
220
0.0
230
1.0
 70
     8
 71
     3
 72
    13
 73
     9
 74
     0
 42
0.000000001
 43
0.00000001
 40
0.0
 40
0.0
 40
0.0
 40
0.0
 40
0.1722587823402174
 40
0.3421398270982735
 40
0.5097456257612809
 40
0.6751828993009421
 40
0.8385626189970466
 40
1.0
 40
1.0
 40
1.0
 40
1.0
 10
223.3106032728612
 20
44.13714767063257
 30
0.0
 10
223.3337547968119
 20
44.11902807969955
 30
0.0
 10
223.3797382775608
 20
44.08303900776551
 30
0.0
 10
223.4472792902717
 20
44.03203902435034
 30
0.0
 10
223.5129389049569
 20
43.98371434415967
 30
0.0
 10
223.5764629762073
 20
43.93828333825033
 30
0.0
 10
223.6378933549292
 20
43.89545777049011
 30
0.0
 10
223.6771595219028
 20
43.86899195331466
 30
0.0
 10
223.6966752036345
 20
43.85583817476756
 30
0.0
  0
SPLINE
  5
2C4
330
1F
100
AcDbEntity
  8
0
  6
Continuous
 62
     7
370
    25
100
AcDbSpline
210
0.0
220
0.0
230
1.0
 70
     8
 71
     3
 72
    11
 73
     7
 74
     0
 42
0.000000001
 43
0.00000001
 40
0.0
 40
0.0
 40
0.0
 40
0.0
 40
0.2392845096574327
 40
0.5001120454060707
 40
0.7515010914954734
 40
1.0
 40
1.0
 40
1.0
 40
1.0
 10
223.1612228613851
 20
44.18446166284544
 30
0.0
 10
223.1141536293375
 20
44.15614714011133
 30
0.0
 10
223.0157774747391
 20
44.09696890956259
 30
0.0
 10
222.8694802531614
 20
44.00378100909506
 30
0.0
 10
222.721639509575
 20
43.90840909312168
 30
0.0
 10
222.6253530468462
 20
43.84387383787409
 30
0.0
 10
222.5774881589809
 20
43.81179276782287
 30
0.0
  0
SPLINE
  5
2C5
330
1F
100
AcDbEntity
  8
0
  6
Continuous
 62
     7
370
    25
100
AcDbSpline
210
0.0
220
0.0
230
1.0
 70
     8
 71
     3
 72
     9
 73
     5
 74
     0
 42
0.000000001
 43
0.00000001
 40
0.0
 40
0.0
 40
0.0
 40
0.0
 40
0.509066935386983
 40
0.9999999999999999
 40
0.9999999999999999
 40
0.9999999999999999
 40
0.9999999999999999
 10
223.1617938649693
 20
44.18376270863367
 30
0.0
 10
223.1874424395933
 20
44.17627000047379
 30
0.0
 10
223.2378259409387
 20
44.16155148776154
 30
0.0
 10
223.286633452434
 20
44.14515912990937
 30
0.0
 10
223.3105946736285
 20
44.13711157943277
 30
0.0
  0
LINE
  5
2C6
330
1F
100
AcDbEntity
  8
0
  6
Continuous
 62
     7
370
    25
100
AcDbLine
 10
224.9917124451
 20
45.1076412759
 30
0.0
 11
223.3105964887
 21
44.1371536917
 31
0.0
  0
LINE
  5
2C7
330
1F
100
AcDbEntity
  8
0
  6
Continuous
 62
     7
370
    25
100
AcDbLine
 10
221.3041088375
 20
45.2609749903
 30
0.0
 11
221.1038131839
 21
44.7598175761
 31
0.0
  0
SPLINE
  5
2C8
330
1F
100
AcDbEntity
  8
0
  6
Continuous
 62
     7
370
    25
100
AcDbSpline
210
0.0
220
0.0
230
1.0
 70
     8
 71
     3
 72
     8
 73
     4
 74
     0
 42
0.000000001
 43
0.00000001
 40
0.0
 40
0.0
 40
0.0
 40
0.0
 40
1.0
 40
1.0
 40
1.0
 40
1.0
 10
221.3036656668291
 20
45.26175874249503
 30
0.0
 10
221.3298410013983
 20
45.28392611947329
 30
0.0
 10
221.3556620413638
 20
45.30655826056491
 30
0.0
 10
221.3811195950722
 20
45.32964298065618
 30
0.0
  0
LINE
  5
2C9
330
1F
100
AcDbEntity
  8
0
  6
Continuous
 62
     7
370
    25
100
AcDbLine
 10
221.3811196908
 20
45.329642865
 30
0.0
 11
223.1614124501
 21
44.1838719799
 31
0.0
  0
LINE
  5
2CA
330
1F
100
AcDbEntity
  8
0
  6
Continuous
 62
     7
370
    25
100
AcDbLine
 10
224.9915036865
 20
45.2056912111
 30
0.0
 11
224.9035043595
 21
45.3131822794
 31
0.0
  0
LINE
  5
2CB
330
1F
100
AcDbEntity
  8
0
  6
Continuous
 62
     7
370
    25
100
AcDbLine
 10
223.0750963629
 20
46.3075547824
 30
0.0
 11
221.3811196908
 21
45.329642865
 31
0.0
  0
LINE
  5
2CC
330
1F
100
AcDbEntity
  8
0
  6
Continuous
 62
     7
370
    25
100
AcDbLine
 10
223.2177904454
 20
46.2862626207
 30
0.0
 11
223.0755165143
 21
46.3070674049
 31
0.0
  0
LINE
  5
2CD
330
1F
100
AcDbEntity
  8
0
  6
Continuous
 62
     7
370
    25
100
AcDbLine
 10
224.9035781165
 20
45.3130781129
 30
0.0
 11
223.2177904454
 21
46.2862626207
 31
0.0
  0
LINE
  5
2CE
330
1F
100
AcDbEntity
  8
0
  6
Continuous
 62
     7
370
    25
100
AcDbLine
 10
224.9915036865
 20
45.2623140301
 30
0.0
 11
224.9035313599
 21
45.3131050863
 31
0.0
  0
SPLINE
  5
2CF
330
1F
100
AcDbEntity
  8
0
  6
Continuous
 62
     7
370
    25
100
AcDbSpline
210
0.0
220
0.0
230
1.0
 70
     8
 71
     3
 72
    19
 73
    15
 74
     0
 42
0.000000001
 43
0.00000001
 40
0.0
 40
0.0
 40
0.0
 40
0.0
 40
0.0637853009172641
 40
0.1289628367748405
 40
0.1955871994416645
 40
0.2637095015536399
 40
0.333377557949238
 40
0.4046360709686026
 40
0.4775268158973639
 40
0.5520888236427515
 40
0.6283585584336152
 40
0.7063700889344581
 40
0.8377041806176546
 40
0.9999999999999999
 40
0.9999999999999999
 40
0.9999999999999999
 40
0.9999999999999999
 10
220.5195965608677
 20
45.43024682984689
 30
0.0
 10
220.5402859298744
 20
45.41688768983567
 30
0.0
 10
220.5821162525318
 20
45.38987782129315
 30
0.0
 10
220.6426072261299
 20
45.3523558557651
 30
0.0
 10
220.7020914243116
 20
45.31683611467378
 30
0.0
 10
220.7601725837847
 20
45.28385598575736
 30
0.0
 10
220.8167047008723
 20
45.25364954948767
 30
0.0
 10
220.8714497556254
 20
45.22653610952713
 30
0.0
 10
220.9241721332161
 20
45.20280449177828
 30
0.0
 10
220.9746137661446
 20
45.18276423833463
 30
0.0
 10
221.022496684607
 20
45.16664437679719
 30
0.0
 10
221.0774608389821
 20
45.15236640711245
 30
0.0
 10
221.1402921529433
 20
45.14222784986195
 30
0.0
 10
221.1787996686033
 20
45.14870210117774
 30
0.0
 10
221.2000836337952
 20
45.15228056468771
 30
0.0
  0
LINE
  5
2D0
330
1F
100
AcDbEntity
  8
0
  6
Continuous
 62
     7
370
    25
100
AcDbLine
 10
221.2247193214
 20
45.178351019
 30
0.0
 11
221.3035233914
 21
45.2617426227
 31
0.0
  0
SPLINE
  5
2D1
330
1F
100
AcDbEntity
  8
0
  6
Continuous
 62
     7
370
    25
100
AcDbSpline
210
0.0
220
0.0
230
1.0
 70
     8
 71
     3
 72
     9
 73
     5
 74
     0
 42
0.000000001
 43
0.00000001
 40
0.0
 40
0.0
 40
0.0
 40
0.0
 40
0.5232016984460688
 40
1.0
 40
1.0
 40
1.0
 40
1.0
 10
222.9089185831821
 20
46.21162256157977
 30
0.0
 10
222.8398944205335
 20
46.23666472669628
 30
0.0
 10
222.7079679324246
 20
46.284528036756
 30
0.0
 10
222.4665305196059
 20
46.42212616744266
 30
0.0
 10
222.3514135712424
 20
46.48773272245106
 30
0.0
  0
LINE
  5
2D2
330
1F
100
AcDbEntity
  8
0
  6
Continuous
 62
     7
370
    25
100
AcDbLine
 10
218.6219123742
 20
46.2536222851
 30
0.0
 11
219.0733834886
 21
46.3658862579
 31
0.0
  0
LINE
  5
2D3
330
1F
100
AcDbEntity
  8
0
  6
Continuous
 62
     7
370
    25
100
AcDbLine
 10
219.0733834886
 20
46.3658862579
 30
0.0
 11
220.5195959604
 21
45.4302469249
 31
0.0
  0
SPLINE
  5
2D4
330
1F
100
AcDbEntity
  8
0
  6
Continuous
 62
     7
370
    25
100
AcDbSpline
210
0.0
220
0.0
230
1.0
 70
     8
 71
     3
 72
     8
 73
     4
 74
     0
 42
0.000000001
 43
0.00000001
 40
0.0
 40
0.0
 40
0.0
 40
0.0
 40
1.0
 40
1.0
 40
1.0
 40
1.0
 10
218.7927009448845
 20
45.85887263206358
 30
0.0
 10
218.7355756759605
 20
45.99065881585913
 30
0.0
 10
218.6786471842429
 20
46.12224303751985
 30
0.0
 10
218.6219130662936
 20
46.25362210442113
 30
0.0
  0
LINE
  5
2D5
330
1F
100
AcDbEntity
  8
0
  6
Continuous
 62
     7
370
    25
100
AcDbLine
 10
220.4110849476
 20
47.1381248727
 30
0.0
 11
219.0733834886
 21
46.3658862579
 31
0.0
  0
LINE
  5
2D6
330
1F
100
AcDbEntity
  8
0
  6
Continuous
 62
     7
370
    25
100
AcDbLine
 10
221.3941134325
 20
47.0403714698
 30
0.0
 11
220.4110849476
 21
47.1381248727
 31
0.0
  0
LINE
  5
2D7
330
1F
100
AcDbEntity
  8
0
  6
Continuous
 62
     7
370
    25
100
AcDbLine
 10
222.3514135712
 20
46.4877327225
 30
0.0
 11
221.3941124447
 21
47.0403708996
 31
0.0
  0
SPLINE
  5
2D8
330
1F
100
AcDbEntity
  8
0
  6
Continuous
 62
     7
370
    25
100
AcDbSpline
210
0.0
220
0.0
230
1.0
 70
     8
 71
     3
 72
     8
 73
     4
 74
     0
 42
0.000000001
 43
0.00000001
 40
0.0
 40
0.0
 40
0.0
 40
0.0
 40
1.0
 40
1.0
 40
1.0
 40
1.0
 10
218.6219130662956
 20
46.25362210441625
 30
0.0
 10
218.6187757285456
 20
46.28883841128876
 30
0.0
 10
218.6167833246476
 20
46.32448266751646
 30
0.0
 10
218.6160019272755
 20
46.36057956951134
 30
0.0
  0
LINE
  5
2D9
330
1F
100
AcDbEntity
  8
0
  6
Continuous
 62
     7
370
    25
100
AcDbLine
 10
219.4270884024
 20
46.8288092842
 30
0.0
 11
218.6160025958
 21
46.3605794146
 31
0.0
  0
SPLINE
  5
2DA
330
1F
100
AcDbEntity
  8
0
  6
Continuous
 62
     7
370
    25
100
AcDbSpline
210
0.0
220
0.0
230
1.0
 70
     8
 71
     3
 72
     8
 73
     4
 74
     0
 42
0.000000001
 43
0.00000001
 40
0.0000004089325119
 40
0.0000004089325119
 40
0.0000004089325119
 40
0.0000004089325119
 40
0.0015399868451459
 40
0.0015399868451459
 40
0.0015399868451459
 40
0.0015399868451459
 10
219.4270874597643
 20
46.82880928086745
 30
0.0
 10
219.6655640277875
 20
46.92318566668381
 30
0.0
 10
219.9040109854562
 20
47.01761427861402
 30
0.0
 10
220.1424197243065
 20
47.11210766157647
 30
0.0
  0
LINE
  5
2DB
330
1F
100
AcDbEntity
  8
0
  6
Continuous
 62
     7
370
    25
100
AcDbLine
 10
220.1424192033
 20
47.1121078087
 30
0.0
 11
220.1668156431
 21
47.1171018351
 31
0.0
  0
LINE
  5
2DC
330
1F
100
AcDbEntity
  8
0
  6
Continuous
 62
     7
370
    25
100
AcDbLine
 10
220.4110849476
 20
47.1381248727
 30
0.0
 11
220.1668163016
 21
47.1171018351
 31
0.0
  0
SPLINE
  5
2DD
330
1F
100
AcDbEntity
  8
0
  6
Continuous
 62
     7
370
    25
100
AcDbSpline
210
0.0
220
0.0
230
1.0
 70
     8
 71
     3
 72
     8
 73
     4
 74
     0
 42
0.000000001
 43
0.00000001
 40
0.0
 40
0.0
 40
0.0
 40
0.0
 40
1.0
 40
1.0
 40
1.0
 40
1.0
 10
221.3941116388146
 20
47.04037165416344
 30
0.0
 10
221.4247196729378
 20
47.02543164635733
 30
0.0
 10
221.4552711739097
 20
47.01055468896395
 30
0.0
 10
221.4857651120243
 20
46.99574112528303
 30
0.0
  0
ARC
  5
2DE
330
1F
100
AcDbEntity
  8
0
  6
Continuous
 62
     7
370
    25
100
AcDbCircle
 10
222.2747951191
 20
52.4690915994
 30
0.0
 40
6.549762100192349
100
AcDbArc
 50
283.6682343678
 51
294.9135532271
  0
LWPOLYLINE
  5
2DF
330
1F
100
AcDbEntity
  8
0
  6
Continuous
 62
     7
370
    18
100
AcDbPolyline
 90
       18
 70
   128
 43
0.0
 10
277.0550479636
 20
20.0176106317
 10
277.1030074552
 20
20.784318079
 10
277.2458148074
 20
21.589271522
 10
277.4802800305
 20
22.4144896873
 10
277.8011657202
 20
23.2415386379
 10
278.2013032902
 20
24.051943125
 10
278.6717544804
 20
24.8276001228
 10
279.2020104023
 20
25.5511831851
 10
279.7802259805
 20
26.2065283588
 10
280.3934846876
 20
26.778996139
 10
281.0280874396
 20
27.2557987029
 10
281.6698582427
 20
27.6262851015
 10
282.3044609947
 20
27.8821792792
 10
282.9177197017
 20
28.0177649308
 10
283.4959352799
 20
28.0300132535
 10
284.0261912018
 20
27.9186506472
 10
284.4966423921
 20
27.686165032
 10
284.5492808424
 20
27.6498344915
  0
ARC
  5
2E0
330
1F
100
AcDbEntity
  8
0
  6
Continuous
 62
     7
370
    18
100
AcDbCircle
 10
279.9713244883
 20
19.6805270489
 30
0.0
 40
2.935693122628272
100
AcDbArc
 50
173.406613572
 51
239.6202320841
  0
LWPOLYLINE
  5
2E1
330
1F
100
AcDbEntity
  8
0
  6
Continuous
 62
     7
370
    18
100
AcDbPolyline
 90
       39
 70
   128
 43
0.0
 10
278.4116022348
 20
20.0483800426
 10
278.4605511895
 20
20.7587904718
 10
278.6060638426
 20
21.5063385512
 10
278.8441704876
 20
22.270632936
 10
279.1683762294
 20
23.0308254799
 10
279.5698378031
 20
23.7661805206
 10
280.037604272
 20
24.4566390251
 10
280.5589160071
 20
25.0833678063
 10
281.119553139
 20
25.6292703785
 10
281.7042229061
 20
26.0794563885
 10
282.2969770891
 20
26.4216460946
 10
282.8816468562
 20
26.646505429
 10
283.4422839881
 20
26.7479007111
 10
283.9635957232
 20
26.7230656476
 10
284.4313621921
 20
26.5726788124
 10
284.8328237658
 20
26.3008414384
 10
285.1570295076
 20
25.9149688764
 10
285.3951361526
 20
25.4255865723
 10
285.5406488056
 20
24.846043826
 10
285.5895977604
 20
24.192148657
 10
285.5406488056
 20
23.4817382278
 10
285.3951361526
 20
22.7341901484
 10
285.1570295076
 20
21.9698957636
 10
284.8328237658
 20
21.2097032197
 10
284.4313621921
 20
20.474348179
 10
283.9635957232
 20
19.7838896745
 10
283.4422839881
 20
19.1571608933
 10
282.8816468562
 20
18.6112583211
 10
282.2969770891
 20
18.1610723111
 10
281.7042229061
 20
17.818882605
 10
281.119553139
 20
17.5940232706
 10
280.5589160071
 20
17.4926279885
 10
280.037604272
 20
17.517463052
 10
279.5698378031
 20
17.6678498872
 10
279.1683762294
 20
17.9396872612
 10
278.8441704876
 20
18.3255598232
 10
278.6060638426
 20
18.8149421273
 10
278.4605511895
 20
19.3944848736
 10
278.4116022348
 20
20.0483800426
  0
LWPOLYLINE
  5
2E2
330
1F
100
AcDbEntity
  8
0
  6
Continuous
 62
     7
370
    18
100
AcDbPolyline
 90
       30
 70
   128
 43
0.0
 10
279.8663063088
 20
20.8881628293
 10
279.9162048847
 20
21.4467855843
 10
280.0635675539
 20
22.0368995631
 10
280.3015036359
 20
22.6309114935
 10
280.6188875152
 20
23.2010460845
 10
281.0008788089
 20
23.7206445632
 10
281.4296159378
 20
24.1654110321
 10
281.885051665
 20
24.514548813
 10
282.3458902766
 20
24.7517323681
 10
282.7905835686
 20
24.8658716252
 10
283.1983380289
 20
24.8516291533
 10
283.5500875594
 20
24.7096710532
 10
283.8293848463
 20
24.4466352378
 10
284.0231701289
 20
24.0748209483
 10
284.1223823286
 20
23.6116137394
 10
284.1223823286
 20
23.078672695
 10
284.0231701289
 20
22.5009175186
 10
283.8293848463
 20
21.9053635043
 10
283.5500875594
 20
21.3198579053
 10
283.1983380289
 20
20.7717784419
 10
282.7905835686
 20
20.2867526909
 10
282.3458902766
 20
19.8874600019
 10
281.885051665
 20
19.5925706215
 10
281.4296159378
 20
19.4158735045
 10
281.0008788089
 20
19.3656306209
 10
280.6188875152
 20
19.4441913396
 10
280.3015036359
 20
19.6478823036
 10
280.0635675539
 20
19.9671790812
 10
279.9162048847
 20
20.3871517437
 10
279.8663063088
 20
20.8881628293
  0
LWPOLYLINE
  5
2E3
330
1F
100
AcDbEntity
  8
0
  6
Continuous
 62
     7
370
    18
100
AcDbPolyline
 90
       17
 70
   128
 43
0.0
 10
283.1175755299
 20
24.6647630623
 10
283.3870698056
 20
24.5006273639
 10
283.6206031883
 20
24.2062567867
 10
283.7655779751
 20
23.8115145583
 10
283.8147243285
 20
23.3361944988
 10
283.7655779751
 20
22.8041312674
 10
283.6206031883
 20
22.242004713
 10
283.3870698056
 20
21.6780022315
 10
283.0766879831
 20
21.1404051468
 10
282.7050216795
 20
20.656171026
 10
282.2907077865
 20
20.2495811738
 10
281.8545216548
 20
19.9410238848
 10
281.4183355232
 20
19.7459713858
 10
281.0040216302
 20
19.6742045993
 10
280.6323553266
 20
19.7293219399
 10
280.3219735041
 20
19.9085598003
 10
280.3145689943
 20
19.915074335
  0
LWPOLYLINE
  5
2E4
330
1F
100
AcDbEntity
  8
0
  6
Continuous
 62
     7
370
    18
100
AcDbPolyline
 90
        8
 70
   128
 43
0.0
 10
241.3419606589
 20
39.0607320254
 10
241.3903557777
 20
38.2360301938
 10
241.5347136729
 20
37.4813154042
 10
241.7725631563
 20
36.809500358
 10
242.0998357399
 20
36.2320805943
 10
242.5109308319
 20
35.7589356216
 10
242.998815177
 20
35.3981614178
 10
242.9991401688
 20
35.397973743
  0
LWPOLYLINE
  5
2E5
330
1F
100
AcDbEntity
  8
0
  6
Continuous
 62
     7
370
    18
100
AcDbPolyline
 90
       19
 70
   128
 43
0.0
 10
250.9984901854
 20
49.2547555125
 10
250.4424899476
 20
49.496798953
 10
249.8272424362
 20
49.6163415636
 10
249.1635996412
 20
49.6111510329
 10
248.4629168458
 20
49.4813152695
 10
247.7371828527
 20
49.2290571223
 10
246.9988151771
 20
48.8586914331
 10
246.2604475015
 20
48.37655595
 10
245.5347135083
 20
47.7908994643
 10
244.8340307129
 20
47.111744092
 10
244.170387918
 20
46.3507089612
 10
243.5551404065
 20
45.520816694
 10
242.998815177
 20
44.636266141
 10
242.5109308319
 20
43.7121926625
 10
242.0998357399
 20
42.7644073996
 10
241.7725631563
 20
41.8091267538
 10
241.5347136729
 20
40.8626965395
 10
241.3903557777
 20
39.9413096717
 10
241.3419606589
 20
39.0607320254
  0
LWPOLYLINE
  5
2E6
330
1F
100
AcDbEntity
  8
0
  6
Continuous
 62
     7
370
    18
100
AcDbPolyline
 90
       26
 70
   128
 43
0.0
 10
239.2206406262
 20
39.0607324055
 10
239.2696185569
 20
40.0240264014
 10
239.4158391452
 20
41.0298226692
 10
239.6571700242
 20
42.0634544564
 10
239.9900912733
 20
43.1098482927
 10
240.409748761
 20
44.1537465163
 10
240.9100229625
 20
45.1799258044
 10
241.4836188509
 20
46.1734230233
 10
242.122171594
 20
47.1197498584
 10
242.8163703602
 20
48.0051072533
 10
243.5560913448
 20
48.8165842585
 10
244.3305484119
 20
49.5423487985
 10
245.1284479348
 20
50.171816527
 10
245.9381548314
 20
50.6958082755
 10
246.7478617281
 20
51.1066842107
 10
247.545761251
 20
51.3984516622
 10
248.3202183181
 20
51.566856219
 10
249.0599393027
 20
51.6094428833
 10
249.7541380689
 20
51.5255903234
 10
250.392690812
 20
51.3165207925
 10
250.9662867004
 20
50.9852832898
 10
251.4665609019
 20
50.5367083
 10
251.8862183896
 20
49.9773362984
 10
252.2191396387
 20
49.3153251544
 10
252.4604705176
 20
48.5603280692
 10
252.4997757466
 20
48.3880820077
  0
LWPOLYLINE
  5
2E7
330
1F
100
AcDbEntity
  8
0
  6
Continuous
 62
     7
370
    18
100
AcDbPolyline
 90
       13
 70
   128
 43
0.0
 10
244.50042573
 20
34.531299858
 10
244.3305484119
 20
34.4788899617
 10
243.5560913448
 20
34.3104854049
 10
242.8163703602
 20
34.2678987406
 10
242.122171594
 20
34.3517513006
 10
241.4836188509
 20
34.5608208314
 10
240.9100229625
 20
34.8920583341
 10
240.409748761
 20
35.3406333239
 10
239.9900912733
 20
35.9000053256
 10
239.6571700242
 20
36.5620164696
 10
239.4158391452
 20
37.3170135548
 10
239.2696185569
 20
38.1539871248
 10
239.2206406262
 20
39.0607324055
  0
ARC
  5
2E8
330
1F
100
AcDbEntity
  8
0
  6
Continuous
 62
     7
370
    18
100
AcDbCircle
 10
246.4721225434
 20
40.0253516078
 30
0.0
 40
17.95572678150242
100
AcDbArc
 50
167.4561534803
 51
179.6099872796
  0
LWPOLYLINE
  5
2E9
330
1F
100
AcDbEntity
  8
0
  6
Continuous
 62
     7
370
    18
100
AcDbPolyline
 90
       11
 70
   128
 43
0.0
 10
239.5867214691
 20
59.3882328925
 10
239.9057758803
 20
59.5690639213
 10
240.9463944117
 20
60.0851424415
 10
241.9755754243
 20
60.4824636346
 10
242.9842743034
 20
60.7575369691
 10
243.963627122
 20
60.9079450522
 10
244.9050263744
 20
60.9323645356
 10
245.8001997535
 20
60.8305826955
 10
246.6412802868
 20
60.6034922932
 10
247.420875812
 20
60.2530906175
 10
247.5130154083
 20
60.2011309494
  0
LWPOLYLINE
  5
2EA
330
1F
100
AcDbEntity
  8
0
  6
Continuous
 62
     7
370
    18
100
AcDbPolyline
 90
       10
 70
   128
 43
0.0
 10
231.7767940938
 20
32.9422425556
 10
231.5043562064
 20
33.1108053273
 10
230.829647065
 20
33.6400702006
 10
230.2324071238
 20
34.2829786035
 10
229.7178843241
 20
35.0338801847
 10
229.2906002324
 20
35.8861763635
 10
228.9543105281
 20
36.832377749
 10
228.7119701005
 20
37.8641682121
 10
228.5657086823
 20
38.972480744
 10
228.5168117526
 20
40.1475754055
  0
LWPOLYLINE
  5
2EB
330
1F
100
AcDbEntity
  8
0
  6
Continuous
 62
     7
370
    18
100
AcDbPolyline
 90
       13
 70
   128
 43
0.0
 10
233.1408931911
 20
36.8119387778
 10
233.1046791701
 20
36.993346416
 10
232.960298555
 20
38.0644197592
 10
232.9190954008
 20
39.2060627779
 10
232.9815030297
 20
40.4062614369
 10
233.1468642142
 20
41.6523854715
 10
233.4134397383
 20
42.9313223477
 10
233.7784242024
 20
44.2296130861
 10
234.2379763164
 20
45.533595761
 10
234.787260388
 20
46.829547893
 10
235.4204957134
 20
48.1038318831
 10
236.1310191394
 20
49.3430383539
 10
236.9113542102
 20
50.534127209
  0
LWPOLYLINE
  5
2EC
330
1F
100
AcDbEntity
  8
0
  6
Continuous
 62
     7
370
    18
100
AcDbPolyline
 90
       16
 70
   128
 43
0.0
 10
233.652688958
 20
33.8820110768
 10
233.183666974
 20
34.6288383911
 10
232.7931678615
 20
35.5011788212
 10
232.5003137773
 20
36.4696932454
 10
232.3080773914
 20
37.5245491698
 10
232.2184106298
 20
38.6550379531
 10
232.2322236008
 20
39.8496827941
 10
232.3493760346
 20
41.0963556536
 10
232.5686785998
 20
42.3824000692
 10
232.8879054158
 20
43.6947606228
 10
233.3038151267
 20
45.0201141187
 10
233.8121858037
 20
46.3450053225
 10
234.4078557748
 20
47.6559836511
 10
235.0847789429
 20
48.9397411908
 10
235.836082079
 20
50.1832434923
 10
236.6541392377
 20
51.373869108
  0
ARC
  5
2ED
330
1F
100
AcDbEntity
  8
0
  6
Continuous
 62
     7
370
    18
100
AcDbCircle
 10
249.7372678429
 20
43.5909970076
 30
0.0
 40
14.35349360837145
100
AcDbArc
 50
109.931969941
 51
139.4246766989
  0
LWPOLYLINE
  5
2EE
330
1F
100
AcDbEntity
  8
0
  6
Continuous
 62
     7
370
    18
100
AcDbPolyline
 90
       12
 70
   128
 43
0.0
 10
237.9983322992
 20
53.0460326253
 10
238.9106768971
 20
54.0167682027
 10
239.8560053553
 20
54.9023105903
 10
240.8254105299
 20
55.6943162545
 10
241.8097590261
 20
56.3853232261
 10
242.7997766438
 20
56.9688217198
 10
243.7861356763
 20
57.4393128956
 10
244.7595427436
 20
57.792364127
 10
245.7108269136
 20
58.024649986
 10
246.6310249841
 20
58.1339809429
 10
247.5114677104
 20
58.1193280493
 10
247.6372958095
 20
58.1066857143
  0
LINE
  5
2EF
330
1F
100
AcDbEntity
  8
0
  6
Continuous
 62
     7
370
    18
100
AcDbLine
 10
224.0304475391
 20
50.5201830043
 30
0.0
 11
224.3366114664
 21
50.1494479484
 31
0.0
  0
LINE
  5
2F0
330
1F
100
AcDbEntity
  8
0
  6
Continuous
 62
     7
370
    18
100
AcDbLine
 10
224.0304475391
 20
42.7560728566
 30
0.0
 11
224.3366114664
 21
43.4436063251
 31
0.0
  0
LINE
  5
2F1
330
1F
100
AcDbEntity
  8
0
  6
Continuous
 62
     7
370
    18
100
AcDbLine
 10
225.0725217831
 20
43.8684383082
 30
0.0
 11
224.3366187103
 21
43.443610507
 31
0.0
  0
LINE
  5
2F2
330
1F
100
AcDbEntity
  8
0
  6
Continuous
 62
     7
370
    18
100
AcDbLine
 10
225.0059462261
 20
44.6116642759
 30
0.0
 11
223.696674792
 21
43.8558379652
 31
0.0
  0
LINE
  5
2F3
330
1F
100
AcDbEntity
  8
0
  6
Continuous
 62
     7
370
    18
100
AcDbLine
 10
220.5195959604
 20
45.4302469249
 30
0.0
 11
220.2231086862
 21
44.9341853071
 31
0.0
  0
LINE
  5
2F4
330
1F
100
AcDbEntity
  8
0
  6
Continuous
 62
     7
370
    18
100
AcDbLine
 10
222.3514135712
 20
46.4877327225
 30
0.0
 11
220.5196565465
 21
45.4302819005
 31
0.0
  0
LINE
  5
2F5
330
1F
100
AcDbEntity
  8
0
  6
Continuous
 62
     7
370
    18
100
AcDbLine
 10
222.3514135712
 20
46.4877327225
 30
0.0
 11
222.4727237258
 21
46.4259822091
 31
0.0
  0
OLE2FRAME
  5
2F6
330
1F
100
AcDbEntity
  8
0
100
AcDbOle2Frame
 70
     2
  3
Paintbrush-Bild
 10
13.8511154363
 20
38.264191557
 30
0.0
 11
51.6290888628
 21
31.9806341108
 31
0.0
 71
     2
 72
     0
 73
     1
 90
    12928
310
80552BED0767C5B32B40DDAF6807D121434000000000000000006FFBDDFB85D0
310
4940DDAF6807D121434000000000000000006FFBDDFB85D04940416F4BD60AFB
310
3F4000000000000000002BED0767C5B32B40416F4BD60AFB3F40000000000000
310
0000000000000100000000010000010000000100000000000100000000320000
310
D0CF11E0A1B11AE1000000000000000000000000000000003E000300FEFF0900
310
0600000000000000000000000100000001000000000000000010000002000000
310
01000000FEFFFFFF0000000000000000FFFFFFFFFFFFFFFFFFFFFFFFFFFFFFFF
310
FFFFFFFFFFFFFFFFFFFFFFFFFFFFFFFFFFFFFFFFFFFFFFFFFFFFFFFFFFFFFFFF
310
FFFFFFFFFFFFFFFFFFFFFFFFFFFFFFFFFFFFFFFFFFFFFFFFFFFFFFFFFFFFFFFF
310
FFFFFFFFFFFFFFFFFFFFFFFFFFFFFFFFFFFFFFFFFFFFFFFFFFFFFFFFFFFFFFFF
310
FFFFFFFFFFFFFFFFFFFFFFFFFFFFFFFFFFFFFFFFFFFFFFFFFFFFFFFFFFFFFFFF
310
FFFFFFFFFFFFFFFFFFFFFFFFFFFFFFFFFFFFFFFFFFFFFFFFFFFFFFFFFFFFFFFF
310
FFFFFFFFFFFFFFFFFFFFFFFFFFFFFFFFFFFFFFFFFFFFFFFFFFFFFFFFFFFFFFFF
310
FFFFFFFFFFFFFFFFFFFFFFFFFFFFFFFFFFFFFFFFFFFFFFFFFFFFFFFFFFFFFFFF
310
FFFFFFFFFFFFFFFFFFFFFFFFFFFFFFFFFFFFFFFFFFFFFFFFFFFFFFFFFFFFFFFF
310
FFFFFFFFFFFFFFFFFFFFFFFFFFFFFFFFFFFFFFFFFFFFFFFFFFFFFFFFFFFFFFFF
310
FFFFFFFFFFFFFFFFFFFFFFFFFFFFFFFFFFFFFFFFFFFFFFFFFFFFFFFFFFFFFFFF
310
FFFFFFFFFFFFFFFFFFFFFFFFFFFFFFFFFFFFFFFFFFFFFFFFFFFFFFFFFFFFFFFF
310
FFFFFFFFFFFFFFFFFFFFFFFFFFFFFFFFFFFFFFFFFFFFFFFFFFFFFFFFFFFFFFFF
310
FFFFFFFFFFFFFFFFFFFFFFFFFFFFFFFFFFFFFFFFFFFFFFFFFFFFFFFFFFFFFFFF
310
FDFFFFFFFEFFFFFFFEFFFFFFFEFFFFFF05000000060000000700000008000000
310
090000000A0000000B0000000C0000000D0000000E0000000F00000010000000
310
11000000120000001300000014000000150000001600000017000000FEFFFFFF
310
FFFFFFFFFFFFFFFFFFFFFFFFFFFFFFFFFFFFFFFFFFFFFFFFFFFFFFFFFFFFFFFF
310
FFFFFFFFFFFFFFFFFFFFFFFFFFFFFFFFFFFFFFFFFFFFFFFFFFFFFFFFFFFFFFFF
310
FFFFFFFFFFFFFFFFFFFFFFFFFFFFFFFFFFFFFFFFFFFFFFFFFFFFFFFFFFFFFFFF
310
FFFFFFFFFFFFFFFFFFFFFFFFFFFFFFFFFFFFFFFFFFFFFFFFFFFFFFFFFFFFFFFF
310
FFFFFFFFFFFFFFFFFFFFFFFFFFFFFFFFFFFFFFFFFFFFFFFFFFFFFFFFFFFFFFFF
310
FFFFFFFFFFFFFFFFFFFFFFFFFFFFFFFFFFFFFFFFFFFFFFFFFFFFFFFFFFFFFFFF
310
FFFFFFFFFFFFFFFFFFFFFFFFFFFFFFFFFFFFFFFFFFFFFFFFFFFFFFFFFFFFFFFF
310
FFFFFFFFFFFFFFFFFFFFFFFFFFFFFFFFFFFFFFFFFFFFFFFFFFFFFFFFFFFFFFFF
310
FFFFFFFFFFFFFFFFFFFFFFFFFFFFFFFFFFFFFFFFFFFFFFFFFFFFFFFFFFFFFFFF
310
FFFFFFFFFFFFFFFFFFFFFFFFFFFFFFFFFFFFFFFFFFFFFFFFFFFFFFFFFFFFFFFF
310
FFFFFFFFFFFFFFFFFFFFFFFFFFFFFFFFFFFFFFFFFFFFFFFFFFFFFFFFFFFFFFFF
310
FFFFFFFFFFFFFFFFFFFFFFFFFFFFFFFFFFFFFFFFFFFFFFFFFFFFFFFFFFFFFFFF
310
FFFFFFFFFFFFFFFFFFFFFFFFFFFFFFFFFFFFFFFFFFFFFFFFFFFFFFFFFFFFFFFF
310
52006F006F007400200045006E00740072007900000000000000000000000000
310
0000000000000000000000000000000000000000000000000000000000000000
310
16000500FFFFFFFFFFFFFFFF020000000A00030000000000C000000000000046
310
000000000000000000000000B0067DEBA6A5D30103000000C000000000000000
310
01004F006C006500000000000000000000000000000000000000000000000000
310
0000000000000000000000000000000000000000000000000000000000000000
310
0A000200FFFFFFFFFFFFFFFFFFFFFFFF00000000000000000000000000000000
310
0000000000000000000000000000000000000000000000001400000000000000
310
010043006F006D0070004F0062006A0000000000000000000000000000000000
310
0000000000000000000000000000000000000000000000000000000000000000
310
120002010100000003000000FFFFFFFF00000000000000000000000000000000
310
0000000000000000000000000000000000000000010000004D00000000000000
310
01004F006C006500310030004E00610074006900760065000000000000000000
310
0000000000000000000000000000000000000000000000000000000000000000
310
1A000200FFFFFFFFFFFFFFFFFFFFFFFF00000000000000000000000000000000
310
0000000000000000000000000000000000000000040000002426000000000000
310
FEFFFFFF02000000FEFFFFFFFFFFFFFFFFFFFFFFFFFFFFFFFFFFFFFFFFFFFFFF
310
FFFFFFFFFFFFFFFFFFFFFFFFFFFFFFFFFFFFFFFFFFFFFFFFFFFFFFFFFFFFFFFF
310
FFFFFFFFFFFFFFFFFFFFFFFFFFFFFFFFFFFFFFFFFFFFFFFFFFFFFFFFFFFFFFFF
310
FFFFFFFFFFFFFFFFFFFFFFFFFFFFFFFFFFFFFFFFFFFFFFFFFFFFFFFFFFFFFFFF
310
FFFFFFFFFFFFFFFFFFFFFFFFFFFFFFFFFFFFFFFFFFFFFFFFFFFFFFFFFFFFFFFF
310
FFFFFFFFFFFFFFFFFFFFFFFFFFFFFFFFFFFFFFFFFFFFFFFFFFFFFFFFFFFFFFFF
310
FFFFFFFFFFFFFFFFFFFFFFFFFFFFFFFFFFFFFFFFFFFFFFFFFFFFFFFFFFFFFFFF
310
FFFFFFFFFFFFFFFFFFFFFFFFFFFFFFFFFFFFFFFFFFFFFFFFFFFFFFFFFFFFFFFF
310
FFFFFFFFFFFFFFFFFFFFFFFFFFFFFFFFFFFFFFFFFFFFFFFFFFFFFFFFFFFFFFFF
310
FFFFFFFFFFFFFFFFFFFFFFFFFFFFFFFFFFFFFFFFFFFFFFFFFFFFFFFFFFFFFFFF
310
FFFFFFFFFFFFFFFFFFFFFFFFFFFFFFFFFFFFFFFFFFFFFFFFFFFFFFFFFFFFFFFF
310
FFFFFFFFFFFFFFFFFFFFFFFFFFFFFFFFFFFFFFFFFFFFFFFFFFFFFFFFFFFFFFFF
310
FFFFFFFFFFFFFFFFFFFFFFFFFFFFFFFFFFFFFFFFFFFFFFFFFFFFFFFFFFFFFFFF
310
FFFFFFFFFFFFFFFFFFFFFFFFFFFFFFFFFFFFFFFFFFFFFFFFFFFFFFFFFFFFFFFF
310
FFFFFFFFFFFFFFFFFFFFFFFFFFFFFFFFFFFFFFFFFFFFFFFFFFFFFFFFFFFFFFFF
310
FFFFFFFFFFFFFFFFFFFFFFFFFFFFFFFFFFFFFFFFFFFFFFFFFFFFFFFFFFFFFFFF
310
0100000200000000000000000000000000000000000000000000000000000000
310
0000000000000000000000000000000000000000000000000000000000000000
310
0100FEFF030A0000FFFFFFFF0A00030000000000C00000000000004607000000
310
5042727573680007000000504272757368000700000050427275736800F439B2
310
7100000000000000000000000000000000000000000000000000000000000000
310
0000000000000000000000000000000000000000000000000000000000000000
310
0000000000000000000000000000000000000000000000000000000000000000
310
0000000000000000000000000000000000000000000000000000000000000000
310
0000000000000000000000000000000000000000000000000000000000000000
310
0000000000000000000000000000000000000000000000000000000000000000
310
0000000000000000000000000000000000000000000000000000000000000000
310
0000000000000000000000000000000000000000000000000000000000000000
310
0000000000000000000000000000000000000000000000000000000000000000
310
0000000000000000000000000000000000000000000000000000000000000000
310
0000000000000000000000000000000000000000000000000000000000000000
310
0000000000000000000000000000000000000000000000000000000000000000
310
20260000424D0E260000000000003E00000028000000B40200006E0000000100
310
01000000000000000000130B0000130B00000200000002000000000000FFFFFF
310
FFFFFFFFFFFFFFFFFFFFFFFFFFFFFFFFFFFFFFFFFFFFFFFFFFFFFFFFFFFFFFFF
310
FFFFFFFFFFFFFFFFFFFFFFFFFFFFFFFFFFFFFFFFFFFFFFFFFFFFFFFFFFFFFFFF
310
FFFFFFFFFFFFFFFFFFFFFFFFFFFFFFFFFFFFFFFFFFFFFFFFF000FFFFFFFFFFFF
310
FFFFFFFFFFFFFFFFFFFFFFFFFFFFFFFFFFFFFFFFFFFFFFFFFFFFFFFFFFFFFFFF
310
FFFFFFFFFFFFFFFFFFFFFFFFFFFFFFFFFFFFFFFFFFFFFFFFFFFFFFFFFFFFFFFF
310
FFFFFFFFFFFFFFFFFFFFFFFFFFFFFFFFF000FFFFFFFFFFFFFFFFFFFFFFFFFFFF
310
FFFFFFFFFFFFFFFFFFFFFFFFFFFFFFFFFFFFFFFFFFFFFFFFFFFFFFFFFFFFFFFF
310
FFFFFFFFFFFFFFFFFFFFFFFFFFFFFFFFFFFFFFFFFFFFFFFFFFFFFFFFFFFFFFFF
310
FFFFFFFFFFFFFFFFF000FFFFFFFFFFFFFFFFFFFFFFFFFFFFFFFFFFFFFFFFFFFF
310
FFFFFFFFFFFFFFFFFFFFFFFFFFFFFFFFFFFFFFFFFFFFFFFFFFFFFFFFFFFFFFFF
310
FFFFFFFFFFFFFFFFFFFFFFFFFFFFFFFFFFFFFFFFFFFFFFFFFFFFFFFFFFFFFFFF
310
F000FFFFFFFFFFFFFFFFFFFFFFFFFFFFFFFFFFFFFFFFFFFFFFFFFFFFFFFFFFFF
310
FFFFFFFFFFFFFFFFFFFFFFFFFFFFFFFFFFFFFFFFFFFFFFFFFFFFFFFFFFFFFFFF
310
FFFFFFFFFFFFFFFFFFFFFFFFFFFFFFFFFFFFFFFFFFFFFFFFF000FFFFFFFFFFFF
310
FFFFFFFFFFFFFFFFFFFFFFFFFFFFFFFFFFFFFFFFFFFFFFFFFFFFFFFFFFFFFFFF
310
FFFFFFFFFFFFFFFFFFFFFFFFFFFFFFFFFFFFFFFFFFFFFFFFFFFFFFFFFFFFFFFF
310
FFFFFFFFFFFFFFFFFFFFFFFFFFFFFFFFF000FFFFFFFFFFFFFFFFFFFFFFFFFFFF
310
FFFFFFFFFFFFFFFFFFFFFFFFFFFFFFFFFFFFFFFFFFFFFFFFFFFFFFFFFFFFFFFF
310
FFFFFFFFFFFFFFFFFFFFFFFFFFFFFFFFFFFFFFFFFFFFFFFFFFFFFFFFFFFFFFFF
310
FFFFFFFFFFFFFFFFF000FFFFFFFFFFFFFFFFFFFFFFFFFFFFFFFFFFFFFFFFFFFF
310
FFFFFFFFFFFFFFFFFFFFFFFFFFFFFFFFFFFFFFFFFFFFFFFFFFFFFFFFFFFFFFFF
310
FFFFFFFFFFFFFFFFFFFFFFFFFFFFFFFFFFFFFFFFFFFFFFFFFFFFFFFFFFFFFFFF
310
F000FFFFFFFFFFFFFFFFFFFFFFFFFFFFFFFFFFFFFFFFFFFFFFFFFFFFFFFFFFFF
310
FFFFFFFFFFFFFFFFFFFFFFFFFFFFFFFFFFFFFFFFFFFFFFFFFFFFFFFFFFFFFFFF
310
FFFFFFFFFFFFFFFFFFFFFFFFFFFFFFFFFFFFFFFFFFFFFFFFF000FFFFFFFFFFFF
310
FFFFFFFFFFFFFFFFFFFFFFFFFFFFFFFFFFFFFFFFFFFFFFFFFFFFFFFFFFFFFFFF
310
FFFFFFFFFFFFFFFFFFFFFFFFFFFFFFFFFFFFFFFFFFFFFFFFFFFFFFFFFFFFFFFF
310
FFFFFFFFFFFFFFFFFFFFFFFFFFFFFFFFF000FFFFFFFFFFFFFFFFFFFFFFFFFFFF
310
FFFFFFFFFFFFFFFFFFFFFFFFFFFFFFFFFFFFFFFFFFFFFFFFFFFFFFFFFFFFFFFF
310
FFFFFFFFFFFFFFFFFFFFFFFFFFFFFFFFFFFFFFFFFFFFFFFFFFFFFFFFFFFFFFFF
310
FFFFFFFFFFFFFFFFF000FFFFFFFFFFFFFFFFFFFFFFFFFFFFFFFFFFFFFFFFFFFF
310
FFFFFFFFFFFFFFFFFFFFFFFFFFFFFFFFFFFFFFFFFFFFFFFFFFFFFFFFFFFFFFFF
310
FFFFFFFFFFFFFFFFFFFFFFFFFFFFFFFFFFFFFFFFFFFFFFFFFFFFFFFFFFFFFFFF
310
F000FFFFFFFFFFFFFFFFFFFFFFFFFFFFFFFFFFFFFFFFFFFFFFFFFFFFFFFFFFFF
310
FFFFFFFFFFFFFFFFFFFFFFFFFFFFFFFFFFFFFFFFFFFFFFFFFFFFFFFFFFFFFFFF
310
FFFFFFFFFFFFFFFFFFFFFFFFFFFFFFFFFFFFFFFFFFFFFFFFF000FFFFFFFFFFFF
310
FFFFFFFFFFFFFFFFFFFFFFFFFFFFFFFFFFFFFFFFFFFFFFFFFFFFFFFFFFFFFFFF
310
FFFFFFFFFFFFFFFFFFFFFFFFFFFFFFFFFFFFFFFFFFFFFFFFFFFFFFFFFFFFFFFF
310
FFFFFFFFFFFFFFFFFFFFFFFFFFFFFFFFF000FFFFFFFFFFFFFFFFFFFFFFFFFFFF
310
FFFFFFFFFFFFFFFFFFFFFFFFFFFFFFFFFFFFFFFFFFFFFFFFFFFFFFFFFFFFFFFF
310
FFFFFFFFFFFFFFFFFFFFFFFFFFFFFFFFFFFFFFFFFFFFFFFFFFFFFFFFFFFFFFFF
310
FFFFFFFFFFFFFFFFF000FFFFFFFFFFFFFFFFFFFFFFFFFFFFFFFFFFFFFFFFFFFF
310
FFFFFFFFFFFFFFFFFFFFFFFFFFFFFFFFFFFFFFFFFFFFFFFFFFFFFFFFFFFFFFFF
310
FFFFFFFFFFFFFFFFFFFFFFFFFFFFFFFFFFFFFFFFFFFFFFFFFFFFFFFFFFFFFFFF
310
F000FFFFFFFFFFFFFFFFFFFFFFFFFFFFFFFFFFFFFFFFFFFFFFFFFFFFFFFFFFFF
310
FFFFFFFFFFFFFFFFFFFFFFFFFFFFFFFFFFFFFFFFFFFFFFFFFFFFFFFFFFFFFFFF
310
FFFFFFFFFFFFFFFFFFFFFFFFFFFFFFFFFFFFFFFFFFFFFFFFF000FFFFFFFFFFFF
310
FFFFFFFFFFFFFFFFFFFFFFFFFFFFFFFFFFFFFFFFFFFFFFFFFFFFFFFFFFFFFFFF
310
FFFFFFFFFFFFFFFFFFFFFFFFFFFFFFFFFFFFFFFFFFFFFFFFFFFFFFFFFFFFFFFF
310
FFFFFFFFFFFFFFFFFFFFFFFFFFFFFFFFF000FFFFFFFFFFFFFFFFFFFFFFFFFFFF
310
FFFFFFFFFFFFFFFFFFFFFFFFFFFFFFFFFFFFFFFFFFFFFFFFFFFFFFFFFFFFFFFF
310
FFFFFFFFFFFFFFFFFFFFFFFFFFFFFFFFFFFFFFFFFFFFFFFFFFFFFFFFFFFFFFFF
310
FFFFFFFFFFFFFFFFF000FFFFF80003FFFFFFFFFFFFFFFFFFFFFFFFFFFFFFFFFF
310
FFFFF00007FFFFFFFFFF00007FFFFFF800000000000000007FFFFFFFFFFFFFFF
310
FFFFFFFC001FFFFFFFFFFFFFFC001FFFFFFFFFFFFFFFFFFFFFFFFFFE0007FFFF
310
F000FFFF8000007FFFFFFFF8000FFFFFC0007FFFFF80007FFFFF0000007FFFFF
310
FFF8000007FFFFF800000000000000007FFFFFF0001FFFFFFFFFFFC00001FFFF
310
FFFFFFFFC00001FFFFFFFF000000000003FFFFE000007FFFF000FFFE0000000F
310
FFFFFFF0000FFFFF80007FFFFF80007FFFFC0000001FFFFFFFC0000001FFFFF8
310
00000000000000007FFFFFF0001FFFFFFFFFFE0000003FFFFFFFFFFE0000003F
310
FFFFFF000000000003FFFF0000000FFFF000FFF800000003FFFFFFF00007FFFF
310
80007FFFFF80007FFFF000000007FFFFFF000000003FFFF80000000000000000
310
7FFFFFF0001FFFFFFFFFF80000000FFFFFFFFFF80000000FFFFFFF0000000000
310
03FFFC00000003FFF000FFE000000000FFFFFFF00007FFFF80003FFFFF80007F
310
FFC000000001FFFFFC000000001FFFF800000000000000007FFFFFF0001FFFFF
310
FFFFE000000003FFFFFFFFE000000003FFFFFF000000000003FFF000000000FF
310
F000FF80000000007FFFFFF00007FFFF80003FFFFF80007FFF8000000000FFFF
310
F80000000007FFF800000000000000007FFFFFF0001FFFFFFFFFC000000001FF
310
FFFFFFC000000001FFFFFF000000000003FFC0000000007FF000FF0000000000
310
3FFFFFE00007FFFF00003FFFFF80007FFE00000000003FFFF00000000003FFF8
310
00000000000000007FFFFFF0001FFFFFFFFF8000000000FFFFFFFF8000000000
310
FFFFFF000000000003FF80000000003FF000FE00000000001FFFFFE00003FFFF
310
00003FFFFF80007FFC00000000001FFFE00000000001FFF8000001FFFE000000
310
7FFFFFF0001FFFFFFFFE00000000003FFFFFFE00000000003FFFFF0000000000
310
03FF00000000001FF000FC00000000000FFFFFE00003FFFF00001FFFFF80007F
310
F800000000001FFFC00000000000FFF8000001FFFE0000007FFFFFF0001FFFFF
310
FFFC00000000001FFFFFFC00000000001FFFFF000000000003FE00000000000F
310
F000F8000000000007FFFFE00003FFFF00001FFFFF80007FF800000000000FFF
310
800000000000FFF8000001FFFE0000007FFFFFF0001FFFFFFFF800000000000F
310
FFFFF800000000000FFFFF000000000003FC000000000007F000F80000000000
310
03FFFFC00003FFFE00001FFFFF80007FF0000000000007FF0000000000007FF8
310
000001FFFE0000007FFFFFF0001FFFFFFFF0000000000007FFFFF00000000000
310
07FFFF000000000003F8000000000003F000F0000000000003FFFFC00001FFFE
310
00001FFFFF80007FE0000000000007FE0000000000003FF8000001FFFE000000
310
7FFFFFF0001FFFFFFFF0000000000007FFFFF0000000000007FFFF0000000000
310
03F800001F800003F000E00001FFF00001FFFFC00001FFFE00000FFFFF80007F
310
E00001FFE00003FE00001FFF00003FF8000001FFFE0000007FFFFFF0001FFFFF
310
FFE000003E000003FFFFE000003E000003FFFF000000000003F00001FFF80001
310
F000E00007FFFC0001FFFFC00001FFFE00000FFFFF80007FC0000FFFFC0003FC
310
0000FFFFC0001FF8000001FFFE0000007FFFFFF0001FFFFFFFC00003FFE00001
310
FFFFC00003FFE00001FFFF0001FFFFFFFFF00007FFFE0001F000E0000FFFFF00
310
00FFFF800001FFFC00000FFFFF80007FC0001FFFFE0001FC0001FFFFE0001FF8
310
000001FFFE0000007FFFFFF0001FFFFFFF80000FFFF80000FFFF80000FFFF800
310
00FFFF0003FFFFFFFFE0000FFFFF8000F000C0003FFFFF8000FFFF800000FFFC
310
000007FFFF80007F80003FFFFF0001FC0003FFFFF0001FF8000001FFFE000000
310
7FFFFFF0001FFFFFFF80003FFFFE0000FFFF80003FFFFE0000FFFF0003FFFFFF
310
FFE0003FFFFF8000F000C0003FFFFF8000FFFF800000FFFC000007FFFF80007F
310
80007FFFFF8001F80007FFFFF8000FF8000001FFFE0000007FFFFFF0001FFFFF
310
FF00007FFFFF00007FFF00007FFFFF00007FFF0003FFFFFFFFE0003FFFFFC000
310
F000C0007FFFFFC000FFFF000000FFFC000007FFFF80007F8000FFFFFF8000F8
310
000FFFFFF8000FF8000001FFFE0000007FFFFFF0001FFFFFFF0000FFFFFF8000
310
7FFF0000FFFFFF80007FFF0003FFFFFFFFC0007FFFFFC00070008000FFFFFFC0
310
00FFFF000000FFF8000007FFFF80007F8000FFFFFF8000F8000FFFFFF8000FF8
310
000001FFFE0000007FFFFFF0001FFFFFFE0001FFFFFFC0003FFE0001FFFFFFC0
310
003FFF0003FFFFFFFFC0007FFFFFE00070008000FFFFFFC0007FFF0000007FF8
310
000003FFFF80007F0001FFFFFF8000F8000FFFFFF8000FF8000001FFFE000000
310
7FFFFFF0001FFFFFFE0001FFFFFFC0003FFE0001FFFFFFC0003FFF0003FFFFFF
310
FFC000FFFFFFE00070008000FFFFFFC0007FFF0000007FF8000003FFFF80007F
310
0001FFFFFF8000F8001FFFFFF8000FF8000001FFFE0000007FFFFFF0001FFFFF
310
FE0003FFFFFFE0003FFE0003FFFFFFE0003FFF0003FFFFFFFFC000FFFFFFE000
310
70008000FFFFFFC0007FFE0000007FF8000003FFFF80007F0001FFFFFF8000F0
310
001FFFFFF8000FF8000001FFFE0000007FFFFFF0001FFFFFFC0003FFFFFFE000
310
1FFC0003FFFFFFE0001FFF0003FFFFFFFFC000FFFFFFC00070008000FFFFFF80
310
007FFE0000007FF0000003FFFF80007F0001FFFFFF0000F0001FFFFFF8000FF8
310
000001FFFE0000007FFFFFF0001FFFFFFC0007FFFFFFF0001FFC0007FFFFFFF0
310
001FFF0003FFFFFFFFC000FFFFFFC00070008001FFFFFF0000FFFE0000003FF0
310
000001FFFF80007F0001FFFFFF0000F8001FFFFFF0000FF8000001FFFE000000
310
7FFFFFF0001FFFFFFC0007FFFFFFF0001FFC0007FFFFFFF0001FFF0003FFFFFF
310
FFC001FFFFFF80007000FFFFFFFFFE0000FFFE0008003FF0008001FFFF80007F
310
FFFFFFFFFC0000FFFFFFFFFFE0000FF8000001FFFE0000007FFFFFF0001FFFFF
310
F8000FFFFFFFF8000FF8000FFFFFFFF8000FFF0003FFFFFFFFFFFFFFFFFF0000
310
7000FFFFFFFFFC0000FFFC0008003FF0008001FFFF80007FFFFFFFFFF80001FF
310
FFFFFFFF80000FF8000001FFFE0000007FFFFFF0001FFFFFF8000FFFFFFFF800
310
0FF8000FFFFFFFF8000FFF0003FFFFFFFFFFFFFFFFFE0000F000FFFFFFFFE000
310
00FFFC000C003FE000C001FFFF80007FFFFFFFFFC00001FFFFFFFFFE00001FF8
310
000001FFFE0000007FFFFFF0001FFFFFF8000FFFFFFFF8000FF8000FFFFFFFF8
310
000FFF0003FFFFFFFFFFFFFFFFF00000F000FFFFFFFE000001FFFC000C001FE0
310
00C000FFFF80007FFFFFFFFE000001FFFFFFFFE000001FF80FFFFFFFFFFFFFC0
310
7FFFFFF0001FFFFFF8000FFFFFFFF8000FF8000FFFFFFFF8000FFF0003FFFFFF
310
FFFFFFFFFF800000F000FFFFFFC0000001FFFC001C001FE001C000FFFF80007F
310
FFFFFF80000003FFFFFFF80000001FF80FFFFFFFFFFFFFC07FFFFFF0001FFFFF
310
F8001FFFFFFFFC000FF8001FFFFFFFFC000FFF0003FFFFFFFFFFFFFFF0000001
310
F000FFFFF800000001FFF8001C001FE001C000FFFF80007FFFFFF800000003FF
310
FFFF800000003FF80FFFFFFFFFFFFFC07FFFFFF0001FFFFFF8001FFFFFFFFC00
310
0FF8001FFFFFFFFC000FFF0003FFFFFFFFFFFFFE00000001F000FFFFC0000000
310
03FFF8001E001FC001E000FFFF80007FFFFF8000000007FFFFFC000000003FF8
310
0FFFFFFFFFFFFFC07FFFFFF0001FFFFFF8001FFFFFFFFC000FF8001FFFFFFFFC
310
000FFF0003FFFFFFFFFFFFE000000003F000FFFE0000000007FFF8001E000FC0
310
01E0007FFF80007FFFFE0000000007FFFFE0000000007FF80FFFFFFFFFFFFFC0
310
7FFFFFF0001FFFFFF0001FFFFFFFFC0007F0001FFFFFFFFC0007FF0003FFFFFF
310
FFFFFF0000000003F000FFF80000000007FFF8001E000FC003E0007FFF80007F
310
FFF0000000000FFFFF8000000000FFF80FFFFFFFFFFFFFC07FFFFFF0001FFFFF
310
F0001FFFFFFFFC0007F0001FFFFFFFFC0007FF0003FFFFFFFFFFFC0000000007
310
F000FFE0000000000FFFF0003E000FC003E0007FFF80007FFFC0000000001FFF
310
FE0000000001FFF80FFFFFFFFFFFFFC07FFFFFF0001FFFFFF0001FFFFFFFFC00
310
07F0001FFFFFFFFC0007FF0003FFFFFFFFFFF0000000000FF000FFC000000000
310
1FFFF0003F000F8003F0003FFF80007FFF80000000003FFFF80000000003FFF8
310
0FFFFFFFFFFFFFC07FFFFFF0001FFFFFF0001FFFFFFFFC0007F0001FFFFFFFFC
310
0007FF0003FFFFFFFFFFE0000000001FF000FF00000000007FFFF0003F000780
310
03F0003FFF80007FFF00000000007FFFF00000000007FFF80FFFFFFFFFFFFFC0
310
7FFFFFF0001FFFFFF0001FFFFFFFFC0007F0001FFFFFFFFC0007FF0003FFFFFF
310
FFFF80000000007FF000FE0000000000FFFFE0003F00078007F0003FFF80007F
310
FE0000000001FFFFE0000000001FFFF80FFFFFFFFFFFFFC07FFFFFF0001FFFFF
310
F0001FFFFFFFFC0007F0001FFFFFFFFC0007FF0003FFFFFFFFFF0000000000FF
310
F000FC0000000003FFFFE0007F00078007F0003FFF80007FFC0000000007FFFF
310
C0000000007FFFF80FFFFFFFFFFFFFC07FFFFFF0001FFFFFF8001FFFFFFFFC00
310
0FF8001FFFFFFFFC000FFF0003FFFFFFFFFE0000000003FFF000FC000000000F
310
FFFFE0007F80070007F8001FFF80007FF8000000001FFFFF8000000001FFFFF8
310
0FFFFFFFFFFFFFC07FFFFFF0001FFFFFF8001FFFFFFFFC000FF8001FFFFFFFFC
310
000FFF0003FFFFFFFFFC000000000FFFF000F8000000007FFFFFE0007F800700
310
07F8001FFF80007FF000000000FFFFFF800000000FFFFFF80FFFFFFFFFFFFFC0
310
7FFFFFF0001FFFFFF8000FFFFFFFF8000FF8000FFFFFFFF8000FFF0003FFFFFF
310
FFFC000000007FFFF000F800000007FFFFFFC0007F8003000FF8001FFF80007F
310
F000000007FFFFFF000000007FFFFFF80FFFFFFFFFFFFFC07FFFFFF0001FFFFF
310
F8000FFFFFFFF8000FF8000FFFFFFFF8000FFF0003FFFFFFFFF80000000FFFFF
310
F000F0000000FFFFFFFFC000FF8003000FF8001FFF80007FE0000000FFFFFFFF
310
0000000FFFFFFFF8000001FFFE0000007FFFFFF0001FFFFFF8000FFFFFFFF800
310
0FF8000FFFFFFFF8000FFF0003FFFFFFFFF8000000FFFFFFF000F000000FFFFF
310
FFFFC000FFC002000FF8000FFF80007FE000001FFFFFFFFE000001FFFFFFFFF8
310
000001FFFE0000007FFFFFF0001FFFFFF8000FFFFFFFF8000FF8000FFFFFFFF8
310
000FFF0003FFFFFFFFF000001FFFFFFFF000E00000FFFFFFFFFFC000FFC00200
310
0FFC000FFF80007FE00001FFFFFFFFFE00001FFFFFFFFFF8000001FFFE000000
310
7FFFFFF0001FFFFFFC000FFFFFFFF8001FFC000FFFFFFFF8001FFF0003FFFFFF
310
FFF00001FFFFFFFFF000E00007FFFFFFFFFF8000FFC000001FFC000FFF80007F
310
C0000FFFFFFFFFFE0000FFFFFFFFFFF8000001FFFE0000007FFFFFF0001FFFFF
310
FC0007FFFFFFF0001FFC0007FFFFFFF0001FFF0003FFFFFFFFF00007FFFFFFFF
310
F000E0001FFFFFFFFFFF8000FFC000001FFC000FFF80007FC0003FFFFFFFFFFE
310
0001FFFFFFFFFFF8000001FFFE0000007FFFFFF0001FFFFFFC0007FFFFFFF000
310
1FFC0007FFFFFFF0001FFF0003FFFFFFFFF0001FFFFFFFFFF000E0003FFFFF00
310
03FF8001FFE000001FFC0007FF80007FC0007FFFFF0007FC0003FFFFF0003FF8
310
000001FFFE0000007FFFFFF0001FFFFFFC0003FFFFFFE0001FFC0003FFFFFFE0
310
001FFF0003FFFFFFFFF0003FFFFFFFFFF000E0003FFFFF0001FF8001FFE00000
310
1FFE0007FF80007FC0007FFFFE0003FC0007FFFFE0003FF8000001FFFE000000
310
7FFFFFF0001FFFFFFE0003FFFFFFE0003FFE0003FFFFFFE0003FFF0003FFFFFF
310
FFF0003FFFFF8001F000E0003FFFFF0001FF0001FFE000001FFE0007FF80007F
310
C0007FFFFE0003FC0007FFFFE0003FF8000001FFFE0000007FFFFFF0001FFFFF
310
FE0001FFFFFFC0003FFE0001FFFFFFC0003FFF0003FFFFFFFFF0003FFFFF0001
310
F000E0003FFFFF0003FF0001FFE000003FFE0007FF80007FC0007FFFFE0003FC
310
0007FFFFE0003FF8000001FFFE0000007FFFFFF0001FFFFFFF0001FFFFFFC000
310
7FFF0001FFFFFFC0007FFF0003FFFFFFFFF0003FFFFF0001F000E0003FFFFE00
310
03FF0003FFF000003FFE0003FF80007FC0007FFFFC0003FE0007FFFFE0003FF8
310
000001FFFE0000007FFFFFF0001FFFFFFF0000FFFFFF80007FFF0000FFFFFF80
310
007FFF0003FFFFFFFFF0003FFFFF0001F000E0003FFFFE0003FF0003FFF00000
310
3FFF0003FF80007FC0007FFFFC0007FE0007FFFFC0003FF8000001FFFE000000
310
7FFFFFF0001FFFFFFF80007FFFFF0000FFFF80007FFFFF0000FFFF0003FFFFFF
310
FFF0003FFFFF0003F000E0003FFFFC0003FE0003FFF000003FFF0003FF80007F
310
E0003FFFF80007FE0003FFFFC0007FF8000001FFFE0000007FFFFFF0001FFFFF
310
FF80003FFFFE0000FFFF80003FFFFE0000FFFF0003FFFFFFFFF0001FFFFE0003
310
F000F0001FFFF80003FE0003FFF000007FFF0001FF80007FE0003FFFF00007FE
310
0001FFFF80007FF8000001FFFE0000007FFFFFF0001FFFFFFFC0000FFFF80001
310
FFFFC0000FFFF80001FFFF0003FFFFFFFFF0001FFFFC0003F000F0000FFFF000
310
07FE0007FFF800007FFF0001FF80007FE0001FFFE00007FF0000FFFE00007FF8
310
000001FFFE0000007FFFFFF0001FFFFFFFC00003FFE00001FFFFC00003FFE000
310
01FFFF0003FFFFFFFFF8000FFFF80003F000F00003FFC00007FC0007FFF80000
310
7FFF8001FF80007FF00007FF80000FFF00007FF80000FFF8000001FFFE000000
310
7F80000000000001FFE000003E000003FFFFE000003E000003FFFF0003FFFFFF
310
FFF80003FFE00007F000F800000000000FFC0007FFF800007FFF8001FF80007F
310
F000000000000FFF000000000000FFF8000001FFFE0000007F80000000000001
310
FFF0000000000007FFFFF0000000000007FFFF0003FFFFFFFFFC00007E000007
310
F000F800000000000FFC0007FFF80000FFFF8000FF80007FF800000000001FFF
310
800000000001FFF8000001FFFE0000007F80000000000001FFF800000000000F
310
FFFFF800000000000FFFFF0003FFFFFFFFFC00000000000FF000FC0000000000
310
1FFC0007FFFC0000FFFF8000FF80007FF800000000003FFFC00000000001FFF8
310
000001FFFE0000007F80000000000001FFF800000000000FFFFFF80000000000
310
0FFFFF0003FFFFFFFFFE00000000001FF000FE00000000003FF8000FFFFC0000
310
FFFF8000FF80007FFC00000000003FFFC00000000003FFF8000001FFFE000000
310
7F80000000000001FFFC00000000001FFFFFFC00000000001FFFFF0003FFFFFF
310
FFFF00000000001FF000FF00000000003FF8000FFFFC0000FFFFC000FF80007F
310
FE00000000007FFFE00000000007FFF8000001FFFE0000007F80000000000001
310
FFFE00000000003FFFFFFE00000000003FFFFF0003FFFFFFFFFF80000000003F
310
F000FF80000000007FF8000FFFFC0001FFFFC0007F80007FFF0000000000FFFF
310
F0000000000FFFF800000000000000007F80000000000001FFFF8000000000FF
310
FFFFFF8000000000FFFFFF0003FFFFFFFFFFC0000000007FF000FFC000000000
310
FFF8000FFFFE0001FFFFC0007F80007FFF8000000001FFFFF8000000001FFFF8
310
00000000000000007F80000000000001FFFFC000000001FFFFFFFFC000000001
310
FFFFFF0003FFFFFFFFFFE000000000FFF000FFE000000003FFF0001FFFFE0001
310
FFFFC0007F80007FFFC000000007FFFFFE000000003FFFF80000000000000000
310
7F80000000000001FFFFE000000003FFFFFFFFE000000003FFFFFF0003FFFFFF
310
FFFFF000000003FFF000FFF80000000FFFF0001FFFFE0001FFFFE0007F80007F
310
FFF00000000FFFFFFF00000000FFFFF800000000000000007F80000000000001
310
FFFFF80000000FFFFFFFFFF80000000FFFFFFF0003FFFFFFFFFFFC0000000FFF
310
F000FFFE0000003FFFF0001FFFFE0003FFFFE0003F80007FFFFC0000003FFFFF
310
FFC0000003FFFFF800000000000000007F80000000000001FFFFFE0000003FFF
310
FFFFFFFE0000003FFFFFFF0003FFFFFFFFFFFF0000003FFFF000FFFF800000FF
310
FFF0001FFFFF0003FFFFE0003F80007FFFFF000001FFFFFFFFF800001FFFFFF8
310
00000000000000007F80000000000001FFFFFFC00001FFFFFFFFFFFFC00001FF
310
FFFFFF0003FFFFFFFFFFFFC00000FFFFF000FFFFF8000FFFFFFFFFFFFFFFFFFF
310
FFFFFFFFFFFFFFFFFFFFF0001FFFFFFFFFFF0000FFFFFFF80000000000000000
310
7FFFFFFFFFFFFFFFFFFFFFFC001FFFFFFFFFFFFFFC001FFFFFFFFFFFFFFFFFFF
310
FFFFFFFC001FFFFFF000FFFFFFFFFFFFFFFFFFFFFFFFFFFFFFFFFFFFFFFFFFFF
310
FFFFFFFFFFFFFFFFFFFFFFFFFFFFFFFFFFFFFFFFFFFFFFFFFFFFFFFFFFFFFFFF
310
FFFFFFFFFFFFFFFFFFFFFFFFFFFFFFFFFFFFFFFFFFFFFFFFFFFFFFFFFFFFFFFF
310
F000FFFFFFFFFFFFFFFFFFFFFFFFFFFFFFFFFFFFFFFFFFFFFFFFFFFFFFFFFFFF
310
FFFFFFFFFFFFFFFFFFFFFFFFFFFFFFFFFFFFFFFFFFFFFFFFFFFFFFFFFFFFFFFF
310
FFFFFFFFFFFFFFFFFFFFFFFFFFFFFFFFFFFFFFFFFFFFFFFFF000FFFFFFFFFFFF
310
FFFFFFFFFFFFFFFFFFFFFFFFFFFFFFFFFFFFFFFFFFFFFFFFFFFFFFFFFFFFFFFF
310
FFFFFFFFFFFFFFFFFFFFFFFFFFFFFFFFFFFFFFFFFFFFFFFFFFFFFFFFFFFFFFFF
310
FFFFFFFFFFFFFFFFFFFFFFFFFFFFFFFFF000FFFFFFFFFFFFFFFFFFFFFFFFFFFF
310
FFFFFFFFFFFFFFFFFFFFFFFFFFFFFFFFFFFFFFFFFFFFFFFFFFFFFFFFFFFFFFFF
310
FFFFFFFFFFFFFFFFFFFFFFFFFFFFFFFFFFFFFFFFFFFFFFFFFFFFFFFFFFFFFFFF
310
FFFFFFFFFFFFFFFFF000FFFFFFFFFFFFFFFFFFFFFFFFFFFFFFFFFFFFFFFFFFFF
310
FFFFFFFFFFFFFFFFFFFFFFFFFFFFFFFFFFFFFFFFFFFFFFFFFFFFFFFFFFFFFFFF
310
FFFFFFFFFFFFFFFFFFFFFFFFFFFFFFFFFFFFFFFFFFFFFFFFFFFFFFFFFFFFFFFF
310
F000FFFFFFFFFFFFFFFFFFFFFFFFFFFFFFFFFFFFFFFFFFFFFFFFFFFFFFFFFFFF
310
FFFFFFFFFFFFFFFFFFFFFFFFFFFFFFFFFFFFFFFFFFFFFFFFFFFFFFFFFFFFFFFF
310
FFFFFFFFFFFFFFFFFFFFFFFFFFFFFFFFFFFFFFFFFFFFFFFFF000FFFFFFFFFFFF
310
FFFFFFFFFFFFFFFFFFFFFFFFFFFFFFFFFFFFFFFFFFFFFFFFFFFFFFFFFFFFFFFF
310
FFFFFFFFFFFFFFFFFFFFFFFFFFFFFFFFFFFFFFFFFFFFFFFFFFFFFFFFFFFFFFFF
310
FFFFFFFFFFFFFFFFFFFFFFFFFFFFFFFFF000FFFFFFFFFFFFFFFFFFFFFFFFFFFF
310
FFFFFFFFFFFFFFFFFFFFFFFFFFFFFFFFFFFFFFFFFFFFFFFFFFFFFFFFFFFFFFFF
310
FFFFFFFFFFFFFFFFFFFFFFFFFFFFFFFFFFFFFFFFFFFFFFFFFFFFFFFFFFFFFFFF
310
FFFFFFFFFFFFFFFFF000FFFFFFFFFFFFFFFFFFFFFFFFFFFFFFFFFFFFFFFFFFFF
310
FFFFFFFFFFFFFFFFFFFFFFFFFFFFFFFFFFFFFFFFFFFFFFFFFFFFFFFFFFFFFFFF
310
FFFFFFFFFFFFFFFFFFFFFFFFFFFFFFFFFFFFFFFFFFFFFFFFFFFFFFFFFFFFFFFF
310
F000FFFFFFFFFFFFFFFFFFFFFFFFFFFFFFFFFFFFFFFFFFFFFFFFFFFFFFFFFFFF
310
FFFFFFFFFFFFFFFFFFFFFFFFFFFFFFFFFFFFFFFFFFFFFFFFFFFFFFFFFFFFFFFF
310
FFFFFFFFFFFFFFFFFFFFFFFFFFFFFFFFFFFFFFFFFFFFFFFFF000FFFFFFFFFFFF
310
FFFFFFFFFFFFFFFFFFFFFFFFFFFFFFFFFFFFFFFFFFFFFFFFFFFFFFFFFFFFFFFF
310
FFFFFFFFFFFFFFFFFFFFFFFFFFFFFFFFFFFFFFFFFFFFFFFFFFFFFFFFFFFFFFFF
310
FFFFFFFFFFFFFFFFFFFFFFFFFFFFFFFFF000FFFFFFFFFFFFFFFFFFFFFFFFFFFF
310
FFFFFFFFFFFFFFFFFFFFFFFFFFFFFFFFFFFFFFFFFFFFFFFFFFFFFFFFFFFFFFFF
310
FFFFFFFFFFFFFFFFFFFFFFFFFFFFFFFFFFFFFFFFFFFFFFFFFFFFFFFFFFFFFFFF
310
FFFFFFFFFFFFFFFFF000FFFFFFFFFFFFFFFFFFFFFFFFFFFFFFFFFFFFFFFFFFFF
310
FFFFFFFFFFFFFFFFFFFFFFFFFFFFFFFFFFFFFFFFFFFFFFFFFFFFFFFFFFFFFFFF
310
FFFFFFFFFFFFFFFFFFFFFFFFFFFFFFFFFFFFFFFFFFFFFFFFFFFFFFFFFFFFFFFF
310
F000FFFFFFFFFFFFFFFFFFFFFFFFFFFFFFFFFFFFFFFFFFFFFFFFFFFFFFFFFFFF
310
FFFFFFFFFFFFFFFFFFFFFFFFFFFFFFFFFFFFFFFFFFFFFFFFFFFFFFFFFFFFFFFF
310
FFFFFFFFFFFFFFFFFFFFFFFFFFFFFFFFFFFFFFFFFFFFFFFFF000FFFFFFFFFFFF
310
FFFFFFFFFFFFFFFFFFFFFFFFFFFFFFFFFFFFFFFFFFFFFFFFFFFFFFFFFFFFFFFF
310
FFFFFFFFFFFFFFFFFFFFFFFFFFFFFFFFFFFFFFFFFFFFFFFFFFFFFFFFFFFFFFFF
310
FFFFFFFFFFFFFFFFFFFFFFFFFFFFFFFFF000FFFFFFFFFFFFFFFFFFFFFFFFFFFF
310
FFFFFFFFFFFFFFFFFFFFFFFFFFFFFFFFFFFFFFFFFFFFFFFFFFFFFFFFFFFFFFFF
310
FFFFFFFFFFFFFFFFFFFFFFFFFFFFFFFFFFFFFFFFFFFFFFFFFFFFFFFFFFFFFFFF
310
FFFFFFFFFFFFFFFFF000FFFFFFFFFFFFFFFFFFFFFFFFFFFFFFFFFFFFFFFFFFFF
310
FFFFFFFFFFFFFFFFFFFFFFFFFFFFFFFFFFFFFFFFFFFFFFFFFFFFFFFFFFFFFFFF
310
FFFFFFFFFFFFFFFFFFFFFFFFFFFFFFFFFFFFFFFFFFFFFFFFFFFFFFFFFFFFFFFF
310
F000FFFFFFFFFFFFFFFFFFFFFFFFFFFFFFFFFFFFFFFFFFFFFFFFFFFFFFFFFFFF
310
FFFFFFFFFFFFFFFFFFFFFFFFFFFFFFFFFFFFFFFFFFFFFFFFFFFFFFFFFFFFFFFF
310
FFFFFFFFFFFFFFFFFFFFFFFFFFFFFFFFFFFFFFFFFFFFFFFFF000FFFFFFFFFFFF
310
FFFFFFFFFFFFFFFFFFFFFFFFFFFFFFFFFFFFFFFFFFFFFFFFFFFFFFFFFFFFFFFF
310
FFFFFFFFFFFFFFFFFFFFFFFFFFFFFFFFFFFFFFFFFFFFFFFFFFFFFFFFFFFFFFFF
310
FFFFFFFFFFFFFFFFFFFFFFFFFFFFFFFFF000FFFFFFFFFFFFFFFFFFFFFFFFFFFF
310
FFFFFFFFFFFFFFFFFFFFFFFFFFFFFFFFFFFFFFFFFFFFFFFFFFFFFFFFFFFFFFFF
310
FFFFFFFFFFFFFFFFFFFFFFFFFFFFFFFFFFFFFFFFFFFFFFFFFFFFFFFFFFFFFFFF
310
FFFFFFFFFFFFFFFFF000FFFFFFFFFFFFFFFFFFFFFFFFFFFFFFFFFFFFFFFFFFFF
310
FFFFFFFFFFFFFFFFFFFFFFFFFFFFFFFFFFFFFFFFFFFFFFFFFFFFFFFFFFFFFFFF
310
FFFFFFFFFFFFFFFFFFFFFFFFFFFFFFFFFFFFFFFFFFFFFFFFFFFFFFFFFFFFFFFF
310
F000FFFFFFFFFFFFFFFFFFFFFFFFFFFFFFFFFFFFFFFFFFFFFFFFFFFFFFFFFFFF
310
FFFFFFFFFFFFFFFFFFFFFFFFFFFFFFFFFFFFFFFFFFFFFFFFFFFFFFFFFFFFFFFF
310
FFFFFFFFFFFFFFFFFFFFFFFFFFFFFFFFFFFFFFFFFFFFFFFFF000FFFFFFFFFFFF
310
FFFFFFFFFFFFFFFFFFFFFFFFFFFFFFFFFFFFFFFFFFFFFFFFFFFFFFFFFFFFFFFF
310
FFFFFFFFFFFFFFFFFFFFFFFFFFFFFFFFFFFFFFFFFFFFFFFFFFFFFFFFFFFFFFFF
310
FFFFFFFFFFFFFFFFFFFFFFFFFFFFFFFFF0000000000000000000000000000000
310
0000000000000000000000000000000000000000000000000000000000000000
310
0000000000000000000000000000000000000000000000000000000000000000
310
0000000000000000000000000000000000000000000000000000000000000000
310
0000000000000000000000000000000000000000000000000000000000000000
310
0000000000000000000000000000000000000000000000000000000000000000
310
0000000000000000000000000000000000000000000000000000000000000000
310
0000000000000000000000000000000000000000000000000000000000000000
310
0000000000000000000000000000000000000000000000000000000000000000
310
0000000000000000000000000000000000000000000000000000000000000000
310
0000000000000000000000000000000000000000000000000000000000000000
310
0000000000000000000000000000000000000000000000000000000000000000
310
0000000000000000000000000000000000000000000000000000000000000000
310
0000000000000000000000000000000000000000000000000000000000000000
310
0000000000000000000000000000000000000000000000000000000000000000
310
0000000000000000000000000000000000000000000000000000000000000000
  1
OLE
  0
ENDSEC
  0
SECTION
  2
OBJECTS
  0
DICTIONARY
  5
C
330
0
100
AcDbDictionary
281
     1
  3
ACAD_GROUP
350
D
  3
ACAD_LAYOUT
350
1A
  3
ACAD_MLINESTYLE
350
17
  3
ACAD_PLOTSETTINGS
350
19
  3
ACAD_PLOTSTYLENAME
350
E
  3
ACAD_SCALELIST
350
47
  0
DICTIONARY
  5
D
102
{ACAD_REACTORS
330
C
102
}
330
C
100
AcDbDictionary
281
     1
  0
DICTIONARY
  5
1A
102
{ACAD_REACTORS
330
C
102
}
330
C
100
AcDbDictionary
281
     1
  3
Layout1
350
1E
  3
Layout2
350
26
  3
Model
350
22
  0
DICTIONARY
  5
17
102
{ACAD_REACTORS
330
C
102
}
330
C
100
AcDbDictionary
281
     1
  3
Standard
350
18
  0
DICTIONARY
  5
19
102
{ACAD_REACTORS
330
C
102
}
330
C
100
AcDbDictionary
281
     1
  0
ACDBDICTIONARYWDFLT
  5
E
102
{ACAD_REACTORS
330
C
102
}
330
C
100
AcDbDictionary
281
     1
  3
Normal
350
F
100
AcDbDictionaryWithDefault
340
F
  0
DICTIONARY
  5
47
102
{ACAD_REACTORS
330
C
102
}
330
C
100
AcDbDictionary
281
     1
  3
A0
350
48
  3
A1
350
49
  3
A2
350
4A
  3
A3
350
4B
  3
A4
350
4C
  3
A5
350
4D
  3
A6
350
4E
  3
A7
350
4F
  3
A8
350
50
  3
A9
350
51
  3
B0
350
52
  3
B1
350
53
  3
B2
350
54
  3
B3
350
55
  3
B4
350
56
  3
B5
350
57
  3
B6
350
58
  3
B7
350
59
  3
B8
350
5A
  3
B9
350
5B
  3
C0
350
5C
  3
C1
350
5D
  3
C2
350
5E
  3
C3
350
5F
  3
C4
350
60
  3
C5
350
61
  3
C6
350
62
  3
C7
350
63
  3
C8
350
64
  3
C9
350
65
  3
D0
350
66
  3
D1
350
67
  3
D2
350
68
  0
LAYOUT
  5
1E
102
{ACAD_REACTORS
330
1A
102
}
330
1A
100
AcDbPlotSettings
  1

  2
none_device
  4

  6

 40
0.0
 41
0.0
 42
0.0
 43
0.0
 44
0.0
 45
0.0
 46
0.0
 47
0.0
 48
0.0
 49
0.0
140
0.0
141
0.0
142
1.0
143
1.0
 70
   688
 72
     1
 73
     0
 74
     5
  7

 75
    16
147
1.0
148
0.0
149
0.0
100
AcDbLayout
  1
Layout1
 70
     1
 71
     1
 10
0.0
 20
0.0
 11
420.0
 21
297.0
 12
0.0
 22
0.0
 32
0.0
 14
1.0000000000E+20
 24
1.0000000000E+20
 34
1.0000000000E+20
 15
-1.0000000000E+20
 25
-1.0000000000E+20
 35
-1.0000000000E+20
146
0.0
 13
0.0
 23
0.0
 33
0.0
 16
1.0
 26
0.0
 36
0.0
 17
0.0
 27
1.0
 37
0.0
 76
     0
330
1B
  0
LAYOUT
  5
26
102
{ACAD_REACTORS
330
1A
102
}
330
1A
100
AcDbPlotSettings
  1

  2
none_device
  4

  6

 40
0.0
 41
0.0
 42
0.0
 43
0.0
 44
0.0
 45
0.0
 46
0.0
 47
0.0
 48
0.0
 49
0.0
140
0.0
141
0.0
142
1.0
143
1.0
 70
   688
 72
     1
 73
     0
 74
     5
  7

 75
    16
147
1.0
148
0.0
149
0.0
100
AcDbLayout
  1
Layout2
 70
     1
 71
     2
 10
0.0
 20
0.0
 11
0.0
 21
0.0
 12
0.0
 22
0.0
 32
0.0
 14
0.0
 24
0.0
 34
0.0
 15
0.0
 25
0.0
 35
0.0
146
0.0
 13
0.0
 23
0.0
 33
0.0
 16
1.0
 26
0.0
 36
0.0
 17
0.0
 27
1.0
 37
0.0
 76
     0
330
23
  0
LAYOUT
  5
22
102
{ACAD_REACTORS
330
1A
102
}
330
1A
100
AcDbPlotSettings
  1

  2
none_device
  4
Letter_(8.50_x_11.00_Inches)
  6

 40
6.35
 41
6.35
 42
6.35000508
 43
6.35000508
 44
215.9
 45
279.4
 46
0.0
 47
0.0
 48
0.0
 49
0.0
140
0.0
141
0.0
142
1.0
143
1.0
 70
  1712
 72
     1
 73
     0
 74
     0
  7

 75
     0
147
1.0
148
0.0
149
0.0
100
AcDbLayout
  1
Model
 70
     1
 71
     0
 10
0.0
 20
0.0
 11
297.0
 21
210.0
 12
0.0
 22
0.0
 32
0.0
 14
0.0
 24
0.0
 34
0.0
 15
297.0
 25
210.0
 35
0.0
146
0.0
 13
0.0
 23
0.0
 33
0.0
 16
1.0
 26
0.0
 36
0.0
 17
0.0
 27
1.0
 37
0.0
 76
     0
330
1F
331
29
  0
MLINESTYLE
  5
18
102
{ACAD_REACTORS
330
17
102
}
330
17
100
AcDbMlineStyle
  2
Standard
 70
     0
  3

 62
   256
 51
90.0
 52
90.0
 71
     2
 49
0.5
 62
   256
  6
BYLAYER
 49
-0.5
 62
   256
  6
BYLAYER
  0
ACDBPLACEHOLDER
  5
F
102
{ACAD_REACTORS
330
E
102
}
330
E
  0
SCALE
  5
48
102
{ACAD_REACTORS
330
47
102
}
330
47
100
AcDbScale
 70
     0
300
1:1
140
1.0
141
1.0
290
     1
  0
SCALE
  5
49
102
{ACAD_REACTORS
330
47
102
}
330
47
100
AcDbScale
 70
     0
300
1:2
140
1.0
141
2.0
290
     0
  0
SCALE
  5
4A
102
{ACAD_REACTORS
330
47
102
}
330
47
100
AcDbScale
 70
     0
300
1:4
140
1.0
141
4.0
290
     0
  0
SCALE
  5
4B
102
{ACAD_REACTORS
330
47
102
}
330
47
100
AcDbScale
 70
     0
300
1:5
140
1.0
141
5.0
290
     0
  0
SCALE
  5
4C
102
{ACAD_REACTORS
330
47
102
}
330
47
100
AcDbScale
 70
     0
300
1:8
140
1.0
141
8.0
290
     0
  0
SCALE
  5
4D
102
{ACAD_REACTORS
330
47
102
}
330
47
100
AcDbScale
 70
     0
300
1:10
140
1.0
141
10.0
290
     0
  0
SCALE
  5
4E
102
{ACAD_REACTORS
330
47
102
}
330
47
100
AcDbScale
 70
     0
300
1:16
140
1.0
141
16.0
290
     0
  0
SCALE
  5
4F
102
{ACAD_REACTORS
330
47
102
}
330
47
100
AcDbScale
 70
     0
300
1:20
140
1.0
141
20.0
290
     0
  0
SCALE
  5
50
102
{ACAD_REACTORS
330
47
102
}
330
47
100
AcDbScale
 70
     0
300
1:30
140
1.0
141
30.0
290
     0
  0
SCALE
  5
51
102
{ACAD_REACTORS
330
47
102
}
330
47
100
AcDbScale
 70
     0
300
1:40
140
1.0
141
40.0
290
     0
  0
SCALE
  5
52
102
{ACAD_REACTORS
330
47
102
}
330
47
100
AcDbScale
 70
     0
300
1:50
140
1.0
141
50.0
290
     0
  0
SCALE
  5
53
102
{ACAD_REACTORS
330
47
102
}
330
47
100
AcDbScale
 70
     0
300
1:100
140
1.0
141
100.0
290
     0
  0
SCALE
  5
54
102
{ACAD_REACTORS
330
47
102
}
330
47
100
AcDbScale
 70
     0
300
2:1
140
2.0
141
1.0
290
     0
  0
SCALE
  5
55
102
{ACAD_REACTORS
330
47
102
}
330
47
100
AcDbScale
 70
     0
300
4:1
140
4.0
141
1.0
290
     0
  0
SCALE
  5
56
102
{ACAD_REACTORS
330
47
102
}
330
47
100
AcDbScale
 70
     0
300
8:1
140
8.0
141
1.0
290
     0
  0
SCALE
  5
57
102
{ACAD_REACTORS
330
47
102
}
330
47
100
AcDbScale
 70
     0
300
10:1
140
10.0
141
1.0
290
     0
  0
SCALE
  5
58
102
{ACAD_REACTORS
330
47
102
}
330
47
100
AcDbScale
 70
     0
300
100:1
140
100.0
141
1.0
290
     0
  0
SCALE
  5
59
102
{ACAD_REACTORS
330
47
102
}
330
47
100
AcDbScale
 70
     0
300
1/128" = 1'-0"
140
0.0078125
141
12.0
290
     0
  0
SCALE
  5
5A
102
{ACAD_REACTORS
330
47
102
}
330
47
100
AcDbScale
 70
     0
300
1/64" = 1'-0"
140
0.015625
141
12.0
290
     0
  0
SCALE
  5
5B
102
{ACAD_REACTORS
330
47
102
}
330
47
100
AcDbScale
 70
     0
300
1/32" = 1'-0"
140
0.03125
141
12.0
290
     0
  0
SCALE
  5
5C
102
{ACAD_REACTORS
330
47
102
}
330
47
100
AcDbScale
 70
     0
300
1/16" = 1'-0"
140
0.0625
141
12.0
290
     0
  0
SCALE
  5
5D
102
{ACAD_REACTORS
330
47
102
}
330
47
100
AcDbScale
 70
     0
300
3/32" = 1'-0"
140
0.09375
141
12.0
290
     0
  0
SCALE
  5
5E
102
{ACAD_REACTORS
330
47
102
}
330
47
100
AcDbScale
 70
     0
300
1/8" = 1'-0"
140
0.125
141
12.0
290
     0
  0
SCALE
  5
5F
102
{ACAD_REACTORS
330
47
102
}
330
47
100
AcDbScale
 70
     0
300
3/16" = 1'-0"
140
0.1875
141
12.0
290
     0
  0
SCALE
  5
60
102
{ACAD_REACTORS
330
47
102
}
330
47
100
AcDbScale
 70
     0
300
1/4" = 1'-0"
140
0.25
141
12.0
290
     0
  0
SCALE
  5
61
102
{ACAD_REACTORS
330
47
102
}
330
47
100
AcDbScale
 70
     0
300
3/8" = 1'-0"
140
0.375
141
12.0
290
     0
  0
SCALE
  5
62
102
{ACAD_REACTORS
330
47
102
}
330
47
100
AcDbScale
 70
     0
300
1/2" = 1'-0"
140
0.5
141
12.0
290
     0
  0
SCALE
  5
63
102
{ACAD_REACTORS
330
47
102
}
330
47
100
AcDbScale
 70
     0
300
3/4" = 1'-0"
140
0.75
141
12.0
290
     0
  0
SCALE
  5
64
102
{ACAD_REACTORS
330
47
102
}
330
47
100
AcDbScale
 70
     0
300
1" = 1'-0"
140
1.0
141
12.0
290
     0
  0
SCALE
  5
65
102
{ACAD_REACTORS
330
47
102
}
330
47
100
AcDbScale
 70
     0
300
1-1/2" = 1'-0"
140
1.5
141
12.0
290
     0
  0
SCALE
  5
66
102
{ACAD_REACTORS
330
47
102
}
330
47
100
AcDbScale
 70
     0
300
3" = 1'-0"
140
3.0
141
12.0
290
     0
  0
SCALE
  5
67
102
{ACAD_REACTORS
330
47
102
}
330
47
100
AcDbScale
 70
     0
300
6" = 1'-0"
140
6.0
141
12.0
290
     0
  0
SCALE
  5
68
102
{ACAD_REACTORS
330
47
102
}
330
47
100
AcDbScale
 70
     0
300
1'-0" = 1'-0"
140
12.0
141
12.0
290
     0
  0
ENDSEC
  0
EOF
