  0
SECTION
  2
HEADER
  9
$ACADVER
  1
AC1015
  9
$ACADMAINTVER
 70
     6
  9
$DWGCODEPAGE
  3
ANSI_1252
  9
$INSBASE
 10
0.0
 20
0.0
 30
0.0
  9
$EXTMIN
 10
0.0
 20
0.0
 30
0.0
  9
$EXTMAX
 10
297.0
 20
210.0
 30
0.0
  9
$LIMMIN
 10
0.0
 20
0.0
  9
$LIMMAX
 10
297.0
 20
210.0
  9
$ORTHOMODE
 70
     0
  9
$REGENMODE
 70
     1
  9
$FILLMODE
 70
     1
  9
$QTEXTMODE
 70
     0
  9
$MIRRTEXT
 70
     1
  9
$LTSCALE
 40
1.0
  9
$ATTMODE
 70
     1
  9
$TEXTSIZE
 40
2.0
  9
$TRACEWID
 40
1.0
  9
$TEXTSTYLE
  7
Standard
  9
$CLAYER
  8
0
  9
$CELTYPE
  6
ByLayer
  9
$CECOLOR
 62
   256
  9
$CELTSCALE
 40
1.0
  9
$DISPSILH
 70
     0
  9
$DIMSCALE
 40
1.0
  9
$DIMASZ
 40
3.0
  9
$DIMEXO
 40
0.0
  9
$DIMDLI
 40
3.75
  9
$DIMRND
 40
0.0
  9
$DIMDLE
 40
0.0
  9
$DIMEXE
 40
1.0
  9
$DIMTP
 40
0.0
  9
$DIMTM
 40
0.0
  9
$DIMTXT
 40
2.0
  9
$DIMCEN
 40
2.5
  9
$DIMTSZ
 40
0.0
  9
$DIMTOL
 70
     0
  9
$DIMLIM
 70
     0
  9
$DIMTIH
 70
     1
  9
$DIMTOH
 70
     1
  9
$DIMSE1
 70
     0
  9
$DIMSE2
 70
     0
  9
$DIMTAD
 70
     1
  9
$DIMZIN
 70
     0
  9
$DIMBLK
  1

  9
$DIMASO
 70
     1
  9
$DIMSHO
 70
     1
  9
$DIMPOST
  1

  9
$DIMAPOST
  1

  9
$DIMALT
 70
     0
  9
$DIMALTD
 70
     3
  9
$DIMALTF
 40
0.0393700787
  9
$DIMLFAC
 40
2.0
  9
$DIMTOFL
 70
     1
  9
$DIMTVP
 40
0.0
  9
$DIMTIX
 70
     0
  9
$DIMSOXD
 70
     0
  9
$DIMSAH
 70
     0
  9
$DIMBLK1
  1

  9
$DIMBLK2
  1

  9
$DIMSTYLE
  2
ISO-25
  9
$DIMCLRD
 70
     0
  9
$DIMCLRE
 70
     0
  9
$DIMCLRT
 70
     0
  9
$DIMTFAC
 40
1.0
  9
$DIMGAP
 40
1.524
  9
$DIMJUST
 70
     0
  9
$DIMSD1
 70
     0
  9
$DIMSD2
 70
     0
  9
$DIMTOLJ
 70
     0
  9
$DIMTZIN
 70
     0
  9
$DIMALTZ
 70
     0
  9
$DIMALTTZ
 70
     0
  9
$DIMUPT
 70
     0
  9
$DIMDEC
 70
     2
  9
$DIMTDEC
 70
     3
  9
$DIMALTU
 70
     2
  9
$DIMALTTD
 70
     3
  9
$DIMTXSTY
  7
Standard
  9
$DIMAUNIT
 70
     0
  9
$DIMADEC
 70
     2
  9
$DIMALTRND
 40
0.0
  9
$DIMAZIN
 70
     0
  9
$DIMDSEP
 70
    44
  9
$DIMATFIT
 70
     3
  9
$DIMFRAC
 70
     0
  9
$DIMLDRBLK
  1

  9
$DIMLUNIT
 70
     2
  9
$DIMLWD
 70
    -2
  9
$DIMLWE
 70
    -2
  9
$DIMTMOVE
 70
     0
  9
$LUNITS
 70
     2
  9
$LUPREC
 70
     2
  9
$SKETCHINC
 40
1.0
  9
$FILLETRAD
 40
10.0
  9
$AUNITS
 70
     0
  9
$AUPREC
 70
     2
  9
$MENU
  1
.
  9
$ELEVATION
 40
0.0
  9
$PELEVATION
 40
0.0
  9
$THICKNESS
 40
0.0
  9
$LIMCHECK
 70
     0
  9
$CHAMFERA
 40
0.0
  9
$CHAMFERB
 40
0.0
  9
$CHAMFERC
 40
0.0
  9
$CHAMFERD
 40
0.0
  9
$SKPOLY
 70
     0
  9
$TDCREATE
 40
2458166.358148125
  9
$TDUCREATE
 40
2458166.316481458
  9
$TDUPDATE
 40
2458166.358151481
  9
$TDUUPDATE
 40
2458166.316484815
  9
$TDINDWG
 40
0.0000000116
  9
$TDUSRTIMER
 40
0.0000000116
  9
$USRTIMER
 70
     1
  9
$ANGBASE
 50
0.0
  9
$ANGDIR
 70
     0
  9
$PDMODE
 70
     0
  9
$PDSIZE
 40
-1.0
  9
$PLINEWID
 40
0.0
  9
$SPLFRAME
 70
     0
  9
$SPLINETYPE
 70
     6
  9
$SPLINESEGS
 70
     8
  9
$HANDSEED
  5
2FD
  9
$SURFTAB1
 70
     6
  9
$SURFTAB2
 70
     6
  9
$SURFTYPE
 70
     6
  9
$SURFU
 70
     6
  9
$SURFV
 70
     6
  9
$UCSBASE
  2

  9
$UCSNAME
  2

  9
$UCSORG
 10
0.0
 20
0.0
 30
0.0
  9
$UCSXDIR
 10
1.0
 20
0.0
 30
0.0
  9
$UCSYDIR
 10
0.0
 20
1.0
 30
0.0
  9
$UCSORTHOREF
  2

  9
$UCSORTHOVIEW
 70
     0
  9
$UCSORGTOP
 10
0.0
 20
0.0
 30
0.0
  9
$UCSORGBOTTOM
 10
0.0
 20
0.0
 30
0.0
  9
$UCSORGLEFT
 10
0.0
 20
0.0
 30
0.0
  9
$UCSORGRIGHT
 10
0.0
 20
0.0
 30
0.0
  9
$UCSORGFRONT
 10
0.0
 20
0.0
 30
0.0
  9
$UCSORGBACK
 10
0.0
 20
0.0
 30
0.0
  9
$PUCSBASE
  2

  9
$PUCSNAME
  2

  9
$PUCSORG
 10
0.0
 20
0.0
 30
0.0
  9
$PUCSXDIR
 10
1.0
 20
0.0
 30
0.0
  9
$PUCSYDIR
 10
0.0
 20
1.0
 30
0.0
  9
$PUCSORTHOREF
  2

  9
$PUCSORTHOVIEW
 70
     0
  9
$PUCSORGTOP
 10
0.0
 20
0.0
 30
0.0
  9
$PUCSORGBOTTOM
 10
0.0
 20
0.0
 30
0.0
  9
$PUCSORGLEFT
 10
0.0
 20
0.0
 30
0.0
  9
$PUCSORGRIGHT
 10
0.0
 20
0.0
 30
0.0
  9
$PUCSORGFRONT
 10
0.0
 20
0.0
 30
0.0
  9
$PUCSORGBACK
 10
0.0
 20
0.0
 30
0.0
  9
$USERI1
 70
     0
  9
$USERI2
 70
     0
  9
$USERI3
 70
     0
  9
$USERI4
 70
     0
  9
$USERI5
 70
     0
  9
$USERR1
 40
0.0
  9
$USERR2
 40
0.0
  9
$USERR3
 40
0.0
  9
$USERR4
 40
0.0
  9
$USERR5
 40
0.0
  9
$WORLDVIEW
 70
     1
  9
$SHADEDGE
 70
     3
  9
$SHADEDIF
 70
    70
  9
$TILEMODE
 70
     1
  9
$MAXACTVP
 70
    64
  9
$PINSBASE
 10
0.0
 20
0.0
 30
0.0
  9
$PLIMCHECK
 70
     0
  9
$PEXTMIN
 10
1.0000000000E+20
 20
1.0000000000E+20
 30
1.0000000000E+20
  9
$PEXTMAX
 10
-1.0000000000E+20
 20
-1.0000000000E+20
 30
-1.0000000000E+20
  9
$PLIMMIN
 10
0.0
 20
0.0
  9
$PLIMMAX
 10
420.0
 20
297.0
  9
$UNITMODE
 70
     0
  9
$VISRETAIN
 70
     1
  9
$PLINEGEN
 70
     0
  9
$PSLTSCALE
 70
     1
  9
$TREEDEPTH
 70
  3020
  9
$CMLSTYLE
  2
Standard
  9
$CMLJUST
 70
     0
  9
$CMLSCALE
 40
20.0
  9
$PROXYGRAPHICS
 70
     1
  9
$MEASUREMENT
 70
     1
  9
$CELWEIGHT
370
    -1
  9
$ENDCAPS
280
     0
  9
$JOINSTYLE
280
     0
  9
$LWDISPLAY
290
     1
  9
$INSUNITS
 70
     4
  9
$HYPERLINKBASE
  1

  9
$STYLESHEET
  1

  9
$XEDIT
290
     1
  9
$CEPSNTYPE
380
     0
  9
$PSTYLEMODE
290
     1
  9
$FINGERPRINTGUID
  2
{0BA1B77E-0515-4B4C-8830-14D3616EB066}
  9
$VERSIONGUID
  2
{FAEB1C32-E019-11D5-929B-00C0DF256EC4}
  9
$EXTNAMES
290
     1
  9
$PSVPSCALE
 40
0.0
  9
$OLESTARTUP
290
     0
  0
ENDSEC
  0
SECTION
  2
CLASSES
  0
CLASS
  1
ACDBDICTIONARYWDFLT
  2
AcDbDictionaryWithDefault
  3
ObjectDBX Classes
 90
        0
280
     0
281
     0
  0
CLASS
  1
VISUALSTYLE
  2
AcDbVisualStyle
  3
ObjectDBX Classes
 90
     4095
280
     0
281
     0
  0
CLASS
  1
MATERIAL
  2
AcDbMaterial
  3
ObjectDBX Classes
 90
     1153
280
     0
281
     0
  0
CLASS
  1
SCALE
  2
AcDbScale
  3
ObjectDBX Classes
 90
     1153
280
     0
281
     0
  0
CLASS
  1
TABLESTYLE
  2
AcDbTableStyle
  3
ObjectDBX Classes
 90
     4095
280
     0
281
     0
  0
CLASS
  1
MLEADERSTYLE
  2
AcDbMLeaderStyle
  3
ACDB_MLEADERSTYLE_CLASS
 90
     4095
280
     0
281
     0
  0
CLASS
  1
SUN
  2
AcDbSun
  3
SCENEOE
 90
     1153
280
     0
281
     0
  0
CLASS
  1
ACDBPLACEHOLDER
  2
AcDbPlaceHolder
  3
ObjectDBX Classes
 90
        0
280
     0
281
     0
  0
CLASS
  1
LAYOUT
  2
AcDbLayout
  3
ObjectDBX Classes
 90
        0
280
     0
281
     0
  0
ENDSEC
  0
SECTION
  2
TABLES
  0
TABLE
  2
VPORT
  5
8
330
0
100
AcDbSymbolTable
 70
     1
  0
VPORT
  5
29
330
8
100
AcDbSymbolTableRecord
100
AcDbViewportTableRecord
  2
*Active
 70
     0
 10
0.0
 20
0.0
 11
1.0
 21
1.0
 12
148.5
 22
105.0
 13
0.0
 23
0.0
 14
10.0
 24
10.0
 15
10.0
 25
10.0
 16
0.0
 26
0.0
 36
1.0
 17
0.0
 27
0.0
 37
0.0
 40
210.0
 41
1.4142857143
 42
50.0
 43
0.0
 44
0.0
 50
0.0
 51
0.0
 71
     0
 72
  2000
 73
     1
 74
     3
 75
     0
 76
     0
 77
     0
 78
     0
281
     0
 65
     1
110
0.0
120
0.0
130
0.0
111
1.0
121
0.0
131
0.0
112
0.0
122
1.0
132
0.0
 79
     0
146
0.0
  0
ENDTAB
  0
TABLE
  2
LTYPE
  5
5
330
0
100
AcDbSymbolTable
 70
     6
  0
LTYPE
  5
14
330
5
100
AcDbSymbolTableRecord
100
AcDbLinetypeTableRecord
  2
ByBlock
 70
     0
  3

 72
    65
 73
     0
 40
0.0
  0
LTYPE
  5
15
330
5
100
AcDbSymbolTableRecord
100
AcDbLinetypeTableRecord
  2
ByLayer
 70
     0
  3

 72
    65
 73
     0
 40
0.0
  0
LTYPE
  5
16
330
5
100
AcDbSymbolTableRecord
100
AcDbLinetypeTableRecord
  2
Continuous
 70
     0
  3
Solid line
 72
    65
 73
     0
 40
0.0
  0
LTYPE
  5
6E
330
5
100
AcDbSymbolTableRecord
100
AcDbLinetypeTableRecord
  2
HIDDEN
 70
     0
  3
Hidden __ __ __ __ __ __ __ __ __ __ __ __ __ __
 72
    65
 73
     2
 40
1.905
 49
1.27
 74
     0
 49
-0.635
 74
     0
  0
LTYPE
  5
6F
330
5
100
AcDbSymbolTableRecord
100
AcDbLinetypeTableRecord
  2
PHANTOM
 70
     0
  3
Phantom ______  __  __  ______  __  __  ______
 72
    65
 73
     6
 40
12.7
 49
6.35
 74
     0
 49
-1.27
 74
     0
 49
1.27
 74
     0
 49
-1.27
 74
     0
 49
1.27
 74
     0
 49
-1.27
 74
     0
  0
LTYPE
  5
70
330
5
100
AcDbSymbolTableRecord
100
AcDbLinetypeTableRecord
  2
CENTER
 70
     0
  3
Center ____ _ ____ _ ____ _ ____ _ ____ _ ____
 72
    65
 73
     4
 40
10.16
 49
6.35
 74
     0
 49
-1.27
 74
     0
 49
1.27
 74
     0
 49
-1.27
 74
     0
  0
LTYPE
  5
71
330
5
100
AcDbSymbolTableRecord
100
AcDbLinetypeTableRecord
  2
CENTERX2
 70
     0
  3
Center (2x) ________  __  ________  __  _____
 72
    65
 73
     4
 40
20.32
 49
12.7
 74
     0
 49
-2.54
 74
     0
 49
2.54
 74
     0
 49
-2.54
 74
     0
  0
LTYPE
  5
72
330
5
100
AcDbSymbolTableRecord
100
AcDbLinetypeTableRecord
  2
DOT2
 70
     0
  3
Dot (.5x) ........................................
 72
    65
 73
     2
 40
0.635
 49
0.0
 74
     0
 49
-0.635
 74
     0
  0
ENDTAB
  0
TABLE
  2
LAYER
  5
2
330
0
100
AcDbSymbolTable
 70
     5
  0
LAYER
  5
10
330
2
100
AcDbSymbolTableRecord
100
AcDbLayerTableRecord
  2
0
 70
     0
 62
     7
  6
Continuous
370
    -3
390
F
  0
LAYER
  5
73
330
2
100
AcDbSymbolTableRecord
100
AcDbLayerTableRecord
  2
FORMAT
 70
     0
 62
     7
  6
Continuous
370
    -3
390
F
  0
LAYER
  5
74
330
2
100
AcDbSymbolTableRecord
100
AcDbLayerTableRecord
  2
VERMASSUNG
 70
     0
 62
     7
  6
Continuous
370
    -3
390
F
  0
LAYER
  5
75
330
2
100
AcDbSymbolTableRecord
100
AcDbLayerTableRecord
  2
KOPF_DÜNN
 70
     0
 62
     7
  6
Continuous
370
    -3
390
F
  0
LAYER
  5
76
330
2
100
AcDbSymbolTableRecord
100
AcDbLayerTableRecord
  2
KOPF_DICK
 70
     0
 62
     7
  6
Continuous
370
    25
390
F
  0
ENDTAB
  0
TABLE
  2
STYLE
  5
3
330
0
100
AcDbSymbolTable
 70
     2
  0
STYLE
  5
11
330
3
100
AcDbSymbolTableRecord
100
AcDbTextStyleTableRecord
  2
Standard
 70
     0
 40
0.0
 41
1.0
 50
0.0
 71
     0
 42
2.0
  3
txt
  4

  0
STYLE
  5
77
330
3
100
AcDbSymbolTableRecord
100
AcDbTextStyleTableRecord
  2
SLDTEXTSTYLE0
 70
     0
 40
0.0
 41
0.7
 50
0.0
 71
     0
 42
2.0
  3
TXT
  4

  0
ENDTAB
  0
TABLE
  2
VIEW
  5
6
330
0
100
AcDbSymbolTable
 70
     0
  0
ENDTAB
  0
TABLE
  2
UCS
  5
7
330
0
100
AcDbSymbolTable
 70
     0
  0
ENDTAB
  0
TABLE
  2
APPID
  5
9
330
0
100
AcDbSymbolTable
 70
     1
  0
APPID
  5
12
330
9
100
AcDbSymbolTableRecord
100
AcDbRegAppTableRecord
  2
ACAD
 70
     0
  0
ENDTAB
  0
TABLE
  2
DIMSTYLE
  5
A
330
0
100
AcDbSymbolTable
 70
     4
100
AcDbDimStyleTable
  0
DIMSTYLE
105
27
330
A
100
AcDbSymbolTableRecord
100
AcDbDimStyleTableRecord
  2
ISO-25
 70
     0
 41
2.5
 42
0.625
 43
3.75
 44
1.25
 73
     0
 74
     0
 77
     1
 78
     8
140
2.5
141
2.5
143
0.0393700787
147
0.625
171
     3
172
     1
178
     0
271
     2
272
     2
274
     3
278
    44
283
     0
284
     8
340
11
  0
DIMSTYLE
105
205
102
{ACAD_REACTORS
330
204
330
21A
330
23D
330
247
330
252
330
25D
330
267
102
}
330
A
100
AcDbSymbolTableRecord
100
AcDbDimStyleTableRecord
  2
SLDDIMSTYLE0
 70
     0
 41
3.0
 44
0.0
 45
0.000000001
 73
     0
 74
     0
 77
     1
 78
    12
 79
     3
140
2.0
147
0.5
173
     1
178
     0
271
     2
272
     3
276
     2
284
    12
340
77
  0
DIMSTYLE
105
211
102
{ACAD_REACTORS
330
210
102
}
330
A
100
AcDbSymbolTableRecord
100
AcDbDimStyleTableRecord
  2
SLDDIMSTYLE1
 70
     0
 41
3.0
 44
0.0
 45
0.000000001
 73
     0
 74
     0
 76
     1
 77
     1
 78
    12
 79
     3
140
2.0
147
0.5
173
     1
178
     0
271
     2
272
     3
276
     2
282
     1
284
    12
340
77
  0
DIMSTYLE
105
226
102
{ACAD_REACTORS
330
225
330
233
102
}
330
A
100
AcDbSymbolTableRecord
100
AcDbDimStyleTableRecord
  2
SLDDIMSTYLE2
 70
     0
 41
3.0
 44
0.0
 45
0.000000001
 73
     0
 74
     0
 77
     1
 78
    12
 79
     3
140
2.0
147
0.5
173
     1
178
     0
271
     1
272
     3
276
     2
284
    12
340
77
  0
ENDTAB
  0
TABLE
  2
BLOCK_RECORD
  5
1
330
0
100
AcDbSymbolTable
 70
    11
  0
BLOCK_RECORD
  5
1F
330
1
100
AcDbSymbolTableRecord
100
AcDbBlockTableRecord
  2
*Model_Space
340
22
  0
BLOCK_RECORD
  5
1B
330
1
100
AcDbSymbolTableRecord
100
AcDbBlockTableRecord
  2
*Paper_Space
340
1E
  0
BLOCK_RECORD
  5
23
330
1
100
AcDbSymbolTableRecord
100
AcDbBlockTableRecord
  2
*Paper_Space0
340
26
  0
BLOCK_RECORD
  5
206
330
1
100
AcDbSymbolTableRecord
100
AcDbBlockTableRecord
  2
_D
340
0
  0
BLOCK_RECORD
  5
212
330
1
100
AcDbSymbolTableRecord
100
AcDbBlockTableRecord
  2
_D_1
340
0
  0
BLOCK_RECORD
  5
21B
330
1
100
AcDbSymbolTableRecord
100
AcDbBlockTableRecord
  2
_D_2
340
0
  0
BLOCK_RECORD
  5
227
330
1
100
AcDbSymbolTableRecord
100
AcDbBlockTableRecord
  2
_D_3
340
0
  0
BLOCK_RECORD
  5
234
330
1
100
AcDbSymbolTableRecord
100
AcDbBlockTableRecord
  2
_D_4
340
0
  0
BLOCK_RECORD
  5
23E
330
1
100
AcDbSymbolTableRecord
100
AcDbBlockTableRecord
  2
_D_5
340
0
  0
BLOCK_RECORD
  5
248
330
1
100
AcDbSymbolTableRecord
100
AcDbBlockTableRecord
  2
_D_6
340
0
  0
BLOCK_RECORD
  5
253
330
1
100
AcDbSymbolTableRecord
100
AcDbBlockTableRecord
  2
_D_7
340
0
  0
BLOCK_RECORD
  5
25E
330
1
100
AcDbSymbolTableRecord
100
AcDbBlockTableRecord
  2
_D_8
340
0
  0
BLOCK_RECORD
  5
268
330
1
100
AcDbSymbolTableRecord
100
AcDbBlockTableRecord
  2
_D_9
340
0
  0
ENDTAB
  0
ENDSEC
  0
SECTION
  2
BLOCKS
  0
BLOCK
  5
20
330
1F
100
AcDbEntity
  8
0
100
AcDbBlockBegin
  2
*Model_Space
 70
     0
 10
0.0
 20
0.0
 30
0.0
  3
*Model_Space
  1

  0
ENDBLK
  5
21
330
1F
100
AcDbEntity
  8
0
100
AcDbBlockEnd
  0
BLOCK
  5
1C
330
1B
100
AcDbEntity
 67
     1
  8
0
100
AcDbBlockBegin
  2
*Paper_Space
 70
     0
 10
0.0
 20
0.0
 30
0.0
  3
*Paper_Space
  1

  0
ENDBLK
  5
1D
330
1B
100
AcDbEntity
 67
     1
  8
0
100
AcDbBlockEnd
  0
BLOCK
  5
24
330
23
100
AcDbEntity
  8
0
100
AcDbBlockBegin
  2
*Paper_Space0
 70
     0
 10
0.0
 20
0.0
 30
0.0
  3
*Paper_Space0
  1

  0
ENDBLK
  5
25
330
23
100
AcDbEntity
  8
0
100
AcDbBlockEnd
  0
BLOCK
  5
207
330
206
100
AcDbEntity
  8
0
100
AcDbBlockBegin
  2
_D
 70
     0
 10
0.0
 20
0.0
 30
0.0
  3
_D
  1

  0
SOLID
  5
209
330
206
100
AcDbEntity
  8
VERMASSUNG
100
AcDbTrace
 10
244.5495640606
 20
91.2472542245
 30
0.0
 11
244.9995640606
 21
94.2472542245
 31
0.0
 12
244.0995640606
 22
94.2472542245
 32
0.0
 13
244.0995640606
 23
94.2472542245
 33
0.0
  0
SOLID
  5
20A
330
206
100
AcDbEntity
  8
VERMASSUNG
100
AcDbTrace
 10
244.5495640606
 20
135.2472542245
 30
0.0
 11
244.0995640606
 21
132.2472542245
 31
0.0
 12
244.9995640606
 22
132.2472542245
 32
0.0
 13
244.9995640606
 23
132.2472542245
 33
0.0
  0
LINE
  5
20B
330
206
100
AcDbEntity
  8
VERMASSUNG
100
AcDbLine
 10
209.6487004113
 20
91.2472542245
 30
0.0
 11
245.5495640606
 21
91.2472542245
 31
0.0
  0
LINE
  5
20C
330
206
100
AcDbEntity
  8
VERMASSUNG
100
AcDbLine
 10
209.6487004113
 20
135.2472542245
 30
0.0
 11
245.5495640606
 21
135.2472542245
 31
0.0
  0
LINE
  5
20D
330
206
100
AcDbEntity
  8
VERMASSUNG
100
AcDbLine
 10
244.5495640606
 20
91.2472542245
 30
0.0
 11
244.5495640606
 21
135.2472542245
 31
0.0
  0
MTEXT
  5
20E
330
206
100
AcDbEntity
  8
VERMASSUNG
100
AcDbMText
 10
241.9714287557
 20
109.8422541413
 30
0.0
 40
2.0
 41
0.0
 71
     1
 72
     1
  1
%%c
  7
SLDTEXTSTYLE0
 11
6.123233995736766E-17
 21
1.0
 31
0.0
 73
     1
 44
1.0
  0
MTEXT
  5
20F
330
206
100
AcDbEntity
  8
VERMASSUNG
100
AcDbMText
 10
241.7714288044
 20
113.4522541556
 30
0.0
 40
2.0
 41
0.0
 71
     1
 72
     1
  1
44
  7
SLDTEXTSTYLE0
 11
6.123233995736766E-17
 21
1.0
 31
0.0
 73
     1
 44
1.0
  0
ENDBLK
  5
208
330
206
100
AcDbEntity
  8
0
100
AcDbBlockEnd
  0
BLOCK
  5
213
330
212
100
AcDbEntity
  8
0
100
AcDbBlockBegin
  2
_D_1
 70
     0
 10
0.0
 20
0.0
 30
0.0
  3
_D_1
  1

  0
SOLID
  5
215
330
212
100
AcDbEntity
  8
VERMASSUNG
100
AcDbTrace
 10
233.4927302865
 20
125.7472542245
 30
0.0
 11
233.0427302865
 21
122.7472542245
 31
0.0
 12
233.9427302865
 22
122.7472542245
 32
0.0
 13
233.9427302865
 23
122.7472542245
 33
0.0
  0
LINE
  5
216
330
212
100
AcDbEntity
  8
VERMASSUNG
100
AcDbLine
 10
206.1487004113
 20
125.7472542245
 30
0.0
 11
234.4927302865
 21
125.7472542245
 31
0.0
  0
LINE
  5
217
330
212
100
AcDbEntity
  8
VERMASSUNG
100
AcDbLine
 10
233.4927302865
 20
125.7472542245
 30
0.0
 11
233.4927302865
 21
110.0422542673
 31
0.0
  0
MTEXT
  5
218
330
212
100
AcDbEntity
  8
VERMASSUNG
100
AcDbMText
 10
230.9145949816
 20
110.0422542673
 30
0.0
 40
2.0
 41
0.0
 71
     1
 72
     1
  1
%%c
  7
SLDTEXTSTYLE0
 11
-7.044195017643634E-15
 21
1.0
 31
0.0
 73
     1
 44
1.0
  0
MTEXT
  5
219
330
212
100
AcDbEntity
  8
VERMASSUNG
100
AcDbMText
 10
230.7145950303
 20
113.6522542816
 30
0.0
 40
2.0
 41
0.0
 71
     1
 72
     1
  1
25
  7
SLDTEXTSTYLE0
 11
-7.044195017643634E-15
 21
1.0
 31
0.0
 73
     1
 44
1.0
  0
ENDBLK
  5
214
330
212
100
AcDbEntity
  8
0
100
AcDbBlockEnd
  0
BLOCK
  5
21C
330
21B
100
AcDbEntity
  8
0
100
AcDbBlockBegin
  2
_D_2
 70
     0
 10
0.0
 20
0.0
 30
0.0
  3
_D_2
  1

  0
SOLID
  5
21E
330
21B
100
AcDbEntity
  8
VERMASSUNG
100
AcDbTrace
 10
255.6487004113
 20
139.7472542245
 30
0.0
 11
255.1987004113
 21
136.7472542245
 31
0.0
 12
256.0987004113
 22
136.7472542245
 32
0.0
 13
256.0987004113
 23
136.7472542245
 33
0.0
  0
SOLID
  5
21F
330
21B
100
AcDbEntity
  8
VERMASSUNG
100
AcDbTrace
 10
255.6487004113
 20
86.7472542245
 30
0.0
 11
256.0987004113
 21
89.7472542245
 31
0.0
 12
255.1987004113
 22
89.7472542245
 32
0.0
 13
255.1987004113
 23
89.7472542245
 33
0.0
  0
LINE
  5
220
330
21B
100
AcDbEntity
  8
VERMASSUNG
100
AcDbLine
 10
152.4707790985
 20
139.7472542245
 30
0.0
 11
256.6487004113
 21
139.7472542245
 31
0.0
  0
LINE
  5
221
330
21B
100
AcDbEntity
  8
VERMASSUNG
100
AcDbLine
 10
152.4707790985
 20
86.7472542245
 30
0.0
 11
256.6487004113
 21
86.7472542245
 31
0.0
  0
LINE
  5
222
330
21B
100
AcDbEntity
  8
VERMASSUNG
100
AcDbLine
 10
255.6487004113
 20
139.7472542245
 30
0.0
 11
255.6487004113
 21
86.7472542245
 31
0.0
  0
MTEXT
  5
223
330
21B
100
AcDbEntity
  8
VERMASSUNG
100
AcDbMText
 10
253.0705651064
 20
110.0422542673
 30
0.0
 40
2.0
 41
0.0
 71
     1
 72
     1
  1
%%c
  7
SLDTEXTSTYLE0
 11
-7.044195017643634E-15
 21
1.0
 31
0.0
 73
     1
 44
1.0
  0
MTEXT
  5
224
330
21B
100
AcDbEntity
  8
VERMASSUNG
100
AcDbMText
 10
252.8705651551
 20
113.6522542816
 30
0.0
 40
2.0
 41
0.0
 71
     1
 72
     1
  1
53
  7
SLDTEXTSTYLE0
 11
-7.044195017643634E-15
 21
1.0
 31
0.0
 73
     1
 44
1.0
  0
ENDBLK
  5
21D
330
21B
100
AcDbEntity
  8
0
100
AcDbBlockEnd
  0
BLOCK
  5
228
330
227
100
AcDbEntity
  8
0
100
AcDbBlockBegin
  2
_D_3
 70
     0
 10
0.0
 20
0.0
 30
0.0
  3
_D_3
  1

  0
SOLID
  5
22A
330
227
100
AcDbEntity
  8
VERMASSUNG
100
AcDbTrace
 10
71.5633310826
 20
144.7222542245
 30
0.0
 11
71.1133310826
 21
141.7222542245
 31
0.0
 12
72.0133310826
 22
141.7222542245
 32
0.0
 13
72.0133310826
 23
141.7222542245
 33
0.0
  0
SOLID
  5
22B
330
227
100
AcDbEntity
  8
VERMASSUNG
100
AcDbTrace
 10
71.5633310826
 20
81.7722542245
 30
0.0
 11
72.0133310826
 21
84.7722542245
 31
0.0
 12
71.1133310826
 22
84.7722542245
 32
0.0
 13
71.1133310826
 23
84.7722542245
 33
0.0
  0
LINE
  5
22C
330
227
100
AcDbEntity
  8
VERMASSUNG
100
AcDbLine
 10
129.8487004113
 20
144.7222542245
 30
0.0
 11
70.5633310826
 21
144.7222542245
 31
0.0
  0
LINE
  5
22D
330
227
100
AcDbEntity
  8
VERMASSUNG
100
AcDbLine
 10
129.8487004113
 20
81.7722542245
 30
0.0
 11
70.5633310826
 21
81.7722542245
 31
0.0
  0
LINE
  5
22E
330
227
100
AcDbEntity
  8
VERMASSUNG
100
AcDbLine
 10
71.5633310826
 20
144.7222542245
 30
0.0
 11
71.5633310826
 21
81.7722542245
 31
0.0
  0
MTEXT
  5
22F
330
227
100
AcDbEntity
  8
VERMASSUNG
100
AcDbMText
 10
68.7851958264
 20
105.1422556061
 30
0.0
 40
2.0
 41
0.0
 71
     1
 72
     1
  1
KM
  7
SLDTEXTSTYLE0
 11
-7.044195017643634E-15
 21
1.0
 31
0.0
 73
     1
 44
1.0
  0
MTEXT
  5
230
330
227
100
AcDbEntity
  8
VERMASSUNG
100
AcDbMText
 10
68.9851957776
 20
108.5422554184
 30
0.0
 40
2.0
 41
0.0
 71
     1
 72
     1
  1
%%c
  7
SLDTEXTSTYLE0
 11
-7.044195017643634E-15
 21
1.0
 31
0.0
 73
     1
 44
1.0
  0
MTEXT
  5
231
330
227
100
AcDbEntity
  8
VERMASSUNG
100
AcDbMText
 10
68.7851958264
 20
112.1522554327
 30
0.0
 40
2.0
 41
0.0
 71
     1
 72
     1
  1
63
  7
SLDTEXTSTYLE0
 11
-7.044195017643634E-15
 21
1.0
 31
0.0
 73
     1
 44
1.0
  0
MTEXT
  5
232
330
227
100
AcDbEntity
  8
VERMASSUNG
100
AcDbMText
 10
68.7851958264
 20
116.1397553328
 30
0.0
 40
2.0
 41
0.0
 71
     1
 72
     1
  1
XMZ
  7
SLDTEXTSTYLE0
 11
-7.044195017643634E-15
 21
1.0
 31
0.0
 73
     1
 44
1.0
  0
ENDBLK
  5
229
330
227
100
AcDbEntity
  8
0
100
AcDbBlockEnd
  0
BLOCK
  5
235
330
234
100
AcDbEntity
  8
0
100
AcDbBlockBegin
  2
_D_4
 70
     0
 10
0.0
 20
0.0
 30
0.0
  3
_D_4
  1

  0
SOLID
  5
237
330
234
100
AcDbEntity
  8
VERMASSUNG
100
AcDbTrace
 10
152.4707790985
 20
71.7722542245
 30
0.0
 11
155.4707790985
 21
71.3222542245
 31
0.0
 12
155.4707790985
 22
72.2222542245
 32
0.0
 13
155.4707790985
 23
72.2222542245
 33
0.0
  0
SOLID
  5
238
330
234
100
AcDbEntity
  8
VERMASSUNG
100
AcDbTrace
 10
209.6487004113
 20
71.7722542245
 30
0.0
 11
206.6487004113
 21
72.2222542245
 31
0.0
 12
206.6487004113
 22
71.3222542245
 32
0.0
 13
206.6487004113
 23
71.3222542245
 33
0.0
  0
LINE
  5
239
330
234
100
AcDbEntity
  8
VERMASSUNG
100
AcDbLine
 10
152.4707790985
 20
86.7472542245
 30
0.0
 11
152.4707790985
 21
70.7722542245
 31
0.0
  0
LINE
  5
23A
330
234
100
AcDbEntity
  8
VERMASSUNG
100
AcDbLine
 10
209.6487004113
 20
93.5582304536
 30
0.0
 11
209.6487004113
 21
70.7722542245
 31
0.0
  0
LINE
  5
23B
330
234
100
AcDbEntity
  8
VERMASSUNG
100
AcDbLine
 10
152.4707790985
 20
71.7722542245
 30
0.0
 11
209.6487004113
 21
71.7722542245
 31
0.0
  0
MTEXT
  5
23C
330
234
100
AcDbEntity
  8
VERMASSUNG
100
AcDbMText
 10
178.6597398737
 20
74.3503898204
 30
0.0
 40
2.0
 41
0.0
 71
     1
 72
     1
  1
57.2
  7
SLDTEXTSTYLE0
 73
     1
 44
1.0
  0
ENDBLK
  5
236
330
234
100
AcDbEntity
  8
0
100
AcDbBlockEnd
  0
BLOCK
  5
23F
330
23E
100
AcDbEntity
  8
0
100
AcDbBlockBegin
  2
_D_5
 70
     0
 10
0.0
 20
0.0
 30
0.0
  3
_D_5
  1

  0
SOLID
  5
241
330
23E
100
AcDbEntity
  8
VERMASSUNG
100
AcDbTrace
 10
147.6487004113
 20
63.8669637907
 30
0.0
 11
150.6487004113
 21
63.4169637907
 31
0.0
 12
150.6487004113
 22
64.3169637907
 32
0.0
 13
150.6487004113
 23
64.3169637907
 33
0.0
  0
SOLID
  5
242
330
23E
100
AcDbEntity
  8
VERMASSUNG
100
AcDbTrace
 10
209.6487004113
 20
63.8669637907
 30
0.0
 11
206.6487004113
 21
64.3169637907
 31
0.0
 12
206.6487004113
 22
63.4169637907
 32
0.0
 13
206.6487004113
 23
63.4169637907
 33
0.0
  0
LINE
  5
243
330
23E
100
AcDbEntity
  8
VERMASSUNG
100
AcDbLine
 10
147.6487004113
 20
81.7722542245
 30
0.0
 11
147.6487004113
 21
62.8669637907
 31
0.0
  0
LINE
  5
244
330
23E
100
AcDbEntity
  8
VERMASSUNG
100
AcDbLine
 10
209.6487004113
 20
93.5582304536
 30
0.0
 11
209.6487004113
 21
62.8669637907
 31
0.0
  0
LINE
  5
245
330
23E
100
AcDbEntity
  8
VERMASSUNG
100
AcDbLine
 10
147.6487004113
 20
63.8669637907
 30
0.0
 11
209.6487004113
 21
63.8669637907
 31
0.0
  0
MTEXT
  5
246
330
23E
100
AcDbEntity
  8
VERMASSUNG
100
AcDbMText
 10
177.2487004612
 20
66.4450993866
 30
0.0
 40
2.0
 41
0.0
 71
     1
 72
     1
  1
62
  7
SLDTEXTSTYLE0
 73
     1
 44
1.0
  0
ENDBLK
  5
240
330
23E
100
AcDbEntity
  8
0
100
AcDbBlockEnd
  0
BLOCK
  5
249
330
248
100
AcDbEntity
  8
0
100
AcDbBlockBegin
  2
_D_6
 70
     0
 10
0.0
 20
0.0
 30
0.0
  3
_D_6
  1

  0
SOLID
  5
24B
330
248
100
AcDbEntity
  8
VERMASSUNG
100
AcDbTrace
 10
152.1487004113
 20
157.3436778681
 30
0.0
 11
155.1487004113
 21
156.8936778681
 31
0.0
 12
155.1487004113
 22
157.7936778681
 32
0.0
 13
155.1487004113
 23
157.7936778681
 33
0.0
  0
SOLID
  5
24C
330
248
100
AcDbEntity
  8
VERMASSUNG
100
AcDbTrace
 10
209.6487004113
 20
157.3436778681
 30
0.0
 11
206.6487004113
 21
157.7936778681
 31
0.0
 12
206.6487004113
 22
156.8936778681
 32
0.0
 13
206.6487004113
 23
156.8936778681
 33
0.0
  0
LINE
  5
24D
330
248
100
AcDbEntity
  8
VERMASSUNG
100
AcDbLine
 10
152.1487004113
 20
125.6472542245
 30
0.0
 11
152.1487004113
 21
158.3436778681
 31
0.0
  0
LINE
  5
24E
330
248
100
AcDbEntity
  8
VERMASSUNG
100
AcDbLine
 10
209.6487004113
 20
132.9362779953
 30
0.0
 11
209.6487004113
 21
158.3436778681
 31
0.0
  0
LINE
  5
24F
330
248
100
AcDbEntity
  8
VERMASSUNG
100
AcDbLine
 10
152.1487004113
 20
157.3436778681
 30
0.0
 11
209.6487004113
 21
157.3436778681
 31
0.0
  0
MTEXT
  5
250
330
248
100
AcDbEntity
  8
VERMASSUNG
100
AcDbMText
 10
175.2987010766
 20
159.921813464
 30
0.0
 40
2.0
 41
0.0
 71
     1
 72
     1
  1
57.5
  7
SLDTEXTSTYLE0
 73
     1
 44
1.0
  0
MTEXT
  5
251
330
248
100
AcDbEntity
  8
VERMASSUNG
100
AcDbMText
 10
181.286200839
 20
159.921813464
 30
0.0
 40
2.0
 41
0.0
 71
     1
 72
     1
  1
max.
  7
SLDTEXTSTYLE0
 73
     1
 44
1.0
  0
ENDBLK
  5
24A
330
248
100
AcDbEntity
  8
0
100
AcDbBlockEnd
  0
BLOCK
  5
254
330
253
100
AcDbEntity
  8
0
100
AcDbBlockBegin
  2
_D_7
 70
     0
 10
0.0
 20
0.0
 30
0.0
  3
_D_7
  1

  0
SOLID
  5
256
330
253
100
AcDbEntity
  8
VERMASSUNG
100
AcDbTrace
 10
162.6487004113
 20
149.6546473261
 30
0.0
 11
165.6487004113
 21
149.2046473261
 31
0.0
 12
165.6487004113
 22
150.1046473261
 32
0.0
 13
165.6487004113
 23
150.1046473261
 33
0.0
  0
SOLID
  5
257
330
253
100
AcDbEntity
  8
VERMASSUNG
100
AcDbTrace
 10
209.6487004113
 20
149.6546473261
 30
0.0
 11
206.6487004113
 21
150.1046473261
 31
0.0
 12
206.6487004113
 22
149.2046473261
 32
0.0
 13
206.6487004113
 23
149.2046473261
 33
0.0
  0
LINE
  5
258
330
253
100
AcDbEntity
  8
VERMASSUNG
100
AcDbLine
 10
162.6487004113
 20
125.7472542245
 30
0.0
 11
162.6487004113
 21
150.6546473261
 31
0.0
  0
LINE
  5
259
330
253
100
AcDbEntity
  8
VERMASSUNG
100
AcDbLine
 10
209.6487004113
 20
132.9362779953
 30
0.0
 11
209.6487004113
 21
150.6546473261
 31
0.0
  0
LINE
  5
25A
330
253
100
AcDbEntity
  8
VERMASSUNG
100
AcDbLine
 10
162.6487004113
 20
149.6546473261
 30
0.0
 11
209.6487004113
 21
149.6546473261
 31
0.0
  0
MTEXT
  5
25B
330
253
100
AcDbEntity
  8
VERMASSUNG
100
AcDbMText
 10
181.8487007309
 20
152.2327829221
 30
0.0
 40
2.0
 41
0.0
 71
     1
 72
     1
  1
47
  7
SLDTEXTSTYLE0
 73
     1
 44
1.0
  0
MTEXT
  5
25C
330
253
100
AcDbEntity
  8
VERMASSUNG
100
AcDbMText
 10
186.036200757
 20
152.2327829221
 30
0.0
 40
2.0
 41
0.0
 71
     1
 72
     1
  1
min.
  7
SLDTEXTSTYLE0
 73
     1
 44
1.0
  0
ENDBLK
  5
255
330
253
100
AcDbEntity
  8
0
100
AcDbBlockEnd
  0
BLOCK
  5
25F
330
25E
100
AcDbEntity
  8
0
100
AcDbBlockBegin
  2
_D_8
 70
     0
 10
0.0
 20
0.0
 30
0.0
  3
_D_8
  1

  0
SOLID
  5
261
330
25E
100
AcDbEntity
  8
VERMASSUNG
100
AcDbTrace
 10
129.6487004113
 20
164.0859974203
 30
0.0
 11
132.6487004113
 21
163.6359974203
 31
0.0
 12
132.6487004113
 22
164.5359974203
 32
0.0
 13
132.6487004113
 23
164.5359974203
 33
0.0
  0
SOLID
  5
262
330
25E
100
AcDbEntity
  8
VERMASSUNG
100
AcDbTrace
 10
209.6487004113
 20
164.0859974203
 30
0.0
 11
206.6487004113
 21
164.5359974203
 31
0.0
 12
206.6487004113
 22
163.6359974203
 32
0.0
 13
206.6487004113
 23
163.6359974203
 33
0.0
  0
LINE
  5
263
330
25E
100
AcDbEntity
  8
VERMASSUNG
100
AcDbLine
 10
129.6487004113
 20
144.5222542245
 30
0.0
 11
129.6487004113
 21
165.0859974203
 31
0.0
  0
LINE
  5
264
330
25E
100
AcDbEntity
  8
VERMASSUNG
100
AcDbLine
 10
209.6487004113
 20
132.9362779953
 30
0.0
 11
209.6487004113
 21
165.0859974203
 31
0.0
  0
LINE
  5
265
330
25E
100
AcDbEntity
  8
VERMASSUNG
100
AcDbLine
 10
129.6487004113
 20
164.0859974203
 30
0.0
 11
209.6487004113
 21
164.0859974203
 31
0.0
  0
MTEXT
  5
266
330
25E
100
AcDbEntity
  8
VERMASSUNG
100
AcDbMText
 10
168.2487004612
 20
166.6641330163
 30
0.0
 40
2.0
 41
0.0
 71
     1
 72
     1
  1
80
  7
SLDTEXTSTYLE0
 73
     1
 44
1.0
  0
ENDBLK
  5
260
330
25E
100
AcDbEntity
  8
0
100
AcDbBlockEnd
  0
BLOCK
  5
269
330
268
100
AcDbEntity
  8
0
100
AcDbBlockBegin
  2
_D_9
 70
     0
 10
0.0
 20
0.0
 30
0.0
  3
_D_9
  1

  0
SOLID
  5
26B
330
268
100
AcDbEntity
  8
VERMASSUNG
100
AcDbTrace
 10
209.6487004113
 20
171.2058482143
 30
0.0
 11
206.6487004113
 21
171.6558482143
 31
0.0
 12
206.6487004113
 22
170.7558482143
 32
0.0
 13
206.6487004113
 23
170.7558482143
 33
0.0
  0
SOLID
  5
26C
330
268
100
AcDbEntity
  8
VERMASSUNG
100
AcDbTrace
 10
89.6987004113
 20
171.2058482143
 30
0.0
 11
92.6987004113
 21
170.7558482143
 31
0.0
 12
92.6987004113
 22
171.6558482143
 32
0.0
 13
92.6987004113
 23
171.6558482143
 33
0.0
  0
LINE
  5
26D
330
268
100
AcDbEntity
  8
VERMASSUNG
100
AcDbLine
 10
209.6487004113
 20
132.9362779953
 30
0.0
 11
209.6487004113
 21
172.2058482143
 31
0.0
  0
LINE
  5
26E
330
268
100
AcDbEntity
  8
VERMASSUNG
100
AcDbLine
 10
89.6987004113
 20
135.4503489483
 30
0.0
 11
89.6987004113
 21
172.2058482143
 31
0.0
  0
LINE
  5
26F
330
268
100
AcDbEntity
  8
VERMASSUNG
100
AcDbLine
 10
209.6487004113
 20
171.2058482143
 30
0.0
 11
89.6987004113
 21
171.2058482143
 31
0.0
  0
MTEXT
  5
270
330
268
100
AcDbEntity
  8
VERMASSUNG
100
AcDbMText
 10
146.2737003662
 20
173.7839838102
 30
0.0
 40
2.0
 41
0.0
 71
     1
 72
     1
  1
119.95
  7
SLDTEXTSTYLE0
 73
     1
 44
1.0
  0
ENDBLK
  5
26A
330
268
100
AcDbEntity
  8
0
100
AcDbBlockEnd
  0
ENDSEC
  0
SECTION
  2
ENTITIES
  0
MTEXT
  5
78
330
1F
100
AcDbEntity
  8
KOPF_DÜNN
100
AcDbMText
 10
13.8892156294
 20
23.8442973028
 30
0.0
 40
3.0
 41
0.0
 71
     1
 72
     1
  1
KY6.S25.K01.080
  7
SLDTEXTSTYLE0
 73
     1
 44
1.0
  0
MTEXT
  5
79
330
1F
100
AcDbEntity
  8
VERMASSUNG
100
AcDbMText
 10
13.9329988022
 20
28.8834360957
 30
0.0
 40
3.0
 41
0.0
 71
     1
 72
     1
  1
Schrumpffutter_Heat shrink chuck
  7
SLDTEXTSTYLE0
 73
     1
 44
1.0
  0
MTEXT
  5
7A
330
1F
100
AcDbEntity
  8
VERMASSUNG
100
AcDbMText
 10
98.8601118557
 20
13.8365368761
 30
0.0
 40
2.0
 41
0.0
 71
     1
 72
     1
  1
Datum: 16.02.2018
  7
SLDTEXTSTYLE0
 73
     1
 44
1.0
  0
MTEXT
  5
7B
330
1F
100
AcDbEntity
  8
VERMASSUNG
100
AcDbMText
 10
13.933048693
 20
18.0482802738
 30
0.0
 40
2.0
 41
0.0
 71
     1
 72
     1
  1
KM63 XMZ / Ø25
  7
SLDTEXTSTYLE0
 73
     1
 44
1.0
  0
MTEXT
  5
7C
330
1F
100
AcDbEntity
  8
VERMASSUNG
100
AcDbMText
 10
13.9808475933
 20
13.9090974274
 30
0.0
 40
2.0
 41
0.0
 71
     1
 72
     1
  1
Gewicht: 1311g
  7
SLDTEXTSTYLE0
 73
     1
 44
1.0
  0
CIRCLE
  5
7D
330
1F
100
AcDbEntity
  8
0
  6
Continuous
 62
     7
370
    25
100
AcDbCircle
 10
361.2244867048
 20
113.2472542245
 30
0.0
 40
1.850000000000038
  0
SPLINE
  5
7E
330
1F
100
AcDbEntity
  8
0
  6
Continuous
 62
     7
370
    25
100
AcDbSpline
210
0.0
220
0.0
230
1.0
 70
     8
 71
     3
 72
    11
 73
     7
 74
     0
 42
0.000000001
 43
0.00000001
 40
0.0
 40
0.0
 40
0.0
 40
0.0
 40
0.1234466166972809
 40
0.4778176602295168
 40
0.8145811419325821
 40
1.0
 40
1.0
 40
1.0
 40
1.0
 10
362.8559021538844
 20
113.8290478279758
 30
0.0
 10
362.8438474705801
 20
113.7631910202487
 30
0.0
 10
362.797188107
 20
113.5082828938032
 30
0.0
 10
362.7093591370535
 20
113.0284577559119
 30
0.0
 10
362.6134934418316
 20
112.504727216318
 30
0.0
 10
362.5622413330619
 20
112.2247274627975
 30
0.0
 10
362.544042503347
 20
112.1253038886878
 30
0.0
  0
SPLINE
  5
7F
330
1F
100
AcDbEntity
  8
0
  6
Continuous
 62
     7
370
    25
100
AcDbSpline
210
0.0
220
0.0
230
1.0
 70
     8
 71
     3
 72
    11
 73
     7
 74
     0
 42
0.000000001
 43
0.00000001
 40
0.0
 40
0.0
 40
0.0
 40
0.0
 40
0.2164553925790388
 40
0.4403112837056412
 40
0.7519005236792317
 40
1.0
 40
1.0
 40
1.0
 40
1.0
 10
361.5363463553389
 20
114.9509981637764
 30
0.0
 10
361.6267372102625
 20
114.8741434864159
 30
0.0
 10
361.8106093369511
 20
114.7178065098028
 30
0.0
 10
362.151826860748
 20
114.4276867173953
 30
0.0
 10
362.5178439816442
 20
114.1164812943388
 30
0.0
 10
362.7520728874188
 20
113.9173285098843
 30
0.0
 10
362.8559021538844
 20
113.8290478279758
 30
0.0
  0
SPLINE
  5
80
330
1F
100
AcDbEntity
  8
0
  6
Continuous
 62
     7
370
    25
100
AcDbSpline
210
0.0
220
0.0
230
1.0
 70
     8
 71
     3
 72
    11
 73
     7
 74
     0
 42
0.000000001
 43
0.00000001
 40
0.0
 40
0.0
 40
0.0
 40
0.0
 40
0.2164554119590048
 40
0.4403113129001629
 40
0.7519005551879596
 40
1.0
 40
1.0
 40
1.0
 40
1.0
 10
359.904930906256
 20
114.3692045602891
 30
0.0
 10
360.0166844599223
 20
114.4090579785103
 30
0.0
 10
360.2440123584982
 20
114.4901273809416
 30
0.0
 10
360.6658722263505
 20
114.6405706131883
 30
0.0
 10
361.118392604921
 20
114.8019479829681
 30
0.0
 10
361.4079784215461
 20
114.9052197403919
 30
0.0
 10
361.5363463553389
 20
114.9509981637764
 30
0.0
  0
SPLINE
  5
81
330
1F
100
AcDbEntity
  8
0
  6
Continuous
 62
     7
370
    25
100
AcDbSpline
210
0.0
220
0.0
230
1.0
 70
     8
 71
     3
 72
    11
 73
     7
 74
     0
 42
0.000000001
 43
0.00000001
 40
0.0
 40
0.0
 40
0.0
 40
0.0
 40
0.185418868709806
 40
0.5221823659866281
 40
0.8765533939258532
 40
1.0
 40
1.0
 40
1.0
 40
1.0
 10
359.5930712557187
 20
112.6654606210011
 30
0.0
 10
359.6112701329499
 20
112.7648841936215
 30
0.0
 10
359.6625223751678
 20
113.0448839409341
 30
0.0
 10
359.7583879426793
 20
113.5686145088725
 30
0.0
 10
359.8462170756053
 20
114.048439613305
 30
0.0
 10
359.8928762676459
 20
114.3033477515639
 30
0.0
 10
359.904930906256
 20
114.3692045602891
 30
0.0
  0
SPLINE
  5
82
330
1F
100
AcDbEntity
  8
0
  6
Continuous
 62
     7
370
    25
100
AcDbSpline
210
0.0
220
0.0
230
1.0
 70
     8
 71
     3
 72
    11
 73
     7
 74
     0
 42
0.000000001
 43
0.00000001
 40
0.0
 40
0.0
 40
0.0
 40
0.0
 40
0.2164553925790388
 40
0.4403112837056412
 40
0.7519005236792317
 40
1.0
 40
1.0
 40
1.0
 40
1.0
 10
360.9126270542641
 20
111.5435102852005
 30
0.0
 10
360.8222361993404
 20
111.620364962561
 30
0.0
 10
360.6383640726519
 20
111.7767019391741
 30
0.0
 10
360.297146548855
 20
112.0668217315816
 30
0.0
 10
359.9311294279588
 20
112.3780271546381
 30
0.0
 10
359.6969005221842
 20
112.5771799390926
 30
0.0
 10
359.5930712557187
 20
112.6654606210011
 30
0.0
  0
SPLINE
  5
83
330
1F
100
AcDbEntity
  8
0
  6
Continuous
 62
     7
370
    25
100
AcDbSpline
210
0.0
220
0.0
230
1.0
 70
     8
 71
     3
 72
    11
 73
     7
 74
     0
 42
0.000000001
 43
0.00000001
 40
0.0
 40
0.0
 40
0.0
 40
0.0
 40
0.2164554119590048
 40
0.4403113129001629
 40
0.7519005551879596
 40
1.0
 40
1.0
 40
1.0
 40
1.0
 10
362.544042503347
 20
112.1253038886878
 30
0.0
 10
362.4322889496808
 20
112.0854504704666
 30
0.0
 10
362.2049610511048
 20
112.0043810680353
 30
0.0
 10
361.7831011832525
 20
111.8539378357887
 30
0.0
 10
361.330580804682
 20
111.6925604660089
 30
0.0
 10
361.0409949880568
 20
111.5892887085851
 30
0.0
 10
360.9126270542641
 20
111.5435102852005
 30
0.0
  0
ARC
  5
84
330
1F
100
AcDbEntity
  8
0
  6
Continuous
 62
     7
370
    25
100
AcDbCircle
 10
361.2244867048
 20
113.2472542245
 30
0.0
 40
1.500000000000034
100
AcDbArc
 50
169.6271967899
 51
229.6271967899
  0
ARC
  5
85
330
1F
100
AcDbEntity
  8
0
  6
Continuous
 62
     7
370
    25
100
AcDbCircle
 10
361.2244867048
 20
113.2472542245
 30
0.0
 40
1.500000000000034
100
AcDbArc
 50
109.6271967899
 51
169.6271967899
  0
ARC
  5
86
330
1F
100
AcDbEntity
  8
0
  6
Continuous
 62
     7
370
    25
100
AcDbCircle
 10
361.2244867048
 20
113.2472542245
 30
0.0
 40
1.500000000000007
100
AcDbArc
 50
229.6271967899
 51
289.6271967899
  0
ARC
  5
87
330
1F
100
AcDbEntity
  8
0
  6
Continuous
 62
     7
370
    25
100
AcDbCircle
 10
361.2244867048
 20
113.2472542245
 30
0.0
 40
1.500000000000007
100
AcDbArc
 50
49.6271967899
 51
109.6271967899
  0
ARC
  5
88
330
1F
100
AcDbEntity
  8
0
  6
Continuous
 62
     7
370
    25
100
AcDbCircle
 10
361.2244867048
 20
113.2472542245
 30
0.0
 40
1.499999999999988
100
AcDbArc
 50
289.6271967899
 51
349.6271967899
  0
ARC
  5
89
330
1F
100
AcDbEntity
  8
0
  6
Continuous
 62
     7
370
    25
100
AcDbCircle
 10
361.2244867048
 20
113.2472542245
 30
0.0
 40
1.499999999999978
100
AcDbArc
 50
349.6271967899
 51
49.6271967899
  0
SPLINE
  5
8A
330
1F
100
AcDbEntity
  8
0
  6
Continuous
 62
     7
370
    25
100
AcDbSpline
210
0.0
220
0.0
230
1.0
 70
     8
 71
     3
 72
     8
 73
     4
 74
     0
 42
0.000000001
 43
0.00000001
 40
0.0
 40
0.0
 40
0.0
 40
0.0
 40
1.0
 40
1.0
 40
1.0
 40
1.0
 10
350.8353465951686
 20
108.8772533525236
 30
0.0
 10
350.7665082249819
 20
108.8141586792047
 30
0.0
 10
350.6980768645258
 20
108.7504363010738
 30
0.0
 10
350.630060589861
 20
108.6860908688005
 30
0.0
  0
SPLINE
  5
8B
330
1F
100
AcDbEntity
  8
0
  6
Continuous
 62
     7
370
    25
100
AcDbSpline
210
0.0
220
0.0
230
1.0
 70
     8
 71
     3
 72
     8
 73
     4
 74
     0
 42
0.000000001
 43
0.00000001
 40
0.0
 40
0.0
 40
0.0
 40
0.0
 40
1.0
 40
1.0
 40
1.0
 40
1.0
 10
351.0933738364293
 20
108.7079915225962
 30
0.0
 10
351.0066704022689
 20
108.7641524422655
 30
0.0
 10
350.920672354785
 20
108.8205771785914
 30
0.0
 10
350.8353465951686
 20
108.8772533525236
 30
0.0
  0
ARC
  5
8C
330
1F
100
AcDbEntity
  8
0
  6
Continuous
 62
     7
370
    25
100
AcDbCircle
 10
361.2244867048
 20
113.2472542245
 30
0.0
 40
11.10154736189901
100
AcDbArc
 50
204.1348482805
 51
335.8651517195
  0
SPLINE
  5
8D
330
1F
100
AcDbEntity
  8
0
  6
Continuous
 62
     7
370
    25
100
AcDbSpline
210
0.0
220
0.0
230
1.0
 70
     8
 71
     3
 72
     8
 73
     4
 74
     0
 42
0.000000001
 43
0.00000001
 40
0.0
 40
0.0
 40
0.0
 40
0.0
 40
1.0
 40
1.0
 40
1.0
 40
1.0
 10
371.6136268144344
 20
108.8772533525236
 30
0.0
 10
371.5283010548179
 20
108.8205771785914
 30
0.0
 10
371.442303007334
 20
108.7641524422655
 30
0.0
 10
371.3555995731737
 20
108.7079915225962
 30
0.0
  0
SPLINE
  5
8E
330
1F
100
AcDbEntity
  8
0
  6
Continuous
 62
     7
370
    25
100
AcDbSpline
210
0.0
220
0.0
230
1.0
 70
     8
 71
     3
 72
     8
 73
     4
 74
     0
 42
0.000000001
 43
0.00000001
 40
0.0
 40
0.0
 40
0.0
 40
0.0
 40
1.0
 40
1.0
 40
1.0
 40
1.0
 10
371.818912819742
 20
108.6860908688005
 30
0.0
 10
371.7508965450772
 20
108.7504363010738
 30
0.0
 10
371.6824651846211
 20
108.8141586792047
 30
0.0
 10
371.6136268144344
 20
108.8772533525236
 30
0.0
  0
ARC
  5
8F
330
1F
100
AcDbEntity
  8
0
  6
Continuous
 62
     7
370
    25
100
AcDbCircle
 10
361.2244867048
 20
113.2472542245
 30
0.0
 40
11.53456006379121
100
AcDbArc
 50
203.2930774359
 51
336.7074733161
  0
ARC
  5
90
330
1F
100
AcDbEntity
  8
0
  6
Continuous
 62
     7
370
    25
100
AcDbCircle
 10
361.2244867048
 20
113.2472542245
 30
0.0
 40
11.10154736189899
100
AcDbArc
 50
29.4783538465
 51
150.5216461535
  0
SPLINE
  5
91
330
1F
100
AcDbEntity
  8
0
  6
Continuous
 62
     7
370
    25
100
AcDbSpline
210
0.0
220
0.0
230
1.0
 70
     8
 71
     3
 72
     8
 73
     4
 74
     0
 42
0.000000001
 43
0.00000001
 40
0.0
 40
0.0
 40
0.0
 40
0.0
 40
1.0
 40
1.0
 40
1.0
 40
1.0
 10
351.2485536554771
 20
118.5255534738777
 30
0.0
 10
351.351449569301
 20
118.5875220829686
 30
0.0
 10
351.4552892388558
 20
118.6491007351092
 30
0.0
 10
351.5601271270824
 20
118.7102669263807
 30
0.0
  0
SPLINE
  5
92
330
1F
100
AcDbEntity
  8
0
  6
Continuous
 62
     7
370
    25
100
AcDbSpline
210
0.0
220
0.0
230
1.0
 70
     8
 71
     3
 72
     8
 73
     4
 74
     0
 42
0.000000001
 43
0.00000001
 40
0.0
 40
0.0
 40
0.0
 40
0.0
 40
1.0
 40
1.0
 40
1.0
 40
1.0
 10
351.0600172743632
 20
118.6997432947473
 30
0.0
 10
351.1225855827328
 20
118.6412928256397
 30
0.0
 10
351.1854321760966
 20
118.5832288151066
 30
0.0
 10
351.2485536554795
 20
118.5255534738754
 30
0.0
  0
ARC
  5
93
330
1F
100
AcDbEntity
  8
0
  6
Continuous
 62
     7
370
    25
100
AcDbCircle
 10
361.2244867048
 20
113.2472542245
 30
0.0
 40
11.53456006379119
100
AcDbArc
 50
28.2102805322
 51
151.7902347364
  0
SPLINE
  5
94
330
1F
100
AcDbEntity
  8
0
  6
Continuous
 62
     7
370
    25
100
AcDbSpline
210
0.0
220
0.0
230
1.0
 70
     8
 71
     3
 72
     8
 73
     4
 74
     0
 42
0.000000001
 43
0.00000001
 40
0.0
 40
0.0
 40
0.0
 40
0.0
 40
1.0
 40
1.0
 40
1.0
 40
1.0
 10
371.2004197541238
 20
118.5255534738757
 30
0.0
 10
371.2635412335066
 20
118.5832288151068
 30
0.0
 10
371.3263878268703
 20
118.6412928256398
 30
0.0
 10
371.3889561352398
 20
118.6997432947473
 30
0.0
  0
SPLINE
  5
95
330
1F
100
AcDbEntity
  8
0
  6
Continuous
 62
     7
370
    25
100
AcDbSpline
210
0.0
220
0.0
230
1.0
 70
     8
 71
     3
 72
     8
 73
     4
 74
     0
 42
0.000000001
 43
0.00000001
 40
0.0
 40
0.0
 40
0.0
 40
0.0
 40
1.0
 40
1.0
 40
1.0
 40
1.0
 10
370.8888462825205
 20
118.7102669263807
 30
0.0
 10
370.9936841707467
 20
118.6491007351094
 30
0.0
 10
371.0975238403013
 20
118.587522082969
 30
0.0
 10
371.2004197541248
 20
118.5255534738783
 30
0.0
  0
SPLINE
  5
96
330
1F
100
AcDbEntity
  8
0
  6
Continuous
 62
     7
370
    25
100
AcDbSpline
210
0.0
220
0.0
230
1.0
 70
     8
 71
     3
 72
     8
 73
     4
 74
     0
 42
0.000000001
 43
0.00000001
 40
0.0000004028655191
 40
0.0000004028655191
 40
0.0000004028655191
 40
0.0000004028655191
 40
0.0015137684369673
 40
0.0015137684369673
 40
0.0015137684369673
 40
0.0015137684369673
 10
352.8008920476594
 20
108.924978820704
 30
0.0
 10
352.5942205601081
 20
108.8526848789893
 30
0.0
 10
352.3876015915675
 20
108.7803533930325
 30
0.0
 10
352.1810252167589
 20
108.7079915225962
 30
0.0
  0
LINE
  5
97
330
1F
100
AcDbEntity
  8
0
  6
Continuous
 62
     7
370
    25
100
AcDbLine
 10
352.1810250616
 20
108.7079917211
 30
0.0
 11
351.0933734736
 21
108.7079917211
 31
0.0
  0
LINE
  5
98
330
1F
100
AcDbEntity
  8
0
  6
Continuous
 62
     7
370
    25
100
AcDbLine
 10
351.0584013796
 20
109.1410040986
 30
0.0
 11
350.835346829
 21
108.8772535454
 31
0.0
  0
LINE
  5
99
330
1F
100
AcDbEntity
  8
0
  6
Continuous
 62
     7
370
    25
100
AcDbLine
 10
352.8260115794
 20
109.1410040986
 30
0.0
 11
351.0586165151
 21
109.1410040986
 31
0.0
  0
LINE
  5
9A
330
1F
100
AcDbEntity
  8
0
  6
Continuous
 62
     7
370
    25
100
AcDbLine
 10
352.8366687036
 20
108.9834233876
 30
0.0
 11
352.8260115794
 21
109.1410040986
 31
0.0
  0
SPLINE
  5
9B
330
1F
100
AcDbEntity
  8
0
  6
Continuous
 62
     7
370
    25
100
AcDbSpline
210
0.0
220
0.0
230
1.0
 70
     8
 71
     3
 72
     8
 73
     4
 74
     0
 42
0.000000001
 43
0.00000001
 40
0.0006523765358269
 40
0.0006523765358269
 40
0.0006523765358269
 40
0.0006523765358269
 40
0.0009043636494504
 40
0.0009043636494504
 40
0.0009043636494504
 40
0.0009043636494504
 10
352.8377689226943
 20
108.9852169181527
 30
0.0
 10
352.8254519281768
 20
108.9651413371705
 30
0.0
 10
352.8131597307728
 20
108.945061948648
 30
0.0
 10
352.8008920476594
 20
108.924978820704
 30
0.0
  0
LINE
  5
9C
330
1F
100
AcDbEntity
  8
0
  6
Continuous
 62
     7
370
    25
100
AcDbLine
 10
351.248553235
 20
118.5255533215
 30
0.0
 11
351.4569618067
 21
118.2772543412
 31
0.0
  0
LINE
  5
9D
330
1F
100
AcDbEntity
  8
0
  6
Continuous
 62
     7
370
    25
100
AcDbLine
 10
352.7071757502
 20
118.7102667186
 30
0.0
 11
351.5601272023
 21
118.7102667186
 31
0.0
  0
SPLINE
  5
9E
330
1F
100
AcDbEntity
  8
0
  6
Continuous
 62
     7
370
    25
100
AcDbSpline
210
0.0
220
0.0
230
1.0
 70
     8
 71
     3
 72
     8
 73
     4
 74
     0
 42
0.000000001
 43
0.00000001
 40
0.0000004089325119
 40
0.0000004089325119
 40
0.0000004089325119
 40
0.0000004089325119
 40
0.0015399868451459
 40
0.0015399868451459
 40
0.0015399868451459
 40
0.0015399868451459
 10
352.7071752873726
 20
118.7102669263807
 30
0.0
 10
352.9189365461671
 20
118.6378120437272
 30
0.0
 10
353.1308568693573
 20
118.5654731736987
 30
0.0
 10
353.3429748525716
 20
118.4932796282729
 30
0.0
  0
LINE
  5
9F
330
1F
100
AcDbEntity
  8
0
  6
Continuous
 62
     7
370
    25
100
AcDbLine
 10
353.3429747707
 20
118.4932797346
 30
0.0
 11
353.3511275685
 21
118.478067046
 31
0.0
  0
LINE
  5
A0
330
1F
100
AcDbEntity
  8
0
  6
Continuous
 62
     7
370
    25
100
AcDbLine
 10
353.3487573526
 20
118.2772543412
 30
0.0
 11
353.3511284998
 21
118.4780675117
 31
0.0
  0
LINE
  5
A1
330
1F
100
AcDbEntity
  8
0
  6
Continuous
 62
     7
370
    25
100
AcDbLine
 10
353.3487573526
 20
118.2772543412
 30
0.0
 11
351.4569618067
 21
118.2772543412
 31
0.0
  0
LINE
  5
A2
330
1F
100
AcDbEntity
  8
0
  6
Continuous
 62
     7
370
    25
100
AcDbLine
 10
371.6136265806
 20
108.8772535454
 30
0.0
 11
371.39057203
 21
109.1410040986
 31
0.0
  0
LINE
  5
A3
330
1F
100
AcDbEntity
  8
0
  6
Continuous
 62
     7
370
    25
100
AcDbLine
 10
371.355599936
 20
108.7079917211
 30
0.0
 11
370.267948348
 21
108.7079917211
 31
0.0
  0
SPLINE
  5
A4
330
1F
100
AcDbEntity
  8
0
  6
Continuous
 62
     7
370
    25
100
AcDbSpline
210
0.0
220
0.0
230
1.0
 70
     8
 71
     3
 72
     8
 73
     4
 74
     0
 42
0.000000001
 43
0.00000001
 40
0.0000004024872366
 40
0.0000004024872366
 40
0.0000004024872366
 40
0.0000004024872366
 40
0.0015137680586847
 40
0.0015137680586847
 40
0.0015137680586847
 40
0.0015137680586847
 10
370.2679481928441
 20
108.7079915225962
 30
0.0
 10
370.0613718180355
 20
108.7803533930325
 30
0.0
 10
369.8547528494948
 20
108.8526848789893
 30
0.0
 10
369.6480813619435
 20
108.924978820704
 30
0.0
  0
SPLINE
  5
A5
330
1F
100
AcDbEntity
  8
0
  6
Continuous
 62
     7
370
    25
100
AcDbSpline
210
0.0
220
0.0
230
1.0
 70
     8
 71
     3
 72
     8
 73
     4
 74
     0
 42
0.000000001
 43
0.00000001
 40
0.0000002414707367
 40
0.0000002414707367
 40
0.0000002414707367
 40
0.0000002414707367
 40
0.0002447240690309
 40
0.0002447240690309
 40
0.0002447240690309
 40
0.0002447240690309
 10
369.6480813619435
 20
108.924978820704
 30
0.0
 10
369.6361790265885
 20
108.9444638466506
 30
0.0
 10
369.6242536153767
 20
108.963945352475
 30
0.0
 10
369.6123048700819
 20
108.9834232759868
 30
0.0
  0
LINE
  5
A6
330
1F
100
AcDbEntity
  8
0
  6
Continuous
 62
     7
370
    25
100
AcDbLine
 10
369.6229618302
 20
109.1410040986
 30
0.0
 11
369.612304706
 21
108.9834233876
 31
0.0
  0
LINE
  5
A7
330
1F
100
AcDbEntity
  8
0
  6
Continuous
 62
     7
370
    25
100
AcDbLine
 10
371.39057203
 20
109.1410040986
 30
0.0
 11
369.6178535259
 21
109.1410040986
 31
0.0
  0
SPLINE
  5
A8
330
1F
100
AcDbEntity
  8
0
  6
Continuous
 62
     7
370
    25
100
AcDbSpline
210
0.0
220
0.0
230
1.0
 70
     8
 71
     3
 72
     8
 73
     4
 74
     0
 42
0.000000001
 43
0.00000001
 40
0.000000410413179
 40
0.000000410413179
 40
0.000000410413179
 40
0.000000410413179
 40
0.0015399883258131
 40
0.0015399883258131
 40
0.0015399883258131
 40
0.0015399883258131
 10
369.1059985570314
 20
118.4932796282729
 30
0.0
 10
369.3181165402457
 20
118.5654731736987
 30
0.0
 10
369.530036863436
 20
118.6378120437272
 30
0.0
 10
369.7417981222304
 20
118.7102669263807
 30
0.0
  0
LINE
  5
A9
330
1F
100
AcDbEntity
  8
0
  6
Continuous
 62
     7
370
    25
100
AcDbLine
 10
370.8888462073
 20
118.7102667186
 30
0.0
 11
369.7417976594
 21
118.7102667186
 31
0.0
  0
LINE
  5
AA
330
1F
100
AcDbEntity
  8
0
  6
Continuous
 62
     7
370
    25
100
AcDbLine
 10
370.9920116029
 20
118.2772543412
 30
0.0
 11
371.2004201746
 21
118.5255533215
 31
0.0
  0
LINE
  5
AB
330
1F
100
AcDbEntity
  8
0
  6
Continuous
 62
     7
370
    25
100
AcDbLine
 10
370.991821613
 20
118.2772543412
 30
0.0
 11
369.100216057
 21
118.2772543412
 31
0.0
  0
LINE
  5
AC
330
1F
100
AcDbEntity
  8
0
  6
Continuous
 62
     7
370
    25
100
AcDbLine
 10
369.0978449098
 20
118.478067046
 30
0.0
 11
369.100216057
 21
118.2772543412
 31
0.0
  0
LINE
  5
AD
330
1F
100
AcDbEntity
  8
0
  6
Continuous
 62
     7
370
    25
100
AcDbLine
 10
369.0978458411
 20
118.478067046
 30
0.0
 11
369.1059986389
 21
118.4932797346
 31
0.0
  0
ARC
  5
AE
330
1F
100
AcDbEntity
  8
0
  6
Continuous
 62
     7
370
    25
100
AcDbCircle
 10
361.2244867048
 20
113.2472542245
 30
0.0
 40
10.11875000000003
100
AcDbArc
 50
32.6761561262
 51
147.3238438738
  0
ARC
  5
AF
330
1F
100
AcDbEntity
  8
0
  6
Continuous
 62
     7
370
    25
100
AcDbCircle
 10
361.2244867048
 20
113.2472542245
 30
0.0
 40
10.11875
100
AcDbArc
 50
206.6538426687
 51
333.3461573313
  0
ARC
  5
B0
330
1F
100
AcDbEntity
  8
0
  6
Continuous
 62
     7
370
    25
100
AcDbCircle
 10
361.2244867048
 20
113.2472542245
 30
0.0
 40
9.467788105676684
100
AcDbArc
 50
33.6481949792
 51
146.3518050208
  0
ARC
  5
B1
330
1F
100
AcDbEntity
  8
0
  6
Continuous
 62
     7
370
    25
100
AcDbCircle
 10
361.2244867048
 20
113.2472542245
 30
0.0
 40
9.467788105676657
100
AcDbArc
 50
207.1630537883
 51
332.8369462117
  0
SPLINE
  5
B2
330
1F
100
AcDbEntity
  8
0
  6
Continuous
 62
     7
370
    25
100
AcDbSpline
210
0.0
220
0.0
230
1.0
 70
     8
 71
     3
 72
     8
 73
     4
 74
     0
 42
0.000000001
 43
0.00000001
 40
0.0
 40
0.0
 40
0.0
 40
0.0
 40
1.0
 40
1.0
 40
1.0
 40
1.0
 10
350.630060589671
 20
108.6860908689118
 30
0.0
 10
350.5768177647294
 20
108.6866145951496
 30
0.0
 10
350.5235224791137
 20
108.687412688412
 30
0.0
 10
350.4701769736242
 20
108.6884857363368
 30
0.0
  0
LINE
  5
B3
330
1F
100
AcDbEntity
  8
0
  6
Continuous
 62
     7
370
    25
100
AcDbLine
 10
350.8982641882
 20
109.1410040986
 30
0.0
 11
351.0584013796
 21
109.1410040986
 31
0.0
  0
LINE
  5
B4
330
1F
100
AcDbEntity
  8
0
  6
Continuous
 62
     7
370
    25
100
AcDbLine
 10
371.39057203
 20
109.1410040986
 30
0.0
 11
371.5507092214
 21
109.1410040986
 31
0.0
  0
SPLINE
  5
B5
330
1F
100
AcDbEntity
  8
0
  6
Continuous
 62
     7
370
    25
100
AcDbSpline
210
0.0
220
0.0
230
1.0
 70
     8
 71
     3
 72
     8
 73
     4
 74
     0
 42
0.000000001
 43
0.00000001
 40
0.0
 40
0.0
 40
0.0
 40
0.0
 40
1.0
 40
1.0
 40
1.0
 40
1.0
 10
371.9787964359788
 20
108.6884857363368
 30
0.0
 10
371.9254509304893
 20
108.687412688412
 30
0.0
 10
371.8721556448736
 20
108.6866145951496
 30
0.0
 10
371.8189128199319
 20
108.6860908689118
 30
0.0
  0
LINE
  5
B6
330
1F
100
AcDbEntity
  8
0
  6
Continuous
 62
     7
370
    25
100
AcDbLine
 10
351.4569618067
 20
118.2772543412
 30
0.0
 11
351.3335448018
 21
118.2772543412
 31
0.0
  0
SPLINE
  5
B7
330
1F
100
AcDbEntity
  8
0
  6
Continuous
 62
     7
370
    25
100
AcDbSpline
210
0.0
220
0.0
230
1.0
 70
     8
 71
     3
 72
     8
 73
     4
 74
     0
 42
0.000000001
 43
0.00000001
 40
0.0
 40
0.0
 40
0.0
 40
0.0
 40
1.0
 40
1.0
 40
1.0
 40
1.0
 10
350.9367957801217
 20
118.6976997414248
 30
0.0
 10
350.9779112071635
 20
118.6985686790648
 30
0.0
 10
351.0189855017746
 20
118.6992497166477
 30
0.0
 10
351.0600172742637
 20
118.6997432947091
 30
0.0
  0
SPLINE
  5
B8
330
1F
100
AcDbEntity
  8
0
  6
Continuous
 62
     7
370
    25
100
AcDbSpline
210
0.0
220
0.0
230
1.0
 70
     8
 71
     3
 72
     8
 73
     4
 74
     0
 42
0.000000001
 43
0.00000001
 40
0.0
 40
0.0
 40
0.0
 40
0.0
 40
1.0
 40
1.0
 40
1.0
 40
1.0
 10
371.3889561353392
 20
118.6997432947091
 30
0.0
 10
371.4299879078283
 20
118.6992497166477
 30
0.0
 10
371.4710622024394
 20
118.6985686790648
 30
0.0
 10
371.5121776294812
 20
118.6976997414248
 30
0.0
  0
LINE
  5
B9
330
1F
100
AcDbEntity
  8
0
  6
Continuous
 62
     7
370
    25
100
AcDbLine
 10
371.1154286078
 20
118.2772543412
 30
0.0
 11
370.9920116029
 21
118.2772543412
 31
0.0
  0
SPLINE
  5
BA
330
1F
100
AcDbEntity
  8
0
  6
Continuous
 62
     7
370
    25
100
AcDbSpline
210
0.0
220
0.0
230
1.0
 70
     8
 71
     3
 72
     9
 73
     5
 74
     0
 42
0.000000001
 43
0.00000001
 40
0.0
 40
0.0
 40
0.0
 40
0.0
 40
0.4897878789203994
 40
0.9999999999999999
 40
0.9999999999999999
 40
0.9999999999999999
 40
0.9999999999999999
 10
368.3300762694529
 20
118.4703710907262
 30
0.0
 10
368.4564313516742
 20
118.4716898164795
 30
0.0
 10
368.7144105456463
 20
118.4743822590858
 30
0.0
 10
368.9683052939357
 20
118.4768223369218
 30
0.0
 10
369.0978454719915
 20
118.4780672942101
 30
0.0
  0
ARC
  5
BB
330
1F
100
AcDbEntity
  8
0
  6
Continuous
 62
     7
370
    25
100
AcDbCircle
 10
361.2244867048
 20
113.2472542245
 30
0.0
 40
8.818750000000028
100
AcDbArc
 50
36.3185452201
 51
143.6814533294
  0
SPLINE
  5
BC
330
1F
100
AcDbEntity
  8
0
  6
Continuous
 62
     7
370
    25
100
AcDbSpline
210
0.0
220
0.0
230
1.0
 70
     8
 71
     3
 72
     9
 73
     5
 74
     0
 42
0.000000001
 43
0.00000001
 40
0.0
 40
0.0
 40
0.0
 40
0.0
 40
0.5102121239851395
 40
0.9999999999999999
 40
0.9999999999999999
 40
0.9999999999999999
 40
0.9999999999999999
 10
353.3511278364867
 20
118.4780674828144
 30
0.0
 10
353.4806680543376
 20
118.4768225241235
 30
0.0
 10
353.7345628791783
 20
118.4743824435525
 30
0.0
 10
353.992542152188
 20
118.4716899978593
 30
0.0
 10
354.1188972723713
 20
118.470371270602
 30
0.0
  0
SPLINE
  5
BD
330
1F
100
AcDbEntity
  8
0
  6
Continuous
 62
     7
370
    25
100
AcDbSpline
210
0.0
220
0.0
230
1.0
 70
     8
 71
     3
 72
     8
 73
     4
 74
     0
 42
0.000000001
 43
0.00000001
 40
0.0
 40
0.0
 40
0.0
 40
0.0
 40
1.0
 40
1.0
 40
1.0
 40
1.0
 10
354.1188970186968
 20
118.4703708013248
 30
0.0
 10
354.1111359607513
 20
118.4598125661257
 30
0.0
 10
354.1033984356555
 20
118.4492370325994
 30
0.0
 10
354.0956845202859
 20
118.4386443058199
 30
0.0
  0
SPLINE
  5
BE
330
1F
100
AcDbEntity
  8
0
  6
Continuous
 62
     7
370
    25
100
AcDbSpline
210
0.0
220
0.0
230
1.0
 70
     8
 71
     3
 72
     8
 73
     4
 74
     0
 42
0.000000001
 43
0.00000001
 40
0.0
 40
0.0
 40
0.0
 40
0.0
 40
1.0
 40
1.0
 40
1.0
 40
1.0
 10
353.9241266875229
 20
118.2772545633567
 30
0.0
 10
353.9813870945574
 20
118.3311627403445
 30
0.0
 10
354.0385734856671
 20
118.3849596654276
 30
0.0
 10
354.0956845202859
 20
118.4386443058199
 30
0.0
  0
LINE
  5
BF
330
1F
100
AcDbEntity
  8
0
  6
Continuous
 62
     7
370
    25
100
AcDbLine
 10
353.9241275078
 20
118.2772543412
 30
0.0
 11
353.3487573526
 21
118.2772543412
 31
0.0
  0
SPLINE
  5
C0
330
1F
100
AcDbEntity
  8
0
  6
Continuous
 62
     7
370
    25
100
AcDbSpline
210
0.0
220
0.0
230
1.0
 70
     8
 71
     3
 72
     8
 73
     4
 74
     0
 42
0.000000001
 43
0.00000001
 40
0.0
 40
0.0
 40
0.0
 40
0.0
 40
1.0
 40
1.0
 40
1.0
 40
1.0
 10
368.3534043210981
 20
118.4384857915211
 30
0.0
 10
368.3456522083974
 20
118.4491314681937
 30
0.0
 10
368.3378762497302
 20
118.4597597803879
 30
0.0
 10
368.3300765231268
 20
118.4703706214503
 30
0.0
  0
LINE
  5
C1
330
1F
100
AcDbEntity
  8
0
  6
Continuous
 62
     7
370
    25
100
AcDbLine
 10
369.100216057
 20
118.2772543412
 30
0.0
 11
368.5248174964
 21
118.2772543412
 31
0.0
  0
SPLINE
  5
C2
330
1F
100
AcDbEntity
  8
0
  6
Continuous
 62
     7
370
    25
100
AcDbSpline
210
0.0
220
0.0
230
1.0
 70
     8
 71
     3
 72
     8
 73
     4
 74
     0
 42
0.000000001
 43
0.00000001
 40
0.0
 40
0.0
 40
0.0
 40
0.0
 40
1.0
 40
1.0
 40
1.0
 40
1.0
 10
368.3534043210981
 20
118.4384857915211
 30
0.0
 10
368.4104674487842
 20
118.3848538411053
 30
0.0
 10
368.4676058285145
 20
118.3311097547403
 30
0.0
 10
368.5248181219883
 20
118.2772545634901
 30
0.0
  0
ARC
  5
C3
330
1F
100
AcDbEntity
  8
0
  6
Continuous
 62
     7
370
    25
100
AcDbCircle
 10
361.2244867048
 20
113.2472542245
 30
0.0
 40
8.818750000000044
100
AcDbArc
 50
209.2047569376
 51
330.7952430624
  0
SPLINE
  5
C4
330
1F
100
AcDbEntity
  8
0
  6
Continuous
 62
     7
370
    25
100
AcDbSpline
210
0.0
220
0.0
230
1.0
 70
    24
 71
     3
 72
     8
 73
     4
 74
     0
 42
0.000000001
 43
0.00000001
 40
0.0
 40
0.0
 40
0.0
 40
0.0
 40
0.000136040218399
 40
0.000136040218399
 40
0.000136040218399
 40
0.000136040218399
 10
368.9656221016457
 20
108.9877137936373
 30
0.0
 10
368.9511831019617
 20
108.9732747939532
 30
0.0
 10
368.9367126495994
 20
108.9588043415909
 30
0.0
 10
368.922211051048
 20
108.9443027430395
 30
0.0
  0
SPLINE
  5
C5
330
1F
100
AcDbEntity
  8
0
  6
Continuous
 62
     7
370
    25
100
AcDbSpline
210
0.0
220
0.0
230
1.0
 70
     8
 71
     3
 72
     9
 73
     5
 74
     0
 42
0.000000001
 43
0.00000001
 40
0.0
 40
0.0
 40
0.0
 40
0.0
 40
0.5086448740973026
 40
1.0
 40
1.0
 40
1.0
 40
1.0
 10
369.6123048304021
 20
108.9834231878522
 30
0.0
 10
369.5031387814042
 20
108.9841170366972
 30
0.0
 10
369.2885174324884
 20
108.985481149225
 30
0.0
 10
369.0720061198111
 20
108.9869779691629
 30
0.0
 10
368.9656221765111
 20
108.9877134393119
 30
0.0
  0
SPLINE
  5
C6
330
1F
100
AcDbEntity
  8
0
  6
Continuous
 62
     7
370
    25
100
AcDbSpline
210
0.0
220
0.0
230
1.0
 70
     8
 71
     3
 72
     9
 73
     5
 74
     0
 42
0.000000001
 43
0.00000001
 40
0.0
 40
0.0
 40
0.0
 40
0.0
 40
0.4913551252639757
 40
1.0
 40
1.0
 40
1.0
 40
1.0
 10
353.4833512635563
 20
108.9877134088473
 30
0.0
 10
353.3769673121643
 20
108.9869779385185
 30
0.0
 10
353.1604559827366
 20
108.9854811182128
 30
0.0
 10
352.9458346173698
 20
108.9841170053585
 30
0.0
 10
352.8366685598672
 20
108.9834231563466
 30
0.0
  0
SPLINE
  5
C7
330
1F
100
AcDbEntity
  8
0
  6
Continuous
 62
     7
370
    25
100
AcDbSpline
210
0.0
220
0.0
230
1.0
 70
    24
 71
     3
 72
     8
 73
     4
 74
     0
 42
0.000000001
 43
0.00000001
 40
0.0
 40
0.0
 40
0.0
 40
0.0
 40
0.0001360401227241
 40
0.0001360401227241
 40
0.0001360401227241
 40
0.0001360401227241
 10
353.5267623585549
 20
108.9443027430395
 30
0.0
 10
353.5122607702023
 20
108.9588043313922
 30
0.0
 10
353.4977903279951
 20
108.9732747735994
 30
0.0
 10
353.4833513384217
 20
108.9877137631728
 30
0.0
  0
LINE
  5
C8
330
1F
100
AcDbEntity
  8
0
  6
Continuous
 62
     7
370
    25
100
AcDbLine
 10
352.8260115794
 20
109.1410040986
 30
0.0
 11
353.3300610519
 21
109.1410040986
 31
0.0
  0
SPLINE
  5
C9
330
1F
100
AcDbEntity
  8
0
  6
Continuous
 62
     7
370
    25
100
AcDbSpline
210
0.0
220
0.0
230
1.0
 70
     8
 71
     3
 72
     8
 73
     4
 74
     0
 42
0.000000001
 43
0.00000001
 40
0.0
 40
0.0
 40
0.0
 40
0.0
 40
1.0
 40
1.0
 40
1.0
 40
1.0
 10
353.4833515382537
 20
108.9877135635857
 30
0.0
 10
353.4322827756492
 20
109.0387560553297
 30
0.0
 10
353.3811858160133
 20
109.0898530273557
 30
0.0
 10
353.3300609744976
 20
109.1410041270969
 30
0.0
  0
SPLINE
  5
CA
330
1F
100
AcDbEntity
  8
0
  6
Continuous
 62
     7
370
    25
100
AcDbSpline
210
0.0
220
0.0
230
1.0
 70
     8
 71
     3
 72
     8
 73
     4
 74
     0
 42
0.000000001
 43
0.00000001
 40
0.0
 40
0.0
 40
0.0
 40
0.0
 40
1.0
 40
1.0
 40
1.0
 40
1.0
 10
369.1189124351054
 20
109.141004127097
 30
0.0
 10
369.0677876037602
 20
109.0898530375417
 30
0.0
 10
369.0166906542792
 20
109.0387560756706
 30
0.0
 10
368.9656219018138
 20
108.9877135940502
 30
0.0
  0
LINE
  5
CB
330
1F
100
AcDbEntity
  8
0
  6
Continuous
 62
     7
370
    25
100
AcDbLine
 10
369.1189123577
 20
109.1410040986
 30
0.0
 11
369.6229618302
 21
109.1410040986
 31
0.0
  0
CIRCLE
  5
CC
330
1F
100
AcDbEntity
  8
0
  6
Continuous
 62
     7
370
    25
100
AcDbCircle
 10
361.2244867048
 20
113.2472542245
 30
0.0
 40
12.47086902276419
  0
SPLINE
  5
CD
330
1F
100
AcDbEntity
  8
0
  6
Continuous
 62
     7
370
    25
100
AcDbSpline
210
0.0
220
0.0
230
1.0
 70
     8
 71
     3
 72
    23
 73
    19
 74
     0
 42
0.000000001
 43
0.00000001
 40
0.0
 40
0.0
 40
0.0
 40
0.0
 40
0.0521036415675031
 40
0.1035646240925967
 40
0.1544751946736949
 40
0.2049306267473421
 40
0.2550287880844035
 40
0.3048696389141012
 40
0.3545546704609132
 40
0.4041862979523234
 40
0.4538672252126086
 40
0.5036997999421611
 40
0.5901870230746071
 40
0.674271637822954
 40
0.7565997087222995
 40
0.8378563983721267
 40
0.9187511781367398
 40
1.0
 40
1.0
 40
1.0
 40
1.0
 10
350.385234558144
 20
117.7376649372384
 30
0.0
 10
350.3985289130937
 20
117.7668328303999
 30
0.0
 10
350.4249536471718
 20
117.8248088528039
 30
0.0
 10
350.4641646533958
 20
117.9077081538159
 30
0.0
 10
350.5026066082014
 20
117.9868901348334
 30
0.0
 10
350.5401941896681
 20
118.0621449516354
 30
0.0
 10
350.5768500759756
 20
118.1335646058931
 30
0.0
 10
350.6124999400343
 20
118.2011612146747
 30
0.0
 10
350.6470736867955
 20
118.2649675361392
 30
0.0
 10
350.6805053807515
 20
118.3250110782084
 30
0.0
 10
350.7127322579764
 20
118.3813177749351
 30
0.0
 10
350.7512336948661
 20
118.4467227567588
 30
0.0
 10
350.7938951755795
 20
118.5162838345949
 30
0.0
 10
350.8373882177025
 20
118.5830433312593
 30
0.0
 10
350.8738007145305
 20
118.6347673793571
 30
0.0
 10
350.9027015210077
 20
118.671215691409
 30
0.0
 10
350.924618977106
 20
118.6938130882922
 30
0.0
 10
350.9327309415992
 20
118.6964023058535
 30
0.0
 10
350.9367957801217
 20
118.6976997414248
 30
0.0
  0
SPLINE
  5
CE
330
1F
100
AcDbEntity
  8
0
  6
Continuous
 62
     7
370
    25
100
AcDbSpline
210
0.0
220
0.0
230
1.0
 70
     8
 71
     3
 72
     8
 73
     4
 74
     0
 42
0.000000001
 43
0.00000001
 40
0.0
 40
0.0
 40
0.0
 40
0.0
 40
1.0
 40
1.0
 40
1.0
 40
1.0
 10
350.2645966182812
 20
117.7354545798285
 30
0.0
 10
350.3047856318742
 20
117.7361848900461
 30
0.0
 10
350.3449479339642
 20
117.7367654158756
 30
0.0
 10
350.3850826444398
 20
117.7371963808253
 30
0.0
  0
SPLINE
  5
CF
330
1F
100
AcDbEntity
  8
0
  6
Continuous
 62
     7
370
    25
100
AcDbSpline
210
0.0
220
0.0
230
1.0
 70
     8
 71
     3
 72
    18
 73
    14
 74
     0
 42
0.000000001
 43
0.00000001
 40
0.0
 40
0.0
 40
0.0
 40
0.0
 40
0.0923824559411628
 40
0.1844689291573508
 40
0.2764953615950219
 40
0.3686975365494161
 40
0.4613092840003458
 40
0.5545607518442569
 40
0.6486768051537182
 40
0.7438756050146744
 40
0.8403674044302629
 40
0.9203921078121001
 40
1.0
 40
1.0
 40
1.0
 40
1.0
 10
350.3175356070807
 20
118.0022715867104
 30
0.0
 10
350.3193712607333
 20
118.0020632744952
 30
0.0
 10
350.3230366868162
 20
118.001647317473
 30
0.0
 10
350.3258320164355
 20
117.9948428940069
 30
0.0
 10
350.326634311514
 20
117.9835095153547
 30
0.0
 10
350.3252681744708
 20
117.9672091203282
 30
0.0
 10
350.3218066258419
 20
117.9460578814923
 30
0.0
 10
350.3162653200725
 20
117.9200221803758
 30
0.0
 10
350.3086808520036
 20
117.8890978007246
 30
0.0
 10
350.2991038500667
 20
117.8532987692799
 30
0.0
 10
350.288263374048
 20
117.8150478617487
 30
0.0
 10
350.2767747331091
 20
117.7758296483544
 30
0.0
 10
350.2686747482309
 20
117.7489746715049
 30
0.0
 10
350.2646353305881
 20
117.7355822431346
 30
0.0
  0
LINE
  5
D0
330
1F
100
AcDbEntity
  8
0
  6
Continuous
 62
     7
370
    25
100
AcDbLine
 10
350.2647804356
 20
118.0015237201
 30
0.0
 11
350.3175352028
 21
118.0022715721
 31
0.0
  0
SPLINE
  5
D1
330
1F
100
AcDbEntity
  8
0
  6
Continuous
 62
     7
370
    25
100
AcDbSpline
210
0.0
220
0.0
230
1.0
 70
     8
 71
     3
 72
    25
 73
    21
 74
     0
 42
0.000000001
 43
0.00000001
 40
0.0
 40
0.0
 40
0.0
 40
0.0
 40
0.0280105225426465
 40
0.0559601148860768
 40
0.0839014045043132
 40
0.1118870776786367
 40
0.1399695827588937
 40
0.1682008401739883
 40
0.196631967042422
 40
0.2253130233141467
 40
0.2542927850735845
 40
0.3799486436587335
 40
0.5057850221667067
 40
0.6313085886338298
 40
0.7532068238012468
 40
0.8039473267955921
 40
0.8535894438554446
 40
0.9025339722394071
 40
0.9511970353791085
 40
1.0
 40
1.0
 40
1.0
 40
1.0
 10
349.3538188400278
 20
115.4345919670228
 30
0.0
 10
349.3607979099388
 20
115.4719019805296
 30
0.0
 10
349.3747408684615
 20
115.5464408485232
 30
0.0
 10
349.3972627659044
 20
115.6577498940063
 30
0.0
 10
349.420896378002
 20
115.7684121030208
 30
0.0
 10
349.44574596849
 20
115.8783962359651
 30
0.0
 10
349.4717645929762
 20
115.9876913795796
 30
0.0
 10
349.4989459742941
 20
116.0962823487818
 30
0.0
 10
349.5272716156267
 20
116.2041530587242
 30
0.0
 10
349.5567303964593
 20
116.3112980044492
 30
0.0
 10
349.6211386843713
 20
116.5354728909611
 30
0.0
 10
349.7262403764432
 20
116.8621383049971
 30
0.0
 10
349.8717031372394
 20
117.248084910317
 30
0.0
 10
350.0109665453491
 20
117.5701647230071
 30
0.0
 10
350.1081148982167
 20
117.7659853070388
 30
0.0
 10
350.1684103044429
 20
117.8753327575221
 30
0.0
 10
350.2032988873242
 20
117.9332607819375
 30
0.0
 10
350.2311933892521
 20
117.9737147347024
 30
0.0
 10
350.2525584816237
 20
117.9983289501014
 30
0.0
 10
350.2607024291964
 20
118.0004578776091
 30
0.0
 10
350.2647802478415
 20
118.0015238692805
 30
0.0
  0
ARC
  5
D2
330
1F
100
AcDbEntity
  8
0
  6
Continuous
 62
     7
370
    25
100
AcDbCircle
 10
361.2244867048
 20
113.2472542245
 30
0.0
 40
12.07050959801142
100
AcDbArc
 50
169.5595567507
 51
190.4404432494
  0
SPLINE
  5
D3
330
1F
100
AcDbEntity
  8
0
  6
Continuous
 62
     7
370
    25
100
AcDbSpline
210
0.0
220
0.0
230
1.0
 70
     8
 71
     3
 72
    26
 73
    22
 74
     0
 42
0.000000001
 43
0.00000001
 40
0.0
 40
0.0
 40
0.0
 40
0.0
 40
0.0241259796963635
 40
0.0482159912272988
 40
0.0723203915124065
 40
0.0964895678710797
 40
0.1207736231963513
 40
0.1452220711242836
 40
0.1698835501657706
 40
0.1948055644472379
 40
0.2200342569517627
 40
0.2456142191611387
 40
0.3690971486901655
 40
0.4940698769485187
 40
0.6192566784762451
 40
0.7454656653603225
 40
0.7971495824713707
 40
0.8481710308405392
 40
0.8988013269235234
 40
0.9493179290492194
 40
1.0
 40
1.0
 40
1.0
 40
1.0
 10
350.2647802478415
 20
108.4929845796964
 30
0.0
 10
350.262869933101
 20
108.4932714728858
 30
0.0
 10
350.2590521516088
 20
108.4938448315506
 30
0.0
 10
350.2510920264279
 20
108.499903519797
 30
0.0
 10
350.2415129258525
 20
108.5097827805278
 30
0.0
 10
350.2301657189838
 20
108.5238638716382
 30
0.0
 10
350.2171095356899
 20
108.5420594196624
 30
0.0
 10
350.2023536324626
 20
108.5644099624011
 30
0.0
 10
350.1859264521652
 20
108.5909241980932
 30
0.0
 10
350.167858297445
 20
108.6216197088064
 30
0.0
 10
350.148181151022
 20
108.6565208120464
 30
0.0
 10
350.0999817695937
 20
108.7452853471541
 30
0.0
 10
350.0116637301583
 20
108.9225656486029
 30
0.0
 10
349.8726041133916
 20
109.243651555448
 30
0.0
 10
349.7269314335293
 20
109.6302342073385
 30
0.0
 10
349.6131928385199
 20
109.9839419114684
 30
0.0
 10
349.5334872199733
 20
110.2661956110812
 30
0.0
 10
349.4828376476191
 20
110.4606390418555
 30
0.0
 10
349.4358709777537
 20
110.6578804187896
 30
0.0
 10
349.3923111557494
 20
110.8577834638848
 30
0.0
 10
349.3666635906179
 20
110.992465403617
 30
0.0
 10
349.3538188400278
 20
111.0599164819542
 30
0.0
  0
LINE
  5
D4
330
1F
100
AcDbEntity
  8
0
  6
Continuous
 62
     7
370
    25
100
AcDbLine
 10
350.3175352028
 20
108.4922368769
 30
0.0
 11
350.2647804356
 21
108.4929847289
 31
0.0
  0
SPLINE
  5
D5
330
1F
100
AcDbEntity
  8
0
  6
Continuous
 62
     7
370
    25
100
AcDbSpline
210
0.0
220
0.0
230
1.0
 70
     8
 71
     3
 72
    14
 73
    10
 74
     0
 42
0.000000001
 43
0.00000001
 40
0.0
 40
0.0
 40
0.0
 40
0.0
 40
0.0789261963172865
 40
0.158232872055133
 40
0.330847539457262
 40
0.5000195457610529
 40
0.6670357883572423
 40
0.8332395193657144
 40
1.0
 40
1.0
 40
1.0
 40
1.0
 10
350.2645387502288
 20
108.7592603395712
 30
0.0
 10
350.2685532968249
 20
108.7459572149335
 30
0.0
 10
350.276601742937
 20
108.7192868353011
 30
0.0
 10
350.2915024497465
 20
108.6684720959813
 30
0.0
 10
350.307399431343
 20
108.6114322797944
 30
0.0
 10
350.3204779263408
 20
108.5571290630664
 30
0.0
 10
350.326710533458
 20
108.5189619203436
 30
0.0
 10
350.3265209536212
 20
108.4955531916667
 30
0.0
 10
350.3205340594904
 20
108.4933435369881
 30
0.0
 10
350.3175356070807
 20
108.4922368622665
 30
0.0
  0
SPLINE
  5
D6
330
1F
100
AcDbEntity
  8
0
  6
Continuous
 62
     7
370
    25
100
AcDbSpline
210
0.0
220
0.0
230
1.0
 70
     8
 71
     3
 72
     8
 73
     4
 74
     0
 42
0.000000001
 43
0.00000001
 40
0.0
 40
0.0
 40
0.0
 40
0.0
 40
1.0
 40
1.0
 40
1.0
 40
1.0
 10
350.4118434414532
 20
108.7571992611207
 30
0.0
 10
350.3627755264245
 20
108.7576863143327
 30
0.0
 10
350.3136660889037
 20
108.7583973822075
 30
0.0
 10
350.2645167443784
 20
108.7593328754419
 30
0.0
  0
SPLINE
  5
D7
330
1F
100
AcDbEntity
  8
0
  6
Continuous
 62
     7
370
    25
100
AcDbSpline
210
0.0
220
0.0
230
1.0
 70
     8
 71
     3
 72
    13
 73
     9
 74
     0
 42
0.000000001
 43
0.00000001
 40
0.0
 40
0.0
 40
0.0
 40
0.0
 40
0.1667030582307992
 40
0.3329480818053035
 40
0.4990671507274896
 40
0.6653938523718403
 40
0.832261271055009
 40
1.0
 40
1.0
 40
1.0
 40
1.0
 10
350.4701769736242
 20
108.6884857363368
 30
0.0
 10
350.4683336597873
 20
108.6889028461026
 30
0.0
 10
350.4646520968174
 20
108.68973591958
 30
0.0
 10
350.4571348430229
 20
108.6957503984064
 30
0.0
 10
350.4481840389064
 20
108.7052451306986
 30
0.0
 10
350.4376337504835
 20
108.7186547378082
 30
0.0
 10
350.4256605649664
 20
108.7355726414318
 30
0.0
 10
350.4164541573601
 20
108.7499853765712
 30
0.0
 10
350.4118389668712
 20
108.7572105094328
 30
0.0
  0
SPLINE
  5
D8
330
1F
100
AcDbEntity
  8
0
  6
Continuous
 62
     7
370
    25
100
AcDbSpline
210
0.0
220
0.0
230
1.0
 70
     8
 71
     3
 72
    13
 73
     9
 74
     0
 42
0.000000001
 43
0.00000001
 40
0.0
 40
0.0
 40
0.0
 40
0.0
 40
0.1686319999748085
 40
0.3360343310905433
 40
0.502536782590866
 40
0.6684737453788339
 40
0.834182263691515
 40
1.0
 40
1.0
 40
1.0
 40
1.0
 10
372.0371358238498
 20
108.7572139592456
 30
0.0
 10
372.0324985787516
 20
108.7499567992262
 30
0.0
 10
372.0232579034652
 20
108.7354953985839
 30
0.0
 10
372.0112425300981
 20
108.7185147018798
 30
0.0
 10
372.0006769763435
 20
108.7050819207003
 30
0.0
 10
371.9917376270505
 20
108.6956024521463
 30
0.0
 10
371.9842567464619
 20
108.6896372264485
 30
0.0
 10
371.9806169391725
 20
108.6888696506641
 30
0.0
 10
371.9787964359788
 20
108.6884857363368
 30
0.0
  0
SPLINE
  5
D9
330
1F
100
AcDbEntity
  8
0
  6
Continuous
 62
     7
370
    25
100
AcDbSpline
210
0.0
220
0.0
230
1.0
 70
     8
 71
     3
 72
     8
 73
     4
 74
     0
 42
0.000000001
 43
0.00000001
 40
0.0
 40
0.0
 40
0.0
 40
0.0
 40
1.0
 40
1.0
 40
1.0
 40
1.0
 10
372.1844614358223
 20
108.7593329801883
 30
0.0
 10
372.135310506214
 20
108.7583974499263
 30
0.0
 10
372.0861994861347
 20
108.7576863594143
 30
0.0
 10
372.0371299912269
 20
108.7571992979163
 30
0.0
  0
SPLINE
  5
DA
330
1F
100
AcDbEntity
  8
0
  6
Continuous
 62
     7
370
    25
100
AcDbSpline
210
0.0
220
0.0
230
1.0
 70
     8
 71
     3
 72
    18
 73
    14
 74
     0
 42
0.000000001
 43
0.00000001
 40
0.0
 40
0.0
 40
0.0
 40
0.0
 40
0.0923325137111192
 40
0.1843692047063016
 40
0.2763458873810836
 40
0.3684982175655623
 40
0.4610598988303626
 40
0.554260954653301
 40
0.6483261285442131
 40
0.74347346365053
 40
0.8399130993119804
 40
0.9201660718299768
 40
1.0
 40
1.0
 40
1.0
 40
1.0
 10
372.1314378025223
 20
108.4922368622665
 30
0.0
 10
372.1296021488698
 20
108.4924451744823
 30
0.0
 10
372.1259367227873
 20
108.4928611315056
 30
0.0
 10
372.123141393165
 20
108.4996655549629
 30
0.0
 10
372.1223390980982
 20
108.5109989336488
 30
0.0
 10
372.1237052350974
 20
108.5272993285491
 30
0.0
 10
372.1271667838915
 20
108.5484505678592
 30
0.0
 10
372.1327080890379
 20
108.5744862671868
 30
0.0
 10
372.1402925594651
 20
108.6054106536095
 30
0.0
 10
372.1498695524456
 20
108.6412096593376
 30
0.0
 10
372.1607208994714
 20
108.6794989044513
 30
0.0
 10
372.1722356611033
 20
108.7188045288678
 30
0.0
 10
372.1803673699245
 20
108.7457616067615
 30
0.0
 10
372.1844225815321
 20
108.759204864211
 30
0.0
  0
LINE
  5
DB
330
1F
100
AcDbEntity
  8
0
  6
Continuous
 62
     7
370
    25
100
AcDbLine
 10
372.184192974
 20
108.4929847289
 30
0.0
 11
372.1314382068
 21
108.4922368769
 31
0.0
  0
SPLINE
  5
DC
330
1F
100
AcDbEntity
  8
0
  6
Continuous
 62
     7
370
    25
100
AcDbSpline
210
0.0
220
0.0
230
1.0
 70
     8
 71
     3
 72
    25
 73
    21
 74
     0
 42
0.000000001
 43
0.00000001
 40
0.0
 40
0.0
 40
0.0
 40
0.0
 40
0.0280105225422753
 40
0.0559601148854256
 40
0.0839014045034749
 40
0.1118870776777086
 40
0.1399695827579646
 40
0.1682008401731476
 40
0.1966319670417595
 40
0.2253130233137476
 40
0.2542927850735311
 40
0.3799486436564626
 40
0.5057850221666382
 40
0.631308588631066
 40
0.7532068238011618
 40
0.8039473267946936
 40
0.8535894438541253
 40
0.9025339722380873
 40
0.9511970353782256
 40
1.0
 40
1.0
 40
1.0
 40
1.0
 10
373.0951545695751
 20
111.0599164819542
 30
0.0
 10
373.0881754996643
 20
111.0226064684479
 30
0.0
 10
373.0742325411417
 20
110.9480676004552
 30
0.0
 10
373.051710643699
 20
110.8367585549731
 30
0.0
 10
373.0280770316017
 20
110.7260963459594
 30
0.0
 10
373.0032274411137
 20
110.6161122130154
 30
0.0
 10
372.9772088166275
 20
110.5068170694009
 30
0.0
 10
372.9500274353096
 20
110.3982261001984
 30
0.0
 10
372.9217017939769
 20
110.2903553902553
 30
0.0
 10
372.892243013144
 20
110.1832104445292
 30
0.0
 10
372.8278347252325
 20
109.9590355580187
 30
0.0
 10
372.7227330331607
 20
109.6323701439826
 30
0.0
 10
372.5772702723655
 20
109.2464235386646
 30
0.0
 10
372.4380068642548
 20
108.9243437259719
 30
0.0
 10
372.3408585113876
 20
108.7285231419409
 30
0.0
 10
372.2805631051601
 20
108.6191756914544
 30
0.0
 10
372.2456745222789
 20
108.5612476670392
 30
0.0
 10
372.217780020351
 20
108.5207937142742
 30
0.0
 10
372.1964149279793
 20
108.4961794988754
 30
0.0
 10
372.1882709804066
 20
108.4940505713678
 30
0.0
 10
372.1841931617615
 20
108.4929845796964
 30
0.0
  0
ARC
  5
DD
330
1F
100
AcDbEntity
  8
0
  6
Continuous
 62
     7
370
    25
100
AcDbCircle
 10
361.2244867048
 20
113.2472542245
 30
0.0
 40
12.07050959801135
100
AcDbArc
 50
349.5595567507
 51
10.4404432493
  0
SPLINE
  5
DE
330
1F
100
AcDbEntity
  8
0
  6
Continuous
 62
     7
370
    25
100
AcDbSpline
210
0.0
220
0.0
230
1.0
 70
     8
 71
     3
 72
    26
 73
    22
 74
     0
 42
0.000000001
 43
0.00000001
 40
0.0
 40
0.0
 40
0.0
 40
0.0
 40
0.0241259796962591
 40
0.0482159912271133
 40
0.0723203915121637
 40
0.0964895678708023
 40
0.1207736231960627
 40
0.1452220711240065
 40
0.1698835501655268
 40
0.1948055644470484
 40
0.220034256951649
 40
0.2456142191611191
 40
0.3690971486898426
 40
0.4940698769485092
 40
0.6192566784753767
 40
0.7454656653602836
 40
0.7971495824708205
 40
0.848171030839725
 40
0.8988013269227118
 40
0.9493179290486752
 40
1.0
 40
1.0
 40
1.0
 40
1.0
 10
372.1841931617615
 20
118.0015238692805
 30
0.0
 10
372.186103476502
 20
118.0012369760911
 30
0.0
 10
372.1899212579941
 20
118.0006636174264
 30
0.0
 10
372.197881383175
 20
117.9946049291799
 30
0.0
 10
372.2074604837504
 20
117.9847256684491
 30
0.0
 10
372.2188076906191
 20
117.9706445773387
 30
0.0
 10
372.231863873913
 20
117.9524490293145
 30
0.0
 10
372.2466197771404
 20
117.9300984865758
 30
0.0
 10
372.2630469574377
 20
117.9035842508838
 30
0.0
 10
372.2811151121579
 20
117.8728887401705
 30
0.0
 10
372.300792258581
 20
117.8379876369305
 30
0.0
 10
372.348991640009
 20
117.7492231018233
 30
0.0
 10
372.4373096794445
 20
117.5719428003745
 30
0.0
 10
372.5763692962109
 20
117.2508568935301
 30
0.0
 10
372.7220419760734
 20
116.8642742416389
 30
0.0
 10
372.8357805710826
 20
116.51056653751
 30
0.0
 10
372.9154861896291
 20
116.2283128378976
 30
0.0
 10
372.9661357619832
 20
116.0338694071243
 30
0.0
 10
373.0131024318486
 20
115.8366280301902
 30
0.0
 10
373.0566622538532
 20
115.636724985094
 30
0.0
 10
373.082309818985
 20
115.5020430453607
 30
0.0
 10
373.0951545695751
 20
115.4345919670228
 30
0.0
  0
LINE
  5
DF
330
1F
100
AcDbEntity
  8
0
  6
Continuous
 62
     7
370
    25
100
AcDbLine
 10
372.1314382068
 20
118.0022715721
 30
0.0
 11
372.184192974
 21
118.0015237201
 31
0.0
  0
SPLINE
  5
E0
330
1F
100
AcDbEntity
  8
0
  6
Continuous
 62
     7
370
    25
100
AcDbSpline
210
0.0
220
0.0
230
1.0
 70
     8
 71
     3
 72
    14
 73
    10
 74
     0
 42
0.000000001
 43
0.00000001
 40
0.0
 40
0.0
 40
0.0
 40
0.0
 40
0.0786889129232242
 40
0.1577561817122941
 40
0.3304686003115578
 40
0.4997364082435315
 40
0.6668472316653192
 40
0.8331450833767118
 40
1.0
 40
1.0
 40
1.0
 40
1.0
 10
372.1843460892991
 20
117.7355400774929
 30
0.0
 10
372.1803480803445
 20
117.7487899820087
 30
0.0
 10
372.1723328390137
 20
117.775353499877
 30
0.0
 10
372.1574601657243
 20
117.8260750276457
 30
0.0
 10
372.1415740009621
 20
117.8830761066696
 30
0.0
 10
372.1284954773178
 20
117.9373794022787
 30
0.0
 10
372.1222628777127
 20
117.975546524316
 30
0.0
 10
372.122452455589
 20
117.9989552583915
 30
0.0
 10
372.1284393499815
 20
118.0011649123496
 30
0.0
 10
372.1314378025223
 20
118.0022715867104
 30
0.0
  0
SPLINE
  5
E1
330
1F
100
AcDbEntity
  8
0
  6
Continuous
 62
     7
370
    25
100
AcDbSpline
210
0.0
220
0.0
230
1.0
 70
     8
 71
     3
 72
     8
 73
     4
 74
     0
 42
0.000000001
 43
0.00000001
 40
0.0
 40
0.0
 40
0.0
 40
0.0
 40
1.0
 40
1.0
 40
1.0
 40
1.0
 10
372.0638907486164
 20
117.7371964174582
 30
0.0
 10
372.104023867123
 20
117.7367654635109
 30
0.0
 10
372.1441845750516
 20
117.7361849604984
 30
0.0
 10
372.1843719923945
 20
117.7354546849388
 30
0.0
  0
SPLINE
  5
E2
330
1F
100
AcDbEntity
  8
0
  6
Continuous
 62
     7
370
    25
100
AcDbSpline
210
0.0
220
0.0
230
1.0
 70
     8
 71
     3
 72
    23
 73
    19
 74
     0
 42
0.000000001
 43
0.00000001
 40
0.0
 40
0.0
 40
0.0
 40
0.0
 40
0.0441308420121292
 40
0.0880968635211716
 40
0.1320155028408941
 40
0.1760048571434164
 40
0.2201827305793597
 40
0.2646656976937351
 40
0.3095682184569769
 40
0.355001836559425
 40
0.401074485474427
 40
0.4478899182339682
 40
0.4955472680213688
 40
0.5953670562452651
 40
0.6949121173401501
 40
0.7950007648984784
 40
0.8964386255170008
 40
1.0
 40
1.0
 40
1.0
 40
1.0
 10
371.5121776294812
 20
118.6976997414248
 30
0.0
 10
371.514162019588
 20
118.6974168841949
 30
0.0
 10
371.5181233884729
 20
118.6968522261544
 30
0.0
 10
371.5269836927035
 20
118.6904328729756
 30
0.0
 10
371.5379561708258
 20
118.679911623469
 30
0.0
 10
371.5512355688462
 20
118.6648800871593
 30
0.0
 10
371.5667462925125
 20
118.6454278420969
 30
0.0
 10
371.5844777542656
 20
118.6215078641448
 30
0.0
 10
371.6043944009688
 20
118.5931067734309
 30
0.0
 10
371.6264599349809
 20
118.5601990336303
 30
0.0
 10
371.650630858675
 20
118.5227590509741
 30
0.0
 10
371.6768578687223
 20
118.4807589793442
 30
0.0
 10
371.7151944489534
 20
118.4174818708211
 30
0.0
 10
371.7675272283318
 20
118.3274230084579
 30
0.0
 10
371.83592783954
 20
118.2030768888911
 30
0.0
 10
371.9086129143355
 20
118.0633638109106
 30
0.0
 10
371.9849731502353
 20
117.9090277956823
 30
0.0
 10
372.0372619648855
 20
117.7953051414545
 30
0.0
 10
372.0636771927891
 20
117.7378548081601
 30
0.0
  0
SPLINE
  5
E3
330
1F
100
AcDbEntity
  8
0
  6
Continuous
 62
     7
370
    25
100
AcDbSpline
210
0.0
220
0.0
230
1.0
 70
    11
 71
     3
 72
    39
 73
    35
 74
     0
 42
0.000000001
 43
0.00000001
 40
0.0
 40
0.0
 40
0.0
 40
0.0
 40
0.0310664058348413
 40
0.0621048158426138
 40
0.0931361551796939
 40
0.1235538293503726
 40
0.1538561545809849
 40
0.1850588072749156
 40
0.2160250992946587
 40
0.2471867223797568
 40
0.2784462884304475
 40
0.3100516090231247
 40
0.3419834369138969
 40
0.3734259894013238
 40
0.4048604886787081
 40
0.436874065183343
 40
0.4685120685926471
 40
0.499805535863323
 40
0.5309508213226204
 40
0.5618649784438111
 40
0.5930416446590877
 40
0.623374245013332
 40
0.6540913579072549
 40
0.6849496782718453
 40
0.7158160645166705
 40
0.7471731804043553
 40
0.7784514311866318
 40
0.810129591156098
 40
0.8419598919688388
 40
0.8735175891922303
 40
0.9050808037886594
 40
0.9370235169792582
 40
0.9687441590030581
 40
1.0
 40
1.0
 40
1.0
 40
1.0
 10
364.1286132695989
 20
101.815624040735
 30
0.0
 10
364.3183250985535
 20
101.8543926174825
 30
0.0
 10
364.6620659490023
 20
101.9308235632656
 30
0.0
 10
365.0450229362099
 20
102.0189631032588
 30
0.0
 10
365.289463402925
 20
102.0659125899038
 30
0.0
 10
365.3704523397413
 20
102.05400366519
 30
0.0
 10
365.2897298942596
 20
101.9820457584745
 30
0.0
 10
365.0498677006399
 20
101.8575254922772
 30
0.0
 10
364.6732179665427
 20
101.700156502452
 30
0.0
 10
364.1669750297148
 20
101.528132417757
 30
0.0
 10
363.5497006360314
 20
101.3632080101713
 30
0.0
 10
362.8372248218916
 20
101.2254954340928
 30
0.0
 10
362.0617595821191
 20
101.1338626215842
 30
0.0
 10
361.2512951485047
 20
101.1005300434887
 30
0.0
 10
360.4387906755422
 20
101.129777489042
 30
0.0
 10
359.6592776854051
 20
101.2181064460296
 30
0.0
 10
358.9409493860697
 20
101.3536119456644
 30
0.0
 10
358.3175772786697
 20
101.5173884671556
 30
0.0
 10
357.8044786840741
 20
101.689394611301
 30
0.0
 10
357.4192765742126
 20
101.8482066257721
 30
0.0
 10
357.1698519689716
 20
101.9754655909376
 30
0.0
 10
357.0792499290252
 20
102.0510725478926
 30
0.0
 10
357.1474614999844
 20
102.0678419445725
 30
0.0
 10
357.3796773663872
 20
102.0250616023572
 30
0.0
 10
357.7568944035714
 20
101.9379349174474
 30
0.0
 10
358.268599271339
 20
101.8232058621404
 30
0.0
 10
358.8920704020859
 20
101.7037837170878
 30
0.0
 10
359.6086151052187
 20
101.5991582670385
 30
0.0
 10
360.3869462178296
 20
101.5285097741117
 30
0.0
 10
361.1987777046796
 20
101.5024309496816
 30
0.0
 10
362.0125522266767
 20
101.5254565213724
 30
0.0
 10
362.7949260708422
 20
101.59368895951
 30
0.0
 10
363.5169391055762
 20
101.6969361392198
 30
0.0
 10
363.9377446254252
 20
101.7766190629163
 30
0.0
 10
364.1286132695988
 20
101.815624040735
 30
0.0
  0
SPLINE
  5
E4
330
1F
100
AcDbEntity
  8
0
  6
Continuous
 62
     7
370
    25
100
AcDbSpline
210
0.0
220
0.0
230
1.0
 70
    11
 71
     3
 72
    39
 73
    35
 74
     0
 42
0.000000001
 43
0.00000001
 40
0.0
 40
0.0
 40
0.0
 40
0.0
 40
0.0312651429934057
 40
0.0629601069329321
 40
0.0948697276489808
 40
0.1264264963751833
 40
0.1579651393672472
 40
0.1898765439016956
 40
0.221552335268876
 40
0.2527844076550827
 40
0.2838418966734154
 40
0.3148645781100674
 40
0.3459127639308091
 40
0.3763475365526575
 40
0.4066751324671412
 40
0.4379141187435632
 40
0.4688932367345488
 40
0.5000738678969536
 40
0.5313369410958942
 40
0.5629183719104849
 40
0.5948445736343699
 40
0.6262809966135365
 40
0.6577486436587271
 40
0.6897584692806508
 40
0.7214430019610059
 40
0.7527623343195418
 40
0.7839279690572818
 40
0.8148885765585865
 40
0.8460375004982862
 40
0.8763409566916784
 40
0.906758919146387
 40
0.9378312724751761
 40
0.9689189660506093
 40
1.0
 40
1.0
 40
1.0
 40
1.0
 10
364.128509019812
 20
124.6789164606776
 30
0.0
 10
363.9374350835303
 20
124.7179804185583
 30
0.0
 10
363.5165005210907
 20
124.7976994131184
 30
0.0
 10
362.7951111159271
 20
124.9008148284688
 30
0.0
 10
362.0134550676367
 20
124.9690157008928
 30
0.0
 10
361.2003673479259
 20
124.9920725935346
 30
0.0
 10
360.3880871310739
 20
124.9660883198884
 30
0.0
 10
359.6094567060243
 20
124.8954981546503
 30
0.0
 10
358.8927809161129
 20
124.7908825924111
 30
0.0
 10
358.2709056464513
 20
124.6717102673947
 30
0.0
 10
357.7613947129654
 20
124.5577730996684
 30
0.0
 10
357.3862753667212
 20
124.4716588207219
 30
0.0
 10
357.1503147918703
 20
124.4276030993861
 30
0.0
 10
357.0789142486887
 20
124.4431329000973
 30
0.0
 10
357.1695106784865
 20
124.5186417822812
 30
0.0
 10
357.418486958846
 20
124.6458153101254
 30
0.0
 10
357.8034017786887
 20
124.8046659887377
 30
0.0
 10
358.3161870855109
 20
124.9766902499477
 30
0.0
 10
358.9386462084357
 20
125.1403633294824
 30
0.0
 10
359.6551463532423
 20
125.2757649028626
 30
0.0
 10
360.4332453873524
 20
125.3642825703454
 30
0.0
 10
361.2449680759994
 20
125.3939899788282
 30
0.0
 10
362.0564102637007
 20
125.3611035341781
 30
0.0
 10
362.8335361551827
 20
125.2696226261333
 30
0.0
 10
363.5479742443532
 20
125.1317384361719
 30
0.0
 10
364.1661972025886
 20
124.966610611322
 30
0.0
 10
364.6725645633146
 20
124.7945600739694
 30
0.0
 10
365.0491170847282
 20
124.6372765522592
 30
0.0
 10
365.2888128961596
 20
124.5128727547752
 30
0.0
 10
365.3702796043539
 20
124.4406845813389
 30
0.0
 10
365.2902203618621
 20
124.4284120729608
 30
0.0
 10
365.0458743559083
 20
124.4753074834669
 30
0.0
 10
364.6629009224594
 20
124.5634410316125
 30
0.0
 10
364.3184577912495
 20
124.6400825362224
 30
0.0
 10
364.128509019812
 20
124.6789164606776
 30
0.0
  0
SPLINE
  5
E5
330
1F
100
AcDbEntity
  8
0
  6
Continuous
 62
     7
370
    25
100
AcDbSpline
210
0.0
220
0.0
230
1.0
 70
     8
 71
     3
 72
    23
 73
    19
 74
     0
 42
0.000000001
 43
0.00000001
 40
0.0
 40
0.0
 40
0.0
 40
0.0
 40
0.0449850911516383
 40
0.0909520670767777
 40
0.1379394291255006
 40
0.1859832248910951
 40
0.2351171761689533
 40
0.2853728096402591
 40
0.3367795876576951
 40
0.3893650370792399
 40
0.4431548745925064
 40
0.498173127394291
 40
0.5575107590849617
 40
0.6265492281305397
 40
0.7053073138942775
 40
0.7937970253739629
 40
0.8920262115920568
 40
1.0
 40
1.0
 40
1.0
 40
1.0
 10
351.3335449932443
 20
118.2772542244885
 30
0.0
 10
351.3313823038787
 20
118.2768253228289
 30
0.0
 10
351.3270097203581
 20
118.2759581579191
 30
0.0
 10
351.3167287611666
 20
118.2688645903181
 30
0.0
 10
351.3036684831368
 20
118.257251848739
 30
0.0
 10
351.2875493215826
 20
118.2404624785665
 30
0.0
 10
351.2684488939266
 20
118.2183904919517
 30
0.0
 10
351.2463465411707
 20
118.1907930181884
 30
0.0
 10
351.2212460626349
 20
118.1574845869791
 30
0.0
 10
351.193154931257
 20
118.1182842485724
 30
0.0
 10
351.1620390304049
 20
118.0730422030991
 30
0.0
 10
351.1274000995228
 20
118.0206462707099
 30
0.0
 10
351.086678591244
 20
117.9578638024907
 30
0.0
 10
351.0379576702193
 20
117.880106803232
 30
0.0
 10
350.9801833319014
 20
117.7828222456535
 30
0.0
 10
350.9132726822563
 20
117.6630774119344
 30
0.0
 10
350.8373287179629
 20
117.5191572070302
 30
0.0
 10
350.7829675532777
 20
117.4084230021372
 30
0.0
 10
350.7545024891632
 20
117.3504393982133
 30
0.0
  0
LINE
  5
E6
330
1F
100
AcDbEntity
  8
0
  6
Continuous
 62
     7
370
    25
100
AcDbLine
 10
350.7545024416
 20
117.3509655651
 30
0.0
 11
350.3851631916
 21
117.7370504606
 31
0.0
  0
LINE
  5
E7
330
1F
100
AcDbEntity
  8
0
  6
Continuous
 62
     7
370
    25
100
AcDbLine
 10
372.0637776217
 20
117.736990856
 30
0.0
 11
371.6945110149
 21
117.3509827945
 31
0.0
  0
SPLINE
  5
E8
330
1F
100
AcDbEntity
  8
0
  6
Continuous
 62
     7
370
    25
100
AcDbSpline
210
0.0
220
0.0
230
1.0
 70
     8
 71
     3
 72
    26
 73
    22
 74
     0
 42
0.000000001
 43
0.00000001
 40
0.0
 40
0.0
 40
0.0
 40
0.0
 40
0.0509383868653979
 40
0.0998291548270505
 40
0.1466728126490638
 40
0.1914699456369332
 40
0.2342212299774179
 40
0.274927450668867
 40
0.3135895241747119
 40
0.3502085273716571
 40
0.3847857350077695
 40
0.4173226688482998
 40
0.4478211631571791
 40
0.4762834534603437
 40
0.5027122992246547
 40
0.593906700502561
 40
0.6816015993191188
 40
0.7659159552051488
 40
0.846983628966416
 40
0.9249552229440475
 40
1.0
 40
1.0
 40
1.0
 40
1.0
 10
371.6945114051081
 20
117.3502486679636
 30
0.0
 10
371.68105354091
 20
117.3778694491279
 30
0.0
 10
371.6546787911123
 20
117.4320007125812
 30
0.0
 10
371.6163066113333
 20
117.5083087496564
 30
0.0
 10
371.5798404288411
 20
117.5790609292481
 30
0.0
 10
371.5453041792174
 20
117.6442327559363
 30
0.0
 10
371.5126917273645
 20
117.704091001188
 30
0.0
 10
371.4820044435716
 20
117.7588561607294
 30
0.0
 10
371.4532418272704
 20
117.8087805520413
 30
0.0
 10
371.4264036627981
 20
117.8541227826365
 30
0.0
 10
371.4014900823699
 20
117.8951487215773
 30
0.0
 10
371.3784994355811
 20
117.9321261065244
 30
0.0
 10
371.3574359300915
 20
117.9653222225077
 30
0.0
 10
371.3382835597123
 20
117.994997954775
 30
0.0
 10
371.3066124827674
 20
118.0436682798247
 30
0.0
 10
371.2651425373309
 20
118.1055635977435
 30
0.0
 10
371.2181530211871
 20
118.1709042051672
 30
0.0
 10
371.1795344514722
 20
118.220022596459
 30
0.0
 10
371.1494859917509
 20
118.2534988849712
 30
0.0
 10
371.1271958807817
 20
118.2736163172092
 30
0.0
 10
371.1193005653483
 20
118.2760571510588
 30
0.0
 10
371.1154284163587
 20
118.2772542244885
 30
0.0
  0
SPLINE
  5
E9
330
1F
100
AcDbEntity
  8
0
  6
Continuous
 62
     7
370
    25
100
AcDbSpline
210
0.0
220
0.0
230
1.0
 70
     8
 71
     3
 72
     8
 73
     4
 74
     0
 42
0.000000001
 43
0.00000001
 40
0.0
 40
0.0
 40
0.0
 40
0.0
 40
1.0
 40
1.0
 40
1.0
 40
1.0
 10
368.9661671566018
 20
117.4702525509712
 30
0.0
 10
369.0297601369419
 20
117.4045837731244
 30
0.0
 10
369.0937165633773
 20
117.3402414754641
 30
0.0
 10
369.1579154830847
 20
117.2785042244885
 30
0.0
  0
SPLINE
  5
EA
330
1F
100
AcDbEntity
  8
0
  6
Continuous
 62
     7
370
    25
100
AcDbSpline
210
0.0
220
0.0
230
1.0
 70
     8
 71
     3
 72
    25
 73
    21
 74
     0
 42
0.000000001
 43
0.00000001
 40
0.0
 40
0.0
 40
0.0
 40
0.0
 40
0.0367725003254103
 40
0.074208401060063
 40
0.1123590542807964
 40
0.1512729822568881
 40
0.190995910016845
 40
0.2315708273504481
 40
0.2730380740418892
 40
0.3154354426077851
 40
0.3587982934432034
 40
0.4031596779810961
 40
0.4485504661847858
 40
0.494999475376923
 40
0.5532504315673752
 40
0.621829488573267
 40
0.7007739996560722
 40
0.7901076726660372
 40
0.8898461547533933
 40
1.0
 40
1.0
 40
1.0
 40
1.0
 10
368.5242459692903
 20
118.2772542244881
 30
0.0
 10
368.5244697433552
 20
118.2769295368544
 30
0.0
 10
368.5249213285181
 20
118.2762743040056
 30
0.0
 10
368.5296383683904
 20
118.2709119322178
 30
0.0
 10
368.537290977473
 20
118.2621563385173
 30
0.0
 10
368.54818395661
 20
118.2495321204255
 30
0.0
 10
368.5622325430258
 20
118.2329757822951
 30
0.0
 10
368.579459440635
 20
118.2123186049173
 30
0.0
 10
368.5998579934165
 20
118.1874308689494
 30
0.0
 10
368.6234288067086
 20
118.1581833227561
 30
0.0
 10
368.6501741552684
 20
118.1244603875596
 30
0.0
 10
368.6800820087007
 20
118.0861545724342
 30
0.0
 10
368.7131981010452
 20
118.0431836770962
 30
0.0
 10
368.7521240226192
 20
117.9917623954255
 30
0.0
 10
368.8009521023358
 20
117.9275461637364
 30
0.0
 10
368.8628727069369
 20
117.8446516346418
 30
0.0
 10
368.9372572652578
 20
117.7407058844273
 30
0.0
 10
369.0242316932464
 20
117.6126196741701
 30
0.0
 10
369.123656543229
 20
117.4585298942638
 30
0.0
 10
369.1950757189585
 20
117.3404656583933
 30
0.0
 10
369.2325573026393
 20
117.2785042244885
 30
0.0
  0
LINE
  5
EB
330
1F
100
AcDbEntity
  8
0
  6
Continuous
 62
     7
370
    25
100
AcDbLine
 10
369.2325569949
 20
117.2785040121
 30
0.0
 11
369.1579152158
 21
117.2785040121
 31
0.0
  0
SPLINE
  5
EC
330
1F
100
AcDbEntity
  8
0
  6
Continuous
 62
     7
370
    25
100
AcDbSpline
210
0.0
220
0.0
230
1.0
 70
     8
 71
     3
 72
    23
 73
    19
 74
     0
 42
0.000000001
 43
0.00000001
 40
0.0
 40
0.0
 40
0.0
 40
0.0
 40
0.0511129009857221
 40
0.1016896331838983
 40
0.1518293139104713
 40
0.201633670189439
 40
0.2512064936754081
 40
0.3006530343006331
 40
0.3500793489716449
 40
0.3995916247932065
 40
0.4492954981442684
 40
0.4992953912354716
 40
0.5872572780521574
 40
0.6724255494349275
 40
0.7555067762540824
 40
0.8372616735271673
 40
0.9184882400167564
 40
1.0
 40
1.0
 40
1.0
 40
1.0
 10
368.9662298327273
 20
117.4704952670663
 30
0.0
 10
368.9502142488268
 20
117.4996238692972
 30
0.0
 10
368.9183510827638
 20
117.557575517881
 30
0.0
 10
368.8713072443449
 20
117.6403333530993
 30
0.0
 10
368.8253287201699
 20
117.7194222115835
 30
0.0
 10
368.7805480533664
 20
117.7946391995177
 30
0.0
 10
368.7370642889305
 20
117.8661022545634
 30
0.0
 10
368.6949783253458
 20
117.9338436587517
 30
0.0
 10
368.6543838609485
 20
117.9979171704967
 30
0.0
 10
368.6153689545983
 20
118.0583707695679
 30
0.0
 10
368.5780191321108
 20
118.1152482744962
 30
0.0
 10
368.5334908755187
 20
118.1819627475567
 30
0.0
 10
368.4848506149776
 20
118.2532830314211
 30
0.0
 10
368.4370115152217
 20
118.3218632838802
 30
0.0
 10
368.3993600031408
 20
118.3748796119224
 30
0.0
 10
368.3725373017534
 20
118.4121522680499
 30
0.0
 10
368.3558084709298
 20
118.4351896676299
 30
0.0
 10
368.353960060966
 20
118.4377243928951
 30
0.0
 10
368.3530342363456
 20
118.4389939765385
 30
0.0
  0
SPLINE
  5
ED
330
1F
100
AcDbEntity
  8
0
  6
Continuous
 62
     7
370
    25
100
AcDbSpline
210
0.0
220
0.0
230
1.0
 70
     8
 71
     3
 72
     8
 73
     4
 74
     0
 42
0.000000001
 43
0.00000001
 40
0.0
 40
0.0
 40
0.0
 40
0.0
 40
1.0
 40
1.0
 40
1.0
 40
1.0
 10
371.6283793518735
 20
117.2785042244883
 30
0.0
 10
371.6502647235167
 20
117.302825240686
 30
0.0
 10
371.6721500951598
 20
117.3268498390085
 30
0.0
 10
371.694035466803
 20
117.350556691097
 30
0.0
  0
LINE
  5
EE
330
1F
100
AcDbEntity
  8
0
  6
Continuous
 62
     7
370
    25
100
AcDbLine
 10
371.628219474
 20
117.2785040121
 30
0.0
 11
369.2325569949
 21
117.2785040121
 31
0.0
  0
SPLINE
  5
EF
330
1F
100
AcDbEntity
  8
0
  6
Continuous
 62
     7
370
    25
100
AcDbSpline
210
0.0
220
0.0
230
1.0
 70
     8
 71
     3
 72
     8
 73
     4
 74
     0
 42
0.000000001
 43
0.00000001
 40
0.0
 40
0.0
 40
0.0
 40
0.0
 40
1.0
 40
1.0
 40
1.0
 40
1.0
 10
350.7548437169752
 20
117.3506602585771
 30
0.0
 10
350.7767604894628
 20
117.326919810018
 30
0.0
 10
350.7986772619503
 20
117.3028606582313
 30
0.0
 10
350.8205940344379
 20
117.2785042244884
 30
0.0
  0
SPLINE
  5
F0
330
1F
100
AcDbEntity
  8
0
  6
Continuous
 62
     7
370
    25
100
AcDbSpline
210
0.0
220
0.0
230
1.0
 70
     8
 71
     3
 72
    26
 73
    22
 74
     0
 42
0.000000001
 43
0.00000001
 40
0.0
 40
0.0
 40
0.0
 40
0.0
 40
0.0524616379932503
 40
0.1026498591890872
 40
0.150565513457809
 40
0.1962095861957063
 40
0.2395832262568645
 40
0.2806877815599511
 40
0.3195248450380211
 40
0.3560963147430692
 40
0.3904044736547445
 40
0.4224520974433627
 40
0.4522426027417772
 40
0.4797802555366611
 40
0.5050704712281336
 40
0.5966394156799991
 40
0.6841917884819224
 40
0.7679874773571101
 40
0.8483228539139507
 40
0.925534163520116
 40
1.0
 40
1.0
 40
1.0
 40
1.0
 10
353.2162385488853
 20
117.2785191165061
 30
0.0
 10
353.2341000331737
 20
117.3082925765473
 30
0.0
 10
353.2690489771495
 20
117.3665492684406
 30
0.0
 10
353.3198138106316
 20
117.4487482488052
 30
0.0
 10
353.3678837682733
 20
117.524829117706
 30
0.0
 10
353.4132277410381
 20
117.5947804661722
 30
0.0
 10
353.4558537205435
 20
117.6588876281243
 30
0.0
 10
353.4957600190526
 20
117.7173954675944
 30
0.0
 10
353.5329473481679
 20
117.7705840452165
 30
0.0
 10
353.5674161707587
 20
117.8187420854536
 30
0.0
 10
353.599166259391
 20
117.8621667587299
 30
0.0
 10
353.6282006639922
 20
117.9011568498268
 30
0.0
 10
353.6545119531933
 20
117.9360109483533
 30
0.0
 10
353.6781285827374
 20
117.9670159428038
 30
0.0
 10
353.7177742617433
 20
118.0192591614367
 30
0.0
 10
353.7693125585424
 20
118.0867884946939
 30
0.0
 10
353.8261386955235
 20
118.1589819409025
 30
0.0
 10
353.8702961234865
 20
118.213465897025
 30
0.0
 10
353.9014737464285
 20
118.2507306881933
 30
0.0
 10
353.9209333130677
 20
118.273195040468
 30
0.0
 10
353.9230749107481
 20
118.2759175898953
 30
0.0
 10
353.9241263273049
 20
118.2772542244885
 30
0.0
  0
LINE
  5
F1
330
1F
100
AcDbEntity
  8
0
  6
Continuous
 62
     7
370
    25
100
AcDbLine
 10
353.2162385321
 20
117.2785040121
 30
0.0
 11
350.8205937481
 21
117.2785040121
 31
0.0
  0
LINE
  5
F2
330
1F
100
AcDbEntity
  8
0
  6
Continuous
 62
     7
370
    25
100
AcDbLine
 10
353.2910581938
 20
117.2785040121
 30
0.0
 11
353.2159386462
 21
117.2785040121
 31
0.0
  0
SPLINE
  5
F3
330
1F
100
AcDbEntity
  8
0
  6
Continuous
 62
     7
370
    25
100
AcDbSpline
210
0.0
220
0.0
230
1.0
 70
     8
 71
     3
 72
     8
 73
     4
 74
     0
 42
0.000000001
 43
0.00000001
 40
0.0
 40
0.0
 40
0.0
 40
0.0
 40
1.0
 40
1.0
 40
1.0
 40
1.0
 10
353.2910579265184
 20
117.2785042244884
 30
0.0
 10
353.3549667291783
 20
117.3404730879195
 30
0.0
 10
353.4187416485302
 20
117.4044491530362
 30
0.0
 10
353.4821017144112
 20
117.4699838093819
 30
0.0
  0
SPLINE
  5
F4
330
1F
100
AcDbEntity
  8
0
  6
Continuous
 62
     7
370
    25
100
AcDbSpline
210
0.0
220
0.0
230
1.0
 70
     8
 71
     3
 72
    24
 73
    20
 74
     0
 42
0.000000001
 43
0.00000001
 40
0.0
 40
0.0
 40
0.0
 40
0.0
 40
0.0410257106287842
 40
0.0818520099077639
 40
0.1225800578354648
 40
0.1633117464058233
 40
0.2041489402806705
 40
0.2451927184749161
 40
0.2865426449235763
 40
0.3282960933646444
 40
0.370547647549383
 40
0.4133885920102291
 40
0.4569065022351533
 40
0.5011849368587563
 40
0.6001856774947433
 40
0.6987388860447942
 40
0.7976800645453981
 40
0.8978349910029445
 40
1.0
 40
1.0
 40
1.0
 40
1.0
 10
354.0956845202859
 20
118.4386443058199
 30
0.0
 10
354.0954897568449
 20
118.4383769556624
 30
0.0
 10
354.0951011766384
 20
118.4378435548411
 30
0.0
 10
354.0910463889642
 20
118.432271808842
 30
0.0
 10
354.0844524299843
 20
118.4231910596882
 30
0.0
 10
354.0750881690743
 20
118.4102535993274
 30
0.0
 10
354.0630400553043
 20
118.3935351564216
 30
0.0
 10
354.0483174858439
 20
118.3729931456498
 30
0.0
 10
354.0309584929967
 20
118.348611771603
 30
0.0
 10
354.0110013218433
 20
118.3203630275312
 30
0.0
 10
353.9884922721477
 20
118.2882174801301
 30
0.0
 10
353.9634830363864
 20
118.2521406401639
 30
0.0
 10
353.9360336668615
 20
118.2120970476445
 30
0.0
 10
353.8941105537943
 20
118.1501766043033
 30
0.0
 10
353.8349043785831
 20
118.0608641132067
 30
0.0
 10
353.7551247854628
 20
117.9363195211781
 30
0.0
 10
353.6691440004764
 20
117.7965347286883
 30
0.0
 10
353.5778592132544
 20
117.6421219097022
 30
0.0
 10
353.5146548591964
 20
117.5280758880513
 30
0.0
 10
353.4827387092309
 20
117.470486344036
 30
0.0
  0
LINE
  5
F5
330
1F
100
AcDbEntity
  8
0
  6
Continuous
 62
     7
370
    25
100
AcDbLine
 10
350.4118455834
 20
108.7571990807
 30
0.0
 11
350.8360835052
 21
109.2059922535
 31
0.0
  0
SPLINE
  5
F6
330
1F
100
AcDbEntity
  8
0
  6
Continuous
 62
     7
370
    25
100
AcDbSpline
210
0.0
220
0.0
230
1.0
 70
     8
 71
     3
 72
    13
 73
     9
 74
     0
 42
0.000000001
 43
0.00000001
 40
0.0
 40
0.0
 40
0.0
 40
0.0
 40
0.170632084649598
 40
0.3395984165075754
 40
0.5069574111411415
 40
0.6727691830249297
 40
0.8370955447763889
 40
1.0
 40
1.0
 40
1.0
 40
1.0
 10
350.8360832176792
 20
109.2059714829592
 30
0.0
 10
350.841088688088
 20
109.1990201098778
 30
0.0
 10
350.8510507642603
 20
109.1851852247457
 30
0.0
 10
350.8639245921522
 20
109.1690574662888
 30
0.0
 10
350.8751909046482
 20
109.1563887361298
 30
0.0
 10
350.8846682680834
 20
109.1475322982908
 30
0.0
 10
350.8925505007782
 20
109.142020269811
 30
0.0
 10
350.8963654070116
 20
109.1413419237302
 30
0.0
 10
350.8982645717279
 20
109.1410042244885
 30
0.0
  0
SPLINE
  5
F7
330
1F
100
AcDbEntity
  8
0
  6
Continuous
 62
     7
370
    25
100
AcDbSpline
210
0.0
220
0.0
230
1.0
 70
     8
 71
     3
 72
    13
 73
     9
 74
     0
 42
0.000000001
 43
0.00000001
 40
0.0
 40
0.0
 40
0.0
 40
0.0
 40
0.1621004456571512
 40
0.325943455157606
 40
0.4915935308260523
 40
0.6591130873964648
 40
0.8285624736043361
 40
1.0
 40
1.0
 40
1.0
 40
1.0
 10
371.5507088378751
 20
109.1410042244885
 30
0.0
 10
371.5525859442173
 20
109.1413387075891
 30
0.0
 10
371.5563603356102
 20
109.1420112694507
 30
0.0
 10
371.5642074127891
 20
109.1474845538464
 30
0.0
 10
371.5736734725642
 20
109.1563040185068
 30
0.0
 10
371.5849543873666
 20
109.1689567755007
 30
0.0
 10
371.5978690058643
 20
109.1851087768972
 30
0.0
 10
371.60786472011
 20
109.1989945768402
 30
0.0
 10
371.6128917260216
 20
109.2059779695908
 30
0.0
  0
LINE
  5
F8
330
1F
100
AcDbEntity
  8
0
  6
Continuous
 62
     7
370
    25
100
AcDbLine
 10
371.6129048056
 20
109.2059782837
 30
0.0
 11
372.0371268949
 21
108.7571990807
 31
0.0
  0
LINE
  5
F9
330
1F
100
AcDbEntity
  8
0
  6
Continuous
 62
     7
370
    25
100
AcDbLine
 10
369.1579152158
 20
109.2160044368
 30
0.0
 11
369.1666370517
 21
109.2160044368
 31
0.0
  0
SPLINE
  5
FA
330
1F
100
AcDbEntity
  8
0
  6
Continuous
 62
     7
370
    25
100
AcDbSpline
210
0.0
220
0.0
230
1.0
 70
     8
 71
     3
 72
    13
 73
     9
 74
     0
 42
0.000000001
 43
0.00000001
 40
0.0
 40
0.0
 40
0.0
 40
0.0
 40
0.170527330366418
 40
0.3393382731715298
 40
0.5065592454659379
 40
0.672320302183991
 40
0.8367549624218703
 40
1.0
 40
1.0
 40
1.0
 40
1.0
 10
369.1666496725124
 20
109.216004090173
 30
0.0
 10
369.16161426897
 20
109.2079979674061
 30
0.0
 10
369.151594144107
 20
109.1920663049055
 30
0.0
 10
369.1397911014516
 20
109.1734492797962
 30
0.0
 10
369.1304489977402
 20
109.1588102868095
 30
0.0
 10
369.1238533731175
 20
109.1485632172917
 30
0.0
 10
369.1197003504291
 20
109.1421802270231
 30
0.0
 10
369.1191745021201
 20
109.1413952754258
 30
0.0
 10
369.1189125324969
 20
109.1410042244885
 30
0.0
  0
SPLINE
  5
FB
330
1F
100
AcDbEntity
  8
0
  6
Continuous
 62
     7
370
    25
100
AcDbSpline
210
0.0
220
0.0
230
1.0
 70
     8
 71
     3
 72
     8
 73
     4
 74
     0
 42
0.000000001
 43
0.00000001
 40
0.0
 40
0.0
 40
0.0
 40
0.0
 40
1.0
 40
1.0
 40
1.0
 40
1.0
 10
371.6129047670145
 20
109.2059785826581
 30
0.0
 10
371.6107212827734
 20
109.2088272481744
 30
0.0
 10
371.6085377985323
 20
109.2117680395719
 30
0.0
 10
371.6063543142911
 20
109.2148005368484
 30
0.0
  0
LINE
  5
FC
330
1F
100
AcDbEntity
  8
0
  6
Continuous
 62
     7
370
    25
100
AcDbLine
 10
371.605451431
 20
109.2160044368
 30
0.0
 11
369.166640777
 21
109.2160044368
 31
0.0
  0
SPLINE
  5
FD
330
1F
100
AcDbEntity
  8
0
  6
Continuous
 62
     7
370
    25
100
AcDbSpline
210
0.0
220
0.0
230
1.0
 70
     8
 71
     3
 72
     8
 73
     4
 74
     0
 42
0.000000001
 43
0.00000001
 40
0.0
 40
0.0
 40
0.0
 40
0.0
 40
1.0
 40
1.0
 40
1.0
 40
1.0
 10
350.8435218617212
 20
109.2160042244961
 30
0.0
 10
350.8410359430347
 20
109.2125425251841
 30
0.0
 10
350.8385500243482
 20
109.2091983732752
 30
0.0
 10
350.8360641056617
 20
109.2059723813348
 30
0.0
  0
LINE
  5
FE
330
1F
100
AcDbEntity
  8
0
  6
Continuous
 62
     7
370
    25
100
AcDbLine
 10
353.2808257527
 20
109.2160044368
 30
0.0
 11
350.8437380454
 21
109.2160044368
 31
0.0
  0
SPLINE
  5
FF
330
1F
100
AcDbEntity
  8
0
  6
Continuous
 62
     7
370
    25
100
AcDbSpline
210
0.0
220
0.0
230
1.0
 70
     8
 71
     3
 72
    13
 73
     9
 74
     0
 42
0.000000001
 43
0.00000001
 40
0.0
 40
0.0
 40
0.0
 40
0.0
 40
0.1631595583870535
 40
0.3275424452489252
 40
0.4932858679997912
 40
0.6605236853065742
 40
0.8293862019229544
 40
1.0
 40
1.0
 40
1.0
 40
1.0
 10
353.330060877106
 20
109.1410042244885
 30
0.0
 10
353.3298030316193
 20
109.141394874881
 30
0.0
 10
353.3292854073869
 20
109.1421791046624
 30
0.0
 10
353.3251388111429
 20
109.1485572738972
 30
0.0
 10
353.3185455324673
 20
109.1587997200446
 30
0.0
 10
353.3092011375898
 20
109.1734366360935
 30
0.0
 10
353.2973913245761
 20
109.1920564949432
 30
0.0
 10
353.2873646072616
 20
109.2079942025906
 30
0.0
 10
353.2823253858219
 20
109.2160041659273
 30
0.0
  0
LINE
  5
100
330
1F
100
AcDbEntity
  8
0
  6
Continuous
 62
     7
370
    25
100
AcDbLine
 10
353.2823354265
 20
109.2160044368
 30
0.0
 11
353.2910581938
 21
109.2160044368
 31
0.0
  0
SPLINE
  5
101
330
1F
100
AcDbEntity
  8
0
  6
Continuous
 62
     7
370
    25
100
AcDbSpline
210
0.0
220
0.0
230
1.0
 70
     8
 71
     3
 72
    14
 73
    10
 74
     0
 42
0.000000001
 43
0.00000001
 40
0.0
 40
0.0
 40
0.0
 40
0.0
 40
0.0310276388071746
 40
0.0622853718672815
 40
0.1248003166904892
 40
0.2498289731753984
 40
0.499889260361071
 40
0.7606803621682141
 40
1.0
 40
1.0
 40
1.0
 40
1.0
 10
350.2643927103423
 20
108.759266049873
 30
0.0
 10
350.2687220038075
 20
108.7640499721512
 30
0.0
 10
350.277412695841
 20
108.7736532932394
 30
0.0
 10
350.2948134745031
 20
108.7929476072373
 30
0.0
 10
350.3252896343481
 20
108.8267125536909
 30
0.0
 10
350.3861110271675
 20
108.8941313125527
 30
0.0
 10
350.4740013695807
 20
108.9915979874196
 30
0.0
 10
350.5768390496642
 20
109.1057424993165
 30
0.0
 10
350.6440451611059
 20
109.1805273123231
 30
0.0
 10
350.6762055227528
 20
109.2163143349673
 30
0.0
  0
LINE
  5
102
330
1F
100
AcDbEntity
  8
0
  6
Continuous
 62
     7
370
    25
100
AcDbLine
 10
350.6758773959
 20
109.2160044368
 30
0.0
 11
350.8435219786
 21
109.2160044368
 31
0.0
  0
LINE
  5
103
330
1F
100
AcDbEntity
  8
0
  6
Continuous
 62
     7
370
    25
100
AcDbLine
 10
371.605451431
 20
109.2160044368
 30
0.0
 11
371.7731034643
 21
109.2160044368
 31
0.0
  0
SPLINE
  5
104
330
1F
100
AcDbEntity
  8
0
  6
Continuous
 62
     7
370
    25
100
AcDbSpline
210
0.0
220
0.0
230
1.0
 70
     8
 71
     3
 72
    11
 73
     7
 74
     0
 42
0.000000001
 43
0.00000001
 40
0.0
 40
0.0
 40
0.0
 40
0.0
 40
0.2392913844325938
 40
0.5001130135003002
 40
0.7515028526498353
 40
0.9999999999999999
 40
0.9999999999999999
 40
0.9999999999999999
 40
0.9999999999999999
 10
371.7727999574719
 20
109.216291027
 30
0.0
 10
371.8049565104515
 20
109.1805143084227
 30
0.0
 10
371.8721629025771
 20
109.1057418606671
 30
0.0
 10
371.9751909923245
 20
108.9912831473443
 30
0.0
 10
372.0802816569417
 20
108.8751239612244
 30
0.0
 10
372.1499564770214
 20
108.7977360199288
 30
0.0
 10
372.184592293715
 20
108.7592659593538
 30
0.0
  0
LINE
  5
105
330
1F
100
AcDbEntity
  8
0
  6
Continuous
 62
     7
370
    25
100
AcDbLine
 10
350.8205937481
 20
117.2785040121
 30
0.0
 11
350.6760217509
 21
117.2785040121
 31
0.0
  0
SPLINE
  5
106
330
1F
100
AcDbEntity
  8
0
  6
Continuous
 62
     7
370
    25
100
AcDbSpline
210
0.0
220
0.0
230
1.0
 70
     8
 71
     3
 72
    11
 73
     7
 74
     0
 42
0.000000001
 43
0.00000001
 40
0.0
 40
0.0
 40
0.0
 40
0.0
 40
0.2392845094479873
 40
0.5001120454076898
 40
0.7515010915036774
 40
1.0
 40
1.0
 40
1.0
 40
1.0
 10
350.6763243605918
 20
117.2782184382918
 30
0.0
 10
350.6441632308218
 20
117.3140162873537
 30
0.0
 10
350.5769454722257
 20
117.3888349020514
 30
0.0
 10
350.4739008237277
 20
117.5033631663066
 30
0.0
 10
350.3687925948408
 20
117.6195941599809
 30
0.0
 10
350.2991070782135
 20
117.6970286556719
 30
0.0
 10
350.2644657657738
 20
117.735522057008
 30
0.0
  0
SPLINE
  5
107
330
1F
100
AcDbEntity
  8
0
  6
Continuous
 62
     7
370
    25
100
AcDbSpline
210
0.0
220
0.0
230
1.0
 70
     8
 71
     3
 72
    14
 73
    10
 74
     0
 42
0.000000001
 43
0.00000001
 40
0.0
 40
0.0
 40
0.0
 40
0.0
 40
0.031029414748255
 40
0.0622870907562092
 40
0.1248019217225762
 40
0.249830351143087
 40
0.4998901825554788
 40
0.7606872170552411
 40
1.0
 40
1.0
 40
1.0
 40
1.0
 10
372.184496028504
 20
117.7355219487319
 30
0.0
 10
372.1801658321885
 20
117.7307347621619
 30
0.0
 10
372.1714735853934
 20
117.7211251731067
 30
0.0
 10
372.1540699570459
 20
117.7018191794007
 30
0.0
 10
372.1235892215108
 20
117.6680339637488
 30
0.0
 10
372.0627585997886
 20
117.6005748328013
 30
0.0
 10
371.9748536966219
 20
117.5030483270909
 30
0.0
 10
371.871999452005
 20
117.3888343203165
 30
0.0
 10
371.8047819938586
 20
117.3140033602114
 30
0.0
 10
371.7726170644563
 20
117.2781952143033
 30
0.0
  0
LINE
  5
108
330
1F
100
AcDbEntity
  8
0
  6
Continuous
 62
     7
370
    25
100
AcDbLine
 10
371.7729442081
 20
117.2785040121
 30
0.0
 11
371.6283796615
 21
117.2785040121
 31
0.0
  0
LINE
  5
109
330
1F
100
AcDbEntity
  8
0
  6
Continuous
 62
     7
370
    25
100
AcDbLine
 10
349.3538184351
 20
111.0599164981
 30
0.0
 11
349.7938813901
 21
111.1410041936
 31
0.0
  0
SPLINE
  5
10A
330
1F
100
AcDbEntity
  8
0
  6
Continuous
 62
     7
370
    25
100
AcDbSpline
210
0.0
220
0.0
230
1.0
 70
     8
 71
     3
 72
    25
 73
    21
 74
     0
 42
0.000000001
 43
0.00000001
 40
0.0
 40
0.0
 40
0.0
 40
0.0
 40
0.0274788704223154
 40
0.0560416006850518
 40
0.0856947086352136
 40
0.116444016653826
 40
0.1482947438681133
 40
0.1812515840470034
 40
0.2153187716748716
 40
0.2505001382254911
 40
0.333051455250936
 40
0.5015081958163736
 40
0.5771663066143947
 40
0.648898130302521
 40
0.716747770006283
 40
0.7807674423488066
 40
0.84101941313403
 40
0.8975784849924567
 40
0.9505352047788314
 40
1.0
 40
1.0
 40
1.0
 40
1.0
 10
349.7938814973903
 20
111.1410042244885
 30
0.0
 10
349.8005896647337
 20
111.111822019971
 30
0.0
 10
349.8142705922905
 20
111.0523065658222
 30
0.0
 10
349.8370353209443
 20
110.9619160687636
 30
0.0
 10
349.8619129581847
 20
110.8687844596424
 30
0.0
 10
349.8890521962023
 20
110.7731984153675
 30
0.0
 10
349.9184136032335
 20
110.6754449457542
 30
0.0
 10
349.9499987735215
 20
110.5758642696968
 30
0.0
 10
349.9838456433864
 20
110.4748551301182
 30
0.0
 10
350.0355468733192
 20
110.3280883228671
 30
0.0
 10
350.1399058863329
 20
110.0638219099528
 30
0.0
 10
350.2607791140167
 20
109.7938522801243
 30
0.0
 10
350.3742721604737
 20
109.576442605408
 30
0.0
 10
350.4455451280896
 20
109.4467390346775
 30
0.0
 10
350.5076197002155
 20
109.3428639573527
 30
0.0
 10
350.5602037123828
 20
109.2630033235342
 30
0.0
 10
350.6034502583103
 20
109.2049846973836
 30
0.0
 10
350.6370570705304
 20
109.1668811387312
 30
0.0
 10
350.6620040534031
 20
109.1448786077365
 30
0.0
 10
350.670963590265
 20
109.1422659943852
 30
0.0
 10
350.675290626983
 20
109.1410042244885
 30
0.0
  0
LINE
  5
10B
330
1F
100
AcDbEntity
  8
0
  6
Continuous
 62
     7
370
    25
100
AcDbLine
 10
373.0951549745
 20
115.4345919508
 30
0.0
 11
372.6550920195
 21
115.3535042554
 31
0.0
  0
SPLINE
  5
10C
330
1F
100
AcDbEntity
  8
0
  6
Continuous
 62
     7
370
    25
100
AcDbSpline
210
0.0
220
0.0
230
1.0
 70
     8
 71
     3
 72
    25
 73
    21
 74
     0
 42
0.000000001
 43
0.00000001
 40
0.0
 40
0.0
 40
0.0
 40
0.0
 40
0.0274788704223041
 40
0.0560416006850305
 40
0.0856947086351823
 40
0.1164440166537841
 40
0.1482947438680617
 40
0.1812515840469434
 40
0.2153187716748025
 40
0.2505001382254136
 40
0.3330514552861967
 40
0.5015081958164245
 40
0.5771663066128696
 40
0.6488981302998588
 40
0.7167477700029257
 40
0.7807674423452041
 40
0.8410194131306359
 40
0.8975784849897311
 40
0.950535204777236
 40
1.0
 40
1.0
 40
1.0
 40
1.0
 10
372.6550919122128
 20
115.3535042244885
 30
0.0
 10
372.6483837448693
 20
115.3826864290059
 30
0.0
 10
372.6347028173125
 20
115.4422018831547
 30
0.0
 10
372.6119380886586
 20
115.5325923802133
 30
0.0
 10
372.5870604514183
 20
115.6257239893345
 30
0.0
 10
372.5599212134007
 20
115.7213100336094
 30
0.0
 10
372.5305598063695
 20
115.8190635032227
 30
0.0
 10
372.4989746360815
 20
115.9186441792801
 30
0.0
 10
372.4651277662167
 20
116.0196533188587
 30
0.0
 10
372.4134265362714
 20
116.1664201261439
 30
0.0
 10
372.3090675232604
 20
116.4306865390564
 30
0.0
 10
372.1881942955747
 20
116.7006561688755
 30
0.0
 10
372.0747012491294
 20
116.9180658435657
 30
0.0
 10
372.0034282815138
 20
117.0477694142947
 30
0.0
 10
371.941353709388
 20
117.1516444916194
 30
0.0
 10
371.8887696972208
 20
117.2315051254387
 30
0.0
 10
371.8455231512933
 20
117.2895237515906
 30
0.0
 10
371.8119163390731
 20
117.3276273102444
 30
0.0
 10
371.7869693562002
 20
117.3496298412402
 30
0.0
 10
371.7780098193381
 20
117.3522424545916
 30
0.0
 10
371.7736827826199
 20
117.3535042244885
 30
0.0
  0
SPLINE
  5
10D
330
1F
100
AcDbEntity
  8
0
  6
Continuous
 62
     7
370
    25
100
AcDbSpline
210
0.0
220
0.0
230
1.0
 70
     8
 71
     3
 72
    25
 73
    21
 74
     0
 42
0.000000001
 43
0.00000001
 40
0.0
 40
0.0
 40
0.0
 40
0.0
 40
0.0288821753110086
 40
0.0583636594013118
 40
0.0884647204314734
 40
0.1192044006626603
 40
0.150600580009491
 40
0.1826700399677263
 40
0.2154285269580574
 40
0.248890814337993
 40
0.361059447124065
 40
0.4984670131067773
 40
0.5822693905007604
 40
0.666112764278331
 40
0.7499972937224478
 40
0.8007709755049082
 40
0.8511237700832938
 40
0.9010896024531745
 40
0.9507031914125761
 40
1.0
 40
1.0
 40
1.0
 40
1.0
 10
350.675290626983
 20
117.3535042244885
 30
0.0
 10
350.6730003586054
 20
117.3530759825126
 30
0.0
 10
350.6683722984924
 20
117.3522106124857
 30
0.0
 10
350.658062035405
 20
117.3451356797841
 30
0.0
 10
350.6452259661742
 20
117.3335671386237
 30
0.0
 10
350.6296124074315
 20
117.3168615625113
 30
0.0
 10
350.6112909640189
 20
117.2949246514951
 30
0.0
 10
350.5902433781878
 20
117.2675270160104
 30
0.0
 10
350.5664718061956
 20
117.2344925353283
 30
0.0
 10
350.5194152767592
 20
117.1655018692005
 30
0.0
 10
350.4317208589023
 20
117.0254758997788
 30
0.0
 10
350.3141692043689
 20
116.8061805985743
 30
0.0
 10
350.2026470400274
 20
116.5692505378031
 30
0.0
 10
350.1111877226794
 20
116.3534086638932
 30
0.0
 10
350.0303060715019
 20
116.1518470430114
 30
0.0
 10
349.9641611696339
 20
115.9729789626193
 30
0.0
 10
349.9148106088068
 20
115.8216027614754
 30
0.0
 10
349.8698435919418
 20
115.6673586063524
 30
0.0
 10
349.8290858780226
 20
115.5112027512768
 30
0.0
 10
349.8055912088054
 20
115.4059580443288
 30
0.0
 10
349.7938814973903
 20
115.3535042244885
 30
0.0
  0
LINE
  5
10E
330
1F
100
AcDbEntity
  8
0
  6
Continuous
 62
     7
370
    25
100
AcDbLine
 10
349.3538184351
 20
115.4345919508
 30
0.0
 11
349.7938813901
 21
115.3535042554
 31
0.0
  0
SPLINE
  5
10F
330
1F
100
AcDbEntity
  8
0
  6
Continuous
 62
     7
370
    25
100
AcDbSpline
210
0.0
220
0.0
230
1.0
 70
     8
 71
     3
 72
    25
 73
    21
 74
     0
 42
0.000000001
 43
0.00000001
 40
0.0
 40
0.0
 40
0.0
 40
0.0
 40
0.0288821753116583
 40
0.0583636594024247
 40
0.088464720432864
 40
0.1192044006641432
 40
0.1506005800108822
 40
0.1826700399688414
 40
0.2154285269587146
 40
0.2488908143380118
 40
0.3610594471217245
 40
0.498467013106778
 40
0.5822693905006526
 40
0.6661127642782239
 40
0.7499972937224496
 40
0.8007709755032478
 40
0.8511237700807983
 40
0.901089602450676
 40
0.9507031914109089
 40
1.0
 40
1.0
 40
1.0
 40
1.0
 10
371.7736827826199
 20
109.1410042244885
 30
0.0
 10
371.7759730509976
 20
109.1414324664644
 30
0.0
 10
371.7806011111107
 20
109.1422978364912
 30
0.0
 10
371.7909113741982
 20
109.1493727691931
 30
0.0
 10
371.803747443429
 20
109.1609413103538
 30
0.0
 10
371.8193610021717
 20
109.1776468864665
 30
0.0
 10
371.8376824455843
 20
109.1995837974829
 30
0.0
 10
371.8587300314154
 20
109.2269814329676
 30
0.0
 10
371.8825016034074
 20
109.2600159136494
 30
0.0
 10
371.9295581328437
 20
109.3290065797759
 30
0.0
 10
372.0172525507014
 20
109.4690325491964
 30
0.0
 10
372.1348042052335
 20
109.6883278504006
 30
0.0
 10
372.2463263695743
 20
109.925257911174
 30
0.0
 10
372.3377856869224
 20
110.1410997850839
 30
0.0
 10
372.4186673381003
 20
110.342661405964
 30
0.0
 10
372.4848122399683
 20
110.5215294863534
 30
0.0
 10
372.5341628007948
 20
110.6729056874946
 30
0.0
 10
372.5791298176597
 20
110.8271498426175
 30
0.0
 10
372.6198875315795
 20
110.9833056976957
 30
0.0
 10
372.6433822007972
 20
111.0885504046464
 30
0.0
 10
372.6550919122128
 20
111.1410042244885
 30
0.0
  0
LINE
  5
110
330
1F
100
AcDbEntity
  8
0
  6
Continuous
 62
     7
370
    25
100
AcDbLine
 10
373.0951549745
 20
111.0599164981
 30
0.0
 11
372.6550920195
 21
111.1410041936
 31
0.0
  0
SPLINE
  5
111
330
1F
100
AcDbEntity
  8
0
  6
Continuous
 62
     7
370
    25
100
AcDbSpline
210
0.0
220
0.0
230
1.0
 70
     8
 71
     3
 72
    15
 73
    11
 74
     0
 42
0.000000001
 43
0.00000001
 40
0.0
 40
0.0
 40
0.0
 40
0.0
 40
0.1351922525168508
 40
0.295505352053604
 40
0.3941605101370091
 40
0.4930224738308925
 40
0.5920945925114958
 40
0.7581984282951001
 40
0.9106346529387762
 40
1.0
 40
1.0
 40
1.0
 40
1.0
 10
352.3266289642801
 20
115.3535042554084
 30
0.0
 10
352.3618898417114
 20
115.4739232066457
 30
0.0
 10
352.4389636222357
 20
115.7371368443862
 30
0.0
 10
352.5637571591134
 20
116.069359406146
 30
0.0
 10
352.6806606844382
 20
116.3488538061255
 30
0.0
 10
352.7782455332877
 20
116.5638682712421
 30
0.0
 10
352.9023251904097
 20
116.8025000629032
 30
0.0
 10
353.0329382401819
 20
117.0331774323092
 30
0.0
 10
353.1360165781734
 20
117.2103728727339
 30
0.0
 10
353.1699751368562
 20
117.2640774845287
 30
0.0
 10
353.1825255862226
 20
117.283925706515
 30
0.0
  0
SPLINE
  5
112
330
1F
100
AcDbEntity
  8
0
  6
Continuous
 62
     7
370
    25
100
AcDbSpline
210
0.0
220
0.0
230
1.0
 70
     8
 71
     3
 72
    15
 73
    11
 74
     0
 42
0.000000001
 43
0.00000001
 40
0.0
 40
0.0
 40
0.0
 40
0.0
 40
0.1361835767353471
 40
0.2976722041233961
 40
0.3970507708760626
 40
0.4966376596826896
 40
0.5964362444794897
 40
0.763758069845573
 40
0.9173120635806887
 40
0.9999999999999999
 40
0.9999999999999999
 40
0.9999999999999999
 40
0.9999999999999999
 10
370.1223444453229
 20
111.1410041935685
 30
0.0
 10
370.0870835348755
 20
111.0205851798381
 30
0.0
 10
370.0100096821841
 20
110.757371405499
 30
0.0
 10
369.8852166802674
 20
110.4251498563187
 30
0.0
 10
369.7683117892267
 20
110.1456528712983
 30
0.0
 10
369.6707314370084
 20
109.9306469174515
 30
0.0
 10
369.5466310717615
 20
109.691975929238
 30
0.0
 10
369.4161447109548
 20
109.4615383580118
 30
0.0
 10
369.3145015601336
 20
109.2867397986444
 30
0.0
 10
369.2814017926357
 20
109.2343437700607
 30
0.0
 10
369.2698164171328
 20
109.21600443683
 30
0.0
  0
SPLINE
  5
113
330
1F
100
AcDbEntity
  8
0
  6
Continuous
 62
     7
370
    25
100
AcDbSpline
210
0.0
220
0.0
230
1.0
 70
     8
 71
     3
 72
    15
 73
    11
 74
     0
 42
0.000000001
 43
0.00000001
 40
0.0
 40
0.0
 40
0.0
 40
0.0
 40
0.0210214847137796
 40
0.0995173547081305
 40
0.2360971400771362
 40
0.3979401334474181
 40
0.5486162591715825
 40
0.7000321895560188
 40
0.8517812990240201
 40
0.9999999999999999
 40
0.9999999999999999
 40
0.9999999999999999
 40
0.9999999999999999
 10
353.1777106485118
 20
109.21600443683
 30
0.0
 10
353.1748621472576
 20
109.2204890464232
 30
0.0
 10
353.16137711927
 20
109.2417195394017
 30
0.0
 10
353.1139682552409
 20
109.3188547285558
 30
0.0
 10
353.0208264370892
 20
109.4747841626
 30
0.0
 10
352.8844073535112
 20
109.7237996270428
 30
0.0
 10
352.735084917294
 20
110.0334386234373
 30
0.0
 10
352.5819197815815
 20
110.3754024975408
 30
0.0
 10
352.4362870148672
 20
110.7465113402263
 30
0.0
 10
352.3628937187862
 20
111.0105423952394
 30
0.0
 10
352.3266289642801
 20
111.1410041935685
 30
0.0
  0
LINE
  5
114
330
1F
100
AcDbEntity
  8
0
  6
Continuous
 62
     7
370
    25
100
AcDbLine
 10
352.6428893468
 20
115.2786408216
 30
0.0
 11
352.3266289643
 21
115.3535042554
 31
0.0
  0
SPLINE
  5
115
330
1F
100
AcDbEntity
  8
0
  6
Continuous
 62
     7
370
    25
100
AcDbSpline
210
0.0
220
0.0
230
1.0
 70
     8
 71
     3
 72
    25
 73
    21
 74
     0
 42
0.000000001
 43
0.00000001
 40
0.0
 40
0.0
 40
0.0
 40
0.0
 40
0.0278144320063462
 40
0.0555680196245754
 40
0.083331625367772
 40
0.111176035216759
 40
0.1391714221532265
 40
0.1673868326284763
 40
0.1958897140434718
 40
0.2247454979318961
 40
0.254017249222145
 40
0.3796724410016501
 40
0.5056484635002454
 40
0.629752729069345
 40
0.7535891720571729
 40
0.8038564806093713
 40
0.853339684343451
 40
0.9023264398358534
 40
0.9511131859219439
 40
1.0
 40
1.0
 40
1.0
 40
1.0
 10
353.510510615513
 20
117.521002515671
 30
0.0
 10
353.5103628641983
 20
117.5207359731174
 30
0.0
 10
353.5100676847766
 20
117.5202034710752
 30
0.0
 10
353.5064429857607
 20
117.5136560223791
 30
0.0
 10
353.5004970900904
 20
117.5028867790928
 30
0.0
 10
353.4920223671753
 20
117.4874760431685
 30
0.0
 10
353.4811073803362
 20
117.4675196669148
 30
0.0
 10
353.4677713120979
 20
117.4429695704443
 30
0.0
 10
353.4520635474109
 20
117.4138129466884
 30
0.0
 10
353.434031959253
 20
117.380016975255
 30
0.0
 10
353.3916144145046
 20
117.2996102171972
 30
0.0
 10
353.3110933747511
 20
117.1426217675265
 30
0.0
 10
353.1776670278766
 20
116.8608360297792
 30
0.0
 10
353.0335900511935
 20
116.5229639201522
 30
0.0
 10
352.9179122997421
 20
116.2142830064139
 30
0.0
 10
352.8354008245249
 20
115.9682522866589
 30
0.0
 10
352.7824791999997
 20
115.7994263953857
 30
0.0
 10
352.7326220656223
 20
115.6281108243739
 30
0.0
 10
352.6856040723918
 20
115.4544284741531
 30
0.0
 10
352.6571370616633
 20
115.3372767858497
 30
0.0
 10
352.6428889738644
 20
115.2786409298883
 30
0.0
  0
LINE
  5
116
330
1F
100
AcDbEntity
  8
0
  6
Continuous
 62
     7
370
    25
100
AcDbLine
 10
352.6428893468
 20
111.2158676274
 30
0.0
 11
352.3266289643
 21
111.1410041936
 31
0.0
  0
SPLINE
  5
117
330
1F
100
AcDbEntity
  8
0
  6
Continuous
 62
     7
370
    25
100
AcDbSpline
210
0.0
220
0.0
230
1.0
 70
     8
 71
     3
 72
    25
 73
    21
 74
     0
 42
0.000000001
 43
0.00000001
 40
0.0
 40
0.0
 40
0.0
 40
0.0
 40
0.0269872354797669
 40
0.0539362690259618
 40
0.0809037148829035
 40
0.1079460716545392
 40
0.1351193706855853
 40
0.162478838835575
 40
0.190078585418252
 40
0.2179713214290535
 40
0.2462081170984584
 40
0.3700050494705653
 40
0.4947542611659071
 40
0.6210439034695193
 40
0.7446557472315123
 40
0.7967060293738726
 40
0.8478613449329371
 40
0.8985210411990388
 40
0.9490962115257747
 40
1.0
 40
1.0
 40
1.0
 40
1.0
 10
352.6428889738644
 20
111.2158675190886
 30
0.0
 10
352.6506697185885
 20
111.1834711140609
 30
0.0
 10
352.6662201939595
 20
111.1187241629196
 30
0.0
 10
352.6909055999327
 20
111.0220776264909
 30
0.0
 10
352.7165255569317
 20
110.9259835379996
 30
0.0
 10
352.7431684205591
 20
110.8304712672829
 30
0.0
 10
352.7707936058436
 20
110.7355465398902
 30
0.0
 10
352.7993953849029
 20
110.6412203837545
 30
0.0
 10
352.8289574745444
 20
110.5475040393053
 30
0.0
 10
352.8594706215916
 20
110.454399955415
 30
0.0
 10
352.9262048261808
 20
110.258134713302
 30
0.0
 10
353.0333880022766
 20
109.9720615976986
 30
0.0
 10
353.1771680925854
 20
109.6347717017053
 30
0.0
 10
353.3104165487972
 20
109.3532625248818
 30
0.0
 10
353.3980877250104
 20
109.1822715947034
 30
0.0
 10
353.4489627608027
 20
109.0863587763209
 30
0.0
 10
353.4766319154542
 20
109.0351415728663
 30
0.0
 10
353.4963308335717
 20
108.9991587787812
 30
0.0
 10
353.5085783422751
 20
108.9769888904592
 30
0.0
 10
353.5098651354312
 20
108.9746694227256
 30
0.0
 10
353.510510615513
 20
108.973505933306
 30
0.0
  0
SPLINE
  5
118
330
1F
100
AcDbEntity
  8
0
  6
Continuous
 62
     7
370
    25
100
AcDbSpline
210
0.0
220
0.0
230
1.0
 70
     8
 71
     3
 72
    15
 73
    11
 74
     0
 42
0.000000001
 43
0.00000001
 40
0.0
 40
0.0
 40
0.0
 40
0.0
 40
0.0210214847137796
 40
0.0995173547081305
 40
0.2360971400771362
 40
0.3979401334474181
 40
0.5486162591715825
 40
0.7000321895560188
 40
0.8517812990240201
 40
0.9999999999999999
 40
0.9999999999999999
 40
0.9999999999999999
 40
0.9999999999999999
 10
369.2712627610912
 20
117.2785040121469
 30
0.0
 10
369.2741112623454
 20
117.2740194025537
 30
0.0
 10
369.287596290333
 20
117.2527889095753
 30
0.0
 10
369.335005154362
 20
117.1756537204211
 30
0.0
 10
369.4281469725137
 20
117.0197242863769
 30
0.0
 10
369.5645660560917
 20
116.7707088219342
 30
0.0
 10
369.713888492309
 20
116.4610698255396
 30
0.0
 10
369.8670536280216
 20
116.1191059514361
 30
0.0
 10
370.0126863947358
 20
115.7479971087506
 30
0.0
 10
370.0860796908168
 20
115.4839660537375
 30
0.0
 10
370.1223444453229
 20
115.3535042554084
 30
0.0
  0
LINE
  5
119
330
1F
100
AcDbEntity
  8
0
  6
Continuous
 62
     7
370
    25
100
AcDbLine
 10
369.8060840628
 20
115.2786408216
 30
0.0
 11
370.1223444453
 21
115.3535042554
 31
0.0
  0
SPLINE
  5
11A
330
1F
100
AcDbEntity
  8
0
  6
Continuous
 62
     7
370
    25
100
AcDbSpline
210
0.0
220
0.0
230
1.0
 70
     8
 71
     3
 72
    14
 73
    10
 74
     0
 42
0.000000001
 43
0.00000001
 40
0.0
 40
0.0
 40
0.0
 40
0.0
 40
0.1400505481383316
 40
0.2837940635646364
 40
0.4267314741655509
 40
0.5707685044357909
 40
0.7165840938251985
 40
0.8593077005344127
 40
1.0
 40
1.0
 40
1.0
 40
1.0
 10
369.8060840627899
 20
115.2786408215705
 30
0.0
 10
369.769317272665
 20
115.4242008387663
 30
0.0
 10
369.6948141956512
 20
115.7191591186278
 30
0.0
 10
369.5596250487151
 20
116.1372234832268
 30
0.0
 10
369.4157403862005
 20
116.5222759933579
 30
0.0
 10
369.2716045978079
 20
116.8600842734993
 30
0.0
 10
369.1392075722566
 20
117.1400245236582
 30
0.0
 10
369.0282877012211
 20
117.3561653994256
 30
0.0
 10
368.9869518357461
 20
117.4322286265649
 30
0.0
 10
368.9664320348551
 20
117.4699876587782
 30
0.0
  0
LINE
  5
11B
330
1F
100
AcDbEntity
  8
0
  6
Continuous
 62
     7
370
    25
100
AcDbLine
 10
369.8060840628
 20
111.2158676274
 30
0.0
 11
370.1223444453
 21
111.1410041936
 31
0.0
  0
SPLINE
  5
11C
330
1F
100
AcDbEntity
  8
0
  6
Continuous
 62
     7
370
    25
100
AcDbSpline
210
0.0
220
0.0
230
1.0
 70
     8
 71
     3
 72
    25
 73
    21
 74
     0
 42
0.000000001
 43
0.00000001
 40
0.0
 40
0.0
 40
0.0
 40
0.0
 40
0.0278144320057649
 40
0.0555680196235595
 40
0.083331625366468
 40
0.1111760352153128
 40
0.1391714221517827
 40
0.1673868326271739
 40
0.195889714042447
 40
0.2247454979312803
 40
0.2540172492220635
 40
0.3796724409988544
 40
0.505648463500191
 40
0.6297527290689083
 40
0.7535891720572004
 40
0.803856480609888
 40
0.85333968434422
 40
0.902326439836625
 40
0.9511131859224594
 40
1.0
 40
1.0
 40
1.0
 40
1.0
 10
368.93846279409
 20
108.973505933306
 30
0.0
 10
368.9386105454047
 20
108.9737724758595
 30
0.0
 10
368.9389057248264
 20
108.9743049779018
 30
0.0
 10
368.9425304238423
 20
108.9808524265979
 30
0.0
 10
368.9484763195126
 20
108.9916216698841
 30
0.0
 10
368.9569510424277
 20
109.0070324058085
 30
0.0
 10
368.9678660292668
 20
109.0269887820622
 30
0.0
 10
368.9812020975052
 20
109.0515388785327
 30
0.0
 10
368.9969098621921
 20
109.0806955022886
 30
0.0
 10
369.01494145035
 20
109.114491473722
 30
0.0
 10
369.057358995097
 20
109.1948982317773
 30
0.0
 10
369.1378800348509
 20
109.3518866814485
 30
0.0
 10
369.2713063817254
 20
109.6336724191953
 30
0.0
 10
369.4153833584089
 20
109.9715445288232
 30
0.0
 10
369.5310611098609
 20
110.280225442563
 30
0.0
 10
369.6135725850787
 20
110.5262561623196
 30
0.0
 10
369.666494209604
 20
110.6950820535937
 30
0.0
 10
369.7163513439813
 20
110.8663976246055
 30
0.0
 10
369.7633693372116
 20
111.0400799748253
 30
0.0
 10
369.7918363479399
 20
111.1572316631278
 30
0.0
 10
369.8060844357386
 20
111.2158675190886
 30
0.0
  0
ARC
  5
11D
330
1F
100
AcDbEntity
  8
0
  6
Continuous
 62
     7
370
    25
100
AcDbCircle
 10
361.2244867048
 20
113.2472542245
 30
0.0
 40
11.62303852141071
100
AcDbArc
 50
169.5595567507
 51
190.4404432494
  0
ARC
  5
11E
330
1F
100
AcDbEntity
  8
0
  6
Continuous
 62
     7
370
    25
100
AcDbCircle
 10
361.2244867048
 20
113.2472542245
 30
0.0
 40
9.143750000000006
100
AcDbArc
 50
166.6824039243
 51
193.3175960757
  0
ARC
  5
11F
330
1F
100
AcDbEntity
  8
0
  6
Continuous
 62
     7
370
    25
100
AcDbCircle
 10
361.2244867048
 20
113.2472542245
 30
0.0
 40
8.818750000000026
100
AcDbArc
 50
166.6824039243
 51
193.3175960757
  0
ARC
  5
120
330
1F
100
AcDbEntity
  8
0
  6
Continuous
 62
     7
370
    25
100
AcDbCircle
 10
361.2244867048
 20
113.2472542245
 30
0.0
 40
9.143750000000006
100
AcDbArc
 50
346.6824039243
 51
13.3175960757
  0
ARC
  5
121
330
1F
100
AcDbEntity
  8
0
  6
Continuous
 62
     7
370
    25
100
AcDbCircle
 10
361.2244867048
 20
113.2472542245
 30
0.0
 40
8.81874999999997
100
AcDbArc
 50
346.6824039243
 51
13.3175960757
  0
ARC
  5
122
330
1F
100
AcDbEntity
  8
0
  6
Continuous
 62
     7
370
    25
100
AcDbCircle
 10
361.2244867048
 20
113.2472542245
 30
0.0
 40
11.6230385214107
100
AcDbArc
 50
349.5595567507
 51
10.4404432493
  0
CIRCLE
  5
123
330
1F
100
AcDbEntity
  8
0
  6
Continuous
 62
     7
370
    25
100
AcDbCircle
 10
361.2244867048
 20
113.2472542245
 30
0.0
 40
7.775000000000034
  0
CIRCLE
  5
124
330
1F
100
AcDbEntity
  8
0
  6
Continuous
 62
     7
370
    25
100
AcDbCircle
 10
361.2244867048
 20
113.2472542245
 30
0.0
 40
2.615470053837953
  0
CIRCLE
  5
125
330
1F
100
AcDbEntity
  8
0
  6
Continuous
 62
     7
370
    25
100
AcDbCircle
 10
361.2244867048
 20
113.2472542245
 30
0.0
 40
2.5
  0
CIRCLE
  5
126
330
1F
100
AcDbEntity
  8
0
  6
Continuous
 62
     7
370
    25
100
AcDbCircle
 10
361.2244867048
 20
113.2472542245
 30
0.0
 40
15.73750000000001
  0
CIRCLE
  5
127
330
1F
100
AcDbEntity
  8
0
  6
Continuous
 62
     7
370
    25
100
AcDbCircle
 10
361.2244867048
 20
113.2472542245
 30
0.0
 40
13.42500000000001
  0
CIRCLE
  5
128
330
1F
100
AcDbEntity
  8
0
  6
Continuous
 62
     7
370
    25
100
AcDbCircle
 10
361.2244867048
 20
113.2472542245
 30
0.0
 40
2.0
  0
LINE
  5
129
330
1F
100
AcDbEntity
  8
0
  6
CENTER
 62
     7
370
    18
100
AcDbLine
 10
361.2244867048
 20
113.2472542245
 30
0.0
 11
361.2244867048
 21
132.7617542245
 31
0.0
  0
LINE
  5
12A
330
1F
100
AcDbEntity
  8
0
  6
CENTER
 62
     7
370
    18
100
AcDbLine
 10
361.2244867048
 20
113.2472542245
 30
0.0
 11
380.7366444289
 21
113.2472542245
 31
0.0
  0
LINE
  5
12B
330
1F
100
AcDbEntity
  8
0
  6
Continuous
 62
     7
370
    18
100
AcDbLine
 10
373.2244867048
 20
130.7617542245
 30
0.0
 11
361.2244867048
 21
130.7617542245
 31
0.0
  0
SOLID
  5
12C
330
1F
100
AcDbEntity
  8
0
  6
Continuous
 62
     7
370
    18
100
AcDbTrace
 10
361.2244867048
 20
130.7617542245
 30
0.0
 11
367.2244867048
 21
129.2617542245
 31
0.0
 12
367.2244867048
 22
132.2617542245
 32
0.0
 13
367.2244867048
 23
132.2617542245
 33
0.0
  0
LINE
  5
12D
330
1F
100
AcDbEntity
  8
0
  6
Continuous
 62
     7
370
    18
100
AcDbLine
 10
390.7366444289
 20
113.2472542245
 30
0.0
 11
378.7366444289
 21
113.2472542245
 31
0.0
  0
SOLID
  5
12E
330
1F
100
AcDbEntity
  8
0
  6
Continuous
 62
     7
370
    18
100
AcDbTrace
 10
378.7366444289
 20
113.2472542245
 30
0.0
 11
384.7366444289
 21
111.7472542245
 31
0.0
 12
384.7366444289
 22
114.7472542245
 32
0.0
 13
384.7366444289
 23
114.7472542245
 33
0.0
  0
MTEXT
  5
12F
330
1F
100
AcDbEntity
  8
0
  6
Continuous
 62
     7
100
AcDbMText
 10
370.0771059608
 20
137.4080474411
 30
0.0
 40
3.5
 41
0.0
 71
     1
 72
     1
  1
A
  7
SLDTEXTSTYLE0
 73
     1
 44
1.0
  0
MTEXT
  5
130
330
1F
100
AcDbEntity
  8
0
  6
Continuous
 62
     7
100
AcDbMText
 10
387.5892636849
 20
111.0340385834
 30
0.0
 40
3.5
 41
0.0
 71
     1
 72
     1
  1
A
  7
SLDTEXTSTYLE0
 73
     1
 44
1.0
  0
LINE
  5
131
330
1F
100
AcDbEntity
  8
0
  6
Continuous
 62
     7
370
    25
100
AcDbLine
 10
129.8487004113
 20
81.7722542245
 30
0.0
 11
136.2145026067
 21
81.7722542245
 31
0.0
  0
LINE
  5
132
330
1F
100
AcDbEntity
  8
0
  6
Continuous
 62
     7
370
    25
100
AcDbLine
 10
142.8828982159
 20
81.7722542245
 30
0.0
 11
147.6487004113
 21
81.7722542245
 31
0.0
  0
ARC
  5
133
330
1F
100
AcDbEntity
  8
0
  6
Continuous
 62
     7
370
    25
100
AcDbCircle
 10
129.8487004113
 20
81.9722542245
 30
0.0
 40
0.2000000000000171
100
AcDbArc
 50
180.0
 51
270.0
  0
LINE
  5
134
330
1F
100
AcDbEntity
  8
0
  6
Continuous
 62
     7
370
    25
100
AcDbLine
 10
136.2145026067
 20
81.7722542245
 30
0.0
 11
137.6737004113
 21
84.2996589603
 31
0.0
  0
LINE
  5
135
330
1F
100
AcDbEntity
  8
0
  6
Continuous
 62
     7
370
    25
100
AcDbLine
 10
141.4237004113
 20
84.2996589603
 30
0.0
 11
142.8828982159
 21
81.7722542245
 31
0.0
  0
ARC
  5
136
330
1F
100
AcDbEntity
  8
0
  6
Continuous
 62
     7
370
    25
100
AcDbCircle
 10
150.6487004113
 20
83.7472542245
 30
0.0
 40
3.000000000000014
100
AcDbArc
 50
90.0
 51
180.0
  0
ARC
  5
137
330
1F
100
AcDbEntity
  8
0
  6
Continuous
 62
     7
370
    25
100
AcDbCircle
 10
138.6737004113
 20
84.3972542245
 30
0.0
 40
1.0
100
AcDbArc
 50
90.0
 51
180.0
  0
ARC
  5
138
330
1F
100
AcDbEntity
  8
0
  6
Continuous
 62
     7
370
    25
100
AcDbCircle
 10
140.4237004113
 20
84.3972542245
 30
0.0
 40
1.0
100
AcDbArc
 50
0.0
 51
90.0
  0
LINE
  5
139
330
1F
100
AcDbEntity
  8
0
  6
Continuous
 62
     7
370
    25
100
AcDbLine
 10
138.6737004113
 20
85.3972542245
 30
0.0
 11
140.4237004113
 21
85.3972542245
 31
0.0
  0
LINE
  5
13A
330
1F
100
AcDbEntity
  8
0
  6
Continuous
 62
     7
370
    25
100
AcDbLine
 10
152.4707790985
 20
86.7472542245
 30
0.0
 11
207.3448481506
 21
91.0659371193
 31
0.0
  0
LINE
  5
13B
330
1F
100
AcDbEntity
  8
0
  6
Continuous
 62
     7
370
    25
100
AcDbLine
 10
150.6487004113
 20
86.7472542245
 30
0.0
 11
152.4707790985
 21
86.7472542245
 31
0.0
  0
ARC
  5
13C
330
1F
100
AcDbEntity
  8
0
  6
Continuous
 62
     7
370
    25
100
AcDbCircle
 10
129.2197655367
 20
87.6972542245
 30
0.0
 40
0.7999999999999962
100
AcDbArc
 50
57.576802718
 51
107.5
  0
LINE
  5
13D
330
1F
100
AcDbEntity
  8
0
  6
Continuous
 62
     7
370
    25
100
AcDbLine
 10
128.4885183713
 20
88.305516179
 30
0.0
 11
128.9792008971
 21
88.4602277851
 31
0.0
  0
LINE
  5
13E
330
1F
100
AcDbEntity
  8
0
  6
Continuous
 62
     7
370
    25
100
AcDbLine
 10
115.1622549433
 20
88.9747337037
 30
0.0
 11
128.4885183713
 21
88.305516179
 31
0.0
  0
LINE
  5
13F
330
1F
100
AcDbEntity
  8
0
  6
Continuous
 62
     7
370
    25
100
AcDbLine
 10
91.1987004113
 20
90.1781340969
 30
0.0
 11
99.2535372748
 21
89.7736367659
 31
0.0
  0
ARC
  5
140
330
1F
100
AcDbEntity
  8
0
  6
Continuous
 62
     7
370
    25
100
AcDbCircle
 10
207.1487004113
 20
93.5582304536
 30
0.0
 40
2.5
100
AcDbArc
 50
274.5
 51
0.0
  0
LINE
  5
141
330
1F
100
AcDbEntity
  8
0
  6
Continuous
 62
     7
370
    25
100
AcDbLine
 10
89.6987004113
 20
91.0441595007
 30
0.0
 11
91.1987004113
 21
90.1781340969
 31
0.0
  0
LINE
  5
142
330
1F
100
AcDbEntity
  8
0
  6
Continuous
 62
     7
370
    25
100
AcDbLine
 10
152.1487004113
 20
119.2472542245
 30
0.0
 11
137.1487004113
 21
119.2472542245
 31
0.0
  0
LINE
  5
143
330
1F
100
AcDbEntity
  8
0
  6
Continuous
 62
     7
370
    25
100
AcDbLine
 10
152.6487004113
 20
118.7472542245
 30
0.0
 11
152.1487004113
 21
119.2472542245
 31
0.0
  0
LINE
  5
144
330
1F
100
AcDbEntity
  8
0
  6
Continuous
 62
     7
370
    25
100
AcDbLine
 10
137.1487004113
 20
119.2472542245
 30
0.0
 11
136.6487004113
 21
118.7472542245
 31
0.0
  0
LINE
  5
145
330
1F
100
AcDbEntity
  8
0
  6
Continuous
 62
     7
370
    25
100
AcDbLine
 10
154.6487004113
 20
118.7223564459
 30
0.0
 11
156.6487004113
 21
118.7223564459
 31
0.0
  0
LINE
  5
146
330
1F
100
AcDbEntity
  8
0
  6
Continuous
 62
     7
370
    25
100
AcDbLine
 10
154.6487004113
 20
118.7472542245
 30
0.0
 11
152.6487004113
 21
118.7472542245
 31
0.0
  0
SPLINE
  5
147
330
1F
100
AcDbEntity
  8
0
  6
Continuous
 62
     7
370
    25
100
AcDbSpline
210
0.0
220
0.0
230
1.0
 70
     8
 71
     3
 72
    12
 73
     8
 74
     0
 42
0.000000001
 43
0.00000001
 40
0.0
 40
0.0
 40
0.0
 40
0.0
 40
0.2697749913514481
 40
0.5487734953329599
 40
0.7405182420256725
 40
0.9386712444524425
 40
1.0
 40
1.0
 40
1.0
 40
1.0
 10
136.8845987961599
 20
115.4911549570309
 30
0.0
 10
136.9932978663147
 20
115.5708275861244
 30
0.0
 10
137.2144123898273
 20
115.7328968236434
 30
0.0
 10
137.3594197020037
 20
115.9711393617333
 30
0.0
 10
137.3460621509106
 20
116.1890396068817
 30
0.0
 10
137.2584072998613
 20
116.3332752570352
 30
0.0
 10
137.1817585537832
 20
116.4133793965427
 30
0.0
 10
137.1636425511481
 20
116.4323120846382
 30
0.0
  0
SPLINE
  5
148
330
1F
100
AcDbEntity
  8
0
  6
Continuous
 62
     7
370
    25
100
AcDbSpline
210
0.0
220
0.0
230
1.0
 70
     8
 71
     3
 72
    10
 73
     6
 74
     0
 42
0.000000001
 43
0.00000001
 40
0.0
 40
0.0
 40
0.0
 40
0.0
 40
0.2702476582550901
 40
0.8114648036973592
 40
1.0
 40
1.0
 40
1.0
 40
1.0
 10
137.2424018264321
 20
113.2472542244884
 30
0.0
 10
137.2900604671927
 20
113.4530139212768
 30
0.0
 10
137.4331636852519
 20
114.0708425938406
 30
0.0
 10
137.1901329976445
 20
114.8503266928998
 30
0.0
 10
136.9473285493879
 20
115.3595854022147
 30
0.0
 10
136.8845987961599
 20
115.4911549570309
 30
0.0
  0
LINE
  5
149
330
1F
100
AcDbEntity
  8
0
  6
Continuous
 62
     7
370
    25
100
AcDbLine
 10
136.6487004113
 20
116.9472542245
 30
0.0
 11
137.1636425511
 21
116.4323120846
 31
0.0
  0
LINE
  5
14A
330
1F
100
AcDbEntity
  8
0
  6
Continuous
 62
     7
370
    25
100
AcDbLine
 10
136.6487004113
 20
116.9472542245
 30
0.0
 11
136.6487004113
 21
113.2472542245
 31
0.0
  0
LINE
  5
14B
330
1F
100
AcDbEntity
  8
0
  6
Continuous
 62
     7
370
    25
100
AcDbLine
 10
149.6487004113
 20
116.0729485745
 30
0.0
 11
149.6487004113
 21
116.2472542245
 31
0.0
  0
LINE
  5
14C
330
1F
100
AcDbEntity
  8
0
  6
Continuous
 62
     7
370
    25
100
AcDbLine
 10
149.6487004113
 20
113.7874109733
 30
0.0
 11
149.6487004113
 21
116.0729485745
 31
0.0
  0
LINE
  5
14D
330
1F
100
AcDbEntity
  8
0
  6
Continuous
 62
     7
370
    25
100
AcDbLine
 10
149.6487004113
 20
113.2472542245
 30
0.0
 11
149.6487004113
 21
113.7874109733
 31
0.0
  0
LINE
  5
14E
330
1F
100
AcDbEntity
  8
0
  6
Continuous
 62
     7
370
    25
100
AcDbLine
 10
143.6487004112
 20
113.7874109733
 30
0.0
 11
143.6487004112
 21
113.2472542245
 31
0.0
  0
LINE
  5
14F
330
1F
100
AcDbEntity
  8
0
  6
Continuous
 62
     7
370
    25
100
AcDbLine
 10
143.6487004112
 20
116.0729485745
 30
0.0
 11
143.6487004112
 21
113.7874109733
 31
0.0
  0
LINE
  5
150
330
1F
100
AcDbEntity
  8
0
  6
Continuous
 62
     7
370
    25
100
AcDbLine
 10
143.6487004112
 20
116.2472542245
 30
0.0
 11
143.6487004112
 21
116.0729485745
 31
0.0
  0
LINE
  5
151
330
1F
100
AcDbEntity
  8
0
  6
Continuous
 62
     7
370
    25
100
AcDbLine
 10
143.6487004112
 20
116.2472542245
 30
0.0
 11
149.6487004113
 21
116.2472542245
 31
0.0
  0
LINE
  5
152
330
1F
100
AcDbEntity
  8
0
  6
Continuous
 62
     7
370
    25
100
AcDbLine
 10
154.6487004113
 20
116.4323120846
 30
0.0
 11
154.6487004113
 21
118.7472542245
 31
0.0
  0
LINE
  5
153
330
1F
100
AcDbEntity
  8
0
  6
Continuous
 62
     7
370
    25
100
AcDbLine
 10
149.6487004113
 20
116.4323120846
 30
0.0
 11
154.6487004113
 21
116.4323120846
 31
0.0
  0
LINE
  5
154
330
1F
100
AcDbEntity
  8
0
  6
Continuous
 62
     7
370
    25
100
AcDbLine
 10
149.6487004113
 20
116.2472542245
 30
0.0
 11
149.6487004113
 21
116.4323120846
 31
0.0
  0
LINE
  5
155
330
1F
100
AcDbEntity
  8
0
  6
Continuous
 62
     7
370
    25
100
AcDbLine
 10
143.6487004112
 20
116.4323120846
 30
0.0
 11
143.6487004112
 21
116.2472542245
 31
0.0
  0
LINE
  5
156
330
1F
100
AcDbEntity
  8
0
  6
Continuous
 62
     7
370
    25
100
AcDbLine
 10
137.1636425511
 20
116.4323120846
 30
0.0
 11
143.6487004112
 21
116.4323120846
 31
0.0
  0
LINE
  5
157
330
1F
100
AcDbEntity
  8
0
  6
Continuous
 62
     7
370
    25
100
AcDbLine
 10
136.6487004113
 20
118.7472542245
 30
0.0
 11
136.6487004113
 21
116.9472542245
 31
0.0
  0
LINE
  5
158
330
1F
100
AcDbEntity
  8
0
  6
Continuous
 62
     7
370
    25
100
AcDbLine
 10
143.6487004112
 20
115.491154957
 30
0.0
 11
136.8845987962
 21
115.491154957
 31
0.0
  0
LINE
  5
159
330
1F
100
AcDbEntity
  8
0
  6
Continuous
 62
     7
370
    25
100
AcDbLine
 10
155.9487004113
 20
116.0729485745
 30
0.0
 11
154.6487004113
 21
116.0729485745
 31
0.0
  0
SPLINE
  5
15A
330
1F
100
AcDbEntity
  8
0
  6
Continuous
 62
     7
370
    25
100
AcDbSpline
210
0.0
220
0.0
230
1.0
 70
     8
 71
     3
 72
     9
 73
     5
 74
     0
 42
0.000000001
 43
0.00000001
 40
0.0
 40
0.0
 40
0.0
 40
0.0
 40
0.5039876238385108
 40
1.0
 40
1.0
 40
1.0
 40
1.0
 10
155.9487004112977
 20
116.072948574536
 30
0.0
 10
155.9755321195223
 20
115.9705900072379
 30
0.0
 10
156.028770943167
 20
115.7674926245711
 30
0.0
 10
156.2854740890687
 20
115.5827764604915
 30
0.0
 10
156.4128020264355
 20
115.4911549570309
 30
0.0
  0
LINE
  5
15B
330
1F
100
AcDbEntity
  8
0
  6
Continuous
 62
     7
370
    25
100
AcDbLine
 10
149.6487004113
 20
115.491154957
 30
0.0
 11
156.4128020264
 21
115.491154957
 31
0.0
  0
LINE
  5
15C
330
1F
100
AcDbEntity
  8
0
  6
Continuous
 62
     7
370
    25
100
AcDbLine
 10
154.6487004113
 20
116.0729485745
 30
0.0
 11
154.6487004113
 21
116.4323120846
 31
0.0
  0
LINE
  5
15D
330
1F
100
AcDbEntity
  8
0
  6
Continuous
 62
     7
370
    25
100
AcDbLine
 10
156.6487004113
 20
118.7223564459
 30
0.0
 11
156.6487004113
 21
116.8443626234
 31
0.0
  0
LINE
  5
15E
330
1F
100
AcDbEntity
  8
0
  6
Continuous
 62
     7
370
    25
100
AcDbLine
 10
156.6487004113
 20
116.8443626234
 30
0.0
 11
155.9487004113
 21
116.0729485745
 31
0.0
  0
SPLINE
  5
15F
330
1F
100
AcDbEntity
  8
0
  6
Continuous
 62
     7
370
    25
100
AcDbSpline
210
0.0
220
0.0
230
1.0
 70
     8
 71
     3
 72
    10
 73
     6
 74
     0
 42
0.000000001
 43
0.00000001
 40
0.0
 40
0.0
 40
0.0
 40
0.0
 40
0.1885351963026403
 40
0.729752341744913
 40
1.0
 40
1.0
 40
1.0
 40
1.0
 10
156.4128020264355
 20
115.4911549570309
 30
0.0
 10
156.3500722732075
 20
115.3595854022147
 30
0.0
 10
156.1072678249509
 20
114.8503266928998
 30
0.0
 10
155.8642371373435
 20
114.0708425938406
 30
0.0
 10
156.0073403554027
 20
113.4530139212768
 30
0.0
 10
156.0549989961633
 20
113.2472542244884
 30
0.0
  0
LINE
  5
160
330
1F
100
AcDbEntity
  8
0
  6
Continuous
 62
     7
370
    25
100
AcDbLine
 10
156.6487004113
 20
116.8443626234
 30
0.0
 11
156.6487004113
 21
113.2472542245
 31
0.0
  0
SPLINE
  5
161
330
1F
100
AcDbEntity
  8
0
  6
Continuous
 62
     7
370
    25
100
AcDbSpline
210
0.0
220
0.0
230
1.0
 70
     8
 71
     3
 72
    14
 73
    10
 74
     0
 42
0.000000001
 43
0.00000001
 40
0.0
 40
0.0
 40
0.0
 40
0.0
 40
0.25
 40
0.25
 40
0.5
 40
0.5
 40
0.75
 40
0.75
 40
1.0
 40
1.0
 40
1.0
 40
1.0
 10
136.2145026067276
 20
109.9523561389716
 30
0.0
 10
136.0176267212026
 20
110.1798527069008
 30
0.0
 10
135.8415183998131
 20
110.4214394819719
 30
0.0
 10
135.5317820060399
 20
110.9335967163461
 30
0.0
 10
135.3972240045464
 20
111.2071295194542
 30
0.0
 10
135.1819818518372
 20
111.7672346539916
 30
0.0
 10
135.1003386143183
 20
112.0542071494016
 30
0.0
 10
134.9898155920482
 20
112.6422461344459
 30
0.0
 10
134.9612004112977
 20
112.9466895902166
 30
0.0
 10
134.9612004112977
 20
113.2472542244883
 30
0.0
  0
LINE
  5
162
330
1F
100
AcDbEntity
  8
0
  6
Continuous
 62
     7
370
    25
100
AcDbLine
 10
136.2145026067
 20
81.7722542245
 30
0.0
 11
136.2145026067
 21
109.952356139
 31
0.0
  0
LINE
  5
163
330
1F
100
AcDbEntity
  8
0
  6
Continuous
 62
     7
370
    25
100
AcDbLine
 10
136.2145026067
 20
144.7222542245
 30
0.0
 11
129.8487004113
 21
144.7222542245
 31
0.0
  0
LINE
  5
164
330
1F
100
AcDbEntity
  8
0
  6
Continuous
 62
     7
370
    25
100
AcDbLine
 10
142.8828982159
 20
81.7722542245
 30
0.0
 11
142.8828982159
 21
108.3575469448
 31
0.0
  0
SPLINE
  5
165
330
1F
100
AcDbEntity
  8
0
  6
Continuous
 62
     7
370
    25
100
AcDbSpline
210
0.0
220
0.0
230
1.0
 70
     8
 71
     3
 72
    20
 73
    16
 74
     0
 42
0.000000001
 43
0.00000001
 40
0.0
 40
0.0
 40
0.0
 40
0.0
 40
0.1249999999999996
 40
0.1249999999999996
 40
0.2499999999999992
 40
0.2499999999999992
 40
0.3749999999999989
 40
0.3749999999999989
 40
0.4999999999999987
 40
0.4999999999999987
 40
0.7499999999999994
 40
0.7499999999999994
 40
0.8749999999999997
 40
0.8749999999999997
 40
1.0
 40
1.0
 40
1.0
 40
1.0
 10
146.4362004112977
 20
113.2472542244885
 30
0.0
 10
146.4362004112977
 20
112.9805861370073
 30
0.0
 10
146.414153382254
 20
112.7122739617332
 30
0.0
 10
146.3251473445492
 20
112.1794309264999
 30
0.0
 10
146.2592683763497
 20
111.920140716514
 30
0.0
 10
146.0870934686425
 20
111.4150137504924
 30
0.0
 10
145.9803868977356
 20
111.1684335345712
 30
0.0
 10
145.7277099948593
 20
110.6920168838315
 30
0.0
 10
145.5842527306646
 20
110.4665968220666
 30
0.0
 10
145.1059305383842
 20
109.8259891404529
 30
0.0
 10
144.7179035554186
 20
109.4432234253498
 30
0.0
 10
144.0760989069732
 20
108.9673211771782
 30
0.0
 10
143.8512942793261
 20
108.8237255410265
 30
0.0
 10
143.3799852217038
 20
108.5663941556359
 30
0.0
 10
143.1342886218149
 20
108.453341777114
 30
0.0
 10
142.8828982158678
 20
108.3575469448033
 30
0.0
  0
LINE
  5
166
330
1F
100
AcDbEntity
  8
0
  6
Continuous
 62
     7
370
    25
100
AcDbLine
 10
147.6487004113
 20
81.7722542245
 30
0.0
 11
147.6487004113
 21
113.2472542245
 31
0.0
  0
LINE
  5
167
330
1F
100
AcDbEntity
  8
0
  6
Continuous
 62
     7
370
    25
100
AcDbLine
 10
147.6487004113
 20
144.7222542245
 30
0.0
 11
142.8828982159
 21
144.7222542245
 31
0.0
  0
LINE
  5
168
330
1F
100
AcDbEntity
  8
0
  6
Continuous
 62
     7
370
    25
100
AcDbLine
 10
129.6487004113
 20
81.9722542245
 30
0.0
 11
129.6487004113
 21
113.2472542245
 31
0.0
  0
LINE
  5
169
330
1F
100
AcDbEntity
  8
0
  6
Continuous
 62
     7
370
    25
100
AcDbLine
 10
129.6487004113
 20
113.2472542245
 30
0.0
 11
129.8487004113
 21
113.2472542245
 31
0.0
  0
ARC
  5
16A
330
1F
100
AcDbEntity
  8
0
  6
Continuous
 62
     7
370
    25
100
AcDbCircle
 10
129.8487004113
 20
144.5222542245
 30
0.0
 40
0.2000000000000171
100
AcDbArc
 50
90.0
 51
180.0
  0
SPLINE
  5
16B
330
1F
100
AcDbEntity
  8
0
  6
Continuous
 62
     7
370
    25
100
AcDbSpline
210
0.0
220
0.0
230
1.0
 70
     8
 71
     3
 72
     8
 73
     4
 74
     0
 42
0.000000001
 43
0.00000001
 40
0.0
 40
0.0
 40
0.0
 40
0.0
 40
1.0
 40
1.0
 40
1.0
 40
1.0
 10
142.8828982158674
 20
108.3575469448022
 30
0.0
 10
142.5344968111871
 20
108.7955222712161
 30
0.0
 10
142.1899284259542
 20
109.2386054098009
 30
0.0
 10
141.8515441266334
 20
109.6919964816495
 30
0.0
  0
ARC
  5
16C
330
1F
100
AcDbEntity
  8
0
  6
Continuous
 62
     7
370
    25
100
AcDbCircle
 10
140.6987004113
 20
113.2472542245
 30
0.0
 40
3.737500000000011
100
AcDbArc
 50
287.9660359156
 51
0.0
  0
ARC
  5
16D
330
1F
100
AcDbEntity
  8
0
  6
Continuous
 62
     7
370
    25
100
AcDbCircle
 10
140.6987004113
 20
113.2472542245
 30
0.0
 40
3.737500000000011
100
AcDbArc
 50
180.0
 51
206.113804444
  0
SPLINE
  5
16E
330
1F
100
AcDbEntity
  8
0
  6
Continuous
 62
     7
370
    25
100
AcDbSpline
210
0.0
220
0.0
230
1.0
 70
     8
 71
     3
 72
    10
 73
     6
 74
     0
 42
0.000000001
 43
0.00000001
 40
0.0
 40
0.0
 40
0.0
 40
0.0
 40
0.5
 40
0.5
 40
1.0
 40
1.0
 40
1.0
 40
1.0
 10
137.3427186038444
 20
111.6021729626528
 30
0.0
 10
137.165833457421
 20
111.3037226472962
 30
0.0
 10
136.9802840825436
 20
111.0247299431688
 30
0.0
 10
136.6023351424961
 20
110.4794106490431
 30
0.0
 10
136.4095486003169
 20
110.2140752632216
 30
0.0
 10
136.2145026067276
 20
109.9523561389716
 30
0.0
  0
SPLINE
  5
16F
330
1F
100
AcDbEntity
  8
0
  6
Continuous
 62
     7
370
    25
100
AcDbSpline
210
0.0
220
0.0
230
1.0
 70
     8
 71
     3
 72
     8
 73
     4
 74
     0
 42
0.000000001
 43
0.00000001
 40
0.0
 40
0.0
 40
0.0
 40
0.0
 40
1.0
 40
1.0
 40
1.0
 40
1.0
 10
137.6737004112977
 20
111.052195853966
 30
0.0
 10
137.5554036518678
 20
111.2152200824245
 30
0.0
 10
137.4439751696964
 20
111.3956085814469
 30
0.0
 10
137.3427186038444
 20
111.6021729626528
 30
0.0
  0
LINE
  5
170
330
1F
100
AcDbEntity
  8
0
  6
Continuous
 62
     7
370
    25
100
AcDbLine
 10
137.6737004113
 20
84.2996589603
 30
0.0
 11
137.6737004113
 21
111.052195854
 31
0.0
  0
SPLINE
  5
171
330
1F
100
AcDbEntity
  8
0
  6
Continuous
 62
     7
370
    25
100
AcDbSpline
210
0.0
220
0.0
230
1.0
 70
     8
 71
     3
 72
     8
 73
     4
 74
     0
 42
0.000000001
 43
0.00000001
 40
0.0
 40
0.0
 40
0.0
 40
0.0
 40
1.0
 40
1.0
 40
1.0
 40
1.0
 10
141.8515441266337
 20
109.6919964816503
 30
0.0
 10
141.7100060383518
 20
109.6461007105532
 30
0.0
 10
141.5673955696149
 20
109.6091598596159
 30
0.0
 10
141.4237004112979
 20
109.5807461786753
 30
0.0
  0
LINE
  5
172
330
1F
100
AcDbEntity
  8
0
  6
Continuous
 62
     7
370
    25
100
AcDbLine
 10
141.4237004113
 20
84.2996589603
 30
0.0
 11
141.4237004113
 21
109.5807461787
 31
0.0
  0
ARC
  5
173
330
1F
100
AcDbEntity
  8
0
  6
Continuous
 62
     7
370
    25
100
AcDbCircle
 10
150.6487004113
 20
142.7472542245
 30
0.0
 40
3.0
100
AcDbArc
 50
180.0
 51
270.0
  0
SPLINE
  5
174
330
1F
100
AcDbEntity
  8
0
  6
Continuous
 62
     7
370
    25
100
AcDbSpline
210
0.0
220
0.0
230
1.0
 70
     8
 71
     3
 72
    14
 73
    10
 74
     0
 42
0.000000001
 43
0.00000001
 40
0.0
 40
0.0
 40
0.0
 40
0.0
 40
0.25
 40
0.25
 40
0.5
 40
0.5
 40
0.75
 40
0.75
 40
1.0
 40
1.0
 40
1.0
 40
1.0
 10
138.6737004112977
 20
110.1058721639934
 30
0.0
 10
138.5393523249412
 20
110.1924757256209
 30
0.0
 10
138.4161756510853
 20
110.2839441229443
 30
0.0
 10
138.1874290461672
 20
110.4751355095752
 30
0.0
 10
138.0855070822001
 20
110.5719973617162
 30
0.0
 10
137.9060836797713
 20
110.7598719764515
 30
0.0
 10
137.8296423915885
 20
110.8501073278027
 30
0.0
 10
137.7123524187384
 20
110.9979136917801
 30
0.0
 10
137.6737004112977
 20
111.0521958539661
 30
0.0
 10
137.6737004112977
 20
111.0521958539661
 30
0.0
  0
SPLINE
  5
175
330
1F
100
AcDbEntity
  8
0
  6
Continuous
 62
     7
370
    25
100
AcDbSpline
210
0.0
220
0.0
230
1.0
 70
     8
 71
     3
 72
    14
 73
    10
 74
     0
 42
0.000000001
 43
0.00000001
 40
0.0
 40
0.0
 40
0.0
 40
0.0
 40
0.25
 40
0.25
 40
0.5
 40
0.5
 40
0.75
 40
0.75
 40
1.0
 40
1.0
 40
1.0
 40
1.0
 10
141.4237004112978
 20
109.5807461786759
 30
0.0
 10
141.423700411298
 20
109.5807461786759
 30
0.0
 10
141.3977838887269
 20
109.5753694476875
 30
0.0
 10
141.2983390421493
 20
109.557824860087
 30
0.0
 10
141.2260406497371
 20
109.5459754564407
 30
0.0
 10
141.0413367552132
 20
109.5243316384405
 30
0.0
 10
140.9317594933372
 20
109.5150423777561
 30
0.0
 10
140.6884293151191
 20
109.5077868413985
 30
0.0
 10
140.556893056199
 20
109.5100582475579
 30
0.0
 10
140.4237004112977
 20
109.519885011491
 30
0.0
  0
SPLINE
  5
176
330
1F
100
AcDbEntity
  8
0
  6
Continuous
 62
     7
370
    25
100
AcDbSpline
210
0.0
220
0.0
230
1.0
 70
     8
 71
     3
 72
    10
 73
     6
 74
     0
 42
0.000000001
 43
0.00000001
 40
0.0
 40
0.0
 40
0.0
 40
0.0
 40
0.5
 40
0.5
 40
1.0
 40
1.0
 40
1.0
 40
1.0
 10
140.4237004112977
 20
109.5198850114911
 30
0.0
 10
140.1112365090096
 20
109.5429381538601
 30
0.0
 10
139.8083475270118
 20
109.6041728562665
 30
0.0
 10
139.2210043422077
 20
109.8003448201905
 30
0.0
 10
138.9365366816358
 20
109.9364424552903
 30
0.0
 10
138.6737004112977
 20
110.1058721639934
 30
0.0
  0
LINE
  5
177
330
1F
100
AcDbEntity
  8
0
  6
Continuous
 62
     7
370
    25
100
AcDbLine
 10
129.6487004113
 20
140.0972542245
 30
0.0
 11
129.9827390973
 21
139.0378188641
 31
0.0
  0
LINE
  5
178
330
1F
100
AcDbEntity
  8
0
  6
Continuous
 62
     7
370
    25
100
AcDbLine
 10
129.6487004113
 20
140.0972542245
 30
0.0
 11
129.6487004113
 21
138.1219654911
 31
0.0
  0
LINE
  5
179
330
1F
100
AcDbEntity
  8
0
  6
Continuous
 62
     7
370
    25
100
AcDbLine
 10
152.4707790985
 20
86.7472542245
 30
0.0
 11
152.4707790985
 21
113.2472542245
 31
0.0
  0
LINE
  5
17A
330
1F
100
AcDbEntity
  8
0
  6
Continuous
 62
     7
370
    25
100
AcDbLine
 10
207.3448481506
 20
135.4285713297
 30
0.0
 11
152.4707790985
 21
139.7472542245
 31
0.0
  0
LINE
  5
17B
330
1F
100
AcDbEntity
  8
0
  6
Continuous
 62
     7
370
    25
100
AcDbLine
 10
152.4707790985
 20
139.7472542245
 30
0.0
 11
150.6487004113
 21
139.7472542245
 31
0.0
  0
ARC
  5
17C
330
1F
100
AcDbEntity
  8
0
  6
Continuous
 62
     7
370
    25
100
AcDbCircle
 10
129.2197655367
 20
138.7972542245
 30
0.0
 40
0.8000000000000181
100
AcDbArc
 50
252.5
 51
17.5
  0
LINE
  5
17D
330
1F
100
AcDbEntity
  8
0
  6
Continuous
 62
     7
370
    25
100
AcDbLine
 10
128.4885183713
 20
88.305516179
 30
0.0
 11
128.4885183713
 21
113.2472542245
 31
0.0
  0
LINE
  5
17E
330
1F
100
AcDbEntity
  8
0
  6
Continuous
 62
     7
370
    25
100
AcDbLine
 10
128.9792008971
 20
138.0342806639
 30
0.0
 11
128.4885183713
 21
138.18899227
 31
0.0
  0
SPLINE
  5
17F
330
1F
100
AcDbEntity
  8
0
  6
Continuous
 62
     7
370
    25
100
AcDbSpline
210
0.0
220
0.0
230
1.0
 70
     8
 71
     3
 72
    23
 73
    19
 74
     0
 42
0.000000001
 43
0.00000001
 40
0.0
 40
0.0
 40
0.0
 40
0.0
 40
0.0014604835854572
 40
0.0696150552019143
 40
0.1372664175514459
 40
0.2039701100159459
 40
0.2703009372047744
 40
0.336557424330761
 40
0.402868382276736
 40
0.4678692470317544
 40
0.5326412098413937
 40
0.5993596686012891
 40
0.6655231153857164
 40
0.7321169425959981
 40
0.7988868448416867
 40
0.8663366772638124
 40
0.9345228518799461
 40
1.0
 40
1.0
 40
1.0
 40
1.0
 10
99.40849072374938
 20
136.6715228146298
 30
0.0
 10
99.40964585433646
 20
136.6711664422736
 30
0.0
 10
99.46470602782017
 20
136.6541796842642
 30
0.0
 10
99.86112345447805
 20
136.5369143282433
 30
0.0
 10
100.5771733271936
 20
136.3363066363097
 30
0.0
 10
101.5868551028945
 20
136.0956909881224
 30
0.0
 10
102.8028327182053
 20
135.8684188887527
 30
0.0
 10
104.2070328191857
 20
135.6960293372447
 30
0.0
 10
105.724096897583
 20
135.6079610405744
 30
0.0
 10
107.2983947473061
 20
135.6390086994692
 30
0.0
 10
108.8642149733431
 20
135.7900319391782
 30
0.0
 10
110.3540720428574
 20
136.0443687377508
 30
0.0
 10
111.7257522351994
 20
136.3621055164069
 30
0.0
 10
112.9116753289178
 20
136.7060219365414
 30
0.0
 10
113.8892746729261
 20
137.03386453685
 30
0.0
 10
114.6087858245164
 20
137.3027889663337
 30
0.0
 10
115.0814208262189
 20
137.4853783019554
 30
0.0
 10
115.1388919405721
 20
137.5086266945402
 30
0.0
 10
115.1670450987466
 20
137.5200152969905
 30
0.0
  0
LINE
  5
180
330
1F
100
AcDbEntity
  8
0
  6
Continuous
 62
     7
370
    25
100
AcDbLine
 10
99.2491345261
 20
136.720650586
 30
0.0
 11
91.1987004113
 21
136.3163743521
 31
0.0
  0
LINE
  5
181
330
1F
100
AcDbEntity
  8
0
  6
Continuous
 62
     7
370
    25
100
AcDbLine
 10
91.1987004113
 20
90.1781340969
 30
0.0
 11
91.1987004113
 21
104.1251311899
 31
0.0
  0
SPLINE
  5
182
330
1F
100
AcDbEntity
  8
0
  6
Continuous
 62
     7
370
    25
100
AcDbSpline
210
0.0
220
0.0
230
1.0
 70
     8
 71
     3
 72
     8
 73
     4
 74
     0
 42
0.000000001
 43
0.00000001
 40
0.0
 40
0.0
 40
0.0
 40
0.0
 40
1.0
 40
1.0
 40
1.0
 40
1.0
 10
97.01687486424468
 20
104.1297172481851
 30
0.0
 10
95.07748337993327
 20
104.1275711523354
 30
0.0
 10
93.13809189562186
 20
104.1259749658107
 30
0.0
 10
91.19870041131045
 20
104.124927513335
 30
0.0
  0
SPLINE
  5
183
330
1F
100
AcDbEntity
  8
0
  6
Continuous
 62
     7
370
    25
100
AcDbSpline
210
0.0
220
0.0
230
1.0
 70
     8
 71
     3
 72
    13
 73
     9
 74
     0
 42
0.000000001
 43
0.00000001
 40
0.0
 40
0.0
 40
0.0
 40
0.0
 40
0.1686319999748085
 40
0.3360343310905433
 40
0.502536782590866
 40
0.6684737453788339
 40
0.834182263691515
 40
1.0
 40
1.0
 40
1.0
 40
1.0
 10
98.10036991371167
 20
104.2671736940027
 30
0.0
 10
98.04088001765193
 20
104.2526593739638
 30
0.0
 10
97.92233402737686
 20
104.2237365726793
 30
0.0
 10
97.74245733179099
 20
104.189775179271
 30
0.0
 10
97.56206704416297
 20
104.162909616912
 30
0.0
 10
97.38095487212914
 20
104.1439506798041
 30
0.0
 10
97.19919403496169
 20
104.1320202284084
 30
0.0
 10
97.07766126706704
 20
104.1304850768396
 30
0.0
 10
97.01687486424468
 20
104.1297172481851
 30
0.0
  0
SPLINE
  5
184
330
1F
100
AcDbEntity
  8
0
  6
Continuous
 62
     7
370
    25
100
AcDbSpline
210
0.0
220
0.0
230
1.0
 70
     8
 71
     3
 72
     8
 73
     4
 74
     0
 42
0.000000001
 43
0.00000001
 40
0.0
 40
0.0
 40
0.0
 40
0.0
 40
1.0
 40
1.0
 40
1.0
 40
1.0
 10
103.4925633302045
 20
104.2714117358881
 30
0.0
 10
101.6951686587667
 20
104.2695406753641
 30
0.0
 10
99.89777398732885
 20
104.26811849434
 30
0.0
 10
98.10037931589102
 20
104.267144371344
 30
0.0
  0
SPLINE
  5
185
330
1F
100
AcDbEntity
  8
0
  6
Continuous
 62
     7
370
    25
100
AcDbSpline
210
0.0
220
0.0
230
1.0
 70
     8
 71
     3
 72
    18
 73
    14
 74
     0
 42
0.000000001
 43
0.00000001
 40
0.0
 40
0.0
 40
0.0
 40
0.0
 40
0.0923325137111192
 40
0.1843692047063016
 40
0.2763458873810836
 40
0.3684982175655623
 40
0.4610598988303626
 40
0.554260954653301
 40
0.6483261285442131
 40
0.74347346365053
 40
0.8399130993119804
 40
0.9201660718299768
 40
1.0
 40
1.0
 40
1.0
 40
1.0
 10
105.6888849788068
 20
103.7372195000445
 30
0.0
 10
105.6185546752938
 20
103.7376361244761
 30
0.0
 10
105.4781193984418
 20
103.7384680385228
 30
0.0
 10
105.2677568719392
 20
103.7520768854373
 30
0.0
 10
105.0583132090228
 20
103.774743642809
 30
0.0
 10
104.8497635386503
 20
103.8073444326097
 30
0.0
 10
104.6421199213751
 20
103.84964691123
 30
0.0
 10
104.4353817338355
 20
103.9017183098851
 30
0.0
 10
104.2295596418706
 20
103.9635670827305
 30
0.0
 10
104.0246279630785
 20
104.0351650941867
 30
0.0
 10
103.8331472176828
 20
104.1117435844141
 30
0.0
 10
103.6554240656282
 20
104.1903548332472
 30
0.0
 10
103.5470900710641
 20
104.2442689890346
 30
0.0
 10
103.4930648616109
 20
104.2711555039335
 30
0.0
  0
LINE
  5
186
330
1F
100
AcDbEntity
  8
0
  6
Continuous
 62
     7
370
    25
100
AcDbLine
 10
107.6037582581
 20
103.7387149349
 30
0.0
 11
105.6888849788
 21
103.7372195
 31
0.0
  0
SPLINE
  5
187
330
1F
100
AcDbEntity
  8
0
  6
Continuous
 62
     7
370
    25
100
AcDbSpline
210
0.0
220
0.0
230
1.0
 70
     8
 71
     3
 72
    25
 73
    21
 74
     0
 42
0.000000001
 43
0.00000001
 40
0.0
 40
0.0
 40
0.0
 40
0.0
 40
0.0280105225422753
 40
0.0559601148854256
 40
0.0839014045034749
 40
0.1118870776777086
 40
0.1399695827579646
 40
0.1682008401731476
 40
0.1966319670417595
 40
0.2253130233137476
 40
0.2542927850735311
 40
0.3799486436564626
 40
0.5057850221666382
 40
0.631308588631066
 40
0.7532068238011618
 40
0.8039473267946936
 40
0.8535894438541253
 40
0.9025339722380873
 40
0.9511970353782256
 40
1.0
 40
1.0
 40
1.0
 40
1.0
 10
112.5436425644992
 20
108.8725787394198
 30
0.0
 10
112.543679786233
 20
108.7979587124073
 30
0.0
 10
112.5437541487336
 20
108.6488809764218
 30
0.0
 10
112.531338098087
 20
108.4262628854577
 30
0.0
 10
112.5097335377333
 20
108.2049384674302
 30
0.0
 10
112.4780480680732
 20
107.9849702015423
 30
0.0
 10
112.4365219297533
 20
107.7663799143133
 30
0.0
 10
112.3850911740234
 20
107.5491979759082
 30
0.0
 10
112.3237772993122
 20
107.333456556022
 30
0.0
 10
112.2525669638127
 20
107.1191666645698
 30
0.0
 10
112.0817303566116
 20
106.6708168915489
 30
0.0
 10
111.7439981231755
 20
106.0174860634767
 30
0.0
 10
111.1324434589808
 20
105.2455928528406
 30
0.0
 10
110.3962086238283
 20
104.6014332274553
 30
0.0
 10
109.709722552184
 20
104.2097920593933
 30
0.0
 10
109.1610184060352
 20
103.9910971584203
 30
0.0
 10
108.7789822275336
 20
103.8752411095899
 30
0.0
 10
108.3918161288291
 20
103.79433320406
 30
0.0
 10
107.9995894600389
 20
103.7451047732622
 30
0.0
 10
107.7358281919202
 20
103.740846918247
 30
0.0
 10
107.6037582580963
 20
103.7387149349043
 30
0.0
  0
LINE
  5
188
330
1F
100
AcDbEntity
  8
0
  6
Continuous
 62
     7
370
    25
100
AcDbLine
 10
112.5436425645
 20
113.2472542245
 30
0.0
 11
112.5436425645
 21
108.8725787394
 31
0.0
  0
LINE
  5
189
330
1F
100
AcDbEntity
  8
0
  6
Continuous
 62
     7
370
    25
100
AcDbLine
 10
128.4885183713
 20
138.18899227
 30
0.0
 11
115.1670450987
 21
137.520015297
 31
0.0
  0
SPLINE
  5
18A
330
1F
100
AcDbEntity
  8
0
  6
Continuous
 62
     7
370
    25
100
AcDbSpline
210
0.0
220
0.0
230
1.0
 70
     8
 71
     3
 72
    20
 73
    16
 74
     0
 42
0.000000001
 43
0.00000001
 40
0.0
 40
0.0
 40
0.0
 40
0.0
 40
0.0829621378684853
 40
0.1658495135106165
 40
0.2487180070857357
 40
0.3299477216398524
 40
0.4108693994445735
 40
0.4941953814850562
 40
0.5768901676626227
 40
0.6601065810557777
 40
0.7435845489350854
 40
0.8279858465401888
 40
0.9132590745392885
 40
0.9972257035811806
 40
1.0
 40
1.0
 40
1.0
 40
1.0
 10
101.5611165060247
 20
90.38399385698156
 30
0.0
 10
101.946862342096
 20
90.46091228358569
 30
0.0
 10
102.7180063952132
 20
90.61467982092329
 30
0.0
 10
104.125754546383
 20
90.79059504230882
 30
0.0
 10
105.6336059142576
 20
90.88459132963786
 30
0.0
 10
107.2060948892754
 20
90.86074694777126
 30
0.0
 10
108.7733919204875
 20
90.71684190287067
 30
0.0
 10
110.269167947269
 20
90.46778430007164
 30
0.0
 10
111.6494218229417
 20
90.153103607533
 30
0.0
 10
112.8470160059973
 20
89.80884225555246
 30
0.0
 10
113.8338780358196
 20
89.47979502973271
 30
0.0
 10
114.5811162820176
 20
89.20133412152498
 30
0.0
 10
115.0283177113831
 20
89.02947832649333
 30
0.0
 10
115.2150723235331
 20
88.95562765489494
 30
0.0
 10
115.1639741096349
 20
88.975778945968
 30
0.0
 10
115.1623397992898
 20
88.97642345897455
 30
0.0
  0
SPLINE
  5
18B
330
1F
100
AcDbEntity
  8
0
  6
Continuous
 62
     7
370
    25
100
AcDbSpline
210
0.0
220
0.0
230
1.0
 70
     8
 71
     3
 72
    11
 73
     7
 74
     0
 42
0.000000001
 43
0.00000001
 40
0.0
 40
0.0
 40
0.0
 40
0.0
 40
0.2435512231731368
 40
0.4981153923403522
 40
0.7509097881719443
 40
0.9999999999999999
 40
0.9999999999999999
 40
0.9999999999999999
 40
0.9999999999999999
 10
99.25362238828109
 20
89.77533164759843
 30
0.0
 10
99.27957330980637
 20
89.78356718413657
 30
0.0
 10
99.33264860661147
 20
89.80041065328606
 30
0.0
 10
99.81034359027396
 20
89.9413120954236
 30
0.0
 10
100.5216830385407
 20
90.1466026458718
 30
0.0
 10
101.2163476857154
 20
90.30525376406901
 30
0.0
 10
101.5611165060247
 20
90.38399385698156
 30
0.0
  0
LINE
  5
18C
330
1F
100
AcDbEntity
  8
0
  6
Continuous
 62
     7
370
    25
100
AcDbLine
 10
112.5436425645
 20
108.8725787394
 30
0.0
 11
111.6487004113
 21
109.0347542245
 31
0.0
  0
LINE
  5
18D
330
1F
100
AcDbEntity
  8
0
  6
Continuous
 62
     7
370
    25
100
AcDbLine
 10
111.6487004113
 20
109.0347542245
 30
0.0
 11
111.6487004113
 21
113.2472542245
 31
0.0
  0
SPLINE
  5
18E
330
1F
100
AcDbEntity
  8
0
  6
Continuous
 62
     7
370
    25
100
AcDbSpline
210
0.0
220
0.0
230
1.0
 70
     8
 71
     3
 72
    25
 73
    21
 74
     0
 42
0.000000001
 43
0.00000001
 40
0.0
 40
0.0
 40
0.0
 40
0.0
 40
0.0288821753116583
 40
0.0583636594024247
 40
0.088464720432864
 40
0.1192044006641432
 40
0.1506005800108822
 40
0.1826700399688414
 40
0.2154285269587146
 40
0.2488908143380118
 40
0.3610594471217245
 40
0.498467013106778
 40
0.5822693905006526
 40
0.6661127642782239
 40
0.7499972937224496
 40
0.8007709755032478
 40
0.8511237700807983
 40
0.901089602450676
 40
0.9507031914109089
 40
1.0
 40
1.0
 40
1.0
 40
1.0
 10
107.6487004112977
 20
105.0347542244884
 30
0.0
 10
107.7115008645364
 20
105.0356107084402
 30
0.0
 10
107.8384048883363
 20
105.0373414484939
 30
0.0
 10
108.0297592960508
 20
105.0514913138977
 30
0.0
 10
108.2236641087294
 20
105.0746283962191
 30
0.0
 10
108.4195648294578
 20
105.1080395484446
 30
0.0
 10
108.616902497462
 20
105.1519133704773
 30
0.0
 10
108.8150558392471
 20
105.2067086414466
 30
0.0
 10
109.0133715832553
 20
105.2727776028102
 30
0.0
 10
109.3646925707579
 20
105.4107589350632
 30
0.0
 10
109.8898043410804
 20
105.6908108739044
 30
0.0
 10
110.4267961695659
 20
106.1294014763127
 30
0.0
 10
110.8388558996043
 20
106.6032615978594
 30
0.0
 10
111.1257744876568
 20
107.0349453456792
 30
0.0
 10
111.324201174864
 20
107.4380685874394
 30
0.0
 10
111.4562870489123
 20
107.7958047482183
 30
0.0
 10
111.5419209287101
 20
108.0985571505007
 30
0.0
 10
111.6030031400631
 20
108.4070454607464
 30
0.0
 10
111.6415040834286
 20
108.7193571709028
 30
0.0
 10
111.6463067625221
 20
108.9298465848042
 30
0.0
 10
111.6487004112977
 20
109.0347542244884
 30
0.0
  0
LINE
  5
18F
330
1F
100
AcDbEntity
  8
0
  6
Continuous
 62
     7
370
    25
100
AcDbLine
 10
209.6487004113
 20
93.5582304536
 30
0.0
 11
209.6487004113
 21
113.2472542245
 31
0.0
  0
ARC
  5
190
330
1F
100
AcDbEntity
  8
0
  6
Continuous
 62
     7
370
    25
100
AcDbCircle
 10
207.1487004113
 20
132.9362779953
 30
0.0
 40
2.5
100
AcDbArc
 50
0.0
 51
85.5
  0
SPLINE
  5
191
330
1F
100
AcDbEntity
  8
0
  6
Continuous
 62
     7
370
    25
100
AcDbSpline
210
0.0
220
0.0
230
1.0
 70
     8
 71
     3
 72
    13
 73
     9
 74
     0
 42
0.000000001
 43
0.00000001
 40
0.0
 40
0.0
 40
0.0
 40
0.0
 40
0.1722587823678385
 40
0.3421398271425444
 40
0.5097456258111679
 40
0.6751828993453325
 40
0.8385626190248169
 40
1.0
 40
1.0
 40
1.0
 40
1.0
 10
104.648718780208
 20
105.1847490472382
 30
0.0
 10
104.7095821698805
 20
105.1684853195387
 30
0.0
 10
104.8304688343259
 20
105.1361823570579
 30
0.0
 10
105.0135299922983
 20
105.0987947023643
 30
0.0
 10
105.195632675239
 20
105.0696617674542
 30
0.0
 10
105.3765741235557
 20
105.0494750518488
 30
0.0
 10
105.5559131272519
 20
105.0370282475482
 30
0.0
 10
105.6747593556653
 20
105.0355092043208
 30
0.0
 10
105.7338271320082
 20
105.0347542244884
 30
0.0
  0
LINE
  5
192
330
1F
100
AcDbEntity
  8
0
  6
Continuous
 62
     7
370
    25
100
AcDbLine
 10
105.6888849788
 20
103.7372195
 30
0.0
 11
105.733827132
 21
105.0347542245
 31
0.0
  0
SPLINE
  5
193
330
1F
100
AcDbEntity
  8
0
  6
Continuous
 62
     7
370
    25
100
AcDbSpline
210
0.0
220
0.0
230
1.0
 70
     8
 71
     3
 72
    11
 73
     7
 74
     0
 42
0.000000001
 43
0.00000001
 40
0.0
 40
0.0
 40
0.0
 40
0.0
 40
0.2392913844325938
 40
0.5001130135003002
 40
0.7515028526498353
 40
0.9999999999999999
 40
0.9999999999999999
 40
0.9999999999999999
 40
0.9999999999999999
 10
104.3212279191518
 20
105.1853278295115
 30
0.0
 10
104.2524029832048
 20
105.1137743923568
 30
0.0
 10
104.1085605870316
 20
104.9642294968456
 30
0.0
 10
103.9008117886651
 20
104.7353120702001
 30
0.0
 10
103.6928255840439
 20
104.5029936979603
 30
0.0
 10
103.5598246602737
 20
104.348217815369
 30
0.0
 10
103.4937090160492
 20
104.2712776942191
 30
0.0
  0
SPLINE
  5
194
330
1F
100
AcDbEntity
  8
0
  6
Continuous
 62
     7
370
    25
100
AcDbSpline
210
0.0
220
0.0
230
1.0
 70
    24
 71
     3
 72
     9
 73
     5
 74
     0
 42
0.000000001
 43
0.00000001
 40
0.0
 40
0.0
 40
0.0
 40
0.0
 40
0.509083966986604
 40
1.0
 40
1.0
 40
1.0
 40
1.0
 10
104.3234581874712
 20
105.1847542244884
 30
0.0
 10
104.3781915875836
 20
105.1847542244884
 30
0.0
 10
104.4857050896024
 20
105.1847542244884
 30
0.0
 10
104.5950976499734
 20
105.1847542244884
 30
0.0
 10
104.6488002117518
 20
105.1847542244884
 30
0.0
  0
LINE
  5
195
330
1F
100
AcDbEntity
  8
0
  6
Continuous
 62
     7
370
    25
100
AcDbLine
 10
98.0748503229
 20
105.1647024507
 30
0.0
 11
98.1002648145
 21
104.2671442801
 31
0.0
  0
SPLINE
  5
196
330
1F
100
AcDbEntity
  8
0
  6
Continuous
 62
     7
370
    25
100
AcDbSpline
210
0.0
220
0.0
230
1.0
 70
     8
 71
     3
 72
     8
 73
     4
 74
     0
 42
0.000000001
 43
0.00000001
 40
0.0
 40
0.0
 40
0.0
 40
0.0
 40
1.0
 40
1.0
 40
1.0
 40
1.0
 10
98.07486151402591
 20
105.1647029408276
 30
0.0
 10
98.09666437050795
 20
105.1704002718603
 30
0.0
 10
98.11841907990546
 20
105.1762818546553
 30
0.0
 10
98.14012253522354
 20
105.1823468492083
 30
0.0
  0
LINE
  5
197
330
1F
100
AcDbEntity
  8
0
  6
Continuous
 62
     7
370
    25
100
AcDbLine
 10
98.1487004114
 20
105.1847542245
 30
0.0
 11
104.3223733836
 21
105.1847542245
 31
0.0
  0
LINE
  5
198
330
1F
100
AcDbEntity
  8
0
  6
Continuous
 62
     7
370
    25
100
AcDbLine
 10
105.733827132
 20
105.0347542245
 30
0.0
 11
107.6487004113
 21
105.0347542245
 31
0.0
  0
SPLINE
  5
199
330
1F
100
AcDbEntity
  8
0
  6
Continuous
 62
     7
370
    25
100
AcDbSpline
210
0.0
220
0.0
230
1.0
 70
     8
 71
     3
 72
    13
 73
     9
 74
     0
 42
0.000000001
 43
0.00000001
 40
0.0
 40
0.0
 40
0.0
 40
0.0
 40
0.1621004456571512
 40
0.325943455157606
 40
0.4915935308260523
 40
0.6591130873964648
 40
0.8285624736043361
 40
1.0
 40
1.0
 40
1.0
 40
1.0
 10
97.06357369058716
 20
105.0347542244884
 30
0.0
 10
97.11912864865272
 20
105.0354231906896
 30
0.0
 10
97.23083577511746
 20
105.036768314413
 30
0.0
 10
97.39868346451122
 20
105.0477148832043
 30
0.0
 10
97.56746988337962
 20
105.065353812525
 30
0.0
 10
97.73679423991143
 20
105.0906593265129
 30
0.0
 10
97.90654088808881
 20
105.1229633293059
 30
0.0
 10
98.01853378674646
 20
105.1507349291919
 30
0.0
 10
98.0748568217762
 20
105.1647017146931
 30
0.0
  0
LINE
  5
19A
330
1F
100
AcDbEntity
  8
0
  6
Continuous
 62
     7
370
    25
100
AcDbLine
 10
90.2850405897
 20
104.5072524806
 30
0.0
 11
91.1987004113
 21
105.0347542245
 31
0.0
  0
LINE
  5
19B
330
1F
100
AcDbEntity
  8
0
  6
Continuous
 62
     7
370
    25
100
AcDbLine
 10
91.1987004113
 20
105.0347542245
 30
0.0
 11
97.0635736906
 21
105.0347542245
 31
0.0
  0
SPLINE
  5
19C
330
1F
100
AcDbEntity
  8
0
  6
Continuous
 62
     7
370
    25
100
AcDbSpline
210
0.0
220
0.0
230
1.0
 70
     8
 71
     3
 72
     8
 73
     4
 74
     0
 42
0.000000001
 43
0.00000001
 40
0.0
 40
0.0
 40
0.0
 40
0.0
 40
1.0
 40
1.0
 40
1.0
 40
1.0
 10
91.19870041084675
 20
104.1249275131124
 30
0.0
 10
90.89414713714122
 20
104.2536183776592
 30
0.0
 10
90.5895938634357
 20
104.3810631339209
 30
0.0
 10
90.28504058973016
 20
104.5072524805586
 30
0.0
  0
LINE
  5
19D
330
1F
100
AcDbEntity
  8
0
  6
Continuous
 62
     7
370
    25
100
AcDbLine
 10
89.6987004113
 20
91.0441595007
 30
0.0
 11
89.6987004113
 21
104.1687288207
 31
0.0
  0
SPLINE
  5
19E
330
1F
100
AcDbEntity
  8
0
  6
Continuous
 62
     7
370
    25
100
AcDbSpline
210
0.0
220
0.0
230
1.0
 70
    24
 71
     3
 72
     8
 73
     4
 74
     0
 42
0.000000001
 43
0.00000001
 40
0.0
 40
0.0
 40
0.0
 40
0.0
 40
1.0
 40
1.0
 40
1.0
 40
1.0
 10
90.28504058973016
 20
104.5072524805586
 30
0.0
 10
90.08870856407181
 20
104.3939001326942
 30
0.0
 10
89.8932475438316
 20
104.2810506600425
 30
0.0
 10
89.6987004112977
 20
104.1687288207039
 30
0.0
  0
LINE
  5
19F
330
1F
100
AcDbEntity
  8
0
  6
Continuous
 62
     7
370
    25
100
AcDbLine
 10
121.4239408849
 20
131.4972542245
 30
0.0
 11
122.8487004113
 21
131.4972542245
 31
0.0
  0
ARC
  5
1A0
330
1F
100
AcDbEntity
  8
0
  6
Continuous
 62
     7
370
    25
100
AcDbCircle
 10
121.4239408849
 20
130.6972542245
 30
0.0
 40
0.8000000000000242
100
AcDbArc
 50
90.0
 51
120.0
  0
ARC
  5
1A1
330
1F
100
AcDbEntity
  8
0
  6
Continuous
 62
     7
370
    25
100
AcDbCircle
 10
122.8487004113
 20
130.6972542245
 30
0.0
 40
0.8000000000000114
100
AcDbArc
 50
0.0
 51
90.0
  0
LINE
  5
1A2
330
1F
100
AcDbEntity
  8
0
  6
Continuous
 62
     7
370
    25
100
AcDbLine
 10
120.1487004113
 20
130.8847542245
 30
0.0
 11
120.1487004113
 21
113.2472542245
 31
0.0
  0
LINE
  5
1A3
330
1F
100
AcDbEntity
  8
0
  6
Continuous
 62
     7
370
    25
100
AcDbLine
 10
120.1487004113
 20
130.8847542245
 30
0.0
 11
121.0239408849
 21
131.3900745475
 31
0.0
  0
LINE
  5
1A4
330
1F
100
AcDbEntity
  8
0
  6
Continuous
 62
     7
370
    25
100
AcDbLine
 10
90.4503664611
 20
104.6027034169
 30
0.0
 11
90.3138976888
 21
104.5239131345
 31
0.0
  0
SPLINE
  5
1A5
330
1F
100
AcDbEntity
  8
0
  6
Continuous
 62
     7
370
    25
100
AcDbSpline
210
0.0
220
0.0
230
1.0
 70
     8
 71
     3
 72
    32
 73
    28
 74
     0
 42
0.000000001
 43
0.00000001
 40
0.0
 40
0.0
 40
0.0
 40
0.0
 40
0.125000000000001
 40
0.125000000000001
 40
0.187500000000001
 40
0.187500000000001
 40
0.250000000000001
 40
0.250000000000001
 40
0.312500000000001
 40
0.312500000000001
 40
0.375000000000001
 40
0.375000000000001
 40
0.5000000000000011
 40
0.5000000000000011
 40
0.5625000000000009
 40
0.5625000000000009
 40
0.6250000000000007
 40
0.6250000000000007
 40
0.7500000000000003
 40
0.7500000000000003
 40
0.8125000000000002
 40
0.8125000000000002
 40
0.8750000000000002
 40
0.8750000000000002
 40
0.9375000000000001
 40
0.9375000000000001
 40
1.0
 40
1.0
 40
1.0
 40
1.0
 10
104.1163307426383
 20
129.4199229786979
 30
0.0
 10
103.6322564986843
 20
129.4202823713176
 30
0.0
 10
103.1488589281174
 20
129.4352415774989
 30
0.0
 10
102.4249535783814
 20
129.4822256240075
 30
0.0
 10
102.1842911448446
 20
129.5020021791321
 30
0.0
 10
101.7129450357689
 20
129.5489662626312
 30
0.0
 10
101.4811092194787
 20
129.5762201118157
 30
0.0
 10
101.0254061329224
 20
129.6378480404283
 30
0.0
 10
100.801537809981
 20
129.6722231412237
 30
0.0
 10
100.3622102179732
 20
129.7475425848768
 30
0.0
 10
100.1454928253068
 20
129.788760535625
 30
0.0
 10
99.51915084663399
 20
129.9189973548058
 30
0.0
 10
99.13475821228059
 20
130.014037266705
 30
0.0
 10
98.60721646666076
 20
130.1603042286574
 30
0.0
 10
98.43958231512966
 20
130.2096728638481
 30
0.0
 10
98.12117756788908
 20
130.3080765713484
 30
0.0
 10
97.97159669334995
 20
130.3567598359809
 30
0.0
 10
97.55857662380151
 20
130.4963826391492
 30
0.0
 10
97.32702485264237
 20
130.5819693177298
 30
0.0
 10
97.04371533755271
 20
130.6909323656459
 30
0.0
 10
96.96014765578091
 20
130.7239810182203
 30
0.0
 10
96.81822282345671
 20
130.7809844144606
 30
0.0
 10
96.75923471201418
 20
130.8051811200711
 30
0.0
 10
96.66451880830436
 20
130.8443834004501
 30
0.0
 10
96.62879084115761
 20
130.8593905669471
 30
0.0
 10
96.58082656344017
 20
130.8795995646741
 30
0.0
 10
96.56870025600672
 20
130.8847542244884
 30
0.0
 10
96.5687002560067
 20
130.8847542244884
 30
0.0
  0
SPLINE
  5
1A6
330
1F
100
AcDbEntity
  8
0
  6
Continuous
 62
     7
370
    25
100
AcDbSpline
210
0.0
220
0.0
230
1.0
 70
     8
 71
     3
 72
    31
 73
    27
 74
     0
 42
0.000000001
 43
0.00000001
 40
0.0
 40
0.0
 40
0.0
 40
0.0
 40
0.0161756722762524
 40
0.0323169137831917
 40
0.0484425619887091
 40
0.0645715089965129
 40
0.0807226353345265
 40
0.0969147439454943
 40
0.113166495525954
 40
0.1294963463054538
 40
0.1459224892616195
 40
0.1624627996348698
 40
0.1791347854483656
 40
0.1959555435640394
 40
0.294575514627795
 40
0.3932797312250814
 40
0.4928176221933281
 40
0.592428591282339
 40
0.6939020917448173
 40
0.7927115381487355
 40
0.8267756331435525
 40
0.860804332496489
 40
0.8949846314009916
 40
0.9295010594357865
 40
0.9645328322468295
 40
1.0
 40
1.0
 40
1.0
 40
1.0
 10
115.1246498013818
 20
130.8847542244884
 30
0.0
 10
115.1239167009306
 20
130.8844078330604
 30
0.0
 10
115.1224520604711
 20
130.883715787517
 30
0.0
 10
115.1093956808061
 20
130.8781334254706
 30
0.0
 10
115.0883811202832
 20
130.8692666624764
 30
0.0
 10
115.0586339149426
 20
130.8568255617615
 30
0.0
 10
115.020361602287
 20
130.8409349032063
 30
0.0
 10
114.9735089213658
 20
130.8216091593791
 30
0.0
 10
114.9180911913288
 20
130.7988930698596
 30
0.0
 10
114.8541052274984
 20
130.7728240654849
 30
0.0
 10
114.7815517433478
 20
130.7434416181167
 30
0.0
 10
114.7004350458681
 20
130.710787370782
 30
0.0
 10
114.6107413911181
 20
130.6748949237475
 30
0.0
 10
114.3536955444617
 20
130.5726570160807
 30
0.0
 10
113.8256595588688
 20
130.366132802614
 30
0.0
 10
112.8470249116226
 20
130.0290474892641
 30
0.0
 10
111.6611486087038
 20
129.6859026299363
 30
0.0
 10
110.2906823436306
 20
129.3887907292757
 30
0.0
 10
108.804825071666
 20
129.1787473015427
 30
0.0
 10
107.5846724379009
 20
129.1205218986742
 30
0.0
 10
106.7182484049561
 20
129.1342142399342
 30
0.0
 10
106.1900034764793
 20
129.1595823255453
 30
0.0
 10
105.6652302452731
 20
129.2016049412628
 30
0.0
 10
105.1442410056806
 20
129.2598889044909
 30
0.0
 10
104.6270000606221
 20
129.3325124497363
 30
0.0
 10
104.2913629482883
 20
129.3913927674261
 30
0.0
 10
104.1225079602265
 20
129.4210147459715
 30
0.0
  0
LINE
  5
1A7
330
1F
100
AcDbEntity
  8
0
  6
Continuous
 62
     7
370
    25
100
AcDbLine
 10
115.1246498014
 20
130.8847542245
 30
0.0
 11
120.1487004113
 21
130.8847542245
 31
0.0
  0
LINE
  5
1A8
330
1F
100
AcDbEntity
  8
0
  6
Continuous
 62
     7
370
    25
100
AcDbLine
 10
112.2987004113
 20
117.3100276353
 30
0.0
 11
112.2987004113
 21
113.2472542245
 31
0.0
  0
SPLINE
  5
1A9
330
1F
100
AcDbEntity
  8
0
  6
Continuous
 62
     7
370
    25
100
AcDbSpline
210
0.0
220
0.0
230
1.0
 70
     8
 71
     3
 72
    25
 73
    21
 74
     0
 42
0.000000001
 43
0.00000001
 40
0.0
 40
0.0
 40
0.0
 40
0.0
 40
0.0278144320063462
 40
0.0555680196245754
 40
0.083331625367772
 40
0.111176035216759
 40
0.1391714221532265
 40
0.1673868326284763
 40
0.1958897140434718
 40
0.2247454979318961
 40
0.254017249222145
 40
0.3796724410016501
 40
0.5056484635002454
 40
0.629752729069345
 40
0.7535891720571729
 40
0.8038564806093713
 40
0.853339684343451
 40
0.9023264398358534
 40
0.9511131859219439
 40
1.0
 40
1.0
 40
1.0
 40
1.0
 10
107.6487004112977
 20
121.7947508068534
 30
0.0
 10
107.71735576526
 20
121.7942177217463
 30
0.0
 10
107.8545162888127
 20
121.7931527176619
 30
0.0
 10
108.0597588713985
 20
121.7800578202697
 30
0.0
 10
108.2640798878955
 20
121.7585193336972
 30
0.0
 10
108.4674809399846
 20
121.7276978618486
 30
0.0
 10
108.6699565708304
 20
121.687785109341
 30
0.0
 10
108.8715054350781
 20
121.6386849164001
 30
0.0
 10
109.0721194558808
 20
121.5803716688883
 30
0.0
 10
109.2718172202131
 20
121.5127797260215
 30
0.0
 10
109.6873820408923
 20
121.3519662099058
 30
0.0
 10
110.2901584574349
 20
121.0379893105645
 30
0.0
 10
110.9842150129398
 20
120.4744178350698
 30
0.0
 10
111.5509886423369
 20
119.7986736158158
 30
0.0
 10
111.8885664480082
 20
119.1813117883392
 30
0.0
 10
112.077028857297
 20
118.6892503488292
 30
0.0
 10
112.1762900748215
 20
118.3515985662828
 30
0.0
 10
112.2466346635284
 20
118.0089674242593
 30
0.0
 10
112.290633262047
 20
117.6616027238177
 30
0.0
 10
112.2960095255273
 20
117.4272993472109
 30
0.0
 10
112.2987004112977
 20
117.3100276352881
 30
0.0
  0
LINE
  5
1AA
330
1F
100
AcDbEntity
  8
0
  6
Continuous
 62
     7
370
    25
100
AcDbLine
 10
105.733827132
 20
121.7947508069
 30
0.0
 11
107.6487004113
 21
121.7947508069
 31
0.0
  0
SPLINE
  5
1AB
330
1F
100
AcDbEntity
  8
0
  6
Continuous
 62
     7
370
    25
100
AcDbSpline
210
0.0
220
0.0
230
1.0
 70
     8
 71
     3
 72
    12
 73
     8
 74
     0
 42
0.000000001
 43
0.00000001
 40
0.0
 40
0.0
 40
0.0
 40
0.0
 40
0.1992838848975294
 40
0.3984605265796777
 40
0.5979968004971673
 40
0.7983570684833388
 40
1.0
 40
1.0
 40
1.0
 40
1.0
 10
104.7327932896692
 20
121.6925564941299
 30
0.0
 10
104.7982465669697
 20
121.7055788468946
 30
0.0
 10
104.9291178983517
 20
121.7316165445368
 30
0.0
 10
105.1279673499754
 20
121.7600471035108
 30
0.0
 10
105.3283738658465
 20
121.7804782644923
 30
0.0
 10
105.5305447832637
 20
121.7929173415629
 30
0.0
 10
105.6659223669148
 20
121.7941383531375
 30
0.0
 10
105.7338271320082
 20
121.7947508068534
 30
0.0
  0
LINE
  5
1AC
330
1F
100
AcDbEntity
  8
0
  6
Continuous
 62
     7
370
    25
100
AcDbLine
 10
99.3080302821
 20
121.6923925701
 30
0.0
 11
104.7320203006
 21
121.6923925701
 31
0.0
  0
SPLINE
  5
1AD
330
1F
100
AcDbEntity
  8
0
  6
Continuous
 62
     7
370
    25
100
AcDbSpline
210
0.0
220
0.0
230
1.0
 70
     8
 71
     3
 72
    24
 73
    20
 74
     0
 42
0.000000001
 43
0.00000001
 40
0.0
 40
0.0
 40
0.0
 40
0.0
 40
0.0410257106287842
 40
0.0818520099077639
 40
0.1225800578354648
 40
0.1633117464058233
 40
0.2041489402806705
 40
0.2451927184749161
 40
0.2865426449235763
 40
0.3282960933646444
 40
0.370547647549383
 40
0.4133885920102291
 40
0.4569065022351533
 40
0.5011849368587563
 40
0.6001856774947433
 40
0.6987388860447942
 40
0.7976800645453981
 40
0.8978349910029445
 40
1.0
 40
1.0
 40
1.0
 40
1.0
 10
95.53604337514757
 20
123.6300343871513
 30
0.0
 10
95.59908246310209
 20
123.6294996868362
 30
0.0
 10
95.72485422848399
 20
123.6284328851936
 30
0.0
 10
95.91279238999479
 20
123.6172893931954
 30
0.0
 10
96.09938248281941
 20
123.5991278948878
 30
0.0
 10
96.28462426535452
 20
123.5732529741663
 30
0.0
 10
96.46851344858244
 20
123.5398160883547
 30
0.0
 10
96.65104711455521
 20
123.4987320668111
 30
0.0
 10
96.83222252149454
 20
123.4499693187175
 30
0.0
 10
97.01203730547067
 20
123.3934718305738
 30
0.0
 10
97.19049050455025
 20
123.3291807357716
 30
0.0
 10
97.36757854269992
 20
123.2570270558392
 30
0.0
 10
97.54331066698566
 20
123.1769398708005
 30
0.0
 10
97.78832530058197
 20
123.0530989841181
 30
0.0
 10
98.09250837976418
 20
122.8744740019249
 30
0.0
 10
98.43981586120927
 20
122.6253848178676
 30
0.0
 10
98.75899012468169
 20
122.345815232888
 30
0.0
 10
99.0529020269464
 20
122.0369895949158
 30
0.0
 10
99.22242611363822
 20
121.8088975516141
 30
0.0
 10
99.30803028212104
 20
121.6937184635834
 30
0.0
  0
LINE
  5
1AE
330
1F
100
AcDbEntity
  8
0
  6
Continuous
 62
     7
370
    25
100
AcDbLine
 10
92.7445016582
 20
123.6300343872
 30
0.0
 11
95.5360433751
 21
123.6300343872
 31
0.0
  0
SPLINE
  5
1AF
330
1F
100
AcDbEntity
  8
0
  6
Continuous
 62
     7
370
    25
100
AcDbSpline
210
0.0
220
0.0
230
1.0
 70
     8
 71
     3
 72
     8
 73
     4
 74
     0
 42
0.000000001
 43
0.00000001
 40
0.0
 40
0.0
 40
0.0
 40
0.0
 40
1.0
 40
1.0
 40
1.0
 40
1.0
 10
92.69869758653896
 20
123.693487378161
 30
0.0
 10
92.71396561043665
 20
123.6723709077629
 30
0.0
 10
92.72923363433434
 20
123.6512198407102
 30
0.0
 10
92.744501658232
 20
123.6300343871513
 30
0.0
  0
LINE
  5
1B0
330
1F
100
AcDbEntity
  8
0
  6
Continuous
 62
     7
370
    25
100
AcDbLine
 10
92.6987004113
 20
130.8847542245
 30
0.0
 11
92.6987004113
 21
123.6934873782
 31
0.0
  0
LINE
  5
1B1
330
1F
100
AcDbEntity
  8
0
  6
Continuous
 62
     7
370
    25
100
AcDbLine
 10
92.6987004113
 20
130.8847542245
 30
0.0
 11
96.568700256
 21
130.8847542245
 31
0.0
  0
ARC
  5
1B2
330
1F
100
AcDbEntity
  8
0
  6
Continuous
 62
     7
370
    25
100
AcDbCircle
 10
127.3487004113
 20
127.5972542245
 30
0.0
 40
1.200000000000017
100
AcDbArc
 50
0.0
 51
90.0
  0
LINE
  5
1B3
330
1F
100
AcDbEntity
  8
0
  6
Continuous
 62
     7
370
    25
100
AcDbLine
 10
123.6487004113
 20
128.7972542245
 30
0.0
 11
127.3487004113
 21
128.7972542245
 31
0.0
  0
LINE
  5
1B4
330
1F
100
AcDbEntity
  8
0
  6
Continuous
 62
     7
370
    25
100
AcDbLine
 10
123.6487004113
 20
128.7972542245
 30
0.0
 11
123.6487004113
 21
113.2472542245
 31
0.0
  0
ARC
  5
1B5
330
1F
100
AcDbEntity
  8
0
  6
Continuous
 62
     7
370
    25
100
AcDbCircle
 10
209.1487004113
 20
126.7839484726
 30
0.0
 40
0.5000000000000245
100
AcDbArc
 50
280.0
 51
0.0
  0
LINE
  5
1B6
330
1F
100
AcDbEntity
  8
0
  6
Continuous
 62
     7
370
    25
100
AcDbLine
 10
209.6487004113
 20
126.7839484726
 30
0.0
 11
209.6487004113
 21
113.2472542245
 31
0.0
  0
LINE
  5
1B7
330
1F
100
AcDbEntity
  8
0
  6
Continuous
 62
     7
370
    25
100
AcDbLine
 10
206.1487004113
 20
125.7472542245
 30
0.0
 11
206.1487004113
 21
113.2472542245
 31
0.0
  0
LINE
  5
1B8
330
1F
100
AcDbEntity
  8
0
  6
Continuous
 62
     7
370
    25
100
AcDbLine
 10
206.1487004113
 20
125.7472542245
 30
0.0
 11
209.2355245001
 21
126.2915445961
 31
0.0
  0
ARC
  5
1B9
330
1F
100
AcDbEntity
  8
0
  6
Continuous
 62
     7
370
    25
100
AcDbCircle
 10
161.7539263932
 20
125.6472542245
 30
0.0
 40
0.4000000000000057
100
AcDbArc
 50
70.0
 51
90.0
  0
LINE
  5
1BA
330
1F
100
AcDbEntity
  8
0
  6
Continuous
 62
     7
370
    25
100
AcDbLine
 10
152.5487004113
 20
126.0472542245
 30
0.0
 11
161.7539263932
 21
126.0472542245
 31
0.0
  0
ARC
  5
1BB
330
1F
100
AcDbEntity
  8
0
  6
Continuous
 62
     7
370
    25
100
AcDbCircle
 10
152.5487004113
 20
125.6472542245
 30
0.0
 40
0.4000000000000057
100
AcDbArc
 50
90.0
 51
180.0
  0
LINE
  5
1BC
330
1F
100
AcDbEntity
  8
0
  6
Continuous
 62
     7
370
    25
100
AcDbLine
 10
162.6487004113
 20
125.7472542245
 30
0.0
 11
162.6487004113
 21
113.2472542245
 31
0.0
  0
LINE
  5
1BD
330
1F
100
AcDbEntity
  8
0
  6
Continuous
 62
     7
370
    25
100
AcDbLine
 10
161.8907344505
 20
126.0231312728
 30
0.0
 11
162.6487004113
 21
125.7472542245
 31
0.0
  0
LINE
  5
1BE
330
1F
100
AcDbEntity
  8
0
  6
Continuous
 62
     7
370
    25
100
AcDbLine
 10
162.6487004113
 20
125.7472542245
 30
0.0
 11
206.1487004113
 21
125.7472542245
 31
0.0
  0
LINE
  5
1BF
330
1F
100
AcDbEntity
  8
0
  6
Continuous
 62
     7
370
    25
100
AcDbLine
 10
151.6487004113
 20
118.7472542245
 30
0.0
 11
152.1487004113
 21
119.2472542245
 31
0.0
  0
LINE
  5
1C0
330
1F
100
AcDbEntity
  8
0
  6
Continuous
 62
     7
370
    25
100
AcDbLine
 10
132.3737004113
 20
118.9972542245
 30
0.0
 11
133.1987004113
 21
118.9972542245
 31
0.0
  0
LINE
  5
1C1
330
1F
100
AcDbEntity
  8
0
  6
Continuous
 62
     7
370
    25
100
AcDbLine
 10
135.6487004113
 20
118.7472542245
 30
0.0
 11
135.6487004113
 21
113.2472542245
 31
0.0
  0
LINE
  5
1C2
330
1F
100
AcDbEntity
  8
0
  6
Continuous
 62
     7
370
    25
100
AcDbLine
 10
135.6487004113
 20
118.7472542245
 30
0.0
 11
151.6487004113
 21
118.7472542245
 31
0.0
  0
LINE
  5
1C3
330
1F
100
AcDbEntity
  8
0
  6
Continuous
 62
     7
370
    25
100
AcDbLine
 10
134.7474094828
 20
117.2472542245
 30
0.0
 11
134.7474094828
 21
113.2472542245
 31
0.0
  0
LINE
  5
1C4
330
1F
100
AcDbEntity
  8
0
  6
Continuous
 62
     7
370
    25
100
AcDbLine
 10
134.7474094828
 20
117.2472542245
 30
0.0
 11
135.6487004113
 21
118.7472542245
 31
0.0
  0
LINE
  5
1C5
330
1F
100
AcDbEntity
  8
0
  6
Continuous
 62
     7
370
    25
100
AcDbLine
 10
128.9487004113
 20
118.2472542245
 30
0.0
 11
128.9487004113
 21
113.2472542245
 31
0.0
  0
LINE
  5
1C6
330
1F
100
AcDbEntity
  8
0
  6
Continuous
 62
     7
370
    25
100
AcDbLine
 10
128.5487004113
 20
118.4781943322
 30
0.0
 11
128.9487004113
 21
118.2472542245
 31
0.0
  0
LINE
  5
1C7
330
1F
100
AcDbEntity
  8
0
  6
Continuous
 62
     7
370
    25
100
AcDbLine
 10
128.5487004113
 20
118.4781943322
 30
0.0
 11
128.5487004113
 21
113.2472542245
 31
0.0
  0
LINE
  5
1C8
330
1F
100
AcDbEntity
  8
0
  6
Continuous
 62
     7
370
    25
100
AcDbLine
 10
128.9487004113
 20
118.2472542245
 30
0.0
 11
132.3737004113
 21
118.2472542245
 31
0.0
  0
LINE
  5
1C9
330
1F
100
AcDbEntity
  8
0
  6
Continuous
 62
     7
370
    25
100
AcDbLine
 10
132.3737004113
 20
118.2472542245
 30
0.0
 11
132.3737004113
 21
113.2472542245
 31
0.0
  0
LINE
  5
1CA
330
1F
100
AcDbEntity
  8
0
  6
Continuous
 62
     7
370
    25
100
AcDbLine
 10
133.1987004113
 20
117.2472542245
 30
0.0
 11
134.7474094828
 21
117.2472542245
 31
0.0
  0
LINE
  5
1CB
330
1F
100
AcDbEntity
  8
0
  6
Continuous
 62
     7
370
    25
100
AcDbLine
 10
133.1987004113
 20
117.2472542245
 30
0.0
 11
133.1987004113
 21
113.2472542245
 31
0.0
  0
SPLINE
  5
1CC
330
1F
100
AcDbEntity
  8
0
  6
Continuous
 62
     7
370
    25
100
AcDbSpline
210
0.0
220
0.0
230
1.0
 70
     8
 71
     3
 72
    37
 73
    33
 74
     0
 42
0.000000001
 43
0.00000001
 40
0.0
 40
0.0
 40
0.0
 40
0.0
 40
0.0114878548102806
 40
0.0231559765621659
 40
0.035007648435437
 40
0.0470460033795327
 40
0.0592740307999939
 40
0.0716945830965817
 40
0.0843103820274691
 40
0.0971240248798043
 40
0.1101379904320564
 40
0.1233546446979449
 40
0.1811510010973282
 40
0.2483631736114464
 40
0.2888373415819288
 40
0.3232297457604654
 40
0.3515392131491968
 40
0.3737664266256209
 40
0.4399300285953859
 40
0.4987424063270023
 40
0.5023253005651623
 40
0.5613100074513702
 40
0.625259544433811
 40
0.6818650083849754
 40
0.748389001698785
 40
0.7860781471964625
 40
0.8194856599799718
 40
0.8486127715281652
 40
0.8734622727747346
 40
0.9389926156604059
 40
0.9981523731393456
 40
1.0
 40
1.0
 40
1.0
 40
1.0
 10
114.4987004112977
 20
136.7109065278416
 30
0.0
 10
114.4977739600192
 20
136.7104630108332
 30
0.0
 10
114.4959065196271
 20
136.7095690171657
 30
0.0
 10
114.4806334592873
 20
136.7023770397074
 30
0.0
 10
114.4557317568235
 20
136.690925796115
 30
0.0
 10
114.4198774848876
 20
136.6747760373405
 30
0.0
 10
114.37290997405
 20
136.6540483577868
 30
0.0
 10
114.3143670636291
 20
136.6287098387851
 30
0.0
 10
114.2438889240515
 20
136.5987694182306
 30
0.0
 10
114.161114359774
 20
136.5642254441886
 30
0.0
 10
114.0656978146558
 20
136.525075702574
 30
0.0
 10
113.8361289812673
 20
136.4323770314128
 30
0.0
 10
113.3517107672947
 20
136.2436541408982
 30
0.0
 10
112.5727107957493
 20
135.965564340927
 30
0.0
 10
111.7814923443292
 20
135.7149774735977
 30
0.0
 10
111.1504418510864
 20
135.5399607122679
 30
0.0
 10
110.59740389475
 20
135.4001260716688
 30
0.0
 10
109.8044459658535
 20
135.2197152263228
 30
0.0
 10
108.7341116255204
 20
135.0306489046806
 30
0.0
 10
107.7531213460851
 20
134.925362096971
 30
0.0
 10
106.8251541169655
 20
134.8683293250179
 30
0.0
 10
105.8526986232051
 20
134.8537347266482
 30
0.0
 10
104.5265684177717
 20
134.9319279431394
 30
0.0
 10
103.256532933278
 20
135.0924076647336
 30
0.0
 10
102.2967569326084
 20
135.2775192029472
 30
0.0
 10
101.5981052852636
 20
135.4450088066773
 30
0.0
 10
101.1542971471085
 20
135.5586320128856
 30
0.0
 10
100.8217600851785
 20
135.6518158477942
 30
0.0
 10
100.4346016749353
 20
135.7664807120527
 30
0.0
 10
100.0973537128235
 20
135.8738265211128
 30
0.0
 10
99.99962964649443
 20
135.9113920943995
 30
0.0
 10
99.99872772622258
 20
135.911523503216
 30
0.0
 10
99.9987004112977
 20
135.9115274829712
 30
0.0
  0
LINE
  5
1CD
330
1F
100
AcDbEntity
  8
0
  6
Continuous
 62
     7
370
    25
100
AcDbLine
 10
114.4987004113
 20
136.7109065278
 30
0.0
 11
114.4987004113
 21
131.3534802452
 31
0.0
  0
SPLINE
  5
1CE
330
1F
100
AcDbEntity
  8
0
  6
Continuous
 62
     7
370
    25
100
AcDbSpline
210
0.0
220
0.0
230
1.0
 70
     8
 71
     3
 72
    30
 73
    26
 74
     0
 42
0.000000001
 43
0.00000001
 40
0.0
 40
0.0
 40
0.0
 40
0.0
 40
0.0192411700742053
 40
0.0381353539376959
 40
0.056686888486128
 40
0.0749003554931359
 40
0.0927805967284112
 40
0.1103327298326389
 40
0.12756216492899
 40
0.1444746219341826
 40
0.2455865830531984
 40
0.3577720192516808
 40
0.4505017408956449
 40
0.5720127868619855
 40
0.6168069840199937
 40
0.6590088499432755
 40
0.6986242498774685
 40
0.7356603299341555
 40
0.7701258931915081
 40
0.8073679165907856
 40
0.8483950324891417
 40
0.8881367798820065
 40
0.9266264622110466
 40
0.9639007443615105
 40
0.9999999999999999
 40
0.9999999999999999
 40
0.9999999999999999
 40
0.9999999999999999
 10
105.3278818206856
 20
129.6893889348964
 30
0.0
 10
105.4109143005653
 20
129.6782618295715
 30
0.0
 10
105.5754818916381
 20
129.6562082799054
 30
0.0
 10
105.8233634073186
 20
129.6281563906427
 30
0.0
 10
106.068640082761
 20
129.6042048601168
 30
0.0
 10
106.3111979163723
 20
129.5846749079235
 30
0.0
 10
106.5506325934812
 20
129.5694826157468
 30
0.0
 10
106.7866457888883
 20
129.5586510545159
 30
0.0
 10
107.018963834199
 20
129.5521704892628
 30
0.0
 10
107.627514603823
 20
129.5465389976767
 30
0.0
 10
108.665827101043
 20
129.6065123971614
 30
0.0
 10
109.9811786291444
 20
129.8059348703362
 30
0.0
 10
111.2607238420359
 20
130.11141623102
 30
0.0
 10
112.1521643861261
 20
130.391359033939
 30
0.0
 10
112.7698292549871
 20
130.6188081304543
 30
0.0
 10
113.1131523402704
 20
130.7490867909544
 30
0.0
 10
113.4048434251659
 20
130.8651777289123
 30
0.0
 10
113.6493887809918
 20
130.9665459583156
 30
0.0
 10
113.8617434614312
 20
131.0578840108332
 30
0.0
 10
114.0528064360558
 20
131.1419590947804
 30
0.0
 10
114.2180538402283
 20
131.2169520487457
 30
0.0
 10
114.3475943904724
 20
131.2779405482914
 30
0.0
 10
114.4359607596949
 20
131.3211782100568
 30
0.0
 10
114.4891066049585
 20
131.3484082959356
 30
0.0
 10
114.4955368008997
 20
131.3518077420656
 30
0.0
 10
114.4987004112977
 20
131.35348024524
 30
0.0
  0
SPLINE
  5
1CF
330
1F
100
AcDbEntity
  8
0
  6
Continuous
 62
     7
370
    25
100
AcDbSpline
210
0.0
220
0.0
230
1.0
 70
     8
 71
     3
 72
    38
 73
    34
 74
     0
 42
0.000000001
 43
0.00000001
 40
0.0
 40
0.0
 40
0.0
 40
0.0
 40
0.1249999999999997
 40
0.1249999999999997
 40
0.2499999999999993
 40
0.2499999999999993
 40
0.3124999999999992
 40
0.3124999999999992
 40
0.374999999999999
 40
0.374999999999999
 40
0.4374999999999988
 40
0.4374999999999988
 40
0.4999999999999987
 40
0.4999999999999987
 40
0.5624999999999984
 40
0.5624999999999984
 40
0.6249999999999983
 40
0.6249999999999983
 40
0.6874999999999982
 40
0.6874999999999982
 40
0.7187499999999981
 40
0.7187499999999981
 40
0.749999999999998
 40
0.749999999999998
 40
0.7812499999999979
 40
0.7812499999999979
 40
0.8124999999999978
 40
0.8124999999999978
 40
0.8749999999999986
 40
0.8749999999999986
 40
0.9374999999999992
 40
0.9374999999999992
 40
1.0
 40
1.0
 40
1.0
 40
1.0
 10
99.9987004112977
 20
135.7833021093923
 30
0.0
 10
99.99870041129772
 20
135.7833021093923
 30
0.0
 10
100.0605061688611
 20
135.7606580267304
 30
0.0
 10
100.3101287142965
 20
135.6680736376744
 30
0.0
 10
100.4938563452346
 20
135.5996860577217
 30
0.0
 10
100.8502451818196
 20
135.4638439585198
 30
0.0
 10
100.9834056433251
 20
135.4126509734634
 30
0.0
 10
101.2744846540215
 20
135.298962368351
 30
0.0
 10
101.4309746055308
 20
135.2370357608445
 30
0.0
 10
101.7643560468187
 20
135.1021506521541
 30
0.0
 10
101.9412598051818
 20
135.0292123978674
 30
0.0
 10
102.3145014526551
 20
134.8702364630716
 30
0.0
 10
102.5122454435363
 20
134.783596693195
 30
0.0
 10
102.9182688767894
 20
134.5966790206426
 30
0.0
 10
103.1263222701764
 20
134.4966441068336
 30
0.0
 10
103.5486165429106
 20
134.2773805566545
 30
0.0
 10
103.7629818459857
 20
134.1583773649899
 30
0.0
 10
104.1908241575652
 20
133.8881035146661
 30
0.0
 10
104.4072258086718
 20
133.7348546891544
 30
0.0
 10
104.705858251552
 20
133.4687861655712
 30
0.0
 10
104.8010508410217
 20
133.3740139192985
 30
0.0
 10
104.9786760928785
 20
133.1682570621086
 30
0.0
 10
105.0612904035069
 20
133.056398520338
 30
0.0
 10
105.2033706785285
 20
132.8228830161156
 30
0.0
 10
105.2637562277735
 20
132.7003219501598
 30
0.0
 10
105.3632067199284
 20
132.4438511869346
 30
0.0
 10
105.4024981589532
 20
132.3086111733849
 30
0.0
 10
105.4891947451063
 20
131.9003291704203
 30
0.0
 10
105.507903072101
 20
131.6240689926354
 30
0.0
 10
105.5044070514693
 20
131.0673212139997
 30
0.0
 10
105.4819274312608
 20
130.7890909700089
 30
0.0
 10
105.4162997834786
 20
130.2377051498241
 30
0.0
 10
105.3728022397892
 20
129.9634514807216
 30
0.0
 10
105.3233226926791
 20
129.6900220087599
 30
0.0
  0
LINE
  5
1D0
330
1F
100
AcDbEntity
  8
0
  6
Continuous
 62
     7
370
    25
100
AcDbLine
 10
99.9987004113
 20
135.7833021094
 30
0.0
 11
99.9987004113
 21
135.9115274829
 31
0.0
  0
SPLINE
  5
1D1
330
1F
100
AcDbEntity
  8
0
  6
Continuous
 62
     7
370
    25
100
AcDbSpline
210
0.0
220
0.0
230
1.0
 70
     8
 71
     3
 72
    14
 73
    10
 74
     0
 42
0.000000001
 43
0.00000001
 40
0.0
 40
0.0
 40
0.0
 40
0.0
 40
0.0003951392850831
 40
0.0003951392850831
 40
0.0003951392850831
 40
0.0008159035679249
 40
0.0008159035679249
 40
0.0008159035679249
 40
0.0012369936130997
 40
0.0012369936130997
 40
0.0012369936130997
 40
0.0012369936130997
 10
104.1265843610292
 20
129.4222272214887
 30
0.0
 10
104.2550935991359
 20
129.4511011892021
 30
0.0
 10
104.383657106865
 20
129.4797894026784
 30
0.0
 10
104.5122074851483
 20
129.5082922467159
 30
0.0
 10
104.6490927328119
 20
129.5386431404066
 30
0.0
 10
104.7859883787117
 20
129.5687891054356
 30
0.0
 10
104.9228086400608
 20
129.5987409250041
 30
0.0
 10
105.0597346290057
 20
129.628715889784
 30
0.0
 10
105.1966117009699
 20
129.6585019392292
 30
0.0
 10
105.333348550157
 20
129.6881244123979
 30
0.0
  0
LINE
  5
1D2
330
1F
100
AcDbEntity
  8
0
  6
Continuous
 62
     7
370
    25
100
AcDbLine
 10
96.568700256
 20
130.8847542245
 30
0.0
 11
99.9987004113
 21
135.7833021094
 31
0.0
  0
LINE
  5
1D3
330
1F
100
AcDbEntity
  8
0
  6
Continuous
 62
     7
370
    25
100
AcDbLine
 10
99.249138563
 20
136.7206399341
 30
0.0
 11
99.9987285419
 21
135.9115285964
 31
0.0
  0
LINE
  5
1D4
330
1F
100
AcDbEntity
  8
0
  6
Continuous
 62
     7
370
    25
100
AcDbLine
 10
114.4987133594
 20
136.7109067837
 30
0.0
 11
115.1670435053
 21
137.5200186061
 31
0.0
  0
LINE
  5
1D5
330
1F
100
AcDbEntity
  8
0
  6
Continuous
 62
     7
370
    25
100
AcDbLine
 10
90.4503664611
 20
132.1828304358
 30
0.0
 11
92.6987004113
 21
130.8847542245
 31
0.0
  0
LINE
  5
1D6
330
1F
100
AcDbEntity
  8
0
  6
Continuous
 62
     7
370
    25
100
AcDbLine
 10
89.6987004113
 20
133.4847542245
 30
0.0
 11
90.4503664611
 21
132.1828304358
 31
0.0
  0
LINE
  5
1D7
330
1F
100
AcDbEntity
  8
0
  6
Continuous
 62
     7
370
    25
100
AcDbLine
 10
89.6987004113
 20
135.4503489483
 30
0.0
 11
89.6987004113
 21
133.4847542245
 31
0.0
  0
LINE
  5
1D8
330
1F
100
AcDbEntity
  8
0
  6
Continuous
 62
     7
370
    25
100
AcDbLine
 10
91.1987004113
 20
136.3163743521
 30
0.0
 11
89.6987004113
 21
135.4503489483
 31
0.0
  0
LINE
  5
1D9
330
1F
100
AcDbEntity
  8
0
  6
Continuous
 62
     7
370
    25
100
AcDbLine
 10
140.4237004113
 20
141.0972542245
 30
0.0
 11
138.6737004113
 21
141.0972542245
 31
0.0
  0
ARC
  5
1DA
330
1F
100
AcDbEntity
  8
0
  6
Continuous
 62
     7
370
    25
100
AcDbCircle
 10
140.4237004113
 20
142.0972542245
 30
0.0
 40
1.0
100
AcDbArc
 50
270.0
 51
0.0
  0
LINE
  5
1DB
330
1F
100
AcDbEntity
  8
0
  6
Continuous
 62
     7
370
    25
100
AcDbLine
 10
141.4237004113
 20
142.1948494887
 30
0.0
 11
141.4237004113
 21
142.0972542245
 31
0.0
  0
LINE
  5
1DC
330
1F
100
AcDbEntity
  8
0
  6
Continuous
 62
     7
370
    25
100
AcDbLine
 10
142.8828982159
 20
144.7222542245
 30
0.0
 11
141.4237004113
 21
142.1948494887
 31
0.0
  0
LINE
  5
1DD
330
1F
100
AcDbEntity
  8
0
  6
Continuous
 62
     7
370
    25
100
AcDbLine
 10
115.1246495531
 20
130.8847555148
 30
0.0
 11
114.4987035395
 21
131.3534803701
 31
0.0
  0
LINE
  5
1DE
330
1F
100
AcDbEntity
  8
0
  6
Continuous
 62
     7
370
    25
100
AcDbLine
 10
137.6737004113
 20
142.1948494887
 30
0.0
 11
136.2145026067
 21
144.7222542245
 31
0.0
  0
LINE
  5
1DF
330
1F
100
AcDbEntity
  8
0
  6
Continuous
 62
     7
370
    25
100
AcDbLine
 10
137.6737004113
 20
142.0972542245
 30
0.0
 11
137.6737004113
 21
142.1948494887
 31
0.0
  0
ARC
  5
1E0
330
1F
100
AcDbEntity
  8
0
  6
Continuous
 62
     7
370
    25
100
AcDbCircle
 10
138.6737004113
 20
142.0972542245
 30
0.0
 40
1.0
100
AcDbArc
 50
180.0
 51
270.0
  0
LINE
  5
1E1
330
1F
100
AcDbEntity
  8
0
  6
Continuous
 62
     7
370
    25
100
AcDbLine
 10
133.1987004113
 20
118.9972542245
 30
0.0
 11
133.1987004113
 21
117.2472542245
 31
0.0
  0
LINE
  5
1E2
330
1F
100
AcDbEntity
  8
0
  6
Continuous
 62
     7
370
    25
100
AcDbLine
 10
132.3737004113
 20
118.2472542245
 30
0.0
 11
132.3737004113
 21
118.9972542245
 31
0.0
  0
LINE
  5
1E3
330
1F
100
AcDbEntity
  8
0
  6
Continuous
 62
     7
370
    25
100
AcDbLine
 10
152.1487004113
 20
119.2472542245
 30
0.0
 11
152.1487004113
 21
125.6472542245
 31
0.0
  0
LINE
  5
1E4
330
1F
100
AcDbEntity
  8
0
  6
Continuous
 62
     7
370
    25
100
AcDbLine
 10
128.5487004113
 20
127.5972542245
 30
0.0
 11
128.5487004113
 21
118.4781943322
 31
0.0
  0
LINE
  5
1E5
330
1F
100
AcDbEntity
  8
0
  6
Continuous
 62
     7
370
    25
100
AcDbLine
 10
123.6487004113
 20
130.6972542245
 30
0.0
 11
123.6487004113
 21
128.7972542245
 31
0.0
  0
LINE
  5
1E6
330
1F
100
AcDbEntity
  8
0
  6
Continuous
 62
     7
370
    25
100
AcDbLine
 10
209.6487004113
 20
126.7839484726
 30
0.0
 11
209.6487004113
 21
132.9362779953
 31
0.0
  0
LINE
  5
1E7
330
1F
100
AcDbEntity
  8
0
  6
Continuous
 62
     7
370
    25
100
AcDbLine
 10
129.6487004113
 20
144.5222542245
 30
0.0
 11
129.6487004113
 21
140.0972542245
 31
0.0
  0
LINE
  5
1E8
330
1F
100
AcDbEntity
  8
0
  6
Continuous
 62
     7
370
    25
100
AcDbLine
 10
147.6487004113
 20
142.7472542245
 30
0.0
 11
147.6487004113
 21
144.7222542245
 31
0.0
  0
SPLINE
  5
1E9
330
1F
100
AcDbEntity
  8
0
  6
Continuous
 62
     7
370
    25
100
AcDbSpline
210
0.0
220
0.0
230
1.0
 70
     8
 71
     3
 72
     9
 73
     5
 74
     0
 42
0.000000001
 43
0.00000001
 40
0.0
 40
0.0
 40
0.0
 40
0.0
 40
0.5102121239851395
 40
0.9999999999999999
 40
0.9999999999999999
 40
0.9999999999999999
 40
0.9999999999999999
 10
90.5030638079688
 20
123.7088807411402
 30
0.0
 10
90.87792586494758
 20
123.7063908237585
 30
0.0
 10
91.6126439152574
 20
123.7015106626165
 30
0.0
 10
92.34164450571411
 20
123.6961257712301
 30
0.0
 10
92.69870015652751
 20
123.6934883167154
 30
0.0
  0
LINE
  5
1EA
330
1F
100
AcDbEntity
  8
0
  6
Continuous
 62
     7
370
    25
100
AcDbLine
 10
90.4503664611
 20
123.7393050321
 30
0.0
 11
90.5030638098
 21
123.7088802036
 31
0.0
  0
LINE
  5
1EB
330
1F
100
AcDbEntity
  8
0
  6
Continuous
 62
     7
370
    25
100
AcDbLine
 10
90.4503664611
 20
132.1828304358
 30
0.0
 11
90.4503664611
 21
123.7393050321
 31
0.0
  0
SPLINE
  5
1EC
330
1F
100
AcDbEntity
  8
0
  6
Continuous
 62
     7
370
    25
100
AcDbSpline
210
0.0
220
0.0
230
1.0
 70
    24
 71
     3
 72
     8
 73
     4
 74
     0
 42
0.000000001
 43
0.00000001
 40
0.0000004089325119
 40
0.0000004089325119
 40
0.0000004089325119
 40
0.0000004089325119
 40
0.0015399868451459
 40
0.0015399868451459
 40
0.0015399868451459
 40
0.0015399868451459
 10
89.69870041129771
 20
124.1732796282728
 30
0.0
 10
89.94969148732216
 20
124.0283698629659
 30
0.0
 10
90.2002806838251
 20
123.8836921229089
 30
0.0
 10
90.45036646113725
 20
123.7393050320573
 30
0.0
  0
LINE
  5
1ED
330
1F
100
AcDbEntity
  8
0
  6
Continuous
 62
     7
370
    25
100
AcDbLine
 10
89.6987004113
 20
133.4847542245
 30
0.0
 11
89.6987004113
 21
124.1732796283
 31
0.0
  0
SPLINE
  5
1EE
330
1F
100
AcDbEntity
  8
0
  6
Continuous
 62
     7
370
    25
100
AcDbSpline
210
0.0
220
0.0
230
1.0
 70
     8
 71
     3
 72
     8
 73
     4
 74
     0
 42
0.000000001
 43
0.00000001
 40
0.0
 40
0.0
 40
0.0
 40
0.0
 40
1.0
 40
1.0
 40
1.0
 40
1.0
 10
92.82838215405448
 20
123.3072549022249
 30
0.0
 10
92.80043393393494
 20
123.4150712562004
 30
0.0
 10
92.77247384576623
 20
123.5226651063667
 30
0.0
 10
92.744501658232
 20
123.6300343871513
 30
0.0
  0
LINE
  5
1EF
330
1F
100
AcDbEntity
  8
0
  6
Continuous
 62
     7
370
    25
100
AcDbLine
 10
92.8283852926
 20
123.3072542245
 30
0.0
 11
91.1986996245
 21
123.3072542245
 31
0.0
  0
LINE
  5
1F0
330
1F
100
AcDbEntity
  8
0
  6
Continuous
 62
     7
370
    25
100
AcDbLine
 10
91.1986998244
 20
123.3072545633
 30
0.0
 11
90.5030633465
 21
123.7088804711
 31
0.0
  0
LINE
  5
1F1
330
1F
100
AcDbEntity
  8
0
  6
Continuous
 62
     7
370
    25
100
AcDbLine
 10
99.2526613085
 20
121.3097542245
 30
0.0
 11
99.0004896806
 21
121.3097542245
 31
0.0
  0
SPLINE
  5
1F2
330
1F
100
AcDbEntity
  8
0
  6
Continuous
 62
     7
370
    25
100
AcDbSpline
210
0.0
220
0.0
230
1.0
 70
     8
 71
     3
 72
    26
 73
    22
 74
     0
 42
0.000000001
 43
0.00000001
 40
0.0
 40
0.0
 40
0.0
 40
0.0
 40
0.0524616379932503
 40
0.1026498591890872
 40
0.150565513457809
 40
0.1962095861957063
 40
0.2395832262568645
 40
0.2806877815599511
 40
0.3195248450380211
 40
0.3560963147430692
 40
0.3904044736547445
 40
0.4224520974433627
 40
0.4522426027417772
 40
0.4797802555366611
 40
0.5050704712281336
 40
0.5966394156799991
 40
0.6841917884819224
 40
0.7679874773571101
 40
0.8483228539139507
 40
0.925534163520116
 40
1.0
 40
1.0
 40
1.0
 40
1.0
 10
98.9986831866283
 20
121.3097840085237
 30
0.0
 10
98.96304678759701
 20
121.369330928606
 30
0.0
 10
98.89331828725857
 20
121.4858443123926
 30
0.0
 10
98.77984012649874
 20
121.6502422731218
 30
0.0
 10
98.66431457677372
 20
121.8024040109234
 30
0.0
 10
98.54719288076357
 20
121.9423067078559
 30
0.0
 10
98.42982118028421
 20
122.07052103176
 30
0.0
 10
98.31320021425057
 20
122.1875367107003
 30
0.0
 10
98.19829729380554
 20
122.2939138659444
 30
0.0
 10
98.0859730681162
 20
122.3902299464187
 30
0.0
 10
97.97700409408135
 20
122.4770792929712
 30
0.0
 10
97.87208505324466
 20
122.555059475165
 30
0.0
 10
97.77182772729593
 20
122.624767672218
 30
0.0
 10
97.6767903847128
 20
122.6867776611191
 30
0.0
 10
97.50668348028204
 20
122.7912640983849
 30
0.0
 10
97.25376444887694
 20
122.9263227648993
 30
0.0
 10
96.90778329181582
 20
123.0707096573164
 30
0.0
 10
96.55982474249147
 20
123.1796775695614
 30
0.0
 10
96.21368498211541
 20
123.2542071518982
 30
0.0
 10
95.8726201986813
 20
123.2991358564475
 30
0.0
 10
95.64687358716564
 20
123.304580955302
 30
0.0
 10
95.53604337514759
 20
123.3072542244884
 30
0.0
  0
SPLINE
  5
1F3
330
1F
100
AcDbEntity
  8
0
  6
Continuous
 62
     7
370
    25
100
AcDbSpline
210
0.0
220
0.0
230
1.0
 70
     8
 71
     3
 72
     8
 73
     4
 74
     0
 42
0.000000001
 43
0.00000001
 40
0.0
 40
0.0
 40
0.0
 40
0.0
 40
1.0
 40
1.0
 40
1.0
 40
1.0
 10
99.2526613085302
 20
121.3097542244882
 30
0.0
 10
99.28166601495778
 20
121.4336919513505
 30
0.0
 10
99.30069853463921
 20
121.5616440815839
 30
0.0
 10
99.30895012683087
 20
121.6927133942753
 30
0.0
  0
LINE
  5
1F4
330
1F
100
AcDbEntity
  8
0
  6
Continuous
 62
     7
370
    25
100
AcDbLine
 10
95.5360433751
 20
123.3072542245
 30
0.0
 11
92.8283852926
 21
123.3072542245
 31
0.0
  0
LINE
  5
1F5
330
1F
100
AcDbEntity
  8
0
  6
Continuous
 62
     7
370
    25
100
AcDbLine
 10
112.2987004113
 20
117.3100276353
 30
0.0
 11
111.6487004113
 21
117.4597542245
 31
0.0
  0
SPLINE
  5
1F6
330
1F
100
AcDbEntity
  8
0
  6
Continuous
 62
     7
370
    25
100
AcDbSpline
210
0.0
220
0.0
230
1.0
 70
     8
 71
     3
 72
    26
 73
    22
 74
     0
 42
0.000000001
 43
0.00000001
 40
0.0
 40
0.0
 40
0.0
 40
0.0
 40
0.0305951740572542
 40
0.0629166281868252
 40
0.0969720532897518
 40
0.1327680143285475
 40
0.1703101548822826
 40
0.2096033578521445
 40
0.2506518729756858
 40
0.3342141733898277
 40
0.4179517165474626
 40
0.5018670561020881
 40
0.5659795686746639
 40
0.6277136397870199
 40
0.687135819210908
 40
0.7443207393864881
 40
0.7993521466017559
 40
0.8523240127975756
 40
0.903341702807647
 40
0.9525231537633125
 40
1.0
 40
1.0
 40
1.0
 40
1.0
 10
111.6487004112977
 20
117.4597542244884
 30
0.0
 10
111.6477921994531
 20
117.5242893918756
 30
0.0
 10
111.6459245314726
 20
117.657001012469
 30
0.0
 10
111.630331942411
 20
117.8598151039926
 30
0.0
 10
111.6036880812239
 20
118.0715281448929
 30
0.0
 10
111.5635336521454
 20
118.2912401382659
 30
0.0
 10
111.5086355354623
 20
118.5179870091372
 30
0.0
 10
111.4373925668505
 20
118.7506180129202
 30
0.0
 10
111.3189801725679
 20
119.0660163273969
 30
0.0
 10
111.1308492761601
 20
119.4504982259318
 30
0.0
 10
110.8468325129255
 20
119.8805258404614
 30
0.0
 10
110.5374145563758
 20
120.2390125528022
 30
0.0
 10
110.2215049455742
 20
120.5307792090917
 30
0.0
 10
109.9147595374508
 20
120.7632382959288
 30
0.0
 10
109.5963404236287
 20
120.9600485304928
 30
0.0
 10
109.2703695474717
 20
121.1221492327511
 30
0.0
 10
108.9408307123464
 20
121.2506191162308
 30
0.0
 10
108.6112687974999
 20
121.3472029356037
 30
0.0
 10
108.2848504742006
 20
121.4130551648899
 30
0.0
 10
107.9643322818968
 20
121.4526201127154
 30
0.0
 10
107.752666768366
 20
121.4574043109307
 30
0.0
 10
107.6487004112977
 20
121.4597542244884
 30
0.0
  0
SPLINE
  5
1F7
330
1F
100
AcDbEntity
  8
0
  6
Continuous
 62
     7
370
    25
100
AcDbSpline
210
0.0
220
0.0
230
1.0
 70
     8
 71
     3
 72
    13
 73
     9
 74
     0
 42
0.000000001
 43
0.00000001
 40
0.0
 40
0.0
 40
0.0
 40
0.0
 40
0.1604061687300809
 40
0.3231296684563272
 40
0.4883154213007764
 40
0.6561019685773533
 40
0.8266215117792448
 40
1.0
 40
1.0
 40
1.0
 40
1.0
 10
105.7338271320082
 20
121.4597542244884
 30
0.0
 10
105.6747771804931
 20
121.4589986544504
 30
0.0
 10
105.5558242037684
 20
121.4574765989222
 30
0.0
 10
105.3765705701625
 20
121.4450315397947
 30
0.0
 10
105.1956375884749
 20
121.424847358664
 30
0.0
 10
105.0135090940761
 20
121.3957119925234
 30
0.0
 10
104.8303420862817
 20
121.3582958407042
 30
0.0
 10
104.7096027714074
 20
121.3260299683472
 30
0.0
 10
104.6487312398225
 20
121.3097629134087
 30
0.0
  0
SPLINE
  5
1F8
330
1F
100
AcDbEntity
  8
0
  6
Continuous
 62
     7
370
    25
100
AcDbSpline
210
0.0
220
0.0
230
1.0
 70
    24
 71
     3
 72
    10
 73
     6
 74
     0
 42
0.000000001
 43
0.00000001
 40
0.0
 40
0.0
 40
0.0
 40
0.0
 40
0.3216623556917455
 40
0.6548175346390357
 40
1.0
 40
1.0
 40
1.0
 40
1.0
 10
104.6488792462025
 20
121.3097542244884
 30
0.0
 10
104.5803333383452
 20
121.3097542244884
 30
0.0
 10
104.4407924141479
 20
121.3097542244884
 30
0.0
 10
104.2311839987974
 20
121.3097542244884
 30
0.0
 10
104.0915070036436
 20
121.3097542244884
 30
0.0
 10
104.0204302324427
 20
121.3097542244884
 30
0.0
  0
SPLINE
  5
1F9
330
1F
100
AcDbEntity
  8
0
  6
Continuous
 62
     7
370
    25
100
AcDbSpline
210
0.0
220
0.0
230
1.0
 70
     8
 71
     3
 72
     8
 73
     4
 74
     0
 42
0.000000001
 43
0.00000001
 40
0.0
 40
0.0
 40
0.0
 40
0.0
 40
1.0
 40
1.0
 40
1.0
 40
1.0
 10
104.7350305276963
 20
121.6882005736713
 30
0.0
 10
104.4657341976399
 20
121.591511188478
 30
0.0
 10
104.2295735122261
 20
121.4635120191012
 30
0.0
 10
104.0203759960422
 20
121.3100354214566
 30
0.0
  0
LINE
  5
1FA
330
1F
100
AcDbEntity
  8
0
  6
Continuous
 62
     7
370
    25
100
AcDbLine
 10
104.0209217076
 20
105.1847542245
 30
0.0
 11
104.1740814373
 21
105.1847542245
 31
0.0
  0
LINE
  5
1FB
330
1F
100
AcDbEntity
  8
0
  6
Continuous
 62
     7
370
    25
100
AcDbLine
 10
107.6487004113
 20
121.4597542245
 30
0.0
 11
105.733827132
 21
121.4597542245
 31
0.0
  0
LINE
  5
1FC
330
1F
100
AcDbEntity
  8
0
  6
Continuous
 62
     7
370
    25
100
AcDbLine
 10
104.0207885932
 20
121.3097542245
 30
0.0
 11
99.2526613085
 21
121.3097542245
 31
0.0
  0
LINE
  5
1FD
330
1F
100
AcDbEntity
  8
0
  6
Continuous
 62
     7
370
    25
100
AcDbLine
 10
111.6487004113
 20
113.2472542245
 30
0.0
 11
111.6487004113
 21
117.4597542245
 31
0.0
  0
LINE
  5
1FE
330
1F
100
AcDbEntity
  8
VERMASSUNG
  6
CENTERX2
100
AcDbLine
 10
221.6437004113
 20
113.2472542245
 30
0.0
 11
77.7037004113
 21
113.2472542245
 31
0.0
  0
HATCH
  5
1FF
330
1F
100
AcDbEntity
  8
0
  6
Continuous
 62
     7
370
    18
100
AcDbHatch
 10
0.0
 20
0.0
 30
0.0
210
0.0
220
0.0
230
1.0
  2
ANSI31
 70
     0
 71
     0
 91
        1
 92
        0
 93
       50
 72
     2
 10
138.6737004112977
 20
142.0972542244884
 40
1.000000000000003
 50
90.0
 51
180.0
 73
     0
 72
     1
 10
137.6737004112977
 20
142.0972542244884
 11
137.6737004112977
 21
142.1948494886801
 72
     1
 10
137.6737004112977
 20
142.1948494886801
 11
136.2145026067276
 21
144.7222542244884
 72
     1
 10
136.2145026067276
 20
144.7222542244884
 11
129.8487004112977
 21
144.7222542244884
 72
     2
 10
129.8487004112977
 20
144.5222542244884
 40
0.2000000000000028
 50
90.0
 51
180.0
 73
     1
 72
     1
 10
129.6487004112977
 20
144.5222542244884
 11
129.6487004112977
 21
140.0972542244884
 72
     1
 10
129.6487004112977
 20
140.0972542244884
 11
129.9827390973263
 21
139.0378188640918
 72
     2
 10
129.2197655367277
 20
138.7972542244884
 40
0.8000000000000049
 50
342.4999999999981
 51
467.5000000000003
 73
     0
 72
     1
 10
128.9792008971243
 20
138.0342806638898
 11
128.4885183712669
 21
138.1889922700167
 72
     1
 10
128.4885183712669
 20
138.1889922700167
 11
115.1670450987474
 21
137.5200152969905
 72
     1
 10
115.1670435053489
 20
137.520018606059
 11
114.4987133594194
 21
136.7109067836678
 72
     1
 10
114.4987133594194
 20
136.7109067836678
 11
114.4987004112977
 21
131.3534802452399
 72
     1
 10
114.4987035395314
 20
131.3534803701204
 11
115.1246495530736
 21
130.8847555147804
 72
     1
 10
115.1246498013825
 20
130.8847542244884
 11
120.1487004112977
 21
130.8847542244884
 72
     1
 10
120.1487004112977
 20
130.8847542244884
 11
121.0239408848785
 21
131.390074547516
 72
     2
 10
121.4239408848785
 20
130.6972542244884
 40
0.7999999999999962
 50
240.0000000000022
 51
270.0000000000008
 73
     0
 72
     1
 10
121.4239408848785
 20
131.4972542244884
 11
122.8487004112977
 21
131.4972542244884
 72
     2
 10
122.8487004112977
 20
130.6972542244884
 40
0.7999999999999977
 50
270.0000000000008
 51
360.0000000000008
 73
     0
 72
     1
 10
123.6487004112977
 20
130.6972542244884
 11
123.6487004112977
 21
128.7972542244884
 72
     1
 10
123.6487004112977
 20
128.7972542244884
 11
127.3487004112977
 21
128.7972542244884
 72
     2
 10
127.3487004112977
 20
127.5972542244884
 40
1.2
 50
270.0000000000008
 51
360.0000000000008
 73
     0
 72
     1
 10
128.5487004112977
 20
127.5972542244884
 11
128.5487004112977
 21
118.4781943321643
 72
     1
 10
128.5487004112977
 20
118.4781943321643
 11
128.9487004112977
 21
118.2472542244884
 72
     1
 10
128.9487004112977
 20
118.2472542244884
 11
132.3737004112977
 21
118.2472542244884
 72
     1
 10
132.3737004112977
 20
118.2472542244884
 11
132.3737004112977
 21
118.9972542244884
 72
     1
 10
132.3737004112977
 20
118.9972542244884
 11
133.1987004112977
 21
118.9972542244884
 72
     1
 10
133.1987004112977
 20
118.9972542244884
 11
133.1987004112977
 21
117.2472542244884
 72
     1
 10
133.1987004112977
 20
117.2472542244884
 11
134.7474094827564
 21
117.2472542244884
 72
     1
 10
134.7474094827564
 20
117.2472542244884
 11
135.6487004112977
 21
118.7472542244884
 72
     1
 10
135.6487004112977
 20
118.7472542244884
 11
151.6487004112977
 21
118.7472542244884
 72
     1
 10
151.6487004112977
 20
118.7472542244884
 11
152.1487004112977
 21
119.2472542244884
 72
     1
 10
152.1487004112977
 20
119.2472542244884
 11
152.1487004112977
 21
125.6472542244884
 72
     2
 10
152.5487004112977
 20
125.6472542244884
 40
0.4000000000000019
 50
180.0
 51
270.0000000000008
 73
     0
 72
     1
 10
152.5487004112977
 20
126.0472542244884
 11
161.7539263931779
 21
126.0472542244884
 72
     2
 10
161.7539263931779
 20
125.6472542244884
 40
0.4000000000000028
 50
270.0000000000049
 51
290.0000000000083
 73
     0
 72
     1
 10
161.8907344505082
 20
126.0231312728028
 11
162.6487004112977
 21
125.7472542244884
 72
     1
 10
162.6487004112977
 20
125.7472542244884
 11
206.1487004112977
 21
125.7472542244884
 72
     1
 10
206.1487004112977
 20
125.7472542244884
 11
209.2355245001312
 21
126.2915445960505
 72
     2
 10
209.1487004112977
 20
126.7839484725567
 40
0.5000000000000016
 50
280.0000000000021
 51
360.0000000000008
 73
     1
 72
     1
 10
209.6487004112977
 20
126.7839484725567
 11
209.6487004112977
 21
132.9362779953429
 72
     2
 10
207.1487004112977
 20
132.9362779953429
 40
2.500000000000007
 50
0.0
 51
85.50000000000027
 73
     1
 72
     1
 10
207.3448481506173
 20
135.4285713296757
 11
152.4707790985116
 21
139.7472542244884
 72
     1
 10
152.4707790985116
 20
139.7472542244884
 11
150.6487004112977
 21
139.7472542244884
 72
     2
 10
150.6487004112977
 20
142.7472542244884
 40
3.0
 50
90.0
 51
180.0
 73
     0
 72
     1
 10
147.6487004112977
 20
142.7472542244884
 11
147.6487004112977
 21
144.7222542244884
 72
     1
 10
147.6487004112977
 20
144.7222542244884
 11
142.8828982158678
 21
144.7222542244884
 72
     1
 10
142.8828982158678
 20
144.7222542244884
 11
141.4237004112977
 21
142.1948494886801
 72
     1
 10
141.4237004112977
 20
142.1948494886801
 11
141.4237004112977
 21
142.0972542244884
 72
     2
 10
140.4237004112977
 20
142.0972542244884
 40
1.000000000000003
 50
0.0
 51
90.0
 73
     0
 72
     1
 10
140.4237004112977
 20
141.0972542244884
 11
138.6737004112977
 21
141.0972542244884
 97
        0
 75
     0
 76
     1
 52
0.0
 41
1.0
 77
     0
 78
     1
 53
45.0
 43
0.0
 44
0.0
 45
-2.245064030267288
 46
2.245064030267288
 79
     0
 98
        1
 10
0.0
 20
0.0
  0
HATCH
  5
200
330
1F
100
AcDbEntity
  8
0
  6
Continuous
 62
     7
370
    18
100
AcDbHatch
 10
0.0
 20
0.0
 30
0.0
210
0.0
220
0.0
230
1.0
  2
ANSI31
 70
     0
 71
     0
 91
        1
 92
        0
 93
        9
 72
     1
 10
99.99872854188585
 20
135.9115285963713
 11
99.24913856295015
 21
136.7206399341389
 72
     1
 10
99.24913856295015
 20
136.7206399341389
 11
91.1987004112977
 21
136.3163743520707
 72
     1
 10
91.1987004112977
 20
136.3163743520707
 11
89.69870041129768
 21
135.4503489482863
 72
     1
 10
89.69870041129768
 20
135.4503489482863
 11
89.69870041129768
 21
133.4847542244884
 72
     1
 10
89.69870041129768
 20
133.4847542244884
 11
90.45036646113724
 21
132.1828304358417
 72
     1
 10
90.45036646113724
 20
132.1828304358417
 11
92.69870041129768
 21
130.8847542244884
 72
     1
 10
92.69870041129768
 20
130.8847542244884
 11
96.56870025600664
 21
130.8847542244884
 72
     1
 10
96.56870025600664
 20
130.8847542244884
 11
99.99870041129769
 21
135.7833021093923
 72
     1
 10
99.99870041129769
 20
135.7833021093923
 11
99.99870041129769
 21
135.911527482878
 97
        0
 75
     0
 76
     1
 52
0.0
 41
1.0
 77
     0
 78
     1
 53
45.0
 43
0.0
 44
0.0
 45
-2.245064030267288
 46
2.245064030267288
 79
     0
 98
        1
 10
0.0
 20
0.0
  0
HATCH
  5
201
330
1F
100
AcDbEntity
  8
0
  6
Continuous
 62
     7
370
    18
100
AcDbHatch
 10
0.0
 20
0.0
 30
0.0
210
0.0
220
0.0
230
1.0
  2
ANSI31
 70
     0
 71
     0
 91
        1
 92
        0
 93
       12
 72
     1
 10
152.6487004112977
 20
118.7472542244884
 11
152.1487004112977
 21
119.2472542244884
 72
     1
 10
152.1487004112977
 20
119.2472542244884
 11
137.1487004112977
 21
119.2472542244884
 72
     1
 10
137.1487004112977
 20
119.2472542244884
 11
136.6487004112977
 21
118.7472542244884
 72
     1
 10
136.6487004112977
 20
118.7472542244884
 11
136.6487004112977
 21
116.9472542244884
 72
     1
 10
136.6487004112977
 20
116.9472542244884
 11
137.163642551148
 21
116.4323120846382
 72
     1
 10
137.163642551148
 20
116.4323120846382
 11
143.6487004112308
 21
116.4323120846382
 72
     1
 10
143.6487004112308
 20
116.4323120846382
 11
143.6487004112308
 21
116.2472542244884
 72
     1
 10
143.6487004112308
 20
116.2472542244884
 11
149.6487004112977
 21
116.2472542244884
 72
     1
 10
149.6487004112977
 20
116.2472542244884
 11
149.6487004112977
 21
116.4323120846382
 72
     1
 10
149.6487004112977
 20
116.4323120846382
 11
154.6487004112977
 21
116.4323120846382
 72
     1
 10
154.6487004112977
 20
116.4323120846382
 11
154.6487004112977
 21
118.7472542244884
 72
     1
 10
154.6487004112977
 20
118.7472542244884
 11
152.6487004112977
 21
118.7472542244884
 97
        0
 75
     0
 76
     1
 52
0.0
 41
1.0
 77
     0
 78
     1
 53
45.0
 43
0.0
 44
0.0
 45
-2.245064030267288
 46
2.245064030267288
 79
     0
 98
        1
 10
0.0
 20
0.0
  0
POINT
  5
202
330
1F
100
AcDbEntity
  8
VERMASSUNG
100
AcDbPoint
 10
209.6487004113
 20
91.2472542245
 30
0.0
  0
POINT
  5
203
330
1F
100
AcDbEntity
  8
VERMASSUNG
100
AcDbPoint
 10
209.6487004113
 20
135.2472542245
 30
0.0
  0
DIMENSION
  5
204
330
1F
100
AcDbEntity
  8
VERMASSUNG
100
AcDbDimension
  2
_D
 10
244.5495640606
 20
135.2472542245
 30
0.0
 11
244.5495640606
 21
113.2472542245
 31
0.0
 70
   160
  1
%%c<>
 71
     2
 42
-1.0
  3
SLDDIMSTYLE0
100
AcDbAlignedDimension
 13
209.6487004113
 23
91.2472542245
 33
0.0
 14
209.6487004113
 24
135.2472542245
 34
0.0
 50
90.0
100
AcDbRotatedDimension
  0
DIMENSION
  5
210
330
1F
100
AcDbEntity
  8
VERMASSUNG
100
AcDbDimension
  2
_D_1
 10
233.4927302865
 20
100.7472542245
 30
0.0
 11
233.4927302865
 21
113.2472542245
 31
0.0
 70
   160
  1
%%c<>
 71
     2
 42
-1.0
  3
SLDDIMSTYLE1
100
AcDbAlignedDimension
 13
206.1487004113
 23
125.7472542245
 33
0.0
 14
206.1487004113
 24
100.7472542245
 34
0.0
 50
90.0
100
AcDbRotatedDimension
  0
DIMENSION
  5
21A
330
1F
100
AcDbEntity
  8
VERMASSUNG
100
AcDbDimension
  2
_D_2
 10
255.6487004113
 20
86.7472542245
 30
0.0
 11
255.6487004113
 21
113.2472542245
 31
0.0
 70
   160
  1
%%c<>
 71
     2
 42
-1.0
  3
SLDDIMSTYLE0
100
AcDbAlignedDimension
 13
152.4707790985
 23
139.7472542245
 33
0.0
 14
152.4707790985
 24
86.7472542245
 34
0.0
 50
90.0
100
AcDbRotatedDimension
  0
DIMENSION
  5
225
330
1F
100
AcDbEntity
  8
VERMASSUNG
100
AcDbDimension
  2
_D_3
 10
71.5633310826
 20
81.7722542245
 30
0.0
 11
71.5633310826
 21
113.2472542245
 31
0.0
 70
   160
  1
KM%%c<> XMZ
 71
     2
 42
-1.0
  3
SLDDIMSTYLE2
100
AcDbAlignedDimension
 13
129.8487004113
 23
144.7222542245
 33
0.0
 14
129.8487004113
 24
81.7722542245
 34
0.0
 50
90.0
100
AcDbRotatedDimension
  0
DIMENSION
  5
233
330
1F
100
AcDbEntity
  8
VERMASSUNG
100
AcDbDimension
  2
_D_4
 10
209.6487004113
 20
71.7722542245
 30
0.0
 11
181.0597397549
 21
71.7722542245
 31
0.0
 70
   160
  1
<>
 71
     2
 42
-1.0
  3
SLDDIMSTYLE2
100
AcDbAlignedDimension
 13
152.4707790985
 23
86.7472542245
 33
0.0
 14
209.6487004113
 24
93.5582304536
 34
0.0
100
AcDbRotatedDimension
  0
DIMENSION
  5
23D
330
1F
100
AcDbEntity
  8
VERMASSUNG
100
AcDbDimension
  2
_D_5
 10
209.6487004113
 20
63.8669637907
 30
0.0
 11
178.6487004113
 21
63.8669637907
 31
0.0
 70
   160
  1
<>
 71
     2
 42
-1.0
  3
SLDDIMSTYLE0
100
AcDbAlignedDimension
 13
147.6487004113
 23
81.7722542245
 33
0.0
 14
209.6487004113
 24
93.5582304536
 34
0.0
 50
0.0
100
AcDbRotatedDimension
  0
DIMENSION
  5
247
330
1F
100
AcDbEntity
  8
VERMASSUNG
100
AcDbDimension
  2
_D_6
 10
209.6487004113
 20
157.3436778681
 30
0.0
 11
180.8987004113
 21
157.3436778681
 31
0.0
 70
   160
  1
<> max.
 71
     2
 42
-1.0
  3
SLDDIMSTYLE0
100
AcDbAlignedDimension
 13
152.1487004113
 23
125.6472542245
 33
0.0
 14
209.6487004113
 24
132.9362779953
 34
0.0
100
AcDbRotatedDimension
  0
DIMENSION
  5
252
330
1F
100
AcDbEntity
  8
VERMASSUNG
100
AcDbDimension
  2
_D_7
 10
209.6487004113
 20
149.6546473261
 30
0.0
 11
186.1487004113
 21
149.6546473261
 31
0.0
 70
   160
  1
<> min.
 71
     2
 42
-1.0
  3
SLDDIMSTYLE0
100
AcDbAlignedDimension
 13
162.6487004113
 23
125.7472542245
 33
0.0
 14
209.6487004113
 24
132.9362779953
 34
0.0
100
AcDbRotatedDimension
  0
DIMENSION
  5
25D
330
1F
100
AcDbEntity
  8
VERMASSUNG
100
AcDbDimension
  2
_D_8
 10
209.6487004113
 20
164.0859974203
 30
0.0
 11
169.6487004113
 21
164.0859974203
 31
0.0
 70
   160
  1
<>
 71
     2
 42
-1.0
  3
SLDDIMSTYLE0
100
AcDbAlignedDimension
 13
129.6487004113
 23
144.5222542245
 33
0.0
 14
209.6487004113
 24
132.9362779953
 34
0.0
100
AcDbRotatedDimension
  0
DIMENSION
  5
267
330
1F
100
AcDbEntity
  8
VERMASSUNG
100
AcDbDimension
  2
_D_9
 10
89.6987004113
 20
171.2058482143
 30
0.0
 11
149.6737004113
 21
171.2058482143
 31
0.0
 70
   160
  1
<>
 71
     2
 42
-1.0
  3
SLDDIMSTYLE0
100
AcDbAlignedDimension
 13
209.6487004113
 23
132.9362779953
 33
0.0
 14
89.6987004113
 24
135.4503489483
 34
0.0
 50
0.0
100
AcDbRotatedDimension
  0
LINE
  5
271
330
1F
100
AcDbEntity
  8
0
  6
Continuous
 62
     7
370
    25
100
AcDbLine
 10
249.4060532536
 20
29.7175176391
 30
0.0
 11
269.8247812059
 21
20.4194983492
 31
0.0
  0
LINE
  5
272
330
1F
100
AcDbEntity
  8
0
  6
Continuous
 62
     7
370
    25
100
AcDbLine
 10
280.8973500119
 20
39.5998280002
 30
0.0
 11
262.6344415928
 21
52.6322411889
 31
0.0
  0
SPLINE
  5
273
330
1F
100
AcDbEntity
  8
0
  6
Continuous
 62
     7
370
    25
100
AcDbSpline
210
0.0
220
0.0
230
1.0
 70
     8
 71
     3
 72
    39
 73
    35
 74
     0
 42
0.000000001
 43
0.00000001
 40
0.0
 40
0.0
 40
0.0
 40
0.0
 40
0.0216426566330556
 40
0.0516307533868586
 40
0.0818966678385711
 40
0.1126707103545237
 40
0.1440743027588621
 40
0.1761004715680545
 40
0.2086322110614131
 40
0.2414969295301492
 40
0.2745278617671896
 40
0.3075888175395459
 40
0.3406051321039675
 40
0.3735537610857003
 40
0.4064334038928287
 40
0.439254887482341
 40
0.4720352284932973
 40
0.5047945837885314
 40
0.5375545374937084
 40
0.5703328236076957
 40
0.6031494137006179
 40
0.636027115070027
 40
0.6689879079674628
 40
0.7020510485089714
 40
0.7352292618684996
 40
0.7685215382084367
 40
0.8019011489897374
 40
0.835270163537795
 40
0.8684706945455126
 40
0.901296428271145
 40
0.9335361956419453
 40
0.9650583139690084
 40
0.9958766881359397
 40
1.0
 40
1.0
 40
1.0
 40
1.0
 10
269.8208361949924
 20
20.43266179440205
 30
0.0
 10
269.9714142842842
 20
20.36490665792389
 30
0.0
 10
270.3306335948108
 20
20.20326990502846
 30
0.0
 10
270.9461748075853
 20
20.05712024258687
 30
0.0
 10
271.6508938583303
 20
19.97869632306892
 30
0.0
 10
272.3859134253524
 20
19.9987661656312
 30
0.0
 10
273.1453334724696
 20
20.1139733638648
 30
0.0
 10
273.9243055063657
 20
20.32614187330745
 30
0.0
 10
274.7154128586756
 20
20.63427400235935
 30
0.0
 10
275.510142203016
 20
21.03576600594942
 30
0.0
 10
276.2994791857436
 20
21.52589606770465
 30
0.0
 10
277.0749180243292
 20
22.09852658432424
 30
0.0
 10
277.8288718581196
 20
22.74678381659848
 30
0.0
 10
278.5547060245605
 20
23.46357361987801
 30
0.0
 10
279.2464280700594
 20
24.24167846755915
 30
0.0
 10
279.898379661162
 20
25.07368782895655
 30
0.0
 10
280.5052213093129
 20
25.95195212018201
 30
0.0
 10
281.0618767297308
 20
26.86861609009073
 30
0.0
 10
281.5635441339129
 20
27.8155919729596
 30
0.0
 10
282.0057303405992
 20
28.784629599687
 30
0.0
 10
282.3843031140281
 20
29.76740699401979
 30
0.0
 10
282.6955021299804
 20
30.75565315700764
 30
0.0
 10
282.9358960377839
 20
31.74119375592926
 30
0.0
 10
283.1023453303028
 20
32.71593494365725
 30
0.0
 10
283.1919478237968
 20
33.67183665240003
 30
0.0
 10
283.2019926154365
 20
34.60076891773222
 30
0.0
 10
283.1300868492629
 20
35.49401678316337
 30
0.0
 10
282.9744475279285
 20
36.34189656349608
 30
0.0
 10
282.7348595732659
 20
37.13406060114148
 30
0.0
 10
282.4125105201303
 20
37.85863431851583
 30
0.0
 10
282.0139999628024
 20
38.50840739508395
 30
0.0
 10
281.5388944919322
 20
39.06315770944627
 30
0.0
 10
281.1689093687114
 20
39.41921250866451
 30
0.0
 10
280.9438367247914
 20
39.56114589703704
 30
0.0
 10
280.9172769101868
 20
39.57789482047662
 30
0.0
  0
SPLINE
  5
274
330
1F
100
AcDbEntity
  8
0
  6
Continuous
 62
     7
370
    25
100
AcDbSpline
210
0.0
220
0.0
230
1.0
 70
     8
 71
     3
 72
    13
 73
     9
 74
     0
 42
0.000000001
 43
0.00000001
 40
0.0
 40
0.0
 40
0.0
 40
0.0
 40
0.1581508903187954
 40
0.3463685712460557
 40
0.5317853121573379
 40
0.7151083199436418
 40
0.8973510736318451
 40
1.0
 40
1.0
 40
1.0
 40
1.0
 10
272.1545779905752
 20
24.37605927009552
 30
0.0
 10
272.0579661769339
 20
24.46129658059276
 30
0.0
 10
271.8463752349608
 20
24.64797605735239
 30
0.0
 10
271.5886857546372
 20
25.03957027470006
 30
0.0
 10
271.3742329416813
 20
25.5214502822315
 30
0.0
 10
271.2300631345681
 20
26.07346404402394
 30
0.0
 10
271.1627830018842
 20
26.59329287908051
 30
0.0
 10
271.1564965090424
 20
26.9340333760692
 30
0.0
 10
271.15423143152
 20
27.05680511225721
 30
0.0
  0
SPLINE
  5
275
330
1F
100
AcDbEntity
  8
0
  6
Continuous
 62
     7
370
    25
100
AcDbSpline
210
0.0
220
0.0
230
1.0
 70
     8
 71
     3
 72
    15
 73
    11
 74
     0
 42
0.000000001
 43
0.00000001
 40
0.0
 40
0.0
 40
0.0
 40
0.0
 40
0.1171646661595825
 40
0.2491143737400255
 40
0.3808608285741816
 40
0.5124102399383544
 40
0.6438399955561819
 40
0.7752910414947363
 40
0.9071054095537223
 40
1.0
 40
1.0
 40
1.0
 40
1.0
 10
274.1224448052324
 20
33.77770869581019
 30
0.0
 10
274.2832761693719
 20
33.93848742548469
 30
0.0
 10
274.6252342516902
 20
34.28033359691513
 30
0.0
 10
275.1714763043977
 20
34.71866843733841
 30
0.0
 10
275.7437770529183
 20
35.10196764416121
 30
0.0
 10
276.3136588555361
 20
35.39965625343689
 30
0.0
 10
276.8711520272797
 20
35.61098643762441
 30
0.0
 10
277.4052712881918
 20
35.7293552928975
 30
0.0
 10
277.8639356745775
 20
35.76558633974443
 30
0.0
 10
278.1235782121453
 20
35.72416635021431
 30
0.0
 10
278.2309143297182
 20
35.70704334368496
 30
0.0
  0
SPLINE
  5
276
330
1F
100
AcDbEntity
  8
0
  6
Continuous
 62
     7
370
    25
100
AcDbSpline
210
0.0
220
0.0
230
1.0
 70
     8
 71
     3
 72
    11
 73
     7
 74
     0
 42
0.000000001
 43
0.00000001
 40
0.0
 40
0.0
 40
0.0
 40
0.0
 40
0.1557967498817165
 40
0.4534444468589978
 40
0.7514886176715788
 40
1.0
 40
1.0
 40
1.0
 40
1.0
 10
271.15423143152
 20
27.05680511225722
 30
0.0
 10
271.1561509711442
 20
27.1731196931673
 30
0.0
 10
271.161737766657
 20
27.51165179247263
 30
0.0
 10
271.2267777592266
 20
28.10377359571106
 30
0.0
 10
271.3565281341459
 20
28.79192862048731
 30
0.0
 10
271.4942075983085
 20
29.24800434190818
 30
0.0
 10
271.5568085796007
 20
29.45537577437349
 30
0.0
  0
LINE
  5
277
330
1F
100
AcDbEntity
  8
0
  6
Continuous
 62
     7
370
    25
100
AcDbLine
 10
244.3935647801
 20
29.7152130184
 30
0.0
 11
246.0785299291
 21
28.7425033426
 31
0.0
  0
LINE
  5
278
330
1F
100
AcDbEntity
  8
0
  6
Continuous
 62
     7
370
    25
100
AcDbLine
 10
261.8147512437
 20
56.0013917364
 30
0.0
 11
260.1297860947
 21
56.9741014122
 31
0.0
  0
LINE
  5
279
330
1F
100
AcDbEntity
  8
0
  6
Continuous
 62
     7
370
    25
100
AcDbLine
 10
248.3828390657
 20
30.2844935069
 30
0.0
 11
249.0270411329
 21
29.9126035695
 31
0.0
  0
LINE
  5
27A
330
1F
100
AcDbEntity
  8
0
  6
Continuous
 62
     7
370
    25
100
AcDbLine
 10
262.2759648655
 20
52.8628992662
 30
0.0
 11
261.6317627983
 21
53.2347892037
 31
0.0
  0
LINE
  5
27B
330
1F
100
AcDbEntity
  8
0
  6
Continuous
 62
     7
370
    25
100
AcDbLine
 10
239.7852798487
 20
32.3755192831
 30
0.0
 11
242.0359308251
 21
31.0762461302
 31
0.0
  0
LINE
  5
27C
330
1F
100
AcDbEntity
  8
0
  6
Continuous
 62
     7
370
    25
100
AcDbLine
 10
257.7721521397
 20
58.335134524
 30
0.0
 11
255.5215011633
 21
59.6344076769
 31
0.0
  0
LINE
  5
27D
330
1F
100
AcDbEntity
  8
0
  6
Continuous
 62
     7
370
    25
100
AcDbLine
 10
248.744111973
 20
59.4142895845
 30
0.0
 11
239.5468997894
 21
63.9949421944
 31
0.0
  0
LINE
  5
27E
330
1F
100
AcDbEntity
  8
0
  6
Continuous
 62
     7
370
    25
100
AcDbLine
 10
228.0205519998
 20
44.0285587387
 30
0.0
 11
236.5866520054
 21
38.3546691424
 31
0.0
  0
LINE
  5
27F
330
1F
100
AcDbEntity
  8
0
  6
Continuous
 62
     7
370
    25
100
AcDbLine
 10
232.9999894415
 20
44.9750486044
 30
0.0
 11
232.9999894415
 21
44.6097298994
 31
0.0
  0
LINE
  5
280
330
1F
100
AcDbEntity
  8
0
  6
Continuous
 62
     7
370
    25
100
AcDbLine
 10
236.8979562018
 20
64.3719105711
 30
0.0
 11
236.2584060931
 21
64.2846988156
 31
0.0
  0
LWPOLYLINE
  5
281
330
1F
100
AcDbEntity
  8
0
  6
Continuous
 62
     7
370
    25
100
AcDbPolyline
 90
       27
 70
   128
 43
0.0
 10
246.2823382591
 20
35.9790477409
 10
246.3235065105
 20
37.015936456
 10
246.4466497237
 20
38.0912449998
 10
246.6506852515
 20
39.1955231065
 10
246.9338205358
 20
40.3190669626
 10
247.2935669369
 20
41.4520020007
 10
247.7267627826
 20
42.5843723474
 10
248.2296023442
 20
43.7062269422
 10
248.7976654709
 20
44.8077071789
 10
249.4259603955
 20
45.8791320726
 10
250.1089652221
 20
46.9110864703
 10
250.8406786348
 20
47.8945020349
 10
251.614669617
 20
48.8207361387
 10
252.4241363919
 20
49.6816484746
 10
253.261965197
 20
50.4696737697
 10
254.1207935047
 20
51.1778871794
 10
254.9930738188
 20
51.8000646903
 10
255.8711403313
 20
52.3307375706
 10
256.747276691
 20
52.7652436593
 10
257.6137833808
 20
53.0997639807
 10
258.4630455064
 20
53.3313588363
 10
259.2875995359
 20
53.4579926445
 10
260.0801996688
 20
53.4785524823
 10
260.8338798214
 20
53.3928580133
 10
261.5420176699
 20
53.201662717
 10
262.198388981
 20
52.9066457093
 10
262.6344415928
 20
52.6322411889
  0
LWPOLYLINE
  5
282
330
1F
100
AcDbEntity
  8
0
  6
Continuous
 62
     7
370
    25
100
AcDbPolyline
 90
       10
 70
   128
 43
0.0
 10
249.4060532536
 20
29.7175176391
 10
248.7976654709
 20
30.0545232854
 10
248.2296023442
 20
30.5001317965
 10
247.7267627826
 20
31.0414201912
 10
247.2935669369
 20
31.6736332606
 10
246.9338205358
 20
32.3912139451
 10
246.6506852515
 20
33.1878567602
 10
246.4466497237
 20
34.0565604609
 10
246.3235065105
 20
34.9896908771
 10
246.2823382591
 20
35.9790477409
  0
ARC
  5
283
330
1F
100
AcDbEntity
  8
0
  6
Continuous
 62
     7
370
    25
100
AcDbCircle
 10
282.2632142311
 20
26.0228948465
 30
0.0
 40
11.29802647620041
100
AcDbArc
 50
136.1442931065
 51
162.4772324856
  0
LINE
  5
284
330
1F
100
AcDbEntity
  8
0
  6
Continuous
 62
     7
370
    25
100
AcDbLine
 10
278.2125035655
 20
35.7217967202
 30
0.0
 11
278.5495673889
 21
35.6411254173
 31
0.0
  0
LWPOLYLINE
  5
285
330
1F
100
AcDbEntity
  8
0
  6
Continuous
 62
     7
370
    25
100
AcDbPolyline
 90
        3
 70
   128
 43
0.0
 10
272.1562786818
 20
24.365044872
 10
272.1014927178
 20
24.4119893946
 10
272.0788503112
 20
24.4323002511
  0
LWPOLYLINE
  5
286
330
1F
100
AcDbEntity
  8
0
  6
Continuous
 62
     7
370
    25
100
AcDbPolyline
 90
       24
 70
   128
 43
0.0
 10
277.8685816597
 20
35.773772733
 10
278.0577057642
 20
35.6317138269
 10
278.4055496319
 20
35.2634724702
 10
278.6830533728
 20
34.8052298963
 10
278.8850470834
 20
34.2655216455
 10
279.0077684988
 20
33.6544019132
 10
279.0489311526
 20
32.9832544254
 10
279.0077684988
 20
32.2645815492
 10
278.8850470834
 20
31.5117706866
 10
278.6830533728
 20
30.7388454618
 10
278.4055496319
 20
29.9602038885
 10
278.0577057642
 20
29.1903505507
 10
277.64600086
 20
28.4436264103
 10
277.1781048224
 20
27.73394161
 10
276.6627331588
 20
27.0745157892
 10
276.1094864603
 20
26.4776335152
 10
275.5286707838
 20
25.9544132143
 10
274.9311054187
 20
25.5146011401
 10
274.3279219899
 20
25.1663907585
 10
273.7303566248
 20
24.9162685479
 10
273.1495409483
 20
24.7688933426
 10
272.5962942498
 20
24.727010575
 10
272.0809225862
 20
24.7914009387
 10
271.6512972042
 20
24.9421687041
  0
LWPOLYLINE
  5
287
330
1F
100
AcDbEntity
  8
0
  6
Continuous
 62
     7
370
    25
100
AcDbPolyline
 90
       36
 70
   128
 43
0.0
 10
242.818547588
 20
35.9478361926
 10
242.8597421811
 20
37.0762917666
 10
242.9830197374
 20
38.2439540483
 10
243.1874681726
 20
39.4421787513
 10
243.4715741515
 20
40.6620946476
 10
243.8332336244
 20
41.8946695368
 10
244.2697689493
 20
43.1307777352
 10
244.7779486483
 20
44.3612681355
 10
245.3540104567
 20
45.5770307454
 10
245.9936889816
 20
46.769063225
 10
246.692247971
 20
47.9285416076
 10
247.4445158748
 20
49.0468803719
 10
248.2449240407
 20
50.1158008812
 10
249.0875452388
 20
51.1273878431
 10
249.9661414063
 20
52.0741533749
 10
250.8742077699
 20
52.9490868091
 10
251.8050214131
 20
53.745710108
 10
252.7516909972
 20
54.458127099
 10
253.7072074475
 20
55.0810618609
 10
254.6644965762
 20
55.6099027907
 10
255.6164710655
 20
56.0407348944
 10
256.5560825342
 20
56.3703675627
 10
257.4763746118
 20
56.5963606476
 10
258.3705338324
 20
56.7170416751
 10
259.2319403419
 20
56.7315168668
 10
260.0542161367
 20
56.6396784553
 10
260.8312736315
 20
56.4422068657
 10
261.5573597813
 20
56.1405634869
 10
262.2270982288
 20
55.736982303
 10
262.835531451
 20
55.2344516379
 10
263.3781550034
 20
54.6366913381
 10
263.8509504475
 20
53.9481269144
 10
264.2504176191
 20
53.1738560779
 10
264.5735996535
 20
52.3196126161
 10
264.8181027413
 20
51.391719242
 10
264.8896950904
 20
51.0228923947
  0
LWPOLYLINE
  5
288
330
1F
100
AcDbEntity
  8
0
  6
Continuous
 62
     7
370
    25
100
AcDbPolyline
 90
       18
 70
   128
 43
0.0
 10
251.9275251796
 20
28.5693228779
 10
251.8050214131
 20
28.5255241056
 10
250.8742077699
 20
28.2474528476
 10
249.9661414063
 20
28.0739551749
 10
249.0875452388
 20
28.0063151639
 10
248.2449240407
 20
28.0450323986
 10
247.4445158748
 20
28.1898213102
 10
246.692247971
 20
28.4396100405
 10
245.9936889816
 20
28.7925493815
 10
245.3540104567
 20
29.2460247569
 10
244.7779486483
 20
29.7966805601
 10
244.2697689493
 20
30.4404391688
 10
243.8332336244
 20
31.1725344093
 10
243.4715741515
 20
31.9875461591
 10
243.1874681726
 20
32.8794402744
 10
242.9830197374
 20
33.8416138386
 10
242.8597421811
 20
34.8669428834
 10
242.818547588
 20
35.9478361926
  0
SPLINE
  5
289
330
1F
100
AcDbEntity
  8
0
  6
Continuous
 62
     7
370
    25
100
AcDbSpline
210
0.0
220
0.0
230
1.0
 70
     8
 71
     3
 72
    25
 73
    21
 74
     0
 42
0.000000001
 43
0.00000001
 40
0.0
 40
0.0
 40
0.0
 40
0.0
 40
0.1249999999999998
 40
0.1249999999999998
 40
0.2499999999999997
 40
0.2499999999999997
 40
0.3749999999999995
 40
0.3749999999999995
 40
0.4999999999999993
 40
0.4999999999999993
 40
0.5624999999999996
 40
0.5624999999999996
 40
0.6249999999999998
 40
0.6875000000000001
 40
0.6875000000000001
 40
0.7500000000000003
 40
0.7500000000000003
 40
0.8750000000000001
 40
0.8750000000000001
 40
1.0
 40
1.0
 40
1.0
 40
1.0
 10
247.6521367365024
 20
52.37965064703975
 30
0.0
 10
247.6812600347635
 20
52.26846512651056
 30
0.0
 10
247.6936490756227
 20
52.15322291408253
 30
0.0
 10
247.6866715905225
 20
51.91412734624674
 30
0.0
 10
247.6666540026704
 20
51.78935337637147
 30
0.0
 10
247.5964318449572
 20
51.54298446715904
 30
0.0
 10
247.5457811903635
 20
51.41877331979794
 30
0.0
 10
247.4158664467083
 20
51.17514482448777
 30
0.0
 10
247.3381654987191
 20
51.0580877294296
 30
0.0
 10
247.2027919164929
 20
50.88943121157957
 30
0.0
 10
247.1541574191859
 20
50.83406419030741
 30
0.0
 10
247.0527180838038
 20
50.72834437891039
 30
0.0
 10
246.9468481010631
 20
50.62718342028995
 30
0.0
 10
246.8322563087356
 20
50.53500909861314
 30
0.0
 10
246.7131736395174
 20
50.44747225587302
 30
0.0
 10
246.65121562646
 20
50.40597378636085
 30
0.0
 10
246.4633519229394
 20
50.29185346462274
 30
0.0
 10
246.3339744865854
 20
50.22824603350814
 30
0.0
 10
246.0662912335234
 20
50.12697773253391
 30
0.0
 10
245.9304195470583
 20
50.09043682430912
 30
0.0
 10
245.7949022803307
 20
50.06926863995904
 30
0.0
  0
LWPOLYLINE
  5
28A
330
1F
100
AcDbEntity
  8
0
  6
Continuous
 62
     7
370
    25
100
AcDbPolyline
 90
       15
 70
   128
 43
0.0
 10
247.6521368482
 20
52.3796506796
 10
248.557085662
 20
53.3233804422
 10
249.4905158673
 20
54.1903931766
 10
250.4452506459
 20
54.9740233384
 10
251.4139502724
 20
55.6682467066
 10
252.3891672463
 20
56.2677236173
 10
253.3634041003
 20
56.7678490664
 10
254.3291708165
 20
57.1647759687
 10
255.2790424085
 20
57.4554522022
 10
256.2057162764
 20
57.6376438319
 10
257.1020681209
 20
57.7099506585
 10
257.9612069324
 20
57.6718159094
 10
258.7765271801
 20
57.5235327925
 10
259.5417611668
 20
57.2662420199
 10
260.1297860947
 20
56.9741014122
  0
LWPOLYLINE
  5
28B
330
1F
100
AcDbEntity
  8
0
  6
Continuous
 62
     7
370
    25
100
AcDbPolyline
 90
       21
 70
   128
 43
0.0
 10
244.3935647801
 20
29.7152130184
 10
243.7674048569
 20
30.1394191901
 10
243.1748583624
 20
30.6810718989
 10
242.6510507436
 20
31.3185205123
 10
242.1999451215
 20
32.0469444644
 10
241.824953415
 20
32.8608319802
 10
241.528912634
 20
33.7540268464
 10
241.3140618297
 20
34.7197715699
 10
241.1820262901
 20
35.7507610865
 10
241.1338063441
 20
36.8391969812
 10
241.1697641913
 20
37.9768440606
 10
241.289630487
 20
39.1550978191
 10
241.4924964398
 20
40.3650440654
 10
241.7768282995
 20
41.5975300119
 10
242.1404752597
 20
42.8432329657
 10
242.5806859215
 20
44.0927287684
 10
243.0941306839
 20
45.3365655589
 10
243.6769254513
 20
46.5653344943
 10
244.3246612682
 20
47.7697393294
 10
245.0324379051
 20
48.9406697983
 10
245.7949020535
 20
50.0692681515
  0
LINE
  5
28C
330
1F
100
AcDbEntity
  8
0
  6
Continuous
 62
     7
370
    25
100
AcDbLine
 10
248.3456260327
 20
30.3062196212
 30
0.0
 11
248.3828390657
 21
30.2844935069
 31
0.0
  0
LWPOLYLINE
  5
28D
330
1F
100
AcDbEntity
  8
0
  6
Continuous
 62
     7
370
    25
100
AcDbPolyline
 90
       12
 70
   128
 43
0.0
 10
245.9895154558
 20
52.5039271601
 10
246.8606746802
 20
53.4338738517
 10
247.7622688683
 20
54.2866396395
 10
248.6865887688
 20
55.0549322176
 10
249.6257305305
 20
55.7321819283
 10
250.5716636869
 20
56.3125977386
 10
251.5162994488
 20
56.791217312
 10
252.4515603255
 20
57.1639464385
 10
253.3694490449
 20
57.4275995823
 10
254.2621166622
 20
57.579920949
 10
255.1219298233
 20
57.6196088671
 10
255.790066032
 20
57.5688137932
  0
SPLINE
  5
28E
330
1F
100
AcDbEntity
  8
0
  6
Continuous
 62
     7
370
    25
100
AcDbSpline
210
0.0
220
0.0
230
1.0
 70
     8
 71
     3
 72
    26
 73
    22
 74
     0
 42
0.000000001
 43
0.00000001
 40
0.0
 40
0.0
 40
0.0
 40
0.0
 40
0.1250000000000009
 40
0.1250000000000009
 40
0.2500000000000019
 40
0.2500000000000019
 40
0.3125000000000011
 40
0.3125000000000011
 40
0.3750000000000004
 40
0.3750000000000004
 40
0.4375000000000002
 40
0.4375000000000002
 40
0.5000000000000001
 40
0.5000000000000001
 40
0.5625
 40
0.5625
 40
0.6249999999999999
 40
0.6249999999999999
 40
0.7500000000000001
 40
0.7500000000000001
 40
1.0
 40
1.0
 40
1.0
 40
1.0
 10
244.6453222508749
 20
50.83176387391457
 30
0.0
 10
244.6216846546429
 20
50.94133973348757
 30
0.0
 10
244.6041168757612
 20
51.05222899185209
 30
0.0
 10
244.5853042928917
 20
51.27755895171504
 30
0.0
 10
244.5841245181242
 20
51.39323586503341
 30
0.0
 10
244.6002225213597
 20
51.56459137489297
 30
0.0
 10
244.6085412384599
 20
51.62138988698713
 30
0.0
 10
244.6322983877168
 20
51.73421609938421
 30
0.0
 10
244.6479207667658
 20
51.79066895305037
 30
0.0
 10
244.6867779791629
 20
51.89925206945897
 30
0.0
 10
244.7100039358653
 20
51.95163202968452
 30
0.0
 10
244.7650025853437
 20
52.05208880495663
 30
0.0
 10
244.7970808523663
 20
52.10036767272807
 30
0.0
 10
244.8674956009014
 20
52.18806464831181
 30
0.0
 10
244.9060740230281
 20
52.22805377628777
 30
0.0
 10
244.9897822866243
 20
52.30053246040337
 30
0.0
 10
245.0349109965662
 20
52.33286908477998
 30
0.0
 10
245.1741916387563
 20
52.41606885213363
 30
0.0
 10
245.2749807103179
 20
52.45489757476972
 30
0.0
 10
245.5780529815506
 20
52.53031386222489
 30
0.0
 10
245.7865770720357
 20
52.53018371585413
 30
0.0
 10
245.9895154917261
 20
52.50392748652791
 30
0.0
  0
LWPOLYLINE
  5
28F
330
1F
100
AcDbEntity
  8
0
  6
Continuous
 62
     7
370
    25
100
AcDbPolyline
 90
       18
 70
   128
 43
0.0
 10
241.7083436219
 20
33.1759125838
 10
241.3818174985
 20
33.6452796263
 10
240.9819440049
 20
34.3883201911
 10
240.6605657239
 20
35.2146925187
 10
240.4203550292
 20
36.1175231047
 10
240.2633099448
 20
37.0893038064
 10
240.1907370229
 20
38.1219525155
 10
240.2032388318
 20
39.2068801987
 10
240.3007119801
 20
40.3350639973
 10
240.4823464579
 20
41.4971211346
 10
240.7466302472
 20
42.6833863168
 10
241.0913657847
 20
43.8839936945
 10
241.513687085
 20
45.0889584689
 10
242.0100801544
 20
46.2882588292
 10
242.576417236
 20
47.4719190304
 10
243.2079884195
 20
48.6300968431
 10
243.8995404953
 20
49.7531588362
 10
244.6453223943
 20
50.8317636429
  0
LINE
  5
290
330
1F
100
AcDbEntity
  8
0
  6
Continuous
 62
     7
370
    25
100
AcDbLine
 10
243.1699299799
 20
30.5878426988
 30
0.0
 11
243.2881332861
 21
30.6437051503
 31
0.0
  0
LWPOLYLINE
  5
291
330
1F
100
AcDbEntity
  8
0
  6
Continuous
 62
     7
370
    25
100
AcDbPolyline
 90
       41
 70
   128
 43
0.0
 10
243.1699299799
 20
30.5878426988
 10
242.4335810725
 20
30.8687978871
 10
241.7524926104
 20
31.2521073361
 10
241.1317037761
 20
31.7349378485
 10
240.5758059421
 20
32.3137163389
 10
240.0889123772
 20
32.9841617757
 10
239.6746240028
 20
33.7413152227
 10
239.3360056852
 20
34.5795748228
 10
239.075561869
 20
35.492740477
 10
238.895220114
 20
36.474057193
 10
238.7963133144
 20
37.5162654192
 10
238.7795744301
 20
38.6116563934
 10
238.8451246333
 20
39.752125685
 10
238.992482528
 20
40.9292389262
 10
239.2205555889
 20
42.1342871372
 10
239.5276579421
 20
43.3583568055
 10
239.9115176089
 20
44.5923935027
 10
240.3692942869
 20
45.827267758
 10
240.8976023988
 20
47.0538455892
 10
241.4925341415
 20
48.2630535197
 10
242.1496878035
 20
49.4459466375
 10
242.8642026677
 20
50.593774372
 10
243.6307939146
 20
51.6980470312
 10
244.4437895002
 20
52.7505943537
 10
245.2971762547
 20
53.743631665
 10
246.1846416996
 20
54.669812155
 10
247.0996201463
 20
55.5222854296
 10
248.035344062
 20
56.294745415
 10
248.9848912386
 20
56.9814781196
 10
249.9412375451
 20
57.5774027347
 10
250.8973087703
 20
58.0781106873
 10
251.846032437
 20
58.4799001152
 10
252.7803906961
 20
58.7797980366
 10
253.693471876
 20
58.9755847863
 10
254.5785211212
 20
59.0658133617
 10
255.4289921698
 20
59.0498157403
 10
256.2385936171
 20
58.9277105741
 10
257.0013363298
 20
58.7004009045
 10
257.7115785573
 20
58.3695682641
 10
258.3640657729
 20
57.9376599353
 10
258.8621901558
 20
57.5008322076
  0
LWPOLYLINE
  5
292
330
1F
100
AcDbEntity
  8
0
  6
Continuous
 62
     7
370
    25
100
AcDbPolyline
 90
       27
 70
   128
 43
0.0
 10
236.5252973893
 20
39.6624928739
 10
236.5662298817
 20
40.7837776877
 10
236.6887244285
 20
41.9440207767
 10
236.891874214
 20
43.134631657
 10
237.1741744639
 20
44.3467955641
 10
237.5335356164
 20
45.5715382814
 10
237.9672978104
 20
46.7997926792
 10
238.4722480072
 20
48.0224639229
 10
239.0446489666
 20
49.2305009535
 10
239.6802629548
 20
50.4149588437
 10
240.3743833542
 20
51.5670695178
 10
241.121871542
 20
52.6783022049
 10
241.9171931101
 20
53.7404307369
 10
242.7544603414
 20
54.7455900084
 10
243.6274736978
 20
55.6863394717
 10
244.5297698943
 20
56.5557129427
 10
245.4546691494
 20
57.3472747754
 10
246.3953232586
 20
58.0551651051
 10
247.3447681138
 20
58.6741408134
 10
248.295974411
 20
59.1996222919
 10
249.2418996751
 20
59.6277158709
 10
250.1755407792
 20
59.9552547846
 10
251.0899851463
 20
60.1798119989
 10
251.9784627741
 20
60.2997256821
 10
252.8343954616
 20
60.314108611
 10
253.6514460351
 20
60.2228537747
 10
254.3457956079
 20
60.0518137499
  0
LWPOLYLINE
  5
293
330
1F
100
AcDbEntity
  8
0
  6
Continuous
 62
     7
370
    25
100
AcDbPolyline
 90
        3
 70
   128
 43
0.0
 10
236.5994929648
 20
38.2286245753
 10
236.5662298817
 20
38.5884677099
 10
236.5352466797
 20
39.1267002057
  0
SPLINE
  5
294
330
1F
100
AcDbEntity
  8
0
  6
Continuous
 62
     7
370
    25
100
AcDbSpline
210
0.0
220
0.0
230
1.0
 70
     8
 71
     3
 72
    10
 73
     6
 74
     0
 42
0.000000001
 43
0.00000001
 40
0.0
 40
0.0
 40
0.0
 40
0.0
 40
0.5
 40
0.5
 40
1.0
 40
1.0
 40
1.0
 40
1.0
 10
245.3720103185062
 20
49.36871059309485
 30
0.0
 10
245.2680458277219
 20
49.44204896616522
 30
0.0
 10
245.1782375512946
 20
49.52928472395864
 30
0.0
 10
245.0261951232959
 20
49.73021526515463
 30
0.0
 10
244.9642895349349
 20
49.8443860313516
 30
0.0
 10
244.9198398303445
 20
49.9674037145117
 30
0.0
  0
SPLINE
  5
295
330
1F
100
AcDbEntity
  8
0
  6
Continuous
 62
     7
370
    25
100
AcDbSpline
210
0.0
220
0.0
230
1.0
 70
     8
 71
     3
 72
    14
 73
    10
 74
     0
 42
0.000000001
 43
0.00000001
 40
0.0
 40
0.0
 40
0.0
 40
0.0
 40
0.25
 40
0.25
 40
0.5
 40
0.5
 40
0.75
 40
0.75
 40
1.0
 40
1.0
 40
1.0
 40
1.0
 10
244.9198398303445
 20
49.9674037145117
 30
0.0
 10
244.8971190274793
 20
50.03028513416924
 30
0.0
 10
244.8752045171299
 20
50.09933156364266
 30
0.0
 10
244.8330934630671
 20
50.24698408026143
 30
0.0
 10
244.813571909154
 20
50.32338386711974
 30
0.0
 10
244.7752256669803
 20
50.47771615851534
 30
0.0
 10
244.7568660740965
 20
50.55466875484699
 30
0.0
 10
244.7148626295148
 20
50.70005892236297
 30
0.0
 10
244.6910863085018
 20
50.766649828556
 30
0.0
 10
244.6626248043996
 20
50.80714544378734
 30
0.0
  0
LINE
  5
296
330
1F
100
AcDbEntity
  8
0
  6
Continuous
 62
     7
370
    25
100
AcDbLine
 10
244.6626249927
 20
50.8071458355
 30
0.0
 11
244.6453223943
 21
50.8317636429
 31
0.0
  0
LINE
  5
297
330
1F
100
AcDbEntity
  8
0
  6
Continuous
 62
     7
370
    25
100
AcDbLine
 10
245.9895154558
 20
52.5039271601
 30
0.0
 11
246.0068180542
 21
52.4793093528
 31
0.0
  0
SPLINE
  5
298
330
1F
100
AcDbEntity
  8
0
  6
Continuous
 62
     7
370
    25
100
AcDbSpline
210
0.0
220
0.0
230
1.0
 70
     8
 71
     3
 72
    16
 73
    12
 74
     0
 42
0.000000001
 43
0.00000001
 40
0.0
 40
0.0
 40
0.0
 40
0.0
 40
0.1250000000000001
 40
0.1250000000000001
 40
0.2500000000000003
 40
0.2500000000000003
 40
0.5000000000000002
 40
0.5000000000000002
 40
0.7500000000000001
 40
0.7500000000000001
 40
1.0
 40
1.0
 40
1.0
 40
1.0
 10
246.0068180452508
 20
52.47930905640062
 30
0.0
 10
246.0209704516549
 20
52.45917272058783
 30
0.0
 10
246.0426288561286
 20
52.44237529991041
 30
0.0
 10
246.0950467851639
 20
52.41552977857892
 30
0.0
 10
246.1256396643023
 20
52.40530429401794
 30
0.0
 10
246.2247205131598
 20
52.38080385358525
 30
0.0
 10
246.2986030507756
 20
52.37254393118375
 30
0.0
 10
246.451702643167
 20
52.36135796447883
 30
0.0
 10
246.5297866178146
 20
52.35876129272764
 30
0.0
 10
246.6891302515567
 20
52.35673229189393
 30
0.0
 10
246.7677831463883
 20
52.35736988055616
 30
0.0
 10
246.8435356141809
 20
52.3604629813712
 30
0.0
  0
SPLINE
  5
299
330
1F
100
AcDbEntity
  8
0
  6
Continuous
 62
     7
370
    25
100
AcDbSpline
210
0.0
220
0.0
230
1.0
 70
     8
 71
     3
 72
    10
 73
     6
 74
     0
 42
0.000000001
 43
0.00000001
 40
0.0
 40
0.0
 40
0.0
 40
0.0
 40
0.5
 40
0.5
 40
1.0
 40
1.0
 40
1.0
 40
1.0
 10
246.8435356141809
 20
52.3604629813712
 30
0.0
 10
246.9917299540816
 20
52.36651400580497
 30
0.0
 10
247.1339544198122
 20
52.35635177559183
 30
0.0
 10
247.406345810153
 20
52.30530133965175
 30
0.0
 10
247.5364731400215
 20
52.2639402370072
 30
0.0
 10
247.6545484822068
 20
52.20816636905492
 30
0.0
  0
LINE
  5
29A
330
1F
100
AcDbEntity
  8
0
  6
Continuous
 62
     7
370
    25
100
AcDbLine
 10
247.8097515737
 20
52.2365849766
 30
0.0
 11
247.7923584254
 21
52.2613322612
 31
0.0
  0
ARC
  5
29B
330
1F
100
AcDbEntity
  8
0
  6
Continuous
 62
     7
370
    25
100
AcDbCircle
 10
230.3371694709
 20
47.4842372037
 30
0.0
 40
4.160340149630191
100
AcDbArc
 50
211.7954354499
 51
236.1628935314
  0
SPLINE
  5
29C
330
1F
100
AcDbEntity
  8
0
  6
Continuous
 62
     7
370
    25
100
AcDbSpline
210
0.0
220
0.0
230
1.0
 70
     8
 71
     3
 72
     8
 73
     4
 74
     0
 42
0.000000001
 43
0.00000001
 40
0.0
 40
0.0
 40
0.0
 40
0.0
 40
1.0
 40
1.0
 40
1.0
 40
1.0
 10
228.2315948130701
 20
44.36746194981625
 30
0.0
 10
227.7548215212459
 20
44.6755547577489
 30
0.0
 10
227.2780191444011
 20
44.98378420332165
 30
0.0
 10
226.8011866998754
 20
45.29214935954156
 30
0.0
  0
SPLINE
  5
29D
330
1F
100
AcDbEntity
  8
0
  6
Continuous
 62
     7
370
    25
100
AcDbSpline
210
0.0
220
0.0
230
1.0
 70
     8
 71
     3
 72
    23
 73
    19
 74
     0
 42
0.000000001
 43
0.00000001
 40
0.0
 40
0.0
 40
0.0
 40
0.0
 40
0.0521036415675031
 40
0.1035646240925967
 40
0.1544751946736949
 40
0.2049306267473421
 40
0.2550287880844035
 40
0.3048696389141012
 40
0.3545546704609132
 40
0.4041862979523234
 40
0.4538672252126086
 40
0.5036997999421611
 40
0.5901870230746071
 40
0.674271637822954
 40
0.7565997087222995
 40
0.8378563983721267
 40
0.9187511781367398
 40
1.0
 40
1.0
 40
1.0
 40
1.0
 10
229.1121596166117
 20
44.19273125169616
 30
0.0
 10
229.1068906776716
 20
44.18280978946132
 30
0.0
 10
229.0964177881713
 20
44.16308923873039
 30
0.0
 10
229.0771714924086
 20
44.13852140977815
 30
0.0
 10
229.0553757520759
 20
44.11783282751892
 30
0.0
 10
229.0307244608709
 20
44.10130189222195
 30
0.0
 10
229.003227946332
 20
44.08878439264578
 30
0.0
 10
228.9728168923247
 20
44.08024976882339
 30
0.0
 10
228.9394465205521
 20
44.07563989617532
 30
0.0
 10
228.9030706322802
 20
44.07490515303885
 30
0.0
 10
228.8636422606911
 20
44.07800023559013
 30
0.0
 10
228.8107938691412
 20
44.08653601106927
 30
0.0
 10
228.742254875371
 20
44.10413244991632
 30
0.0
 10
228.6545336434166
 20
44.1357690580022
 30
0.0
 10
228.5598027239227
 20
44.17794871533491
 30
0.0
 10
228.4577684765928
 20
44.2306851510619
 30
0.0
 10
228.3488545634037
 20
44.29300170697273
 30
0.0
 10
228.2707382524177
 20
44.34260576522384
 30
0.0
 10
228.2315948130701
 20
44.36746194981625
 30
0.0
  0
SPLINE
  5
29E
330
1F
100
AcDbEntity
  8
0
  6
Continuous
 62
     7
370
    25
100
AcDbSpline
210
0.0
220
0.0
230
1.0
 70
     8
 71
     3
 72
     8
 73
     4
 74
     0
 42
0.000000001
 43
0.00000001
 40
0.0
 40
0.0
 40
0.0
 40
0.0
 40
1.0
 40
1.0
 40
1.0
 40
1.0
 10
230.5856626430655
 20
43.24541111513995
 30
0.0
 10
230.0942953310242
 20
43.56128573510743
 30
0.0
 10
229.6029091310979
 20
43.87727175639692
 30
0.0
 10
229.111503420954
 20
44.1933686372396
 30
0.0
  0
SPLINE
  5
29F
330
1F
100
AcDbEntity
  8
0
  6
Continuous
 62
     7
370
    25
100
AcDbSpline
210
0.0
220
0.0
230
1.0
 70
     8
 71
     3
 72
    18
 73
    14
 74
     0
 42
0.000000001
 43
0.00000001
 40
0.0
 40
0.0
 40
0.0
 40
0.0
 40
0.0923824559411628
 40
0.1844689291573508
 40
0.2764953615950219
 40
0.3686975365494161
 40
0.4613092840003458
 40
0.5545607518442569
 40
0.6486768051537182
 40
0.7438756050146744
 40
0.8403674044302629
 40
0.9203921078121001
 40
1.0
 40
1.0
 40
1.0
 40
1.0
 10
231.3992267622652
 20
42.6011033905956
 30
0.0
 10
231.3756592481421
 20
42.61637736486114
 30
0.0
 10
231.3285997274907
 20
42.64687637734178
 30
0.0
 10
231.2562019395279
 20
42.6965089499527
 30
0.0
 10
231.1827197306323
 20
42.74883849262122
 30
0.0
 10
231.1080202828874
 20
42.80415617832909
 30
0.0
 10
231.0321594931193
 20
42.86239449344266
 30
0.0
 10
230.9551482123325
 20
42.92358740508026
 30
0.0
 10
230.8770160802515
 20
42.9877511216618
 30
0.0
 10
230.7977898456076
 20
43.05490008152891
 30
0.0
 10
230.7224933611978
 20
43.12075099127508
 30
0.0
 10
230.6516660530757
 20
43.1842825780834
 30
0.0
 10
230.6077616822686
 20
43.22494332309689
 30
0.0
 10
230.5858668154633
 20
43.24522061166545
 30
0.0
  0
LINE
  5
2A0
330
1F
100
AcDbEntity
  8
0
  6
Continuous
 62
     7
370
    25
100
AcDbLine
 10
232.0389332941
 20
42.1893495841
 30
0.0
 11
231.3992264518
 21
42.6011032517
 31
0.0
  0
SPLINE
  5
2A1
330
1F
100
AcDbEntity
  8
0
  6
Continuous
 62
     7
370
    25
100
AcDbSpline
210
0.0
220
0.0
230
1.0
 70
     8
 71
     3
 72
    25
 73
    21
 74
     0
 42
0.000000001
 43
0.00000001
 40
0.0
 40
0.0
 40
0.0
 40
0.0
 40
0.0280105225426465
 40
0.0559601148860768
 40
0.0839014045043132
 40
0.1118870776786367
 40
0.1399695827588937
 40
0.1682008401739883
 40
0.196631967042422
 40
0.2253130233141467
 40
0.2542927850735845
 40
0.3799486436587335
 40
0.5057850221667067
 40
0.6313085886338298
 40
0.7532068238012468
 40
0.8039473267955921
 40
0.8535894438554446
 40
0.9025339722394071
 40
0.9511970353791085
 40
1.0
 40
1.0
 40
1.0
 40
1.0
 10
233.1412988872554
 20
42.90525557447268
 30
0.0
 10
233.146246994786
 20
42.8776317133652
 30
0.0
 10
233.1561324464215
 20
42.82244408025988
 30
0.0
 10
233.1676680960247
 20
42.74328337288996
 30
0.0
 10
233.1767412178375
 20
42.66698003379157
 30
0.0
 10
233.1831100265505
 20
42.59378427282196
 30
0.0
 10
233.1868262653606
 20
42.52363680460858
 30
0.0
 10
233.1878628863434
 20
42.45656051809579
 30
0.0
 10
233.1862144111165
 20
42.39255660886936
 30
0.0
 10
233.1818682592476
 20
42.33162775560252
 30
0.0
 10
233.16701193468
 20
42.20973963410535
 30
0.0
 10
233.1219236776149
 20
42.0548387624502
 30
0.0
 10
233.0085641571223
 20
41.92389564410815
 30
0.0
 10
232.846739935128
 20
41.86801924329814
 30
0.0
 10
232.6727247159962
 20
41.88789329568092
 30
0.0
 10
232.5213637953101
 20
41.9352110980364
 30
0.0
 10
232.4109635626118
 20
41.98012652177175
 30
0.0
 10
232.2938040671631
 20
42.03750225306293
 30
0.0
 10
232.1702384002292
 20
42.10617931751575
 30
0.0
 10
232.0827433501341
 20
42.16159956346893
 30
0.0
 10
232.0389330304525
 20
42.18934946119924
 30
0.0
  0
ARC
  5
2A2
330
1F
100
AcDbEntity
  8
0
  6
Continuous
 62
     7
370
    25
100
AcDbCircle
 10
244.3343200517
 20
44.6913059431
 30
0.0
 40
11.33462419218118
100
AcDbArc
 50
170.9338462887
 51
189.0661537113
  0
SPLINE
  5
2A3
330
1F
100
AcDbEntity
  8
0
  6
Continuous
 62
     7
370
    25
100
AcDbSpline
210
0.0
220
0.0
230
1.0
 70
     8
 71
     3
 72
    26
 73
    22
 74
     0
 42
0.000000001
 43
0.00000001
 40
0.0
 40
0.0
 40
0.0
 40
0.0
 40
0.0241259796963635
 40
0.0482159912272988
 40
0.0723203915124065
 40
0.0964895678710797
 40
0.1207736231963513
 40
0.1452220711242836
 40
0.1698835501657706
 40
0.1948055644472379
 40
0.2200342569517627
 40
0.2456142191611387
 40
0.3690971486901655
 40
0.4940698769485187
 40
0.6192566784762451
 40
0.7454656653603225
 40
0.7971495824713707
 40
0.8481710308405392
 40
0.8988013269235234
 40
0.9493179290492194
 40
1.0
 40
1.0
 40
1.0
 40
1.0
 10
232.0389330304525
 20
49.9534598525638
 30
0.0
 10
232.0606512598285
 20
49.93912832916872
 30
0.0
 10
232.1040553400046
 20
49.91048664849968
 30
0.0
 10
232.167362457366
 20
49.86249435057087
 30
0.0
 10
232.2292240250839
 20
49.81089515268518
 30
0.0
 10
232.2895285402205
 20
49.75532035981195
 30
0.0
 10
232.3483183921603
 20
49.69586511918481
 30
0.0
 10
232.4055989105901
 20
49.63250081034739
 30
0.0
 10
232.4613900499163
 20
49.56523203238347
 30
0.0
 10
232.5157112973381
 20
49.49405791842335
 30
0.0
 10
232.5685902725471
 20
49.41896877867507
 30
0.0
 10
232.6853850972834
 20
49.23971432997322
 30
0.0
 10
232.8472546552099
 20
48.92940885812983
 30
0.0
 10
233.0104395627417
 20
48.45949506999814
 30
0.0
 10
233.1219509679152
 20
47.9605320360881
 30
0.0
 10
233.1690848060237
 20
47.55164836303109
 30
0.0
 10
233.1842037455562
 20
47.24737640644039
 30
0.0
 10
233.1861568845387
 20
47.04612716474507
 30
0.0
 10
233.1796788588996
 20
46.85046724502248
 30
0.0
 10
233.1655519362125
 20
46.65983095712501
 30
0.0
 10
233.1493920445275
 20
46.5382476833862
 30
0.0
 10
233.1412988872554
 20
46.47735664678731
 30
0.0
  0
LINE
  5
2A4
330
1F
100
AcDbEntity
  8
0
  6
Continuous
 62
     7
370
    25
100
AcDbLine
 10
231.3992264518
 20
50.3664347028
 30
0.0
 11
232.0389332941
 21
49.9534597318
 31
0.0
  0
SPLINE
  5
2A5
330
1F
100
AcDbEntity
  8
0
  6
Continuous
 62
     7
370
    25
100
AcDbSpline
210
0.0
220
0.0
230
1.0
 70
     8
 71
     3
 72
    14
 73
    10
 74
     0
 42
0.000000001
 43
0.00000001
 40
0.0
 40
0.0
 40
0.0
 40
0.0
 40
0.0789261963172865
 40
0.158232872055133
 40
0.330847539457262
 40
0.5000195457610529
 40
0.6670357883572423
 40
0.8332395193657144
 40
1.0
 40
1.0
 40
1.0
 40
1.0
 10
230.5852740464139
 20
50.57501713584841
 30
0.0
 10
230.6069909277498
 20
50.57662029970697
 30
0.0
 10
230.6505293809654
 20
50.57983435579423
 30
0.0
 10
230.7420544996144
 20
50.58065539586212
 30
0.0
 10
230.8589628330474
 20
50.5727194140788
 30
0.0
 10
230.9997831714291
 20
50.546443745201
 30
0.0
 10
231.1369954792412
 20
50.50348614666874
 30
0.0
 10
231.2709261536577
 20
50.44512902185912
 30
0.0
 10
231.3564122456169
 20
50.39269547570913
 30
0.0
 10
231.3992267622652
 20
50.36643486555469
 30
0.0
  0
SPLINE
  5
2A6
330
1F
100
AcDbEntity
  8
0
  6
Continuous
 62
     7
370
    25
100
AcDbSpline
210
0.0
220
0.0
230
1.0
 70
     8
 71
     3
 72
     8
 73
     4
 74
     0
 42
0.000000001
 43
0.00000001
 40
0.0
 40
0.0
 40
0.0
 40
0.0
 40
1.0
 40
1.0
 40
1.0
 40
1.0
 10
228.7829704634094
 20
51.7374085472611
 30
0.0
 10
229.3837286871056
 20
51.3501410641022
 30
0.0
 10
229.984457549966
 20
50.9626737141789
 30
0.0
 10
230.5851581943129
 20
50.57500682158928
 30
0.0
  0
SPLINE
  5
2A7
330
1F
100
AcDbEntity
  8
0
  6
Continuous
 62
     7
370
    25
100
AcDbSpline
210
0.0
220
0.0
230
1.0
 70
     8
 71
     3
 72
    13
 73
     9
 74
     0
 42
0.000000001
 43
0.00000001
 40
0.0
 40
0.0
 40
0.0
 40
0.0
 40
0.1667030582307992
 40
0.3329480818053035
 40
0.4990671507274896
 40
0.6653938523718403
 40
0.832261271055009
 40
1.0
 40
1.0
 40
1.0
 40
1.0
 10
228.4411419283751
 20
52.03847332634688
 30
0.0
 10
228.461443110815
 20
52.02490821966765
 30
0.0
 10
228.5019896960037
 20
51.99781527790481
 30
0.0
 10
228.5611393329913
 20
51.95262070489709
 30
0.0
 10
228.6189108778938
 20
51.90420955641414
 30
0.0
 10
228.6751606153535
 20
51.85217444164368
 30
0.0
 10
228.7300878240996
 20
51.79687647443466
 30
0.0
 10
228.7653085336901
 20
51.7572592192743
 30
0.0
 10
228.7829647456311
 20
51.73739901027338
 30
0.0
  0
SPLINE
  5
2A8
330
1F
100
AcDbEntity
  8
0
  6
Continuous
 62
     7
370
    25
100
AcDbSpline
210
0.0
220
0.0
230
1.0
 70
     8
 71
     3
 72
     8
 73
     4
 74
     0
 42
0.000000001
 43
0.00000001
 40
0.0
 40
0.0
 40
0.0
 40
0.0
 40
1.0
 40
1.0
 40
1.0
 40
1.0
 10
226.4971614125843
 20
53.29319517872636
 30
0.0
 10
227.1451914849846
 20
52.8751998628416
 30
0.0
 10
227.7931844620865
 20
52.45695910042397
 30
0.0
 10
228.4411419283751
 20
52.03847332634688
 30
0.0
  0
LWPOLYLINE
  5
2A9
330
1F
100
AcDbEntity
  8
0
  6
Continuous
 62
     7
370
    25
100
AcDbPolyline
 90
       20
 70
   128
 43
0.0
 10
226.4971620629
 20
53.2931952292
 10
226.8614853483
 20
54.3587539664
 10
227.2987957801
 20
55.4195487795
 10
227.8046145971
 20
56.4647157354
 10
228.3737623466
 20
57.4835514249
 10
229.0004092636
 20
58.4656218934
 10
229.6781391487
 20
59.4008710016
 10
230.4000106137
 20
60.2797196596
 10
231.1586318256
 20
61.0931690531
 10
231.9462337704
 20
61.8328878042
 10
232.7547506771
 20
62.4913009861
 10
233.5759025834
 20
63.0616659235
 10
234.4012803698
 20
63.5381418146
 10
235.2224315353
 20
63.9158491346
 10
236.0309467956
 20
64.1909196272
 10
236.8185462708
 20
64.3605361743
 10
237.5771641901
 20
64.422962683
 10
238.2990323623
 20
64.3775588119
 10
238.9767573084
 20
64.2247902778
 10
239.5468997894
 20
63.9949421944
  0
SPLINE
  5
2AA
330
1F
100
AcDbEntity
  8
0
  6
Continuous
 62
     7
370
    25
100
AcDbSpline
210
0.0
220
0.0
230
1.0
 70
    11
 71
     3
 72
    39
 73
    35
 74
     0
 42
0.000000001
 43
0.00000001
 40
0.0
 40
0.0
 40
0.0
 40
0.0
 40
0.0310664058348413
 40
0.0621048158426138
 40
0.0931361551796939
 40
0.1235538293503726
 40
0.1538561545809849
 40
0.1850588072749156
 40
0.2160250992946587
 40
0.2471867223797568
 40
0.2784462884304475
 40
0.3100516090231247
 40
0.3419834369138969
 40
0.3734259894013238
 40
0.4048604886787081
 40
0.436874065183343
 40
0.4685120685926471
 40
0.499805535863323
 40
0.5309508213226204
 40
0.5618649784438111
 40
0.5930416446590877
 40
0.623374245013332
 40
0.6540913579072549
 40
0.6849496782718453
 40
0.7158160645166705
 40
0.7471731804043553
 40
0.7784514311866318
 40
0.810129591156098
 40
0.8419598919688388
 40
0.8735175891922303
 40
0.9050808037886594
 40
0.9370235169792582
 40
0.9687441590030581
 40
1.0
 40
1.0
 40
1.0
 40
1.0
 10
239.7057468937897
 20
62.29838555406777
 30
0.0
 10
239.9686325139879
 20
62.26985106677767
 30
0.0
 10
240.4955211244714
 20
62.18390857845606
 30
0.0
 10
241.2595331935474
 20
61.98353345838361
 30
0.0
 10
241.9666833815983
 20
61.73653135216409
 30
0.0
 10
242.5795944461938
 20
61.45854947401099
 30
0.0
 10
243.0767257718641
 20
61.16441577668227
 30
0.0
 10
243.4359174929376
 20
60.86290924849004
 30
0.0
 10
243.6576367616965
 20
60.55591174358763
 30
0.0
 10
243.7228886390786
 20
60.24540648218594
 30
0.0
 10
243.6360414279647
 20
59.92626199743711
 30
0.0
 10
243.3936958402063
 20
59.59694203186491
 30
0.0
 10
243.0137579774799
 20
59.25800131030726
 30
0.0
 10
242.4999520243202
 20
58.92016284589662
 30
0.0
 10
241.8740612134101
 20
58.59426494458578
 30
0.0
 10
241.1605902269182
 20
58.29761805134629
 30
0.0
 10
240.3966877506539
 20
58.04151474290934
 30
0.0
 10
239.6108946677523
 20
57.85248717491855
 30
0.0
 10
238.8293572127124
 20
57.7443112528653
 30
0.0
 10
238.0732442279599
 20
57.73664736949559
 30
0.0
 10
237.3708796415664
 20
57.83456940488174
 30
0.0
 10
236.7518592945237
 20
58.05621783838424
 30
0.0
 10
236.24280202951
 20
58.39208592529597
 30
0.0
 10
235.869858436076
 20
58.83189649147673
 30
0.0
 10
235.6412564848276
 20
59.34297113199938
 30
0.0
 10
235.5724101781084
 20
59.89415621976282
 30
0.0
 10
235.6570265913335
 20
60.45182814807457
 30
0.0
 10
235.9001353812683
 20
60.98190828899356
 30
0.0
 10
236.2822652240861
 20
61.45443263810629
 30
0.0
 10
236.7984007984964
 20
61.84055414899952
 30
0.0
 10
237.4253786589983
 20
62.12417833633265
 30
0.0
 10
238.1412860913621
 20
62.29391555505907
 30
0.0
 10
238.9097294835477
 20
62.35545438977039
 30
0.0
 10
239.4412582629202
 20
62.32709403751481
 30
0.0
 10
239.7057468937897
 20
62.29838555406776
 30
0.0
  0
LINE
  5
2AB
330
1F
100
AcDbEntity
  8
0
  6
Continuous
 62
     7
370
    25
100
AcDbLine
 10
230.4812094808
 20
45.8592589367
 30
0.0
 11
230.7952545394
 21
45.6911147095
 31
0.0
  0
LINE
  5
2AC
330
1F
100
AcDbEntity
  8
0
  6
Continuous
 62
     7
370
    25
100
AcDbLine
 10
229.4942514608
 20
46.4290176739
 30
0.0
 11
230.4812094808
 21
45.8592589367
 31
0.0
  0
ARC
  5
2AD
330
1F
100
AcDbEntity
  8
0
  6
Continuous
 62
     7
370
    25
100
AcDbCircle
 10
231.7262364584
 20
49.9369311213
 30
0.0
 40
4.399246259572793
100
AcDbArc
 50
267.4956853267
 51
287.1750110524
  0
SPLINE
  5
2AE
330
1F
100
AcDbEntity
  8
0
  6
Continuous
 62
     7
370
    25
100
AcDbSpline
210
0.0
220
0.0
230
1.0
 70
     8
 71
     3
 72
    14
 73
    10
 74
     0
 42
0.000000001
 43
0.00000001
 40
0.0
 40
0.0
 40
0.0
 40
0.0
 40
0.1520927654964334
 40
0.2674857265629534
 40
0.3827932169674477
 40
0.4986859355030901
 40
0.6145509981003119
 40
0.825743267810779
 40
1.0
 40
1.0
 40
1.0
 40
1.0
 10
241.0442528520891
 20
59.29588983873204
 30
0.0
 10
240.8394579107967
 20
59.40827073896246
 30
0.0
 10
240.4792848053291
 20
59.60591516111374
 30
0.0
 10
239.8796616371273
 20
59.87003802791585
 30
0.0
 10
239.3004890027447
 20
60.08315442244874
 30
0.0
 10
238.6895971872507
 20
60.25394257353464
 30
0.0
 10
237.9004614974745
 20
60.39332132875383
 30
0.0
 10
237.0011881725515
 20
60.42045524343077
 30
0.0
 10
236.4365928228836
 20
60.21246068711309
 30
0.0
 10
236.1813462399182
 20
60.11842891762235
 30
0.0
  0
SPLINE
  5
2AF
330
1F
100
AcDbEntity
  8
0
  6
Continuous
 62
     7
370
    25
100
AcDbSpline
210
0.0
220
0.0
230
1.0
 70
     8
 71
     3
 72
    10
 73
     6
 74
     0
 42
0.000000001
 43
0.00000001
 40
0.0
 40
0.0
 40
0.0
 40
0.0
 40
0.3798174073072795
 40
0.9603711649033085
 40
1.0
 40
1.0
 40
1.0
 40
1.0
 10
242.1841329739486
 20
58.76766291121356
 30
0.0
 10
242.0544803567002
 20
58.83799147305093
 30
0.0
 10
241.7266527409457
 20
59.01581776947204
 30
0.0
 10
241.3187241959355
 20
59.18887061987446
 30
0.0
 10
241.0620914145037
 20
59.28807605212277
 30
0.0
 10
241.0456929242919
 20
59.29441514606314
 30
0.0
  0
SPLINE
  5
2B0
330
1F
100
AcDbEntity
  8
0
  6
Continuous
 62
     7
370
    25
100
AcDbSpline
210
0.0
220
0.0
230
1.0
 70
     8
 71
     3
 72
    24
 73
    20
 74
     0
 42
0.000000001
 43
0.00000001
 40
0.0
 40
0.0
 40
0.0
 40
0.0
 40
0.0618858212107145
 40
0.1150115607194259
 40
0.1593831488268445
 40
0.2428114970815824
 40
0.318331853291959
 40
0.3935543804326023
 40
0.4204843226990471
 40
0.4483397435477174
 40
0.4771286702554668
 40
0.5451537905345539
 40
0.6363475754294583
 40
0.6968782859867285
 40
0.7498596693403015
 40
0.7959701295389731
 40
0.8771179302751783
 40
0.9543004207779655
 40
1.0
 40
1.0
 40
1.0
 40
1.0
 10
239.6508683267874
 20
61.724527654111
 30
0.0
 10
239.4669115374513
 20
61.74342221907695
 30
0.0
 10
239.125037469489
 20
61.77853677946146
 30
0.0
 10
238.6608194965122
 20
61.77204623107419
 30
0.0
 10
238.1513578842392
 20
61.72432203827689
 30
0.0
 10
237.6122627848647
 20
61.59970544010996
 30
0.0
 10
237.0694248001411
 20
61.35721515616697
 30
0.0
 10
236.729031784646
 20
61.09984240554107
 30
0.0
 10
236.522405076095
 20
60.88503530504224
 30
0.0
 10
236.4044210198839
 20
60.73853195374326
 30
0.0
 10
236.2522506156929
 20
60.50878112952281
 30
0.0
 10
236.0855699771132
 20
60.13583843409579
 30
0.0
 10
236.017208396276
 20
59.67327938140291
 30
0.0
 10
236.0675638598954
 20
59.24494668320108
 30
0.0
 10
236.1729930034107
 20
58.9250197895567
 30
0.0
 10
236.3551923300967
 20
58.58455427436351
 30
0.0
 10
236.6560707551671
 20
58.24860601750842
 30
0.0
 10
237.0457556497656
 20
57.9755467167934
 30
0.0
 10
237.33867460596
 20
57.88159164586611
 30
0.0
 10
237.4476105400163
 20
57.84664995570115
 30
0.0
  0
SPLINE
  5
2B1
330
1F
100
AcDbEntity
  8
0
  6
Continuous
 62
     7
370
    25
100
AcDbSpline
210
0.0
220
0.0
230
1.0
 70
     8
 71
     3
 72
    22
 73
    18
 74
     0
 42
0.000000001
 43
0.00000001
 40
0.0
 40
0.0
 40
0.0
 40
0.0
 40
0.0348562931077237
 40
0.0924900623539491
 40
0.1569277788850789
 40
0.2282085360920659
 40
0.2894089077515647
 40
0.3420696922203051
 40
0.3861903498429299
 40
0.4217735408338573
 40
0.5236918810098915
 40
0.6145479843395962
 40
0.7067593487247504
 40
0.7559111409869668
 40
0.8071360726317764
 40
0.8951475619903156
 40
1.0
 40
1.0
 40
1.0
 40
1.0
 10
242.9146122741718
 20
59.20738356634129
 30
0.0
 10
242.9522481640474
 20
59.24255678875287
 30
0.0
 10
243.0521137977963
 20
59.33588781290919
 30
0.0
 10
243.1709378465314
 20
59.49123305250951
 30
0.0
 10
243.2673489150496
 20
59.67996225731184
 30
0.0
 10
243.2986250701916
 20
59.86594114292433
 30
0.0
 10
243.269219746018
 20
60.03775270425977
 30
0.0
 10
243.2007247228099
 20
60.18455929477055
 30
0.0
 10
243.1129120757955
 20
60.3057702167844
 30
0.0
 10
242.9586209238412
 20
60.47135336396785
 30
0.0
 10
242.6907946058852
 20
60.68151760632339
 30
0.0
 10
242.2392244664187
 20
60.93696141678543
 30
0.0
 10
241.7916618296954
 20
61.14359811345642
 30
0.0
 10
241.3827680608116
 20
61.30210233010013
 30
0.0
 10
240.9606884610042
 20
61.44461907803492
 30
0.0
 10
240.382375843625
 20
61.60787564689038
 30
0.0
 10
239.9084972497574
 20
61.68344409681217
 30
0.0
 10
239.6508683267874
 20
61.724527654111
 30
0.0
  0
LINE
  5
2B2
330
1F
100
AcDbEntity
  8
0
  6
Continuous
 62
     7
370
    25
100
AcDbLine
 10
233.1412986049
 20
46.477356466
 30
0.0
 11
233.1360605419
 21
46.7734398889
 31
0.0
  0
LINE
  5
2B3
330
1F
100
AcDbEntity
  8
0
  6
Continuous
 62
     7
370
    25
100
AcDbLine
 10
233.1360605419
 20
46.7734398889
 30
0.0
 11
233.1791583287
 21
47.4250650846
 31
0.0
  0
LINE
  5
2B4
330
1F
100
AcDbEntity
  8
0
  6
Continuous
 62
     7
370
    25
100
AcDbLine
 10
232.6565117239
 20
49.2541281064
 30
0.0
 11
232.3450972213
 21
49.5827246759
 31
0.0
  0
SPLINE
  5
2B5
330
1F
100
AcDbEntity
  8
0
  6
Continuous
 62
     7
370
    25
100
AcDbSpline
210
0.0
220
0.0
230
1.0
 70
     8
 71
     3
 72
    19
 73
    15
 74
     0
 42
0.000000001
 43
0.00000001
 40
0.0
 40
0.0
 40
0.0
 40
0.0
 40
0.0210492621018804
 40
0.1455865440207667
 40
0.2712169722633744
 40
0.3929514297049947
 40
0.5136082229787104
 40
0.6366369099308349
 40
0.699422462668311
 40
0.7643939711952468
 40
0.8122544601557282
 40
0.8606584764820763
 40
0.9188817427801165
 40
1.0
 40
1.0
 40
1.0
 40
1.0
 10
236.0616237744451
 20
59.4697777066532
 30
0.0
 10
236.0541551994592
 20
59.5245380535586
 30
0.0
 10
236.0024990408876
 20
59.90328623089374
 30
0.0
 10
236.2452699355472
 20
60.51343713970792
 30
0.0
 10
236.8296004029621
 20
61.20281084294749
 30
0.0
 10
237.7357267706024
 20
61.62011039317954
 30
0.0
 10
238.8100728990644
 20
61.74053635086819
 30
0.0
 10
239.7640067681602
 20
61.57983680728059
 30
0.0
 10
240.4986693107294
 20
61.28247070843879
 30
0.0
 10
240.9714725502017
 20
60.98481263103409
 30
0.0
 10
241.3284427203212
 20
60.61390082625673
 30
0.0
 10
241.5232908618294
 20
60.18157953094915
 30
0.0
 10
241.5523198920736
 20
59.67863819972401
 30
0.0
 10
241.4899462904532
 20
59.34489318714881
 30
0.0
 10
241.4536352344792
 20
59.15060211660195
 30
0.0
  0
SPLINE
  5
2B6
330
1F
100
AcDbEntity
  8
0
  6
Continuous
 62
     7
370
    25
100
AcDbSpline
210
0.0
220
0.0
230
1.0
 70
     8
 71
     3
 72
    10
 73
     6
 74
     0
 42
0.000000001
 43
0.00000001
 40
0.0
 40
0.0
 40
0.0
 40
0.0
 40
0.2950355258923527
 40
0.9801030833761959
 40
1.0
 40
1.0
 40
1.0
 40
1.0
 10
241.4563630904674
 20
59.14936356317957
 30
0.0
 10
241.5391876607278
 20
59.1105983814908
 30
0.0
 10
241.8143294981255
 20
58.98182109615918
 30
0.0
 10
242.0893964326656
 20
58.84055181626933
 30
0.0
 10
242.2379750432447
 20
58.74648908033048
 30
0.0
 10
242.2421685258036
 20
58.74383425376386
 30
0.0
  0
ARC
  5
2B7
330
1F
100
AcDbEntity
  8
0
  6
Continuous
 62
     7
370
    25
100
AcDbCircle
 10
245.4664716558
 20
44.9361445708
 30
0.0
 40
12.46654291792143
100
AcDbArc
 50
171.5249863735
 51
179.8211981812
  0
SPLINE
  5
2B8
330
1F
100
AcDbEntity
  8
0
  6
Continuous
 62
     7
370
    25
100
AcDbSpline
210
0.0
220
0.0
230
1.0
 70
     8
 71
     3
 72
    14
 73
    10
 74
     0
 42
0.000000001
 43
0.00000001
 40
0.0
 40
0.0
 40
0.0
 40
0.0
 40
0.0003951393068452
 40
0.0003951393068452
 40
0.0003951393068452
 40
0.0008163352168663
 40
0.0008163352168663
 40
0.0008163352168663
 40
0.0012378579337219
 40
0.0012378579337219
 40
0.0012378579337219
 40
0.0012378579337219
 10
241.0482854276288
 20
59.29461088534771
 30
0.0
 10
241.0937472418601
 20
59.28017402272267
 30
0.0
 10
241.1386348464811
 20
59.26530816215707
 30
0.0
 10
241.1829185391562
 20
59.25002437455159
 30
0.0
 10
241.2301218313956
 20
59.2337329352139
 30
0.0
 10
241.2766476444547
 20
59.21696345712999
 30
0.0
 10
241.3224585536964
 20
59.19973464633471
 30
0.0
 10
241.3683049416855
 20
59.18249249250307
 30
0.0
 10
241.4134441772578
 20
59.16478678629856
 30
0.0
 10
241.4578377353002
 20
59.14664392960778
 30
0.0
  0
LINE
  5
2B9
330
1F
100
AcDbEntity
  8
0
  6
Continuous
 62
     7
370
    25
100
AcDbLine
 10
232.3450972213
 20
49.5827246759
 30
0.0
 11
231.705160547
 21
49.994956316
 31
0.0
  0
LINE
  5
2BA
330
1F
100
AcDbEntity
  8
0
  6
Continuous
 62
     7
370
    25
100
AcDbLine
 10
231.3992264518
 20
50.3664347028
 30
0.0
 11
231.705160547
 21
49.994956316
 31
0.0
  0
SPLINE
  5
2BB
330
1F
100
AcDbEntity
  8
0
  6
Continuous
 62
     7
370
    25
100
AcDbSpline
210
0.0
220
0.0
230
1.0
 70
     8
 71
     3
 72
    13
 73
     9
 74
     0
 42
0.000000001
 43
0.00000001
 40
0.0
 40
0.0
 40
0.0
 40
0.0
 40
0.161854229885178
 40
0.3254858841554281
 40
0.4910085196607404
 40
0.6585318472791263
 40
0.8281616954204583
 40
0.9999999999999999
 40
0.9999999999999999
 40
0.9999999999999999
 40
0.9999999999999999
 10
231.7051609586072
 20
49.9949563199178
 30
0.0
 10
231.6855835665897
 20
50.00751929695097
 30
0.0
 10
231.646213790744
 20
50.03278321306958
 30
0.0
 10
231.5846778509737
 20
50.06547690998443
 30
0.0
 10
231.5211211917243
 20
50.09442298369132
 30
0.0
 10
231.4555030890675
 20
50.11893535115692
 30
0.0
 10
231.3880758200127
 20
50.13937041451043
 30
0.0
 10
231.3421912198142
 20
50.1489670695002
 30
0.0
 10
231.3191005396392
 20
50.15379643033499
 30
0.0
  0
SPLINE
  5
2BC
330
1F
100
AcDbEntity
  8
0
  6
Continuous
 62
     7
370
    25
100
AcDbSpline
210
0.0
220
0.0
230
1.0
 70
     8
 71
     3
 72
     9
 73
     5
 74
     0
 42
0.000000001
 43
0.00000001
 40
0.0
 40
0.0
 40
0.0
 40
0.0
 40
0.4907282259506175
 40
1.0
 40
1.0
 40
1.0
 40
1.0
 10
231.3190947123473
 20
50.15376843330398
 30
0.0
 10
231.2950011898695
 20
50.16186396552211
 30
0.0
 10
231.2459037033102
 20
50.17836094244338
 30
0.0
 10
231.1952030094901
 20
50.19315461145963
 30
0.0
 10
231.1693825772027
 20
50.20068860952421
 30
0.0
  0
SPLINE
  5
2BD
330
1F
100
AcDbEntity
  8
0
  6
Continuous
 62
     7
370
    25
100
AcDbSpline
210
0.0
220
0.0
230
1.0
 70
     8
 71
     3
 72
    14
 73
    10
 74
     0
 42
0.000000001
 43
0.00000001
 40
0.0
 40
0.0
 40
0.0
 40
0.0
 40
0.0310276388071746
 40
0.0622853718672815
 40
0.1248003166904892
 40
0.2498289731753984
 40
0.499889260361071
 40
0.7606803621682141
 40
1.0
 40
1.0
 40
1.0
 40
1.0
 10
230.5854418879144
 20
50.57479635217008
 30
0.0
 10
230.5914341273189
 20
50.57096530851644
 30
0.0
 10
230.6034630432782
 20
50.56327481101874
 30
0.0
 10
230.6275228513273
 20
50.54783692151205
 30
0.0
 10
230.6697565239736
 20
50.52076646858122
 30
0.0
 10
230.7543190984858
 20
50.46655444378584
 30
0.0
 10
230.877606067956
 20
50.38755126191981
 30
0.0
 10
231.02373777441
 20
50.29394508724237
 30
0.0
 10
231.1221043909507
 20
50.23096201084991
 30
0.0
 10
231.1691760916349
 20
50.20082251206078
 30
0.0
  0
LINE
  5
2BE
330
1F
100
AcDbEntity
  8
0
  6
Continuous
 62
     7
370
    25
100
AcDbLine
 10
228.7829417327
 20
51.7374270292
 30
0.0
 11
229.0739090868
 21
51.54934849
 31
0.0
  0
SPLINE
  5
2BF
330
1F
100
AcDbEntity
  8
0
  6
Continuous
 62
     7
370
    25
100
AcDbSpline
210
0.0
220
0.0
230
1.0
 70
     8
 71
     3
 72
     8
 73
     4
 74
     0
 42
0.000000001
 43
0.00000001
 40
0.0
 40
0.0
 40
0.0
 40
0.0
 40
1.0
 40
1.0
 40
1.0
 40
1.0
 10
229.1052973902097
 20
51.52912595985891
 30
0.0
 10
229.0948548843579
 20
51.53595138475631
 30
0.0
 10
229.0843889514681
 20
51.54269435154283
 30
0.0
 10
229.0739011866515
 20
51.54935343919583
 30
0.0
  0
SPLINE
  5
2C0
330
1F
100
AcDbEntity
  8
0
  6
Continuous
 62
     7
370
    25
100
AcDbSpline
210
0.0
220
0.0
230
1.0
 70
     8
 71
     3
 72
     8
 73
     4
 74
     0
 42
0.000000001
 43
0.00000001
 40
0.0
 40
0.0
 40
0.0
 40
0.0
 40
1.0
 40
1.0
 40
1.0
 40
1.0
 10
226.3192930113859
 20
53.40738161166799
 30
0.0
 10
226.3782927755558
 20
53.36864094474902
 30
0.0
 10
226.4375803390664
 20
53.33057896744973
 30
0.0
 10
226.4971614125548
 20
53.29319517898944
 30
0.0
  0
SPLINE
  5
2C1
330
1F
100
AcDbEntity
  8
0
  6
Continuous
 62
     7
370
    25
100
AcDbSpline
210
0.0
220
0.0
230
1.0
 70
     8
 71
     3
 72
     8
 73
     4
 74
     0
 42
0.000000001
 43
0.00000001
 40
0.0
 40
0.0
 40
0.0
 40
0.0
 40
1.0
 40
1.0
 40
1.0
 40
1.0
 10
226.2944432652863
 20
53.7705917896063
 30
0.0
 10
226.3019174773769
 20
53.64963394889447
 30
0.0
 10
226.310213581267
 20
53.52856210648381
 30
0.0
 10
226.3192930113859
 20
53.40738161166799
 30
0.0
  0
LWPOLYLINE
  5
2C2
330
1F
100
AcDbEntity
  8
0
  6
Continuous
 62
     7
370
    25
100
AcDbPolyline
 90
       16
 70
   128
 43
0.0
 10
226.2944436241
 20
53.7705911242
 10
226.6683540005
 20
54.8291713346
 10
227.1163526096
 20
55.8808829364
 10
227.6335504171
 20
56.9142494824
 10
228.2143040258
 20
57.9179955485
 10
228.8522769205
 20
58.8811691625
 10
229.5405076271
 20
59.7932594793
 10
230.2714867626
 20
60.6443161663
 10
231.0372380359
 20
61.4250516783
 10
231.8294058344
 20
62.126946573
 10
232.6393465967
 20
62.742343325
 10
233.4582224908
 20
63.2645262601
 10
234.277098385
 20
63.6877973078
 10
235.0870391473
 20
64.007538255
 10
235.8792069457
 20
64.2202608322
 10
236.2584060931
 20
64.2846988156
  0
SPLINE
  5
2C3
330
1F
100
AcDbEntity
  8
0
  6
Continuous
 62
     7
370
    25
100
AcDbSpline
210
0.0
220
0.0
230
1.0
 70
     8
 71
     3
 72
    10
 73
     6
 74
     0
 42
0.000000001
 43
0.00000001
 40
0.0
 40
0.0
 40
0.0
 40
0.0
 40
0.2409818396634726
 40
0.5031433556203718
 40
1.0
 40
1.0
 40
1.0
 40
1.0
 10
232.345097221325
 20
42.87688305265247
 30
0.0
 10
232.427343092328
 20
42.82520653073193
 30
0.0
 10
232.5990633496725
 20
42.71731168404055
 30
0.0
 10
232.8767847086993
 20
42.5875889735763
 30
0.0
 10
232.9977619557434
 20
42.61036691468129
 30
0.0
 10
233.0769541966589
 20
42.62527745566002
 30
0.0
  0
LINE
  5
2C4
330
1F
100
AcDbEntity
  8
0
  6
Continuous
 62
     7
370
    25
100
AcDbLine
 10
227.5619231652
 20
52.6059557856
 30
0.0
 11
226.8000444628
 21
53.0965901933
 31
0.0
  0
LINE
  5
2C5
330
1F
100
AcDbEntity
  8
0
  6
Continuous
 62
     7
370
    25
100
AcDbLine
 10
226.8000444628
 20
53.0965901933
 30
0.0
 11
226.3192931425
 21
53.4073815694
 31
0.0
  0
LINE
  5
2C6
330
1F
100
AcDbEntity
  8
0
  6
Continuous
 62
     7
370
    25
100
AcDbLine
 10
231.3992264518
 20
42.6011032517
 30
0.0
 11
231.705160547
 21
43.2891146928
 31
0.0
  0
LINE
  5
2C7
330
1F
100
AcDbEntity
  8
0
  6
Continuous
 62
     7
370
    25
100
AcDbLine
 10
231.705160547
 20
43.2891146928
 30
0.0
 11
232.3450972213
 21
42.8768830527
 31
0.0
  0
SPLINE
  5
2C8
330
1F
100
AcDbEntity
  8
0
  6
Continuous
 62
     7
370
    25
100
AcDbSpline
210
0.0
220
0.0
230
1.0
 70
     8
 71
     3
 72
    13
 73
     9
 74
     0
 42
0.000000001
 43
0.00000001
 40
0.0
 40
0.0
 40
0.0
 40
0.0
 40
0.172258782378417
 40
0.342139827159501
 40
0.5097456258302661
 40
0.6751828993623331
 40
0.8385626190354498
 40
1.0
 40
1.0
 40
1.0
 40
1.0
 10
231.3190890278339
 20
43.57042439817111
 30
0.0
 10
231.3422405517891
 20
43.55230480723365
 30
0.0
 10
231.3882240325447
 20
43.51631573529232
 30
0.0
 10
231.455765045264
 20
43.46531575187066
 30
0.0
 10
231.5214246599523
 20
43.41699107167889
 30
0.0
 10
231.5849487312
 20
43.37156006577307
 30
0.0
 10
231.6463791099138
 20
43.32873449802018
 30
0.0
 10
231.6856452768801
 20
43.30226868084995
 30
0.0
 10
231.7051609586072
 20
43.28911490230608
 30
0.0
  0
SPLINE
  5
2C9
330
1F
100
AcDbEntity
  8
0
  6
Continuous
 62
     7
370
    25
100
AcDbSpline
210
0.0
220
0.0
230
1.0
 70
     8
 71
     3
 72
    11
 73
     7
 74
     0
 42
0.000000001
 43
0.00000001
 40
0.0
 40
0.0
 40
0.0
 40
0.0
 40
0.2392845094479873
 40
0.5001120454076898
 40
0.7515010915036774
 40
1.0
 40
1.0
 40
1.0
 40
1.0
 10
231.1697086163578
 20
43.61773839038398
 30
0.0
 10
231.1226393843533
 20
43.58942386767119
 30
0.0
 10
231.0242632297587
 20
43.53024563711499
 30
0.0
 10
230.8779660081748
 20
43.43705773665508
 30
0.0
 10
230.730125264531
 20
43.34168582068262
 30
0.0
 10
230.633838801812
 20
43.27715056541981
 30
0.0
 10
230.585973913953
 20
43.24506949536197
 30
0.0
  0
SPLINE
  5
2CA
330
1F
100
AcDbEntity
  8
0
  6
Continuous
 62
     7
370
    25
100
AcDbSpline
210
0.0
220
0.0
230
1.0
 70
     8
 71
     3
 72
     9
 73
     5
 74
     0
 42
0.000000001
 43
0.00000001
 40
0.0
 40
0.0
 40
0.0
 40
0.0
 40
0.5090669353869915
 40
1.0
 40
1.0
 40
1.0
 40
1.0
 10
231.170279619942
 20
43.61703943617221
 30
0.0
 10
231.195928194566
 20
43.60954672801233
 30
0.0
 10
231.2463116959115
 20
43.59482821530005
 30
0.0
 10
231.2951192074067
 20
43.57843585744789
 30
0.0
 10
231.3190804286013
 20
43.5703883069713
 30
0.0
  0
LINE
  5
2CB
330
1F
100
AcDbEntity
  8
0
  6
Continuous
 62
     7
370
    25
100
AcDbLine
 10
233.0001982001
 20
44.5409180034
 30
0.0
 11
231.3190822437
 21
43.5704304192
 31
0.0
  0
LINE
  5
2CC
330
1F
100
AcDbEntity
  8
0
  6
Continuous
 62
     7
370
    25
100
AcDbLine
 10
229.3125945925
 20
44.6942517179
 30
0.0
 11
229.1122989389
 21
44.1930943036
 31
0.0
  0
SPLINE
  5
2CD
330
1F
100
AcDbEntity
  8
0
  6
Continuous
 62
     7
370
    25
100
AcDbSpline
210
0.0
220
0.0
230
1.0
 70
     8
 71
     3
 72
     8
 73
     4
 74
     0
 42
0.000000001
 43
0.00000001
 40
0.0
 40
0.0
 40
0.0
 40
0.0
 40
1.0
 40
1.0
 40
1.0
 40
1.0
 10
229.3121514218018
 20
44.69503547003355
 30
0.0
 10
229.338326756371
 20
44.71720284701182
 30
0.0
 10
229.3641477963365
 20
44.73983498810343
 30
0.0
 10
229.3896053500449
 20
44.76291970819472
 30
0.0
  0
LINE
  5
2CE
330
1F
100
AcDbEntity
  8
0
  6
Continuous
 62
     7
370
    25
100
AcDbLine
 10
229.3896054458
 20
44.7629195926
 30
0.0
 11
231.169898205
 21
43.6171487074
 31
0.0
  0
LINE
  5
2CF
330
1F
100
AcDbEntity
  8
0
  6
Continuous
 62
     7
370
    25
100
AcDbLine
 10
232.9999894415
 20
44.6389679386
 30
0.0
 11
232.9119901145
 21
44.746459007
 31
0.0
  0
LINE
  5
2D0
330
1F
100
AcDbEntity
  8
0
  6
Continuous
 62
     7
370
    25
100
AcDbLine
 10
231.0835821178
 20
45.7408315099
 30
0.0
 11
229.3896054458
 21
44.7629195926
 31
0.0
  0
LINE
  5
2D1
330
1F
100
AcDbEntity
  8
0
  6
Continuous
 62
     7
370
    25
100
AcDbLine
 10
231.2262762004
 20
45.7195393482
 30
0.0
 11
231.0840022692
 21
45.7403441324
 31
0.0
  0
LINE
  5
2D2
330
1F
100
AcDbEntity
  8
0
  6
Continuous
 62
     7
370
    25
100
AcDbLine
 10
232.9120638715
 20
44.7463548405
 30
0.0
 11
231.2262762004
 21
45.7195393482
 31
0.0
  0
LINE
  5
2D3
330
1F
100
AcDbEntity
  8
0
  6
Continuous
 62
     7
370
    25
100
AcDbLine
 10
232.9999894415
 20
44.6955907576
 30
0.0
 11
232.9120171148
 21
44.7463818139
 31
0.0
  0
SPLINE
  5
2D4
330
1F
100
AcDbEntity
  8
0
  6
Continuous
 62
     7
370
    25
100
AcDbSpline
210
0.0
220
0.0
230
1.0
 70
     8
 71
     3
 72
    19
 73
    15
 74
     0
 42
0.000000001
 43
0.00000001
 40
0.0
 40
0.0
 40
0.0
 40
0.0
 40
0.0637853009127854
 40
0.1289628367668835
 40
0.1955871994312377
 40
0.2637095015417503
 40
0.3333775579368785
 40
0.404636070956767
 40
0.4775268158870349
 40
0.5520888236349092
 40
0.6283585584292241
 40
0.7063700889344752
 40
0.8377041805690577
 40
0.9999999999999999
 40
0.9999999999999999
 40
0.9999999999999999
 40
0.9999999999999999
 10
228.5280823158405
 20
44.86352355738543
 30
0.0
 10
228.5487716848456
 20
44.8501644173751
 30
0.0
 10
228.5906020075004
 20
44.8231545488342
 30
0.0
 10
228.6510929810951
 20
44.78563258330767
 30
0.0
 10
228.7105771792744
 20
44.75011284221701
 30
0.0
 10
228.768658338746
 20
44.7171327133005
 30
0.0
 10
228.8251904558333
 20
44.68692627703017
 30
0.0
 10
228.8799355105871
 20
44.65981283706864
 30
0.0
 10
228.9326578881794
 20
44.63608121931865
 30
0.0
 10
228.9830995211104
 20
44.61604096587397
 30
0.0
 10
229.0309824395758
 20
44.59992110433566
 30
0.0
 10
229.0859465939459
 20
44.58564313465406
 30
0.0
 10
229.1487779079055
 20
44.57550457739933
 30
0.0
 10
229.1872854235635
 20
44.5819788287126
 30
0.0
 10
229.2085693887606
 20
44.58555729222225
 30
0.0
  0
LINE
  5
2D5
330
1F
100
AcDbEntity
  8
0
  6
Continuous
 62
     7
370
    25
100
AcDbLine
 10
229.2332050764
 20
44.6116277465
 30
0.0
 11
229.3009179398
 21
44.6832822669
 31
0.0
  0
SPLINE
  5
2D6
330
1F
100
AcDbEntity
  8
0
  6
Continuous
 62
     7
370
    25
100
AcDbSpline
210
0.0
220
0.0
230
1.0
 70
     8
 71
     3
 72
     9
 73
     5
 74
     0
 42
0.000000001
 43
0.00000001
 40
0.0
 40
0.0
 40
0.0
 40
0.0
 40
0.5232016984460688
 40
1.0
 40
1.0
 40
1.0
 40
1.0
 10
230.9174043381549
 20
45.6448992891183
 30
0.0
 10
230.8483801755062
 20
45.6699414542348
 30
0.0
 10
230.7164536873973
 20
45.71780476429453
 30
0.0
 10
230.4750162745787
 20
45.8554028949812
 30
0.0
 10
230.3598993262152
 20
45.92100944998959
 30
0.0
  0
LINE
  5
2D7
330
1F
100
AcDbEntity
  8
0
  6
Continuous
 62
     7
370
    25
100
AcDbLine
 10
226.6303981292
 20
45.6868990126
 30
0.0
 11
227.0818692435
 21
45.7991629855
 31
0.0
  0
LINE
  5
2D8
330
1F
100
AcDbEntity
  8
0
  6
Continuous
 62
     7
370
    25
100
AcDbLine
 10
227.0818692435
 20
45.7991629855
 30
0.0
 11
228.5280817154
 21
44.8635236525
 31
0.0
  0
SPLINE
  5
2D9
330
1F
100
AcDbEntity
  8
0
  6
Continuous
 62
     7
370
    25
100
AcDbSpline
210
0.0
220
0.0
230
1.0
 70
     8
 71
     3
 72
     8
 73
     4
 74
     0
 42
0.000000001
 43
0.00000001
 40
0.0
 40
0.0
 40
0.0
 40
0.0
 40
1.0
 40
1.0
 40
1.0
 40
1.0
 10
226.8011866998572
 20
45.2921493596021
 30
0.0
 10
226.7440614309332
 20
45.42393554339774
 30
0.0
 10
226.6871329392156
 20
45.55551976505853
 30
0.0
 10
226.6303988212661
 20
45.68689883195989
 30
0.0
  0
LINE
  5
2DA
330
1F
100
AcDbEntity
  8
0
  6
Continuous
 62
     7
370
    25
100
AcDbLine
 10
228.4195707026
 20
46.5714016002
 30
0.0
 11
227.0818692435
 21
45.7991629855
 31
0.0
  0
LINE
  5
2DB
330
1F
100
AcDbEntity
  8
0
  6
Continuous
 62
     7
370
    25
100
AcDbLine
 10
229.4025991875
 20
46.4736481974
 30
0.0
 11
228.4195707026
 21
46.5714016002
 31
0.0
  0
LINE
  5
2DC
330
1F
100
AcDbEntity
  8
0
  6
Continuous
 62
     7
370
    25
100
AcDbLine
 10
230.3598993262
 20
45.92100945
 30
0.0
 11
229.4025981997
 21
46.4736476271
 31
0.0
  0
SPLINE
  5
2DD
330
1F
100
AcDbEntity
  8
0
  6
Continuous
 62
     7
370
    25
100
AcDbSpline
210
0.0
220
0.0
230
1.0
 70
     8
 71
     3
 72
     8
 73
     4
 74
     0
 42
0.000000001
 43
0.00000001
 40
0.0
 40
0.0
 40
0.0
 40
0.0
 40
1.0
 40
1.0
 40
1.0
 40
1.0
 10
226.6303988212684
 20
45.68689883195478
 30
0.0
 10
226.6272614835183
 20
45.7221151388273
 30
0.0
 10
226.6252690796203
 20
45.75775939505499
 30
0.0
 10
226.6244876822482
 20
45.79385629704986
 30
0.0
  0
LINE
  5
2DE
330
1F
100
AcDbEntity
  8
0
  6
Continuous
 62
     7
370
    25
100
AcDbLine
 10
227.4355741573
 20
46.2620860117
 30
0.0
 11
226.6244883508
 21
45.7938561422
 31
0.0
  0
SPLINE
  5
2DF
330
1F
100
AcDbEntity
  8
0
  6
Continuous
 62
     7
370
    25
100
AcDbSpline
210
0.0
220
0.0
230
1.0
 70
     8
 71
     3
 72
     8
 73
     4
 74
     0
 42
0.000000001
 43
0.00000001
 40
0.0000004089325119
 40
0.0000004089325119
 40
0.0000004089325119
 40
0.0000004089325119
 40
0.0015399868451459
 40
0.0015399868451459
 40
0.0015399868451459
 40
0.0015399868451459
 10
227.435573214737
 20
46.26208600840599
 30
0.0
 10
227.6740497827602
 20
46.35646239422234
 30
0.0
 10
227.9124967404289
 20
46.45089100615255
 30
0.0
 10
228.1509054792792
 20
46.54538438911501
 30
0.0
  0
LINE
  5
2E0
330
1F
100
AcDbEntity
  8
0
  6
Continuous
 62
     7
370
    25
100
AcDbLine
 10
228.1509049582
 20
46.5453845362
 30
0.0
 11
228.1753013981
 21
46.5503785627
 31
0.0
  0
LINE
  5
2E1
330
1F
100
AcDbEntity
  8
0
  6
Continuous
 62
     7
370
    25
100
AcDbLine
 10
228.4195707026
 20
46.5714016002
 30
0.0
 11
228.1753020566
 21
46.5503785626
 31
0.0
  0
SPLINE
  5
2E2
330
1F
100
AcDbEntity
  8
0
  6
Continuous
 62
     7
370
    25
100
AcDbSpline
210
0.0
220
0.0
230
1.0
 70
     8
 71
     3
 72
     8
 73
     4
 74
     0
 42
0.000000001
 43
0.00000001
 40
0.0
 40
0.0
 40
0.0
 40
0.0
 40
1.0
 40
1.0
 40
1.0
 40
1.0
 10
229.4025973937873
 20
46.47364838170197
 30
0.0
 10
229.4332054279105
 20
46.45870837389585
 30
0.0
 10
229.4637569288824
 20
46.44383141650248
 30
0.0
 10
229.494250866997
 20
46.42901785282156
 30
0.0
  0
LWPOLYLINE
  5
2E3
330
1F
100
AcDbEntity
  8
0
  6
Continuous
 62
     7
370
    25
100
AcDbPolyline
 90
        3
 70
   128
 43
0.0
 10
233.042370526
 20
45.962098311
 10
232.5678408462
 20
45.7641360053
 10
231.8309861766
 20
45.5380936734
  0
LWPOLYLINE
  5
2E4
330
1F
100
AcDbEntity
  8
0
  6
Continuous
 62
     7
370
    18
100
AcDbPolyline
 90
       25
 70
   128
 43
0.0
 10
267.2101352748
 20
25.660591386
 10
267.2517006285
 20
26.6157309684
 10
267.3759548062
 20
27.6087353648
 10
267.5815820361
 20
28.6290795119
 10
267.8664018773
 20
29.6659467903
 10
268.2273949032
 20
30.7083459426
 10
268.6607349701
 20
31.7452279924
 10
269.1618280717
 20
32.7656008794
 10
269.7253637049
 20
33.7586497988
 10
270.3453668956
 20
34.7138467025
 10
271.015266028
 20
35.621067024
 10
271.7279600167
 20
36.4706934752
 10
272.4758938745
 20
37.2537205079
 10
273.2511395486
 20
37.9618473679
 10
274.0454793092
 20
38.587567299
 10
274.8504928415
 20
39.1242489994
 10
275.6576467669
 20
39.5662019893
 10
276.458384987
 20
39.9087424537
 10
277.2442197276
 20
40.148238957
 10
278.0068206886
 20
40.2821525011
 10
278.738104401
 20
40.309063775
 10
279.4303186433
 20
40.2286876673
 10
280.0761262419
 20
40.0418760144
 10
280.6686809682
 20
39.7506093239
 10
280.8973500119
 20
39.5998280002
  0
LWPOLYLINE
  5
2E5
330
1F
100
AcDbEntity
  8
0
  6
Continuous
 62
     7
370
    18
100
AcDbPolyline
 90
       10
 70
   128
 43
0.0
 10
269.8247812059
 20
20.4194983492
 10
269.7253637049
 20
20.4665539048
 10
269.1618280717
 20
20.8089584314
 10
268.6607349701
 20
21.2507815381
 10
268.2273949032
 20
21.7873397962
 10
267.8664018773
 20
22.4129452726
 10
267.5815820361
 20
23.1209665621
 10
267.3759548062
 20
23.9038985631
 10
267.2517006285
 20
24.7534421394
 10
267.2101352748
 20
25.660591386
  0
LWPOLYLINE
  5
2E6
330
1F
100
AcDbEntity
  8
0
  6
Continuous
 62
     7
370
    18
100
AcDbPolyline
 90
       59
 70
   128
 43
0.0
 10
268.9058294309
 20
25.6990523893
 10
268.9466354828
 20
26.5917181153
 10
269.0685761937
 20
27.5210322506
 10
269.2702218635
 20
28.4760997775
 10
269.5492083174
 20
29.4457227215
 10
269.9022639063
 20
30.4185334199
 10
270.3252503365
 20
31.3831268387
 10
270.8132077801
 20
32.3281932688
 10
271.3604161193
 20
33.2426533025
 10
271.9604591552
 20
34.1157857757
 10
272.6063026446
 20
34.9373534265
 10
273.290373984
 20
35.6977249427
 10
274.004653254
 20
36.3879853146
 10
274.7407664025
 20
37.000040961
 10
275.4900829568
 20
37.5267179621
 10
276.2438179331
 20
37.9618399022
 10
276.9931344874
 20
38.3003053795
 10
277.7292476359
 20
38.5381478837
 10
278.4435269058
 20
38.6725768029
 10
279.1275982453
 20
38.7020172437
 10
279.7734417346
 20
38.6261246135
 10
280.3734847705
 20
38.445787083
 10
280.9206931098
 20
38.1631203498
 10
281.4086505534
 20
37.781437592
 10
281.8316369836
 20
37.3052139103
 10
282.1846925725
 20
36.7400325182
 10
282.4636790264
 20
36.0925204775
 10
282.6653246962
 20
35.3702680854
 10
282.7872654071
 20
34.5817436981
 10
282.828071459
 20
33.7361916368
 10
282.7872654071
 20
32.8435259108
 10
282.6653246962
 20
31.9142117756
 10
282.4636790264
 20
30.9591442487
 10
282.1846925725
 20
29.9895213047
 10
281.8316369836
 20
29.0167106062
 10
281.4086505534
 20
28.0521171874
 10
280.9206931098
 20
27.1070507574
 10
280.3734847705
 20
26.1925907236
 10
279.7734417346
 20
25.3194582505
 10
279.1275982453
 20
24.4978905996
 10
278.4435269058
 20
23.7375190835
 10
277.7292476359
 20
23.0472587116
 10
276.9931344874
 20
22.4352030651
 10
276.2438179331
 20
21.908526064
 10
275.4900829568
 20
21.473404124
 10
274.7407664025
 20
21.1349386466
 10
274.004653254
 20
20.8970961424
 10
273.290373984
 20
20.7626672233
 10
272.6063026446
 20
20.7332267824
 10
271.9604591552
 20
20.8091194126
 10
271.3604161193
 20
20.9894569431
 10
270.8132077801
 20
21.2721236764
 10
270.3252503365
 20
21.6538064341
 10
269.9022639063
 20
22.1300301159
 10
269.5492083174
 20
22.695211508
 10
269.2702218635
 20
23.3427235486
 10
269.0685761937
 20
24.0649759408
 10
268.9466354828
 20
24.853500328
 10
268.9058294309
 20
25.6990523893
  0
ARC
  5
2E7
330
1F
100
AcDbEntity
  8
0
  6
Continuous
 62
     7
370
    18
100
AcDbCircle
 10
279.5933026024
 20
26.8157226795
 30
0.0
 40
8.51343172446842
100
AcDbArc
 50
162.1553251045
 51
179.0642631209
  0
LWPOLYLINE
  5
2E8
330
1F
100
AcDbEntity
  8
0
  6
Continuous
 62
     7
370
    18
100
AcDbPolyline
 90
       41
 70
   128
 43
0.0
 10
274.1163549149
 20
33.8506713852
 10
274.6282569544
 20
34.3408558972
 10
275.242259364
 20
34.8363462506
 10
275.8669504449
 20
35.2442537552
 10
276.4916415258
 20
35.5575992203
 10
277.1056439355
 20
35.7710209594
 10
277.6984519544
 20
35.8808670988
 10
278.2599225568
 20
35.8852586544
 10
278.7804484836
 20
35.784120244
 10
279.2511240729
 20
35.5791826611
 10
279.6638951607
 20
35.2739515399
 10
280.0116995156
 20
34.8736505924
 10
280.2885862004
 20
34.3851283452
 10
280.4898176457
 20
33.8167439658
 10
280.6119503223
 20
33.1782223393
 10
280.6528946686
 20
32.4804888041
 10
280.6119503223
 20
31.735481933
 10
280.4898176457
 20
30.9559489195
 10
280.2885862004
 20
30.1552276589
 10
280.0116995156
 20
29.3470188502
 10
279.6638951607
 20
28.545151542
 10
279.2511240729
 20
27.763345067
 10
278.7804484836
 20
27.014977016
 10
278.2599225568
 20
26.3128521628
 10
277.6984519544
 20
25.6689835596
 10
277.1056439355
 20
25.094388129
 10
276.4916415258
 20
24.5988977756
 10
275.8669504449
 20
24.1909902709
 10
275.242259364
 20
23.8776448059
 10
274.6282569544
 20
23.6642230667
 10
274.0354489355
 20
23.5543769274
 10
273.4739783331
 20
23.5499853718
 10
272.9534524063
 20
23.6511237822
 10
272.482776817
 20
23.8560613651
 10
272.0700057292
 20
24.1612924863
 10
271.7222013742
 20
24.5615934338
 10
271.4453146895
 20
25.050115681
 10
271.2440832442
 20
25.6185000603
 10
271.1219505676
 20
26.2570216869
 10
271.0810062213
 20
26.9547552221
 10
271.0810062213
 20
26.9547552221
  0
LWPOLYLINE
  5
2E9
330
1F
100
AcDbEntity
  8
0
  6
Continuous
 62
     7
370
    18
100
AcDbPolyline
 90
       27
 70
   128
 43
0.0
 10
278.5495673889
 20
35.6411254173
 10
278.6984129357
 20
35.5877531917
 10
279.1412627146
 20
35.3488302814
 10
279.5230752958
 20
35.0109230736
 10
279.8370377071
 20
34.5800615375
 10
280.0775470517
 20
34.0639346688
 10
280.2403115952
 20
33.4717525511
 10
280.3224264977
 20
32.8140827543
 10
280.3224264977
 20
32.1026613545
 10
280.2403115952
 20
31.3501837093
 10
280.0775470517
 20
30.5700776498
 10
279.8370377071
 20
29.7762646024
 10
279.5230752958
 20
28.9829097822
 10
279.1412627146
 20
28.2041711514
 10
278.6984129357
 20
27.4539447699
 10
278.2024288224
 20
26.7456182253
 10
277.6621613776
 20
26.0918323371
 10
277.0872515282
 20
25.5042535076
 10
276.4879586568
 20
24.9933675098
 10
275.8749770632
 20
24.5682902625
 10
275.2592454907
 20
24.2366084419
 10
274.6517515999
 20
24.0042396106
 10
274.0633363197
 20
23.8753318191
 10
273.5044997308
 20
23.8521842447
 10
272.9852143372
 20
23.935210499
 10
272.514746848
 20
24.1229289012
 10
272.1562786818
 20
24.365044872
  0
LWPOLYLINE
  5
2EA
330
1F
100
AcDbEntity
  8
0
  6
Continuous
 62
     7
370
    18
100
AcDbPolyline
 90
       34
 70
   128
 43
0.0
 10
243.5168155007
 20
36.3509376783
 10
243.5576294551
 20
37.4389470236
 10
243.6797512658
 20
38.5655637143
 10
243.8822253845
 20
39.7219703679
 10
244.1634673534
 20
40.8991169593
 10
244.521275658
 20
42.0877899267
 10
244.9528501671
 20
43.2786871706
 10
245.4548138645
 20
44.4624883942
 10
246.0232372152
 20
45.6299277262
 10
246.6536717508
 20
46.7718690024
 10
247.3411843146
 20
47.8793753456
 10
248.0803926223
 20
48.9437776036
 10
248.8655130067
 20
49.9567475396
 10
249.6903999305
 20
50.910355623
 10
250.5485976819
 20
51.7971388967
 10
251.4333896007
 20
52.6101575311
 10
252.3378512563
 20
53.3430483375
 10
253.2549037889
 20
53.9900753331
 10
254.1773700924
 20
54.5461743423
 10
255.0980306669
 20
55.0069936043
 10
256.0096800887
 20
55.3689271337
 10
256.9051833987
 20
55.6291411884
 10
257.7775319544
 20
55.7855996688
 10
258.6198986251
 20
55.83707849
 10
259.4256910509
 20
55.7831742747
 10
260.1886020218
 20
55.6243091013
 10
260.9026611732
 20
55.3617261263
 10
261.5622804258
 20
54.9974800745
 10
262.1622967907
 20
54.5344224057
 10
262.6980148454
 20
53.9761771662
 10
263.1652409785
 20
53.3271132286
 10
263.5603196096
 20
52.5923100675
 10
263.880157555
 20
51.7775185935
 10
263.8947423402
 20
51.7328906009
  0
LWPOLYLINE
  5
2EB
330
1F
100
AcDbEntity
  8
0
  6
Continuous
 62
     7
370
    18
100
AcDbPolyline
 90
       16
 70
   128
 43
0.0
 10
250.815124803
 20
29.0758733949
 10
250.5485976819
 20
29.0234593545
 10
249.6903999305
 20
28.9193885954
 10
248.8655130067
 20
28.9206025089
 10
248.0803926223
 20
29.0270917439
 10
247.3411843146
 20
29.2380222566
 10
246.6536717508
 20
29.5517434899
 10
246.0232372152
 20
29.9658005446
 10
245.4548138645
 20
30.4769522454
 10
244.9528501671
 20
31.0811985203
 10
244.521275658
 20
31.7738104421
 10
244.1634673534
 20
32.5493667345
 10
243.8822253845
 20
33.4017982604
 10
243.6797512658
 20
34.3244332725
 10
243.5576294551
 20
35.3100511218
 10
243.5168155007
 20
36.3509376783
  0
LWPOLYLINE
  5
2EC
330
1F
100
AcDbEntity
  8
0
  6
Continuous
 62
     7
370
    18
100
AcDbPolyline
 90
       10
 70
   128
 43
0.0
 10
245.638136192
 20
36.3509376783
 10
245.6793044433
 20
35.3615808145
 10
245.8024476565
 20
34.4284503983
 10
246.0064831843
 20
33.5597466977
 10
246.2896184686
 20
32.7631038826
 10
246.6493648697
 20
32.045523198
 10
247.0825607154
 20
31.4133101287
 10
247.585400277
 20
30.872021734
 10
248.1534634038
 20
30.4264132229
 10
248.3456260327
 20
30.3062196212
  0
LWPOLYLINE
  5
2ED
330
1F
100
AcDbEntity
  8
0
  6
Continuous
 62
     7
370
    18
100
AcDbPolyline
 90
       27
 70
   128
 43
0.0
 10
261.6554545956
 20
53.2210134767
 10
261.5541869138
 20
53.2785356467
 10
260.8978156027
 20
53.5735526545
 10
260.1896777542
 20
53.7647479507
 10
259.4359976017
 20
53.8504424198
 10
258.6433974688
 20
53.8298825819
 10
257.8188434392
 20
53.7032487738
 10
256.9695813136
 20
53.4716539181
 10
256.1030746239
 20
53.1371335968
 10
255.2269382642
 20
52.7026275081
 10
254.3488717517
 20
52.1719546277
 10
253.4765914376
 20
51.5497771168
 10
252.6177631298
 20
50.8415637072
 10
251.7799343247
 20
50.0535384121
 10
250.9704675499
 20
49.1926260762
 10
250.1964765676
 20
48.2663919724
 10
249.464763155
 20
47.2829764078
 10
248.7817583284
 20
46.2510220101
 10
248.1534634038
 20
45.1795971163
 10
247.585400277
 20
44.0781168797
 10
247.0825607154
 20
42.9562622849
 10
246.6493648697
 20
41.8238919382
 10
246.2896184686
 20
40.6909569
 10
246.0064831843
 20
39.567413044
 10
245.8024476565
 20
38.4631349372
 10
245.6793044433
 20
37.3878263934
 10
245.638136192
 20
36.3509376783
  0
LWPOLYLINE
  5
2EE
330
1F
100
AcDbEntity
  8
0
  6
Continuous
 62
     7
370
    18
100
AcDbPolyline
 90
       29
 70
   128
 43
0.0
 10
236.5252975076
 20
39.5808521331
 10
236.5664921007
 20
40.7093077071
 10
236.689769657
 20
41.8769699888
 10
236.8942180922
 20
43.0751946917
 10
237.1783240711
 20
44.2951105881
 10
237.539983544
 20
45.5276854773
 10
237.9765188689
 20
46.7637936757
 10
238.484698568
 20
47.994284076
 10
239.0607603763
 20
49.2100466859
 10
239.7004389012
 20
50.4020791655
 10
240.3989978906
 20
51.561557548
 10
241.1512657944
 20
52.6798963124
 10
241.9516739603
 20
53.7488168217
 10
242.7942951584
 20
54.7604037836
 10
243.672891326
 20
55.7071693154
 10
244.5809576895
 20
56.5821027496
 10
245.5117713327
 20
57.3787260485
 10
246.4584409168
 20
58.0911430395
 10
247.4139573671
 20
58.7140778014
 10
248.3712464958
 20
59.2429187312
 10
249.3232209851
 20
59.6737508349
 10
250.2628324538
 20
60.0033835032
 10
251.1831245314
 20
60.2293765881
 10
252.077283752
 20
60.3500576156
 10
252.9386902615
 20
60.3645328073
 10
253.7609660563
 20
60.2726943958
 10
254.5380235511
 20
60.0752228062
 10
255.2641097009
 20
59.7735794274
 10
255.5215011633
 20
59.6344076769
  0
LWPOLYLINE
  5
2EF
330
1F
100
AcDbEntity
  8
0
  6
Continuous
 62
     7
370
    18
100
AcDbPolyline
 90
       11
 70
   128
 43
0.0
 10
239.7852798487
 20
32.3755192831
 10
239.7004389012
 20
32.425565322
 10
239.0607603763
 20
32.8790406974
 10
238.484698568
 20
33.4296965005
 10
237.9765188689
 20
34.0734551093
 10
237.539983544
 20
34.8055503497
 10
237.1783240711
 20
35.6205620996
 10
236.8942180922
 20
36.5124562149
 10
236.689769657
 20
37.4746297791
 10
236.5664921007
 20
38.4999588239
 10
236.5252975076
 20
39.5808521331
  0
LWPOLYLINE
  5
2F0
330
1F
100
AcDbEntity
  8
0
  6
Continuous
 62
     7
370
    18
100
AcDbPolyline
 90
       14
 70
   128
 43
0.0
 10
241.1493789461
 20
36.2452155053
 10
241.076092162
 20
36.634639649
 10
240.9600052532
 20
37.6088779358
 10
240.9275811558
 20
38.6393395055
 10
240.9790957999
 20
39.7172390729
 10
241.1141092779
 20
40.8333868773
 10
241.3314724294
 20
41.9782684594
 10
241.6293301348
 20
43.1421225015
 10
242.0051443633
 20
44.3150274825
 10
242.4557106375
 20
45.4869839962
 10
242.9771883258
 20
46.6480003008
 10
243.5651309356
 20
47.7881790088
 10
244.2145269433
 20
48.8978007341
 10
244.9198399651
 20
49.9674039365
  0
LWPOLYLINE
  5
2F1
330
1F
100
AcDbEntity
  8
0
  6
Continuous
 62
     7
370
    18
100
AcDbPolyline
 90
       18
 70
   128
 43
0.0
 10
241.661174713
 20
33.3152878044
 10
241.4113110729
 20
33.6831266178
 10
241.0130714282
 20
34.4236073113
 10
240.6930187973
 20
35.247074166
 10
240.4538123829
 20
36.146681816
 10
240.2974409895
 20
37.1149533935
 10
240.2252045839
 20
38.143841392
 10
240.2377031001
 20
39.2247936132
 10
240.3348324881
 20
40.3488255542
 10
240.515786031
 20
41.5065948854
 10
240.7790589544
 20
42.6884783752
 10
241.1224635735
 20
43.8846527594
 10
241.5431457565
 20
45.0851758239
 10
242.0376092905
 20
46.2800702433
 10
242.6017428821
 20
47.4594020965
 10
243.2308590117
 20
48.6133717379
 10
243.9197281772
 20
49.7323860387
 10
244.6626249927
 20
50.8071458355
  0
LINE
  5
2F2
330
1F
100
AcDbEntity
  8
0
  6
Continuous
 62
     7
370
    18
100
AcDbLine
 10
247.6545484382
 20
52.2081664029
 30
0.0
 11
247.6977081282
 21
52.253393165
 31
0.0
  0
ARC
  5
2F3
330
1F
100
AcDbEntity
  8
0
  6
Continuous
 62
     7
370
    18
100
AcDbCircle
 10
257.8217882297
 20
42.9143769703
 30
0.0
 40
14.48276781207018
100
AcDbArc
 50
110.0665409331
 51
139.2901057068
  0
LWPOLYLINE
  5
2F4
330
1F
100
AcDbEntity
  8
0
  6
Continuous
 62
     7
370
    18
100
AcDbPolyline
 90
       12
 70
   128
 43
0.0
 10
246.0068180542
 20
52.4793093528
 10
246.8749005586
 20
53.405681397
 10
247.773280391
 20
54.2551550623
 10
248.6942799101
 20
55.0204684584
 10
249.6300277804
 20
55.6950828657
 10
250.5725265345
 20
56.2732316248
 10
251.5137213294
 20
56.7499735163
 10
252.445568229
 20
57.1212344618
 10
253.3601033106
 20
57.3838413332
 10
254.249510474
 20
57.535550453
 10
255.1061883046
 20
57.5750641391
 10
255.6457815645
 20
57.5399624419
  0
LINE
  5
2F5
330
1F
100
AcDbEntity
  8
0
  6
Continuous
 62
     7
370
    18
100
AcDbLine
 10
232.0389332941
 20
49.9534597318
 30
0.0
 11
232.3450972213
 21
49.5827246759
 31
0.0
  0
LINE
  5
2F6
330
1F
100
AcDbEntity
  8
0
  6
Continuous
 62
     7
370
    18
100
AcDbLine
 10
232.0389332941
 20
42.1893495841
 30
0.0
 11
232.3450972213
 21
42.8768830527
 31
0.0
  0
LINE
  5
2F7
330
1F
100
AcDbEntity
  8
0
  6
Continuous
 62
     7
370
    18
100
AcDbLine
 10
233.0810075381
 20
43.3017150357
 30
0.0
 11
232.3451044653
 21
42.8768872345
 31
0.0
  0
LINE
  5
2F8
330
1F
100
AcDbEntity
  8
0
  6
Continuous
 62
     7
370
    18
100
AcDbLine
 10
233.0144319811
 20
44.0449410035
 30
0.0
 11
231.705160547
 21
43.2891146928
 31
0.0
  0
LINE
  5
2F9
330
1F
100
AcDbEntity
  8
0
  6
Continuous
 62
     7
370
    18
100
AcDbLine
 10
228.5280817154
 20
44.8635236525
 30
0.0
 11
228.2315944412
 21
44.3674620346
 31
0.0
  0
LINE
  5
2FA
330
1F
100
AcDbEntity
  8
0
  6
Continuous
 62
     7
370
    18
100
AcDbLine
 10
230.3598993262
 20
45.92100945
 30
0.0
 11
228.5281423015
 21
44.8635586281
 31
0.0
  0
LINE
  5
2FB
330
1F
100
AcDbEntity
  8
0
  6
Continuous
 62
     7
370
    18
100
AcDbLine
 10
230.3598993262
 20
45.92100945
 30
0.0
 11
230.4812094808
 21
45.8592589367
 31
0.0
  0
OLE2FRAME
  5
2FC
330
1F
100
AcDbEntity
  8
0
100
AcDbOle2Frame
 70
     2
  3
Paintbrush-Bild
 10
13.8511154363
 20
38.264191557
 30
0.0
 11
51.6290888628
 21
31.9806341108
 31
0.0
 71
     2
 72
     0
 73
     1
 90
    12928
310
80552BED0767C5B32B40DDAF6807D121434000000000000000006FFBDDFB85D0
310
4940DDAF6807D121434000000000000000006FFBDDFB85D04940416F4BD60AFB
310
3F4000000000000000002BED0767C5B32B40416F4BD60AFB3F40000000000000
310
0000000000000100000000010000010000000100000000000100000000320000
310
D0CF11E0A1B11AE1000000000000000000000000000000003E000300FEFF0900
310
0600000000000000000000000100000001000000000000000010000002000000
310
01000000FEFFFFFF0000000000000000FFFFFFFFFFFFFFFFFFFFFFFFFFFFFFFF
310
FFFFFFFFFFFFFFFFFFFFFFFFFFFFFFFFFFFFFFFFFFFFFFFFFFFFFFFFFFFFFFFF
310
FFFFFFFFFFFFFFFFFFFFFFFFFFFFFFFFFFFFFFFFFFFFFFFFFFFFFFFFFFFFFFFF
310
FFFFFFFFFFFFFFFFFFFFFFFFFFFFFFFFFFFFFFFFFFFFFFFFFFFFFFFFFFFFFFFF
310
FFFFFFFFFFFFFFFFFFFFFFFFFFFFFFFFFFFFFFFFFFFFFFFFFFFFFFFFFFFFFFFF
310
FFFFFFFFFFFFFFFFFFFFFFFFFFFFFFFFFFFFFFFFFFFFFFFFFFFFFFFFFFFFFFFF
310
FFFFFFFFFFFFFFFFFFFFFFFFFFFFFFFFFFFFFFFFFFFFFFFFFFFFFFFFFFFFFFFF
310
FFFFFFFFFFFFFFFFFFFFFFFFFFFFFFFFFFFFFFFFFFFFFFFFFFFFFFFFFFFFFFFF
310
FFFFFFFFFFFFFFFFFFFFFFFFFFFFFFFFFFFFFFFFFFFFFFFFFFFFFFFFFFFFFFFF
310
FFFFFFFFFFFFFFFFFFFFFFFFFFFFFFFFFFFFFFFFFFFFFFFFFFFFFFFFFFFFFFFF
310
FFFFFFFFFFFFFFFFFFFFFFFFFFFFFFFFFFFFFFFFFFFFFFFFFFFFFFFFFFFFFFFF
310
FFFFFFFFFFFFFFFFFFFFFFFFFFFFFFFFFFFFFFFFFFFFFFFFFFFFFFFFFFFFFFFF
310
FFFFFFFFFFFFFFFFFFFFFFFFFFFFFFFFFFFFFFFFFFFFFFFFFFFFFFFFFFFFFFFF
310
FFFFFFFFFFFFFFFFFFFFFFFFFFFFFFFFFFFFFFFFFFFFFFFFFFFFFFFFFFFFFFFF
310
FDFFFFFFFEFFFFFFFEFFFFFFFEFFFFFF05000000060000000700000008000000
310
090000000A0000000B0000000C0000000D0000000E0000000F00000010000000
310
11000000120000001300000014000000150000001600000017000000FEFFFFFF
310
FFFFFFFFFFFFFFFFFFFFFFFFFFFFFFFFFFFFFFFFFFFFFFFFFFFFFFFFFFFFFFFF
310
FFFFFFFFFFFFFFFFFFFFFFFFFFFFFFFFFFFFFFFFFFFFFFFFFFFFFFFFFFFFFFFF
310
FFFFFFFFFFFFFFFFFFFFFFFFFFFFFFFFFFFFFFFFFFFFFFFFFFFFFFFFFFFFFFFF
310
FFFFFFFFFFFFFFFFFFFFFFFFFFFFFFFFFFFFFFFFFFFFFFFFFFFFFFFFFFFFFFFF
310
FFFFFFFFFFFFFFFFFFFFFFFFFFFFFFFFFFFFFFFFFFFFFFFFFFFFFFFFFFFFFFFF
310
FFFFFFFFFFFFFFFFFFFFFFFFFFFFFFFFFFFFFFFFFFFFFFFFFFFFFFFFFFFFFFFF
310
FFFFFFFFFFFFFFFFFFFFFFFFFFFFFFFFFFFFFFFFFFFFFFFFFFFFFFFFFFFFFFFF
310
FFFFFFFFFFFFFFFFFFFFFFFFFFFFFFFFFFFFFFFFFFFFFFFFFFFFFFFFFFFFFFFF
310
FFFFFFFFFFFFFFFFFFFFFFFFFFFFFFFFFFFFFFFFFFFFFFFFFFFFFFFFFFFFFFFF
310
FFFFFFFFFFFFFFFFFFFFFFFFFFFFFFFFFFFFFFFFFFFFFFFFFFFFFFFFFFFFFFFF
310
FFFFFFFFFFFFFFFFFFFFFFFFFFFFFFFFFFFFFFFFFFFFFFFFFFFFFFFFFFFFFFFF
310
FFFFFFFFFFFFFFFFFFFFFFFFFFFFFFFFFFFFFFFFFFFFFFFFFFFFFFFFFFFFFFFF
310
FFFFFFFFFFFFFFFFFFFFFFFFFFFFFFFFFFFFFFFFFFFFFFFFFFFFFFFFFFFFFFFF
310
52006F006F007400200045006E00740072007900000000000000000000000000
310
0000000000000000000000000000000000000000000000000000000000000000
310
16000500FFFFFFFFFFFFFFFF020000000A00030000000000C000000000000046
310
000000000000000000000000F012EFC0F8A6D30103000000C000000000000000
310
01004F006C006500000000000000000000000000000000000000000000000000
310
0000000000000000000000000000000000000000000000000000000000000000
310
0A000200FFFFFFFFFFFFFFFFFFFFFFFF00000000000000000000000000000000
310
0000000000000000000000000000000000000000000000001400000000000000
310
010043006F006D0070004F0062006A0000000000000000000000000000000000
310
0000000000000000000000000000000000000000000000000000000000000000
310
120002010100000003000000FFFFFFFF00000000000000000000000000000000
310
0000000000000000000000000000000000000000010000004D00000000000000
310
01004F006C006500310030004E00610074006900760065000000000000000000
310
0000000000000000000000000000000000000000000000000000000000000000
310
1A000200FFFFFFFFFFFFFFFFFFFFFFFF00000000000000000000000000000000
310
0000000000000000000000000000000000000000040000002426000000000000
310
FEFFFFFF02000000FEFFFFFFFFFFFFFFFFFFFFFFFFFFFFFFFFFFFFFFFFFFFFFF
310
FFFFFFFFFFFFFFFFFFFFFFFFFFFFFFFFFFFFFFFFFFFFFFFFFFFFFFFFFFFFFFFF
310
FFFFFFFFFFFFFFFFFFFFFFFFFFFFFFFFFFFFFFFFFFFFFFFFFFFFFFFFFFFFFFFF
310
FFFFFFFFFFFFFFFFFFFFFFFFFFFFFFFFFFFFFFFFFFFFFFFFFFFFFFFFFFFFFFFF
310
FFFFFFFFFFFFFFFFFFFFFFFFFFFFFFFFFFFFFFFFFFFFFFFFFFFFFFFFFFFFFFFF
310
FFFFFFFFFFFFFFFFFFFFFFFFFFFFFFFFFFFFFFFFFFFFFFFFFFFFFFFFFFFFFFFF
310
FFFFFFFFFFFFFFFFFFFFFFFFFFFFFFFFFFFFFFFFFFFFFFFFFFFFFFFFFFFFFFFF
310
FFFFFFFFFFFFFFFFFFFFFFFFFFFFFFFFFFFFFFFFFFFFFFFFFFFFFFFFFFFFFFFF
310
FFFFFFFFFFFFFFFFFFFFFFFFFFFFFFFFFFFFFFFFFFFFFFFFFFFFFFFFFFFFFFFF
310
FFFFFFFFFFFFFFFFFFFFFFFFFFFFFFFFFFFFFFFFFFFFFFFFFFFFFFFFFFFFFFFF
310
FFFFFFFFFFFFFFFFFFFFFFFFFFFFFFFFFFFFFFFFFFFFFFFFFFFFFFFFFFFFFFFF
310
FFFFFFFFFFFFFFFFFFFFFFFFFFFFFFFFFFFFFFFFFFFFFFFFFFFFFFFFFFFFFFFF
310
FFFFFFFFFFFFFFFFFFFFFFFFFFFFFFFFFFFFFFFFFFFFFFFFFFFFFFFFFFFFFFFF
310
FFFFFFFFFFFFFFFFFFFFFFFFFFFFFFFFFFFFFFFFFFFFFFFFFFFFFFFFFFFFFFFF
310
FFFFFFFFFFFFFFFFFFFFFFFFFFFFFFFFFFFFFFFFFFFFFFFFFFFFFFFFFFFFFFFF
310
FFFFFFFFFFFFFFFFFFFFFFFFFFFFFFFFFFFFFFFFFFFFFFFFFFFFFFFFFFFFFFFF
310
0100000200000000000000000000000000000000000000000000000000000000
310
0000000000000000000000000000000000000000000000000000000000000000
310
0100FEFF030A0000FFFFFFFF0A00030000000000C00000000000004607000000
310
5042727573680007000000504272757368000700000050427275736800F439B2
310
7100000000000000000000000000000000000000000000000000000000000000
310
0000000000000000000000000000000000000000000000000000000000000000
310
0000000000000000000000000000000000000000000000000000000000000000
310
0000000000000000000000000000000000000000000000000000000000000000
310
0000000000000000000000000000000000000000000000000000000000000000
310
0000000000000000000000000000000000000000000000000000000000000000
310
0000000000000000000000000000000000000000000000000000000000000000
310
0000000000000000000000000000000000000000000000000000000000000000
310
0000000000000000000000000000000000000000000000000000000000000000
310
0000000000000000000000000000000000000000000000000000000000000000
310
0000000000000000000000000000000000000000000000000000000000000000
310
0000000000000000000000000000000000000000000000000000000000000000
310
20260000424D0E260000000000003E00000028000000B40200006E0000000100
310
01000000000000000000130B0000130B00000200000002000000000000FFFFFF
310
FFFFFFFFFFFFFFFFFFFFFFFFFFFFFFFFFFFFFFFFFFFFFFFFFFFFFFFFFFFFFFFF
310
FFFFFFFFFFFFFFFFFFFFFFFFFFFFFFFFFFFFFFFFFFFFFFFFFFFFFFFFFFFFFFFF
310
FFFFFFFFFFFFFFFFFFFFFFFFFFFFFFFFFFFFFFFFFFFFFFFFF000FFFFFFFFFFFF
310
FFFFFFFFFFFFFFFFFFFFFFFFFFFFFFFFFFFFFFFFFFFFFFFFFFFFFFFFFFFFFFFF
310
FFFFFFFFFFFFFFFFFFFFFFFFFFFFFFFFFFFFFFFFFFFFFFFFFFFFFFFFFFFFFFFF
310
FFFFFFFFFFFFFFFFFFFFFFFFFFFFFFFFF000FFFFFFFFFFFFFFFFFFFFFFFFFFFF
310
FFFFFFFFFFFFFFFFFFFFFFFFFFFFFFFFFFFFFFFFFFFFFFFFFFFFFFFFFFFFFFFF
310
FFFFFFFFFFFFFFFFFFFFFFFFFFFFFFFFFFFFFFFFFFFFFFFFFFFFFFFFFFFFFFFF
310
FFFFFFFFFFFFFFFFF000FFFFFFFFFFFFFFFFFFFFFFFFFFFFFFFFFFFFFFFFFFFF
310
FFFFFFFFFFFFFFFFFFFFFFFFFFFFFFFFFFFFFFFFFFFFFFFFFFFFFFFFFFFFFFFF
310
FFFFFFFFFFFFFFFFFFFFFFFFFFFFFFFFFFFFFFFFFFFFFFFFFFFFFFFFFFFFFFFF
310
F000FFFFFFFFFFFFFFFFFFFFFFFFFFFFFFFFFFFFFFFFFFFFFFFFFFFFFFFFFFFF
310
FFFFFFFFFFFFFFFFFFFFFFFFFFFFFFFFFFFFFFFFFFFFFFFFFFFFFFFFFFFFFFFF
310
FFFFFFFFFFFFFFFFFFFFFFFFFFFFFFFFFFFFFFFFFFFFFFFFF000FFFFFFFFFFFF
310
FFFFFFFFFFFFFFFFFFFFFFFFFFFFFFFFFFFFFFFFFFFFFFFFFFFFFFFFFFFFFFFF
310
FFFFFFFFFFFFFFFFFFFFFFFFFFFFFFFFFFFFFFFFFFFFFFFFFFFFFFFFFFFFFFFF
310
FFFFFFFFFFFFFFFFFFFFFFFFFFFFFFFFF000FFFFFFFFFFFFFFFFFFFFFFFFFFFF
310
FFFFFFFFFFFFFFFFFFFFFFFFFFFFFFFFFFFFFFFFFFFFFFFFFFFFFFFFFFFFFFFF
310
FFFFFFFFFFFFFFFFFFFFFFFFFFFFFFFFFFFFFFFFFFFFFFFFFFFFFFFFFFFFFFFF
310
FFFFFFFFFFFFFFFFF000FFFFFFFFFFFFFFFFFFFFFFFFFFFFFFFFFFFFFFFFFFFF
310
FFFFFFFFFFFFFFFFFFFFFFFFFFFFFFFFFFFFFFFFFFFFFFFFFFFFFFFFFFFFFFFF
310
FFFFFFFFFFFFFFFFFFFFFFFFFFFFFFFFFFFFFFFFFFFFFFFFFFFFFFFFFFFFFFFF
310
F000FFFFFFFFFFFFFFFFFFFFFFFFFFFFFFFFFFFFFFFFFFFFFFFFFFFFFFFFFFFF
310
FFFFFFFFFFFFFFFFFFFFFFFFFFFFFFFFFFFFFFFFFFFFFFFFFFFFFFFFFFFFFFFF
310
FFFFFFFFFFFFFFFFFFFFFFFFFFFFFFFFFFFFFFFFFFFFFFFFF000FFFFFFFFFFFF
310
FFFFFFFFFFFFFFFFFFFFFFFFFFFFFFFFFFFFFFFFFFFFFFFFFFFFFFFFFFFFFFFF
310
FFFFFFFFFFFFFFFFFFFFFFFFFFFFFFFFFFFFFFFFFFFFFFFFFFFFFFFFFFFFFFFF
310
FFFFFFFFFFFFFFFFFFFFFFFFFFFFFFFFF000FFFFFFFFFFFFFFFFFFFFFFFFFFFF
310
FFFFFFFFFFFFFFFFFFFFFFFFFFFFFFFFFFFFFFFFFFFFFFFFFFFFFFFFFFFFFFFF
310
FFFFFFFFFFFFFFFFFFFFFFFFFFFFFFFFFFFFFFFFFFFFFFFFFFFFFFFFFFFFFFFF
310
FFFFFFFFFFFFFFFFF000FFFFFFFFFFFFFFFFFFFFFFFFFFFFFFFFFFFFFFFFFFFF
310
FFFFFFFFFFFFFFFFFFFFFFFFFFFFFFFFFFFFFFFFFFFFFFFFFFFFFFFFFFFFFFFF
310
FFFFFFFFFFFFFFFFFFFFFFFFFFFFFFFFFFFFFFFFFFFFFFFFFFFFFFFFFFFFFFFF
310
F000FFFFFFFFFFFFFFFFFFFFFFFFFFFFFFFFFFFFFFFFFFFFFFFFFFFFFFFFFFFF
310
FFFFFFFFFFFFFFFFFFFFFFFFFFFFFFFFFFFFFFFFFFFFFFFFFFFFFFFFFFFFFFFF
310
FFFFFFFFFFFFFFFFFFFFFFFFFFFFFFFFFFFFFFFFFFFFFFFFF000FFFFFFFFFFFF
310
FFFFFFFFFFFFFFFFFFFFFFFFFFFFFFFFFFFFFFFFFFFFFFFFFFFFFFFFFFFFFFFF
310
FFFFFFFFFFFFFFFFFFFFFFFFFFFFFFFFFFFFFFFFFFFFFFFFFFFFFFFFFFFFFFFF
310
FFFFFFFFFFFFFFFFFFFFFFFFFFFFFFFFF000FFFFFFFFFFFFFFFFFFFFFFFFFFFF
310
FFFFFFFFFFFFFFFFFFFFFFFFFFFFFFFFFFFFFFFFFFFFFFFFFFFFFFFFFFFFFFFF
310
FFFFFFFFFFFFFFFFFFFFFFFFFFFFFFFFFFFFFFFFFFFFFFFFFFFFFFFFFFFFFFFF
310
FFFFFFFFFFFFFFFFF000FFFFFFFFFFFFFFFFFFFFFFFFFFFFFFFFFFFFFFFFFFFF
310
FFFFFFFFFFFFFFFFFFFFFFFFFFFFFFFFFFFFFFFFFFFFFFFFFFFFFFFFFFFFFFFF
310
FFFFFFFFFFFFFFFFFFFFFFFFFFFFFFFFFFFFFFFFFFFFFFFFFFFFFFFFFFFFFFFF
310
F000FFFFFFFFFFFFFFFFFFFFFFFFFFFFFFFFFFFFFFFFFFFFFFFFFFFFFFFFFFFF
310
FFFFFFFFFFFFFFFFFFFFFFFFFFFFFFFFFFFFFFFFFFFFFFFFFFFFFFFFFFFFFFFF
310
FFFFFFFFFFFFFFFFFFFFFFFFFFFFFFFFFFFFFFFFFFFFFFFFF000FFFFFFFFFFFF
310
FFFFFFFFFFFFFFFFFFFFFFFFFFFFFFFFFFFFFFFFFFFFFFFFFFFFFFFFFFFFFFFF
310
FFFFFFFFFFFFFFFFFFFFFFFFFFFFFFFFFFFFFFFFFFFFFFFFFFFFFFFFFFFFFFFF
310
FFFFFFFFFFFFFFFFFFFFFFFFFFFFFFFFF000FFFFFFFFFFFFFFFFFFFFFFFFFFFF
310
FFFFFFFFFFFFFFFFFFFFFFFFFFFFFFFFFFFFFFFFFFFFFFFFFFFFFFFFFFFFFFFF
310
FFFFFFFFFFFFFFFFFFFFFFFFFFFFFFFFFFFFFFFFFFFFFFFFFFFFFFFFFFFFFFFF
310
FFFFFFFFFFFFFFFFF000FFFFF80003FFFFFFFFFFFFFFFFFFFFFFFFFFFFFFFFFF
310
FFFFF00007FFFFFFFFFF00007FFFFFF800000000000000007FFFFFFFFFFFFFFF
310
FFFFFFFC001FFFFFFFFFFFFFFC001FFFFFFFFFFFFFFFFFFFFFFFFFFE0007FFFF
310
F000FFFF8000007FFFFFFFF8000FFFFFC0007FFFFF80007FFFFF0000007FFFFF
310
FFF8000007FFFFF800000000000000007FFFFFF0001FFFFFFFFFFFC00001FFFF
310
FFFFFFFFC00001FFFFFFFF000000000003FFFFE000007FFFF000FFFE0000000F
310
FFFFFFF0000FFFFF80007FFFFF80007FFFFC0000001FFFFFFFC0000001FFFFF8
310
00000000000000007FFFFFF0001FFFFFFFFFFE0000003FFFFFFFFFFE0000003F
310
FFFFFF000000000003FFFF0000000FFFF000FFF800000003FFFFFFF00007FFFF
310
80007FFFFF80007FFFF000000007FFFFFF000000003FFFF80000000000000000
310
7FFFFFF0001FFFFFFFFFF80000000FFFFFFFFFF80000000FFFFFFF0000000000
310
03FFFC00000003FFF000FFE000000000FFFFFFF00007FFFF80003FFFFF80007F
310
FFC000000001FFFFFC000000001FFFF800000000000000007FFFFFF0001FFFFF
310
FFFFE000000003FFFFFFFFE000000003FFFFFF000000000003FFF000000000FF
310
F000FF80000000007FFFFFF00007FFFF80003FFFFF80007FFF8000000000FFFF
310
F80000000007FFF800000000000000007FFFFFF0001FFFFFFFFFC000000001FF
310
FFFFFFC000000001FFFFFF000000000003FFC0000000007FF000FF0000000000
310
3FFFFFE00007FFFF00003FFFFF80007FFE00000000003FFFF00000000003FFF8
310
00000000000000007FFFFFF0001FFFFFFFFF8000000000FFFFFFFF8000000000
310
FFFFFF000000000003FF80000000003FF000FE00000000001FFFFFE00003FFFF
310
00003FFFFF80007FFC00000000001FFFE00000000001FFF8000001FFFE000000
310
7FFFFFF0001FFFFFFFFE00000000003FFFFFFE00000000003FFFFF0000000000
310
03FF00000000001FF000FC00000000000FFFFFE00003FFFF00001FFFFF80007F
310
F800000000001FFFC00000000000FFF8000001FFFE0000007FFFFFF0001FFFFF
310
FFFC00000000001FFFFFFC00000000001FFFFF000000000003FE00000000000F
310
F000F8000000000007FFFFE00003FFFF00001FFFFF80007FF800000000000FFF
310
800000000000FFF8000001FFFE0000007FFFFFF0001FFFFFFFF800000000000F
310
FFFFF800000000000FFFFF000000000003FC000000000007F000F80000000000
310
03FFFFC00003FFFE00001FFFFF80007FF0000000000007FF0000000000007FF8
310
000001FFFE0000007FFFFFF0001FFFFFFFF0000000000007FFFFF00000000000
310
07FFFF000000000003F8000000000003F000F0000000000003FFFFC00001FFFE
310
00001FFFFF80007FE0000000000007FE0000000000003FF8000001FFFE000000
310
7FFFFFF0001FFFFFFFF0000000000007FFFFF0000000000007FFFF0000000000
310
03F800001F800003F000E00001FFF00001FFFFC00001FFFE00000FFFFF80007F
310
E00001FFE00003FE00001FFF00003FF8000001FFFE0000007FFFFFF0001FFFFF
310
FFE000003E000003FFFFE000003E000003FFFF000000000003F00001FFF80001
310
F000E00007FFFC0001FFFFC00001FFFE00000FFFFF80007FC0000FFFFC0003FC
310
0000FFFFC0001FF8000001FFFE0000007FFFFFF0001FFFFFFFC00003FFE00001
310
FFFFC00003FFE00001FFFF0001FFFFFFFFF00007FFFE0001F000E0000FFFFF00
310
00FFFF800001FFFC00000FFFFF80007FC0001FFFFE0001FC0001FFFFE0001FF8
310
000001FFFE0000007FFFFFF0001FFFFFFF80000FFFF80000FFFF80000FFFF800
310
00FFFF0003FFFFFFFFE0000FFFFF8000F000C0003FFFFF8000FFFF800000FFFC
310
000007FFFF80007F80003FFFFF0001FC0003FFFFF0001FF8000001FFFE000000
310
7FFFFFF0001FFFFFFF80003FFFFE0000FFFF80003FFFFE0000FFFF0003FFFFFF
310
FFE0003FFFFF8000F000C0003FFFFF8000FFFF800000FFFC000007FFFF80007F
310
80007FFFFF8001F80007FFFFF8000FF8000001FFFE0000007FFFFFF0001FFFFF
310
FF00007FFFFF00007FFF00007FFFFF00007FFF0003FFFFFFFFE0003FFFFFC000
310
F000C0007FFFFFC000FFFF000000FFFC000007FFFF80007F8000FFFFFF8000F8
310
000FFFFFF8000FF8000001FFFE0000007FFFFFF0001FFFFFFF0000FFFFFF8000
310
7FFF0000FFFFFF80007FFF0003FFFFFFFFC0007FFFFFC00070008000FFFFFFC0
310
00FFFF000000FFF8000007FFFF80007F8000FFFFFF8000F8000FFFFFF8000FF8
310
000001FFFE0000007FFFFFF0001FFFFFFE0001FFFFFFC0003FFE0001FFFFFFC0
310
003FFF0003FFFFFFFFC0007FFFFFE00070008000FFFFFFC0007FFF0000007FF8
310
000003FFFF80007F0001FFFFFF8000F8000FFFFFF8000FF8000001FFFE000000
310
7FFFFFF0001FFFFFFE0001FFFFFFC0003FFE0001FFFFFFC0003FFF0003FFFFFF
310
FFC000FFFFFFE00070008000FFFFFFC0007FFF0000007FF8000003FFFF80007F
310
0001FFFFFF8000F8001FFFFFF8000FF8000001FFFE0000007FFFFFF0001FFFFF
310
FE0003FFFFFFE0003FFE0003FFFFFFE0003FFF0003FFFFFFFFC000FFFFFFE000
310
70008000FFFFFFC0007FFE0000007FF8000003FFFF80007F0001FFFFFF8000F0
310
001FFFFFF8000FF8000001FFFE0000007FFFFFF0001FFFFFFC0003FFFFFFE000
310
1FFC0003FFFFFFE0001FFF0003FFFFFFFFC000FFFFFFC00070008000FFFFFF80
310
007FFE0000007FF0000003FFFF80007F0001FFFFFF0000F0001FFFFFF8000FF8
310
000001FFFE0000007FFFFFF0001FFFFFFC0007FFFFFFF0001FFC0007FFFFFFF0
310
001FFF0003FFFFFFFFC000FFFFFFC00070008001FFFFFF0000FFFE0000003FF0
310
000001FFFF80007F0001FFFFFF0000F8001FFFFFF0000FF8000001FFFE000000
310
7FFFFFF0001FFFFFFC0007FFFFFFF0001FFC0007FFFFFFF0001FFF0003FFFFFF
310
FFC001FFFFFF80007000FFFFFFFFFE0000FFFE0008003FF0008001FFFF80007F
310
FFFFFFFFFC0000FFFFFFFFFFE0000FF8000001FFFE0000007FFFFFF0001FFFFF
310
F8000FFFFFFFF8000FF8000FFFFFFFF8000FFF0003FFFFFFFFFFFFFFFFFF0000
310
7000FFFFFFFFFC0000FFFC0008003FF0008001FFFF80007FFFFFFFFFF80001FF
310
FFFFFFFF80000FF8000001FFFE0000007FFFFFF0001FFFFFF8000FFFFFFFF800
310
0FF8000FFFFFFFF8000FFF0003FFFFFFFFFFFFFFFFFE0000F000FFFFFFFFE000
310
00FFFC000C003FE000C001FFFF80007FFFFFFFFFC00001FFFFFFFFFE00001FF8
310
000001FFFE0000007FFFFFF0001FFFFFF8000FFFFFFFF8000FF8000FFFFFFFF8
310
000FFF0003FFFFFFFFFFFFFFFFF00000F000FFFFFFFE000001FFFC000C001FE0
310
00C000FFFF80007FFFFFFFFE000001FFFFFFFFE000001FF80FFFFFFFFFFFFFC0
310
7FFFFFF0001FFFFFF8000FFFFFFFF8000FF8000FFFFFFFF8000FFF0003FFFFFF
310
FFFFFFFFFF800000F000FFFFFFC0000001FFFC001C001FE001C000FFFF80007F
310
FFFFFF80000003FFFFFFF80000001FF80FFFFFFFFFFFFFC07FFFFFF0001FFFFF
310
F8001FFFFFFFFC000FF8001FFFFFFFFC000FFF0003FFFFFFFFFFFFFFF0000001
310
F000FFFFF800000001FFF8001C001FE001C000FFFF80007FFFFFF800000003FF
310
FFFF800000003FF80FFFFFFFFFFFFFC07FFFFFF0001FFFFFF8001FFFFFFFFC00
310
0FF8001FFFFFFFFC000FFF0003FFFFFFFFFFFFFE00000001F000FFFFC0000000
310
03FFF8001E001FC001E000FFFF80007FFFFF8000000007FFFFFC000000003FF8
310
0FFFFFFFFFFFFFC07FFFFFF0001FFFFFF8001FFFFFFFFC000FF8001FFFFFFFFC
310
000FFF0003FFFFFFFFFFFFE000000003F000FFFE0000000007FFF8001E000FC0
310
01E0007FFF80007FFFFE0000000007FFFFE0000000007FF80FFFFFFFFFFFFFC0
310
7FFFFFF0001FFFFFF0001FFFFFFFFC0007F0001FFFFFFFFC0007FF0003FFFFFF
310
FFFFFF0000000003F000FFF80000000007FFF8001E000FC003E0007FFF80007F
310
FFF0000000000FFFFF8000000000FFF80FFFFFFFFFFFFFC07FFFFFF0001FFFFF
310
F0001FFFFFFFFC0007F0001FFFFFFFFC0007FF0003FFFFFFFFFFFC0000000007
310
F000FFE0000000000FFFF0003E000FC003E0007FFF80007FFFC0000000001FFF
310
FE0000000001FFF80FFFFFFFFFFFFFC07FFFFFF0001FFFFFF0001FFFFFFFFC00
310
07F0001FFFFFFFFC0007FF0003FFFFFFFFFFF0000000000FF000FFC000000000
310
1FFFF0003F000F8003F0003FFF80007FFF80000000003FFFF80000000003FFF8
310
0FFFFFFFFFFFFFC07FFFFFF0001FFFFFF0001FFFFFFFFC0007F0001FFFFFFFFC
310
0007FF0003FFFFFFFFFFE0000000001FF000FF00000000007FFFF0003F000780
310
03F0003FFF80007FFF00000000007FFFF00000000007FFF80FFFFFFFFFFFFFC0
310
7FFFFFF0001FFFFFF0001FFFFFFFFC0007F0001FFFFFFFFC0007FF0003FFFFFF
310
FFFF80000000007FF000FE0000000000FFFFE0003F00078007F0003FFF80007F
310
FE0000000001FFFFE0000000001FFFF80FFFFFFFFFFFFFC07FFFFFF0001FFFFF
310
F0001FFFFFFFFC0007F0001FFFFFFFFC0007FF0003FFFFFFFFFF0000000000FF
310
F000FC0000000003FFFFE0007F00078007F0003FFF80007FFC0000000007FFFF
310
C0000000007FFFF80FFFFFFFFFFFFFC07FFFFFF0001FFFFFF8001FFFFFFFFC00
310
0FF8001FFFFFFFFC000FFF0003FFFFFFFFFE0000000003FFF000FC000000000F
310
FFFFE0007F80070007F8001FFF80007FF8000000001FFFFF8000000001FFFFF8
310
0FFFFFFFFFFFFFC07FFFFFF0001FFFFFF8001FFFFFFFFC000FF8001FFFFFFFFC
310
000FFF0003FFFFFFFFFC000000000FFFF000F8000000007FFFFFE0007F800700
310
07F8001FFF80007FF000000000FFFFFF800000000FFFFFF80FFFFFFFFFFFFFC0
310
7FFFFFF0001FFFFFF8000FFFFFFFF8000FF8000FFFFFFFF8000FFF0003FFFFFF
310
FFFC000000007FFFF000F800000007FFFFFFC0007F8003000FF8001FFF80007F
310
F000000007FFFFFF000000007FFFFFF80FFFFFFFFFFFFFC07FFFFFF0001FFFFF
310
F8000FFFFFFFF8000FF8000FFFFFFFF8000FFF0003FFFFFFFFF80000000FFFFF
310
F000F0000000FFFFFFFFC000FF8003000FF8001FFF80007FE0000000FFFFFFFF
310
0000000FFFFFFFF8000001FFFE0000007FFFFFF0001FFFFFF8000FFFFFFFF800
310
0FF8000FFFFFFFF8000FFF0003FFFFFFFFF8000000FFFFFFF000F000000FFFFF
310
FFFFC000FFC002000FF8000FFF80007FE000001FFFFFFFFE000001FFFFFFFFF8
310
000001FFFE0000007FFFFFF0001FFFFFF8000FFFFFFFF8000FF8000FFFFFFFF8
310
000FFF0003FFFFFFFFF000001FFFFFFFF000E00000FFFFFFFFFFC000FFC00200
310
0FFC000FFF80007FE00001FFFFFFFFFE00001FFFFFFFFFF8000001FFFE000000
310
7FFFFFF0001FFFFFFC000FFFFFFFF8001FFC000FFFFFFFF8001FFF0003FFFFFF
310
FFF00001FFFFFFFFF000E00007FFFFFFFFFF8000FFC000001FFC000FFF80007F
310
C0000FFFFFFFFFFE0000FFFFFFFFFFF8000001FFFE0000007FFFFFF0001FFFFF
310
FC0007FFFFFFF0001FFC0007FFFFFFF0001FFF0003FFFFFFFFF00007FFFFFFFF
310
F000E0001FFFFFFFFFFF8000FFC000001FFC000FFF80007FC0003FFFFFFFFFFE
310
0001FFFFFFFFFFF8000001FFFE0000007FFFFFF0001FFFFFFC0007FFFFFFF000
310
1FFC0007FFFFFFF0001FFF0003FFFFFFFFF0001FFFFFFFFFF000E0003FFFFF00
310
03FF8001FFE000001FFC0007FF80007FC0007FFFFF0007FC0003FFFFF0003FF8
310
000001FFFE0000007FFFFFF0001FFFFFFC0003FFFFFFE0001FFC0003FFFFFFE0
310
001FFF0003FFFFFFFFF0003FFFFFFFFFF000E0003FFFFF0001FF8001FFE00000
310
1FFE0007FF80007FC0007FFFFE0003FC0007FFFFE0003FF8000001FFFE000000
310
7FFFFFF0001FFFFFFE0003FFFFFFE0003FFE0003FFFFFFE0003FFF0003FFFFFF
310
FFF0003FFFFF8001F000E0003FFFFF0001FF0001FFE000001FFE0007FF80007F
310
C0007FFFFE0003FC0007FFFFE0003FF8000001FFFE0000007FFFFFF0001FFFFF
310
FE0001FFFFFFC0003FFE0001FFFFFFC0003FFF0003FFFFFFFFF0003FFFFF0001
310
F000E0003FFFFF0003FF0001FFE000003FFE0007FF80007FC0007FFFFE0003FC
310
0007FFFFE0003FF8000001FFFE0000007FFFFFF0001FFFFFFF0001FFFFFFC000
310
7FFF0001FFFFFFC0007FFF0003FFFFFFFFF0003FFFFF0001F000E0003FFFFE00
310
03FF0003FFF000003FFE0003FF80007FC0007FFFFC0003FE0007FFFFE0003FF8
310
000001FFFE0000007FFFFFF0001FFFFFFF0000FFFFFF80007FFF0000FFFFFF80
310
007FFF0003FFFFFFFFF0003FFFFF0001F000E0003FFFFE0003FF0003FFF00000
310
3FFF0003FF80007FC0007FFFFC0007FE0007FFFFC0003FF8000001FFFE000000
310
7FFFFFF0001FFFFFFF80007FFFFF0000FFFF80007FFFFF0000FFFF0003FFFFFF
310
FFF0003FFFFF0003F000E0003FFFFC0003FE0003FFF000003FFF0003FF80007F
310
E0003FFFF80007FE0003FFFFC0007FF8000001FFFE0000007FFFFFF0001FFFFF
310
FF80003FFFFE0000FFFF80003FFFFE0000FFFF0003FFFFFFFFF0001FFFFE0003
310
F000F0001FFFF80003FE0003FFF000007FFF0001FF80007FE0003FFFF00007FE
310
0001FFFF80007FF8000001FFFE0000007FFFFFF0001FFFFFFFC0000FFFF80001
310
FFFFC0000FFFF80001FFFF0003FFFFFFFFF0001FFFFC0003F000F0000FFFF000
310
07FE0007FFF800007FFF0001FF80007FE0001FFFE00007FF0000FFFE00007FF8
310
000001FFFE0000007FFFFFF0001FFFFFFFC00003FFE00001FFFFC00003FFE000
310
01FFFF0003FFFFFFFFF8000FFFF80003F000F00003FFC00007FC0007FFF80000
310
7FFF8001FF80007FF00007FF80000FFF00007FF80000FFF8000001FFFE000000
310
7F80000000000001FFE000003E000003FFFFE000003E000003FFFF0003FFFFFF
310
FFF80003FFE00007F000F800000000000FFC0007FFF800007FFF8001FF80007F
310
F000000000000FFF000000000000FFF8000001FFFE0000007F80000000000001
310
FFF0000000000007FFFFF0000000000007FFFF0003FFFFFFFFFC00007E000007
310
F000F800000000000FFC0007FFF80000FFFF8000FF80007FF800000000001FFF
310
800000000001FFF8000001FFFE0000007F80000000000001FFF800000000000F
310
FFFFF800000000000FFFFF0003FFFFFFFFFC00000000000FF000FC0000000000
310
1FFC0007FFFC0000FFFF8000FF80007FF800000000003FFFC00000000001FFF8
310
000001FFFE0000007F80000000000001FFF800000000000FFFFFF80000000000
310
0FFFFF0003FFFFFFFFFE00000000001FF000FE00000000003FF8000FFFFC0000
310
FFFF8000FF80007FFC00000000003FFFC00000000003FFF8000001FFFE000000
310
7F80000000000001FFFC00000000001FFFFFFC00000000001FFFFF0003FFFFFF
310
FFFF00000000001FF000FF00000000003FF8000FFFFC0000FFFFC000FF80007F
310
FE00000000007FFFE00000000007FFF8000001FFFE0000007F80000000000001
310
FFFE00000000003FFFFFFE00000000003FFFFF0003FFFFFFFFFF80000000003F
310
F000FF80000000007FF8000FFFFC0001FFFFC0007F80007FFF0000000000FFFF
310
F0000000000FFFF800000000000000007F80000000000001FFFF8000000000FF
310
FFFFFF8000000000FFFFFF0003FFFFFFFFFFC0000000007FF000FFC000000000
310
FFF8000FFFFE0001FFFFC0007F80007FFF8000000001FFFFF8000000001FFFF8
310
00000000000000007F80000000000001FFFFC000000001FFFFFFFFC000000001
310
FFFFFF0003FFFFFFFFFFE000000000FFF000FFE000000003FFF0001FFFFE0001
310
FFFFC0007F80007FFFC000000007FFFFFE000000003FFFF80000000000000000
310
7F80000000000001FFFFE000000003FFFFFFFFE000000003FFFFFF0003FFFFFF
310
FFFFF000000003FFF000FFF80000000FFFF0001FFFFE0001FFFFE0007F80007F
310
FFF00000000FFFFFFF00000000FFFFF800000000000000007F80000000000001
310
FFFFF80000000FFFFFFFFFF80000000FFFFFFF0003FFFFFFFFFFFC0000000FFF
310
F000FFFE0000003FFFF0001FFFFE0003FFFFE0003F80007FFFFC0000003FFFFF
310
FFC0000003FFFFF800000000000000007F80000000000001FFFFFE0000003FFF
310
FFFFFFFE0000003FFFFFFF0003FFFFFFFFFFFF0000003FFFF000FFFF800000FF
310
FFF0001FFFFF0003FFFFE0003F80007FFFFF000001FFFFFFFFF800001FFFFFF8
310
00000000000000007F80000000000001FFFFFFC00001FFFFFFFFFFFFC00001FF
310
FFFFFF0003FFFFFFFFFFFFC00000FFFFF000FFFFF8000FFFFFFFFFFFFFFFFFFF
310
FFFFFFFFFFFFFFFFFFFFF0001FFFFFFFFFFF0000FFFFFFF80000000000000000
310
7FFFFFFFFFFFFFFFFFFFFFFC001FFFFFFFFFFFFFFC001FFFFFFFFFFFFFFFFFFF
310
FFFFFFFC001FFFFFF000FFFFFFFFFFFFFFFFFFFFFFFFFFFFFFFFFFFFFFFFFFFF
310
FFFFFFFFFFFFFFFFFFFFFFFFFFFFFFFFFFFFFFFFFFFFFFFFFFFFFFFFFFFFFFFF
310
FFFFFFFFFFFFFFFFFFFFFFFFFFFFFFFFFFFFFFFFFFFFFFFFFFFFFFFFFFFFFFFF
310
F000FFFFFFFFFFFFFFFFFFFFFFFFFFFFFFFFFFFFFFFFFFFFFFFFFFFFFFFFFFFF
310
FFFFFFFFFFFFFFFFFFFFFFFFFFFFFFFFFFFFFFFFFFFFFFFFFFFFFFFFFFFFFFFF
310
FFFFFFFFFFFFFFFFFFFFFFFFFFFFFFFFFFFFFFFFFFFFFFFFF000FFFFFFFFFFFF
310
FFFFFFFFFFFFFFFFFFFFFFFFFFFFFFFFFFFFFFFFFFFFFFFFFFFFFFFFFFFFFFFF
310
FFFFFFFFFFFFFFFFFFFFFFFFFFFFFFFFFFFFFFFFFFFFFFFFFFFFFFFFFFFFFFFF
310
FFFFFFFFFFFFFFFFFFFFFFFFFFFFFFFFF000FFFFFFFFFFFFFFFFFFFFFFFFFFFF
310
FFFFFFFFFFFFFFFFFFFFFFFFFFFFFFFFFFFFFFFFFFFFFFFFFFFFFFFFFFFFFFFF
310
FFFFFFFFFFFFFFFFFFFFFFFFFFFFFFFFFFFFFFFFFFFFFFFFFFFFFFFFFFFFFFFF
310
FFFFFFFFFFFFFFFFF000FFFFFFFFFFFFFFFFFFFFFFFFFFFFFFFFFFFFFFFFFFFF
310
FFFFFFFFFFFFFFFFFFFFFFFFFFFFFFFFFFFFFFFFFFFFFFFFFFFFFFFFFFFFFFFF
310
FFFFFFFFFFFFFFFFFFFFFFFFFFFFFFFFFFFFFFFFFFFFFFFFFFFFFFFFFFFFFFFF
310
F000FFFFFFFFFFFFFFFFFFFFFFFFFFFFFFFFFFFFFFFFFFFFFFFFFFFFFFFFFFFF
310
FFFFFFFFFFFFFFFFFFFFFFFFFFFFFFFFFFFFFFFFFFFFFFFFFFFFFFFFFFFFFFFF
310
FFFFFFFFFFFFFFFFFFFFFFFFFFFFFFFFFFFFFFFFFFFFFFFFF000FFFFFFFFFFFF
310
FFFFFFFFFFFFFFFFFFFFFFFFFFFFFFFFFFFFFFFFFFFFFFFFFFFFFFFFFFFFFFFF
310
FFFFFFFFFFFFFFFFFFFFFFFFFFFFFFFFFFFFFFFFFFFFFFFFFFFFFFFFFFFFFFFF
310
FFFFFFFFFFFFFFFFFFFFFFFFFFFFFFFFF000FFFFFFFFFFFFFFFFFFFFFFFFFFFF
310
FFFFFFFFFFFFFFFFFFFFFFFFFFFFFFFFFFFFFFFFFFFFFFFFFFFFFFFFFFFFFFFF
310
FFFFFFFFFFFFFFFFFFFFFFFFFFFFFFFFFFFFFFFFFFFFFFFFFFFFFFFFFFFFFFFF
310
FFFFFFFFFFFFFFFFF000FFFFFFFFFFFFFFFFFFFFFFFFFFFFFFFFFFFFFFFFFFFF
310
FFFFFFFFFFFFFFFFFFFFFFFFFFFFFFFFFFFFFFFFFFFFFFFFFFFFFFFFFFFFFFFF
310
FFFFFFFFFFFFFFFFFFFFFFFFFFFFFFFFFFFFFFFFFFFFFFFFFFFFFFFFFFFFFFFF
310
F000FFFFFFFFFFFFFFFFFFFFFFFFFFFFFFFFFFFFFFFFFFFFFFFFFFFFFFFFFFFF
310
FFFFFFFFFFFFFFFFFFFFFFFFFFFFFFFFFFFFFFFFFFFFFFFFFFFFFFFFFFFFFFFF
310
FFFFFFFFFFFFFFFFFFFFFFFFFFFFFFFFFFFFFFFFFFFFFFFFF000FFFFFFFFFFFF
310
FFFFFFFFFFFFFFFFFFFFFFFFFFFFFFFFFFFFFFFFFFFFFFFFFFFFFFFFFFFFFFFF
310
FFFFFFFFFFFFFFFFFFFFFFFFFFFFFFFFFFFFFFFFFFFFFFFFFFFFFFFFFFFFFFFF
310
FFFFFFFFFFFFFFFFFFFFFFFFFFFFFFFFF000FFFFFFFFFFFFFFFFFFFFFFFFFFFF
310
FFFFFFFFFFFFFFFFFFFFFFFFFFFFFFFFFFFFFFFFFFFFFFFFFFFFFFFFFFFFFFFF
310
FFFFFFFFFFFFFFFFFFFFFFFFFFFFFFFFFFFFFFFFFFFFFFFFFFFFFFFFFFFFFFFF
310
FFFFFFFFFFFFFFFFF000FFFFFFFFFFFFFFFFFFFFFFFFFFFFFFFFFFFFFFFFFFFF
310
FFFFFFFFFFFFFFFFFFFFFFFFFFFFFFFFFFFFFFFFFFFFFFFFFFFFFFFFFFFFFFFF
310
FFFFFFFFFFFFFFFFFFFFFFFFFFFFFFFFFFFFFFFFFFFFFFFFFFFFFFFFFFFFFFFF
310
F000FFFFFFFFFFFFFFFFFFFFFFFFFFFFFFFFFFFFFFFFFFFFFFFFFFFFFFFFFFFF
310
FFFFFFFFFFFFFFFFFFFFFFFFFFFFFFFFFFFFFFFFFFFFFFFFFFFFFFFFFFFFFFFF
310
FFFFFFFFFFFFFFFFFFFFFFFFFFFFFFFFFFFFFFFFFFFFFFFFF000FFFFFFFFFFFF
310
FFFFFFFFFFFFFFFFFFFFFFFFFFFFFFFFFFFFFFFFFFFFFFFFFFFFFFFFFFFFFFFF
310
FFFFFFFFFFFFFFFFFFFFFFFFFFFFFFFFFFFFFFFFFFFFFFFFFFFFFFFFFFFFFFFF
310
FFFFFFFFFFFFFFFFFFFFFFFFFFFFFFFFF000FFFFFFFFFFFFFFFFFFFFFFFFFFFF
310
FFFFFFFFFFFFFFFFFFFFFFFFFFFFFFFFFFFFFFFFFFFFFFFFFFFFFFFFFFFFFFFF
310
FFFFFFFFFFFFFFFFFFFFFFFFFFFFFFFFFFFFFFFFFFFFFFFFFFFFFFFFFFFFFFFF
310
FFFFFFFFFFFFFFFFF000FFFFFFFFFFFFFFFFFFFFFFFFFFFFFFFFFFFFFFFFFFFF
310
FFFFFFFFFFFFFFFFFFFFFFFFFFFFFFFFFFFFFFFFFFFFFFFFFFFFFFFFFFFFFFFF
310
FFFFFFFFFFFFFFFFFFFFFFFFFFFFFFFFFFFFFFFFFFFFFFFFFFFFFFFFFFFFFFFF
310
F000FFFFFFFFFFFFFFFFFFFFFFFFFFFFFFFFFFFFFFFFFFFFFFFFFFFFFFFFFFFF
310
FFFFFFFFFFFFFFFFFFFFFFFFFFFFFFFFFFFFFFFFFFFFFFFFFFFFFFFFFFFFFFFF
310
FFFFFFFFFFFFFFFFFFFFFFFFFFFFFFFFFFFFFFFFFFFFFFFFF000FFFFFFFFFFFF
310
FFFFFFFFFFFFFFFFFFFFFFFFFFFFFFFFFFFFFFFFFFFFFFFFFFFFFFFFFFFFFFFF
310
FFFFFFFFFFFFFFFFFFFFFFFFFFFFFFFFFFFFFFFFFFFFFFFFFFFFFFFFFFFFFFFF
310
FFFFFFFFFFFFFFFFFFFFFFFFFFFFFFFFF000FFFFFFFFFFFFFFFFFFFFFFFFFFFF
310
FFFFFFFFFFFFFFFFFFFFFFFFFFFFFFFFFFFFFFFFFFFFFFFFFFFFFFFFFFFFFFFF
310
FFFFFFFFFFFFFFFFFFFFFFFFFFFFFFFFFFFFFFFFFFFFFFFFFFFFFFFFFFFFFFFF
310
FFFFFFFFFFFFFFFFF000FFFFFFFFFFFFFFFFFFFFFFFFFFFFFFFFFFFFFFFFFFFF
310
FFFFFFFFFFFFFFFFFFFFFFFFFFFFFFFFFFFFFFFFFFFFFFFFFFFFFFFFFFFFFFFF
310
FFFFFFFFFFFFFFFFFFFFFFFFFFFFFFFFFFFFFFFFFFFFFFFFFFFFFFFFFFFFFFFF
310
F000FFFFFFFFFFFFFFFFFFFFFFFFFFFFFFFFFFFFFFFFFFFFFFFFFFFFFFFFFFFF
310
FFFFFFFFFFFFFFFFFFFFFFFFFFFFFFFFFFFFFFFFFFFFFFFFFFFFFFFFFFFFFFFF
310
FFFFFFFFFFFFFFFFFFFFFFFFFFFFFFFFFFFFFFFFFFFFFFFFF000FFFFFFFFFFFF
310
FFFFFFFFFFFFFFFFFFFFFFFFFFFFFFFFFFFFFFFFFFFFFFFFFFFFFFFFFFFFFFFF
310
FFFFFFFFFFFFFFFFFFFFFFFFFFFFFFFFFFFFFFFFFFFFFFFFFFFFFFFFFFFFFFFF
310
FFFFFFFFFFFFFFFFFFFFFFFFFFFFFFFFF0000000000000000000000000000000
310
0000000000000000000000000000000000000000000000000000000000000000
310
0000000000000000000000000000000000000000000000000000000000000000
310
0000000000000000000000000000000000000000000000000000000000000000
310
0000000000000000000000000000000000000000000000000000000000000000
310
0000000000000000000000000000000000000000000000000000000000000000
310
0000000000000000000000000000000000000000000000000000000000000000
310
0000000000000000000000000000000000000000000000000000000000000000
310
0000000000000000000000000000000000000000000000000000000000000000
310
0000000000000000000000000000000000000000000000000000000000000000
310
0000000000000000000000000000000000000000000000000000000000000000
310
0000000000000000000000000000000000000000000000000000000000000000
310
0000000000000000000000000000000000000000000000000000000000000000
310
0000000000000000000000000000000000000000000000000000000000000000
310
0000000000000000000000000000000000000000000000000000000000000000
310
0000000000000000000000000000000000000000000000000000000000000000
  1
OLE
  0
ENDSEC
  0
SECTION
  2
OBJECTS
  0
DICTIONARY
  5
C
330
0
100
AcDbDictionary
281
     1
  3
ACAD_GROUP
350
D
  3
ACAD_LAYOUT
350
1A
  3
ACAD_MLINESTYLE
350
17
  3
ACAD_PLOTSETTINGS
350
19
  3
ACAD_PLOTSTYLENAME
350
E
  3
ACAD_SCALELIST
350
47
  0
DICTIONARY
  5
D
102
{ACAD_REACTORS
330
C
102
}
330
C
100
AcDbDictionary
281
     1
  0
DICTIONARY
  5
1A
102
{ACAD_REACTORS
330
C
102
}
330
C
100
AcDbDictionary
281
     1
  3
Layout1
350
1E
  3
Layout2
350
26
  3
Model
350
22
  0
DICTIONARY
  5
17
102
{ACAD_REACTORS
330
C
102
}
330
C
100
AcDbDictionary
281
     1
  3
Standard
350
18
  0
DICTIONARY
  5
19
102
{ACAD_REACTORS
330
C
102
}
330
C
100
AcDbDictionary
281
     1
  0
ACDBDICTIONARYWDFLT
  5
E
102
{ACAD_REACTORS
330
C
102
}
330
C
100
AcDbDictionary
281
     1
  3
Normal
350
F
100
AcDbDictionaryWithDefault
340
F
  0
DICTIONARY
  5
47
102
{ACAD_REACTORS
330
C
102
}
330
C
100
AcDbDictionary
281
     1
  3
A0
350
48
  3
A1
350
49
  3
A2
350
4A
  3
A3
350
4B
  3
A4
350
4C
  3
A5
350
4D
  3
A6
350
4E
  3
A7
350
4F
  3
A8
350
50
  3
A9
350
51
  3
B0
350
52
  3
B1
350
53
  3
B2
350
54
  3
B3
350
55
  3
B4
350
56
  3
B5
350
57
  3
B6
350
58
  3
B7
350
59
  3
B8
350
5A
  3
B9
350
5B
  3
C0
350
5C
  3
C1
350
5D
  3
C2
350
5E
  3
C3
350
5F
  3
C4
350
60
  3
C5
350
61
  3
C6
350
62
  3
C7
350
63
  3
C8
350
64
  3
C9
350
65
  3
D0
350
66
  3
D1
350
67
  3
D2
350
68
  0
LAYOUT
  5
1E
102
{ACAD_REACTORS
330
1A
102
}
330
1A
100
AcDbPlotSettings
  1

  2
none_device
  4

  6

 40
0.0
 41
0.0
 42
0.0
 43
0.0
 44
0.0
 45
0.0
 46
0.0
 47
0.0
 48
0.0
 49
0.0
140
0.0
141
0.0
142
1.0
143
1.0
 70
   688
 72
     1
 73
     0
 74
     5
  7

 75
    16
147
1.0
148
0.0
149
0.0
100
AcDbLayout
  1
Layout1
 70
     1
 71
     1
 10
0.0
 20
0.0
 11
420.0
 21
297.0
 12
0.0
 22
0.0
 32
0.0
 14
1.0000000000E+20
 24
1.0000000000E+20
 34
1.0000000000E+20
 15
-1.0000000000E+20
 25
-1.0000000000E+20
 35
-1.0000000000E+20
146
0.0
 13
0.0
 23
0.0
 33
0.0
 16
1.0
 26
0.0
 36
0.0
 17
0.0
 27
1.0
 37
0.0
 76
     0
330
1B
  0
LAYOUT
  5
26
102
{ACAD_REACTORS
330
1A
102
}
330
1A
100
AcDbPlotSettings
  1

  2
none_device
  4

  6

 40
0.0
 41
0.0
 42
0.0
 43
0.0
 44
0.0
 45
0.0
 46
0.0
 47
0.0
 48
0.0
 49
0.0
140
0.0
141
0.0
142
1.0
143
1.0
 70
   688
 72
     1
 73
     0
 74
     5
  7

 75
    16
147
1.0
148
0.0
149
0.0
100
AcDbLayout
  1
Layout2
 70
     1
 71
     2
 10
0.0
 20
0.0
 11
0.0
 21
0.0
 12
0.0
 22
0.0
 32
0.0
 14
0.0
 24
0.0
 34
0.0
 15
0.0
 25
0.0
 35
0.0
146
0.0
 13
0.0
 23
0.0
 33
0.0
 16
1.0
 26
0.0
 36
0.0
 17
0.0
 27
1.0
 37
0.0
 76
     0
330
23
  0
LAYOUT
  5
22
102
{ACAD_REACTORS
330
1A
102
}
330
1A
100
AcDbPlotSettings
  1

  2
none_device
  4
Letter_(8.50_x_11.00_Inches)
  6

 40
6.35
 41
6.35
 42
6.35000508
 43
6.35000508
 44
215.9
 45
279.4
 46
0.0
 47
0.0
 48
0.0
 49
0.0
140
0.0
141
0.0
142
1.0
143
1.0
 70
  1712
 72
     1
 73
     0
 74
     0
  7

 75
     0
147
1.0
148
0.0
149
0.0
100
AcDbLayout
  1
Model
 70
     1
 71
     0
 10
0.0
 20
0.0
 11
297.0
 21
210.0
 12
0.0
 22
0.0
 32
0.0
 14
0.0
 24
0.0
 34
0.0
 15
297.0
 25
210.0
 35
0.0
146
0.0
 13
0.0
 23
0.0
 33
0.0
 16
1.0
 26
0.0
 36
0.0
 17
0.0
 27
1.0
 37
0.0
 76
     0
330
1F
331
29
  0
MLINESTYLE
  5
18
102
{ACAD_REACTORS
330
17
102
}
330
17
100
AcDbMlineStyle
  2
Standard
 70
     0
  3

 62
   256
 51
90.0
 52
90.0
 71
     2
 49
0.5
 62
   256
  6
BYLAYER
 49
-0.5
 62
   256
  6
BYLAYER
  0
ACDBPLACEHOLDER
  5
F
102
{ACAD_REACTORS
330
E
102
}
330
E
  0
SCALE
  5
48
102
{ACAD_REACTORS
330
47
102
}
330
47
100
AcDbScale
 70
     0
300
1:1
140
1.0
141
1.0
290
     1
  0
SCALE
  5
49
102
{ACAD_REACTORS
330
47
102
}
330
47
100
AcDbScale
 70
     0
300
1:2
140
1.0
141
2.0
290
     0
  0
SCALE
  5
4A
102
{ACAD_REACTORS
330
47
102
}
330
47
100
AcDbScale
 70
     0
300
1:4
140
1.0
141
4.0
290
     0
  0
SCALE
  5
4B
102
{ACAD_REACTORS
330
47
102
}
330
47
100
AcDbScale
 70
     0
300
1:5
140
1.0
141
5.0
290
     0
  0
SCALE
  5
4C
102
{ACAD_REACTORS
330
47
102
}
330
47
100
AcDbScale
 70
     0
300
1:8
140
1.0
141
8.0
290
     0
  0
SCALE
  5
4D
102
{ACAD_REACTORS
330
47
102
}
330
47
100
AcDbScale
 70
     0
300
1:10
140
1.0
141
10.0
290
     0
  0
SCALE
  5
4E
102
{ACAD_REACTORS
330
47
102
}
330
47
100
AcDbScale
 70
     0
300
1:16
140
1.0
141
16.0
290
     0
  0
SCALE
  5
4F
102
{ACAD_REACTORS
330
47
102
}
330
47
100
AcDbScale
 70
     0
300
1:20
140
1.0
141
20.0
290
     0
  0
SCALE
  5
50
102
{ACAD_REACTORS
330
47
102
}
330
47
100
AcDbScale
 70
     0
300
1:30
140
1.0
141
30.0
290
     0
  0
SCALE
  5
51
102
{ACAD_REACTORS
330
47
102
}
330
47
100
AcDbScale
 70
     0
300
1:40
140
1.0
141
40.0
290
     0
  0
SCALE
  5
52
102
{ACAD_REACTORS
330
47
102
}
330
47
100
AcDbScale
 70
     0
300
1:50
140
1.0
141
50.0
290
     0
  0
SCALE
  5
53
102
{ACAD_REACTORS
330
47
102
}
330
47
100
AcDbScale
 70
     0
300
1:100
140
1.0
141
100.0
290
     0
  0
SCALE
  5
54
102
{ACAD_REACTORS
330
47
102
}
330
47
100
AcDbScale
 70
     0
300
2:1
140
2.0
141
1.0
290
     0
  0
SCALE
  5
55
102
{ACAD_REACTORS
330
47
102
}
330
47
100
AcDbScale
 70
     0
300
4:1
140
4.0
141
1.0
290
     0
  0
SCALE
  5
56
102
{ACAD_REACTORS
330
47
102
}
330
47
100
AcDbScale
 70
     0
300
8:1
140
8.0
141
1.0
290
     0
  0
SCALE
  5
57
102
{ACAD_REACTORS
330
47
102
}
330
47
100
AcDbScale
 70
     0
300
10:1
140
10.0
141
1.0
290
     0
  0
SCALE
  5
58
102
{ACAD_REACTORS
330
47
102
}
330
47
100
AcDbScale
 70
     0
300
100:1
140
100.0
141
1.0
290
     0
  0
SCALE
  5
59
102
{ACAD_REACTORS
330
47
102
}
330
47
100
AcDbScale
 70
     0
300
1/128" = 1'-0"
140
0.0078125
141
12.0
290
     0
  0
SCALE
  5
5A
102
{ACAD_REACTORS
330
47
102
}
330
47
100
AcDbScale
 70
     0
300
1/64" = 1'-0"
140
0.015625
141
12.0
290
     0
  0
SCALE
  5
5B
102
{ACAD_REACTORS
330
47
102
}
330
47
100
AcDbScale
 70
     0
300
1/32" = 1'-0"
140
0.03125
141
12.0
290
     0
  0
SCALE
  5
5C
102
{ACAD_REACTORS
330
47
102
}
330
47
100
AcDbScale
 70
     0
300
1/16" = 1'-0"
140
0.0625
141
12.0
290
     0
  0
SCALE
  5
5D
102
{ACAD_REACTORS
330
47
102
}
330
47
100
AcDbScale
 70
     0
300
3/32" = 1'-0"
140
0.09375
141
12.0
290
     0
  0
SCALE
  5
5E
102
{ACAD_REACTORS
330
47
102
}
330
47
100
AcDbScale
 70
     0
300
1/8" = 1'-0"
140
0.125
141
12.0
290
     0
  0
SCALE
  5
5F
102
{ACAD_REACTORS
330
47
102
}
330
47
100
AcDbScale
 70
     0
300
3/16" = 1'-0"
140
0.1875
141
12.0
290
     0
  0
SCALE
  5
60
102
{ACAD_REACTORS
330
47
102
}
330
47
100
AcDbScale
 70
     0
300
1/4" = 1'-0"
140
0.25
141
12.0
290
     0
  0
SCALE
  5
61
102
{ACAD_REACTORS
330
47
102
}
330
47
100
AcDbScale
 70
     0
300
3/8" = 1'-0"
140
0.375
141
12.0
290
     0
  0
SCALE
  5
62
102
{ACAD_REACTORS
330
47
102
}
330
47
100
AcDbScale
 70
     0
300
1/2" = 1'-0"
140
0.5
141
12.0
290
     0
  0
SCALE
  5
63
102
{ACAD_REACTORS
330
47
102
}
330
47
100
AcDbScale
 70
     0
300
3/4" = 1'-0"
140
0.75
141
12.0
290
     0
  0
SCALE
  5
64
102
{ACAD_REACTORS
330
47
102
}
330
47
100
AcDbScale
 70
     0
300
1" = 1'-0"
140
1.0
141
12.0
290
     0
  0
SCALE
  5
65
102
{ACAD_REACTORS
330
47
102
}
330
47
100
AcDbScale
 70
     0
300
1-1/2" = 1'-0"
140
1.5
141
12.0
290
     0
  0
SCALE
  5
66
102
{ACAD_REACTORS
330
47
102
}
330
47
100
AcDbScale
 70
     0
300
3" = 1'-0"
140
3.0
141
12.0
290
     0
  0
SCALE
  5
67
102
{ACAD_REACTORS
330
47
102
}
330
47
100
AcDbScale
 70
     0
300
6" = 1'-0"
140
6.0
141
12.0
290
     0
  0
SCALE
  5
68
102
{ACAD_REACTORS
330
47
102
}
330
47
100
AcDbScale
 70
     0
300
1'-0" = 1'-0"
140
12.0
141
12.0
290
     0
  0
ENDSEC
  0
EOF
