  0
SECTION
  2
HEADER
  9
$ACADVER
  1
AC1015
  9
$ACADMAINTVER
 70
     6
  9
$DWGCODEPAGE
  3
ANSI_1252
  9
$INSBASE
 10
0.0
 20
0.0
 30
0.0
  9
$EXTMIN
 10
0.0
 20
0.0
 30
0.0
  9
$EXTMAX
 10
297.0
 20
210.0
 30
0.0
  9
$LIMMIN
 10
0.0
 20
0.0
  9
$LIMMAX
 10
297.0
 20
210.0
  9
$ORTHOMODE
 70
     0
  9
$REGENMODE
 70
     1
  9
$FILLMODE
 70
     1
  9
$QTEXTMODE
 70
     0
  9
$MIRRTEXT
 70
     1
  9
$LTSCALE
 40
1.0
  9
$ATTMODE
 70
     1
  9
$TEXTSIZE
 40
2.0
  9
$TRACEWID
 40
1.0
  9
$TEXTSTYLE
  7
Standard
  9
$CLAYER
  8
0
  9
$CELTYPE
  6
ByLayer
  9
$CECOLOR
 62
   256
  9
$CELTSCALE
 40
1.0
  9
$DISPSILH
 70
     0
  9
$DIMSCALE
 40
1.0
  9
$DIMASZ
 40
3.0
  9
$DIMEXO
 40
0.0
  9
$DIMDLI
 40
3.75
  9
$DIMRND
 40
0.0
  9
$DIMDLE
 40
0.0
  9
$DIMEXE
 40
1.0
  9
$DIMTP
 40
0.0
  9
$DIMTM
 40
0.0
  9
$DIMTXT
 40
2.0
  9
$DIMCEN
 40
2.5
  9
$DIMTSZ
 40
0.0
  9
$DIMTOL
 70
     0
  9
$DIMLIM
 70
     0
  9
$DIMTIH
 70
     1
  9
$DIMTOH
 70
     1
  9
$DIMSE1
 70
     0
  9
$DIMSE2
 70
     0
  9
$DIMTAD
 70
     1
  9
$DIMZIN
 70
     0
  9
$DIMBLK
  1

  9
$DIMASO
 70
     1
  9
$DIMSHO
 70
     1
  9
$DIMPOST
  1

  9
$DIMAPOST
  1

  9
$DIMALT
 70
     0
  9
$DIMALTD
 70
     3
  9
$DIMALTF
 40
0.0393700787
  9
$DIMLFAC
 40
2.0
  9
$DIMTOFL
 70
     1
  9
$DIMTVP
 40
0.0
  9
$DIMTIX
 70
     0
  9
$DIMSOXD
 70
     0
  9
$DIMSAH
 70
     0
  9
$DIMBLK1
  1

  9
$DIMBLK2
  1

  9
$DIMSTYLE
  2
ISO-25
  9
$DIMCLRD
 70
     0
  9
$DIMCLRE
 70
     0
  9
$DIMCLRT
 70
     0
  9
$DIMTFAC
 40
1.0
  9
$DIMGAP
 40
1.524
  9
$DIMJUST
 70
     0
  9
$DIMSD1
 70
     0
  9
$DIMSD2
 70
     0
  9
$DIMTOLJ
 70
     0
  9
$DIMTZIN
 70
     0
  9
$DIMALTZ
 70
     0
  9
$DIMALTTZ
 70
     0
  9
$DIMUPT
 70
     0
  9
$DIMDEC
 70
     2
  9
$DIMTDEC
 70
     3
  9
$DIMALTU
 70
     2
  9
$DIMALTTD
 70
     3
  9
$DIMTXSTY
  7
Standard
  9
$DIMAUNIT
 70
     0
  9
$DIMADEC
 70
     2
  9
$DIMALTRND
 40
0.0
  9
$DIMAZIN
 70
     0
  9
$DIMDSEP
 70
    44
  9
$DIMATFIT
 70
     3
  9
$DIMFRAC
 70
     0
  9
$DIMLDRBLK
  1

  9
$DIMLUNIT
 70
     2
  9
$DIMLWD
 70
    -2
  9
$DIMLWE
 70
    -2
  9
$DIMTMOVE
 70
     0
  9
$LUNITS
 70
     2
  9
$LUPREC
 70
     2
  9
$SKETCHINC
 40
1.0
  9
$FILLETRAD
 40
10.0
  9
$AUNITS
 70
     0
  9
$AUPREC
 70
     2
  9
$MENU
  1
.
  9
$ELEVATION
 40
0.0
  9
$PELEVATION
 40
0.0
  9
$THICKNESS
 40
0.0
  9
$LIMCHECK
 70
     0
  9
$CHAMFERA
 40
0.0
  9
$CHAMFERB
 40
0.0
  9
$CHAMFERC
 40
0.0
  9
$CHAMFERD
 40
0.0
  9
$SKPOLY
 70
     0
  9
$TDCREATE
 40
2458166.362578877
  9
$TDUCREATE
 40
2458166.320912211
  9
$TDUPDATE
 40
2458166.362582303
  9
$TDUUPDATE
 40
2458166.320915637
  9
$TDINDWG
 40
0.0000000116
  9
$TDUSRTIMER
 40
0.0000000116
  9
$USRTIMER
 70
     1
  9
$ANGBASE
 50
0.0
  9
$ANGDIR
 70
     0
  9
$PDMODE
 70
     0
  9
$PDSIZE
 40
-1.0
  9
$PLINEWID
 40
0.0
  9
$SPLFRAME
 70
     0
  9
$SPLINETYPE
 70
     6
  9
$SPLINESEGS
 70
     8
  9
$HANDSEED
  5
2FA
  9
$SURFTAB1
 70
     6
  9
$SURFTAB2
 70
     6
  9
$SURFTYPE
 70
     6
  9
$SURFU
 70
     6
  9
$SURFV
 70
     6
  9
$UCSBASE
  2

  9
$UCSNAME
  2

  9
$UCSORG
 10
0.0
 20
0.0
 30
0.0
  9
$UCSXDIR
 10
1.0
 20
0.0
 30
0.0
  9
$UCSYDIR
 10
0.0
 20
1.0
 30
0.0
  9
$UCSORTHOREF
  2

  9
$UCSORTHOVIEW
 70
     0
  9
$UCSORGTOP
 10
0.0
 20
0.0
 30
0.0
  9
$UCSORGBOTTOM
 10
0.0
 20
0.0
 30
0.0
  9
$UCSORGLEFT
 10
0.0
 20
0.0
 30
0.0
  9
$UCSORGRIGHT
 10
0.0
 20
0.0
 30
0.0
  9
$UCSORGFRONT
 10
0.0
 20
0.0
 30
0.0
  9
$UCSORGBACK
 10
0.0
 20
0.0
 30
0.0
  9
$PUCSBASE
  2

  9
$PUCSNAME
  2

  9
$PUCSORG
 10
0.0
 20
0.0
 30
0.0
  9
$PUCSXDIR
 10
1.0
 20
0.0
 30
0.0
  9
$PUCSYDIR
 10
0.0
 20
1.0
 30
0.0
  9
$PUCSORTHOREF
  2

  9
$PUCSORTHOVIEW
 70
     0
  9
$PUCSORGTOP
 10
0.0
 20
0.0
 30
0.0
  9
$PUCSORGBOTTOM
 10
0.0
 20
0.0
 30
0.0
  9
$PUCSORGLEFT
 10
0.0
 20
0.0
 30
0.0
  9
$PUCSORGRIGHT
 10
0.0
 20
0.0
 30
0.0
  9
$PUCSORGFRONT
 10
0.0
 20
0.0
 30
0.0
  9
$PUCSORGBACK
 10
0.0
 20
0.0
 30
0.0
  9
$USERI1
 70
     0
  9
$USERI2
 70
     0
  9
$USERI3
 70
     0
  9
$USERI4
 70
     0
  9
$USERI5
 70
     0
  9
$USERR1
 40
0.0
  9
$USERR2
 40
0.0
  9
$USERR3
 40
0.0
  9
$USERR4
 40
0.0
  9
$USERR5
 40
0.0
  9
$WORLDVIEW
 70
     1
  9
$SHADEDGE
 70
     3
  9
$SHADEDIF
 70
    70
  9
$TILEMODE
 70
     1
  9
$MAXACTVP
 70
    64
  9
$PINSBASE
 10
0.0
 20
0.0
 30
0.0
  9
$PLIMCHECK
 70
     0
  9
$PEXTMIN
 10
1.0000000000E+20
 20
1.0000000000E+20
 30
1.0000000000E+20
  9
$PEXTMAX
 10
-1.0000000000E+20
 20
-1.0000000000E+20
 30
-1.0000000000E+20
  9
$PLIMMIN
 10
0.0
 20
0.0
  9
$PLIMMAX
 10
420.0
 20
297.0
  9
$UNITMODE
 70
     0
  9
$VISRETAIN
 70
     1
  9
$PLINEGEN
 70
     0
  9
$PSLTSCALE
 70
     1
  9
$TREEDEPTH
 70
  3020
  9
$CMLSTYLE
  2
Standard
  9
$CMLJUST
 70
     0
  9
$CMLSCALE
 40
20.0
  9
$PROXYGRAPHICS
 70
     1
  9
$MEASUREMENT
 70
     1
  9
$CELWEIGHT
370
    -1
  9
$ENDCAPS
280
     0
  9
$JOINSTYLE
280
     0
  9
$LWDISPLAY
290
     1
  9
$INSUNITS
 70
     4
  9
$HYPERLINKBASE
  1

  9
$STYLESHEET
  1

  9
$XEDIT
290
     1
  9
$CEPSNTYPE
380
     0
  9
$PSTYLEMODE
290
     1
  9
$FINGERPRINTGUID
  2
{CF069820-8641-4859-A13F-4BAA0710128A}
  9
$VERSIONGUID
  2
{FAEB1C32-E019-11D5-929B-00C0DF256EC4}
  9
$EXTNAMES
290
     1
  9
$PSVPSCALE
 40
0.0
  9
$OLESTARTUP
290
     0
  0
ENDSEC
  0
SECTION
  2
CLASSES
  0
CLASS
  1
ACDBDICTIONARYWDFLT
  2
AcDbDictionaryWithDefault
  3
ObjectDBX Classes
 90
        0
280
     0
281
     0
  0
CLASS
  1
VISUALSTYLE
  2
AcDbVisualStyle
  3
ObjectDBX Classes
 90
     4095
280
     0
281
     0
  0
CLASS
  1
MATERIAL
  2
AcDbMaterial
  3
ObjectDBX Classes
 90
     1153
280
     0
281
     0
  0
CLASS
  1
SCALE
  2
AcDbScale
  3
ObjectDBX Classes
 90
     1153
280
     0
281
     0
  0
CLASS
  1
TABLESTYLE
  2
AcDbTableStyle
  3
ObjectDBX Classes
 90
     4095
280
     0
281
     0
  0
CLASS
  1
MLEADERSTYLE
  2
AcDbMLeaderStyle
  3
ACDB_MLEADERSTYLE_CLASS
 90
     4095
280
     0
281
     0
  0
CLASS
  1
SUN
  2
AcDbSun
  3
SCENEOE
 90
     1153
280
     0
281
     0
  0
CLASS
  1
ACDBPLACEHOLDER
  2
AcDbPlaceHolder
  3
ObjectDBX Classes
 90
        0
280
     0
281
     0
  0
CLASS
  1
LAYOUT
  2
AcDbLayout
  3
ObjectDBX Classes
 90
        0
280
     0
281
     0
  0
ENDSEC
  0
SECTION
  2
TABLES
  0
TABLE
  2
VPORT
  5
8
330
0
100
AcDbSymbolTable
 70
     1
  0
VPORT
  5
29
330
8
100
AcDbSymbolTableRecord
100
AcDbViewportTableRecord
  2
*Active
 70
     0
 10
0.0
 20
0.0
 11
1.0
 21
1.0
 12
148.5
 22
105.0
 13
0.0
 23
0.0
 14
10.0
 24
10.0
 15
10.0
 25
10.0
 16
0.0
 26
0.0
 36
1.0
 17
0.0
 27
0.0
 37
0.0
 40
210.0
 41
1.4142857143
 42
50.0
 43
0.0
 44
0.0
 50
0.0
 51
0.0
 71
     0
 72
  2000
 73
     1
 74
     3
 75
     0
 76
     0
 77
     0
 78
     0
281
     0
 65
     1
110
0.0
120
0.0
130
0.0
111
1.0
121
0.0
131
0.0
112
0.0
122
1.0
132
0.0
 79
     0
146
0.0
  0
ENDTAB
  0
TABLE
  2
LTYPE
  5
5
330
0
100
AcDbSymbolTable
 70
     6
  0
LTYPE
  5
14
330
5
100
AcDbSymbolTableRecord
100
AcDbLinetypeTableRecord
  2
ByBlock
 70
     0
  3

 72
    65
 73
     0
 40
0.0
  0
LTYPE
  5
15
330
5
100
AcDbSymbolTableRecord
100
AcDbLinetypeTableRecord
  2
ByLayer
 70
     0
  3

 72
    65
 73
     0
 40
0.0
  0
LTYPE
  5
16
330
5
100
AcDbSymbolTableRecord
100
AcDbLinetypeTableRecord
  2
Continuous
 70
     0
  3
Solid line
 72
    65
 73
     0
 40
0.0
  0
LTYPE
  5
6E
330
5
100
AcDbSymbolTableRecord
100
AcDbLinetypeTableRecord
  2
HIDDEN
 70
     0
  3
Hidden __ __ __ __ __ __ __ __ __ __ __ __ __ __
 72
    65
 73
     2
 40
1.905
 49
1.27
 74
     0
 49
-0.635
 74
     0
  0
LTYPE
  5
6F
330
5
100
AcDbSymbolTableRecord
100
AcDbLinetypeTableRecord
  2
PHANTOM
 70
     0
  3
Phantom ______  __  __  ______  __  __  ______
 72
    65
 73
     6
 40
12.7
 49
6.35
 74
     0
 49
-1.27
 74
     0
 49
1.27
 74
     0
 49
-1.27
 74
     0
 49
1.27
 74
     0
 49
-1.27
 74
     0
  0
LTYPE
  5
70
330
5
100
AcDbSymbolTableRecord
100
AcDbLinetypeTableRecord
  2
CENTER
 70
     0
  3
Center ____ _ ____ _ ____ _ ____ _ ____ _ ____
 72
    65
 73
     4
 40
10.16
 49
6.35
 74
     0
 49
-1.27
 74
     0
 49
1.27
 74
     0
 49
-1.27
 74
     0
  0
LTYPE
  5
71
330
5
100
AcDbSymbolTableRecord
100
AcDbLinetypeTableRecord
  2
CENTERX2
 70
     0
  3
Center (2x) ________  __  ________  __  _____
 72
    65
 73
     4
 40
20.32
 49
12.7
 74
     0
 49
-2.54
 74
     0
 49
2.54
 74
     0
 49
-2.54
 74
     0
  0
LTYPE
  5
72
330
5
100
AcDbSymbolTableRecord
100
AcDbLinetypeTableRecord
  2
DOT2
 70
     0
  3
Dot (.5x) ........................................
 72
    65
 73
     2
 40
0.635
 49
0.0
 74
     0
 49
-0.635
 74
     0
  0
ENDTAB
  0
TABLE
  2
LAYER
  5
2
330
0
100
AcDbSymbolTable
 70
     5
  0
LAYER
  5
10
330
2
100
AcDbSymbolTableRecord
100
AcDbLayerTableRecord
  2
0
 70
     0
 62
     7
  6
Continuous
370
    -3
390
F
  0
LAYER
  5
73
330
2
100
AcDbSymbolTableRecord
100
AcDbLayerTableRecord
  2
FORMAT
 70
     0
 62
     7
  6
Continuous
370
    -3
390
F
  0
LAYER
  5
74
330
2
100
AcDbSymbolTableRecord
100
AcDbLayerTableRecord
  2
VERMASSUNG
 70
     0
 62
     7
  6
Continuous
370
    -3
390
F
  0
LAYER
  5
75
330
2
100
AcDbSymbolTableRecord
100
AcDbLayerTableRecord
  2
KOPF_DÜNN
 70
     0
 62
     7
  6
Continuous
370
    -3
390
F
  0
LAYER
  5
76
330
2
100
AcDbSymbolTableRecord
100
AcDbLayerTableRecord
  2
KOPF_DICK
 70
     0
 62
     7
  6
Continuous
370
    25
390
F
  0
ENDTAB
  0
TABLE
  2
STYLE
  5
3
330
0
100
AcDbSymbolTable
 70
     2
  0
STYLE
  5
11
330
3
100
AcDbSymbolTableRecord
100
AcDbTextStyleTableRecord
  2
Standard
 70
     0
 40
0.0
 41
1.0
 50
0.0
 71
     0
 42
2.0
  3
txt
  4

  0
STYLE
  5
77
330
3
100
AcDbSymbolTableRecord
100
AcDbTextStyleTableRecord
  2
SLDTEXTSTYLE0
 70
     0
 40
0.0
 41
0.7
 50
0.0
 71
     0
 42
2.0
  3
TXT
  4

  0
ENDTAB
  0
TABLE
  2
VIEW
  5
6
330
0
100
AcDbSymbolTable
 70
     0
  0
ENDTAB
  0
TABLE
  2
UCS
  5
7
330
0
100
AcDbSymbolTable
 70
     0
  0
ENDTAB
  0
TABLE
  2
APPID
  5
9
330
0
100
AcDbSymbolTable
 70
     1
  0
APPID
  5
12
330
9
100
AcDbSymbolTableRecord
100
AcDbRegAppTableRecord
  2
ACAD
 70
     0
  0
ENDTAB
  0
TABLE
  2
DIMSTYLE
  5
A
330
0
100
AcDbSymbolTable
 70
     4
100
AcDbDimStyleTable
  0
DIMSTYLE
105
27
330
A
100
AcDbSymbolTableRecord
100
AcDbDimStyleTableRecord
  2
ISO-25
 70
     0
 41
2.5
 42
0.625
 43
3.75
 44
1.25
 73
     0
 74
     0
 77
     1
 78
     8
140
2.5
141
2.5
143
0.0393700787
147
0.625
171
     3
172
     1
178
     0
271
     2
272
     2
274
     3
278
    44
283
     0
284
     8
340
11
  0
DIMSTYLE
105
204
102
{ACAD_REACTORS
330
203
330
219
330
232
330
23C
330
246
330
250
330
264
102
}
330
A
100
AcDbSymbolTableRecord
100
AcDbDimStyleTableRecord
  2
SLDDIMSTYLE0
 70
     0
 41
3.0
 44
0.0
 45
0.000000001
 73
     0
 74
     0
 77
     1
 78
    12
 79
     3
140
2.0
147
0.5
173
     1
178
     0
271
     2
272
     3
276
     2
284
    12
340
77
  0
DIMSTYLE
105
210
102
{ACAD_REACTORS
330
20F
102
}
330
A
100
AcDbSymbolTableRecord
100
AcDbDimStyleTableRecord
  2
SLDDIMSTYLE1
 70
     0
 41
3.0
 44
0.0
 45
0.000000001
 73
     0
 74
     0
 76
     1
 77
     1
 78
    12
 79
     3
140
2.0
147
0.5
173
     1
178
     0
271
     2
272
     3
276
     2
282
     1
284
    12
340
77
  0
DIMSTYLE
105
225
102
{ACAD_REACTORS
330
224
330
25A
102
}
330
A
100
AcDbSymbolTableRecord
100
AcDbDimStyleTableRecord
  2
SLDDIMSTYLE2
 70
     0
 41
3.0
 44
0.0
 45
0.000000001
 73
     0
 74
     0
 77
     1
 78
    12
 79
     3
140
2.0
147
0.5
173
     1
178
     0
271
     1
272
     3
276
     2
284
    12
340
77
  0
ENDTAB
  0
TABLE
  2
BLOCK_RECORD
  5
1
330
0
100
AcDbSymbolTable
 70
    11
  0
BLOCK_RECORD
  5
1F
330
1
100
AcDbSymbolTableRecord
100
AcDbBlockTableRecord
  2
*Model_Space
340
22
  0
BLOCK_RECORD
  5
1B
330
1
100
AcDbSymbolTableRecord
100
AcDbBlockTableRecord
  2
*Paper_Space
340
1E
  0
BLOCK_RECORD
  5
23
330
1
100
AcDbSymbolTableRecord
100
AcDbBlockTableRecord
  2
*Paper_Space0
340
26
  0
BLOCK_RECORD
  5
205
330
1
100
AcDbSymbolTableRecord
100
AcDbBlockTableRecord
  2
_D
340
0
  0
BLOCK_RECORD
  5
211
330
1
100
AcDbSymbolTableRecord
100
AcDbBlockTableRecord
  2
_D_1
340
0
  0
BLOCK_RECORD
  5
21A
330
1
100
AcDbSymbolTableRecord
100
AcDbBlockTableRecord
  2
_D_2
340
0
  0
BLOCK_RECORD
  5
226
330
1
100
AcDbSymbolTableRecord
100
AcDbBlockTableRecord
  2
_D_3
340
0
  0
BLOCK_RECORD
  5
233
330
1
100
AcDbSymbolTableRecord
100
AcDbBlockTableRecord
  2
_D_4
340
0
  0
BLOCK_RECORD
  5
23D
330
1
100
AcDbSymbolTableRecord
100
AcDbBlockTableRecord
  2
_D_5
340
0
  0
BLOCK_RECORD
  5
247
330
1
100
AcDbSymbolTableRecord
100
AcDbBlockTableRecord
  2
_D_6
340
0
  0
BLOCK_RECORD
  5
251
330
1
100
AcDbSymbolTableRecord
100
AcDbBlockTableRecord
  2
_D_7
340
0
  0
BLOCK_RECORD
  5
25B
330
1
100
AcDbSymbolTableRecord
100
AcDbBlockTableRecord
  2
_D_8
340
0
  0
BLOCK_RECORD
  5
265
330
1
100
AcDbSymbolTableRecord
100
AcDbBlockTableRecord
  2
_D_9
340
0
  0
ENDTAB
  0
ENDSEC
  0
SECTION
  2
BLOCKS
  0
BLOCK
  5
20
330
1F
100
AcDbEntity
  8
0
100
AcDbBlockBegin
  2
*Model_Space
 70
     0
 10
0.0
 20
0.0
 30
0.0
  3
*Model_Space
  1

  0
ENDBLK
  5
21
330
1F
100
AcDbEntity
  8
0
100
AcDbBlockEnd
  0
BLOCK
  5
1C
330
1B
100
AcDbEntity
 67
     1
  8
0
100
AcDbBlockBegin
  2
*Paper_Space
 70
     0
 10
0.0
 20
0.0
 30
0.0
  3
*Paper_Space
  1

  0
ENDBLK
  5
1D
330
1B
100
AcDbEntity
 67
     1
  8
0
100
AcDbBlockEnd
  0
BLOCK
  5
24
330
23
100
AcDbEntity
  8
0
100
AcDbBlockBegin
  2
*Paper_Space0
 70
     0
 10
0.0
 20
0.0
 30
0.0
  3
*Paper_Space0
  1

  0
ENDBLK
  5
25
330
23
100
AcDbEntity
  8
0
100
AcDbBlockEnd
  0
BLOCK
  5
206
330
205
100
AcDbEntity
  8
0
100
AcDbBlockBegin
  2
_D
 70
     0
 10
0.0
 20
0.0
 30
0.0
  3
_D
  1

  0
SOLID
  5
208
330
205
100
AcDbEntity
  8
VERMASSUNG
100
AcDbTrace
 10
260.9787949427
 20
92.4308700352
 30
0.0
 11
261.4287949427
 21
95.4308700352
 31
0.0
 12
260.5287949427
 22
95.4308700352
 32
0.0
 13
260.5287949427
 23
95.4308700352
 33
0.0
  0
SOLID
  5
209
330
205
100
AcDbEntity
  8
VERMASSUNG
100
AcDbTrace
 10
260.9787949427
 20
136.4308700352
 30
0.0
 11
260.5287949427
 21
133.4308700352
 31
0.0
 12
261.4287949427
 22
133.4308700352
 32
0.0
 13
261.4287949427
 23
133.4308700352
 33
0.0
  0
LINE
  5
20A
330
205
100
AcDbEntity
  8
VERMASSUNG
100
AcDbLine
 10
222.6398686338
 20
92.4308700352
 30
0.0
 11
261.9787949427
 21
92.4308700352
 31
0.0
  0
LINE
  5
20B
330
205
100
AcDbEntity
  8
VERMASSUNG
100
AcDbLine
 10
222.6398686338
 20
136.4308700352
 30
0.0
 11
261.9787949427
 21
136.4308700352
 31
0.0
  0
LINE
  5
20C
330
205
100
AcDbEntity
  8
VERMASSUNG
100
AcDbLine
 10
260.9787949427
 20
92.4308700352
 30
0.0
 11
260.9787949427
 21
136.4308700352
 31
0.0
  0
MTEXT
  5
20D
330
205
100
AcDbEntity
  8
VERMASSUNG
100
AcDbMText
 10
258.4006596378
 20
111.0258699521
 30
0.0
 40
2.0
 41
0.0
 71
     1
 72
     1
  1
%%c
  7
SLDTEXTSTYLE0
 11
1.171455364582524E-15
 21
1.0
 31
0.0
 73
     1
 44
1.0
  0
MTEXT
  5
20E
330
205
100
AcDbEntity
  8
VERMASSUNG
100
AcDbMText
 10
258.2006596865
 20
114.6358699664
 30
0.0
 40
2.0
 41
0.0
 71
     1
 72
     1
  1
44
  7
SLDTEXTSTYLE0
 11
1.171455364582524E-15
 21
1.0
 31
0.0
 73
     1
 44
1.0
  0
ENDBLK
  5
207
330
205
100
AcDbEntity
  8
0
100
AcDbBlockEnd
  0
BLOCK
  5
212
330
211
100
AcDbEntity
  8
0
100
AcDbBlockBegin
  2
_D_1
 70
     0
 10
0.0
 20
0.0
 30
0.0
  3
_D_1
  1

  0
SOLID
  5
214
330
211
100
AcDbEntity
  8
VERMASSUNG
100
AcDbTrace
 10
248.5055818743
 20
126.9308700352
 30
0.0
 11
248.0555818743
 21
123.9308700352
 31
0.0
 12
248.9555818743
 22
123.9308700352
 32
0.0
 13
248.9555818743
 23
123.9308700352
 33
0.0
  0
LINE
  5
215
330
211
100
AcDbEntity
  8
VERMASSUNG
100
AcDbLine
 10
219.1398686338
 20
126.9308700352
 30
0.0
 11
249.5055818743
 21
126.9308700352
 31
0.0
  0
LINE
  5
216
330
211
100
AcDbEntity
  8
VERMASSUNG
100
AcDbLine
 10
248.5055818743
 20
126.9308700352
 30
0.0
 11
248.5055818743
 21
111.225870078
 31
0.0
  0
MTEXT
  5
217
330
211
100
AcDbEntity
  8
VERMASSUNG
100
AcDbMText
 10
245.9274465694
 20
111.225870078
 30
0.0
 40
2.0
 41
0.0
 71
     1
 72
     1
  1
%%c
  7
SLDTEXTSTYLE0
 11
-7.044195017643634E-15
 21
1.0
 31
0.0
 73
     1
 44
1.0
  0
MTEXT
  5
218
330
211
100
AcDbEntity
  8
VERMASSUNG
100
AcDbMText
 10
245.7274466181
 20
114.8358700923
 30
0.0
 40
2.0
 41
0.0
 71
     1
 72
     1
  1
25
  7
SLDTEXTSTYLE0
 11
-7.044195017643634E-15
 21
1.0
 31
0.0
 73
     1
 44
1.0
  0
ENDBLK
  5
213
330
211
100
AcDbEntity
  8
0
100
AcDbBlockEnd
  0
BLOCK
  5
21B
330
21A
100
AcDbEntity
  8
0
100
AcDbBlockBegin
  2
_D_2
 70
     0
 10
0.0
 20
0.0
 30
0.0
  3
_D_2
  1

  0
SOLID
  5
21D
330
21A
100
AcDbEntity
  8
VERMASSUNG
100
AcDbTrace
 10
274.6398686338
 20
140.9308700352
 30
0.0
 11
274.1898686338
 21
137.9308700352
 31
0.0
 12
275.0898686338
 22
137.9308700352
 32
0.0
 13
275.0898686338
 23
137.9308700352
 33
0.0
  0
SOLID
  5
21E
330
21A
100
AcDbEntity
  8
VERMASSUNG
100
AcDbTrace
 10
274.6398686338
 20
87.9308700352
 30
0.0
 11
275.0898686338
 21
90.9308700352
 31
0.0
 12
274.1898686338
 22
90.9308700352
 32
0.0
 13
274.1898686338
 23
90.9308700352
 33
0.0
  0
LINE
  5
21F
330
21A
100
AcDbEntity
  8
VERMASSUNG
100
AcDbLine
 10
165.461947321
 20
140.9308700352
 30
0.0
 11
275.6398686338
 21
140.9308700352
 31
0.0
  0
LINE
  5
220
330
21A
100
AcDbEntity
  8
VERMASSUNG
100
AcDbLine
 10
165.461947321
 20
87.9308700352
 30
0.0
 11
275.6398686338
 21
87.9308700352
 31
0.0
  0
LINE
  5
221
330
21A
100
AcDbEntity
  8
VERMASSUNG
100
AcDbLine
 10
274.6398686338
 20
140.9308700352
 30
0.0
 11
274.6398686338
 21
87.9308700352
 31
0.0
  0
MTEXT
  5
222
330
21A
100
AcDbEntity
  8
VERMASSUNG
100
AcDbMText
 10
272.0617333289
 20
111.225870078
 30
0.0
 40
2.0
 41
0.0
 71
     1
 72
     1
  1
%%c
  7
SLDTEXTSTYLE0
 11
-7.044195017643634E-15
 21
1.0
 31
0.0
 73
     1
 44
1.0
  0
MTEXT
  5
223
330
21A
100
AcDbEntity
  8
VERMASSUNG
100
AcDbMText
 10
271.8617333776
 20
114.8358700923
 30
0.0
 40
2.0
 41
0.0
 71
     1
 72
     1
  1
53
  7
SLDTEXTSTYLE0
 11
-7.044195017643634E-15
 21
1.0
 31
0.0
 73
     1
 44
1.0
  0
ENDBLK
  5
21C
330
21A
100
AcDbEntity
  8
0
100
AcDbBlockEnd
  0
BLOCK
  5
227
330
226
100
AcDbEntity
  8
0
100
AcDbBlockBegin
  2
_D_3
 70
     0
 10
0.0
 20
0.0
 30
0.0
  3
_D_3
  1

  0
SOLID
  5
229
330
226
100
AcDbEntity
  8
VERMASSUNG
100
AcDbTrace
 10
37.0957866259
 20
82.9558700352
 30
0.0
 11
37.5457866259
 21
85.9558700352
 31
0.0
 12
36.6457866259
 22
85.9558700352
 32
0.0
 13
36.6457866259
 23
85.9558700352
 33
0.0
  0
SOLID
  5
22A
330
226
100
AcDbEntity
  8
VERMASSUNG
100
AcDbTrace
 10
37.0957866259
 20
145.9058700352
 30
0.0
 11
36.6457866259
 21
142.9058700352
 31
0.0
 12
37.5457866259
 22
142.9058700352
 32
0.0
 13
37.5457866259
 23
142.9058700352
 33
0.0
  0
LINE
  5
22B
330
226
100
AcDbEntity
  8
VERMASSUNG
100
AcDbLine
 10
102.8398686338
 20
82.9558700352
 30
0.0
 11
36.0957866259
 21
82.9558700352
 31
0.0
  0
LINE
  5
22C
330
226
100
AcDbEntity
  8
VERMASSUNG
100
AcDbLine
 10
102.8398686338
 20
145.9058700352
 30
0.0
 11
36.0957866259
 21
145.9058700352
 31
0.0
  0
LINE
  5
22D
330
226
100
AcDbEntity
  8
VERMASSUNG
100
AcDbLine
 10
37.0957866259
 20
82.9558700352
 30
0.0
 11
37.0957866259
 21
145.9058700352
 31
0.0
  0
MTEXT
  5
22E
330
226
100
AcDbEntity
  8
VERMASSUNG
100
AcDbMText
 10
34.3176513697
 20
106.3258714168
 30
0.0
 40
2.0
 41
0.0
 71
     1
 72
     1
  1
KM
  7
SLDTEXTSTYLE0
 11
5.053215498074303E-16
 21
1.0
 31
0.0
 73
     1
 44
1.0
  0
MTEXT
  5
22F
330
226
100
AcDbEntity
  8
VERMASSUNG
100
AcDbMText
 10
34.517651321
 20
109.7258712291
 30
0.0
 40
2.0
 41
0.0
 71
     1
 72
     1
  1
%%c
  7
SLDTEXTSTYLE0
 11
5.053215498074303E-16
 21
1.0
 31
0.0
 73
     1
 44
1.0
  0
MTEXT
  5
230
330
226
100
AcDbEntity
  8
VERMASSUNG
100
AcDbMText
 10
34.3176513697
 20
113.3358712434
 30
0.0
 40
2.0
 41
0.0
 71
     1
 72
     1
  1
63
  7
SLDTEXTSTYLE0
 11
5.053215498074303E-16
 21
1.0
 31
0.0
 73
     1
 44
1.0
  0
MTEXT
  5
231
330
226
100
AcDbEntity
  8
VERMASSUNG
100
AcDbMText
 10
34.3176513697
 20
117.3233711436
 30
0.0
 40
2.0
 41
0.0
 71
     1
 72
     1
  1
XMZ
  7
SLDTEXTSTYLE0
 11
5.053215498074303E-16
 21
1.0
 31
0.0
 73
     1
 44
1.0
  0
ENDBLK
  5
228
330
226
100
AcDbEntity
  8
0
100
AcDbBlockEnd
  0
BLOCK
  5
234
330
233
100
AcDbEntity
  8
0
100
AcDbBlockBegin
  2
_D_4
 70
     0
 10
0.0
 20
0.0
 30
0.0
  3
_D_4
  1

  0
SOLID
  5
236
330
233
100
AcDbEntity
  8
VERMASSUNG
100
AcDbTrace
 10
165.1398686338
 20
158.2180043466
 30
0.0
 11
168.1398686338
 21
157.7680043466
 31
0.0
 12
168.1398686338
 22
158.6680043466
 32
0.0
 13
168.1398686338
 23
158.6680043466
 33
0.0
  0
SOLID
  5
237
330
233
100
AcDbEntity
  8
VERMASSUNG
100
AcDbTrace
 10
222.6398686338
 20
158.2180043466
 30
0.0
 11
219.6398686338
 21
158.6680043466
 31
0.0
 12
219.6398686338
 22
157.7680043466
 32
0.0
 13
219.6398686338
 23
157.7680043466
 33
0.0
  0
LINE
  5
238
330
233
100
AcDbEntity
  8
VERMASSUNG
100
AcDbLine
 10
165.1398686338
 20
126.8308700352
 30
0.0
 11
165.1398686338
 21
159.2180043466
 31
0.0
  0
LINE
  5
239
330
233
100
AcDbEntity
  8
VERMASSUNG
100
AcDbLine
 10
222.6398686338
 20
134.1198938061
 30
0.0
 11
222.6398686338
 21
159.2180043466
 31
0.0
  0
LINE
  5
23A
330
233
100
AcDbEntity
  8
VERMASSUNG
100
AcDbLine
 10
165.1398686338
 20
158.2180043466
 30
0.0
 11
222.6398686338
 21
158.2180043466
 31
0.0
  0
MTEXT
  5
23B
330
233
100
AcDbEntity
  8
VERMASSUNG
100
AcDbMText
 10
191.4898687526
 20
160.7961399426
 30
0.0
 40
2.0
 41
0.0
 71
     1
 72
     1
  1
57.5
  7
SLDTEXTSTYLE0
 73
     1
 44
1.0
  0
ENDBLK
  5
235
330
233
100
AcDbEntity
  8
0
100
AcDbBlockEnd
  0
BLOCK
  5
23E
330
23D
100
AcDbEntity
  8
0
100
AcDbBlockBegin
  2
_D_5
 70
     0
 10
0.0
 20
0.0
 30
0.0
  3
_D_5
  1

  0
SOLID
  5
240
330
23D
100
AcDbEntity
  8
VERMASSUNG
100
AcDbTrace
 10
175.6398686338
 20
151.2611717761
 30
0.0
 11
178.6398686338
 21
150.8111717761
 31
0.0
 12
178.6398686338
 22
151.7111717761
 32
0.0
 13
178.6398686338
 23
151.7111717761
 33
0.0
  0
SOLID
  5
241
330
23D
100
AcDbEntity
  8
VERMASSUNG
100
AcDbTrace
 10
222.6398686338
 20
151.2611717761
 30
0.0
 11
219.6398686338
 21
151.7111717761
 31
0.0
 12
219.6398686338
 22
150.8111717761
 32
0.0
 13
219.6398686338
 23
150.8111717761
 33
0.0
  0
LINE
  5
242
330
23D
100
AcDbEntity
  8
VERMASSUNG
100
AcDbLine
 10
175.6398686338
 20
126.9308700352
 30
0.0
 11
175.6398686338
 21
152.2611717761
 31
0.0
  0
LINE
  5
243
330
23D
100
AcDbEntity
  8
VERMASSUNG
100
AcDbLine
 10
222.6398686338
 20
134.1198938061
 30
0.0
 11
222.6398686338
 21
152.2611717761
 31
0.0
  0
LINE
  5
244
330
23D
100
AcDbEntity
  8
VERMASSUNG
100
AcDbLine
 10
175.6398686338
 20
151.2611717761
 30
0.0
 11
222.6398686338
 21
151.2611717761
 31
0.0
  0
MTEXT
  5
245
330
23D
100
AcDbEntity
  8
VERMASSUNG
100
AcDbMText
 10
197.6398686208
 20
153.8393073721
 30
0.0
 40
2.0
 41
0.0
 71
     1
 72
     1
  1
47
  7
SLDTEXTSTYLE0
 73
     1
 44
1.0
  0
ENDBLK
  5
23F
330
23D
100
AcDbEntity
  8
0
100
AcDbBlockEnd
  0
BLOCK
  5
248
330
247
100
AcDbEntity
  8
0
100
AcDbBlockBegin
  2
_D_6
 70
     0
 10
0.0
 20
0.0
 30
0.0
  3
_D_6
  1

  0
SOLID
  5
24A
330
247
100
AcDbEntity
  8
VERMASSUNG
100
AcDbTrace
 10
102.6398686338
 20
165.9124217456
 30
0.0
 11
105.6398686338
 21
165.4624217456
 31
0.0
 12
105.6398686338
 22
166.3624217456
 32
0.0
 13
105.6398686338
 23
166.3624217456
 33
0.0
  0
SOLID
  5
24B
330
247
100
AcDbEntity
  8
VERMASSUNG
100
AcDbTrace
 10
222.6398686338
 20
165.9124217456
 30
0.0
 11
219.6398686338
 21
166.3624217456
 31
0.0
 12
219.6398686338
 22
165.4624217456
 32
0.0
 13
219.6398686338
 23
165.4624217456
 33
0.0
  0
LINE
  5
24C
330
247
100
AcDbEntity
  8
VERMASSUNG
100
AcDbLine
 10
102.6398686338
 20
145.7058700352
 30
0.0
 11
102.6398686338
 21
166.9124217456
 31
0.0
  0
LINE
  5
24D
330
247
100
AcDbEntity
  8
VERMASSUNG
100
AcDbLine
 10
222.6398686338
 20
134.1198938061
 30
0.0
 11
222.6398686338
 21
166.9124217456
 31
0.0
  0
LINE
  5
24E
330
247
100
AcDbEntity
  8
VERMASSUNG
100
AcDbLine
 10
102.6398686338
 20
165.9124217456
 30
0.0
 11
222.6398686338
 21
165.9124217456
 31
0.0
  0
MTEXT
  5
24F
330
247
100
AcDbEntity
  8
VERMASSUNG
100
AcDbMText
 10
160.7398686018
 20
168.4905573416
 30
0.0
 40
2.0
 41
0.0
 71
     1
 72
     1
  1
120
  7
SLDTEXTSTYLE0
 73
     1
 44
1.0
  0
ENDBLK
  5
249
330
247
100
AcDbEntity
  8
0
100
AcDbBlockEnd
  0
BLOCK
  5
252
330
251
100
AcDbEntity
  8
0
100
AcDbBlockBegin
  2
_D_7
 70
     0
 10
0.0
 20
0.0
 30
0.0
  3
_D_7
  1

  0
SOLID
  5
254
330
251
100
AcDbEntity
  8
VERMASSUNG
100
AcDbTrace
 10
62.6898686338
 20
173.9058700352
 30
0.0
 11
65.6898686338
 21
173.4558700352
 31
0.0
 12
65.6898686338
 22
174.3558700352
 32
0.0
 13
65.6898686338
 23
174.3558700352
 33
0.0
  0
SOLID
  5
255
330
251
100
AcDbEntity
  8
VERMASSUNG
100
AcDbTrace
 10
222.6398686338
 20
173.9058700352
 30
0.0
 11
219.6398686338
 21
174.3558700352
 31
0.0
 12
219.6398686338
 22
173.4558700352
 32
0.0
 13
219.6398686338
 23
173.4558700352
 33
0.0
  0
LINE
  5
256
330
251
100
AcDbEntity
  8
VERMASSUNG
100
AcDbLine
 10
62.6898686338
 20
136.633964759
 30
0.0
 11
62.6898686338
 21
174.9058700352
 31
0.0
  0
LINE
  5
257
330
251
100
AcDbEntity
  8
VERMASSUNG
100
AcDbLine
 10
222.6398686338
 20
134.1198938061
 30
0.0
 11
222.6398686338
 21
174.9058700352
 31
0.0
  0
LINE
  5
258
330
251
100
AcDbEntity
  8
VERMASSUNG
100
AcDbLine
 10
62.6898686338
 20
173.9058700352
 30
0.0
 11
222.6398686338
 21
173.9058700352
 31
0.0
  0
MTEXT
  5
259
330
251
100
AcDbEntity
  8
VERMASSUNG
100
AcDbMText
 10
139.0648686957
 20
176.4840056312
 30
0.0
 40
2.0
 41
0.0
 71
     1
 72
     1
  1
159.95
  7
SLDTEXTSTYLE0
 73
     1
 44
1.0
  0
ENDBLK
  5
253
330
251
100
AcDbEntity
  8
0
100
AcDbBlockEnd
  0
BLOCK
  5
25C
330
25B
100
AcDbEntity
  8
0
100
AcDbBlockBegin
  2
_D_8
 70
     0
 10
0.0
 20
0.0
 30
0.0
  3
_D_8
  1

  0
SOLID
  5
25E
330
25B
100
AcDbEntity
  8
VERMASSUNG
100
AcDbTrace
 10
165.461947321
 20
75.9841307255
 30
0.0
 11
168.461947321
 21
75.5341307255
 31
0.0
 12
168.461947321
 22
76.4341307255
 32
0.0
 13
168.461947321
 23
76.4341307255
 33
0.0
  0
SOLID
  5
25F
330
25B
100
AcDbEntity
  8
VERMASSUNG
100
AcDbTrace
 10
222.6398686338
 20
75.9841307255
 30
0.0
 11
219.6398686338
 21
76.4341307255
 31
0.0
 12
219.6398686338
 22
75.5341307255
 32
0.0
 13
219.6398686338
 23
75.5341307255
 33
0.0
  0
LINE
  5
260
330
25B
100
AcDbEntity
  8
VERMASSUNG
100
AcDbLine
 10
165.461947321
 20
87.9308700352
 30
0.0
 11
165.461947321
 21
74.9841307255
 31
0.0
  0
LINE
  5
261
330
25B
100
AcDbEntity
  8
VERMASSUNG
100
AcDbLine
 10
222.6398686338
 20
94.7418462644
 30
0.0
 11
222.6398686338
 21
74.9841307255
 31
0.0
  0
LINE
  5
262
330
25B
100
AcDbEntity
  8
VERMASSUNG
100
AcDbLine
 10
165.461947321
 20
75.9841307255
 30
0.0
 11
222.6398686338
 21
75.9841307255
 31
0.0
  0
MTEXT
  5
263
330
25B
100
AcDbEntity
  8
VERMASSUNG
100
AcDbMText
 10
191.6509080963
 20
78.5622663214
 30
0.0
 40
2.0
 41
0.0
 71
     1
 72
     1
  1
57.2
  7
SLDTEXTSTYLE0
 73
     1
 44
1.0
  0
ENDBLK
  5
25D
330
25B
100
AcDbEntity
  8
0
100
AcDbBlockEnd
  0
BLOCK
  5
266
330
265
100
AcDbEntity
  8
0
100
AcDbBlockBegin
  2
_D_9
 70
     0
 10
0.0
 20
0.0
 30
0.0
  3
_D_9
  1

  0
SOLID
  5
268
330
265
100
AcDbEntity
  8
VERMASSUNG
100
AcDbTrace
 10
120.6398686338
 20
66.9558700352
 30
0.0
 11
123.6398686338
 21
66.5058700352
 31
0.0
 12
123.6398686338
 22
67.4058700352
 32
0.0
 13
123.6398686338
 23
67.4058700352
 33
0.0
  0
SOLID
  5
269
330
265
100
AcDbEntity
  8
VERMASSUNG
100
AcDbTrace
 10
222.6398686338
 20
66.9558700352
 30
0.0
 11
219.6398686338
 21
67.4058700352
 31
0.0
 12
219.6398686338
 22
66.5058700352
 32
0.0
 13
219.6398686338
 23
66.5058700352
 33
0.0
  0
LINE
  5
26A
330
265
100
AcDbEntity
  8
VERMASSUNG
100
AcDbLine
 10
120.6398686338
 20
82.9558700352
 30
0.0
 11
120.6398686338
 21
65.9558700352
 31
0.0
  0
LINE
  5
26B
330
265
100
AcDbEntity
  8
VERMASSUNG
100
AcDbLine
 10
222.6398686338
 20
94.7418462644
 30
0.0
 11
222.6398686338
 21
65.9558700352
 31
0.0
  0
LINE
  5
26C
330
265
100
AcDbEntity
  8
VERMASSUNG
100
AcDbLine
 10
120.6398686338
 20
66.9558700352
 30
0.0
 11
222.6398686338
 21
66.9558700352
 31
0.0
  0
MTEXT
  5
26D
330
265
100
AcDbEntity
  8
VERMASSUNG
100
AcDbMText
 10
169.7398686018
 20
69.5340056312
 30
0.0
 40
2.0
 41
0.0
 71
     1
 72
     1
  1
102
  7
SLDTEXTSTYLE0
 73
     1
 44
1.0
  0
ENDBLK
  5
267
330
265
100
AcDbEntity
  8
0
100
AcDbBlockEnd
  0
ENDSEC
  0
SECTION
  2
ENTITIES
  0
MTEXT
  5
78
330
1F
100
AcDbEntity
  8
KOPF_DÜNN
100
AcDbMText
 10
13.8892156294
 20
23.8442973028
 30
0.0
 40
3.0
 41
0.0
 71
     1
 72
     1
  1
KY6.S25.K01.120
  7
SLDTEXTSTYLE0
 73
     1
 44
1.0
  0
MTEXT
  5
79
330
1F
100
AcDbEntity
  8
VERMASSUNG
100
AcDbMText
 10
13.9329988022
 20
28.8834360957
 30
0.0
 40
3.0
 41
0.0
 71
     1
 72
     1
  1
Schrumpffutter_Heat shrink chuck
  7
SLDTEXTSTYLE0
 73
     1
 44
1.0
  0
MTEXT
  5
7A
330
1F
100
AcDbEntity
  8
VERMASSUNG
100
AcDbMText
 10
98.8601118557
 20
13.8365368761
 30
0.0
 40
2.0
 41
0.0
 71
     1
 72
     1
  1
Datum: 16.02.2018
  7
SLDTEXTSTYLE0
 73
     1
 44
1.0
  0
MTEXT
  5
7B
330
1F
100
AcDbEntity
  8
VERMASSUNG
100
AcDbMText
 10
13.933048693
 20
18.0482802738
 30
0.0
 40
2.0
 41
0.0
 71
     1
 72
     1
  1
KM63 XMZ / Ø25
  7
SLDTEXTSTYLE0
 73
     1
 44
1.0
  0
MTEXT
  5
7C
330
1F
100
AcDbEntity
  8
VERMASSUNG
100
AcDbMText
 10
13.9808475933
 20
13.9090974274
 30
0.0
 40
2.0
 41
0.0
 71
     1
 72
     1
  1
Gewicht: 1986g
  7
SLDTEXTSTYLE0
 73
     1
 44
1.0
  0
CIRCLE
  5
7D
330
1F
100
AcDbEntity
  8
0
  6
Continuous
 62
     7
370
    25
100
AcDbCircle
 10
383.2209926743
 20
114.4308700352
 30
0.0
 40
1.849999999999979
  0
SPLINE
  5
7E
330
1F
100
AcDbEntity
  8
0
  6
Continuous
 62
     7
370
    25
100
AcDbSpline
210
0.0
220
0.0
230
1.0
 70
     8
 71
     3
 72
    11
 73
     7
 74
     0
 42
0.000000001
 43
0.00000001
 40
0.0
 40
0.0
 40
0.0
 40
0.0
 40
0.1234465947147241
 40
0.4778176598304416
 40
0.8145811241780192
 40
1.0
 40
1.0
 40
1.0
 40
1.0
 10
384.8524081233485
 20
115.0126636386937
 30
0.0
 10
384.8403534394978
 20
114.9468068279808
 30
0.0
 10
384.7936940655323
 20
114.6918986447987
 30
0.0
 10
384.705865118663
 20
114.2120736329822
 30
0.0
 10
384.6099994034224
 20
113.6883429840219
 30
0.0
 10
384.5587473017387
 20
113.4083432692135
 30
0.0
 10
384.5405484728112
 20
113.3089196994058
 30
0.0
  0
SPLINE
  5
7F
330
1F
100
AcDbEntity
  8
0
  6
Continuous
 62
     7
370
    25
100
AcDbSpline
210
0.0
220
0.0
230
1.0
 70
     8
 71
     3
 72
    11
 73
     7
 74
     0
 42
0.000000001
 43
0.00000001
 40
0.0
 40
0.0
 40
0.0
 40
0.0
 40
0.2164553339705615
 40
0.4403112406389367
 40
0.751900438709687
 40
0.9999999999999999
 40
0.9999999999999999
 40
0.9999999999999999
 40
0.9999999999999999
 10
383.5328523248031
 20
116.1346139744944
 30
0.0
 10
383.6232431904367
 20
116.0577592880277
 30
0.0
 10
383.807115370713
 20
115.9014222658518
 30
0.0
 10
384.1483327632167
 20
115.611302585076
 30
0.0
 10
384.5143500649485
 20
115.3000970082644
 30
0.0
 10
384.7485788727448
 20
115.1009443071158
 30
0.0
 10
384.8524081233485
 20
115.0126636386937
 30
0.0
  0
SPLINE
  5
80
330
1F
100
AcDbEntity
  8
0
  6
Continuous
 62
     7
370
    25
100
AcDbSpline
210
0.0
220
0.0
230
1.0
 70
     8
 71
     3
 72
    11
 73
     7
 74
     0
 42
0.000000001
 43
0.00000001
 40
0.0
 40
0.0
 40
0.0
 40
0.0
 40
0.2164553533505295
 40
0.4403112698334551
 40
0.7519004702184083
 40
0.9999999999999999
 40
0.9999999999999999
 40
0.9999999999999999
 40
0.9999999999999999
 10
381.9014368757202
 20
115.5528203710071
 30
0.0
 10
382.0131904426275
 20
115.5926737939503
 30
0.0
 10
382.240518407456
 20
115.6737432200085
 30
0.0
 10
382.6623781129858
 20
115.8241863943679
 30
0.0
 10
383.1148987151299
 20
115.9855638438783
 30
0.0
 10
383.4044844106209
 20
116.0888355581033
 30
0.0
 10
383.5328523248031
 20
116.1346139744944
 30
0.0
  0
SPLINE
  5
81
330
1F
100
AcDbEntity
  8
0
  6
Continuous
 62
     7
370
    25
100
AcDbSpline
210
0.0
220
0.0
230
1.0
 70
     8
 71
     3
 72
    11
 73
     7
 74
     0
 42
0.000000001
 43
0.00000001
 40
0.0
 40
0.0
 40
0.0
 40
0.0
 40
0.1854188864643642
 40
0.5221823663856943
 40
0.8765534159084079
 40
1.0
 40
1.0
 40
1.0
 40
1.0
 10
381.5895772251828
 20
113.8490764317191
 30
0.0
 10
381.6077761016266
 20
113.9485000000375
 30
0.0
 10
381.6590283367586
 20
114.228499708638
 30
0.0
 10
381.7548939242889
 20
114.7522303859428
 30
0.0
 10
381.8427230341377
 20
115.2320553643005
 30
0.0
 10
381.8893822365636
 20
115.486963559296
 30
0.0
 10
381.9014368757202
 20
115.5528203710071
 30
0.0
  0
SPLINE
  5
82
330
1F
100
AcDbEntity
  8
0
  6
Continuous
 62
     7
370
    25
100
AcDbSpline
210
0.0
220
0.0
230
1.0
 70
     8
 71
     3
 72
    11
 73
     7
 74
     0
 42
0.000000001
 43
0.00000001
 40
0.0
 40
0.0
 40
0.0
 40
0.0
 40
0.2164553533505295
 40
0.4403112698334551
 40
0.7519004702184083
 40
0.9999999999999999
 40
0.9999999999999999
 40
0.9999999999999999
 40
0.9999999999999999
 10
384.5405484728112
 20
113.3089196994058
 30
0.0
 10
384.4287949059038
 20
113.2690662764625
 30
0.0
 10
384.2014669410754
 20
113.1879968504043
 30
0.0
 10
383.7796072355455
 20
113.037553676045
 30
0.0
 10
383.3270866334015
 20
112.8761762265346
 30
0.0
 10
383.0375009379106
 20
112.7729045123096
 30
0.0
 10
382.9091330237283
 20
112.7271260959185
 30
0.0
  0
SPLINE
  5
83
330
1F
100
AcDbEntity
  8
0
  6
Continuous
 62
     7
370
    25
100
AcDbSpline
210
0.0
220
0.0
230
1.0
 70
     8
 71
     3
 72
    11
 73
     7
 74
     0
 42
0.000000001
 43
0.00000001
 40
0.0
 40
0.0
 40
0.0
 40
0.0
 40
0.2164553339705615
 40
0.4403112406389367
 40
0.751900438709687
 40
0.9999999999999999
 40
0.9999999999999999
 40
0.9999999999999999
 40
0.9999999999999999
 10
382.9091330237283
 20
112.7271260959185
 30
0.0
 10
382.8187421580947
 20
112.8039807823851
 30
0.0
 10
382.6348699778184
 20
112.9603178045611
 30
0.0
 10
382.2936525853146
 20
113.2504374853369
 30
0.0
 10
381.9276352835828
 20
113.5616430621485
 30
0.0
 10
381.6934064757866
 20
113.760795763297
 30
0.0
 10
381.5895772251828
 20
113.8490764317191
 30
0.0
  0
ARC
  5
84
330
1F
100
AcDbEntity
  8
0
  6
Continuous
 62
     7
370
    25
100
AcDbCircle
 10
383.2209926743
 20
114.4308700352
 30
0.0
 40
1.500000000000007
100
AcDbArc
 50
169.6271967899
 51
229.6271967899
  0
ARC
  5
85
330
1F
100
AcDbEntity
  8
0
  6
Continuous
 62
     7
370
    25
100
AcDbCircle
 10
383.2209926743
 20
114.4308700352
 30
0.0
 40
1.500000000000007
100
AcDbArc
 50
229.6271967899
 51
289.6271967899
  0
ARC
  5
86
330
1F
100
AcDbEntity
  8
0
  6
Continuous
 62
     7
370
    25
100
AcDbCircle
 10
383.2209926743
 20
114.4308700352
 30
0.0
 40
1.500000000000007
100
AcDbArc
 50
49.6271967899
 51
109.6271967899
  0
ARC
  5
87
330
1F
100
AcDbEntity
  8
0
  6
Continuous
 62
     7
370
    25
100
AcDbCircle
 10
383.2209926743
 20
114.4308700352
 30
0.0
 40
1.499999999999988
100
AcDbArc
 50
109.6271967899
 51
169.6271967899
  0
ARC
  5
88
330
1F
100
AcDbEntity
  8
0
  6
Continuous
 62
     7
370
    25
100
AcDbCircle
 10
383.2209926743
 20
114.4308700352
 30
0.0
 40
1.500000000000034
100
AcDbArc
 50
349.6271967899
 51
49.6271967899
  0
ARC
  5
89
330
1F
100
AcDbEntity
  8
0
  6
Continuous
 62
     7
370
    25
100
AcDbCircle
 10
383.2209926743
 20
114.4308700352
 30
0.0
 40
1.500000000000034
100
AcDbArc
 50
289.6271967899
 51
349.6271967899
  0
SPLINE
  5
8A
330
1F
100
AcDbEntity
  8
0
  6
Continuous
 62
     7
370
    25
100
AcDbSpline
210
0.0
220
0.0
230
1.0
 70
     8
 71
     3
 72
     8
 73
     4
 74
     0
 42
0.000000001
 43
0.00000001
 40
0.0
 40
0.0
 40
0.0
 40
0.0
 40
1.0
 40
1.0
 40
1.0
 40
1.0
 10
372.8318525646328
 20
110.0608691632415
 30
0.0
 10
372.7630141944461
 20
109.9977744899227
 30
0.0
 10
372.69458283399
 20
109.9340521117918
 30
0.0
 10
372.6265665593252
 20
109.8697066795184
 30
0.0
  0
SPLINE
  5
8B
330
1F
100
AcDbEntity
  8
0
  6
Continuous
 62
     7
370
    25
100
AcDbSpline
210
0.0
220
0.0
230
1.0
 70
     8
 71
     3
 72
     8
 73
     4
 74
     0
 42
0.000000001
 43
0.00000001
 40
0.0
 40
0.0
 40
0.0
 40
0.0
 40
1.0
 40
1.0
 40
1.0
 40
1.0
 10
373.0898798058935
 20
109.8916073333142
 30
0.0
 10
373.0031763717331
 20
109.9477682529835
 30
0.0
 10
372.9171783242493
 20
110.0041929893093
 30
0.0
 10
372.8318525646328
 20
110.0608691632415
 30
0.0
  0
ARC
  5
8C
330
1F
100
AcDbEntity
  8
0
  6
Continuous
 62
     7
370
    25
100
AcDbCircle
 10
383.2209926743
 20
114.4308700352
 30
0.0
 40
11.10154736189901
100
AcDbArc
 50
204.1348482805
 51
335.8651517195
  0
SPLINE
  5
8D
330
1F
100
AcDbEntity
  8
0
  6
Continuous
 62
     7
370
    25
100
AcDbSpline
210
0.0
220
0.0
230
1.0
 70
     8
 71
     3
 72
     8
 73
     4
 74
     0
 42
0.000000001
 43
0.00000001
 40
0.0
 40
0.0
 40
0.0
 40
0.0
 40
1.0
 40
1.0
 40
1.0
 40
1.0
 10
393.6101327838986
 20
110.0608691632415
 30
0.0
 10
393.5248070242822
 20
110.0041929893093
 30
0.0
 10
393.4388089767983
 20
109.9477682529835
 30
0.0
 10
393.3521055426379
 20
109.8916073333142
 30
0.0
  0
SPLINE
  5
8E
330
1F
100
AcDbEntity
  8
0
  6
Continuous
 62
     7
370
    25
100
AcDbSpline
210
0.0
220
0.0
230
1.0
 70
     8
 71
     3
 72
     8
 73
     4
 74
     0
 42
0.000000001
 43
0.00000001
 40
0.0
 40
0.0
 40
0.0
 40
0.0
 40
1.0
 40
1.0
 40
1.0
 40
1.0
 10
393.8154187892061
 20
109.8697066795184
 30
0.0
 10
393.7474025145414
 20
109.9340521117918
 30
0.0
 10
393.6789711540853
 20
109.9977744899227
 30
0.0
 10
393.6101327838986
 20
110.0608691632415
 30
0.0
  0
ARC
  5
8F
330
1F
100
AcDbEntity
  8
0
  6
Continuous
 62
     7
370
    25
100
AcDbCircle
 10
383.2209926743
 20
114.4308700352
 30
0.0
 40
11.53456006379121
100
AcDbArc
 50
203.2930774359
 51
336.7074733161
  0
ARC
  5
90
330
1F
100
AcDbEntity
  8
0
  6
Continuous
 62
     7
370
    25
100
AcDbCircle
 10
383.2209926743
 20
114.4308700352
 30
0.0
 40
11.10154736189899
100
AcDbArc
 50
29.4783538465
 51
150.5216461535
  0
SPLINE
  5
91
330
1F
100
AcDbEntity
  8
0
  6
Continuous
 62
     7
370
    25
100
AcDbSpline
210
0.0
220
0.0
230
1.0
 70
     8
 71
     3
 72
     8
 73
     4
 74
     0
 42
0.000000001
 43
0.00000001
 40
0.0
 40
0.0
 40
0.0
 40
0.0
 40
1.0
 40
1.0
 40
1.0
 40
1.0
 10
373.2450596249412
 20
119.7091692845956
 30
0.0
 10
373.3479555387652
 20
119.7711378936866
 30
0.0
 10
373.45179520832
 20
119.8327165458271
 30
0.0
 10
373.5566330965466
 20
119.8938827370986
 30
0.0
  0
SPLINE
  5
92
330
1F
100
AcDbEntity
  8
0
  6
Continuous
 62
     7
370
    25
100
AcDbSpline
210
0.0
220
0.0
230
1.0
 70
     8
 71
     3
 72
     8
 73
     4
 74
     0
 42
0.000000001
 43
0.00000001
 40
0.0
 40
0.0
 40
0.0
 40
0.0
 40
1.0
 40
1.0
 40
1.0
 40
1.0
 10
373.0565232438274
 20
119.8833591054652
 30
0.0
 10
373.119091552197
 20
119.8249086363576
 30
0.0
 10
373.1819381455608
 20
119.7668446258246
 30
0.0
 10
373.2450596249437
 20
119.7091692845934
 30
0.0
  0
ARC
  5
93
330
1F
100
AcDbEntity
  8
0
  6
Continuous
 62
     7
370
    25
100
AcDbCircle
 10
383.2209926743
 20
114.4308700352
 30
0.0
 40
11.53456006379119
100
AcDbArc
 50
28.2102805322
 51
151.7902347364
  0
SPLINE
  5
94
330
1F
100
AcDbEntity
  8
0
  6
Continuous
 62
     7
370
    25
100
AcDbSpline
210
0.0
220
0.0
230
1.0
 70
     8
 71
     3
 72
     8
 73
     4
 74
     0
 42
0.000000001
 43
0.00000001
 40
0.0
 40
0.0
 40
0.0
 40
0.0
 40
1.0
 40
1.0
 40
1.0
 40
1.0
 10
393.196925723588
 20
119.7091692845937
 30
0.0
 10
393.2600472029708
 20
119.7668446258248
 30
0.0
 10
393.3228937963345
 20
119.8249086363578
 30
0.0
 10
393.385462104704
 20
119.8833591054652
 30
0.0
  0
SPLINE
  5
95
330
1F
100
AcDbEntity
  8
0
  6
Continuous
 62
     7
370
    25
100
AcDbSpline
210
0.0
220
0.0
230
1.0
 70
     8
 71
     3
 72
     8
 73
     4
 74
     0
 42
0.000000001
 43
0.00000001
 40
0.0
 40
0.0
 40
0.0
 40
0.0
 40
1.0
 40
1.0
 40
1.0
 40
1.0
 10
392.8853522519848
 20
119.8938827370986
 30
0.0
 10
392.990190140211
 20
119.8327165458274
 30
0.0
 10
393.0940298097655
 20
119.771137893687
 30
0.0
 10
393.196925723589
 20
119.7091692845963
 30
0.0
  0
SPLINE
  5
96
330
1F
100
AcDbEntity
  8
0
  6
Continuous
 62
     7
370
    25
100
AcDbSpline
210
0.0
220
0.0
230
1.0
 70
     8
 71
     3
 72
     8
 73
     4
 74
     0
 42
0.000000001
 43
0.00000001
 40
0.0000004028655191
 40
0.0000004028655191
 40
0.0000004028655191
 40
0.0000004028655191
 40
0.0015137684369673
 40
0.0015137684369673
 40
0.0015137684369673
 40
0.0015137684369673
 10
374.7973980171236
 20
110.108594631422
 30
0.0
 10
374.5907265295724
 20
110.0363006897073
 30
0.0
 10
374.3841075610317
 20
109.9639692037505
 30
0.0
 10
374.1775311862231
 20
109.8916073333142
 30
0.0
  0
LINE
  5
97
330
1F
100
AcDbEntity
  8
0
  6
Continuous
 62
     7
370
    25
100
AcDbLine
 10
374.1775310311
 20
109.8916075318
 30
0.0
 11
373.0898794431
 21
109.8916075318
 31
0.0
  0
LINE
  5
98
330
1F
100
AcDbEntity
  8
0
  6
Continuous
 62
     7
370
    25
100
AcDbLine
 10
373.0549073491
 20
110.3246199093
 30
0.0
 11
372.8318527985
 21
110.0608693562
 31
0.0
  0
LINE
  5
99
330
1F
100
AcDbEntity
  8
0
  6
Continuous
 62
     7
370
    25
100
AcDbLine
 10
374.8225175488
 20
110.3246199093
 30
0.0
 11
373.0551224846
 21
110.3246199093
 31
0.0
  0
LINE
  5
9A
330
1F
100
AcDbEntity
  8
0
  6
Continuous
 62
     7
370
    25
100
AcDbLine
 10
374.8331746731
 20
110.1670391983
 30
0.0
 11
374.8225175488
 21
110.3246199093
 31
0.0
  0
SPLINE
  5
9B
330
1F
100
AcDbEntity
  8
0
  6
Continuous
 62
     7
370
    25
100
AcDbSpline
210
0.0
220
0.0
230
1.0
 70
     8
 71
     3
 72
     8
 73
     4
 74
     0
 42
0.000000001
 43
0.00000001
 40
0.0006523765358269
 40
0.0006523765358269
 40
0.0006523765358269
 40
0.0006523765358269
 40
0.0009043636494504
 40
0.0009043636494504
 40
0.0009043636494504
 40
0.0009043636494504
 10
374.8342748921585
 20
110.1688327288706
 30
0.0
 10
374.821957897641
 20
110.1487571478884
 30
0.0
 10
374.809665700237
 20
110.128677759366
 30
0.0
 10
374.7973980171236
 20
110.108594631422
 30
0.0
  0
LINE
  5
9C
330
1F
100
AcDbEntity
  8
0
  6
Continuous
 62
     7
370
    25
100
AcDbLine
 10
373.2450592044
 20
119.7091691322
 30
0.0
 11
373.4534677762
 21
119.4608701519
 31
0.0
  0
LINE
  5
9D
330
1F
100
AcDbEntity
  8
0
  6
Continuous
 62
     7
370
    25
100
AcDbLine
 10
374.7036817196
 20
119.8938825294
 30
0.0
 11
373.5566331718
 21
119.8938825294
 31
0.0
  0
SPLINE
  5
9E
330
1F
100
AcDbEntity
  8
0
  6
Continuous
 62
     7
370
    25
100
AcDbSpline
210
0.0
220
0.0
230
1.0
 70
     8
 71
     3
 72
     8
 73
     4
 74
     0
 42
0.000000001
 43
0.00000001
 40
0.0000004089325119
 40
0.0000004089325119
 40
0.0000004089325119
 40
0.0000004089325119
 40
0.0015399868451459
 40
0.0015399868451459
 40
0.0015399868451459
 40
0.0015399868451459
 10
374.7036812568368
 20
119.8938827370986
 30
0.0
 10
374.9154425156312
 20
119.8214278544452
 30
0.0
 10
375.1273628388215
 20
119.7490889844167
 30
0.0
 10
375.3394808220358
 20
119.6768954389909
 30
0.0
  0
LINE
  5
9F
330
1F
100
AcDbEntity
  8
0
  6
Continuous
 62
     7
370
    25
100
AcDbLine
 10
375.3394807402
 20
119.6768955453
 30
0.0
 11
375.347633538
 21
119.6616828567
 31
0.0
  0
LINE
  5
A0
330
1F
100
AcDbEntity
  8
0
  6
Continuous
 62
     7
370
    25
100
AcDbLine
 10
375.345263322
 20
119.4608701519
 30
0.0
 11
375.3476344693
 21
119.6616833224
 31
0.0
  0
LINE
  5
A1
330
1F
100
AcDbEntity
  8
0
  6
Continuous
 62
     7
370
    25
100
AcDbLine
 10
375.345263322
 20
119.4608701519
 30
0.0
 11
373.4534677762
 21
119.4608701519
 31
0.0
  0
LINE
  5
A2
330
1F
100
AcDbEntity
  8
0
  6
Continuous
 62
     7
370
    25
100
AcDbLine
 10
393.61013255
 20
110.0608693562
 30
0.0
 11
393.3870779994
 21
110.3246199093
 31
0.0
  0
LINE
  5
A3
330
1F
100
AcDbEntity
  8
0
  6
Continuous
 62
     7
370
    25
100
AcDbLine
 10
393.3521059054
 20
109.8916075318
 30
0.0
 11
392.2644543174
 21
109.8916075318
 31
0.0
  0
SPLINE
  5
A4
330
1F
100
AcDbEntity
  8
0
  6
Continuous
 62
     7
370
    25
100
AcDbSpline
210
0.0
220
0.0
230
1.0
 70
     8
 71
     3
 72
     8
 73
     4
 74
     0
 42
0.000000001
 43
0.00000001
 40
0.0000004024872366
 40
0.0000004024872366
 40
0.0000004024872366
 40
0.0000004024872366
 40
0.0015137680586847
 40
0.0015137680586847
 40
0.0015137680586847
 40
0.0015137680586847
 10
392.2644541623083
 20
109.8916073333142
 30
0.0
 10
392.0578777874996
 20
109.9639692037505
 30
0.0
 10
391.851258818959
 20
110.0363006897073
 30
0.0
 10
391.6445873314078
 20
110.108594631422
 30
0.0
  0
SPLINE
  5
A5
330
1F
100
AcDbEntity
  8
0
  6
Continuous
 62
     7
370
    25
100
AcDbSpline
210
0.0
220
0.0
230
1.0
 70
     8
 71
     3
 72
     8
 73
     4
 74
     0
 42
0.000000001
 43
0.00000001
 40
0.0000002414707367
 40
0.0000002414707367
 40
0.0000002414707367
 40
0.0000002414707367
 40
0.0002447240690309
 40
0.0002447240690309
 40
0.0002447240690309
 40
0.0002447240690309
 10
391.6445873314078
 20
110.108594631422
 30
0.0
 10
391.6326849960527
 20
110.1280796573686
 30
0.0
 10
391.6207595848409
 20
110.1475611631929
 30
0.0
 10
391.608810839546
 20
110.1670390867048
 30
0.0
  0
LINE
  5
A6
330
1F
100
AcDbEntity
  8
0
  6
Continuous
 62
     7
370
    25
100
AcDbLine
 10
391.6194677997
 20
110.3246199093
 30
0.0
 11
391.6088106755
 21
110.1670391983
 31
0.0
  0
LINE
  5
A7
330
1F
100
AcDbEntity
  8
0
  6
Continuous
 62
     7
370
    25
100
AcDbLine
 10
393.3870779994
 20
110.3246199093
 30
0.0
 11
391.6143594954
 21
110.3246199093
 31
0.0
  0
SPLINE
  5
A8
330
1F
100
AcDbEntity
  8
0
  6
Continuous
 62
     7
370
    25
100
AcDbSpline
210
0.0
220
0.0
230
1.0
 70
     8
 71
     3
 72
     8
 73
     4
 74
     0
 42
0.000000001
 43
0.00000001
 40
0.000000410413179
 40
0.000000410413179
 40
0.000000410413179
 40
0.000000410413179
 40
0.0015399883258131
 40
0.0015399883258131
 40
0.0015399883258131
 40
0.0015399883258131
 10
391.1025045264956
 20
119.6768954389909
 30
0.0
 10
391.3146225097099
 20
119.7490889844167
 30
0.0
 10
391.5265428329001
 20
119.8214278544452
 30
0.0
 10
391.7383040916946
 20
119.8938827370986
 30
0.0
  0
LINE
  5
A9
330
1F
100
AcDbEntity
  8
0
  6
Continuous
 62
     7
370
    25
100
AcDbLine
 10
392.8853521768
 20
119.8938825294
 30
0.0
 11
391.7383036289
 21
119.8938825294
 31
0.0
  0
LINE
  5
AA
330
1F
100
AcDbEntity
  8
0
  6
Continuous
 62
     7
370
    25
100
AcDbLine
 10
392.9885175723
 20
119.4608701519
 30
0.0
 11
393.1969261441
 21
119.7091691322
 31
0.0
  0
LINE
  5
AB
330
1F
100
AcDbEntity
  8
0
  6
Continuous
 62
     7
370
    25
100
AcDbLine
 10
392.9883275825
 20
119.4608701519
 30
0.0
 11
391.0967220265
 21
119.4608701519
 31
0.0
  0
LINE
  5
AC
330
1F
100
AcDbEntity
  8
0
  6
Continuous
 62
     7
370
    25
100
AcDbLine
 10
391.0943508792
 20
119.6616828567
 30
0.0
 11
391.0967220265
 21
119.4608701519
 31
0.0
  0
LINE
  5
AD
330
1F
100
AcDbEntity
  8
0
  6
Continuous
 62
     7
370
    25
100
AcDbLine
 10
391.0943518105
 20
119.6616828567
 30
0.0
 11
391.1025046084
 21
119.6768955453
 31
0.0
  0
ARC
  5
AE
330
1F
100
AcDbEntity
  8
0
  6
Continuous
 62
     7
370
    25
100
AcDbCircle
 10
383.2209926743
 20
114.4308700352
 30
0.0
 40
10.11875000000003
100
AcDbArc
 50
32.6761561262
 51
147.3238438738
  0
ARC
  5
AF
330
1F
100
AcDbEntity
  8
0
  6
Continuous
 62
     7
370
    25
100
AcDbCircle
 10
383.2209926743
 20
114.4308700352
 30
0.0
 40
10.11875
100
AcDbArc
 50
206.6538426687
 51
333.3461573313
  0
ARC
  5
B0
330
1F
100
AcDbEntity
  8
0
  6
Continuous
 62
     7
370
    25
100
AcDbCircle
 10
383.2209926743
 20
114.4308700352
 30
0.0
 40
9.467788105676657
100
AcDbArc
 50
207.1630537883
 51
332.8369462117
  0
ARC
  5
B1
330
1F
100
AcDbEntity
  8
0
  6
Continuous
 62
     7
370
    25
100
AcDbCircle
 10
383.2209926743
 20
114.4308700352
 30
0.0
 40
9.467788105676684
100
AcDbArc
 50
33.6481949792
 51
146.3518050208
  0
SPLINE
  5
B2
330
1F
100
AcDbEntity
  8
0
  6
Continuous
 62
     7
370
    25
100
AcDbSpline
210
0.0
220
0.0
230
1.0
 70
     8
 71
     3
 72
     8
 73
     4
 74
     0
 42
0.000000001
 43
0.00000001
 40
0.0
 40
0.0
 40
0.0
 40
0.0
 40
1.0
 40
1.0
 40
1.0
 40
1.0
 10
372.6265665591353
 20
109.8697066796297
 30
0.0
 10
372.5733237341935
 20
109.8702304058676
 30
0.0
 10
372.5200284485779
 20
109.8710284991299
 30
0.0
 10
372.4666829430884
 20
109.8721015470548
 30
0.0
  0
LINE
  5
B3
330
1F
100
AcDbEntity
  8
0
  6
Continuous
 62
     7
370
    25
100
AcDbLine
 10
372.8947701577
 20
110.3246199093
 30
0.0
 11
373.0549073491
 21
110.3246199093
 31
0.0
  0
LINE
  5
B4
330
1F
100
AcDbEntity
  8
0
  6
Continuous
 62
     7
370
    25
100
AcDbLine
 10
393.3870779994
 20
110.3246199093
 30
0.0
 11
393.5472151909
 21
110.3246199093
 31
0.0
  0
SPLINE
  5
B5
330
1F
100
AcDbEntity
  8
0
  6
Continuous
 62
     7
370
    25
100
AcDbSpline
210
0.0
220
0.0
230
1.0
 70
     8
 71
     3
 72
     8
 73
     4
 74
     0
 42
0.000000001
 43
0.00000001
 40
0.0
 40
0.0
 40
0.0
 40
0.0
 40
1.0
 40
1.0
 40
1.0
 40
1.0
 10
393.975302405443
 20
109.8721015470548
 30
0.0
 10
393.9219568999535
 20
109.8710284991299
 30
0.0
 10
393.8686616143378
 20
109.8702304058676
 30
0.0
 10
393.8154187893961
 20
109.8697066796297
 30
0.0
  0
LINE
  5
B6
330
1F
100
AcDbEntity
  8
0
  6
Continuous
 62
     7
370
    25
100
AcDbLine
 10
373.4534677762
 20
119.4608701519
 30
0.0
 11
373.3300507713
 21
119.4608701519
 31
0.0
  0
SPLINE
  5
B7
330
1F
100
AcDbEntity
  8
0
  6
Continuous
 62
     7
370
    25
100
AcDbSpline
210
0.0
220
0.0
230
1.0
 70
     8
 71
     3
 72
     8
 73
     4
 74
     0
 42
0.000000001
 43
0.00000001
 40
0.0
 40
0.0
 40
0.0
 40
0.0
 40
1.0
 40
1.0
 40
1.0
 40
1.0
 10
372.933301749586
 20
119.8813155521428
 30
0.0
 10
372.9744171766278
 20
119.8821844897828
 30
0.0
 10
373.0154914712389
 20
119.8828655273656
 30
0.0
 10
373.056523243728
 20
119.8833591054271
 30
0.0
  0
SPLINE
  5
B8
330
1F
100
AcDbEntity
  8
0
  6
Continuous
 62
     7
370
    25
100
AcDbSpline
210
0.0
220
0.0
230
1.0
 70
     8
 71
     3
 72
     8
 73
     4
 74
     0
 42
0.000000001
 43
0.00000001
 40
0.0
 40
0.0
 40
0.0
 40
0.0
 40
1.0
 40
1.0
 40
1.0
 40
1.0
 10
393.3854621048035
 20
119.8833591054271
 30
0.0
 10
393.4264938772926
 20
119.8828655273656
 30
0.0
 10
393.4675681719036
 20
119.8821844897828
 30
0.0
 10
393.5086835989454
 20
119.8813155521428
 30
0.0
  0
LINE
  5
B9
330
1F
100
AcDbEntity
  8
0
  6
Continuous
 62
     7
370
    25
100
AcDbLine
 10
393.1119345773
 20
119.4608701519
 30
0.0
 11
392.9885175723
 21
119.4608701519
 31
0.0
  0
SPLINE
  5
BA
330
1F
100
AcDbEntity
  8
0
  6
Continuous
 62
     7
370
    25
100
AcDbSpline
210
0.0
220
0.0
230
1.0
 70
     8
 71
     3
 72
     9
 73
     5
 74
     0
 42
0.000000001
 43
0.00000001
 40
0.0
 40
0.0
 40
0.0
 40
0.0
 40
0.5102121239851395
 40
0.9999999999999999
 40
0.9999999999999999
 40
0.9999999999999999
 40
0.9999999999999999
 10
375.3476338059509
 20
119.6616832935323
 30
0.0
 10
375.4771740238018
 20
119.6604383348415
 30
0.0
 10
375.7310688486426
 20
119.6579982542705
 30
0.0
 10
375.9890481216523
 20
119.6553058085773
 30
0.0
 10
376.1154032418356
 20
119.65398708132
 30
0.0
  0
SPLINE
  5
BB
330
1F
100
AcDbEntity
  8
0
  6
Continuous
 62
     7
370
    25
100
AcDbSpline
210
0.0
220
0.0
230
1.0
 70
     8
 71
     3
 72
     8
 73
     4
 74
     0
 42
0.000000001
 43
0.00000001
 40
0.0
 40
0.0
 40
0.0
 40
0.0
 40
1.0
 40
1.0
 40
1.0
 40
1.0
 10
376.115402988161
 20
119.6539866120428
 30
0.0
 10
376.1076419302156
 20
119.6434283768437
 30
0.0
 10
376.0999044051197
 20
119.6328528433173
 30
0.0
 10
376.0921904897502
 20
119.6222601165379
 30
0.0
  0
SPLINE
  5
BC
330
1F
100
AcDbEntity
  8
0
  6
Continuous
 62
     7
370
    25
100
AcDbSpline
210
0.0
220
0.0
230
1.0
 70
     8
 71
     3
 72
     8
 73
     4
 74
     0
 42
0.000000001
 43
0.00000001
 40
0.0
 40
0.0
 40
0.0
 40
0.0
 40
1.0
 40
1.0
 40
1.0
 40
1.0
 10
375.9206326569872
 20
119.4608703740747
 30
0.0
 10
375.9778930640216
 20
119.5147785510624
 30
0.0
 10
376.0350794551313
 20
119.5685754761456
 30
0.0
 10
376.0921904897502
 20
119.6222601165379
 30
0.0
  0
LINE
  5
BD
330
1F
100
AcDbEntity
  8
0
  6
Continuous
 62
     7
370
    25
100
AcDbLine
 10
375.9206334773
 20
119.4608701519
 30
0.0
 11
375.345263322
 21
119.4608701519
 31
0.0
  0
SPLINE
  5
BE
330
1F
100
AcDbEntity
  8
0
  6
Continuous
 62
     7
370
    25
100
AcDbSpline
210
0.0
220
0.0
230
1.0
 70
     8
 71
     3
 72
     9
 73
     5
 74
     0
 42
0.000000001
 43
0.00000001
 40
0.0
 40
0.0
 40
0.0
 40
0.0
 40
0.4897878789203994
 40
0.9999999999999999
 40
0.9999999999999999
 40
0.9999999999999999
 40
0.9999999999999999
 10
390.3265822389171
 20
119.6539869014442
 30
0.0
 10
390.4529373211383
 20
119.6553056271974
 30
0.0
 10
390.7109165151105
 20
119.6579980698038
 30
0.0
 10
390.9648112634
 20
119.6604381476398
 30
0.0
 10
391.0943514414557
 20
119.6616831049281
 30
0.0
  0
ARC
  5
BF
330
1F
100
AcDbEntity
  8
0
  6
Continuous
 62
     7
370
    25
100
AcDbCircle
 10
383.2209926743
 20
114.4308700352
 30
0.0
 40
8.818750000000001
100
AcDbArc
 50
36.3185452201
 51
143.6814533294
  0
SPLINE
  5
C0
330
1F
100
AcDbEntity
  8
0
  6
Continuous
 62
     7
370
    25
100
AcDbSpline
210
0.0
220
0.0
230
1.0
 70
     8
 71
     3
 72
     8
 73
     4
 74
     0
 42
0.000000001
 43
0.00000001
 40
0.0
 40
0.0
 40
0.0
 40
0.0
 40
1.0
 40
1.0
 40
1.0
 40
1.0
 10
390.3499102905623
 20
119.622101602239
 30
0.0
 10
390.3421581778617
 20
119.6327472789116
 30
0.0
 10
390.3343822191944
 20
119.6433755911058
 30
0.0
 10
390.326582492591
 20
119.6539864321683
 30
0.0
  0
LINE
  5
C1
330
1F
100
AcDbEntity
  8
0
  6
Continuous
 62
     7
370
    25
100
AcDbLine
 10
391.0967220265
 20
119.4608701519
 30
0.0
 11
390.5213234659
 21
119.4608701519
 31
0.0
  0
SPLINE
  5
C2
330
1F
100
AcDbEntity
  8
0
  6
Continuous
 62
     7
370
    25
100
AcDbSpline
210
0.0
220
0.0
230
1.0
 70
     8
 71
     3
 72
     8
 73
     4
 74
     0
 42
0.000000001
 43
0.00000001
 40
0.0
 40
0.0
 40
0.0
 40
0.0
 40
1.0
 40
1.0
 40
1.0
 40
1.0
 10
390.3499102905623
 20
119.622101602239
 30
0.0
 10
390.4069734182484
 20
119.5684696518233
 30
0.0
 10
390.4641117979787
 20
119.5147255654583
 30
0.0
 10
390.5213240914525
 20
119.4608703742081
 30
0.0
  0
ARC
  5
C3
330
1F
100
AcDbEntity
  8
0
  6
Continuous
 62
     7
370
    25
100
AcDbCircle
 10
383.2209926743
 20
114.4308700352
 30
0.0
 40
8.818749999999996
100
AcDbArc
 50
209.2047569376
 51
330.7952430624
  0
SPLINE
  5
C4
330
1F
100
AcDbEntity
  8
0
  6
Continuous
 62
     7
370
    25
100
AcDbSpline
210
0.0
220
0.0
230
1.0
 70
    24
 71
     3
 72
     8
 73
     4
 74
     0
 42
0.000000001
 43
0.00000001
 40
0.0
 40
0.0
 40
0.0
 40
0.0
 40
0.000136040218399
 40
0.000136040218399
 40
0.000136040218399
 40
0.000136040218399
 10
390.96212807111
 20
110.1713296043553
 30
0.0
 10
390.9476890714259
 20
110.1568906046712
 30
0.0
 10
390.9332186190637
 20
110.1424201523089
 30
0.0
 10
390.9187170205122
 20
110.1279185537575
 30
0.0
  0
SPLINE
  5
C5
330
1F
100
AcDbEntity
  8
0
  6
Continuous
 62
     7
370
    25
100
AcDbSpline
210
0.0
220
0.0
230
1.0
 70
     8
 71
     3
 72
     9
 73
     5
 74
     0
 42
0.000000001
 43
0.00000001
 40
0.0
 40
0.0
 40
0.0
 40
0.0
 40
0.5086448740973026
 40
1.0
 40
1.0
 40
1.0
 40
1.0
 10
391.6088107998663
 20
110.1670389985701
 30
0.0
 10
391.4996447508684
 20
110.1677328474151
 30
0.0
 10
391.2850234019526
 20
110.169096959943
 30
0.0
 10
391.0685120892753
 20
110.1705937798809
 30
0.0
 10
390.9621281459753
 20
110.1713292500299
 30
0.0
  0
SPLINE
  5
C6
330
1F
100
AcDbEntity
  8
0
  6
Continuous
 62
     7
370
    25
100
AcDbSpline
210
0.0
220
0.0
230
1.0
 70
     8
 71
     3
 72
     9
 73
     5
 74
     0
 42
0.000000001
 43
0.00000001
 40
0.0
 40
0.0
 40
0.0
 40
0.0
 40
0.4913551252639757
 40
1.0
 40
1.0
 40
1.0
 40
1.0
 10
375.4798572330205
 20
110.1713292195653
 30
0.0
 10
375.3734732816285
 20
110.1705937492365
 30
0.0
 10
375.1569619522008
 20
110.1690969289308
 30
0.0
 10
374.9423405868341
 20
110.1677328160765
 30
0.0
 10
374.8331745293314
 20
110.1670389670645
 30
0.0
  0
SPLINE
  5
C7
330
1F
100
AcDbEntity
  8
0
  6
Continuous
 62
     7
370
    25
100
AcDbSpline
210
0.0
220
0.0
230
1.0
 70
    24
 71
     3
 72
     8
 73
     4
 74
     0
 42
0.000000001
 43
0.00000001
 40
0.0
 40
0.0
 40
0.0
 40
0.0
 40
0.0001360401227241
 40
0.0001360401227241
 40
0.0001360401227241
 40
0.0001360401227241
 10
375.5232683280192
 20
110.1279185537575
 30
0.0
 10
375.5087667396665
 20
110.1424201421102
 30
0.0
 10
375.4942962974593
 20
110.1568905843174
 30
0.0
 10
375.4798573078859
 20
110.1713295738908
 30
0.0
  0
LINE
  5
C8
330
1F
100
AcDbEntity
  8
0
  6
Continuous
 62
     7
370
    25
100
AcDbLine
 10
374.8225175488
 20
110.3246199093
 30
0.0
 11
375.3265670213
 21
110.3246199093
 31
0.0
  0
SPLINE
  5
C9
330
1F
100
AcDbEntity
  8
0
  6
Continuous
 62
     7
370
    25
100
AcDbSpline
210
0.0
220
0.0
230
1.0
 70
     8
 71
     3
 72
     8
 73
     4
 74
     0
 42
0.000000001
 43
0.00000001
 40
0.0
 40
0.0
 40
0.0
 40
0.0
 40
1.0
 40
1.0
 40
1.0
 40
1.0
 10
375.4798575077178
 20
110.1713293743036
 30
0.0
 10
375.4287887451134
 20
110.2223718660477
 30
0.0
 10
375.3776917854775
 20
110.2734688380737
 30
0.0
 10
375.3265669439618
 20
110.3246199378149
 30
0.0
  0
SPLINE
  5
CA
330
1F
100
AcDbEntity
  8
0
  6
Continuous
 62
     7
370
    25
100
AcDbSpline
210
0.0
220
0.0
230
1.0
 70
     8
 71
     3
 72
     8
 73
     4
 74
     0
 42
0.000000001
 43
0.00000001
 40
0.0
 40
0.0
 40
0.0
 40
0.0
 40
1.0
 40
1.0
 40
1.0
 40
1.0
 10
391.1154184045697
 20
110.3246199378149
 30
0.0
 10
391.0642935732244
 20
110.2734688482596
 30
0.0
 10
391.0131966237434
 20
110.2223718863886
 30
0.0
 10
390.9621278712781
 20
110.1713294047682
 30
0.0
  0
LINE
  5
CB
330
1F
100
AcDbEntity
  8
0
  6
Continuous
 62
     7
370
    25
100
AcDbLine
 10
391.1154183272
 20
110.3246199093
 30
0.0
 11
391.6194677997
 21
110.3246199093
 31
0.0
  0
CIRCLE
  5
CC
330
1F
100
AcDbEntity
  8
0
  6
Continuous
 62
     7
370
    25
100
AcDbCircle
 10
383.2209926743
 20
114.4308700352
 30
0.0
 40
12.47086902276419
  0
SPLINE
  5
CD
330
1F
100
AcDbEntity
  8
0
  6
Continuous
 62
     7
370
    25
100
AcDbSpline
210
0.0
220
0.0
230
1.0
 70
     8
 71
     3
 72
    23
 73
    19
 74
     0
 42
0.000000001
 43
0.00000001
 40
0.0
 40
0.0
 40
0.0
 40
0.0
 40
0.0521036415675031
 40
0.1035646240925967
 40
0.1544751946736949
 40
0.2049306267473421
 40
0.2550287880844035
 40
0.3048696389141012
 40
0.3545546704609132
 40
0.4041862979523234
 40
0.4538672252126086
 40
0.5036997999421611
 40
0.5901870230746071
 40
0.674271637822954
 40
0.7565997087222995
 40
0.8378563983721267
 40
0.9187511781367398
 40
1.0
 40
1.0
 40
1.0
 40
1.0
 10
372.3817405276082
 20
118.9212807479563
 30
0.0
 10
372.3950348825579
 20
118.9504486411179
 30
0.0
 10
372.4214596166361
 20
119.0084246635219
 30
0.0
 10
372.46067062286
 20
119.0913239645339
 30
0.0
 10
372.4991125776656
 20
119.1705059455514
 30
0.0
 10
372.5367001591323
 20
119.2457607623534
 30
0.0
 10
372.5733560454398
 20
119.3171804166111
 30
0.0
 10
372.6090059094985
 20
119.3847770253927
 30
0.0
 10
372.6435796562597
 20
119.4485833468572
 30
0.0
 10
372.6770113502157
 20
119.5086268889264
 30
0.0
 10
372.7092382274406
 20
119.5649335856531
 30
0.0
 10
372.7477396643303
 20
119.6303385674767
 30
0.0
 10
372.7904011450437
 20
119.6998996453129
 30
0.0
 10
372.8338941871667
 20
119.7666591419773
 30
0.0
 10
372.8703066839947
 20
119.8183831900751
 30
0.0
 10
372.8992074904719
 20
119.854831502127
 30
0.0
 10
372.9211249465702
 20
119.8774288990102
 30
0.0
 10
372.9292369110635
 20
119.8800181165715
 30
0.0
 10
372.933301749586
 20
119.8813155521428
 30
0.0
  0
SPLINE
  5
CE
330
1F
100
AcDbEntity
  8
0
  6
Continuous
 62
     7
370
    25
100
AcDbSpline
210
0.0
220
0.0
230
1.0
 70
     8
 71
     3
 72
     8
 73
     4
 74
     0
 42
0.000000001
 43
0.00000001
 40
0.0
 40
0.0
 40
0.0
 40
0.0
 40
1.0
 40
1.0
 40
1.0
 40
1.0
 10
372.2611025877454
 20
118.9190703905465
 30
0.0
 10
372.3012916013384
 20
118.919800700764
 30
0.0
 10
372.3414539034284
 20
118.9203812265935
 30
0.0
 10
372.3815886139039
 20
118.9208121915433
 30
0.0
  0
SPLINE
  5
CF
330
1F
100
AcDbEntity
  8
0
  6
Continuous
 62
     7
370
    25
100
AcDbSpline
210
0.0
220
0.0
230
1.0
 70
     8
 71
     3
 72
    18
 73
    14
 74
     0
 42
0.000000001
 43
0.00000001
 40
0.0
 40
0.0
 40
0.0
 40
0.0
 40
0.0923824559411628
 40
0.1844689291573508
 40
0.2764953615950219
 40
0.3686975365494161
 40
0.4613092840003458
 40
0.5545607518442569
 40
0.6486768051537182
 40
0.7438756050146744
 40
0.8403674044302629
 40
0.9203921078121001
 40
1.0
 40
1.0
 40
1.0
 40
1.0
 10
372.3140415765449
 20
119.1858873974284
 30
0.0
 10
372.3158772301975
 20
119.1856790852131
 30
0.0
 10
372.3195426562805
 20
119.185263128191
 30
0.0
 10
372.3223379858997
 20
119.1784587047248
 30
0.0
 10
372.3231402809782
 20
119.1671253260727
 30
0.0
 10
372.321774143935
 20
119.1508249310461
 30
0.0
 10
372.3183125953061
 20
119.1296736922102
 30
0.0
 10
372.3127712895367
 20
119.1036379910938
 30
0.0
 10
372.3051868214678
 20
119.0727136114426
 30
0.0
 10
372.2956098195309
 20
119.0369145799979
 30
0.0
 10
372.2847693435122
 20
118.9986636724667
 30
0.0
 10
372.2732807025732
 20
118.9594454590723
 30
0.0
 10
372.2651807176951
 20
118.9325904822229
 30
0.0
 10
372.2611413000524
 20
118.9191980538525
 30
0.0
  0
LINE
  5
D0
330
1F
100
AcDbEntity
  8
0
  6
Continuous
 62
     7
370
    25
100
AcDbLine
 10
372.2612864051
 20
119.1851395308
 30
0.0
 11
372.3140411723
 21
119.1858873828
 31
0.0
  0
SPLINE
  5
D1
330
1F
100
AcDbEntity
  8
0
  6
Continuous
 62
     7
370
    25
100
AcDbSpline
210
0.0
220
0.0
230
1.0
 70
     8
 71
     3
 72
    25
 73
    21
 74
     0
 42
0.000000001
 43
0.00000001
 40
0.0
 40
0.0
 40
0.0
 40
0.0
 40
0.0280105225426465
 40
0.0559601148860768
 40
0.0839014045043132
 40
0.1118870776786367
 40
0.1399695827588937
 40
0.1682008401739883
 40
0.196631967042422
 40
0.2253130233141467
 40
0.2542927850735845
 40
0.3799486436587335
 40
0.5057850221667067
 40
0.6313085886338298
 40
0.7532068238012468
 40
0.8039473267955921
 40
0.8535894438554446
 40
0.9025339722394071
 40
0.9511970353791085
 40
1.0
 40
1.0
 40
1.0
 40
1.0
 10
371.3503248094921
 20
116.6182077777408
 30
0.0
 10
371.357303879403
 20
116.6555177912475
 30
0.0
 10
371.3712468379258
 20
116.7300566592411
 30
0.0
 10
371.3937687353687
 20
116.8413657047243
 30
0.0
 10
371.4174023474662
 20
116.9520279137388
 30
0.0
 10
371.4422519379542
 20
117.0620120466831
 30
0.0
 10
371.4682705624405
 20
117.1713071902976
 30
0.0
 10
371.4954519437584
 20
117.2798981594998
 30
0.0
 10
371.5237775850908
 20
117.3877688694421
 30
0.0
 10
371.5532363659235
 20
117.4949138151671
 30
0.0
 10
371.6176446538356
 20
117.7190887016791
 30
0.0
 10
371.7227463459075
 20
118.0457541157151
 30
0.0
 10
371.8682091067036
 20
118.4317007210349
 30
0.0
 10
372.0074725148133
 20
118.753780533725
 30
0.0
 10
372.1046208676809
 20
118.9496011177567
 30
0.0
 10
372.1649162739072
 20
119.0589485682401
 30
0.0
 10
372.1998048567884
 20
119.1168765926555
 30
0.0
 10
372.2276993587163
 20
119.1573305454204
 30
0.0
 10
372.249064451088
 20
119.1819447608194
 30
0.0
 10
372.2572083986606
 20
119.1840736883271
 30
0.0
 10
372.2612862173057
 20
119.1851396799985
 30
0.0
  0
ARC
  5
D2
330
1F
100
AcDbEntity
  8
0
  6
Continuous
 62
     7
370
    25
100
AcDbCircle
 10
383.2209926743
 20
114.4308700352
 30
0.0
 40
12.07050959801141
100
AcDbArc
 50
169.5595567507
 51
190.4404432494
  0
SPLINE
  5
D3
330
1F
100
AcDbEntity
  8
0
  6
Continuous
 62
     7
370
    25
100
AcDbSpline
210
0.0
220
0.0
230
1.0
 70
     8
 71
     3
 72
    26
 73
    22
 74
     0
 42
0.000000001
 43
0.00000001
 40
0.0
 40
0.0
 40
0.0
 40
0.0
 40
0.0241259796963635
 40
0.0482159912272988
 40
0.0723203915124065
 40
0.0964895678710797
 40
0.1207736231963513
 40
0.1452220711242836
 40
0.1698835501657706
 40
0.1948055644472379
 40
0.2200342569517627
 40
0.2456142191611387
 40
0.3690971486901655
 40
0.4940698769485187
 40
0.6192566784762451
 40
0.7454656653603225
 40
0.7971495824713707
 40
0.8481710308405392
 40
0.8988013269235234
 40
0.9493179290492194
 40
1.0
 40
1.0
 40
1.0
 40
1.0
 10
372.2612862173057
 20
109.6766003904144
 30
0.0
 10
372.2593759025652
 20
109.6768872836038
 30
0.0
 10
372.255558121073
 20
109.6774606422685
 30
0.0
 10
372.2475979958921
 20
109.683519330515
 30
0.0
 10
372.2380188953167
 20
109.6933985912458
 30
0.0
 10
372.2266716884481
 20
109.7074796823562
 30
0.0
 10
372.2136155051541
 20
109.7256752303804
 30
0.0
 10
372.1988596019268
 20
109.7480257731191
 30
0.0
 10
372.1824324216294
 20
109.7745400088111
 30
0.0
 10
372.1643642669092
 20
109.8052355195244
 30
0.0
 10
372.1446871204861
 20
109.8401366227643
 30
0.0
 10
372.0964877390579
 20
109.928901157872
 30
0.0
 10
372.0081696996225
 20
110.1061814593209
 30
0.0
 10
371.8691100828557
 20
110.427267366166
 30
0.0
 10
371.7234374029936
 20
110.8138500180565
 30
0.0
 10
371.6096988079841
 20
111.1675577221864
 30
0.0
 10
371.5299931894376
 20
111.4498114217992
 30
0.0
 10
371.4793436170833
 20
111.6442548525735
 30
0.0
 10
371.4323769472179
 20
111.8414962295076
 30
0.0
 10
371.3888171252136
 20
112.0413992746027
 30
0.0
 10
371.363169560082
 20
112.176081214335
 30
0.0
 10
371.3503248094921
 20
112.2435322926721
 30
0.0
  0
LINE
  5
D4
330
1F
100
AcDbEntity
  8
0
  6
Continuous
 62
     7
370
    25
100
AcDbLine
 10
372.3140411723
 20
109.6758526876
 30
0.0
 11
372.2612864051
 21
109.6766005396
 31
0.0
  0
SPLINE
  5
D5
330
1F
100
AcDbEntity
  8
0
  6
Continuous
 62
     7
370
    25
100
AcDbSpline
210
0.0
220
0.0
230
1.0
 70
     8
 71
     3
 72
    14
 73
    10
 74
     0
 42
0.000000001
 43
0.00000001
 40
0.0
 40
0.0
 40
0.0
 40
0.0
 40
0.0789261963172865
 40
0.158232872055133
 40
0.330847539457262
 40
0.5000195457610529
 40
0.6670357883572423
 40
0.8332395193657144
 40
1.0
 40
1.0
 40
1.0
 40
1.0
 10
372.261044719693
 20
109.9428761502892
 30
0.0
 10
372.265059266289
 20
109.9295730256515
 30
0.0
 10
372.2731077124012
 20
109.9029026460191
 30
0.0
 10
372.2880084192107
 20
109.8520879066993
 30
0.0
 10
372.3039054008072
 20
109.7950480905124
 30
0.0
 10
372.316983895805
 20
109.7407448737844
 30
0.0
 10
372.3232165029223
 20
109.7025777310616
 30
0.0
 10
372.3230269230853
 20
109.6791690023847
 30
0.0
 10
372.3170400289546
 20
109.6769593477061
 30
0.0
 10
372.3140415765449
 20
109.6758526729845
 30
0.0
  0
SPLINE
  5
D6
330
1F
100
AcDbEntity
  8
0
  6
Continuous
 62
     7
370
    25
100
AcDbSpline
210
0.0
220
0.0
230
1.0
 70
     8
 71
     3
 72
     8
 73
     4
 74
     0
 42
0.000000001
 43
0.00000001
 40
0.0
 40
0.0
 40
0.0
 40
0.0
 40
1.0
 40
1.0
 40
1.0
 40
1.0
 10
372.4083494109175
 20
109.9408150718387
 30
0.0
 10
372.3592814958888
 20
109.9413021250507
 30
0.0
 10
372.3101720583679
 20
109.9420131929255
 30
0.0
 10
372.2610227138426
 20
109.9429486861598
 30
0.0
  0
SPLINE
  5
D7
330
1F
100
AcDbEntity
  8
0
  6
Continuous
 62
     7
370
    25
100
AcDbSpline
210
0.0
220
0.0
230
1.0
 70
     8
 71
     3
 72
    13
 73
     9
 74
     0
 42
0.000000001
 43
0.00000001
 40
0.0
 40
0.0
 40
0.0
 40
0.0
 40
0.1667030582307992
 40
0.3329480818053035
 40
0.4990671507274896
 40
0.6653938523718403
 40
0.832261271055009
 40
1.0
 40
1.0
 40
1.0
 40
1.0
 10
372.4666829430884
 20
109.8721015470548
 30
0.0
 10
372.4648396292515
 20
109.8725186568205
 30
0.0
 10
372.4611580662817
 20
109.8733517302979
 30
0.0
 10
372.4536408124872
 20
109.8793662091243
 30
0.0
 10
372.4446900083707
 20
109.8888609414165
 30
0.0
 10
372.4341397199477
 20
109.9022705485262
 30
0.0
 10
372.4221665344306
 20
109.9191884521498
 30
0.0
 10
372.4129601268243
 20
109.9336011872892
 30
0.0
 10
372.4083449363354
 20
109.9408263201508
 30
0.0
  0
SPLINE
  5
D8
330
1F
100
AcDbEntity
  8
0
  6
Continuous
 62
     7
370
    25
100
AcDbSpline
210
0.0
220
0.0
230
1.0
 70
     8
 71
     3
 72
    13
 73
     9
 74
     0
 42
0.000000001
 43
0.00000001
 40
0.0
 40
0.0
 40
0.0
 40
0.0
 40
0.1686319999748085
 40
0.3360343310905433
 40
0.502536782590866
 40
0.6684737453788339
 40
0.834182263691515
 40
1.0
 40
1.0
 40
1.0
 40
1.0
 10
394.033641793314
 20
109.9408297699636
 30
0.0
 10
394.0290045482158
 20
109.9335726099442
 30
0.0
 10
394.0197638729294
 20
109.9191112093019
 30
0.0
 10
394.0077484995624
 20
109.9021305125978
 30
0.0
 10
393.9971829458077
 20
109.8886977314182
 30
0.0
 10
393.9882435965147
 20
109.8792182628643
 30
0.0
 10
393.9807627159262
 20
109.8732530371664
 30
0.0
 10
393.9771229086367
 20
109.872485461382
 30
0.0
 10
393.975302405443
 20
109.8721015470548
 30
0.0
  0
SPLINE
  5
D9
330
1F
100
AcDbEntity
  8
0
  6
Continuous
 62
     7
370
    25
100
AcDbSpline
210
0.0
220
0.0
230
1.0
 70
     8
 71
     3
 72
     8
 73
     4
 74
     0
 42
0.000000001
 43
0.00000001
 40
0.0
 40
0.0
 40
0.0
 40
0.0
 40
1.0
 40
1.0
 40
1.0
 40
1.0
 10
394.1809674052865
 20
109.9429487909063
 30
0.0
 10
394.1318164756782
 20
109.9420132606443
 30
0.0
 10
394.0827054555989
 20
109.9413021701322
 30
0.0
 10
394.0336359606911
 20
109.9408151086343
 30
0.0
  0
SPLINE
  5
DA
330
1F
100
AcDbEntity
  8
0
  6
Continuous
 62
     7
370
    25
100
AcDbSpline
210
0.0
220
0.0
230
1.0
 70
     8
 71
     3
 72
    18
 73
    14
 74
     0
 42
0.000000001
 43
0.00000001
 40
0.0
 40
0.0
 40
0.0
 40
0.0
 40
0.0923325137111192
 40
0.1843692047063016
 40
0.2763458873810836
 40
0.3684982175655623
 40
0.4610598988303626
 40
0.554260954653301
 40
0.6483261285442131
 40
0.74347346365053
 40
0.8399130993119804
 40
0.9201660718299768
 40
1.0
 40
1.0
 40
1.0
 40
1.0
 10
394.1279437719865
 20
109.6758526729845
 30
0.0
 10
394.1261081183341
 20
109.6760609852003
 30
0.0
 10
394.1224426922515
 20
109.6764769422236
 30
0.0
 10
394.1196473626292
 20
109.6832813656809
 30
0.0
 10
394.1188450675624
 20
109.6946147443667
 30
0.0
 10
394.1202112045617
 20
109.7109151392671
 30
0.0
 10
394.1236727533557
 20
109.7320663785772
 30
0.0
 10
394.1292140585021
 20
109.7581020779048
 30
0.0
 10
394.1367985289294
 20
109.7890264643275
 30
0.0
 10
394.1463755219098
 20
109.8248254700556
 30
0.0
 10
394.1572268689355
 20
109.8631147151693
 30
0.0
 10
394.1687416305675
 20
109.9024203395858
 30
0.0
 10
394.1768733393886
 20
109.9293774174795
 30
0.0
 10
394.1809285509964
 20
109.942820674929
 30
0.0
  0
LINE
  5
DB
330
1F
100
AcDbEntity
  8
0
  6
Continuous
 62
     7
370
    25
100
AcDbLine
 10
394.1806989435
 20
109.6766005396
 30
0.0
 11
394.1279441762
 21
109.6758526876
 31
0.0
  0
SPLINE
  5
DC
330
1F
100
AcDbEntity
  8
0
  6
Continuous
 62
     7
370
    25
100
AcDbSpline
210
0.0
220
0.0
230
1.0
 70
     8
 71
     3
 72
    25
 73
    21
 74
     0
 42
0.000000001
 43
0.00000001
 40
0.0
 40
0.0
 40
0.0
 40
0.0
 40
0.0280105225422753
 40
0.0559601148854256
 40
0.0839014045034749
 40
0.1118870776777086
 40
0.1399695827579646
 40
0.1682008401731476
 40
0.1966319670417595
 40
0.2253130233137476
 40
0.2542927850735311
 40
0.3799486436564626
 40
0.5057850221666382
 40
0.631308588631066
 40
0.7532068238011618
 40
0.8039473267946936
 40
0.8535894438541253
 40
0.9025339722380873
 40
0.9511970353782256
 40
1.0
 40
1.0
 40
1.0
 40
1.0
 10
395.0916605390394
 20
112.2435322926721
 30
0.0
 10
395.0846814691285
 20
112.2062222791659
 30
0.0
 10
395.0707385106058
 20
112.1316834111731
 30
0.0
 10
395.0482166131633
 20
112.0203743656911
 30
0.0
 10
395.0245830010659
 20
111.9097121566773
 30
0.0
 10
394.999733410578
 20
111.7997280237334
 30
0.0
 10
394.9737147860918
 20
111.6904328801189
 30
0.0
 10
394.9465334047738
 20
111.5818419109163
 30
0.0
 10
394.9182077634412
 20
111.4739712009732
 30
0.0
 10
394.8887489826083
 20
111.3668262552471
 30
0.0
 10
394.8243406946967
 20
111.1426513687367
 30
0.0
 10
394.7192390026249
 20
110.8159859547006
 30
0.0
 10
394.5737762418296
 20
110.4300393493825
 30
0.0
 10
394.434512833719
 20
110.1079595366899
 30
0.0
 10
394.3373644808518
 20
109.9121389526589
 30
0.0
 10
394.2770690746243
 20
109.8027915021724
 30
0.0
 10
394.2421804917432
 20
109.7448634777571
 30
0.0
 10
394.2142859898153
 20
109.7044095249922
 30
0.0
 10
394.1929208974436
 20
109.6797953095933
 30
0.0
 10
394.1847769498709
 20
109.6776663820857
 30
0.0
 10
394.1806991312257
 20
109.6766003904144
 30
0.0
  0
ARC
  5
DD
330
1F
100
AcDbEntity
  8
0
  6
Continuous
 62
     7
370
    25
100
AcDbCircle
 10
383.2209926743
 20
114.4308700352
 30
0.0
 40
12.07050959801141
100
AcDbArc
 50
349.5595567507
 51
10.4404432493
  0
SPLINE
  5
DE
330
1F
100
AcDbEntity
  8
0
  6
Continuous
 62
     7
370
    25
100
AcDbSpline
210
0.0
220
0.0
230
1.0
 70
     8
 71
     3
 72
    26
 73
    22
 74
     0
 42
0.000000001
 43
0.00000001
 40
0.0
 40
0.0
 40
0.0
 40
0.0
 40
0.0241259796962591
 40
0.0482159912271133
 40
0.0723203915121637
 40
0.0964895678708023
 40
0.1207736231960627
 40
0.1452220711240065
 40
0.1698835501655268
 40
0.1948055644470484
 40
0.220034256951649
 40
0.2456142191611191
 40
0.3690971486898426
 40
0.4940698769485092
 40
0.6192566784753767
 40
0.7454656653602836
 40
0.7971495824708205
 40
0.848171030839725
 40
0.8988013269227118
 40
0.9493179290486752
 40
1.0
 40
1.0
 40
1.0
 40
1.0
 10
394.1806991312257
 20
119.1851396799985
 30
0.0
 10
394.1826094459662
 20
119.1848527868091
 30
0.0
 10
394.1864272274584
 20
119.1842794281443
 30
0.0
 10
394.1943873526392
 20
119.1782207398979
 30
0.0
 10
394.2039664532147
 20
119.168341479167
 30
0.0
 10
394.2153136600833
 20
119.1542603880566
 30
0.0
 10
394.2283698433772
 20
119.1360648400325
 30
0.0
 10
394.2431257466046
 20
119.1137142972938
 30
0.0
 10
394.259552926902
 20
119.0872000616017
 30
0.0
 10
394.2776210816222
 20
119.0565045508884
 30
0.0
 10
394.2972982280452
 20
119.0216034476485
 30
0.0
 10
394.3454976094733
 20
118.9328389125413
 30
0.0
 10
394.4338156489086
 20
118.7555586110924
 30
0.0
 10
394.5728752656752
 20
118.434472704248
 30
0.0
 10
394.7185479455376
 20
118.0478900523569
 30
0.0
 10
394.8322865405468
 20
117.6941823482279
 30
0.0
 10
394.9119921590934
 20
117.4119286486155
 30
0.0
 10
394.9626417314474
 20
117.2174852178423
 30
0.0
 10
395.0096084013128
 20
117.0202438409082
 30
0.0
 10
395.0531682233175
 20
116.8203407958119
 30
0.0
 10
395.0788157884492
 20
116.6856588560786
 30
0.0
 10
395.0916605390394
 20
116.6182077777407
 30
0.0
  0
LINE
  5
DF
330
1F
100
AcDbEntity
  8
0
  6
Continuous
 62
     7
370
    25
100
AcDbLine
 10
394.1279441762
 20
119.1858873828
 30
0.0
 11
394.1806989435
 21
119.1851395308
 31
0.0
  0
SPLINE
  5
E0
330
1F
100
AcDbEntity
  8
0
  6
Continuous
 62
     7
370
    25
100
AcDbSpline
210
0.0
220
0.0
230
1.0
 70
     8
 71
     3
 72
    14
 73
    10
 74
     0
 42
0.000000001
 43
0.00000001
 40
0.0
 40
0.0
 40
0.0
 40
0.0
 40
0.0786889129232242
 40
0.1577561817122941
 40
0.3304686003115578
 40
0.4997364082435315
 40
0.6668472316653192
 40
0.8331450833767118
 40
1.0
 40
1.0
 40
1.0
 40
1.0
 10
394.1808520587633
 20
118.9191558882108
 30
0.0
 10
394.1768540498087
 20
118.9324057927267
 30
0.0
 10
394.168838808478
 20
118.958969310595
 30
0.0
 10
394.1539661351885
 20
119.0096908383637
 30
0.0
 10
394.1380799704262
 20
119.0666919173876
 30
0.0
 10
394.125001446782
 20
119.1209952129967
 30
0.0
 10
394.1187688471769
 20
119.1591623350339
 30
0.0
 10
394.1189584250533
 20
119.1825710691095
 30
0.0
 10
394.1249453194458
 20
119.1847807230676
 30
0.0
 10
394.1279437719865
 20
119.1858873974284
 30
0.0
  0
SPLINE
  5
E1
330
1F
100
AcDbEntity
  8
0
  6
Continuous
 62
     7
370
    25
100
AcDbSpline
210
0.0
220
0.0
230
1.0
 70
     8
 71
     3
 72
     8
 73
     4
 74
     0
 42
0.000000001
 43
0.00000001
 40
0.0
 40
0.0
 40
0.0
 40
0.0
 40
1.0
 40
1.0
 40
1.0
 40
1.0
 10
394.0603967180805
 20
118.9208122281762
 30
0.0
 10
394.1005298365872
 20
118.9203812742289
 30
0.0
 10
394.1406905445157
 20
118.9198007712164
 30
0.0
 10
394.1808779618588
 20
118.9190704956568
 30
0.0
  0
SPLINE
  5
E2
330
1F
100
AcDbEntity
  8
0
  6
Continuous
 62
     7
370
    25
100
AcDbSpline
210
0.0
220
0.0
230
1.0
 70
     8
 71
     3
 72
    23
 73
    19
 74
     0
 42
0.000000001
 43
0.00000001
 40
0.0
 40
0.0
 40
0.0
 40
0.0
 40
0.0441308420121292
 40
0.0880968635211716
 40
0.1320155028408941
 40
0.1760048571434164
 40
0.2201827305793597
 40
0.2646656976937351
 40
0.3095682184569769
 40
0.355001836559425
 40
0.401074485474427
 40
0.4478899182339682
 40
0.4955472680213688
 40
0.5953670562452651
 40
0.6949121173401501
 40
0.7950007648984784
 40
0.8964386255170008
 40
1.0
 40
1.0
 40
1.0
 40
1.0
 10
393.5086835989454
 20
119.8813155521428
 30
0.0
 10
393.5106679890523
 20
119.8810326949129
 30
0.0
 10
393.5146293579372
 20
119.8804680368723
 30
0.0
 10
393.5234896621677
 20
119.8740486836936
 30
0.0
 10
393.53446214029
 20
119.863527434187
 30
0.0
 10
393.5477415383104
 20
119.8484958978773
 30
0.0
 10
393.5632522619767
 20
119.8290436528148
 30
0.0
 10
393.5809837237298
 20
119.8051236748627
 30
0.0
 10
393.600900370433
 20
119.7767225841489
 30
0.0
 10
393.6229659044451
 20
119.7438148443482
 30
0.0
 10
393.6471368281392
 20
119.706374861692
 30
0.0
 10
393.6733638381865
 20
119.6643747900621
 30
0.0
 10
393.7117004184175
 20
119.6010976815391
 30
0.0
 10
393.764033197796
 20
119.5110388191759
 30
0.0
 10
393.8324338090042
 20
119.3866926996091
 30
0.0
 10
393.9051188837996
 20
119.2469796216286
 30
0.0
 10
393.9814791196995
 20
119.0926436064002
 30
0.0
 10
394.0337679343497
 20
118.9789209521725
 30
0.0
 10
394.0601831622533
 20
118.921470618878
 30
0.0
  0
SPLINE
  5
E3
330
1F
100
AcDbEntity
  8
0
  6
Continuous
 62
     7
370
    25
100
AcDbSpline
210
0.0
220
0.0
230
1.0
 70
    11
 71
     3
 72
    39
 73
    35
 74
     0
 42
0.000000001
 43
0.00000001
 40
0.0
 40
0.0
 40
0.0
 40
0.0
 40
0.0310664058348413
 40
0.0621048158426138
 40
0.0931361551796939
 40
0.1235538293503726
 40
0.1538561545809849
 40
0.1850588072749156
 40
0.2160250992946587
 40
0.2471867223797568
 40
0.2784462884304475
 40
0.3100516090231247
 40
0.3419834369138969
 40
0.3734259894013238
 40
0.4048604886787081
 40
0.436874065183343
 40
0.4685120685926471
 40
0.499805535863323
 40
0.5309508213226204
 40
0.5618649784438111
 40
0.5930416446590877
 40
0.623374245013332
 40
0.6540913579072549
 40
0.6849496782718453
 40
0.7158160645166705
 40
0.7471731804043553
 40
0.7784514311866318
 40
0.810129591156098
 40
0.8419598919688388
 40
0.8735175891922303
 40
0.9050808037886594
 40
0.9370235169792582
 40
0.9687441590030581
 40
1.0
 40
1.0
 40
1.0
 40
1.0
 10
386.1251192390631
 20
102.999239851453
 30
0.0
 10
386.3148310680177
 20
103.0380084282005
 30
0.0
 10
386.6585719184665
 20
103.1144393739835
 30
0.0
 10
387.0415289056742
 20
103.2025789139768
 30
0.0
 10
387.2859693723892
 20
103.2495284006217
 30
0.0
 10
387.3669583092055
 20
103.237619475908
 30
0.0
 10
387.2862358637238
 20
103.1656615691925
 30
0.0
 10
387.0463736701041
 20
103.0411413029951
 30
0.0
 10
386.6697239360069
 20
102.88377231317
 30
0.0
 10
386.163480999179
 20
102.711748228475
 30
0.0
 10
385.5462066054957
 20
102.5468238208893
 30
0.0
 10
384.8337307913558
 20
102.4091112448108
 30
0.0
 10
384.0582655515832
 20
102.3174784323021
 30
0.0
 10
383.2478011179689
 20
102.2841458542066
 30
0.0
 10
382.4352966450065
 20
102.3133932997599
 30
0.0
 10
381.6557836548694
 20
102.4017222567475
 30
0.0
 10
380.9374553555339
 20
102.5372277563823
 30
0.0
 10
380.3140832481339
 20
102.7010042778736
 30
0.0
 10
379.8009846535383
 20
102.8730104220189
 30
0.0
 10
379.4157825436769
 20
103.0318224364901
 30
0.0
 10
379.1663579384359
 20
103.1590814016556
 30
0.0
 10
379.0757558984894
 20
103.2346883586106
 30
0.0
 10
379.1439674694486
 20
103.2514577552904
 30
0.0
 10
379.3761833358514
 20
103.2086774130752
 30
0.0
 10
379.7534003730356
 20
103.1215507281653
 30
0.0
 10
380.2651052408033
 20
103.0068216728583
 30
0.0
 10
380.8885763715501
 20
102.8873995278058
 30
0.0
 10
381.6051210746829
 20
102.7827740777565
 30
0.0
 10
382.3834521872939
 20
102.7121255848296
 30
0.0
 10
383.1952836741438
 20
102.6860467603996
 30
0.0
 10
384.0090581961409
 20
102.7090723320903
 30
0.0
 10
384.7914320403064
 20
102.777304770228
 30
0.0
 10
385.5134450750403
 20
102.8805519499377
 30
0.0
 10
385.9342505948894
 20
102.9602348736342
 30
0.0
 10
386.125119239063
 20
102.999239851453
 30
0.0
  0
SPLINE
  5
E4
330
1F
100
AcDbEntity
  8
0
  6
Continuous
 62
     7
370
    25
100
AcDbSpline
210
0.0
220
0.0
230
1.0
 70
    11
 71
     3
 72
    39
 73
    35
 74
     0
 42
0.000000001
 43
0.00000001
 40
0.0
 40
0.0
 40
0.0
 40
0.0
 40
0.0312651429934057
 40
0.0629601069329321
 40
0.0948697276489808
 40
0.1264264963751833
 40
0.1579651393672472
 40
0.1898765439016956
 40
0.221552335268876
 40
0.2527844076550827
 40
0.2838418966734154
 40
0.3148645781100674
 40
0.3459127639308091
 40
0.3763475365526575
 40
0.4066751324671412
 40
0.4379141187435632
 40
0.4688932367345488
 40
0.5000738678969536
 40
0.5313369410958942
 40
0.5629183719104849
 40
0.5948445736343699
 40
0.6262809966135365
 40
0.6577486436587271
 40
0.6897584692806508
 40
0.7214430019610059
 40
0.7527623343195418
 40
0.7839279690572818
 40
0.8148885765585865
 40
0.8460375004982862
 40
0.8763409566916784
 40
0.906758919146387
 40
0.9378312724751761
 40
0.9689189660506093
 40
1.0
 40
1.0
 40
1.0
 40
1.0
 10
386.1250149892762
 20
125.8625322713956
 30
0.0
 10
385.9339410529946
 20
125.9015962292763
 30
0.0
 10
385.513006490555
 20
125.9813152238364
 30
0.0
 10
384.7916170853914
 20
126.0844306391868
 30
0.0
 10
384.0099610371009
 20
126.1526315116107
 30
0.0
 10
383.1968733173901
 20
126.1756884042526
 30
0.0
 10
382.384593100538
 20
126.1497041306064
 30
0.0
 10
381.6059626754886
 20
126.0791139653682
 30
0.0
 10
380.8892868855771
 20
125.974498403129
 30
0.0
 10
380.2674116159155
 20
125.8553260781127
 30
0.0
 10
379.7579006824296
 20
125.7413889103864
 30
0.0
 10
379.3827813361854
 20
125.6552746314399
 30
0.0
 10
379.1468207613345
 20
125.6112189101041
 30
0.0
 10
379.0754202181529
 20
125.6267487108152
 30
0.0
 10
379.1660166479508
 20
125.7022575929992
 30
0.0
 10
379.4149929283101
 20
125.8294311208434
 30
0.0
 10
379.799907748153
 20
125.9882817994556
 30
0.0
 10
380.3126930549751
 20
126.1603060606656
 30
0.0
 10
380.9351521779
 20
126.3239791402004
 30
0.0
 10
381.6516523227065
 20
126.4593807135806
 30
0.0
 10
382.4297513568166
 20
126.5478983810634
 30
0.0
 10
383.2414740454636
 20
126.5776057895462
 30
0.0
 10
384.0529162331649
 20
126.5447193448961
 30
0.0
 10
384.8300421246469
 20
126.4532384368513
 30
0.0
 10
385.5444802138175
 20
126.3153542468899
 30
0.0
 10
386.1627031720529
 20
126.1502264220399
 30
0.0
 10
386.6690705327788
 20
125.9781758846873
 30
0.0
 10
387.0456230541924
 20
125.8208923629771
 30
0.0
 10
387.2853188656238
 20
125.6964885654931
 30
0.0
 10
387.3667855738181
 20
125.6243003920568
 30
0.0
 10
387.2867263313263
 20
125.6120278836788
 30
0.0
 10
387.0423803253725
 20
125.6589232941849
 30
0.0
 10
386.6594068919236
 20
125.7470568423305
 30
0.0
 10
386.3149637607138
 20
125.8236983469404
 30
0.0
 10
386.1250149892763
 20
125.8625322713956
 30
0.0
  0
SPLINE
  5
E5
330
1F
100
AcDbEntity
  8
0
  6
Continuous
 62
     7
370
    25
100
AcDbSpline
210
0.0
220
0.0
230
1.0
 70
     8
 71
     3
 72
    23
 73
    19
 74
     0
 42
0.000000001
 43
0.00000001
 40
0.0
 40
0.0
 40
0.0
 40
0.0
 40
0.0449850911516383
 40
0.0909520670767777
 40
0.1379394291255006
 40
0.1859832248910951
 40
0.2351171761689533
 40
0.2853728096402591
 40
0.3367795876576951
 40
0.3893650370792399
 40
0.4431548745925064
 40
0.498173127394291
 40
0.5575107590849617
 40
0.6265492281305397
 40
0.7053073138942775
 40
0.7937970253739629
 40
0.8920262115920568
 40
1.0
 40
1.0
 40
1.0
 40
1.0
 10
373.3300509627084
 20
119.4608700352064
 30
0.0
 10
373.3278882733429
 20
119.4604411335469
 30
0.0
 10
373.3235156898223
 20
119.459573968637
 30
0.0
 10
373.3132347306308
 20
119.4524804010361
 30
0.0
 10
373.3001744526009
 20
119.440867659457
 30
0.0
 10
373.2840552910467
 20
119.4240782892844
 30
0.0
 10
373.2649548633908
 20
119.4020063026697
 30
0.0
 10
373.2428525106349
 20
119.3744088289064
 30
0.0
 10
373.2177520320992
 20
119.3411003976971
 30
0.0
 10
373.1896609007213
 20
119.3019000592903
 30
0.0
 10
373.1585449998692
 20
119.2566580138171
 30
0.0
 10
373.123906068987
 20
119.2042620814278
 30
0.0
 10
373.0831845607083
 20
119.1414796132086
 30
0.0
 10
373.0344636396835
 20
119.06372261395
 30
0.0
 10
372.9766893013656
 20
118.9664380563715
 30
0.0
 10
372.9097786517205
 20
118.8466932226524
 30
0.0
 10
372.8338346874271
 20
118.7027730177482
 30
0.0
 10
372.7794735227419
 20
118.5920388128552
 30
0.0
 10
372.7510084586274
 20
118.5340552089313
 30
0.0
  0
LINE
  5
E6
330
1F
100
AcDbEntity
  8
0
  6
Continuous
 62
     7
370
    25
100
AcDbLine
 10
372.7510084111
 20
118.5345813758
 30
0.0
 11
372.3816691611
 21
118.9206662714
 31
0.0
  0
LINE
  5
E7
330
1F
100
AcDbEntity
  8
0
  6
Continuous
 62
     7
370
    25
100
AcDbLine
 10
394.0602835912
 20
118.9206066667
 30
0.0
 11
393.6910169843
 21
118.5345986053
 31
0.0
  0
SPLINE
  5
E8
330
1F
100
AcDbEntity
  8
0
  6
Continuous
 62
     7
370
    25
100
AcDbSpline
210
0.0
220
0.0
230
1.0
 70
     8
 71
     3
 72
    26
 73
    22
 74
     0
 42
0.000000001
 43
0.00000001
 40
0.0
 40
0.0
 40
0.0
 40
0.0
 40
0.0509383868653979
 40
0.0998291548270505
 40
0.1466728126490638
 40
0.1914699456369332
 40
0.2342212299774179
 40
0.274927450668867
 40
0.3135895241747119
 40
0.3502085273716571
 40
0.3847857350077695
 40
0.4173226688482998
 40
0.4478211631571791
 40
0.4762834534603437
 40
0.5027122992246547
 40
0.593906700502561
 40
0.6816015993191188
 40
0.7659159552051488
 40
0.846983628966416
 40
0.9249552229440475
 40
1.0
 40
1.0
 40
1.0
 40
1.0
 10
393.6910173745723
 20
118.5338644786816
 30
0.0
 10
393.6775595103742
 20
118.5614852598459
 30
0.0
 10
393.6511847605765
 20
118.6156165232992
 30
0.0
 10
393.6128125807975
 20
118.6919245603744
 30
0.0
 10
393.5763463983054
 20
118.7626767399661
 30
0.0
 10
393.5418101486816
 20
118.8278485666543
 30
0.0
 10
393.5091976968287
 20
118.887706811906
 30
0.0
 10
393.4785104130358
 20
118.9424719714473
 30
0.0
 10
393.4497477967346
 20
118.9923963627593
 30
0.0
 10
393.4229096322623
 20
119.0377385933544
 30
0.0
 10
393.3979960518341
 20
119.0787645322952
 30
0.0
 10
393.3750054050453
 20
119.1157419172423
 30
0.0
 10
393.3539418995557
 20
119.1489380332257
 30
0.0
 10
393.3347895291764
 20
119.1786137654929
 30
0.0
 10
393.3031184522317
 20
119.2272840905427
 30
0.0
 10
393.2616485067951
 20
119.2891794084614
 30
0.0
 10
393.2146589906513
 20
119.3545200158852
 30
0.0
 10
393.1760404209364
 20
119.403638407177
 30
0.0
 10
393.1459919612151
 20
119.4371146956892
 30
0.0
 10
393.1237018502459
 20
119.4572321279272
 30
0.0
 10
393.1158065348125
 20
119.4596729617767
 30
0.0
 10
393.1119343858229
 20
119.4608700352064
 30
0.0
  0
SPLINE
  5
E9
330
1F
100
AcDbEntity
  8
0
  6
Continuous
 62
     7
370
    25
100
AcDbSpline
210
0.0
220
0.0
230
1.0
 70
     8
 71
     3
 72
     8
 73
     4
 74
     0
 42
0.000000001
 43
0.00000001
 40
0.0
 40
0.0
 40
0.0
 40
0.0
 40
1.0
 40
1.0
 40
1.0
 40
1.0
 10
390.9626731260661
 20
118.6538683616891
 30
0.0
 10
391.0262661064061
 20
118.5881995838424
 30
0.0
 10
391.0902225328414
 20
118.5238572861821
 30
0.0
 10
391.1544214525488
 20
118.4621200352064
 30
0.0
  0
SPLINE
  5
EA
330
1F
100
AcDbEntity
  8
0
  6
Continuous
 62
     7
370
    25
100
AcDbSpline
210
0.0
220
0.0
230
1.0
 70
     8
 71
     3
 72
    25
 73
    21
 74
     0
 42
0.000000001
 43
0.00000001
 40
0.0
 40
0.0
 40
0.0
 40
0.0
 40
0.0367725003254103
 40
0.074208401060063
 40
0.1123590542807964
 40
0.1512729822568881
 40
0.190995910016845
 40
0.2315708273504481
 40
0.2730380740418892
 40
0.3154354426077851
 40
0.3587982934432034
 40
0.4031596779810961
 40
0.4485504661847858
 40
0.494999475376923
 40
0.5532504315673752
 40
0.621829488573267
 40
0.7007739996560722
 40
0.7901076726660372
 40
0.8898461547533933
 40
1.0
 40
1.0
 40
1.0
 40
1.0
 10
390.5207519387546
 20
119.4608700352061
 30
0.0
 10
390.5209757128194
 20
119.4605453475723
 30
0.0
 10
390.5214272979823
 20
119.4598901147236
 30
0.0
 10
390.5261443378546
 20
119.4545277429358
 30
0.0
 10
390.5337969469372
 20
119.4457721492353
 30
0.0
 10
390.5446899260742
 20
119.4331479311434
 30
0.0
 10
390.55873851249
 20
119.416591593013
 30
0.0
 10
390.5759654100992
 20
119.3959344156352
 30
0.0
 10
390.5963639628807
 20
119.3710466796674
 30
0.0
 10
390.6199347761728
 20
119.3417991334741
 30
0.0
 10
390.6466801247326
 20
119.3080761982776
 30
0.0
 10
390.6765879781649
 20
119.2697703831521
 30
0.0
 10
390.7097040705094
 20
119.2267994878142
 30
0.0
 10
390.7486299920834
 20
119.1753782061434
 30
0.0
 10
390.7974580718001
 20
119.1111619744543
 30
0.0
 10
390.8593786764011
 20
119.0282674453598
 30
0.0
 10
390.9337632347221
 20
118.9243216951453
 30
0.0
 10
391.0207376627106
 20
118.796235484888
 30
0.0
 10
391.1201625126932
 20
118.6421457049817
 30
0.0
 10
391.1915816884227
 20
118.5240814691113
 30
0.0
 10
391.2290632721036
 20
118.4621200352064
 30
0.0
  0
LINE
  5
EB
330
1F
100
AcDbEntity
  8
0
  6
Continuous
 62
     7
370
    25
100
AcDbLine
 10
391.2290629644
 20
118.4621198229
 30
0.0
 11
391.1544211853
 21
118.4621198229
 31
0.0
  0
SPLINE
  5
EC
330
1F
100
AcDbEntity
  8
0
  6
Continuous
 62
     7
370
    25
100
AcDbSpline
210
0.0
220
0.0
230
1.0
 70
     8
 71
     3
 72
    23
 73
    19
 74
     0
 42
0.000000001
 43
0.00000001
 40
0.0
 40
0.0
 40
0.0
 40
0.0
 40
0.0511129009857221
 40
0.1016896331838983
 40
0.1518293139104713
 40
0.201633670189439
 40
0.2512064936754081
 40
0.3006530343006331
 40
0.3500793489716449
 40
0.3995916247932065
 40
0.4492954981442684
 40
0.4992953912354716
 40
0.5872572780521574
 40
0.6724255494349275
 40
0.7555067762540824
 40
0.8372616735271673
 40
0.9184882400167564
 40
1.0
 40
1.0
 40
1.0
 40
1.0
 10
390.9627358021915
 20
118.6541110777843
 30
0.0
 10
390.946720218291
 20
118.6832396800152
 30
0.0
 10
390.914857052228
 20
118.741191328599
 30
0.0
 10
390.8678132138091
 20
118.8239491638173
 30
0.0
 10
390.8218346896342
 20
118.9030380223015
 30
0.0
 10
390.7770540228306
 20
118.9782550102357
 30
0.0
 10
390.7335702583947
 20
119.0497180652813
 30
0.0
 10
390.69148429481
 20
119.1174594694697
 30
0.0
 10
390.6508898304127
 20
119.1815329812146
 30
0.0
 10
390.6118749240625
 20
119.2419865802859
 30
0.0
 10
390.574525101575
 20
119.2988640852141
 30
0.0
 10
390.529996844983
 20
119.3655785582746
 30
0.0
 10
390.4813565844418
 20
119.4368988421391
 30
0.0
 10
390.4335174846859
 20
119.5054790945982
 30
0.0
 10
390.395865972605
 20
119.5584954226403
 30
0.0
 10
390.3690432712175
 20
119.5957680787679
 30
0.0
 10
390.352314440394
 20
119.6188054783479
 30
0.0
 10
390.3504660304301
 20
119.6213402036131
 30
0.0
 10
390.3495402058098
 20
119.6226097872565
 30
0.0
  0
SPLINE
  5
ED
330
1F
100
AcDbEntity
  8
0
  6
Continuous
 62
     7
370
    25
100
AcDbSpline
210
0.0
220
0.0
230
1.0
 70
     8
 71
     3
 72
     8
 73
     4
 74
     0
 42
0.000000001
 43
0.00000001
 40
0.0
 40
0.0
 40
0.0
 40
0.0
 40
1.0
 40
1.0
 40
1.0
 40
1.0
 10
393.6248853213377
 20
118.4621200352063
 30
0.0
 10
393.6467706929809
 20
118.486441051404
 30
0.0
 10
393.668656064624
 20
118.5104656497264
 30
0.0
 10
393.6905414362672
 20
118.534172501815
 30
0.0
  0
LINE
  5
EE
330
1F
100
AcDbEntity
  8
0
  6
Continuous
 62
     7
370
    25
100
AcDbLine
 10
393.6247254435
 20
118.4621198229
 30
0.0
 11
391.2290629644
 21
118.4621198229
 31
0.0
  0
SPLINE
  5
EF
330
1F
100
AcDbEntity
  8
0
  6
Continuous
 62
     7
370
    25
100
AcDbSpline
210
0.0
220
0.0
230
1.0
 70
     8
 71
     3
 72
     8
 73
     4
 74
     0
 42
0.000000001
 43
0.00000001
 40
0.0
 40
0.0
 40
0.0
 40
0.0
 40
1.0
 40
1.0
 40
1.0
 40
1.0
 10
372.7513496864394
 20
118.534276069295
 30
0.0
 10
372.773266458927
 20
118.510535620736
 30
0.0
 10
372.7951832314145
 20
118.4864764689493
 30
0.0
 10
372.8171000039021
 20
118.4621200352064
 30
0.0
  0
SPLINE
  5
F0
330
1F
100
AcDbEntity
  8
0
  6
Continuous
 62
     7
370
    25
100
AcDbSpline
210
0.0
220
0.0
230
1.0
 70
     8
 71
     3
 72
    26
 73
    22
 74
     0
 42
0.000000001
 43
0.00000001
 40
0.0
 40
0.0
 40
0.0
 40
0.0
 40
0.0524616379932503
 40
0.1026498591890872
 40
0.150565513457809
 40
0.1962095861957063
 40
0.2395832262568645
 40
0.2806877815599511
 40
0.3195248450380211
 40
0.3560963147430692
 40
0.3904044736547445
 40
0.4224520974433627
 40
0.4522426027417772
 40
0.4797802555366611
 40
0.5050704712281336
 40
0.5966394156799991
 40
0.6841917884819224
 40
0.7679874773571101
 40
0.8483228539139507
 40
0.925534163520116
 40
1.0
 40
1.0
 40
1.0
 40
1.0
 10
375.2127445183496
 20
118.4621349272241
 30
0.0
 10
375.2306060026378
 20
118.4919083872652
 30
0.0
 10
375.2655549466137
 20
118.5501650791586
 30
0.0
 10
375.3163197800957
 20
118.6323640595232
 30
0.0
 10
375.3643897377375
 20
118.7084449284239
 30
0.0
 10
375.4097337105023
 20
118.7783962768902
 30
0.0
 10
375.4523596900077
 20
118.8425034388422
 30
0.0
 10
375.4922659885168
 20
118.9010112783124
 30
0.0
 10
375.5294533176321
 20
118.9541998559344
 30
0.0
 10
375.5639221402229
 20
119.0023578961716
 30
0.0
 10
375.5956722288553
 20
119.0457825694478
 30
0.0
 10
375.6247066334564
 20
119.0847726605447
 30
0.0
 10
375.6510179226575
 20
119.1196267590712
 30
0.0
 10
375.6746345522016
 20
119.1506317535218
 30
0.0
 10
375.7142802312075
 20
119.2028749721547
 30
0.0
 10
375.7658185280065
 20
119.2704043054119
 30
0.0
 10
375.8226446649877
 20
119.3425977516204
 30
0.0
 10
375.8668020929508
 20
119.397081707743
 30
0.0
 10
375.8979797158927
 20
119.4343464989113
 30
0.0
 10
375.9174392825319
 20
119.456810851186
 30
0.0
 10
375.9195808802123
 20
119.4595334006132
 30
0.0
 10
375.920632296769
 20
119.4608700352064
 30
0.0
  0
LINE
  5
F1
330
1F
100
AcDbEntity
  8
0
  6
Continuous
 62
     7
370
    25
100
AcDbLine
 10
375.2127445016
 20
118.4621198229
 30
0.0
 11
372.8170997176
 21
118.4621198229
 31
0.0
  0
LINE
  5
F2
330
1F
100
AcDbEntity
  8
0
  6
Continuous
 62
     7
370
    25
100
AcDbLine
 10
375.2875641632
 20
118.4621198229
 30
0.0
 11
375.2124446157
 21
118.4621198229
 31
0.0
  0
SPLINE
  5
F3
330
1F
100
AcDbEntity
  8
0
  6
Continuous
 62
     7
370
    25
100
AcDbSpline
210
0.0
220
0.0
230
1.0
 70
     8
 71
     3
 72
     8
 73
     4
 74
     0
 42
0.000000001
 43
0.00000001
 40
0.0
 40
0.0
 40
0.0
 40
0.0
 40
1.0
 40
1.0
 40
1.0
 40
1.0
 10
375.2875638959825
 20
118.4621200352064
 30
0.0
 10
375.3514726986425
 20
118.5240888986375
 30
0.0
 10
375.4152476179945
 20
118.5880649637541
 30
0.0
 10
375.4786076838753
 20
118.6535996200999
 30
0.0
  0
SPLINE
  5
F4
330
1F
100
AcDbEntity
  8
0
  6
Continuous
 62
     7
370
    25
100
AcDbSpline
210
0.0
220
0.0
230
1.0
 70
     8
 71
     3
 72
    24
 73
    20
 74
     0
 42
0.000000001
 43
0.00000001
 40
0.0
 40
0.0
 40
0.0
 40
0.0
 40
0.0410257106287842
 40
0.0818520099077639
 40
0.1225800578354648
 40
0.1633117464058233
 40
0.2041489402806705
 40
0.2451927184749161
 40
0.2865426449235763
 40
0.3282960933646444
 40
0.370547647549383
 40
0.4133885920102291
 40
0.4569065022351533
 40
0.5011849368587563
 40
0.6001856774947433
 40
0.6987388860447942
 40
0.7976800645453981
 40
0.8978349910029445
 40
1.0
 40
1.0
 40
1.0
 40
1.0
 10
376.0921904897502
 20
119.6222601165379
 30
0.0
 10
376.0919957263092
 20
119.6219927663803
 30
0.0
 10
376.0916071461027
 20
119.621459365559
 30
0.0
 10
376.0875523584284
 20
119.61588761956
 30
0.0
 10
376.0809583994485
 20
119.6068068704061
 30
0.0
 10
376.0715941385386
 20
119.5938694100454
 30
0.0
 10
376.0595460247685
 20
119.5771509671396
 30
0.0
 10
376.0448234553081
 20
119.5566089563678
 30
0.0
 10
376.0274644624608
 20
119.532227582321
 30
0.0
 10
376.0075072913075
 20
119.5039788382492
 30
0.0
 10
375.9849982416119
 20
119.471833290848
 30
0.0
 10
375.9599890058506
 20
119.4357564508818
 30
0.0
 10
375.9325396363257
 20
119.3957128583625
 30
0.0
 10
375.8906165232585
 20
119.3337924150213
 30
0.0
 10
375.8314103480473
 20
119.2444799239247
 30
0.0
 10
375.751630754927
 20
119.119935331896
 30
0.0
 10
375.6656499699405
 20
118.9801505394062
 30
0.0
 10
375.5743651827186
 20
118.8257377204201
 30
0.0
 10
375.5111608286606
 20
118.7116916987693
 30
0.0
 10
375.479244678695
 20
118.654102154754
 30
0.0
  0
LINE
  5
F5
330
1F
100
AcDbEntity
  8
0
  6
Continuous
 62
     7
370
    25
100
AcDbLine
 10
372.4083515528
 20
109.9408148914
 30
0.0
 11
372.8325894747
 21
110.3896080642
 31
0.0
  0
SPLINE
  5
F6
330
1F
100
AcDbEntity
  8
0
  6
Continuous
 62
     7
370
    25
100
AcDbSpline
210
0.0
220
0.0
230
1.0
 70
     8
 71
     3
 72
    13
 73
     9
 74
     0
 42
0.000000001
 43
0.00000001
 40
0.0
 40
0.0
 40
0.0
 40
0.0
 40
0.170632084649598
 40
0.3395984165075754
 40
0.5069574111411415
 40
0.6727691830249297
 40
0.8370955447763889
 40
1.0
 40
1.0
 40
1.0
 40
1.0
 10
372.8325891871434
 20
110.3895872936772
 30
0.0
 10
372.8375946575522
 20
110.3826359205958
 30
0.0
 10
372.8475567337246
 20
110.3688010354637
 30
0.0
 10
372.8604305616165
 20
110.3526732770067
 30
0.0
 10
372.8716968741124
 20
110.3400045468477
 30
0.0
 10
372.8811742375476
 20
110.3311481090088
 30
0.0
 10
372.8890564702424
 20
110.325636080529
 30
0.0
 10
372.8928713764758
 20
110.3249577344481
 30
0.0
 10
372.8947705411921
 20
110.3246200352064
 30
0.0
  0
SPLINE
  5
F7
330
1F
100
AcDbEntity
  8
0
  6
Continuous
 62
     7
370
    25
100
AcDbSpline
210
0.0
220
0.0
230
1.0
 70
     8
 71
     3
 72
    13
 73
     9
 74
     0
 42
0.000000001
 43
0.00000001
 40
0.0
 40
0.0
 40
0.0
 40
0.0
 40
0.1621004456571512
 40
0.325943455157606
 40
0.4915935308260523
 40
0.6591130873964648
 40
0.8285624736043361
 40
1.0
 40
1.0
 40
1.0
 40
1.0
 10
393.5472148073393
 20
110.3246200352064
 30
0.0
 10
393.5490919136815
 20
110.3249545183071
 30
0.0
 10
393.5528663050744
 20
110.3256270801687
 30
0.0
 10
393.5607133822533
 20
110.3311003645644
 30
0.0
 10
393.5701794420285
 20
110.3399198292247
 30
0.0
 10
393.5814603568308
 20
110.3525725862187
 30
0.0
 10
393.5943749753285
 20
110.3687245876152
 30
0.0
 10
393.6043706895742
 20
110.3826103875582
 30
0.0
 10
393.6093976954858
 20
110.3895937803088
 30
0.0
  0
LINE
  5
F8
330
1F
100
AcDbEntity
  8
0
  6
Continuous
 62
     7
370
    25
100
AcDbLine
 10
393.609410775
 20
110.3895940944
 30
0.0
 11
394.0336328644
 21
109.9408148914
 31
0.0
  0
SPLINE
  5
F9
330
1F
100
AcDbEntity
  8
0
  6
Continuous
 62
     7
370
    25
100
AcDbSpline
210
0.0
220
0.0
230
1.0
 70
     8
 71
     3
 72
     8
 73
     4
 74
     0
 42
0.000000001
 43
0.00000001
 40
0.0
 40
0.0
 40
0.0
 40
0.0
 40
1.0
 40
1.0
 40
1.0
 40
1.0
 10
393.6094107364787
 20
110.389594393376
 30
0.0
 10
393.6072272522376
 20
110.3924430588924
 30
0.0
 10
393.6050437679965
 20
110.3953838502899
 30
0.0
 10
393.6028602837554
 20
110.3984163475664
 30
0.0
  0
LINE
  5
FA
330
1F
100
AcDbEntity
  8
0
  6
Continuous
 62
     7
370
    25
100
AcDbLine
 10
393.6019574005
 20
110.3996202475
 30
0.0
 11
391.1631467465
 21
110.3996202475
 31
0.0
  0
LINE
  5
FB
330
1F
100
AcDbEntity
  8
0
  6
Continuous
 62
     7
370
    25
100
AcDbLine
 10
391.1544211853
 20
110.3996202475
 30
0.0
 11
391.1631430212
 21
110.3996202475
 31
0.0
  0
SPLINE
  5
FC
330
1F
100
AcDbEntity
  8
0
  6
Continuous
 62
     7
370
    25
100
AcDbSpline
210
0.0
220
0.0
230
1.0
 70
     8
 71
     3
 72
     8
 73
     4
 74
     0
 42
0.000000001
 43
0.00000001
 40
0.0
 40
0.0
 40
0.0
 40
0.0
 40
1.0
 40
1.0
 40
1.0
 40
1.0
 10
372.8400278311855
 20
110.3996200352141
 30
0.0
 10
372.837541912499
 20
110.396158335902
 30
0.0
 10
372.8350559938124
 20
110.3928141839931
 30
0.0
 10
372.8325700751259
 20
110.3895881920527
 30
0.0
  0
LINE
  5
FD
330
1F
100
AcDbEntity
  8
0
  6
Continuous
 62
     7
370
    25
100
AcDbLine
 10
375.2773317221
 20
110.3996202475
 30
0.0
 11
372.8402440149
 21
110.3996202475
 31
0.0
  0
LINE
  5
FE
330
1F
100
AcDbEntity
  8
0
  6
Continuous
 62
     7
370
    25
100
AcDbLine
 10
375.278841396
 20
110.3996202475
 30
0.0
 11
375.2875641632
 21
110.3996202475
 31
0.0
  0
SPLINE
  5
FF
330
1F
100
AcDbEntity
  8
0
  6
Continuous
 62
     7
370
    25
100
AcDbSpline
210
0.0
220
0.0
230
1.0
 70
     8
 71
     3
 72
    14
 73
    10
 74
     0
 42
0.000000001
 43
0.00000001
 40
0.0
 40
0.0
 40
0.0
 40
0.0
 40
0.0310276388071746
 40
0.0622853718672815
 40
0.1248003166904892
 40
0.2498289731753984
 40
0.499889260361071
 40
0.7606803621682141
 40
1.0
 40
1.0
 40
1.0
 40
1.0
 10
372.2608986798065
 20
109.942881860591
 30
0.0
 10
372.2652279732716
 20
109.9476657828691
 30
0.0
 10
372.2739186653052
 20
109.9572691039574
 30
0.0
 10
372.2913194439673
 20
109.9765634179552
 30
0.0
 10
372.3217956038123
 20
110.0103283644089
 30
0.0
 10
372.3826169966317
 20
110.0777471232706
 30
0.0
 10
372.4705073390449
 20
110.1752137981375
 30
0.0
 10
372.5733450191284
 20
110.2893583100345
 30
0.0
 10
372.64055113057
 20
110.3641431230411
 30
0.0
 10
372.672711492217
 20
110.3999301456853
 30
0.0
  0
LINE
  5
100
330
1F
100
AcDbEntity
  8
0
  6
Continuous
 62
     7
370
    25
100
AcDbLine
 10
372.6723833654
 20
110.3996202475
 30
0.0
 11
372.8400279481
 21
110.3996202475
 31
0.0
  0
LINE
  5
101
330
1F
100
AcDbEntity
  8
0
  6
Continuous
 62
     7
370
    25
100
AcDbLine
 10
393.6019574005
 20
110.3996202475
 30
0.0
 11
393.7696094337
 21
110.3996202475
 31
0.0
  0
SPLINE
  5
102
330
1F
100
AcDbEntity
  8
0
  6
Continuous
 62
     7
370
    25
100
AcDbSpline
210
0.0
220
0.0
230
1.0
 70
     8
 71
     3
 72
    11
 73
     7
 74
     0
 42
0.000000001
 43
0.00000001
 40
0.0
 40
0.0
 40
0.0
 40
0.0
 40
0.2392913844325938
 40
0.5001130135003002
 40
0.7515028526498353
 40
0.9999999999999999
 40
0.9999999999999999
 40
0.9999999999999999
 40
0.9999999999999999
 10
393.7693059269361
 20
110.399906837718
 30
0.0
 10
393.8014624799158
 20
110.3641301191407
 30
0.0
 10
393.8686688720413
 20
110.289357671385
 30
0.0
 10
393.9716969617888
 20
110.1748989580623
 30
0.0
 10
394.0767876264059
 20
110.0587397719424
 30
0.0
 10
394.1464624464856
 20
109.9813518306467
 30
0.0
 10
394.1810982631793
 20
109.9428817700718
 30
0.0
  0
LINE
  5
103
330
1F
100
AcDbEntity
  8
0
  6
Continuous
 62
     7
370
    25
100
AcDbLine
 10
372.8170997176
 20
118.4621198229
 30
0.0
 11
372.6725277204
 21
118.4621198229
 31
0.0
  0
SPLINE
  5
104
330
1F
100
AcDbEntity
  8
0
  6
Continuous
 62
     7
370
    25
100
AcDbSpline
210
0.0
220
0.0
230
1.0
 70
     8
 71
     3
 72
    11
 73
     7
 74
     0
 42
0.000000001
 43
0.00000001
 40
0.0
 40
0.0
 40
0.0
 40
0.0
 40
0.2392845094479873
 40
0.5001120454076898
 40
0.7515010915036774
 40
1.0
 40
1.0
 40
1.0
 40
1.0
 10
372.672830330056
 20
118.4618342490098
 30
0.0
 10
372.640669200286
 20
118.4976320980716
 30
0.0
 10
372.5734514416899
 20
118.5724507127694
 30
0.0
 10
372.4704067931918
 20
118.6869789770245
 30
0.0
 10
372.3652985643051
 20
118.8032099706989
 30
0.0
 10
372.2956130476776
 20
118.8806444663899
 30
0.0
 10
372.2609717352379
 20
118.919137867726
 30
0.0
  0
SPLINE
  5
105
330
1F
100
AcDbEntity
  8
0
  6
Continuous
 62
     7
370
    25
100
AcDbSpline
210
0.0
220
0.0
230
1.0
 70
     8
 71
     3
 72
    14
 73
    10
 74
     0
 42
0.000000001
 43
0.00000001
 40
0.0
 40
0.0
 40
0.0
 40
0.0
 40
0.031029414748255
 40
0.0622870907562092
 40
0.1248019217225762
 40
0.249830351143087
 40
0.4998901825554788
 40
0.7606872170552411
 40
1.0
 40
1.0
 40
1.0
 40
1.0
 10
394.1810019979682
 20
118.9191377594498
 30
0.0
 10
394.1766718016527
 20
118.9143505728798
 30
0.0
 10
394.1679795548576
 20
118.9047409838247
 30
0.0
 10
394.1505759265102
 20
118.8854349901187
 30
0.0
 10
394.120095190975
 20
118.8516497744668
 30
0.0
 10
394.0592645692528
 20
118.7841906435192
 30
0.0
 10
393.9713596660861
 20
118.6866641378089
 30
0.0
 10
393.8685054214693
 20
118.5724501310344
 30
0.0
 10
393.8012879633227
 20
118.4976191709294
 30
0.0
 10
393.7691230339205
 20
118.4618110250212
 30
0.0
  0
LINE
  5
106
330
1F
100
AcDbEntity
  8
0
  6
Continuous
 62
     7
370
    25
100
AcDbLine
 10
393.7694501776
 20
118.4621198229
 30
0.0
 11
393.6248856309
 21
118.4621198229
 31
0.0
  0
LINE
  5
107
330
1F
100
AcDbEntity
  8
0
  6
Continuous
 62
     7
370
    25
100
AcDbLine
 10
371.3503244046
 20
112.2435323089
 30
0.0
 11
371.7903873596
 21
112.3246200043
 31
0.0
  0
SPLINE
  5
108
330
1F
100
AcDbEntity
  8
0
  6
Continuous
 62
     7
370
    25
100
AcDbSpline
210
0.0
220
0.0
230
1.0
 70
     8
 71
     3
 72
    25
 73
    21
 74
     0
 42
0.000000001
 43
0.00000001
 40
0.0
 40
0.0
 40
0.0
 40
0.0
 40
0.0274788704223154
 40
0.0560416006850518
 40
0.0856947086352136
 40
0.116444016653826
 40
0.1482947438681133
 40
0.1812515840470034
 40
0.2153187716748716
 40
0.2505001382254911
 40
0.333051455250936
 40
0.5015081958163736
 40
0.5771663066143947
 40
0.648898130302521
 40
0.716747770006283
 40
0.7807674423488066
 40
0.84101941313403
 40
0.8975784849924567
 40
0.9505352047788314
 40
1.0
 40
1.0
 40
1.0
 40
1.0
 10
371.7903874668544
 20
112.3246200352064
 30
0.0
 10
371.7970956341979
 20
112.2954378306889
 30
0.0
 10
371.8107765617547
 20
112.2359223765402
 30
0.0
 10
371.8335412904086
 20
112.1455318794815
 30
0.0
 10
371.8584189276489
 20
112.0524002703604
 30
0.0
 10
371.8855581656665
 20
111.9568142260855
 30
0.0
 10
371.9149195726977
 20
111.8590607564722
 30
0.0
 10
371.9465047429857
 20
111.7594800804147
 30
0.0
 10
371.9803516128506
 20
111.6584709408362
 30
0.0
 10
372.0320528427834
 20
111.5117041335851
 30
0.0
 10
372.1364118557971
 20
111.2474377206708
 30
0.0
 10
372.2572850834809
 20
110.9774680908423
 30
0.0
 10
372.3707781299379
 20
110.760058416126
 30
0.0
 10
372.4420510975538
 20
110.6303548453955
 30
0.0
 10
372.5041256696797
 20
110.5264797680706
 30
0.0
 10
372.5567096818469
 20
110.4466191342521
 30
0.0
 10
372.5999562277745
 20
110.3886005081016
 30
0.0
 10
372.6335630399946
 20
110.3504969494492
 30
0.0
 10
372.6585100228673
 20
110.3284944184545
 30
0.0
 10
372.6674695597292
 20
110.3258818051032
 30
0.0
 10
372.6717965964473
 20
110.3246200352064
 30
0.0
  0
LINE
  5
109
330
1F
100
AcDbEntity
  8
0
  6
Continuous
 62
     7
370
    25
100
AcDbLine
 10
395.091660944
 20
116.6182077616
 30
0.0
 11
394.6515979889
 21
116.5371200661
 31
0.0
  0
SPLINE
  5
10A
330
1F
100
AcDbEntity
  8
0
  6
Continuous
 62
     7
370
    25
100
AcDbSpline
210
0.0
220
0.0
230
1.0
 70
     8
 71
     3
 72
    25
 73
    21
 74
     0
 42
0.000000001
 43
0.00000001
 40
0.0
 40
0.0
 40
0.0
 40
0.0
 40
0.0274788704223041
 40
0.0560416006850305
 40
0.0856947086351823
 40
0.1164440166537841
 40
0.1482947438680617
 40
0.1812515840469434
 40
0.2153187716748025
 40
0.2505001382254136
 40
0.3330514552861967
 40
0.5015081958164245
 40
0.5771663066128696
 40
0.6488981302998588
 40
0.7167477700029257
 40
0.7807674423452041
 40
0.8410194131306359
 40
0.8975784849897311
 40
0.950535204777236
 40
1.0
 40
1.0
 40
1.0
 40
1.0
 10
394.6515978816769
 20
116.5371200352064
 30
0.0
 10
394.6448897143335
 20
116.5663022397239
 30
0.0
 10
394.6312087867767
 20
116.6258176938726
 30
0.0
 10
394.6084440581229
 20
116.7162081909313
 30
0.0
 10
394.5835664208825
 20
116.8093398000525
 30
0.0
 10
394.5564271828649
 20
116.9049258443274
 30
0.0
 10
394.5270657758337
 20
117.0026793139406
 30
0.0
 10
394.4954806055456
 20
117.1022599899981
 30
0.0
 10
394.4616337356809
 20
117.2032691295767
 30
0.0
 10
394.4099325057356
 20
117.3500359368618
 30
0.0
 10
394.3055734927246
 20
117.6143023497744
 30
0.0
 10
394.1847002650389
 20
117.8842719795935
 30
0.0
 10
394.0712072185936
 20
118.1016816542837
 30
0.0
 10
393.999934250978
 20
118.2313852250127
 30
0.0
 10
393.9378596788522
 20
118.3352603023374
 30
0.0
 10
393.885275666685
 20
118.4151209361567
 30
0.0
 10
393.8420291207575
 20
118.4731395623086
 30
0.0
 10
393.8084223085372
 20
118.5112431209623
 30
0.0
 10
393.7834753256644
 20
118.5332456519582
 30
0.0
 10
393.7745157888023
 20
118.5358582653096
 30
0.0
 10
393.7701887520842
 20
118.5371200352064
 30
0.0
  0
SPLINE
  5
10B
330
1F
100
AcDbEntity
  8
0
  6
Continuous
 62
     7
370
    25
100
AcDbSpline
210
0.0
220
0.0
230
1.0
 70
     8
 71
     3
 72
    25
 73
    21
 74
     0
 42
0.000000001
 43
0.00000001
 40
0.0
 40
0.0
 40
0.0
 40
0.0
 40
0.0288821753110086
 40
0.0583636594013118
 40
0.0884647204314734
 40
0.1192044006626603
 40
0.150600580009491
 40
0.1826700399677263
 40
0.2154285269580574
 40
0.248890814337993
 40
0.361059447124065
 40
0.4984670131067773
 40
0.5822693905007604
 40
0.666112764278331
 40
0.7499972937224478
 40
0.8007709755049082
 40
0.8511237700832938
 40
0.9010896024531745
 40
0.9507031914125761
 40
1.0
 40
1.0
 40
1.0
 40
1.0
 10
372.6717965964473
 20
118.5371200352064
 30
0.0
 10
372.6695063280695
 20
118.5366917932305
 30
0.0
 10
372.6648782679566
 20
118.5358264232037
 30
0.0
 10
372.6545680048692
 20
118.5287514905021
 30
0.0
 10
372.6417319356384
 20
118.5171829493417
 30
0.0
 10
372.6261183768958
 20
118.5004773732292
 30
0.0
 10
372.6077969334831
 20
118.478540462213
 30
0.0
 10
372.586749347652
 20
118.4511428267283
 30
0.0
 10
372.5629777756599
 20
118.4181083460462
 30
0.0
 10
372.5159212462234
 20
118.3491176799184
 30
0.0
 10
372.4282268283665
 20
118.2090917104968
 30
0.0
 10
372.3106751738331
 20
117.9897964092923
 30
0.0
 10
372.1991530094917
 20
117.7528663485211
 30
0.0
 10
372.1076936921436
 20
117.5370244746112
 30
0.0
 10
372.0268120409661
 20
117.3354628537294
 30
0.0
 10
371.960667139098
 20
117.1565947733372
 30
0.0
 10
371.9113165782709
 20
117.0052185721933
 30
0.0
 10
371.866349561406
 20
116.8509744170704
 30
0.0
 10
371.8255918474868
 20
116.6948185619948
 30
0.0
 10
371.8020971782695
 20
116.5895738550468
 30
0.0
 10
371.7903874668544
 20
116.5371200352064
 30
0.0
  0
LINE
  5
10C
330
1F
100
AcDbEntity
  8
0
  6
Continuous
 62
     7
370
    25
100
AcDbLine
 10
371.3503244046
 20
116.6182077616
 30
0.0
 11
371.7903873596
 21
116.5371200661
 31
0.0
  0
SPLINE
  5
10D
330
1F
100
AcDbEntity
  8
0
  6
Continuous
 62
     7
370
    25
100
AcDbSpline
210
0.0
220
0.0
230
1.0
 70
     8
 71
     3
 72
    25
 73
    21
 74
     0
 42
0.000000001
 43
0.00000001
 40
0.0
 40
0.0
 40
0.0
 40
0.0
 40
0.0288821753116583
 40
0.0583636594024247
 40
0.088464720432864
 40
0.1192044006641432
 40
0.1506005800108822
 40
0.1826700399688414
 40
0.2154285269587146
 40
0.2488908143380118
 40
0.3610594471217245
 40
0.498467013106778
 40
0.5822693905006526
 40
0.6661127642782239
 40
0.7499972937224496
 40
0.8007709755032478
 40
0.8511237700807983
 40
0.901089602450676
 40
0.9507031914109089
 40
1.0
 40
1.0
 40
1.0
 40
1.0
 10
393.7701887520842
 20
110.3246200352064
 30
0.0
 10
393.7724790204618
 20
110.3250482771823
 30
0.0
 10
393.7771070805749
 20
110.3259136472092
 30
0.0
 10
393.7874173436624
 20
110.3329885799111
 30
0.0
 10
393.8002534128933
 20
110.3445571210718
 30
0.0
 10
393.815866971636
 20
110.3612626971845
 30
0.0
 10
393.8341884150485
 20
110.3831996082009
 30
0.0
 10
393.8552360008796
 20
110.4105972436855
 30
0.0
 10
393.8790075728716
 20
110.4436317243673
 30
0.0
 10
393.9260641023079
 20
110.5126223904938
 30
0.0
 10
394.0137585201657
 20
110.6526483599144
 30
0.0
 10
394.1313101746977
 20
110.8719436611186
 30
0.0
 10
394.2428323390385
 20
111.1088737218919
 30
0.0
 10
394.3342916563865
 20
111.3247155958018
 30
0.0
 10
394.4151733075645
 20
111.5262772166819
 30
0.0
 10
394.4813182094326
 20
111.7051452970714
 30
0.0
 10
394.5306687702591
 20
111.8565214982126
 30
0.0
 10
394.5756357871239
 20
112.0107656533354
 30
0.0
 10
394.6163935010437
 20
112.1669215084136
 30
0.0
 10
394.6398881702615
 20
112.2721662153643
 30
0.0
 10
394.6515978816769
 20
112.3246200352064
 30
0.0
  0
LINE
  5
10E
330
1F
100
AcDbEntity
  8
0
  6
Continuous
 62
     7
370
    25
100
AcDbLine
 10
395.091660944
 20
112.2435323089
 30
0.0
 11
394.6515979889
 21
112.3246200043
 31
0.0
  0
SPLINE
  5
10F
330
1F
100
AcDbEntity
  8
0
  6
Continuous
 62
     7
370
    25
100
AcDbSpline
210
0.0
220
0.0
230
1.0
 70
     8
 71
     3
 72
    12
 73
     8
 74
     0
 42
0.000000001
 43
0.00000001
 40
0.0
 40
0.0
 40
0.0
 40
0.0
 40
0.2971540265968837
 40
0.5953109213084592
 40
0.7630993176302537
 40
0.9170814912125203
 40
1.0
 40
1.0
 40
1.0
 40
1.0
 10
374.3231349337443
 20
116.5371200661263
 30
0.0
 10
374.4054637637561
 20
116.7984560776782
 30
0.0
 10
374.5703992761767
 20
117.3220100863171
 30
0.0
 10
374.8366894301096
 20
117.8783237860197
 30
0.0
 10
375.0294997582418
 20
118.2165156182476
 30
0.0
 10
375.1309585781492
 20
118.3913926523847
 30
0.0
 10
375.1640725979343
 20
118.4437826133755
 30
0.0
 10
375.1756629619344
 20
118.4621198228649
 30
0.0
  0
SPLINE
  5
110
330
1F
100
AcDbEntity
  8
0
  6
Continuous
 62
     7
370
    25
100
AcDbSpline
210
0.0
220
0.0
230
1.0
 70
     8
 71
     3
 72
    12
 73
     8
 74
     0
 42
0.000000001
 43
0.00000001
 40
0.0
 40
0.0
 40
0.0
 40
0.0
 40
0.2971540265968837
 40
0.5953109213084592
 40
0.7630993176302537
 40
0.9170814912125203
 40
1.0
 40
1.0
 40
1.0
 40
1.0
 10
392.1188504147871
 20
112.3246200042865
 30
0.0
 10
392.0365215847753
 20
112.0632839927347
 30
0.0
 10
391.8715860723548
 20
111.5397299840958
 30
0.0
 10
391.6052959184217
 20
110.9834162843932
 30
0.0
 10
391.4124855902896
 20
110.6452244521653
 30
0.0
 10
391.3110267703822
 20
110.4703474180281
 30
0.0
 10
391.2779127505971
 20
110.4179574570373
 30
0.0
 10
391.266322386597
 20
110.399620247548
 30
0.0
  0
SPLINE
  5
111
330
1F
100
AcDbEntity
  8
0
  6
Continuous
 62
     7
370
    25
100
AcDbSpline
210
0.0
220
0.0
230
1.0
 70
     8
 71
     3
 72
    11
 73
     7
 74
     0
 42
0.000000001
 43
0.00000001
 40
0.0
 40
0.0
 40
0.0
 40
0.0
 40
0.1078686449390932
 40
0.4034673949314601
 40
0.7028907467952099
 40
1.0
 40
1.0
 40
1.0
 40
1.0
 10
375.1745938036187
 20
110.399620247548
 30
0.0
 10
375.1581479193712
 20
110.4255848151512
 30
0.0
 10
375.0966344176634
 20
110.5227016043472
 30
0.0
 10
374.881125815201
 20
110.8983785120404
 30
0.0
 10
374.5693577558151
 20
111.5376415316607
 30
0.0
 10
374.4049966752352
 20
112.0629731441653
 30
0.0
 10
374.3231349337443
 20
112.3246200042865
 30
0.0
  0
LINE
  5
112
330
1F
100
AcDbEntity
  8
0
  6
Continuous
 62
     7
370
    25
100
AcDbLine
 10
374.6393953163
 20
116.4622566323
 30
0.0
 11
374.3231349337
 21
116.5371200661
 31
0.0
  0
SPLINE
  5
113
330
1F
100
AcDbEntity
  8
0
  6
Continuous
 62
     7
370
    25
100
AcDbSpline
210
0.0
220
0.0
230
1.0
 70
     8
 71
     3
 72
    25
 73
    21
 74
     0
 42
0.000000001
 43
0.00000001
 40
0.0
 40
0.0
 40
0.0
 40
0.0
 40
0.0278144320063462
 40
0.0555680196245754
 40
0.083331625367772
 40
0.111176035216759
 40
0.1391714221532265
 40
0.1673868326284763
 40
0.1958897140434718
 40
0.2247454979318961
 40
0.254017249222145
 40
0.3796724410016501
 40
0.5056484635002454
 40
0.629752729069345
 40
0.7535891720571729
 40
0.8038564806093713
 40
0.853339684343451
 40
0.9023264398358534
 40
0.9511131859219439
 40
1.0
 40
1.0
 40
1.0
 40
1.0
 10
375.5070165849772
 20
118.7046183263889
 30
0.0
 10
375.5068688336625
 20
118.7043517838354
 30
0.0
 10
375.5065736542408
 20
118.7038192817932
 30
0.0
 10
375.502948955225
 20
118.6972718330971
 30
0.0
 10
375.4970030595546
 20
118.6865025898108
 30
0.0
 10
375.4885283366395
 20
118.6710918538865
 30
0.0
 10
375.4776133498004
 20
118.6511354776328
 30
0.0
 10
375.464277281562
 20
118.6265853811623
 30
0.0
 10
375.4485695168751
 20
118.5974287574064
 30
0.0
 10
375.4305379287172
 20
118.563632785973
 30
0.0
 10
375.3881203839688
 20
118.4832260279152
 30
0.0
 10
375.3075993442153
 20
118.3262375782445
 30
0.0
 10
375.1741729973408
 20
118.0444518404971
 30
0.0
 10
375.0300960206577
 20
117.7065797308701
 30
0.0
 10
374.9144182692063
 20
117.3978988171318
 30
0.0
 10
374.831906793989
 20
117.1518680973768
 30
0.0
 10
374.7789851694639
 20
116.9830422061036
 30
0.0
 10
374.7291280350865
 20
116.8117266350919
 30
0.0
 10
374.6821100418559
 20
116.6380442848711
 30
0.0
 10
374.6536430311274
 20
116.5208925965677
 30
0.0
 10
374.6393949433286
 20
116.4622567406063
 30
0.0
  0
LINE
  5
114
330
1F
100
AcDbEntity
  8
0
  6
Continuous
 62
     7
370
    25
100
AcDbLine
 10
374.6393953163
 20
112.3994834381
 30
0.0
 11
374.3231349337
 21
112.3246200043
 31
0.0
  0
SPLINE
  5
115
330
1F
100
AcDbEntity
  8
0
  6
Continuous
 62
     7
370
    25
100
AcDbSpline
210
0.0
220
0.0
230
1.0
 70
     8
 71
     3
 72
    25
 73
    21
 74
     0
 42
0.000000001
 43
0.00000001
 40
0.0
 40
0.0
 40
0.0
 40
0.0
 40
0.0269872354797669
 40
0.0539362690259618
 40
0.0809037148829035
 40
0.1079460716545392
 40
0.1351193706855853
 40
0.162478838835575
 40
0.190078585418252
 40
0.2179713214290535
 40
0.2462081170984584
 40
0.3700050494705653
 40
0.4947542611659071
 40
0.6210439034695193
 40
0.7446557472315123
 40
0.7967060293738726
 40
0.8478613449329371
 40
0.8985210411990388
 40
0.9490962115257747
 40
1.0
 40
1.0
 40
1.0
 40
1.0
 10
374.6393949433286
 20
112.3994833298066
 30
0.0
 10
374.6471756880526
 20
112.3670869247789
 30
0.0
 10
374.6627261634237
 20
112.3023399736375
 30
0.0
 10
374.6874115693969
 20
112.2056934372089
 30
0.0
 10
374.7130315263959
 20
112.1095993487176
 30
0.0
 10
374.7396743900234
 20
112.0140870780008
 30
0.0
 10
374.7672995753078
 20
111.9191623506082
 30
0.0
 10
374.7959013543671
 20
111.8248361944725
 30
0.0
 10
374.8254634440086
 20
111.7311198500232
 30
0.0
 10
374.8559765910558
 20
111.6380157661329
 30
0.0
 10
374.9227107956451
 20
111.4417505240199
 30
0.0
 10
375.0298939717408
 20
111.1556774084166
 30
0.0
 10
375.1736740620496
 20
110.8183875124232
 30
0.0
 10
375.3069225182614
 20
110.5368783355998
 30
0.0
 10
375.3945936944746
 20
110.3658874054213
 30
0.0
 10
375.445468730267
 20
110.2699745870389
 30
0.0
 10
375.4731378849184
 20
110.2187573835842
 30
0.0
 10
375.4928368030359
 20
110.1827745894992
 30
0.0
 10
375.5050843117394
 20
110.1606047011772
 30
0.0
 10
375.5063711048954
 20
110.1582852334436
 30
0.0
 10
375.5070165849772
 20
110.1571217440239
 30
0.0
  0
LINE
  5
116
330
1F
100
AcDbEntity
  8
0
  6
Continuous
 62
     7
370
    25
100
AcDbLine
 10
391.8025900323
 20
112.3994834381
 30
0.0
 11
392.1188504148
 21
112.3246200043
 31
0.0
  0
SPLINE
  5
117
330
1F
100
AcDbEntity
  8
0
  6
Continuous
 62
     7
370
    25
100
AcDbSpline
210
0.0
220
0.0
230
1.0
 70
     8
 71
     3
 72
    25
 73
    21
 74
     0
 42
0.000000001
 43
0.00000001
 40
0.0
 40
0.0
 40
0.0
 40
0.0
 40
0.0278144320057649
 40
0.0555680196235595
 40
0.083331625366468
 40
0.1111760352153128
 40
0.1391714221517827
 40
0.1673868326271739
 40
0.195889714042447
 40
0.2247454979312803
 40
0.2540172492220635
 40
0.3796724409988544
 40
0.505648463500191
 40
0.6297527290689083
 40
0.7535891720572004
 40
0.803856480609888
 40
0.85333968434422
 40
0.902326439836625
 40
0.9511131859224594
 40
1.0
 40
1.0
 40
1.0
 40
1.0
 10
390.9349687635542
 20
110.1571217440239
 30
0.0
 10
390.9351165148689
 20
110.1573882865775
 30
0.0
 10
390.9354116942907
 20
110.1579207886197
 30
0.0
 10
390.9390363933065
 20
110.1644682373158
 30
0.0
 10
390.9449822889768
 20
110.1752374806021
 30
0.0
 10
390.9534570118919
 20
110.1906482165264
 30
0.0
 10
390.964371998731
 20
110.2106045927802
 30
0.0
 10
390.9777080669694
 20
110.2351546892507
 30
0.0
 10
390.9934158316564
 20
110.2643113130066
 30
0.0
 10
391.0114474198143
 20
110.29810728444
 30
0.0
 10
391.0538649645613
 20
110.3785140424953
 30
0.0
 10
391.1343860043151
 20
110.5355024921665
 30
0.0
 10
391.2678123511895
 20
110.8172882299133
 30
0.0
 10
391.4118893278731
 20
111.1551603395411
 30
0.0
 10
391.5275670793251
 20
111.4638412532809
 30
0.0
 10
391.6100785545429
 20
111.7098719730376
 30
0.0
 10
391.6630001790683
 20
111.8786978643117
 30
0.0
 10
391.7128573134456
 20
112.0500134353234
 30
0.0
 10
391.7598753066758
 20
112.2236957855433
 30
0.0
 10
391.7883423174041
 20
112.3408474738458
 30
0.0
 10
391.8025904052027
 20
112.3994833298066
 30
0.0
  0
SPLINE
  5
118
330
1F
100
AcDbEntity
  8
0
  6
Continuous
 62
     7
370
    25
100
AcDbSpline
210
0.0
220
0.0
230
1.0
 70
     8
 71
     3
 72
    11
 73
     7
 74
     0
 42
0.000000001
 43
0.00000001
 40
0.0
 40
0.0
 40
0.0
 40
0.0
 40
0.1078686449390932
 40
0.4034673949314601
 40
0.7028907467952099
 40
1.0
 40
1.0
 40
1.0
 40
1.0
 10
391.2673915449126
 20
118.4621198228649
 30
0.0
 10
391.2838374291602
 20
118.4361552552616
 30
0.0
 10
391.3453509308681
 20
118.3390384660657
 30
0.0
 10
391.5608595333304
 20
117.9633615583725
 30
0.0
 10
391.8726275927162
 20
117.3240985387522
 30
0.0
 10
392.0369886732962
 20
116.7987669262476
 30
0.0
 10
392.1188504147871
 20
116.5371200661263
 30
0.0
  0
LINE
  5
119
330
1F
100
AcDbEntity
  8
0
  6
Continuous
 62
     7
370
    25
100
AcDbLine
 10
391.8025900323
 20
116.4622566323
 30
0.0
 11
392.1188504148
 21
116.5371200661
 31
0.0
  0
SPLINE
  5
11A
330
1F
100
AcDbEntity
  8
0
  6
Continuous
 62
     7
370
    25
100
AcDbSpline
210
0.0
220
0.0
230
1.0
 70
     8
 71
     3
 72
    12
 73
     8
 74
     0
 42
0.000000001
 43
0.00000001
 40
0.0
 40
0.0
 40
0.0
 40
0.0
 40
0.1404141540052139
 40
0.2845308631549995
 40
0.5710083094680874
 40
0.8589424285223366
 40
0.9999999999999999
 40
0.9999999999999999
 40
0.9999999999999999
 40
0.9999999999999999
 10
391.802590032254
 20
116.4622566322884
 30
0.0
 10
391.7658191589232
 20
116.6078026911138
 30
0.0
 10
391.6913078078281
 20
116.9027326861687
 30
0.0
 10
391.5109643238713
 20
117.460983256054
 30
0.0
 10
391.2647429430636
 20
118.0688395910853
 30
0.0
 10
391.0465679027025
 20
118.4996267306777
 30
0.0
 10
390.9836320585967
 20
118.6155022275697
 30
0.0
 10
390.9629380043193
 20
118.6536034694961
 30
0.0
  0
ARC
  5
11B
330
1F
100
AcDbEntity
  8
0
  6
Continuous
 62
     7
370
    25
100
AcDbCircle
 10
383.2209926743
 20
114.4308700352
 30
0.0
 40
11.62303852141071
100
AcDbArc
 50
169.5595567507
 51
190.4404432494
  0
ARC
  5
11C
330
1F
100
AcDbEntity
  8
0
  6
Continuous
 62
     7
370
    25
100
AcDbCircle
 10
383.2209926743
 20
114.4308700352
 30
0.0
 40
9.143750000000006
100
AcDbArc
 50
166.6824039243
 51
193.3175960757
  0
ARC
  5
11D
330
1F
100
AcDbEntity
  8
0
  6
Continuous
 62
     7
370
    25
100
AcDbCircle
 10
383.2209926743
 20
114.4308700352
 30
0.0
 40
8.818750000000023
100
AcDbArc
 50
166.6824039243
 51
193.3175960757
  0
ARC
  5
11E
330
1F
100
AcDbEntity
  8
0
  6
Continuous
 62
     7
370
    25
100
AcDbCircle
 10
383.2209926743
 20
114.4308700352
 30
0.0
 40
9.143750000000006
100
AcDbArc
 50
346.6824039243
 51
13.3175960757
  0
ARC
  5
11F
330
1F
100
AcDbEntity
  8
0
  6
Continuous
 62
     7
370
    25
100
AcDbCircle
 10
383.2209926743
 20
114.4308700352
 30
0.0
 40
8.818749999999966
100
AcDbArc
 50
346.6824039243
 51
13.3175960757
  0
ARC
  5
120
330
1F
100
AcDbEntity
  8
0
  6
Continuous
 62
     7
370
    25
100
AcDbCircle
 10
383.2209926743
 20
114.4308700352
 30
0.0
 40
11.6230385214107
100
AcDbArc
 50
349.5595567507
 51
10.4404432493
  0
CIRCLE
  5
121
330
1F
100
AcDbEntity
  8
0
  6
Continuous
 62
     7
370
    25
100
AcDbCircle
 10
383.2209926743
 20
114.4308700352
 30
0.0
 40
7.774999999999977
  0
CIRCLE
  5
122
330
1F
100
AcDbEntity
  8
0
  6
Continuous
 62
     7
370
    25
100
AcDbCircle
 10
383.2209926743
 20
114.4308700352
 30
0.0
 40
2.615470053837896
  0
CIRCLE
  5
123
330
1F
100
AcDbEntity
  8
0
  6
Continuous
 62
     7
370
    25
100
AcDbCircle
 10
383.2209926743
 20
114.4308700352
 30
0.0
 40
2.5
  0
CIRCLE
  5
124
330
1F
100
AcDbEntity
  8
0
  6
Continuous
 62
     7
370
    25
100
AcDbCircle
 10
383.2209926743
 20
114.4308700352
 30
0.0
 40
15.73749999999995
  0
CIRCLE
  5
125
330
1F
100
AcDbEntity
  8
0
  6
Continuous
 62
     7
370
    25
100
AcDbCircle
 10
383.2209926743
 20
114.4308700352
 30
0.0
 40
13.42499999999995
  0
CIRCLE
  5
126
330
1F
100
AcDbEntity
  8
0
  6
Continuous
 62
     7
370
    25
100
AcDbCircle
 10
383.2209926743
 20
114.4308700352
 30
0.0
 40
2.0
  0
LINE
  5
127
330
1F
100
AcDbEntity
  8
0
  6
CENTER
 62
     7
370
    18
100
AcDbLine
 10
383.2209926743
 20
114.4308700352
 30
0.0
 11
383.2209926743
 21
133.9338216353
 31
0.0
  0
LINE
  5
128
330
1F
100
AcDbEntity
  8
0
  6
CENTER
 62
     7
370
    18
100
AcDbLine
 10
383.2209926743
 20
114.4308700352
 30
0.0
 11
402.7354926743
 21
114.4308700352
 31
0.0
  0
LINE
  5
129
330
1F
100
AcDbEntity
  8
0
  6
Continuous
 62
     7
370
    18
100
AcDbLine
 10
395.2209926743
 20
131.9338216353
 30
0.0
 11
383.2209926743
 21
131.9338216353
 31
0.0
  0
SOLID
  5
12A
330
1F
100
AcDbEntity
  8
0
  6
Continuous
 62
     7
370
    18
100
AcDbTrace
 10
383.2209926743
 20
131.9338216353
 30
0.0
 11
389.2209926743
 21
130.4338216353
 31
0.0
 12
389.2209926743
 22
133.4338216353
 32
0.0
 13
389.2209926743
 23
133.4338216353
 33
0.0
  0
LINE
  5
12B
330
1F
100
AcDbEntity
  8
0
  6
Continuous
 62
     7
370
    18
100
AcDbLine
 10
412.7354926743
 20
114.4308700352
 30
0.0
 11
400.7354926743
 21
114.4308700352
 31
0.0
  0
SOLID
  5
12C
330
1F
100
AcDbEntity
  8
0
  6
Continuous
 62
     7
370
    18
100
AcDbTrace
 10
400.7354926743
 20
114.4308700352
 30
0.0
 11
406.7354926743
 21
112.9308700352
 31
0.0
 12
406.7354926743
 22
115.9308700352
 32
0.0
 13
406.7354926743
 23
115.9308700352
 33
0.0
  0
MTEXT
  5
12D
330
1F
100
AcDbEntity
  8
0
  6
Continuous
 62
     7
100
AcDbMText
 10
392.0736119303
 20
138.5801148519
 30
0.0
 40
3.5
 41
0.0
 71
     1
 72
     1
  1
A
  7
SLDTEXTSTYLE0
 73
     1
 44
1.0
  0
MTEXT
  5
12E
330
1F
100
AcDbEntity
  8
0
  6
Continuous
 62
     7
100
AcDbMText
 10
409.5881119303
 20
112.2176543941
 30
0.0
 40
3.5
 41
0.0
 71
     1
 72
     1
  1
A
  7
SLDTEXTSTYLE0
 73
     1
 44
1.0
  0
LINE
  5
12F
330
1F
100
AcDbEntity
  8
0
  6
Continuous
 62
     7
370
    25
100
AcDbLine
 10
115.8740664384
 20
82.9558700352
 30
0.0
 11
120.6398686338
 21
82.9558700352
 31
0.0
  0
LINE
  5
130
330
1F
100
AcDbEntity
  8
0
  6
Continuous
 62
     7
370
    25
100
AcDbLine
 10
102.8398686338
 20
82.9558700352
 30
0.0
 11
109.2056708292
 21
82.9558700352
 31
0.0
  0
ARC
  5
131
330
1F
100
AcDbEntity
  8
0
  6
Continuous
 62
     7
370
    25
100
AcDbCircle
 10
102.8398686338
 20
83.1558700352
 30
0.0
 40
0.2000000000000028
100
AcDbArc
 50
180.0
 51
270.0
  0
LINE
  5
132
330
1F
100
AcDbEntity
  8
0
  6
Continuous
 62
     7
370
    25
100
AcDbLine
 10
109.2056708292
 20
82.9558700352
 30
0.0
 11
110.6648686338
 21
85.483274771
 31
0.0
  0
LINE
  5
133
330
1F
100
AcDbEntity
  8
0
  6
Continuous
 62
     7
370
    25
100
AcDbLine
 10
114.4148686338
 20
85.483274771
 30
0.0
 11
115.8740664384
 21
82.9558700352
 31
0.0
  0
ARC
  5
134
330
1F
100
AcDbEntity
  8
0
  6
Continuous
 62
     7
370
    25
100
AcDbCircle
 10
123.6398686338
 20
84.9308700352
 30
0.0
 40
3.0
100
AcDbArc
 50
90.0
 51
180.0
  0
ARC
  5
135
330
1F
100
AcDbEntity
  8
0
  6
Continuous
 62
     7
370
    25
100
AcDbCircle
 10
111.6648686338
 20
85.5808700352
 30
0.0
 40
1.0
100
AcDbArc
 50
90.0
 51
180.0
  0
ARC
  5
136
330
1F
100
AcDbEntity
  8
0
  6
Continuous
 62
     7
370
    25
100
AcDbCircle
 10
113.4148686338
 20
85.5808700352
 30
0.0
 40
1.0
100
AcDbArc
 50
0.0
 51
90.0
  0
LINE
  5
137
330
1F
100
AcDbEntity
  8
0
  6
Continuous
 62
     7
370
    25
100
AcDbLine
 10
111.6648686338
 20
86.5808700352
 30
0.0
 11
113.4148686338
 21
86.5808700352
 31
0.0
  0
LINE
  5
138
330
1F
100
AcDbEntity
  8
0
  6
Continuous
 62
     7
370
    25
100
AcDbLine
 10
123.6398686338
 20
87.9308700352
 30
0.0
 11
165.461947321
 21
87.9308700352
 31
0.0
  0
LINE
  5
139
330
1F
100
AcDbEntity
  8
0
  6
Continuous
 62
     7
370
    25
100
AcDbLine
 10
165.461947321
 20
87.9308700352
 30
0.0
 11
220.3360163731
 21
92.24955293
 31
0.0
  0
ARC
  5
13A
330
1F
100
AcDbEntity
  8
0
  6
Continuous
 62
     7
370
    25
100
AcDbCircle
 10
102.2109337592
 20
88.8808700352
 30
0.0
 40
0.8000000000000158
100
AcDbArc
 50
57.576802718
 51
107.5
  0
LINE
  5
13B
330
1F
100
AcDbEntity
  8
0
  6
Continuous
 62
     7
370
    25
100
AcDbLine
 10
101.4796865938
 20
89.4891319897
 30
0.0
 11
101.9703691196
 21
89.6438435958
 31
0.0
  0
LINE
  5
13C
330
1F
100
AcDbEntity
  8
0
  6
Continuous
 62
     7
370
    25
100
AcDbLine
 10
88.1534231658
 20
90.1583495145
 30
0.0
 11
101.4796865938
 21
89.4891319897
 31
0.0
  0
LINE
  5
13D
330
1F
100
AcDbEntity
  8
0
  6
Continuous
 62
     7
370
    25
100
AcDbLine
 10
64.1898686338
 20
91.3617499076
 30
0.0
 11
72.2447054973
 21
90.9572525767
 31
0.0
  0
ARC
  5
13E
330
1F
100
AcDbEntity
  8
0
  6
Continuous
 62
     7
370
    25
100
AcDbCircle
 10
220.1398686338
 20
94.7418462644
 30
0.0
 40
2.500000000000028
100
AcDbArc
 50
274.5
 51
0.0
  0
LINE
  5
13F
330
1F
100
AcDbEntity
  8
0
  6
Continuous
 62
     7
370
    25
100
AcDbLine
 10
62.6898686338
 20
92.2277753114
 30
0.0
 11
64.1898686338
 21
91.3617499076
 31
0.0
  0
LINE
  5
140
330
1F
100
AcDbEntity
  8
0
  6
Continuous
 62
     7
370
    25
100
AcDbLine
 10
165.6398686338
 20
119.9308700352
 30
0.0
 11
165.1398686338
 21
120.4308700352
 31
0.0
  0
LINE
  5
141
330
1F
100
AcDbEntity
  8
0
  6
Continuous
 62
     7
370
    25
100
AcDbLine
 10
165.1398686338
 20
120.4308700352
 30
0.0
 11
150.1398686338
 21
120.4308700352
 31
0.0
  0
LINE
  5
142
330
1F
100
AcDbEntity
  8
0
  6
Continuous
 62
     7
370
    25
100
AcDbLine
 10
150.1398686338
 20
120.4308700352
 30
0.0
 11
149.6398686338
 21
119.9308700352
 31
0.0
  0
LINE
  5
143
330
1F
100
AcDbEntity
  8
0
  6
Continuous
 62
     7
370
    25
100
AcDbLine
 10
167.6398686338
 20
119.9059722566
 30
0.0
 11
169.6398686338
 21
119.9059722566
 31
0.0
  0
LINE
  5
144
330
1F
100
AcDbEntity
  8
0
  6
Continuous
 62
     7
370
    25
100
AcDbLine
 10
167.6398686338
 20
119.9308700352
 30
0.0
 11
165.6398686338
 21
119.9308700352
 31
0.0
  0
SPLINE
  5
145
330
1F
100
AcDbEntity
  8
0
  6
Continuous
 62
     7
370
    25
100
AcDbSpline
210
0.0
220
0.0
230
1.0
 70
     8
 71
     3
 72
    11
 73
     7
 74
     0
 42
0.000000001
 43
0.00000001
 40
0.0
 40
0.0
 40
0.0
 40
0.0
 40
0.2701949965567629
 40
0.5496278655747089
 40
0.9385757634131326
 40
1.0
 40
1.0
 40
1.0
 40
1.0
 10
149.8757670186745
 20
116.6747707677491
 30
0.0
 10
149.9844066449605
 20
116.7544758760325
 30
0.0
 10
150.2054002483703
 20
116.9166111823833
 30
0.0
 10
150.3899588607828
 20
117.2175285184006
 30
0.0
 10
150.3058713679885
 20
117.4582428253109
 30
0.0
 10
150.1729406046078
 20
117.5970030150772
 30
0.0
 10
150.1548107736626
 20
117.6159278953563
 30
0.0
  0
SPLINE
  5
146
330
1F
100
AcDbEntity
  8
0
  6
Continuous
 62
     7
370
    25
100
AcDbSpline
210
0.0
220
0.0
230
1.0
 70
     8
 71
     3
 72
    10
 73
     6
 74
     0
 42
0.000000001
 43
0.00000001
 40
0.0
 40
0.0
 40
0.0
 40
0.0
 40
0.2702476582550829
 40
0.8114648036973579
 40
1.0
 40
1.0
 40
1.0
 40
1.0
 10
150.2335700489467
 20
114.4308700352065
 30
0.0
 10
150.2812286897072
 20
114.6366297319949
 30
0.0
 10
150.4243319077664
 20
115.2544584045588
 30
0.0
 10
150.181301220159
 20
116.033942503618
 30
0.0
 10
149.9384967719025
 20
116.5432012129328
 30
0.0
 10
149.8757670186745
 20
116.6747707677491
 30
0.0
  0
LINE
  5
147
330
1F
100
AcDbEntity
  8
0
  6
Continuous
 62
     7
370
    25
100
AcDbLine
 10
149.6398686338
 20
118.1308700352
 30
0.0
 11
150.1548107737
 21
117.6159278954
 31
0.0
  0
LINE
  5
148
330
1F
100
AcDbEntity
  8
0
  6
Continuous
 62
     7
370
    25
100
AcDbLine
 10
149.6398686338
 20
118.1308700352
 30
0.0
 11
149.6398686338
 21
114.4308700352
 31
0.0
  0
LINE
  5
149
330
1F
100
AcDbEntity
  8
0
  6
Continuous
 62
     7
370
    25
100
AcDbLine
 10
162.6398686338
 20
117.2565643853
 30
0.0
 11
162.6398686338
 21
117.4308700352
 31
0.0
  0
LINE
  5
14A
330
1F
100
AcDbEntity
  8
0
  6
Continuous
 62
     7
370
    25
100
AcDbLine
 10
162.6398686338
 20
114.971026784
 30
0.0
 11
162.6398686338
 21
117.2565643853
 31
0.0
  0
LINE
  5
14B
330
1F
100
AcDbEntity
  8
0
  6
Continuous
 62
     7
370
    25
100
AcDbLine
 10
162.6398686338
 20
114.4308700352
 30
0.0
 11
162.6398686338
 21
114.971026784
 31
0.0
  0
LINE
  5
14C
330
1F
100
AcDbEntity
  8
0
  6
Continuous
 62
     7
370
    25
100
AcDbLine
 10
156.6398686337
 20
114.971026784
 30
0.0
 11
156.6398686337
 21
114.4308700352
 31
0.0
  0
LINE
  5
14D
330
1F
100
AcDbEntity
  8
0
  6
Continuous
 62
     7
370
    25
100
AcDbLine
 10
156.6398686337
 20
117.2565643853
 30
0.0
 11
156.6398686337
 21
114.971026784
 31
0.0
  0
LINE
  5
14E
330
1F
100
AcDbEntity
  8
0
  6
Continuous
 62
     7
370
    25
100
AcDbLine
 10
156.6398686337
 20
117.4308700352
 30
0.0
 11
156.6398686337
 21
117.2565643853
 31
0.0
  0
LINE
  5
14F
330
1F
100
AcDbEntity
  8
0
  6
Continuous
 62
     7
370
    25
100
AcDbLine
 10
156.6398686337
 20
117.4308700352
 30
0.0
 11
162.6398686338
 21
117.4308700352
 31
0.0
  0
LINE
  5
150
330
1F
100
AcDbEntity
  8
0
  6
Continuous
 62
     7
370
    25
100
AcDbLine
 10
167.6398686338
 20
117.6159278954
 30
0.0
 11
167.6398686338
 21
119.9308700352
 31
0.0
  0
LINE
  5
151
330
1F
100
AcDbEntity
  8
0
  6
Continuous
 62
     7
370
    25
100
AcDbLine
 10
162.6398686338
 20
117.6159278954
 30
0.0
 11
167.6398686338
 21
117.6159278954
 31
0.0
  0
LINE
  5
152
330
1F
100
AcDbEntity
  8
0
  6
Continuous
 62
     7
370
    25
100
AcDbLine
 10
162.6398686338
 20
117.4308700352
 30
0.0
 11
162.6398686338
 21
117.6159278954
 31
0.0
  0
LINE
  5
153
330
1F
100
AcDbEntity
  8
0
  6
Continuous
 62
     7
370
    25
100
AcDbLine
 10
156.6398686337
 20
117.6159278954
 30
0.0
 11
156.6398686337
 21
117.4308700352
 31
0.0
  0
LINE
  5
154
330
1F
100
AcDbEntity
  8
0
  6
Continuous
 62
     7
370
    25
100
AcDbLine
 10
150.1548107737
 20
117.6159278954
 30
0.0
 11
156.6398686337
 21
117.6159278954
 31
0.0
  0
LINE
  5
155
330
1F
100
AcDbEntity
  8
0
  6
Continuous
 62
     7
370
    25
100
AcDbLine
 10
149.6398686338
 20
119.9308700352
 30
0.0
 11
149.6398686338
 21
118.1308700352
 31
0.0
  0
LINE
  5
156
330
1F
100
AcDbEntity
  8
0
  6
Continuous
 62
     7
370
    25
100
AcDbLine
 10
156.6398686337
 20
116.6747707677
 30
0.0
 11
149.8757670187
 21
116.6747707677
 31
0.0
  0
LINE
  5
157
330
1F
100
AcDbEntity
  8
0
  6
Continuous
 62
     7
370
    25
100
AcDbLine
 10
168.9398686338
 20
117.2565643853
 30
0.0
 11
167.6398686338
 21
117.2565643853
 31
0.0
  0
SPLINE
  5
158
330
1F
100
AcDbEntity
  8
0
  6
Continuous
 62
     7
370
    25
100
AcDbSpline
210
0.0
220
0.0
230
1.0
 70
     8
 71
     3
 72
     9
 73
     5
 74
     0
 42
0.000000001
 43
0.00000001
 40
0.0
 40
0.0
 40
0.0
 40
0.0
 40
0.5039876238385124
 40
1.0
 40
1.0
 40
1.0
 40
1.0
 10
168.9398686338123
 20
117.2565643852542
 30
0.0
 10
168.9667003420369
 20
117.1542058179561
 30
0.0
 10
169.0199391656816
 20
116.9511084352893
 30
0.0
 10
169.2766423115832
 20
116.7663922712097
 30
0.0
 10
169.40397024895
 20
116.6747707677491
 30
0.0
  0
LINE
  5
159
330
1F
100
AcDbEntity
  8
0
  6
Continuous
 62
     7
370
    25
100
AcDbLine
 10
162.6398686338
 20
116.6747707677
 30
0.0
 11
169.403970249
 21
116.6747707677
 31
0.0
  0
LINE
  5
15A
330
1F
100
AcDbEntity
  8
0
  6
Continuous
 62
     7
370
    25
100
AcDbLine
 10
167.6398686338
 20
117.2565643853
 30
0.0
 11
167.6398686338
 21
117.6159278954
 31
0.0
  0
LINE
  5
15B
330
1F
100
AcDbEntity
  8
0
  6
Continuous
 62
     7
370
    25
100
AcDbLine
 10
169.6398686338
 20
119.9059722566
 30
0.0
 11
169.6398686338
 21
118.0279784341
 31
0.0
  0
LINE
  5
15C
330
1F
100
AcDbEntity
  8
0
  6
Continuous
 62
     7
370
    25
100
AcDbLine
 10
169.6398686338
 20
118.0279784341
 30
0.0
 11
168.9398686338
 21
117.2565643853
 31
0.0
  0
SPLINE
  5
15D
330
1F
100
AcDbEntity
  8
0
  6
Continuous
 62
     7
370
    25
100
AcDbSpline
210
0.0
220
0.0
230
1.0
 70
     8
 71
     3
 72
    10
 73
     6
 74
     0
 42
0.000000001
 43
0.00000001
 40
0.0
 40
0.0
 40
0.0
 40
0.0
 40
0.188535196302641
 40
0.7297523417449171
 40
1.0
 40
1.0
 40
1.0
 40
1.0
 10
169.40397024895
 20
116.6747707677491
 30
0.0
 10
169.341240495722
 20
116.5432012129328
 30
0.0
 10
169.0984360474654
 20
116.033942503618
 30
0.0
 10
168.8554053598581
 20
115.2544584045587
 30
0.0
 10
168.9985085779173
 20
114.6366297319949
 30
0.0
 10
169.0461672186779
 20
114.4308700352065
 30
0.0
  0
LINE
  5
15E
330
1F
100
AcDbEntity
  8
0
  6
Continuous
 62
     7
370
    25
100
AcDbLine
 10
169.6398686338
 20
118.0279784341
 30
0.0
 11
169.6398686338
 21
114.4308700352
 31
0.0
  0
LINE
  5
15F
330
1F
100
AcDbEntity
  8
0
  6
Continuous
 62
     7
370
    25
100
AcDbLine
 10
115.8740664384
 20
82.9558700352
 30
0.0
 11
115.8740664384
 21
109.5411627555
 31
0.0
  0
SPLINE
  5
160
330
1F
100
AcDbEntity
  8
0
  6
Continuous
 62
     7
370
    25
100
AcDbSpline
210
0.0
220
0.0
230
1.0
 70
     8
 71
     3
 72
    20
 73
    16
 74
     0
 42
0.000000001
 43
0.00000001
 40
0.0
 40
0.0
 40
0.0
 40
0.0
 40
0.1249999999999996
 40
0.1249999999999996
 40
0.2499999999999992
 40
0.2499999999999992
 40
0.3749999999999989
 40
0.3749999999999989
 40
0.4999999999999987
 40
0.4999999999999987
 40
0.7499999999999994
 40
0.7499999999999994
 40
0.8749999999999997
 40
0.8749999999999997
 40
1.0
 40
1.0
 40
1.0
 40
1.0
 10
119.4273686338123
 20
114.4308700352067
 30
0.0
 10
119.4273686338123
 20
114.1642019477254
 30
0.0
 10
119.4053216047686
 20
113.8958897724514
 30
0.0
 10
119.3163155670637
 20
113.363046737218
 30
0.0
 10
119.2504365988643
 20
113.1037565272321
 30
0.0
 10
119.0782616911571
 20
112.5986295612106
 30
0.0
 10
118.9715551202501
 20
112.3520493452894
 30
0.0
 10
118.7188782173739
 20
111.8756326945496
 30
0.0
 10
118.5754209531792
 20
111.6502126327848
 30
0.0
 10
118.0970987608987
 20
111.009604951171
 30
0.0
 10
117.7090717779331
 20
110.626839236068
 30
0.0
 10
117.0672671294878
 20
110.1509369878963
 30
0.0
 10
116.8424625018406
 20
110.0073413517446
 30
0.0
 10
116.3711534442184
 20
109.7500099663541
 30
0.0
 10
116.1254568443294
 20
109.6369575878322
 30
0.0
 10
115.8740664383823
 20
109.5411627555215
 30
0.0
  0
LINE
  5
161
330
1F
100
AcDbEntity
  8
0
  6
Continuous
 62
     7
370
    25
100
AcDbLine
 10
120.6398686338
 20
82.9558700352
 30
0.0
 11
120.6398686338
 21
114.4308700352
 31
0.0
  0
LINE
  5
162
330
1F
100
AcDbEntity
  8
0
  6
Continuous
 62
     7
370
    25
100
AcDbLine
 10
120.6398686338
 20
145.9058700352
 30
0.0
 11
115.8740664384
 21
145.9058700352
 31
0.0
  0
SPLINE
  5
163
330
1F
100
AcDbEntity
  8
0
  6
Continuous
 62
     7
370
    25
100
AcDbSpline
210
0.0
220
0.0
230
1.0
 70
     8
 71
     3
 72
    14
 73
    10
 74
     0
 42
0.000000001
 43
0.00000001
 40
0.0
 40
0.0
 40
0.0
 40
0.0
 40
0.25
 40
0.25
 40
0.5
 40
0.5
 40
0.75
 40
0.75
 40
1.0
 40
1.0
 40
1.0
 40
1.0
 10
109.2056708292422
 20
111.1359719496898
 30
0.0
 10
109.0087949437172
 20
111.3634685176189
 30
0.0
 10
108.8326866223277
 20
111.6050552926901
 30
0.0
 10
108.5229502285545
 20
112.1172125270642
 30
0.0
 10
108.3883922270609
 20
112.3907453301724
 30
0.0
 10
108.1731500743518
 20
112.9508504647098
 30
0.0
 10
108.0915068368328
 20
113.2378229601198
 30
0.0
 10
107.9809838145628
 20
113.8258619451641
 30
0.0
 10
107.9523686338123
 20
114.1303054009348
 30
0.0
 10
107.9523686338123
 20
114.4308700352065
 30
0.0
  0
LINE
  5
164
330
1F
100
AcDbEntity
  8
0
  6
Continuous
 62
     7
370
    25
100
AcDbLine
 10
109.2056708292
 20
82.9558700352
 30
0.0
 11
109.2056708292
 21
111.1359719497
 31
0.0
  0
LINE
  5
165
330
1F
100
AcDbEntity
  8
0
  6
Continuous
 62
     7
370
    25
100
AcDbLine
 10
109.2056708292
 20
145.9058700352
 30
0.0
 11
102.8398686338
 21
145.9058700352
 31
0.0
  0
LINE
  5
166
330
1F
100
AcDbEntity
  8
0
  6
Continuous
 62
     7
370
    25
100
AcDbLine
 10
102.6398686338
 20
83.1558700352
 30
0.0
 11
102.6398686338
 21
114.4308700352
 31
0.0
  0
LINE
  5
167
330
1F
100
AcDbEntity
  8
0
  6
Continuous
 62
     7
370
    25
100
AcDbLine
 10
102.6398686338
 20
114.4308700352
 30
0.0
 11
102.8398686338
 21
114.4308700352
 31
0.0
  0
ARC
  5
168
330
1F
100
AcDbEntity
  8
0
  6
Continuous
 62
     7
370
    25
100
AcDbCircle
 10
102.8398686338
 20
145.7058700352
 30
0.0
 40
0.2000000000000455
100
AcDbArc
 50
90.0
 51
179.9999999999
  0
ARC
  5
169
330
1F
100
AcDbEntity
  8
0
  6
Continuous
 62
     7
370
    25
100
AcDbCircle
 10
113.6898686338
 20
114.4308700352
 30
0.0
 40
3.737499999999997
100
AcDbArc
 50
180.0
 51
206.113804444
  0
SPLINE
  5
16A
330
1F
100
AcDbEntity
  8
0
  6
Continuous
 62
     7
370
    25
100
AcDbSpline
210
0.0
220
0.0
230
1.0
 70
     8
 71
     3
 72
    10
 73
     6
 74
     0
 42
0.000000001
 43
0.00000001
 40
0.0
 40
0.0
 40
0.0
 40
0.0
 40
0.5
 40
0.5
 40
1.0
 40
1.0
 40
1.0
 40
1.0
 10
110.333886826359
 20
112.7857887733709
 30
0.0
 10
110.1570016799356
 20
112.4873384580143
 30
0.0
 10
109.9714523050582
 20
112.2083457538869
 30
0.0
 10
109.5935033650106
 20
111.6630264597612
 30
0.0
 10
109.4007168228314
 20
111.3976910739398
 30
0.0
 10
109.2056708292422
 20
111.1359719496898
 30
0.0
  0
SPLINE
  5
16B
330
1F
100
AcDbEntity
  8
0
  6
Continuous
 62
     7
370
    25
100
AcDbSpline
210
0.0
220
0.0
230
1.0
 70
     8
 71
     3
 72
     8
 73
     4
 74
     0
 42
0.000000001
 43
0.00000001
 40
0.0
 40
0.0
 40
0.0
 40
0.0
 40
1.0
 40
1.0
 40
1.0
 40
1.0
 10
115.8740664383819
 20
109.5411627555203
 30
0.0
 10
115.5256650337016
 20
109.9791380819343
 30
0.0
 10
115.1810966484688
 20
110.422221220519
 30
0.0
 10
114.8427123491479
 20
110.8756122923676
 30
0.0
  0
ARC
  5
16C
330
1F
100
AcDbEntity
  8
0
  6
Continuous
 62
     7
370
    25
100
AcDbCircle
 10
113.6898686338
 20
114.4308700352
 30
0.0
 40
3.737500000000002
100
AcDbArc
 50
287.9660359156
 51
0.0
  0
SPLINE
  5
16D
330
1F
100
AcDbEntity
  8
0
  6
Continuous
 62
     7
370
    25
100
AcDbSpline
210
0.0
220
0.0
230
1.0
 70
     8
 71
     3
 72
     8
 73
     4
 74
     0
 42
0.000000001
 43
0.00000001
 40
0.0
 40
0.0
 40
0.0
 40
0.0
 40
1.0
 40
1.0
 40
1.0
 40
1.0
 10
110.6648686338123
 20
112.2358116646842
 30
0.0
 10
110.5465718743823
 20
112.3988358931426
 30
0.0
 10
110.435143392211
 20
112.5792243921651
 30
0.0
 10
110.333886826359
 20
112.7857887733709
 30
0.0
  0
LINE
  5
16E
330
1F
100
AcDbEntity
  8
0
  6
Continuous
 62
     7
370
    25
100
AcDbLine
 10
110.6648686338
 20
85.483274771
 30
0.0
 11
110.6648686338
 21
112.2358116647
 31
0.0
  0
SPLINE
  5
16F
330
1F
100
AcDbEntity
  8
0
  6
Continuous
 62
     7
370
    25
100
AcDbSpline
210
0.0
220
0.0
230
1.0
 70
     8
 71
     3
 72
     8
 73
     4
 74
     0
 42
0.000000001
 43
0.00000001
 40
0.0
 40
0.0
 40
0.0
 40
0.0
 40
1.0
 40
1.0
 40
1.0
 40
1.0
 10
114.8427123491482
 20
110.8756122923684
 30
0.0
 10
114.7011742608664
 20
110.8297165212714
 30
0.0
 10
114.5585637921295
 20
110.7927756703341
 30
0.0
 10
114.4148686338125
 20
110.7643619893934
 30
0.0
  0
LINE
  5
170
330
1F
100
AcDbEntity
  8
0
  6
Continuous
 62
     7
370
    25
100
AcDbLine
 10
114.4148686338
 20
85.483274771
 30
0.0
 11
114.4148686338
 21
110.7643619894
 31
0.0
  0
ARC
  5
171
330
1F
100
AcDbEntity
  8
0
  6
Continuous
 62
     7
370
    25
100
AcDbCircle
 10
123.6398686338
 20
143.9308700352
 30
0.0
 40
3.0
100
AcDbArc
 50
180.0
 51
270.0
  0
SPLINE
  5
172
330
1F
100
AcDbEntity
  8
0
  6
Continuous
 62
     7
370
    25
100
AcDbSpline
210
0.0
220
0.0
230
1.0
 70
     8
 71
     3
 72
    14
 73
    10
 74
     0
 42
0.000000001
 43
0.00000001
 40
0.0
 40
0.0
 40
0.0
 40
0.0
 40
0.25
 40
0.25
 40
0.5
 40
0.5
 40
0.75
 40
0.75
 40
1.0
 40
1.0
 40
1.0
 40
1.0
 10
111.6648686338122
 20
111.2894879747115
 30
0.0
 10
111.5305205474558
 20
111.3760915363391
 30
0.0
 10
111.4073438735998
 20
111.4675599336625
 30
0.0
 10
111.1785972686818
 20
111.6587513202934
 30
0.0
 10
111.0766753047146
 20
111.7556131724343
 30
0.0
 10
110.8972519022859
 20
111.9434877871696
 30
0.0
 10
110.8208106141031
 20
112.0337231385209
 30
0.0
 10
110.703520641253
 20
112.1815295024983
 30
0.0
 10
110.6648686338122
 20
112.2358116646842
 30
0.0
 10
110.6648686338122
 20
112.2358116646842
 30
0.0
  0
SPLINE
  5
173
330
1F
100
AcDbEntity
  8
0
  6
Continuous
 62
     7
370
    25
100
AcDbSpline
210
0.0
220
0.0
230
1.0
 70
     8
 71
     3
 72
    14
 73
    10
 74
     0
 42
0.000000001
 43
0.00000001
 40
0.0
 40
0.0
 40
0.0
 40
0.0
 40
0.25
 40
0.25
 40
0.5
 40
0.5
 40
0.75
 40
0.75
 40
1.0
 40
1.0
 40
1.0
 40
1.0
 10
114.4148686338124
 20
110.764361989394
 30
0.0
 10
114.4148686338126
 20
110.764361989394
 30
0.0
 10
114.3889521112414
 20
110.7589852584057
 30
0.0
 10
114.2895072646639
 20
110.7414406708052
 30
0.0
 10
114.2172088722516
 20
110.7295912671589
 30
0.0
 10
114.0325049777277
 20
110.7079474491586
 30
0.0
 10
113.9229277158518
 20
110.6986581884742
 30
0.0
 10
113.6795975376337
 20
110.6914026521166
 30
0.0
 10
113.5480612787135
 20
110.693674058276
 30
0.0
 10
113.4148686338123
 20
110.7035008222092
 30
0.0
  0
SPLINE
  5
174
330
1F
100
AcDbEntity
  8
0
  6
Continuous
 62
     7
370
    25
100
AcDbSpline
210
0.0
220
0.0
230
1.0
 70
     8
 71
     3
 72
    10
 73
     6
 74
     0
 42
0.000000001
 43
0.00000001
 40
0.0
 40
0.0
 40
0.0
 40
0.0
 40
0.5
 40
0.5
 40
1.0
 40
1.0
 40
1.0
 40
1.0
 10
113.4148686338123
 20
110.7035008222093
 30
0.0
 10
113.1024047315241
 20
110.7265539645783
 30
0.0
 10
112.7995157495264
 20
110.7877886669847
 30
0.0
 10
112.2121725647223
 20
110.9839606309086
 30
0.0
 10
111.9277049041504
 20
111.1200582660085
 30
0.0
 10
111.6648686338122
 20
111.2894879747115
 30
0.0
  0
LINE
  5
175
330
1F
100
AcDbEntity
  8
0
  6
Continuous
 62
     7
370
    25
100
AcDbLine
 10
102.6398686338
 20
141.2808700352
 30
0.0
 11
102.9739073198
 21
140.2214346748
 31
0.0
  0
LINE
  5
176
330
1F
100
AcDbEntity
  8
0
  6
Continuous
 62
     7
370
    25
100
AcDbLine
 10
102.6398686338
 20
141.2808700352
 30
0.0
 11
102.6398686338
 21
139.3055813019
 31
0.0
  0
LINE
  5
177
330
1F
100
AcDbEntity
  8
0
  6
Continuous
 62
     7
370
    25
100
AcDbLine
 10
165.461947321
 20
87.9308700352
 30
0.0
 11
165.461947321
 21
114.4308700352
 31
0.0
  0
LINE
  5
178
330
1F
100
AcDbEntity
  8
0
  6
Continuous
 62
     7
370
    25
100
AcDbLine
 10
165.461947321
 20
140.9308700352
 30
0.0
 11
123.6398686338
 21
140.9308700352
 31
0.0
  0
LINE
  5
179
330
1F
100
AcDbEntity
  8
0
  6
Continuous
 62
     7
370
    25
100
AcDbLine
 10
220.3360163731
 20
136.6121871404
 30
0.0
 11
165.461947321
 21
140.9308700352
 31
0.0
  0
ARC
  5
17A
330
1F
100
AcDbEntity
  8
0
  6
Continuous
 62
     7
370
    25
100
AcDbCircle
 10
102.2109337592
 20
139.9808700352
 30
0.0
 40
0.8000000000000139
100
AcDbArc
 50
252.5
 51
17.5
  0
LINE
  5
17B
330
1F
100
AcDbEntity
  8
0
  6
Continuous
 62
     7
370
    25
100
AcDbLine
 10
101.4796865938
 20
89.4891319897
 30
0.0
 11
101.4796865938
 21
114.4308700352
 31
0.0
  0
LINE
  5
17C
330
1F
100
AcDbEntity
  8
0
  6
Continuous
 62
     7
370
    25
100
AcDbLine
 10
101.9703691196
 20
139.2178964746
 30
0.0
 11
101.4796865938
 21
139.3726080807
 31
0.0
  0
SPLINE
  5
17D
330
1F
100
AcDbEntity
  8
0
  6
Continuous
 62
     7
370
    25
100
AcDbSpline
210
0.0
220
0.0
230
1.0
 70
     8
 71
     3
 72
    22
 73
    18
 74
     0
 42
0.000000001
 43
0.00000001
 40
0.0
 40
0.0
 40
0.0
 40
0.0
 40
0.00164454719801
 40
0.0768294870796011
 40
0.1514593100030142
 40
0.2250437077752774
 40
0.2982167779920969
 40
0.3713078397240417
 40
0.4444589911202454
 40
0.5161649089031313
 40
0.5876183127519713
 40
0.6612190000115753
 40
0.7342074239846613
 40
0.8076706235403182
 40
0.8813280608505047
 40
0.9557355653715424
 40
1.0
 40
1.0
 40
1.0
 40
1.0
 10
72.39958575252153
 20
137.8551611832373
 30
0.0
 10
72.40076439471886
 20
137.8547975495192
 30
0.0
 10
72.45582786482204
 20
137.8378094131608
 30
0.0
 10
72.85227305225749
 20
137.7205355625313
 30
0.0
 10
73.56834643178196
 20
137.5199210146498
 30
0.0
 10
74.57802209232628
 20
137.2793071999696
 30
0.0
 10
75.79400105026888
 20
137.0520345108523
 30
0.0
 10
77.19820183161882
 20
136.8796455026189
 30
0.0
 10
78.71526187414057
 20
136.7915756305313
 30
0.0
 10
80.28957488220323
 20
136.8226289353664
 30
0.0
 10
81.85533829815189
 20
136.9736310863082
 30
0.0
 10
83.3454128662261
 20
137.2280486043092
 30
0.0
 10
84.71628112930898
 20
137.5454840598734
 30
0.0
 10
85.9052500337355
 20
137.8905308395225
 30
0.0
 10
86.87139838418068
 20
138.2141237540766
 30
0.0
 10
87.52848732777375
 20
138.4596186980745
 30
0.0
 10
87.74431696465331
 20
138.5429744451419
 30
0.0
 10
87.82482105787878
 20
138.5740659992483
 30
0.0
  0
SPLINE
  5
17E
330
1F
100
AcDbEntity
  8
0
  6
Continuous
 62
     7
370
    25
100
AcDbSpline
210
0.0
220
0.0
230
1.0
 70
     8
 71
     3
 72
     9
 73
     5
 74
     0
 42
0.000000001
 43
0.00000001
 40
0.0
 40
0.0
 40
0.0
 40
0.0
 40
0.036222619754952
 40
1.0
 40
1.0
 40
1.0
 40
1.0
 10
87.99573586139675
 20
138.639621665944
 30
0.0
 10
88.00127853550899
 20
138.6417472171027
 30
0.0
 10
88.15429546663486
 20
138.7004274333065
 30
0.0
 10
88.15629052710645
 20
138.7020588170032
 30
0.0
 10
88.1582133212612
 20
138.7036311077086
 30
0.0
  0
LINE
  5
17F
330
1F
100
AcDbEntity
  8
0
  6
Continuous
 62
     7
370
    25
100
AcDbLine
 10
72.2403027486
 20
137.9042663968
 30
0.0
 11
64.1898686338
 21
137.4999901628
 31
0.0
  0
LINE
  5
180
330
1F
100
AcDbEntity
  8
0
  6
Continuous
 62
     7
370
    25
100
AcDbLine
 10
64.1898686338
 20
91.3617499076
 30
0.0
 11
64.1898686338
 21
105.3087470006
 31
0.0
  0
SPLINE
  5
181
330
1F
100
AcDbEntity
  8
0
  6
Continuous
 62
     7
370
    25
100
AcDbSpline
210
0.0
220
0.0
230
1.0
 70
     8
 71
     3
 72
     8
 73
     4
 74
     0
 42
0.000000001
 43
0.00000001
 40
0.0
 40
0.0
 40
0.0
 40
0.0
 40
1.0
 40
1.0
 40
1.0
 40
1.0
 10
70.00804308675923
 20
105.3133330589032
 30
0.0
 10
68.06865160244782
 20
105.3111869630536
 30
0.0
 10
66.12926011813641
 20
105.3095907765289
 30
0.0
 10
64.189868633825
 20
105.3085433240531
 30
0.0
  0
SPLINE
  5
182
330
1F
100
AcDbEntity
  8
0
  6
Continuous
 62
     7
370
    25
100
AcDbSpline
210
0.0
220
0.0
230
1.0
 70
     8
 71
     3
 72
    13
 73
     9
 74
     0
 42
0.000000001
 43
0.00000001
 40
0.0
 40
0.0
 40
0.0
 40
0.0
 40
0.1686319999748085
 40
0.3360343310905433
 40
0.502536782590866
 40
0.6684737453788339
 40
0.834182263691515
 40
1.0
 40
1.0
 40
1.0
 40
1.0
 10
71.09153813622623
 20
105.4507895047208
 30
0.0
 10
71.03204824016649
 20
105.436275184682
 30
0.0
 10
70.91350224989144
 20
105.4073523833974
 30
0.0
 10
70.73362555430555
 20
105.3733909899892
 30
0.0
 10
70.55323526667753
 20
105.3465254276302
 30
0.0
 10
70.37212309464368
 20
105.3275664905222
 30
0.0
 10
70.19036225747624
 20
105.3156360391266
 30
0.0
 10
70.0688294895816
 20
105.3141008875577
 30
0.0
 10
70.00804308675923
 20
105.3133330589032
 30
0.0
  0
SPLINE
  5
183
330
1F
100
AcDbEntity
  8
0
  6
Continuous
 62
     7
370
    25
100
AcDbSpline
210
0.0
220
0.0
230
1.0
 70
     8
 71
     3
 72
     8
 73
     4
 74
     0
 42
0.000000001
 43
0.00000001
 40
0.0
 40
0.0
 40
0.0
 40
0.0
 40
1.0
 40
1.0
 40
1.0
 40
1.0
 10
76.48373155271908
 20
105.4550275466063
 30
0.0
 10
74.68633688128125
 20
105.4531564860823
 30
0.0
 10
72.8889422098434
 20
105.4517343050582
 30
0.0
 10
71.09154753840558
 20
105.4507601820622
 30
0.0
  0
SPLINE
  5
184
330
1F
100
AcDbEntity
  8
0
  6
Continuous
 62
     7
370
    25
100
AcDbSpline
210
0.0
220
0.0
230
1.0
 70
     8
 71
     3
 72
    18
 73
    14
 74
     0
 42
0.000000001
 43
0.00000001
 40
0.0
 40
0.0
 40
0.0
 40
0.0
 40
0.0923325137111192
 40
0.1843692047063016
 40
0.2763458873810836
 40
0.3684982175655623
 40
0.4610598988303626
 40
0.554260954653301
 40
0.6483261285442131
 40
0.74347346365053
 40
0.8399130993119804
 40
0.9201660718299768
 40
1.0
 40
1.0
 40
1.0
 40
1.0
 10
78.68005320132137
 20
104.9208353107626
 30
0.0
 10
78.60972289780833
 20
104.9212519351943
 30
0.0
 10
78.46928762095638
 20
104.9220838492409
 30
0.0
 10
78.25892509445376
 20
104.9356926961555
 30
0.0
 10
78.04948143153739
 20
104.9583594535271
 30
0.0
 10
77.8409317611649
 20
104.9909602433279
 30
0.0
 10
77.63328814388962
 20
105.0332627219481
 30
0.0
 10
77.42654995635004
 20
105.0853341206033
 30
0.0
 10
77.2207278643852
 20
105.1471828934487
 30
0.0
 10
77.01579618559303
 20
105.2187809049049
 30
0.0
 10
76.82431544019732
 20
105.2953593951323
 30
0.0
 10
76.64659228814271
 20
105.3739706439653
 30
0.0
 10
76.5382582935787
 20
105.4278847997527
 30
0.0
 10
76.48423308412542
 20
105.4547713146517
 30
0.0
  0
LINE
  5
185
330
1F
100
AcDbEntity
  8
0
  6
Continuous
 62
     7
370
    25
100
AcDbLine
 10
80.5949264806
 20
104.9223307456
 30
0.0
 11
78.6800532013
 21
104.9208353108
 31
0.0
  0
SPLINE
  5
186
330
1F
100
AcDbEntity
  8
0
  6
Continuous
 62
     7
370
    25
100
AcDbSpline
210
0.0
220
0.0
230
1.0
 70
     8
 71
     3
 72
    25
 73
    21
 74
     0
 42
0.000000001
 43
0.00000001
 40
0.0
 40
0.0
 40
0.0
 40
0.0
 40
0.0280105225422753
 40
0.0559601148854256
 40
0.0839014045034749
 40
0.1118870776777086
 40
0.1399695827579646
 40
0.1682008401731476
 40
0.1966319670417595
 40
0.2253130233137476
 40
0.2542927850735311
 40
0.3799486436564626
 40
0.5057850221666382
 40
0.631308588631066
 40
0.7532068238011618
 40
0.8039473267946936
 40
0.8535894438541253
 40
0.9025339722380873
 40
0.9511970353782256
 40
1.0
 40
1.0
 40
1.0
 40
1.0
 10
85.53481078701371
 20
110.056194550138
 30
0.0
 10
85.53484800874753
 20
109.9815745231255
 30
0.0
 10
85.53492237124816
 20
109.83249678714
 30
0.0
 10
85.5225063206016
 20
109.6098786961758
 30
0.0
 10
85.50090176024783
 20
109.3885542781484
 30
0.0
 10
85.4692162905878
 20
109.1685860122605
 30
0.0
 10
85.42769015226786
 20
108.9499957250314
 30
0.0
 10
85.37625939653795
 20
108.7328137866264
 30
0.0
 10
85.31494552182676
 20
108.5170723667401
 30
0.0
 10
85.24373518632726
 20
108.302782475288
 30
0.0
 10
85.07289857912612
 20
107.854432702267
 30
0.0
 10
84.73516634569008
 20
107.2011018741949
 30
0.0
 10
84.12361168149536
 20
106.4292086635588
 30
0.0
 10
83.38737684634285
 20
105.7850490381735
 30
0.0
 10
82.70089077469858
 20
105.3934078701115
 30
0.0
 10
82.15218662854977
 20
105.1747129691384
 30
0.0
 10
81.77015045004818
 20
105.058856920308
 30
0.0
 10
81.38298435134362
 20
104.9779490147781
 30
0.0
 10
80.9907576825535
 20
104.9287205839804
 30
0.0
 10
80.72699641443474
 20
104.9244627289652
 30
0.0
 10
80.59492648061084
 20
104.9223307456224
 30
0.0
  0
LINE
  5
187
330
1F
100
AcDbEntity
  8
0
  6
Continuous
 62
     7
370
    25
100
AcDbLine
 10
85.534810787
 20
114.4308700352
 30
0.0
 11
85.534810787
 21
110.0561945501
 31
0.0
  0
LINE
  5
188
330
1F
100
AcDbEntity
  8
0
  6
Continuous
 62
     7
370
    25
100
AcDbLine
 10
101.4796865938
 20
139.3726080807
 30
0.0
 11
88.1582133213
 21
138.7036311077
 31
0.0
  0
SPLINE
  5
189
330
1F
100
AcDbEntity
  8
0
  6
Continuous
 62
     7
370
    25
100
AcDbSpline
210
0.0
220
0.0
230
1.0
 70
     8
 71
     3
 72
    20
 73
    16
 74
     0
 42
0.000000001
 43
0.00000001
 40
0.0
 40
0.0
 40
0.0
 40
0.0
 40
0.0829621378684852
 40
0.1658495135106163
 40
0.2487180070857354
 40
0.329947721639852
 40
0.4108693994445731
 40
0.4941953814850557
 40
0.576890167662622
 40
0.660106581055777
 40
0.7435845489350846
 40
0.8279858465401878
 40
0.9132590745392875
 40
0.9972257035811795
 40
1.0
 40
1.0
 40
1.0
 40
1.0
 10
74.55228472853922
 20
91.56760966769971
 30
0.0
 10
74.93803056461054
 20
91.64452809430387
 30
0.0
 10
75.70917461772773
 20
91.79829563164145
 30
0.0
 10
77.11692276889755
 20
91.97421085302699
 30
0.0
 10
78.62477413677216
 20
92.06820714035602
 30
0.0
 10
80.19726311179001
 20
92.04436275848943
 30
0.0
 10
81.7645601430021
 20
91.90045771358882
 30
0.0
 10
83.26033616978357
 20
91.6514001107898
 30
0.0
 10
84.64059004545628
 20
91.33671941825115
 30
0.0
 10
85.83818422851189
 20
90.99245806627063
 30
0.0
 10
86.82504625833414
 20
90.66341084045088
 30
0.0
 10
87.57228450453213
 20
90.38494993224312
 30
0.0
 10
88.01948593389768
 20
90.2130941372115
 30
0.0
 10
88.20624054604772
 20
90.13924346561306
 30
0.0
 10
88.1551423321495
 20
90.15939475668618
 30
0.0
 10
88.15350802180437
 20
90.1600392696927
 30
0.0
  0
SPLINE
  5
18A
330
1F
100
AcDbEntity
  8
0
  6
Continuous
 62
     7
370
    25
100
AcDbSpline
210
0.0
220
0.0
230
1.0
 70
     8
 71
     3
 72
    11
 73
     7
 74
     0
 42
0.000000001
 43
0.00000001
 40
0.0
 40
0.0
 40
0.0
 40
0.0
 40
0.2435512231731388
 40
0.4981153923403536
 40
0.7509097881719451
 40
1.0
 40
1.0
 40
1.0
 40
1.0
 10
72.24479061079565
 20
90.95894745831659
 30
0.0
 10
72.27074153232093
 20
90.96718299485474
 30
0.0
 10
72.32381682912605
 20
90.98402646400423
 30
0.0
 10
72.80151181278852
 20
91.12492790614174
 30
0.0
 10
73.51285126105529
 20
91.33021845658995
 30
0.0
 10
74.20751590822996
 20
91.48886957478716
 30
0.0
 10
74.55228472853922
 20
91.56760966769971
 30
0.0
  0
LINE
  5
18B
330
1F
100
AcDbEntity
  8
0
  6
Continuous
 62
     7
370
    25
100
AcDbLine
 10
85.534810787
 20
110.0561945501
 30
0.0
 11
84.6398686338
 21
110.2183700352
 31
0.0
  0
LINE
  5
18C
330
1F
100
AcDbEntity
  8
0
  6
Continuous
 62
     7
370
    25
100
AcDbLine
 10
84.6398686338
 20
110.2183700352
 30
0.0
 11
84.6398686338
 21
114.4308700352
 31
0.0
  0
SPLINE
  5
18D
330
1F
100
AcDbEntity
  8
0
  6
Continuous
 62
     7
370
    25
100
AcDbSpline
210
0.0
220
0.0
230
1.0
 70
     8
 71
     3
 72
    25
 73
    21
 74
     0
 42
0.000000001
 43
0.00000001
 40
0.0
 40
0.0
 40
0.0
 40
0.0
 40
0.0288821753116583
 40
0.0583636594024247
 40
0.088464720432864
 40
0.1192044006641432
 40
0.1506005800108822
 40
0.1826700399688414
 40
0.2154285269587146
 40
0.2488908143380118
 40
0.3610594471217245
 40
0.498467013106778
 40
0.5822693905006526
 40
0.6661127642782239
 40
0.7499972937224496
 40
0.8007709755032478
 40
0.8511237700807983
 40
0.901089602450676
 40
0.9507031914109089
 40
1.0
 40
1.0
 40
1.0
 40
1.0
 10
80.63986863381227
 20
106.2183700352065
 30
0.0
 10
80.70266908705099
 20
106.2192265191584
 30
0.0
 10
80.8295731108509
 20
106.220957259212
 30
0.0
 10
81.02092751856537
 20
106.2351071246158
 30
0.0
 10
81.214832331244
 20
106.2582442069373
 30
0.0
 10
81.4107330519724
 20
106.2916553591627
 30
0.0
 10
81.60807071997655
 20
106.3355291811954
 30
0.0
 10
81.80622406176171
 20
106.3903244521648
 30
0.0
 10
82.00453980576988
 20
106.4563934135283
 30
0.0
 10
82.35586079327247
 20
106.5943747457813
 30
0.0
 10
82.88097256359492
 20
106.8744266846225
 30
0.0
 10
83.41796439208044
 20
107.3130172870309
 30
0.0
 10
83.83002412211887
 20
107.7868774085776
 30
0.0
 10
84.11694271017136
 20
108.2185611563974
 30
0.0
 10
84.31536939737855
 20
108.6216843981575
 30
0.0
 10
84.44745527142688
 20
108.9794205589365
 30
0.0
 10
84.53308915122467
 20
109.2821729612188
 30
0.0
 10
84.5941713625777
 20
109.5906612714645
 30
0.0
 10
84.6326723059432
 20
109.9029729816209
 30
0.0
 10
84.63747498503668
 20
110.1134623955223
 30
0.0
 10
84.63986863381226
 20
110.2183700352065
 30
0.0
  0
LINE
  5
18E
330
1F
100
AcDbEntity
  8
0
  6
Continuous
 62
     7
370
    25
100
AcDbLine
 10
222.6398686338
 20
114.4308700352
 30
0.0
 11
222.6398686338
 21
94.7418462644
 31
0.0
  0
ARC
  5
18F
330
1F
100
AcDbEntity
  8
0
  6
Continuous
 62
     7
370
    25
100
AcDbCircle
 10
220.1398686338
 20
134.1198938061
 30
0.0
 40
2.50000000000004
100
AcDbArc
 50
0.0
 51
85.5
  0
SPLINE
  5
190
330
1F
100
AcDbEntity
  8
0
  6
Continuous
 62
     7
370
    25
100
AcDbSpline
210
0.0
220
0.0
230
1.0
 70
     8
 71
     3
 72
    13
 73
     9
 74
     0
 42
0.000000001
 43
0.00000001
 40
0.0
 40
0.0
 40
0.0
 40
0.0
 40
0.1722587823678385
 40
0.3421398271425444
 40
0.5097456258111679
 40
0.6751828993453325
 40
0.8385626190248169
 40
1.0
 40
1.0
 40
1.0
 40
1.0
 10
77.63988700272252
 20
106.3683648579564
 30
0.0
 10
77.70075039239508
 20
106.3521011302568
 30
0.0
 10
77.82163705684047
 20
106.3197981677761
 30
0.0
 10
78.00469821481292
 20
106.2824105130825
 30
0.0
 10
78.18680089775356
 20
106.2532775781724
 30
0.0
 10
78.36774234607022
 20
106.233090862567
 30
0.0
 10
78.54708134976649
 20
106.2206440582663
 30
0.0
 10
78.66592757817986
 20
106.219125015039
 30
0.0
 10
78.7249953545228
 20
106.2183700352065
 30
0.0
  0
LINE
  5
191
330
1F
100
AcDbEntity
  8
0
  6
Continuous
 62
     7
370
    25
100
AcDbLine
 10
78.6800532013
 20
104.9208353108
 30
0.0
 11
78.7249953545
 21
106.2183700352
 31
0.0
  0
SPLINE
  5
192
330
1F
100
AcDbEntity
  8
0
  6
Continuous
 62
     7
370
    25
100
AcDbSpline
210
0.0
220
0.0
230
1.0
 70
     8
 71
     3
 72
    11
 73
     7
 74
     0
 42
0.000000001
 43
0.00000001
 40
0.0
 40
0.0
 40
0.0
 40
0.0
 40
0.2392913844325938
 40
0.5001130135003002
 40
0.7515028526498353
 40
0.9999999999999999
 40
0.9999999999999999
 40
0.9999999999999999
 40
0.9999999999999999
 10
77.31239614166631
 20
106.3689436402297
 30
0.0
 10
77.24357120571938
 20
106.297390203075
 30
0.0
 10
77.09972880954619
 20
106.1478453075637
 30
0.0
 10
76.8919800111796
 20
105.9189278809182
 30
0.0
 10
76.68399380655849
 20
105.6866095086784
 30
0.0
 10
76.55099288278825
 20
105.5318336260871
 30
0.0
 10
76.48487723856378
 20
105.4548935049373
 30
0.0
  0
SPLINE
  5
193
330
1F
100
AcDbEntity
  8
0
  6
Continuous
 62
     7
370
    25
100
AcDbSpline
210
0.0
220
0.0
230
1.0
 70
    24
 71
     3
 72
     9
 73
     5
 74
     0
 42
0.000000001
 43
0.00000001
 40
0.0
 40
0.0
 40
0.0
 40
0.0
 40
0.509083966986604
 40
1.0
 40
1.0
 40
1.0
 40
1.0
 10
77.31462640998579
 20
106.3683700352065
 30
0.0
 10
77.36935981009816
 20
106.3683700352065
 30
0.0
 10
77.47687331211698
 20
106.3683700352065
 30
0.0
 10
77.58626587248791
 20
106.3683700352065
 30
0.0
 10
77.63996843426641
 20
106.3683700352065
 30
0.0
  0
LINE
  5
194
330
1F
100
AcDbEntity
  8
0
  6
Continuous
 62
     7
370
    25
100
AcDbLine
 10
71.0660185454
 20
106.3483182614
 30
0.0
 11
71.091433037
 21
105.4507600908
 31
0.0
  0
SPLINE
  5
195
330
1F
100
AcDbEntity
  8
0
  6
Continuous
 62
     7
370
    25
100
AcDbSpline
210
0.0
220
0.0
230
1.0
 70
     8
 71
     3
 72
     8
 73
     4
 74
     0
 42
0.000000001
 43
0.00000001
 40
0.0
 40
0.0
 40
0.0
 40
0.0
 40
1.0
 40
1.0
 40
1.0
 40
1.0
 10
71.06602973654047
 20
106.3483187515457
 30
0.0
 10
71.08783259302251
 20
106.3540160825784
 30
0.0
 10
71.10958730242004
 20
106.3598976653734
 30
0.0
 10
71.13129075773811
 20
106.3659626599265
 30
0.0
  0
LINE
  5
196
330
1F
100
AcDbEntity
  8
0
  6
Continuous
 62
     7
370
    25
100
AcDbLine
 10
71.1398686339
 20
106.3683700352
 30
0.0
 11
77.3135416062
 21
106.3683700352
 31
0.0
  0
LINE
  5
197
330
1F
100
AcDbEntity
  8
0
  6
Continuous
 62
     7
370
    25
100
AcDbLine
 10
78.7249953545
 20
106.2183700352
 30
0.0
 11
80.6398686338
 21
106.2183700352
 31
0.0
  0
SPLINE
  5
198
330
1F
100
AcDbEntity
  8
0
  6
Continuous
 62
     7
370
    25
100
AcDbSpline
210
0.0
220
0.0
230
1.0
 70
     8
 71
     3
 72
    13
 73
     9
 74
     0
 42
0.000000001
 43
0.00000001
 40
0.0
 40
0.0
 40
0.0
 40
0.0
 40
0.1621004456571512
 40
0.325943455157606
 40
0.4915935308260523
 40
0.6591130873964648
 40
0.8285624736043361
 40
1.0
 40
1.0
 40
1.0
 40
1.0
 10
70.05474191310172
 20
106.2183700352065
 30
0.0
 10
70.11029687116726
 20
106.2190390014078
 30
0.0
 10
70.22200399763202
 20
106.2203841251311
 30
0.0
 10
70.38985168702577
 20
106.2313306939225
 30
0.0
 10
70.55863810589416
 20
106.2489696232432
 30
0.0
 10
70.72796246242599
 20
106.274275137231
 30
0.0
 10
70.89770911060337
 20
106.306579140024
 30
0.0
 10
71.00970200926102
 20
106.3343507399101
 30
0.0
 10
71.06602504429075
 20
106.3483175254113
 30
0.0
  0
LINE
  5
199
330
1F
100
AcDbEntity
  8
0
  6
Continuous
 62
     7
370
    25
100
AcDbLine
 10
63.2762088122
 20
105.6908682913
 30
0.0
 11
64.1898686338
 21
106.2183700352
 31
0.0
  0
LINE
  5
19A
330
1F
100
AcDbEntity
  8
0
  6
Continuous
 62
     7
370
    25
100
AcDbLine
 10
64.1898686339
 20
106.2183700352
 30
0.0
 11
70.0547419131
 21
106.2183700352
 31
0.0
  0
SPLINE
  5
19B
330
1F
100
AcDbEntity
  8
0
  6
Continuous
 62
     7
370
    25
100
AcDbSpline
210
0.0
220
0.0
230
1.0
 70
     8
 71
     3
 72
     8
 73
     4
 74
     0
 42
0.000000001
 43
0.00000001
 40
0.0
 40
0.0
 40
0.0
 40
0.0
 40
1.0
 40
1.0
 40
1.0
 40
1.0
 10
64.18986863336131
 20
105.3085433238305
 30
0.0
 10
63.88531535965578
 20
105.4372341883773
 30
0.0
 10
63.58076208595026
 20
105.5646789446391
 30
0.0
 10
63.27620881224472
 20
105.6908682912768
 30
0.0
  0
LINE
  5
19C
330
1F
100
AcDbEntity
  8
0
  6
Continuous
 62
     7
370
    25
100
AcDbLine
 10
62.6898686338
 20
92.2277753114
 30
0.0
 11
62.6898686338
 21
105.3523446314
 31
0.0
  0
SPLINE
  5
19D
330
1F
100
AcDbEntity
  8
0
  6
Continuous
 62
     7
370
    25
100
AcDbSpline
210
0.0
220
0.0
230
1.0
 70
    24
 71
     3
 72
     8
 73
     4
 74
     0
 42
0.000000001
 43
0.00000001
 40
0.0
 40
0.0
 40
0.0
 40
0.0
 40
1.0
 40
1.0
 40
1.0
 40
1.0
 10
63.27620881224472
 20
105.6908682912768
 30
0.0
 10
63.07987678658638
 20
105.5775159434124
 30
0.0
 10
62.88441576634615
 20
105.4646664707606
 30
0.0
 10
62.68986863381226
 20
105.3523446314221
 30
0.0
  0
LINE
  5
19E
330
1F
100
AcDbEntity
  8
0
  6
Continuous
 62
     7
370
    25
100
AcDbLine
 10
94.4151091074
 20
132.6808700352
 30
0.0
 11
95.8398686338
 21
132.6808700352
 31
0.0
  0
ARC
  5
19F
330
1F
100
AcDbEntity
  8
0
  6
Continuous
 62
     7
370
    25
100
AcDbCircle
 10
94.4151091074
 20
131.8808700352
 30
0.0
 40
0.799999999999983
100
AcDbArc
 50
90.0
 51
120.0
  0
ARC
  5
1A0
330
1F
100
AcDbEntity
  8
0
  6
Continuous
 62
     7
370
    25
100
AcDbCircle
 10
95.8398686338
 20
131.8808700352
 30
0.0
 40
0.8000000000000114
100
AcDbArc
 50
0.0
 51
90.0
  0
LINE
  5
1A1
330
1F
100
AcDbEntity
  8
0
  6
Continuous
 62
     7
370
    25
100
AcDbLine
 10
93.1398686338
 20
132.0683700352
 30
0.0
 11
93.1398686338
 21
114.4308700352
 31
0.0
  0
LINE
  5
1A2
330
1F
100
AcDbEntity
  8
0
  6
Continuous
 62
     7
370
    25
100
AcDbLine
 10
93.1398686338
 20
132.0683700352
 30
0.0
 11
94.0151091074
 21
132.5736903582
 31
0.0
  0
LINE
  5
1A3
330
1F
100
AcDbEntity
  8
0
  6
Continuous
 62
     7
370
    25
100
AcDbLine
 10
63.4415346837
 20
105.7863192276
 30
0.0
 11
63.3050659113
 21
105.7075289452
 31
0.0
  0
SPLINE
  5
1A4
330
1F
100
AcDbEntity
  8
0
  6
Continuous
 62
     7
370
    25
100
AcDbSpline
210
0.0
220
0.0
230
1.0
 70
     8
 71
     3
 72
    32
 73
    28
 74
     0
 42
0.000000001
 43
0.00000001
 40
0.0
 40
0.0
 40
0.0
 40
0.0
 40
0.1249999999999999
 40
0.1249999999999999
 40
0.1874999999999999
 40
0.1874999999999999
 40
0.2499999999999998
 40
0.2499999999999998
 40
0.3124999999999997
 40
0.3124999999999997
 40
0.3749999999999997
 40
0.3749999999999997
 40
0.4999999999999997
 40
0.4999999999999997
 40
0.5624999999999997
 40
0.5624999999999997
 40
0.6249999999999996
 40
0.6249999999999996
 40
0.7499999999999994
 40
0.7499999999999994
 40
0.8124999999999996
 40
0.8124999999999996
 40
0.8749999999999998
 40
0.8749999999999998
 40
0.9374999999999999
 40
0.9374999999999999
 40
1.0
 40
1.0
 40
1.0
 40
1.0
 10
77.10749896515289
 20
130.6035387894161
 30
0.0
 10
76.62342472119887
 20
130.6038981820357
 30
0.0
 10
76.14002715063201
 20
130.618857388217
 30
0.0
 10
75.416121800896
 20
130.6658414347257
 30
0.0
 10
75.17545936735915
 20
130.6856179898502
 30
0.0
 10
74.70411325828354
 20
130.7325820733493
 30
0.0
 10
74.47227744199328
 20
130.7598359225338
 30
0.0
 10
74.01657435543697
 20
130.8214638511464
 30
0.0
 10
73.79270603249563
 20
130.8558389519418
 30
0.0
 10
73.35337844048784
 20
130.9311583955949
 30
0.0
 10
73.13666104782145
 20
130.9723763463432
 30
0.0
 10
72.51031906914862
 20
131.1026131655239
 30
0.0
 10
72.12592643479523
 20
131.1976530774232
 30
0.0
 10
71.59838468917543
 20
131.3439200393756
 30
0.0
 10
71.4307505376443
 20
131.3932886745662
 30
0.0
 10
71.11234579040375
 20
131.4916923820665
 30
0.0
 10
70.96276491586462
 20
131.540375646699
 30
0.0
 10
70.54974484631616
 20
131.6799984498674
 30
0.0
 10
70.31819307515701
 20
131.7655851284479
 30
0.0
 10
70.03488356006731
 20
131.874548176364
 30
0.0
 10
69.95131587829552
 20
131.9075968289384
 30
0.0
 10
69.80939104597134
 20
131.9646002251788
 30
0.0
 10
69.75040293452878
 20
131.9887969307892
 30
0.0
 10
69.65568703081894
 20
132.0279992111682
 30
0.0
 10
69.61995906367218
 20
132.0430063776653
 30
0.0
 10
69.57199478595473
 20
132.0632153753922
 30
0.0
 10
69.55986847852128
 20
132.0683700352066
 30
0.0
 10
69.55986847852125
 20
132.0683700352066
 30
0.0
  0
SPLINE
  5
1A5
330
1F
100
AcDbEntity
  8
0
  6
Continuous
 62
     7
370
    25
100
AcDbSpline
210
0.0
220
0.0
230
1.0
 70
     8
 71
     3
 72
    31
 73
    27
 74
     0
 42
0.000000001
 43
0.00000001
 40
0.0
 40
0.0
 40
0.0
 40
0.0
 40
0.0161756722762526
 40
0.0323169137831901
 40
0.0484425619887058
 40
0.0645715089965098
 40
0.0807226353345217
 40
0.0969147439454887
 40
0.1131664955259477
 40
0.1294963463054467
 40
0.1459224892616117
 40
0.16246279963486
 40
0.1791347854483568
 40
0.1959555435640281
 40
0.2945755146277851
 40
0.3932797312250729
 40
0.492817622193321
 40
0.5924285912823333
 40
0.693902091744813
 40
0.7927115381487325
 40
0.8267756331435501
 40
0.860804332496487
 40
0.89498463140099
 40
0.9295010594357854
 40
0.964532832246829
 40
1.0
 40
1.0
 40
1.0
 40
1.0
 10
88.11581802389634
 20
132.0683700352066
 30
0.0
 10
88.11508492344517
 20
132.0680236437786
 30
0.0
 10
88.11362028298566
 20
132.0673315982351
 30
0.0
 10
88.10056390332058
 20
132.0617492361887
 30
0.0
 10
88.07954934279779
 20
132.0528824731946
 30
0.0
 10
88.04980213745709
 20
132.0404413724796
 30
0.0
 10
88.01152982480149
 20
132.0245507139244
 30
0.0
 10
87.96467714388034
 20
132.0052249700972
 30
0.0
 10
87.90925941384339
 20
131.9825088805777
 30
0.0
 10
87.84527345001288
 20
131.956439876203
 30
0.0
 10
87.77271996586232
 20
131.9270574288349
 30
0.0
 10
87.69160326838266
 20
131.8944031815001
 30
0.0
 10
87.60190961363269
 20
131.8585107344657
 30
0.0
 10
87.34486376697618
 20
131.7562728267989
 30
0.0
 10
86.81682778138335
 20
131.5497486133322
 30
0.0
 10
85.83819313413714
 20
131.2126632999823
 30
0.0
 10
84.65231683121837
 20
130.8695184406544
 30
0.0
 10
83.28185056614512
 20
130.5724065399938
 30
0.0
 10
81.79599329418052
 20
130.3623631122609
 30
0.0
 10
80.57584066041548
 20
130.3041377093923
 30
0.0
 10
79.70941662747065
 20
130.3178300506523
 30
0.0
 10
79.18117169899384
 20
130.3431981362634
 30
0.0
 10
78.65639846778762
 20
130.3852207519809
 30
0.0
 10
78.13540922819517
 20
130.443504715209
 30
0.0
 10
77.6181682831367
 20
130.5161282604545
 30
0.0
 10
77.28253117080283
 20
130.5750085781442
 30
0.0
 10
77.1136761827411
 20
130.6046305566896
 30
0.0
  0
LINE
  5
1A6
330
1F
100
AcDbEntity
  8
0
  6
Continuous
 62
     7
370
    25
100
AcDbLine
 10
88.1158180239
 20
132.0683700352
 30
0.0
 11
93.1398686338
 21
132.0683700352
 31
0.0
  0
LINE
  5
1A7
330
1F
100
AcDbEntity
  8
0
  6
Continuous
 62
     7
370
    25
100
AcDbLine
 10
85.2898686338
 20
118.493643446
 30
0.0
 11
85.2898686338
 21
114.4308700352
 31
0.0
  0
SPLINE
  5
1A8
330
1F
100
AcDbEntity
  8
0
  6
Continuous
 62
     7
370
    25
100
AcDbSpline
210
0.0
220
0.0
230
1.0
 70
     8
 71
     3
 72
    25
 73
    21
 74
     0
 42
0.000000001
 43
0.00000001
 40
0.0
 40
0.0
 40
0.0
 40
0.0
 40
0.0278144320063462
 40
0.0555680196245754
 40
0.083331625367772
 40
0.111176035216759
 40
0.1391714221532265
 40
0.1673868326284763
 40
0.1958897140434718
 40
0.2247454979318961
 40
0.254017249222145
 40
0.3796724410016501
 40
0.5056484635002454
 40
0.629752729069345
 40
0.7535891720571729
 40
0.8038564806093713
 40
0.853339684343451
 40
0.9023264398358534
 40
0.9511131859219439
 40
1.0
 40
1.0
 40
1.0
 40
1.0
 10
80.63986863381226
 20
122.9783666175715
 30
0.0
 10
80.70852398777458
 20
122.9778335324644
 30
0.0
 10
80.84568451132725
 20
122.97676852838
 30
0.0
 10
81.05092709391303
 20
122.9636736309878
 30
0.0
 10
81.25524811041011
 20
122.9421351444153
 30
0.0
 10
81.45864916249911
 20
122.9113136725667
 30
0.0
 10
81.66112479334498
 20
122.8714009200592
 30
0.0
 10
81.86267365759262
 20
122.8223007271183
 30
0.0
 10
82.06328767839531
 20
122.7639874796064
 30
0.0
 10
82.26298544272761
 20
122.6963955367396
 30
0.0
 10
82.67855026340689
 20
122.535582020624
 30
0.0
 10
83.28132667994943
 20
122.2216051212826
 30
0.0
 10
83.97538323545433
 20
121.6580336457879
 30
0.0
 10
84.54215686485146
 20
120.9822894265339
 30
0.0
 10
84.87973467052274
 20
120.3649275990574
 30
0.0
 10
85.06819707981158
 20
119.8728661595474
 30
0.0
 10
85.16745829733607
 20
119.535214377001
 30
0.0
 10
85.23780288604294
 20
119.1925832349775
 30
0.0
 10
85.28180148456156
 20
118.8452185345359
 30
0.0
 10
85.28717774804181
 20
118.610915157929
 30
0.0
 10
85.28986863381228
 20
118.4936434460063
 30
0.0
  0
LINE
  5
1A9
330
1F
100
AcDbEntity
  8
0
  6
Continuous
 62
     7
370
    25
100
AcDbLine
 10
78.7249953545
 20
122.9783666176
 30
0.0
 11
80.6398686338
 21
122.9783666176
 31
0.0
  0
SPLINE
  5
1AA
330
1F
100
AcDbEntity
  8
0
  6
Continuous
 62
     7
370
    25
100
AcDbSpline
210
0.0
220
0.0
230
1.0
 70
     8
 71
     3
 72
    12
 73
     8
 74
     0
 42
0.000000001
 43
0.00000001
 40
0.0
 40
0.0
 40
0.0
 40
0.0
 40
0.1992838848975294
 40
0.3984605265796777
 40
0.5979968004971673
 40
0.7983570684833388
 40
1.0
 40
1.0
 40
1.0
 40
1.0
 10
77.7239615121838
 20
122.8761723048481
 30
0.0
 10
77.78941478948427
 20
122.8891946576128
 30
0.0
 10
77.92028612086624
 20
122.9152323552549
 30
0.0
 10
78.11913557249
 20
122.943662914229
 30
0.0
 10
78.31954208836106
 20
122.9640940752105
 30
0.0
 10
78.5217130057783
 20
122.976533152281
 30
0.0
 10
78.65709058942937
 20
122.9777541638557
 30
0.0
 10
78.7249953545228
 20
122.9783666175715
 30
0.0
  0
LINE
  5
1AB
330
1F
100
AcDbEntity
  8
0
  6
Continuous
 62
     7
370
    25
100
AcDbLine
 10
72.2991985046
 20
122.8760083808
 30
0.0
 11
77.7231885231
 21
122.8760083808
 31
0.0
  0
SPLINE
  5
1AC
330
1F
100
AcDbEntity
  8
0
  6
Continuous
 62
     7
370
    25
100
AcDbSpline
210
0.0
220
0.0
230
1.0
 70
     8
 71
     3
 72
    24
 73
    20
 74
     0
 42
0.000000001
 43
0.00000001
 40
0.0
 40
0.0
 40
0.0
 40
0.0
 40
0.0410257106287842
 40
0.0818520099077639
 40
0.1225800578354648
 40
0.1633117464058233
 40
0.2041489402806705
 40
0.2451927184749161
 40
0.2865426449235763
 40
0.3282960933646444
 40
0.370547647549383
 40
0.4133885920102291
 40
0.4569065022351533
 40
0.5011849368587563
 40
0.6001856774947433
 40
0.6987388860447942
 40
0.7976800645453981
 40
0.8978349910029445
 40
1.0
 40
1.0
 40
1.0
 40
1.0
 10
68.52721159766213
 20
124.8136501978695
 30
0.0
 10
68.59025068561665
 20
124.8131154975544
 30
0.0
 10
68.71602245099857
 20
124.8120486959117
 30
0.0
 10
68.90396061250937
 20
124.8009052039136
 30
0.0
 10
69.09055070533395
 20
124.7827437056059
 30
0.0
 10
69.27579248786908
 20
124.7568687848845
 30
0.0
 10
69.459681671097
 20
124.7234318990728
 30
0.0
 10
69.64221533706977
 20
124.6823478775292
 30
0.0
 10
69.82339074400909
 20
124.6335851294357
 30
0.0
 10
70.00320552798524
 20
124.577087641292
 30
0.0
 10
70.1816587270648
 20
124.5127965464897
 30
0.0
 10
70.35874676521448
 20
124.4406428665574
 30
0.0
 10
70.5344788895002
 20
124.3605556815186
 30
0.0
 10
70.77949352309653
 20
124.2367147948362
 30
0.0
 10
71.08367660227874
 20
124.058089812643
 30
0.0
 10
71.43098408372384
 20
123.8090006285858
 30
0.0
 10
71.75015834719625
 20
123.5294310436062
 30
0.0
 10
72.04407024946096
 20
123.2206054056339
 30
0.0
 10
72.2135943361528
 20
122.9925133623322
 30
0.0
 10
72.29919850463561
 20
122.8773342743016
 30
0.0
  0
LINE
  5
1AD
330
1F
100
AcDbEntity
  8
0
  6
Continuous
 62
     7
370
    25
100
AcDbLine
 10
65.7356698807
 20
124.8136501979
 30
0.0
 11
68.5272115977
 21
124.8136501979
 31
0.0
  0
SPLINE
  5
1AE
330
1F
100
AcDbEntity
  8
0
  6
Continuous
 62
     7
370
    25
100
AcDbSpline
210
0.0
220
0.0
230
1.0
 70
     8
 71
     3
 72
     8
 73
     4
 74
     0
 42
0.000000001
 43
0.00000001
 40
0.0
 40
0.0
 40
0.0
 40
0.0
 40
1.0
 40
1.0
 40
1.0
 40
1.0
 10
65.68986580905352
 20
124.8771031888792
 30
0.0
 10
65.7051338329512
 20
124.855986718481
 30
0.0
 10
65.72040185684888
 20
124.8348356514284
 30
0.0
 10
65.73566988074657
 20
124.8136501978695
 30
0.0
  0
LINE
  5
1AF
330
1F
100
AcDbEntity
  8
0
  6
Continuous
 62
     7
370
    25
100
AcDbLine
 10
65.6898686338
 20
132.0683700352
 30
0.0
 11
65.6898686338
 21
124.8771031889
 31
0.0
  0
LINE
  5
1B0
330
1F
100
AcDbEntity
  8
0
  6
Continuous
 62
     7
370
    25
100
AcDbLine
 10
65.6898686338
 20
132.0683700352
 30
0.0
 11
69.5598684785
 21
132.0683700352
 31
0.0
  0
ARC
  5
1B1
330
1F
100
AcDbEntity
  8
0
  6
Continuous
 62
     7
370
    25
100
AcDbCircle
 10
100.3398686338
 20
128.7808700352
 30
0.0
 40
1.200000000000017
100
AcDbArc
 50
0.0
 51
90.0
  0
LINE
  5
1B2
330
1F
100
AcDbEntity
  8
0
  6
Continuous
 62
     7
370
    25
100
AcDbLine
 10
96.6398686338
 20
129.9808700352
 30
0.0
 11
100.3398686338
 21
129.9808700352
 31
0.0
  0
LINE
  5
1B3
330
1F
100
AcDbEntity
  8
0
  6
Continuous
 62
     7
370
    25
100
AcDbLine
 10
96.6398686338
 20
129.9808700352
 30
0.0
 11
96.6398686338
 21
114.4308700352
 31
0.0
  0
ARC
  5
1B4
330
1F
100
AcDbEntity
  8
0
  6
Continuous
 62
     7
370
    25
100
AcDbCircle
 10
222.1398686338
 20
127.9675642833
 30
0.0
 40
0.5000000000000568
100
AcDbArc
 50
280.0
 51
0.0
  0
LINE
  5
1B5
330
1F
100
AcDbEntity
  8
0
  6
Continuous
 62
     7
370
    25
100
AcDbLine
 10
222.6398686338
 20
127.9675642833
 30
0.0
 11
222.6398686338
 21
114.4308700352
 31
0.0
  0
LINE
  5
1B6
330
1F
100
AcDbEntity
  8
0
  6
Continuous
 62
     7
370
    25
100
AcDbLine
 10
219.1398686338
 20
126.9308700352
 30
0.0
 11
219.1398686338
 21
114.4308700352
 31
0.0
  0
LINE
  5
1B7
330
1F
100
AcDbEntity
  8
0
  6
Continuous
 62
     7
370
    25
100
AcDbLine
 10
219.1398686338
 20
126.9308700352
 30
0.0
 11
222.2266927226
 21
127.4751604068
 31
0.0
  0
ARC
  5
1B8
330
1F
100
AcDbEntity
  8
0
  6
Continuous
 62
     7
370
    25
100
AcDbCircle
 10
174.7450946157
 20
126.8308700352
 30
0.0
 40
0.3999999999999941
100
AcDbArc
 50
70.0
 51
90.0
  0
LINE
  5
1B9
330
1F
100
AcDbEntity
  8
0
  6
Continuous
 62
     7
370
    25
100
AcDbLine
 10
165.5398686338
 20
127.2308700352
 30
0.0
 11
174.7450946157
 21
127.2308700352
 31
0.0
  0
ARC
  5
1BA
330
1F
100
AcDbEntity
  8
0
  6
Continuous
 62
     7
370
    25
100
AcDbCircle
 10
165.5398686338
 20
126.8308700352
 30
0.0
 40
0.4000000000000057
100
AcDbArc
 50
90.0
 51
180.0
  0
LINE
  5
1BB
330
1F
100
AcDbEntity
  8
0
  6
Continuous
 62
     7
370
    25
100
AcDbLine
 10
175.6398686338
 20
126.9308700352
 30
0.0
 11
175.6398686338
 21
114.4308700352
 31
0.0
  0
LINE
  5
1BC
330
1F
100
AcDbEntity
  8
0
  6
Continuous
 62
     7
370
    25
100
AcDbLine
 10
174.881902673
 20
127.2067470835
 30
0.0
 11
175.6398686338
 21
126.9308700352
 31
0.0
  0
LINE
  5
1BD
330
1F
100
AcDbEntity
  8
0
  6
Continuous
 62
     7
370
    25
100
AcDbLine
 10
175.6398686338
 20
126.9308700352
 30
0.0
 11
219.1398686338
 21
126.9308700352
 31
0.0
  0
LINE
  5
1BE
330
1F
100
AcDbEntity
  8
0
  6
Continuous
 62
     7
370
    25
100
AcDbLine
 10
164.6398686338
 20
119.9308700352
 30
0.0
 11
165.1398686338
 21
120.4308700352
 31
0.0
  0
LINE
  5
1BF
330
1F
100
AcDbEntity
  8
0
  6
Continuous
 62
     7
370
    25
100
AcDbLine
 10
105.3648686338
 20
120.1808700352
 30
0.0
 11
106.1898686338
 21
120.1808700352
 31
0.0
  0
LINE
  5
1C0
330
1F
100
AcDbEntity
  8
0
  6
Continuous
 62
     7
370
    25
100
AcDbLine
 10
144.6398686338
 20
119.9308700352
 30
0.0
 11
144.6398686338
 21
114.4308700352
 31
0.0
  0
LINE
  5
1C1
330
1F
100
AcDbEntity
  8
0
  6
Continuous
 62
     7
370
    25
100
AcDbLine
 10
143.7385777053
 20
118.4308700352
 30
0.0
 11
143.7385777053
 21
114.4308700352
 31
0.0
  0
LINE
  5
1C2
330
1F
100
AcDbEntity
  8
0
  6
Continuous
 62
     7
370
    25
100
AcDbLine
 10
143.7385777053
 20
118.4308700352
 30
0.0
 11
144.6398686338
 21
119.9308700352
 31
0.0
  0
LINE
  5
1C3
330
1F
100
AcDbEntity
  8
0
  6
Continuous
 62
     7
370
    25
100
AcDbLine
 10
144.6398686338
 20
119.9308700352
 30
0.0
 11
164.6398686338
 21
119.9308700352
 31
0.0
  0
LINE
  5
1C4
330
1F
100
AcDbEntity
  8
0
  6
Continuous
 62
     7
370
    25
100
AcDbLine
 10
101.9398686338
 20
119.4308700352
 30
0.0
 11
101.9398686338
 21
114.4308700352
 31
0.0
  0
LINE
  5
1C5
330
1F
100
AcDbEntity
  8
0
  6
Continuous
 62
     7
370
    25
100
AcDbLine
 10
101.5398686338
 20
119.6618101429
 30
0.0
 11
101.9398686338
 21
119.4308700352
 31
0.0
  0
LINE
  5
1C6
330
1F
100
AcDbEntity
  8
0
  6
Continuous
 62
     7
370
    25
100
AcDbLine
 10
101.5398686338
 20
119.6618101429
 30
0.0
 11
101.5398686338
 21
114.4308700352
 31
0.0
  0
LINE
  5
1C7
330
1F
100
AcDbEntity
  8
0
  6
Continuous
 62
     7
370
    25
100
AcDbLine
 10
101.9398686338
 20
119.4308700352
 30
0.0
 11
105.3648686338
 21
119.4308700352
 31
0.0
  0
LINE
  5
1C8
330
1F
100
AcDbEntity
  8
0
  6
Continuous
 62
     7
370
    25
100
AcDbLine
 10
105.3648686338
 20
119.4308700352
 30
0.0
 11
105.3648686338
 21
114.4308700352
 31
0.0
  0
LINE
  5
1C9
330
1F
100
AcDbEntity
  8
0
  6
Continuous
 62
     7
370
    25
100
AcDbLine
 10
106.1898686338
 20
118.4308700352
 30
0.0
 11
143.7385777053
 21
118.4308700352
 31
0.0
  0
LINE
  5
1CA
330
1F
100
AcDbEntity
  8
0
  6
Continuous
 62
     7
370
    25
100
AcDbLine
 10
106.1898686338
 20
118.4308700352
 30
0.0
 11
106.1898686338
 21
114.4308700352
 31
0.0
  0
SPLINE
  5
1CB
330
1F
100
AcDbEntity
  8
0
  6
Continuous
 62
     7
370
    25
100
AcDbSpline
210
0.0
220
0.0
230
1.0
 70
     8
 71
     3
 72
    37
 73
    33
 74
     0
 42
0.000000001
 43
0.00000001
 40
0.0
 40
0.0
 40
0.0
 40
0.0
 40
0.0114878548102801
 40
0.0231559765621646
 40
0.0350076484354352
 40
0.0470460033795302
 40
0.0592740307999908
 40
0.0716945830965777
 40
0.0843103820274644
 40
0.0971240248797987
 40
0.1101379904320501
 40
0.1233546446979377
 40
0.1811510010973221
 40
0.2483631736114417
 40
0.2888373415819249
 40
0.3232297457604622
 40
0.3515392131491942
 40
0.3737664266256187
 40
0.439930028595385
 40
0.4987424063270026
 40
0.5023253005651627
 40
0.5613100074513717
 40
0.6252595444338138
 40
0.6818650083849794
 40
0.7483890016987902
 40
0.7860781471964685
 40
0.8194856599799785
 40
0.8486127715281725
 40
0.8734622727747424
 40
0.938992615660415
 40
0.9981523731393558
 40
1.0
 40
1.0
 40
1.0
 40
1.0
 10
87.48986863381225
 20
137.8945223385598
 30
0.0
 10
87.48894218253373
 20
137.8940788215513
 30
0.0
 10
87.48707474214166
 20
137.8931848278839
 30
0.0
 10
87.47180168180188
 20
137.8859928504256
 30
0.0
 10
87.44689997933801
 20
137.8745416068331
 30
0.0
 10
87.41104570740215
 20
137.8583918480587
 30
0.0
 10
87.3640781965645
 20
137.837664168505
 30
0.0
 10
87.30553528614362
 20
137.8123256495032
 30
0.0
 10
87.23505714656602
 20
137.7823852289487
 30
0.0
 10
87.1522825822885
 20
137.7478412549067
 30
0.0
 10
87.05686603717037
 20
137.7086915132921
 30
0.0
 10
86.82729720378187
 20
137.6159928421309
 30
0.0
 10
86.34287898980926
 20
137.4272699516164
 30
0.0
 10
85.56387901826386
 20
137.1491801516452
 30
0.0
 10
84.77266056684371
 20
136.8985932843158
 30
0.0
 10
84.14161007360092
 20
136.723576522986
 30
0.0
 10
83.58857211726453
 20
136.583741882387
 30
0.0
 10
82.79561418836812
 20
136.4033310370409
 30
0.0
 10
81.72527984803493
 20
136.2142647153988
 30
0.0
 10
80.74428956859968
 20
136.1089779076891
 30
0.0
 10
79.8163223394801
 20
136.0519451357361
 30
0.0
 10
78.84386684571967
 20
136.0373505373664
 30
0.0
 10
77.5177366402863
 20
136.1155437538575
 30
0.0
 10
76.24770115579257
 20
136.2760234754518
 30
0.0
 10
75.28792515512296
 20
136.4611350136654
 30
0.0
 10
74.58927350777812
 20
136.6286246173955
 30
0.0
 10
74.14546536962303
 20
136.7422478236037
 30
0.0
 10
73.81292830769304
 20
136.8354316585123
 30
0.0
 10
73.42576989744981
 20
136.9500965227709
 30
0.0
 10
73.08852193533798
 20
137.057442331831
 30
0.0
 10
72.99079786900911
 20
137.0950079051176
 30
0.0
 10
72.98989594873713
 20
137.0951393139341
 30
0.0
 10
72.98986863381225
 20
137.0951432936893
 30
0.0
  0
LINE
  5
1CC
330
1F
100
AcDbEntity
  8
0
  6
Continuous
 62
     7
370
    25
100
AcDbLine
 10
87.4898686338
 20
137.8945223386
 30
0.0
 11
87.4898686338
 21
132.537096056
 31
0.0
  0
SPLINE
  5
1CD
330
1F
100
AcDbEntity
  8
0
  6
Continuous
 62
     7
370
    25
100
AcDbSpline
210
0.0
220
0.0
230
1.0
 70
     8
 71
     3
 72
    30
 73
    26
 74
     0
 42
0.000000001
 43
0.00000001
 40
0.0
 40
0.0
 40
0.0
 40
0.0
 40
0.0192411700742056
 40
0.0381353539376965
 40
0.056686888486129
 40
0.0749003554931372
 40
0.0927805967284127
 40
0.1103327298326407
 40
0.1275621649289921
 40
0.1444746219341849
 40
0.2455865830532025
 40
0.3577720192516868
 40
0.4505017408956525
 40
0.5720127868619951
 40
0.6168069840200023
 40
0.6590088499432832
 40
0.6986242498774757
 40
0.7356603299341622
 40
0.7701258931915145
 40
0.8073679165907875
 40
0.8483950324891432
 40
0.8881367798820071
 40
0.926626462211047
 40
0.9639007443615105
 40
1.0
 40
1.0
 40
1.0
 40
1.0
 10
78.31905004320016
 20
130.8730047456146
 30
0.0
 10
78.4020825230798
 20
130.8618776402897
 30
0.0
 10
78.56665011415262
 20
130.8398240906236
 30
0.0
 10
78.81453162983318
 20
130.8117722013609
 30
0.0
 10
79.05980830527555
 20
130.787820670835
 30
0.0
 10
79.30236613888682
 20
130.7682907186416
 30
0.0
 10
79.54180081599573
 20
130.753098426465
 30
0.0
 10
79.7778140114028
 20
130.7422668652341
 30
0.0
 10
80.01013205671357
 20
130.735786299981
 30
0.0
 10
80.61868282633758
 20
130.7301548083949
 30
0.0
 10
81.65699532355765
 20
130.7901282078795
 30
0.0
 10
82.97234685165891
 20
130.9895506810544
 30
0.0
 10
84.25189206455049
 20
131.2950320417382
 30
0.0
 10
85.14333260864062
 20
131.5749748446571
 30
0.0
 10
85.76099747750165
 20
131.8024239411725
 30
0.0
 10
86.10432056278496
 20
131.9327026016725
 30
0.0
 10
86.39601164768045
 20
132.0487935396305
 30
0.0
 10
86.6405570035063
 20
132.1501617690337
 30
0.0
 10
86.85291168394568
 20
132.2414998215513
 30
0.0
 10
87.04397465857028
 20
132.3255749054985
 30
0.0
 10
87.20922206274278
 20
132.4005678594638
 30
0.0
 10
87.3387626129869
 20
132.4615563590095
 30
0.0
 10
87.42712898220942
 20
132.5047940207749
 30
0.0
 10
87.48027482747308
 20
132.5320241066538
 30
0.0
 10
87.48670502341427
 20
132.5354235527837
 30
0.0
 10
87.48986863381225
 20
132.5370960559582
 30
0.0
  0
SPLINE
  5
1CE
330
1F
100
AcDbEntity
  8
0
  6
Continuous
 62
     7
370
    25
100
AcDbSpline
210
0.0
220
0.0
230
1.0
 70
     8
 71
     3
 72
    38
 73
    34
 74
     0
 42
0.000000001
 43
0.00000001
 40
0.0
 40
0.0
 40
0.0
 40
0.0
 40
0.1250000000000011
 40
0.1250000000000011
 40
0.2500000000000022
 40
0.2500000000000022
 40
0.3125000000000027
 40
0.3125000000000027
 40
0.375000000000003
 40
0.375000000000003
 40
0.4375000000000033
 40
0.4375000000000033
 40
0.5000000000000037
 40
0.5000000000000037
 40
0.5625000000000041
 40
0.5625000000000041
 40
0.6250000000000044
 40
0.6250000000000044
 40
0.6875000000000049
 40
0.6875000000000049
 40
0.7187500000000047
 40
0.7187500000000047
 40
0.7500000000000043
 40
0.7500000000000043
 40
0.781250000000004
 40
0.781250000000004
 40
0.8125000000000038
 40
0.8125000000000038
 40
0.8750000000000024
 40
0.8750000000000024
 40
0.9375000000000012
 40
0.9375000000000012
 40
1.0
 40
1.0
 40
1.0
 40
1.0
 10
72.98986863381225
 20
136.9669179201105
 30
0.0
 10
72.98986863381229
 20
136.9669179201105
 30
0.0
 10
73.05167439137571
 20
136.9442738374485
 30
0.0
 10
73.30129693681111
 20
136.8516894483925
 30
0.0
 10
73.48502456774922
 20
136.7833018684398
 30
0.0
 10
73.84141340433423
 20
136.647459769238
 30
0.0
 10
73.97457386583976
 20
136.5962667841815
 30
0.0
 10
74.26565287653612
 20
136.4825781790691
 30
0.0
 10
74.42214282804545
 20
136.4206515715627
 30
0.0
 10
74.75552426933335
 20
136.2857664628722
 30
0.0
 10
74.93242802769647
 20
136.2128282085855
 30
0.0
 10
75.30566967516978
 20
136.0538522737897
 30
0.0
 10
75.50341366605093
 20
135.9672125039131
 30
0.0
 10
75.90943709930406
 20
135.7802948313607
 30
0.0
 10
76.11749049269106
 20
135.6802599175517
 30
0.0
 10
76.53978476542525
 20
135.4609963673727
 30
0.0
 10
76.75415006850035
 20
135.341993175708
 30
0.0
 10
77.18199238007978
 20
135.0717193253842
 30
0.0
 10
77.39839403118643
 20
134.9184704998725
 30
0.0
 10
77.69702647406659
 20
134.6524019762893
 30
0.0
 10
77.7922190635363
 20
134.5576297300166
 30
0.0
 10
77.96984431539312
 20
134.3518728728266
 30
0.0
 10
78.05245862602152
 20
134.2400143310561
 30
0.0
 10
78.19453890104312
 20
134.0064988268337
 30
0.0
 10
78.2549244502881
 20
133.8839377608779
 30
0.0
 10
78.35437494244296
 20
133.6274669976527
 30
0.0
 10
78.3936663814678
 20
133.492226984103
 30
0.0
 10
78.48036296762086
 20
133.0839449811384
 30
0.0
 10
78.49907129461559
 20
132.8076848033535
 30
0.0
 10
78.49557527398389
 20
132.2509370247178
 30
0.0
 10
78.47309565377529
 20
131.972706780727
 30
0.0
 10
78.4074680059932
 20
131.4213209605422
 30
0.0
 10
78.36397046230371
 20
131.1470672914398
 30
0.0
 10
78.31449091519366
 20
130.8736378194781
 30
0.0
  0
LINE
  5
1CF
330
1F
100
AcDbEntity
  8
0
  6
Continuous
 62
     7
370
    25
100
AcDbLine
 10
72.9898686338
 20
136.9669179201
 30
0.0
 11
72.9898686338
 21
137.0951432936
 31
0.0
  0
SPLINE
  5
1D0
330
1F
100
AcDbEntity
  8
0
  6
Continuous
 62
     7
370
    25
100
AcDbSpline
210
0.0
220
0.0
230
1.0
 70
     8
 71
     3
 72
    14
 73
    10
 74
     0
 42
0.000000001
 43
0.00000001
 40
0.0
 40
0.0
 40
0.0
 40
0.0
 40
0.0003951392850831
 40
0.0003951392850831
 40
0.0003951392850831
 40
0.0008159035679249
 40
0.0008159035679249
 40
0.0008159035679249
 40
0.0012369936130997
 40
0.0012369936130997
 40
0.0012369936130997
 40
0.0012369936130997
 10
77.11775258354378
 20
130.6058430322068
 30
0.0
 10
77.24626182165049
 20
130.6347169999203
 30
0.0
 10
77.3748253293795
 20
130.6634052133966
 30
0.0
 10
77.50337570766288
 20
130.691908057434
 30
0.0
 10
77.64026095532648
 20
130.7222589511248
 30
0.0
 10
77.77715660122631
 20
130.7524049161538
 30
0.0
 10
77.91397686257537
 20
130.7823567357223
 30
0.0
 10
78.05090285152028
 20
130.8123317005022
 30
0.0
 10
78.18777992348446
 20
130.8421177499474
 30
0.0
 10
78.3245167726716
 20
130.8717402231161
 30
0.0
  0
LINE
  5
1D1
330
1F
100
AcDbEntity
  8
0
  6
Continuous
 62
     7
370
    25
100
AcDbLine
 10
69.5598684785
 20
132.0683700352
 30
0.0
 11
72.9898686338
 21
136.9669179201
 31
0.0
  0
LINE
  5
1D2
330
1F
100
AcDbEntity
  8
0
  6
Continuous
 62
     7
370
    25
100
AcDbLine
 10
72.2403067855
 20
137.9042557449
 30
0.0
 11
72.9898967644
 21
137.0951444071
 31
0.0
  0
LINE
  5
1D3
330
1F
100
AcDbEntity
  8
0
  6
Continuous
 62
     7
370
    25
100
AcDbLine
 10
87.4898815819
 20
137.8945225944
 30
0.0
 11
88.1582117279
 21
138.7036344168
 31
0.0
  0
LINE
  5
1D4
330
1F
100
AcDbEntity
  8
0
  6
Continuous
 62
     7
370
    25
100
AcDbLine
 10
63.4415346837
 20
133.3664462466
 30
0.0
 11
65.6898686338
 21
132.0683700352
 31
0.0
  0
LINE
  5
1D5
330
1F
100
AcDbEntity
  8
0
  6
Continuous
 62
     7
370
    25
100
AcDbLine
 10
62.6898686338
 20
134.6683700352
 30
0.0
 11
63.4415346837
 21
133.3664462466
 31
0.0
  0
LINE
  5
1D6
330
1F
100
AcDbEntity
  8
0
  6
Continuous
 62
     7
370
    25
100
AcDbLine
 10
62.6898686338
 20
136.633964759
 30
0.0
 11
62.6898686338
 21
134.6683700352
 31
0.0
  0
LINE
  5
1D7
330
1F
100
AcDbEntity
  8
0
  6
Continuous
 62
     7
370
    25
100
AcDbLine
 10
64.1898686338
 20
137.4999901628
 30
0.0
 11
62.6898686338
 21
136.633964759
 31
0.0
  0
LINE
  5
1D8
330
1F
100
AcDbEntity
  8
0
  6
Continuous
 62
     7
370
    25
100
AcDbLine
 10
113.4148686338
 20
142.2808700352
 30
0.0
 11
111.6648686338
 21
142.2808700352
 31
0.0
  0
ARC
  5
1D9
330
1F
100
AcDbEntity
  8
0
  6
Continuous
 62
     7
370
    25
100
AcDbCircle
 10
113.4148686338
 20
143.2808700352
 30
0.0
 40
1.0
100
AcDbArc
 50
270.0
 51
0.0
  0
LINE
  5
1DA
330
1F
100
AcDbEntity
  8
0
  6
Continuous
 62
     7
370
    25
100
AcDbLine
 10
114.4148686338
 20
143.3784652994
 30
0.0
 11
114.4148686338
 21
143.2808700352
 31
0.0
  0
LINE
  5
1DB
330
1F
100
AcDbEntity
  8
0
  6
Continuous
 62
     7
370
    25
100
AcDbLine
 10
115.8740664384
 20
145.9058700352
 30
0.0
 11
114.4148686338
 21
143.3784652994
 31
0.0
  0
LINE
  5
1DC
330
1F
100
AcDbEntity
  8
0
  6
Continuous
 62
     7
370
    25
100
AcDbLine
 10
88.1158177756
 20
132.0683713255
 30
0.0
 11
87.489871762
 21
132.5370961808
 31
0.0
  0
LINE
  5
1DD
330
1F
100
AcDbEntity
  8
0
  6
Continuous
 62
     7
370
    25
100
AcDbLine
 10
110.6648686338
 20
143.3784652994
 30
0.0
 11
109.2056708292
 21
145.9058700352
 31
0.0
  0
LINE
  5
1DE
330
1F
100
AcDbEntity
  8
0
  6
Continuous
 62
     7
370
    25
100
AcDbLine
 10
110.6648686338
 20
143.2808700352
 30
0.0
 11
110.6648686338
 21
143.3784652994
 31
0.0
  0
ARC
  5
1DF
330
1F
100
AcDbEntity
  8
0
  6
Continuous
 62
     7
370
    25
100
AcDbCircle
 10
111.6648686338
 20
143.2808700352
 30
0.0
 40
1.0
100
AcDbArc
 50
180.0
 51
270.0
  0
LINE
  5
1E0
330
1F
100
AcDbEntity
  8
0
  6
Continuous
 62
     7
370
    25
100
AcDbLine
 10
105.3648686338
 20
119.4308700352
 30
0.0
 11
105.3648686338
 21
120.1808700352
 31
0.0
  0
LINE
  5
1E1
330
1F
100
AcDbEntity
  8
0
  6
Continuous
 62
     7
370
    25
100
AcDbLine
 10
106.1898686338
 20
120.1808700352
 30
0.0
 11
106.1898686338
 21
118.4308700352
 31
0.0
  0
LINE
  5
1E2
330
1F
100
AcDbEntity
  8
0
  6
Continuous
 62
     7
370
    25
100
AcDbLine
 10
165.1398686338
 20
120.4308700352
 30
0.0
 11
165.1398686338
 21
126.8308700352
 31
0.0
  0
LINE
  5
1E3
330
1F
100
AcDbEntity
  8
0
  6
Continuous
 62
     7
370
    25
100
AcDbLine
 10
101.5398686338
 20
128.7808700352
 30
0.0
 11
101.5398686338
 21
119.6618101429
 31
0.0
  0
LINE
  5
1E4
330
1F
100
AcDbEntity
  8
0
  6
Continuous
 62
     7
370
    25
100
AcDbLine
 10
96.6398686338
 20
131.8808700352
 30
0.0
 11
96.6398686338
 21
129.9808700352
 31
0.0
  0
LINE
  5
1E5
330
1F
100
AcDbEntity
  8
0
  6
Continuous
 62
     7
370
    25
100
AcDbLine
 10
222.6398686338
 20
127.9675642833
 30
0.0
 11
222.6398686338
 21
134.1198938061
 31
0.0
  0
LINE
  5
1E6
330
1F
100
AcDbEntity
  8
0
  6
Continuous
 62
     7
370
    25
100
AcDbLine
 10
102.6398686338
 20
145.7058700352
 30
0.0
 11
102.6398686338
 21
141.2808700352
 31
0.0
  0
LINE
  5
1E7
330
1F
100
AcDbEntity
  8
0
  6
Continuous
 62
     7
370
    25
100
AcDbLine
 10
120.6398686338
 20
143.9308700352
 30
0.0
 11
120.6398686338
 21
145.9058700352
 31
0.0
  0
SPLINE
  5
1E8
330
1F
100
AcDbEntity
  8
0
  6
Continuous
 62
     7
370
    25
100
AcDbSpline
210
0.0
220
0.0
230
1.0
 70
     8
 71
     3
 72
     9
 73
     5
 74
     0
 42
0.000000001
 43
0.00000001
 40
0.0
 40
0.0
 40
0.0
 40
0.0
 40
0.5102121239851395
 40
0.9999999999999999
 40
0.9999999999999999
 40
0.9999999999999999
 40
0.9999999999999999
 10
63.49423203048336
 20
124.8924965518584
 30
0.0
 10
63.86909408746215
 20
124.8900066344767
 30
0.0
 10
64.60381213777194
 20
124.8851264733346
 30
0.0
 10
65.33281272822867
 20
124.8797415819483
 30
0.0
 10
65.68986837904205
 20
124.8771041274336
 30
0.0
  0
LINE
  5
1E9
330
1F
100
AcDbEntity
  8
0
  6
Continuous
 62
     7
370
    25
100
AcDbLine
 10
63.4415346837
 20
124.9229208428
 30
0.0
 11
63.4942320323
 21
124.8924960143
 31
0.0
  0
LINE
  5
1EA
330
1F
100
AcDbEntity
  8
0
  6
Continuous
 62
     7
370
    25
100
AcDbLine
 10
63.4415346837
 20
133.3664462466
 30
0.0
 11
63.4415346837
 21
124.9229208428
 31
0.0
  0
SPLINE
  5
1EB
330
1F
100
AcDbEntity
  8
0
  6
Continuous
 62
     7
370
    25
100
AcDbSpline
210
0.0
220
0.0
230
1.0
 70
    24
 71
     3
 72
     8
 73
     4
 74
     0
 42
0.000000001
 43
0.00000001
 40
0.0000004089325119
 40
0.0000004089325119
 40
0.0000004089325119
 40
0.0000004089325119
 40
0.0015399868451459
 40
0.0015399868451459
 40
0.0015399868451459
 40
0.0015399868451459
 10
62.68986863381226
 20
125.356895438991
 30
0.0
 10
62.94085970983672
 20
125.2119856736841
 30
0.0
 10
63.19144890633965
 20
125.0673079336271
 30
0.0
 10
63.4415346836518
 20
124.9229208427754
 30
0.0
  0
LINE
  5
1EC
330
1F
100
AcDbEntity
  8
0
  6
Continuous
 62
     7
370
    25
100
AcDbLine
 10
62.6898686338
 20
134.6683700352
 30
0.0
 11
62.6898686338
 21
125.356895439
 31
0.0
  0
SPLINE
  5
1ED
330
1F
100
AcDbEntity
  8
0
  6
Continuous
 62
     7
370
    25
100
AcDbSpline
210
0.0
220
0.0
230
1.0
 70
     8
 71
     3
 72
     8
 73
     4
 74
     0
 42
0.000000001
 43
0.00000001
 40
0.0
 40
0.0
 40
0.0
 40
0.0
 40
1.0
 40
1.0
 40
1.0
 40
1.0
 10
65.81955037656903
 20
124.4908707129431
 30
0.0
 10
65.7916021564495
 20
124.5986870669186
 30
0.0
 10
65.76364206828077
 20
124.7062809170848
 30
0.0
 10
65.73566988074656
 20
124.8136501978695
 30
0.0
  0
LINE
  5
1EE
330
1F
100
AcDbEntity
  8
0
  6
Continuous
 62
     7
370
    25
100
AcDbLine
 10
65.8195535151
 20
124.4908700352
 30
0.0
 11
64.189867847
 21
124.4908700352
 31
0.0
  0
LINE
  5
1EF
330
1F
100
AcDbEntity
  8
0
  6
Continuous
 62
     7
370
    25
100
AcDbLine
 10
64.189868047
 20
124.490870374
 30
0.0
 11
63.494231569
 21
124.8924962819
 31
0.0
  0
LINE
  5
1F0
330
1F
100
AcDbEntity
  8
0
  6
Continuous
 62
     7
370
    25
100
AcDbLine
 10
72.243829531
 20
122.4933700352
 30
0.0
 11
71.9916579031
 21
122.4933700352
 31
0.0
  0
SPLINE
  5
1F1
330
1F
100
AcDbEntity
  8
0
  6
Continuous
 62
     7
370
    25
100
AcDbSpline
210
0.0
220
0.0
230
1.0
 70
     8
 71
     3
 72
    26
 73
    22
 74
     0
 42
0.000000001
 43
0.00000001
 40
0.0
 40
0.0
 40
0.0
 40
0.0
 40
0.0524616379932503
 40
0.1026498591890872
 40
0.150565513457809
 40
0.1962095861957063
 40
0.2395832262568645
 40
0.2806877815599511
 40
0.3195248450380211
 40
0.3560963147430692
 40
0.3904044736547445
 40
0.4224520974433627
 40
0.4522426027417772
 40
0.4797802555366611
 40
0.5050704712281336
 40
0.5966394156799991
 40
0.6841917884819224
 40
0.7679874773571101
 40
0.8483228539139507
 40
0.925534163520116
 40
1.0
 40
1.0
 40
1.0
 40
1.0
 10
71.98985140914286
 20
122.4933998192419
 30
0.0
 10
71.95421501011157
 20
122.5529467393241
 30
0.0
 10
71.88448650977314
 20
122.6694601231108
 30
0.0
 10
71.77100834901329
 20
122.83385808384
 30
0.0
 10
71.65548279928827
 20
122.9860198216415
 30
0.0
 10
71.53836110327813
 20
123.1259225185741
 30
0.0
 10
71.42098940279875
 20
123.2541368424781
 30
0.0
 10
71.30436843676513
 20
123.3711525214185
 30
0.0
 10
71.1894655163201
 20
123.4775296766625
 30
0.0
 10
71.07714129063075
 20
123.5738457571368
 30
0.0
 10
70.96817231659591
 20
123.6606951036893
 30
0.0
 10
70.86325327575922
 20
123.7386752858832
 30
0.0
 10
70.76299594981049
 20
123.8083834829361
 30
0.0
 10
70.66795860722735
 20
123.8703934718373
 30
0.0
 10
70.4978517027966
 20
123.9748799091031
 30
0.0
 10
70.24493267139151
 20
124.1099385756175
 30
0.0
 10
69.89895151433038
 20
124.2543254680346
 30
0.0
 10
69.55099296500603
 20
124.3632933802796
 30
0.0
 10
69.20485320462996
 20
124.4378229626163
 30
0.0
 10
68.86378842119586
 20
124.4827516671657
 30
0.0
 10
68.6380418096802
 20
124.4881967660202
 30
0.0
 10
68.52721159766214
 20
124.4908700352065
 30
0.0
  0
SPLINE
  5
1F2
330
1F
100
AcDbEntity
  8
0
  6
Continuous
 62
     7
370
    25
100
AcDbSpline
210
0.0
220
0.0
230
1.0
 70
     8
 71
     3
 72
     8
 73
     4
 74
     0
 42
0.000000001
 43
0.00000001
 40
0.0
 40
0.0
 40
0.0
 40
0.0
 40
1.0
 40
1.0
 40
1.0
 40
1.0
 10
72.24382953104474
 20
122.4933700352064
 30
0.0
 10
72.27283423747232
 20
122.6173077620687
 30
0.0
 10
72.29186675715378
 20
122.745259892302
 30
0.0
 10
72.30011834934542
 20
122.8763292049935
 30
0.0
  0
LINE
  5
1F3
330
1F
100
AcDbEntity
  8
0
  6
Continuous
 62
     7
370
    25
100
AcDbLine
 10
68.5272115977
 20
124.4908700352
 30
0.0
 11
65.8195535151
 21
124.4908700352
 31
0.0
  0
LINE
  5
1F4
330
1F
100
AcDbEntity
  8
0
  6
Continuous
 62
     7
370
    25
100
AcDbLine
 10
85.2898686338
 20
118.493643446
 30
0.0
 11
84.6398686338
 21
118.6433700352
 31
0.0
  0
SPLINE
  5
1F5
330
1F
100
AcDbEntity
  8
0
  6
Continuous
 62
     7
370
    25
100
AcDbSpline
210
0.0
220
0.0
230
1.0
 70
     8
 71
     3
 72
    26
 73
    22
 74
     0
 42
0.000000001
 43
0.00000001
 40
0.0
 40
0.0
 40
0.0
 40
0.0
 40
0.0305951740572542
 40
0.0629166281868252
 40
0.0969720532897518
 40
0.1327680143285475
 40
0.1703101548822826
 40
0.2096033578521445
 40
0.2506518729756858
 40
0.3342141733898277
 40
0.4179517165474626
 40
0.5018670561020881
 40
0.5659795686746639
 40
0.6277136397870199
 40
0.687135819210908
 40
0.7443207393864881
 40
0.7993521466017559
 40
0.8523240127975756
 40
0.903341702807647
 40
0.9525231537633125
 40
1.0
 40
1.0
 40
1.0
 40
1.0
 10
84.63986863381226
 20
118.6433700352065
 30
0.0
 10
84.63896042196762
 20
118.7079052025937
 30
0.0
 10
84.63709275398715
 20
118.8406168231871
 30
0.0
 10
84.62150016492555
 20
119.0434309147107
 30
0.0
 10
84.59485630373842
 20
119.2551439556111
 30
0.0
 10
84.55470187466
 20
119.4748559489841
 30
0.0
 10
84.49980375797684
 20
119.7016028198553
 30
0.0
 10
84.42856078936508
 20
119.9342338236384
 30
0.0
 10
84.31014839508249
 20
120.2496321381151
 30
0.0
 10
84.12201749867461
 20
120.63411403665
 30
0.0
 10
83.83800073544003
 20
121.0641416511795
 30
0.0
 10
83.52858277889031
 20
121.4226283635204
 30
0.0
 10
83.21267316808873
 20
121.7143950198098
 30
0.0
 10
82.9059277599654
 20
121.946854106647
 30
0.0
 10
82.58750864614329
 20
122.143664341211
 30
0.0
 10
82.26153776998622
 20
122.3057650434692
 30
0.0
 10
81.931998934861
 20
122.4342349269489
 30
0.0
 10
81.60243702001443
 20
122.5308187463219
 30
0.0
 10
81.2760186967152
 20
122.5966709756081
 30
0.0
 10
80.9555005044113
 20
122.6362359234335
 30
0.0
 10
80.74383499088053
 20
122.6410201216489
 30
0.0
 10
80.63986863381226
 20
122.6433700352065
 30
0.0
  0
SPLINE
  5
1F6
330
1F
100
AcDbEntity
  8
0
  6
Continuous
 62
     7
370
    25
100
AcDbSpline
210
0.0
220
0.0
230
1.0
 70
     8
 71
     3
 72
    13
 73
     9
 74
     0
 42
0.000000001
 43
0.00000001
 40
0.0
 40
0.0
 40
0.0
 40
0.0
 40
0.1604061687300809
 40
0.3231296684563272
 40
0.4883154213007764
 40
0.6561019685773533
 40
0.8266215117792448
 40
1.0
 40
1.0
 40
1.0
 40
1.0
 10
78.7249953545228
 20
122.6433700352065
 30
0.0
 10
78.66594540300764
 20
122.6426144651685
 30
0.0
 10
78.54699242628293
 20
122.6410924096403
 30
0.0
 10
78.3677387926771
 20
122.6286473505129
 30
0.0
 10
78.18680581098943
 20
122.6084631693821
 30
0.0
 10
78.00467731659064
 20
122.5793278032415
 30
0.0
 10
77.8215103087963
 20
122.5419116514224
 30
0.0
 10
77.70077099392196
 20
122.5096457790653
 30
0.0
 10
77.63989946233708
 20
122.4933787241268
 30
0.0
  0
SPLINE
  5
1F7
330
1F
100
AcDbEntity
  8
0
  6
Continuous
 62
     7
370
    25
100
AcDbSpline
210
0.0
220
0.0
230
1.0
 70
    24
 71
     3
 72
    10
 73
     6
 74
     0
 42
0.000000001
 43
0.00000001
 40
0.0
 40
0.0
 40
0.0
 40
0.0
 40
0.3216623556917455
 40
0.6548175346390357
 40
1.0
 40
1.0
 40
1.0
 40
1.0
 10
77.64004746871704
 20
122.4933700352065
 30
0.0
 10
77.57150156085976
 20
122.4933700352065
 30
0.0
 10
77.43196063666248
 20
122.4933700352065
 30
0.0
 10
77.22235222131194
 20
122.4933700352065
 30
0.0
 10
77.08267522615812
 20
122.4933700352065
 30
0.0
 10
77.01159845495728
 20
122.4933700352065
 30
0.0
  0
SPLINE
  5
1F8
330
1F
100
AcDbEntity
  8
0
  6
Continuous
 62
     7
370
    25
100
AcDbSpline
210
0.0
220
0.0
230
1.0
 70
     8
 71
     3
 72
     8
 73
     4
 74
     0
 42
0.000000001
 43
0.00000001
 40
0.0
 40
0.0
 40
0.0
 40
0.0
 40
1.0
 40
1.0
 40
1.0
 40
1.0
 10
77.72619875021088
 20
122.8718163843894
 30
0.0
 10
77.45690242015444
 20
122.7751269991962
 30
0.0
 10
77.22074173474067
 20
122.6471278298194
 30
0.0
 10
77.01154421855675
 20
122.4936512321747
 30
0.0
  0
LINE
  5
1F9
330
1F
100
AcDbEntity
  8
0
  6
Continuous
 62
     7
370
    25
100
AcDbLine
 10
77.0120899301
 20
106.3683700352
 30
0.0
 11
77.1315706384
 21
106.3683700352
 31
0.0
  0
LINE
  5
1FA
330
1F
100
AcDbEntity
  8
0
  6
Continuous
 62
     7
370
    25
100
AcDbLine
 10
80.6398686338
 20
122.6433700352
 30
0.0
 11
78.7249953545
 21
122.6433700352
 31
0.0
  0
LINE
  5
1FB
330
1F
100
AcDbEntity
  8
0
  6
Continuous
 62
     7
370
    25
100
AcDbLine
 10
77.0119568157
 20
122.4933700352
 30
0.0
 11
72.243829531
 21
122.4933700352
 31
0.0
  0
LINE
  5
1FC
330
1F
100
AcDbEntity
  8
0
  6
Continuous
 62
     7
370
    25
100
AcDbLine
 10
84.6398686338
 20
114.4308700352
 30
0.0
 11
84.6398686338
 21
118.6433700352
 31
0.0
  0
LINE
  5
1FD
330
1F
100
AcDbEntity
  8
VERMASSUNG
  6
CENTERX2
100
AcDbLine
 10
238.6348686338
 20
114.4308700352
 30
0.0
 11
46.6948686338
 21
114.4308700352
 31
0.0
  0
HATCH
  5
1FE
330
1F
100
AcDbEntity
  8
0
  6
Continuous
 62
     7
370
    18
100
AcDbHatch
 10
0.0
 20
0.0
 30
0.0
210
0.0
220
0.0
230
1.0
  2
ANSI31
 70
     0
 71
     0
 91
        1
 92
        0
 93
       50
 72
     2
 10
111.6648686338123
 20
143.2808700352065
 40
1.000000000000003
 50
90.0
 51
180.0
 73
     0
 72
     1
 10
110.6648686338123
 20
143.2808700352065
 11
110.6648686338123
 21
143.3784652993982
 72
     1
 10
110.6648686338123
 20
143.3784652993982
 11
109.2056708292422
 21
145.9058700352066
 72
     1
 10
109.2056708292422
 20
145.9058700352066
 11
102.8398686338123
 21
145.9058700352066
 72
     2
 10
102.8398686338123
 20
145.7058700352065
 40
0.2000000000000028
 50
90.00000000000408
 51
180.0
 73
     1
 72
     1
 10
102.6398686338123
 20
145.7058700352065
 11
102.6398686338123
 21
141.2808700352065
 72
     1
 10
102.6398686338123
 20
141.2808700352065
 11
102.9739073198409
 21
140.22143467481
 72
     2
 10
102.2109337592423
 20
139.9808700352066
 40
0.8000000000000049
 50
342.5000000000017
 51
467.5000000000007
 73
     0
 72
     1
 10
101.9703691196389
 20
139.217896474608
 11
101.4796865937815
 21
139.3726080807349
 72
     1
 10
101.4796865937815
 20
139.3726080807349
 11
88.15821332126202
 21
138.7036311077087
 72
     1
 10
88.15821172786347
 20
138.7036344167771
 11
87.48988158193396
 21
137.894522594386
 72
     1
 10
87.48988158193396
 20
137.894522594386
 11
87.48986863381226
 21
132.5370960559581
 72
     1
 10
87.48987176204595
 20
132.5370961808386
 11
88.11581777558814
 21
132.0683713254986
 72
     1
 10
88.11581802389706
 20
132.0683700352066
 11
93.1398686338123
 21
132.0683700352066
 72
     1
 10
93.1398686338123
 20
132.0683700352066
 11
94.0151091073931
 21
132.5736903582341
 72
     2
 10
94.4151091073931
 20
131.8808700352066
 40
0.7999999999999937
 50
239.9999999999993
 51
269.9999999999998
 73
     0
 72
     1
 10
94.41510910739309
 20
132.6808700352065
 11
95.83986863381227
 21
132.6808700352065
 72
     2
 10
95.83986863381227
 20
131.8808700352066
 40
0.7999999999999977
 50
270.0000000000008
 51
360.0000000000008
 73
     0
 72
     1
 10
96.63986863381227
 20
131.8808700352066
 11
96.63986863381227
 21
129.9808700352065
 72
     1
 10
96.63986863381227
 20
129.9808700352065
 11
100.3398686338123
 21
129.9808700352065
 72
     2
 10
100.3398686338123
 20
128.7808700352066
 40
1.2
 50
270.0000000000008
 51
360.0000000000008
 73
     0
 72
     1
 10
101.5398686338123
 20
128.7808700352066
 11
101.5398686338123
 21
119.6618101428824
 72
     1
 10
101.5398686338123
 20
119.6618101428824
 11
101.9398686338123
 21
119.4308700352065
 72
     1
 10
101.9398686338123
 20
119.4308700352065
 11
105.3648686338123
 21
119.4308700352065
 72
     1
 10
105.3648686338123
 20
119.4308700352065
 11
105.3648686338123
 21
120.1808700352065
 72
     1
 10
105.3648686338123
 20
120.1808700352065
 11
106.1898686338123
 21
120.1808700352065
 72
     1
 10
106.1898686338123
 20
120.1808700352065
 11
106.1898686338123
 21
118.4308700352065
 72
     1
 10
106.1898686338123
 20
118.4308700352065
 11
143.7385777052709
 21
118.4308700352065
 72
     1
 10
143.7385777052709
 20
118.4308700352065
 11
144.6398686338123
 21
119.9308700352065
 72
     1
 10
144.6398686338123
 20
119.9308700352065
 11
164.6398686338123
 21
119.9308700352065
 72
     1
 10
164.6398686338123
 20
119.9308700352065
 11
165.1398686338123
 21
120.4308700352065
 72
     1
 10
165.1398686338123
 20
120.4308700352065
 11
165.1398686338123
 21
126.8308700352065
 72
     2
 10
165.5398686338123
 20
126.8308700352065
 40
0.3999999999999985
 50
180.0
 51
270.0000000000008
 73
     0
 72
     1
 10
165.5398686338123
 20
127.2308700352065
 11
174.7450946156925
 21
127.2308700352065
 72
     2
 10
174.7450946156925
 20
126.8308700352065
 40
0.3999999999999996
 50
270.0000000000008
 51
290.0000000000038
 73
     0
 72
     1
 10
174.8819026730228
 20
127.2067470835209
 11
175.6398686338123
 21
126.9308700352065
 72
     1
 10
175.6398686338123
 20
126.9308700352065
 11
219.1398686338122
 21
126.9308700352065
 72
     1
 10
219.1398686338122
 20
126.9308700352065
 11
222.2266927226457
 21
127.4751604067686
 72
     2
 10
222.1398686338123
 20
127.9675642832747
 40
0.5000000000000068
 50
280.0000000000023
 51
360.0000000000008
 73
     1
 72
     1
 10
222.6398686338123
 20
127.9675642832747
 11
222.6398686338123
 21
134.119893806061
 72
     2
 10
220.1398686338123
 20
134.119893806061
 40
2.500000000000009
 50
0.0
 51
85.49999999999967
 73
     1
 72
     1
 10
220.3360163731319
 20
136.6121871403938
 11
165.4619473210261
 21
140.9308700352065
 72
     1
 10
165.4619473210261
 20
140.9308700352065
 11
123.6398686338123
 21
140.9308700352065
 72
     2
 10
123.6398686338123
 20
143.9308700352065
 40
3.0
 50
90.0
 51
180.0
 73
     0
 72
     1
 10
120.6398686338123
 20
143.9308700352065
 11
120.6398686338123
 21
145.9058700352065
 72
     1
 10
120.6398686338123
 20
145.9058700352065
 11
115.8740664383824
 21
145.9058700352065
 72
     1
 10
115.8740664383824
 20
145.9058700352065
 11
114.4148686338123
 21
143.3784652993982
 72
     1
 10
114.4148686338123
 20
143.3784652993982
 11
114.4148686338123
 21
143.2808700352065
 72
     2
 10
113.4148686338123
 20
143.2808700352065
 40
1.000000000000003
 50
0.0
 51
90.0
 73
     0
 72
     1
 10
113.4148686338123
 20
142.2808700352065
 11
111.6648686338123
 21
142.2808700352065
 97
        0
 75
     0
 76
     1
 52
0.0
 41
1.0
 77
     0
 78
     1
 53
45.0
 43
0.0
 44
0.0
 45
-2.245064030267288
 46
2.245064030267288
 79
     0
 98
        1
 10
0.0
 20
0.0
  0
HATCH
  5
1FF
330
1F
100
AcDbEntity
  8
0
  6
Continuous
 62
     7
370
    18
100
AcDbHatch
 10
0.0
 20
0.0
 30
0.0
210
0.0
220
0.0
230
1.0
  2
ANSI31
 70
     0
 71
     0
 91
        1
 92
        0
 93
        9
 72
     1
 10
72.98989676440044
 20
137.0951444070894
 11
72.24030678546472
 21
137.904255744857
 72
     1
 10
72.24030678546472
 20
137.904255744857
 11
64.18986863381228
 21
137.4999901627889
 72
     1
 10
64.18986863381228
 20
137.4999901627889
 11
62.68986863381226
 21
136.6339647590045
 72
     1
 10
62.68986863381226
 20
136.6339647590045
 11
62.68986863381226
 21
134.6683700352066
 72
     1
 10
62.68986863381226
 20
134.6683700352066
 11
63.44153468365181
 21
133.3664462465599
 72
     1
 10
63.44153468365181
 20
133.3664462465599
 11
65.68986863381227
 21
132.0683700352066
 72
     1
 10
65.68986863381227
 20
132.0683700352066
 11
69.55986847852122
 21
132.0683700352066
 72
     1
 10
69.55986847852122
 20
132.0683700352066
 11
72.98986863381226
 21
136.9669179201105
 72
     1
 10
72.98986863381226
 20
136.9669179201105
 11
72.98986863381226
 21
137.0951432935962
 97
        0
 75
     0
 76
     1
 52
0.0
 41
1.0
 77
     0
 78
     1
 53
45.0
 43
0.0
 44
0.0
 45
-2.245064030267288
 46
2.245064030267288
 79
     0
 98
        1
 10
0.0
 20
0.0
  0
HATCH
  5
200
330
1F
100
AcDbEntity
  8
0
  6
Continuous
 62
     7
370
    18
100
AcDbHatch
 10
0.0
 20
0.0
 30
0.0
210
0.0
220
0.0
230
1.0
  2
ANSI31
 70
     0
 71
     0
 91
        1
 92
        0
 93
       12
 72
     1
 10
165.6398686338123
 20
119.9308700352065
 11
165.1398686338123
 21
120.4308700352065
 72
     1
 10
165.1398686338123
 20
120.4308700352065
 11
150.1398686338123
 21
120.4308700352065
 72
     1
 10
150.1398686338123
 20
120.4308700352065
 11
149.6398686338123
 21
119.9308700352065
 72
     1
 10
149.6398686338123
 20
119.9308700352065
 11
149.6398686338123
 21
118.1308700352065
 72
     1
 10
149.6398686338123
 20
118.1308700352065
 11
150.1548107736626
 21
117.6159278953563
 72
     1
 10
150.1548107736626
 20
117.6159278953563
 11
156.6398686337454
 21
117.6159278953562
 72
     1
 10
156.6398686337454
 20
117.6159278953562
 11
156.6398686337454
 21
117.4308700352065
 72
     1
 10
156.6398686337454
 20
117.4308700352065
 11
162.6398686338123
 21
117.4308700352065
 72
     1
 10
162.6398686338123
 20
117.4308700352065
 11
162.6398686338123
 21
117.6159278953563
 72
     1
 10
162.6398686338123
 20
117.6159278953563
 11
167.6398686338123
 21
117.6159278953563
 72
     1
 10
167.6398686338123
 20
117.6159278953563
 11
167.6398686338123
 21
119.9308700352065
 72
     1
 10
167.6398686338123
 20
119.9308700352065
 11
165.6398686338123
 21
119.9308700352065
 97
        0
 75
     0
 76
     1
 52
0.0
 41
1.0
 77
     0
 78
     1
 53
45.0
 43
0.0
 44
0.0
 45
-2.245064030267288
 46
2.245064030267288
 79
     0
 98
        1
 10
0.0
 20
0.0
  0
POINT
  5
201
330
1F
100
AcDbEntity
  8
VERMASSUNG
100
AcDbPoint
 10
222.6398686338
 20
92.4308700352
 30
0.0
  0
POINT
  5
202
330
1F
100
AcDbEntity
  8
VERMASSUNG
100
AcDbPoint
 10
222.6398686338
 20
136.4308700352
 30
0.0
  0
DIMENSION
  5
203
330
1F
100
AcDbEntity
  8
VERMASSUNG
100
AcDbDimension
  2
_D
 10
260.9787949427
 20
136.4308700352
 30
0.0
 11
260.9787949427
 21
114.4308700352
 31
0.0
 70
   160
  1
%%c<>
 71
     2
 42
-1.0
  3
SLDDIMSTYLE0
100
AcDbAlignedDimension
 13
222.6398686338
 23
92.4308700352
 33
0.0
 14
222.6398686338
 24
136.4308700352
 34
0.0
 50
90.0
100
AcDbRotatedDimension
  0
DIMENSION
  5
20F
330
1F
100
AcDbEntity
  8
VERMASSUNG
100
AcDbDimension
  2
_D_1
 10
248.5055818743
 20
101.9308700352
 30
0.0
 11
248.5055818743
 21
114.4308700352
 31
0.0
 70
   160
  1
%%c<>
 71
     2
 42
-1.0
  3
SLDDIMSTYLE1
100
AcDbAlignedDimension
 13
219.1398686338
 23
126.9308700352
 33
0.0
 14
219.1398686338
 24
101.9308700352
 34
0.0
 50
90.0
100
AcDbRotatedDimension
  0
DIMENSION
  5
219
330
1F
100
AcDbEntity
  8
VERMASSUNG
100
AcDbDimension
  2
_D_2
 10
274.6398686338
 20
87.9308700352
 30
0.0
 11
274.6398686338
 21
114.4308700352
 31
0.0
 70
   160
  1
%%c<>
 71
     2
 42
-1.0
  3
SLDDIMSTYLE0
100
AcDbAlignedDimension
 13
165.461947321
 23
140.9308700352
 33
0.0
 14
165.461947321
 24
87.9308700352
 34
0.0
 50
90.0
100
AcDbRotatedDimension
  0
DIMENSION
  5
224
330
1F
100
AcDbEntity
  8
VERMASSUNG
100
AcDbDimension
  2
_D_3
 10
37.0957866259
 20
145.9058700352
 30
0.0
 11
37.0957866259
 21
114.4308700352
 31
0.0
 70
   160
  1
KM%%c<> XMZ
 71
     2
 42
-1.0
  3
SLDDIMSTYLE2
100
AcDbAlignedDimension
 13
102.8398686338
 23
82.9558700352
 33
0.0
 14
102.8398686338
 24
145.9058700352
 34
0.0
 50
90.0
100
AcDbRotatedDimension
  0
DIMENSION
  5
232
330
1F
100
AcDbEntity
  8
VERMASSUNG
100
AcDbDimension
  2
_D_4
 10
222.6398686338
 20
158.2180043466
 30
0.0
 11
193.8898686338
 21
158.2180043466
 31
0.0
 70
   160
  1
<>
 71
     2
 42
-1.0
  3
SLDDIMSTYLE0
100
AcDbAlignedDimension
 13
165.1398686338
 23
126.8308700352
 33
0.0
 14
222.6398686338
 24
134.1198938061
 34
0.0
100
AcDbRotatedDimension
  0
DIMENSION
  5
23C
330
1F
100
AcDbEntity
  8
VERMASSUNG
100
AcDbDimension
  2
_D_5
 10
222.6398686338
 20
151.2611717761
 30
0.0
 11
199.1398686338
 21
151.2611717761
 31
0.0
 70
   160
  1
<>
 71
     2
 42
-1.0
  3
SLDDIMSTYLE0
100
AcDbAlignedDimension
 13
175.6398686338
 23
126.9308700352
 33
0.0
 14
222.6398686338
 24
134.1198938061
 34
0.0
100
AcDbRotatedDimension
  0
DIMENSION
  5
246
330
1F
100
AcDbEntity
  8
VERMASSUNG
100
AcDbDimension
  2
_D_6
 10
222.6398686338
 20
165.9124217456
 30
0.0
 11
162.6398686338
 21
165.9124217456
 31
0.0
 70
   160
  1
<>
 71
     2
 42
-1.0
  3
SLDDIMSTYLE0
100
AcDbAlignedDimension
 13
102.6398686338
 23
145.7058700352
 33
0.0
 14
222.6398686338
 24
134.1198938061
 34
0.0
 50
0.0
100
AcDbRotatedDimension
  0
DIMENSION
  5
250
330
1F
100
AcDbEntity
  8
VERMASSUNG
100
AcDbDimension
  2
_D_7
 10
222.6398686338
 20
173.9058700352
 30
0.0
 11
142.6648686338
 21
173.9058700352
 31
0.0
 70
   160
  1
<>
 71
     2
 42
-1.0
  3
SLDDIMSTYLE0
100
AcDbAlignedDimension
 13
62.6898686338
 23
136.633964759
 33
0.0
 14
222.6398686338
 24
134.1198938061
 34
0.0
 50
0.0
100
AcDbRotatedDimension
  0
DIMENSION
  5
25A
330
1F
100
AcDbEntity
  8
VERMASSUNG
100
AcDbDimension
  2
_D_8
 10
222.6398686338
 20
75.9841307255
 30
0.0
 11
194.0509079774
 21
75.9841307255
 31
0.0
 70
   160
  1
<>
 71
     2
 42
-1.0
  3
SLDDIMSTYLE2
100
AcDbAlignedDimension
 13
165.461947321
 23
87.9308700352
 33
0.0
 14
222.6398686338
 24
94.7418462644
 34
0.0
 50
0.0
100
AcDbRotatedDimension
  0
DIMENSION
  5
264
330
1F
100
AcDbEntity
  8
VERMASSUNG
100
AcDbDimension
  2
_D_9
 10
222.6398686338
 20
66.9558700352
 30
0.0
 11
171.6398686338
 21
66.9558700352
 31
0.0
 70
   160
  1
<>
 71
     2
 42
-1.0
  3
SLDDIMSTYLE0
100
AcDbAlignedDimension
 13
120.6398686338
 23
82.9558700352
 33
0.0
 14
222.6398686338
 24
94.7418462644
 34
0.0
 50
0.0
100
AcDbRotatedDimension
  0
LINE
  5
26E
330
1F
100
AcDbEntity
  8
0
  6
Continuous
 62
     7
370
    25
100
AcDbLine
 10
256.945831038
 20
16.9643605284
 30
0.0
 11
277.3645603074
 21
7.6663404782
 31
0.0
  0
LINE
  5
26F
330
1F
100
AcDbEntity
  8
0
  6
Continuous
 62
     7
370
    25
100
AcDbLine
 10
288.4371291134
 20
26.8466701291
 30
0.0
 11
270.1742193772
 21
39.8790840782
 31
0.0
  0
SPLINE
  5
270
330
1F
100
AcDbEntity
  8
0
  6
Continuous
 62
     7
370
    25
100
AcDbSpline
210
0.0
220
0.0
230
1.0
 70
     8
 71
     3
 72
    37
 73
    33
 74
     0
 42
0.000000001
 43
0.00000001
 40
0.0
 40
0.0
 40
0.0
 40
0.0
 40
0.0146159210736219
 40
0.046950474598791
 40
0.0795050086089866
 40
0.1125989207756052
 40
0.1464135423438502
 40
0.1809574134116544
 40
0.2160876910221352
 40
0.251587700447398
 40
0.2872541978399955
 40
0.3229241769297205
 40
0.3585307839137546
 40
0.3940575256389028
 40
0.4295111571231606
 40
0.4649102834546538
 40
0.5002792035932225
 40
0.5356447793622228
 40
0.571030746747837
 40
0.606460931234698
 40
0.6419643220126101
 40
0.6775687598137723
 40
0.7132980533499512
 40
0.7491656966562378
 40
0.7851628238819954
 40
0.8212298404817934
 40
0.8571954680210887
 40
0.8928243634208295
 40
0.9278398879715817
 40
0.9620360864570117
 40
0.9953909212175638
 40
0.9999999999999999
 40
0.9999999999999999
 40
0.9999999999999999
 40
0.9999999999999999
 10
277.3288688413918
 20
7.699350448822279
 30
0.0
 10
277.4285386706052
 20
7.649016986127008
 30
0.0
 10
277.7487063672683
 20
7.487331660252589
 30
0.0
 10
278.3441790521974
 20
7.330548499361794
 30
0.0
 10
279.0996871502469
 20
7.226686206939621
 30
0.0
 10
279.8915982213152
 20
7.240181433455117
 30
0.0
 10
280.7114306782668
 20
7.363875775899101
 30
0.0
 10
281.5538766426382
 20
7.60077453672596
 30
0.0
 10
282.4096949944851
 20
7.949413815168505
 30
0.0
 10
283.2682307829193
 20
8.40640748830008
 30
0.0
 10
284.1181216672605
 20
8.965443970520917
 30
0.0
 10
284.9488241480759
 20
9.618474671233571
 30
0.0
 10
285.751038280702
 20
10.35657276558188
 30
0.0
 10
286.5166999412419
 20
11.1706442266441
 30
0.0
 10
287.2384051584606
 20
12.05138248164161
 30
0.0
 10
287.9092313869647
 20
12.98917114365076
 30
0.0
 10
288.522626782575
 20
13.97411438508799
 30
0.0
 10
289.0724358378957
 20
14.99600505451325
 30
0.0
 10
289.5529165653391
 20
16.04439564705258
 30
0.0
 10
289.9588184442213
 20
17.10873753218341
 30
0.0
 10
290.2853980361086
 20
18.17853855569396
 30
0.0
 10
290.5283640835596
 20
19.2434594915181
 30
0.0
 10
290.6838217058191
 20
20.29327758200335
 30
0.0
 10
290.7481600958466
 20
21.31782063334523
 30
0.0
 10
290.7180733690289
 20
22.30665969389729
 30
0.0
 10
290.5907360143115
 20
23.24819449655886
 30
0.0
 10
290.3648488457883
 20
24.12992401040982
 30
0.0
 10
290.0407529228704
 20
24.93693511127892
 30
0.0
 10
289.6253696670257
 20
25.65937819204505
 30
0.0
 10
289.1182830115281
 20
26.27185346160977
 30
0.0
 10
288.7180841671155
 20
26.66327030107785
 30
0.0
 10
288.4716422016613
 20
26.81569761493433
 30
0.0
 10
288.4417224613587
 20
26.83420333346
 30
0.0
  0
SPLINE
  5
271
330
1F
100
AcDbEntity
  8
0
  6
Continuous
 62
     7
370
    25
100
AcDbSpline
210
0.0
220
0.0
230
1.0
 70
     8
 71
     3
 72
     9
 73
     5
 74
     0
 42
0.000000001
 43
0.00000001
 40
0.0
 40
0.0
 40
0.0
 40
0.0
 40
0.4393165914838129
 40
1.0
 40
1.0
 40
1.0
 40
1.0
 10
278.7799663963756
 20
13.39541496205031
 30
0.0
 10
278.7561874870248
 20
13.51964133214397
 30
0.0
 10
278.7020604410361
 20
13.80241319303381
 30
0.0
 10
278.6969008153526
 20
14.12357734850211
 30
0.0
 10
278.6940078988377
 20
14.30364876188331
 30
0.0
  0
SPLINE
  5
272
330
1F
100
AcDbEntity
  8
0
  6
Continuous
 62
     7
370
    25
100
AcDbSpline
210
0.0
220
0.0
230
1.0
 70
     8
 71
     3
 72
     9
 73
     5
 74
     0
 42
0.000000001
 43
0.00000001
 40
0.0
 40
0.0
 40
0.0
 40
0.0
 40
0.8486517755741319
 40
1.0
 40
1.0
 40
1.0
 40
1.0
 10
283.3038498609514
 20
22.34322968477281
 30
0.0
 10
283.4938857870382
 20
22.4553116386102
 30
0.0
 10
283.717812645564
 20
22.58738224408508
 30
0.0
 10
283.9338088915751
 20
22.66421239580405
 30
0.0
 10
283.9664995398915
 20
22.67584050284908
 30
0.0
  0
SPLINE
  5
273
330
1F
100
AcDbEntity
  8
0
  6
Continuous
 62
     7
370
    25
100
AcDbSpline
210
0.0
220
0.0
230
1.0
 70
     8
 71
     3
 72
     9
 73
     5
 74
     0
 42
0.000000001
 43
0.00000001
 40
0.0
 40
0.0
 40
0.0
 40
0.0
 40
0.703549294073726
 40
1.0
 40
1.0
 40
1.0
 40
1.0
 10
278.6940078988377
 20
14.30364876188331
 30
0.0
 10
278.6939147549737
 20
14.42841046769583
 30
0.0
 10
278.6937823635909
 20
14.60574232896474
 30
0.0
 10
278.7172284936605
 20
14.79535680106187
 30
0.0
 10
278.7241791154709
 20
14.85156814516889
 30
0.0
  0
LINE
  5
274
330
1F
100
AcDbEntity
  8
0
  6
Continuous
 62
     7
370
    25
100
AcDbLine
 10
241.7804802254
 20
25.6954180923
 30
0.0
 11
256.5668189173
 21
17.1594464587
 31
0.0
  0
LINE
  5
275
330
1F
100
AcDbEntity
  8
0
  6
Continuous
 62
     7
370
    25
100
AcDbLine
 10
269.8157426499
 20
40.1097421555
 30
0.0
 11
255.029403958
 21
48.645713789
 31
0.0
  0
LINE
  5
276
330
1F
100
AcDbEntity
  8
0
  6
Continuous
 62
     7
370
    25
100
AcDbLine
 10
237.7912059398
 20
25.1261376038
 30
0.0
 11
239.4761710888
 21
24.153427928
 31
0.0
  0
LINE
  5
277
330
1F
100
AcDbEntity
  8
0
  6
Continuous
 62
     7
370
    25
100
AcDbLine
 10
255.2123924034
 20
51.4123163218
 30
0.0
 11
253.5274272543
 21
52.3850259976
 31
0.0
  0
LINE
  5
278
330
1F
100
AcDbEntity
  8
0
  6
Continuous
 62
     7
370
    25
100
AcDbLine
 10
233.1829210084
 20
27.7864438685
 30
0.0
 11
235.4335719848
 21
26.4871707156
 31
0.0
  0
LINE
  5
279
330
1F
100
AcDbEntity
  8
0
  6
Continuous
 62
     7
370
    25
100
AcDbLine
 10
251.1697932994
 20
53.7460591094
 30
0.0
 11
248.919142323
 21
55.0453322623
 31
0.0
  0
LINE
  5
27A
330
1F
100
AcDbEntity
  8
0
  6
Continuous
 62
     7
370
    25
100
AcDbLine
 10
242.1417531327
 20
54.8252141699
 30
0.0
 11
232.9445409491
 21
59.4058667798
 31
0.0
  0
LINE
  5
27B
330
1F
100
AcDbEntity
  8
0
  6
Continuous
 62
     7
370
    25
100
AcDbLine
 10
221.4181931595
 20
39.4394833241
 30
0.0
 11
229.9842931651
 21
33.7655937277
 31
0.0
  0
LINE
  5
27C
330
1F
100
AcDbEntity
  8
0
  6
Continuous
 62
     7
370
    25
100
AcDbLine
 10
226.3976306012
 20
40.3859731898
 30
0.0
 11
226.3976306012
 21
40.0206544848
 31
0.0
  0
LINE
  5
27D
330
1F
100
AcDbEntity
  8
0
  6
Continuous
 62
     7
370
    25
100
AcDbLine
 10
230.2955973615
 20
59.7828351565
 30
0.0
 11
229.6560472527
 21
59.695623401
 31
0.0
  0
LWPOLYLINE
  5
27E
330
1F
100
AcDbEntity
  8
0
  6
Continuous
 62
     7
370
    25
100
AcDbPolyline
 90
       25
 70
   128
 43
0.0
 10
253.8221160435
 20
23.2258906302
 10
253.8701858413
 20
24.3481975968
 10
254.013903302
 20
25.5144891273
 10
254.2517926274
 20
26.712797005
 10
254.5814132514
 20
27.930824964
 10
254.9993828895
 20
29.1560747339
 10
255.5014130999
 20
30.3759736039
 10
256.0823507718
 20
31.5780033173
 10
256.7362360774
 20
32.7498293451
 10
257.4563591067
 20
33.8794282579
 10
258.2353296732
 20
34.9552074924
 10
259.0651553516
 20
35.966128729
 10
259.9373205027
 20
36.9018189123
 10
260.842875836
 20
37.7526759468
 10
261.7725289592
 20
38.5099688793
 10
262.7167403612
 20
39.1659275297
 10
263.665821206
 20
39.7138202392
 10
264.610032608
 20
40.1480248687
 10
265.5396857312
 20
40.4640865853
 10
266.4452410645
 20
40.6587614839
 10
267.3174062156
 20
40.7300517498
 10
268.1472318939
 20
40.6772268478
 10
268.9262024605
 20
40.5008278856
 10
269.6463254898
 20
40.2026653248
 10
270.1742193772
 20
39.8790840782
  0
LWPOLYLINE
  5
27F
330
1F
100
AcDbEntity
  8
0
  6
Continuous
 62
     7
370
    25
100
AcDbPolyline
 90
       10
 70
   128
 43
0.0
 10
256.945831038
 20
16.9643605284
 10
256.7362360774
 20
17.0665232895
 10
256.0823507718
 20
17.4833894132
 10
255.5014130999
 20
18.0146827677
 10
254.9993828895
 20
18.6549498945
 10
254.5814132514
 20
19.3976221922
 10
254.2517926274
 20
20.2350782794
 10
254.013903302
 20
21.1587249883
 10
253.8701858413
 20
22.1590838707
 10
253.8221160435
 20
23.2258906302
  0
ARC
  5
280
330
1F
100
AcDbEntity
  8
0
  6
Continuous
 62
     7
370
    25
100
AcDbCircle
 10
289.073149307
 20
13.6713627052
 30
0.0
 40
10.48598095749781
100
AcDbArc
 50
123.0605820885
 51
173.9738353726
  0
ARC
  5
281
330
1F
100
AcDbEntity
  8
0
  6
Continuous
 62
     7
370
    25
100
AcDbCircle
 10
285.1813609706
 20
20.3962209009
 30
0.0
 40
2.630662946981397
100
AcDbArc
 50
37.5458842411
 51
119.4377022313
  0
ARC
  5
282
330
1F
100
AcDbEntity
  8
0
  6
Continuous
 62
     7
370
    25
100
AcDbCircle
 10
281.3236848337
 20
13.6837080854
 30
0.0
 40
2.607104594373863
100
AcDbArc
 50
184.9434089097
 51
260.761758188
  0
LWPOLYLINE
  5
283
330
1F
100
AcDbEntity
  8
0
  6
Continuous
 62
     7
370
    25
100
AcDbPolyline
 90
       22
 70
   128
 43
0.0
 10
285.4380538745
 20
23.0004465005
 10
285.8207841375
 20
22.6616217081
 10
286.151047501
 20
22.1917159072
 10
286.392365209
 20
21.6209997044
 10
286.5393464163
 20
20.9622217677
 10
286.5887076199
 20
20.230098075
 10
286.5393464163
 20
19.4409831498
 10
286.392365209
 20
18.6125043234
 10
286.151047501
 20
17.7631686254
 10
285.8207841375
 20
16.9119488616
 10
285.4089524634
 20
16.0778599043
 10
284.9247518517
 20
15.2795334671
 10
284.3789988958
 20
14.5348036711
 10
283.7838845716
 20
13.8603056389
 10
283.1527030818
 20
13.2711071704
 10
282.499553638
 20
12.7803696643
 10
281.8390267052
 20
12.3990555825
 10
281.1858772614
 20
12.1356827925
 10
280.5546957716
 20
11.9961346247
 10
279.9595814475
 20
11.9835282837
 10
279.4138284916
 20
12.0981451291
 10
279.1955257616
 20
12.1868991799
  0
LINE
  5
284
330
1F
100
AcDbEntity
  8
0
  6
Continuous
 62
     7
370
    25
100
AcDbLine
 10
255.029403958
 20
48.645713789
 30
0.0
 11
254.9886281992
 21
48.6689649657
 31
0.0
  0
LWPOLYLINE
  5
285
330
1F
100
AcDbEntity
  8
0
  6
Continuous
 62
     7
370
    25
100
AcDbPolyline
 90
       33
 70
   128
 43
0.0
 10
236.2161887477
 20
31.358760778
 10
236.2650856774
 20
32.5903106329
 10
236.4113470955
 20
33.8674930037
 10
236.6536875232
 20
35.1790837688
 10
236.9899772275
 20
36.5135569823
 10
237.4172613191
 20
37.8591848725
 10
237.9317841188
 20
39.2041418334
 10
238.52902406
 20
40.5366087947
 10
239.2037332015
 20
41.8448762612
 10
239.94998135
 20
43.1174462101
 10
240.7612113778
 20
44.3431355092
 10
241.6302932235
 20
45.5111732508
 10
242.5495900758
 20
46.6112944729
 10
243.5110225813
 20
47.6338312183
 10
244.5061419433
 20
48.5697973194
 10
245.5262033493
 20
49.4109672894
 10
246.5622417859
 20
50.1499489871
 10
247.6051528754
 20
50.7802492937
 10
248.6457714067
 20
51.2963278139
 10
249.6749524194
 20
51.693649007
 10
250.6836512984
 20
51.9687223415
 10
251.6630041171
 20
52.1191304246
 10
252.6044033694
 20
52.143549908
 10
253.4995767486
 20
52.041768068
 10
254.3406572818
 20
51.8146776656
 10
255.1202528071
 20
51.46427599
 10
255.8315131444
 20
50.993641277
 10
256.4681873892
 20
50.4069095106
 10
257.0246805476
 20
49.7092379146
 10
257.4961022678
 20
48.9067570391
 10
257.8783089879
 20
48.0065186652
 10
258.1679421308
 20
47.0164343936
 10
258.2148627685
 20
46.8067867218
  0
LWPOLYLINE
  5
286
330
1F
100
AcDbEntity
  8
0
  6
Continuous
 62
     7
370
    25
100
AcDbPolyline
 90
       16
 70
   128
 43
0.0
 10
244.9659396944
 20
23.8564923558
 10
244.5061419433
 20
23.7191004638
 10
243.5110225813
 20
23.5061262054
 10
242.5495900758
 20
23.4186166079
 10
241.6302932235
 20
23.4573402768
 10
240.7612113778
 20
23.6219574778
 10
239.94998135
 20
23.9110205234
 10
239.2037332015
 20
24.3219906997
 10
238.52902406
 20
24.851255573
 10
237.9317841188
 20
25.4941639759
 10
237.4172613191
 20
26.2450655571
 10
236.9899772275
 20
27.0973617359
 10
236.6536875232
 20
28.0435631214
 10
236.4113470955
 20
29.0753535845
 10
236.2650856774
 20
30.1836661164
 10
236.2161887477
 20
31.358760778
  0
SPLINE
  5
287
330
1F
100
AcDbEntity
  8
0
  6
Continuous
 62
     7
370
    25
100
AcDbSpline
210
0.0
220
0.0
230
1.0
 70
     8
 71
     3
 72
    25
 73
    21
 74
     0
 42
0.000000001
 43
0.00000001
 40
0.0
 40
0.0
 40
0.0
 40
0.0
 40
0.1249999999999998
 40
0.1249999999999998
 40
0.2499999999999997
 40
0.2499999999999997
 40
0.3749999999999995
 40
0.3749999999999995
 40
0.4999999999999993
 40
0.4999999999999993
 40
0.5624999999999996
 40
0.5624999999999996
 40
0.6249999999999998
 40
0.6875000000000001
 40
0.6875000000000001
 40
0.7500000000000003
 40
0.7500000000000003
 40
0.8750000000000001
 40
0.8750000000000001
 40
1.0
 40
1.0
 40
1.0
 40
1.0
 10
241.0497778961906
 20
47.79057523241151
 30
0.0
 10
241.0789011944516
 20
47.67938971188233
 30
0.0
 10
241.0912902353109
 20
47.5641474994543
 30
0.0
 10
241.0843127502106
 20
47.3250519316185
 30
0.0
 10
241.0642951623585
 20
47.20027796174323
 30
0.0
 10
240.9940730046453
 20
46.95390905253082
 30
0.0
 10
240.9434223500516
 20
46.8296979051697
 30
0.0
 10
240.8135076063965
 20
46.58606940985953
 30
0.0
 10
240.7358066584072
 20
46.46901231480136
 30
0.0
 10
240.6004330761811
 20
46.30035579695132
 30
0.0
 10
240.551798578874
 20
46.24498877567917
 30
0.0
 10
240.450359243492
 20
46.13926896428215
 30
0.0
 10
240.3444892607512
 20
46.0381080056617
 30
0.0
 10
240.2298974684237
 20
45.9459336839849
 30
0.0
 10
240.1108147992055
 20
45.85839684124479
 30
0.0
 10
240.0488567861481
 20
45.8168983717326
 30
0.0
 10
239.8609930826275
 20
45.7027780499945
 30
0.0
 10
239.7316156462735
 20
45.6391706188799
 30
0.0
 10
239.4639323932115
 20
45.53790231790567
 30
0.0
 10
239.3280607067464
 20
45.50136140968088
 30
0.0
 10
239.1925434400188
 20
45.48019322533081
 30
0.0
  0
LWPOLYLINE
  5
288
330
1F
100
AcDbEntity
  8
0
  6
Continuous
 62
     7
370
    25
100
AcDbPolyline
 90
       14
 70
   128
 43
0.0
 10
241.0497780079
 20
47.7905752649
 10
242.0517643428
 20
48.8293026425
 10
243.087627195
 20
49.7734334327
 10
244.1476395328
 20
50.6141021212
 10
245.2218470856
 20
51.3434139222
 10
246.3001626802
 20
51.9545190097
 10
247.3724605363
 20
52.4416814017
 10
248.4286710967
 20
52.8003245794
 10
249.4588760638
 20
53.0270810268
 10
250.4534017479
 20
53.1198217852
 10
251.4029086709
 20
53.0776762403
 10
252.2984804695
 20
52.9010385785
 10
253.131707201
 20
52.591569489
 10
253.5274272543
 20
52.3850259976
  0
LWPOLYLINE
  5
289
330
1F
100
AcDbEntity
  8
0
  6
Continuous
 62
     7
370
    25
100
AcDbPolyline
 90
       20
 70
   128
 43
0.0
 10
237.7912059398
 20
25.1261376038
 10
237.7498309055
 20
25.1502762969
 10
237.0348017179
 20
25.6562002637
 10
236.3994623428
 20
26.2831615325
 10
235.8496817286
 20
27.0253648254
 10
235.3905405464
 20
27.8759533322
 10
235.0262811398
 20
28.8270676511
 10
234.7602686713
 20
29.8699195571
 10
234.5949614874
 20
30.9948733745
 10
234.5318874115
 20
32.1915349651
 10
234.5716279384
 20
33.4488466329
 10
234.7138169173
 20
34.7551917119
 10
234.9571405519
 20
36.0984997711
 10
235.2993499128
 20
37.4663586511
 10
235.7372839862
 20
38.8461299456
 10
236.2668953577
 20
40.2250644936
 10
236.8832910415
 20
41.5904211985
 10
237.5807759448
 20
42.9295845153
 10
238.3529048924
 20
44.230181177
 10
239.1925432132
 20
45.4801927369
  0
LWPOLYLINE
  5
28A
330
1F
100
AcDbEntity
  8
0
  6
Continuous
 62
     7
370
    25
100
AcDbPolyline
 90
       12
 70
   128
 43
0.0
 10
239.3871566155
 20
47.9148517455
 10
240.3027356548
 20
48.88933363
 10
241.2514483731
 20
49.7783088097
 10
242.2243514069
 20
50.5733983931
 10
243.2122734948
 20
51.2671071442
 10
244.2059016651
 20
51.852896051
 10
245.1958693569
 20
52.3252415621
 10
246.1728441714
 20
52.6796923283
 10
247.1276166517
 20
52.9129067654
 10
248.05118647
 20
53.022686079
 10
248.9348471741
 20
53.007995811
 10
249.1877071917
 20
52.9797383785
  0
SPLINE
  5
28B
330
1F
100
AcDbEntity
  8
0
  6
Continuous
 62
     7
370
    25
100
AcDbSpline
210
0.0
220
0.0
230
1.0
 70
     8
 71
     3
 72
    26
 73
    22
 74
     0
 42
0.000000001
 43
0.00000001
 40
0.0
 40
0.0
 40
0.0
 40
0.0
 40
0.1250000000000009
 40
0.1250000000000009
 40
0.2500000000000019
 40
0.2500000000000019
 40
0.3125000000000011
 40
0.3125000000000011
 40
0.3750000000000004
 40
0.3750000000000004
 40
0.4375000000000002
 40
0.4375000000000002
 40
0.5000000000000001
 40
0.5000000000000001
 40
0.5625
 40
0.5625
 40
0.6249999999999999
 40
0.6249999999999999
 40
0.7500000000000001
 40
0.7500000000000001
 40
1.0
 40
1.0
 40
1.0
 40
1.0
 10
238.042963410563
 20
46.24268845928633
 30
0.0
 10
238.019325814331
 20
46.35226431885932
 30
0.0
 10
238.0017580354493
 20
46.46315357722385
 30
0.0
 10
237.9829454525798
 20
46.6884835370868
 30
0.0
 10
237.9817656778124
 20
46.80416045040517
 30
0.0
 10
237.9978636810478
 20
46.97551596026472
 30
0.0
 10
238.006182398148
 20
47.03231447235889
 30
0.0
 10
238.029939547405
 20
47.14514068475598
 30
0.0
 10
238.045561926454
 20
47.20159353842212
 30
0.0
 10
238.084419138851
 20
47.31017665483073
 30
0.0
 10
238.1076450955535
 20
47.36255661505627
 30
0.0
 10
238.1626437450319
 20
47.46301339032838
 30
0.0
 10
238.1947220120545
 20
47.51129225809983
 30
0.0
 10
238.2651367605895
 20
47.59898923368357
 30
0.0
 10
238.3037151827162
 20
47.63897836165953
 30
0.0
 10
238.3874234463124
 20
47.71145704577512
 30
0.0
 10
238.4325521562543
 20
47.74379367015173
 30
0.0
 10
238.5718327984444
 20
47.82699343750538
 30
0.0
 10
238.6726218700061
 20
47.86582216014147
 30
0.0
 10
238.9756941412387
 20
47.94123844759665
 30
0.0
 10
239.1842182317238
 20
47.94110830122589
 30
0.0
 10
239.3871566514142
 20
47.91485207189967
 30
0.0
  0
LWPOLYLINE
  5
28C
330
1F
100
AcDbEntity
  8
0
  6
Continuous
 62
     7
370
    25
100
AcDbPolyline
 90
       17
 70
   128
 43
0.0
 10
235.1059847816
 20
28.5868371692
 10
235.0455606888
 20
28.666569008
 10
234.5594027181
 20
29.4364954696
 10
234.1672934643
 20
30.3118893094
 10
233.8732158044
 20
31.2838586312
 10
233.680157555
 20
32.3425293048
 10
233.590079203
 20
33.4771467748
 10
233.6038961254
 20
34.6761852848
 10
233.721468052
 20
35.9274646089
 10
233.9416003832
 20
37.2182734367
 10
234.2620573604
 20
38.5354995066
 10
234.6795831396
 20
39.8657620191
 10
235.189936694
 20
41.1955469958
 10
235.7879333029
 20
42.5113464408
 10
236.4674985515
 20
43.7997935072
 10
237.2217295765
 20
45.0478005161
 10
238.0429635539
 20
46.2426882282
  0
LINE
  5
28D
330
1F
100
AcDbEntity
  8
0
  6
Continuous
 62
     7
370
    25
100
AcDbLine
 10
236.5675711396
 20
25.9987672842
 30
0.0
 11
236.6892064505
 21
26.0562518907
 31
0.0
  0
LWPOLYLINE
  5
28E
330
1F
100
AcDbEntity
  8
0
  6
Continuous
 62
     7
370
    25
100
AcDbPolyline
 90
       38
 70
   128
 43
0.0
 10
236.5675711396
 20
25.9987672842
 10
235.7638933002
 20
26.3118572067
 10
235.0270926313
 20
26.7474267106
 10
234.3637065041
 20
27.3016116508
 10
233.7796203309
 20
27.9694947022
 10
233.2800175155
 20
28.7451509923
 10
232.869329404
 20
29.6216982964
 10
232.5512010402
 20
30.5913601591
 10
232.3284536287
 20
31.6455324386
 10
232.2030634617
 20
32.7748624916
 10
232.1761447964
 20
33.9693314477
 10
232.2479340503
 20
35.2183402855
 10
232.4177963865
 20
36.5108085976
 10
232.6842237381
 20
37.8352688877
 10
233.0448525888
 20
39.1799695641
 10
233.4964824124
 20
40.5329804052
 10
234.0351072826
 20
41.8822971197
 10
234.6559481418
 20
43.2159481886
 10
235.3534969239
 20
44.5221017066
 10
236.121563969
 20
45.7891676591
 10
236.9533346586
 20
47.0059055232
 10
237.8414306599
 20
48.1615189391
 10
238.7779711708
 20
49.2457557054
 10
239.7546476646
 20
50.2489965559
 10
240.7627945188
 20
51.1623392796
 10
241.7934670524
 20
51.977681033
 10
242.8375209635
 20
52.6877877729
 10
243.8856930827
 20
53.2863598858
 10
244.9286836913
 20
53.7680850328
 10
245.9572390044
 20
54.1286910887
 10
246.9622335706
 20
54.3649769808
 10
247.934750368
 20
54.4748475199
 10
248.8661611465
 20
54.4573278417
 10
249.7482024896
 20
54.3125723352
 10
250.5730479251
 20
54.0418667269
 10
251.333380365
 20
53.6476113441
 10
252.0224523622
 20
53.1333057095
 10
252.2598313155
 20
52.911756793
  0
LWPOLYLINE
  5
28F
330
1F
100
AcDbEntity
  8
0
  6
Continuous
 62
     7
370
    25
100
AcDbPolyline
 90
       16
 70
   128
 43
0.0
 10
230.3511243064
 20
38.7692975491
 10
230.3604374428
 20
38.8120997093
 10
230.6967271471
 20
40.1465729228
 10
231.1240112387
 20
41.492200813
 10
231.6385340384
 20
42.8371577738
 10
232.2357739796
 20
44.1696247352
 10
232.9104831211
 20
45.4778922017
 10
233.6567312696
 20
46.7504621506
 10
234.4679612974
 20
47.9761514496
 10
235.3370431431
 20
49.1441891913
 10
236.2563399954
 20
50.2443104134
 10
237.2177725009
 20
51.2668471588
 10
238.2128918629
 20
52.2028132599
 10
239.2329532689
 20
53.0439832299
 10
240.2689917055
 20
53.7829649276
 10
240.9928483838
 20
54.2324342054
  0
LWPOLYLINE
  5
290
330
1F
100
AcDbEntity
  8
0
  6
Continuous
 62
     7
370
    25
100
AcDbPolyline
 90
       24
 70
   128
 43
0.0
 10
229.9229385489
 20
35.0734174593
 10
229.9715253042
 20
36.2971420851
 10
230.1168568575
 20
37.566208598
 10
230.3576576081
 20
38.8694652145
 10
230.6918103354
 20
40.1954587068
 10
231.1163792481
 20
41.532536207
 10
231.6276323743
 20
42.8689473927
 10
232.2210777821
 20
44.1929477164
 10
232.8914991402
 20
45.4929010642
 10
233.6330057683
 20
46.7573846956
 10
234.4390807096
 20
47.9752865779
 10
235.3026406597
 20
49.1359023396
 10
236.2160958929
 20
50.2290329843
 10
237.1714194103
 20
51.2450719574
 10
238.1602157572
 20
52.1750912617
 10
239.1737951096
 20
53.0109161661
 10
240.2032503237
 20
53.7452023854
 10
241.2395344798
 20
54.3714975756
 10
242.2735407304
 20
54.8842965547
 10
243.2961819845
 20
55.279093387
 10
244.2984715791
 20
55.5524188285
 10
245.2716008229
 20
55.7018698827
 10
246.2070185155
 20
55.7261351732
 10
246.972269295
 20
55.647149943
  0
LWPOLYLINE
  5
291
330
1F
100
AcDbEntity
  8
0
  6
Continuous
 62
     7
370
    25
100
AcDbPolyline
 90
        3
 70
   128
 43
0.0
 10
230.0753303579
 20
33.0488132988
 10
229.9715253042
 20
33.905789907
 10
229.9421054868
 20
34.3329931055
  0
SPLINE
  5
292
330
1F
100
AcDbEntity
  8
0
  6
Continuous
 62
     7
370
    25
100
AcDbSpline
210
0.0
220
0.0
230
1.0
 70
     8
 71
     3
 72
    10
 73
     6
 74
     0
 42
0.000000001
 43
0.00000001
 40
0.0
 40
0.0
 40
0.0
 40
0.0
 40
0.5
 40
0.5
 40
1.0
 40
1.0
 40
1.0
 40
1.0
 10
238.7696514781943
 20
44.77963517846661
 30
0.0
 10
238.6656869874101
 20
44.85297355153698
 30
0.0
 10
238.5758787109827
 20
44.94020930933039
 30
0.0
 10
238.423836282984
 20
45.14113985052639
 30
0.0
 10
238.3619306946231
 20
45.25531061672336
 30
0.0
 10
238.3174809900326
 20
45.37832829988346
 30
0.0
  0
SPLINE
  5
293
330
1F
100
AcDbEntity
  8
0
  6
Continuous
 62
     7
370
    25
100
AcDbSpline
210
0.0
220
0.0
230
1.0
 70
     8
 71
     3
 72
    14
 73
    10
 74
     0
 42
0.000000001
 43
0.00000001
 40
0.0
 40
0.0
 40
0.0
 40
0.0
 40
0.25
 40
0.25
 40
0.5
 40
0.5
 40
0.75
 40
0.75
 40
1.0
 40
1.0
 40
1.0
 40
1.0
 10
238.3174809900326
 20
45.37832829988346
 30
0.0
 10
238.2947601871675
 20
45.44120971954101
 30
0.0
 10
238.272845676818
 20
45.51025614901442
 30
0.0
 10
238.2307346227552
 20
45.65790866563319
 30
0.0
 10
238.2112130688422
 20
45.7343084524915
 30
0.0
 10
238.1728668266684
 20
45.8886407438871
 30
0.0
 10
238.1545072337846
 20
45.96559334021875
 30
0.0
 10
238.1125037892029
 20
46.11098350773472
 30
0.0
 10
238.0887274681899
 20
46.17757441392775
 30
0.0
 10
238.0602659640877
 20
46.21807002915911
 30
0.0
  0
LINE
  5
294
330
1F
100
AcDbEntity
  8
0
  6
Continuous
 62
     7
370
    25
100
AcDbLine
 10
238.0602661523
 20
46.2180704209
 30
0.0
 11
238.0429635539
 21
46.2426882282
 31
0.0
  0
LINE
  5
295
330
1F
100
AcDbEntity
  8
0
  6
Continuous
 62
     7
370
    25
100
AcDbLine
 10
239.3871566155
 20
47.9148517455
 30
0.0
 11
239.4044592139
 21
47.8902339382
 31
0.0
  0
SPLINE
  5
296
330
1F
100
AcDbEntity
  8
0
  6
Continuous
 62
     7
370
    25
100
AcDbSpline
210
0.0
220
0.0
230
1.0
 70
     8
 71
     3
 72
    16
 73
    12
 74
     0
 42
0.000000001
 43
0.00000001
 40
0.0
 40
0.0
 40
0.0
 40
0.0
 40
0.1250000000000001
 40
0.1250000000000001
 40
0.2500000000000003
 40
0.2500000000000003
 40
0.5000000000000002
 40
0.5000000000000002
 40
0.7500000000000001
 40
0.7500000000000001
 40
1.0
 40
1.0
 40
1.0
 40
1.0
 10
239.4044592049389
 20
47.89023364177238
 30
0.0
 10
239.418611611343
 20
47.87009730595959
 30
0.0
 10
239.4402700158167
 20
47.85329988528217
 30
0.0
 10
239.492687944852
 20
47.82645436395068
 30
0.0
 10
239.5232808239904
 20
47.8162288793897
 30
0.0
 10
239.6223616728479
 20
47.79172843895701
 30
0.0
 10
239.6962442104638
 20
47.78346851655551
 30
0.0
 10
239.8493438028551
 20
47.77228254985059
 30
0.0
 10
239.9274277775027
 20
47.7696858780994
 30
0.0
 10
240.0867714112449
 20
47.76765687726569
 30
0.0
 10
240.1654243060764
 20
47.76829446592792
 30
0.0
 10
240.241176773869
 20
47.77138756674297
 30
0.0
  0
SPLINE
  5
297
330
1F
100
AcDbEntity
  8
0
  6
Continuous
 62
     7
370
    25
100
AcDbSpline
210
0.0
220
0.0
230
1.0
 70
     8
 71
     3
 72
    10
 73
     6
 74
     0
 42
0.000000001
 43
0.00000001
 40
0.0
 40
0.0
 40
0.0
 40
0.0
 40
0.5
 40
0.5
 40
1.0
 40
1.0
 40
1.0
 40
1.0
 10
240.241176773869
 20
47.77138756674297
 30
0.0
 10
240.3893711137698
 20
47.77743859117673
 30
0.0
 10
240.5315955795004
 20
47.76727636096359
 30
0.0
 10
240.8039869698411
 20
47.71622592502352
 30
0.0
 10
240.9341142997097
 20
47.67486482237896
 30
0.0
 10
241.052189641895
 20
47.61909095442668
 30
0.0
  0
ARC
  5
298
330
1F
100
AcDbEntity
  8
0
  6
Continuous
 62
     7
370
    25
100
AcDbCircle
 10
223.7222295923
 20
42.88302126
 30
0.0
 40
4.14325203190651
100
AcDbArc
 50
211.7444095219
 51
236.2139194594
  0
SPLINE
  5
299
330
1F
100
AcDbEntity
  8
0
  6
Continuous
 62
     7
370
    25
100
AcDbSpline
210
0.0
220
0.0
230
1.0
 70
     8
 71
     3
 72
     8
 73
     4
 74
     0
 42
0.000000001
 43
0.00000001
 40
0.0
 40
0.0
 40
0.0
 40
0.0
 40
1.0
 40
1.0
 40
1.0
 40
1.0
 10
221.6292359727582
 20
39.77838653518802
 30
0.0
 10
221.1524626809341
 20
40.08647934312065
 30
0.0
 10
220.6756603040892
 20
40.39470878869341
 30
0.0
 10
220.1988278595635
 20
40.70307394491332
 30
0.0
  0
SPLINE
  5
29A
330
1F
100
AcDbEntity
  8
0
  6
Continuous
 62
     7
370
    25
100
AcDbSpline
210
0.0
220
0.0
230
1.0
 70
     8
 71
     3
 72
    23
 73
    19
 74
     0
 42
0.000000001
 43
0.00000001
 40
0.0
 40
0.0
 40
0.0
 40
0.0
 40
0.0521036415675031
 40
0.1035646240925967
 40
0.1544751946736949
 40
0.2049306267473421
 40
0.2550287880844035
 40
0.3048696389141012
 40
0.3545546704609132
 40
0.4041862979523234
 40
0.4538672252126086
 40
0.5036997999421611
 40
0.5901870230746071
 40
0.674271637822954
 40
0.7565997087222995
 40
0.8378563983721267
 40
0.9187511781367398
 40
1.0
 40
1.0
 40
1.0
 40
1.0
 10
222.5098007762998
 20
39.60365583706792
 30
0.0
 10
222.5045318373597
 20
39.59373437483308
 30
0.0
 10
222.4940589478594
 20
39.57401382410215
 30
0.0
 10
222.4748126520967
 20
39.54944599514991
 30
0.0
 10
222.453016911764
 20
39.52875741289068
 30
0.0
 10
222.4283656205591
 20
39.51222647759371
 30
0.0
 10
222.4008691060201
 20
39.49970897801754
 30
0.0
 10
222.3704580520128
 20
39.49117435419516
 30
0.0
 10
222.3370876802402
 20
39.48656448154708
 30
0.0
 10
222.3007117919683
 20
39.48582973841061
 30
0.0
 10
222.2612834203793
 20
39.48892482096189
 30
0.0
 10
222.2084350288293
 20
39.49746059644103
 30
0.0
 10
222.1398960350592
 20
39.51505703528809
 30
0.0
 10
222.0521748031048
 20
39.54669364337396
 30
0.0
 10
221.9574438836108
 20
39.58887330070667
 30
0.0
 10
221.8554096362809
 20
39.64160973643366
 30
0.0
 10
221.7464957230918
 20
39.70392629234449
 30
0.0
 10
221.6683794121058
 20
39.7535303505956
 30
0.0
 10
221.6292359727582
 20
39.77838653518801
 30
0.0
  0
SPLINE
  5
29B
330
1F
100
AcDbEntity
  8
0
  6
Continuous
 62
     7
370
    25
100
AcDbSpline
210
0.0
220
0.0
230
1.0
 70
     8
 71
     3
 72
     8
 73
     4
 74
     0
 42
0.000000001
 43
0.00000001
 40
0.0
 40
0.0
 40
0.0
 40
0.0
 40
1.0
 40
1.0
 40
1.0
 40
1.0
 10
223.9833038027537
 20
38.65633570051171
 30
0.0
 10
223.4919364907123
 20
38.97221032047919
 30
0.0
 10
223.0005502907861
 20
39.28819634176867
 30
0.0
 10
222.5091445806421
 20
39.60429322261136
 30
0.0
  0
SPLINE
  5
29C
330
1F
100
AcDbEntity
  8
0
  6
Continuous
 62
     7
370
    25
100
AcDbSpline
210
0.0
220
0.0
230
1.0
 70
     8
 71
     3
 72
    18
 73
    14
 74
     0
 42
0.000000001
 43
0.00000001
 40
0.0
 40
0.0
 40
0.0
 40
0.0
 40
0.0923824559411628
 40
0.1844689291573508
 40
0.2764953615950219
 40
0.3686975365494161
 40
0.4613092840003458
 40
0.5545607518442569
 40
0.6486768051537182
 40
0.7438756050146744
 40
0.8403674044302629
 40
0.9203921078121001
 40
1.0
 40
1.0
 40
1.0
 40
1.0
 10
224.7968679219533
 20
38.01202797596736
 30
0.0
 10
224.7733004078302
 20
38.0273019502329
 30
0.0
 10
224.7262408871788
 20
38.05780096271355
 30
0.0
 10
224.653843099216
 20
38.10743353532446
 30
0.0
 10
224.5803608903205
 20
38.15976307799298
 30
0.0
 10
224.5056614425755
 20
38.21508076370086
 30
0.0
 10
224.4298006528074
 20
38.27331907881442
 30
0.0
 10
224.3527893720206
 20
38.33451199045201
 30
0.0
 10
224.2746572399396
 20
38.39867570703356
 30
0.0
 10
224.1954310052958
 20
38.46582466690067
 30
0.0
 10
224.1201345208859
 20
38.53167557664684
 30
0.0
 10
224.0493072127638
 20
38.59520716345516
 30
0.0
 10
224.0054028419567
 20
38.63586790846867
 30
0.0
 10
223.9835079751514
 20
38.65614519703722
 30
0.0
  0
LINE
  5
29D
330
1F
100
AcDbEntity
  8
0
  6
Continuous
 62
     7
370
    25
100
AcDbLine
 10
225.4365744538
 20
37.6002741695
 30
0.0
 11
224.7968676115
 21
38.0120278371
 31
0.0
  0
SPLINE
  5
29E
330
1F
100
AcDbEntity
  8
0
  6
Continuous
 62
     7
370
    25
100
AcDbSpline
210
0.0
220
0.0
230
1.0
 70
     8
 71
     3
 72
    25
 73
    21
 74
     0
 42
0.000000001
 43
0.00000001
 40
0.0
 40
0.0
 40
0.0
 40
0.0
 40
0.0280105225426465
 40
0.0559601148860768
 40
0.0839014045043132
 40
0.1118870776786367
 40
0.1399695827588937
 40
0.1682008401739883
 40
0.196631967042422
 40
0.2253130233141467
 40
0.2542927850735845
 40
0.3799486436587335
 40
0.5057850221667067
 40
0.6313085886338298
 40
0.7532068238012468
 40
0.8039473267955921
 40
0.8535894438554446
 40
0.9025339722394071
 40
0.9511970353791085
 40
1.0
 40
1.0
 40
1.0
 40
1.0
 10
226.5389400469436
 20
38.31618015984444
 30
0.0
 10
226.5438881544742
 20
38.28855629873696
 30
0.0
 10
226.5537736061097
 20
38.23336866563164
 30
0.0
 10
226.5653092557129
 20
38.15420795826171
 30
0.0
 10
226.5743823775256
 20
38.07790461916334
 30
0.0
 10
226.5807511862386
 20
38.00470885819372
 30
0.0
 10
226.5844674250487
 20
37.93456138998034
 30
0.0
 10
226.5855040460315
 20
37.86748510346755
 30
0.0
 10
226.5838555708046
 20
37.80348119424112
 30
0.0
 10
226.5795094189357
 20
37.74255234097429
 30
0.0
 10
226.5646530943681
 20
37.62066421947711
 30
0.0
 10
226.5195648373031
 20
37.46576334782196
 30
0.0
 10
226.4062053168105
 20
37.33482022947991
 30
0.0
 10
226.2443810948162
 20
37.2789438286699
 30
0.0
 10
226.0703658756844
 20
37.29881788105268
 30
0.0
 10
225.9190049549983
 20
37.34613568340816
 30
0.0
 10
225.8086047222999
 20
37.39105110714351
 30
0.0
 10
225.6914452268512
 20
37.44842683843469
 30
0.0
 10
225.5678795599173
 20
37.51710390288751
 30
0.0
 10
225.4803845098222
 20
37.57252414884069
 30
0.0
 10
225.4365741901406
 20
37.60027404657099
 30
0.0
  0
ARC
  5
29F
330
1F
100
AcDbEntity
  8
0
  6
Continuous
 62
     7
370
    25
100
AcDbCircle
 10
237.7319612113
 20
40.1022305284
 30
0.0
 40
11.33462419218309
100
AcDbArc
 50
170.9338462887
 51
189.0661537113
  0
SPLINE
  5
2A0
330
1F
100
AcDbEntity
  8
0
  6
Continuous
 62
     7
370
    25
100
AcDbSpline
210
0.0
220
0.0
230
1.0
 70
     8
 71
     3
 72
    26
 73
    22
 74
     0
 42
0.000000001
 43
0.00000001
 40
0.0
 40
0.0
 40
0.0
 40
0.0
 40
0.0241259796963635
 40
0.0482159912272988
 40
0.0723203915124065
 40
0.0964895678710797
 40
0.1207736231963513
 40
0.1452220711242836
 40
0.1698835501657706
 40
0.1948055644472379
 40
0.2200342569517627
 40
0.2456142191611387
 40
0.3690971486901655
 40
0.4940698769485187
 40
0.6192566784762451
 40
0.7454656653603225
 40
0.7971495824713707
 40
0.8481710308405392
 40
0.8988013269235234
 40
0.9493179290492194
 40
1.0
 40
1.0
 40
1.0
 40
1.0
 10
225.4365741901406
 20
45.36438443793556
 30
0.0
 10
225.4582924195166
 20
45.35005291454048
 30
0.0
 10
225.5016964996927
 20
45.32141123387144
 30
0.0
 10
225.5650036170541
 20
45.27341893594262
 30
0.0
 10
225.6268651847721
 20
45.22181973805694
 30
0.0
 10
225.6871696999086
 20
45.16624494518371
 30
0.0
 10
225.7459595518484
 20
45.10678970455656
 30
0.0
 10
225.8032400702782
 20
45.04342539571916
 30
0.0
 10
225.8590312096044
 20
44.97615661775524
 30
0.0
 10
225.9133524570263
 20
44.90498250379511
 30
0.0
 10
225.9662314322352
 20
44.82989336404682
 30
0.0
 10
226.0830262569716
 20
44.65063891534498
 30
0.0
 10
226.244895814898
 20
44.34033344350159
 30
0.0
 10
226.4080807224298
 20
43.87041965536991
 30
0.0
 10
226.5195921276033
 20
43.37145662145986
 30
0.0
 10
226.5667259657118
 20
42.96257294840286
 30
0.0
 10
226.5818449052443
 20
42.65830099181215
 30
0.0
 10
226.5837980442269
 20
42.45705175011683
 30
0.0
 10
226.5773200185877
 20
42.26139183039424
 30
0.0
 10
226.5631930959006
 20
42.07075554249677
 30
0.0
 10
226.5470332042157
 20
41.94917226875796
 30
0.0
 10
226.5389400469435
 20
41.88828123215907
 30
0.0
  0
LINE
  5
2A1
330
1F
100
AcDbEntity
  8
0
  6
Continuous
 62
     7
370
    25
100
AcDbLine
 10
224.7968676115
 20
45.7773592882
 30
0.0
 11
225.4365744538
 21
45.3643843172
 31
0.0
  0
SPLINE
  5
2A2
330
1F
100
AcDbEntity
  8
0
  6
Continuous
 62
     7
370
    25
100
AcDbSpline
210
0.0
220
0.0
230
1.0
 70
     8
 71
     3
 72
    14
 73
    10
 74
     0
 42
0.000000001
 43
0.00000001
 40
0.0
 40
0.0
 40
0.0
 40
0.0
 40
0.0789261963172865
 40
0.158232872055133
 40
0.330847539457262
 40
0.5000195457610529
 40
0.6670357883572423
 40
0.8332395193657144
 40
1.0
 40
1.0
 40
1.0
 40
1.0
 10
223.982915206102
 20
45.98594172122016
 30
0.0
 10
224.0046320874379
 20
45.98754488507873
 30
0.0
 10
224.0481705406535
 20
45.99075894116599
 30
0.0
 10
224.1396956593026
 20
45.99157998123388
 30
0.0
 10
224.2566039927356
 20
45.98364399945057
 30
0.0
 10
224.3974243311173
 20
45.95736833057276
 30
0.0
 10
224.5346366389293
 20
45.9144107320405
 30
0.0
 10
224.6685673133458
 20
45.85605360723088
 30
0.0
 10
224.754053405305
 20
45.80362006108089
 30
0.0
 10
224.7968679219533
 20
45.77735945092645
 30
0.0
  0
SPLINE
  5
2A3
330
1F
100
AcDbEntity
  8
0
  6
Continuous
 62
     7
370
    25
100
AcDbSpline
210
0.0
220
0.0
230
1.0
 70
     8
 71
     3
 72
     8
 73
     4
 74
     0
 42
0.000000001
 43
0.00000001
 40
0.0
 40
0.0
 40
0.0
 40
0.0
 40
1.0
 40
1.0
 40
1.0
 40
1.0
 10
222.1806116230976
 20
47.14833313263286
 30
0.0
 10
222.7813698467937
 20
46.76106564947396
 30
0.0
 10
223.3820987096541
 20
46.37359829955065
 30
0.0
 10
223.982799354001
 20
45.98593140696103
 30
0.0
  0
SPLINE
  5
2A4
330
1F
100
AcDbEntity
  8
0
  6
Continuous
 62
     7
370
    25
100
AcDbSpline
210
0.0
220
0.0
230
1.0
 70
     8
 71
     3
 72
    13
 73
     9
 74
     0
 42
0.000000001
 43
0.00000001
 40
0.0
 40
0.0
 40
0.0
 40
0.0
 40
0.1667030582307992
 40
0.3329480818053035
 40
0.4990671507274896
 40
0.6653938523718403
 40
0.832261271055009
 40
1.0
 40
1.0
 40
1.0
 40
1.0
 10
221.8387830880632
 20
47.44939791171864
 30
0.0
 10
221.8590842705032
 20
47.43583280503941
 30
0.0
 10
221.8996308556918
 20
47.40873986327657
 30
0.0
 10
221.9587804926795
 20
47.36354529026885
 30
0.0
 10
222.0165520375819
 20
47.3151341417859
 30
0.0
 10
222.0728017750416
 20
47.26309902701545
 30
0.0
 10
222.1277289837877
 20
47.20780105980643
 30
0.0
 10
222.1629496933782
 20
47.16818380464606
 30
0.0
 10
222.1806059053192
 20
47.14832359564514
 30
0.0
  0
SPLINE
  5
2A5
330
1F
100
AcDbEntity
  8
0
  6
Continuous
 62
     7
370
    25
100
AcDbSpline
210
0.0
220
0.0
230
1.0
 70
     8
 71
     3
 72
     8
 73
     4
 74
     0
 42
0.000000001
 43
0.00000001
 40
0.0
 40
0.0
 40
0.0
 40
0.0
 40
1.0
 40
1.0
 40
1.0
 40
1.0
 10
219.8948025722725
 20
48.70411976409811
 30
0.0
 10
220.5428326446728
 20
48.28612444821336
 30
0.0
 10
221.1908256217746
 20
47.86788368579573
 30
0.0
 10
221.8387830880632
 20
47.44939791171863
 30
0.0
  0
LWPOLYLINE
  5
2A6
330
1F
100
AcDbEntity
  8
0
  6
Continuous
 62
     7
370
    25
100
AcDbPolyline
 90
       19
 70
   128
 43
0.0
 10
219.8948032226
 20
48.7041198146
 10
220.2976954842
 20
49.8710838
 10
220.7876506225
 20
51.0310882248
 10
221.3586508578
 20
52.1698856208
 10
222.0036820325
 20
53.2734883116
 10
222.7148225147
 20
54.3283429301
 10
223.4833376993
 20
55.3214925787
 10
224.299788668
 20
56.2407391775
 10
225.1541475988
 20
57.0747933601
 10
226.0359209142
 20
57.8134094441
 10
226.9342785619
 20
58.4475170977
 10
227.8381867107
 20
58.9693268416
 10
228.7365433705
 20
59.3724303938
 10
229.6183147927
 20
59.6518771306
 10
230.4726707601
 20
59.8042339366
 10
231.2891181067
 20
59.8276303448
 10
232.0576286815
 20
59.7217784152
 10
232.7687638954
 20
59.4879784746
 10
232.9445409491
 20
59.4058667798
  0
SPLINE
  5
2A7
330
1F
100
AcDbEntity
  8
0
  6
Continuous
 62
     7
370
    25
100
AcDbSpline
210
0.0
220
0.0
230
1.0
 70
    11
 71
     3
 72
    39
 73
    35
 74
     0
 42
0.000000001
 43
0.00000001
 40
0.0
 40
0.0
 40
0.0
 40
0.0
 40
0.0310664058348413
 40
0.0621048158426138
 40
0.0931361551796939
 40
0.1235538293503726
 40
0.1538561545809849
 40
0.1850588072749156
 40
0.2160250992946587
 40
0.2471867223797568
 40
0.2784462884304475
 40
0.3100516090231247
 40
0.3419834369138969
 40
0.3734259894013238
 40
0.4048604886787081
 40
0.436874065183343
 40
0.4685120685926471
 40
0.499805535863323
 40
0.5309508213226204
 40
0.5618649784438111
 40
0.5930416446590877
 40
0.623374245013332
 40
0.6540913579072549
 40
0.6849496782718453
 40
0.7158160645166705
 40
0.7471731804043553
 40
0.7784514311866318
 40
0.810129591156098
 40
0.8419598919688388
 40
0.8735175891922303
 40
0.9050808037886594
 40
0.9370235169792582
 40
0.9687441590030581
 40
1.0
 40
1.0
 40
1.0
 40
1.0
 10
233.1033880534779
 20
57.70931013943953
 30
0.0
 10
233.366273673676
 20
57.68077565214944
 30
0.0
 10
233.8931622841595
 20
57.59483316382782
 30
0.0
 10
234.6571743532355
 20
57.39445804375537
 30
0.0
 10
235.3643245412864
 20
57.14745593753585
 30
0.0
 10
235.9772356058819
 20
56.86947405938275
 30
0.0
 10
236.4743669315523
 20
56.57534036205403
 30
0.0
 10
236.8335586526258
 20
56.2738338338618
 30
0.0
 10
237.0552779213846
 20
55.96683632895938
 30
0.0
 10
237.1205297987667
 20
55.6563310675577
 30
0.0
 10
237.0336825876528
 20
55.33718658280887
 30
0.0
 10
236.7913369998945
 20
55.00786661723667
 30
0.0
 10
236.4113991371681
 20
54.66892589567902
 30
0.0
 10
235.8975931840083
 20
54.33108743126838
 30
0.0
 10
235.2717023730982
 20
54.00518952995754
 30
0.0
 10
234.5582313866064
 20
53.70854263671805
 30
0.0
 10
233.794328910342
 20
53.4524393282811
 30
0.0
 10
233.0085358274404
 20
53.26341176029031
 30
0.0
 10
232.2269983724005
 20
53.15523583823707
 30
0.0
 10
231.4708853876481
 20
53.14757195486736
 30
0.0
 10
230.7685208012545
 20
53.2454939902535
 30
0.0
 10
230.1495004542118
 20
53.46714242375599
 30
0.0
 10
229.6404431891981
 20
53.80301051066773
 30
0.0
 10
229.2674995957642
 20
54.24282107684849
 30
0.0
 10
229.0388976445158
 20
54.75389571737114
 30
0.0
 10
228.9700513377965
 20
55.30508080513458
 30
0.0
 10
229.0546677510216
 20
55.86275273344634
 30
0.0
 10
229.2977765409564
 20
56.39283287436532
 30
0.0
 10
229.6799063837742
 20
56.86535722347805
 30
0.0
 10
230.1960419581845
 20
57.25147873437128
 30
0.0
 10
230.8230198186864
 20
57.53510292170441
 30
0.0
 10
231.5389272510502
 20
57.70484014043083
 30
0.0
 10
232.3073706432359
 20
57.76637897514215
 30
0.0
 10
232.8388994226083
 20
57.73801862288657
 30
0.0
 10
233.1033880534779
 20
57.70931013943952
 30
0.0
  0
LINE
  5
2A8
330
1F
100
AcDbEntity
  8
0
  6
Continuous
 62
     7
370
    25
100
AcDbLine
 10
223.8788506404
 20
41.2701835221
 30
0.0
 11
224.189602318
 21
41.1038028216
 31
0.0
  0
LINE
  5
2A9
330
1F
100
AcDbEntity
  8
0
  6
Continuous
 62
     7
370
    25
100
AcDbLine
 10
222.8918926205
 20
41.8399422593
 30
0.0
 11
223.8788506404
 21
41.2701835221
 31
0.0
  0
ARC
  5
2AA
330
1F
100
AcDbEntity
  8
0
  6
Continuous
 62
     7
370
    25
100
AcDbCircle
 10
225.1128625313
 20
45.4334230234
 30
0.0
 40
4.484274790564971
100
AcDbArc
 50
267.6840627222
 51
286.9866336569
  0
SPLINE
  5
2AB
330
1F
100
AcDbEntity
  8
0
  6
Continuous
 62
     7
370
    25
100
AcDbSpline
210
0.0
220
0.0
230
1.0
 70
     8
 71
     3
 72
    12
 73
     8
 74
     0
 42
0.000000001
 43
0.00000001
 40
0.0
 40
0.0
 40
0.0
 40
0.0
 40
0.1523598330305601
 40
0.3826801306822303
 40
0.6138741683107227
 40
0.8254372814239916
 40
1.0
 40
1.0
 40
1.0
 40
1.0
 10
234.4418940117772
 20
54.7068144241038
 30
0.0
 10
234.2369266733954
 20
54.81896082383656
 30
0.0
 10
233.7221129834788
 20
55.10063741832759
 30
0.0
 10
232.7090376561896
 20
55.51680339079469
 30
0.0
 10
231.5016588752305
 20
55.8000450187422
 30
0.0
 10
230.3993283898795
 20
55.83099186148298
 30
0.0
 10
229.8343893573486
 20
55.6232644841613
 30
0.0
 10
229.5789873996063
 20
55.52935350299411
 30
0.0
  0
SPLINE
  5
2AC
330
1F
100
AcDbEntity
  8
0
  6
Continuous
 62
     7
370
    25
100
AcDbSpline
210
0.0
220
0.0
230
1.0
 70
     8
 71
     3
 72
    10
 73
     6
 74
     0
 42
0.000000001
 43
0.00000001
 40
0.0
 40
0.0
 40
0.0
 40
0.0
 40
0.3798174073072795
 40
0.9603711649033085
 40
1.0
 40
1.0
 40
1.0
 40
1.0
 10
235.5817741336367
 20
54.17858749658532
 30
0.0
 10
235.4521215163883
 20
54.24891605842269
 30
0.0
 10
235.1242939006339
 20
54.42674235484381
 30
0.0
 10
234.7163653556237
 20
54.59979520524622
 30
0.0
 10
234.4597325741918
 20
54.69900063749453
 30
0.0
 10
234.4433340839801
 20
54.7053397314349
 30
0.0
  0
SPLINE
  5
2AD
330
1F
100
AcDbEntity
  8
0
  6
Continuous
 62
     7
370
    25
100
AcDbSpline
210
0.0
220
0.0
230
1.0
 70
     8
 71
     3
 72
    24
 73
    20
 74
     0
 42
0.000000001
 43
0.00000001
 40
0.0
 40
0.0
 40
0.0
 40
0.0
 40
0.0618858212107145
 40
0.1150115607194259
 40
0.1593831488268445
 40
0.2428114970815824
 40
0.318331853291959
 40
0.3935543804326023
 40
0.4204843226990471
 40
0.4483397435477174
 40
0.4771286702554668
 40
0.5451537905345539
 40
0.6363475754294583
 40
0.6968782859867285
 40
0.7498596693403015
 40
0.7959701295389731
 40
0.8771179302751783
 40
0.9543004207779655
 40
1.0
 40
1.0
 40
1.0
 40
1.0
 10
233.0485094864756
 20
57.13545223948276
 30
0.0
 10
232.8645526971394
 20
57.15434680444871
 30
0.0
 10
232.5226786291771
 20
57.18946136483322
 30
0.0
 10
232.0584606562003
 20
57.18297081644595
 30
0.0
 10
231.5489990439274
 20
57.13524662364865
 30
0.0
 10
231.0099039445528
 20
57.01063002548172
 30
0.0
 10
230.4670659598292
 20
56.76813974153873
 30
0.0
 10
230.1266729443341
 20
56.51076699091283
 30
0.0
 10
229.9200462357831
 20
56.295959890414
 30
0.0
 10
229.8020621795721
 20
56.14945653911503
 30
0.0
 10
229.649891775381
 20
55.91970571489458
 30
0.0
 10
229.4832111368014
 20
55.54676301946756
 30
0.0
 10
229.4148495559641
 20
55.08420396677467
 30
0.0
 10
229.4652050195835
 20
54.65587126857284
 30
0.0
 10
229.5706341630988
 20
54.33594437492846
 30
0.0
 10
229.7528334897848
 20
53.99547885973527
 30
0.0
 10
230.0537119148553
 20
53.65953060288019
 30
0.0
 10
230.4433968094538
 20
53.38647130216516
 30
0.0
 10
230.7363157656482
 20
53.29251623123786
 30
0.0
 10
230.8452516997044
 20
53.25757454107291
 30
0.0
  0
SPLINE
  5
2AE
330
1F
100
AcDbEntity
  8
0
  6
Continuous
 62
     7
370
    25
100
AcDbSpline
210
0.0
220
0.0
230
1.0
 70
     8
 71
     3
 72
    22
 73
    18
 74
     0
 42
0.000000001
 43
0.00000001
 40
0.0
 40
0.0
 40
0.0
 40
0.0
 40
0.0230829230551597
 40
0.0814197416897967
 40
0.1466435060153073
 40
0.2187937863059883
 40
0.2807407147919538
 40
0.334043885361729
 40
0.3787027517769348
 40
0.4147200067027929
 40
0.517881604567259
 40
0.6098460221494381
 40
0.7031822330296847
 40
0.7529336067168404
 40
0.8047834091159894
 40
0.8938685125132421
 40
1.0
 40
1.0
 40
1.0
 40
1.0
 10
236.3498262791725
 20
54.65470409889703
 30
0.0
 10
236.3742296822591
 20
54.67770325232439
 30
0.0
 10
236.4603071158194
 20
54.75882751577514
 30
0.0
 10
236.5680015330175
 20
54.90212319776018
 30
0.0
 10
236.665172134398
 20
55.09089770060172
 30
0.0
 10
236.6962230345869
 20
55.27686315215731
 30
0.0
 10
236.6668701129451
 20
55.44867783874518
 30
0.0
 10
236.5983639783403
 20
55.5954837665796
 30
0.0
 10
236.5105535925113
 20
55.71669482344905
 30
0.0
 10
236.35626180363
 20
55.88227793264659
 30
0.0
 10
236.0884358570993
 20
56.09244219715369
 30
0.0
 10
235.636865601927
 20
56.34788600071512
 30
0.0
 10
235.1893029926123
 20
56.55452269902074
 30
0.0
 10
234.780409219849
 20
56.71302691543308
 30
0.0
 10
234.3583296210131
 20
56.85554366342581
 30
0.0
 10
233.7800170031945
 20
57.01880023225507
 30
0.0
 10
233.3061384094037
 20
57.09436868218143
 30
0.0
 10
233.0485094864756
 20
57.13545223948276
 30
0.0
  0
LINE
  5
2AF
330
1F
100
AcDbEntity
  8
0
  6
Continuous
 62
     7
370
    25
100
AcDbLine
 10
226.5389397646
 20
41.8882810514
 30
0.0
 11
226.5337017016
 21
42.1843644743
 31
0.0
  0
LINE
  5
2B0
330
1F
100
AcDbEntity
  8
0
  6
Continuous
 62
     7
370
    25
100
AcDbLine
 10
226.5337017016
 20
42.1843644743
 30
0.0
 11
226.576801464
 21
42.836026171
 31
0.0
  0
LINE
  5
2B1
330
1F
100
AcDbEntity
  8
0
  6
Continuous
 62
     7
370
    25
100
AcDbLine
 10
226.1466171423
 20
44.5674871778
 30
0.0
 11
225.742738381
 21
44.9936492613
 31
0.0
  0
SPLINE
  5
2B2
330
1F
100
AcDbEntity
  8
0
  6
Continuous
 62
     7
370
    25
100
AcDbSpline
210
0.0
220
0.0
230
1.0
 70
     8
 71
     3
 72
    19
 73
    15
 74
     0
 42
0.000000001
 43
0.00000001
 40
0.0
 40
0.0
 40
0.0
 40
0.0
 40
0.0210492621018804
 40
0.1455865440207667
 40
0.2712169722633744
 40
0.3929514297049947
 40
0.5136082229787104
 40
0.6366369099308349
 40
0.699422462668311
 40
0.7643939711952468
 40
0.8122544601557282
 40
0.8606584764820763
 40
0.9188817427801165
 40
1.0
 40
1.0
 40
1.0
 40
1.0
 10
229.4592649341332
 20
54.88070229202496
 30
0.0
 10
229.4517963591474
 20
54.93546263893037
 30
0.0
 10
229.4001402005757
 20
55.3142108162655
 30
0.0
 10
229.6429110952353
 20
55.92436172507968
 30
0.0
 10
230.2272415626502
 20
56.61373542831924
 30
0.0
 10
231.1333679302905
 20
57.0310349785513
 30
0.0
 10
232.2077140587525
 20
57.15146093623995
 30
0.0
 10
233.1616479278483
 20
56.99076139265235
 30
0.0
 10
233.8963104704175
 20
56.69339529381055
 30
0.0
 10
234.3691137098899
 20
56.39573721640586
 30
0.0
 10
234.7260838800093
 20
56.0248254116285
 30
0.0
 10
234.9209320215175
 20
55.59250411632091
 30
0.0
 10
234.9499610517617
 20
55.08956278509577
 30
0.0
 10
234.8875874501414
 20
54.75581777252057
 30
0.0
 10
234.8512763941673
 20
54.56152670197371
 30
0.0
  0
SPLINE
  5
2B3
330
1F
100
AcDbEntity
  8
0
  6
Continuous
 62
     7
370
    25
100
AcDbSpline
210
0.0
220
0.0
230
1.0
 70
     8
 71
     3
 72
    10
 73
     6
 74
     0
 42
0.000000001
 43
0.00000001
 40
0.0
 40
0.0
 40
0.0
 40
0.0
 40
0.2952118939789638
 40
0.9806889752106586
 40
1.0
 40
1.0
 40
1.0
 40
1.0
 10
234.8540042501555
 20
54.56028814855133
 30
0.0
 10
234.9368278750323
 20
54.52152297075787
 30
0.0
 10
235.2119665718811
 20
54.39274569836642
 30
0.0
 10
235.4868978859837
 20
54.25156069850703
 30
0.0
 10
235.6353629506581
 20
54.15757310410983
 30
0.0
 10
235.6394308577635
 20
54.15499786660257
 30
0.0
  0
ARC
  5
2B4
330
1F
100
AcDbEntity
  8
0
  6
Continuous
 62
     7
370
    25
100
AcDbCircle
 10
238.8641128155
 20
40.3470691562
 30
0.0
 40
12.46654291792339
100
AcDbArc
 50
171.5249863735
 51
179.8211981812
  0
SPLINE
  5
2B5
330
1F
100
AcDbEntity
  8
0
  6
Continuous
 62
     7
370
    25
100
AcDbSpline
210
0.0
220
0.0
230
1.0
 70
     8
 71
     3
 72
    14
 73
    10
 74
     0
 42
0.000000001
 43
0.00000001
 40
0.0
 40
0.0
 40
0.0
 40
0.0
 40
0.0003951393068452
 40
0.0003951393068452
 40
0.0003951393068452
 40
0.0008163352168663
 40
0.0008163352168663
 40
0.0008163352168663
 40
0.0012378579337219
 40
0.0012378579337219
 40
0.0012378579337219
 40
0.0012378579337219
 10
234.4459265873169
 20
54.70553547071946
 30
0.0
 10
234.4913884015482
 20
54.69109860809443
 30
0.0
 10
234.5362760061693
 20
54.67623274752883
 30
0.0
 10
234.5805596988443
 20
54.66094895992336
 30
0.0
 10
234.6277629910837
 20
54.64465752058567
 30
0.0
 10
234.6742888041428
 20
54.62788804250175
 30
0.0
 10
234.7200997133845
 20
54.61065923170646
 30
0.0
 10
234.7659461013736
 20
54.59341707787483
 30
0.0
 10
234.811085336946
 20
54.57571137167032
 30
0.0
 10
234.8554788949884
 20
54.55756851497954
 30
0.0
  0
LINE
  5
2B6
330
1F
100
AcDbEntity
  8
0
  6
Continuous
 62
     7
370
    25
100
AcDbLine
 10
225.742738381
 20
44.9936492613
 30
0.0
 11
225.1028017066
 21
45.4058809014
 31
0.0
  0
LINE
  5
2B7
330
1F
100
AcDbEntity
  8
0
  6
Continuous
 62
     7
370
    25
100
AcDbLine
 10
224.7968676115
 20
45.7773592882
 30
0.0
 11
225.1028017066
 21
45.4058809014
 31
0.0
  0
SPLINE
  5
2B8
330
1F
100
AcDbEntity
  8
0
  6
Continuous
 62
     7
370
    25
100
AcDbSpline
210
0.0
220
0.0
230
1.0
 70
     8
 71
     3
 72
    13
 73
     9
 74
     0
 42
0.000000001
 43
0.00000001
 40
0.0
 40
0.0
 40
0.0
 40
0.0
 40
0.161854229885178
 40
0.3254858841554281
 40
0.4910085196607404
 40
0.6585318472791263
 40
0.8281616954204583
 40
0.9999999999999999
 40
0.9999999999999999
 40
0.9999999999999999
 40
0.9999999999999999
 10
225.1028021182953
 20
45.40588090528956
 30
0.0
 10
225.0832247262779
 20
45.41844388232273
 30
0.0
 10
225.0438549504322
 20
45.44370779844134
 30
0.0
 10
224.9823190106619
 20
45.47640149535619
 30
0.0
 10
224.9187623514125
 20
45.50534756906308
 30
0.0
 10
224.8531442487557
 20
45.52985993652868
 30
0.0
 10
224.7857169797009
 20
45.55029499988219
 30
0.0
 10
224.7398323795024
 20
45.55989165487197
 30
0.0
 10
224.7167416993274
 20
45.56472101570675
 30
0.0
  0
SPLINE
  5
2B9
330
1F
100
AcDbEntity
  8
0
  6
Continuous
 62
     7
370
    25
100
AcDbSpline
210
0.0
220
0.0
230
1.0
 70
     8
 71
     3
 72
     9
 73
     5
 74
     0
 42
0.000000001
 43
0.00000001
 40
0.0
 40
0.0
 40
0.0
 40
0.0
 40
0.4907282259506175
 40
1.0
 40
1.0
 40
1.0
 40
1.0
 10
224.7167358720355
 20
45.56469301867574
 30
0.0
 10
224.6926423495576
 20
45.57278855089386
 30
0.0
 10
224.6435448629984
 20
45.58928552781514
 30
0.0
 10
224.5928441691782
 20
45.60407919683138
 30
0.0
 10
224.5670237368909
 20
45.61161319489597
 30
0.0
  0
SPLINE
  5
2BA
330
1F
100
AcDbEntity
  8
0
  6
Continuous
 62
     7
370
    25
100
AcDbSpline
210
0.0
220
0.0
230
1.0
 70
     8
 71
     3
 72
    14
 73
    10
 74
     0
 42
0.000000001
 43
0.00000001
 40
0.0
 40
0.0
 40
0.0
 40
0.0
 40
0.0310276388071746
 40
0.0622853718672815
 40
0.1248003166904892
 40
0.2498289731753984
 40
0.499889260361071
 40
0.7606803621682141
 40
1.0
 40
1.0
 40
1.0
 40
1.0
 10
223.9830830476025
 20
45.98572093754184
 30
0.0
 10
223.989075287007
 20
45.9818898938882
 30
0.0
 10
224.0011042029663
 20
45.9741993963905
 30
0.0
 10
224.0251640110154
 20
45.95876150688381
 30
0.0
 10
224.0673976836617
 20
45.93169105395298
 30
0.0
 10
224.1519602581739
 20
45.87747902915761
 30
0.0
 10
224.2752472276441
 20
45.79847584729158
 30
0.0
 10
224.4213789340981
 20
45.70486967261414
 30
0.0
 10
224.5197455506388
 20
45.64188659622167
 30
0.0
 10
224.566817251323
 20
45.61174709743254
 30
0.0
  0
LINE
  5
2BB
330
1F
100
AcDbEntity
  8
0
  6
Continuous
 62
     7
370
    25
100
AcDbLine
 10
222.1805828924
 20
47.1483516146
 30
0.0
 11
222.4715502465
 21
46.9602730754
 31
0.0
  0
SPLINE
  5
2BC
330
1F
100
AcDbEntity
  8
0
  6
Continuous
 62
     7
370
    25
100
AcDbSpline
210
0.0
220
0.0
230
1.0
 70
     8
 71
     3
 72
     8
 73
     4
 74
     0
 42
0.000000001
 43
0.00000001
 40
0.0
 40
0.0
 40
0.0
 40
0.0
 40
1.0
 40
1.0
 40
1.0
 40
1.0
 10
222.5029385498978
 20
46.94005054523066
 30
0.0
 10
222.492496044046
 20
46.94687597012808
 30
0.0
 10
222.4820301111562
 20
46.95361893691459
 30
0.0
 10
222.4715423463396
 20
46.96027802456758
 30
0.0
  0
SPLINE
  5
2BD
330
1F
100
AcDbEntity
  8
0
  6
Continuous
 62
     7
370
    25
100
AcDbSpline
210
0.0
220
0.0
230
1.0
 70
     8
 71
     3
 72
     8
 73
     4
 74
     0
 42
0.000000001
 43
0.00000001
 40
0.0
 40
0.0
 40
0.0
 40
0.0
 40
1.0
 40
1.0
 40
1.0
 40
1.0
 10
219.716934171074
 20
48.81830619703975
 30
0.0
 10
219.775933935244
 20
48.77956553012078
 30
0.0
 10
219.8352214987545
 20
48.7415035528215
 30
0.0
 10
219.8948025722429
 20
48.7041197643612
 30
0.0
  0
SPLINE
  5
2BE
330
1F
100
AcDbEntity
  8
0
  6
Continuous
 62
     7
370
    25
100
AcDbSpline
210
0.0
220
0.0
230
1.0
 70
     8
 71
     3
 72
     8
 73
     4
 74
     0
 42
0.000000001
 43
0.00000001
 40
0.0
 40
0.0
 40
0.0
 40
0.0
 40
1.0
 40
1.0
 40
1.0
 40
1.0
 10
219.6920844249744
 20
49.18151637497807
 30
0.0
 10
219.699558637065
 20
49.06055853426622
 30
0.0
 10
219.7078547409551
 20
48.93948669185557
 30
0.0
 10
219.716934171074
 20
48.81830619703975
 30
0.0
  0
LWPOLYLINE
  5
2BF
330
1F
100
AcDbEntity
  8
0
  6
Continuous
 62
     7
370
    25
100
AcDbPolyline
 90
       15
 70
   128
 43
0.0
 10
219.6920847838
 20
49.1815157096
 10
220.1075361477
 20
50.3457670861
 10
220.6120675102
 20
51.5003126812
 10
221.199019669
 20
52.6299134433
 10
221.8606448482
 20
53.7196578025
 10
222.5882087719
 20
54.7551605215
 10
223.3721075563
 20
55.7227526106
 10
224.2019934914
 20
56.609661926
 10
225.0669116895
 20
57.4041802681
 10
225.9554447174
 20
58.0958198812
 10
226.8558636505
 20
58.6754508454
 10
227.7562825836
 20
59.1354214528
 10
228.6448156115
 20
59.4696602373
 10
229.5097338096
 20
59.6737551906
 10
229.6560472527
 20
59.695623401
  0
SPLINE
  5
2C0
330
1F
100
AcDbEntity
  8
0
  6
Continuous
 62
     7
370
    25
100
AcDbSpline
210
0.0
220
0.0
230
1.0
 70
     8
 71
     3
 72
    10
 73
     6
 74
     0
 42
0.000000001
 43
0.00000001
 40
0.0
 40
0.0
 40
0.0
 40
0.0
 40
0.2409818396634726
 40
0.5031433556203718
 40
1.0
 40
1.0
 40
1.0
 40
1.0
 10
225.7427383810131
 20
38.28780763802424
 30
0.0
 10
225.8249842520161
 20
38.23613111610369
 30
0.0
 10
225.9967045093606
 20
38.12823626941231
 30
0.0
 10
226.2744258683875
 20
37.99851355894806
 30
0.0
 10
226.3954031154315
 20
38.02129150005305
 30
0.0
 10
226.474595356347
 20
38.03620204103178
 30
0.0
  0
LINE
  5
2C1
330
1F
100
AcDbEntity
  8
0
  6
Continuous
 62
     7
370
    25
100
AcDbLine
 10
220.9595643249
 20
48.016880371
 30
0.0
 11
220.1976856225
 21
48.5075147787
 31
0.0
  0
LINE
  5
2C2
330
1F
100
AcDbEntity
  8
0
  6
Continuous
 62
     7
370
    25
100
AcDbLine
 10
220.1976856225
 20
48.5075147787
 30
0.0
 11
219.7169343022
 21
48.8183061547
 31
0.0
  0
LINE
  5
2C3
330
1F
100
AcDbEntity
  8
0
  6
Continuous
 62
     7
370
    25
100
AcDbLine
 10
224.7968676115
 20
38.0120278371
 30
0.0
 11
225.1028017066
 21
38.7000392781
 31
0.0
  0
LINE
  5
2C4
330
1F
100
AcDbEntity
  8
0
  6
Continuous
 62
     7
370
    25
100
AcDbLine
 10
225.1028017066
 20
38.7000392781
 30
0.0
 11
225.742738381
 21
38.287807638
 31
0.0
  0
SPLINE
  5
2C5
330
1F
100
AcDbEntity
  8
0
  6
Continuous
 62
     7
370
    25
100
AcDbSpline
210
0.0
220
0.0
230
1.0
 70
     8
 71
     3
 72
    13
 73
     9
 74
     0
 42
0.000000001
 43
0.00000001
 40
0.0
 40
0.0
 40
0.0
 40
0.0
 40
0.172258782378417
 40
0.342139827159501
 40
0.5097456258302661
 40
0.6751828993623331
 40
0.8385626190354498
 40
1.0
 40
1.0
 40
1.0
 40
1.0
 10
224.716730187522
 20
38.98134898354286
 30
0.0
 10
224.7398817114772
 20
38.96322939260541
 30
0.0
 10
224.7858651922329
 20
38.92724032066409
 30
0.0
 10
224.8534062049521
 20
38.87624033724242
 30
0.0
 10
224.9190658196404
 20
38.82791565705065
 30
0.0
 10
224.9825898908882
 20
38.78248465114483
 30
0.0
 10
225.0440202696019
 20
38.73965908339194
 30
0.0
 10
225.0832864365682
 20
38.71319326622171
 30
0.0
 10
225.1028021182953
 20
38.70003948767784
 30
0.0
  0
SPLINE
  5
2C6
330
1F
100
AcDbEntity
  8
0
  6
Continuous
 62
     7
370
    25
100
AcDbSpline
210
0.0
220
0.0
230
1.0
 70
     8
 71
     3
 72
    11
 73
     7
 74
     0
 42
0.000000001
 43
0.00000001
 40
0.0
 40
0.0
 40
0.0
 40
0.0
 40
0.2392845094479873
 40
0.5001120454076898
 40
0.7515010915036774
 40
1.0
 40
1.0
 40
1.0
 40
1.0
 10
224.5673497760459
 20
39.02866297575574
 30
0.0
 10
224.5202805440414
 20
39.00034845304294
 30
0.0
 10
224.4219043894468
 20
38.94117022248675
 30
0.0
 10
224.275607167863
 20
38.84798232202684
 30
0.0
 10
224.1277664242192
 20
38.75261040605439
 30
0.0
 10
224.0314799615002
 20
38.68807515079156
 30
0.0
 10
223.9836150736411
 20
38.65599408073374
 30
0.0
  0
SPLINE
  5
2C7
330
1F
100
AcDbEntity
  8
0
  6
Continuous
 62
     7
370
    25
100
AcDbSpline
210
0.0
220
0.0
230
1.0
 70
     8
 71
     3
 72
     9
 73
     5
 74
     0
 42
0.000000001
 43
0.00000001
 40
0.0
 40
0.0
 40
0.0
 40
0.0
 40
0.5090669353869915
 40
1.0
 40
1.0
 40
1.0
 40
1.0
 10
224.5679207796301
 20
39.02796402154397
 30
0.0
 10
224.5935693542541
 20
39.02047131338409
 30
0.0
 10
224.6439528555996
 20
39.00575280067182
 30
0.0
 10
224.6927603670949
 20
38.98936044281966
 30
0.0
 10
224.7167215882894
 20
38.98131289234306
 30
0.0
  0
LINE
  5
2C8
330
1F
100
AcDbEntity
  8
0
  6
Continuous
 62
     7
370
    25
100
AcDbLine
 10
226.3978393598
 20
39.9518425888
 30
0.0
 11
224.7167234034
 21
38.9813550046
 31
0.0
  0
LINE
  5
2C9
330
1F
100
AcDbEntity
  8
0
  6
Continuous
 62
     7
370
    25
100
AcDbLine
 10
222.7102357522
 20
40.1051763032
 30
0.0
 11
222.5099400986
 21
39.604018889
 31
0.0
  0
SPLINE
  5
2CA
330
1F
100
AcDbEntity
  8
0
  6
Continuous
 62
     7
370
    25
100
AcDbSpline
210
0.0
220
0.0
230
1.0
 70
     8
 71
     3
 72
     8
 73
     4
 74
     0
 42
0.000000001
 43
0.00000001
 40
0.0
 40
0.0
 40
0.0
 40
0.0
 40
1.0
 40
1.0
 40
1.0
 40
1.0
 10
222.7097925814899
 20
40.1059600554053
 30
0.0
 10
222.7359679160591
 20
40.12812743238358
 30
0.0
 10
222.7617889560246
 20
40.15075957347519
 30
0.0
 10
222.787246509733
 20
40.17384429356648
 30
0.0
  0
LINE
  5
2CB
330
1F
100
AcDbEntity
  8
0
  6
Continuous
 62
     7
370
    25
100
AcDbLine
 10
222.7872466055
 20
40.1738441779
 30
0.0
 11
224.5675393647
 21
39.0280732928
 31
0.0
  0
LINE
  5
2CC
330
1F
100
AcDbEntity
  8
0
  6
Continuous
 62
     7
370
    25
100
AcDbLine
 10
226.3976306012
 20
40.049892524
 30
0.0
 11
226.3096312742
 21
40.1573835923
 31
0.0
  0
LINE
  5
2CD
330
1F
100
AcDbEntity
  8
0
  6
Continuous
 62
     7
370
    25
100
AcDbLine
 10
224.4812232775
 20
41.1517560953
 30
0.0
 11
222.7872466055
 21
40.1738441779
 31
0.0
  0
LINE
  5
2CE
330
1F
100
AcDbEntity
  8
0
  6
Continuous
 62
     7
370
    25
100
AcDbLine
 10
224.6239173601
 20
41.1304639336
 30
0.0
 11
224.4816434289
 21
41.1512687178
 31
0.0
  0
LINE
  5
2CF
330
1F
100
AcDbEntity
  8
0
  6
Continuous
 62
     7
370
    25
100
AcDbLine
 10
226.3097050312
 20
40.1572794258
 30
0.0
 11
224.6239173601
 21
41.1304639336
 31
0.0
  0
LINE
  5
2D0
330
1F
100
AcDbEntity
  8
0
  6
Continuous
 62
     7
370
    25
100
AcDbLine
 10
226.3976306012
 20
40.106515343
 30
0.0
 11
226.3096582745
 21
40.1573063992
 31
0.0
  0
SPLINE
  5
2D1
330
1F
100
AcDbEntity
  8
0
  6
Continuous
 62
     7
370
    25
100
AcDbSpline
210
0.0
220
0.0
230
1.0
 70
     8
 71
     3
 72
    19
 73
    15
 74
     0
 42
0.000000001
 43
0.00000001
 40
0.0
 40
0.0
 40
0.0
 40
0.0
 40
0.0637853009127854
 40
0.1289628367668835
 40
0.1955871994312377
 40
0.2637095015417503
 40
0.3333775579368785
 40
0.404636070956767
 40
0.4775268158870349
 40
0.5520888236349092
 40
0.6283585584292241
 40
0.7063700889344752
 40
0.8377041805690577
 40
0.9999999999999999
 40
0.9999999999999999
 40
0.9999999999999999
 40
0.9999999999999999
 10
221.9257234755286
 20
40.27444814275719
 30
0.0
 10
221.9464128445337
 20
40.26108900274686
 30
0.0
 10
221.9882431671885
 20
40.23407913420596
 30
0.0
 10
222.0487341407832
 20
40.19655716867943
 30
0.0
 10
222.1082183389625
 20
40.16103742758877
 30
0.0
 10
222.1662994984342
 20
40.12805729867226
 30
0.0
 10
222.2228316155214
 20
40.09785086240193
 30
0.0
 10
222.2775766702752
 20
40.0707374224404
 30
0.0
 10
222.3302990478675
 20
40.04700580469041
 30
0.0
 10
222.3807406807985
 20
40.02696555124574
 30
0.0
 10
222.4286235992639
 20
40.01084568970742
 30
0.0
 10
222.483587753634
 20
39.99656772002582
 30
0.0
 10
222.5464190675936
 20
39.9864291627711
 30
0.0
 10
222.5849265832516
 20
39.99290341408436
 30
0.0
 10
222.6062105484488
 20
39.99648187759401
 30
0.0
  0
LINE
  5
2D2
330
1F
100
AcDbEntity
  8
0
  6
Continuous
 62
     7
370
    25
100
AcDbLine
 10
222.6308462361
 20
40.0225523319
 30
0.0
 11
222.7096503061
 21
40.1059439356
 31
0.0
  0
SPLINE
  5
2D3
330
1F
100
AcDbEntity
  8
0
  6
Continuous
 62
     7
370
    25
100
AcDbSpline
210
0.0
220
0.0
230
1.0
 70
     8
 71
     3
 72
     9
 73
     5
 74
     0
 42
0.000000001
 43
0.00000001
 40
0.0
 40
0.0
 40
0.0
 40
0.0
 40
0.5232016984460688
 40
1.0
 40
1.0
 40
1.0
 40
1.0
 10
224.315045497843
 20
41.05582387449006
 30
0.0
 10
224.2460213351944
 20
41.08086603960656
 30
0.0
 10
224.1140948470854
 20
41.12872934966629
 30
0.0
 10
223.8726574342668
 20
41.26632748035296
 30
0.0
 10
223.7575404859033
 20
41.33193403536136
 30
0.0
  0
LINE
  5
2D4
330
1F
100
AcDbEntity
  8
0
  6
Continuous
 62
     7
370
    25
100
AcDbLine
 10
220.0280392889
 20
41.097823598
 30
0.0
 11
220.4795104032
 21
41.2100875709
 31
0.0
  0
LINE
  5
2D5
330
1F
100
AcDbEntity
  8
0
  6
Continuous
 62
     7
370
    25
100
AcDbLine
 10
220.4795104032
 20
41.2100875709
 30
0.0
 11
221.9257228751
 21
40.2744482378
 31
0.0
  0
SPLINE
  5
2D6
330
1F
100
AcDbEntity
  8
0
  6
Continuous
 62
     7
370
    25
100
AcDbSpline
210
0.0
220
0.0
230
1.0
 70
     8
 71
     3
 72
     8
 73
     4
 74
     0
 42
0.000000001
 43
0.00000001
 40
0.0
 40
0.0
 40
0.0
 40
0.0
 40
1.0
 40
1.0
 40
1.0
 40
1.0
 10
220.1988278595454
 20
40.70307394497386
 30
0.0
 10
220.1417025906213
 20
40.83486012876951
 30
0.0
 10
220.0847740989037
 20
40.96644435043029
 30
0.0
 10
220.0280399809543
 20
41.09782341733165
 30
0.0
  0
LINE
  5
2D7
330
1F
100
AcDbEntity
  8
0
  6
Continuous
 62
     7
370
    25
100
AcDbLine
 10
221.8172118623
 20
41.9823261856
 30
0.0
 11
220.4795104032
 21
41.2100875709
 31
0.0
  0
LINE
  5
2D8
330
1F
100
AcDbEntity
  8
0
  6
Continuous
 62
     7
370
    25
100
AcDbLine
 10
222.8002403472
 20
41.8845727827
 30
0.0
 11
221.8172118623
 21
41.9823261856
 31
0.0
  0
LINE
  5
2D9
330
1F
100
AcDbEntity
  8
0
  6
Continuous
 62
     7
370
    25
100
AcDbLine
 10
223.7575404859
 20
41.3319340354
 30
0.0
 11
222.8002393593
 21
41.8845722125
 31
0.0
  0
SPLINE
  5
2DA
330
1F
100
AcDbEntity
  8
0
  6
Continuous
 62
     7
370
    25
100
AcDbSpline
210
0.0
220
0.0
230
1.0
 70
     8
 71
     3
 72
     8
 73
     4
 74
     0
 42
0.000000001
 43
0.00000001
 40
0.0
 40
0.0
 40
0.0
 40
0.0
 40
1.0
 40
1.0
 40
1.0
 40
1.0
 10
220.0280399809565
 20
41.09782341732654
 30
0.0
 10
220.0249026432064
 20
41.13303972419906
 30
0.0
 10
220.0229102393084
 20
41.16868398042675
 30
0.0
 10
220.0221288419364
 20
41.20478088242163
 30
0.0
  0
LINE
  5
2DB
330
1F
100
AcDbEntity
  8
0
  6
Continuous
 62
     7
370
    25
100
AcDbLine
 10
220.833215317
 20
41.6730105971
 30
0.0
 11
220.0221295105
 21
41.2047807275
 31
0.0
  0
SPLINE
  5
2DC
330
1F
100
AcDbEntity
  8
0
  6
Continuous
 62
     7
370
    25
100
AcDbSpline
210
0.0
220
0.0
230
1.0
 70
     8
 71
     3
 72
     8
 73
     4
 74
     0
 42
0.000000001
 43
0.00000001
 40
0.0000004089325119
 40
0.0000004089325119
 40
0.0000004089325119
 40
0.0000004089325119
 40
0.0015399868451459
 40
0.0015399868451459
 40
0.0015399868451459
 40
0.0015399868451459
 10
220.8332143744251
 20
41.67301059377775
 30
0.0
 10
221.0716909424484
 20
41.76738697959411
 30
0.0
 10
221.310137900117
 20
41.86181559152431
 30
0.0
 10
221.5485466389674
 20
41.95630897448677
 30
0.0
  0
LINE
  5
2DD
330
1F
100
AcDbEntity
  8
0
  6
Continuous
 62
     7
370
    25
100
AcDbLine
 10
221.5485461179
 20
41.9563091216
 30
0.0
 11
221.5729425578
 21
41.961303148
 31
0.0
  0
LINE
  5
2DE
330
1F
100
AcDbEntity
  8
0
  6
Continuous
 62
     7
370
    25
100
AcDbLine
 10
221.8172118623
 20
41.9823261856
 30
0.0
 11
221.5729432163
 21
41.961303148
 31
0.0
  0
SPLINE
  5
2DF
330
1F
100
AcDbEntity
  8
0
  6
Continuous
 62
     7
370
    25
100
AcDbSpline
210
0.0
220
0.0
230
1.0
 70
     8
 71
     3
 72
     8
 73
     4
 74
     0
 42
0.000000001
 43
0.00000001
 40
0.0
 40
0.0
 40
0.0
 40
0.0
 40
1.0
 40
1.0
 40
1.0
 40
1.0
 10
222.8002385534754
 20
41.88457296707374
 30
0.0
 10
222.8308465875987
 20
41.86963295926761
 30
0.0
 10
222.8613980885706
 20
41.85475600187424
 30
0.0
 10
222.8918920266851
 20
41.83994243819332
 30
0.0
  0
ARC
  5
2E0
330
1F
100
AcDbEntity
  8
0
  6
Continuous
 62
     7
370
    25
100
AcDbCircle
 10
223.6809220337
 20
47.3132929123
 30
0.0
 40
6.549762100194774
100
AcDbArc
 50
283.6682343678
 51
294.9135532271
  0
LWPOLYLINE
  5
2E1
330
1F
100
AcDbEntity
  8
0
  6
Continuous
 62
     7
370
    18
100
AcDbPolyline
 90
       23
 70
   128
 43
0.0
 10
274.7499143763
 20
12.9074335149
 10
274.7975119977
 20
13.9311428048
 10
274.9397260013
 20
14.9973800886
 10
275.1748310004
 20
16.0932031152
 10
275.4999722047
 20
17.2053096602
 10
275.9112036154
 20
18.3202005469
 10
276.4035334652
 20
19.4243426658
 10
276.9709854627
 20
20.5043330389
 10
277.6066705737
 20
21.5470615523
 10
278.3028736201
 20
22.5398719755
 10
279.051143171
 20
23.4707123352
 10
279.8423964157
 20
24.3282836704
 10
280.6670283182
 20
25.1021756702
 10
281.5150292487
 20
25.7829946578
 10
282.3761054158
 20
26.3624764606
 10
283.2398046068
 20
26.8335871361
 10
284.0956426698
 20
27.1906081553
 10
284.9332309415
 20
27.4292054029
 10
285.7424021945
 20
27.546482113
 10
286.5133342375
 20
27.5410160009
 10
287.2366689884
 20
27.4128724889
 10
287.9036260732
 20
27.1636071674
 10
288.4371291134
 20
26.8466701291
  0
LWPOLYLINE
  5
2E2
330
1F
100
AcDbEntity
  8
0
  6
Continuous
 62
     7
370
    18
100
AcDbPolyline
 90
        9
 70
   128
 43
0.0
 10
277.3645603074
 20
7.6663404782
 10
276.9709854627
 20
7.8749280826
 10
276.4035334652
 20
8.2997523251
 10
275.9112036154
 20
8.8354624988
 10
275.4999722047
 20
9.475555705
 10
275.1748310004
 20
10.2122622062
 10
274.9397260013
 20
11.0366387787
 10
274.7975119977
 20
11.9386792689
 10
274.7499143763
 20
12.9074335149
  0
LWPOLYLINE
  5
2E3
330
1F
100
AcDbEntity
  8
0
  6
Continuous
 62
     7
370
    18
100
AcDbPolyline
 90
       54
 70
   128
 43
0.0
 10
276.4456058982
 20
12.945896039
 10
276.4944652909
 20
13.9248344787
 10
276.6403579241
 20
14.9464427019
 10
276.8812350659
 20
15.9963794264
 10
277.2137164073
 20
17.0599061528
 10
277.6331335262
 20
18.1220927709
 10
278.1335993642
 20
19.1680292473
 10
278.7080885682
 20
20.1830320828
 10
279.3485362731
 20
21.1528534311
 10
280.0459520292
 20
22.0638795688
 10
280.7905455846
 20
22.9033202385
 10
281.5718646855
 20
23.6593931436
 10
282.3789412731
 20
24.3214836314
 10
283.2004457271
 20
24.8802976153
 10
284.0248458836
 20
25.3279906363
 10
284.8405689548
 20
25.6582780671
 10
285.6361641481
 20
25.8665236678
 10
286.4004630016
 20
25.9498040073
 10
287.1227361787
 20
25.9069495501
 10
287.7928447282
 20
25.7385623933
 10
288.4013816712
 20
25.4470059877
 10
288.9398046974
 20
25.0363733759
 10
289.400556021
 20
24.5124293855
 10
289.7771664299
 20
23.8825281097
 10
290.0643497872
 20
23.1555119465
 10
290.2580751423
 20
22.3415876367
 10
290.355622706
 20
21.4521803924
 10
290.355622706
 20
20.4997752416
 10
290.2580751423
 20
19.4977419775
 10
290.0643497872
 20
18.4601471338
 10
289.7771664299
 20
17.4015561239
 10
289.400556021
 20
16.3368297255
 10
288.9398046974
 20
15.2809135803
 10
288.4013816712
 20
14.2486309745
 10
287.7928447282
 20
13.2544727699
 10
287.1227361787
 20
12.3123947503
 10
286.4004630016
 20
11.4356214332
 10
285.6361641481
 20
10.6364610999
 10
284.8405689548
 20
9.9261320427
 10
284.0248458836
 20
9.3146056627
 10
283.2004457271
 20
8.8104665232
 10
282.3789412731
 20
8.4207916537
 10
281.5718646855
 20
8.1510513481
 10
280.7905455846
 20
8.0050324208
 10
280.0459520292
 20
7.9847836705
 10
279.3485362731
 20
8.0905907158
 10
278.7080885682
 20
8.3209668836
 10
278.1335993642
 20
8.6726786026
 10
277.6331335262
 20
9.1407895218
 10
277.2137164073
 20
9.718727442
 10
276.8812350659
 20
10.3983793826
 10
276.6403579241
 20
11.1702052789
 10
276.4944652909
 20
12.0233694533
 10
276.4456058982
 20
12.945896039
  0
LINE
  5
2E4
330
1F
100
AcDbEntity
  8
0
  6
Continuous
 62
     7
370
    18
100
AcDbLine
 10
278.6207826886
 20
14.2015988717
 30
0.0
 11
278.645113274
 21
14.7722083506
 31
0.0
  0
LWPOLYLINE
  5
2E5
330
1F
100
AcDbEntity
  8
0
  6
Continuous
 62
     7
370
    18
100
AcDbPolyline
 90
       36
 70
   128
 43
0.0
 10
283.3527792549
 20
22.4596027513
 10
283.4067269123
 20
22.4910974049
 10
284.0878377649
 20
22.8280409894
 10
284.7550832099
 20
23.0456195797
 10
285.3948800258
 20
23.1394031854
 10
285.9942036019
 20
23.1074824131
 10
286.5408538247
 20
22.9505082708
 10
287.0237022799
 20
22.6716751765
 10
287.432919203
 20
22.2766595771
 10
287.7601749937
 20
21.773503579
 10
287.998806828
 20
21.1724490562
 10
288.1439569523
 20
20.4857320272
 10
288.1926711359
 20
19.7273324537
 10
288.1439569523
 20
18.912688681
 10
287.998806828
 20
18.0583848858
 10
287.7601749937
 20
17.1818119117
 10
287.432919203
 20
16.3008144202
 10
287.0237022799
 20
15.4333270183
 10
286.5408538247
 20
14.5970089639
 10
285.9942036019
 20
13.8088859087
 10
285.3948800258
 20
13.0850008645
 10
284.7550832099
 20
12.44009079
 10
284.0878377649
 20
11.8872841876
 10
283.4067269123
 20
11.4378339206
 10
282.7256160596
 20
11.100890336
 10
282.0583706146
 20
10.8833117457
 10
281.4185737987
 20
10.7895281401
 10
280.8192502227
 20
10.8214489123
 10
280.2725999998
 20
10.9784230546
 10
279.7897515446
 20
11.257256149
 10
279.3805346215
 20
11.6522717483
 10
279.0532788308
 20
12.1554277464
 10
278.8146469965
 20
12.7564822693
 10
278.6694968723
 20
13.4431992982
 10
278.6207826886
 20
14.2015988717
 10
278.6207826886
 20
14.2015988717
  0
LWPOLYLINE
  5
2E6
330
1F
100
AcDbEntity
  8
0
  6
Continuous
 62
     7
370
    18
100
AcDbPolyline
 90
       20
 70
   128
 43
0.0
 10
287.2671230499
 20
21.9993378927
 10
287.2824124777
 20
21.976952423
 10
287.5681937938
 20
21.4379558982
 10
287.7621670908
 20
20.8054118507
 10
287.8601986849
 20
20.0928023447
 10
287.8601986849
 20
19.3153149707
 10
287.7621670908
 20
18.4895205955
 10
287.5681937938
 20
17.6330197463
 10
287.2824124777
 20
16.7640671372
 10
286.9109140206
 20
15.9011830802
 10
286.4616167617
 20
15.0627582472
 10
285.944096432
 20
14.2666623323
 10
285.3693829935
 20
13.5298628892
 10
284.7497255387
 20
12.868063183
 10
284.0983310131
 20
12.295368846
 10
283.4290827696
 20
11.8239850983
 10
282.7562446354
 20
11.4639592153
 10
282.0941569933
 20
11.2229647757
 10
281.4569310528
 20
11.1061373347
 10
280.9051402316
 20
11.1104193759
  0
LWPOLYLINE
  5
2E7
330
1F
100
AcDbEntity
  8
0
  6
Continuous
 62
     7
370
    18
100
AcDbPolyline
 90
        9
 70
   128
 43
0.0
 10
239.0357773516
 20
31.7618622637
 10
239.0838471495
 20
30.6950555042
 10
239.2275646102
 20
29.6946966219
 10
239.4654539355
 20
28.7710499129
 10
239.7950745595
 20
27.9335938257
 10
240.2130441977
 20
27.1909215281
 10
240.7150744081
 20
26.5506544013
 10
241.29601208
 20
26.0193610468
 10
241.7804802254
 20
25.6954180923
  0
LWPOLYLINE
  5
2E8
330
1F
100
AcDbEntity
  8
0
  6
Continuous
 62
     7
370
    18
100
AcDbPolyline
 90
       25
 70
   128
 43
0.0
 10
254.9886281992
 20
48.6689649657
 10
254.8599867979
 20
48.7386369583
 10
254.1398637686
 20
49.0367995191
 10
253.3608932021
 20
49.2131984813
 10
252.5310675237
 20
49.2660233834
 10
251.6589023726
 20
49.1947331174
 10
250.7533470393
 20
49.0000582188
 10
249.8236939161
 20
48.6839965023
 10
248.8794825141
 20
48.2497918727
 10
247.9304016694
 20
47.7018991633
 10
246.9861902673
 20
47.0459405128
 10
246.0565371441
 20
46.2886475803
 10
245.1509818108
 20
45.4377905458
 10
244.2788166597
 20
44.5021003625
 10
243.4489909814
 20
43.4911791259
 10
242.6700204149
 20
42.4153998915
 10
241.9498973856
 20
41.2858009787
 10
241.29601208
 20
40.1139749508
 10
240.7150744081
 20
38.9119452374
 10
240.2130441977
 20
37.6920463675
 10
239.7950745595
 20
36.4667965976
 10
239.4654539355
 20
35.2487686385
 10
239.2275646102
 20
34.0504607609
 10
239.0838471495
 20
32.8841692304
 10
239.0357773516
 20
31.7618622637
  0
LWPOLYLINE
  5
2E9
330
1F
100
AcDbEntity
  8
0
  6
Continuous
 62
     7
370
    18
100
AcDbPolyline
 90
       31
 70
   128
 43
0.0
 10
236.9144566604
 20
31.7618622637
 10
236.9631468071
 20
32.9523819331
 10
237.1087628516
 20
34.1880025959
 10
237.3499455581
 20
35.4571877775
 10
237.6844420456
 20
36.7480870158
 10
238.1091301548
 20
38.0486478372
 10
238.6200447892
 20
39.3467271622
 10
239.2124147938
 20
40.6302051809
 10
239.8807097117
 20
41.8870986577
 10
240.6186904924
 20
43.1056719543
 10
241.4194661262
 20
44.2745476715
 10
242.2755598278
 20
45.3828117771
 10
243.178979172
 20
46.4201179728
 10
244.1212885329
 20
47.376780464
 10
245.0936902496
 20
48.2438672039
 10
246.0871052985
 20
49.0132822057
 10
247.0922581211
 20
49.677842651
 10
248.0997640057
 20
50.2313422607
 10
249.1002162611
 20
50.668613788
 10
250.0842737217
 20
50.9855749702
 10
251.0427487039
 20
51.1792656171
 10
251.966691917
 20
51.2478783778
 10
252.8474770864
 20
51.1907710903
 10
253.6768806377
 20
51.0084785613
 10
254.4471577582
 20
50.7027024829
 10
255.1511181296
 20
50.2762965965
 10
255.7821875022
 20
49.7332436828
 10
256.3344745367
 20
49.0786127799
 10
256.8028228297
 20
48.3185169723
 10
257.1828589871
 20
47.4600525497
 10
257.2093772573
 20
47.3872418232
  0
LWPOLYLINE
  5
2EA
330
1F
100
AcDbEntity
  8
0
  6
Continuous
 62
     7
370
    18
100
AcDbPolyline
 90
       14
 70
   128
 43
0.0
 10
243.960453854
 20
24.4369466968
 10
243.178979172
 20
24.3364702907
 10
242.2755598278
 20
24.330710714
 10
241.4194661262
 20
24.4505500708
 10
240.6186904924
 20
24.694869921
 10
239.8807097117
 20
25.0613887447
 10
239.2124147938
 20
25.5466853331
 10
238.6200447892
 20
26.1462275025
 10
238.1091301548
 20
26.8544173468
 10
237.6844420456
 20
27.6646437144
 10
237.3499455581
 20
28.5693415287
 10
237.1087628516
 20
29.5600630847
 10
236.9631468071
 20
30.6275590412
 10
236.9144566604
 20
31.7618622637
  0
ARC
  5
2EB
330
1F
100
AcDbEntity
  8
0
  6
Continuous
 62
     7
370
    18
100
AcDbCircle
 10
247.8782494581
 20
34.8695529207
 30
0.0
 40
17.95572678150222
100
AcDbArc
 50
167.4561534803
 51
179.6099872796
  0
LWPOLYLINE
  5
2EC
330
1F
100
AcDbEntity
  8
0
  6
Continuous
 62
     7
370
    18
100
AcDbPolyline
 90
       11
 70
   128
 43
0.0
 10
240.9928483838
 20
54.2324342054
 10
241.311902795
 20
54.4132652342
 10
242.3525213263
 20
54.9293437544
 10
243.381702339
 20
55.3266649475
 10
244.390401218
 20
55.601738282
 10
245.3697540367
 20
55.7521463651
 10
246.311153289
 20
55.7765658485
 10
247.2063266682
 20
55.6747840085
 10
248.0474072014
 20
55.4476936061
 10
248.8270027267
 20
55.0972919305
 10
248.919142323
 20
55.0453322623
  0
LWPOLYLINE
  5
2ED
330
1F
100
AcDbEntity
  8
0
  6
Continuous
 62
     7
370
    18
100
AcDbPolyline
 90
       10
 70
   128
 43
0.0
 10
233.1829210084
 20
27.7864438685
 10
232.9104831211
 20
27.9550066402
 10
232.2357739796
 20
28.4842715135
 10
231.6385340384
 20
29.1271799164
 10
231.1240112387
 20
29.8780814976
 10
230.6967271471
 20
30.7303776764
 10
230.3604374428
 20
31.6765790619
 10
230.1180970151
 20
32.708369525
 10
229.971835597
 20
33.8166820569
 10
229.9229386673
 20
34.9917767185
  0
LWPOLYLINE
  5
2EE
330
1F
100
AcDbEntity
  8
0
  6
Continuous
 62
     7
370
    18
100
AcDbPolyline
 90
       13
 70
   128
 43
0.0
 10
234.5470201058
 20
31.6561400907
 10
234.5108060847
 20
31.8375477289
 10
234.3664254697
 20
32.9086210721
 10
234.3252223155
 20
34.0502640909
 10
234.3876299443
 20
35.2504627498
 10
234.5529911288
 20
36.4965867844
 10
234.8195666529
 20
37.7755236606
 10
235.184551117
 20
39.073814399
 10
235.644103231
 20
40.3777970739
 10
236.1933873026
 20
41.6737492059
 10
236.8266226281
 20
42.948033196
 10
237.5371460541
 20
44.1872396668
 10
238.3174811248
 20
45.3783285219
  0
LWPOLYLINE
  5
2EF
330
1F
100
AcDbEntity
  8
0
  6
Continuous
 62
     7
370
    18
100
AcDbPolyline
 90
       16
 70
   128
 43
0.0
 10
235.0588158727
 20
28.7262123897
 10
234.5897938886
 20
29.473039704
 10
234.1992947761
 20
30.3453801342
 10
233.906440692
 20
31.3138945583
 10
233.7142043061
 20
32.3687504827
 10
233.6245375444
 20
33.499239266
 10
233.6383505155
 20
34.693884107
 10
233.7555029493
 20
35.9405569665
 10
233.9748055144
 20
37.2266013821
 10
234.2940323305
 20
38.5389619357
 10
234.7099420414
 20
39.8643154316
 10
235.2183127183
 20
41.1892066354
 10
235.8139826894
 20
42.500184964
 10
236.4909058575
 20
43.7839425038
 10
237.2422089936
 20
45.0274448052
 10
238.0602661523
 20
46.2180704209
  0
ARC
  5
2F0
330
1F
100
AcDbEntity
  8
0
  6
Continuous
 62
     7
370
    18
100
AcDbCircle
 10
251.1433947576
 20
38.4351983205
 30
0.0
 40
14.35349360837068
100
AcDbArc
 50
109.931969941
 51
139.4246766989
  0
LWPOLYLINE
  5
2F1
330
1F
100
AcDbEntity
  8
0
  6
Continuous
 62
     7
370
    18
100
AcDbPolyline
 90
       12
 70
   128
 43
0.0
 10
239.4044592139
 20
47.8902339382
 10
240.3168038118
 20
48.8609695156
 10
241.2621322699
 20
49.7465119032
 10
242.2315374446
 20
50.5385175674
 10
243.2158859407
 20
51.229524539
 10
244.2059035584
 20
51.8130230327
 10
245.192262591
 20
52.2835142085
 10
246.1656696583
 20
52.6365654399
 10
247.1169538283
 20
52.8688512989
 10
248.0371518987
 20
52.9781822558
 10
248.917594625
 20
52.9635293622
 10
249.0434227242
 20
52.9508870272
  0
LINE
  5
2F2
330
1F
100
AcDbEntity
  8
0
  6
Continuous
 62
     7
370
    18
100
AcDbLine
 10
225.4365744538
 20
45.3643843172
 30
0.0
 11
225.742738381
 21
44.9936492613
 31
0.0
  0
LINE
  5
2F3
330
1F
100
AcDbEntity
  8
0
  6
Continuous
 62
     7
370
    18
100
AcDbLine
 10
225.4365744538
 20
37.6002741695
 30
0.0
 11
225.742738381
 21
38.287807638
 31
0.0
  0
LINE
  5
2F4
330
1F
100
AcDbEntity
  8
0
  6
Continuous
 62
     7
370
    18
100
AcDbLine
 10
226.4786486978
 20
38.7126396211
 30
0.0
 11
225.742745625
 21
38.2878118199
 31
0.0
  0
LINE
  5
2F5
330
1F
100
AcDbEntity
  8
0
  6
Continuous
 62
     7
370
    18
100
AcDbLine
 10
226.4120731408
 20
39.4558655888
 30
0.0
 11
225.1028017066
 21
38.7000392781
 31
0.0
  0
LINE
  5
2F6
330
1F
100
AcDbEntity
  8
0
  6
Continuous
 62
     7
370
    18
100
AcDbLine
 10
221.9257228751
 20
40.2744482378
 30
0.0
 11
221.6292356009
 21
39.77838662
 31
0.0
  0
LINE
  5
2F7
330
1F
100
AcDbEntity
  8
0
  6
Continuous
 62
     7
370
    18
100
AcDbLine
 10
223.7575404859
 20
41.3319340354
 30
0.0
 11
221.9257834612
 21
40.2744832134
 31
0.0
  0
LINE
  5
2F8
330
1F
100
AcDbEntity
  8
0
  6
Continuous
 62
     7
370
    18
100
AcDbLine
 10
223.7575404859
 20
41.3319340354
 30
0.0
 11
223.8788506404
 21
41.2701835221
 31
0.0
  0
OLE2FRAME
  5
2F9
330
1F
100
AcDbEntity
  8
0
100
AcDbOle2Frame
 70
     2
  3
Paintbrush-Bild
 10
13.8511154363
 20
38.264191557
 30
0.0
 11
51.6290888628
 21
31.9806341108
 31
0.0
 71
     2
 72
     0
 73
     1
 90
    12928
310
80552BED0767C5B32B40DDAF6807D121434000000000000000006FFBDDFB85D0
310
4940DDAF6807D121434000000000000000006FFBDDFB85D04940416F4BD60AFB
310
3F4000000000000000002BED0767C5B32B40416F4BD60AFB3F40000000000000
310
0000000000000100000000010000010000000100000000000100000000320000
310
D0CF11E0A1B11AE1000000000000000000000000000000003E000300FEFF0900
310
0600000000000000000000000100000001000000000000000010000002000000
310
01000000FEFFFFFF0000000000000000FFFFFFFFFFFFFFFFFFFFFFFFFFFFFFFF
310
FFFFFFFFFFFFFFFFFFFFFFFFFFFFFFFFFFFFFFFFFFFFFFFFFFFFFFFFFFFFFFFF
310
FFFFFFFFFFFFFFFFFFFFFFFFFFFFFFFFFFFFFFFFFFFFFFFFFFFFFFFFFFFFFFFF
310
FFFFFFFFFFFFFFFFFFFFFFFFFFFFFFFFFFFFFFFFFFFFFFFFFFFFFFFFFFFFFFFF
310
FFFFFFFFFFFFFFFFFFFFFFFFFFFFFFFFFFFFFFFFFFFFFFFFFFFFFFFFFFFFFFFF
310
FFFFFFFFFFFFFFFFFFFFFFFFFFFFFFFFFFFFFFFFFFFFFFFFFFFFFFFFFFFFFFFF
310
FFFFFFFFFFFFFFFFFFFFFFFFFFFFFFFFFFFFFFFFFFFFFFFFFFFFFFFFFFFFFFFF
310
FFFFFFFFFFFFFFFFFFFFFFFFFFFFFFFFFFFFFFFFFFFFFFFFFFFFFFFFFFFFFFFF
310
FFFFFFFFFFFFFFFFFFFFFFFFFFFFFFFFFFFFFFFFFFFFFFFFFFFFFFFFFFFFFFFF
310
FFFFFFFFFFFFFFFFFFFFFFFFFFFFFFFFFFFFFFFFFFFFFFFFFFFFFFFFFFFFFFFF
310
FFFFFFFFFFFFFFFFFFFFFFFFFFFFFFFFFFFFFFFFFFFFFFFFFFFFFFFFFFFFFFFF
310
FFFFFFFFFFFFFFFFFFFFFFFFFFFFFFFFFFFFFFFFFFFFFFFFFFFFFFFFFFFFFFFF
310
FFFFFFFFFFFFFFFFFFFFFFFFFFFFFFFFFFFFFFFFFFFFFFFFFFFFFFFFFFFFFFFF
310
FFFFFFFFFFFFFFFFFFFFFFFFFFFFFFFFFFFFFFFFFFFFFFFFFFFFFFFFFFFFFFFF
310
FDFFFFFFFEFFFFFFFEFFFFFFFEFFFFFF05000000060000000700000008000000
310
090000000A0000000B0000000C0000000D0000000E0000000F00000010000000
310
11000000120000001300000014000000150000001600000017000000FEFFFFFF
310
FFFFFFFFFFFFFFFFFFFFFFFFFFFFFFFFFFFFFFFFFFFFFFFFFFFFFFFFFFFFFFFF
310
FFFFFFFFFFFFFFFFFFFFFFFFFFFFFFFFFFFFFFFFFFFFFFFFFFFFFFFFFFFFFFFF
310
FFFFFFFFFFFFFFFFFFFFFFFFFFFFFFFFFFFFFFFFFFFFFFFFFFFFFFFFFFFFFFFF
310
FFFFFFFFFFFFFFFFFFFFFFFFFFFFFFFFFFFFFFFFFFFFFFFFFFFFFFFFFFFFFFFF
310
FFFFFFFFFFFFFFFFFFFFFFFFFFFFFFFFFFFFFFFFFFFFFFFFFFFFFFFFFFFFFFFF
310
FFFFFFFFFFFFFFFFFFFFFFFFFFFFFFFFFFFFFFFFFFFFFFFFFFFFFFFFFFFFFFFF
310
FFFFFFFFFFFFFFFFFFFFFFFFFFFFFFFFFFFFFFFFFFFFFFFFFFFFFFFFFFFFFFFF
310
FFFFFFFFFFFFFFFFFFFFFFFFFFFFFFFFFFFFFFFFFFFFFFFFFFFFFFFFFFFFFFFF
310
FFFFFFFFFFFFFFFFFFFFFFFFFFFFFFFFFFFFFFFFFFFFFFFFFFFFFFFFFFFFFFFF
310
FFFFFFFFFFFFFFFFFFFFFFFFFFFFFFFFFFFFFFFFFFFFFFFFFFFFFFFFFFFFFFFF
310
FFFFFFFFFFFFFFFFFFFFFFFFFFFFFFFFFFFFFFFFFFFFFFFFFFFFFFFFFFFFFFFF
310
FFFFFFFFFFFFFFFFFFFFFFFFFFFFFFFFFFFFFFFFFFFFFFFFFFFFFFFFFFFFFFFF
310
FFFFFFFFFFFFFFFFFFFFFFFFFFFFFFFFFFFFFFFFFFFFFFFFFFFFFFFFFFFFFFFF
310
52006F006F007400200045006E00740072007900000000000000000000000000
310
0000000000000000000000000000000000000000000000000000000000000000
310
16000500FFFFFFFFFFFFFFFF020000000A00030000000000C000000000000046
310
000000000000000000000000603A1DA5F9A6D30103000000C000000000000000
310
01004F006C006500000000000000000000000000000000000000000000000000
310
0000000000000000000000000000000000000000000000000000000000000000
310
0A000200FFFFFFFFFFFFFFFFFFFFFFFF00000000000000000000000000000000
310
0000000000000000000000000000000000000000000000001400000000000000
310
010043006F006D0070004F0062006A0000000000000000000000000000000000
310
0000000000000000000000000000000000000000000000000000000000000000
310
120002010100000003000000FFFFFFFF00000000000000000000000000000000
310
0000000000000000000000000000000000000000010000004D00000000000000
310
01004F006C006500310030004E00610074006900760065000000000000000000
310
0000000000000000000000000000000000000000000000000000000000000000
310
1A000200FFFFFFFFFFFFFFFFFFFFFFFF00000000000000000000000000000000
310
0000000000000000000000000000000000000000040000002426000000000000
310
FEFFFFFF02000000FEFFFFFFFFFFFFFFFFFFFFFFFFFFFFFFFFFFFFFFFFFFFFFF
310
FFFFFFFFFFFFFFFFFFFFFFFFFFFFFFFFFFFFFFFFFFFFFFFFFFFFFFFFFFFFFFFF
310
FFFFFFFFFFFFFFFFFFFFFFFFFFFFFFFFFFFFFFFFFFFFFFFFFFFFFFFFFFFFFFFF
310
FFFFFFFFFFFFFFFFFFFFFFFFFFFFFFFFFFFFFFFFFFFFFFFFFFFFFFFFFFFFFFFF
310
FFFFFFFFFFFFFFFFFFFFFFFFFFFFFFFFFFFFFFFFFFFFFFFFFFFFFFFFFFFFFFFF
310
FFFFFFFFFFFFFFFFFFFFFFFFFFFFFFFFFFFFFFFFFFFFFFFFFFFFFFFFFFFFFFFF
310
FFFFFFFFFFFFFFFFFFFFFFFFFFFFFFFFFFFFFFFFFFFFFFFFFFFFFFFFFFFFFFFF
310
FFFFFFFFFFFFFFFFFFFFFFFFFFFFFFFFFFFFFFFFFFFFFFFFFFFFFFFFFFFFFFFF
310
FFFFFFFFFFFFFFFFFFFFFFFFFFFFFFFFFFFFFFFFFFFFFFFFFFFFFFFFFFFFFFFF
310
FFFFFFFFFFFFFFFFFFFFFFFFFFFFFFFFFFFFFFFFFFFFFFFFFFFFFFFFFFFFFFFF
310
FFFFFFFFFFFFFFFFFFFFFFFFFFFFFFFFFFFFFFFFFFFFFFFFFFFFFFFFFFFFFFFF
310
FFFFFFFFFFFFFFFFFFFFFFFFFFFFFFFFFFFFFFFFFFFFFFFFFFFFFFFFFFFFFFFF
310
FFFFFFFFFFFFFFFFFFFFFFFFFFFFFFFFFFFFFFFFFFFFFFFFFFFFFFFFFFFFFFFF
310
FFFFFFFFFFFFFFFFFFFFFFFFFFFFFFFFFFFFFFFFFFFFFFFFFFFFFFFFFFFFFFFF
310
FFFFFFFFFFFFFFFFFFFFFFFFFFFFFFFFFFFFFFFFFFFFFFFFFFFFFFFFFFFFFFFF
310
FFFFFFFFFFFFFFFFFFFFFFFFFFFFFFFFFFFFFFFFFFFFFFFFFFFFFFFFFFFFFFFF
310
0100000200000000000000000000000000000000000000000000000000000000
310
0000000000000000000000000000000000000000000000000000000000000000
310
0100FEFF030A0000FFFFFFFF0A00030000000000C00000000000004607000000
310
5042727573680007000000504272757368000700000050427275736800F439B2
310
7100000000000000000000000000000000000000000000000000000000000000
310
0000000000000000000000000000000000000000000000000000000000000000
310
0000000000000000000000000000000000000000000000000000000000000000
310
0000000000000000000000000000000000000000000000000000000000000000
310
0000000000000000000000000000000000000000000000000000000000000000
310
0000000000000000000000000000000000000000000000000000000000000000
310
0000000000000000000000000000000000000000000000000000000000000000
310
0000000000000000000000000000000000000000000000000000000000000000
310
0000000000000000000000000000000000000000000000000000000000000000
310
0000000000000000000000000000000000000000000000000000000000000000
310
0000000000000000000000000000000000000000000000000000000000000000
310
0000000000000000000000000000000000000000000000000000000000000000
310
20260000424D0E260000000000003E00000028000000B40200006E0000000100
310
01000000000000000000130B0000130B00000200000002000000000000FFFFFF
310
FFFFFFFFFFFFFFFFFFFFFFFFFFFFFFFFFFFFFFFFFFFFFFFFFFFFFFFFFFFFFFFF
310
FFFFFFFFFFFFFFFFFFFFFFFFFFFFFFFFFFFFFFFFFFFFFFFFFFFFFFFFFFFFFFFF
310
FFFFFFFFFFFFFFFFFFFFFFFFFFFFFFFFFFFFFFFFFFFFFFFFF000FFFFFFFFFFFF
310
FFFFFFFFFFFFFFFFFFFFFFFFFFFFFFFFFFFFFFFFFFFFFFFFFFFFFFFFFFFFFFFF
310
FFFFFFFFFFFFFFFFFFFFFFFFFFFFFFFFFFFFFFFFFFFFFFFFFFFFFFFFFFFFFFFF
310
FFFFFFFFFFFFFFFFFFFFFFFFFFFFFFFFF000FFFFFFFFFFFFFFFFFFFFFFFFFFFF
310
FFFFFFFFFFFFFFFFFFFFFFFFFFFFFFFFFFFFFFFFFFFFFFFFFFFFFFFFFFFFFFFF
310
FFFFFFFFFFFFFFFFFFFFFFFFFFFFFFFFFFFFFFFFFFFFFFFFFFFFFFFFFFFFFFFF
310
FFFFFFFFFFFFFFFFF000FFFFFFFFFFFFFFFFFFFFFFFFFFFFFFFFFFFFFFFFFFFF
310
FFFFFFFFFFFFFFFFFFFFFFFFFFFFFFFFFFFFFFFFFFFFFFFFFFFFFFFFFFFFFFFF
310
FFFFFFFFFFFFFFFFFFFFFFFFFFFFFFFFFFFFFFFFFFFFFFFFFFFFFFFFFFFFFFFF
310
F000FFFFFFFFFFFFFFFFFFFFFFFFFFFFFFFFFFFFFFFFFFFFFFFFFFFFFFFFFFFF
310
FFFFFFFFFFFFFFFFFFFFFFFFFFFFFFFFFFFFFFFFFFFFFFFFFFFFFFFFFFFFFFFF
310
FFFFFFFFFFFFFFFFFFFFFFFFFFFFFFFFFFFFFFFFFFFFFFFFF000FFFFFFFFFFFF
310
FFFFFFFFFFFFFFFFFFFFFFFFFFFFFFFFFFFFFFFFFFFFFFFFFFFFFFFFFFFFFFFF
310
FFFFFFFFFFFFFFFFFFFFFFFFFFFFFFFFFFFFFFFFFFFFFFFFFFFFFFFFFFFFFFFF
310
FFFFFFFFFFFFFFFFFFFFFFFFFFFFFFFFF000FFFFFFFFFFFFFFFFFFFFFFFFFFFF
310
FFFFFFFFFFFFFFFFFFFFFFFFFFFFFFFFFFFFFFFFFFFFFFFFFFFFFFFFFFFFFFFF
310
FFFFFFFFFFFFFFFFFFFFFFFFFFFFFFFFFFFFFFFFFFFFFFFFFFFFFFFFFFFFFFFF
310
FFFFFFFFFFFFFFFFF000FFFFFFFFFFFFFFFFFFFFFFFFFFFFFFFFFFFFFFFFFFFF
310
FFFFFFFFFFFFFFFFFFFFFFFFFFFFFFFFFFFFFFFFFFFFFFFFFFFFFFFFFFFFFFFF
310
FFFFFFFFFFFFFFFFFFFFFFFFFFFFFFFFFFFFFFFFFFFFFFFFFFFFFFFFFFFFFFFF
310
F000FFFFFFFFFFFFFFFFFFFFFFFFFFFFFFFFFFFFFFFFFFFFFFFFFFFFFFFFFFFF
310
FFFFFFFFFFFFFFFFFFFFFFFFFFFFFFFFFFFFFFFFFFFFFFFFFFFFFFFFFFFFFFFF
310
FFFFFFFFFFFFFFFFFFFFFFFFFFFFFFFFFFFFFFFFFFFFFFFFF000FFFFFFFFFFFF
310
FFFFFFFFFFFFFFFFFFFFFFFFFFFFFFFFFFFFFFFFFFFFFFFFFFFFFFFFFFFFFFFF
310
FFFFFFFFFFFFFFFFFFFFFFFFFFFFFFFFFFFFFFFFFFFFFFFFFFFFFFFFFFFFFFFF
310
FFFFFFFFFFFFFFFFFFFFFFFFFFFFFFFFF000FFFFFFFFFFFFFFFFFFFFFFFFFFFF
310
FFFFFFFFFFFFFFFFFFFFFFFFFFFFFFFFFFFFFFFFFFFFFFFFFFFFFFFFFFFFFFFF
310
FFFFFFFFFFFFFFFFFFFFFFFFFFFFFFFFFFFFFFFFFFFFFFFFFFFFFFFFFFFFFFFF
310
FFFFFFFFFFFFFFFFF000FFFFFFFFFFFFFFFFFFFFFFFFFFFFFFFFFFFFFFFFFFFF
310
FFFFFFFFFFFFFFFFFFFFFFFFFFFFFFFFFFFFFFFFFFFFFFFFFFFFFFFFFFFFFFFF
310
FFFFFFFFFFFFFFFFFFFFFFFFFFFFFFFFFFFFFFFFFFFFFFFFFFFFFFFFFFFFFFFF
310
F000FFFFFFFFFFFFFFFFFFFFFFFFFFFFFFFFFFFFFFFFFFFFFFFFFFFFFFFFFFFF
310
FFFFFFFFFFFFFFFFFFFFFFFFFFFFFFFFFFFFFFFFFFFFFFFFFFFFFFFFFFFFFFFF
310
FFFFFFFFFFFFFFFFFFFFFFFFFFFFFFFFFFFFFFFFFFFFFFFFF000FFFFFFFFFFFF
310
FFFFFFFFFFFFFFFFFFFFFFFFFFFFFFFFFFFFFFFFFFFFFFFFFFFFFFFFFFFFFFFF
310
FFFFFFFFFFFFFFFFFFFFFFFFFFFFFFFFFFFFFFFFFFFFFFFFFFFFFFFFFFFFFFFF
310
FFFFFFFFFFFFFFFFFFFFFFFFFFFFFFFFF000FFFFFFFFFFFFFFFFFFFFFFFFFFFF
310
FFFFFFFFFFFFFFFFFFFFFFFFFFFFFFFFFFFFFFFFFFFFFFFFFFFFFFFFFFFFFFFF
310
FFFFFFFFFFFFFFFFFFFFFFFFFFFFFFFFFFFFFFFFFFFFFFFFFFFFFFFFFFFFFFFF
310
FFFFFFFFFFFFFFFFF000FFFFFFFFFFFFFFFFFFFFFFFFFFFFFFFFFFFFFFFFFFFF
310
FFFFFFFFFFFFFFFFFFFFFFFFFFFFFFFFFFFFFFFFFFFFFFFFFFFFFFFFFFFFFFFF
310
FFFFFFFFFFFFFFFFFFFFFFFFFFFFFFFFFFFFFFFFFFFFFFFFFFFFFFFFFFFFFFFF
310
F000FFFFFFFFFFFFFFFFFFFFFFFFFFFFFFFFFFFFFFFFFFFFFFFFFFFFFFFFFFFF
310
FFFFFFFFFFFFFFFFFFFFFFFFFFFFFFFFFFFFFFFFFFFFFFFFFFFFFFFFFFFFFFFF
310
FFFFFFFFFFFFFFFFFFFFFFFFFFFFFFFFFFFFFFFFFFFFFFFFF000FFFFFFFFFFFF
310
FFFFFFFFFFFFFFFFFFFFFFFFFFFFFFFFFFFFFFFFFFFFFFFFFFFFFFFFFFFFFFFF
310
FFFFFFFFFFFFFFFFFFFFFFFFFFFFFFFFFFFFFFFFFFFFFFFFFFFFFFFFFFFFFFFF
310
FFFFFFFFFFFFFFFFFFFFFFFFFFFFFFFFF000FFFFFFFFFFFFFFFFFFFFFFFFFFFF
310
FFFFFFFFFFFFFFFFFFFFFFFFFFFFFFFFFFFFFFFFFFFFFFFFFFFFFFFFFFFFFFFF
310
FFFFFFFFFFFFFFFFFFFFFFFFFFFFFFFFFFFFFFFFFFFFFFFFFFFFFFFFFFFFFFFF
310
FFFFFFFFFFFFFFFFF000FFFFF80003FFFFFFFFFFFFFFFFFFFFFFFFFFFFFFFFFF
310
FFFFF00007FFFFFFFFFF00007FFFFFF800000000000000007FFFFFFFFFFFFFFF
310
FFFFFFFC001FFFFFFFFFFFFFFC001FFFFFFFFFFFFFFFFFFFFFFFFFFE0007FFFF
310
F000FFFF8000007FFFFFFFF8000FFFFFC0007FFFFF80007FFFFF0000007FFFFF
310
FFF8000007FFFFF800000000000000007FFFFFF0001FFFFFFFFFFFC00001FFFF
310
FFFFFFFFC00001FFFFFFFF000000000003FFFFE000007FFFF000FFFE0000000F
310
FFFFFFF0000FFFFF80007FFFFF80007FFFFC0000001FFFFFFFC0000001FFFFF8
310
00000000000000007FFFFFF0001FFFFFFFFFFE0000003FFFFFFFFFFE0000003F
310
FFFFFF000000000003FFFF0000000FFFF000FFF800000003FFFFFFF00007FFFF
310
80007FFFFF80007FFFF000000007FFFFFF000000003FFFF80000000000000000
310
7FFFFFF0001FFFFFFFFFF80000000FFFFFFFFFF80000000FFFFFFF0000000000
310
03FFFC00000003FFF000FFE000000000FFFFFFF00007FFFF80003FFFFF80007F
310
FFC000000001FFFFFC000000001FFFF800000000000000007FFFFFF0001FFFFF
310
FFFFE000000003FFFFFFFFE000000003FFFFFF000000000003FFF000000000FF
310
F000FF80000000007FFFFFF00007FFFF80003FFFFF80007FFF8000000000FFFF
310
F80000000007FFF800000000000000007FFFFFF0001FFFFFFFFFC000000001FF
310
FFFFFFC000000001FFFFFF000000000003FFC0000000007FF000FF0000000000
310
3FFFFFE00007FFFF00003FFFFF80007FFE00000000003FFFF00000000003FFF8
310
00000000000000007FFFFFF0001FFFFFFFFF8000000000FFFFFFFF8000000000
310
FFFFFF000000000003FF80000000003FF000FE00000000001FFFFFE00003FFFF
310
00003FFFFF80007FFC00000000001FFFE00000000001FFF8000001FFFE000000
310
7FFFFFF0001FFFFFFFFE00000000003FFFFFFE00000000003FFFFF0000000000
310
03FF00000000001FF000FC00000000000FFFFFE00003FFFF00001FFFFF80007F
310
F800000000001FFFC00000000000FFF8000001FFFE0000007FFFFFF0001FFFFF
310
FFFC00000000001FFFFFFC00000000001FFFFF000000000003FE00000000000F
310
F000F8000000000007FFFFE00003FFFF00001FFFFF80007FF800000000000FFF
310
800000000000FFF8000001FFFE0000007FFFFFF0001FFFFFFFF800000000000F
310
FFFFF800000000000FFFFF000000000003FC000000000007F000F80000000000
310
03FFFFC00003FFFE00001FFFFF80007FF0000000000007FF0000000000007FF8
310
000001FFFE0000007FFFFFF0001FFFFFFFF0000000000007FFFFF00000000000
310
07FFFF000000000003F8000000000003F000F0000000000003FFFFC00001FFFE
310
00001FFFFF80007FE0000000000007FE0000000000003FF8000001FFFE000000
310
7FFFFFF0001FFFFFFFF0000000000007FFFFF0000000000007FFFF0000000000
310
03F800001F800003F000E00001FFF00001FFFFC00001FFFE00000FFFFF80007F
310
E00001FFE00003FE00001FFF00003FF8000001FFFE0000007FFFFFF0001FFFFF
310
FFE000003E000003FFFFE000003E000003FFFF000000000003F00001FFF80001
310
F000E00007FFFC0001FFFFC00001FFFE00000FFFFF80007FC0000FFFFC0003FC
310
0000FFFFC0001FF8000001FFFE0000007FFFFFF0001FFFFFFFC00003FFE00001
310
FFFFC00003FFE00001FFFF0001FFFFFFFFF00007FFFE0001F000E0000FFFFF00
310
00FFFF800001FFFC00000FFFFF80007FC0001FFFFE0001FC0001FFFFE0001FF8
310
000001FFFE0000007FFFFFF0001FFFFFFF80000FFFF80000FFFF80000FFFF800
310
00FFFF0003FFFFFFFFE0000FFFFF8000F000C0003FFFFF8000FFFF800000FFFC
310
000007FFFF80007F80003FFFFF0001FC0003FFFFF0001FF8000001FFFE000000
310
7FFFFFF0001FFFFFFF80003FFFFE0000FFFF80003FFFFE0000FFFF0003FFFFFF
310
FFE0003FFFFF8000F000C0003FFFFF8000FFFF800000FFFC000007FFFF80007F
310
80007FFFFF8001F80007FFFFF8000FF8000001FFFE0000007FFFFFF0001FFFFF
310
FF00007FFFFF00007FFF00007FFFFF00007FFF0003FFFFFFFFE0003FFFFFC000
310
F000C0007FFFFFC000FFFF000000FFFC000007FFFF80007F8000FFFFFF8000F8
310
000FFFFFF8000FF8000001FFFE0000007FFFFFF0001FFFFFFF0000FFFFFF8000
310
7FFF0000FFFFFF80007FFF0003FFFFFFFFC0007FFFFFC00070008000FFFFFFC0
310
00FFFF000000FFF8000007FFFF80007F8000FFFFFF8000F8000FFFFFF8000FF8
310
000001FFFE0000007FFFFFF0001FFFFFFE0001FFFFFFC0003FFE0001FFFFFFC0
310
003FFF0003FFFFFFFFC0007FFFFFE00070008000FFFFFFC0007FFF0000007FF8
310
000003FFFF80007F0001FFFFFF8000F8000FFFFFF8000FF8000001FFFE000000
310
7FFFFFF0001FFFFFFE0001FFFFFFC0003FFE0001FFFFFFC0003FFF0003FFFFFF
310
FFC000FFFFFFE00070008000FFFFFFC0007FFF0000007FF8000003FFFF80007F
310
0001FFFFFF8000F8001FFFFFF8000FF8000001FFFE0000007FFFFFF0001FFFFF
310
FE0003FFFFFFE0003FFE0003FFFFFFE0003FFF0003FFFFFFFFC000FFFFFFE000
310
70008000FFFFFFC0007FFE0000007FF8000003FFFF80007F0001FFFFFF8000F0
310
001FFFFFF8000FF8000001FFFE0000007FFFFFF0001FFFFFFC0003FFFFFFE000
310
1FFC0003FFFFFFE0001FFF0003FFFFFFFFC000FFFFFFC00070008000FFFFFF80
310
007FFE0000007FF0000003FFFF80007F0001FFFFFF0000F0001FFFFFF8000FF8
310
000001FFFE0000007FFFFFF0001FFFFFFC0007FFFFFFF0001FFC0007FFFFFFF0
310
001FFF0003FFFFFFFFC000FFFFFFC00070008001FFFFFF0000FFFE0000003FF0
310
000001FFFF80007F0001FFFFFF0000F8001FFFFFF0000FF8000001FFFE000000
310
7FFFFFF0001FFFFFFC0007FFFFFFF0001FFC0007FFFFFFF0001FFF0003FFFFFF
310
FFC001FFFFFF80007000FFFFFFFFFE0000FFFE0008003FF0008001FFFF80007F
310
FFFFFFFFFC0000FFFFFFFFFFE0000FF8000001FFFE0000007FFFFFF0001FFFFF
310
F8000FFFFFFFF8000FF8000FFFFFFFF8000FFF0003FFFFFFFFFFFFFFFFFF0000
310
7000FFFFFFFFFC0000FFFC0008003FF0008001FFFF80007FFFFFFFFFF80001FF
310
FFFFFFFF80000FF8000001FFFE0000007FFFFFF0001FFFFFF8000FFFFFFFF800
310
0FF8000FFFFFFFF8000FFF0003FFFFFFFFFFFFFFFFFE0000F000FFFFFFFFE000
310
00FFFC000C003FE000C001FFFF80007FFFFFFFFFC00001FFFFFFFFFE00001FF8
310
000001FFFE0000007FFFFFF0001FFFFFF8000FFFFFFFF8000FF8000FFFFFFFF8
310
000FFF0003FFFFFFFFFFFFFFFFF00000F000FFFFFFFE000001FFFC000C001FE0
310
00C000FFFF80007FFFFFFFFE000001FFFFFFFFE000001FF80FFFFFFFFFFFFFC0
310
7FFFFFF0001FFFFFF8000FFFFFFFF8000FF8000FFFFFFFF8000FFF0003FFFFFF
310
FFFFFFFFFF800000F000FFFFFFC0000001FFFC001C001FE001C000FFFF80007F
310
FFFFFF80000003FFFFFFF80000001FF80FFFFFFFFFFFFFC07FFFFFF0001FFFFF
310
F8001FFFFFFFFC000FF8001FFFFFFFFC000FFF0003FFFFFFFFFFFFFFF0000001
310
F000FFFFF800000001FFF8001C001FE001C000FFFF80007FFFFFF800000003FF
310
FFFF800000003FF80FFFFFFFFFFFFFC07FFFFFF0001FFFFFF8001FFFFFFFFC00
310
0FF8001FFFFFFFFC000FFF0003FFFFFFFFFFFFFE00000001F000FFFFC0000000
310
03FFF8001E001FC001E000FFFF80007FFFFF8000000007FFFFFC000000003FF8
310
0FFFFFFFFFFFFFC07FFFFFF0001FFFFFF8001FFFFFFFFC000FF8001FFFFFFFFC
310
000FFF0003FFFFFFFFFFFFE000000003F000FFFE0000000007FFF8001E000FC0
310
01E0007FFF80007FFFFE0000000007FFFFE0000000007FF80FFFFFFFFFFFFFC0
310
7FFFFFF0001FFFFFF0001FFFFFFFFC0007F0001FFFFFFFFC0007FF0003FFFFFF
310
FFFFFF0000000003F000FFF80000000007FFF8001E000FC003E0007FFF80007F
310
FFF0000000000FFFFF8000000000FFF80FFFFFFFFFFFFFC07FFFFFF0001FFFFF
310
F0001FFFFFFFFC0007F0001FFFFFFFFC0007FF0003FFFFFFFFFFFC0000000007
310
F000FFE0000000000FFFF0003E000FC003E0007FFF80007FFFC0000000001FFF
310
FE0000000001FFF80FFFFFFFFFFFFFC07FFFFFF0001FFFFFF0001FFFFFFFFC00
310
07F0001FFFFFFFFC0007FF0003FFFFFFFFFFF0000000000FF000FFC000000000
310
1FFFF0003F000F8003F0003FFF80007FFF80000000003FFFF80000000003FFF8
310
0FFFFFFFFFFFFFC07FFFFFF0001FFFFFF0001FFFFFFFFC0007F0001FFFFFFFFC
310
0007FF0003FFFFFFFFFFE0000000001FF000FF00000000007FFFF0003F000780
310
03F0003FFF80007FFF00000000007FFFF00000000007FFF80FFFFFFFFFFFFFC0
310
7FFFFFF0001FFFFFF0001FFFFFFFFC0007F0001FFFFFFFFC0007FF0003FFFFFF
310
FFFF80000000007FF000FE0000000000FFFFE0003F00078007F0003FFF80007F
310
FE0000000001FFFFE0000000001FFFF80FFFFFFFFFFFFFC07FFFFFF0001FFFFF
310
F0001FFFFFFFFC0007F0001FFFFFFFFC0007FF0003FFFFFFFFFF0000000000FF
310
F000FC0000000003FFFFE0007F00078007F0003FFF80007FFC0000000007FFFF
310
C0000000007FFFF80FFFFFFFFFFFFFC07FFFFFF0001FFFFFF8001FFFFFFFFC00
310
0FF8001FFFFFFFFC000FFF0003FFFFFFFFFE0000000003FFF000FC000000000F
310
FFFFE0007F80070007F8001FFF80007FF8000000001FFFFF8000000001FFFFF8
310
0FFFFFFFFFFFFFC07FFFFFF0001FFFFFF8001FFFFFFFFC000FF8001FFFFFFFFC
310
000FFF0003FFFFFFFFFC000000000FFFF000F8000000007FFFFFE0007F800700
310
07F8001FFF80007FF000000000FFFFFF800000000FFFFFF80FFFFFFFFFFFFFC0
310
7FFFFFF0001FFFFFF8000FFFFFFFF8000FF8000FFFFFFFF8000FFF0003FFFFFF
310
FFFC000000007FFFF000F800000007FFFFFFC0007F8003000FF8001FFF80007F
310
F000000007FFFFFF000000007FFFFFF80FFFFFFFFFFFFFC07FFFFFF0001FFFFF
310
F8000FFFFFFFF8000FF8000FFFFFFFF8000FFF0003FFFFFFFFF80000000FFFFF
310
F000F0000000FFFFFFFFC000FF8003000FF8001FFF80007FE0000000FFFFFFFF
310
0000000FFFFFFFF8000001FFFE0000007FFFFFF0001FFFFFF8000FFFFFFFF800
310
0FF8000FFFFFFFF8000FFF0003FFFFFFFFF8000000FFFFFFF000F000000FFFFF
310
FFFFC000FFC002000FF8000FFF80007FE000001FFFFFFFFE000001FFFFFFFFF8
310
000001FFFE0000007FFFFFF0001FFFFFF8000FFFFFFFF8000FF8000FFFFFFFF8
310
000FFF0003FFFFFFFFF000001FFFFFFFF000E00000FFFFFFFFFFC000FFC00200
310
0FFC000FFF80007FE00001FFFFFFFFFE00001FFFFFFFFFF8000001FFFE000000
310
7FFFFFF0001FFFFFFC000FFFFFFFF8001FFC000FFFFFFFF8001FFF0003FFFFFF
310
FFF00001FFFFFFFFF000E00007FFFFFFFFFF8000FFC000001FFC000FFF80007F
310
C0000FFFFFFFFFFE0000FFFFFFFFFFF8000001FFFE0000007FFFFFF0001FFFFF
310
FC0007FFFFFFF0001FFC0007FFFFFFF0001FFF0003FFFFFFFFF00007FFFFFFFF
310
F000E0001FFFFFFFFFFF8000FFC000001FFC000FFF80007FC0003FFFFFFFFFFE
310
0001FFFFFFFFFFF8000001FFFE0000007FFFFFF0001FFFFFFC0007FFFFFFF000
310
1FFC0007FFFFFFF0001FFF0003FFFFFFFFF0001FFFFFFFFFF000E0003FFFFF00
310
03FF8001FFE000001FFC0007FF80007FC0007FFFFF0007FC0003FFFFF0003FF8
310
000001FFFE0000007FFFFFF0001FFFFFFC0003FFFFFFE0001FFC0003FFFFFFE0
310
001FFF0003FFFFFFFFF0003FFFFFFFFFF000E0003FFFFF0001FF8001FFE00000
310
1FFE0007FF80007FC0007FFFFE0003FC0007FFFFE0003FF8000001FFFE000000
310
7FFFFFF0001FFFFFFE0003FFFFFFE0003FFE0003FFFFFFE0003FFF0003FFFFFF
310
FFF0003FFFFF8001F000E0003FFFFF0001FF0001FFE000001FFE0007FF80007F
310
C0007FFFFE0003FC0007FFFFE0003FF8000001FFFE0000007FFFFFF0001FFFFF
310
FE0001FFFFFFC0003FFE0001FFFFFFC0003FFF0003FFFFFFFFF0003FFFFF0001
310
F000E0003FFFFF0003FF0001FFE000003FFE0007FF80007FC0007FFFFE0003FC
310
0007FFFFE0003FF8000001FFFE0000007FFFFFF0001FFFFFFF0001FFFFFFC000
310
7FFF0001FFFFFFC0007FFF0003FFFFFFFFF0003FFFFF0001F000E0003FFFFE00
310
03FF0003FFF000003FFE0003FF80007FC0007FFFFC0003FE0007FFFFE0003FF8
310
000001FFFE0000007FFFFFF0001FFFFFFF0000FFFFFF80007FFF0000FFFFFF80
310
007FFF0003FFFFFFFFF0003FFFFF0001F000E0003FFFFE0003FF0003FFF00000
310
3FFF0003FF80007FC0007FFFFC0007FE0007FFFFC0003FF8000001FFFE000000
310
7FFFFFF0001FFFFFFF80007FFFFF0000FFFF80007FFFFF0000FFFF0003FFFFFF
310
FFF0003FFFFF0003F000E0003FFFFC0003FE0003FFF000003FFF0003FF80007F
310
E0003FFFF80007FE0003FFFFC0007FF8000001FFFE0000007FFFFFF0001FFFFF
310
FF80003FFFFE0000FFFF80003FFFFE0000FFFF0003FFFFFFFFF0001FFFFE0003
310
F000F0001FFFF80003FE0003FFF000007FFF0001FF80007FE0003FFFF00007FE
310
0001FFFF80007FF8000001FFFE0000007FFFFFF0001FFFFFFFC0000FFFF80001
310
FFFFC0000FFFF80001FFFF0003FFFFFFFFF0001FFFFC0003F000F0000FFFF000
310
07FE0007FFF800007FFF0001FF80007FE0001FFFE00007FF0000FFFE00007FF8
310
000001FFFE0000007FFFFFF0001FFFFFFFC00003FFE00001FFFFC00003FFE000
310
01FFFF0003FFFFFFFFF8000FFFF80003F000F00003FFC00007FC0007FFF80000
310
7FFF8001FF80007FF00007FF80000FFF00007FF80000FFF8000001FFFE000000
310
7F80000000000001FFE000003E000003FFFFE000003E000003FFFF0003FFFFFF
310
FFF80003FFE00007F000F800000000000FFC0007FFF800007FFF8001FF80007F
310
F000000000000FFF000000000000FFF8000001FFFE0000007F80000000000001
310
FFF0000000000007FFFFF0000000000007FFFF0003FFFFFFFFFC00007E000007
310
F000F800000000000FFC0007FFF80000FFFF8000FF80007FF800000000001FFF
310
800000000001FFF8000001FFFE0000007F80000000000001FFF800000000000F
310
FFFFF800000000000FFFFF0003FFFFFFFFFC00000000000FF000FC0000000000
310
1FFC0007FFFC0000FFFF8000FF80007FF800000000003FFFC00000000001FFF8
310
000001FFFE0000007F80000000000001FFF800000000000FFFFFF80000000000
310
0FFFFF0003FFFFFFFFFE00000000001FF000FE00000000003FF8000FFFFC0000
310
FFFF8000FF80007FFC00000000003FFFC00000000003FFF8000001FFFE000000
310
7F80000000000001FFFC00000000001FFFFFFC00000000001FFFFF0003FFFFFF
310
FFFF00000000001FF000FF00000000003FF8000FFFFC0000FFFFC000FF80007F
310
FE00000000007FFFE00000000007FFF8000001FFFE0000007F80000000000001
310
FFFE00000000003FFFFFFE00000000003FFFFF0003FFFFFFFFFF80000000003F
310
F000FF80000000007FF8000FFFFC0001FFFFC0007F80007FFF0000000000FFFF
310
F0000000000FFFF800000000000000007F80000000000001FFFF8000000000FF
310
FFFFFF8000000000FFFFFF0003FFFFFFFFFFC0000000007FF000FFC000000000
310
FFF8000FFFFE0001FFFFC0007F80007FFF8000000001FFFFF8000000001FFFF8
310
00000000000000007F80000000000001FFFFC000000001FFFFFFFFC000000001
310
FFFFFF0003FFFFFFFFFFE000000000FFF000FFE000000003FFF0001FFFFE0001
310
FFFFC0007F80007FFFC000000007FFFFFE000000003FFFF80000000000000000
310
7F80000000000001FFFFE000000003FFFFFFFFE000000003FFFFFF0003FFFFFF
310
FFFFF000000003FFF000FFF80000000FFFF0001FFFFE0001FFFFE0007F80007F
310
FFF00000000FFFFFFF00000000FFFFF800000000000000007F80000000000001
310
FFFFF80000000FFFFFFFFFF80000000FFFFFFF0003FFFFFFFFFFFC0000000FFF
310
F000FFFE0000003FFFF0001FFFFE0003FFFFE0003F80007FFFFC0000003FFFFF
310
FFC0000003FFFFF800000000000000007F80000000000001FFFFFE0000003FFF
310
FFFFFFFE0000003FFFFFFF0003FFFFFFFFFFFF0000003FFFF000FFFF800000FF
310
FFF0001FFFFF0003FFFFE0003F80007FFFFF000001FFFFFFFFF800001FFFFFF8
310
00000000000000007F80000000000001FFFFFFC00001FFFFFFFFFFFFC00001FF
310
FFFFFF0003FFFFFFFFFFFFC00000FFFFF000FFFFF8000FFFFFFFFFFFFFFFFFFF
310
FFFFFFFFFFFFFFFFFFFFF0001FFFFFFFFFFF0000FFFFFFF80000000000000000
310
7FFFFFFFFFFFFFFFFFFFFFFC001FFFFFFFFFFFFFFC001FFFFFFFFFFFFFFFFFFF
310
FFFFFFFC001FFFFFF000FFFFFFFFFFFFFFFFFFFFFFFFFFFFFFFFFFFFFFFFFFFF
310
FFFFFFFFFFFFFFFFFFFFFFFFFFFFFFFFFFFFFFFFFFFFFFFFFFFFFFFFFFFFFFFF
310
FFFFFFFFFFFFFFFFFFFFFFFFFFFFFFFFFFFFFFFFFFFFFFFFFFFFFFFFFFFFFFFF
310
F000FFFFFFFFFFFFFFFFFFFFFFFFFFFFFFFFFFFFFFFFFFFFFFFFFFFFFFFFFFFF
310
FFFFFFFFFFFFFFFFFFFFFFFFFFFFFFFFFFFFFFFFFFFFFFFFFFFFFFFFFFFFFFFF
310
FFFFFFFFFFFFFFFFFFFFFFFFFFFFFFFFFFFFFFFFFFFFFFFFF000FFFFFFFFFFFF
310
FFFFFFFFFFFFFFFFFFFFFFFFFFFFFFFFFFFFFFFFFFFFFFFFFFFFFFFFFFFFFFFF
310
FFFFFFFFFFFFFFFFFFFFFFFFFFFFFFFFFFFFFFFFFFFFFFFFFFFFFFFFFFFFFFFF
310
FFFFFFFFFFFFFFFFFFFFFFFFFFFFFFFFF000FFFFFFFFFFFFFFFFFFFFFFFFFFFF
310
FFFFFFFFFFFFFFFFFFFFFFFFFFFFFFFFFFFFFFFFFFFFFFFFFFFFFFFFFFFFFFFF
310
FFFFFFFFFFFFFFFFFFFFFFFFFFFFFFFFFFFFFFFFFFFFFFFFFFFFFFFFFFFFFFFF
310
FFFFFFFFFFFFFFFFF000FFFFFFFFFFFFFFFFFFFFFFFFFFFFFFFFFFFFFFFFFFFF
310
FFFFFFFFFFFFFFFFFFFFFFFFFFFFFFFFFFFFFFFFFFFFFFFFFFFFFFFFFFFFFFFF
310
FFFFFFFFFFFFFFFFFFFFFFFFFFFFFFFFFFFFFFFFFFFFFFFFFFFFFFFFFFFFFFFF
310
F000FFFFFFFFFFFFFFFFFFFFFFFFFFFFFFFFFFFFFFFFFFFFFFFFFFFFFFFFFFFF
310
FFFFFFFFFFFFFFFFFFFFFFFFFFFFFFFFFFFFFFFFFFFFFFFFFFFFFFFFFFFFFFFF
310
FFFFFFFFFFFFFFFFFFFFFFFFFFFFFFFFFFFFFFFFFFFFFFFFF000FFFFFFFFFFFF
310
FFFFFFFFFFFFFFFFFFFFFFFFFFFFFFFFFFFFFFFFFFFFFFFFFFFFFFFFFFFFFFFF
310
FFFFFFFFFFFFFFFFFFFFFFFFFFFFFFFFFFFFFFFFFFFFFFFFFFFFFFFFFFFFFFFF
310
FFFFFFFFFFFFFFFFFFFFFFFFFFFFFFFFF000FFFFFFFFFFFFFFFFFFFFFFFFFFFF
310
FFFFFFFFFFFFFFFFFFFFFFFFFFFFFFFFFFFFFFFFFFFFFFFFFFFFFFFFFFFFFFFF
310
FFFFFFFFFFFFFFFFFFFFFFFFFFFFFFFFFFFFFFFFFFFFFFFFFFFFFFFFFFFFFFFF
310
FFFFFFFFFFFFFFFFF000FFFFFFFFFFFFFFFFFFFFFFFFFFFFFFFFFFFFFFFFFFFF
310
FFFFFFFFFFFFFFFFFFFFFFFFFFFFFFFFFFFFFFFFFFFFFFFFFFFFFFFFFFFFFFFF
310
FFFFFFFFFFFFFFFFFFFFFFFFFFFFFFFFFFFFFFFFFFFFFFFFFFFFFFFFFFFFFFFF
310
F000FFFFFFFFFFFFFFFFFFFFFFFFFFFFFFFFFFFFFFFFFFFFFFFFFFFFFFFFFFFF
310
FFFFFFFFFFFFFFFFFFFFFFFFFFFFFFFFFFFFFFFFFFFFFFFFFFFFFFFFFFFFFFFF
310
FFFFFFFFFFFFFFFFFFFFFFFFFFFFFFFFFFFFFFFFFFFFFFFFF000FFFFFFFFFFFF
310
FFFFFFFFFFFFFFFFFFFFFFFFFFFFFFFFFFFFFFFFFFFFFFFFFFFFFFFFFFFFFFFF
310
FFFFFFFFFFFFFFFFFFFFFFFFFFFFFFFFFFFFFFFFFFFFFFFFFFFFFFFFFFFFFFFF
310
FFFFFFFFFFFFFFFFFFFFFFFFFFFFFFFFF000FFFFFFFFFFFFFFFFFFFFFFFFFFFF
310
FFFFFFFFFFFFFFFFFFFFFFFFFFFFFFFFFFFFFFFFFFFFFFFFFFFFFFFFFFFFFFFF
310
FFFFFFFFFFFFFFFFFFFFFFFFFFFFFFFFFFFFFFFFFFFFFFFFFFFFFFFFFFFFFFFF
310
FFFFFFFFFFFFFFFFF000FFFFFFFFFFFFFFFFFFFFFFFFFFFFFFFFFFFFFFFFFFFF
310
FFFFFFFFFFFFFFFFFFFFFFFFFFFFFFFFFFFFFFFFFFFFFFFFFFFFFFFFFFFFFFFF
310
FFFFFFFFFFFFFFFFFFFFFFFFFFFFFFFFFFFFFFFFFFFFFFFFFFFFFFFFFFFFFFFF
310
F000FFFFFFFFFFFFFFFFFFFFFFFFFFFFFFFFFFFFFFFFFFFFFFFFFFFFFFFFFFFF
310
FFFFFFFFFFFFFFFFFFFFFFFFFFFFFFFFFFFFFFFFFFFFFFFFFFFFFFFFFFFFFFFF
310
FFFFFFFFFFFFFFFFFFFFFFFFFFFFFFFFFFFFFFFFFFFFFFFFF000FFFFFFFFFFFF
310
FFFFFFFFFFFFFFFFFFFFFFFFFFFFFFFFFFFFFFFFFFFFFFFFFFFFFFFFFFFFFFFF
310
FFFFFFFFFFFFFFFFFFFFFFFFFFFFFFFFFFFFFFFFFFFFFFFFFFFFFFFFFFFFFFFF
310
FFFFFFFFFFFFFFFFFFFFFFFFFFFFFFFFF000FFFFFFFFFFFFFFFFFFFFFFFFFFFF
310
FFFFFFFFFFFFFFFFFFFFFFFFFFFFFFFFFFFFFFFFFFFFFFFFFFFFFFFFFFFFFFFF
310
FFFFFFFFFFFFFFFFFFFFFFFFFFFFFFFFFFFFFFFFFFFFFFFFFFFFFFFFFFFFFFFF
310
FFFFFFFFFFFFFFFFF000FFFFFFFFFFFFFFFFFFFFFFFFFFFFFFFFFFFFFFFFFFFF
310
FFFFFFFFFFFFFFFFFFFFFFFFFFFFFFFFFFFFFFFFFFFFFFFFFFFFFFFFFFFFFFFF
310
FFFFFFFFFFFFFFFFFFFFFFFFFFFFFFFFFFFFFFFFFFFFFFFFFFFFFFFFFFFFFFFF
310
F000FFFFFFFFFFFFFFFFFFFFFFFFFFFFFFFFFFFFFFFFFFFFFFFFFFFFFFFFFFFF
310
FFFFFFFFFFFFFFFFFFFFFFFFFFFFFFFFFFFFFFFFFFFFFFFFFFFFFFFFFFFFFFFF
310
FFFFFFFFFFFFFFFFFFFFFFFFFFFFFFFFFFFFFFFFFFFFFFFFF000FFFFFFFFFFFF
310
FFFFFFFFFFFFFFFFFFFFFFFFFFFFFFFFFFFFFFFFFFFFFFFFFFFFFFFFFFFFFFFF
310
FFFFFFFFFFFFFFFFFFFFFFFFFFFFFFFFFFFFFFFFFFFFFFFFFFFFFFFFFFFFFFFF
310
FFFFFFFFFFFFFFFFFFFFFFFFFFFFFFFFF000FFFFFFFFFFFFFFFFFFFFFFFFFFFF
310
FFFFFFFFFFFFFFFFFFFFFFFFFFFFFFFFFFFFFFFFFFFFFFFFFFFFFFFFFFFFFFFF
310
FFFFFFFFFFFFFFFFFFFFFFFFFFFFFFFFFFFFFFFFFFFFFFFFFFFFFFFFFFFFFFFF
310
FFFFFFFFFFFFFFFFF000FFFFFFFFFFFFFFFFFFFFFFFFFFFFFFFFFFFFFFFFFFFF
310
FFFFFFFFFFFFFFFFFFFFFFFFFFFFFFFFFFFFFFFFFFFFFFFFFFFFFFFFFFFFFFFF
310
FFFFFFFFFFFFFFFFFFFFFFFFFFFFFFFFFFFFFFFFFFFFFFFFFFFFFFFFFFFFFFFF
310
F000FFFFFFFFFFFFFFFFFFFFFFFFFFFFFFFFFFFFFFFFFFFFFFFFFFFFFFFFFFFF
310
FFFFFFFFFFFFFFFFFFFFFFFFFFFFFFFFFFFFFFFFFFFFFFFFFFFFFFFFFFFFFFFF
310
FFFFFFFFFFFFFFFFFFFFFFFFFFFFFFFFFFFFFFFFFFFFFFFFF000FFFFFFFFFFFF
310
FFFFFFFFFFFFFFFFFFFFFFFFFFFFFFFFFFFFFFFFFFFFFFFFFFFFFFFFFFFFFFFF
310
FFFFFFFFFFFFFFFFFFFFFFFFFFFFFFFFFFFFFFFFFFFFFFFFFFFFFFFFFFFFFFFF
310
FFFFFFFFFFFFFFFFFFFFFFFFFFFFFFFFF0000000000000000000000000000000
310
0000000000000000000000000000000000000000000000000000000000000000
310
0000000000000000000000000000000000000000000000000000000000000000
310
0000000000000000000000000000000000000000000000000000000000000000
310
0000000000000000000000000000000000000000000000000000000000000000
310
0000000000000000000000000000000000000000000000000000000000000000
310
0000000000000000000000000000000000000000000000000000000000000000
310
0000000000000000000000000000000000000000000000000000000000000000
310
0000000000000000000000000000000000000000000000000000000000000000
310
0000000000000000000000000000000000000000000000000000000000000000
310
0000000000000000000000000000000000000000000000000000000000000000
310
0000000000000000000000000000000000000000000000000000000000000000
310
0000000000000000000000000000000000000000000000000000000000000000
310
0000000000000000000000000000000000000000000000000000000000000000
310
0000000000000000000000000000000000000000000000000000000000000000
310
0000000000000000000000000000000000000000000000000000000000000000
  1
OLE
  0
ENDSEC
  0
SECTION
  2
OBJECTS
  0
DICTIONARY
  5
C
330
0
100
AcDbDictionary
281
     1
  3
ACAD_GROUP
350
D
  3
ACAD_LAYOUT
350
1A
  3
ACAD_MLINESTYLE
350
17
  3
ACAD_PLOTSETTINGS
350
19
  3
ACAD_PLOTSTYLENAME
350
E
  3
ACAD_SCALELIST
350
47
  0
DICTIONARY
  5
D
102
{ACAD_REACTORS
330
C
102
}
330
C
100
AcDbDictionary
281
     1
  0
DICTIONARY
  5
1A
102
{ACAD_REACTORS
330
C
102
}
330
C
100
AcDbDictionary
281
     1
  3
Layout1
350
1E
  3
Layout2
350
26
  3
Model
350
22
  0
DICTIONARY
  5
17
102
{ACAD_REACTORS
330
C
102
}
330
C
100
AcDbDictionary
281
     1
  3
Standard
350
18
  0
DICTIONARY
  5
19
102
{ACAD_REACTORS
330
C
102
}
330
C
100
AcDbDictionary
281
     1
  0
ACDBDICTIONARYWDFLT
  5
E
102
{ACAD_REACTORS
330
C
102
}
330
C
100
AcDbDictionary
281
     1
  3
Normal
350
F
100
AcDbDictionaryWithDefault
340
F
  0
DICTIONARY
  5
47
102
{ACAD_REACTORS
330
C
102
}
330
C
100
AcDbDictionary
281
     1
  3
A0
350
48
  3
A1
350
49
  3
A2
350
4A
  3
A3
350
4B
  3
A4
350
4C
  3
A5
350
4D
  3
A6
350
4E
  3
A7
350
4F
  3
A8
350
50
  3
A9
350
51
  3
B0
350
52
  3
B1
350
53
  3
B2
350
54
  3
B3
350
55
  3
B4
350
56
  3
B5
350
57
  3
B6
350
58
  3
B7
350
59
  3
B8
350
5A
  3
B9
350
5B
  3
C0
350
5C
  3
C1
350
5D
  3
C2
350
5E
  3
C3
350
5F
  3
C4
350
60
  3
C5
350
61
  3
C6
350
62
  3
C7
350
63
  3
C8
350
64
  3
C9
350
65
  3
D0
350
66
  3
D1
350
67
  3
D2
350
68
  0
LAYOUT
  5
1E
102
{ACAD_REACTORS
330
1A
102
}
330
1A
100
AcDbPlotSettings
  1

  2
none_device
  4

  6

 40
0.0
 41
0.0
 42
0.0
 43
0.0
 44
0.0
 45
0.0
 46
0.0
 47
0.0
 48
0.0
 49
0.0
140
0.0
141
0.0
142
1.0
143
1.0
 70
   688
 72
     1
 73
     0
 74
     5
  7

 75
    16
147
1.0
148
0.0
149
0.0
100
AcDbLayout
  1
Layout1
 70
     1
 71
     1
 10
0.0
 20
0.0
 11
420.0
 21
297.0
 12
0.0
 22
0.0
 32
0.0
 14
1.0000000000E+20
 24
1.0000000000E+20
 34
1.0000000000E+20
 15
-1.0000000000E+20
 25
-1.0000000000E+20
 35
-1.0000000000E+20
146
0.0
 13
0.0
 23
0.0
 33
0.0
 16
1.0
 26
0.0
 36
0.0
 17
0.0
 27
1.0
 37
0.0
 76
     0
330
1B
  0
LAYOUT
  5
26
102
{ACAD_REACTORS
330
1A
102
}
330
1A
100
AcDbPlotSettings
  1

  2
none_device
  4

  6

 40
0.0
 41
0.0
 42
0.0
 43
0.0
 44
0.0
 45
0.0
 46
0.0
 47
0.0
 48
0.0
 49
0.0
140
0.0
141
0.0
142
1.0
143
1.0
 70
   688
 72
     1
 73
     0
 74
     5
  7

 75
    16
147
1.0
148
0.0
149
0.0
100
AcDbLayout
  1
Layout2
 70
     1
 71
     2
 10
0.0
 20
0.0
 11
0.0
 21
0.0
 12
0.0
 22
0.0
 32
0.0
 14
0.0
 24
0.0
 34
0.0
 15
0.0
 25
0.0
 35
0.0
146
0.0
 13
0.0
 23
0.0
 33
0.0
 16
1.0
 26
0.0
 36
0.0
 17
0.0
 27
1.0
 37
0.0
 76
     0
330
23
  0
LAYOUT
  5
22
102
{ACAD_REACTORS
330
1A
102
}
330
1A
100
AcDbPlotSettings
  1

  2
none_device
  4
Letter_(8.50_x_11.00_Inches)
  6

 40
6.35
 41
6.35
 42
6.35000508
 43
6.35000508
 44
215.9
 45
279.4
 46
0.0
 47
0.0
 48
0.0
 49
0.0
140
0.0
141
0.0
142
1.0
143
1.0
 70
  1712
 72
     1
 73
     0
 74
     0
  7

 75
     0
147
1.0
148
0.0
149
0.0
100
AcDbLayout
  1
Model
 70
     1
 71
     0
 10
0.0
 20
0.0
 11
297.0
 21
210.0
 12
0.0
 22
0.0
 32
0.0
 14
0.0
 24
0.0
 34
0.0
 15
297.0
 25
210.0
 35
0.0
146
0.0
 13
0.0
 23
0.0
 33
0.0
 16
1.0
 26
0.0
 36
0.0
 17
0.0
 27
1.0
 37
0.0
 76
     0
330
1F
331
29
  0
MLINESTYLE
  5
18
102
{ACAD_REACTORS
330
17
102
}
330
17
100
AcDbMlineStyle
  2
Standard
 70
     0
  3

 62
   256
 51
90.0
 52
90.0
 71
     2
 49
0.5
 62
   256
  6
BYLAYER
 49
-0.5
 62
   256
  6
BYLAYER
  0
ACDBPLACEHOLDER
  5
F
102
{ACAD_REACTORS
330
E
102
}
330
E
  0
SCALE
  5
48
102
{ACAD_REACTORS
330
47
102
}
330
47
100
AcDbScale
 70
     0
300
1:1
140
1.0
141
1.0
290
     1
  0
SCALE
  5
49
102
{ACAD_REACTORS
330
47
102
}
330
47
100
AcDbScale
 70
     0
300
1:2
140
1.0
141
2.0
290
     0
  0
SCALE
  5
4A
102
{ACAD_REACTORS
330
47
102
}
330
47
100
AcDbScale
 70
     0
300
1:4
140
1.0
141
4.0
290
     0
  0
SCALE
  5
4B
102
{ACAD_REACTORS
330
47
102
}
330
47
100
AcDbScale
 70
     0
300
1:5
140
1.0
141
5.0
290
     0
  0
SCALE
  5
4C
102
{ACAD_REACTORS
330
47
102
}
330
47
100
AcDbScale
 70
     0
300
1:8
140
1.0
141
8.0
290
     0
  0
SCALE
  5
4D
102
{ACAD_REACTORS
330
47
102
}
330
47
100
AcDbScale
 70
     0
300
1:10
140
1.0
141
10.0
290
     0
  0
SCALE
  5
4E
102
{ACAD_REACTORS
330
47
102
}
330
47
100
AcDbScale
 70
     0
300
1:16
140
1.0
141
16.0
290
     0
  0
SCALE
  5
4F
102
{ACAD_REACTORS
330
47
102
}
330
47
100
AcDbScale
 70
     0
300
1:20
140
1.0
141
20.0
290
     0
  0
SCALE
  5
50
102
{ACAD_REACTORS
330
47
102
}
330
47
100
AcDbScale
 70
     0
300
1:30
140
1.0
141
30.0
290
     0
  0
SCALE
  5
51
102
{ACAD_REACTORS
330
47
102
}
330
47
100
AcDbScale
 70
     0
300
1:40
140
1.0
141
40.0
290
     0
  0
SCALE
  5
52
102
{ACAD_REACTORS
330
47
102
}
330
47
100
AcDbScale
 70
     0
300
1:50
140
1.0
141
50.0
290
     0
  0
SCALE
  5
53
102
{ACAD_REACTORS
330
47
102
}
330
47
100
AcDbScale
 70
     0
300
1:100
140
1.0
141
100.0
290
     0
  0
SCALE
  5
54
102
{ACAD_REACTORS
330
47
102
}
330
47
100
AcDbScale
 70
     0
300
2:1
140
2.0
141
1.0
290
     0
  0
SCALE
  5
55
102
{ACAD_REACTORS
330
47
102
}
330
47
100
AcDbScale
 70
     0
300
4:1
140
4.0
141
1.0
290
     0
  0
SCALE
  5
56
102
{ACAD_REACTORS
330
47
102
}
330
47
100
AcDbScale
 70
     0
300
8:1
140
8.0
141
1.0
290
     0
  0
SCALE
  5
57
102
{ACAD_REACTORS
330
47
102
}
330
47
100
AcDbScale
 70
     0
300
10:1
140
10.0
141
1.0
290
     0
  0
SCALE
  5
58
102
{ACAD_REACTORS
330
47
102
}
330
47
100
AcDbScale
 70
     0
300
100:1
140
100.0
141
1.0
290
     0
  0
SCALE
  5
59
102
{ACAD_REACTORS
330
47
102
}
330
47
100
AcDbScale
 70
     0
300
1/128" = 1'-0"
140
0.0078125
141
12.0
290
     0
  0
SCALE
  5
5A
102
{ACAD_REACTORS
330
47
102
}
330
47
100
AcDbScale
 70
     0
300
1/64" = 1'-0"
140
0.015625
141
12.0
290
     0
  0
SCALE
  5
5B
102
{ACAD_REACTORS
330
47
102
}
330
47
100
AcDbScale
 70
     0
300
1/32" = 1'-0"
140
0.03125
141
12.0
290
     0
  0
SCALE
  5
5C
102
{ACAD_REACTORS
330
47
102
}
330
47
100
AcDbScale
 70
     0
300
1/16" = 1'-0"
140
0.0625
141
12.0
290
     0
  0
SCALE
  5
5D
102
{ACAD_REACTORS
330
47
102
}
330
47
100
AcDbScale
 70
     0
300
3/32" = 1'-0"
140
0.09375
141
12.0
290
     0
  0
SCALE
  5
5E
102
{ACAD_REACTORS
330
47
102
}
330
47
100
AcDbScale
 70
     0
300
1/8" = 1'-0"
140
0.125
141
12.0
290
     0
  0
SCALE
  5
5F
102
{ACAD_REACTORS
330
47
102
}
330
47
100
AcDbScale
 70
     0
300
3/16" = 1'-0"
140
0.1875
141
12.0
290
     0
  0
SCALE
  5
60
102
{ACAD_REACTORS
330
47
102
}
330
47
100
AcDbScale
 70
     0
300
1/4" = 1'-0"
140
0.25
141
12.0
290
     0
  0
SCALE
  5
61
102
{ACAD_REACTORS
330
47
102
}
330
47
100
AcDbScale
 70
     0
300
3/8" = 1'-0"
140
0.375
141
12.0
290
     0
  0
SCALE
  5
62
102
{ACAD_REACTORS
330
47
102
}
330
47
100
AcDbScale
 70
     0
300
1/2" = 1'-0"
140
0.5
141
12.0
290
     0
  0
SCALE
  5
63
102
{ACAD_REACTORS
330
47
102
}
330
47
100
AcDbScale
 70
     0
300
3/4" = 1'-0"
140
0.75
141
12.0
290
     0
  0
SCALE
  5
64
102
{ACAD_REACTORS
330
47
102
}
330
47
100
AcDbScale
 70
     0
300
1" = 1'-0"
140
1.0
141
12.0
290
     0
  0
SCALE
  5
65
102
{ACAD_REACTORS
330
47
102
}
330
47
100
AcDbScale
 70
     0
300
1-1/2" = 1'-0"
140
1.5
141
12.0
290
     0
  0
SCALE
  5
66
102
{ACAD_REACTORS
330
47
102
}
330
47
100
AcDbScale
 70
     0
300
3" = 1'-0"
140
3.0
141
12.0
290
     0
  0
SCALE
  5
67
102
{ACAD_REACTORS
330
47
102
}
330
47
100
AcDbScale
 70
     0
300
6" = 1'-0"
140
6.0
141
12.0
290
     0
  0
SCALE
  5
68
102
{ACAD_REACTORS
330
47
102
}
330
47
100
AcDbScale
 70
     0
300
1'-0" = 1'-0"
140
12.0
141
12.0
290
     0
  0
ENDSEC
  0
EOF
